  0
SECTION
  2
HEADER
  9
$ACADVER
  1
AC1021
  9
$ACADMAINTVER
 70
    25
  9
$DWGCODEPAGE
  3
ANSI_932
  9
$LASTSAVEDBY
  1
howeNelson
  9
$INSBASE
 10
0.0
 20
0.0
 30
0.0
  9
$EXTMIN
 10
0.0
 20
0.0
 30
0.0
  9
$EXTMAX
 10
1050.0
 20
1485.0
 30
0.0000000000000142
  9
$LIMMIN
 10
0.0
 20
0.0
  9
$LIMMAX
 10
1050.0
 20
1485.0
  9
$ORTHOMODE
 70
     0
  9
$REGENMODE
 70
     1
  9
$FILLMODE
 70
     1
  9
$QTEXTMODE
 70
     0
  9
$MIRRTEXT
 70
     1
  9
$LTSCALE
 40
50.0
  9
$ATTMODE
 70
     1
  9
$TEXTSIZE
 40
2.5
  9
$TRACEWID
 40
1.0
  9
$TEXTSTYLE
  7
ＭＳ ゴシック
  9
$CLAYER
  8
DIM
  9
$CELTYPE
  6
ByLayer
  9
$CECOLOR
 62
   256
  9
$CELTSCALE
 40
0.05
  9
$DISPSILH
 70
     0
  9
$DIMSCALE
 40
1.0
  9
$DIMASZ
 40
3.0
  9
$DIMEXO
 40
5.0
  9
$DIMDLI
 40
0.9999999999999999
  9
$DIMRND
 40
0.0
  9
$DIMDLE
 40
0.0
  9
$DIMEXE
 40
0.0
  9
$DIMTP
 40
0.0
  9
$DIMTM
 40
0.0
  9
$DIMTXT
 40
12.0
  9
$DIMCEN
 40
0.0
  9
$DIMTSZ
 40
0.0
  9
$DIMTOL
 70
     0
  9
$DIMLIM
 70
     0
  9
$DIMTIH
 70
     0
  9
$DIMTOH
 70
     0
  9
$DIMSE1
 70
     0
  9
$DIMSE2
 70
     0
  9
$DIMTAD
 70
     1
  9
$DIMZIN
 70
    11
  9
$DIMBLK
  1
DOT
  9
$DIMASO
 70
     1
  9
$DIMSHO
 70
     1
  9
$DIMPOST
  1
<>
  9
$DIMAPOST
  1
[]
  9
$DIMALT
 70
     0
  9
$DIMALTD
 70
     1
  9
$DIMALTF
 40
1.0
  9
$DIMLFAC
 40
1.0
  9
$DIMTOFL
 70
     0
  9
$DIMTVP
 40
0.0
  9
$DIMTIX
 70
     1
  9
$DIMSOXD
 70
     0
  9
$DIMSAH
 70
     0
  9
$DIMBLK1
  1

  9
$DIMBLK2
  1

  9
$DIMSTYLE
  2
tfrom線あり
  9
$DIMCLRD
 70
     0
  9
$DIMCLRE
 70
     0
  9
$DIMCLRT
 70
     0
  9
$DIMTFAC
 40
1.0
  9
$DIMGAP
 40
10.0
  9
$DIMJUST
 70
     0
  9
$DIMSD1
 70
     0
  9
$DIMSD2
 70
     0
  9
$DIMTOLJ
 70
     1
  9
$DIMTZIN
 70
    11
  9
$DIMALTZ
 70
    11
  9
$DIMALTTZ
 70
    11
  9
$DIMUPT
 70
     0
  9
$DIMDEC
 70
     0
  9
$DIMTDEC
 70
     1
  9
$DIMALTU
 70
     2
  9
$DIMALTTD
 70
     2
  9
$DIMTXSTY
  7
ＭＳ ゴシック
  9
$DIMAUNIT
 70
     0
  9
$DIMADEC
 70
     2
  9
$DIMALTRND
 40
0.0
  9
$DIMAZIN
 70
     0
  9
$DIMDSEP
 70
    46
  9
$DIMATFIT
 70
     0
  9
$DIMFRAC
 70
     2
  9
$DIMLDRBLK
  1
DOT
  9
$DIMLUNIT
 70
     2
  9
$DIMLWD
 70
    -2
  9
$DIMLWE
 70
    -2
  9
$DIMTMOVE
 70
     0
  9
$DIMFXL
 40
1.0
  9
$DIMFXLON
 70
     0
  9
$DIMJOGANG
 40
0.7853981633974483
  9
$DIMTFILL
 70
     0
  9
$DIMTFILLCLR
 70
     0
  9
$DIMARCSYM
 70
     0
  9
$DIMLTYPE
  6

  9
$DIMLTEX1
  6

  9
$DIMLTEX2
  6

  9
$LUNITS
 70
     2
  9
$LUPREC
 70
     0
  9
$SKETCHINC
 40
0.1
  9
$FILLETRAD
 40
0.0
  9
$AUNITS
 70
     0
  9
$AUPREC
 70
     0
  9
$MENU
  1
acad
  9
$ELEVATION
 40
0.0
  9
$PELEVATION
 40
0.0
  9
$THICKNESS
 40
0.0
  9
$LIMCHECK
 70
     0
  9
$CHAMFERA
 40
0.0
  9
$CHAMFERB
 40
0.0
  9
$CHAMFERC
 40
0.0
  9
$CHAMFERD
 40
0.0
  9
$SKPOLY
 70
     0
  9
$TDCREATE
 40
2447893.375
  9
$TDUCREATE
 40
0.0
  9
$TDUPDATE
 40
2457569.671473634
  9
$TDUUPDATE
 40
2457569.296473634
  9
$TDINDWG
 40
0.1671079745
  9
$TDUSRTIMER
 40
2457569.295633484
  9
$USRTIMER
 70
     1
  9
$ANGBASE
 50
0.0
  9
$ANGDIR
 70
     0
  9
$PDMODE
 70
     1
  9
$PDSIZE
 40
-2.0
  9
$PLINEWID
 40
0.0
  9
$SPLFRAME
 70
     0
  9
$SPLINETYPE
 70
     6
  9
$SPLINESEGS
 70
     8
  9
$HANDSEED
  5
15C4
  9
$SURFTAB1
 70
     6
  9
$SURFTAB2
 70
     6
  9
$SURFTYPE
 70
     6
  9
$SURFU
 70
     6
  9
$SURFV
 70
     6
  9
$UCSBASE
  2

  9
$UCSNAME
  2

  9
$UCSORG
 10
0.0
 20
0.0
 30
0.0
  9
$UCSXDIR
 10
1.0
 20
0.0
 30
0.0
  9
$UCSYDIR
 10
0.0
 20
1.0
 30
0.0
  9
$UCSORTHOREF
  2

  9
$UCSORTHOVIEW
 70
     0
  9
$UCSORGTOP
 10
0.0
 20
0.0
 30
0.0
  9
$UCSORGBOTTOM
 10
0.0
 20
0.0
 30
0.0
  9
$UCSORGLEFT
 10
0.0
 20
0.0
 30
0.0
  9
$UCSORGRIGHT
 10
0.0
 20
0.0
 30
0.0
  9
$UCSORGFRONT
 10
0.0
 20
0.0
 30
0.0
  9
$UCSORGBACK
 10
0.0
 20
0.0
 30
0.0
  9
$PUCSBASE
  2

  9
$PUCSNAME
  2

  9
$PUCSORG
 10
0.0
 20
0.0
 30
0.0
  9
$PUCSXDIR
 10
1.0
 20
0.0
 30
0.0
  9
$PUCSYDIR
 10
0.0
 20
1.0
 30
0.0
  9
$PUCSORTHOREF
  2

  9
$PUCSORTHOVIEW
 70
     0
  9
$PUCSORGTOP
 10
0.0
 20
0.0
 30
0.0
  9
$PUCSORGBOTTOM
 10
0.0
 20
0.0
 30
0.0
  9
$PUCSORGLEFT
 10
0.0
 20
0.0
 30
0.0
  9
$PUCSORGRIGHT
 10
0.0
 20
0.0
 30
0.0
  9
$PUCSORGFRONT
 10
0.0
 20
0.0
 30
0.0
  9
$PUCSORGBACK
 10
0.0
 20
0.0
 30
0.0
  9
$USERI1
 70
     0
  9
$USERI2
 70
     0
  9
$USERI3
 70
     0
  9
$USERI4
 70
     0
  9
$USERI5
 70
     0
  9
$USERR1
 40
0.0
  9
$USERR2
 40
0.0
  9
$USERR3
 40
0.0
  9
$USERR4
 40
0.0
  9
$USERR5
 40
0.0
  9
$WORLDVIEW
 70
     1
  9
$SHADEDGE
 70
     3
  9
$SHADEDIF
 70
    70
  9
$TILEMODE
 70
     1
  9
$MAXACTVP
 70
    64
  9
$PINSBASE
 10
0.0
 20
0.0
 30
0.0
  9
$PLIMCHECK
 70
     0
  9
$PEXTMIN
 10
0.0
 20
0.0
 30
0.0
  9
$PEXTMAX
 10
0.0
 20
0.0
 30
0.0
  9
$PLIMMIN
 10
-95.87226993865028
 20
-25.69999999999999
  9
$PLIMMAX
 10
201.1277300613497
 20
184.3
  9
$UNITMODE
 70
     0
  9
$VISRETAIN
 70
     0
  9
$PLINEGEN
 70
     1
  9
$PSLTSCALE
 70
     0
  9
$TREEDEPTH
 70
  3020
  9
$CMLSTYLE
  2
Standard
  9
$CMLJUST
 70
     0
  9
$CMLSCALE
 40
1.0
  9
$PROXYGRAPHICS
 70
     0
  9
$MEASUREMENT
 70
     1
  9
$CELWEIGHT
370
    -1
  9
$ENDCAPS
280
     0
  9
$JOINSTYLE
280
     0
  9
$LWDISPLAY
290
     1
  9
$INSUNITS
 70
     4
  9
$HYPERLINKBASE
  1

  9
$STYLESHEET
  1

  9
$XEDIT
290
     1
  9
$CEPSNTYPE
380
     0
  9
$PSTYLEMODE
290
     1
  9
$FINGERPRINTGUID
  2

  9
$VERSIONGUID
  2

  9
$EXTNAMES
290
     1
  9
$PSVPSCALE
 40
0.0
  9
$OLESTARTUP
290
     0
  9
$SORTENTS
280
   127
  9
$INDEXCTL
280
     0
  9
$HIDETEXT
280
     1
  9
$XCLIPFRAME
290
     0
  9
$HALOGAP
280
     0
  9
$OBSCOLOR
 70
   257
  9
$OBSLTYPE
280
     0
  9
$INTERSECTIONDISPLAY
280
     0
  9
$INTERSECTIONCOLOR
 70
   257
  9
$DIMASSOC
280
     2
  9
$PROJECTNAME
  1

  9
$CAMERADISPLAY
290
     0
  9
$LENSLENGTH
 40
50.0
  9
$CAMERAHEIGHT
 40
0.0
  9
$STEPSPERSEC
 40
2.0
  9
$STEPSIZE
 40
6.0
  9
$3DDWFPREC
 40
2.0
  9
$PSOLWIDTH
 40
0.25
  9
$PSOLHEIGHT
 40
4.0
  9
$LOFTANG1
 40
1.570796326794897
  9
$LOFTANG2
 40
1.570796326794897
  9
$LOFTMAG1
 40
0.0
  9
$LOFTMAG2
 40
0.0
  9
$LOFTPARAM
 70
     7
  9
$LOFTNORMALS
280
     1
  9
$LATITUDE
 40
37.795
  9
$LONGITUDE
 40
-122.394
  9
$NORTHDIRECTION
 40
0.0
  9
$TIMEZONE
 70
 -8000
  9
$LIGHTGLYPHDISPLAY
280
     1
  9
$TILEMODELIGHTSYNCH
280
     1
  9
$SOLIDHIST
280
     1
  9
$SHOWHIST
280
     1
  9
$DWFFRAME
280
     2
  9
$DGNFRAME
280
     2
  9
$REALWORLDSCALE
290
     1
  9
$INTERFERECOLOR
 62
   256
  9
$CSHADOW
280
     0
  9
$SHADOWPLANELOCATION
 40
0.0
  0
ENDSEC
  0
SECTION
  2
CLASSES
  0
CLASS
  1
LWPOLYLINE
  2
AcDbPolyline
  3
ObjectDBX Classes
 90
        0
 91
        1
280
     0
281
     1
  0
CLASS
  1
IMAGE
  2
AcDbRasterImage
  3
ISM
 90
      127
 91
        9
280
     0
281
     1
  0
CLASS
  1
OLE2FRAME
  2
AcDbOle2Frame
  3
ObjectDBX Classes
 90
        0
 91
        1
280
     0
281
     1
  0
CLASS
  1
HATCH
  2
AcDbHatch
  3
ObjectDBX Classes
 90
        0
 91
        1
280
     0
281
     1
  0
CLASS
  1
DICTIONARYVAR
  2
AcDbDictionaryVar
  3
ObjectDBX Classes
 90
        0
 91
        8
280
     0
281
     0
  0
CLASS
  1
RASTERVARIABLES
  2
AcDbRasterVariables
  3
ISM
 90
        0
 91
        8
280
     0
281
     0
  0
CLASS
  1
IMAGEDEF
  2
AcDbRasterImageDef
  3
ISM
 90
        0
 91
        8
280
     0
281
     0
  0
CLASS
  1
IMAGEDEF_REACTOR
  2
AcDbRasterImageDefReactor
  3
ISM
 90
        1
 91
        8
280
     0
281
     0
  0
CLASS
  1
IDBUFFER
  2
AcDbIdBuffer
  3
ObjectDBX Classes
 90
        0
 91
        8
280
     0
281
     0
  0
CLASS
  1
SPATIAL_FILTER
  2
AcDbSpatialFilter
  3
ObjectDBX Classes
 90
        0
 91
        8
280
     0
281
     0
  0
CLASS
  1
XRECORD
  2
AcDbXrecord
  3
ObjectDBX Classes
 90
        0
 91
        1
280
     0
281
     0
  0
CLASS
  1
SORTENTSTABLE
  2
AcDbSortentsTable
  3
ObjectDBX Classes
 90
        0
 91
        8
280
     0
281
     0
  0
CLASS
  1
LAYER_INDEX
  2
AcDbLayerIndex
  3
ObjectDBX Classes
 90
        0
 91
        8
280
     0
281
     0
  0
CLASS
  1
SPATIAL_INDEX
  2
AcDbSpatialIndex
  3
AutoCAD 2000
 90
        0
 91
        8
280
     0
281
     0
  0
CLASS
  1
OBJECT_PTR
  2
CAseDLPNTableRecord
  3
ASE-LPNTableRecord
 90
        1
 91
        8
280
     0
281
     0
  0
CLASS
  1
LAYOUT
  2
AcDbLayout
  3
ObjectDBX Classes
 90
        0
 91
        1
280
     0
281
     0
  0
CLASS
  1
PLOTSETTINGS
  2
AcDbPlotSettings
  3
ObjectDBX Classes
 90
        0
 91
        8
280
     0
281
     0
  0
CLASS
  1
ACDBDICTIONARYWDFLT
  2
AcDbDictionaryWithDefault
  3
ObjectDBX Classes
 90
        0
 91
        8
280
     0
281
     0
  0
CLASS
  1
ACDBPLACEHOLDER
  2
AcDbPlaceHolder
  3
ObjectDBX Classes
 90
        0
 91
        1
280
     0
281
     0
  0
CLASS
  1
SCALE
  2
AcDbScale
  3
ObjectDBX Classes
 90
     1153
 91
        8
280
     0
281
     0
  0
CLASS
  1
MATERIAL
  2
AcDbMaterial
  3
ObjectDBX Classes
 90
     1153
 91
        8
280
     0
281
     0
  0
CLASS
  1
VISUALSTYLE
  2
AcDbVisualStyle
  3
ObjectDBX Classes
 90
     4095
 91
        8
280
     0
281
     0
  0
CLASS
  1
TABLESTYLE
  2
AcDbTableStyle
  3
ObjectDBX Classes
 90
     4095
 91
        8
280
     0
281
     0
  0
CLASS
  1
DIMASSOC
  2
AcDbDimAssoc
  3
"AcDbDimAssoc|Product Desc:     AcDim ARX App For Dimension|Company:          Autodesk, Inc.|WEB Address:      www.autodesk.com"
 90
        0
 91
        8
280
     0
281
     0
  0
CLASS
  1
CELLSTYLEMAP
  2
AcDbCellStyleMap
  3
ObjectDBX Classes
 90
     1152
 91
        8
280
     0
281
     0
  0
CLASS
  1
SUN
  2
AcDbSun
  3
SCENEOE
 90
     1153
 91
        8
280
     0
281
     0
  0
CLASS
  1
MLEADERSTYLE
  2
AcDbMLeaderStyle
  3
ACDB_MLEADERSTYLE_CLASS
 90
     4095
 91
        8
280
     0
281
     0
  0
CLASS
  1
FIELD
  2
AcDbField
  3
ObjectDBX Classes
 90
     1152
 91
        8
280
     0
281
     0
  0
CLASS
  1
FIELDLIST
  2
AcDbFieldList
  3
ObjectDBX Classes
 90
     1152
 91
        8
280
     0
281
     0
  0
ENDSEC
  0
SECTION
  2
TABLES
  0
TABLE
  2
VPORT
  5
7
330
0
100
AcDbSymbolTable
 70
     1
  0
VPORT
  5
15
330
7
100
AcDbSymbolTableRecord
100
AcDbViewportTableRecord
  2
*ACTIVE
 70
     0
 10
0.0
 20
0.0
 11
1.0
 21
1.0
 12
616.0201356709015
 22
668.901285469834
 13
0.0
 23
0.0
 14
1.0
 24
1.0
 15
0.0
 25
0.0
 16
0.0
 26
0.0
 36
1.0
 17
-91.02013567090148
 27
73.59871453016603
 37
-46.86809886248109
 40
1514.7
 41
2.410404624277457
 42
50.0
 43
0.0
 44
0.0
 50
0.0
 51
0.0
 71
    16
 72
  2000
 73
     1
 74
     1
 75
     0
 76
     0
 77
     0
 78
     0
281
     0
 65
     1
110
0.0
120
0.0
130
0.0
111
1.0
121
0.0
131
0.0
112
0.0
122
1.0
132
0.0
 79
     0
146
0.0
348
26C
 60
     3
 61
     5
292
     1
282
     1
141
0.0
142
0.0
 63
   256
361
904
  0
ENDTAB
  0
TABLE
  2
LTYPE
  5
4
330
0
100
AcDbSymbolTable
 70
    21
  0
LTYPE
  5
11
330
4
100
AcDbSymbolTableRecord
100
AcDbLinetypeTableRecord
  2
ByBlock
 70
     0
  3

 72
    65
 73
     0
 40
0.0
  0
LTYPE
  5
12
330
4
100
AcDbSymbolTableRecord
100
AcDbLinetypeTableRecord
  2
ByLayer
 70
     0
  3

 72
    65
 73
     0
 40
0.0
  0
LTYPE
  5
13
330
4
100
AcDbSymbolTableRecord
100
AcDbLinetypeTableRecord
  2
Continuous
 70
     0
  3
Solid line
 72
    65
 73
     0
 40
0.0
  0
LTYPE
  5
3A
330
4
100
AcDbSymbolTableRecord
100
AcDbLinetypeTableRecord
  2
STYLE_01
 70
     0
  3

 72
    65
 73
     2
 40
0.2460629921259842
 49
0.1230314960629921
 74
     0
 49
-0.1230314960629921
 74
     0
  0
LTYPE
  5
3B
330
4
100
AcDbSymbolTableRecord
100
AcDbLinetypeTableRecord
  2
STYLE_02
 70
     0
  3

 72
    65
 73
     2
 40
0.6944250000000001
 49
0.48607
 74
     0
 49
-0.2083550000000001
 74
     0
  0
LTYPE
  5
3C
330
4
100
AcDbSymbolTableRecord
100
AcDbLinetypeTableRecord
  2
STYLE_03
 70
     0
  3

 72
    65
 73
     2
 40
1.25
 49
1.04164
 74
     0
 49
-0.2083599999999999
 74
     0
  0
LTYPE
  5
3D
330
4
100
AcDbSymbolTableRecord
100
AcDbLinetypeTableRecord
  2
STYLE_04
 70
     0
  3

 72
    65
 73
     2
 40
1.52771
 49
1.319425
 74
     0
 49
-0.208285
 74
     0
  0
LTYPE
  5
3E
330
4
100
AcDbSymbolTableRecord
100
AcDbLinetypeTableRecord
  2
STYLE_05
 70
     0
  3

 72
    65
 73
     2
 40
0.20828
 49
0.069425
 74
     0
 49
-0.138855
 74
     0
  0
LTYPE
  5
3F
330
4
100
AcDbSymbolTableRecord
100
AcDbLinetypeTableRecord
  2
STYLE_06
 70
     0
  3

 72
    65
 73
     4
 40
1.04164
 49
0.625
 74
     0
 49
-0.20828
 74
     0
 49
0.06943
 74
     0
 49
-0.13893
 74
     0
  0
LTYPE
  5
40
330
4
100
AcDbSymbolTableRecord
100
AcDbLinetypeTableRecord
  2
STYLE_07
 70
     0
  3

 72
    65
 73
     6
 40
1.875
 49
0.625
 74
     0
 49
-0.20828
 74
     0
 49
0.6250000000000001
 74
     0
 49
-0.2083599999999999
 74
     0
 49
0.06943
 74
     0
 49
-0.1389299999999999
 74
     0
  0
LTYPE
  5
41
330
4
100
AcDbSymbolTableRecord
100
AcDbLinetypeTableRecord
  2
STYLE_08
 70
     0
  3

 72
    65
 73
     6
 40
1.25
 49
0.625
 74
     0
 49
-0.20828
 74
     0
 49
0.06943
 74
     0
 49
-0.13893
 74
     0
 49
0.0694299999999999
 74
     0
 49
-0.13893
 74
     0
  0
LTYPE
  5
42
330
4
100
AcDbSymbolTableRecord
100
AcDbLinetypeTableRecord
  2
STYLE_09
 70
     0
  3

 72
    65
 73
     4
 40
5.0
 49
3.75
 74
     0
 49
-0.2777849999999998
 74
     0
 49
0.6944300000000003
 74
     0
 49
-0.2777849999999998
 74
     0
  0
LTYPE
  5
43
330
4
100
AcDbSymbolTableRecord
100
AcDbLinetypeTableRecord
  2
STYLE_10
 70
     0
  3

 72
    65
 73
     6
 40
5.9375
 49
3.75
 74
     0
 49
-0.2777849999999998
 74
     0
 49
0.6944300000000003
 74
     0
 49
-0.2777849999999998
 74
     0
 49
0.625
 74
     0
 49
-0.3125
 74
     0
  0
LTYPE
  5
44
330
4
100
AcDbSymbolTableRecord
100
AcDbLinetypeTableRecord
  2
STYLE_11
 70
     0
  3

 72
    65
 73
     2
 40
0.0694444881889764
 49
0.0347222440944882
 74
     0
 49
-0.0347222440944882
 74
     0
  0
LTYPE
  5
45
330
4
100
AcDbSymbolTableRecord
100
AcDbLinetypeTableRecord
  2
STYLE_12
 70
     0
  3

 72
    65
 73
     2
 40
0.3937007874015748
 49
0.1968503937007874
 74
     0
 49
-0.1968503937007874
 74
     0
  0
LTYPE
  5
46
330
4
100
AcDbSymbolTableRecord
100
AcDbLinetypeTableRecord
  2
STYLE_13
 70
     0
  3

 72
    65
 73
     2
 40
0.5905511811023622
 49
0.2952755905511811
 74
     0
 49
-0.2952755905511811
 74
     0
  0
LTYPE
  5
47
330
4
100
AcDbSymbolTableRecord
100
AcDbLinetypeTableRecord
  2
STYLE_14
 70
     0
  3

 72
    65
 73
     2
 40
1.968503937007874
 49
0.9842519685039369
 74
     0
 49
-0.9842519685039369
 74
     0
  0
LTYPE
  5
48
330
4
100
AcDbSymbolTableRecord
100
AcDbLinetypeTableRecord
  2
STYLE_15
 70
     0
  3

 72
    65
 73
     2
 40
0.1875
 49
0.125
 74
     0
 49
-0.0625
 74
     0
  0
LTYPE
  5
49
330
4
100
AcDbSymbolTableRecord
100
AcDbLinetypeTableRecord
  2
STYLE_16
 70
     0
  3

 72
    65
 73
     2
 40
0.3690944881889764
 49
0.2460629921259843
 74
     0
 49
-0.1230314960629922
 74
     0
  0
LTYPE
  5
908
330
4
100
AcDbSymbolTableRecord
100
AcDbLinetypeTableRecord
  2
AI-LINETYPE-1
 70
     0
  3
Adobe Illustrator Linetype No. 1
 72
    65
 73
     4
 40
2.116668062491661
 49
1.058334031245831
 74
     0
 49
-0.3527780104152769
 74
     0
 49
0.3527780104152769
 74
     0
 49
-0.3527780104152769
 74
     0
  0
LTYPE
  5
909
330
4
100
AcDbSymbolTableRecord
100
AcDbLinetypeTableRecord
  2
AI-LINETYPE-2
 70
     0
  3
Adobe Illustrator Linetype No. 2
 72
    65
 73
     4
 40
2.116668062491661
 49
1.058334031245831
 74
     0
 49
-0.3527780104152769
 74
     0
 49
0.3527780104152769
 74
     0
 49
-0.3527780104152769
 74
     0
  0
LTYPE
  5
D6C
330
4
100
AcDbSymbolTableRecord
100
AcDbLinetypeTableRecord
  2
BORDER
 70
     0
  3
Border __  __  . __  __  . __  __  . __  __  . 
 72
    65
 73
     6
 40
44.45
 49
12.7
 74
     0
 49
-6.35
 74
     0
 49
12.7
 74
     0
 49
-6.35
 74
     0
 49
0.0
 74
     0
 49
-6.35
 74
     0
  0
LTYPE
  5
D6D
330
4
100
AcDbSymbolTableRecord
100
AcDbLinetypeTableRecord
  2
HIDDEN
 70
     0
  3
Hidden _ _ _ _ _ _ _ _ _ _ _ _ _ _ _ _ _ _ _ _ 
 72
    65
 73
     2
 40
9.524999999999999
 49
6.35
 74
     0
 49
-3.175
 74
     0
  0
ENDTAB
  0
TABLE
  2
LAYER
  5
2
102
{ACAD_XDICTIONARY
360
2E1
102
}
330
0
100
AcDbSymbolTable
 70
     9
  0
LAYER
  5
14
330
2
100
AcDbSymbolTableRecord
100
AcDbLayerTableRecord
  2
0
 70
     0
 62
     7
  6
Continuous
370
    -3
390
1D
347
266
  0
LAYER
  5
4B
330
2
100
AcDbSymbolTableRecord
100
AcDbLayerTableRecord
  2
TEMPLATE
 70
     0
 62
     7
  6
Continuous
370
    20
390
1D
347
266
  0
LAYER
  5
4C
330
2
100
AcDbSymbolTableRecord
100
AcDbLayerTableRecord
  2
DIM
 70
     0
 62
     3
  6
Continuous
370
    13
390
1D
347
266
  0
LAYER
  5
4D
330
2
100
AcDbSymbolTableRecord
100
AcDbLayerTableRecord
  2
MODEL
 70
     0
 62
     7
  6
Continuous
370
    20
390
1D
347
266
  0
LAYER
  5
667
330
2
100
AcDbSymbolTableRecord
100
AcDbLayerTableRecord
  2
LOGO
 70
     0
 62
     7
  6
Continuous
370
    -3
390
1D
347
266
  0
LAYER
  5
88C
330
2
100
AcDbSymbolTableRecord
100
AcDbLayerTableRecord
  2
HIDDEN
 70
     0
 62
     8
  6
HIDDEN
370
    20
390
1D
347
266
1001
AcAecLayerStandard
1000

1000

  0
LAYER
  5
D6B
330
2
100
AcDbSymbolTableRecord
100
AcDbLayerTableRecord
  2
BORDER
 70
     0
 62
     4
  6
BORDER
290
     0
370
    20
390
1D
347
266
1001
AcAecLayerStandard
1000

1000

  0
LAYER
  5
D8C
330
2
100
AcDbSymbolTableRecord
100
AcDbLayerTableRecord
  2
Defpoints
 70
     0
 62
     7
  6
Continuous
290
     0
370
    -3
390
1D
347
266
  0
LAYER
  5
E33
330
2
100
AcDbSymbolTableRecord
100
AcDbLayerTableRecord
  2
PRINT BORDER
 70
     0
 62
     4
  6
BORDER
290
     0
370
    20
390
1D
347
266
1001
AcAecLayerStandard
1000

1000

  0
ENDTAB
  0
TABLE
  2
STYLE
  5
3
330
0
100
AcDbSymbolTable
 70
     4
  0
STYLE
  5
17
330
3
100
AcDbSymbolTableRecord
100
AcDbTextStyleTableRecord
  2
Standard
 70
     0
 40
0.0
 41
1.0
 50
0.0
 71
     0
 42
2.5
  3
txt
  4
BIGFONT.SHX
  0
STYLE
  5
39
330
3
100
AcDbSymbolTableRecord
100
AcDbTextStyleTableRecord
  2
ＭＳ ゴシック
 70
     0
 40
0.0
 41
1.0
 50
0.0
 71
     0
 42
2.5
  3
msgothic.ttc
  4
ＭＳ ゴシック
1001
ACAD
1000
ＭＳ ゴシック
1071
        0
  0
STYLE
  5
384
330
3
100
AcDbSymbolTableRecord
100
AcDbTextStyleTableRecord
  2
ARIAL
 70
     0
 40
0.0
 41
1.0
 50
0.0
 71
     0
 42
12.0
  3
ARIAL.TTF
  4

1001
ACAD
1000
Arial
1071
       34
  0
STYLE
  5
385
330
3
100
AcDbSymbolTableRecord
100
AcDbTextStyleTableRecord
  2
ROMANS
 70
     0
 40
0.0
 41
1.0
 50
0.0
 71
     0
 42
5.0
  3
romans.shx
  4

  0
ENDTAB
  0
TABLE
  2
VIEW
  5
5
330
0
100
AcDbSymbolTable
 70
     0
  0
ENDTAB
  0
TABLE
  2
UCS
  5
6
330
0
100
AcDbSymbolTable
 70
     0
  0
ENDTAB
  0
TABLE
  2
APPID
  5
8
330
0
100
AcDbSymbolTable
 70
     3
  0
APPID
  5
16
330
8
100
AcDbSymbolTableRecord
100
AcDbRegAppTableRecord
  2
ACAD
 70
     0
  0
APPID
  5
7AC
330
8
100
AcDbSymbolTableRecord
100
AcDbRegAppTableRecord
  2
AcAecLayerStandard
 70
     0
  0
APPID
  5
E29
330
8
100
AcDbSymbolTableRecord
100
AcDbRegAppTableRecord
  2
ACAD_MLEADERVER
 70
     0
  0
ENDTAB
  0
TABLE
  2
DIMSTYLE
  5
9
330
0
100
AcDbSymbolTable
 70
     5
100
AcDbDimStyleTable
  0
DIMSTYLE
105
18
330
9
100
AcDbSymbolTableRecord
100
AcDbDimStyleTableRecord
  2
Standard
 70
     0
178
     0
340
17
  0
DIMSTYLE
105
56
330
9
100
AcDbSymbolTableRecord
100
AcDbDimStyleTableRecord
  2
tform線あり
 70
     0
  3
<>
  4
[]
 41
9.999389648437498
 42
25.0
 43
0.9999999999999999
 44
0.0
 73
     0
 74
     0
 77
     1
 78
    11
140
24.4326171875
141
0.0
143
1.0
146
0.8
147
0.4999999999999999
171
     1
172
     1
174
     1
178
     0
179
     2
271
     1
272
     1
276
     2
284
    11
285
    11
286
    11
289
     0
340
39
341
4E
342
4E
  0
DIMSTYLE
105
57
102
{ACAD_REACTORS
330
F8E
330
F8F
330
F90
330
F91
330
F92
330
F98
330
F99
330
F9A
330
FAE
330
FC4
330
126D
330
13B2
330
13ED
330
147E
330
150C
102
}
330
9
100
AcDbSymbolTableRecord
100
AcDbDimStyleTableRecord
  2
tfrom線あり
 70
     0
  3
<>
  4
[]
 41
3.0
 42
5.0
 43
0.9999999999999999
 44
0.0
 73
     0
 74
     0
 77
     1
 78
    11
140
12.0
141
0.0
143
1.0
147
10.0
171
     1
174
     1
178
     0
179
     2
271
     0
272
     1
276
     2
284
    11
285
    11
286
    11
289
     0
340
39
341
4E
342
4E
  0
DIMSTYLE
105
5C
330
9
100
AcDbSymbolTableRecord
100
AcDbDimStyleTableRecord
  2
JIS
 70
     0
  3
<>
  4
[]
 41
9.0
 42
0.0
 43
6.99999999999994
 44
19.9999999999962
 73
     0
 74
     0
 77
     1
 78
    11
140
24.4326171875
141
0.0
143
1.0
147
10.0
171
     1
174
     1
178
     0
179
     2
271
     1
272
     1
276
     2
284
    11
285
    11
286
    11
289
     0
340
39
341
4E
342
4E
  0
DIMSTYLE
105
383
330
9
100
AcDbSymbolTableRecord
100
AcDbDimStyleTableRecord
  2
ARIAL
 70
     0
 41
10.0
 42
3.0
 43
0.5
 44
3.0
 73
     0
 74
     0
 77
     1
 78
     8
140
12.0
141
0.0
146
0.5
147
4.0
171
     1
172
     1
178
     0
271
     1
289
     0
340
384
  0
ENDTAB
  0
TABLE
  2
BLOCK_RECORD
  5
1
330
0
100
AcDbSymbolTable
 70
    44
  0
BLOCK_RECORD
  5
A
330
1
100
AcDbSymbolTableRecord
100
AcDbBlockTableRecord
  2
*MODEL_SPACE
340
20
 70
     0
280
     1
281
     0
  0
BLOCK_RECORD
  5
B
330
1
100
AcDbSymbolTableRecord
100
AcDbBlockTableRecord
  2
*PAPER_SPACE
340
21
 70
     0
280
     1
281
     0
  0
BLOCK_RECORD
  5
4E
330
1
100
AcDbSymbolTableRecord
100
AcDbBlockTableRecord
  2
_DOT
340
0
102
{BLKREFS
331
D96
331
D97
331
DA5
331
DA6
331
EA9
331
EAA
331
EB6
331
EB7
331
EC3
331
EC4
331
ED0
331
ED1
331
EDD
331
EDE
331
EEE
331
EEF
331
EFB
331
EFC
331
F08
331
F09
331
F28
331
F29
331
F4C
331
F4D
331
FE8
331
FE9
331
FF4
331
FF5
331
1000
331
1001
331
0
331
100C
331
1018
331
1019
331
1023
331
1024
331
102F
331
1030
331
103B
331
103C
331
1047
331
1048
331
1053
331
1054
331
1173
331
1174
331
11C9
331
11CA
331
11D9
331
11DA
331
1208
331
1209
331
1212
331
1213
331
1276
331
1277
331
1319
331
131A
331
1327
331
1328
331
1349
331
134A
331
1356
331
1357
331
13D4
331
13D5
331
13E1
331
13E2
331
13F6
331
13F7
331
1487
331
1488
331
1515
331
1514
331
100D
102
}
 70
     0
280
     1
281
     0
  0
BLOCK_RECORD
  5
68A
330
1
100
AcDbSymbolTableRecord
100
AcDbBlockTableRecord
  2
名称未設定-1
340
0
102
{BLKREFS
331
6B5
102
}
 70
     1
280
     1
281
     0
  0
BLOCK_RECORD
  5
68D
330
1
100
AcDbSymbolTableRecord
100
AcDbBlockTableRecord
  2
block 2
340
0
102
{BLKREFS
331
68C
331
F85
102
}
 70
     0
280
     1
281
     0
  0
BLOCK_RECORD
  5
690
330
1
100
AcDbSymbolTableRecord
100
AcDbBlockTableRecord
  2
block 3
340
0
102
{BLKREFS
331
68F
102
}
 70
     0
280
     1
281
     0
  0
BLOCK_RECORD
  5
693
330
1
100
AcDbSymbolTableRecord
100
AcDbBlockTableRecord
  2
block 4
340
0
102
{BLKREFS
331
692
102
}
 70
     0
280
     1
281
     0
  0
BLOCK_RECORD
  5
6A2
330
1
100
AcDbSymbolTableRecord
100
AcDbBlockTableRecord
  2
block 5
340
0
102
{BLKREFS
331
6A1
102
}
 70
     0
280
     1
281
     0
  0
BLOCK_RECORD
  5
D90
330
1
100
AcDbSymbolTableRecord
100
AcDbBlockTableRecord
  2
*D6
340
0
 70
     0
280
     1
281
     0
  0
BLOCK_RECORD
  5
D9F
330
1
100
AcDbSymbolTableRecord
100
AcDbBlockTableRecord
  2
*D7
340
0
 70
     0
280
     1
281
     0
  0
BLOCK_RECORD
  5
EA4
330
1
100
AcDbSymbolTableRecord
100
AcDbBlockTableRecord
  2
*D8
340
0
 70
     0
280
     1
281
     0
  0
BLOCK_RECORD
  5
EB1
330
1
100
AcDbSymbolTableRecord
100
AcDbBlockTableRecord
  2
*D9
340
0
 70
     0
280
     1
281
     0
  0
BLOCK_RECORD
  5
EBE
330
1
100
AcDbSymbolTableRecord
100
AcDbBlockTableRecord
  2
*D10
340
0
 70
     0
280
     1
281
     0
  0
BLOCK_RECORD
  5
ECB
330
1
100
AcDbSymbolTableRecord
100
AcDbBlockTableRecord
  2
*D11
340
0
 70
     0
280
     1
281
     0
  0
BLOCK_RECORD
  5
ED8
330
1
100
AcDbSymbolTableRecord
100
AcDbBlockTableRecord
  2
*D12
340
0
 70
     0
280
     1
281
     0
  0
BLOCK_RECORD
  5
EEA
330
1
100
AcDbSymbolTableRecord
100
AcDbBlockTableRecord
  2
*D13
340
0
 70
     0
280
     1
281
     0
  0
BLOCK_RECORD
  5
EF6
330
1
100
AcDbSymbolTableRecord
100
AcDbBlockTableRecord
  2
*D14
340
0
 70
     0
280
     1
281
     0
  0
BLOCK_RECORD
  5
F03
330
1
100
AcDbSymbolTableRecord
100
AcDbBlockTableRecord
  2
*D15
340
0
 70
     0
280
     1
281
     0
  0
BLOCK_RECORD
  5
F23
330
1
100
AcDbSymbolTableRecord
100
AcDbBlockTableRecord
  2
*D16
340
0
 70
     0
280
     1
281
     0
  0
BLOCK_RECORD
  5
F47
330
1
100
AcDbSymbolTableRecord
100
AcDbBlockTableRecord
  2
*D17
340
0
 70
     0
280
     1
281
     0
  0
BLOCK_RECORD
  5
FE2
330
1
100
AcDbSymbolTableRecord
100
AcDbBlockTableRecord
  2
*D18
340
0
 70
     0
280
     1
281
     0
  0
BLOCK_RECORD
  5
FEE
330
1
100
AcDbSymbolTableRecord
100
AcDbBlockTableRecord
  2
*D19
340
0
 70
     0
280
     1
281
     0
  0
BLOCK_RECORD
  5
FFA
330
1
100
AcDbSymbolTableRecord
100
AcDbBlockTableRecord
  2
*D20
340
0
 70
     0
280
     1
281
     0
  0
BLOCK_RECORD
  5
1006
330
1
100
AcDbSymbolTableRecord
100
AcDbBlockTableRecord
  2
*D21
340
0
 70
     0
280
     1
281
     0
  0
BLOCK_RECORD
  5
1012
330
1
100
AcDbSymbolTableRecord
100
AcDbBlockTableRecord
  2
*D22
340
0
 70
     0
280
     1
281
     0
  0
BLOCK_RECORD
  5
101E
330
1
100
AcDbSymbolTableRecord
100
AcDbBlockTableRecord
  2
*D23
340
0
 70
     0
280
     1
281
     0
  0
BLOCK_RECORD
  5
1029
330
1
100
AcDbSymbolTableRecord
100
AcDbBlockTableRecord
  2
*D24
340
0
 70
     0
280
     1
281
     0
  0
BLOCK_RECORD
  5
1035
330
1
100
AcDbSymbolTableRecord
100
AcDbBlockTableRecord
  2
*D25
340
0
 70
     0
280
     1
281
     0
  0
BLOCK_RECORD
  5
1041
330
1
100
AcDbSymbolTableRecord
100
AcDbBlockTableRecord
  2
*D26
340
0
 70
     0
280
     1
281
     0
  0
BLOCK_RECORD
  5
104D
330
1
100
AcDbSymbolTableRecord
100
AcDbBlockTableRecord
  2
*D27
340
0
 70
     0
280
     1
281
     0
  0
BLOCK_RECORD
  5
116D
330
1
100
AcDbSymbolTableRecord
100
AcDbBlockTableRecord
  2
*D28
340
0
 70
     0
280
     1
281
     0
  0
BLOCK_RECORD
  5
11C3
330
1
100
AcDbSymbolTableRecord
100
AcDbBlockTableRecord
  2
*D29
340
0
 70
     0
280
     1
281
     0
  0
BLOCK_RECORD
  5
11D4
330
1
100
AcDbSymbolTableRecord
100
AcDbBlockTableRecord
  2
*D30
340
0
 70
     0
280
     1
281
     0
  0
BLOCK_RECORD
  5
11FF
330
1
100
AcDbSymbolTableRecord
100
AcDbBlockTableRecord
  2
*D31
340
0
 70
     0
280
     1
281
     0
  0
BLOCK_RECORD
  5
120C
330
1
100
AcDbSymbolTableRecord
100
AcDbBlockTableRecord
  2
*D32
340
0
 70
     0
280
     1
281
     0
  0
BLOCK_RECORD
  5
1270
330
1
100
AcDbSymbolTableRecord
100
AcDbBlockTableRecord
  2
*D33
340
0
 70
     0
280
     1
281
     0
  0
BLOCK_RECORD
  5
1314
330
1
100
AcDbSymbolTableRecord
100
AcDbBlockTableRecord
  2
*D34
340
0
 70
     0
280
     1
281
     0
  0
BLOCK_RECORD
  5
1321
330
1
100
AcDbSymbolTableRecord
100
AcDbBlockTableRecord
  2
*D35
340
0
 70
     0
280
     1
281
     0
  0
BLOCK_RECORD
  5
1343
330
1
100
AcDbSymbolTableRecord
100
AcDbBlockTableRecord
  2
*D36
340
0
 70
     0
280
     1
281
     0
  0
BLOCK_RECORD
  5
134F
330
1
100
AcDbSymbolTableRecord
100
AcDbBlockTableRecord
  2
*D37
340
0
 70
     0
280
     1
281
     0
  0
BLOCK_RECORD
  5
13CE
330
1
100
AcDbSymbolTableRecord
100
AcDbBlockTableRecord
  2
*D38
340
0
 70
     0
280
     1
281
     0
  0
BLOCK_RECORD
  5
13DA
330
1
100
AcDbSymbolTableRecord
100
AcDbBlockTableRecord
  2
*D39
340
0
 70
     0
280
     1
281
     0
  0
BLOCK_RECORD
  5
13F0
330
1
100
AcDbSymbolTableRecord
100
AcDbBlockTableRecord
  2
*D40
340
0
 70
     0
280
     1
281
     0
  0
BLOCK_RECORD
  5
1481
330
1
100
AcDbSymbolTableRecord
100
AcDbBlockTableRecord
  2
*D41
340
0
 70
     0
280
     1
281
     0
  0
BLOCK_RECORD
  5
150D
330
1
100
AcDbSymbolTableRecord
100
AcDbBlockTableRecord
  2
*D42
340
0
 70
     0
280
     1
281
     0
  0
ENDTAB
  0
ENDSEC
  0
SECTION
  2
BLOCKS
  0
BLOCK
  5
D
330
A
100
AcDbEntity
  8
0
390
1D
100
AcDbBlockBegin
  2
*MODEL_SPACE
 70
     0
 10
0.0
 20
0.0
 30
0.0
  3
*MODEL_SPACE
  1
*MODEL_SPACE
  0
ENDBLK
  5
E
330
A
100
AcDbEntity
  8
0
390
1D
100
AcDbBlockEnd
  0
BLOCK
  5
F
330
B
100
AcDbEntity
 67
     1
  8
0
390
1D
100
AcDbBlockBegin
  2
*PAPER_SPACE
 70
     0
 10
0.0
 20
0.0
 30
0.0
  3
*PAPER_SPACE
  1
*PAPER_SPACE
  0
ENDBLK
  5
10
330
B
100
AcDbEntity
 67
     1
  8
0
390
1D
100
AcDbBlockEnd
  0
BLOCK
  5
1065
330
4E
100
AcDbEntity
  8
0
390
1D
100
AcDbBlockBegin
  2
_DOT
 70
     0
 10
0.0
 20
0.0
 30
0.0
  3
_DOT
  1
_DOT
  0
POLYLINE
  5
1067
330
4E
100
AcDbEntity
  8
0
  6
ByBlock
 62
     0
370
    -2
390
1D
100
AcDb2dPolyline
 66
     1
 10
0.0
 20
0.0
 30
0.0
 70
     1
 40
0.5
 41
0.5
  0
VERTEX
  5
1068
330
1067
100
AcDbEntity
  8
0
  6
ByBlock
 62
     0
370
    -2
390
1D
100
AcDbVertex
100
AcDb2dVertex
 10
-0.25
 20
0.0
 30
0.0
 42
1.0
  0
VERTEX
  5
1069
330
1067
100
AcDbEntity
  8
0
  6
ByBlock
 62
     0
370
    -2
390
1D
100
AcDbVertex
100
AcDb2dVertex
 10
0.25
 20
0.0
 30
0.0
 42
1.0
  0
SEQEND
  5
106A
330
1067
100
AcDbEntity
  8
0
390
1D
  0
LINE
  5
106B
330
4E
100
AcDbEntity
  8
0
  6
ByBlock
 62
     0
370
    -2
390
1D
100
AcDbLine
 10
-0.5
 20
0.0
 30
0.0
 11
-1.0
 21
0.0
 31
0.0
  0
ENDBLK
  5
106C
330
4E
100
AcDbEntity
  8
0
390
1D
100
AcDbBlockEnd
  0
BLOCK
  5
68B
330
68A
100
AcDbEntity
  8
0
100
AcDbBlockBegin
  2
名称未設定-1
 70
     0
 10
0.0
 20
0.0
 30
0.0
  3
名称未設定-1
  1
名称未設定-1
  0
INSERT
  5
68F
330
68A
100
AcDbEntity
  8
LOGO
100
AcDbBlockReference
  2
block 3
 10
0.0
 20
0.0
 30
0.0
  0
ENDBLK
  5
6B1
330
68A
100
AcDbEntity
  8
0
100
AcDbBlockEnd
  0
BLOCK
  5
68E
330
68D
100
AcDbEntity
  8
0
100
AcDbBlockBegin
  2
block 2
 70
     0
 10
0.0
 20
0.0
 30
0.0
  3
block 2
  1
block 2
  0
ENDBLK
  5
6B0
330
68D
100
AcDbEntity
  8
0
100
AcDbBlockEnd
  0
BLOCK
  5
691
330
690
100
AcDbEntity
  8
0
100
AcDbBlockBegin
  2
block 3
 70
     0
 10
0.0
 20
0.0
 30
0.0
  3
block 3
  1
block 3
  0
INSERT
  5
692
330
690
100
AcDbEntity
  8
LOGO
100
AcDbBlockReference
  2
block 4
 10
0.0
 20
0.0
 30
0.0
  0
INSERT
  5
6A1
330
690
100
AcDbEntity
  8
LOGO
100
AcDbBlockReference
  2
block 5
 10
0.0
 20
0.0
 30
0.0
  0
ENDBLK
  5
6AF
330
690
100
AcDbEntity
  8
0
100
AcDbBlockEnd
  0
BLOCK
  5
694
330
693
100
AcDbEntity
  8
0
100
AcDbBlockBegin
  2
block 4
 70
     0
 10
0.0
 20
0.0
 30
0.0
  3
block 4
  1
block 4
  0
POLYLINE
  5
695
330
693
100
AcDbEntity
  8
LOGO
370
     0
100
AcDb2dPolyline
 66
     1
 10
0.0
 20
0.0
 30
0.0
  0
VERTEX
  5
696
330
695
100
AcDbEntity
  8
LOGO
370
     0
100
AcDbVertex
100
AcDb2dVertex
 10
83.79545727667795
 20
167.6444858234922
 30
0.0
  0
VERTEX
  5
697
330
695
100
AcDbEntity
  8
LOGO
370
     0
100
AcDbVertex
100
AcDb2dVertex
 10
83.79545727667795
 20
159.7968976406313
 30
0.0
  0
VERTEX
  5
698
330
695
100
AcDbEntity
  8
LOGO
370
     0
100
AcDbVertex
100
AcDb2dVertex
 10
71.3631329975216
 20
159.7968976406313
 30
0.0
  0
VERTEX
  5
699
330
695
100
AcDbEntity
  8
LOGO
370
     0
100
AcDbVertex
100
AcDb2dVertex
 10
71.3631329975216
 20
127.8027915271048
 30
0.0
  0
VERTEX
  5
69A
330
695
100
AcDbEntity
  8
LOGO
370
     0
100
AcDbVertex
100
AcDb2dVertex
 10
60.43011526263018
 20
127.8027915271048
 30
0.0
  0
VERTEX
  5
69B
330
695
100
AcDbEntity
  8
LOGO
370
     0
100
AcDbVertex
100
AcDb2dVertex
 10
60.43011526263018
 20
159.7968976406313
 30
0.0
  0
VERTEX
  5
69C
330
695
100
AcDbEntity
  8
LOGO
370
     0
100
AcDbVertex
100
AcDb2dVertex
 10
48.21793273020759
 20
159.7968976406313
 30
0.0
  0
VERTEX
  5
69D
330
695
100
AcDbEntity
  8
LOGO
370
     0
100
AcDbVertex
100
AcDb2dVertex
 10
48.21793273020759
 20
167.6444858234922
 30
0.0
  0
VERTEX
  5
69E
330
695
100
AcDbEntity
  8
LOGO
370
     0
100
AcDbVertex
100
AcDb2dVertex
 10
83.79545727667795
 20
167.6444858234922
 30
0.0
  0
SEQEND
  5
69F
330
695
100
AcDbEntity
  8
LOGO
370
     0
  0
HATCH
  5
6A0
330
693
100
AcDbEntity
  8
LOGO
 62
   250
420
  2234388
100
AcDbHatch
 10
0.0
 20
0.0
 30
0.0
210
0.0
220
0.0
230
1.0
  2
SOLID
 70
     1
 71
     0
 91
        1
 92
        1
 93
        8
 72
     1
 10
83.79545727667795
 20
167.6444858234922
 11
83.79545727667795
 21
159.7968976406313
 72
     1
 10
83.79545727667795
 20
159.7968976406313
 11
71.3631329975216
 21
159.7968976406313
 72
     1
 10
71.3631329975216
 20
159.7968976406313
 11
71.3631329975216
 21
127.8027915271048
 72
     1
 10
71.3631329975216
 20
127.8027915271048
 11
60.43011526263018
 21
127.8027915271048
 72
     1
 10
60.43011526263018
 20
127.8027915271048
 11
60.43011526263018
 21
159.7968976406313
 72
     1
 10
60.43011526263018
 20
159.7968976406313
 11
48.21793273020759
 21
159.7968976406313
 72
     1
 10
48.21793273020759
 20
159.7968976406313
 11
48.21793273020759
 21
167.6444858234922
 72
     1
 10
48.21793273020759
 20
167.6444858234922
 11
83.79545727667795
 21
167.6444858234922
 97
        0
 75
     2
 76
     1
 98
        0
  0
ENDBLK
  5
6AE
330
693
100
AcDbEntity
  8
0
100
AcDbBlockEnd
  0
BLOCK
  5
6A3
330
6A2
100
AcDbEntity
  8
0
100
AcDbBlockBegin
  2
block 5
 70
     0
 10
0.0
 20
0.0
 30
0.0
  3
block 5
  1
block 5
  0
SPLINE
  5
6A4
330
6A2
100
AcDbEntity
  8
LOGO
370
     0
100
AcDbSpline
210
0.0
220
0.0
230
1.0
 70
    11
 71
     3
 72
    56
 73
    52
 74
     0
 42
0.000000001
 43
0.0000000001
 40
0.0
 40
0.0
 40
0.0
 40
0.0
 40
1.0
 40
1.0
 40
1.0
 40
2.0
 40
2.0
 40
2.0
 40
3.0
 40
3.0
 40
3.0
 40
4.0
 40
4.0
 40
4.0
 40
5.0
 40
5.0
 40
5.0
 40
6.0
 40
6.0
 40
6.0
 40
7.0
 40
7.0
 40
7.0
 40
8.0
 40
8.0
 40
8.0
 40
9.0
 40
9.0
 40
9.0
 40
10.0
 40
10.0
 40
10.0
 40
11.0
 40
11.0
 40
11.0
 40
12.0
 40
12.0
 40
12.0
 40
13.0
 40
13.0
 40
13.0
 40
14.0
 40
14.0
 40
14.0
 40
15.0
 40
15.0
 40
15.0
 40
16.0
 40
16.0
 40
16.0
 40
17.0
 40
17.0
 40
17.0
 40
17.0
 10
100.4504378777679
 20
166.69157178364
 30
0.0
 10
101.9848844191641
 20
167.1313385124438
 30
0.0
 10
103.9637485713373
 20
166.7649523658846
 30
0.0
 10
103.9637485713373
 20
166.7649523658846
 30
0.0
 10
103.9637485713373
 20
166.7649523658846
 30
0.0
 10
103.0132460999156
 20
163.911205638077
 30
0.0
 10
103.0132460999156
 20
163.911205638077
 30
0.0
 10
103.0132460999156
 20
163.911205638077
 30
0.0
 10
101.0674548862189
 20
164.3601018759394
 30
0.0
 10
99.57090442016032
 20
163.1805004036133
 30
0.0
 10
98.40508333886608
 20
162.258247733807
 30
0.0
 10
97.65301849830304
 20
159.804132345923
 30
0.0
 10
97.3598406791005
 20
158.8699940888517
 30
0.0
 10
97.3598406791005
 20
158.8699940888517
 30
0.0
 10
96.07137411762282
 20
154.9119212747295
 30
0.0
 10
96.07137411762282
 20
154.9119212747295
 30
0.0
 10
96.07137411762282
 20
154.9119212747295
 30
0.0
 10
100.3012651448482
 20
154.9119212747295
 30
0.0
 10
100.3012651448482
 20
154.9119212747295
 30
0.0
 10
100.3012651448482
 20
154.9119212747295
 30
0.0
 10
99.64152892419852
 20
152.4199098115079
 30
0.0
 10
99.64152892419852
 20
152.4199098115079
 30
0.0
 10
99.64152892419852
 20
152.4199098115079
 30
0.0
 10
95.38097652692731
 20
152.4199098115079
 30
0.0
 10
95.38097652692731
 20
152.4199098115079
 30
0.0
 10
95.38097652692731
 20
152.4199098115079
 30
0.0
 10
87.75353009080013
 20
127.8027915271048
 30
0.0
 10
87.75353009080013
 20
127.8027915271048
 30
0.0
 10
87.75353009080013
 20
127.8027915271048
 30
0.0
 10
85.36538832498108
 20
127.8027915271048
 30
0.0
 10
85.36538832498108
 20
127.8027915271048
 30
0.0
 10
85.36538832498108
 20
127.8027915271048
 30
0.0
 10
93.00006946639998
 20
152.4199098115079
 30
0.0
 10
93.00006946639998
 20
152.4199098115079
 30
0.0
 10
93.00006946639998
 20
152.4199098115079
 30
0.0
 10
89.85297266450198
 20
152.4199098115079
 30
0.0
 10
89.85297266450198
 20
152.4199098115079
 30
0.0
 10
89.85297266450198
 20
152.4199098115079
 30
0.0
 10
90.51270888515164
 20
154.9119212747295
 30
0.0
 10
90.51270888515164
 20
154.9119212747295
 30
0.0
 10
90.51270888515164
 20
154.9119212747295
 30
0.0
 10
93.6904670570955
 20
154.9119212747295
 30
0.0
 10
93.6904670570955
 20
154.9119212747295
 30
0.0
 10
93.6904670570955
 20
154.9119212747295
 30
0.0
 10
94.81598049462158
 20
158.3616699146644
 30
0.0
 10
94.81598049462158
 20
158.3616699146644
 30
0.0
 10
95.7237637538445
 20
161.2605474231013
 30
0.0
 10
96.4968436907311
 20
162.8139420021662
 30
0.0
 10
97.15657991138076
 20
163.9844139654337
 30
0.0
 10
97.81183750494507
 20
165.1523021053827
 30
0.0
 10
99.1047826935081
 20
166.3084769129547
 30
0.0
 10
100.4504378777679
 20
166.69157178364
 30
0.0
  0
HATCH
  5
6A5
330
6A2
100
AcDbEntity
  8
LOGO
 62
   250
420
  2234388
100
AcDbHatch
 10
0.0
 20
0.0
 30
0.0
210
0.0
220
0.0
230
1.0
  2
SOLID
 70
     1
 71
     0
 91
        1
 92
        1
 93
        1
 72
     4
 94
        3
 73
     0
 74
     1
 95
       56
 96
       52
 40
0.0
 40
0.0
 40
0.0
 40
0.0
 40
1.0
 40
1.0
 40
1.0
 40
2.0
 40
2.0
 40
2.0
 40
3.0
 40
3.0
 40
3.0
 40
4.0
 40
4.0
 40
4.0
 40
5.0
 40
5.0
 40
5.0
 40
6.0
 40
6.0
 40
6.0
 40
7.0
 40
7.0
 40
7.0
 40
8.0
 40
8.0
 40
8.0
 40
9.0
 40
9.0
 40
9.0
 40
10.0
 40
10.0
 40
10.0
 40
11.0
 40
11.0
 40
11.0
 40
12.0
 40
12.0
 40
12.0
 40
13.0
 40
13.0
 40
13.0
 40
14.0
 40
14.0
 40
14.0
 40
15.0
 40
15.0
 40
15.0
 40
16.0
 40
16.0
 40
16.0
 40
17.0
 40
17.0
 40
17.0
 40
17.0
 10
100.4504378777679
 20
166.69157178364
 10
101.9848844191641
 20
167.1313385124438
 10
103.9637485713373
 20
166.7649523658846
 10
103.9637485713373
 20
166.7649523658846
 10
103.9637485713373
 20
166.7649523658846
 10
103.0132460999156
 20
163.911205638077
 10
103.0132460999156
 20
163.911205638077
 10
103.0132460999156
 20
163.911205638077
 10
101.0674548862189
 20
164.3601018759394
 10
99.57090442016032
 20
163.1805004036133
 10
98.40508333886608
 20
162.258247733807
 10
97.65301849830304
 20
159.804132345923
 10
97.3598406791005
 20
158.8699940888517
 10
97.3598406791005
 20
158.8699940888517
 10
96.07137411762282
 20
154.9119212747295
 10
96.07137411762282
 20
154.9119212747295
 10
96.07137411762282
 20
154.9119212747295
 10
100.3012651448482
 20
154.9119212747295
 10
100.3012651448482
 20
154.9119212747295
 10
100.3012651448482
 20
154.9119212747295
 10
99.64152892419852
 20
152.4199098115079
 10
99.64152892419852
 20
152.4199098115079
 10
99.64152892419852
 20
152.4199098115079
 10
95.38097652692731
 20
152.4199098115079
 10
95.38097652692731
 20
152.4199098115079
 10
95.38097652692731
 20
152.4199098115079
 10
87.75353009080013
 20
127.8027915271048
 10
87.75353009080013
 20
127.8027915271048
 10
87.75353009080013
 20
127.8027915271048
 10
85.36538832498108
 20
127.8027915271048
 10
85.36538832498108
 20
127.8027915271048
 10
85.36538832498108
 20
127.8027915271048
 10
93.00006946639998
 20
152.4199098115079
 10
93.00006946639998
 20
152.4199098115079
 10
93.00006946639998
 20
152.4199098115079
 10
89.85297266450198
 20
152.4199098115079
 10
89.85297266450198
 20
152.4199098115079
 10
89.85297266450198
 20
152.4199098115079
 10
90.51270888515164
 20
154.9119212747295
 10
90.51270888515164
 20
154.9119212747295
 10
90.51270888515164
 20
154.9119212747295
 10
93.6904670570955
 20
154.9119212747295
 10
93.6904670570955
 20
154.9119212747295
 10
93.6904670570955
 20
154.9119212747295
 10
94.81598049462158
 20
158.3616699146644
 10
94.81598049462158
 20
158.3616699146644
 10
95.7237637538445
 20
161.2605474231013
 10
96.4968436907311
 20
162.8139420021662
 10
97.15657991138076
 20
163.9844139654337
 10
97.81183750494507
 20
165.1523021053827
 10
99.1047826935081
 20
166.3084769129547
 10
100.4504378777679
 20
166.69157178364
 97
        0
 75
     2
 76
     1
 98
        0
  0
SPLINE
  5
6A6
330
6A2
100
AcDbEntity
  8
LOGO
370
     0
100
AcDbSpline
210
0.0
220
0.0
230
1.0
 70
    11
 71
     3
 72
    38
 73
    34
 74
     0
 42
0.000000001
 43
0.0000000001
 40
0.0
 40
0.0
 40
0.0
 40
0.0
 40
1.0
 40
1.0
 40
1.0
 40
2.0
 40
2.0
 40
2.0
 40
3.0
 40
3.0
 40
3.0
 40
4.0
 40
4.0
 40
4.0
 40
5.0
 40
5.0
 40
5.0
 40
6.0
 40
6.0
 40
6.0
 40
7.0
 40
7.0
 40
7.0
 40
8.0
 40
8.0
 40
8.0
 40
9.0
 40
9.0
 40
9.0
 40
10.0
 40
10.0
 40
10.0
 40
11.0
 40
11.0
 40
11.0
 40
11.0
 10
126.377554584636
 20
154.8151140277308
 30
0.0
 10
126.377554584636
 20
154.8151140277308
 30
0.0
 10
128.8311532078563
 20
154.8151140277308
 30
0.0
 10
128.8311532078563
 20
154.8151140277308
 30
0.0
 10
128.8311532078563
 20
154.8151140277308
 30
0.0
 10
127.7345785914971
 20
151.3062819612468
 30
0.0
 10
127.7345785914971
 20
151.3062819612468
 30
0.0
 10
128.571392836906
 20
152.2922689395754
 30
0.0
 10
129.8860421413442
 20
153.604506675583
 30
0.0
 10
131.0163787157314
 20
154.2664822097754
 30
0.0
 10
132.7044766171327
 20
155.2500576196734
 30
0.0
 10
133.6642808525008
 20
155.3847609420097
 30
0.0
 10
134.7284715499351
 20
155.3565111403944
 30
0.0
 10
134.7284715499351
 20
155.3565111403944
 30
0.0
 10
133.6877075172549
 20
152.0345756272799
 30
0.0
 10
133.6877075172549
 20
152.0345756272799
 30
0.0
 10
133.011434827367
 20
152.3184516825359
 30
0.0
 10
130.930940291334
 20
151.7768823149844
 30
0.0
 10
129.739280976855
 20
150.9162968950455
 30
0.0
 10
128.66613302525
 20
150.1454562717016
 30
0.0
 10
127.9192358313239
 20
149.4857200510519
 30
0.0
 10
127.0393578639405
 20
147.8282835196966
 30
0.0
 10
126.164647543194
 20
146.1699857139017
 30
0.0
 10
125.4742499524985
 20
143.5262176944419
 30
0.0
 10
124.2822461282437
 20
139.6959580071401
 30
0.0
 10
124.2822461282437
 20
139.6959580071401
 30
0.0
 10
120.5753209406769
 20
127.8027915271048
 30
0.0
 10
120.5753209406769
 20
127.8027915271048
 30
0.0
 10
120.5753209406769
 20
127.8027915271048
 30
0.0
 10
118.1964809388044
 20
127.8027915271048
 30
0.0
 10
118.1964809388044
 20
127.8027915271048
 30
0.0
 10
118.1964809388044
 20
127.8027915271048
 30
0.0
 10
126.377554584636
 20
154.8151140277308
 30
0.0
 10
126.377554584636
 20
154.8151140277308
 30
0.0
  0
HATCH
  5
6A7
330
6A2
100
AcDbEntity
  8
LOGO
 62
   250
420
  2234388
100
AcDbHatch
 10
0.0
 20
0.0
 30
0.0
210
0.0
220
0.0
230
1.0
  2
SOLID
 70
     1
 71
     0
 91
        1
 92
        1
 93
        1
 72
     4
 94
        3
 73
     0
 74
     1
 95
       38
 96
       34
 40
0.0
 40
0.0
 40
0.0
 40
0.0
 40
1.0
 40
1.0
 40
1.0
 40
2.0
 40
2.0
 40
2.0
 40
3.0
 40
3.0
 40
3.0
 40
4.0
 40
4.0
 40
4.0
 40
5.0
 40
5.0
 40
5.0
 40
6.0
 40
6.0
 40
6.0
 40
7.0
 40
7.0
 40
7.0
 40
8.0
 40
8.0
 40
8.0
 40
9.0
 40
9.0
 40
9.0
 40
10.0
 40
10.0
 40
10.0
 40
11.0
 40
11.0
 40
11.0
 40
11.0
 10
126.377554584636
 20
154.8151140277308
 10
126.377554584636
 20
154.8151140277308
 10
128.8311532078563
 20
154.8151140277308
 10
128.8311532078563
 20
154.8151140277308
 10
128.8311532078563
 20
154.8151140277308
 10
127.7345785914971
 20
151.3062819612468
 10
127.7345785914971
 20
151.3062819612468
 10
128.571392836906
 20
152.2922689395754
 10
129.8860421413442
 20
153.604506675583
 10
131.0163787157314
 20
154.2664822097754
 10
132.7044766171327
 20
155.2500576196734
 10
133.6642808525008
 20
155.3847609420097
 10
134.7284715499351
 20
155.3565111403944
 10
134.7284715499351
 20
155.3565111403944
 10
133.6877075172549
 20
152.0345756272799
 10
133.6877075172549
 20
152.0345756272799
 10
133.011434827367
 20
152.3184516825359
 10
130.930940291334
 20
151.7768823149844
 10
129.739280976855
 20
150.9162968950455
 10
128.66613302525
 20
150.1454562717016
 10
127.9192358313239
 20
149.4857200510519
 10
127.0393578639405
 20
147.8282835196966
 10
126.164647543194
 20
146.1699857139017
 10
125.4742499524985
 20
143.5262176944419
 10
124.2822461282437
 20
139.6959580071401
 10
124.2822461282437
 20
139.6959580071401
 10
120.5753209406769
 20
127.8027915271048
 10
120.5753209406769
 20
127.8027915271048
 10
120.5753209406769
 20
127.8027915271048
 10
118.1964809388044
 20
127.8027915271048
 10
118.1964809388044
 20
127.8027915271048
 10
118.1964809388044
 20
127.8027915271048
 10
126.377554584636
 20
154.8151140277308
 10
126.377554584636
 20
154.8151140277308
 97
        0
 75
     2
 76
     1
 98
        0
  0
SPLINE
  5
6A8
330
6A2
100
AcDbEntity
  8
LOGO
370
     0
100
AcDbSpline
210
0.0
220
0.0
230
1.0
 70
    11
 71
     3
 72
   104
 73
   100
 74
     0
 42
0.000000001
 43
0.0000000001
 40
0.0
 40
0.0
 40
0.0
 40
0.0
 40
1.0
 40
1.0
 40
1.0
 40
2.0
 40
2.0
 40
2.0
 40
3.0
 40
3.0
 40
3.0
 40
4.0
 40
4.0
 40
4.0
 40
5.0
 40
5.0
 40
5.0
 40
6.0
 40
6.0
 40
6.0
 40
7.0
 40
7.0
 40
7.0
 40
8.0
 40
8.0
 40
8.0
 40
9.0
 40
9.0
 40
9.0
 40
10.0
 40
10.0
 40
10.0
 40
11.0
 40
11.0
 40
11.0
 40
12.0
 40
12.0
 40
12.0
 40
13.0
 40
13.0
 40
13.0
 40
14.0
 40
14.0
 40
14.0
 40
15.0
 40
15.0
 40
15.0
 40
16.0
 40
16.0
 40
16.0
 40
17.0
 40
17.0
 40
17.0
 40
18.0
 40
18.0
 40
18.0
 40
19.0
 40
19.0
 40
19.0
 40
20.0
 40
20.0
 40
20.0
 40
21.0
 40
21.0
 40
21.0
 40
22.0
 40
22.0
 40
22.0
 40
23.0
 40
23.0
 40
23.0
 40
24.0
 40
24.0
 40
24.0
 40
25.0
 40
25.0
 40
25.0
 40
26.0
 40
26.0
 40
26.0
 40
27.0
 40
27.0
 40
27.0
 40
28.0
 40
28.0
 40
28.0
 40
29.0
 40
29.0
 40
29.0
 40
30.0
 40
30.0
 40
30.0
 40
31.0
 40
31.0
 40
31.0
 40
32.0
 40
32.0
 40
32.0
 40
33.0
 40
33.0
 40
33.0
 40
33.0
 10
139.8926730891197
 20
154.8294111834263
 30
0.0
 10
139.8926730891197
 20
154.8294111834263
 30
0.0
 10
142.0344903652445
 20
154.8294111834263
 30
0.0
 10
142.0344903652445
 20
154.8294111834263
 30
0.0
 10
142.0344903652445
 20
154.8294111834263
 30
0.0
 10
140.9516961399171
 20
151.3157559800812
 30
0.0
 10
140.9516961399171
 20
151.3157559800812
 30
0.0
 10
141.8928968473923
 20
152.7887075264977
 30
0.0
 10
142.7341897198865
 20
153.4484437471474
 30
0.0
 10
143.8552245303272
 20
154.2926649527359
 30
0.0
 10
144.9803934580775
 20
155.1296514530327
 30
0.0
 10
146.3139908001845
 20
155.3044901642492
 30
0.0
 10
147.241066606852
 20
155.3044901642492
 30
0.0
 10
148.3855280820469
 20
155.3044901642492
 30
0.0
 10
149.4969166187653
 20
155.0752189084569
 30
0.0
 10
150.0784491203092
 20
153.8172414621372
 30
0.0
 10
150.5228667310863
 20
152.833838307127
 30
0.0
 10
150.5414702589793
 20
152.7201500811143
 30
0.0
 10
150.4140016419347
 20
150.7765981809602
 30
0.0
 10
151.5818897818837
 20
152.7699317437168
 30
0.0
 10
152.4424752018226
 20
153.6256940267945
 30
0.0
 10
153.9038856707499
 20
154.4507949398263
 30
0.0
 10
155.4455669174378
 20
155.3044901642492
 30
0.0
 10
156.339225275853
 20
155.3659851592288
 30
0.0
 10
157.3748216618963
 20
155.2147453676543
 30
0.0
 10
158.911679771723
 20
154.9877134254046
 30
0.0
 10
159.8859534176746
 20
154.4390816074493
 30
0.0
 10
160.3965169054045
 20
152.7816450760939
 30
0.0
 10
160.9070803931344
 20
151.1219692311958
 30
0.0
 10
160.6328506116007
 20
150.2303779314354
 30
0.0
 10
159.9992971339115
 20
147.597634224801
 30
0.0
 10
159.7105979417943
 20
146.4014962832367
 30
0.0
 10
159.2947746424084
 20
144.9400858143094
 30
0.0
 10
158.7463150793409
 20
143.2092687007094
 30
0.0
 10
158.7463150793409
 20
143.2092687007094
 30
0.0
 10
153.9038856707499
 20
127.8027915271048
 30
0.0
 10
153.9038856707499
 20
127.8027915271048
 30
0.0
 10
153.9038856707499
 20
127.8027915271048
 30
0.0
 10
151.3882752878863
 20
127.8027915271048
 30
0.0
 10
151.3882752878863
 20
127.8027915271048
 30
0.0
 10
151.3882752878863
 20
127.8027915271048
 30
0.0
 10
155.6250565106276
 20
141.2751908193897
 30
0.0
 10
155.6250565106276
 20
141.2751908193897
 30
0.0
 10
156.5094131050963
 20
144.0936252951782
 30
0.0
 10
157.109893644309
 20
146.1506931664571
 30
0.0
 10
157.4220195011804
 20
147.4415712963654
 30
0.0
 10
157.8095929989511
 20
149.0530157726519
 30
0.0
 10
157.9656559273867
 20
149.5826995529385
 30
0.0
 10
157.7816877071116
 20
150.7529992613181
 30
0.0
 10
157.6111553680925
 20
151.8430281919372
 30
0.0
 10
157.0582171779396
 20
152.5547853887321
 30
0.0
 10
156.1170164704645
 20
152.5547853887321
 30
0.0
 10
155.1096698860365
 20
152.5547853887321
 30
0.0
 10
154.2962823053817
 20
152.4412694176073
 30
0.0
 10
153.156643967048
 20
151.2945686288697
 30
0.0
 10
152.0170056287143
 20
150.1476955852443
 30
0.0
 10
151.076149431015
 20
148.7930831468137
 30
0.0
 10
150.3337308641742
 20
147.2290087646991
 30
0.0
 10
149.5957909244188
 20
145.6683794803425
 30
0.0
 10
148.8530278478023
 20
143.6822806228776
 30
0.0
 10
148.0964843801539
 20
141.2751908193897
 30
0.0
 10
148.0964843801539
 20
141.2751908193897
 30
0.0
 10
143.8552245303272
 20
127.8027915271048
 30
0.0
 10
143.8552245303272
 20
127.8027915271048
 30
0.0
 10
143.8552245303272
 20
127.8027915271048
 30
0.0
 10
141.486030802177
 20
127.8027915271048
 30
0.0
 10
141.486030802177
 20
127.8027915271048
 30
0.0
 10
141.486030802177
 20
127.8027915271048
 30
0.0
 10
146.3329388378533
 20
143.2092687007094
 30
0.0
 10
146.3329388378533
 20
143.2092687007094
 30
0.0
 10
146.8483254624444
 20
144.8408669988801
 30
0.0
 10
147.2314203331297
 20
146.1837661049335
 30
0.0
 10
147.4867020769946
 20
147.224185627838
 30
0.0
 10
147.9169947869641
 20
149.0197705792876
 30
0.0
 10
148.0306830129768
 20
150.2400242051577
 30
0.0
 10
147.709255392159
 20
151.3157559800812
 30
0.0
 10
147.3874832615654
 20
152.3916600098926
 30
0.0
 10
146.8245542879144
 20
152.6683013598569
 30
0.0
 10
145.8840425999909
 20
152.6683013598569
 30
0.0
 10
145.0989048209514
 20
152.6683013598569
 30
0.0
 10
144.3282364524954
 20
152.3275811915945
 30
0.0
 10
143.4531816219731
 20
151.6538923250251
 30
0.0
 10
142.34627171234
 20
150.8074318058939
 30
0.0
 10
141.901854101563
 20
150.1097995099067
 30
0.0
 10
141.3578731655808
 20
149.289521733736
 30
0.0
 10
140.6299240093235
 20
148.192602607601
 30
0.0
 10
140.2850697237515
 20
147.455696197173
 30
0.0
 10
139.6652966370942
 20
145.8385673095858
 30
0.0
 10
139.0506911970739
 20
144.2214384219986
 30
0.0
 10
138.463991048893
 20
142.3252566160164
 30
0.0
 10
138.0571250036777
 20
141.0154304484394
 30
0.0
 10
138.0571250036777
 20
141.0154304484394
 30
0.0
 10
133.9009590684727
 20
127.8027915271048
 30
0.0
 10
133.9009590684727
 20
127.8027915271048
 30
0.0
 10
133.9009590684727
 20
127.8027915271048
 30
0.0
 10
131.4180771143097
 20
127.8027915271048
 30
0.0
 10
131.4180771143097
 20
127.8027915271048
 30
0.0
 10
131.4180771143097
 20
127.8027915271048
 30
0.0
 10
139.8926730891197
 20
154.8294111834263
 30
0.0
 10
139.8926730891197
 20
154.8294111834263
 30
0.0
  0
HATCH
  5
6A9
330
6A2
100
AcDbEntity
  8
LOGO
 62
   250
420
  2234388
100
AcDbHatch
 10
0.0
 20
0.0
 30
0.0
210
0.0
220
0.0
230
1.0
  2
SOLID
 70
     1
 71
     0
 91
        1
 92
        1
 93
        1
 72
     4
 94
        3
 73
     0
 74
     1
 95
      104
 96
      100
 40
0.0
 40
0.0
 40
0.0
 40
0.0
 40
1.0
 40
1.0
 40
1.0
 40
2.0
 40
2.0
 40
2.0
 40
3.0
 40
3.0
 40
3.0
 40
4.0
 40
4.0
 40
4.0
 40
5.0
 40
5.0
 40
5.0
 40
6.0
 40
6.0
 40
6.0
 40
7.0
 40
7.0
 40
7.0
 40
8.0
 40
8.0
 40
8.0
 40
9.0
 40
9.0
 40
9.0
 40
10.0
 40
10.0
 40
10.0
 40
11.0
 40
11.0
 40
11.0
 40
12.0
 40
12.0
 40
12.0
 40
13.0
 40
13.0
 40
13.0
 40
14.0
 40
14.0
 40
14.0
 40
15.0
 40
15.0
 40
15.0
 40
16.0
 40
16.0
 40
16.0
 40
17.0
 40
17.0
 40
17.0
 40
18.0
 40
18.0
 40
18.0
 40
19.0
 40
19.0
 40
19.0
 40
20.0
 40
20.0
 40
20.0
 40
21.0
 40
21.0
 40
21.0
 40
22.0
 40
22.0
 40
22.0
 40
23.0
 40
23.0
 40
23.0
 40
24.0
 40
24.0
 40
24.0
 40
25.0
 40
25.0
 40
25.0
 40
26.0
 40
26.0
 40
26.0
 40
27.0
 40
27.0
 40
27.0
 40
28.0
 40
28.0
 40
28.0
 40
29.0
 40
29.0
 40
29.0
 40
30.0
 40
30.0
 40
30.0
 40
31.0
 40
31.0
 40
31.0
 40
32.0
 40
32.0
 40
32.0
 40
33.0
 40
33.0
 40
33.0
 40
33.0
 10
139.8926730891197
 20
154.8294111834263
 10
139.8926730891197
 20
154.8294111834263
 10
142.0344903652445
 20
154.8294111834263
 10
142.0344903652445
 20
154.8294111834263
 10
142.0344903652445
 20
154.8294111834263
 10
140.9516961399171
 20
151.3157559800812
 10
140.9516961399171
 20
151.3157559800812
 10
141.8928968473923
 20
152.7887075264977
 10
142.7341897198865
 20
153.4484437471474
 10
143.8552245303272
 20
154.2926649527359
 10
144.9803934580775
 20
155.1296514530327
 10
146.3139908001845
 20
155.3044901642492
 10
147.241066606852
 20
155.3044901642492
 10
148.3855280820469
 20
155.3044901642492
 10
149.4969166187653
 20
155.0752189084569
 10
150.0784491203092
 20
153.8172414621372
 10
150.5228667310863
 20
152.833838307127
 10
150.5414702589793
 20
152.7201500811143
 10
150.4140016419347
 20
150.7765981809602
 10
151.5818897818837
 20
152.7699317437168
 10
152.4424752018226
 20
153.6256940267945
 10
153.9038856707499
 20
154.4507949398263
 10
155.4455669174378
 20
155.3044901642492
 10
156.339225275853
 20
155.3659851592288
 10
157.3748216618963
 20
155.2147453676543
 10
158.911679771723
 20
154.9877134254046
 10
159.8859534176746
 20
154.4390816074493
 10
160.3965169054045
 20
152.7816450760939
 10
160.9070803931344
 20
151.1219692311958
 10
160.6328506116007
 20
150.2303779314354
 10
159.9992971339115
 20
147.597634224801
 10
159.7105979417943
 20
146.4014962832367
 10
159.2947746424084
 20
144.9400858143094
 10
158.7463150793409
 20
143.2092687007094
 10
158.7463150793409
 20
143.2092687007094
 10
153.9038856707499
 20
127.8027915271048
 10
153.9038856707499
 20
127.8027915271048
 10
153.9038856707499
 20
127.8027915271048
 10
151.3882752878863
 20
127.8027915271048
 10
151.3882752878863
 20
127.8027915271048
 10
151.3882752878863
 20
127.8027915271048
 10
155.6250565106276
 20
141.2751908193897
 10
155.6250565106276
 20
141.2751908193897
 10
156.5094131050963
 20
144.0936252951782
 10
157.109893644309
 20
146.1506931664571
 10
157.4220195011804
 20
147.4415712963654
 10
157.8095929989511
 20
149.0530157726519
 10
157.9656559273867
 20
149.5826995529385
 10
157.7816877071116
 20
150.7529992613181
 10
157.6111553680925
 20
151.8430281919372
 10
157.0582171779396
 20
152.5547853887321
 10
156.1170164704645
 20
152.5547853887321
 10
155.1096698860365
 20
152.5547853887321
 10
154.2962823053817
 20
152.4412694176073
 10
153.156643967048
 20
151.2945686288697
 10
152.0170056287143
 20
150.1476955852443
 10
151.076149431015
 20
148.7930831468137
 10
150.3337308641742
 20
147.2290087646991
 10
149.5957909244188
 20
145.6683794803425
 10
148.8530278478023
 20
143.6822806228776
 10
148.0964843801539
 20
141.2751908193897
 10
148.0964843801539
 20
141.2751908193897
 10
143.8552245303272
 20
127.8027915271048
 10
143.8552245303272
 20
127.8027915271048
 10
143.8552245303272
 20
127.8027915271048
 10
141.486030802177
 20
127.8027915271048
 10
141.486030802177
 20
127.8027915271048
 10
141.486030802177
 20
127.8027915271048
 10
146.3329388378533
 20
143.2092687007094
 10
146.3329388378533
 20
143.2092687007094
 10
146.8483254624444
 20
144.8408669988801
 10
147.2314203331297
 20
146.1837661049335
 10
147.4867020769946
 20
147.224185627838
 10
147.9169947869641
 20
149.0197705792876
 10
148.0306830129768
 20
150.2400242051577
 10
147.709255392159
 20
151.3157559800812
 10
147.3874832615654
 20
152.3916600098926
 10
146.8245542879144
 20
152.6683013598569
 10
145.8840425999909
 20
152.6683013598569
 10
145.0989048209514
 20
152.6683013598569
 10
144.3282364524954
 20
152.3275811915945
 10
143.4531816219731
 20
151.6538923250251
 10
142.34627171234
 20
150.8074318058939
 10
141.901854101563
 20
150.1097995099067
 10
141.3578731655808
 20
149.289521733736
 10
140.6299240093235
 20
148.192602607601
 10
140.2850697237515
 20
147.455696197173
 10
139.6652966370942
 20
145.8385673095858
 10
139.0506911970739
 20
144.2214384219986
 10
138.463991048893
 20
142.3252566160164
 10
138.0571250036777
 20
141.0154304484394
 10
138.0571250036777
 20
141.0154304484394
 10
133.9009590684727
 20
127.8027915271048
 10
133.9009590684727
 20
127.8027915271048
 10
133.9009590684727
 20
127.8027915271048
 10
131.4180771143097
 20
127.8027915271048
 10
131.4180771143097
 20
127.8027915271048
 10
131.4180771143097
 20
127.8027915271048
 10
139.8926730891197
 20
154.8294111834263
 10
139.8926730891197
 20
154.8294111834263
 97
        0
 75
     2
 76
     1
 98
        0
  0
SPLINE
  5
6AA
330
6A2
100
AcDbEntity
  8
LOGO
370
     0
100
AcDbSpline
210
0.0
220
0.0
230
1.0
 70
    11
 71
     3
 72
    29
 73
    25
 74
     0
 42
0.000000001
 43
0.0000000001
 40
0.0
 40
0.0
 40
0.0
 40
0.0
 40
1.0
 40
1.0
 40
1.0
 40
2.0
 40
2.0
 40
2.0
 40
3.0
 40
3.0
 40
3.0
 40
4.0
 40
4.0
 40
4.0
 40
5.0
 40
5.0
 40
5.0
 40
6.0
 40
6.0
 40
6.0
 40
7.0
 40
7.0
 40
7.0
 40
8.0
 40
8.0
 40
8.0
 40
8.0
 10
101.6420971922469
 20
132.8388354296931
 30
0.0
 10
101.630039350094
 20
134.7164137077823
 30
0.0
 10
102.2236296937908
 20
138.0598810818841
 30
0.0
 10
103.7487744712405
 20
142.5378191476827
 30
0.0
 10
105.819967243327
 20
148.5896501242061
 30
0.0
 10
107.0602024361932
 20
150.8074318058939
 30
0.0
 10
108.1522984254671
 20
151.8833358357054
 30
0.0
 10
109.741177511439
 20
153.4532668840085
 30
0.0
 10
111.8740375333931
 20
153.5290590346837
 30
0.0
 10
112.5075910110823
 20
153.4532668840085
 30
0.0
 10
113.4012493694975
 20
153.3490526768302
 30
0.0
 10
114.6683563248758
 20
152.7580461564518
 30
0.0
 10
114.7493161221879
 20
150.7838328862519
 30
0.0
 10
114.8106388622796
 20
149.0909118479895
 30
0.0
 10
114.3186789024427
 20
145.9191825971221
 30
0.0
 10
112.6164561002338
 20
140.9489400617108
 30
0.0
 10
110.6444821435766
 20
135.1746117095912
 30
0.0
 10
109.4669477299053
 20
132.8960240524753
 30
0.0
 10
108.5212683953448
 20
131.9072809959403
 30
0.0
 10
106.7346406980658
 20
130.0538184021569
 30
0.0
 10
104.8222669326213
 20
130.2336525051225
 30
0.0
 10
104.5408024457958
 20
130.2336525051225
 30
0.0
 10
104.1721769856939
 20
130.2336525051225
 30
0.0
 10
101.6465758193322
 20
130.6305277668397
 30
0.0
 10
101.6420971922469
 20
132.8388354296931
 30
0.0
  0
SPLINE
  5
6AB
330
6A2
100
AcDbEntity
  8
LOGO
370
     0
100
AcDbSpline
210
0.0
220
0.0
230
1.0
 70
    11
 71
     3
 72
    32
 73
    28
 74
     0
 42
0.000000001
 43
0.0000000001
 40
0.0
 40
0.0
 40
0.0
 40
0.0
 40
1.0
 40
1.0
 40
1.0
 40
2.0
 40
2.0
 40
2.0
 40
3.0
 40
3.0
 40
3.0
 40
4.0
 40
4.0
 40
4.0
 40
5.0
 40
5.0
 40
5.0
 40
6.0
 40
6.0
 40
6.0
 40
7.0
 40
7.0
 40
7.0
 40
8.0
 40
8.0
 40
8.0
 40
9.0
 40
9.0
 40
9.0
 40
9.0
 10
106.2595617172429
 20
153.4105476718098
 30
0.0
 10
104.8222669326213
 20
151.5474388043041
 30
0.0
 10
103.7177685914188
 20
149.8758773721411
 30
0.0
 10
101.9232171692965
 20
144.6141795664062
 30
0.0
 10
100.2754269116635
 20
139.7999999594306
 30
0.0
 10
99.22777268346732
 20
136.3052927937542
 30
0.0
 10
99.06964269637689
 20
132.039572749846
 30
0.0
 10
98.94665270641765
 20
128.8673267343149
 30
0.0
 10
100.8807305877373
 20
127.8027915271048
 30
0.0
 10
103.7129454545577
 20
127.8027915271048
 30
0.0
 10
104.9352661390825
 20
127.8027915271048
 30
0.0
 10
108.0151835347002
 20
127.8827177950895
 30
0.0
 10
110.2045431598849
 20
130.5926316915021
 30
0.0
 10
111.7417457794874
 20
132.4984597712065
 30
0.0
 10
113.155269389579
 20
134.475256864725
 30
0.0
 10
115.0562743324223
 20
140.9489400617108
 30
0.0
 10
116.6361961642235
 20
146.3680788349845
 30
0.0
 10
117.7282921534974
 20
149.8639917848761
 30
0.0
 10
117.6480213757369
 20
151.8595646611754
 30
0.0
 10
117.6480213757369
 20
151.8595646611754
 30
0.0
 10
117.6480213757369
 20
151.8595646611754
 30
0.0
 10
117.6480213757369
 20
151.8595646611754
 30
0.0
 10
117.13229024137
 20
155.18150017429
 30
0.0
 10
114.7162431837115
 20
155.886194920681
 30
0.0
 10
113.3351034925446
 20
155.886194920681
 30
0.0
 10
111.9829026225447
 20
155.886194920681
 30
0.0
 10
108.3414342923792
 20
156.1251124501957
 30
0.0
 10
106.2595617172429
 20
153.4105476718098
 30
0.0
  0
HATCH
  5
6AC
330
6A2
100
AcDbEntity
  8
LOGO
 62
   250
420
  2234388
100
AcDbHatch
 10
0.0
 20
0.0
 30
0.0
210
0.0
220
0.0
230
1.0
  2
SOLID
 70
     1
 71
     0
 91
        2
 92
        1
 93
        1
 72
     4
 94
        3
 73
     0
 74
     1
 95
       29
 96
       25
 40
0.0
 40
0.0
 40
0.0
 40
0.0
 40
1.0
 40
1.0
 40
1.0
 40
2.0
 40
2.0
 40
2.0
 40
3.0
 40
3.0
 40
3.0
 40
4.0
 40
4.0
 40
4.0
 40
5.0
 40
5.0
 40
5.0
 40
6.0
 40
6.0
 40
6.0
 40
7.0
 40
7.0
 40
7.0
 40
8.0
 40
8.0
 40
8.0
 40
8.0
 10
101.6420971922469
 20
132.8388354296931
 10
101.630039350094
 20
134.7164137077823
 10
102.2236296937908
 20
138.0598810818841
 10
103.7487744712405
 20
142.5378191476827
 10
105.819967243327
 20
148.5896501242061
 10
107.0602024361932
 20
150.8074318058939
 10
108.1522984254671
 20
151.8833358357054
 10
109.741177511439
 20
153.4532668840085
 10
111.8740375333931
 20
153.5290590346837
 10
112.5075910110823
 20
153.4532668840085
 10
113.4012493694975
 20
153.3490526768302
 10
114.6683563248758
 20
152.7580461564518
 10
114.7493161221879
 20
150.7838328862519
 10
114.8106388622796
 20
149.0909118479895
 10
114.3186789024427
 20
145.9191825971221
 10
112.6164561002338
 20
140.9489400617108
 10
110.6444821435766
 20
135.1746117095912
 10
109.4669477299053
 20
132.8960240524753
 10
108.5212683953448
 20
131.9072809959403
 10
106.7346406980658
 20
130.0538184021569
 10
104.8222669326213
 20
130.2336525051225
 10
104.5408024457958
 20
130.2336525051225
 10
104.1721769856939
 20
130.2336525051225
 10
101.6465758193322
 20
130.6305277668397
 10
101.6420971922469
 20
132.8388354296931
 97
        0
 92
        1
 93
        1
 72
     4
 94
        3
 73
     0
 74
     1
 95
       32
 96
       28
 40
0.0
 40
0.0
 40
0.0
 40
0.0
 40
1.0
 40
1.0
 40
1.0
 40
2.0
 40
2.0
 40
2.0
 40
3.0
 40
3.0
 40
3.0
 40
4.0
 40
4.0
 40
4.0
 40
5.0
 40
5.0
 40
5.0
 40
6.0
 40
6.0
 40
6.0
 40
7.0
 40
7.0
 40
7.0
 40
8.0
 40
8.0
 40
8.0
 40
9.0
 40
9.0
 40
9.0
 40
9.0
 10
106.2595617172429
 20
153.4105476718098
 10
104.8222669326213
 20
151.5474388043041
 10
103.7177685914188
 20
149.8758773721411
 10
101.9232171692965
 20
144.6141795664062
 10
100.2754269116635
 20
139.7999999594306
 10
99.22777268346732
 20
136.3052927937542
 10
99.06964269637689
 20
132.039572749846
 10
98.94665270641765
 20
128.8673267343149
 10
100.8807305877373
 20
127.8027915271048
 10
103.7129454545577
 20
127.8027915271048
 10
104.9352661390825
 20
127.8027915271048
 10
108.0151835347002
 20
127.8827177950895
 10
110.2045431598849
 20
130.5926316915021
 10
111.7417457794874
 20
132.4984597712065
 10
113.155269389579
 20
134.475256864725
 10
115.0562743324223
 20
140.9489400617108
 10
116.6361961642235
 20
146.3680788349845
 10
117.7282921534974
 20
149.8639917848761
 10
117.6480213757369
 20
151.8595646611754
 10
117.6480213757369
 20
151.8595646611754
 10
117.6480213757369
 20
151.8595646611754
 10
117.6480213757369
 20
151.8595646611754
 10
117.13229024137
 20
155.18150017429
 10
114.7162431837115
 20
155.886194920681
 10
113.3351034925446
 20
155.886194920681
 10
111.9829026225447
 20
155.886194920681
 10
108.3414342923792
 20
156.1251124501957
 10
106.2595617172429
 20
153.4105476718098
 97
        0
 75
     2
 76
     1
 98
        0
  0
ENDBLK
  5
6AD
330
6A2
100
AcDbEntity
  8
0
100
AcDbBlockEnd
  0
BLOCK
  5
D91
330
D90
100
AcDbEntity
  8
0
100
AcDbBlockBegin
  2
*D6
 70
     1
 10
0.0
 20
0.0
 30
0.0
  3
*D6
  1
*D6
  0
LINE
  5
D93
330
D90
100
AcDbEntity
  8
DIM
 62
     0
370
    -2
100
AcDbLine
 10
194.9013848396499
 20
991.8781341107873
 30
0.0
 11
194.9013848396499
 21
940.5413793571681
 31
0.0
  0
LINE
  5
D94
330
D90
100
AcDbEntity
  8
DIM
 62
     0
370
    -2
100
AcDbLine
 10
521.6879737609329
 20
991.8781341107873
 30
0.0
 11
521.6879737609329
 21
940.5413793571681
 31
0.0
  0
LINE
  5
D95
330
D90
100
AcDbEntity
  8
DIM
 62
     0
370
    -2
100
AcDbLine
 10
200.9013848396499
 20
940.5413793571681
 30
0.0
 11
515.6879737609329
 21
940.5413793571681
 31
0.0
  0
INSERT
  5
D96
330
D90
100
AcDbEntity
  8
DIM
 62
     0
370
    -2
100
AcDbBlockReference
  2
_DOT
 10
194.9013848396499
 20
940.5413793571681
 30
0.0
 41
6.0
 42
6.0
 43
6.0
 50
180.0
  0
INSERT
  5
D97
330
D90
100
AcDbEntity
  8
DIM
 62
     0
370
    -2
100
AcDbBlockReference
  2
_DOT
 10
521.6879737609329
 20
940.5413793571681
 30
0.0
 41
6.0
 42
6.0
 43
6.0
  0
MTEXT
  5
D98
330
D90
100
AcDbEntity
  8
DIM
 62
     0
100
AcDbMText
 10
358.2946793002914
 20
956.5413793571681
 30
0.0
 40
12.0
 41
0.0
 46
0.0
 71
     5
 72
     1
  1
\A1;327
  7
ＭＳ ゴシック
 73
     1
 44
1.0
  0
POINT
  5
D99
330
D90
100
AcDbEntity
  8
Defpoints
 62
     0
100
AcDbPoint
 10
194.9013848396499
 20
1011.878134110787
 30
0.0
  0
POINT
  5
D9A
330
D90
100
AcDbEntity
  8
Defpoints
 62
     0
100
AcDbPoint
 10
521.6879737609329
 20
1011.878134110787
 30
0.0
  0
POINT
  5
D9B
330
D90
100
AcDbEntity
  8
Defpoints
 62
     0
100
AcDbPoint
 10
521.6879737609329
 20
940.5413793571681
 30
0.0
  0
ENDBLK
  5
D92
330
D90
100
AcDbEntity
  8
0
100
AcDbBlockEnd
  0
BLOCK
  5
DA0
330
D9F
100
AcDbEntity
  8
0
100
AcDbBlockBegin
  2
*D7
 70
     1
 10
0.0
 20
0.0
 30
0.0
  3
*D7
  1
*D7
  0
LINE
  5
DA2
330
D9F
100
AcDbEntity
  8
DIM
 62
     0
370
    -2
100
AcDbLine
 10
541.6879737609329
 20
1259.176093294461
 30
0.0
 11
592.27223683134
 21
1259.176093294461
 31
0.0
  0
LINE
  5
DA3
330
D9F
100
AcDbEntity
  8
DIM
 62
     0
370
    -2
100
AcDbLine
 10
541.6879737609329
 20
1011.878134110787
 30
0.0
 11
592.27223683134
 21
1011.878134110787
 31
0.0
  0
LINE
  5
DA4
330
D9F
100
AcDbEntity
  8
DIM
 62
     0
370
    -2
100
AcDbLine
 10
592.27223683134
 20
1253.176093294461
 30
0.0
 11
592.27223683134
 21
1017.878134110787
 31
0.0
  0
INSERT
  5
DA5
330
D9F
100
AcDbEntity
  8
DIM
 62
     0
370
    -2
100
AcDbBlockReference
  2
_DOT
 10
592.27223683134
 20
1259.176093294461
 30
0.0
 41
6.0
 42
6.0
 43
6.0
 50
90.0
  0
INSERT
  5
DA6
330
D9F
100
AcDbEntity
  8
DIM
 62
     0
370
    -2
100
AcDbBlockReference
  2
_DOT
 10
592.27223683134
 20
1011.878134110787
 30
0.0
 41
6.0
 42
6.0
 43
6.0
 50
270.0
  0
MTEXT
  5
DA7
330
D9F
100
AcDbEntity
  8
DIM
 62
     0
100
AcDbMText
 10
576.27223683134
 20
1135.527113702624
 30
0.0
 40
12.0
 41
0.0
 46
0.0
 71
     5
 72
     1
  1
\A1;247
  7
ＭＳ ゴシック
 11
0.0
 21
1.0
 31
0.0
 73
     1
 44
1.0
  0
POINT
  5
DA8
330
D9F
100
AcDbEntity
  8
Defpoints
 62
     0
100
AcDbPoint
 10
521.6879737609329
 20
1259.176093294461
 30
0.0
  0
POINT
  5
DA9
330
D9F
100
AcDbEntity
  8
Defpoints
 62
     0
100
AcDbPoint
 10
521.6879737609329
 20
1011.878134110787
 30
0.0
  0
POINT
  5
DAA
330
D9F
100
AcDbEntity
  8
Defpoints
 62
     0
100
AcDbPoint
 10
592.27223683134
 20
1011.878134110787
 30
0.0
  0
ENDBLK
  5
DA1
330
D9F
100
AcDbEntity
  8
0
100
AcDbBlockEnd
  0
BLOCK
  5
EA5
330
EA4
100
AcDbEntity
  8
0
100
AcDbBlockBegin
  2
*D8
 70
     1
 10
0.0
 20
0.0
 30
0.0
  3
*D8
  1
*D73
  0
LINE
  5
EA6
330
EA4
100
AcDbEntity
  8
DIM
  6
Continuous
 62
     0
370
    -2
100
AcDbLine
 10
398.0721020212702
 20
2119.525238800501
 30
0.0
 11
398.0721020212702
 21
2246.882556157094
 31
0.0
  0
LINE
  5
EA7
330
EA4
100
AcDbEntity
  8
DIM
  6
Continuous
 62
     0
370
    -2
100
AcDbLine
 10
758.0721020212702
 20
2119.525238800501
 30
0.0
 11
758.0721020212702
 21
2246.882556157094
 31
0.0
  0
LINE
  5
EA8
330
EA4
100
AcDbEntity
  8
DIM
  6
Continuous
 62
     0
370
    -2
100
AcDbLine
 10
401.0721020212702
 20
2246.882556157094
 30
0.0
 11
755.0721020212702
 21
2246.882556157094
 31
0.0
  0
INSERT
  5
EA9
330
EA4
100
AcDbEntity
  8
DIM
 62
     0
370
    -2
100
AcDbBlockReference
  2
_DOT
 10
398.0721020212702
 20
2246.882556157094
 30
0.0
 41
3.0
 42
3.0
 43
3.0
 50
180.0
  0
INSERT
  5
EAA
330
EA4
100
AcDbEntity
  8
DIM
 62
     0
370
    -2
100
AcDbBlockReference
  2
_DOT
 10
758.0721020212702
 20
2246.882556157094
 30
0.0
 41
3.0
 42
3.0
 43
3.0
  0
MTEXT
  5
EAB
330
EA4
100
AcDbEntity
  8
DIM
  6
HIDDEN
 62
     0
 48
0.05
100
AcDbMText
 10
578.0721020212702
 20
2262.882556157094
 30
0.0
 40
12.0
 41
0.0
 46
0.0
 71
     5
 72
     1
  1
\A1;360
  7
ＭＳ ゴシック
 73
     1
 44
1.0
  0
POINT
  5
EAC
330
EA4
100
AcDbEntity
  8
Defpoints
 62
     0
100
AcDbPoint
 10
398.0721020212702
 20
2114.525238800501
 30
0.0
  0
POINT
  5
EAD
330
EA4
100
AcDbEntity
  8
Defpoints
 62
     0
100
AcDbPoint
 10
758.0721020212702
 20
2114.525238800501
 30
0.0
  0
POINT
  5
EAE
330
EA4
100
AcDbEntity
  8
Defpoints
 62
     0
100
AcDbPoint
 10
758.0721020212702
 20
2246.882556157094
 30
0.0
  0
ENDBLK
  5
EAF
330
EA4
100
AcDbEntity
  8
0
100
AcDbBlockEnd
  0
BLOCK
  5
EB2
330
EB1
100
AcDbEntity
  8
0
100
AcDbBlockBegin
  2
*D9
 70
     1
 10
0.0
 20
0.0
 30
0.0
  3
*D9
  1
*D74
  0
LINE
  5
EB3
330
EB1
100
AcDbEntity
  8
DIM
  6
Continuous
 62
     0
370
    -2
100
AcDbLine
 10
657.8901145741739
 20
2188.79153588869
 30
0.0
 11
858.3130122149524
 21
2188.79153588869
 31
0.0
  0
LINE
  5
EB4
330
EB1
100
AcDbEntity
  8
DIM
  6
Continuous
 62
     0
370
    -2
100
AcDbLine
 10
657.8901145741739
 20
1970.79153588869
 30
0.0
 11
858.3130122149524
 21
1970.79153588869
 31
0.0
  0
LINE
  5
EB5
330
EB1
100
AcDbEntity
  8
DIM
  6
Continuous
 62
     0
370
    -2
100
AcDbLine
 10
858.3130122149524
 20
2185.79153588869
 30
0.0
 11
858.3130122149524
 21
1973.79153588869
 31
0.0
  0
INSERT
  5
EB6
330
EB1
100
AcDbEntity
  8
DIM
 62
     0
370
    -2
100
AcDbBlockReference
  2
_DOT
 10
858.3130122149524
 20
2188.79153588869
 30
0.0
 41
3.0
 42
3.0
 43
3.0
 50
90.0
  0
INSERT
  5
EB7
330
EB1
100
AcDbEntity
  8
DIM
 62
     0
370
    -2
100
AcDbBlockReference
  2
_DOT
 10
858.3130122149524
 20
1970.79153588869
 30
0.0
 41
3.0
 42
3.0
 43
3.0
 50
270.0
  0
MTEXT
  5
EB8
330
EB1
100
AcDbEntity
  8
DIM
  6
HIDDEN
 62
     0
 48
0.05
100
AcDbMText
 10
842.3130122149524
 20
2079.79153588869
 30
0.0
 40
12.0
 41
0.0
 46
0.0
 71
     5
 72
     1
  1
\A1;218
  7
ＭＳ ゴシック
 11
0.0
 21
1.0
 31
0.0
 73
     1
 44
1.0
  0
POINT
  5
EB9
330
EB1
100
AcDbEntity
  8
Defpoints
 62
     0
100
AcDbPoint
 10
652.8901145741739
 20
2188.79153588869
 30
0.0
  0
POINT
  5
EBA
330
EB1
100
AcDbEntity
  8
Defpoints
 62
     0
100
AcDbPoint
 10
652.8901145741739
 20
1970.79153588869
 30
0.0
  0
POINT
  5
EBB
330
EB1
100
AcDbEntity
  8
Defpoints
 62
     0
100
AcDbPoint
 10
858.3130122149524
 20
1970.79153588869
 30
0.0
  0
ENDBLK
  5
EBC
330
EB1
100
AcDbEntity
  8
0
100
AcDbBlockEnd
  0
BLOCK
  5
EBF
330
EBE
100
AcDbEntity
  8
0
100
AcDbBlockBegin
  2
*D10
 70
     1
 10
0.0
 20
0.0
 30
0.0
  3
*D10
  1
*D75
  0
LINE
  5
EC0
330
EBE
100
AcDbEntity
  8
DIM
  6
Continuous
 62
     0
370
    -2
100
AcDbLine
 10
398.0721020212702
 20
1049.759174269942
 30
0.0
 11
398.0721020212702
 21
905.4386710691169
 31
0.0
  0
LINE
  5
EC1
330
EBE
100
AcDbEntity
  8
DIM
  6
Continuous
 62
     0
370
    -2
100
AcDbLine
 10
513.0721020212702
 20
1000.458633181571
 30
0.0
 11
513.0721020212702
 21
905.4386710691169
 31
0.0
  0
LINE
  5
EC2
330
EBE
100
AcDbEntity
  8
DIM
  6
Continuous
 62
     0
370
    -2
100
AcDbLine
 10
401.0721020212702
 20
905.4386710691169
 30
0.0
 11
510.0721020212702
 21
905.4386710691169
 31
0.0
  0
INSERT
  5
EC3
330
EBE
100
AcDbEntity
  8
DIM
 62
     0
370
    -2
100
AcDbBlockReference
  2
_DOT
 10
398.0721020212702
 20
905.4386710691169
 30
0.0
 41
3.0
 42
3.0
 43
3.0
 50
180.0
  0
INSERT
  5
EC4
330
EBE
100
AcDbEntity
  8
DIM
 62
     0
370
    -2
100
AcDbBlockReference
  2
_DOT
 10
513.0721020212702
 20
905.4386710691169
 30
0.0
 41
3.0
 42
3.0
 43
3.0
  0
MTEXT
  5
EC5
330
EBE
100
AcDbEntity
  8
DIM
  6
HIDDEN
 62
     0
 48
0.05
100
AcDbMText
 10
455.5721020212702
 20
921.4386710691169
 30
0.0
 40
12.0
 41
0.0
 46
0.0
 71
     5
 72
     1
  1
\A1;115
  7
ＭＳ ゴシック
 73
     1
 44
1.0
  0
POINT
  5
EC6
330
EBE
100
AcDbEntity
  8
Defpoints
 62
     0
100
AcDbPoint
 10
398.0721020212702
 20
1054.759174269942
 30
0.0
  0
POINT
  5
EC7
330
EBE
100
AcDbEntity
  8
Defpoints
 62
     0
100
AcDbPoint
 10
513.0721020212702
 20
1005.458633181571
 30
0.0
  0
POINT
  5
EC8
330
EBE
100
AcDbEntity
  8
Defpoints
 62
     0
100
AcDbPoint
 10
513.0721020212702
 20
905.4386710691169
 30
0.0
  0
ENDBLK
  5
EC9
330
EBE
100
AcDbEntity
  8
0
100
AcDbBlockEnd
  0
BLOCK
  5
ECC
330
ECB
100
AcDbEntity
  8
0
100
AcDbBlockBegin
  2
*D11
 70
     1
 10
0.0
 20
0.0
 30
0.0
  3
*D11
  1
*D76
  0
LINE
  5
ECD
330
ECB
100
AcDbEntity
  8
DIM
  6
Continuous
 62
     0
370
    -2
100
AcDbLine
 10
763.0788064597427
 20
1085.519966936352
 30
0.0
 11
857.9264858544739
 21
1085.519966936352
 31
0.0
  0
LINE
  5
ECE
330
ECB
100
AcDbEntity
  8
DIM
  6
Continuous
 62
     0
370
    -2
100
AcDbLine
 10
623.7504945584734
 20
1005.519966936352
 30
0.0
 11
857.9264858544739
 21
1005.519966936352
 31
0.0
  0
LINE
  5
ECF
330
ECB
100
AcDbEntity
  8
DIM
  6
Continuous
 62
     0
370
    -2
100
AcDbLine
 10
857.9264858544739
 20
1082.519966936352
 30
0.0
 11
857.9264858544739
 21
1008.519966936352
 31
0.0
  0
INSERT
  5
ED0
330
ECB
100
AcDbEntity
  8
DIM
 62
     0
370
    -2
100
AcDbBlockReference
  2
_DOT
 10
857.9264858544739
 20
1085.519966936352
 30
0.0
 41
3.0
 42
3.0
 43
3.0
 50
90.0
  0
INSERT
  5
ED1
330
ECB
100
AcDbEntity
  8
DIM
 62
     0
370
    -2
100
AcDbBlockReference
  2
_DOT
 10
857.9264858544739
 20
1005.519966936352
 30
0.0
 41
3.0
 42
3.0
 43
3.0
 50
270.0
  0
MTEXT
  5
ED2
330
ECB
100
AcDbEntity
  8
DIM
  6
HIDDEN
 62
     0
 48
0.05
100
AcDbMText
 10
841.9264858544739
 20
1045.519966936352
 30
0.0
 40
12.0
 41
0.0
 46
0.0
 71
     5
 72
     1
  1
\A1;80
  7
ＭＳ ゴシック
 11
0.0
 21
1.0
 31
0.0
 73
     1
 44
1.0
  0
POINT
  5
ED3
330
ECB
100
AcDbEntity
  8
Defpoints
 62
     0
100
AcDbPoint
 10
758.0788064597427
 20
1085.519966936352
 30
0.0
  0
POINT
  5
ED4
330
ECB
100
AcDbEntity
  8
Defpoints
 62
     0
100
AcDbPoint
 10
618.7504945584734
 20
1005.519966936352
 30
0.0
  0
POINT
  5
ED5
330
ECB
100
AcDbEntity
  8
Defpoints
 62
     0
100
AcDbPoint
 10
857.9264858544739
 20
1005.519966936352
 30
0.0
  0
ENDBLK
  5
ED6
330
ECB
100
AcDbEntity
  8
0
100
AcDbBlockEnd
  0
BLOCK
  5
ED9
330
ED8
100
AcDbEntity
  8
0
100
AcDbBlockBegin
  2
*D12
 70
     1
 10
0.0
 20
0.0
 30
0.0
  3
*D12
  1
*D77
  0
LINE
  5
EDA
330
ED8
100
AcDbEntity
  8
DIM
  6
Continuous
 62
     0
370
    -2
100
AcDbLine
 10
412.200808849343
 20
2004.397485658447
 30
0.0
 11
412.200808849343
 21
1883.984263001092
 31
0.0
  0
LINE
  5
EDB
330
ED8
100
AcDbEntity
  8
DIM
  6
Continuous
 62
     0
370
    -2
100
AcDbLine
 10
692.200808849343
 20
2004.397485658447
 30
0.0
 11
692.200808849343
 21
1883.984263001092
 31
0.0
  0
LINE
  5
EDC
330
ED8
100
AcDbEntity
  8
DIM
  6
Continuous
 62
     0
370
    -2
100
AcDbLine
 10
415.200808849343
 20
1883.984263001092
 30
0.0
 11
689.200808849343
 21
1883.984263001092
 31
0.0
  0
INSERT
  5
EDD
330
ED8
100
AcDbEntity
  8
DIM
 62
     0
370
    -2
100
AcDbBlockReference
  2
_DOT
 10
412.200808849343
 20
1883.984263001092
 30
0.0
 41
3.0
 42
3.0
 43
3.0
 50
180.0
  0
INSERT
  5
EDE
330
ED8
100
AcDbEntity
  8
DIM
 62
     0
370
    -2
100
AcDbBlockReference
  2
_DOT
 10
692.200808849343
 20
1883.984263001092
 30
0.0
 41
3.0
 42
3.0
 43
3.0
  0
MTEXT
  5
EDF
330
ED8
100
AcDbEntity
  8
DIM
  6
HIDDEN
 62
     0
 48
0.05
100
AcDbMText
 10
552.200808849343
 20
1899.984263001092
 30
0.0
 40
12.0
 41
0.0
 46
0.0
 71
     5
 72
     1
  1
\A1;280
  7
ＭＳ ゴシック
 73
     1
 44
1.0
  0
POINT
  5
EE0
330
ED8
100
AcDbEntity
  8
Defpoints
 62
     0
100
AcDbPoint
 10
412.200808849343
 20
2009.397485658447
 30
0.0
  0
POINT
  5
EE1
330
ED8
100
AcDbEntity
  8
Defpoints
 62
     0
100
AcDbPoint
 10
692.200808849343
 20
2009.397485658447
 30
0.0
  0
POINT
  5
EE2
330
ED8
100
AcDbEntity
  8
Defpoints
 62
     0
100
AcDbPoint
 10
692.200808849343
 20
1883.984263001092
 30
0.0
  0
ENDBLK
  5
EE3
330
ED8
100
AcDbEntity
  8
0
100
AcDbBlockEnd
  0
BLOCK
  5
EEB
330
EEA
100
AcDbEntity
  8
0
100
AcDbBlockBegin
  2
*D13
 70
     1
 10
0.0
 20
0.0
 30
0.0
  3
*D13
  1
*D95
  0
LINE
  5
EEC
330
EEA
100
AcDbEntity
  8
DIM
  6
Continuous
 62
     0
370
    -2
100
AcDbLine
 10
1439.317258596262
 20
1085.519966936352
 30
0.0
 11
1439.317258596262
 21
1212.351966936352
 31
0.0
  0
LINE
  5
EED
330
EEA
100
AcDbEntity
  8
DIM
  6
Continuous
 62
     0
370
    -2
100
AcDbLine
 10
1439.317258596262
 20
1082.519966936352
 30
0.0
 11
1439.317258596262
 21
1023.633943824637
 31
0.0
  0
INSERT
  5
EEE
330
EEA
100
AcDbEntity
  8
DIM
 62
     0
370
    -2
100
AcDbBlockReference
  2
_DOT
 10
1439.317258596262
 20
1085.519966936352
 30
0.0
 41
3.0
 42
3.0
 43
3.0
 50
90.0
  0
INSERT
  5
EEF
330
EEA
100
AcDbEntity
  8
DIM
 62
     0
370
    -2
100
AcDbBlockReference
  2
_DOT
 10
1439.317258596262
 20
1020.633943824637
 30
0.0
 41
3.0
 42
3.0
 43
3.0
 50
270.0
  0
MTEXT
  5
EF0
330
EEA
100
AcDbEntity
  8
DIM
  6
HIDDEN
 62
     0
 48
0.05
100
AcDbMText
 10
1422.255258596262
 20
1173.407966936352
 30
0.0
 40
12.0
 41
0.0
 46
0.0
 71
     5
 72
     1
  1
\A1;63(深さ)
  7
ＭＳ ゴシック
 11
0.0
 21
1.0
 31
0.0
 73
     1
 44
1.0
  0
POINT
  5
EF1
330
EEA
100
AcDbEntity
  8
Defpoints
 62
     0
100
AcDbPoint
 10
1462.428518576173
 20
1085.519966936352
 30
0.0
  0
POINT
  5
EF2
330
EEA
100
AcDbEntity
  8
Defpoints
 62
     0
100
AcDbPoint
 10
1439.317258596262
 20
1020.633943824637
 30
0.0
  0
POINT
  5
EF3
330
EEA
100
AcDbEntity
  8
Defpoints
 62
     0
100
AcDbPoint
 10
1439.317258596262
 20
1020.633943824637
 30
0.0
  0
ENDBLK
  5
EF4
330
EEA
100
AcDbEntity
  8
0
100
AcDbBlockEnd
  0
BLOCK
  5
EF7
330
EF6
100
AcDbEntity
  8
0
100
AcDbBlockBegin
  2
*D14
 70
     1
 10
0.0
 20
0.0
 30
0.0
  3
*D14
  1
*D96
  0
LINE
  5
EF8
330
EF6
100
AcDbEntity
  8
DIM
  6
Continuous
 62
     0
370
    -2
100
AcDbLine
 10
1439.317258596263
 20
924.6362008516055
 30
0.0
 11
1439.317258596263
 21
878.4358387466359
 31
0.0
  0
LINE
  5
EF9
330
EF6
100
AcDbEntity
  8
DIM
  6
Continuous
 62
     0
370
    -2
100
AcDbLine
 10
1548.477038150369
 20
1090.519966936352
 30
0.0
 11
1548.477038150369
 21
878.4358387466359
 31
0.0
  0
LINE
  5
EFA
330
EF6
100
AcDbEntity
  8
DIM
  6
Continuous
 62
     0
370
    -2
100
AcDbLine
 10
1442.317258596263
 20
878.4358387466359
 30
0.0
 11
1545.477038150369
 21
878.4358387466359
 31
0.0
  0
INSERT
  5
EFB
330
EF6
100
AcDbEntity
  8
DIM
 62
     0
370
    -2
100
AcDbBlockReference
  2
_DOT
 10
1439.317258596263
 20
878.4358387466359
 30
0.0
 41
3.0
 42
3.0
 43
3.0
 50
180.0
  0
INSERT
  5
EFC
330
EF6
100
AcDbEntity
  8
DIM
 62
     0
370
    -2
100
AcDbBlockReference
  2
_DOT
 10
1548.477038150369
 20
878.4358387466359
 30
0.0
 41
3.0
 42
3.0
 43
3.0
  0
MTEXT
  5
EFD
330
EF6
100
AcDbEntity
  8
DIM
  6
HIDDEN
 62
     0
 48
0.05
100
AcDbMText
 10
1493.897148373316
 20
894.4358387466359
 30
0.0
 40
12.0
 41
0.0
 46
0.0
 71
     5
 72
     1
  1
\A1;109
  7
ＭＳ ゴシック
 73
     1
 44
1.0
  0
POINT
  5
EFE
330
EF6
100
AcDbEntity
  8
Defpoints
 62
     0
100
AcDbPoint
 10
1439.317258596263
 20
929.6362008516055
 30
0.0
  0
POINT
  5
EFF
330
EF6
100
AcDbEntity
  8
Defpoints
 62
     0
100
AcDbPoint
 10
1548.477038150369
 20
1095.519966936352
 30
0.0
  0
POINT
  5
F00
330
EF6
100
AcDbEntity
  8
Defpoints
 62
     0
100
AcDbPoint
 10
1548.477038150369
 20
878.4358387466359
 30
0.0
  0
ENDBLK
  5
F01
330
EF6
100
AcDbEntity
  8
0
100
AcDbBlockEnd
  0
BLOCK
  5
F04
330
F03
100
AcDbEntity
  8
0
100
AcDbBlockBegin
  2
*D15
 70
     1
 10
0.0
 20
0.0
 30
0.0
  3
*D15
  1
*D100
  0
LINE
  5
F05
330
F03
100
AcDbEntity
  8
DIM
  6
Continuous
 62
     0
370
    -2
100
AcDbLine
 10
454.3311093892961
 20
2174.79153588869
 30
0.0
 11
283.0190573575098
 21
2174.79153588869
 31
0.0
  0
LINE
  5
F06
330
F03
100
AcDbEntity
  8
DIM
  6
Continuous
 62
     0
370
    -2
100
AcDbLine
 10
454.3311093892961
 20
1984.79153588869
 30
0.0
 11
283.0190573575097
 21
1984.79153588869
 31
0.0
  0
LINE
  5
F07
330
F03
100
AcDbEntity
  8
DIM
  6
Continuous
 62
     0
370
    -2
100
AcDbLine
 10
283.0190573575098
 20
2171.79153588869
 30
0.0
 11
283.0190573575097
 21
1987.79153588869
 31
0.0
  0
INSERT
  5
F08
330
F03
100
AcDbEntity
  8
DIM
 62
     0
370
    -2
100
AcDbBlockReference
  2
_DOT
 10
283.0190573575098
 20
2174.79153588869
 30
0.0
 41
3.0
 42
3.0
 43
3.0
 50
89.99999999999999
  0
INSERT
  5
F09
330
F03
100
AcDbEntity
  8
DIM
 62
     0
370
    -2
100
AcDbBlockReference
  2
_DOT
 10
283.0190573575097
 20
1984.79153588869
 30
0.0
 41
3.0
 42
3.0
 43
3.0
 50
270.0
  0
MTEXT
  5
F0A
330
F03
100
AcDbEntity
  8
DIM
  6
HIDDEN
 62
     0
 48
0.05
100
AcDbMText
 10
267.0190573575097
 20
2079.79153588869
 30
0.0
 40
12.0
 41
0.0
 46
0.0
 71
     5
 72
     1
  1
\A1;190
  7
ＭＳ ゴシック
 11
2.991758887410952E-16
 21
1.0
 31
0.0
 73
     1
 44
1.0
  0
POINT
  5
F0B
330
F03
100
AcDbEntity
  8
Defpoints
 62
     0
100
AcDbPoint
 10
459.3311093892961
 20
2174.79153588869
 30
0.0
  0
POINT
  5
F0C
330
F03
100
AcDbEntity
  8
Defpoints
 62
     0
100
AcDbPoint
 10
459.3311093892961
 20
1984.79153588869
 30
0.0
  0
POINT
  5
F0D
330
F03
100
AcDbEntity
  8
Defpoints
 62
     0
100
AcDbPoint
 10
283.0190573575097
 20
1984.79153588869
 30
0.0
  0
ENDBLK
  5
F0E
330
F03
100
AcDbEntity
  8
0
100
AcDbBlockEnd
  0
BLOCK
  5
F24
330
F23
100
AcDbEntity
  8
0
100
AcDbBlockBegin
  2
*D16
 70
     1
 10
0.0
 20
0.0
 30
0.0
  3
*D16
  1
*D102
  0
LINE
  5
F25
330
F23
100
AcDbEntity
  8
MODEL
 62
     0
370
    -2
100
AcDbLine
 10
1396.817201365532
 20
1000.519966936352
 30
0.0
 11
1396.817201365532
 21
938.0427345485245
 31
0.0
  0
LINE
  5
F26
330
F23
100
AcDbEntity
  8
MODEL
 62
     0
370
    -2
100
AcDbLine
 10
1481.817315825047
 20
1000.519966936352
 30
0.0
 11
1481.817315825047
 21
938.0427345485245
 31
0.0
  0
LINE
  5
F27
330
F23
100
AcDbEntity
  8
MODEL
 62
     0
370
    -2
100
AcDbLine
 10
1399.817201365532
 20
938.0427345485245
 30
0.0
 11
1478.817315825047
 21
938.0427345485245
 31
0.0
  0
INSERT
  5
F28
330
F23
100
AcDbEntity
  8
MODEL
 62
     0
370
    -2
100
AcDbBlockReference
  2
_DOT
 10
1396.817201365532
 20
938.0427345485245
 30
0.0
 41
3.0
 42
3.0
 43
3.0
 50
180.0
  0
INSERT
  5
F29
330
F23
100
AcDbEntity
  8
MODEL
 62
     0
370
    -2
100
AcDbBlockReference
  2
_DOT
 10
1481.817315825047
 20
938.0427345485245
 30
0.0
 41
3.0
 42
3.0
 43
3.0
  0
MTEXT
  5
F2A
330
F23
100
AcDbEntity
  8
MODEL
  6
HIDDEN
 62
     0
 48
0.05
100
AcDbMText
 10
1439.317258595289
 20
954.0427345485245
 30
0.0
 40
12.0
 41
0.0
 46
0.0
 71
     5
 72
     1
  1
\A1;85
  7
ＭＳ ゴシック
 73
     1
 44
1.0
  0
POINT
  5
F2B
330
F23
100
AcDbEntity
  8
Defpoints
 62
     0
100
AcDbPoint
 10
1396.817201365532
 20
1005.519966936352
 30
0.0
  0
POINT
  5
F2C
330
F23
100
AcDbEntity
  8
Defpoints
 62
     0
100
AcDbPoint
 10
1481.817315825047
 20
1005.519966936352
 30
0.0
  0
POINT
  5
F2D
330
F23
100
AcDbEntity
  8
Defpoints
 62
     0
100
AcDbPoint
 10
1481.817315825047
 20
938.0427345485245
 30
0.0
  0
ENDBLK
  5
F2E
330
F23
100
AcDbEntity
  8
0
100
AcDbBlockEnd
  0
BLOCK
  5
F48
330
F47
100
AcDbEntity
  8
0
100
AcDbBlockBegin
  2
*D17
 70
     1
 10
0.0
 20
0.0
 30
0.0
  3
*D17
  1
*D107
  0
LINE
  5
F49
330
F47
100
AcDbEntity
  8
MODEL
 62
     0
370
    -2
100
AcDbLine
 10
1426.980157026799
 20
2089.806143289787
 30
0.0
 11
1426.980157026799
 21
2216.058443918653
 31
0.0
  0
LINE
  5
F4A
330
F47
100
AcDbEntity
  8
MODEL
 62
     0
370
    -2
100
AcDbLine
 10
1326.980157026799
 20
2089.806143289791
 30
0.0
 11
1326.980157026799
 21
2216.058443918653
 31
0.0
  0
LINE
  5
F4B
330
F47
100
AcDbEntity
  8
MODEL
 62
     0
370
    -2
100
AcDbLine
 10
1423.980157026799
 20
2216.058443918653
 30
0.0
 11
1329.980157026799
 21
2216.058443918653
 31
0.0
  0
INSERT
  5
F4C
330
F47
100
AcDbEntity
  8
MODEL
 62
     0
370
    -2
100
AcDbBlockReference
  2
_DOT
 10
1426.980157026799
 20
2216.058443918653
 30
0.0
 41
3.0
 42
3.0
 43
3.0
  0
INSERT
  5
F4D
330
F47
100
AcDbEntity
  8
MODEL
 62
     0
370
    -2
100
AcDbBlockReference
  2
_DOT
 10
1326.980157026799
 20
2216.058443918653
 30
0.0
 41
3.0
 42
3.0
 43
3.0
 50
180.0
  0
MTEXT
  5
F4E
330
F47
100
AcDbEntity
  8
MODEL
  6
HIDDEN
 62
     0
 48
0.05
100
AcDbMText
 10
1376.980157026799
 20
2232.058443918653
 30
0.0
 40
12.0
 41
0.0
 46
0.0
 71
     5
 72
     1
  1
\A1;100
  7
ＭＳ ゴシック
 73
     1
 44
1.0
  0
POINT
  5
F4F
330
F47
100
AcDbEntity
  8
Defpoints
 62
     0
100
AcDbPoint
 10
1426.980157026799
 20
2084.806143289787
 30
0.0
  0
POINT
  5
F50
330
F47
100
AcDbEntity
  8
Defpoints
 62
     0
100
AcDbPoint
 10
1326.980157026799
 20
2084.806143289791
 30
0.0
  0
POINT
  5
F51
330
F47
100
AcDbEntity
  8
Defpoints
 62
     0
100
AcDbPoint
 10
1326.980157026799
 20
2216.058443918653
 30
0.0
  0
ENDBLK
  5
F52
330
F47
100
AcDbEntity
  8
0
100
AcDbBlockEnd
  0
BLOCK
  5
FE3
330
FE2
100
AcDbEntity
  8
0
100
AcDbBlockBegin
  2
*D18
 70
     1
 10
0.0
 20
0.0
 30
0.0
  3
*D18
  1
*D19
  0
LINE
  5
FE5
330
FE2
100
AcDbEntity
  8
DIM
  6
Continuous
 62
     0
370
    -2
100
AcDbLine
 10
124.0802721196674
 20
1039.096081189811
 30
0.0
 11
124.0802721196674
 21
1178.640333341109
 31
0.0
  0
LINE
  5
FE6
330
FE2
100
AcDbEntity
  8
DIM
  6
Continuous
 62
     0
370
    -2
100
AcDbLine
 10
484.0802721196674
 20
1036.780807039373
 30
0.0
 11
484.0802721196675
 21
1178.640333341109
 31
0.0
  0
LINE
  5
FE7
330
FE2
100
AcDbEntity
  8
DIM
  6
Continuous
 62
     0
370
    -2
100
AcDbLine
 10
127.0802721196674
 20
1178.640333341109
 30
0.0
 11
481.0802721196675
 21
1178.640333341109
 31
0.0
  0
INSERT
  5
FE8
330
FE2
100
AcDbEntity
  8
DIM
 62
     0
370
    -2
100
AcDbBlockReference
  2
_DOT
 10
124.0802721196674
 20
1178.640333341109
 30
0.0
 41
3.0
 42
3.0
 43
3.0
 50
180.0
  0
INSERT
  5
FE9
330
FE2
100
AcDbEntity
  8
DIM
 62
     0
370
    -2
100
AcDbBlockReference
  2
_DOT
 10
484.0802721196675
 20
1178.640333341109
 30
0.0
 41
3.0
 42
3.0
 43
3.0
  0
MTEXT
  5
FEA
330
FE2
100
AcDbEntity
  8
DIM
 62
     0
 48
0.05
100
AcDbMText
 10
304.0802721196674
 20
1194.640333341109
 30
0.0
 40
12.0
 41
0.0
 46
0.0
 71
     5
 72
     1
  1
\A1;360
  7
ＭＳ ゴシック
 73
     1
 44
1.0
  0
POINT
  5
FEB
330
FE2
100
AcDbEntity
  8
Defpoints
 62
     0
100
AcDbPoint
 10
124.0802721196674
 20
1034.096081189811
 30
0.0
  0
POINT
  5
FEC
330
FE2
100
AcDbEntity
  8
Defpoints
 62
     0
100
AcDbPoint
 10
484.0802721196674
 20
1031.780807039373
 30
0.0
  0
POINT
  5
FED
330
FE2
100
AcDbEntity
  8
Defpoints
 62
     0
100
AcDbPoint
 10
484.0802721196674
 20
1178.640333341109
 30
0.0
  0
ENDBLK
  5
FE4
330
FE2
100
AcDbEntity
  8
0
100
AcDbBlockEnd
  0
BLOCK
  5
FEF
330
FEE
100
AcDbEntity
  8
0
100
AcDbBlockBegin
  2
*D19
 70
     1
 10
0.0
 20
0.0
 30
0.0
  3
*D19
  1
*D20
  0
LINE
  5
FF1
330
FEE
100
AcDbEntity
  8
DIM
  6
Continuous
 62
     0
370
    -2
100
AcDbLine
 10
293.0237742679062
 20
1141.17585394627
 30
0.0
 11
529.2163974194377
 21
1141.17585394627
 31
0.0
  0
LINE
  5
FF2
330
FEE
100
AcDbEntity
  8
DIM
  6
Continuous
 62
     0
370
    -2
100
AcDbLine
 10
293.0237742679062
 20
923.1758539462708
 30
0.0
 11
529.2163974194377
 21
923.1758539462708
 31
0.0
  0
LINE
  5
FF3
330
FEE
100
AcDbEntity
  8
DIM
  6
Continuous
 62
     0
370
    -2
100
AcDbLine
 10
529.2163974194377
 20
1138.17585394627
 30
0.0
 11
529.2163974194377
 21
926.1758539462708
 31
0.0
  0
INSERT
  5
FF4
330
FEE
100
AcDbEntity
  8
DIM
 62
     0
370
    -2
100
AcDbBlockReference
  2
_DOT
 10
529.2163974194377
 20
1141.17585394627
 30
0.0
 41
3.0
 42
3.0
 43
3.0
 50
90.0
  0
INSERT
  5
FF5
330
FEE
100
AcDbEntity
  8
DIM
 62
     0
370
    -2
100
AcDbBlockReference
  2
_DOT
 10
529.2163974194377
 20
923.1758539462708
 30
0.0
 41
3.0
 42
3.0
 43
3.0
 50
270.0
  0
MTEXT
  5
FF6
330
FEE
100
AcDbEntity
  8
DIM
 62
     0
 48
0.05
100
AcDbMText
 10
513.2163974194377
 20
1032.17585394627
 30
0.0
 40
12.0
 41
0.0
 46
0.0
 71
     5
 72
     1
  1
\A1;218
  7
ＭＳ ゴシック
 11
0.0
 21
1.0
 31
0.0
 73
     1
 44
1.0
  0
POINT
  5
FF7
330
FEE
100
AcDbEntity
  8
Defpoints
 62
     0
100
AcDbPoint
 10
288.0237742679062
 20
1141.17585394627
 30
0.0
  0
POINT
  5
FF8
330
FEE
100
AcDbEntity
  8
Defpoints
 62
     0
100
AcDbPoint
 10
288.0237742679062
 20
923.1758539462708
 30
0.0
  0
POINT
  5
FF9
330
FEE
100
AcDbEntity
  8
Defpoints
 62
     0
100
AcDbPoint
 10
529.2163974194377
 20
923.1758539462708
 30
0.0
  0
ENDBLK
  5
FF0
330
FEE
100
AcDbEntity
  8
0
100
AcDbBlockEnd
  0
BLOCK
  5
FFB
330
FFA
100
AcDbEntity
  8
0
100
AcDbBlockBegin
  2
*D20
 70
     1
 10
0.0
 20
0.0
 30
0.0
  3
*D20
  1
*D21
  0
LINE
  5
FFD
330
FFA
100
AcDbEntity
  8
DIM
  6
Continuous
 62
     0
370
    -2
100
AcDbLine
 10
124.0802721196674
 20
532.9136248284921
 30
0.0
 11
124.0802721196674
 21
301.9870478941047
 31
0.0
  0
LINE
  5
FFE
330
FFA
100
AcDbEntity
  8
DIM
  6
Continuous
 62
     0
370
    -2
100
AcDbLine
 10
239.0802721196674
 20
345.1648159325047
 30
0.0
 11
239.0802721196674
 21
301.9870478941047
 31
0.0
  0
LINE
  5
FFF
330
FFA
100
AcDbEntity
  8
DIM
  6
Continuous
 62
     0
370
    -2
100
AcDbLine
 10
127.0802721196674
 20
301.9870478941047
 30
0.0
 11
236.0802721196674
 21
301.9870478941047
 31
0.0
  0
INSERT
  5
1000
330
FFA
100
AcDbEntity
  8
DIM
 62
     0
370
    -2
100
AcDbBlockReference
  2
_DOT
 10
124.0802721196674
 20
301.9870478941047
 30
0.0
 41
3.0
 42
3.0
 43
3.0
 50
180.0
  0
INSERT
  5
1001
330
FFA
100
AcDbEntity
  8
DIM
 62
     0
370
    -2
100
AcDbBlockReference
  2
_DOT
 10
239.0802721196674
 20
301.9870478941047
 30
0.0
 41
3.0
 42
3.0
 43
3.0
  0
MTEXT
  5
1002
330
FFA
100
AcDbEntity
  8
DIM
 62
     0
 48
0.05
100
AcDbMText
 10
181.5802721196674
 20
317.9870478941047
 30
0.0
 40
12.0
 41
0.0
 46
0.0
 71
     5
 72
     1
  1
\A1;115
  7
ＭＳ ゴシック
 73
     1
 44
1.0
  0
POINT
  5
1003
330
FFA
100
AcDbEntity
  8
Defpoints
 62
     0
100
AcDbPoint
 10
124.0802721196674
 20
537.9136248284921
 30
0.0
  0
POINT
  5
1004
330
FFA
100
AcDbEntity
  8
Defpoints
 62
     0
100
AcDbPoint
 10
239.0802721196674
 20
350.1648159325047
 30
0.0
  0
POINT
  5
1005
330
FFA
100
AcDbEntity
  8
Defpoints
 62
     0
100
AcDbPoint
 10
239.0802721196674
 20
301.9870478941047
 30
0.0
  0
ENDBLK
  5
FFC
330
FFA
100
AcDbEntity
  8
0
100
AcDbBlockEnd
  0
BLOCK
  5
1007
330
1006
100
AcDbEntity
  8
0
100
AcDbBlockBegin
  2
*D21
 70
     1
 10
0.0
 20
0.0
 30
0.0
  3
*D21
  1
*D22
  0
LINE
  5
1009
330
1006
100
AcDbEntity
  8
DIM
  6
Continuous
 62
     0
370
    -2
100
AcDbLine
 10
489.0869765581399
 20
538.158248186352
 30
0.0
 11
524.9516900952713
 21
538.158248186352
 31
0.0
  0
LINE
  5
100A
330
1006
100
AcDbEntity
  8
DIM
  6
Continuous
 62
     0
370
    -2
100
AcDbLine
 10
489.0867873109771
 20
458.1582481863522
 30
0.0
 11
524.9516900952713
 21
458.1582481863522
 31
0.0
  0
LINE
  5
100B
330
1006
100
AcDbEntity
  8
DIM
  6
Continuous
 62
     0
370
    -2
100
AcDbLine
 10
524.9516900952713
 20
535.158248186352
 30
0.0
 11
524.9516900952713
 21
461.1582481863522
 31
0.0
  0
INSERT
  5
100C
330
1006
100
AcDbEntity
  8
DIM
 62
     0
370
    -2
100
AcDbBlockReference
  2
_DOT
 10
524.9516900952713
 20
538.158248186352
 30
0.0
 41
3.0
 42
3.0
 43
3.0
 50
90.0
  0
INSERT
  5
100D
330
1006
100
AcDbEntity
  8
DIM
 62
     0
370
    -2
100
AcDbBlockReference
  2
_DOT
 10
524.9516900952713
 20
458.1582481863522
 30
0.0
 41
3.0
 42
3.0
 43
3.0
 50
270.0
  0
MTEXT
  5
100E
330
1006
100
AcDbEntity
  8
DIM
 62
     0
 48
0.05
100
AcDbMText
 10
508.9516900952713
 20
498.1582481863521
 30
0.0
 40
12.0
 41
0.0
 46
0.0
 71
     5
 72
     1
  1
\A1;80
  7
ＭＳ ゴシック
 11
0.0
 21
1.0
 31
0.0
 73
     1
 44
1.0
  0
POINT
  5
100F
330
1006
100
AcDbEntity
  8
Defpoints
 62
     0
100
AcDbPoint
 10
484.0869765581399
 20
538.158248186352
 30
0.0
  0
POINT
  5
1223
330
1006
100
AcDbEntity
  8
Defpoints
 62
     0
100
AcDbPoint
 10
484.0867873109771
 20
458.1582481863522
 30
0.0
  0
POINT
  5
152B
330
1006
100
AcDbEntity
  8
Defpoints
 62
     0
100
AcDbPoint
 10
524.9516900952713
 20
458.1582481863522
 30
0.0
  0
ENDBLK
  5
1008
330
1006
100
AcDbEntity
  8
0
100
AcDbBlockEnd
  0
BLOCK
  5
1013
330
1012
100
AcDbEntity
  8
0
100
AcDbBlockBegin
  2
*D22
 70
     1
 10
0.0
 20
0.0
 30
0.0
  3
*D22
  1
*D23
  0
LINE
  5
1015
330
1012
100
AcDbEntity
  8
DIM
  6
Continuous
 62
     0
370
    -2
100
AcDbLine
 10
138.2089789477402
 20
1019.834984588062
 30
0.0
 11
138.2089789477402
 21
872.1325623553771
 31
0.0
  0
LINE
  5
1016
330
1012
100
AcDbEntity
  8
DIM
  6
Continuous
 62
     0
370
    -2
100
AcDbLine
 10
418.2089789477402
 20
956.7818037160278
 30
0.0
 11
418.2089789477402
 21
872.1325623553771
 31
0.0
  0
LINE
  5
1017
330
1012
100
AcDbEntity
  8
DIM
  6
Continuous
 62
     0
370
    -2
100
AcDbLine
 10
141.2089789477402
 20
872.1325623553771
 30
0.0
 11
415.2089789477402
 21
872.1325623553771
 31
0.0
  0
INSERT
  5
1018
330
1012
100
AcDbEntity
  8
DIM
 62
     0
370
    -2
100
AcDbBlockReference
  2
_DOT
 10
138.2089789477402
 20
872.1325623553771
 30
0.0
 41
3.0
 42
3.0
 43
3.0
 50
180.0
  0
INSERT
  5
1019
330
1012
100
AcDbEntity
  8
DIM
 62
     0
370
    -2
100
AcDbBlockReference
  2
_DOT
 10
418.2089789477402
 20
872.1325623553771
 30
0.0
 41
3.0
 42
3.0
 43
3.0
  0
MTEXT
  5
101A
330
1012
100
AcDbEntity
  8
DIM
 62
     0
 48
0.05
100
AcDbMText
 10
278.2089789477402
 20
888.1325623553771
 30
0.0
 40
12.0
 41
0.0
 46
0.0
 71
     5
 72
     1
  1
\A1;280
  7
ＭＳ ゴシック
 73
     1
 44
1.0
  0
POINT
  5
101B
330
1012
100
AcDbEntity
  8
Defpoints
 62
     0
100
AcDbPoint
 10
138.2089789477402
 20
1024.834984588062
 30
0.0
  0
POINT
  5
101C
330
1012
100
AcDbEntity
  8
Defpoints
 62
     0
100
AcDbPoint
 10
418.2089789477402
 20
961.7818037160278
 30
0.0
  0
POINT
  5
101D
330
1012
100
AcDbEntity
  8
Defpoints
 62
     0
100
AcDbPoint
 10
418.2089789477402
 20
872.1325623553771
 30
0.0
  0
ENDBLK
  5
1014
330
1012
100
AcDbEntity
  8
0
100
AcDbBlockEnd
  0
BLOCK
  5
101F
330
101E
100
AcDbEntity
  8
0
100
AcDbBlockBegin
  2
*D23
 70
     1
 10
0.0
 20
0.0
 30
0.0
  3
*D23
  1
*D24
  0
LINE
  5
1021
330
101E
100
AcDbEntity
  8
DIM
  6
Continuous
 62
     0
370
    -2
100
AcDbLine
 10
785.8224221348926
 20
538.158248186352
 30
0.0
 11
785.8224221348926
 21
626.2870389727063
 31
0.0
  0
LINE
  5
1022
330
101E
100
AcDbEntity
  8
DIM
  6
Continuous
 62
     0
370
    -2
100
AcDbLine
 10
785.8224221348926
 20
535.158248186352
 30
0.0
 11
785.8224221348926
 21
476.2722250746372
 31
0.0
  0
INSERT
  5
1023
330
101E
100
AcDbEntity
  8
DIM
 62
     0
370
    -2
100
AcDbBlockReference
  2
_DOT
 10
785.8224221348926
 20
538.158248186352
 30
0.0
 41
3.0
 42
3.0
 43
3.0
 50
90.0
  0
INSERT
  5
1024
330
101E
100
AcDbEntity
  8
DIM
 62
     0
370
    -2
100
AcDbBlockReference
  2
_DOT
 10
785.8224221348926
 20
473.2722250746372
 30
0.0
 41
3.0
 42
3.0
 43
3.0
 50
270.0
  0
MTEXT
  5
1025
330
101E
100
AcDbEntity
  8
DIM
  6
HIDDEN
 62
     0
 48
0.05
100
AcDbMText
 10
768.7604221348926
 20
587.3430389727064
 30
0.0
 40
12.0
 41
0.0
 46
0.0
 71
     5
 72
     1
  1
\A1;65(深さ)
  7
ＭＳ ゴシック
 11
0.0
 21
1.0
 31
0.0
 73
     1
 44
1.0
  0
POINT
  5
1026
330
101E
100
AcDbEntity
  8
Defpoints
 62
     0
100
AcDbPoint
 10
808.9336821148038
 20
538.158248186352
 30
0.0
  0
POINT
  5
1027
330
101E
100
AcDbEntity
  8
Defpoints
 62
     0
100
AcDbPoint
 10
785.8224221348926
 20
473.2722250746372
 30
0.0
  0
POINT
  5
1028
330
101E
100
AcDbEntity
  8
Defpoints
 62
     0
100
AcDbPoint
 10
785.8224221348926
 20
473.2722250746372
 30
0.0
  0
ENDBLK
  5
1020
330
101E
100
AcDbEntity
  8
0
100
AcDbBlockEnd
  0
BLOCK
  5
102A
330
1029
100
AcDbEntity
  8
0
100
AcDbBlockBegin
  2
*D24
 70
     1
 10
0.0
 20
0.0
 30
0.0
  3
*D24
  1
*D25
  0
LINE
  5
102C
330
1029
100
AcDbEntity
  8
DIM
  6
Continuous
 62
     0
370
    -2
100
AcDbLine
 10
785.8224221339199
 20
389.1673279377777
 30
0.0
 11
785.8224221339199
 21
362.8253074116977
 31
0.0
  0
LINE
  5
102D
330
1029
100
AcDbEntity
  8
DIM
  6
Continuous
 62
     0
370
    -2
100
AcDbLine
 10
894.9822016889996
 20
532.5939191778966
 30
0.0
 11
894.9822016889996
 21
362.8253074116977
 31
0.0
  0
LINE
  5
102E
330
1029
100
AcDbEntity
  8
DIM
  6
Continuous
 62
     0
370
    -2
100
AcDbLine
 10
788.8224221339199
 20
362.8253074116977
 30
0.0
 11
891.9822016889996
 21
362.8253074116977
 31
0.0
  0
INSERT
  5
102F
330
1029
100
AcDbEntity
  8
DIM
 62
     0
370
    -2
100
AcDbBlockReference
  2
_DOT
 10
785.8224221339199
 20
362.8253074116977
 30
0.0
 41
3.0
 42
3.0
 43
3.0
 50
180.0
  0
INSERT
  5
1030
330
1029
100
AcDbEntity
  8
DIM
 62
     0
370
    -2
100
AcDbBlockReference
  2
_DOT
 10
894.9822016889996
 20
362.8253074116977
 30
0.0
 41
3.0
 42
3.0
 43
3.0
  0
MTEXT
  5
1031
330
1029
100
AcDbEntity
  8
DIM
 62
     0
 48
0.05
100
AcDbMText
 10
840.4023119114597
 20
378.8253074116977
 30
0.0
 40
12.0
 41
0.0
 46
0.0
 71
     5
 72
     1
  1
\A1;109
  7
ＭＳ ゴシック
 73
     1
 44
1.0
  0
POINT
  5
1032
330
1029
100
AcDbEntity
  8
Defpoints
 62
     0
100
AcDbPoint
 10
785.8224221339199
 20
394.1673279377777
 30
0.0
  0
POINT
  5
1033
330
1029
100
AcDbEntity
  8
Defpoints
 62
     0
100
AcDbPoint
 10
894.9822016889996
 20
537.5939191778966
 30
0.0
  0
POINT
  5
1034
330
1029
100
AcDbEntity
  8
Defpoints
 62
     0
100
AcDbPoint
 10
894.9822016889996
 20
362.8253074116977
 30
0.0
  0
ENDBLK
  5
102B
330
1029
100
AcDbEntity
  8
0
100
AcDbBlockEnd
  0
BLOCK
  5
1036
330
1035
100
AcDbEntity
  8
0
100
AcDbBlockBegin
  2
*D25
 70
     1
 10
0.0
 20
0.0
 30
0.0
  3
*D25
  1
*D26
  0
LINE
  5
1038
330
1035
100
AcDbEntity
  8
DIM
  6
Continuous
 62
     0
370
    -2
100
AcDbLine
 10
248.1199549797875
 20
1127.17585394627
 30
0.0
 11
78.66336311649528
 21
1127.17585394627
 31
0.0
  0
LINE
  5
1039
330
1035
100
AcDbEntity
  8
DIM
  6
Continuous
 62
     0
370
    -2
100
AcDbLine
 10
241.1741325284755
 20
937.1758539462708
 30
0.0
 11
78.66336311649522
 21
937.1758539462708
 31
0.0
  0
LINE
  5
103A
330
1035
100
AcDbEntity
  8
DIM
  6
Continuous
 62
     0
370
    -2
100
AcDbLine
 10
78.66336311649528
 20
1124.17585394627
 30
0.0
 11
78.66336311649522
 21
940.1758539462708
 31
0.0
  0
INSERT
  5
103B
330
1035
100
AcDbEntity
  8
DIM
 62
     0
370
    -2
100
AcDbBlockReference
  2
_DOT
 10
78.66336311649528
 20
1127.17585394627
 30
0.0
 41
3.0
 42
3.0
 43
3.0
 50
89.99999999999999
  0
INSERT
  5
103C
330
1035
100
AcDbEntity
  8
DIM
 62
     0
370
    -2
100
AcDbBlockReference
  2
_DOT
 10
78.66336311649522
 20
937.1758539462708
 30
0.0
 41
3.0
 42
3.0
 43
3.0
 50
270.0
  0
MTEXT
  5
103D
330
1035
100
AcDbEntity
  8
DIM
 62
     0
 48
0.05
100
AcDbMText
 10
62.66336311649525
 20
1032.17585394627
 30
0.0
 40
12.0
 41
0.0
 46
0.0
 71
     5
 72
     1
  1
\A1;190
  7
ＭＳ ゴシック
 11
2.991758887410959E-16
 21
1.0
 31
0.0
 73
     1
 44
1.0
  0
POINT
  5
103E
330
1035
100
AcDbEntity
  8
Defpoints
 62
     0
100
AcDbPoint
 10
253.1199549797875
 20
1127.17585394627
 30
0.0
  0
POINT
  5
103F
330
1035
100
AcDbEntity
  8
Defpoints
 62
     0
100
AcDbPoint
 10
246.1741325284755
 20
937.1758539462708
 30
0.0
  0
POINT
  5
1040
330
1035
100
AcDbEntity
  8
Defpoints
 62
     0
100
AcDbPoint
 10
78.66336311649522
 20
937.1758539462708
 30
0.0
  0
ENDBLK
  5
1037
330
1035
100
AcDbEntity
  8
0
100
AcDbBlockEnd
  0
BLOCK
  5
1042
330
1041
100
AcDbEntity
  8
0
100
AcDbBlockBegin
  2
*D26
 70
     1
 10
0.0
 20
0.0
 30
0.0
  3
*D26
  1
*D27
  0
LINE
  5
1044
330
1041
100
AcDbEntity
  8
DIM
 62
     0
370
    -2
100
AcDbLine
 10
743.3223649041622
 20
453.1582481863522
 30
0.0
 11
743.3223649041622
 21
394.1673279377777
 31
0.0
  0
LINE
  5
1045
330
1041
100
AcDbEntity
  8
DIM
 62
     0
370
    -2
100
AcDbLine
 10
828.3224793636775
 20
453.1582481863522
 30
0.0
 11
828.3224793636775
 21
394.1673279377777
 31
0.0
  0
LINE
  5
1046
330
1041
100
AcDbEntity
  8
DIM
 62
     0
370
    -2
100
AcDbLine
 10
746.3223649041622
 20
394.1673279377777
 30
0.0
 11
825.3224793636775
 21
394.1673279377777
 31
0.0
  0
INSERT
  5
1047
330
1041
100
AcDbEntity
  8
DIM
 62
     0
370
    -2
100
AcDbBlockReference
  2
_DOT
 10
743.3223649041622
 20
394.1673279377777
 30
0.0
 41
3.0
 42
3.0
 43
3.0
 50
180.0
  0
INSERT
  5
1048
330
1041
100
AcDbEntity
  8
DIM
 62
     0
370
    -2
100
AcDbBlockReference
  2
_DOT
 10
828.3224793636775
 20
394.1673279377777
 30
0.0
 41
3.0
 42
3.0
 43
3.0
  0
MTEXT
  5
1049
330
1041
100
AcDbEntity
  8
DIM
 62
     0
 48
0.05
100
AcDbMText
 10
785.8224221339199
 20
410.1673279377777
 30
0.0
 40
12.0
 41
0.0
 46
0.0
 71
     5
 72
     1
  1
\A1;85
  7
ＭＳ ゴシック
 73
     1
 44
1.0
  0
POINT
  5
104A
330
1041
100
AcDbEntity
  8
Defpoints
 62
     0
100
AcDbPoint
 10
743.3223649041622
 20
458.1582481863522
 30
0.0
  0
POINT
  5
104B
330
1041
100
AcDbEntity
  8
Defpoints
 62
     0
100
AcDbPoint
 10
828.3224793636775
 20
458.1582481863522
 30
0.0
  0
POINT
  5
104C
330
1041
100
AcDbEntity
  8
Defpoints
 62
     0
100
AcDbPoint
 10
828.3224793636775
 20
394.1673279377777
 30
0.0
  0
ENDBLK
  5
1043
330
1041
100
AcDbEntity
  8
0
100
AcDbBlockEnd
  0
BLOCK
  5
104E
330
104D
100
AcDbEntity
  8
0
100
AcDbBlockBegin
  2
*D27
 70
     1
 10
0.0
 20
0.0
 30
0.0
  3
*D27
  1
*D28
  0
LINE
  5
1050
330
104D
100
AcDbEntity
  8
DIM
 62
     0
370
    -2
100
AcDbLine
 10
773.4853205654292
 20
1042.190461347368
 30
0.0
 11
773.4853205654292
 21
1168.442761976234
 31
0.0
  0
LINE
  5
1051
330
104D
100
AcDbEntity
  8
DIM
 62
     0
370
    -2
100
AcDbLine
 10
673.4853205654292
 20
1042.190461347372
 30
0.0
 11
673.4853205654292
 21
1168.442761976234
 31
0.0
  0
LINE
  5
1052
330
104D
100
AcDbEntity
  8
DIM
 62
     0
370
    -2
100
AcDbLine
 10
770.4853205654292
 20
1168.442761976234
 30
0.0
 11
676.4853205654292
 21
1168.442761976234
 31
0.0
  0
INSERT
  5
1053
330
104D
100
AcDbEntity
  8
DIM
 62
     0
370
    -2
100
AcDbBlockReference
  2
_DOT
 10
773.4853205654292
 20
1168.442761976234
 30
0.0
 41
3.0
 42
3.0
 43
3.0
  0
INSERT
  5
1054
330
104D
100
AcDbEntity
  8
DIM
 62
     0
370
    -2
100
AcDbBlockReference
  2
_DOT
 10
673.4853205654292
 20
1168.442761976234
 30
0.0
 41
3.0
 42
3.0
 43
3.0
 50
180.0
  0
MTEXT
  5
1055
330
104D
100
AcDbEntity
  8
DIM
  6
HIDDEN
 62
     0
 48
0.05
100
AcDbMText
 10
723.4853205654292
 20
1184.442761976234
 30
0.0
 40
12.0
 41
0.0
 46
0.0
 71
     5
 72
     1
  1
\A1;100
  7
ＭＳ ゴシック
 73
     1
 44
1.0
  0
POINT
  5
1056
330
104D
100
AcDbEntity
  8
Defpoints
 62
     0
100
AcDbPoint
 10
773.4853205654292
 20
1037.190461347368
 30
0.0
  0
POINT
  5
1057
330
104D
100
AcDbEntity
  8
Defpoints
 62
     0
100
AcDbPoint
 10
673.4853205654292
 20
1037.190461347372
 30
0.0
  0
POINT
  5
1058
330
104D
100
AcDbEntity
  8
Defpoints
 62
     0
100
AcDbPoint
 10
673.4853205654292
 20
1168.442761976234
 30
0.0
  0
ENDBLK
  5
104F
330
104D
100
AcDbEntity
  8
0
100
AcDbBlockEnd
  0
BLOCK
  5
116E
330
116D
100
AcDbEntity
  8
0
100
AcDbBlockBegin
  2
*D28
 70
     1
 10
0.0
 20
0.0
 30
0.0
  3
*D28
  1
*D30
  0
LINE
  5
1170
330
116D
100
AcDbEntity
  8
HIDDEN
  6
HIDDEN
 62
     0
 48
0.05
370
    -2
100
AcDbLine
 10
179.080271722504
 20
453.1582481863522
 30
0.0
 11
179.080271722504
 21
363.7933826026353
 31
0.0
  0
LINE
  5
1171
330
116D
100
AcDbEntity
  8
HIDDEN
  6
HIDDEN
 62
     0
 48
0.05
370
    -2
100
AcDbLine
 10
309.080271722504
 20
453.1582481863522
 30
0.0
 11
309.080271722504
 21
363.7933826026353
 31
0.0
  0
LINE
  5
1172
330
116D
100
AcDbEntity
  8
HIDDEN
  6
HIDDEN
 62
     0
 48
0.05
370
    -2
100
AcDbLine
 10
182.080271722504
 20
363.7933826026353
 30
0.0
 11
306.080271722504
 21
363.7933826026353
 31
0.0
  0
INSERT
  5
1173
330
116D
100
AcDbEntity
  8
HIDDEN
 62
     0
370
    -2
100
AcDbBlockReference
  2
_DOT
 10
179.080271722504
 20
363.7933826026353
 30
0.0
 41
3.0
 42
3.0
 43
3.0
 50
180.0
  0
INSERT
  5
1174
330
116D
100
AcDbEntity
  8
HIDDEN
 62
     0
370
    -2
100
AcDbBlockReference
  2
_DOT
 10
309.080271722504
 20
363.7933826026353
 30
0.0
 41
3.0
 42
3.0
 43
3.0
  0
MTEXT
  5
1175
330
116D
100
AcDbEntity
  8
HIDDEN
  6
HIDDEN
 62
     0
 48
0.05
100
AcDbMText
 10
244.080271722504
 20
379.7933826026353
 30
0.0
 40
12.0
 41
0.0
 46
0.0
 71
     5
 72
     1
  1
\A1;130
  7
ＭＳ ゴシック
 73
     1
 44
1.0
  0
POINT
  5
1176
330
116D
100
AcDbEntity
  8
Defpoints
 62
     0
100
AcDbPoint
 10
179.080271722504
 20
458.1582481863522
 30
0.0
  0
POINT
  5
1177
330
116D
100
AcDbEntity
  8
Defpoints
 62
     0
100
AcDbPoint
 10
309.080271722504
 20
458.1582481863522
 30
0.0
  0
POINT
  5
1178
330
116D
100
AcDbEntity
  8
Defpoints
 62
     0
100
AcDbPoint
 10
309.080271722504
 20
363.7933826026353
 30
0.0
  0
ENDBLK
  5
116F
330
116D
100
AcDbEntity
  8
0
100
AcDbBlockEnd
  0
BLOCK
  5
11C4
330
11C3
100
AcDbEntity
  8
0
100
AcDbBlockBegin
  2
*D29
 70
     1
 10
0.0
 20
0.0
 30
0.0
  3
*D29
  1
*D32
  0
LINE
  5
11C5
330
11C3
100
AcDbEntity
  8
DIM
 62
     0
 48
0.05
370
    -2
100
AcDbLine
 10
440.0053093459982
 20
71.2639999999999
 30
0.0
 11
440.0053093459982
 21
-0.0000000000001137
 31
0.0
  0
LINE
  5
11C6
330
11C3
100
AcDbEntity
  8
DIM
 62
     0
 48
0.05
370
    -2
100
AcDbLine
 10
440.0053093459982
 20
87.83733635339115
 30
0.0
 11
440.0053093459982
 21
71.2639999999999
 31
0.0
  0
LINE
  5
11C7
330
11C3
100
AcDbEntity
  8
DIM
 62
     0
 48
0.05
370
    -2
100
AcDbLine
 10
440.0053093459982
 20
90.83733635339115
 30
0.0
 11
440.0053093459982
 21
93.83733635339115
 31
0.0
  0
LINE
  5
11C8
330
11C3
100
AcDbEntity
  8
DIM
 62
     0
 48
0.05
370
    -2
100
AcDbLine
 10
440.0053093459982
 20
68.2639999999999
 30
0.0
 11
440.0053093459982
 21
65.2639999999999
 31
0.0
  0
INSERT
  5
11C9
330
11C3
100
AcDbEntity
  8
DIM
 62
     0
370
    -2
100
AcDbBlockReference
  2
_DOT
 10
440.0053093459982
 20
87.83733635339115
 30
0.0
 41
3.0
 42
3.0
 43
3.0
 50
270.0
  0
INSERT
  5
11CA
330
11C3
100
AcDbEntity
  8
DIM
 62
     0
370
    -2
100
AcDbBlockReference
  2
_DOT
 10
440.0053093459982
 20
71.2639999999999
 30
0.0
 41
3.0
 42
3.0
 43
3.0
 50
90.0
  0
MTEXT
  5
11CB
330
11C3
100
AcDbEntity
  8
DIM
  6
HIDDEN
 62
     0
 48
0.05
100
AcDbMText
 10
424.0053093459982
 20
32.63199999999989
 30
0.0
 40
12.0
 41
0.0
 46
0.0
 71
     5
 72
     1
  1
\A1;MAX 45
  7
ＭＳ ゴシック
 11
0.0
 21
1.0
 31
0.0
 73
     1
 44
1.0
  0
POINT
  5
11CC
330
11C3
100
AcDbEntity
  8
Defpoints
 62
     0
100
AcDbPoint
 10
426.2421989773122
 20
87.83733635339115
 30
0.0
  0
POINT
  5
11CD
330
11C3
100
AcDbEntity
  8
Defpoints
 62
     0
100
AcDbPoint
 10
426.2421989773122
 20
71.2639999999999
 30
0.0
  0
POINT
  5
11CE
330
11C3
100
AcDbEntity
  8
Defpoints
 62
     0
100
AcDbPoint
 10
440.0053093459982
 20
71.2639999999999
 30
0.0
  0
ENDBLK
  5
11CF
330
11C3
100
AcDbEntity
  8
0
100
AcDbBlockEnd
  0
BLOCK
  5
11D5
330
11D4
100
AcDbEntity
  8
0
100
AcDbBlockBegin
  2
*D30
 70
     1
 10
0.0
 20
0.0
 30
0.0
  3
*D30
  1
*D33
  0
LINE
  5
11D6
330
11D4
100
AcDbEntity
  8
DIM
 62
     0
 48
0.05
370
    -2
100
AcDbLine
 10
134.4994686242354
 20
89.97763599704712
 30
0.0
 11
134.4994686242354
 21
59.57638734774486
 31
0.0
  0
LINE
  5
11D7
330
11D4
100
AcDbEntity
  8
DIM
 62
     0
 48
0.05
370
    -2
100
AcDbLine
 10
181.462135095394
 20
89.97763599704712
 30
0.0
 11
181.462135095394
 21
59.57638734774486
 31
0.0
  0
LINE
  5
11D8
330
11D4
100
AcDbEntity
  8
DIM
 62
     0
 48
0.05
370
    -2
100
AcDbLine
 10
137.4994686242354
 20
59.57638734774486
 30
0.0
 11
178.462135095394
 21
59.57638734774486
 31
0.0
  0
INSERT
  5
11D9
330
11D4
100
AcDbEntity
  8
DIM
 62
     0
370
    -2
100
AcDbBlockReference
  2
_DOT
 10
134.4994686242354
 20
59.57638734774486
 30
0.0
 41
3.0
 42
3.0
 43
3.0
 50
180.0
  0
INSERT
  5
11DA
330
11D4
100
AcDbEntity
  8
DIM
 62
     0
370
    -2
100
AcDbBlockReference
  2
_DOT
 10
181.462135095394
 20
59.57638734774486
 30
0.0
 41
3.0
 42
3.0
 43
3.0
  0
MTEXT
  5
11DB
330
11D4
100
AcDbEntity
  8
DIM
  6
HIDDEN
 62
     0
 48
0.05
100
AcDbMText
 10
157.9808018598147
 20
42.29838734774485
 30
0.0
 40
12.0
 41
0.0
 46
0.0
 71
     5
 72
     1
  1
\A1;G1 1/4"
  7
ＭＳ ゴシック
 73
     1
 44
1.0
  0
POINT
  5
11DC
330
11D4
100
AcDbEntity
  8
Defpoints
 62
     0
100
AcDbPoint
 10
134.4994686242354
 20
94.97763599704712
 30
0.0
  0
POINT
  5
11DD
330
11D4
100
AcDbEntity
  8
Defpoints
 62
     0
100
AcDbPoint
 10
181.462135095394
 20
94.97763599704712
 30
0.0
  0
POINT
  5
11DE
330
11D4
100
AcDbEntity
  8
Defpoints
 62
     0
100
AcDbPoint
 10
181.462135095394
 20
59.57638734774486
 30
0.0
  0
ENDBLK
  5
11DF
330
11D4
100
AcDbEntity
  8
0
100
AcDbBlockEnd
  0
BLOCK
  5
1200
330
11FF
100
AcDbEntity
  8
0
100
AcDbBlockBegin
  2
*D31
 70
     1
 10
0.0
 20
0.0
 30
0.0
  3
*D31
  1
*D34
  0
LINE
  5
1202
330
11FF
100
AcDbEntity
  8
DIM
 62
     0
 48
0.05
370
    -2
100
AcDbLine
 10
516.1885797265853
 20
458.1582481863522
 30
0.0
 11
524.9516900952713
 21
458.1582481863522
 31
0.0
  0
LINE
  5
1203
330
11FF
100
AcDbEntity
  8
DIM
 62
     0
 48
0.05
370
    -2
100
AcDbLine
 10
516.1885797265853
 20
441.584911832961
 30
0.0
 11
524.9516900952713
 21
441.584911832961
 31
0.0
  0
LINE
  5
1204
330
11FF
100
AcDbEntity
  8
DIM
 62
     0
 48
0.05
370
    -2
100
AcDbLine
 10
524.9516900952713
 20
441.584911832961
 30
0.0
 11
524.9516900952713
 21
359.715682915697
 31
0.0
  0
LINE
  5
1205
330
11FF
100
AcDbEntity
  8
DIM
 62
     0
 48
0.05
370
    -2
100
AcDbLine
 10
524.9516900952713
 20
458.1582481863522
 30
0.0
 11
524.9516900952713
 21
441.584911832961
 31
0.0
  0
LINE
  5
1206
330
11FF
100
AcDbEntity
  8
DIM
 62
     0
 48
0.05
370
    -2
100
AcDbLine
 10
524.9516900952713
 20
461.1582481863522
 30
0.0
 11
524.9516900952713
 21
464.1582481863522
 31
0.0
  0
LINE
  5
1207
330
11FF
100
AcDbEntity
  8
DIM
 62
     0
 48
0.05
370
    -2
100
AcDbLine
 10
524.9516900952713
 20
438.584911832961
 30
0.0
 11
524.9516900952713
 21
435.584911832961
 31
0.0
  0
INSERT
  5
1208
330
11FF
100
AcDbEntity
  8
DIM
 62
     0
370
    -2
100
AcDbBlockReference
  2
_DOT
 10
524.9516900952713
 20
458.1582481863522
 30
0.0
 41
3.0
 42
3.0
 43
3.0
 50
270.0
  0
INSERT
  5
1209
330
11FF
100
AcDbEntity
  8
DIM
 62
     0
370
    -2
100
AcDbBlockReference
  2
_DOT
 10
524.9516900952713
 20
441.584911832961
 30
0.0
 41
3.0
 42
3.0
 43
3.0
 50
90.0
  0
MTEXT
  5
120A
330
11FF
100
AcDbEntity
  8
DIM
 62
     0
 48
0.05
100
AcDbMText
 10
508.9516900952713
 20
392.347682915697
 30
0.0
 40
12.0
 41
0.0
 46
0.0
 71
     5
 72
     1
  1
\A1;MAX 45
  7
ＭＳ ゴシック
 11
0.0
 21
1.0
 31
0.0
 73
     1
 44
1.0
  0
POINT
  5
120B
330
11FF
100
AcDbEntity
  8
Defpoints
 62
     0
100
AcDbPoint
 10
511.1885797265853
 20
458.1582481863522
 30
0.0
  0
POINT
  5
12CB
330
11FF
100
AcDbEntity
  8
Defpoints
 62
     0
100
AcDbPoint
 10
511.1885797265853
 20
441.584911832961
 30
0.0
  0
POINT
  5
12CC
330
11FF
100
AcDbEntity
  8
Defpoints
 62
     0
100
AcDbPoint
 10
524.9516900952713
 20
441.584911832961
 30
0.0
  0
ENDBLK
  5
1201
330
11FF
100
AcDbEntity
  8
0
100
AcDbBlockEnd
  0
BLOCK
  5
120D
330
120C
100
AcDbEntity
  8
0
100
AcDbBlockBegin
  2
*D32
 70
     1
 10
0.0
 20
0.0
 30
0.0
  3
*D32
  1
*D35
  0
LINE
  5
120F
330
120C
100
AcDbEntity
  8
DIM
 62
     0
 48
0.05
370
    -2
100
AcDbLine
 10
215.5989388840881
 20
453.2736471171311
 30
0.0
 11
215.5989388840881
 21
422.8723984678289
 31
0.0
  0
LINE
  5
1210
330
120C
100
AcDbEntity
  8
DIM
 62
     0
 48
0.05
370
    -2
100
AcDbLine
 10
262.5616053552467
 20
453.2736471171311
 30
0.0
 11
262.5616053552467
 21
422.8723984678289
 31
0.0
  0
LINE
  5
1211
330
120C
100
AcDbEntity
  8
DIM
 62
     0
 48
0.05
370
    -2
100
AcDbLine
 10
218.5989388840881
 20
422.8723984678289
 30
0.0
 11
259.5616053552467
 21
422.8723984678289
 31
0.0
  0
INSERT
  5
1212
330
120C
100
AcDbEntity
  8
DIM
 62
     0
370
    -2
100
AcDbBlockReference
  2
_DOT
 10
215.5989388840881
 20
422.8723984678289
 30
0.0
 41
3.0
 42
3.0
 43
3.0
 50
180.0
  0
INSERT
  5
1213
330
120C
100
AcDbEntity
  8
DIM
 62
     0
370
    -2
100
AcDbBlockReference
  2
_DOT
 10
262.5616053552467
 20
422.8723984678289
 30
0.0
 41
3.0
 42
3.0
 43
3.0
  0
MTEXT
  5
1214
330
120C
100
AcDbEntity
  8
DIM
  6
HIDDEN
 62
     0
 48
0.05
100
AcDbMText
 10
239.0802721196674
 20
405.5943984678289
 30
0.0
 40
12.0
 41
0.0
 46
0.0
 71
     5
 72
     1
  1
\A1;G1 1/4"
  7
ＭＳ ゴシック
 73
     1
 44
1.0
  0
POINT
  5
1215
330
120C
100
AcDbEntity
  8
Defpoints
 62
     0
100
AcDbPoint
 10
215.5989388840881
 20
458.2736471171311
 30
0.0
  0
POINT
  5
1216
330
120C
100
AcDbEntity
  8
Defpoints
 62
     0
100
AcDbPoint
 10
262.5616053552467
 20
458.2736471171311
 30
0.0
  0
POINT
  5
1217
330
120C
100
AcDbEntity
  8
Defpoints
 62
     0
100
AcDbPoint
 10
262.5616053552467
 20
422.8723984678289
 30
0.0
  0
ENDBLK
  5
120E
330
120C
100
AcDbEntity
  8
0
100
AcDbBlockEnd
  0
BLOCK
  5
1271
330
1270
100
AcDbEntity
  8
0
100
AcDbBlockBegin
  2
*D33
 70
     1
 10
0.0
 20
0.0
 30
0.0
  3
*D33
  1
*D33
  0
LINE
  5
1273
330
1270
100
AcDbEntity
  8
DIM
 62
     0
 48
0.05
370
    -2
100
AcDbLine
 10
484.0869769552961
 20
1027.190461346492
 30
0.0
 11
484.0869769552961
 21
872.1325623553771
 31
0.0
  0
LINE
  5
1274
330
1270
100
AcDbEntity
  8
DIM
 62
     0
 48
0.05
370
    -2
100
AcDbLine
 10
418.2089789477402
 20
1027.190461347372
 30
0.0
 11
418.2089789477402
 21
872.1325623553771
 31
0.0
  0
LINE
  5
1275
330
1270
100
AcDbEntity
  8
DIM
 62
     0
 48
0.05
370
    -2
100
AcDbLine
 10
481.0869769552961
 20
872.1325623553771
 30
0.0
 11
421.2089789477402
 21
872.1325623553771
 31
0.0
  0
INSERT
  5
1276
330
1270
100
AcDbEntity
  8
DIM
 62
     0
370
    -2
100
AcDbBlockReference
  2
_DOT
 10
484.0869769552961
 20
872.1325623553771
 30
0.0
 41
3.0
 42
3.0
 43
3.0
  0
INSERT
  5
1277
330
1270
100
AcDbEntity
  8
DIM
 62
     0
370
    -2
100
AcDbBlockReference
  2
_DOT
 10
418.2089789477402
 20
872.1325623553771
 30
0.0
 41
3.0
 42
3.0
 43
3.0
 50
180.0
  0
MTEXT
  5
1278
330
1270
100
AcDbEntity
  8
DIM
 62
     0
 48
0.05
100
AcDbMText
 10
451.1479779515181
 20
888.1325623553771
 30
0.0
 40
12.0
 41
0.0
 46
0.0
 71
     5
 72
     1
  1
\A1;50
  7
ＭＳ ゴシック
 73
     1
 44
1.0
  0
POINT
  5
1279
330
1270
100
AcDbEntity
  8
Defpoints
 62
     0
100
AcDbPoint
 10
484.0869769552961
 20
1032.190461346492
 30
0.0
  0
POINT
  5
127A
330
1270
100
AcDbEntity
  8
Defpoints
 62
     0
100
AcDbPoint
 10
418.2089789477402
 20
1032.190461347372
 30
0.0
  0
POINT
  5
127B
330
1270
100
AcDbEntity
  8
Defpoints
 62
     0
100
AcDbPoint
 10
418.2089789477402
 20
872.1325623553771
 30
0.0
  0
ENDBLK
  5
1272
330
1270
100
AcDbEntity
  8
0
100
AcDbBlockEnd
  0
BLOCK
  5
1315
330
1314
100
AcDbEntity
  8
0
100
AcDbBlockBegin
  2
*D34
 70
     1
 10
0.0
 20
0.0
 30
0.0
  3
*D34
  1
*D37
  0
LINE
  5
1316
330
1314
100
AcDbEntity
  8
DIM
 62
     0
 48
0.05
370
    -2
100
AcDbLine
 10
40.15273867999645
 20
50.64553879057985
 30
0.0
 11
40.15273867999645
 21
24.13
 31
0.0
  0
LINE
  5
1317
330
1314
100
AcDbEntity
  8
DIM
 62
     0
 48
0.05
370
    -2
100
AcDbLine
 10
82.15273867999645
 20
50.64553879057985
 30
0.0
 11
82.15273867999645
 21
24.13
 31
0.0
  0
LINE
  5
1318
330
1314
100
AcDbEntity
  8
DIM
 62
     0
 48
0.05
370
    -2
100
AcDbLine
 10
43.15273867999645
 20
24.13
 30
0.0
 11
79.15273867999645
 21
24.13
 31
0.0
  0
INSERT
  5
1319
330
1314
100
AcDbEntity
  8
DIM
 62
     0
370
    -2
100
AcDbBlockReference
  2
_DOT
 10
40.15273867999645
 20
24.13
 30
0.0
 41
3.0
 42
3.0
 43
3.0
 50
180.0
  0
INSERT
  5
131A
330
1314
100
AcDbEntity
  8
DIM
 62
     0
370
    -2
100
AcDbBlockReference
  2
_DOT
 10
82.15273867999645
 20
24.13
 30
0.0
 41
3.0
 42
3.0
 43
3.0
  0
MTEXT
  5
131B
330
1314
100
AcDbEntity
  8
DIM
 62
     0
 48
0.05
100
AcDbMText
 10
61.15273867999645
 20
6.851999999999997
 30
0.0
 40
12.0
 41
0.0
 46
0.0
 71
     5
 72
     1
  1
\A1;G1 1/4"
  7
ＭＳ ゴシック
 73
     1
 44
1.0
  0
POINT
  5
131C
330
1314
100
AcDbEntity
  8
Defpoints
 62
     0
100
AcDbPoint
 10
40.15273867999645
 20
55.64553879057985
 30
0.0
  0
POINT
  5
131D
330
1314
100
AcDbEntity
  8
Defpoints
 62
     0
100
AcDbPoint
 10
82.15273867999645
 20
55.64553879057985
 30
0.0
  0
POINT
  5
131E
330
1314
100
AcDbEntity
  8
Defpoints
 62
     0
100
AcDbPoint
 10
82.15273867999645
 20
24.13
 30
0.0
  0
ENDBLK
  5
131F
330
1314
100
AcDbEntity
  8
0
100
AcDbBlockEnd
  0
BLOCK
  5
1322
330
1321
100
AcDbEntity
  8
0
100
AcDbBlockBegin
  2
*D35
 70
     1
 10
0.0
 20
0.0
 30
0.0
  3
*D35
  1
*D38
  0
LINE
  5
1323
330
1321
100
AcDbEntity
  8
DIM
 62
     0
 48
0.05
370
    -2
100
AcDbLine
 10
35.15273867999645
 20
55.64553879057985
 30
0.0
 11
21.99999999999994
 21
55.64553879057985
 31
0.0
  0
LINE
  5
1324
330
1321
100
AcDbEntity
  8
DIM
 62
     0
 48
0.05
370
    -2
100
AcDbLine
 10
26.98138769230243
 20
75.64553879057985
 30
0.0
 11
21.99999999999994
 21
75.64553879057985
 31
0.0
  0
LINE
  5
1325
330
1321
100
AcDbEntity
  8
DIM
 62
     0
 48
0.05
370
    -2
100
AcDbLine
 10
21.99999999999994
 20
55.64553879057985
 30
0.0
 11
21.99999999999994
 21
15.38953879057985
 31
0.0
  0
LINE
  5
1326
330
1321
100
AcDbEntity
  8
DIM
 62
     0
 48
0.05
370
    -2
100
AcDbLine
 10
21.99999999999994
 20
58.64553879057985
 30
0.0
 11
21.99999999999994
 21
72.64553879057985
 31
0.0
  0
INSERT
  5
1327
330
1321
100
AcDbEntity
  8
DIM
 62
     0
370
    -2
100
AcDbBlockReference
  2
_DOT
 10
21.99999999999994
 20
55.64553879057985
 30
0.0
 41
3.0
 42
3.0
 43
3.0
 50
270.0
  0
INSERT
  5
1328
330
1321
100
AcDbEntity
  8
DIM
 62
     0
370
    -2
100
AcDbBlockReference
  2
_DOT
 10
21.99999999999994
 20
75.64553879057985
 30
0.0
 41
3.0
 42
3.0
 43
3.0
 50
90.0
  0
MTEXT
  5
1329
330
1321
100
AcDbEntity
  8
DIM
 62
     0
 48
0.05
100
AcDbMText
 10
5.999999999999943
 20
32.51753879057985
 30
0.0
 40
12.0
 41
0.0
 46
0.0
 71
     5
 72
     1
  1
\A1;20
  7
ＭＳ ゴシック
 11
0.0
 21
1.0
 31
0.0
 73
     1
 44
1.0
  0
POINT
  5
132A
330
1321
100
AcDbEntity
  8
Defpoints
 62
     0
100
AcDbPoint
 10
40.15273867999645
 20
55.64553879057985
 30
0.0
  0
POINT
  5
132B
330
1321
100
AcDbEntity
  8
Defpoints
 62
     0
100
AcDbPoint
 10
31.98138769230243
 20
75.64553879057985
 30
0.0
  0
POINT
  5
132C
330
1321
100
AcDbEntity
  8
Defpoints
 62
     0
100
AcDbPoint
 10
21.99999999999994
 20
75.64553879057985
 30
0.0
  0
ENDBLK
  5
132D
330
1321
100
AcDbEntity
  8
0
100
AcDbBlockEnd
  0
BLOCK
  5
1344
330
1343
100
AcDbEntity
  8
0
100
AcDbBlockBegin
  2
*D36
 70
     1
 10
0.0
 20
0.0
 30
0.0
  3
*D36
  1
*D37
  0
LINE
  5
1346
330
1343
100
AcDbEntity
  8
DIM
 62
     0
 48
0.05
370
    -2
100
AcDbLine
 10
355.5786851119964
 20
333.3592020225801
 30
0.0
 11
355.5786851119964
 21
306.8436632320002
 31
0.0
  0
LINE
  5
1347
330
1343
100
AcDbEntity
  8
DIM
 62
     0
 48
0.05
370
    -2
100
AcDbLine
 10
397.5786851119964
 20
333.3592020225801
 30
0.0
 11
397.5786851119964
 21
306.8436632320002
 31
0.0
  0
LINE
  5
1348
330
1343
100
AcDbEntity
  8
DIM
 62
     0
 48
0.05
370
    -2
100
AcDbLine
 10
358.5786851119964
 20
306.8436632320002
 30
0.0
 11
394.5786851119964
 21
306.8436632320002
 31
0.0
  0
INSERT
  5
1349
330
1343
100
AcDbEntity
  8
DIM
 62
     0
370
    -2
100
AcDbBlockReference
  2
_DOT
 10
355.5786851119964
 20
306.8436632320002
 30
0.0
 41
3.0
 42
3.0
 43
3.0
 50
180.0
  0
INSERT
  5
134A
330
1343
100
AcDbEntity
  8
DIM
 62
     0
370
    -2
100
AcDbBlockReference
  2
_DOT
 10
397.5786851119964
 20
306.8436632320002
 30
0.0
 41
3.0
 42
3.0
 43
3.0
  0
MTEXT
  5
134B
330
1343
100
AcDbEntity
  8
DIM
 62
     0
 48
0.05
100
AcDbMText
 10
376.5786851119964
 20
289.5656632320002
 30
0.0
 40
12.0
 41
0.0
 46
0.0
 71
     5
 72
     1
  1
\A1;G1 1/4"
  7
ＭＳ ゴシック
 73
     1
 44
1.0
  0
POINT
  5
134C
330
1343
100
AcDbEntity
  8
Defpoints
 62
     0
100
AcDbPoint
 10
355.5786851119964
 20
338.3592020225801
 30
0.0
  0
POINT
  5
134D
330
1343
100
AcDbEntity
  8
Defpoints
 62
     0
100
AcDbPoint
 10
397.5786851119964
 20
338.3592020225801
 30
0.0
  0
POINT
  5
134E
330
1343
100
AcDbEntity
  8
Defpoints
 62
     0
100
AcDbPoint
 10
397.5786851119964
 20
306.8436632320002
 30
0.0
  0
ENDBLK
  5
1345
330
1343
100
AcDbEntity
  8
0
100
AcDbBlockEnd
  0
BLOCK
  5
1350
330
134F
100
AcDbEntity
  8
0
100
AcDbBlockBegin
  2
*D37
 70
     1
 10
0.0
 20
0.0
 30
0.0
  3
*D37
  1
*D38
  0
LINE
  5
1352
330
134F
100
AcDbEntity
  8
DIM
 62
     0
 48
0.05
370
    -2
100
AcDbLine
 10
350.5786851119964
 20
338.3592020225801
 30
0.0
 11
337.4259464319999
 21
338.3592020225801
 31
0.0
  0
LINE
  5
1353
330
134F
100
AcDbEntity
  8
DIM
 62
     0
 48
0.05
370
    -2
100
AcDbLine
 10
342.4073341243025
 20
358.3592020225801
 30
0.0
 11
337.4259464319999
 21
358.3592020225801
 31
0.0
  0
LINE
  5
1354
330
134F
100
AcDbEntity
  8
DIM
 62
     0
 48
0.05
370
    -2
100
AcDbLine
 10
337.4259464319999
 20
338.3592020225801
 30
0.0
 11
337.4259464319999
 21
298.1032020225801
 31
0.0
  0
LINE
  5
1355
330
134F
100
AcDbEntity
  8
DIM
 62
     0
 48
0.05
370
    -2
100
AcDbLine
 10
337.4259464319999
 20
341.3592020225801
 30
0.0
 11
337.4259464319999
 21
355.3592020225801
 31
0.0
  0
INSERT
  5
1356
330
134F
100
AcDbEntity
  8
DIM
 62
     0
370
    -2
100
AcDbBlockReference
  2
_DOT
 10
337.4259464319999
 20
338.3592020225801
 30
0.0
 41
3.0
 42
3.0
 43
3.0
 50
270.0
  0
INSERT
  5
1357
330
134F
100
AcDbEntity
  8
DIM
 62
     0
370
    -2
100
AcDbBlockReference
  2
_DOT
 10
337.4259464319999
 20
358.3592020225801
 30
0.0
 41
3.0
 42
3.0
 43
3.0
 50
90.0
  0
MTEXT
  5
1358
330
134F
100
AcDbEntity
  8
DIM
 62
     0
 48
0.05
100
AcDbMText
 10
321.4259464319999
 20
315.2312020225801
 30
0.0
 40
12.0
 41
0.0
 46
0.0
 71
     5
 72
     1
  1
\A1;20
  7
ＭＳ ゴシック
 11
0.0
 21
1.0
 31
0.0
 73
     1
 44
1.0
  0
POINT
  5
1359
330
134F
100
AcDbEntity
  8
Defpoints
 62
     0
100
AcDbPoint
 10
355.5786851119964
 20
338.3592020225801
 30
0.0
  0
POINT
  5
135A
330
134F
100
AcDbEntity
  8
Defpoints
 62
     0
100
AcDbPoint
 10
347.4073341243025
 20
358.3592020225801
 30
0.0
  0
POINT
  5
135B
330
134F
100
AcDbEntity
  8
Defpoints
 62
     0
100
AcDbPoint
 10
337.4259464319999
 20
358.3592020225801
 30
0.0
  0
ENDBLK
  5
1351
330
134F
100
AcDbEntity
  8
0
100
AcDbBlockEnd
  0
BLOCK
  5
13CF
330
13CE
100
AcDbEntity
  8
0
100
AcDbBlockBegin
  2
*D38
 70
     1
 10
0.0
 20
0.0
 30
0.0
  3
*D38
  1
*D40
  0
LINE
  5
13D1
330
13CE
100
AcDbEntity
  8
DIM
 62
     0
 48
0.05
370
    -2
100
AcDbLine
 10
218.0802736544878
 20
433.1582481863522
 30
0.0
 11
218.0802736544878
 21
406.6427093957723
 31
0.0
  0
LINE
  5
13D2
330
13CE
100
AcDbEntity
  8
DIM
 62
     0
 48
0.05
370
    -2
100
AcDbLine
 10
260.0802736544878
 20
433.1582481863522
 30
0.0
 11
260.0802736544878
 21
406.6427093957723
 31
0.0
  0
LINE
  5
13D3
330
13CE
100
AcDbEntity
  8
DIM
 62
     0
 48
0.05
370
    -2
100
AcDbLine
 10
221.0802736544878
 20
406.6427093957723
 30
0.0
 11
257.0802736544878
 21
406.6427093957723
 31
0.0
  0
INSERT
  5
13D4
330
13CE
100
AcDbEntity
  8
DIM
 62
     0
370
    -2
100
AcDbBlockReference
  2
_DOT
 10
218.0802736544878
 20
406.6427093957723
 30
0.0
 41
3.0
 42
3.0
 43
3.0
 50
180.0
  0
INSERT
  5
13D5
330
13CE
100
AcDbEntity
  8
DIM
 62
     0
370
    -2
100
AcDbBlockReference
  2
_DOT
 10
260.0802736544878
 20
406.6427093957723
 30
0.0
 41
3.0
 42
3.0
 43
3.0
  0
MTEXT
  5
13D6
330
13CE
100
AcDbEntity
  8
DIM
 62
     0
 48
0.05
100
AcDbMText
 10
239.0802736544878
 20
389.3647093957723
 30
0.0
 40
12.0
 41
0.0
 46
0.0
 71
     5
 72
     1
  1
\A1;G1 1/4"
  7
ＭＳ ゴシック
 73
     1
 44
1.0
  0
POINT
  5
13D7
330
13CE
100
AcDbEntity
  8
Defpoints
 62
     0
100
AcDbPoint
 10
218.0802736544878
 20
438.1582481863522
 30
0.0
  0
POINT
  5
13D8
330
13CE
100
AcDbEntity
  8
Defpoints
 62
     0
100
AcDbPoint
 10
260.0802736544878
 20
438.1582481863522
 30
0.0
  0
POINT
  5
13D9
330
13CE
100
AcDbEntity
  8
Defpoints
 62
     0
100
AcDbPoint
 10
260.0802736544878
 20
406.6427093957723
 30
0.0
  0
ENDBLK
  5
13D0
330
13CE
100
AcDbEntity
  8
0
100
AcDbBlockEnd
  0
BLOCK
  5
13DB
330
13DA
100
AcDbEntity
  8
0
100
AcDbBlockBegin
  2
*D39
 70
     1
 10
0.0
 20
0.0
 30
0.0
  3
*D39
  1
*D41
  0
LINE
  5
13DD
330
13DA
100
AcDbEntity
  8
DIM
 62
     0
 48
0.05
370
    -2
100
AcDbLine
 10
213.0802736544878
 20
438.1582481863522
 30
0.0
 11
199.9275349744913
 21
438.1582481863522
 31
0.0
  0
LINE
  5
13DE
330
13DA
100
AcDbEntity
  8
DIM
 62
     0
 48
0.05
370
    -2
100
AcDbLine
 10
204.9089226667938
 20
458.1582481863522
 30
0.0
 11
199.9275349744913
 21
458.1582481863522
 31
0.0
  0
LINE
  5
13DF
330
13DA
100
AcDbEntity
  8
DIM
 62
     0
 48
0.05
370
    -2
100
AcDbLine
 10
199.9275349744913
 20
438.1582481863522
 30
0.0
 11
199.9275349744913
 21
402.9022481863522
 31
0.0
  0
LINE
  5
13E0
330
13DA
100
AcDbEntity
  8
DIM
 62
     0
 48
0.05
370
    -2
100
AcDbLine
 10
199.9275349744913
 20
441.1582481863522
 30
0.0
 11
199.9275349744913
 21
455.1582481863522
 31
0.0
  0
INSERT
  5
13E1
330
13DA
100
AcDbEntity
  8
DIM
 62
     0
370
    -2
100
AcDbBlockReference
  2
_DOT
 10
199.9275349744913
 20
438.1582481863522
 30
0.0
 41
3.0
 42
3.0
 43
3.0
 50
270.0
  0
INSERT
  5
13E2
330
13DA
100
AcDbEntity
  8
DIM
 62
     0
370
    -2
100
AcDbBlockReference
  2
_DOT
 10
199.9275349744913
 20
458.1582481863522
 30
0.0
 41
3.0
 42
3.0
 43
3.0
 50
90.0
  0
MTEXT
  5
13E3
330
13DA
100
AcDbEntity
  8
DIM
 62
     0
 48
0.05
100
AcDbMText
 10
188.9275349744913
 20
415.0302481863522
 30
0.0
 40
12.0
 41
0.0
 46
0.0
 71
     5
 72
     1
  1
\A1;20
  7
ＭＳ ゴシック
 11
0.0
 21
1.0
 31
0.0
 73
     1
 44
1.0
  0
POINT
  5
13E4
330
13DA
100
AcDbEntity
  8
Defpoints
 62
     0
100
AcDbPoint
 10
218.0802736544878
 20
438.1582481863522
 30
0.0
  0
POINT
  5
13E5
330
13DA
100
AcDbEntity
  8
Defpoints
 62
     0
100
AcDbPoint
 10
209.9089226667938
 20
458.1582481863522
 30
0.0
  0
POINT
  5
13E6
330
13DA
100
AcDbEntity
  8
Defpoints
 62
     0
100
AcDbPoint
 10
199.9275349744913
 20
458.1582481863522
 30
0.0
  0
ENDBLK
  5
13DC
330
13DA
100
AcDbEntity
  8
0
100
AcDbBlockEnd
  0
BLOCK
  5
13F1
330
13F0
100
AcDbEntity
  8
0
100
AcDbBlockBegin
  2
*D40
 70
     1
 10
0.0
 20
0.0
 30
0.0
  3
*D40
  1
*D42
  0
LINE
  5
13F3
330
13F0
100
AcDbEntity
  8
DIM
 62
     0
 48
0.05
370
    -2
100
AcDbLine
 10
179.080271722504
 20
453.1582481863522
 30
0.0
 11
179.080271722504
 21
350.1648159325047
 31
0.0
  0
LINE
  5
13F4
330
13F0
100
AcDbEntity
  8
DIM
 62
     0
 48
0.05
370
    -2
100
AcDbLine
 10
309.080271722504
 20
453.1582481863522
 30
0.0
 11
309.080271722504
 21
350.1648159325047
 31
0.0
  0
LINE
  5
13F5
330
13F0
100
AcDbEntity
  8
DIM
 62
     0
 48
0.05
370
    -2
100
AcDbLine
 10
182.080271722504
 20
350.1648159325047
 30
0.0
 11
306.080271722504
 21
350.1648159325047
 31
0.0
  0
INSERT
  5
13F6
330
13F0
100
AcDbEntity
  8
DIM
 62
     0
370
    -2
100
AcDbBlockReference
  2
_DOT
 10
179.080271722504
 20
350.1648159325047
 30
0.0
 41
3.0
 42
3.0
 43
3.0
 50
180.0
  0
INSERT
  5
13F7
330
13F0
100
AcDbEntity
  8
DIM
 62
     0
370
    -2
100
AcDbBlockReference
  2
_DOT
 10
309.080271722504
 20
350.1648159325047
 30
0.0
 41
3.0
 42
3.0
 43
3.0
  0
MTEXT
  5
13F8
330
13F0
100
AcDbEntity
  8
DIM
 62
     0
 48
0.05
100
AcDbMText
 10
244.080271722504
 20
366.1648159325047
 30
0.0
 40
12.0
 41
0.0
 46
0.0
 71
     5
 72
     1
  1
\A1;130
  7
ＭＳ ゴシック
 73
     1
 44
1.0
  0
POINT
  5
13F9
330
13F0
100
AcDbEntity
  8
Defpoints
 62
     0
100
AcDbPoint
 10
179.080271722504
 20
458.1582481863522
 30
0.0
  0
POINT
  5
13FA
330
13F0
100
AcDbEntity
  8
Defpoints
 62
     0
100
AcDbPoint
 10
309.080271722504
 20
458.1582481863522
 30
0.0
  0
POINT
  5
13FB
330
13F0
100
AcDbEntity
  8
Defpoints
 62
     0
100
AcDbPoint
 10
309.080271722504
 20
350.1648159325047
 30
0.0
  0
ENDBLK
  5
13F2
330
13F0
100
AcDbEntity
  8
0
100
AcDbBlockEnd
  0
BLOCK
  5
1482
330
1481
100
AcDbEntity
  8
0
100
AcDbBlockBegin
  2
*D41
 70
     1
 10
0.0
 20
0.0
 30
0.0
  3
*D41
  1
*D44
  0
LINE
  5
1484
330
1481
100
AcDbEntity
  8
DIM
 62
     0
 48
0.05
370
    -2
100
AcDbLine
 10
489.0869765581399
 20
538.158248186352
 30
0.0
 11
568.1886852080645
 21
538.158248186352
 31
0.0
  0
LINE
  5
1485
330
1481
100
AcDbEntity
  8
DIM
 62
     0
 48
0.05
370
    -2
100
AcDbLine
 10
265.0802736544878
 20
438.1582481863522
 30
0.0
 11
568.1886852080645
 21
438.1582481863522
 31
0.0
  0
LINE
  5
1486
330
1481
100
AcDbEntity
  8
DIM
 62
     0
 48
0.05
370
    -2
100
AcDbLine
 10
568.1886852080645
 20
535.158248186352
 30
0.0
 11
568.1886852080645
 21
441.1582481863522
 31
0.0
  0
INSERT
  5
1487
330
1481
100
AcDbEntity
  8
DIM
 62
     0
370
    -2
100
AcDbBlockReference
  2
_DOT
 10
568.1886852080645
 20
538.158248186352
 30
0.0
 41
3.0
 42
3.0
 43
3.0
 50
90.0
  0
INSERT
  5
1488
330
1481
100
AcDbEntity
  8
DIM
 62
     0
370
    -2
100
AcDbBlockReference
  2
_DOT
 10
568.1886852080645
 20
438.1582481863522
 30
0.0
 41
3.0
 42
3.0
 43
3.0
 50
270.0
  0
MTEXT
  5
1489
330
1481
100
AcDbEntity
  8
DIM
 62
     0
 48
0.05
100
AcDbMText
 10
552.1886852080645
 20
488.1582481863521
 30
0.0
 40
12.0
 41
0.0
 46
0.0
 71
     5
 72
     1
  1
\A1;100
  7
ＭＳ ゴシック
 11
0.0
 21
1.0
 31
0.0
 73
     1
 44
1.0
  0
POINT
  5
148A
330
1481
100
AcDbEntity
  8
Defpoints
 62
     0
100
AcDbPoint
 10
484.0869765581399
 20
538.158248186352
 30
0.0
  0
POINT
  5
148B
330
1481
100
AcDbEntity
  8
Defpoints
 62
     0
100
AcDbPoint
 10
260.0802736544878
 20
438.1582481863522
 30
0.0
  0
POINT
  5
148C
330
1481
100
AcDbEntity
  8
Defpoints
 62
     0
100
AcDbPoint
 10
568.1886852080645
 20
438.1582481863522
 30
0.0
  0
ENDBLK
  5
1483
330
1481
100
AcDbEntity
  8
0
100
AcDbBlockEnd
  0
BLOCK
  5
150E
330
150D
100
AcDbEntity
  8
0
100
AcDbBlockBegin
  2
*D42
 70
     1
 10
0.0
 20
0.0
 30
0.0
  3
*D42
  1
*D42
  0
LINE
  5
1510
330
150D
100
AcDbEntity
  8
DIM
 62
     0
 48
0.05
370
    -2
100
AcDbLine
 10
119.293729487232
 20
458.1582481863522
 30
0.0
 11
100.9204275508831
 21
458.1582481863522
 31
0.0
  0
LINE
  5
1511
330
150D
100
AcDbEntity
  8
DIM
 62
     0
 48
0.05
370
    -2
100
AcDbLine
 10
119.293729487232
 20
441.584911832961
 30
0.0
 11
100.9204275508831
 21
441.584911832961
 31
0.0
  0
LINE
  5
1512
330
150D
100
AcDbEntity
  8
DIM
 62
     0
 48
0.05
370
    -2
100
AcDbLine
 10
100.9204275508831
 20
441.584911832961
 30
0.0
 11
100.9204275508831
 21
359.715682915697
 31
0.0
  0
LINE
  5
1513
330
150D
100
AcDbEntity
  8
DIM
 62
     0
 48
0.05
370
    -2
100
AcDbLine
 10
100.9204275508831
 20
455.1582481863522
 30
0.0
 11
100.9204275508831
 21
444.584911832961
 31
0.0
  0
INSERT
  5
1514
330
150D
100
AcDbEntity
  8
DIM
 62
     0
370
    -2
100
AcDbBlockReference
  2
_DOT
 10
100.9204275508831
 20
458.1582481863522
 30
0.0
 41
3.0
 42
3.0
 43
3.0
 50
90.0
  0
INSERT
  5
1515
330
150D
100
AcDbEntity
  8
DIM
 62
     0
370
    -2
100
AcDbBlockReference
  2
_DOT
 10
100.9204275508831
 20
441.584911832961
 30
0.0
 41
3.0
 42
3.0
 43
3.0
 50
270.0
  0
MTEXT
  5
1516
330
150D
100
AcDbEntity
  8
DIM
 62
     0
 48
0.05
100
AcDbMText
 10
84.92042755088306
 20
392.347682915697
 30
0.0
 40
12.0
 41
0.0
 46
0.0
 71
     5
 72
     1
  1
\A1;MAX 45
  7
ＭＳ ゴシック
 11
0.0
 21
1.0
 31
0.0
 73
     1
 44
1.0
  0
POINT
  5
1517
330
150D
100
AcDbEntity
  8
Defpoints
 62
     0
100
AcDbPoint
 10
124.293729487232
 20
458.1582481863522
 30
0.0
  0
POINT
  5
1518
330
150D
100
AcDbEntity
  8
Defpoints
 62
     0
100
AcDbPoint
 10
124.293729487232
 20
441.584911832961
 30
0.0
  0
POINT
  5
1519
330
150D
100
AcDbEntity
  8
Defpoints
 62
     0
100
AcDbPoint
 10
100.9204275508831
 20
441.584911832961
 30
0.0
  0
ENDBLK
  5
150F
330
150D
100
AcDbEntity
  8
0
100
AcDbBlockEnd
  0
ENDSEC
  0
SECTION
  2
ENTITIES
  0
MTEXT
  5
177
330
A
100
AcDbEntity
  8
TEMPLATE
390
1D
100
AcDbMText
 10
39.60107227386538
 20
171.8658758157141
 30
0.0
 40
8.144205729166663
 41
0.0
 46
0.0
 71
     1
 72
     1
  1
品名
  7
ＭＳ ゴシック
 73
     1
 44
0.7828267384257843
  0
MTEXT
  5
178
330
A
100
AcDbEntity
  8
TEMPLATE
390
1D
100
AcDbMText
 10
39.60107227386538
 20
129.365875815714
 30
0.0
 40
8.144205729166663
 41
0.0
 46
0.0
 71
     1
 72
     1
  1
仕様
  7
ＭＳ ゴシック
 73
     1
 44
0.7828267384257843
  0
LINE
  5
179
330
A
100
AcDbEntity
  8
TEMPLATE
390
1D
100
AcDbLine
 10
1011.101072273624
 20
133.5733367532142
 30
0.0
 11
36.10107227362437
 21
133.5733367532142
 31
0.0
  0
LWPOLYLINE
  5
17A
330
A
100
AcDbEntity
  8
TEMPLATE
390
1D
100
AcDbPolyline
 90
        5
 70
   128
 43
0.0
 10
1011.101072273624
 20
1448.573336753213
 10
36.10107227362437
 20
1448.573336753213
 10
36.10107227362437
 20
48.57333675321413
 10
1011.101072273624
 20
48.57333675321413
 10
1011.101072273624
 20
1448.573336753213
  0
LINE
  5
17B
330
A
100
AcDbEntity
  8
TEMPLATE
390
1D
100
AcDbLine
 10
1011.101072273624
 20
176.0733367532141
 30
0.0
 11
36.10107227362437
 21
176.0733367532141
 31
0.0
  0
LINE
  5
17C
330
A
100
AcDbEntity
  8
TEMPLATE
390
1D
100
AcDbLine
 10
1011.101072273866
 20
91.07333675321412
 30
0.0
 11
634.601072273865
 21
91.07333675321412
 31
0.0
  0
MTEXT
  5
17E
330
A
100
AcDbEntity
  8
TEMPLATE
390
1D
100
AcDbMText
 10
649.5367753999956
 20
76.11813951656006
 30
0.0
 40
12.21630859375
 41
0.0
 46
0.0
 71
     1
 72
     1
  1
大洋金物株式会社 ティーフォルム事業部
  7
ＭＳ ゴシック
 73
     1
 44
0.7828267384257843
  0
MTEXT
  5
180
330
A
100
AcDbEntity
  8
TEMPLATE
390
1D
100
AcDbMText
 10
915.601072273995
 20
115.0746453469641
 30
0.0
 40
12.21630859375
 41
0.0
 46
12.21630859375
 71
     1
 72
     1
  1
{1:5}
  7
ＭＳ ゴシック
 73
     1
 44
0.7828267384257843
1001
ACAD
1000
ACAD_MTEXT_DEFINED_HEIGHT_BEGIN
1070
    46
1040
12.21630859375
1000
ACAD_MTEXT_DEFINED_HEIGHT_END
  0
MTEXT
  5
181
330
A
100
AcDbEntity
  8
TEMPLATE
390
1D
100
AcDbMText
 10
889.101072273995
 20
129.365875815714
 30
0.0
 40
8.144205729166663
 41
0.0
 46
0.0
 71
     1
 72
     1
  1
縮尺
  7
ＭＳ ゴシック
 73
     1
 44
0.7828267384257843
  0
LINE
  5
182
330
A
100
AcDbEntity
  8
TEMPLATE
390
1D
100
AcDbLine
 10
885.601072273995
 20
91.07333675321412
 30
0.0
 11
885.601072273995
 21
133.5733367532142
 31
0.0
  0
MTEXT
  5
183
330
A
100
AcDbEntity
  8
TEMPLATE
390
1D
100
AcDbMText
 10
763.601072273995
 20
129.365875815714
 30
0.0
 40
8.144205729166663
 41
0.0
 46
0.0
 71
     1
 72
     1
  1
容量
  7
ＭＳ ゴシック
 73
     1
 44
0.7828267384257843
  0
LINE
  5
184
330
A
100
AcDbEntity
  8
TEMPLATE
390
1D
100
AcDbLine
 10
760.101072273995
 20
91.07333675321412
 30
0.0
 11
760.101072273995
 21
133.5733367532142
 31
0.0
  0
MTEXT
  5
185
330
A
100
AcDbEntity
  8
TEMPLATE
390
1D
100
AcDbMText
 10
638.101072273995
 20
171.8658758157141
 30
0.0
 40
8.144205729166663
 41
0.0
 46
0.0
 71
     1
 72
     1
  1
品番
  7
ＭＳ ゴシック
 73
     1
 44
0.7828267384257843
  0
MTEXT
  5
186
330
A
100
AcDbEntity
  8
TEMPLATE
390
1D
100
AcDbMText
 10
638.101072273995
 20
129.365875815714
 30
0.0
 40
8.144205729166663
 41
0.0
 46
0.0
 71
     1
 72
     1
  1
重量
  7
ＭＳ ゴシック
 73
     1
 44
0.7828267384257843
  0
MTEXT
  5
187
330
A
100
AcDbEntity
  8
TEMPLATE
390
1D
100
AcDbMText
 10
664.601072273995
 20
157.5746453469641
 30
0.0
 40
12.21630859375
 41
0.0
 46
12.21630859375
 71
     1
 72
     1
  1
{BRS70-0102-004}
  7
ＭＳ ゴシック
 73
     1
 44
0.7828267384257843
1001
ACAD
1000
ACAD_MTEXT_DEFINED_HEIGHT_BEGIN
1070
    46
1040
12.21630859375
1000
ACAD_MTEXT_DEFINED_HEIGHT_END
  0
LINE
  5
188
330
A
100
AcDbEntity
  8
TEMPLATE
390
1D
100
AcDbLine
 10
634.601072273995
 20
48.57333675321413
 30
0.0
 11
634.601072273995
 21
176.0733367532141
 31
0.0
  0
MTEXT
  5
189
330
A
100
AcDbEntity
  8
TEMPLATE
390
1D
100
AcDbMText
 10
66.10107227386537
 20
157.5746453469641
 30
0.0
 40
12.21630859375
 41
0.0
 46
13.76777978515625
 71
     1
 72
     1
  1
{手洗器　-CLOU, First-}
  7
ＭＳ ゴシック
 73
     1
 44
0.7828267384257843
1001
ACAD
1000
ACAD_MTEXT_DEFINED_HEIGHT_BEGIN
1070
    46
1040
13.76777978515625
1000
ACAD_MTEXT_DEFINED_HEIGHT_END
  0
INSERT
  5
6B5
330
A
100
AcDbEntity
  8
TEMPLATE
100
AcDbBlockReference
  2
名称未設定-1
 10
935.3753740442249
 20
12.97338287832691
 30
0.0
 41
0.3809999999999999
 42
0.3809999999999999
 43
0.3809999999999999
  0
MTEXT
  5
7D9
330
A
100
AcDbEntity
  8
TEMPLATE
390
1D
100
AcDbMText
 10
62.62717263801819
 20
113.4059880146976
 30
0.0
 40
12.21630859375
 41
0.0
 46
49.64561669921875
 71
     1
 72
     1
  1
{カウンター置き/オーバーフローなし/\P排水目皿(水溜め不可)、カウンター固定金具付属/\Pバサルト(玄武岩)}
  7
ＭＳ ゴシック
 73
     1
 44
0.8840641112754306
1001
ACAD
1000
ACAD_MTEXT_DEFINED_HEIGHT_BEGIN
1070
    46
1040
49.64561669921875
1000
ACAD_MTEXT_DEFINED_HEIGHT_END
  0
INSERT
  5
68C
330
A
100
AcDbEntity
  8
TEMPLATE
100
AcDbBlockReference
  2
block 2
 10
919.2743017702577
 20
8.373076514336368
 30
0.0
 41
0.3809999999999999
 42
0.3809999999999999
 43
0.3809999999999999
  0
MTEXT
  5
D60
330
A
100
AcDbEntity
  8
TEMPLATE
390
1D
100
AcDbMText
 10
664.601072273865
 20
115.0746453469641
 30
0.0
 40
12.21630859375
 41
0.0
 46
14.1953505859375
 71
     1
 72
     1
  1
{4.3kg}
  7
ＭＳ ゴシック
 73
     1
 44
0.7828267384257843
1001
ACAD
1000
ACAD_MTEXT_DEFINED_HEIGHT_BEGIN
1070
    46
1040
14.1953505859375
1000
ACAD_MTEXT_DEFINED_HEIGHT_END
  0
LWPOLYLINE
  5
D69
330
A
100
AcDbEntity
  8
BORDER
 48
0.05
100
AcDbPolyline
 90
        4
 70
     1
 43
0.0
 10
0.0
 20
0.0
 10
0.0
 20
1485.0
 10
1050.0
 20
1485.0
 10
1050.0
 20
0.0
  0
INSERT
  5
F85
330
A
100
AcDbEntity
  8
TEMPLATE
100
AcDbBlockReference
  2
block 2
 10
2154.151925676964
 20
81.84377622279143
 30
0.0
 41
0.3809999999999999
 42
0.3809999999999999
 43
0.3809999999999999
  0
SPLINE
  5
F88
330
A
100
AcDbEntity
  8
MODEL
100
AcDbSpline
210
0.0
220
0.0
230
1.0
 70
     8
 71
     3
 72
     9
 73
     5
 74
     0
 42
0.000000001
 43
0.00000001
 40
0.0
 40
0.0
 40
0.0
 40
0.0
 40
0.4623865990412394
 40
1.0
 40
1.0
 40
1.0
 40
1.0
 10
206.563331622951
 20
931.5652987201834
 30
0.0
 10
205.1328437451089
 20
931.9634702119874
 30
0.0
 10
202.0391384327017
 20
932.8245926853165
 30
0.0
 10
198.9134594190405
 20
933.7968237495625
 30
0.0
 10
197.2330524942086
 20
934.3195081985295
 30
0.0
  0
SPLINE
  5
F89
330
A
100
AcDbEntity
  8
MODEL
100
AcDbSpline
210
0.0
220
0.0
230
1.0
 70
     8
 71
     3
 72
    11
 73
     7
 74
     0
 42
0.000000001
 43
0.00000001
 40
0.0
 40
0.0
 40
0.0
 40
0.0
 40
0.2403935951801969
 40
0.5473044530813107
 40
0.7986095929623095
 40
1.0
 40
1.0
 40
1.0
 40
1.0
 10
137.6114728109974
 20
981.4478605948748
 30
0.0
 10
137.1817176814152
 20
982.2005698823705
 30
0.0
 10
136.2032935433749
 20
983.9142642285665
 30
0.0
 10
134.898909476135
 20
986.4568301414683
 30
0.0
 10
133.7190779117013
 20
988.8854235446315
 30
0.0
 10
133.1128045622613
 20
990.2281098803146
 30
0.0
 10
132.8430920867327
 20
990.8254299765877
 30
0.0
  0
SPLINE
  5
F8A
330
A
100
AcDbEntity
  8
MODEL
100
AcDbSpline
210
0.0
220
0.0
230
1.0
 70
     8
 71
     3
 72
    11
 73
     7
 74
     0
 42
0.000000001
 43
0.00000001
 40
0.0
 40
0.0
 40
0.0
 40
0.0
 40
0.2046681533709009
 40
0.4600620889843896
 40
0.8414167343692265
 40
1.0
 40
1.0
 40
1.0
 40
1.0
 10
132.8430920867982
 20
1073.555492718299
 30
0.0
 10
133.1127168752287
 20
1074.152869614481
 30
0.0
 10
133.7187913492821
 20
1075.495679710933
 30
0.0
 10
135.0065979726937
 20
1078.140911403586
 30
0.0
 10
136.2838405756488
 20
1080.63921767398
 30
0.0
 10
137.2494302500349
 20
1082.293016742875
 30
0.0
 10
137.5330301986546
 20
1082.778748253279
 30
0.0
  0
SPLINE
  5
F8B
330
A
100
AcDbEntity
  8
MODEL
100
AcDbSpline
210
0.0
220
0.0
230
1.0
 70
     8
 71
     3
 72
     9
 73
     5
 74
     0
 42
0.000000001
 43
0.00000001
 40
0.0
 40
0.0
 40
0.0
 40
0.0
 40
0.2565059861568779
 40
0.9999999999999999
 40
0.9999999999999999
 40
0.9999999999999999
 40
0.9999999999999999
 10
200.7653699523803
 20
1131.141798498155
 30
0.0
 10
201.2631419187096
 20
1131.294993831104
 30
0.0
 10
203.2037280773079
 20
1131.892232652865
 30
0.0
 10
205.124366936871
 20
1132.420614301107
 30
0.0
 10
206.5523504317102
 20
1132.8134628936
 30
0.0
  0
SPLINE
  5
F8C
102
{ACAD_REACTORS
330
126F
102
}
330
A
100
AcDbEntity
  8
MODEL
100
AcDbSpline
210
0.0
220
0.0
230
1.0
 70
    11
 71
     3
 72
    70
 73
    66
 74
     0
 42
0.000000001
 43
0.00000001
 40
0.0
 40
0.0
 40
0.0
 40
0.0
 40
0.0062500000000001
 40
0.03125
 40
0.07421875
 40
0.0859375
 40
0.08984375
 40
0.1015625
 40
0.109375
 40
0.15625
 40
0.17578125
 40
0.197265625
 40
0.201171875
 40
0.21875
 40
0.234375
 40
0.2421875
 40
0.25
 40
0.2578125
 40
0.265625
 40
0.2734375
 40
0.27734375
 40
0.3125
 40
0.34375
 40
0.359375
 40
0.390625
 40
0.3984375
 40
0.41015625
 40
0.4140625
 40
0.42578125
 40
0.453125
 40
0.484375
 40
0.4921875
 40
0.5
 40
0.5078125
 40
0.515625
 40
0.546875
 40
0.57421875
 40
0.5859375
 40
0.58984375
 40
0.6015625
 40
0.609375
 40
0.640625
 40
0.65625
 40
0.6875
 40
0.71484375
 40
0.71875
 40
0.7265625
 40
0.734375
 40
0.7421875
 40
0.75
 40
0.7578125
 40
0.765625
 40
0.78125
 40
0.796875
 40
0.8037109375
 40
0.828125
 40
0.84375
 40
0.890625
 40
0.8984375
 40
0.91015625
 40
0.9140625
 40
0.92578125
 40
0.96875
 40
0.99375
 40
1.0
 40
1.0
 40
1.0
 40
1.0
 10
124.0802721196674
 20
1032.190461347372
 30
0.0
 10
124.0802721196674
 20
1030.927409487494
 30
0.0
 10
124.1961747580576
 20
1024.632302806117
 30
0.0
 10
125.8325265340395
 20
1009.935157923023
 30
0.0
 10
130.6253864736505
 20
994.8823086692037
 30
0.0
 10
135.9139140483826
 20
984.4250610348454
 30
0.0
 10
138.6205610824768
 20
979.6356499388194
 30
0.0
 10
141.1461315716228
 20
975.6108227524137
 30
0.0
 10
149.0436778802909
 20
964.5227385999124
 30
0.0
 10
160.1940392706169
 20
953.1573389146138
 30
0.0
 10
177.43759056108
 20
942.1230832586548
 30
0.0
 10
187.7098170582326
 20
937.4600681628358
 30
0.0
 10
198.6198122005376
 20
933.8242538298555
 30
0.0
 10
208.5418116572696
 20
930.8796185838228
 30
0.0
 10
220.6901892440733
 20
928.0768966636247
 30
0.0
 10
230.7909959756294
 20
926.2505965093555
 30
0.0
 10
239.0260128944069
 20
925.0523543808195
 30
0.0
 10
247.6866097401803
 20
924.0997599462394
 30
0.0
 10
256.5389545698495
 20
923.4669779123806
 30
0.0
 10
264.1582335521821
 20
923.2033051131684
 30
0.0
 10
282.7773515653466
 20
923.1406590168085
 30
0.0
 10
312.2428495141071
 20
924.6395026028777
 30
0.0
 10
348.4954880770679
 20
930.3804813969696
 30
0.0
 10
383.0792338382894
 20
939.1739835671806
 30
0.0
 10
406.6969157310091
 20
947.8592824094744
 30
0.0
 10
426.4605093272407
 20
957.7767600735397
 30
0.0
 10
434.9733143627604
 20
962.7491342882195
 30
0.0
 10
444.2242504731043
 20
968.8582849015684
 30
0.0
 10
457.6331226111802
 20
978.9093833619654
 30
0.0
 10
474.2517119587724
 20
996.6970127376658
 30
0.0
 10
481.9183623936556
 20
1014.234752280915
 30
0.0
 10
483.8701154963351
 20
1026.304496032873
 30
0.0
 10
484.1954076838888
 20
1032.190461346334
 30
0.0
 10
483.8701154998857
 20
1038.076426660744
 30
0.0
 10
481.9183623732247
 20
1050.146170418438
 30
0.0
 10
474.2517119351764
 20
1067.683909961179
 30
0.0
 10
457.6331213664312
 20
1085.471539551465
 30
0.0
 10
444.2242528328211
 20
1095.522637378581
 30
0.0
 10
434.973312081675
 20
1101.631788807299
 30
0.0
 10
426.4605191623782
 20
1106.604160893227
 30
0.0
 10
406.6968905781255
 20
1116.5216447044
 30
0.0
 10
383.0791510465065
 20
1125.206953661993
 30
0.0
 10
348.4956056495726
 20
1134.000420671593
 30
0.0
 10
315.6937864332217
 20
1139.200237228947
 30
0.0
 10
289.336640864844
 20
1140.868267951611
 30
0.0
 10
273.4889518608111
 20
1141.182139826331
 30
0.0
 10
265.6813822227855
 20
1141.226930848959
 30
0.0
 10
256.5393400687394
 20
1140.915757181705
 30
0.0
 10
247.686401378
 20
1140.280184121545
 30
0.0
 10
239.0257721917374
 20
1139.32737427962
 30
0.0
 10
230.7909431616285
 20
1138.130015737912
 30
0.0
 10
220.6902255319005
 20
1136.304390191895
 30
0.0
 10
209.1200664852954
 20
1133.634491710794
 30
0.0
 10
198.8685299283975
 20
1130.638739772728
 30
0.0
 10
186.9459647015397
 20
1126.685201175335
 30
0.0
 10
176.4252494882826
 20
1121.676828387444
 30
0.0
 10
159.607746293907
 20
1110.625045944882
 30
0.0
 10
149.0436778802982
 20
1099.85818409485
 30
0.0
 10
141.1461315716228
 20
1088.770099942325
 30
0.0
 10
138.6205610824768
 20
1084.745272755922
 30
0.0
 10
135.9139140483826
 20
1079.955861659896
 30
0.0
 10
130.6253864736505
 20
1069.49861402554
 30
0.0
 10
125.8325265340395
 20
1054.445764771714
 30
0.0
 10
124.1961747580576
 20
1039.748619888623
 30
0.0
 10
124.0802721196674
 20
1033.453513207246
 30
0.0
 10
124.0802721196674
 20
1032.190461347372
 30
0.0
  0
DIMENSION
  5
F8E
330
A
100
AcDbEntity
  8
DIM
  6
Continuous
100
AcDbDimension
  2
*D18
 10
484.0802721196675
 20
1178.640333341109
 30
0.0
 11
304.0802721196674
 21
1178.640333341109
 31
0.0
 70
   160
 71
     5
 42
360.0
 73
     0
 74
     0
 75
     0
  3
tfrom線あり
100
AcDbAlignedDimension
 13
124.0802721196674
 23
1034.096081189811
 33
0.0
 14
484.0802721196674
 24
1031.780807039373
 34
0.0
100
AcDbRotatedDimension
  0
DIMENSION
  5
F8F
330
A
100
AcDbEntity
  8
DIM
  6
Continuous
100
AcDbDimension
  2
*D19
 10
529.2163974194377
 20
923.1758539462708
 30
0.0
 11
529.2163974194377
 21
1032.17585394627
 31
0.0
 70
   160
 71
     5
 42
217.9999999999993
 73
     0
 74
     0
 75
     0
  3
tfrom線あり
100
AcDbAlignedDimension
 13
288.0237742679062
 23
1141.17585394627
 33
0.0
 14
288.0237742679062
 24
923.1758539462708
 34
0.0
 50
90.0
100
AcDbRotatedDimension
  0
DIMENSION
  5
F90
330
A
100
AcDbEntity
  8
DIM
  6
Continuous
100
AcDbDimension
  2
*D20
 10
239.0802721196674
 20
301.9870478941047
 30
0.0
 11
181.5802721196674
 21
301.9870478941047
 31
0.0
 70
   160
 71
     5
 42
115.0
 73
     0
 74
     0
 75
     0
  3
tfrom線あり
100
AcDbAlignedDimension
 13
124.0802721196674
 23
537.9136248284921
 33
0.0
 14
239.0802721196674
 24
350.1648159325047
 34
0.0
100
AcDbRotatedDimension
  0
DIMENSION
  5
F91
330
A
100
AcDbEntity
  8
DIM
  6
Continuous
100
AcDbDimension
  2
*D21
 10
524.9516900952713
 20
458.1582481863522
 30
0.0
 11
508.9516900952713
 21
498.1582481863521
 31
0.0
 70
    32
 71
     5
 42
79.99999999999983
 73
     0
 74
     0
 75
     0
  3
tfrom線あり
100
AcDbAlignedDimension
 13
484.0869765581399
 23
538.158248186352
 33
0.0
 14
484.0867873109771
 24
458.1582481863522
 34
0.0
 50
90.0
100
AcDbRotatedDimension
1001
ACAD
1000
DSTYLE
1002
{
1070
    76
1070
     0
1070
    75
1070
     0
1002
}
  0
DIMENSION
  5
F92
330
A
100
AcDbEntity
  8
DIM
  6
Continuous
100
AcDbDimension
  2
*D22
 10
418.2089789477402
 20
872.1325623553771
 30
0.0
 11
278.2089789477402
 21
888.1325623553771
 31
0.0
 70
    32
 71
     5
 42
280.0
 73
     0
 74
     0
 75
     0
  3
tfrom線あり
100
AcDbAlignedDimension
 13
138.2089789477402
 23
1024.834984588062
 33
0.0
 14
418.2089789477402
 24
961.7818037160278
 34
0.0
 50
-0.000000000000014
100
AcDbRotatedDimension
  0
ARC
  5
F93
330
A
100
AcDbEntity
  8
MODEL
100
AcDbCircle
 10
256.3352546090662
 20
1032.19046134737
 30
0.0
 40
8.000000000000114
100
AcDbArc
 50
270.0000000007817
 51
90.0
  0
LINE
  5
F94
330
A
100
AcDbEntity
  8
MODEL
100
AcDbLine
 10
256.3352546091753
 20
1024.19046134737
 30
0.0
 11
220.3352546087601
 21
1024.19046134737
 31
0.0
  0
ARC
  5
F95
330
A
100
AcDbEntity
  8
MODEL
100
AcDbCircle
 10
220.3352546090653
 20
1032.19046134737
 30
0.0
 40
8.000000000000114
100
AcDbArc
 50
90.0
 51
269.9999999978178
  0
LINE
  5
F96
330
A
100
AcDbEntity
  8
MODEL
100
AcDbLine
 10
220.3352546090653
 20
1040.19046134737
 30
0.0
 11
256.3352546090662
 21
1040.19046134737
 31
0.0
  0
CIRCLE
  5
F97
330
A
100
AcDbEntity
  8
HIDDEN
 48
0.05
370
     0
100
AcDbCircle
 10
238.3352546090662
 20
1032.19046134737
 30
0.0
 40
26.5
  0
DIMENSION
  5
F98
330
A
100
AcDbEntity
  8
DIM
  6
Continuous
100
AcDbDimension
  2
*D23
 10
785.8224221348926
 20
473.2722250746372
 30
0.0
 11
785.8224221348926
 21
587.3430389727064
 31
0.0
 70
   160
  1
65(深さ)
 71
     5
 42
64.88602311171485
 73
     0
 74
     1
 75
     1
  3
tfrom線あり
100
AcDbAlignedDimension
 13
808.9336821148038
 23
538.158248186352
 33
0.0
 14
785.8224221348926
 24
473.2722250746372
 34
0.0
 50
89.99999999999999
100
AcDbRotatedDimension
1001
ACAD
1000
DSTYLE
1002
{
1070
     3
1000
<>
1070
   172
1070
     1
1070
    75
1070
     1
1070
    76
1070
     1
1002
}
  0
DIMENSION
  5
F99
330
A
100
AcDbEntity
  8
DIM
  6
Continuous
100
AcDbDimension
  2
*D24
 10
894.9822016889996
 20
362.8253074116977
 30
0.0
 11
840.4023119114597
 21
378.8253074116977
 31
0.0
 70
    32
 71
     5
 42
109.1597795550796
 73
     0
 74
     0
 75
     0
  3
tfrom線あり
100
AcDbAlignedDimension
 13
785.8224221339199
 23
394.1673279377777
 33
0.0
 14
894.9822016889996
 24
537.5939191778966
 34
0.0
 50
-0.0000000000000268
100
AcDbRotatedDimension
  0
DIMENSION
  5
F9A
330
A
100
AcDbEntity
  8
DIM
  6
Continuous
100
AcDbDimension
  2
*D25
 10
78.66336311649522
 20
937.1758539462708
 30
0.0
 11
78.66336311649525
 21
1032.17585394627
 31
0.0
 70
   160
 71
     5
 42
189.9999999999993
 73
     0
 74
     0
 75
     0
  3
tfrom線あり
100
AcDbAlignedDimension
 13
253.1199549797875
 23
1127.17585394627
 33
0.0
 14
246.1741325284755
 24
937.1758539462708
 34
0.0
 50
89.99999999999999
100
AcDbRotatedDimension
  0
LINE
  5
FAB
330
A
100
AcDbEntity
  8
HIDDEN
 48
0.05
100
AcDbLine
 10
212.147682191551
 20
466.094301547223
 30
0.0
 11
266.0128651174252
 21
466.094301547223
 31
0.0
  0
SPLINE
  5
FAC
330
A
100
AcDbEntity
  8
HIDDEN
 48
0.05
100
AcDbSpline
210
0.0
220
0.0
230
1.0
 70
  1064
 71
     3
 72
    17
 73
    13
 74
    11
 42
0.000000001
 43
0.0000000001
 44
0.0
 40
0.0
 40
0.0
 40
0.0
 40
0.0
 40
5.688822772671758
 40
16.48915856102354
 40
37.03051853607079
 40
60.61515526212591
 40
82.7933249904091
 40
99.72136882568452
 40
110.8660830743161
 40
112.708785872304
 40
116.2212728481171
 40
117.7893917515399
 40
117.7893917515399
 40
117.7893917515399
 40
117.7893917515399
 10
133.3073647199342
 20
538.158248186352
 30
0.0
 10
135.1788038880483
 20
537.4544950120148
 30
0.0
 10
140.6032051066244
 20
535.4146533535239
 30
0.0
 10
142.2573330442308
 20
521.4812770887081
 30
0.0
 10
149.6362372320932
 20
505.1254495949577
 30
0.0
 10
164.2923808438541
 20
488.472030023692
 30
0.0
 10
181.1070657895409
 20
474.0591236209452
 30
0.0
 10
197.4754414873725
 20
473.1143743404015
 30
0.0
 10
209.0981916786095
 20
472.9417034945922
 30
0.0
 10
212.0931127605757
 20
468.0966203506889
 30
0.0
 10
212.1544358950339
 20
465.7133888942576
 30
0.0
 10
212.1492750699519
 20
464.0262043145933
 30
0.0
 10
212.147682191551
 20
463.5054581485213
 30
0.0
 11
133.3073647199342
 21
538.158248186352
 31
0.0
 11
138.3636994840119
 21
535.5512991472551
 31
0.0
 11
142.1559505563284
 21
525.4386296210782
 31
0.0
 11
150.0564736236543
 21
506.4773742594962
 31
0.0
 11
165.1766337191086
 21
488.3772127080674
 31
0.0
 11
183.2386705064234
 21
475.5073238355781
 31
0.0
 11
200.0001737497421
 21
473.1386370447121
 31
0.0
 11
210.7324907807176
 21
470.1349681497964
 31
0.0
 11
211.6805535487968
 21
468.5548635363311
 31
0.0
 11
212.147682191551
 21
465.0735770519441
 31
0.0
 11
212.147682191551
 21
463.5054581485213
 31
0.0
  0
SPLINE
  5
FAD
330
A
100
AcDbEntity
  8
HIDDEN
 48
0.05
100
AcDbSpline
210
0.0
220
0.0
230
1.0
 70
  1064
 71
     3
 72
    19
 73
    15
 74
    13
 42
0.000000001
 43
0.0000000001
 44
0.0
 40
0.0
 40
0.0
 40
0.0
 40
0.0
 40
3.060899239143553
 40
6.743817294300242
 40
16.45568992421475
 40
38.14482920081776
 40
61.53389590460726
 40
90.60141448884623
 40
121.6695898359554
 40
140.0022914942285
 40
153.9189087580435
 40
165.9872178104619
 40
173.1852263527469
 40
175.7328719861953
 40
175.7328719861953
 40
175.7328719861953
 40
175.7328719861953
 10
266.0128651174252
 20
463.5054581485213
 30
0.0
 10
266.1213058694676
 20
464.5010639128539
 30
0.0
 10
266.3602240963984
 20
466.6945968740006
 30
0.0
 10
266.4977016937349
 20
472.7640324326209
 30
0.0
 10
281.6894524465199
 20
473.5757314868045
 30
0.0
 10
297.8583830423074
 20
474.2698666388849
 30
0.0
 10
322.0174240435717
 20
483.0712793097038
 30
0.0
 10
347.9012162049875
 20
492.4771514436142
 30
0.0
 10
370.8650464914701
 20
505.5177294262693
 30
0.0
 10
387.6557862019242
 20
518.3453927813955
 30
0.0
 10
398.7367284866502
 20
528.0673318022904
 30
0.0
 10
406.83884503852
 20
535.7544548057595
 30
0.0
 10
413.9639575749635
 20
538.2949099392889
 30
0.0
 10
417.2187441716349
 20
538.186569769941
 30
0.0
 10
418.0695893495258
 20
538.158248186352
 30
0.0
 11
266.0128651174252
 21
463.5054581485213
 31
0.0
 11
266.3005747192765
 21
466.5528057389993
 31
0.0
 11
266.8773514157092
 21
470.1902793187592
 31
0.0
 11
276.0889263326983
 21
473.2671864555412
 31
0.0
 11
297.6773567115372
 21
475.3548732945833
 31
0.0
 11
320.0009899243926
 21
482.3336870513913
 31
0.0
 11
347.0389579173132
 21
493.0046253165524
 31
0.0
 11
374.0554123675402
 21
508.3455088744681
 31
0.0
 11
388.6689857434606
 21
519.4149001530272
 31
0.0
 11
399.1551228172784
 21
528.5643900479131
 31
0.0
 11
408.6514033686569
 21
536.0118553263951
 31
0.0
 11
415.5219437160774
 21
538.158248186352
 31
0.0
 11
418.0695893495258
 21
538.158248186352
 31
0.0
  0
DIMENSION
  5
FAE
330
A
100
AcDbEntity
  8
DIM
100
AcDbDimension
  2
*D26
 10
828.3224793636775
 20
394.1673279377777
 30
0.0
 11
785.8224221339199
 21
410.1673279377777
 31
0.0
 70
    32
 71
     5
 42
85.00011445951532
 73
     0
 74
     0
 75
     0
  3
tfrom線あり
100
AcDbAlignedDimension
 13
743.3223649041622
 23
458.1582481863522
 33
0.0
 14
828.3224793636775
 24
458.1582481863522
 34
0.0
100
AcDbRotatedDimension
  0
LWPOLYLINE
  5
FAF
330
A
100
AcDbEntity
  8
HIDDEN
 48
0.0095
100
AcDbPolyline
 90
        4
 70
     1
 43
0.0
 10
782.2564356969863
 20
476.0000214971524
 10
782.2564356969863
 20
459.0316498012453
 10
789.3884085727989
 20
459.0316498012453
 10
789.3884085727989
 20
476.0000214971524
  0
LWPOLYLINE
  5
FB0
330
A
100
AcDbEntity
  8
HIDDEN
 48
0.0095
100
AcDbPolyline
 90
        4
 70
     1
 43
0.0
 10
777.0724221348926
 20
478.1242947912751
 10
777.0724221348926
 20
476.0000214971524
 10
794.5724221348926
 20
476.0000214971524
 10
794.5724221348926
 20
478.1242947912751
  0
LINE
  5
FB1
330
A
100
AcDbEntity
  8
HIDDEN
 48
0.05
100
AcDbLine
 10
212.147682191551
 20
463.5054581485213
 30
0.0
 11
212.1476821915842
 21
458.1582481863522
 31
0.0
  0
LINE
  5
FB2
330
A
100
AcDbEntity
  8
HIDDEN
 48
0.05
100
AcDbLine
 10
266.0128651174252
 20
463.5054581485213
 30
0.0
 11
266.0128651174252
 21
458.1582481863522
 31
0.0
  0
LINE
  5
FB3
330
A
100
AcDbEntity
  8
HIDDEN
 48
0.05
100
AcDbLine
 10
812.7550135978306
 20
465.4400496712772
 30
0.0
 11
812.7550135978306
 21
458.1582481863522
 31
0.0
  0
LINE
  5
FB4
330
A
100
AcDbEntity
  8
HIDDEN
 48
0.05
100
AcDbLine
 10
758.8898306719568
 20
465.4400496712772
 30
0.0
 11
758.8898306720014
 21
458.1582481863522
 31
0.0
  0
LINE
  5
FB5
330
A
100
AcDbEntity
  8
HIDDEN
 48
0.05
100
AcDbLine
 10
758.8898306719568
 20
465.4400496712772
 30
0.0
 11
812.7550135978306
 21
465.4400496712772
 31
0.0
  0
SPLINE
  5
FB6
330
A
100
AcDbEntity
  8
MODEL
  6
HIDDEN
 48
0.05
100
AcDbSpline
210
0.0
220
0.0
230
1.0
 70
     8
 71
     3
 72
     9
 73
     5
 74
     0
 42
0.000000001
 43
0.0000000001
 40
0.0
 40
0.0
 40
0.0
 40
0.0
 40
6.250755570473639
 40
7.129376579501861
 40
7.129376579501861
 40
7.129376579501861
 40
7.129376579501861
 10
684.6091979780097
 20
538.158248186352
 30
0.0
 10
687.3884115908015
 20
538.158248186352
 30
0.0
 10
689.2444286154725
 20
536.8201466580031
 30
0.0
 10
690.5168969228027
 20
534.6993661457873
 30
0.0
 10
693.0054147763515
 20
529.0404635829432
 30
0.0
  0
SPLINE
  5
FB7
330
A
100
AcDbEntity
  8
HIDDEN
 48
0.05
100
AcDbSpline
210
0.0
220
0.0
230
1.0
 70
     8
 71
     3
 72
    12
 73
     8
 74
     0
 42
0.000000001
 43
0.0000000001
 40
110.0105351219823
 40
110.0105351219823
 40
110.0105351219823
 40
110.0105351219823
 40
119.794940240128
 40
122.2640318620788
 40
123.8720738250673
 40
125.6354592339944
 40
127.1514855478017
 40
127.1514855478017
 40
127.1514855478017
 40
127.1514855478017
 10
808.5491110120645
 20
473.2722250746372
 30
0.0
 10
799.1487806162888
 20
473.2315594321622
 30
0.0
 10
795.4287867926516
 20
473.0013579743973
 30
0.0
 10
791.6542646988903
 20
472.8485434859053
 30
0.0
 10
789.5061087054394
 20
470.6995782041672
 30
0.0
 10
789.3627927506798
 20
469.1238666210852
 30
0.0
 10
789.3803104053134
 20
468.0241973980574
 30
0.0
 10
789.3884085727989
 20
467.5158356491993
 30
0.0
  0
SPLINE
  5
FB8
330
A
100
AcDbEntity
  8
MODEL
  6
HIDDEN
 48
0.05
100
AcDbSpline
210
0.0
220
0.0
230
1.0
 70
     8
 71
     3
 72
     9
 73
     5
 74
     0
 42
0.000000001
 43
0.00000001
 40
0.0
 40
0.0
 40
0.0
 40
0.0
 40
0.4623865990412394
 40
1.0
 40
1.0
 40
1.0
 40
1.0
 10
691.7133975793142
 20
931.5652987201834
 30
0.0
 10
690.2829097014726
 20
931.9634702119874
 30
0.0
 10
687.1892043890646
 20
932.8245926853165
 30
0.0
 10
684.0635253754037
 20
933.7968237495625
 30
0.0
 10
682.3831184505718
 20
934.3195081985295
 30
0.0
  0
SPLINE
  5
FB9
330
A
100
AcDbEntity
  8
MODEL
  6
HIDDEN
 48
0.05
100
AcDbSpline
210
0.0
220
0.0
230
1.0
 70
     8
 71
     3
 72
    11
 73
     7
 74
     0
 42
0.000000001
 43
0.00000001
 40
0.0
 40
0.0
 40
0.0
 40
0.0
 40
0.2403935951801969
 40
0.5473044530813107
 40
0.7986095929623095
 40
1.0
 40
1.0
 40
1.0
 40
1.0
 10
622.7615387673607
 20
981.4478605948748
 30
0.0
 10
622.3317836377785
 20
982.2005698823705
 30
0.0
 10
621.3533594997386
 20
983.9142642285665
 30
0.0
 10
620.0489754324983
 20
986.4568301414683
 30
0.0
 10
618.8691438680646
 20
988.8854235446315
 30
0.0
 10
618.2628705186246
 20
990.2281098803146
 30
0.0
 10
617.9931580430955
 20
990.8254299765877
 30
0.0
  0
SPLINE
  5
FBA
330
A
100
AcDbEntity
  8
MODEL
  6
HIDDEN
 48
0.05
100
AcDbSpline
210
0.0
220
0.0
230
1.0
 70
     8
 71
     3
 72
    11
 73
     7
 74
     0
 42
0.000000001
 43
0.00000001
 40
0.0
 40
0.0
 40
0.0
 40
0.0
 40
0.2046681533709009
 40
0.4600620889843896
 40
0.8414167343692265
 40
1.0
 40
1.0
 40
1.0
 40
1.0
 10
617.9931580431614
 20
1073.555492718299
 30
0.0
 10
618.2627828315915
 20
1074.152869614481
 30
0.0
 10
618.8688573056454
 20
1075.495679710933
 30
0.0
 10
620.1566639290565
 20
1078.140911403586
 30
0.0
 10
621.4339065320125
 20
1080.63921767398
 30
0.0
 10
622.3994962063982
 20
1082.293016742875
 30
0.0
 10
622.6830961550174
 20
1082.778748253279
 30
0.0
  0
SPLINE
  5
FBB
330
A
100
AcDbEntity
  8
MODEL
  6
HIDDEN
 48
0.05
100
AcDbSpline
210
0.0
220
0.0
230
1.0
 70
     8
 71
     3
 72
     9
 73
     5
 74
     0
 42
0.000000001
 43
0.00000001
 40
0.0
 40
0.0
 40
0.0
 40
0.0
 40
0.2565059861568779
 40
0.9999999999999999
 40
0.9999999999999999
 40
0.9999999999999999
 40
0.9999999999999999
 10
685.9154359087436
 20
1131.141798498155
 30
0.0
 10
686.4132078750724
 20
1131.294993831104
 30
0.0
 10
688.3537940336716
 20
1131.892232652865
 30
0.0
 10
690.2744328932342
 20
1132.420614301107
 30
0.0
 10
691.7024163880735
 20
1132.8134628936
 30
0.0
  0
SPLINE
  5
FBC
330
A
100
AcDbEntity
  8
HIDDEN
  6
HIDDEN
 48
0.05
100
AcDbSpline
210
0.0
220
0.0
230
1.0
 70
    11
 71
     3
 72
    70
 73
    66
 74
     0
 42
0.000000001
 43
0.00000001
 40
0.0
 40
0.0
 40
0.0
 40
0.0
 40
0.0062500000000001
 40
0.03125
 40
0.07421875
 40
0.0859375
 40
0.08984375
 40
0.1015625
 40
0.109375
 40
0.15625
 40
0.17578125
 40
0.197265625
 40
0.201171875
 40
0.21875
 40
0.234375
 40
0.2421875
 40
0.25
 40
0.2578125
 40
0.265625
 40
0.2734375
 40
0.27734375
 40
0.3125
 40
0.34375
 40
0.359375
 40
0.390625
 40
0.3984375
 40
0.41015625
 40
0.4140625
 40
0.42578125
 40
0.453125
 40
0.484375
 40
0.4921875
 40
0.5
 40
0.5078125
 40
0.515625
 40
0.546875
 40
0.57421875
 40
0.5859375
 40
0.58984375
 40
0.6015625
 40
0.609375
 40
0.640625
 40
0.65625
 40
0.6875
 40
0.71484375
 40
0.71875
 40
0.7265625
 40
0.734375
 40
0.7421875
 40
0.75
 40
0.7578125
 40
0.765625
 40
0.78125
 40
0.796875
 40
0.8037109375
 40
0.828125
 40
0.84375
 40
0.890625
 40
0.8984375
 40
0.91015625
 40
0.9140625
 40
0.92578125
 40
0.96875
 40
0.99375
 40
1.0
 40
1.0
 40
1.0
 40
1.0
 10
609.2303380760306
 20
1032.190461347372
 30
0.0
 10
609.2303380760306
 20
1030.927409487494
 30
0.0
 10
609.3462407144204
 20
1024.632302806117
 30
0.0
 10
610.9825924904028
 20
1009.935157923023
 30
0.0
 10
615.7754524300137
 20
994.8823086692037
 30
0.0
 10
621.0639800047459
 20
984.4250610348454
 30
0.0
 10
623.7706270388405
 20
979.6356499388194
 30
0.0
 10
626.2961975279866
 20
975.6108227524137
 30
0.0
 10
634.1937438366542
 20
964.5227385999124
 30
0.0
 10
645.3441052269802
 20
953.1573389146138
 30
0.0
 10
662.5876565174433
 20
942.1230832586548
 30
0.0
 10
672.8598830145959
 20
937.4600681628358
 30
0.0
 10
683.7698781569009
 20
933.8242538298555
 30
0.0
 10
693.6918776136329
 20
930.8796185838228
 30
0.0
 10
705.8402552004366
 20
928.0768966636247
 30
0.0
 10
715.9410619319926
 20
926.2505965093555
 30
0.0
 10
724.1760788507706
 20
925.0523543808195
 30
0.0
 10
732.8366756965436
 20
924.0997599462394
 30
0.0
 10
741.6890205262127
 20
923.4669779123806
 30
0.0
 10
749.3082995085454
 20
923.2033051131684
 30
0.0
 10
767.9274175217095
 20
923.1406590168085
 30
0.0
 10
797.3929154704704
 20
924.6395026028777
 30
0.0
 10
833.6455540334316
 20
930.3804813969696
 30
0.0
 10
868.2292997946527
 20
939.1739835671806
 30
0.0
 10
891.8469816873724
 20
947.8592824094744
 30
0.0
 10
911.6105752836036
 20
957.7767600735397
 30
0.0
 10
920.1233803191237
 20
962.7491342882195
 30
0.0
 10
929.3743164294676
 20
968.8582849015684
 30
0.0
 10
942.7831885675434
 20
978.9093833619654
 30
0.0
 10
959.4017779151357
 20
996.6970127376658
 30
0.0
 10
967.0684283500188
 20
1014.234752280915
 30
0.0
 10
969.0201814526984
 20
1026.304496032873
 30
0.0
 10
969.3454736402525
 20
1032.190461346334
 30
0.0
 10
969.0201814562486
 20
1038.076426660744
 30
0.0
 10
967.0684283295875
 20
1050.146170418438
 30
0.0
 10
959.4017778915397
 20
1067.683909961179
 30
0.0
 10
942.7831873227944
 20
1085.471539551465
 30
0.0
 10
929.3743187891844
 20
1095.522637378581
 30
0.0
 10
920.1233780380383
 20
1101.631788807299
 30
0.0
 10
911.6105851187415
 20
1106.604160893227
 30
0.0
 10
891.8469565344888
 20
1116.5216447044
 30
0.0
 10
868.2292170028697
 20
1125.206953661993
 30
0.0
 10
833.6456716059358
 20
1134.000420671593
 30
0.0
 10
800.8438523895845
 20
1139.200237228947
 30
0.0
 10
774.4867068212072
 20
1140.868267951611
 30
0.0
 10
758.6390178171744
 20
1141.182139826331
 30
0.0
 10
750.8314481791488
 20
1141.226930848959
 30
0.0
 10
741.6894060251027
 20
1140.915757181705
 30
0.0
 10
732.8364673343633
 20
1140.280184121545
 30
0.0
 10
724.1758381481006
 20
1139.32737427962
 30
0.0
 10
715.9410091179918
 20
1138.130015737912
 30
0.0
 10
705.8402914882638
 20
1136.304390191895
 30
0.0
 10
694.2701324416587
 20
1133.634491710794
 30
0.0
 10
684.0185958847608
 20
1130.638739772728
 30
0.0
 10
672.0960306579025
 20
1126.685201175335
 30
0.0
 10
661.5753154446459
 20
1121.676828387444
 30
0.0
 10
644.7578122502703
 20
1110.625045944882
 30
0.0
 10
634.1937438366615
 20
1099.85818409485
 30
0.0
 10
626.2961975279866
 20
1088.770099942325
 30
0.0
 10
623.7706270388405
 20
1084.745272755922
 30
0.0
 10
621.0639800047459
 20
1079.955861659896
 30
0.0
 10
615.7754524300137
 20
1069.49861402554
 30
0.0
 10
610.9825924904028
 20
1054.445764771714
 30
0.0
 10
609.3462407144204
 20
1039.748619888623
 30
0.0
 10
609.2303380760306
 20
1033.453513207246
 30
0.0
 10
609.2303380760306
 20
1032.190461347372
 30
0.0
  0
CIRCLE
  5
FC1
330
A
100
AcDbEntity
  8
HIDDEN
 48
0.05
370
     0
100
AcDbCircle
 10
723.4853205654292
 20
1032.19046134737
 30
0.0
 40
26.5
  0
CIRCLE
  5
FC2
102
{ACAD_REACTORS
330
FC6
102
}
330
A
100
AcDbEntity
  8
MODEL
100
AcDbCircle
 10
673.4853205654292
 20
1032.190461347372
 30
0.0
 40
5.0
  0
CIRCLE
  5
FC3
102
{ACAD_REACTORS
330
FC6
102
}
330
A
100
AcDbEntity
  8
MODEL
100
AcDbCircle
 10
773.4853205654292
 20
1032.190461347368
 30
0.0
 40
5.0
  0
DIMENSION
  5
FC4
102
{ACAD_REACTORS
330
FC6
102
}
102
{ACAD_XDICTIONARY
360
FC5
102
}
330
A
100
AcDbEntity
  8
DIM
100
AcDbDimension
  2
*D27
 10
673.4853205654292
 20
1168.442761976234
 30
0.0
 11
723.4853205654292
 21
1184.442761976234
 31
0.0
 70
    32
 71
     5
 42
100.0
 73
     0
 74
     0
 75
     0
  3
tfrom線あり
100
AcDbAlignedDimension
 13
773.4853205654292
 23
1037.190461347368
 33
0.0
 14
673.4853205654292
 24
1037.190461347372
 34
0.0
100
AcDbRotatedDimension
  0
CIRCLE
  5
FC7
102
{ACAD_REACTORS
330
128B
102
}
330
A
100
AcDbEntity
  8
MODEL
 48
0.05
100
AcDbCircle
 10
723.4853205654292
 20
1032.19046134737
 30
0.0
 40
35.0
  0
MTEXT
  5
FC8
330
A
100
AcDbEntity
  8
MODEL
390
1D
100
AcDbMText
 10
664.0361565022242
 20
874.8901038010008
 30
0.0
 40
12.0
 41
949.7161250932045
 46
26.688
 71
     1
 72
     1
  1
{\C7;φ10固定金具用穴}
  7
ＭＳ ゴシック
 73
     1
 44
0.9822934569727008
1001
ACAD
1000
ACAD_MTEXT_DEFINED_HEIGHT_BEGIN
1070
    46
1040
26.688
1000
ACAD_MTEXT_DEFINED_HEIGHT_END
  0
LINE
  5
FC9
330
A
100
AcDbEntity
  8
DIM
100
AcDbLine
 10
772.4551595073606
 20
1023.9707674182
 30
0.0
 11
723.4853205654292
 21
881.5857531958654
 31
0.0
  0
LINE
  5
FCB
330
A
100
AcDbEntity
  8
DIM
100
AcDbLine
 10
674.5154816234983
 20
1023.9707674182
 30
0.0
 11
723.4853205654292
 21
881.5857531958654
 31
0.0
  0
MTEXT
  5
FCC
330
A
100
AcDbEntity
  8
DIM
390
1D
100
AcDbMText
 10
691.3077814811043
 20
1243.704435701801
 30
0.0
 40
12.0
 41
0.0
 46
0.0
 71
     1
 72
     1
  1
カウンター切込寸法
  7
ＭＳ ゴシック
 73
     1
 44
0.7828267384257843
  0
MTEXT
  5
FCD
330
A
100
AcDbEntity
  8
MODEL
390
1D
100
AcDbMText
 10
614.2391597534277
 20
824.8260688147889
 30
0.0
 40
12.0
 41
949.7161250932047
 46
52.63573827890803
 71
     1
 72
     1
  1
{\C7;※陶器製品には寸法公差がありますので、\P　必ず現物合わせでカウンターに切込を\P　行ってください。}
  7
ＭＳ ゴシック
 73
     1
 44
0.9822934569727008
1001
ACAD
1000
ACAD_MTEXT_DEFINED_HEIGHT_BEGIN
1070
    46
1040
52.63573827890803
1000
ACAD_MTEXT_DEFINED_HEIGHT_END
  0
MTEXT
  5
FCE
330
A
100
AcDbEntity
  8
DIM
390
1D
100
AcDbMText
 10
832.6767771330904
 20
1078.194760790224
 30
0.0
 40
12.0
 41
949.7161250932045
 46
27.888
 71
     1
 72
     1
  1
{\C7;φ70}
  7
ＭＳ ゴシック
 73
     1
 44
0.9822934569727008
1001
ACAD
1000
ACAD_MTEXT_DEFINED_HEIGHT_BEGIN
1070
    46
1040
27.888
1000
ACAD_MTEXT_DEFINED_HEIGHT_END
  0
LINE
  5
FCF
330
A
100
AcDbEntity
  8
DIM
100
AcDbLine
 10
829.2998516204855
 20
1065.462885133488
 30
0.0
 11
756.0359476558617
 21
1045.053457733114
 31
0.0
  0
SPLINE
  5
FD0
330
A
100
AcDbEntity
  8
MODEL
100
AcDbSpline
210
0.0
220
0.0
230
1.0
 70
     8
 71
     3
 72
     9
 73
     5
 74
     0
 42
0.000000001
 43
0.00000001
 40
0.0
 40
0.0
 40
0.0
 40
0.0
 40
0.4999999999999961
 40
1.0
 40
1.0
 40
1.0
 40
1.0
 10
125.1506081569121
 20
532.5203297232702
 30
0.0
 10
124.9544780752574
 20
533.4566148035674
 30
0.0
 10
124.562217911948
 20
535.3291849641614
 30
0.0
 10
124.2409204523235
 20
537.2152271122873
 30
0.0
 10
124.080271722504
 20
538.158248186352
 30
0.0
  0
LINE
  5
FD1
102
{ACAD_REACTORS
330
1480
102
}
330
A
100
AcDbEntity
  8
MODEL
100
AcDbLine
 10
484.0869765581399
 20
538.158248186352
 30
0.0
 11
484.0865980638143
 21
526.158248186352
 31
0.0
  0
SPLINE
  5
FD2
102
{ACAD_REACTORS
330
13EF
102
}
330
A
100
AcDbEntity
  8
MODEL
100
AcDbSpline
210
0.0
220
0.0
230
1.0
 70
     8
 71
     3
 72
    17
 73
    13
 74
     0
 42
0.000000001
 43
0.00000001
 40
0.0
 40
0.0
 40
0.0
 40
0.0
 40
0.0930304817959906
 40
0.1843392201570117
 40
0.273906537062549
 40
0.3617145165897663
 40
0.4477473504450106
 40
0.531991741308605
 40
0.6549344451400051
 40
0.7738546648044385
 40
0.8888498403530718
 40
1.0
 40
1.0
 40
1.0
 40
1.0
 10
179.080271722504
 20
458.1582481863522
 30
0.0
 10
176.5816912737744
 20
459.6932756594872
 30
0.0
 10
171.6307723649759
 20
462.7349213852253
 30
0.0
 10
164.7403025879128
 20
467.9511725751292
 30
0.0
 10
158.3579815722576
 20
473.5211234060562
 30
0.0
 10
152.5262252629716
 20
479.4366107683791
 30
0.0
 10
147.2426693899276
 20
485.6262900867232
 30
0.0
 10
141.7529119892231
 20
493.0644766824012
 30
0.0
 10
136.368723978793
 20
501.8387573561931
 30
0.0
 10
131.4899859173627
 20
511.9837846864402
 30
0.0
 10
127.6729773264112
 20
522.1896198885993
 30
0.0
 10
125.9818132579774
 20
529.1160149163811
 30
0.0
 10
125.1506081569121
 20
532.5203297232702
 30
0.0
  0
SPLINE
  5
FD3
330
A
100
AcDbEntity
  8
MODEL
100
AcDbSpline
210
0.0
220
0.0
230
1.0
 70
     8
 71
     3
 72
    23
 73
    19
 74
     0
 42
0.000000001
 43
0.00000001
 40
0.0
 40
0.0
 40
0.0
 40
0.0
 40
0.0406692630439561
 40
0.0843162627590972
 40
0.1309356869792187
 40
0.1805181782111898
 40
0.2330477354482552
 40
0.2885020473882705
 40
0.3468514783038138
 40
0.4080575637933668
 40
0.4720754749095718
 40
0.5389104934903779
 40
0.608574808212788
 40
0.6810813570509683
 40
0.7564487570687827
 40
0.8347018214766913
 40
0.9158723774137228
 40
1.0
 40
1.0
 40
1.0
 40
1.0
 10
484.0865980638143
 20
526.158248186352
 30
0.0
 10
481.3863615842299
 20
526.1462864409523
 30
0.0
 10
475.7881817431578
 20
526.121487130797
 30
0.0
 10
467.1105794151179
 20
525.530283331253
 30
0.0
 10
457.8883325712548
 20
524.4317789677921
 30
0.0
 10
448.1637787299794
 20
522.6890858815214
 30
0.0
 10
437.993266468259
 20
520.2187250817151
 30
0.0
 10
427.4458875696462
 20
516.9221297091681
 30
0.0
 10
416.6172454570358
 20
512.6934148925143
 30
0.0
 10
405.574182045714
 20
507.502841974318
 30
0.0
 10
394.5847447955118
 20
501.0233750439952
 30
0.0
 10
383.1549193857306
 20
494.2031846846594
 30
0.0
 10
370.9492587625816
 20
487.5968534786743
 30
0.0
 10
358.0424024927368
 20
481.1158898977524
 30
0.0
 10
344.3951066933394
 20
474.8555817382012
 30
0.0
 10
329.9977782080339
 20
468.8788900418042
 30
0.0
 10
314.8538692447353
 20
463.2000544048212
 30
0.0
 10
304.4005242789087
 20
459.8587746307433
 30
0.0
 10
299.0803503489612
 20
458.1582481863522
 30
0.0
  0
SPLINE
  5
FD4
330
A
100
AcDbEntity
  8
MODEL
100
AcDbSpline
210
0.0
220
0.0
230
1.0
 70
    24
 71
     3
 72
    39
 73
    35
 74
     0
 42
0.000000001
 43
0.00000001
 40
0.0
 40
0.0
 40
0.0
 40
0.0
 40
0.0074218749999999
 40
0.0111328125000001
 40
0.01484375
 40
0.07421875
 40
0.0859375
 40
0.08984375
 40
0.1015625
 40
0.109375
 40
0.15625
 40
0.17578125
 40
0.197265625
 40
0.201171875
 40
0.21875
 40
0.234375
 40
0.2421875
 40
0.25
 40
0.2578125
 40
0.265625
 40
0.2734375
 40
0.27734375
 40
0.3125
 40
0.34375
 40
0.359375
 40
0.390625
 40
0.3984375
 40
0.41015625
 40
0.4140625
 40
0.42578125
 40
0.453125
 40
0.484375
 40
0.4921875
 40
0.5
 40
0.5
 40
0.5
 40
0.5
 10
124.080271722504
 20
538.158248186352
 30
0.0
 10
124.080271722504
 20
538.158248186352
 30
0.0
 10
124.1285217861248
 20
538.158248186352
 30
0.0
 10
124.2887272028263
 20
538.158248186352
 30
0.0
 10
125.2963253807127
 20
538.158248186352
 30
0.0
 10
129.1445983555629
 20
538.158248186352
 30
0.0
 10
135.9139136512192
 20
538.158248186352
 30
0.0
 10
138.6205606853134
 20
538.158248186352
 30
0.0
 10
141.1461311744595
 20
538.158248186352
 30
0.0
 10
149.0436774831348
 20
538.158248186352
 30
0.0
 10
160.1940388734608
 20
538.158248186352
 30
0.0
 10
177.4375901639166
 20
538.158248186352
 30
0.0
 10
187.7098166610765
 20
538.158248186352
 30
0.0
 10
198.6198118033742
 20
538.158248186352
 30
0.0
 10
208.5418112601135
 20
538.158248186352
 30
0.0
 10
220.6901888469099
 20
538.158248186352
 30
0.0
 10
230.7909955784733
 20
538.158248186352
 30
0.0
 10
239.0260124972435
 20
538.158248186352
 30
0.0
 10
247.6866093430242
 20
538.158248186352
 30
0.0
 10
256.5389541726934
 20
538.158248186352
 30
0.0
 10
264.158233155026
 20
538.158248186352
 30
0.0
 10
282.7773511681833
 20
538.158248186352
 30
0.0
 10
312.242849116951
 20
538.158248186352
 30
0.0
 10
348.4954876799118
 20
538.158248186352
 30
0.0
 10
383.0792334411333
 20
538.158248186352
 30
0.0
 10
406.696915333853
 20
538.158248186352
 30
0.0
 10
426.4605089300774
 20
538.158248186352
 30
0.0
 10
434.9733139656043
 20
538.158248186352
 30
0.0
 10
444.224250075941
 20
538.158248186352
 30
0.0
 10
457.6331222140241
 20
538.158248186352
 30
0.0
 10
474.2517115616163
 20
538.158248186352
 30
0.0
 10
481.9183619964849
 20
538.158248186352
 30
0.0
 10
483.870115099179
 20
538.158248186352
 30
0.0
 10
484.0869765575433
 20
538.158248186352
 30
0.0
 10
484.0869765581399
 20
538.158248186352
 30
0.0
  0
SPLINE
  5
FD5
330
A
100
AcDbEntity
  8
MODEL
100
AcDbSpline
210
0.0
220
0.0
230
1.0
 70
     8
 71
     3
 72
    19
 73
    15
 74
     0
 42
0.000000001
 43
0.00000001
 40
0.3086641425201325
 40
0.3086641425201325
 40
0.3086641425201325
 40
0.3086641425201325
 40
0.3125
 40
0.34375
 40
0.359375
 40
0.390625
 40
0.3984375
 40
0.41015625
 40
0.4140625
 40
0.42578125
 40
0.453125
 40
0.484375
 40
0.4921875
 40
0.5
 40
0.5
 40
0.5
 40
0.5
 10
309.3557503532359
 20
530.6057647336701
 30
0.0
 10
311.0000713460169
 20
530.5675564387036
 30
0.0
 10
326.0891914810092
 20
530.2157351334288
 30
0.0
 10
348.4984598734616
 20
529.6794312142674
 30
0.0
 10
383.0278871949511
 20
528.8478879176591
 30
0.0
 10
406.5704320619941
 20
528.2802563951382
 30
0.0
 10
426.2787582705739
 20
527.7924697571334
 30
0.0
 10
434.7727328985591
 20
527.5780289013974
 30
0.0
 10
444.0102162534483
 20
527.3400977427814
 30
0.0
 10
457.4126318604638
 20
526.9866453273794
 30
0.0
 10
474.0953133884566
 20
526.506484733844
 30
0.0
 10
481.8733523980361
 20
526.2404014106
 30
0.0
 10
483.8648466500115
 20
526.1667230703324
 30
0.0
 10
484.0865980632614
 20
526.158248186352
 30
0.0
 10
484.0865980638143
 20
526.158248186352
 30
0.0
  0
SPLINE
  5
FD6
330
A
100
AcDbEntity
  8
MODEL
100
AcDbSpline
210
0.0
220
0.0
230
1.0
 70
    24
 71
     3
 72
    39
 73
    35
 74
     0
 42
0.000000001
 43
0.00000001
 40
0.0
 40
0.0
 40
0.0
 40
0.0
 40
0.0074218749999999
 40
0.0111328125000001
 40
0.01484375
 40
0.07421875
 40
0.0859375
 40
0.08984375
 40
0.1015625
 40
0.109375
 40
0.15625
 40
0.17578125
 40
0.197265625
 40
0.201171875
 40
0.21875
 40
0.234375
 40
0.2421875
 40
0.25
 40
0.2578125
 40
0.265625
 40
0.2734375
 40
0.27734375
 40
0.3125
 40
0.34375
 40
0.359375
 40
0.390625
 40
0.3984375
 40
0.41015625
 40
0.4140625
 40
0.42578125
 40
0.453125
 40
0.484375
 40
0.4921875
 40
0.5
 40
0.5
 40
0.5
 40
0.5
 10
179.080271722504
 20
458.1582481863522
 30
0.0
 10
179.080271722504
 20
458.1582481863522
 30
0.0
 10
179.1135457004227
 20
458.1582481863522
 30
0.0
 10
179.2236726643994
 20
458.1582481863522
 30
0.0
 10
179.9153495390153
 20
458.1582481863522
 30
0.0
 10
182.5454493609238
 20
458.1582481863522
 30
0.0
 10
187.0759422207655
 20
458.1582481863522
 30
0.0
 10
188.8751103228958
 20
458.1582481863522
 30
0.0
 10
190.5427368561311
 20
458.1582481863522
 30
0.0
 10
195.6907011119135
 20
458.1582481863522
 30
0.0
 10
202.7482089520297
 20
458.1582481863522
 30
0.0
 10
212.273097274471
 20
458.1582481863522
 30
0.0
 10
217.4512526579226
 20
458.1582481863522
 30
0.0
 10
222.5520709401196
 20
458.1582481863522
 30
0.0
 10
227.0600858771384
 20
458.1582481863522
 30
0.0
 10
232.1799467484041
 20
458.1582481863522
 30
0.0
 10
236.1177168425008
 20
458.1582481863522
 30
0.0
 10
239.080273883267
 20
458.1582481863522
 30
0.0
 10
242.0428295513582
 20
458.1582481863522
 30
0.0
 10
244.9961530039097
 20
458.1582481863522
 30
0.0
 10
247.4418712865106
 20
458.1582481863522
 30
0.0
 10
253.2700583683716
 20
458.1582481863522
 30
0.0
 10
261.7580623478668
 20
458.1582481863522
 30
0.0
 10
270.8368309076493
 20
458.1582481863522
 30
0.0
 10
278.7625151594427
 20
458.1582481863522
 30
0.0
 10
283.6811187231604
 20
458.1582481863522
 30
0.0
 10
287.6177562147884
 20
458.1582481863522
 30
0.0
 10
289.285399505842
 20
458.1582481863522
 30
0.0
 10
291.084626101622
 20
458.1582481863522
 30
0.0
 10
293.6803314909073
 20
458.1582481863522
 30
0.0
 10
296.9485474331475
 20
458.1582481863522
 30
0.0
 10
298.5885641032171
 20
458.1582481863522
 30
0.0
 10
299.0311717243846
 20
458.1582481863522
 30
0.0
 10
299.0803503489612
 20
458.1582481863522
 30
0.0
 10
299.0803503489612
 20
458.1582481863522
 30
0.0
  0
SPLINE
  5
FD7
330
A
100
AcDbEntity
  8
MODEL
100
AcDbSpline
210
0.0
220
0.0
230
1.0
 70
     8
 71
     3
 72
     9
 73
     5
 74
     0
 42
0.000000001
 43
0.00000001
 40
0.0
 40
0.0
 40
0.0
 40
0.0
 40
0.5004541961569473
 40
1.0
 40
1.0
 40
1.0
 40
1.0
 10
892.8265153604864
 20
531.3028115155653
 30
0.0
 10
893.1644343132268
 20
532.4409993562231
 30
0.0
 10
893.8396588499147
 20
534.7153090720612
 30
0.0
 10
894.4356209231025
 20
537.0112970341952
 30
0.0
 10
894.7333312760077
 20
538.158248186352
 30
0.0
  0
SPLINE
  5
FD8
330
A
100
AcDbEntity
  8
MODEL
100
AcDbSpline
210
0.0
220
0.0
230
1.0
 70
     8
 71
     3
 72
     9
 73
     5
 74
     0
 42
0.000000001
 43
0.00000001
 40
0.0
 40
0.0
 40
0.0
 40
0.0
 40
0.4995463190334148
 40
1.0
 40
1.0
 40
1.0
 40
1.0
 10
676.9242734139536
 20
538.158248186352
 30
0.0
 10
677.2219682446355
 20
537.0110766152143
 30
0.0
 10
677.8178986305336
 20
534.7146497826402
 30
0.0
 10
678.4930707501896
 20
532.4398895655072
 30
0.0
 10
678.8309631227514
 20
531.3014774415251
 30
0.0
  0
SPLINE
  5
FD9
330
A
100
AcDbEntity
  8
MODEL
100
AcDbSpline
210
0.0
220
0.0
230
1.0
 70
     8
 71
     3
 72
    28
 73
    24
 74
     0
 42
0.000000001
 43
0.00000001
 40
0.0
 40
0.0
 40
0.0
 40
0.0
 40
0.0584169196149191
 40
0.1056586327409205
 40
0.1421586385508976
 40
0.1773577086326756
 40
0.2364347431028455
 40
0.3001558972519404
 40
0.3504304853215246
 40
0.4017838700696193
 40
0.4542752560800497
 40
0.5079706120102279
 40
0.5622098098594204
 40
0.6107582704956286
 40
0.6519626077058344
 40
0.685790073315672
 40
0.7124412939641038
 40
0.7378486846600193
 40
0.7648044286516387
 40
0.7933437746627074
 40
0.8553181028012957
 40
0.9240975456598429
 40
1.0
 40
1.0
 40
1.0
 40
1.0
 10
823.3226020329369
 20
458.1582481863522
 30
0.0
 10
825.3573216916395
 20
459.0147243965771
 30
0.0
 10
829.0375174049166
 20
460.5638321883682
 30
0.0
 10
833.8233851766183
 20
462.9607305051113
 30
0.0
 10
837.7426935422466
 20
465.1056816740102
 30
0.0
 10
841.9588630669143
 20
467.6089582074972
 30
0.0
 10
846.8999089428528
 20
470.8488209927464
 30
0.0
 10
852.0792959129446
 20
474.6941153363014
 30
0.0
 10
856.7977518031746
 20
478.60617247249
 30
0.0
 10
860.9923860287506
 20
482.4356498816132
 30
0.0
 10
865.0605277843335
 20
486.5259842293203
 30
0.0
 10
868.9642153326988
 20
490.8624945887063
 30
0.0
 10
872.5386625290823
 20
495.2294018172952
 30
0.0
 10
875.6257785469409
 20
499.3299789991001
 30
0.0
 10
878.1148823238166
 20
502.8910883732474
 30
0.0
 10
880.0475444477836
 20
505.8332645766172
 30
0.0
 10
881.5826783545183
 20
508.2934647720003
 30
0.0
 10
882.9179844198936
 20
510.5300067255494
 30
0.0
 10
884.2164320509676
 20
512.8029154865881
 30
0.0
 10
885.9965632079677
 20
516.0681518840333
 30
0.0
 10
888.1840291622486
 20
520.4061318929021
 30
0.0
 10
890.6664442379677
 20
525.8512983158512
 30
0.0
 10
892.0531129033027
 20
529.4033855125022
 30
0.0
 10
892.7805816267048
 20
531.2668676859912
 30
0.0
  0
SPLINE
  5
FDA
330
A
100
AcDbEntity
  8
MODEL
100
AcDbSpline
210
0.0
220
0.0
230
1.0
 70
     8
 71
     3
 72
    25
 73
    21
 74
     0
 42
0.000000001
 43
0.00000001
 40
0.0
 40
0.0
 40
0.0
 40
0.0
 40
0.0801331190950749
 40
0.1561140757723234
 40
0.2283049507486656
 40
0.2801613919103713
 40
0.3301773943063167
 40
0.3784535319959739
 40
0.4279130113938097
 40
0.4843546193390942
 40
0.5479364693742398
 40
0.6182579066044576
 40
0.6868970949671824
 40
0.7235711947916963
 40
0.7584137262039516
 40
0.7914429436613791
 40
0.8283255015962944
 40
0.87551254419886
 40
0.9328145139173047
 40
1.0
 40
1.0
 40
1.0
 40
1.0
 10
678.8774405715214
 20
531.2656687981221
 30
0.0
 10
679.6395816429633
 20
529.3123261173391
 30
0.0
 10
681.1243728294332
 20
525.5068547876153
 30
0.0
 10
683.8971530741017
 20
519.4678475452902
 30
0.0
 10
686.7304022873416
 20
513.9866355608401
 30
0.0
 10
689.5336807188125
 20
509.1116166512261
 30
0.0
 10
692.1904571686293
 20
504.8646656417991
 30
0.0
 10
695.0298561971488
 20
500.6769681882402
 30
0.0
 10
698.2426237962484
 20
496.3070532028983
 30
0.0
 10
702.0781548636135
 20
491.5317373866574
 30
0.0
 10
706.7272077243745
 20
486.3184632264033
 30
0.0
 10
712.0768512639318
 20
481.0354527562463
 30
0.0
 10
717.0263471293713
 20
476.7459157030403
 30
0.0
 10
721.1507780206578
 20
473.5162231430963
 30
0.0
 10
724.3132090654165
 20
471.2079538024602
 30
0.0
 10
727.5616171175045
 20
468.9942328818292
 30
0.0
 10
731.2762608406026
 20
466.6383959299721
 30
0.0
 10
735.8810773603016
 20
463.9767375827112
 30
0.0
 10
741.6343476221425
 20
460.9934365574923
 30
0.0
 10
745.9779914182125
 20
459.1520426519573
 30
0.0
 10
748.3222422339297
 20
458.1582481863522
 30
0.0
  0
SPLINE
  5
FDB
330
A
100
AcDbEntity
  8
MODEL
100
AcDbSpline
210
0.0
220
0.0
230
1.0
 70
     8
 71
     3
 72
    49
 73
    45
 74
     0
 42
0.000000001
 43
0.00000001
 40
0.0
 40
0.0
 40
0.0
 40
0.0
 40
0.0087560589264059
 40
0.0384721106907257
 40
0.0689672806325569
 40
0.1037251363990743
 40
0.1391374745503802
 40
0.1750104076358158
 40
0.21109624831076
 40
0.2393361333586094
 40
0.2671774838989588
 40
0.2943587875385529
 40
0.3206137386707738
 40
0.3434808861501025
 40
0.365238887647144
 40
0.3857670784449289
 40
0.4050647084289336
 40
0.4231815614423887
 40
0.4401990473538895
 40
0.456249846239261
 40
0.4714823384806583
 40
0.4860435968801037
 40
0.5000591562727204
 40
0.5140747156679516
 40
0.5286359740769064
 40
0.5438684663423587
 40
0.5599192653225
 40
0.576936751482591
 40
0.5950536048599596
 40
0.6143512346658706
 40
0.6348794238101317
 40
0.6566374242384555
 40
0.6795045716453618
 40
0.7062461128245796
 40
0.7339429202362596
 40
0.7623143419942601
 40
0.7910835247283482
 40
0.8199598737860782
 40
0.8575822967227613
 40
0.8947221701349084
 40
0.9311521448249209
 40
0.9615787767538917
 40
0.9912291819640845
 40
1.0
 40
1.0
 40
1.0
 40
1.0
 10
892.7295078728478
 20
531.2658246930923
 30
0.0
 10
892.7010983189446
 20
531.2345931514874
 30
0.0
 10
892.5762732678975
 20
531.0973689350253
 30
0.0
 10
891.8345936052194
 20
530.8376164102274
 30
0.0
 10
890.4044165489743
 20
530.4751058251572
 30
0.0
 10
888.2027240621376
 20
530.0839418073674
 30
0.0
 10
885.1298737134546
 20
529.6698663067664
 30
0.0
 10
881.1784958094042
 20
529.2521555105272
 30
0.0
 10
876.6385263453978
 20
528.8671191902763
 30
0.0
 10
871.7006937515819
 20
528.5179173895453
 30
0.0
 10
866.5932398806306
 20
528.2059828087772
 30
0.0
 10
860.9128891770654
 20
527.9052859578742
 30
0.0
 10
854.8654225224293
 20
527.6266518071293
 30
0.0
 10
848.5773891196566
 20
527.3717301541551
 30
0.0
 10
842.1778625183417
 20
527.1418278537544
 30
0.0
 10
835.5059772581496
 20
526.9297925294532
 30
0.0
 10
828.6246125817545
 20
526.7383522651444
 30
0.0
 10
821.5860544269074
 20
526.5698321037794
 30
0.0
 10
814.4330231410843
 20
526.4263897217361
 30
0.0
 10
807.2270801848338
 20
526.310545738409
 30
0.0
 10
800.0250082999758
 20
526.2246695288204
 30
0.0
 10
792.8893855830222
 20
526.1711198810922
 30
0.0
 10
785.8224221339453
 20
526.151935237046
 30
0.0
 10
778.7554586825693
 20
526.1711198811004
 30
0.0
 10
771.6198359621023
 20
526.2246695288422
 30
0.0
 10
764.4177640607575
 20
526.3105457386023
 30
0.0
 10
757.2118210770543
 20
526.4263897223514
 30
0.0
 10
750.0587897593125
 20
526.5698321041723
 30
0.0
 10
743.0202317055794
 20
526.738352263565
 30
0.0
 10
736.1388670817953
 20
526.9297925179353
 30
0.0
 10
729.4669821532864
 20
527.141827869641
 30
0.0
 10
723.0674534477278
 20
527.3717301144543
 30
0.0
 10
716.7362622118364
 20
527.6284020296162
 30
0.0
 10
710.6165758162008
 20
527.9107366558392
 30
0.0
 10
704.8499293370098
 20
528.2172156019383
 30
0.0
 10
699.6774964421913
 20
528.5352170808842
 30
0.0
 10
695.1101618146406
 20
528.861373110235
 30
0.0
 10
690.7543607906975
 20
529.227141319011
 30
0.0
 10
686.8398170989656
 20
529.6299418987192
 30
0.0
 10
683.5568601501784
 20
530.0641723865092
 30
0.0
 10
681.2674846505745
 20
530.468446390988
 30
0.0
 10
679.8197400042175
 20
530.8368734209371
 30
0.0
 10
679.0871634934576
 20
531.0962399362152
 30
0.0
 10
678.9555335097223
 20
531.2333087004454
 30
0.0
 10
678.9254849444244
 20
531.264598833543
 30
0.0
  0
SPLINE
  5
FDC
330
A
100
AcDbEntity
  8
MODEL
100
AcDbSpline
210
0.0
220
0.0
230
1.0
 70
    24
 71
     3
 72
    49
 73
    45
 74
     0
 42
0.000000001
 43
0.00000001
 40
0.0
 40
0.0
 40
0.0
 40
0.0
 40
0.0127943128190181
 40
0.0420575062341021
 40
0.0720882259900795
 40
0.1063301257010531
 40
0.1412417272947154
 40
0.1766438847049987
 40
0.2123029860186174
 40
0.2402435135806918
 40
0.2678170252177777
 40
0.2947624920424187
 40
0.3208133876049947
 40
0.3435228012204566
 40
0.3651499112326244
 40
0.3855746937461476
 40
0.4048006030134536
 40
0.4228815246767799
 40
0.4399011315753612
 40
0.4559917425044526
 40
0.4712965742438882
 40
0.4859515163452932
 40
0.5000642192992124
 40
0.5141769222558653
 40
0.528831864367049
 40
0.5441366961311276
 40
0.5602273071574524
 40
0.5772469143118621
 40
0.5953278363509172
 40
0.6145537454338141
 40
0.634978526230972
 40
0.6566056351315801
 40
0.6793150486716013
 40
0.7058485258475137
 40
0.7333043087112524
 40
0.7614015558966416
 40
0.7898638873994521
 40
0.8184005263190142
 40
0.8555345806343028
 40
0.8921516880176962
 40
0.9280413993907127
 40
0.9580045510933327
 40
0.9872029168867298
 40
1.0
 40
1.0
 40
1.0
 40
1.0
 10
894.6719922862887
 20
538.158248186352
 30
0.0
 10
894.6409413706986
 20
538.158248186352
 30
0.0
 10
894.5388707010986
 20
538.158248186352
 30
0.0
 10
893.8125769596647
 20
538.158248186352
 30
0.0
 10
892.4194526331178
 20
538.158248186352
 30
0.0
 10
890.2502881694506
 20
538.158248186352
 30
0.0
 10
887.1869258426434
 20
538.158248186352
 30
0.0
 10
883.2185442154566
 20
538.158248186352
 30
0.0
 10
878.6330904751646
 20
538.158248186352
 30
0.0
 10
873.6262876235685
 20
538.158248186352
 30
0.0
 10
868.4323603203795
 20
538.158248186352
 30
0.0
 10
862.6426238003453
 20
538.158248186352
 30
0.0
 10
856.4673103457374
 20
538.158248186352
 30
0.0
 10
850.0380496915807
 20
538.158248186352
 30
0.0
 10
843.4890160076955
 20
538.158248186352
 30
0.0
 10
836.6572636374965
 20
538.158248186352
 30
0.0
 10
829.6091658258576
 20
538.158248186352
 30
0.0
 10
822.3998362369946
 20
538.158248186352
 30
0.0
 10
815.0745626849946
 20
538.158248186352
 30
0.0
 10
807.6984484112083
 20
538.158248186352
 30
0.0
 10
800.3313856886728
 20
538.158248186352
 30
0.0
 10
793.0390239148094
 20
538.158248186352
 30
0.0
 10
785.8224221339754
 20
538.158248186352
 30
0.0
 10
778.6058203507475
 20
538.158248186352
 30
0.0
 10
771.3134585731734
 20
538.158248186352
 30
0.0
 10
763.9463958333483
 20
538.158248186352
 30
0.0
 10
756.5702815302486
 20
538.158248186352
 30
0.0
 10
749.2450079445537
 20
538.158248186352
 30
0.0
 10
742.0356784603625
 20
538.158248186352
 30
0.0
 10
734.9875807182527
 20
538.158248186352
 30
0.0
 10
728.1558286506463
 20
538.158248186352
 30
0.0
 10
721.6067929252733
 20
538.158248186352
 30
0.0
 10
715.1334618678868
 20
538.158248186352
 30
0.0
 10
708.8845351947077
 20
538.158248186352
 30
0.0
 10
703.0071766240706
 20
538.158248186352
 30
0.0
 10
697.7477732014133
 20
538.158248186352
 30
0.0
 10
693.1168648688383
 20
538.158248186352
 30
0.0
 10
688.7167212585316
 20
538.158248186352
 30
0.0
 10
684.7828499747536
 20
538.158248186352
 30
0.0
 10
681.5078591104013
 20
538.158248186352
 30
0.0
 10
679.2516893814006
 20
538.158248186352
 30
0.0
 10
677.8423176251506
 20
538.158248186352
 30
0.0
 10
677.1253067419004
 20
538.158248186352
 30
0.0
 10
677.0149083676495
 20
538.158248186352
 30
0.0
 10
676.9812671706297
 20
538.158248186352
 30
0.0
  0
SPLINE
  5
FDD
330
A
100
AcDbEntity
  8
MODEL
100
AcDbSpline
210
0.0
220
0.0
230
1.0
 70
    24
 71
     3
 72
    42
 73
    38
 74
     0
 42
0.000000001
 43
0.00000001
 40
0.2499998183718045
 40
0.2499998183718045
 40
0.2499998183718045
 40
0.2499998183718045
 40
0.25
 40
0.2578125
 40
0.265625
 40
0.2734375
 40
0.27734375
 40
0.3125
 40
0.34375
 40
0.359375
 40
0.390625
 40
0.3984375
 40
0.41015625
 40
0.4140625
 40
0.42578125
 40
0.453125
 40
0.484375
 40
0.4921875
 40
0.5
 40
0.5078125
 40
0.515625
 40
0.546875
 40
0.57421875
 40
0.5859375
 40
0.58984375
 40
0.6015625
 40
0.609375
 40
0.640625
 40
0.65625
 40
0.6875
 40
0.71484375
 40
0.71875
 40
0.7265625
 40
0.734375
 40
0.7421875
 40
0.75
 40
0.7500001816158894
 40
0.7500001816158894
 40
0.7500001816158894
 40
0.7500001816158894
 10
823.3226020329078
 20
458.1582481863522
 30
0.0
 10
823.3226020328923
 20
458.1582481863522
 30
0.0
 10
823.3226009040793
 20
458.1582481863522
 30
0.0
 10
823.2918355477643
 20
458.1582481863522
 30
0.0
 10
823.1534031116737
 20
458.1582481863522
 30
0.0
 10
822.9630880336465
 20
458.1582481863522
 30
0.0
 10
822.3740454781193
 20
458.1582481863522
 30
0.0
 10
820.8384090239836
 20
458.1582481863522
 30
0.0
 10
817.8018445509495
 20
458.1582481863522
 30
0.0
 10
814.1362544928545
 20
458.1582481863522
 30
0.0
 10
811.0636631170985
 20
458.1582481863522
 30
0.0
 10
807.9038877755136
 20
458.1582481863522
 30
0.0
 10
806.3829510840208
 20
458.1582481863522
 30
0.0
 10
804.5580730339404
 20
458.1582481863522
 30
0.0
 10
801.6126704116152
 20
458.1582481863522
 30
0.0
 10
796.5029879132255
 20
458.1582481863522
 30
0.0
 10
791.3649561524928
 20
458.1582481863522
 30
0.0
 10
787.6737507588243
 20
458.1582481863522
 30
0.0
 10
785.8224221334365
 20
458.1582481863522
 30
0.0
 10
783.9710935080413
 20
458.1582481863522
 30
0.0
 10
780.2798881143956
 20
458.1582481863522
 30
0.0
 10
775.1418563536624
 20
458.1582481863522
 30
0.0
 10
770.0321738552936
 20
458.1582481863522
 30
0.0
 10
767.0867712329903
 20
458.1582481863522
 30
0.0
 10
765.2618931829186
 20
458.1582481863522
 30
0.0
 10
763.7409564914326
 20
458.1582481863522
 30
0.0
 10
760.5811811498627
 20
458.1582481863522
 30
0.0
 10
757.5085897741135
 20
458.1582481863522
 30
0.0
 10
753.8429997160326
 20
458.1582481863522
 30
0.0
 10
751.0955387384945
 20
458.1582481863522
 30
0.0
 10
749.6192869719437
 20
458.1582481863522
 30
0.0
 10
748.9836267537223
 20
458.1582481863522
 30
0.0
 10
748.7198192488706
 20
458.1582481863522
 30
0.0
 10
748.4914411552365
 20
458.1582481863522
 30
0.0
 10
748.3530087191155
 20
458.1582481863522
 30
0.0
 10
748.3222433628237
 20
458.1582481863522
 30
0.0
 10
748.3222422339734
 20
458.1582481863522
 30
0.0
 10
748.3222422339657
 20
458.1582481863522
 30
0.0
  0
LINE
  5
FDE
330
A
100
AcDbEntity
  8
MODEL
100
AcDbLine
 10
784.8414957053735
 20
538.158248186352
 30
0.0
 11
785.6474121343183
 21
538.158248186352
 31
0.0
  0
SPLINE
  5
FDF
330
A
100
AcDbEntity
  8
HIDDEN
 48
0.05
100
AcDbSpline
210
0.0
220
0.0
230
1.0
 70
     8
 71
     3
 72
    40
 73
    36
 74
     0
 42
0.000000001
 43
0.0000000001
 40
0.0
 40
0.0
 40
0.0
 40
0.0
 40
3.025420646900557
 40
4.171574345514955
 40
5.177628968851764
 40
6.58938296674737
 40
8.098844752629487
 40
9.545707659804178
 40
11.13231768426254
 40
13.25701600926755
 40
15.64723325705329
 40
17.24339057912329
 40
19.05507808526747
 40
21.78103804127684
 40
24.72540862243779
 40
27.35354034185623
 40
31.76629178070331
 40
36.1916442194706
 40
43.80334093569555
 40
50.58181607697974
 40
55.4957440101243
 40
59.88372398446004
 40
68.18012485976061
 40
76.35614463231606
 40
81.8682753519518
 40
92.4942453974964
 40
99.90874787117976
 40
105.0054033552018
 40
110.4071525486698
 40
119.3987540079095
 40
124.1482492766362
 40
126.7009236506168
 40
128.5701157745334
 40
130.2851652840228
 40
131.83741763803
 40
131.83741763803
 40
131.83741763803
 40
131.83741763803
 10
680.7519785823563
 20
538.158248186352
 30
0.0
 10
681.7602613816337
 20
538.150589341255
 30
0.0
 10
683.1505231499575
 20
538.140029010824
 30
0.0
 10
684.8774233728566
 20
538.1811399089611
 30
0.0
 10
686.0626248579667
 20
538.069280243616
 30
0.0
 10
687.3415184446487
 20
537.7412779539163
 30
0.0
 10
688.6249645316304
 20
537.0152959737893
 30
0.0
 10
689.7237849651995
 20
535.9514143553283
 30
0.0
 10
690.6408121987586
 20
534.4817685180283
 30
0.0
 10
691.4163175726483
 20
532.5993082454024
 30
0.0
 10
692.2550057158185
 20
530.7434112644623
 30
0.0
 10
693.0425823091825
 20
528.9782069878643
 30
0.0
 10
693.8110208015053
 20
527.0832111555724
 30
0.0
 10
694.8405278757725
 20
524.8109333863663
 30
0.0
 10
696.0469937057476
 20
522.3213014507223
 30
0.0
 10
697.5955057934855
 20
519.3747442208214
 30
0.0
 10
699.4894254159474
 20
516.052163144644
 30
0.0
 10
702.5027284823566
 20
511.4692216188123
 30
0.0
 10
706.1748294396805
 20
506.3765304846211
 30
0.0
 10
710.4096085702197
 20
501.5214604321664
 30
0.0
 10
714.1722423061594
 20
497.7010637727481
 30
0.0
 10
718.5001778709654
 20
493.7381707405771
 30
0.0
 10
723.9487452939022
 20
489.4017109869942
 30
0.0
 10
730.0792445947325
 20
485.3682227729091
 30
0.0
 10
737.1668191456313
 20
481.4286440355222
 30
0.0
 10
744.3582641489645
 20
478.2354756013424
 30
0.0
 10
751.6844919832045
 20
475.7835397872614
 30
0.0
 10
757.4745913705685
 20
474.3503110901911
 30
0.0
 10
763.8333354579056
 20
472.8532976892211
 30
0.0
 10
770.2813630112876
 20
473.3729612767502
 30
0.0
 10
775.6679998612783
 20
472.9288859262772
 30
0.0
 10
778.7772883675127
 20
473.0878100905002
 30
0.0
 10
780.6908249274095
 20
472.2076668152692
 30
0.0
 10
781.9122677577036
 20
470.9199133839472
 30
0.0
 10
782.1904558711406
 20
469.8345441155302
 30
0.0
 10
782.2564356969863
 20
469.3180116552942
 30
0.0
  0
SPLINE
  5
FE0
330
A
100
AcDbEntity
  8
HIDDEN
100
AcDbSpline
210
0.0
220
0.0
230
1.0
 70
     8
 71
     3
 72
     8
 73
     4
 74
     0
 42
0.000000001
 43
0.0000000001
 40
134.6792635243996
 40
134.6792635243996
 40
134.6792635243996
 40
134.6792635243996
 40
135.7153796220475
 40
135.7153796220475
 40
135.7153796220475
 40
135.7153796220475
 10
782.2564356969863
 20
466.4761657689251
 30
0.0
 10
782.2492326045078
 20
466.1306971208933
 30
0.0
 10
782.2528341507475
 20
465.7853733960851
 30
0.0
 10
782.2564356969863
 20
465.4400496712772
 30
0.0
  0
SPLINE
  5
FE1
330
A
100
AcDbEntity
  8
HIDDEN
 48
0.05
100
AcDbSpline
210
0.0
220
0.0
230
1.0
 70
     8
 71
     3
 72
    40
 73
    36
 74
     0
 42
0.000000001
 43
0.0000000001
 40
0.0
 40
0.0
 40
0.0
 40
0.0
 40
3.025420646900557
 40
4.171574345514955
 40
5.177628968851764
 40
6.58938296674737
 40
8.098844752629487
 40
9.545707659804178
 40
11.13231768426254
 40
13.25701600926755
 40
15.64723325705329
 40
17.24339057912329
 40
19.05507808526747
 40
21.78103804127684
 40
24.72540862243779
 40
27.35354034185623
 40
31.76629178070331
 40
36.1916442194706
 40
43.80334093569555
 40
50.58181607697974
 40
55.4957440101243
 40
59.88372398446004
 40
68.18012485976061
 40
76.35614463231606
 40
81.8682753519518
 40
92.4942453974964
 40
99.90874787117976
 40
105.0054033552018
 40
110.4071525486698
 40
119.3987540079095
 40
124.1482492766362
 40
126.7009236506168
 40
128.5701157745334
 40
130.2851652840228
 40
131.83741763803
 40
131.83741763803
 40
131.83741763803
 40
131.83741763803
 10
890.8928656874289
 20
538.158248186352
 30
0.0
 10
889.8845828881524
 20
538.150589341255
 30
0.0
 10
888.4943211198286
 20
538.140029010824
 30
0.0
 10
886.7674208969286
 20
538.1811399089611
 30
0.0
 10
885.5822194118184
 20
538.069280243616
 30
0.0
 10
884.3033258251364
 20
537.7412779539163
 30
0.0
 10
883.0198797381547
 20
537.0152959737893
 30
0.0
 10
881.9210593045866
 20
535.9514143553283
 30
0.0
 10
881.0040320710266
 20
534.4817685180283
 30
0.0
 10
880.2285266971364
 20
532.5993082454024
 30
0.0
 10
879.3898385539662
 20
530.7434112644623
 30
0.0
 10
878.6022619606035
 20
528.9782069878643
 30
0.0
 10
877.8338234682794
 20
527.0832111555724
 30
0.0
 10
876.8043163940135
 20
524.8109333863663
 30
0.0
 10
875.5978505640376
 20
522.3213014507223
 30
0.0
 10
874.0493384762997
 20
519.3747442208214
 30
0.0
 10
872.1554188538378
 20
516.052163144644
 30
0.0
 10
869.1421157874295
 20
511.4692216188123
 30
0.0
 10
865.4700148301047
 20
506.3765304846211
 30
0.0
 10
861.2352356995664
 20
501.5214604321664
 30
0.0
 10
857.4726019636266
 20
497.7010637727481
 30
0.0
 10
853.1446663988206
 20
493.7381707405771
 30
0.0
 10
847.6960989758825
 20
489.4017109869942
 30
0.0
 10
841.5655996750522
 20
485.3682227729091
 30
0.0
 10
834.4780251241539
 20
481.4286440355222
 30
0.0
 10
827.2865801208216
 20
478.2354756013424
 30
0.0
 10
819.9603522865802
 20
475.7835397872614
 30
0.0
 10
814.1702528992175
 20
474.3503110901911
 30
0.0
 10
807.8115088118805
 20
472.8532976892211
 30
0.0
 10
801.3634812584985
 20
473.3729612767502
 30
0.0
 10
795.9768444085078
 20
472.9288859262772
 30
0.0
 10
792.8675559022724
 20
473.0878100905002
 30
0.0
 10
790.9540193423757
 20
472.2076668152692
 30
0.0
 10
789.7325765120825
 20
470.9199133839472
 30
0.0
 10
789.4543883986455
 20
469.8345441155302
 30
0.0
 10
789.3884085727989
 20
469.3180116552942
 30
0.0
  0
SPLINE
  5
1125
330
A
100
AcDbEntity
  8
MODEL
 48
0.05
370
     0
100
AcDbSpline
210
0.0
220
0.0
230
1.0
 70
  1064
 71
     3
 72
    23
 73
    19
 74
    17
 42
0.000000001
 43
0.0000000001
 44
0.0
 40
0.0
 40
0.0
 40
0.0
 40
0.0
 40
23.84934239369602
 40
46.49571843982933
 40
70.6650460123241
 40
95.96906156313882
 40
121.2839126919102
 40
153.9443065107063
 40
165.1951369272835
 40
194.5356677762117
 40
216.5721533395901
 40
236.9015174814312
 40
263.5318059568119
 40
291.7786866481496
 40
312.8008602693682
 40
333.0383367821382
 40
362.2544166866244
 40
375.3472306916415
 40
375.3472306916415
 40
375.3472306916415
 40
375.3472306916415
 10
138.2089789477402
 20
1032.190461347372
 30
0.0
 10
138.5705940206363
 20
1040.183575639996
 30
0.0
 10
139.2755842184966
 20
1055.766629691225
 30
0.0
 10
148.0969607031919
 20
1077.984205386834
 30
0.0
 10
162.3815236753433
 20
1097.821611286151
 30
0.0
 10
183.7468872165167
 20
1111.520064175186
 30
0.0
 10
209.7330175054656
 20
1121.451753270664
 30
0.0
 10
232.5354234570799
 20
1125.989526671772
 30
0.0
 10
256.8955901733098
 20
1127.676363480808
 30
0.0
 10
277.8392306615947
 20
1127.432752469088
 30
0.0
 10
301.5648059731068
 20
1124.187972883905
 30
0.0
 10
323.9483996384952
 20
1118.745451214007
 30
0.0
 10
347.5578439689098
 20
1110.161948805663
 30
0.0
 10
370.4458160562245
 20
1099.315347745024
 30
0.0
 10
390.0792537286126
 20
1086.741593970052
 30
0.0
 10
406.6143194756687
 20
1069.908617180484
 30
0.0
 10
416.7869204804745
 20
1050.674959958234
 30
0.0
 10
417.8729108423148
 20
1036.5588122773
 30
0.0
 10
418.2089789477402
 20
1032.190461347372
 30
0.0
 11
138.2089789477402
 21
1032.190461347372
 31
0.0
 11
140.6354530416752
 21
1055.916045767639
 31
0.0
 11
148.7091083141045
 21
1077.07436419243
 31
0.0
 11
163.1912448042402
 21
1096.424406000851
 31
0.0
 11
184.0771987275416
 21
1110.709717747873
 31
0.0
 11
207.6327738473385
 21
1119.982072812659
 31
0.0
 11
239.6643797855136
 21
1126.359967874536
 31
0.0
 11
250.8855880529209
 21
1127.17585394627
 31
0.0
 11
280.2224409837207
 21
1126.711299736804
 31
0.0
 11
302.0556761548136
 21
1123.72524247869
 31
0.0
 11
321.8119457754289
 21
1118.932241634842
 31
0.0
 11
346.890478667755
 21
1109.974593938571
 31
0.0
 11
372.3153570949129
 21
1097.667611133882
 31
0.0
 11
389.7884040412135
 21
1085.978966465956
 31
0.0
 11
403.9116443123042
 21
1071.484500630681
 31
0.0
 11
416.6458056574021
 21
1045.189625467974
 31
0.0
 11
418.2089789477402
 21
1032.190461347372
 31
0.0
  0
SPLINE
  5
114C
102
{ACAD_REACTORS
330
126F
102
}
330
A
100
AcDbEntity
  8
MODEL
 48
0.05
370
     0
100
AcDbSpline
210
0.0
220
0.0
230
1.0
 70
  1064
 71
     3
 72
    23
 73
    19
 74
    17
 42
0.000000001
 43
0.0000000001
 44
0.0
 40
0.0
 40
0.0
 40
0.0
 40
0.0
 40
23.84934239369727
 40
46.49571843983004
 40
70.66504601232481
 40
95.96906156313979
 40
121.283912691911
 40
153.9443065107072
 40
165.1951369272844
 40
194.5356677762126
 40
216.572153339591
 40
236.9015174814322
 40
263.5318059568127
 40
291.7786866481505
 40
312.8008602693693
 40
333.0383367821386
 40
362.254416686626
 40
375.3472306916432
 40
375.3472306916432
 40
375.3472306916432
 40
375.3472306916432
 10
138.2089789477402
 20
1032.190461347372
 30
0.0
 10
138.5705940206362
 20
1024.197347054748
 30
0.0
 10
139.2755842184964
 20
1008.614293003518
 30
0.0
 10
148.096960703192
 20
986.3967173079099
 30
0.0
 10
162.3815236753435
 20
966.559311408593
 30
0.0
 10
183.7468872165164
 20
952.8608585195564
 30
0.0
 10
209.7330175054659
 20
942.9291694240806
 30
0.0
 10
232.5354234570798
 20
938.3913960229706
 30
0.0
 10
256.8955901733099
 20
936.7045592139348
 30
0.0
 10
277.8392306615945
 20
936.9481702256567
 30
0.0
 10
301.564805973107
 20
940.1929498108374
 30
0.0
 10
323.9483996384951
 20
945.6354714807367
 30
0.0
 10
347.55784396891
 20
954.2189738890802
 30
0.0
 10
370.4458160562248
 20
965.0655749497187
 30
0.0
 10
390.0792537286121
 20
977.6393287246915
 30
0.0
 10
406.6143194756695
 20
994.4723055142596
 30
0.0
 10
416.7869204804743
 20
1013.70596273651
 30
0.0
 10
417.8729108423147
 20
1027.822110417444
 30
0.0
 10
418.2089789477402
 20
1032.190461347372
 30
0.0
 11
138.2089789477402
 21
1032.190461347372
 31
0.0
 11
140.6354530416752
 21
1008.464876927104
 31
0.0
 11
148.7091083141045
 21
987.3065585023135
 31
0.0
 11
163.1912448042402
 21
967.9565166938926
 31
0.0
 11
184.0771987275416
 21
953.6712049468701
 31
0.0
 11
207.6327738473385
 21
944.3988498820845
 31
0.0
 11
239.6643797855136
 21
938.020954820207
 31
0.0
 11
250.8855880529209
 21
937.205068748473
 31
0.0
 11
280.2224409837207
 21
937.6696229579397
 31
0.0
 11
302.0556761548136
 21
940.655680216053
 31
0.0
 11
321.8119457754289
 21
945.4486810599014
 31
0.0
 11
346.890478667755
 21
954.4063287561721
 31
0.0
 11
372.3153570949129
 21
966.7133115608613
 31
0.0
 11
389.7884040412135
 21
978.4019562287876
 31
0.0
 11
403.9116443123042
 21
992.8964220640619
 31
0.0
 11
416.6458056574021
 21
1019.19129722677
 31
0.0
 11
418.2089789477402
 21
1032.190461347372
 31
0.0
  0
LINE
  5
1165
330
A
100
AcDbEntity
  8
HIDDEN
  6
HIDDEN
 48
0.05
100
AcDbLine
 10
206.9396917446123
 20
472.4225345686311
 30
0.0
 11
270.7549527356759
 21
472.7093861165616
 31
0.0
  0
LINE
  5
11ED
330
A
100
AcDbEntity
  8
MODEL
 48
0.05
100
AcDbLine
 10
484.0867873109771
 20
441.5849118329609
 30
0.0
 11
284.0849483239362
 21
441.584911832961
 31
0.0
  0
LINE
  5
11F1
330
A
100
AcDbEntity
  8
MODEL
 48
0.05
100
AcDbLine
 10
484.0867873109771
 20
458.1582481863522
 30
0.0
 11
124.0802721196673
 21
458.1582481863522
 31
0.0
  0
DIMENSION
  5
126D
102
{ACAD_REACTORS
330
126F
102
}
102
{ACAD_XDICTIONARY
360
126E
102
}
330
A
100
AcDbEntity
  8
DIM
 48
0.05
100
AcDbDimension
  2
*D33
 10
418.2089789477402
 20
872.1325623553771
 30
0.0
 11
451.1479779515181
 21
888.1325623553771
 31
0.0
 70
    32
  1
50
 71
     5
 42
65.87799800755585
 73
     0
 74
     0
 75
     0
  3
tfrom線あり
100
AcDbAlignedDimension
 13
484.0869769552961
 23
1032.190461346492
 33
0.0
 14
418.2089789477402
 24
1032.190461347372
 34
0.0
100
AcDbRotatedDimension
  0
HATCH
  5
128B
330
A
100
AcDbEntity
  8
DIM
 48
0.05
100
AcDbHatch
 10
0.0
 20
0.0
 30
0.0
210
0.0
220
0.0
230
1.0
  2
ANSI31
 70
     0
 71
     1
 91
        1
 92
        1
 93
        1
 72
     2
 10
723.4853205654292
 20
1032.19046134737
 40
35.0
 50
0.0
 51
360.0
 73
     1
 97
        1
330
FC7
 75
     0
 76
     1
 52
0.0
 41
2.0
 77
     0
 78
     1
 53
45.0
 43
0.0
 44
0.0
 45
-4.490128060534576
 46
4.490128060534577
 79
     0
 98
        1
 10
0.0
 20
0.0
1001
ACAD
1010
0.0
1020
0.0
1030
0.0
  0
DIMENSION
  5
13B2
330
A
100
AcDbEntity
  8
DIM
 48
0.05
100
AcDbDimension
  2
*D38
 10
260.0802736544878
 20
406.6427093957723
 30
0.0
 11
239.0802736544878
 21
406.6427093957723
 31
0.0
 70
   160
  1
G1 1/4"
 71
     5
 42
42.0
 73
     0
 74
     0
 75
     0
  3
tfrom線あり
100
AcDbAlignedDimension
 13
218.0802736544878
 23
438.1582481863522
 33
0.0
 14
260.0802736544878
 24
438.1582481863522
 34
0.0
100
AcDbRotatedDimension
1001
ACAD
1000
DSTYLE
1002
{
1070
    77
1070
     2
1002
}
  0
LINE
  5
13B4
330
A
100
AcDbEntity
  8
MODEL
  6
Continuous
 48
0.05
100
AcDbLine
 10
268.2516246421819
 20
450.5624868859624
 30
0.0
 11
209.9089226667938
 21
450.5624868859624
 31
0.0
  0
LINE
  5
13B5
102
{ACAD_REACTORS
330
13B9
102
}
330
A
100
AcDbEntity
  8
MODEL
  6
Continuous
 48
0.05
100
AcDbLine
 10
218.0802736544878
 20
450.5624868859624
 30
0.0
 11
218.0802736544878
 21
438.1582481863522
 31
0.0
  0
LINE
  5
13B6
330
A
100
AcDbEntity
  8
MODEL
  6
Continuous
 48
0.05
100
AcDbLine
 10
268.2516246421819
 20
450.5624868859624
 30
0.0
 11
268.2516246421819
 21
458.1582481863522
 31
0.0
  0
LINE
  5
13B7
102
{ACAD_REACTORS
330
13B9
330
1480
102
}
330
A
100
AcDbEntity
  8
MODEL
  6
Continuous
 48
0.05
100
AcDbLine
 10
260.0802736544878
 20
450.5624868859624
 30
0.0
 11
260.0802736544878
 21
438.1582481863522
 31
0.0
  0
LINE
  5
13B8
102
{ACAD_REACTORS
330
13B9
102
}
330
A
100
AcDbEntity
  8
MODEL
  6
Continuous
 48
0.05
100
AcDbLine
 10
220.7199563958118
 20
450.5624868859624
 30
0.0
 11
257.4405909131638
 21
450.5624868859624
 31
0.0
  0
HATCH
  5
13B9
330
A
100
AcDbEntity
  8
MODEL
  6
Continuous
 48
0.05
370
     0
100
AcDbHatch
 10
0.0
 20
0.0
 30
0.0
210
0.0
220
0.0
230
1.0
  2
ANSI31
 70
     0
 71
     1
 91
        1
 92
        1
 93
        4
 72
     1
 10
260.0802736544878
 20
450.5624868859624
 11
260.0802736544878
 21
438.1582481863522
 72
     1
 10
220.7199563958118
 20
450.5624868859624
 11
257.4405909131638
 21
450.5624868859624
 72
     1
 10
218.0802736544878
 20
450.5624868859624
 11
218.0802736544878
 21
438.1582481863522
 72
     1
 10
218.0802736544878
 20
438.1582481863522
 11
260.0802736544878
 21
438.1582481863522
 97
        4
330
13B7
330
13B8
330
13B5
330
13BB
 75
     0
 76
     1
 52
145.0
 41
0.9999999999999997
 77
     0
 78
     1
 53
189.9999999999999
 43
-3.870930666909487
 44
-6.210049198250999
 45
0.5513329640925042
 46
-3.12676461581376
 79
     0
 98
        1
 10
-3.870930666909487
 20
-6.210049198250999
1001
ACAD
1010
0.0
1020
0.0
1030
0.0
  0
LINE
  5
13BA
330
A
100
AcDbEntity
  8
MODEL
  6
Continuous
 48
0.05
100
AcDbLine
 10
209.9089226667938
 20
450.5624868859624
 30
0.0
 11
209.9089226667938
 21
458.1582481863522
 31
0.0
  0
LINE
  5
13BB
102
{ACAD_REACTORS
330
13B9
102
}
330
A
100
AcDbEntity
  8
MODEL
  6
Continuous
 48
0.05
100
AcDbLine
 10
218.0802736544878
 20
438.1582481863522
 30
0.0
 11
260.0802736544878
 21
438.1582481863522
 31
0.0
  0
LINE
  5
13BC
330
A
100
AcDbEntity
  8
HIDDEN
  6
HIDDEN
 48
0.05
100
AcDbLine
 10
212.5849483239363
 20
488.9703540153965
 30
0.0
 11
265.5849483239361
 21
488.9703540153965
 31
0.0
  0
LINE
  5
13BD
330
A
100
AcDbEntity
  8
HIDDEN
  6
HIDDEN
 48
0.05
100
AcDbLine
 10
265.5849483239361
 20
488.9703540153965
 30
0.0
 11
265.5849483239361
 21
486.8460807212737
 31
0.0
  0
LINE
  5
13BE
330
A
100
AcDbEntity
  8
HIDDEN
  6
HIDDEN
 48
0.05
100
AcDbLine
 10
265.5849483239361
 20
486.8460807212737
 30
0.0
 11
212.5849483239363
 21
486.8460807212737
 31
0.0
  0
LINE
  5
13BF
330
A
100
AcDbEntity
  8
HIDDEN
  6
HIDDEN
 48
0.05
100
AcDbLine
 10
212.5849483239363
 20
486.8460807212737
 30
0.0
 11
212.5849483239363
 21
488.9703540153965
 31
0.0
  0
LINE
  5
13C0
330
A
100
AcDbEntity
  8
HIDDEN
  6
HIDDEN
 48
0.05
100
AcDbLine
 10
230.3355199134201
 20
486.8460807212737
 30
0.0
 11
234.6622172021421
 21
481.4026931858415
 31
0.0
  0
LINE
  5
13C1
330
A
100
AcDbEntity
  8
HIDDEN
  6
HIDDEN
 48
0.05
100
AcDbLine
 10
247.834376734453
 20
486.8460807212737
 30
0.0
 11
243.5076794457307
 21
481.4026931858415
 31
0.0
  0
LINE
  5
13C2
330
A
100
AcDbEntity
  8
HIDDEN
  6
HIDDEN
 48
0.05
100
AcDbLine
 10
234.6622172021421
 20
472.5869087906254
 30
0.0
 11
233.2055726575998
 21
474.7908548894297
 31
0.0
  0
LINE
  5
13C3
330
A
100
AcDbEntity
  8
HIDDEN
  6
HIDDEN
 48
0.05
100
AcDbLine
 10
234.6622172021421
 20
476.9948009882336
 30
0.0
 11
233.2055726575998
 21
474.7908548894297
 31
0.0
  0
LINE
  5
13C4
330
A
100
AcDbEntity
  8
HIDDEN
  6
HIDDEN
 48
0.05
100
AcDbLine
 10
243.5076794457307
 20
472.5869087906254
 30
0.0
 11
244.9643239902728
 21
474.7908548894297
 31
0.0
  0
LINE
  5
13C5
330
A
100
AcDbEntity
  8
HIDDEN
  6
HIDDEN
 48
0.05
100
AcDbLine
 10
243.5076794457307
 20
476.9948009882336
 30
0.0
 11
244.9643239902728
 21
474.7908548894297
 31
0.0
  0
LINE
  5
13C7
330
A
100
AcDbEntity
  8
HIDDEN
 48
0.05
100
AcDbLine
 10
241.022466380543
 20
472.5757376819656
 30
0.0
 11
241.0224663805431
 21
458.1582481863522
 31
0.0
  0
LINE
  5
13C8
330
A
100
AcDbEntity
  8
HIDDEN
 48
0.05
100
AcDbLine
 10
237.1380809284329
 20
472.558277250677
 30
0.0
 11
237.1380809284327
 21
458.1582481863522
 31
0.0
  0
LINE
  5
13C9
330
A
100
AcDbEntity
  8
HIDDEN
  6
HIDDEN
 48
0.05
100
AcDbLine
 10
234.6622172021421
 20
476.9948009882336
 30
0.0
 11
233.2055726575998
 21
479.1987470870376
 31
0.0
  0
LINE
  5
13CA
330
A
100
AcDbEntity
  8
HIDDEN
  6
HIDDEN
 48
0.05
100
AcDbLine
 10
243.5076794457307
 20
476.9948009882336
 30
0.0
 11
244.9643239902728
 21
479.1987470870376
 31
0.0
  0
LINE
  5
13CB
330
A
100
AcDbEntity
  8
HIDDEN
  6
HIDDEN
 48
0.05
100
AcDbLine
 10
234.6622172021421
 20
481.4026931858415
 30
0.0
 11
233.2055726575998
 21
479.1987470870376
 31
0.0
  0
LINE
  5
13CC
330
A
100
AcDbEntity
  8
HIDDEN
  6
HIDDEN
 48
0.05
100
AcDbLine
 10
243.5076794457307
 20
481.4026931858415
 30
0.0
 11
244.9643239902728
 21
479.1987470870376
 31
0.0
  0
DIMENSION
  5
13ED
102
{ACAD_REACTORS
330
13EF
102
}
102
{ACAD_XDICTIONARY
360
13EE
102
}
330
A
100
AcDbEntity
  8
DIM
 48
0.05
100
AcDbDimension
  2
*D40
 10
309.080271722504
 20
350.1648159325047
 30
0.0
 11
244.080271722504
 21
366.1648159325047
 31
0.0
 70
    32
 71
     5
 42
130.0
 73
     0
 74
     0
 75
     0
  3
tfrom線あり
100
AcDbAlignedDimension
 13
179.080271722504
 23
458.1582481863522
 33
0.0
 14
309.080271722504
 24
458.1582481863522
 34
0.0
100
AcDbRotatedDimension
  0
LINE
  5
143A
330
A
100
AcDbEntity
  8
HIDDEN
  6
Continuous
 48
0.05
100
AcDbLine
 10
814.9937731225875
 20
450.5624868859626
 30
0.0
 11
756.6510711471994
 21
450.5624868859626
 31
0.0
  0
LINE
  5
143B
330
A
100
AcDbEntity
  8
HIDDEN
  6
Continuous
 48
0.05
100
AcDbLine
 10
764.8224221348935
 20
450.5624868859626
 30
0.0
 11
764.8224221348935
 21
438.1582481863522
 31
0.0
  0
LINE
  5
143C
330
A
100
AcDbEntity
  8
HIDDEN
  6
Continuous
 48
0.05
100
AcDbLine
 10
806.8224221348935
 20
450.5624868859626
 30
0.0
 11
806.8224221348935
 21
438.1582481863522
 31
0.0
  0
LINE
  5
143D
330
A
100
AcDbEntity
  8
HIDDEN
  6
Continuous
 48
0.05
100
AcDbLine
 10
764.8224221348935
 20
438.1582481863522
 30
0.0
 11
806.8224221348935
 21
438.1582481863522
 31
0.0
  0
LINE
  5
143E
330
A
100
AcDbEntity
  8
HIDDEN
  6
Continuous
 48
0.05
100
AcDbLine
 10
767.4621048762174
 20
450.5624868859626
 30
0.0
 11
804.1827393935694
 21
450.5624868859626
 31
0.0
  0
HATCH
  5
143F
330
A
100
AcDbEntity
  8
HIDDEN
  6
Continuous
 48
0.05
370
     0
100
AcDbHatch
 10
0.0
 20
0.0
 30
0.0
210
0.0
220
0.0
230
1.0
  2
ANSI31
 70
     0
 71
     0
 91
        1
 92
        1
 93
        4
 72
     1
 10
806.8224221348935
 20
450.5624868859626
 11
806.8224221348935
 21
438.1582481863522
 72
     1
 10
767.4621048762174
 20
450.5624868859626
 11
804.1827393935694
 21
450.5624868859626
 72
     1
 10
764.8224221348935
 20
450.5624868859626
 11
764.8224221348935
 21
438.1582481863522
 72
     1
 10
764.8224221348935
 20
438.1582481863522
 11
806.8224221348935
 21
438.1582481863522
 97
        0
 75
     0
 76
     1
 52
145.0
 41
0.9999999999999997
 77
     0
 78
     1
 53
189.9999999999998
 43
542.8712178134961
 44
-6.210049198250886
 45
0.5513329640925042
 46
-3.12676461581376
 79
     0
 98
        1
 10
542.8712178134961
 20
-6.210049198250886
1001
ACAD
1010
0.0
1020
0.0
1030
0.0
  0
LINE
  5
1440
330
A
100
AcDbEntity
  8
HIDDEN
  6
Continuous
 48
0.05
100
AcDbLine
 10
756.6510711471994
 20
450.5624868859626
 30
0.0
 11
756.6510711471994
 21
458.1582481863522
 31
0.0
  0
LINE
  5
1441
330
A
100
AcDbEntity
  8
HIDDEN
  6
Continuous
 48
0.05
100
AcDbLine
 10
814.9937731225875
 20
450.5624868859626
 30
0.0
 11
814.9937731225875
 21
458.1582481863522
 31
0.0
  0
LINE
  5
1442
330
A
100
AcDbEntity
  8
HIDDEN
 48
0.05
100
AcDbLine
 10
787.7646148609487
 20
465.4400496712772
 30
0.0
 11
787.7646148609487
 21
458.1582481863522
 31
0.0
  0
LINE
  5
1443
330
A
100
AcDbEntity
  8
HIDDEN
 48
0.05
100
AcDbLine
 10
783.8802294088383
 20
465.4400496712772
 30
0.0
 11
783.8802294088383
 21
458.1582481863522
 31
0.0
  0
DIMENSION
  5
147E
102
{ACAD_REACTORS
330
1480
102
}
102
{ACAD_XDICTIONARY
360
147F
102
}
330
A
100
AcDbEntity
  8
DIM
 48
0.05
100
AcDbDimension
  2
*D41
 10
568.1886852080645
 20
438.1582481863522
 30
0.0
 11
552.1886852080645
 21
488.1582481863521
 31
0.0
 70
    32
 71
     5
 42
99.99999999999984
 73
     0
 74
     0
 75
     0
  3
tfrom線あり
100
AcDbAlignedDimension
 13
484.0869765581399
 23
538.158248186352
 33
0.0
 14
260.0802736544878
 24
438.1582481863522
 34
0.0
 50
90.0
100
AcDbRotatedDimension
  0
MTEXT
  5
14C5
330
A
100
AcDbEntity
  8
DIM
390
1D
100
AcDbMText
 10
59.51639791457524
 20
354.3984256300649
 30
0.0
 40
12.21630859375
 41
0.0
 46
13.32799267578125
 71
     1
 72
     1
  1
{カウンター}
  7
ＭＳ ゴシック
 11
6.123233995736766E-17
 21
1.0
 31
0.0
 73
     1
 44
0.7828267384257843
1001
ACAD
1000
ACAD_MTEXT_DEFINED_HEIGHT_BEGIN
1070
    46
1040
13.32799267578125
1000
ACAD_MTEXT_DEFINED_HEIGHT_END
  0
DIMENSION
  5
150C
330
A
100
AcDbEntity
  8
DIM
 48
0.05
100
AcDbDimension
  2
*D42
 10
100.9204275508831
 20
441.584911832961
 30
0.0
 11
100.9204275508831
 21
392.347682915697
 31
0.0
 70
   160
  1
MAX 45
 71
     5
 42
16.5733363533912
 73
     0
 74
     1
 75
     1
 52
-90.0
  3
tfrom線あり
100
AcDbAlignedDimension
 13
124.293729487232
 23
458.1582481863522
 33
0.0
 14
124.293729487232
 24
441.584911832961
 34
0.0
 50
90.00000000000001
100
AcDbRotatedDimension
1001
ACAD
1000
DSTYLE
1002
{
1070
    76
1070
     0
1070
    75
1070
     0
1070
   172
1070
     1
1002
}
  0
LINE
  5
154A
330
A
100
AcDbEntity
  8
MODEL
 48
0.05
100
AcDbLine
 10
194.0849483239362
 20
458.1582481863522
 30
0.0
 11
194.0849483239362
 21
441.584911832961
 31
0.0
  0
LINE
  5
154B
330
A
100
AcDbEntity
  8
MODEL
 48
0.05
100
AcDbLine
 10
284.0849483239362
 20
458.1582481863522
 30
0.0
 11
284.0849483239362
 21
441.5849118329609
 31
0.0
  0
LINE
  5
154F
330
A
100
AcDbEntity
  8
MODEL
 48
0.05
100
AcDbLine
 10
194.0849483239363
 20
441.584911832961
 30
0.0
 11
124.0802721196673
 21
441.584911832961
 31
0.0
  0
MTEXT
  5
15B0
102
{ACAD_XDICTIONARY
360
15B1
102
}
330
A
100
AcDbEntity
  8
MODEL
 48
0.05
100
AcDbMText
 10
36.10107227396725
 20
42.78748475256335
 30
0.0
 40
11.0
 41
0.0
 46
11.0
 71
     1
 72
     1
  1
{20160629N}
  7
ＭＳ ゴシック
 73
     1
 44
1.0
1001
ACAD
1000
ACAD_MTEXT_DEFINED_HEIGHT_BEGIN
1070
    46
1040
11.0
1000
ACAD_MTEXT_DEFINED_HEIGHT_END
  0
VIEWPORT
  5
349
330
B
100
AcDbEntity
 67
     1
  8
0
100
AcDbViewport
 10
202.5
 20
128.5
 30
0.0
 40
486.0
 41
308.4
 68
     1
 69
     1
 12
202.5
 22
128.5
 13
0.0
 23
0.0
 14
0.5
 24
0.5
 15
0.0
 25
0.0
 16
0.0
 26
0.0
 36
1.0
 17
0.0
 27
0.0
 37
0.0
 42
50.0
 43
0.0
 44
0.0
 45
308.4
 50
0.0
 51
0.0
 72
   100
 90
   557152
  1

281
     0
 71
     1
 74
     0
110
0.0
120
0.0
130
0.0
111
1.0
121
0.0
131
0.0
112
0.0
122
1.0
132
0.0
 79
     0
146
0.0
170
     0
 61
     5
348
26C
292
     1
282
     1
141
0.0
142
0.0
 63
   256
  0
VIEWPORT
  5
34A
330
B
100
AcDbEntity
 67
     1
  8
0
100
AcDbViewport
 10
202.5
 20
128.5
 30
0.0
 40
324.0
 41
205.6
 68
     2
 69
     2
 12
986.6781359294573
 22
1427.077061889956
 13
0.0
 23
0.0
 14
0.5
 24
0.5
 15
0.0
 25
0.0
 16
0.0
 26
0.0
 36
1.0
 17
0.0
 27
0.0
 37
0.0
 42
50.0
 43
0.0
 44
0.0
 45
2890.021615685494
 50
0.0
 51
0.0
 72
   100
 90
   557152
  1

281
     0
 71
     1
 74
     0
110
0.0
120
0.0
130
0.0
111
1.0
121
0.0
131
0.0
112
0.0
122
1.0
132
0.0
 79
     0
146
0.0
170
     0
 61
     5
348
26C
292
     1
282
     1
141
0.0
142
0.0
 63
   256
  0
ENDSEC
  0
SECTION
  2
OBJECTS
  0
DICTIONARY
  5
19
330
0
100
AcDbDictionary
281
     1
  3
ACAD_COLOR
350
674
  3
ACAD_DETAILVIEWSTYLE
350
BBF
  3
ACAD_FIELDLIST
350
15AE
  3
ACAD_GROUP
350
1A
  3
ACAD_IMAGE_VARS
350
27B
  3
ACAD_LAYOUT
350
1E
  3
ACAD_MATERIAL
350
263
  3
ACAD_MLEADERSTYLE
350
336
  3
ACAD_MLINESTYLE
350
1B
  3
ACAD_PLOTSETTINGS
350
22
  3
ACAD_PLOTSTYLENAME
350
1F
  3
ACAD_SCALELIST
350
241
  3
ACAD_SECTIONVIEWSTYLE
350
BC0
  3
ACAD_TABLESTYLE
350
278
  3
ACAD_VISUALSTYLE
350
267
  3
ACDB_RECOMPOSE_DATA
350
15C3
  3
AcDbVariableDictionary
350
330
  3
APPDATA
350
27A
  3
DimOffsetDictionary
350
106D
  0
SUN
  5
904
330
15
100
AcDbSun
 90
        1
290
     0
 63
     7
421
 16777215
 40
1.0
291
     1
 91
  2455826
 92
 54000000
292
     0
 70
     2
 71
   256
280
     1
  0
DICTIONARY
  5
2E1
330
2
100
AcDbDictionary
280
     1
281
     1
  3
ACAD_LAYERSTATES
360
2E2
  3
ACLYDICTIONARY
360
DDE
  0
DICTIONARY
  5
FC5
330
FC4
100
AcDbDictionary
280
     1
281
     1
  3
ACAD_DIMASSOC
360
FC6
  0
DICTIONARY
  5
126E
330
126D
100
AcDbDictionary
280
     1
281
     1
  3
ACAD_DIMASSOC
360
126F
  0
DICTIONARY
  5
13EE
330
13ED
100
AcDbDictionary
280
     1
281
     1
  3
ACAD_DIMASSOC
360
13EF
  0
DICTIONARY
  5
147F
330
147E
100
AcDbDictionary
280
     1
281
     1
  3
ACAD_DIMASSOC
360
1480
  0
DICTIONARY
  5
15B1
330
15B0
100
AcDbDictionary
280
     1
281
     1
  3
ACAD_FIELD
360
15B2
  0
DICTIONARY
  5
674
102
{ACAD_REACTORS
330
19
102
}
330
19
100
AcDbDictionary
281
     1
  0
DICTIONARY
  5
BBF
102
{ACAD_REACTORS
330
19
102
}
330
19
100
AcDbDictionary
281
     1
  0
FIELDLIST
  5
15AE
102
{ACAD_REACTORS
330
19
102
}
330
19
100
AcDbIdSet
 90
        2
330
15AA
330
15B3
100
AcDbFieldList
  0
DICTIONARY
  5
1A
102
{ACAD_REACTORS
330
19
102
}
330
19
100
AcDbDictionary
281
     1
  0
RASTERVARIABLES
  5
27B
102
{ACAD_REACTORS
330
19
102
}
330
19
100
AcDbRasterVariables
 90
        0
 70
     1
 71
     1
 72
     1
  0
DICTIONARY
  5
1E
102
{ACAD_REACTORS
330
19
102
}
330
19
100
AcDbDictionary
281
     1
  3
Layout1
350
21
  3
Model
350
20
  0
DICTIONARY
  5
263
102
{ACAD_REACTORS
330
19
102
}
330
19
100
AcDbDictionary
281
     1
  3
ByBlock
350
265
  3
ByLayer
350
264
  3
Global
350
266
  0
DICTIONARY
  5
336
102
{ACAD_REACTORS
330
19
102
}
330
19
100
AcDbDictionary
281
     1
  3
Standard
350
D59
  0
DICTIONARY
  5
1B
102
{ACAD_REACTORS
330
19
102
}
330
19
100
AcDbDictionary
281
     1
  3
Standard
350
1C
  0
DICTIONARY
  5
22
102
{ACAD_REACTORS
330
19
102
}
330
19
100
AcDbDictionary
281
     1
  0
ACDBDICTIONARYWDFLT
  5
1F
102
{ACAD_REACTORS
330
19
102
}
330
19
100
AcDbDictionary
281
     1
  3
Normal
350
1D
100
AcDbDictionaryWithDefault
340
1D
  0
DICTIONARY
  5
241
102
{ACAD_REACTORS
330
19
102
}
330
19
100
AcDbDictionary
281
     1
  3
A0
350
242
  3
A1
350
243
  3
A2
350
244
  3
A3
350
245
  3
A4
350
246
  3
A5
350
247
  3
A6
350
248
  3
A7
350
249
  3
A8
350
24A
  3
A9
350
24B
  3
B0
350
24C
  3
B1
350
24D
  3
B2
350
24E
  3
B3
350
24F
  3
B4
350
250
  3
B5
350
251
  3
B6
350
252
  3
B7
350
253
  3
B8
350
254
  3
B9
350
255
  3
C0
350
256
  3
C1
350
257
  3
C2
350
258
  3
C3
350
259
  3
C4
350
25A
  3
C5
350
25B
  3
C6
350
25C
  3
C7
350
25D
  3
C8
350
25E
  3
C9
350
25F
  3
D0
350
260
  3
D1
350
261
  3
D2
350
262
  0
DICTIONARY
  5
BC0
102
{ACAD_REACTORS
330
19
102
}
330
19
100
AcDbDictionary
281
     1
  0
DICTIONARY
  5
278
102
{ACAD_REACTORS
330
19
102
}
330
19
100
AcDbDictionary
281
     1
  3
Standard
350
279
  0
DICTIONARY
  5
267
102
{ACAD_REACTORS
330
19
102
}
330
19
100
AcDbDictionary
281
     1
  3
2dWireframe
350
26C
  3
3D Hidden
350
26E
  3
3dWireframe
350
26D
  3
Basic
350
26F
  3
Brighten
350
273
  3
ColorChange
350
277
  3
Conceptual
350
271
  3
Dim
350
272
  3
EdgeColorOff
350
8FE
  3
Facepattern
350
276
  3
Flat
350
268
  3
FlatWithEdges
350
269
  3
Gouraud
350
26A
  3
GouraudWithEdges
350
26B
  3
Hidden
350
8FB
  3
JitterOff
350
8FC
  3
Linepattern
350
275
  3
OverhangOff
350
8FD
  3
Realistic
350
270
  3
Shaded
350
903
  3
Shaded with edges
350
902
  3
Shades of Gray
350
8FF
  3
Sketchy
350
900
  3
Thicken
350
274
  3
Wireframe
350
8FA
  3
X-Ray
350
901
  0
XRECORD
  5
15C3
102
{ACAD_REACTORS
330
19
102
}
330
19
100
AcDbXrecord
280
     1
 90
        1
330
279
  0
DICTIONARY
  5
330
102
{ACAD_REACTORS
330
19
102
}
330
19
100
AcDbDictionary
281
     1
  3
CANNOSCALE
350
331
  3
CMLEADERSTYLE
350
D5E
  3
CTABLESTYLE
350
335
  3
HPTRANSPARENCY
350
D52
  3
XCLIPFRAME
350
896
  0
DICTIONARY
  5
27A
102
{ACAD_REACTORS
330
19
102
}
330
19
100
AcDbDictionary
281
     1
  0
DICTIONARY
  5
106D
102
{ACAD_REACTORS
330
19
102
}
330
19
100
AcDbDictionary
281
     1
  3
DIMRAILANGLE
350
1070
  3
DIMRAILFIRSTOFFSET
350
106E
  3
DIMRAILOFFSET
350
106F
  3
DIMRAILSENABLED
350
1071
  0
DICTIONARY
  5
2E2
102
{ACAD_REACTORS
330
2E1
102
}
330
2E1
100
AcDbDictionary
281
     1
  3
ARGON_LAYERP_9
350
7AA
  0
DICTIONARY
  5
DDE
102
{ACAD_REACTORS
330
2E1
102
}
330
2E1
100
AcDbDictionary
281
     1
1001
ACAD
1000
<All
  0
DIMASSOC
  5
FC6
102
{ACAD_REACTORS
330
FC5
102
}
330
FC5
100
AcDbDimAssoc
330
FC4
 90
        3
 70
     0
 71
     1
  1
AcDbOsnapPointRef
 72
     5
331
FC3
 73
     0
 91
        0
 40
1.570796326794897
 10
0.0
 20
0.0
 30
0.0
 75
     0
  1
AcDbOsnapPointRef
 72
     5
331
FC2
 73
     0
 91
        0
 40
1.570796326794897
 10
0.0
 20
0.0
 30
0.0
 75
     0
  0
DIMASSOC
  5
126F
102
{ACAD_REACTORS
330
126E
102
}
330
126E
100
AcDbDimAssoc
330
126D
 90
        3
 70
     0
 71
     1
  1
AcDbOsnapPointRef
 72
     2
331
F8C
 73
     0
 91
        0
 40
0.5000000000000772
 10
0.0
 20
0.0
 30
0.0
 75
     0
  1
AcDbOsnapPointRef
 72
     1
331
114C
 73
     0
 91
        0
 40
0.0
 10
0.0
 20
0.0
 30
0.0
 75
     0
  0
DIMASSOC
  5
13EF
102
{ACAD_REACTORS
330
13EE
102
}
330
13EE
100
AcDbDimAssoc
330
13ED
 90
        1
 70
     0
 71
     1
  1
AcDbOsnapPointRef
 72
    13
331
FD2
 73
     0
 91
        0
 40
0.0
 10
0.0
 20
0.0
 30
0.0
 75
     0
  0
DIMASSOC
  5
1480
102
{ACAD_REACTORS
330
147F
102
}
330
147F
100
AcDbDimAssoc
330
147E
 90
        3
 70
     0
 71
     1
  1
AcDbOsnapPointRef
 72
    13
331
FD1
 73
     0
 91
        0
 40
0.0
 10
0.0
 20
0.0
 30
0.0
 75
     0
  1
AcDbOsnapPointRef
 72
     1
331
13B7
 73
     0
 91
        0
 40
0.0
 10
0.0
 20
0.0
 30
0.0
 75
     0
  0
DICTIONARY
  5
15B2
102
{ACAD_REACTORS
330
15B1
102
}
330
15B1
100
AcDbDictionary
280
     1
281
     1
  3
TEXT
360
15B3
  0
LAYOUT
  5
21
102
{ACAD_REACTORS
330
1E
102
}
330
1E
100
AcDbPlotSettings
  1

  2
none_device
  4
ISO_A3_(420.00_x_297.00_MM)
  6

 40
7.5
 41
20.0
 42
7.5
 43
20.0
 44
420.0
 45
297.0
 46
0.0
 47
0.0
 48
0.0
 49
0.0
140
0.0
141
0.0
142
1.0
143
1.0
 70
     0
 72
     1
 73
     0
 74
     0
  7

 75
     0
 76
     0
 77
     2
 78
   300
147
1.0
148
0.0
149
0.0
100
AcDbLayout
  1
Layout1
 70
     0
 71
     0
 10
-7.5
 20
-20.0
 11
412.5
 21
277.0
 12
0.0
 22
0.0
 32
0.0
 14
0.0
 24
0.0
 34
0.0
 15
0.0
 25
0.0
 35
0.0
146
0.0
 13
0.0
 23
0.0
 33
0.0
 16
0.0
 26
0.0
 36
0.0
 17
0.0
 27
0.0
 37
0.0
 76
     0
330
B
331
349
  0
LAYOUT
  5
20
102
{ACAD_REACTORS
330
1E
102
}
330
1E
100
AcDbPlotSettings
  1

  2
none_device
  4
ISO_A3_(420.00_x_297.00_MM)
  6

 40
7.5
 41
20.0
 42
7.5
 43
20.0
 44
420.0
 45
297.0
 46
0.0
 47
0.0
 48
0.0
 49
0.0
140
0.0
141
0.0
142
1.0
143
1.0
 70
  1024
 72
     1
 73
     0
 74
     0
  7

 75
     0
 76
     0
 77
     2
 78
   300
147
1.0
148
0.0
149
0.0
100
AcDbLayout
  1
Model
 70
     0
 71
     1
 10
0.0
 20
0.0
 11
1050.0
 21
1485.0
 12
0.0
 22
0.0
 32
0.0
 14
0.0
 24
0.0
 34
0.0
 15
1050.0
 25
1485.0
 35
0.0000000000000142
146
0.0
 13
0.0
 23
0.0
 33
0.0
 16
0.0
 26
0.0
 36
0.0
 17
0.0
 27
0.0
 37
0.0
 76
     0
330
A
331
15
  0
MATERIAL
  5
265
102
{ACAD_REACTORS
330
263
102
}
330
263
100
AcDbMaterial
  1
ByBlock
 72
     1
 94
      127
  0
MATERIAL
  5
264
102
{ACAD_REACTORS
330
263
102
}
330
263
100
AcDbMaterial
  1
ByLayer
 72
     1
 94
      127
  0
MATERIAL
  5
266
102
{ACAD_REACTORS
330
263
102
}
330
263
100
AcDbMaterial
  1
Global
 72
     1
 94
      127
  0
MLEADERSTYLE
  5
D59
102
{ACAD_REACTORS
330
336
102
}
330
336
100
AcDbMLeaderStyle
170
     2
171
     1
172
     0
 90
        2
 40
0.0
 41
0.0
173
     1
 91
-1056964608
340
11
 92
       -2
290
     1
 42
2.0
291
     1
 43
8.0
  3
Standard
341
0
 44
4.0
300

342
17
174
     1
178
     6
175
     1
176
     0
 93
-1056964608
 45
4.0
292
     0
297
     0
 46
4.0
343
0
 94
-1056964608
 47
1.0
 49
1.0
140
1.0
293
     1
141
0.0
294
     1
177
     0
142
1.0
295
     0
296
     0
143
3.75
1001
ACAD_MLEADERVER
1070
     2
  0
MLINESTYLE
  5
1C
102
{ACAD_REACTORS
330
1B
102
}
330
1B
100
AcDbMlineStyle
  2
Standard
 70
     0
  3

 62
     0
 51
90.0
 52
90.0
 71
     2
 49
0.5
 62
   256
  6
BYLAYER
 49
-0.5
 62
   256
  6
BYLAYER
  0
ACDBPLACEHOLDER
  5
1D
102
{ACAD_REACTORS
330
1F
102
}
330
1F
  0
SCALE
  5
242
102
{ACAD_REACTORS
330
241
102
}
330
241
100
AcDbScale
 70
     0
300
1:1
140
1.0
141
1.0
290
     1
  0
SCALE
  5
243
102
{ACAD_REACTORS
330
241
102
}
330
241
100
AcDbScale
 70
     0
300
1:2
140
1.0
141
2.0
290
     0
  0
SCALE
  5
244
102
{ACAD_REACTORS
330
241
102
}
330
241
100
AcDbScale
 70
     0
300
1:4
140
1.0
141
4.0
290
     0
  0
SCALE
  5
245
102
{ACAD_REACTORS
330
241
102
}
330
241
100
AcDbScale
 70
     0
300
1:5
140
1.0
141
5.0
290
     0
  0
SCALE
  5
246
102
{ACAD_REACTORS
330
241
102
}
330
241
100
AcDbScale
 70
     0
300
1:8
140
1.0
141
8.0
290
     0
  0
SCALE
  5
247
102
{ACAD_REACTORS
330
241
102
}
330
241
100
AcDbScale
 70
     0
300
1:10
140
1.0
141
10.0
290
     0
  0
SCALE
  5
248
102
{ACAD_REACTORS
330
241
102
}
330
241
100
AcDbScale
 70
     0
300
1:16
140
1.0
141
16.0
290
     0
  0
SCALE
  5
249
102
{ACAD_REACTORS
330
241
102
}
330
241
100
AcDbScale
 70
     0
300
1:20
140
1.0
141
20.0
290
     0
  0
SCALE
  5
24A
102
{ACAD_REACTORS
330
241
102
}
330
241
100
AcDbScale
 70
     0
300
1:30
140
1.0
141
30.0
290
     0
  0
SCALE
  5
24B
102
{ACAD_REACTORS
330
241
102
}
330
241
100
AcDbScale
 70
     0
300
1:40
140
1.0
141
40.0
290
     0
  0
SCALE
  5
24C
102
{ACAD_REACTORS
330
241
102
}
330
241
100
AcDbScale
 70
     0
300
1:50
140
1.0
141
50.0
290
     0
  0
SCALE
  5
24D
102
{ACAD_REACTORS
330
241
102
}
330
241
100
AcDbScale
 70
     0
300
1:100
140
1.0
141
100.0
290
     0
  0
SCALE
  5
24E
102
{ACAD_REACTORS
330
241
102
}
330
241
100
AcDbScale
 70
     0
300
2:1
140
2.0
141
1.0
290
     0
  0
SCALE
  5
24F
102
{ACAD_REACTORS
330
241
102
}
330
241
100
AcDbScale
 70
     0
300
4:1
140
4.0
141
1.0
290
     0
  0
SCALE
  5
250
102
{ACAD_REACTORS
330
241
102
}
330
241
100
AcDbScale
 70
     0
300
8:1
140
8.0
141
1.0
290
     0
  0
SCALE
  5
251
102
{ACAD_REACTORS
330
241
102
}
330
241
100
AcDbScale
 70
     0
300
10:1
140
10.0
141
1.0
290
     0
  0
SCALE
  5
252
102
{ACAD_REACTORS
330
241
102
}
330
241
100
AcDbScale
 70
     0
300
100:1
140
100.0
141
1.0
290
     0
  0
SCALE
  5
253
102
{ACAD_REACTORS
330
241
102
}
330
241
100
AcDbScale
 70
     0
300
1/128" = 1'-0"
140
0.0078125
141
12.0
290
     0
  0
SCALE
  5
254
102
{ACAD_REACTORS
330
241
102
}
330
241
100
AcDbScale
 70
     0
300
1/64" = 1'-0"
140
0.015625
141
12.0
290
     0
  0
SCALE
  5
255
102
{ACAD_REACTORS
330
241
102
}
330
241
100
AcDbScale
 70
     0
300
1/32" = 1'-0"
140
0.03125
141
12.0
290
     0
  0
SCALE
  5
256
102
{ACAD_REACTORS
330
241
102
}
330
241
100
AcDbScale
 70
     0
300
1/16" = 1'-0"
140
0.0625
141
12.0
290
     0
  0
SCALE
  5
257
102
{ACAD_REACTORS
330
241
102
}
330
241
100
AcDbScale
 70
     0
300
3/32" = 1'-0"
140
0.09375
141
12.0
290
     0
  0
SCALE
  5
258
102
{ACAD_REACTORS
330
241
102
}
330
241
100
AcDbScale
 70
     0
300
1/8" = 1'-0"
140
0.125
141
12.0
290
     0
  0
SCALE
  5
259
102
{ACAD_REACTORS
330
241
102
}
330
241
100
AcDbScale
 70
     0
300
3/16" = 1'-0"
140
0.1875
141
12.0
290
     0
  0
SCALE
  5
25A
102
{ACAD_REACTORS
330
241
102
}
330
241
100
AcDbScale
 70
     0
300
1/4" = 1'-0"
140
0.25
141
12.0
290
     0
  0
SCALE
  5
25B
102
{ACAD_REACTORS
330
241
102
}
330
241
100
AcDbScale
 70
     0
300
3/8" = 1'-0"
140
0.375
141
12.0
290
     0
  0
SCALE
  5
25C
102
{ACAD_REACTORS
330
241
102
}
330
241
100
AcDbScale
 70
     0
300
1/2" = 1'-0"
140
0.5
141
12.0
290
     0
  0
SCALE
  5
25D
102
{ACAD_REACTORS
330
241
102
}
330
241
100
AcDbScale
 70
     0
300
3/4" = 1'-0"
140
0.75
141
12.0
290
     0
  0
SCALE
  5
25E
102
{ACAD_REACTORS
330
241
102
}
330
241
100
AcDbScale
 70
     0
300
1" = 1'-0"
140
1.0
141
12.0
290
     0
  0
SCALE
  5
25F
102
{ACAD_REACTORS
330
241
102
}
330
241
100
AcDbScale
 70
     0
300
1-1/2" = 1'-0"
140
1.5
141
12.0
290
     0
  0
SCALE
  5
260
102
{ACAD_REACTORS
330
241
102
}
330
241
100
AcDbScale
 70
     0
300
3" = 1'-0"
140
3.0
141
12.0
290
     0
  0
SCALE
  5
261
102
{ACAD_REACTORS
330
241
102
}
330
241
100
AcDbScale
 70
     0
300
6" = 1'-0"
140
6.0
141
12.0
290
     0
  0
SCALE
  5
262
102
{ACAD_REACTORS
330
241
102
}
330
241
100
AcDbScale
 70
     0
300
1'-0" = 1'-0"
140
12.0
141
12.0
290
     0
  0
TABLESTYLE
  5
279
102
{ACAD_REACTORS
330
278
102
}
102
{ACAD_XDICTIONARY
360
15C1
102
}
330
278
100
AcDbTableStyle
  3
Standard
 70
     0
 71
     0
 40
0.06
 41
0.06
280
     0
281
     0
  7
Standard
140
4.5
170
     2
 62
     0
 63
   257
283
     0
 90
        4
 91
        0
  1

274
    -2
284
     1
 64
     0
275
    -2
285
     1
 65
     0
276
    -2
286
     1
 66
     0
277
    -2
287
     1
 67
     0
278
    -2
288
     1
 68
     0
279
    -2
289
     1
 69
     0
  7
Standard
140
6.0
170
     5
 62
     0
 63
   257
283
     0
 90
        4
 91
        0
  1

274
    -2
284
     1
 64
     0
275
    -2
285
     1
 65
     0
276
    -2
286
     1
 66
     0
277
    -2
287
     1
 67
     0
278
    -2
288
     1
 68
     0
279
    -2
289
     1
 69
     0
  7
Standard
140
4.5
170
     5
 62
     0
 63
   257
283
     0
 90
        4
 91
        0
  1

274
    -2
284
     1
 64
     0
275
    -2
285
     1
 65
     0
276
    -2
286
     1
 66
     0
277
    -2
287
     1
 67
     0
278
    -2
288
     1
 68
     0
279
    -2
289
     1
 69
     0
  0
VISUALSTYLE
  5
26C
102
{ACAD_REACTORS
330
267
102
}
330
267
100
AcDbVisualStyle
  2
2dWireframe
 70
     4
 71
     0
 72
     2
 73
     0
 90
        0
 40
-0.6
 41
-30.0
 62
     5
 63
     7
421
 16777215
 74
     1
 91
        4
 64
     7
 65
   257
 75
     1
175
     1
 42
1.0
 92
        0
 66
   257
 43
1.0
 76
     1
 77
     6
 78
     2
 67
     7
 79
     5
170
     0
171
     0
290
     0
174
     0
 93
        1
 44
0.0
173
     0
291
     0
 45
0.0
  0
VISUALSTYLE
  5
26E
102
{ACAD_REACTORS
330
267
102
}
330
267
100
AcDbVisualStyle
  2
3D Hidden
 70
     6
 71
     1
 72
     2
 73
     2
 90
        0
 40
-0.6
 41
-30.0
 62
     5
 63
     7
421
 16777215
 74
     2
 91
        2
 64
     7
 65
   257
 75
     2
175
     1
 42
40.0
 92
        0
 66
   257
 43
1.0
 76
     1
 77
     6
 78
     2
 67
     7
 79
     3
170
     0
171
     0
290
     0
174
     0
 93
        1
 44
0.0
173
     0
291
     0
 45
0.0
  0
VISUALSTYLE
  5
26D
102
{ACAD_REACTORS
330
267
102
}
330
267
100
AcDbVisualStyle
  2
3dWireframe
 70
     5
 71
     0
 72
     2
 73
     0
 90
        0
 40
-0.6
 41
-30.0
 62
     5
 63
     7
421
 16777215
 74
     1
 91
        4
 64
     7
 65
   257
 75
     1
175
     1
 42
1.0
 92
        0
 66
   257
 43
1.0
 76
     1
 77
     6
 78
     2
 67
     7
 79
     5
170
     0
171
     0
290
     0
174
     0
 93
        1
 44
0.0
173
     0
291
     0
 45
0.0
  0
VISUALSTYLE
  5
26F
102
{ACAD_REACTORS
330
267
102
}
330
267
100
AcDbVisualStyle
  2
Basic
 70
     7
 71
     1
 72
     0
 73
     1
 90
        0
 40
-0.6
 41
-30.0
 62
     5
 63
     7
421
 16777215
 74
     0
 91
        4
 64
     7
 65
   257
 75
     1
175
     1
 42
1.0
 92
        8
 66
     7
 43
1.0
 76
     1
 77
     6
 78
     2
 67
     7
 79
     5
170
     0
171
     0
290
     0
174
     0
 93
        1
 44
0.0
173
     0
291
     1
 45
0.0
  0
VISUALSTYLE
  5
273
102
{ACAD_REACTORS
330
267
102
}
330
267
100
AcDbVisualStyle
  2
Brighten
 70
    12
 71
     2
 72
     2
 73
     0
 90
        0
 40
-0.6
 41
-30.0
 62
     5
 63
     7
421
 16777215
 74
     1
 91
        4
 64
     7
 65
   257
 75
     1
175
     1
 42
1.0
 92
        8
 66
     7
 43
1.0
 76
     1
 77
     6
 78
     2
 67
     7
 79
     5
170
     0
171
     0
290
     0
174
     0
 93
        1
 44
50.0
173
     0
291
     1
 45
0.0
  0
VISUALSTYLE
  5
277
102
{ACAD_REACTORS
330
267
102
}
330
267
100
AcDbVisualStyle
  2
ColorChange
 70
    16
 71
     2
 72
     2
 73
     3
 90
        0
 40
-0.6
 41
-30.0
 62
     5
 63
     8
421
  8421504
 74
     1
 91
        4
 64
     7
 65
   257
 75
     1
175
     1
 42
1.0
 92
        8
 66
     8
424
  8421504
 43
1.0
 76
     1
 77
     6
 78
     2
 67
     7
 79
     5
170
     0
171
     0
290
     0
174
     0
 93
        1
 44
0.0
173
     0
291
     1
 45
0.0
  0
VISUALSTYLE
  5
271
102
{ACAD_REACTORS
330
267
102
}
330
267
100
AcDbVisualStyle
  2
Conceptual
 70
     9
 71
     3
 72
     2
 73
     0
 90
        0
 40
-0.6
 41
-30.0
 62
     5
 63
     7
421
 16777215
 74
     2
 91
        2
 64
     7
 65
   257
 75
     1
175
     1
 42
40.0
 92
        8
 66
     7
 43
1.0
 76
     1
 77
     6
 78
     2
 67
     7
 79
     3
170
     0
171
     0
290
     0
174
     0
 93
        1
 44
0.0
173
     0
291
     0
 45
0.0
  0
VISUALSTYLE
  5
272
102
{ACAD_REACTORS
330
267
102
}
330
267
100
AcDbVisualStyle
  2
Dim
 70
    11
 71
     2
 72
     2
 73
     0
 90
        0
 40
-0.6
 41
-30.0
 62
     5
 63
     7
421
 16777215
 74
     1
 91
        4
 64
     7
 65
   257
 75
     1
175
     1
 42
1.0
 92
        8
 66
     7
 43
1.0
 76
     1
 77
     6
 78
     2
 67
     7
 79
     5
170
     0
171
     0
290
     0
174
     0
 93
        1
 44
-50.0
173
     0
291
     1
 45
0.0
  0
VISUALSTYLE
  5
8FE
102
{ACAD_REACTORS
330
267
102
}
330
267
100
AcDbVisualStyle
  2
EdgeColorOff
 70
    22
 71
     2
 72
     2
 73
     0
 90
        0
 40
0.6
 41
30.0
 62
     5
 63
     7
421
 16777215
 74
     1
 91
        4
 64
     7
 65
   257
 75
     1
175
     1
 42
1.0
 92
        8
 66
     7
 43
1.0
 76
     1
 77
     6
 78
     2
 67
     7
 79
     5
170
     0
171
     0
290
     0
174
     0
 93
        1
 44
0.0
173
     0
291
     1
 45
0.0
  0
VISUALSTYLE
  5
276
102
{ACAD_REACTORS
330
267
102
}
330
267
100
AcDbVisualStyle
  2
Facepattern
 70
    15
 71
     2
 72
     2
 73
     0
 90
        0
 40
-0.6
 41
-30.0
 62
     5
 63
     7
421
 16777215
 74
     1
 91
        4
 64
     7
 65
   257
 75
     1
175
     1
 42
1.0
 92
        8
 66
     7
 43
1.0
 76
     1
 77
     6
 78
     2
 67
     7
 79
     5
170
     0
171
     0
290
     0
174
     0
 93
        1
 44
0.0
173
     0
291
     1
 45
0.0
  0
VISUALSTYLE
  5
268
102
{ACAD_REACTORS
330
267
102
}
330
267
100
AcDbVisualStyle
  2
Flat
 70
     0
 71
     2
 72
     1
 73
     1
 90
        2
 40
-0.6
 41
30.0
 62
     5
 63
     7
421
 16777215
 74
     0
 91
        4
 64
     7
 65
   257
 75
     1
175
     1
 42
1.0
 92
        8
 66
     7
 43
1.0
 76
     1
 77
     6
 78
     2
 67
     7
 79
     5
170
     0
171
     0
290
     0
174
     0
 93
       13
 44
0.0
173
     0
291
     1
 45
0.0
  0
VISUALSTYLE
  5
269
102
{ACAD_REACTORS
330
267
102
}
330
267
100
AcDbVisualStyle
  2
FlatWithEdges
 70
     1
 71
     2
 72
     1
 73
     1
 90
        2
 40
-0.6
 41
30.0
 62
     5
 63
     7
421
 16777215
 74
     1
 91
        4
 64
     7
 65
   257
 75
     1
175
     1
 42
1.0
 92
        0
 66
   257
 43
1.0
 76
     1
 77
     6
 78
     2
 67
     7
 79
     5
170
     0
171
     0
290
     0
174
     0
 93
       13
 44
0.0
173
     0
291
     1
 45
0.0
  0
VISUALSTYLE
  5
26A
102
{ACAD_REACTORS
330
267
102
}
330
267
100
AcDbVisualStyle
  2
Gouraud
 70
     2
 71
     2
 72
     2
 73
     1
 90
        2
 40
-0.6
 41
30.0
 62
     5
 63
     7
421
 16777215
 74
     0
 91
        4
 64
     7
 65
   257
 75
     1
175
     1
 42
1.0
 92
        0
 66
     7
 43
1.0
 76
     1
 77
     6
 78
     2
 67
     7
 79
     5
170
     0
171
     0
290
     0
174
     0
 93
       13
 44
0.0
173
     0
291
     1
 45
0.0
  0
VISUALSTYLE
  5
26B
102
{ACAD_REACTORS
330
267
102
}
330
267
100
AcDbVisualStyle
  2
GouraudWithEdges
 70
     3
 71
     2
 72
     2
 73
     1
 90
        2
 40
-0.6
 41
30.0
 62
     5
 63
     7
421
 16777215
 74
     1
 91
        4
 64
     7
 65
   257
 75
     1
175
     1
 42
1.0
 92
        0
 66
   257
 43
1.0
 76
     1
 77
     6
 78
     2
 67
     7
 79
     5
170
     0
171
     0
290
     0
174
     0
 93
       13
 44
0.0
173
     0
291
     1
 45
0.0
  0
VISUALSTYLE
  5
8FB
102
{ACAD_REACTORS
330
267
102
}
330
267
100
AcDbVisualStyle
  2
Hidden
 70
     6
 71
     1
 72
     2
 73
     2
 90
        0
 40
0.6
 41
30.0
 62
     5
 63
     7
421
 16777215
 74
     2
 91
        2
 64
     7
 65
   257
 75
     2
175
     1
 42
40.0
 92
        0
 66
   257
 43
1.0
 76
     1
 77
     6
 78
     2
 67
     7
 79
     3
170
     0
171
     0
290
     0
174
     0
 93
        1
 44
0.0
173
     0
291
     0
 45
0.0
  0
VISUALSTYLE
  5
8FC
102
{ACAD_REACTORS
330
267
102
}
330
267
100
AcDbVisualStyle
  2
JitterOff
 70
    20
 71
     2
 72
     2
 73
     0
 90
        0
 40
0.6
 41
30.0
 62
     5
 63
     7
421
 16777215
 74
     1
 91
        4
 64
     7
 65
   257
 75
     1
175
     1
 42
1.0
 92
       10
 66
     7
 43
1.0
 76
     1
 77
     6
 78
     2
 67
     7
 79
     5
170
     0
171
     0
290
     0
174
     0
 93
        1
 44
0.0
173
     0
291
     1
 45
0.0
  0
VISUALSTYLE
  5
275
102
{ACAD_REACTORS
330
267
102
}
330
267
100
AcDbVisualStyle
  2
Linepattern
 70
    14
 71
     2
 72
     2
 73
     0
 90
        0
 40
-0.6
 41
-30.0
 62
     5
 63
     7
421
 16777215
 74
     1
 91
        4
 64
     7
 65
   257
 75
     7
175
     7
 42
1.0
 92
        8
 66
     7
 43
1.0
 76
     1
 77
     6
 78
     2
 67
     7
 79
     5
170
     0
171
     0
290
     0
174
     0
 93
        1
 44
0.0
173
     0
291
     1
 45
0.0
  0
VISUALSTYLE
  5
8FD
102
{ACAD_REACTORS
330
267
102
}
330
267
100
AcDbVisualStyle
  2
OverhangOff
 70
    21
 71
     2
 72
     2
 73
     0
 90
        0
 40
0.6
 41
30.0
 62
     5
 63
     7
421
 16777215
 74
     1
 91
        4
 64
     7
 65
   257
 75
     1
175
     1
 42
1.0
 92
        9
 66
     7
 43
1.0
 76
     1
 77
     6
 78
     2
 67
     7
 79
     5
170
     0
171
     0
290
     0
174
     0
 93
        1
 44
0.0
173
     0
291
     1
 45
0.0
  0
VISUALSTYLE
  5
270
102
{ACAD_REACTORS
330
267
102
}
330
267
100
AcDbVisualStyle
  2
Realistic
 70
     8
 71
     2
 72
     2
 73
     0
 90
        0
 40
-0.6
 41
-30.0
 62
     5
 63
     7
421
 16777215
 74
     1
 91
        0
 64
     7
 65
   257
 75
     1
175
     1
 42
1.0
 92
        8
 66
     8
424
  7895160
 43
1.0
 76
     1
 77
     6
 78
     2
 67
     7
 79
     5
170
     0
171
     0
290
     0
174
     0
 93
       13
 44
0.0
173
     0
291
     0
 45
0.0
  0
VISUALSTYLE
  5
903
102
{ACAD_REACTORS
330
267
102
}
330
267
100
AcDbVisualStyle
  2
Shaded
 70
    27
 71
     2
 72
     2
 73
     1
 90
        2
 40
0.6
 41
30.0
 62
     5
 63
     7
421
 16777215
 74
     0
 91
        4
 64
     7
 65
   257
 75
     1
175
     1
 42
1.0
 92
        8
 66
   257
 43
1.0
 76
     1
 77
     6
 78
     2
 67
     8
425
  7895160
 79
     3
170
     0
171
     0
290
     0
174
     0
 93
        5
 44
0.0
173
     0
291
     0
 45
0.0
  0
VISUALSTYLE
  5
902
102
{ACAD_REACTORS
330
267
102
}
330
267
100
AcDbVisualStyle
  2
Shaded with edges
 70
    26
 71
     2
 72
     2
 73
     1
 90
        2
 40
0.6
 41
30.0
 62
     5
 63
     7
421
 16777215
 74
     1
 91
       10
 64
     7
 65
   257
 75
     2
175
     1
 42
1.0
 92
        8
 66
   257
 43
1.0
 76
     1
 77
     6
 78
     2
 67
     7
 79
     3
170
     0
171
     0
290
     0
174
     0
 93
        5
 44
0.0
173
     0
291
     0
 45
0.0
  0
VISUALSTYLE
  5
8FF
102
{ACAD_REACTORS
330
267
102
}
330
267
100
AcDbVisualStyle
  2
Shades of Gray
 70
    23
 71
     2
 72
     2
 73
     3
 90
        0
 40
0.6
 41
30.0
 62
     5
 63
     7
421
 16777215
 74
     2
 91
        2
 64
     7
 65
     7
 75
     1
175
     1
 42
40.0
 92
        8
 66
     7
 43
1.0
 76
     1
 77
     6
 78
     2
 67
     7
 79
     3
170
     0
171
     0
290
     0
174
     0
 93
        1
 44
0.0
173
     0
291
     0
 45
0.0
  0
VISUALSTYLE
  5
900
102
{ACAD_REACTORS
330
267
102
}
330
267
100
AcDbVisualStyle
  2
Sketchy
 70
    24
 71
     1
 72
     2
 73
     2
 90
        0
 40
0.6
 41
30.0
 62
     5
 63
     7
421
 16777215
 74
     2
 91
        2
 64
     7
 65
     7
 75
     1
175
     1
 42
40.0
 92
       11
 66
     7
 43
1.0
 76
     1
 77
     6
 78
     2
 67
     7
 79
     6
170
     0
171
     0
290
     0
174
     0
 93
        1
 44
0.0
173
     0
291
     0
 45
0.0
  0
VISUALSTYLE
  5
274
102
{ACAD_REACTORS
330
267
102
}
330
267
100
AcDbVisualStyle
  2
Thicken
 70
    13
 71
     2
 72
     2
 73
     0
 90
        0
 40
-0.6
 41
-30.0
 62
     5
 63
     7
421
 16777215
 74
     1
 91
        4
 64
     7
 65
   257
 75
     1
175
     1
 42
1.0
 92
       12
 66
     7
 43
1.0
 76
     1
 77
     6
 78
     2
 67
     7
 79
     5
170
     0
171
     0
290
     0
174
     0
 93
        1
 44
0.0
173
     0
291
     1
 45
0.0
  0
VISUALSTYLE
  5
8FA
102
{ACAD_REACTORS
330
267
102
}
330
267
100
AcDbVisualStyle
  2
Wireframe
 70
     5
 71
     0
 72
     2
 73
     0
 90
        0
 40
0.6
 41
30.0
 62
     5
 63
     7
421
 16777215
 74
     1
 91
        4
 64
     7
 65
   257
 75
     1
175
     1
 42
1.0
 92
        0
 66
   257
 43
1.0
 76
     1
 77
     6
 78
     2
 67
     7
 79
     3
170
     0
171
     0
290
     0
174
     0
 93
        1
 44
0.0
173
     0
291
     0
 45
0.0
  0
VISUALSTYLE
  5
901
102
{ACAD_REACTORS
330
267
102
}
330
267
100
AcDbVisualStyle
  2
X-Ray
 70
    25
 71
     2
 72
     2
 73
     1
 90
        1
 40
0.5
 41
30.0
 62
     5
 63
     7
421
 16777215
 74
     1
 91
        0
 64
     7
 65
   257
 75
     1
175
     1
 42
1.0
 92
        8
 66
     7
 43
1.0
 76
     1
 77
     6
 78
     2
 67
     7
 79
     3
170
     0
171
     0
290
     0
174
     0
 93
       13
 44
0.0
173
     0
291
     0
 45
0.0
  0
DICTIONARYVAR
  5
331
102
{ACAD_REACTORS
330
330
102
}
330
330
100
DictionaryVariables
280
     0
  1
1:1
  0
DICTIONARYVAR
  5
D5E
102
{ACAD_REACTORS
330
330
102
}
330
330
100
DictionaryVariables
280
     0
  1
Standard
  0
DICTIONARYVAR
  5
335
102
{ACAD_REACTORS
330
330
102
}
330
330
100
DictionaryVariables
280
     0
  1
Standard
  0
DICTIONARYVAR
  5
D52
102
{ACAD_REACTORS
330
330
102
}
330
330
100
DictionaryVariables
280
     0
  1
ByLayer
  0
DICTIONARYVAR
  5
896
102
{ACAD_REACTORS
330
330
102
}
330
330
100
DictionaryVariables
280
     0
  1
0
  0
DICTIONARYVAR
  5
1070
102
{ACAD_REACTORS
330
106D
102
}
330
106D
100
DictionaryVariables
280
     0
  1
0.261799
  0
DICTIONARYVAR
  5
106E
102
{ACAD_REACTORS
330
106D
102
}
330
106D
100
DictionaryVariables
280
     0
  1
0.400000
  0
DICTIONARYVAR
  5
106F
102
{ACAD_REACTORS
330
106D
102
}
330
106D
100
DictionaryVariables
280
     0
  1
0.250000
  0
DICTIONARYVAR
  5
1071
102
{ACAD_REACTORS
330
106D
102
}
330
106D
100
DictionaryVariables
280
     0
  1
1
  0
XRECORD
  5
7AA
102
{ACAD_REACTORS
330
2E2
102
}
330
2E2
100
AcDbXrecord
280
     1
 91
    34815
301

290
     0
302
HIDDEN
330
14
 90
        8
 62
     7
370
    -3
331
13
  1
Color_7
440
 33554687
330
4B
 90
        8
 62
     7
370
    20
331
13
  1
Color_7
440
 33554687
330
4C
 90
        8
 62
     3
370
    13
331
13
  1
Color_3
440
 33554687
330
4D
 90
        8
 62
     7
370
    20
331
13
  1
Color_7
440
 33554687
330
667
 90
        8
 62
     7
370
    -3
331
13
  1
Color_7
440
 33554687
330
88C
 90
        8
 62
     8
370
    20
331
D6D
  1
Color_8
440
 33554687
330
D6B
 90
        0
 62
     4
370
    20
331
D6C
  1
Color_4
440
 33554687
330
D8C
 90
        0
 62
     7
370
    -3
331
13
  1
Color_7
440
 33554687
  0
FIELD
  5
15B3
102
{ACAD_REACTORS
330
15B2
102
}
330
15B2
100
AcDbField
  1
_text
  2
{%<\_FldIdx 0>%N}
 90
        1
360
15B4
 97
        0
 91
       63
 92
        0
 94
        8
 95
        2
 96
        0
300

 93
        1
  6
ACFD_FIELDTEXT_CHECKSUM
 93
        2
 90
        2
140
4567.0
 94
        0
300

302

304
ACVALUE_END
  7
ACFD_FIELD_VALUE
 93
        6
 90
        4
  1
{20160629N}
 94
        0
300

302

304
ACVALUE_END
301
{20160629N}
 98
       11
  0
DICTIONARY
  5
15C1
330
279
100
AcDbDictionary
280
     1
281
     1
  3
ACAD_ROUNDTRIP_2008_TABLESTYLE_CELLSTYLEMAP
360
15C2
  0
FIELD
  5
15B4
330
15B3
100
AcDbField
  1
AcVar
  2
\AcVar CreateDate \f "yyyyMMdd"
 90
        0
 97
        0
 91
       63
 92
        0
 94
        8
 95
        2
 96
        0
300

 93
        1
  6
Variable
 93
        2
 90
        4
  1
CreateDate
 94
        0
300

302

304
ACVALUE_END
  7
ACFD_FIELD_VALUE
 93
        6
 90
        8
 92
       16
310
E007060000001D00070006001D000000
 94
        0
300
yyyyMMdd
302

304
ACVALUE_END
301
20160629
 98
        8
  0
CELLSTYLEMAP
  5
15C2
102
{ACAD_REACTORS
330
15C1
102
}
330
15C1
100
AcDbCellStyleMap
 90
        3
300
CELLSTYLE
  1
TABLEFORMAT_BEGIN
 90
        5
170
     1
 91
        0
 92
    32768
 62
   257
 93
        1
300
CONTENTFORMAT
  1
CONTENTFORMAT_BEGIN
 90
        0
 91
        0
 92
        4
 93
        0
300

 40
0.0
140
1.0
 94
        5
 62
     0
340
17
144
6.0
309
CONTENTFORMAT_END
171
     1
301
MARGIN
  1
CELLMARGIN_BEGIN
 40
0.06
 40
0.06
 40
0.06
 40
0.06
 40
0.18
 40
0.18
309
CELLMARGIN_END
 94
        6
 95
        1
302
GRIDFORMAT
  1
GRIDFORMAT_BEGIN
 90
        0
 91
        1
 62
     0
 92
       -2
340
0
 93
        0
 40
0.045
309
GRIDFORMAT_END
 95
        2
302
GRIDFORMAT
  1
GRIDFORMAT_BEGIN
 90
        0
 91
        1
 62
     0
 92
       -2
340
0
 93
        0
 40
0.045
309
GRIDFORMAT_END
 95
        4
302
GRIDFORMAT
  1
GRIDFORMAT_BEGIN
 90
        0
 91
        1
 62
     0
 92
       -2
340
0
 93
        0
 40
0.045
309
GRIDFORMAT_END
 95
        8
302
GRIDFORMAT
  1
GRIDFORMAT_BEGIN
 90
        0
 91
        1
 62
     0
 92
       -2
340
0
 93
        0
 40
0.045
309
GRIDFORMAT_END
 95
       16
302
GRIDFORMAT
  1
GRIDFORMAT_BEGIN
 90
        0
 91
        1
 62
     0
 92
       -2
340
0
 93
        0
 40
0.045
309
GRIDFORMAT_END
 95
       32
302
GRIDFORMAT
  1
GRIDFORMAT_BEGIN
 90
        0
 91
        1
 62
     0
 92
       -2
340
0
 93
        0
 40
0.045
309
GRIDFORMAT_END
309
TABLEFORMAT_END
  1
CELLSTYLE_BEGIN
 90
        1
 91
        1
300
_TITLE
309
CELLSTYLE_END
300
CELLSTYLE
  1
TABLEFORMAT_BEGIN
 90
        5
170
     1
 91
        0
 92
        0
 62
   257
 93
        1
300
CONTENTFORMAT
  1
CONTENTFORMAT_BEGIN
 90
        0
 91
        0
 92
        4
 93
        0
300

 40
0.0
140
1.0
 94
        5
 62
     0
340
17
144
4.5
309
CONTENTFORMAT_END
171
     1
301
MARGIN
  1
CELLMARGIN_BEGIN
 40
0.06
 40
0.06
 40
0.06
 40
0.06
 40
0.18
 40
0.18
309
CELLMARGIN_END
 94
        6
 95
        1
302
GRIDFORMAT
  1
GRIDFORMAT_BEGIN
 90
        0
 91
        1
 62
     0
 92
       -2
340
0
 93
        0
 40
0.045
309
GRIDFORMAT_END
 95
        2
302
GRIDFORMAT
  1
GRIDFORMAT_BEGIN
 90
        0
 91
        1
 62
     0
 92
       -2
340
0
 93
        0
 40
0.045
309
GRIDFORMAT_END
 95
        4
302
GRIDFORMAT
  1
GRIDFORMAT_BEGIN
 90
        0
 91
        1
 62
     0
 92
       -2
340
0
 93
        0
 40
0.045
309
GRIDFORMAT_END
 95
        8
302
GRIDFORMAT
  1
GRIDFORMAT_BEGIN
 90
        0
 91
        1
 62
     0
 92
       -2
340
0
 93
        0
 40
0.045
309
GRIDFORMAT_END
 95
       16
302
GRIDFORMAT
  1
GRIDFORMAT_BEGIN
 90
        0
 91
        1
 62
     0
 92
       -2
340
0
 93
        0
 40
0.045
309
GRIDFORMAT_END
 95
       32
302
GRIDFORMAT
  1
GRIDFORMAT_BEGIN
 90
        0
 91
        1
 62
     0
 92
       -2
340
0
 93
        0
 40
0.045
309
GRIDFORMAT_END
309
TABLEFORMAT_END
  1
CELLSTYLE_BEGIN
 90
        2
 91
        1
300
_HEADER
309
CELLSTYLE_END
300
CELLSTYLE
  1
TABLEFORMAT_BEGIN
 90
        5
170
     1
 91
        0
 92
        0
 62
   257
 93
        1
300
CONTENTFORMAT
  1
CONTENTFORMAT_BEGIN
 90
        0
 91
        0
 92
        4
 93
        0
300

 40
0.0
140
1.0
 94
        2
 62
     0
340
17
144
4.5
309
CONTENTFORMAT_END
171
     1
301
MARGIN
  1
CELLMARGIN_BEGIN
 40
0.06
 40
0.06
 40
0.06
 40
0.06
 40
0.18
 40
0.18
309
CELLMARGIN_END
 94
        6
 95
        1
302
GRIDFORMAT
  1
GRIDFORMAT_BEGIN
 90
        0
 91
        1
 62
     0
 92
       -2
340
0
 93
        0
 40
0.045
309
GRIDFORMAT_END
 95
        2
302
GRIDFORMAT
  1
GRIDFORMAT_BEGIN
 90
        0
 91
        1
 62
     0
 92
       -2
340
0
 93
        0
 40
0.045
309
GRIDFORMAT_END
 95
        4
302
GRIDFORMAT
  1
GRIDFORMAT_BEGIN
 90
        0
 91
        1
 62
     0
 92
       -2
340
0
 93
        0
 40
0.045
309
GRIDFORMAT_END
 95
        8
302
GRIDFORMAT
  1
GRIDFORMAT_BEGIN
 90
        0
 91
        1
 62
     0
 92
       -2
340
0
 93
        0
 40
0.045
309
GRIDFORMAT_END
 95
       16
302
GRIDFORMAT
  1
GRIDFORMAT_BEGIN
 90
        0
 91
        1
 62
     0
 92
       -2
340
0
 93
        0
 40
0.045
309
GRIDFORMAT_END
 95
       32
302
GRIDFORMAT
  1
GRIDFORMAT_BEGIN
 90
        0
 91
        1
 62
     0
 92
       -2
340
0
 93
        0
 40
0.045
309
GRIDFORMAT_END
309
TABLEFORMAT_END
  1
CELLSTYLE_BEGIN
 90
        3
 91
        2
300
_DATA
309
CELLSTYLE_END
  0
ENDSEC
  0
EOF
