  0
SECTION
  2
HEADER
  9
$ACADVER
  1
AC1021
  9
$ACADMAINTVER
 70
    25
  9
$DWGCODEPAGE
  3
ANSI_932
  9
$LASTSAVEDBY
  1
howeNelson
  9
$INSBASE
 10
0.0
 20
0.0
 30
0.0
  9
$EXTMIN
 10
0.0
 20
0.0
 30
-0.0000000000000071
  9
$EXTMAX
 10
2100.0
 20
2970.000000000002
 30
0.0000000000000071
  9
$LIMMIN
 10
0.0
 20
0.0
  9
$LIMMAX
 10
2100.0
 20
2970.0
  9
$ORTHOMODE
 70
     0
  9
$REGENMODE
 70
     1
  9
$FILLMODE
 70
     1
  9
$QTEXTMODE
 70
     0
  9
$MIRRTEXT
 70
     1
  9
$LTSCALE
 40
50.8
  9
$ATTMODE
 70
     1
  9
$TEXTSIZE
 40
2.5
  9
$TRACEWID
 40
1.0
  9
$TEXTSTYLE
  7
ＭＳ ゴシック
  9
$CLAYER
  8
DIM
  9
$CELTYPE
  6
Continuous
  9
$CECOLOR
 62
   256
  9
$CELTSCALE
 40
1.0
  9
$DISPSILH
 70
     0
  9
$DIMSCALE
 40
1.0
  9
$DIMASZ
 40
5.0
  9
$DIMEXO
 40
10.0
  9
$DIMDLI
 40
0.9999999999999999
  9
$DIMRND
 40
0.0
  9
$DIMDLE
 40
0.0
  9
$DIMEXE
 40
0.0
  9
$DIMTP
 40
0.0
  9
$DIMTM
 40
0.0
  9
$DIMTXT
 40
24.0
  9
$DIMCEN
 40
0.0
  9
$DIMTSZ
 40
0.0
  9
$DIMTOL
 70
     0
  9
$DIMLIM
 70
     0
  9
$DIMTIH
 70
     0
  9
$DIMTOH
 70
     0
  9
$DIMSE1
 70
     0
  9
$DIMSE2
 70
     0
  9
$DIMTAD
 70
     1
  9
$DIMZIN
 70
    11
  9
$DIMBLK
  1
DOT
  9
$DIMASO
 70
     1
  9
$DIMSHO
 70
     1
  9
$DIMPOST
  1
<>
  9
$DIMAPOST
  1
[]
  9
$DIMALT
 70
     0
  9
$DIMALTD
 70
     1
  9
$DIMALTF
 40
1.0
  9
$DIMLFAC
 40
1.0
  9
$DIMTOFL
 70
     0
  9
$DIMTVP
 40
0.0
  9
$DIMTIX
 70
     1
  9
$DIMSOXD
 70
     0
  9
$DIMSAH
 70
     0
  9
$DIMBLK1
  1

  9
$DIMBLK2
  1

  9
$DIMSTYLE
  2
tfrom線あり
  9
$DIMCLRD
 70
     0
  9
$DIMCLRE
 70
     0
  9
$DIMCLRT
 70
     0
  9
$DIMTFAC
 40
1.0
  9
$DIMGAP
 40
20.0
  9
$DIMJUST
 70
     0
  9
$DIMSD1
 70
     0
  9
$DIMSD2
 70
     0
  9
$DIMTOLJ
 70
     1
  9
$DIMTZIN
 70
    11
  9
$DIMALTZ
 70
    11
  9
$DIMALTTZ
 70
    11
  9
$DIMUPT
 70
     0
  9
$DIMDEC
 70
     0
  9
$DIMTDEC
 70
     1
  9
$DIMALTU
 70
     2
  9
$DIMALTTD
 70
     2
  9
$DIMTXSTY
  7
ＭＳ ゴシック
  9
$DIMAUNIT
 70
     0
  9
$DIMADEC
 70
     2
  9
$DIMALTRND
 40
0.0
  9
$DIMAZIN
 70
     0
  9
$DIMDSEP
 70
    46
  9
$DIMATFIT
 70
     0
  9
$DIMFRAC
 70
     2
  9
$DIMLDRBLK
  1
DOT
  9
$DIMLUNIT
 70
     2
  9
$DIMLWD
 70
    -2
  9
$DIMLWE
 70
    -2
  9
$DIMTMOVE
 70
     0
  9
$DIMFXL
 40
1.0
  9
$DIMFXLON
 70
     0
  9
$DIMJOGANG
 40
0.7853981633974483
  9
$DIMTFILL
 70
     0
  9
$DIMTFILLCLR
 70
     0
  9
$DIMARCSYM
 70
     0
  9
$DIMLTYPE
  6

  9
$DIMLTEX1
  6

  9
$DIMLTEX2
  6

  9
$LUNITS
 70
     2
  9
$LUPREC
 70
     0
  9
$SKETCHINC
 40
0.1
  9
$FILLETRAD
 40
0.0
  9
$AUNITS
 70
     0
  9
$AUPREC
 70
     0
  9
$MENU
  1
acad
  9
$ELEVATION
 40
0.0
  9
$PELEVATION
 40
0.0
  9
$THICKNESS
 40
0.0
  9
$LIMCHECK
 70
     0
  9
$CHAMFERA
 40
0.0
  9
$CHAMFERB
 40
0.0
  9
$CHAMFERC
 40
0.0
  9
$CHAMFERD
 40
0.0
  9
$SKPOLY
 70
     0
  9
$TDCREATE
 40
2447893.375
  9
$TDUCREATE
 40
0.0
  9
$TDUPDATE
 40
2457554.732324699
  9
$TDUUPDATE
 40
2457554.357324699
  9
$TDINDWG
 40
0.0001238657
  9
$TDUSRTIMER
 40
2457554.357288518
  9
$USRTIMER
 70
     1
  9
$ANGBASE
 50
0.0
  9
$ANGDIR
 70
     0
  9
$PDMODE
 70
     1
  9
$PDSIZE
 40
-2.0
  9
$PLINEWID
 40
0.0
  9
$SPLFRAME
 70
     0
  9
$SPLINETYPE
 70
     6
  9
$SPLINESEGS
 70
     8
  9
$HANDSEED
  5
1499
  9
$SURFTAB1
 70
     6
  9
$SURFTAB2
 70
     6
  9
$SURFTYPE
 70
     6
  9
$SURFU
 70
     6
  9
$SURFV
 70
     6
  9
$UCSBASE
  2

  9
$UCSNAME
  2

  9
$UCSORG
 10
0.0
 20
0.0
 30
0.0
  9
$UCSXDIR
 10
1.0
 20
0.0
 30
0.0
  9
$UCSYDIR
 10
0.0
 20
1.0
 30
0.0
  9
$UCSORTHOREF
  2

  9
$UCSORTHOVIEW
 70
     0
  9
$UCSORGTOP
 10
0.0
 20
0.0
 30
0.0
  9
$UCSORGBOTTOM
 10
0.0
 20
0.0
 30
0.0
  9
$UCSORGLEFT
 10
0.0
 20
0.0
 30
0.0
  9
$UCSORGRIGHT
 10
0.0
 20
0.0
 30
0.0
  9
$UCSORGFRONT
 10
0.0
 20
0.0
 30
0.0
  9
$UCSORGBACK
 10
0.0
 20
0.0
 30
0.0
  9
$PUCSBASE
  2

  9
$PUCSNAME
  2

  9
$PUCSORG
 10
0.0
 20
0.0
 30
0.0
  9
$PUCSXDIR
 10
1.0
 20
0.0
 30
0.0
  9
$PUCSYDIR
 10
0.0
 20
1.0
 30
0.0
  9
$PUCSORTHOREF
  2

  9
$PUCSORTHOVIEW
 70
     0
  9
$PUCSORGTOP
 10
0.0
 20
0.0
 30
0.0
  9
$PUCSORGBOTTOM
 10
0.0
 20
0.0
 30
0.0
  9
$PUCSORGLEFT
 10
0.0
 20
0.0
 30
0.0
  9
$PUCSORGRIGHT
 10
0.0
 20
0.0
 30
0.0
  9
$PUCSORGFRONT
 10
0.0
 20
0.0
 30
0.0
  9
$PUCSORGBACK
 10
0.0
 20
0.0
 30
0.0
  9
$USERI1
 70
     0
  9
$USERI2
 70
     0
  9
$USERI3
 70
     0
  9
$USERI4
 70
     0
  9
$USERI5
 70
     0
  9
$USERR1
 40
0.0
  9
$USERR2
 40
0.0
  9
$USERR3
 40
0.0
  9
$USERR4
 40
0.0
  9
$USERR5
 40
0.0
  9
$WORLDVIEW
 70
     1
  9
$SHADEDGE
 70
     3
  9
$SHADEDIF
 70
    70
  9
$TILEMODE
 70
     1
  9
$MAXACTVP
 70
    64
  9
$PINSBASE
 10
0.0
 20
0.0
 30
0.0
  9
$PLIMCHECK
 70
     0
  9
$PEXTMIN
 10
0.0
 20
0.0
 30
0.0
  9
$PEXTMAX
 10
0.0
 20
0.0
 30
0.0
  9
$PLIMMIN
 10
-95.87226993865028
 20
-25.69999999999999
  9
$PLIMMAX
 10
201.1277300613497
 20
184.3
  9
$UNITMODE
 70
     0
  9
$VISRETAIN
 70
     0
  9
$PLINEGEN
 70
     1
  9
$PSLTSCALE
 70
     0
  9
$TREEDEPTH
 70
  3020
  9
$CMLSTYLE
  2
Standard
  9
$CMLJUST
 70
     0
  9
$CMLSCALE
 40
1.0
  9
$PROXYGRAPHICS
 70
     0
  9
$MEASUREMENT
 70
     1
  9
$CELWEIGHT
370
    -1
  9
$ENDCAPS
280
     0
  9
$JOINSTYLE
280
     0
  9
$LWDISPLAY
290
     1
  9
$INSUNITS
 70
     4
  9
$HYPERLINKBASE
  1

  9
$STYLESHEET
  1

  9
$XEDIT
290
     1
  9
$CEPSNTYPE
380
     0
  9
$PSTYLEMODE
290
     1
  9
$FINGERPRINTGUID
  2

  9
$VERSIONGUID
  2

  9
$EXTNAMES
290
     1
  9
$PSVPSCALE
 40
0.0
  9
$OLESTARTUP
290
     0
  9
$SORTENTS
280
   127
  9
$INDEXCTL
280
     0
  9
$HIDETEXT
280
     1
  9
$XCLIPFRAME
290
     0
  9
$HALOGAP
280
     0
  9
$OBSCOLOR
 70
   257
  9
$OBSLTYPE
280
     0
  9
$INTERSECTIONDISPLAY
280
     0
  9
$INTERSECTIONCOLOR
 70
   257
  9
$DIMASSOC
280
     2
  9
$PROJECTNAME
  1

  9
$CAMERADISPLAY
290
     0
  9
$LENSLENGTH
 40
50.0
  9
$CAMERAHEIGHT
 40
0.0
  9
$STEPSPERSEC
 40
2.0
  9
$STEPSIZE
 40
6.0
  9
$3DDWFPREC
 40
2.0
  9
$PSOLWIDTH
 40
0.25
  9
$PSOLHEIGHT
 40
4.0
  9
$LOFTANG1
 40
1.570796326794897
  9
$LOFTANG2
 40
1.570796326794897
  9
$LOFTMAG1
 40
0.0
  9
$LOFTMAG2
 40
0.0
  9
$LOFTPARAM
 70
     7
  9
$LOFTNORMALS
280
     1
  9
$LATITUDE
 40
37.795
  9
$LONGITUDE
 40
-122.394
  9
$NORTHDIRECTION
 40
0.0
  9
$TIMEZONE
 70
 -8000
  9
$LIGHTGLYPHDISPLAY
280
     1
  9
$TILEMODELIGHTSYNCH
280
     1
  9
$SOLIDHIST
280
     1
  9
$SHOWHIST
280
     1
  9
$DWFFRAME
280
     2
  9
$DGNFRAME
280
     2
  9
$REALWORLDSCALE
290
     1
  9
$INTERFERECOLOR
 62
   256
  9
$CSHADOW
280
     0
  9
$SHADOWPLANELOCATION
 40
0.0
  0
ENDSEC
  0
SECTION
  2
CLASSES
  0
CLASS
  1
LWPOLYLINE
  2
AcDbPolyline
  3
ObjectDBX Classes
 90
        0
 91
        1
280
     0
281
     1
  0
CLASS
  1
IMAGE
  2
AcDbRasterImage
  3
ISM
 90
      127
 91
       10
280
     0
281
     1
  0
CLASS
  1
OLE2FRAME
  2
AcDbOle2Frame
  3
ObjectDBX Classes
 90
        0
 91
        1
280
     0
281
     1
  0
CLASS
  1
HATCH
  2
AcDbHatch
  3
ObjectDBX Classes
 90
        0
 91
        1
280
     0
281
     1
  0
CLASS
  1
DICTIONARYVAR
  2
AcDbDictionaryVar
  3
ObjectDBX Classes
 90
        0
 91
        9
280
     0
281
     0
  0
CLASS
  1
RASTERVARIABLES
  2
AcDbRasterVariables
  3
ISM
 90
        0
 91
        9
280
     0
281
     0
  0
CLASS
  1
IMAGEDEF
  2
AcDbRasterImageDef
  3
ISM
 90
        0
 91
        9
280
     0
281
     0
  0
CLASS
  1
IMAGEDEF_REACTOR
  2
AcDbRasterImageDefReactor
  3
ISM
 90
        1
 91
        9
280
     0
281
     0
  0
CLASS
  1
IDBUFFER
  2
AcDbIdBuffer
  3
ObjectDBX Classes
 90
        0
 91
        9
280
     0
281
     0
  0
CLASS
  1
SPATIAL_FILTER
  2
AcDbSpatialFilter
  3
ObjectDBX Classes
 90
        0
 91
        9
280
     0
281
     0
  0
CLASS
  1
XRECORD
  2
AcDbXrecord
  3
ObjectDBX Classes
 90
        0
 91
        1
280
     0
281
     0
  0
CLASS
  1
SORTENTSTABLE
  2
AcDbSortentsTable
  3
ObjectDBX Classes
 90
        0
 91
        9
280
     0
281
     0
  0
CLASS
  1
LAYER_INDEX
  2
AcDbLayerIndex
  3
ObjectDBX Classes
 90
        0
 91
        9
280
     0
281
     0
  0
CLASS
  1
SPATIAL_INDEX
  2
AcDbSpatialIndex
  3
AutoCAD 2000
 90
        0
 91
        9
280
     0
281
     0
  0
CLASS
  1
OBJECT_PTR
  2
CAseDLPNTableRecord
  3
ASE-LPNTableRecord
 90
        1
 91
        9
280
     0
281
     0
  0
CLASS
  1
LAYOUT
  2
AcDbLayout
  3
ObjectDBX Classes
 90
        0
 91
        1
280
     0
281
     0
  0
CLASS
  1
PLOTSETTINGS
  2
AcDbPlotSettings
  3
ObjectDBX Classes
 90
        0
 91
        9
280
     0
281
     0
  0
CLASS
  1
ACDBDICTIONARYWDFLT
  2
AcDbDictionaryWithDefault
  3
ObjectDBX Classes
 90
        0
 91
        9
280
     0
281
     0
  0
CLASS
  1
ACDBPLACEHOLDER
  2
AcDbPlaceHolder
  3
ObjectDBX Classes
 90
        0
 91
        1
280
     0
281
     0
  0
CLASS
  1
SCALE
  2
AcDbScale
  3
ObjectDBX Classes
 90
     1153
 91
        9
280
     0
281
     0
  0
CLASS
  1
MATERIAL
  2
AcDbMaterial
  3
ObjectDBX Classes
 90
     1153
 91
        9
280
     0
281
     0
  0
CLASS
  1
VISUALSTYLE
  2
AcDbVisualStyle
  3
ObjectDBX Classes
 90
     4095
 91
        9
280
     0
281
     0
  0
CLASS
  1
TABLESTYLE
  2
AcDbTableStyle
  3
ObjectDBX Classes
 90
     4095
 91
        9
280
     0
281
     0
  0
CLASS
  1
DIMASSOC
  2
AcDbDimAssoc
  3
"AcDbDimAssoc|Product Desc:     AcDim ARX App For Dimension|Company:          Autodesk, Inc.|WEB Address:      www.autodesk.com"
 90
        0
 91
        9
280
     0
281
     0
  0
CLASS
  1
CELLSTYLEMAP
  2
AcDbCellStyleMap
  3
ObjectDBX Classes
 90
     1152
 91
        9
280
     0
281
     0
  0
CLASS
  1
SUN
  2
AcDbSun
  3
SCENEOE
 90
     1153
 91
        9
280
     0
281
     0
  0
CLASS
  1
MLEADERSTYLE
  2
AcDbMLeaderStyle
  3
ACDB_MLEADERSTYLE_CLASS
 90
     4095
 91
        9
280
     0
281
     0
  0
ENDSEC
  0
SECTION
  2
TABLES
  0
TABLE
  2
VPORT
  5
7
330
0
100
AcDbSymbolTable
 70
     1
  0
VPORT
  5
15
330
7
100
AcDbSymbolTableRecord
100
AcDbViewportTableRecord
  2
*ACTIVE
 70
     0
 10
0.0
 20
0.0
 11
1.0
 21
1.0
 12
1141.020135670899
 22
1411.401285469835
 13
0.0
 23
0.0
 14
1.0
 24
1.0
 15
0.0
 25
0.0
 16
0.0
 26
0.0
 36
1.0
 17
-91.02013567089944
 27
73.59871453016603
 37
-46.86809886248109
 40
3029.400000000005
 41
2.225333333333333
 42
50.0
 43
0.0
 44
0.0
 50
0.0
 51
0.0
 71
    16
 72
  2000
 73
     1
 74
     1
 75
     0
 76
     0
 77
     0
 78
     0
281
     0
 65
     1
110
0.0
120
0.0
130
0.0
111
1.0
121
0.0
131
0.0
112
0.0
122
1.0
132
0.0
 79
     0
146
0.0
348
26C
 60
     3
 61
     5
292
     1
282
     1
141
0.0
142
0.0
 63
   256
361
904
  0
ENDTAB
  0
TABLE
  2
LTYPE
  5
4
330
0
100
AcDbSymbolTable
 70
    22
  0
LTYPE
  5
11
330
4
100
AcDbSymbolTableRecord
100
AcDbLinetypeTableRecord
  2
ByBlock
 70
     0
  3

 72
    65
 73
     0
 40
0.0
  0
LTYPE
  5
12
330
4
100
AcDbSymbolTableRecord
100
AcDbLinetypeTableRecord
  2
ByLayer
 70
     0
  3

 72
    65
 73
     0
 40
0.0
  0
LTYPE
  5
13
330
4
100
AcDbSymbolTableRecord
100
AcDbLinetypeTableRecord
  2
Continuous
 70
     0
  3
Solid line
 72
    65
 73
     0
 40
0.0
  0
LTYPE
  5
3A
330
4
100
AcDbSymbolTableRecord
100
AcDbLinetypeTableRecord
  2
STYLE_01
 70
     0
  3

 72
    65
 73
     2
 40
0.2460629921259842
 49
0.1230314960629921
 74
     0
 49
-0.1230314960629921
 74
     0
  0
LTYPE
  5
3B
330
4
100
AcDbSymbolTableRecord
100
AcDbLinetypeTableRecord
  2
STYLE_02
 70
     0
  3

 72
    65
 73
     2
 40
0.6944250000000001
 49
0.48607
 74
     0
 49
-0.2083550000000001
 74
     0
  0
LTYPE
  5
3C
330
4
100
AcDbSymbolTableRecord
100
AcDbLinetypeTableRecord
  2
STYLE_03
 70
     0
  3

 72
    65
 73
     2
 40
1.25
 49
1.04164
 74
     0
 49
-0.2083599999999999
 74
     0
  0
LTYPE
  5
3D
330
4
100
AcDbSymbolTableRecord
100
AcDbLinetypeTableRecord
  2
STYLE_04
 70
     0
  3

 72
    65
 73
     2
 40
1.52771
 49
1.319425
 74
     0
 49
-0.208285
 74
     0
  0
LTYPE
  5
3E
330
4
100
AcDbSymbolTableRecord
100
AcDbLinetypeTableRecord
  2
STYLE_05
 70
     0
  3

 72
    65
 73
     2
 40
0.20828
 49
0.069425
 74
     0
 49
-0.138855
 74
     0
  0
LTYPE
  5
3F
330
4
100
AcDbSymbolTableRecord
100
AcDbLinetypeTableRecord
  2
STYLE_06
 70
     0
  3

 72
    65
 73
     4
 40
1.04164
 49
0.625
 74
     0
 49
-0.20828
 74
     0
 49
0.06943
 74
     0
 49
-0.13893
 74
     0
  0
LTYPE
  5
40
330
4
100
AcDbSymbolTableRecord
100
AcDbLinetypeTableRecord
  2
STYLE_07
 70
     0
  3

 72
    65
 73
     6
 40
1.875
 49
0.625
 74
     0
 49
-0.20828
 74
     0
 49
0.6250000000000001
 74
     0
 49
-0.2083599999999999
 74
     0
 49
0.06943
 74
     0
 49
-0.1389299999999999
 74
     0
  0
LTYPE
  5
41
330
4
100
AcDbSymbolTableRecord
100
AcDbLinetypeTableRecord
  2
STYLE_08
 70
     0
  3

 72
    65
 73
     6
 40
1.25
 49
0.625
 74
     0
 49
-0.20828
 74
     0
 49
0.06943
 74
     0
 49
-0.13893
 74
     0
 49
0.0694299999999999
 74
     0
 49
-0.13893
 74
     0
  0
LTYPE
  5
42
330
4
100
AcDbSymbolTableRecord
100
AcDbLinetypeTableRecord
  2
STYLE_09
 70
     0
  3

 72
    65
 73
     4
 40
5.0
 49
3.75
 74
     0
 49
-0.2777849999999998
 74
     0
 49
0.6944300000000003
 74
     0
 49
-0.2777849999999998
 74
     0
  0
LTYPE
  5
43
330
4
100
AcDbSymbolTableRecord
100
AcDbLinetypeTableRecord
  2
STYLE_10
 70
     0
  3

 72
    65
 73
     6
 40
5.9375
 49
3.75
 74
     0
 49
-0.2777849999999998
 74
     0
 49
0.6944300000000003
 74
     0
 49
-0.2777849999999998
 74
     0
 49
0.625
 74
     0
 49
-0.3125
 74
     0
  0
LTYPE
  5
44
330
4
100
AcDbSymbolTableRecord
100
AcDbLinetypeTableRecord
  2
STYLE_11
 70
     0
  3

 72
    65
 73
     2
 40
0.0694444881889764
 49
0.0347222440944882
 74
     0
 49
-0.0347222440944882
 74
     0
  0
LTYPE
  5
45
330
4
100
AcDbSymbolTableRecord
100
AcDbLinetypeTableRecord
  2
STYLE_12
 70
     0
  3

 72
    65
 73
     2
 40
0.3937007874015748
 49
0.1968503937007874
 74
     0
 49
-0.1968503937007874
 74
     0
  0
LTYPE
  5
46
330
4
100
AcDbSymbolTableRecord
100
AcDbLinetypeTableRecord
  2
STYLE_13
 70
     0
  3

 72
    65
 73
     2
 40
0.5905511811023622
 49
0.2952755905511811
 74
     0
 49
-0.2952755905511811
 74
     0
  0
LTYPE
  5
47
330
4
100
AcDbSymbolTableRecord
100
AcDbLinetypeTableRecord
  2
STYLE_14
 70
     0
  3

 72
    65
 73
     2
 40
1.968503937007874
 49
0.9842519685039369
 74
     0
 49
-0.9842519685039369
 74
     0
  0
LTYPE
  5
48
330
4
100
AcDbSymbolTableRecord
100
AcDbLinetypeTableRecord
  2
STYLE_15
 70
     0
  3

 72
    65
 73
     2
 40
0.1875
 49
0.125
 74
     0
 49
-0.0625
 74
     0
  0
LTYPE
  5
49
330
4
100
AcDbSymbolTableRecord
100
AcDbLinetypeTableRecord
  2
STYLE_16
 70
     0
  3

 72
    65
 73
     2
 40
0.3690944881889764
 49
0.2460629921259843
 74
     0
 49
-0.1230314960629922
 74
     0
  0
LTYPE
  5
908
330
4
100
AcDbSymbolTableRecord
100
AcDbLinetypeTableRecord
  2
AI-LINETYPE-1
 70
     0
  3
Adobe Illustrator Linetype No. 1
 72
    65
 73
     4
 40
2.116668062491661
 49
1.058334031245831
 74
     0
 49
-0.3527780104152769
 74
     0
 49
0.3527780104152769
 74
     0
 49
-0.3527780104152769
 74
     0
  0
LTYPE
  5
909
330
4
100
AcDbSymbolTableRecord
100
AcDbLinetypeTableRecord
  2
AI-LINETYPE-2
 70
     0
  3
Adobe Illustrator Linetype No. 2
 72
    65
 73
     4
 40
2.116668062491661
 49
1.058334031245831
 74
     0
 49
-0.3527780104152769
 74
     0
 49
0.3527780104152769
 74
     0
 49
-0.3527780104152769
 74
     0
  0
LTYPE
  5
DB3
330
4
100
AcDbSymbolTableRecord
100
AcDbLinetypeTableRecord
  2
BORDER
 70
     0
  3
Border __  __  . __  __  . __  __  . __  __  . 
 72
    65
 73
     6
 40
44.45
 49
12.7
 74
     0
 49
-6.35
 74
     0
 49
12.7
 74
     0
 49
-6.35
 74
     0
 49
0.0
 74
     0
 49
-6.35
 74
     0
  0
LTYPE
  5
DB6
330
4
100
AcDbSymbolTableRecord
100
AcDbLinetypeTableRecord
  2
HIDDEN
 70
     0
  3
Hidden _ _ _ _ _ _ _ _ _ _ _ _ _ _ _ _ _ _ _ _ 
 72
    65
 73
     2
 40
9.524999999999999
 49
6.35
 74
     0
 49
-3.175
 74
     0
  0
LTYPE
  5
13EF
330
4
100
AcDbSymbolTableRecord
100
AcDbLinetypeTableRecord
  2
CENTER
 70
     0
  3
 Center _____  _  _____  _  _____  _  _____  _ 
 72
    65
 73
     4
 40
50.8
 49
31.75
 74
     0
 49
-6.35
 74
     0
 49
6.35
 74
     0
 49
-6.35
 74
     0
  0
ENDTAB
  0
TABLE
  2
LAYER
  5
2
102
{ACAD_XDICTIONARY
360
2E1
102
}
330
0
100
AcDbSymbolTable
 70
     9
  0
LAYER
  5
14
330
2
100
AcDbSymbolTableRecord
100
AcDbLayerTableRecord
  2
0
 70
     0
 62
     7
  6
Continuous
370
    -3
390
1D
347
266
  0
LAYER
  5
4B
330
2
100
AcDbSymbolTableRecord
100
AcDbLayerTableRecord
  2
TEMPLATE
 70
     0
 62
     7
  6
Continuous
370
    20
390
1D
347
266
  0
LAYER
  5
4C
330
2
100
AcDbSymbolTableRecord
100
AcDbLayerTableRecord
  2
DIM
 70
     0
 62
     7
  6
Continuous
370
    13
390
1D
347
266
  0
LAYER
  5
4D
330
2
100
AcDbSymbolTableRecord
100
AcDbLayerTableRecord
  2
MODEL
 70
     0
 62
     7
  6
Continuous
370
    20
390
1D
347
266
  0
LAYER
  5
667
330
2
100
AcDbSymbolTableRecord
100
AcDbLayerTableRecord
  2
LOGO
 70
     0
 62
     7
  6
Continuous
370
    -3
390
1D
347
266
  0
LAYER
  5
88C
330
2
100
AcDbSymbolTableRecord
100
AcDbLayerTableRecord
  2
HIDDEN
 70
     0
 62
     7
  6
STYLE_12
370
    20
390
1D
347
266
1001
AcAecLayerStandard
1000

1000

  0
LAYER
  5
D5D
330
2
100
AcDbSymbolTableRecord
100
AcDbLayerTableRecord
  2
Defpoints
 70
     0
 62
     7
  6
Continuous
290
     0
370
    -3
390
1D
347
266
  0
LAYER
  5
DB2
330
2
100
AcDbSymbolTableRecord
100
AcDbLayerTableRecord
  2
PRINT BORDER
 70
     0
 62
     4
  6
BORDER
290
     0
370
    20
390
1D
347
266
1001
AcAecLayerStandard
1000

1000

  0
LAYER
  5
DB5
330
2
100
AcDbSymbolTableRecord
100
AcDbLayerTableRecord
  2
notes
 70
     0
 62
     7
  6
Continuous
370
    -3
390
1D
347
266
  0
ENDTAB
  0
TABLE
  2
STYLE
  5
3
330
0
100
AcDbSymbolTable
 70
     4
  0
STYLE
  5
17
330
3
100
AcDbSymbolTableRecord
100
AcDbTextStyleTableRecord
  2
Standard
 70
     0
 40
0.0
 41
1.0
 50
0.0
 71
     0
 42
2.5
  3
txt
  4
BIGFONT.SHX
  0
STYLE
  5
39
330
3
100
AcDbSymbolTableRecord
100
AcDbTextStyleTableRecord
  2
ＭＳ ゴシック
 70
     0
 40
0.0
 41
1.0
 50
0.0
 71
     0
 42
2.5
  3
msgothic.ttc
  4
ＭＳ ゴシック
1001
ACAD
1000
ＭＳ ゴシック
1071
        0
  0
STYLE
  5
384
330
3
100
AcDbSymbolTableRecord
100
AcDbTextStyleTableRecord
  2
ARIAL
 70
     0
 40
0.0
 41
1.0
 50
0.0
 71
     0
 42
12.0
  3
ARIAL.TTF
  4

1001
ACAD
1000
Arial
1071
       34
  0
STYLE
  5
385
330
3
100
AcDbSymbolTableRecord
100
AcDbTextStyleTableRecord
  2
ROMANS
 70
     0
 40
0.0
 41
1.0
 50
0.0
 71
     0
 42
5.0
  3
romans.shx
  4

  0
ENDTAB
  0
TABLE
  2
VIEW
  5
5
330
0
100
AcDbSymbolTable
 70
     0
  0
ENDTAB
  0
TABLE
  2
UCS
  5
6
330
0
100
AcDbSymbolTable
 70
     0
  0
ENDTAB
  0
TABLE
  2
APPID
  5
8
330
0
100
AcDbSymbolTable
 70
     3
  0
APPID
  5
16
330
8
100
AcDbSymbolTableRecord
100
AcDbRegAppTableRecord
  2
ACAD
 70
     0
  0
APPID
  5
7AC
330
8
100
AcDbSymbolTableRecord
100
AcDbRegAppTableRecord
  2
AcAecLayerStandard
 70
     0
  0
APPID
  5
133B
330
8
100
AcDbSymbolTableRecord
100
AcDbRegAppTableRecord
  2
ACAD_MLEADERVER
 70
     0
  0
ENDTAB
  0
TABLE
  2
DIMSTYLE
  5
9
330
0
100
AcDbSymbolTable
 70
     5
100
AcDbDimStyleTable
  0
DIMSTYLE
105
18
330
9
100
AcDbSymbolTableRecord
100
AcDbDimStyleTableRecord
  2
Standard
 70
     0
178
     0
340
17
  0
DIMSTYLE
105
56
330
9
100
AcDbSymbolTableRecord
100
AcDbDimStyleTableRecord
  2
tform線あり
 70
     0
  3
<>
  4
[]
 41
9.999389648437498
 42
25.0
 43
0.9999999999999999
 44
0.0
 73
     0
 74
     0
 77
     1
 78
    11
140
24.4326171875
141
0.0
143
1.0
146
0.8
147
0.4999999999999999
171
     1
172
     1
174
     1
178
     0
179
     2
271
     1
272
     1
276
     2
284
    11
285
    11
286
    11
289
     0
340
39
341
4E
342
4E
  0
DIMSTYLE
105
57
102
{ACAD_REACTORS
330
1081
330
1092
330
1098
330
1099
330
109F
330
10A0
330
10A3
330
10A6
330
10AA
330
10AD
330
10B9
330
10BA
330
10BB
330
10BC
330
1221
330
1234
330
129A
330
12A7
330
142E
330
145F
102
}
330
9
100
AcDbSymbolTableRecord
100
AcDbDimStyleTableRecord
  2
tfrom線あり
 70
     0
  3
<>
  4
[]
 41
5.0
 42
10.0
 43
0.9999999999999999
 44
0.0
 73
     0
 74
     0
 77
     1
 78
    11
140
24.0
141
0.0
143
1.0
147
20.0
171
     1
174
     1
178
     0
179
     2
271
     0
272
     1
276
     2
284
    11
285
    11
286
    11
289
     0
340
39
341
4E
342
4E
  0
DIMSTYLE
105
5C
330
9
100
AcDbSymbolTableRecord
100
AcDbDimStyleTableRecord
  2
JIS
 70
     0
  3
<>
  4
[]
 41
9.0
 42
0.0
 43
6.99999999999994
 44
19.9999999999962
 73
     0
 74
     0
 77
     1
 78
    11
140
24.4326171875
141
0.0
143
1.0
147
10.0
171
     1
174
     1
178
     0
179
     2
271
     1
272
     1
276
     2
284
    11
285
    11
286
    11
289
     0
340
39
341
4E
342
4E
  0
DIMSTYLE
105
383
330
9
100
AcDbSymbolTableRecord
100
AcDbDimStyleTableRecord
  2
ARIAL
 70
     0
 41
10.0
 42
3.0
 43
0.5
 44
3.0
 73
     0
 74
     0
 77
     1
 78
     8
140
12.0
141
0.0
146
0.5
147
4.0
171
     1
172
     1
178
     0
271
     1
289
     0
340
384
  0
ENDTAB
  0
TABLE
  2
BLOCK_RECORD
  5
1
330
0
100
AcDbSymbolTable
 70
    59
  0
BLOCK_RECORD
  5
A
330
1
100
AcDbSymbolTableRecord
100
AcDbBlockTableRecord
  2
*MODEL_SPACE
340
20
 70
     0
280
     1
281
     0
  0
BLOCK_RECORD
  5
B
330
1
100
AcDbSymbolTableRecord
100
AcDbBlockTableRecord
  2
*PAPER_SPACE
340
21
 70
     0
280
     1
281
     0
  0
BLOCK_RECORD
  5
4E
330
1
100
AcDbSymbolTableRecord
100
AcDbBlockTableRecord
  2
_DOT
340
0
102
{BLKREFS
331
D65
331
D66
331
D7D
331
D7E
331
D8F
331
D90
331
E97
331
E98
331
EAC
331
EAD
331
EB9
331
EBA
331
EC6
331
EC7
331
ED5
331
ED6
331
EE4
331
EE5
331
EF3
331
EF4
331
F01
331
F02
331
F10
331
F11
331
F21
331
F22
331
F2D
331
F2E
331
F3C
331
F3D
331
F4B
331
F4C
331
F58
331
F59
331
F67
331
F68
331
F77
331
F78
331
F84
331
F85
331
F9C
331
F9D
331
FA8
331
FA9
331
FB5
331
FB6
331
FC2
331
FC3
331
10E7
331
10E8
331
10F3
331
10F4
331
10FF
331
1100
331
110B
331
110C
331
1117
331
1118
331
1123
331
1124
331
112F
331
1130
331
113B
331
113C
331
1148
331
1149
331
1158
331
1159
331
1163
331
1164
331
116F
331
1170
331
117B
331
117C
331
1187
331
1188
331
1193
331
1194
331
119F
331
11A0
331
11AC
331
11AD
331
11B9
331
11BA
331
11C6
331
11C7
331
11D2
331
11D3
331
11DE
331
11DF
331
122A
331
122B
331
123B
331
123C
331
1248
331
1249
331
12A1
331
12A2
331
12AF
331
12B0
331
13A4
331
13A5
331
1435
331
1436
331
1466
331
1467
102
}
 70
     0
280
     1
281
     0
  0
BLOCK_RECORD
  5
68A
330
1
100
AcDbSymbolTableRecord
100
AcDbBlockTableRecord
  2
名称未設定-1
340
0
102
{BLKREFS
331
6B5
102
}
 70
     1
280
     1
281
     0
  0
BLOCK_RECORD
  5
68D
330
1
100
AcDbSymbolTableRecord
100
AcDbBlockTableRecord
  2
block 2
340
0
102
{BLKREFS
331
68C
102
}
 70
     0
280
     1
281
     0
  0
BLOCK_RECORD
  5
690
330
1
100
AcDbSymbolTableRecord
100
AcDbBlockTableRecord
  2
block 3
340
0
102
{BLKREFS
331
68F
102
}
 70
     0
280
     1
281
     0
  0
BLOCK_RECORD
  5
693
330
1
100
AcDbSymbolTableRecord
100
AcDbBlockTableRecord
  2
block 4
340
0
102
{BLKREFS
331
692
102
}
 70
     0
280
     1
281
     0
  0
BLOCK_RECORD
  5
6A2
330
1
100
AcDbSymbolTableRecord
100
AcDbBlockTableRecord
  2
block 5
340
0
102
{BLKREFS
331
6A1
102
}
 70
     0
280
     1
281
     0
  0
BLOCK_RECORD
  5
D5F
330
1
100
AcDbSymbolTableRecord
100
AcDbBlockTableRecord
  2
*D6
340
0
 70
     0
280
     1
281
     0
  0
BLOCK_RECORD
  5
D77
330
1
100
AcDbSymbolTableRecord
100
AcDbBlockTableRecord
  2
*D7
340
0
 70
     0
280
     1
281
     0
  0
BLOCK_RECORD
  5
D89
330
1
100
AcDbSymbolTableRecord
100
AcDbBlockTableRecord
  2
*D8
340
0
 70
     0
280
     1
281
     0
  0
BLOCK_RECORD
  5
E92
330
1
100
AcDbSymbolTableRecord
100
AcDbBlockTableRecord
  2
*D9
340
0
 70
     0
280
     1
281
     0
  0
BLOCK_RECORD
  5
EA7
330
1
100
AcDbSymbolTableRecord
100
AcDbBlockTableRecord
  2
*D10
340
0
 70
     0
280
     1
281
     0
  0
BLOCK_RECORD
  5
EB4
330
1
100
AcDbSymbolTableRecord
100
AcDbBlockTableRecord
  2
*D11
340
0
 70
     0
280
     1
281
     0
  0
BLOCK_RECORD
  5
EC1
330
1
100
AcDbSymbolTableRecord
100
AcDbBlockTableRecord
  2
*D12
340
0
 70
     0
280
     1
281
     0
  0
BLOCK_RECORD
  5
ED0
330
1
100
AcDbSymbolTableRecord
100
AcDbBlockTableRecord
  2
*D13
340
0
 70
     0
280
     1
281
     0
  0
BLOCK_RECORD
  5
EDF
330
1
100
AcDbSymbolTableRecord
100
AcDbBlockTableRecord
  2
*D14
340
0
 70
     0
280
     1
281
     0
  0
BLOCK_RECORD
  5
EEE
330
1
100
AcDbSymbolTableRecord
100
AcDbBlockTableRecord
  2
*D15
340
0
 70
     0
280
     1
281
     0
  0
BLOCK_RECORD
  5
EFB
330
1
100
AcDbSymbolTableRecord
100
AcDbBlockTableRecord
  2
*D16
340
0
 70
     0
280
     1
281
     0
  0
BLOCK_RECORD
  5
F0A
330
1
100
AcDbSymbolTableRecord
100
AcDbBlockTableRecord
  2
*D17
340
0
 70
     0
280
     1
281
     0
  0
BLOCK_RECORD
  5
F19
330
1
100
AcDbSymbolTableRecord
100
AcDbBlockTableRecord
  2
*D18
340
0
 70
     0
280
     1
281
     0
  0
BLOCK_RECORD
  5
F29
330
1
100
AcDbSymbolTableRecord
100
AcDbBlockTableRecord
  2
*D19
340
0
 70
     0
280
     1
281
     0
  0
BLOCK_RECORD
  5
F37
330
1
100
AcDbSymbolTableRecord
100
AcDbBlockTableRecord
  2
*D20
340
0
 70
     0
280
     1
281
     0
  0
BLOCK_RECORD
  5
F46
330
1
100
AcDbSymbolTableRecord
100
AcDbBlockTableRecord
  2
*D21
340
0
 70
     0
280
     1
281
     0
  0
BLOCK_RECORD
  5
F53
330
1
100
AcDbSymbolTableRecord
100
AcDbBlockTableRecord
  2
*D22
340
0
 70
     0
280
     1
281
     0
  0
BLOCK_RECORD
  5
F62
330
1
100
AcDbSymbolTableRecord
100
AcDbBlockTableRecord
  2
*D23
340
0
 70
     0
280
     1
281
     0
  0
BLOCK_RECORD
  5
F71
330
1
100
AcDbSymbolTableRecord
100
AcDbBlockTableRecord
  2
*D24
340
0
 70
     0
280
     1
281
     0
  0
BLOCK_RECORD
  5
F7E
330
1
100
AcDbSymbolTableRecord
100
AcDbBlockTableRecord
  2
*D25
340
0
 70
     0
280
     1
281
     0
  0
BLOCK_RECORD
  5
F96
330
1
100
AcDbSymbolTableRecord
100
AcDbBlockTableRecord
  2
*D26
340
0
 70
     0
280
     1
281
     0
  0
BLOCK_RECORD
  5
FA3
330
1
100
AcDbSymbolTableRecord
100
AcDbBlockTableRecord
  2
*D27
340
0
 70
     0
280
     1
281
     0
  0
BLOCK_RECORD
  5
FB0
330
1
100
AcDbSymbolTableRecord
100
AcDbBlockTableRecord
  2
*D28
340
0
 70
     0
280
     1
281
     0
  0
BLOCK_RECORD
  5
FBD
330
1
100
AcDbSymbolTableRecord
100
AcDbBlockTableRecord
  2
*D29
340
0
 70
     0
280
     1
281
     0
  0
BLOCK_RECORD
  5
10E1
330
1
100
AcDbSymbolTableRecord
100
AcDbBlockTableRecord
  2
*D30
340
0
 70
     0
280
     1
281
     0
  0
BLOCK_RECORD
  5
10ED
330
1
100
AcDbSymbolTableRecord
100
AcDbBlockTableRecord
  2
*D31
340
0
 70
     0
280
     1
281
     0
  0
BLOCK_RECORD
  5
10F9
330
1
100
AcDbSymbolTableRecord
100
AcDbBlockTableRecord
  2
*D32
340
0
 70
     0
280
     1
281
     0
  0
BLOCK_RECORD
  5
1105
330
1
100
AcDbSymbolTableRecord
100
AcDbBlockTableRecord
  2
*D33
340
0
 70
     0
280
     1
281
     0
  0
BLOCK_RECORD
  5
1111
330
1
100
AcDbSymbolTableRecord
100
AcDbBlockTableRecord
  2
*D34
340
0
 70
     0
280
     1
281
     0
  0
BLOCK_RECORD
  5
111D
330
1
100
AcDbSymbolTableRecord
100
AcDbBlockTableRecord
  2
*D35
340
0
 70
     0
280
     1
281
     0
  0
BLOCK_RECORD
  5
1129
330
1
100
AcDbSymbolTableRecord
100
AcDbBlockTableRecord
  2
*D36
340
0
 70
     0
280
     1
281
     0
  0
BLOCK_RECORD
  5
1135
330
1
100
AcDbSymbolTableRecord
100
AcDbBlockTableRecord
  2
*D37
340
0
 70
     0
280
     1
281
     0
  0
BLOCK_RECORD
  5
1142
330
1
100
AcDbSymbolTableRecord
100
AcDbBlockTableRecord
  2
*D38
340
0
 70
     0
280
     1
281
     0
  0
BLOCK_RECORD
  5
114F
330
1
100
AcDbSymbolTableRecord
100
AcDbBlockTableRecord
  2
*D39
340
0
 70
     0
280
     1
281
     0
  0
BLOCK_RECORD
  5
115E
330
1
100
AcDbSymbolTableRecord
100
AcDbBlockTableRecord
  2
*D40
340
0
 70
     0
280
     1
281
     0
  0
BLOCK_RECORD
  5
1169
330
1
100
AcDbSymbolTableRecord
100
AcDbBlockTableRecord
  2
*D41
340
0
 70
     0
280
     1
281
     0
  0
BLOCK_RECORD
  5
1175
330
1
100
AcDbSymbolTableRecord
100
AcDbBlockTableRecord
  2
*D42
340
0
 70
     0
280
     1
281
     0
  0
BLOCK_RECORD
  5
1181
330
1
100
AcDbSymbolTableRecord
100
AcDbBlockTableRecord
  2
*D43
340
0
 70
     0
280
     1
281
     0
  0
BLOCK_RECORD
  5
118D
330
1
100
AcDbSymbolTableRecord
100
AcDbBlockTableRecord
  2
*D44
340
0
 70
     0
280
     1
281
     0
  0
BLOCK_RECORD
  5
1199
330
1
100
AcDbSymbolTableRecord
100
AcDbBlockTableRecord
  2
*D45
340
0
 70
     0
280
     1
281
     0
  0
BLOCK_RECORD
  5
11A6
330
1
100
AcDbSymbolTableRecord
100
AcDbBlockTableRecord
  2
*D46
340
0
 70
     0
280
     1
281
     0
  0
BLOCK_RECORD
  5
11B3
330
1
100
AcDbSymbolTableRecord
100
AcDbBlockTableRecord
  2
*D47
340
0
 70
     0
280
     1
281
     0
  0
BLOCK_RECORD
  5
11C0
330
1
100
AcDbSymbolTableRecord
100
AcDbBlockTableRecord
  2
*D48
340
0
 70
     0
280
     1
281
     0
  0
BLOCK_RECORD
  5
11CC
330
1
100
AcDbSymbolTableRecord
100
AcDbBlockTableRecord
  2
*D49
340
0
 70
     0
280
     1
281
     0
  0
BLOCK_RECORD
  5
11D8
330
1
100
AcDbSymbolTableRecord
100
AcDbBlockTableRecord
  2
*D50
340
0
 70
     0
280
     1
281
     0
  0
BLOCK_RECORD
  5
1224
330
1
100
AcDbSymbolTableRecord
100
AcDbBlockTableRecord
  2
*D51
340
0
 70
     0
280
     1
281
     0
  0
BLOCK_RECORD
  5
1235
330
1
100
AcDbSymbolTableRecord
100
AcDbBlockTableRecord
  2
*D52
340
0
 70
     0
280
     1
281
     0
  0
BLOCK_RECORD
  5
1242
330
1
100
AcDbSymbolTableRecord
100
AcDbBlockTableRecord
  2
*D53
340
0
 70
     0
280
     1
281
     0
  0
BLOCK_RECORD
  5
129B
330
1
100
AcDbSymbolTableRecord
100
AcDbBlockTableRecord
  2
*D54
340
0
 70
     0
280
     1
281
     0
  0
BLOCK_RECORD
  5
12A9
330
1
100
AcDbSymbolTableRecord
100
AcDbBlockTableRecord
  2
*D55
340
0
 70
     0
280
     1
281
     0
  0
BLOCK_RECORD
  5
139E
330
1
100
AcDbSymbolTableRecord
100
AcDbBlockTableRecord
  2
*D56
340
0
 70
     0
280
     1
281
     0
  0
BLOCK_RECORD
  5
142F
330
1
100
AcDbSymbolTableRecord
100
AcDbBlockTableRecord
  2
*D57
340
0
 70
     0
280
     1
281
     0
  0
BLOCK_RECORD
  5
1460
330
1
100
AcDbSymbolTableRecord
100
AcDbBlockTableRecord
  2
*D58
340
0
 70
     0
280
     1
281
     0
  0
ENDTAB
  0
ENDSEC
  0
SECTION
  2
BLOCKS
  0
BLOCK
  5
D
330
A
100
AcDbEntity
  8
0
390
1D
100
AcDbBlockBegin
  2
*MODEL_SPACE
 70
     0
 10
0.0
 20
0.0
 30
0.0
  3
*MODEL_SPACE
  1
*MODEL_SPACE
  0
ENDBLK
  5
E
330
A
100
AcDbEntity
  8
0
390
1D
100
AcDbBlockEnd
  0
BLOCK
  5
F
330
B
100
AcDbEntity
 67
     1
  8
0
390
1D
100
AcDbBlockBegin
  2
*PAPER_SPACE
 70
     0
 10
0.0
 20
0.0
 30
0.0
  3
*PAPER_SPACE
  1
*PAPER_SPACE
  0
ENDBLK
  5
10
330
B
100
AcDbEntity
 67
     1
  8
0
390
1D
100
AcDbBlockEnd
  0
BLOCK
  5
1326
330
4E
100
AcDbEntity
  8
0
390
1D
100
AcDbBlockBegin
  2
_DOT
 70
     0
 10
0.0
 20
0.0
 30
0.0
  3
_DOT
  1
_DOT
  0
POLYLINE
  5
1328
330
4E
100
AcDbEntity
  8
0
  6
ByBlock
 62
     0
370
    -2
390
1D
100
AcDb2dPolyline
 66
     1
 10
0.0
 20
0.0
 30
0.0
 70
     1
 40
0.5
 41
0.5
  0
VERTEX
  5
1329
330
1328
100
AcDbEntity
  8
0
  6
ByBlock
 62
     0
370
    -2
390
1D
100
AcDbVertex
100
AcDb2dVertex
 10
-0.25
 20
0.0
 30
0.0
 42
1.0
  0
VERTEX
  5
132A
330
1328
100
AcDbEntity
  8
0
  6
ByBlock
 62
     0
370
    -2
390
1D
100
AcDbVertex
100
AcDb2dVertex
 10
0.25
 20
0.0
 30
0.0
 42
1.0
  0
SEQEND
  5
132B
330
1328
100
AcDbEntity
  8
0
390
1D
  0
LINE
  5
132C
330
4E
100
AcDbEntity
  8
0
  6
ByBlock
 62
     0
370
    -2
390
1D
100
AcDbLine
 10
-0.5
 20
0.0
 30
0.0
 11
-1.0
 21
0.0
 31
0.0
  0
ENDBLK
  5
132D
330
4E
100
AcDbEntity
  8
0
390
1D
100
AcDbBlockEnd
  0
BLOCK
  5
68B
330
68A
100
AcDbEntity
  8
0
100
AcDbBlockBegin
  2
名称未設定-1
 70
     0
 10
0.0
 20
0.0
 30
0.0
  3
名称未設定-1
  1
名称未設定-1
  0
INSERT
  5
68F
330
68A
100
AcDbEntity
  8
LOGO
100
AcDbBlockReference
  2
block 3
 10
0.0
 20
0.0
 30
0.0
  0
ENDBLK
  5
6B1
330
68A
100
AcDbEntity
  8
0
100
AcDbBlockEnd
  0
BLOCK
  5
68E
330
68D
100
AcDbEntity
  8
0
100
AcDbBlockBegin
  2
block 2
 70
     0
 10
0.0
 20
0.0
 30
0.0
  3
block 2
  1
block 2
  0
ENDBLK
  5
6B0
330
68D
100
AcDbEntity
  8
0
100
AcDbBlockEnd
  0
BLOCK
  5
691
330
690
100
AcDbEntity
  8
0
100
AcDbBlockBegin
  2
block 3
 70
     0
 10
0.0
 20
0.0
 30
0.0
  3
block 3
  1
block 3
  0
INSERT
  5
692
330
690
100
AcDbEntity
  8
LOGO
100
AcDbBlockReference
  2
block 4
 10
0.0
 20
0.0
 30
0.0
  0
INSERT
  5
6A1
330
690
100
AcDbEntity
  8
LOGO
100
AcDbBlockReference
  2
block 5
 10
0.0
 20
0.0
 30
0.0
  0
ENDBLK
  5
6AF
330
690
100
AcDbEntity
  8
0
100
AcDbBlockEnd
  0
BLOCK
  5
694
330
693
100
AcDbEntity
  8
0
100
AcDbBlockBegin
  2
block 4
 70
     0
 10
0.0
 20
0.0
 30
0.0
  3
block 4
  1
block 4
  0
POLYLINE
  5
695
330
693
100
AcDbEntity
  8
LOGO
370
     0
100
AcDb2dPolyline
 66
     1
 10
0.0
 20
0.0
 30
0.0
  0
VERTEX
  5
696
330
695
100
AcDbEntity
  8
LOGO
370
     0
100
AcDbVertex
100
AcDb2dVertex
 10
83.79545727667795
 20
167.6444858234922
 30
0.0
  0
VERTEX
  5
697
330
695
100
AcDbEntity
  8
LOGO
370
     0
100
AcDbVertex
100
AcDb2dVertex
 10
83.79545727667795
 20
159.7968976406313
 30
0.0
  0
VERTEX
  5
698
330
695
100
AcDbEntity
  8
LOGO
370
     0
100
AcDbVertex
100
AcDb2dVertex
 10
71.3631329975216
 20
159.7968976406313
 30
0.0
  0
VERTEX
  5
699
330
695
100
AcDbEntity
  8
LOGO
370
     0
100
AcDbVertex
100
AcDb2dVertex
 10
71.3631329975216
 20
127.8027915271048
 30
0.0
  0
VERTEX
  5
69A
330
695
100
AcDbEntity
  8
LOGO
370
     0
100
AcDbVertex
100
AcDb2dVertex
 10
60.43011526263018
 20
127.8027915271048
 30
0.0
  0
VERTEX
  5
69B
330
695
100
AcDbEntity
  8
LOGO
370
     0
100
AcDbVertex
100
AcDb2dVertex
 10
60.43011526263018
 20
159.7968976406313
 30
0.0
  0
VERTEX
  5
69C
330
695
100
AcDbEntity
  8
LOGO
370
     0
100
AcDbVertex
100
AcDb2dVertex
 10
48.21793273020759
 20
159.7968976406313
 30
0.0
  0
VERTEX
  5
69D
330
695
100
AcDbEntity
  8
LOGO
370
     0
100
AcDbVertex
100
AcDb2dVertex
 10
48.21793273020759
 20
167.6444858234922
 30
0.0
  0
VERTEX
  5
69E
330
695
100
AcDbEntity
  8
LOGO
370
     0
100
AcDbVertex
100
AcDb2dVertex
 10
83.79545727667795
 20
167.6444858234922
 30
0.0
  0
SEQEND
  5
69F
330
695
100
AcDbEntity
  8
LOGO
370
     0
  0
HATCH
  5
6A0
330
693
100
AcDbEntity
  8
LOGO
 62
   250
420
  2234388
100
AcDbHatch
 10
0.0
 20
0.0
 30
0.0
210
0.0
220
0.0
230
1.0
  2
SOLID
 70
     1
 71
     0
 91
        1
 92
        1
 93
        8
 72
     1
 10
83.79545727667795
 20
167.6444858234922
 11
83.79545727667795
 21
159.7968976406313
 72
     1
 10
83.79545727667795
 20
159.7968976406313
 11
71.3631329975216
 21
159.7968976406313
 72
     1
 10
71.3631329975216
 20
159.7968976406313
 11
71.3631329975216
 21
127.8027915271048
 72
     1
 10
71.3631329975216
 20
127.8027915271048
 11
60.43011526263018
 21
127.8027915271048
 72
     1
 10
60.43011526263018
 20
127.8027915271048
 11
60.43011526263018
 21
159.7968976406313
 72
     1
 10
60.43011526263018
 20
159.7968976406313
 11
48.21793273020759
 21
159.7968976406313
 72
     1
 10
48.21793273020759
 20
159.7968976406313
 11
48.21793273020759
 21
167.6444858234922
 72
     1
 10
48.21793273020759
 20
167.6444858234922
 11
83.79545727667795
 21
167.6444858234922
 97
        0
 75
     2
 76
     1
 98
        0
  0
ENDBLK
  5
6AE
330
693
100
AcDbEntity
  8
0
100
AcDbBlockEnd
  0
BLOCK
  5
6A3
330
6A2
100
AcDbEntity
  8
0
100
AcDbBlockBegin
  2
block 5
 70
     0
 10
0.0
 20
0.0
 30
0.0
  3
block 5
  1
block 5
  0
SPLINE
  5
6A4
330
6A2
100
AcDbEntity
  8
LOGO
370
     0
100
AcDbSpline
210
0.0
220
0.0
230
1.0
 70
    11
 71
     3
 72
    56
 73
    52
 74
     0
 42
0.000000001
 43
0.0000000001
 40
0.0
 40
0.0
 40
0.0
 40
0.0
 40
1.0
 40
1.0
 40
1.0
 40
2.0
 40
2.0
 40
2.0
 40
3.0
 40
3.0
 40
3.0
 40
4.0
 40
4.0
 40
4.0
 40
5.0
 40
5.0
 40
5.0
 40
6.0
 40
6.0
 40
6.0
 40
7.0
 40
7.0
 40
7.0
 40
8.0
 40
8.0
 40
8.0
 40
9.0
 40
9.0
 40
9.0
 40
10.0
 40
10.0
 40
10.0
 40
11.0
 40
11.0
 40
11.0
 40
12.0
 40
12.0
 40
12.0
 40
13.0
 40
13.0
 40
13.0
 40
14.0
 40
14.0
 40
14.0
 40
15.0
 40
15.0
 40
15.0
 40
16.0
 40
16.0
 40
16.0
 40
17.0
 40
17.0
 40
17.0
 40
17.0
 10
100.4504378777679
 20
166.69157178364
 30
0.0
 10
101.9848844191641
 20
167.1313385124438
 30
0.0
 10
103.9637485713373
 20
166.7649523658846
 30
0.0
 10
103.9637485713373
 20
166.7649523658846
 30
0.0
 10
103.9637485713373
 20
166.7649523658846
 30
0.0
 10
103.0132460999156
 20
163.911205638077
 30
0.0
 10
103.0132460999156
 20
163.911205638077
 30
0.0
 10
103.0132460999156
 20
163.911205638077
 30
0.0
 10
101.0674548862189
 20
164.3601018759394
 30
0.0
 10
99.57090442016032
 20
163.1805004036133
 30
0.0
 10
98.40508333886608
 20
162.258247733807
 30
0.0
 10
97.65301849830304
 20
159.804132345923
 30
0.0
 10
97.3598406791005
 20
158.8699940888517
 30
0.0
 10
97.3598406791005
 20
158.8699940888517
 30
0.0
 10
96.07137411762282
 20
154.9119212747295
 30
0.0
 10
96.07137411762282
 20
154.9119212747295
 30
0.0
 10
96.07137411762282
 20
154.9119212747295
 30
0.0
 10
100.3012651448482
 20
154.9119212747295
 30
0.0
 10
100.3012651448482
 20
154.9119212747295
 30
0.0
 10
100.3012651448482
 20
154.9119212747295
 30
0.0
 10
99.64152892419852
 20
152.4199098115079
 30
0.0
 10
99.64152892419852
 20
152.4199098115079
 30
0.0
 10
99.64152892419852
 20
152.4199098115079
 30
0.0
 10
95.38097652692731
 20
152.4199098115079
 30
0.0
 10
95.38097652692731
 20
152.4199098115079
 30
0.0
 10
95.38097652692731
 20
152.4199098115079
 30
0.0
 10
87.75353009080013
 20
127.8027915271048
 30
0.0
 10
87.75353009080013
 20
127.8027915271048
 30
0.0
 10
87.75353009080013
 20
127.8027915271048
 30
0.0
 10
85.36538832498108
 20
127.8027915271048
 30
0.0
 10
85.36538832498108
 20
127.8027915271048
 30
0.0
 10
85.36538832498108
 20
127.8027915271048
 30
0.0
 10
93.00006946639998
 20
152.4199098115079
 30
0.0
 10
93.00006946639998
 20
152.4199098115079
 30
0.0
 10
93.00006946639998
 20
152.4199098115079
 30
0.0
 10
89.85297266450198
 20
152.4199098115079
 30
0.0
 10
89.85297266450198
 20
152.4199098115079
 30
0.0
 10
89.85297266450198
 20
152.4199098115079
 30
0.0
 10
90.51270888515164
 20
154.9119212747295
 30
0.0
 10
90.51270888515164
 20
154.9119212747295
 30
0.0
 10
90.51270888515164
 20
154.9119212747295
 30
0.0
 10
93.6904670570955
 20
154.9119212747295
 30
0.0
 10
93.6904670570955
 20
154.9119212747295
 30
0.0
 10
93.6904670570955
 20
154.9119212747295
 30
0.0
 10
94.81598049462158
 20
158.3616699146644
 30
0.0
 10
94.81598049462158
 20
158.3616699146644
 30
0.0
 10
95.7237637538445
 20
161.2605474231013
 30
0.0
 10
96.4968436907311
 20
162.8139420021662
 30
0.0
 10
97.15657991138076
 20
163.9844139654337
 30
0.0
 10
97.81183750494507
 20
165.1523021053827
 30
0.0
 10
99.1047826935081
 20
166.3084769129547
 30
0.0
 10
100.4504378777679
 20
166.69157178364
 30
0.0
  0
HATCH
  5
6A5
330
6A2
100
AcDbEntity
  8
LOGO
 62
   250
420
  2234388
100
AcDbHatch
 10
0.0
 20
0.0
 30
0.0
210
0.0
220
0.0
230
1.0
  2
SOLID
 70
     1
 71
     0
 91
        1
 92
        1
 93
        1
 72
     4
 94
        3
 73
     0
 74
     1
 95
       56
 96
       52
 40
0.0
 40
0.0
 40
0.0
 40
0.0
 40
1.0
 40
1.0
 40
1.0
 40
2.0
 40
2.0
 40
2.0
 40
3.0
 40
3.0
 40
3.0
 40
4.0
 40
4.0
 40
4.0
 40
5.0
 40
5.0
 40
5.0
 40
6.0
 40
6.0
 40
6.0
 40
7.0
 40
7.0
 40
7.0
 40
8.0
 40
8.0
 40
8.0
 40
9.0
 40
9.0
 40
9.0
 40
10.0
 40
10.0
 40
10.0
 40
11.0
 40
11.0
 40
11.0
 40
12.0
 40
12.0
 40
12.0
 40
13.0
 40
13.0
 40
13.0
 40
14.0
 40
14.0
 40
14.0
 40
15.0
 40
15.0
 40
15.0
 40
16.0
 40
16.0
 40
16.0
 40
17.0
 40
17.0
 40
17.0
 40
17.0
 10
100.4504378777679
 20
166.69157178364
 10
101.9848844191641
 20
167.1313385124438
 10
103.9637485713373
 20
166.7649523658846
 10
103.9637485713373
 20
166.7649523658846
 10
103.9637485713373
 20
166.7649523658846
 10
103.0132460999156
 20
163.911205638077
 10
103.0132460999156
 20
163.911205638077
 10
103.0132460999156
 20
163.911205638077
 10
101.0674548862189
 20
164.3601018759394
 10
99.57090442016032
 20
163.1805004036133
 10
98.40508333886608
 20
162.258247733807
 10
97.65301849830304
 20
159.804132345923
 10
97.3598406791005
 20
158.8699940888517
 10
97.3598406791005
 20
158.8699940888517
 10
96.07137411762282
 20
154.9119212747295
 10
96.07137411762282
 20
154.9119212747295
 10
96.07137411762282
 20
154.9119212747295
 10
100.3012651448482
 20
154.9119212747295
 10
100.3012651448482
 20
154.9119212747295
 10
100.3012651448482
 20
154.9119212747295
 10
99.64152892419852
 20
152.4199098115079
 10
99.64152892419852
 20
152.4199098115079
 10
99.64152892419852
 20
152.4199098115079
 10
95.38097652692731
 20
152.4199098115079
 10
95.38097652692731
 20
152.4199098115079
 10
95.38097652692731
 20
152.4199098115079
 10
87.75353009080013
 20
127.8027915271048
 10
87.75353009080013
 20
127.8027915271048
 10
87.75353009080013
 20
127.8027915271048
 10
85.36538832498108
 20
127.8027915271048
 10
85.36538832498108
 20
127.8027915271048
 10
85.36538832498108
 20
127.8027915271048
 10
93.00006946639998
 20
152.4199098115079
 10
93.00006946639998
 20
152.4199098115079
 10
93.00006946639998
 20
152.4199098115079
 10
89.85297266450198
 20
152.4199098115079
 10
89.85297266450198
 20
152.4199098115079
 10
89.85297266450198
 20
152.4199098115079
 10
90.51270888515164
 20
154.9119212747295
 10
90.51270888515164
 20
154.9119212747295
 10
90.51270888515164
 20
154.9119212747295
 10
93.6904670570955
 20
154.9119212747295
 10
93.6904670570955
 20
154.9119212747295
 10
93.6904670570955
 20
154.9119212747295
 10
94.81598049462158
 20
158.3616699146644
 10
94.81598049462158
 20
158.3616699146644
 10
95.7237637538445
 20
161.2605474231013
 10
96.4968436907311
 20
162.8139420021662
 10
97.15657991138076
 20
163.9844139654337
 10
97.81183750494507
 20
165.1523021053827
 10
99.1047826935081
 20
166.3084769129547
 10
100.4504378777679
 20
166.69157178364
 97
        0
 75
     2
 76
     1
 98
        0
  0
SPLINE
  5
6A6
330
6A2
100
AcDbEntity
  8
LOGO
370
     0
100
AcDbSpline
210
0.0
220
0.0
230
1.0
 70
    11
 71
     3
 72
    38
 73
    34
 74
     0
 42
0.000000001
 43
0.0000000001
 40
0.0
 40
0.0
 40
0.0
 40
0.0
 40
1.0
 40
1.0
 40
1.0
 40
2.0
 40
2.0
 40
2.0
 40
3.0
 40
3.0
 40
3.0
 40
4.0
 40
4.0
 40
4.0
 40
5.0
 40
5.0
 40
5.0
 40
6.0
 40
6.0
 40
6.0
 40
7.0
 40
7.0
 40
7.0
 40
8.0
 40
8.0
 40
8.0
 40
9.0
 40
9.0
 40
9.0
 40
10.0
 40
10.0
 40
10.0
 40
11.0
 40
11.0
 40
11.0
 40
11.0
 10
126.377554584636
 20
154.8151140277308
 30
0.0
 10
126.377554584636
 20
154.8151140277308
 30
0.0
 10
128.8311532078563
 20
154.8151140277308
 30
0.0
 10
128.8311532078563
 20
154.8151140277308
 30
0.0
 10
128.8311532078563
 20
154.8151140277308
 30
0.0
 10
127.7345785914971
 20
151.3062819612468
 30
0.0
 10
127.7345785914971
 20
151.3062819612468
 30
0.0
 10
128.571392836906
 20
152.2922689395754
 30
0.0
 10
129.8860421413442
 20
153.604506675583
 30
0.0
 10
131.0163787157314
 20
154.2664822097754
 30
0.0
 10
132.7044766171327
 20
155.2500576196734
 30
0.0
 10
133.6642808525008
 20
155.3847609420097
 30
0.0
 10
134.7284715499351
 20
155.3565111403944
 30
0.0
 10
134.7284715499351
 20
155.3565111403944
 30
0.0
 10
133.6877075172549
 20
152.0345756272799
 30
0.0
 10
133.6877075172549
 20
152.0345756272799
 30
0.0
 10
133.011434827367
 20
152.3184516825359
 30
0.0
 10
130.930940291334
 20
151.7768823149844
 30
0.0
 10
129.739280976855
 20
150.9162968950455
 30
0.0
 10
128.66613302525
 20
150.1454562717016
 30
0.0
 10
127.9192358313239
 20
149.4857200510519
 30
0.0
 10
127.0393578639405
 20
147.8282835196966
 30
0.0
 10
126.164647543194
 20
146.1699857139017
 30
0.0
 10
125.4742499524985
 20
143.5262176944419
 30
0.0
 10
124.2822461282437
 20
139.6959580071401
 30
0.0
 10
124.2822461282437
 20
139.6959580071401
 30
0.0
 10
120.5753209406769
 20
127.8027915271048
 30
0.0
 10
120.5753209406769
 20
127.8027915271048
 30
0.0
 10
120.5753209406769
 20
127.8027915271048
 30
0.0
 10
118.1964809388044
 20
127.8027915271048
 30
0.0
 10
118.1964809388044
 20
127.8027915271048
 30
0.0
 10
118.1964809388044
 20
127.8027915271048
 30
0.0
 10
126.377554584636
 20
154.8151140277308
 30
0.0
 10
126.377554584636
 20
154.8151140277308
 30
0.0
  0
HATCH
  5
6A7
330
6A2
100
AcDbEntity
  8
LOGO
 62
   250
420
  2234388
100
AcDbHatch
 10
0.0
 20
0.0
 30
0.0
210
0.0
220
0.0
230
1.0
  2
SOLID
 70
     1
 71
     0
 91
        1
 92
        1
 93
        1
 72
     4
 94
        3
 73
     0
 74
     1
 95
       38
 96
       34
 40
0.0
 40
0.0
 40
0.0
 40
0.0
 40
1.0
 40
1.0
 40
1.0
 40
2.0
 40
2.0
 40
2.0
 40
3.0
 40
3.0
 40
3.0
 40
4.0
 40
4.0
 40
4.0
 40
5.0
 40
5.0
 40
5.0
 40
6.0
 40
6.0
 40
6.0
 40
7.0
 40
7.0
 40
7.0
 40
8.0
 40
8.0
 40
8.0
 40
9.0
 40
9.0
 40
9.0
 40
10.0
 40
10.0
 40
10.0
 40
11.0
 40
11.0
 40
11.0
 40
11.0
 10
126.377554584636
 20
154.8151140277308
 10
126.377554584636
 20
154.8151140277308
 10
128.8311532078563
 20
154.8151140277308
 10
128.8311532078563
 20
154.8151140277308
 10
128.8311532078563
 20
154.8151140277308
 10
127.7345785914971
 20
151.3062819612468
 10
127.7345785914971
 20
151.3062819612468
 10
128.571392836906
 20
152.2922689395754
 10
129.8860421413442
 20
153.604506675583
 10
131.0163787157314
 20
154.2664822097754
 10
132.7044766171327
 20
155.2500576196734
 10
133.6642808525008
 20
155.3847609420097
 10
134.7284715499351
 20
155.3565111403944
 10
134.7284715499351
 20
155.3565111403944
 10
133.6877075172549
 20
152.0345756272799
 10
133.6877075172549
 20
152.0345756272799
 10
133.011434827367
 20
152.3184516825359
 10
130.930940291334
 20
151.7768823149844
 10
129.739280976855
 20
150.9162968950455
 10
128.66613302525
 20
150.1454562717016
 10
127.9192358313239
 20
149.4857200510519
 10
127.0393578639405
 20
147.8282835196966
 10
126.164647543194
 20
146.1699857139017
 10
125.4742499524985
 20
143.5262176944419
 10
124.2822461282437
 20
139.6959580071401
 10
124.2822461282437
 20
139.6959580071401
 10
120.5753209406769
 20
127.8027915271048
 10
120.5753209406769
 20
127.8027915271048
 10
120.5753209406769
 20
127.8027915271048
 10
118.1964809388044
 20
127.8027915271048
 10
118.1964809388044
 20
127.8027915271048
 10
118.1964809388044
 20
127.8027915271048
 10
126.377554584636
 20
154.8151140277308
 10
126.377554584636
 20
154.8151140277308
 97
        0
 75
     2
 76
     1
 98
        0
  0
SPLINE
  5
6A8
330
6A2
100
AcDbEntity
  8
LOGO
370
     0
100
AcDbSpline
210
0.0
220
0.0
230
1.0
 70
    11
 71
     3
 72
   104
 73
   100
 74
     0
 42
0.000000001
 43
0.0000000001
 40
0.0
 40
0.0
 40
0.0
 40
0.0
 40
1.0
 40
1.0
 40
1.0
 40
2.0
 40
2.0
 40
2.0
 40
3.0
 40
3.0
 40
3.0
 40
4.0
 40
4.0
 40
4.0
 40
5.0
 40
5.0
 40
5.0
 40
6.0
 40
6.0
 40
6.0
 40
7.0
 40
7.0
 40
7.0
 40
8.0
 40
8.0
 40
8.0
 40
9.0
 40
9.0
 40
9.0
 40
10.0
 40
10.0
 40
10.0
 40
11.0
 40
11.0
 40
11.0
 40
12.0
 40
12.0
 40
12.0
 40
13.0
 40
13.0
 40
13.0
 40
14.0
 40
14.0
 40
14.0
 40
15.0
 40
15.0
 40
15.0
 40
16.0
 40
16.0
 40
16.0
 40
17.0
 40
17.0
 40
17.0
 40
18.0
 40
18.0
 40
18.0
 40
19.0
 40
19.0
 40
19.0
 40
20.0
 40
20.0
 40
20.0
 40
21.0
 40
21.0
 40
21.0
 40
22.0
 40
22.0
 40
22.0
 40
23.0
 40
23.0
 40
23.0
 40
24.0
 40
24.0
 40
24.0
 40
25.0
 40
25.0
 40
25.0
 40
26.0
 40
26.0
 40
26.0
 40
27.0
 40
27.0
 40
27.0
 40
28.0
 40
28.0
 40
28.0
 40
29.0
 40
29.0
 40
29.0
 40
30.0
 40
30.0
 40
30.0
 40
31.0
 40
31.0
 40
31.0
 40
32.0
 40
32.0
 40
32.0
 40
33.0
 40
33.0
 40
33.0
 40
33.0
 10
139.8926730891197
 20
154.8294111834263
 30
0.0
 10
139.8926730891197
 20
154.8294111834263
 30
0.0
 10
142.0344903652445
 20
154.8294111834263
 30
0.0
 10
142.0344903652445
 20
154.8294111834263
 30
0.0
 10
142.0344903652445
 20
154.8294111834263
 30
0.0
 10
140.9516961399171
 20
151.3157559800812
 30
0.0
 10
140.9516961399171
 20
151.3157559800812
 30
0.0
 10
141.8928968473923
 20
152.7887075264977
 30
0.0
 10
142.7341897198865
 20
153.4484437471474
 30
0.0
 10
143.8552245303272
 20
154.2926649527359
 30
0.0
 10
144.9803934580775
 20
155.1296514530327
 30
0.0
 10
146.3139908001845
 20
155.3044901642492
 30
0.0
 10
147.241066606852
 20
155.3044901642492
 30
0.0
 10
148.3855280820469
 20
155.3044901642492
 30
0.0
 10
149.4969166187653
 20
155.0752189084569
 30
0.0
 10
150.0784491203092
 20
153.8172414621372
 30
0.0
 10
150.5228667310863
 20
152.833838307127
 30
0.0
 10
150.5414702589793
 20
152.7201500811143
 30
0.0
 10
150.4140016419347
 20
150.7765981809602
 30
0.0
 10
151.5818897818837
 20
152.7699317437168
 30
0.0
 10
152.4424752018226
 20
153.6256940267945
 30
0.0
 10
153.9038856707499
 20
154.4507949398263
 30
0.0
 10
155.4455669174378
 20
155.3044901642492
 30
0.0
 10
156.339225275853
 20
155.3659851592288
 30
0.0
 10
157.3748216618963
 20
155.2147453676543
 30
0.0
 10
158.911679771723
 20
154.9877134254046
 30
0.0
 10
159.8859534176746
 20
154.4390816074493
 30
0.0
 10
160.3965169054045
 20
152.7816450760939
 30
0.0
 10
160.9070803931344
 20
151.1219692311958
 30
0.0
 10
160.6328506116007
 20
150.2303779314354
 30
0.0
 10
159.9992971339115
 20
147.597634224801
 30
0.0
 10
159.7105979417943
 20
146.4014962832367
 30
0.0
 10
159.2947746424084
 20
144.9400858143094
 30
0.0
 10
158.7463150793409
 20
143.2092687007094
 30
0.0
 10
158.7463150793409
 20
143.2092687007094
 30
0.0
 10
153.9038856707499
 20
127.8027915271048
 30
0.0
 10
153.9038856707499
 20
127.8027915271048
 30
0.0
 10
153.9038856707499
 20
127.8027915271048
 30
0.0
 10
151.3882752878863
 20
127.8027915271048
 30
0.0
 10
151.3882752878863
 20
127.8027915271048
 30
0.0
 10
151.3882752878863
 20
127.8027915271048
 30
0.0
 10
155.6250565106276
 20
141.2751908193897
 30
0.0
 10
155.6250565106276
 20
141.2751908193897
 30
0.0
 10
156.5094131050963
 20
144.0936252951782
 30
0.0
 10
157.109893644309
 20
146.1506931664571
 30
0.0
 10
157.4220195011804
 20
147.4415712963654
 30
0.0
 10
157.8095929989511
 20
149.0530157726519
 30
0.0
 10
157.9656559273867
 20
149.5826995529385
 30
0.0
 10
157.7816877071116
 20
150.7529992613181
 30
0.0
 10
157.6111553680925
 20
151.8430281919372
 30
0.0
 10
157.0582171779396
 20
152.5547853887321
 30
0.0
 10
156.1170164704645
 20
152.5547853887321
 30
0.0
 10
155.1096698860365
 20
152.5547853887321
 30
0.0
 10
154.2962823053817
 20
152.4412694176073
 30
0.0
 10
153.156643967048
 20
151.2945686288697
 30
0.0
 10
152.0170056287143
 20
150.1476955852443
 30
0.0
 10
151.076149431015
 20
148.7930831468137
 30
0.0
 10
150.3337308641742
 20
147.2290087646991
 30
0.0
 10
149.5957909244188
 20
145.6683794803425
 30
0.0
 10
148.8530278478023
 20
143.6822806228776
 30
0.0
 10
148.0964843801539
 20
141.2751908193897
 30
0.0
 10
148.0964843801539
 20
141.2751908193897
 30
0.0
 10
143.8552245303272
 20
127.8027915271048
 30
0.0
 10
143.8552245303272
 20
127.8027915271048
 30
0.0
 10
143.8552245303272
 20
127.8027915271048
 30
0.0
 10
141.486030802177
 20
127.8027915271048
 30
0.0
 10
141.486030802177
 20
127.8027915271048
 30
0.0
 10
141.486030802177
 20
127.8027915271048
 30
0.0
 10
146.3329388378533
 20
143.2092687007094
 30
0.0
 10
146.3329388378533
 20
143.2092687007094
 30
0.0
 10
146.8483254624444
 20
144.8408669988801
 30
0.0
 10
147.2314203331297
 20
146.1837661049335
 30
0.0
 10
147.4867020769946
 20
147.224185627838
 30
0.0
 10
147.9169947869641
 20
149.0197705792876
 30
0.0
 10
148.0306830129768
 20
150.2400242051577
 30
0.0
 10
147.709255392159
 20
151.3157559800812
 30
0.0
 10
147.3874832615654
 20
152.3916600098926
 30
0.0
 10
146.8245542879144
 20
152.6683013598569
 30
0.0
 10
145.8840425999909
 20
152.6683013598569
 30
0.0
 10
145.0989048209514
 20
152.6683013598569
 30
0.0
 10
144.3282364524954
 20
152.3275811915945
 30
0.0
 10
143.4531816219731
 20
151.6538923250251
 30
0.0
 10
142.34627171234
 20
150.8074318058939
 30
0.0
 10
141.901854101563
 20
150.1097995099067
 30
0.0
 10
141.3578731655808
 20
149.289521733736
 30
0.0
 10
140.6299240093235
 20
148.192602607601
 30
0.0
 10
140.2850697237515
 20
147.455696197173
 30
0.0
 10
139.6652966370942
 20
145.8385673095858
 30
0.0
 10
139.0506911970739
 20
144.2214384219986
 30
0.0
 10
138.463991048893
 20
142.3252566160164
 30
0.0
 10
138.0571250036777
 20
141.0154304484394
 30
0.0
 10
138.0571250036777
 20
141.0154304484394
 30
0.0
 10
133.9009590684727
 20
127.8027915271048
 30
0.0
 10
133.9009590684727
 20
127.8027915271048
 30
0.0
 10
133.9009590684727
 20
127.8027915271048
 30
0.0
 10
131.4180771143097
 20
127.8027915271048
 30
0.0
 10
131.4180771143097
 20
127.8027915271048
 30
0.0
 10
131.4180771143097
 20
127.8027915271048
 30
0.0
 10
139.8926730891197
 20
154.8294111834263
 30
0.0
 10
139.8926730891197
 20
154.8294111834263
 30
0.0
  0
HATCH
  5
6A9
330
6A2
100
AcDbEntity
  8
LOGO
 62
   250
420
  2234388
100
AcDbHatch
 10
0.0
 20
0.0
 30
0.0
210
0.0
220
0.0
230
1.0
  2
SOLID
 70
     1
 71
     0
 91
        1
 92
        1
 93
        1
 72
     4
 94
        3
 73
     0
 74
     1
 95
      104
 96
      100
 40
0.0
 40
0.0
 40
0.0
 40
0.0
 40
1.0
 40
1.0
 40
1.0
 40
2.0
 40
2.0
 40
2.0
 40
3.0
 40
3.0
 40
3.0
 40
4.0
 40
4.0
 40
4.0
 40
5.0
 40
5.0
 40
5.0
 40
6.0
 40
6.0
 40
6.0
 40
7.0
 40
7.0
 40
7.0
 40
8.0
 40
8.0
 40
8.0
 40
9.0
 40
9.0
 40
9.0
 40
10.0
 40
10.0
 40
10.0
 40
11.0
 40
11.0
 40
11.0
 40
12.0
 40
12.0
 40
12.0
 40
13.0
 40
13.0
 40
13.0
 40
14.0
 40
14.0
 40
14.0
 40
15.0
 40
15.0
 40
15.0
 40
16.0
 40
16.0
 40
16.0
 40
17.0
 40
17.0
 40
17.0
 40
18.0
 40
18.0
 40
18.0
 40
19.0
 40
19.0
 40
19.0
 40
20.0
 40
20.0
 40
20.0
 40
21.0
 40
21.0
 40
21.0
 40
22.0
 40
22.0
 40
22.0
 40
23.0
 40
23.0
 40
23.0
 40
24.0
 40
24.0
 40
24.0
 40
25.0
 40
25.0
 40
25.0
 40
26.0
 40
26.0
 40
26.0
 40
27.0
 40
27.0
 40
27.0
 40
28.0
 40
28.0
 40
28.0
 40
29.0
 40
29.0
 40
29.0
 40
30.0
 40
30.0
 40
30.0
 40
31.0
 40
31.0
 40
31.0
 40
32.0
 40
32.0
 40
32.0
 40
33.0
 40
33.0
 40
33.0
 40
33.0
 10
139.8926730891197
 20
154.8294111834263
 10
139.8926730891197
 20
154.8294111834263
 10
142.0344903652445
 20
154.8294111834263
 10
142.0344903652445
 20
154.8294111834263
 10
142.0344903652445
 20
154.8294111834263
 10
140.9516961399171
 20
151.3157559800812
 10
140.9516961399171
 20
151.3157559800812
 10
141.8928968473923
 20
152.7887075264977
 10
142.7341897198865
 20
153.4484437471474
 10
143.8552245303272
 20
154.2926649527359
 10
144.9803934580775
 20
155.1296514530327
 10
146.3139908001845
 20
155.3044901642492
 10
147.241066606852
 20
155.3044901642492
 10
148.3855280820469
 20
155.3044901642492
 10
149.4969166187653
 20
155.0752189084569
 10
150.0784491203092
 20
153.8172414621372
 10
150.5228667310863
 20
152.833838307127
 10
150.5414702589793
 20
152.7201500811143
 10
150.4140016419347
 20
150.7765981809602
 10
151.5818897818837
 20
152.7699317437168
 10
152.4424752018226
 20
153.6256940267945
 10
153.9038856707499
 20
154.4507949398263
 10
155.4455669174378
 20
155.3044901642492
 10
156.339225275853
 20
155.3659851592288
 10
157.3748216618963
 20
155.2147453676543
 10
158.911679771723
 20
154.9877134254046
 10
159.8859534176746
 20
154.4390816074493
 10
160.3965169054045
 20
152.7816450760939
 10
160.9070803931344
 20
151.1219692311958
 10
160.6328506116007
 20
150.2303779314354
 10
159.9992971339115
 20
147.597634224801
 10
159.7105979417943
 20
146.4014962832367
 10
159.2947746424084
 20
144.9400858143094
 10
158.7463150793409
 20
143.2092687007094
 10
158.7463150793409
 20
143.2092687007094
 10
153.9038856707499
 20
127.8027915271048
 10
153.9038856707499
 20
127.8027915271048
 10
153.9038856707499
 20
127.8027915271048
 10
151.3882752878863
 20
127.8027915271048
 10
151.3882752878863
 20
127.8027915271048
 10
151.3882752878863
 20
127.8027915271048
 10
155.6250565106276
 20
141.2751908193897
 10
155.6250565106276
 20
141.2751908193897
 10
156.5094131050963
 20
144.0936252951782
 10
157.109893644309
 20
146.1506931664571
 10
157.4220195011804
 20
147.4415712963654
 10
157.8095929989511
 20
149.0530157726519
 10
157.9656559273867
 20
149.5826995529385
 10
157.7816877071116
 20
150.7529992613181
 10
157.6111553680925
 20
151.8430281919372
 10
157.0582171779396
 20
152.5547853887321
 10
156.1170164704645
 20
152.5547853887321
 10
155.1096698860365
 20
152.5547853887321
 10
154.2962823053817
 20
152.4412694176073
 10
153.156643967048
 20
151.2945686288697
 10
152.0170056287143
 20
150.1476955852443
 10
151.076149431015
 20
148.7930831468137
 10
150.3337308641742
 20
147.2290087646991
 10
149.5957909244188
 20
145.6683794803425
 10
148.8530278478023
 20
143.6822806228776
 10
148.0964843801539
 20
141.2751908193897
 10
148.0964843801539
 20
141.2751908193897
 10
143.8552245303272
 20
127.8027915271048
 10
143.8552245303272
 20
127.8027915271048
 10
143.8552245303272
 20
127.8027915271048
 10
141.486030802177
 20
127.8027915271048
 10
141.486030802177
 20
127.8027915271048
 10
141.486030802177
 20
127.8027915271048
 10
146.3329388378533
 20
143.2092687007094
 10
146.3329388378533
 20
143.2092687007094
 10
146.8483254624444
 20
144.8408669988801
 10
147.2314203331297
 20
146.1837661049335
 10
147.4867020769946
 20
147.224185627838
 10
147.9169947869641
 20
149.0197705792876
 10
148.0306830129768
 20
150.2400242051577
 10
147.709255392159
 20
151.3157559800812
 10
147.3874832615654
 20
152.3916600098926
 10
146.8245542879144
 20
152.6683013598569
 10
145.8840425999909
 20
152.6683013598569
 10
145.0989048209514
 20
152.6683013598569
 10
144.3282364524954
 20
152.3275811915945
 10
143.4531816219731
 20
151.6538923250251
 10
142.34627171234
 20
150.8074318058939
 10
141.901854101563
 20
150.1097995099067
 10
141.3578731655808
 20
149.289521733736
 10
140.6299240093235
 20
148.192602607601
 10
140.2850697237515
 20
147.455696197173
 10
139.6652966370942
 20
145.8385673095858
 10
139.0506911970739
 20
144.2214384219986
 10
138.463991048893
 20
142.3252566160164
 10
138.0571250036777
 20
141.0154304484394
 10
138.0571250036777
 20
141.0154304484394
 10
133.9009590684727
 20
127.8027915271048
 10
133.9009590684727
 20
127.8027915271048
 10
133.9009590684727
 20
127.8027915271048
 10
131.4180771143097
 20
127.8027915271048
 10
131.4180771143097
 20
127.8027915271048
 10
131.4180771143097
 20
127.8027915271048
 10
139.8926730891197
 20
154.8294111834263
 10
139.8926730891197
 20
154.8294111834263
 97
        0
 75
     2
 76
     1
 98
        0
  0
SPLINE
  5
6AA
330
6A2
100
AcDbEntity
  8
LOGO
370
     0
100
AcDbSpline
210
0.0
220
0.0
230
1.0
 70
    11
 71
     3
 72
    29
 73
    25
 74
     0
 42
0.000000001
 43
0.0000000001
 40
0.0
 40
0.0
 40
0.0
 40
0.0
 40
1.0
 40
1.0
 40
1.0
 40
2.0
 40
2.0
 40
2.0
 40
3.0
 40
3.0
 40
3.0
 40
4.0
 40
4.0
 40
4.0
 40
5.0
 40
5.0
 40
5.0
 40
6.0
 40
6.0
 40
6.0
 40
7.0
 40
7.0
 40
7.0
 40
8.0
 40
8.0
 40
8.0
 40
8.0
 10
101.6420971922469
 20
132.8388354296931
 30
0.0
 10
101.630039350094
 20
134.7164137077823
 30
0.0
 10
102.2236296937908
 20
138.0598810818841
 30
0.0
 10
103.7487744712405
 20
142.5378191476827
 30
0.0
 10
105.819967243327
 20
148.5896501242061
 30
0.0
 10
107.0602024361932
 20
150.8074318058939
 30
0.0
 10
108.1522984254671
 20
151.8833358357054
 30
0.0
 10
109.741177511439
 20
153.4532668840085
 30
0.0
 10
111.8740375333931
 20
153.5290590346837
 30
0.0
 10
112.5075910110823
 20
153.4532668840085
 30
0.0
 10
113.4012493694975
 20
153.3490526768302
 30
0.0
 10
114.6683563248758
 20
152.7580461564518
 30
0.0
 10
114.7493161221879
 20
150.7838328862519
 30
0.0
 10
114.8106388622796
 20
149.0909118479895
 30
0.0
 10
114.3186789024427
 20
145.9191825971221
 30
0.0
 10
112.6164561002338
 20
140.9489400617108
 30
0.0
 10
110.6444821435766
 20
135.1746117095912
 30
0.0
 10
109.4669477299053
 20
132.8960240524753
 30
0.0
 10
108.5212683953448
 20
131.9072809959403
 30
0.0
 10
106.7346406980658
 20
130.0538184021569
 30
0.0
 10
104.8222669326213
 20
130.2336525051225
 30
0.0
 10
104.5408024457958
 20
130.2336525051225
 30
0.0
 10
104.1721769856939
 20
130.2336525051225
 30
0.0
 10
101.6465758193322
 20
130.6305277668397
 30
0.0
 10
101.6420971922469
 20
132.8388354296931
 30
0.0
  0
SPLINE
  5
6AB
330
6A2
100
AcDbEntity
  8
LOGO
370
     0
100
AcDbSpline
210
0.0
220
0.0
230
1.0
 70
    11
 71
     3
 72
    32
 73
    28
 74
     0
 42
0.000000001
 43
0.0000000001
 40
0.0
 40
0.0
 40
0.0
 40
0.0
 40
1.0
 40
1.0
 40
1.0
 40
2.0
 40
2.0
 40
2.0
 40
3.0
 40
3.0
 40
3.0
 40
4.0
 40
4.0
 40
4.0
 40
5.0
 40
5.0
 40
5.0
 40
6.0
 40
6.0
 40
6.0
 40
7.0
 40
7.0
 40
7.0
 40
8.0
 40
8.0
 40
8.0
 40
9.0
 40
9.0
 40
9.0
 40
9.0
 10
106.2595617172429
 20
153.4105476718098
 30
0.0
 10
104.8222669326213
 20
151.5474388043041
 30
0.0
 10
103.7177685914188
 20
149.8758773721411
 30
0.0
 10
101.9232171692965
 20
144.6141795664062
 30
0.0
 10
100.2754269116635
 20
139.7999999594306
 30
0.0
 10
99.22777268346732
 20
136.3052927937542
 30
0.0
 10
99.06964269637689
 20
132.039572749846
 30
0.0
 10
98.94665270641765
 20
128.8673267343149
 30
0.0
 10
100.8807305877373
 20
127.8027915271048
 30
0.0
 10
103.7129454545577
 20
127.8027915271048
 30
0.0
 10
104.9352661390825
 20
127.8027915271048
 30
0.0
 10
108.0151835347002
 20
127.8827177950895
 30
0.0
 10
110.2045431598849
 20
130.5926316915021
 30
0.0
 10
111.7417457794874
 20
132.4984597712065
 30
0.0
 10
113.155269389579
 20
134.475256864725
 30
0.0
 10
115.0562743324223
 20
140.9489400617108
 30
0.0
 10
116.6361961642235
 20
146.3680788349845
 30
0.0
 10
117.7282921534974
 20
149.8639917848761
 30
0.0
 10
117.6480213757369
 20
151.8595646611754
 30
0.0
 10
117.6480213757369
 20
151.8595646611754
 30
0.0
 10
117.6480213757369
 20
151.8595646611754
 30
0.0
 10
117.6480213757369
 20
151.8595646611754
 30
0.0
 10
117.13229024137
 20
155.18150017429
 30
0.0
 10
114.7162431837115
 20
155.886194920681
 30
0.0
 10
113.3351034925446
 20
155.886194920681
 30
0.0
 10
111.9829026225447
 20
155.886194920681
 30
0.0
 10
108.3414342923792
 20
156.1251124501957
 30
0.0
 10
106.2595617172429
 20
153.4105476718098
 30
0.0
  0
HATCH
  5
6AC
330
6A2
100
AcDbEntity
  8
LOGO
 62
   250
420
  2234388
100
AcDbHatch
 10
0.0
 20
0.0
 30
0.0
210
0.0
220
0.0
230
1.0
  2
SOLID
 70
     1
 71
     0
 91
        2
 92
        1
 93
        1
 72
     4
 94
        3
 73
     0
 74
     1
 95
       29
 96
       25
 40
0.0
 40
0.0
 40
0.0
 40
0.0
 40
1.0
 40
1.0
 40
1.0
 40
2.0
 40
2.0
 40
2.0
 40
3.0
 40
3.0
 40
3.0
 40
4.0
 40
4.0
 40
4.0
 40
5.0
 40
5.0
 40
5.0
 40
6.0
 40
6.0
 40
6.0
 40
7.0
 40
7.0
 40
7.0
 40
8.0
 40
8.0
 40
8.0
 40
8.0
 10
101.6420971922469
 20
132.8388354296931
 10
101.630039350094
 20
134.7164137077823
 10
102.2236296937908
 20
138.0598810818841
 10
103.7487744712405
 20
142.5378191476827
 10
105.819967243327
 20
148.5896501242061
 10
107.0602024361932
 20
150.8074318058939
 10
108.1522984254671
 20
151.8833358357054
 10
109.741177511439
 20
153.4532668840085
 10
111.8740375333931
 20
153.5290590346837
 10
112.5075910110823
 20
153.4532668840085
 10
113.4012493694975
 20
153.3490526768302
 10
114.6683563248758
 20
152.7580461564518
 10
114.7493161221879
 20
150.7838328862519
 10
114.8106388622796
 20
149.0909118479895
 10
114.3186789024427
 20
145.9191825971221
 10
112.6164561002338
 20
140.9489400617108
 10
110.6444821435766
 20
135.1746117095912
 10
109.4669477299053
 20
132.8960240524753
 10
108.5212683953448
 20
131.9072809959403
 10
106.7346406980658
 20
130.0538184021569
 10
104.8222669326213
 20
130.2336525051225
 10
104.5408024457958
 20
130.2336525051225
 10
104.1721769856939
 20
130.2336525051225
 10
101.6465758193322
 20
130.6305277668397
 10
101.6420971922469
 20
132.8388354296931
 97
        0
 92
        1
 93
        1
 72
     4
 94
        3
 73
     0
 74
     1
 95
       32
 96
       28
 40
0.0
 40
0.0
 40
0.0
 40
0.0
 40
1.0
 40
1.0
 40
1.0
 40
2.0
 40
2.0
 40
2.0
 40
3.0
 40
3.0
 40
3.0
 40
4.0
 40
4.0
 40
4.0
 40
5.0
 40
5.0
 40
5.0
 40
6.0
 40
6.0
 40
6.0
 40
7.0
 40
7.0
 40
7.0
 40
8.0
 40
8.0
 40
8.0
 40
9.0
 40
9.0
 40
9.0
 40
9.0
 10
106.2595617172429
 20
153.4105476718098
 10
104.8222669326213
 20
151.5474388043041
 10
103.7177685914188
 20
149.8758773721411
 10
101.9232171692965
 20
144.6141795664062
 10
100.2754269116635
 20
139.7999999594306
 10
99.22777268346732
 20
136.3052927937542
 10
99.06964269637689
 20
132.039572749846
 10
98.94665270641765
 20
128.8673267343149
 10
100.8807305877373
 20
127.8027915271048
 10
103.7129454545577
 20
127.8027915271048
 10
104.9352661390825
 20
127.8027915271048
 10
108.0151835347002
 20
127.8827177950895
 10
110.2045431598849
 20
130.5926316915021
 10
111.7417457794874
 20
132.4984597712065
 10
113.155269389579
 20
134.475256864725
 10
115.0562743324223
 20
140.9489400617108
 10
116.6361961642235
 20
146.3680788349845
 10
117.7282921534974
 20
149.8639917848761
 10
117.6480213757369
 20
151.8595646611754
 10
117.6480213757369
 20
151.8595646611754
 10
117.6480213757369
 20
151.8595646611754
 10
117.6480213757369
 20
151.8595646611754
 10
117.13229024137
 20
155.18150017429
 10
114.7162431837115
 20
155.886194920681
 10
113.3351034925446
 20
155.886194920681
 10
111.9829026225447
 20
155.886194920681
 10
108.3414342923792
 20
156.1251124501957
 10
106.2595617172429
 20
153.4105476718098
 97
        0
 75
     2
 76
     1
 98
        0
  0
ENDBLK
  5
6AD
330
6A2
100
AcDbEntity
  8
0
100
AcDbBlockEnd
  0
BLOCK
  5
D60
330
D5F
100
AcDbEntity
  8
0
100
AcDbBlockBegin
  2
*D6
 70
     1
 10
0.0
 20
0.0
 30
0.0
  3
*D6
  1
*D6
  0
LINE
  5
D62
330
D5F
100
AcDbEntity
  8
MODEL
  6
Continuous
 62
     0
370
    -2
100
AcDbLine
 10
405.0468112244901
 20
974.9479591836734
 30
0.0
 11
990.1075255102048
 21
974.9479591836734
 31
0.0
  0
LINE
  5
D63
330
D5F
100
AcDbEntity
  8
MODEL
  6
Continuous
 62
     0
370
    -2
100
AcDbLine
 10
405.0468112244901
 20
1643.425255102041
 30
0.0
 11
990.1075255102048
 21
1643.425255102041
 31
0.0
  0
LINE
  5
D64
330
D5F
100
AcDbEntity
  8
MODEL
  6
Continuous
 62
     0
370
    -2
100
AcDbLine
 10
990.1075255102048
 20
986.9479591836734
 30
0.0
 11
990.1075255102048
 21
1631.425255102041
 31
0.0
  0
INSERT
  5
D65
330
D5F
100
AcDbEntity
  8
MODEL
 62
     0
370
    -2
100
AcDbBlockReference
  2
_DOT
 10
990.1075255102048
 20
974.9479591836734
 30
0.0
 41
12.0
 42
12.0
 43
12.0
 50
270.0
  0
INSERT
  5
D66
330
D5F
100
AcDbEntity
  8
MODEL
 62
     0
370
    -2
100
AcDbBlockReference
  2
_DOT
 10
990.1075255102048
 20
1643.425255102041
 30
0.0
 41
12.0
 42
12.0
 43
12.0
 50
90.0
  0
MTEXT
  5
D67
330
D5F
100
AcDbEntity
  8
MODEL
  6
Continuous
 62
     0
100
AcDbMText
 10
958.1075255102048
 20
1309.186607142857
 30
0.0
 40
24.0
 41
0.0
 46
0.0
 71
     5
 72
     1
  1
\A1;668
  7
ＭＳ ゴシック
 11
0.0
 21
1.0
 31
0.0
 73
     1
 44
1.0
  0
POINT
  5
D68
330
D5F
100
AcDbEntity
  8
Defpoints
 62
     0
100
AcDbPoint
 10
395.0468112244901
 20
974.9479591836734
 30
0.0
  0
POINT
  5
D69
330
D5F
100
AcDbEntity
  8
Defpoints
 62
     0
100
AcDbPoint
 10
395.0468112244901
 20
1643.425255102041
 30
0.0
  0
POINT
  5
D6A
330
D5F
100
AcDbEntity
  8
Defpoints
 62
     0
100
AcDbPoint
 10
990.1075255102048
 20
1643.425255102041
 30
0.0
  0
ENDBLK
  5
D61
330
D5F
100
AcDbEntity
  8
0
100
AcDbBlockEnd
  0
BLOCK
  5
D78
330
D77
100
AcDbEntity
  8
0
100
AcDbBlockBegin
  2
*D7
 70
     1
 10
0.0
 20
0.0
 30
0.0
  3
*D7
  1
*D7
  0
LINE
  5
D7A
330
D77
100
AcDbEntity
  8
MODEL
  6
Continuous
 62
     0
370
    -2
100
AcDbLine
 10
462.9311929069922
 20
2176.112294228638
 30
0.0
 11
462.9311929069922
 21
2427.836190547095
 31
0.0
  0
LINE
  5
D7B
330
D77
100
AcDbEntity
  8
MODEL
  6
Continuous
 62
     0
370
    -2
100
AcDbLine
 10
1222.299117436598
 20
2176.112294228638
 30
0.0
 11
1222.299117436598
 21
2427.836190547095
 31
0.0
  0
LINE
  5
D7C
330
D77
100
AcDbEntity
  8
MODEL
  6
Continuous
 62
     0
370
    -2
100
AcDbLine
 10
474.9311929069922
 20
2427.836190547095
 30
0.0
 11
1210.299117436598
 21
2427.836190547095
 31
0.0
  0
INSERT
  5
D7D
330
D77
100
AcDbEntity
  8
MODEL
 62
     0
370
    -2
100
AcDbBlockReference
  2
_DOT
 10
462.9311929069922
 20
2427.836190547095
 30
0.0
 41
12.0
 42
12.0
 43
12.0
 50
180.0
  0
INSERT
  5
D7E
330
D77
100
AcDbEntity
  8
MODEL
 62
     0
370
    -2
100
AcDbBlockReference
  2
_DOT
 10
1222.299117436598
 20
2427.836190547095
 30
0.0
 41
12.0
 42
12.0
 43
12.0
  0
MTEXT
  5
D7F
330
D77
100
AcDbEntity
  8
MODEL
  6
Continuous
 62
     0
100
AcDbMText
 10
842.6151551717953
 20
2459.836190547095
 30
0.0
 40
24.0
 41
0.0
 46
0.0
 71
     5
 72
     1
  1
\A1;759
  7
ＭＳ ゴシック
 73
     1
 44
1.0
  0
POINT
  5
D80
330
D77
100
AcDbEntity
  8
Defpoints
 62
     0
100
AcDbPoint
 10
462.9311929069922
 20
2166.112294228638
 30
0.0
  0
POINT
  5
D81
330
D77
100
AcDbEntity
  8
Defpoints
 62
     0
100
AcDbPoint
 10
1222.299117436598
 20
2166.112294228638
 30
0.0
  0
POINT
  5
D82
330
D77
100
AcDbEntity
  8
Defpoints
 62
     0
100
AcDbPoint
 10
1222.299117436598
 20
2427.836190547095
 30
0.0
  0
ENDBLK
  5
D79
330
D77
100
AcDbEntity
  8
0
100
AcDbBlockEnd
  0
BLOCK
  5
D8A
330
D89
100
AcDbEntity
  8
0
100
AcDbBlockBegin
  2
*D8
 70
     1
 10
0.0
 20
0.0
 30
0.0
  3
*D8
  1
*D8
  0
LINE
  5
D8C
330
D89
100
AcDbEntity
  8
MODEL
  6
Continuous
 62
     0
370
    -2
100
AcDbLine
 10
581.4610059718598
 20
2044.835716437608
 30
0.0
 11
581.4610059718598
 21
2208.031762863991
 31
0.0
  0
LINE
  5
D8D
330
D89
100
AcDbEntity
  8
MODEL
  6
Continuous
 62
     0
370
    -2
100
AcDbLine
 10
1441.49369157876
 20
2044.835716437608
 30
0.0
 11
1441.49369157876
 21
2208.031762863991
 31
0.0
  0
LINE
  5
D8E
330
D89
100
AcDbEntity
  8
MODEL
  6
Continuous
 62
     0
370
    -2
100
AcDbLine
 10
593.4610059718598
 20
2208.031762863991
 30
0.0
 11
1429.49369157876
 21
2208.031762863991
 31
0.0
  0
INSERT
  5
D8F
330
D89
100
AcDbEntity
  8
MODEL
 62
     0
370
    -2
100
AcDbBlockReference
  2
_DOT
 10
581.4610059718598
 20
2208.031762863991
 30
0.0
 41
12.0
 42
12.0
 43
12.0
 50
180.0
  0
INSERT
  5
D90
330
D89
100
AcDbEntity
  8
MODEL
 62
     0
370
    -2
100
AcDbBlockReference
  2
_DOT
 10
1441.49369157876
 20
2208.031762863991
 30
0.0
 41
12.0
 42
12.0
 43
12.0
  0
MTEXT
  5
D91
330
D89
100
AcDbEntity
  8
MODEL
  6
Continuous
 62
     0
100
AcDbMText
 10
1011.47734877531
 20
2240.031762863991
 30
0.0
 40
24.0
 41
0.0
 46
0.0
 71
     5
 72
     1
  1
\A1;860
  7
ＭＳ ゴシック
 73
     1
 44
1.0
  0
POINT
  5
D92
330
D89
100
AcDbEntity
  8
Defpoints
 62
     0
100
AcDbPoint
 10
581.4610059718598
 20
2034.835716437608
 30
0.0
  0
POINT
  5
D93
330
D89
100
AcDbEntity
  8
Defpoints
 62
     0
100
AcDbPoint
 10
1441.49369157876
 20
2034.835716437608
 30
0.0
  0
POINT
  5
D94
330
D89
100
AcDbEntity
  8
Defpoints
 62
     0
100
AcDbPoint
 10
1441.49369157876
 20
2208.031762863991
 30
0.0
  0
ENDBLK
  5
D8B
330
D89
100
AcDbEntity
  8
0
100
AcDbBlockEnd
  0
BLOCK
  5
E93
330
E92
100
AcDbEntity
  8
0
100
AcDbBlockBegin
  2
*D9
 70
     1
 10
0.0
 20
0.0
 30
0.0
  3
*D9
  1
*D125
  0
LINE
  5
E94
330
E92
100
AcDbEntity
  8
DIM
  6
Continuous
 62
     0
370
    -2
100
AcDbLine
 10
262.7671372936677
 20
288.7393226611688
 30
0.0
 11
194.0905381821245
 21
288.7393226611688
 31
0.0
  0
LINE
  5
E95
330
E92
100
AcDbEntity
  8
DIM
  6
Continuous
 62
     0
370
    -2
100
AcDbLine
 10
264.2064771218872
 20
738.7393226611688
 30
0.0
 11
194.0905381821246
 21
738.7393226611688
 31
0.0
  0
LINE
  5
E96
330
E92
100
AcDbEntity
  8
DIM
  6
Continuous
 62
     0
370
    -2
100
AcDbLine
 10
194.0905381821245
 20
293.7393226611688
 30
0.0
 11
194.0905381821246
 21
733.7393226611688
 31
0.0
  0
INSERT
  5
E97
330
E92
100
AcDbEntity
  8
DIM
 62
     0
370
    -2
100
AcDbBlockReference
  2
_DOT
 10
194.0905381821245
 20
288.7393226611688
 30
0.0
 41
5.0
 42
5.0
 43
5.0
 50
270.0
  0
INSERT
  5
E98
330
E92
100
AcDbEntity
  8
DIM
 62
     0
370
    -2
100
AcDbBlockReference
  2
_DOT
 10
194.0905381821246
 20
738.7393226611688
 30
0.0
 41
5.0
 42
5.0
 43
5.0
 50
89.99999999999999
  0
MTEXT
  5
E99
330
E92
100
AcDbEntity
  8
DIM
  6
Continuous
 62
     0
100
AcDbMText
 10
162.0905381821245
 20
513.7393226611688
 30
0.0
 40
24.0
 41
0.0
 46
0.0
 71
     5
 72
     1
  1
\A1;450
  7
ＭＳ ゴシック
 11
2.526374171591467E-16
 21
1.0
 31
0.0
 73
     1
 44
1.0
  0
POINT
  5
E9A
330
E92
100
AcDbEntity
  8
Defpoints
 62
     0
100
AcDbPoint
 10
272.7671372936677
 20
288.7393226611688
 30
0.0
  0
POINT
  5
E9B
330
E92
100
AcDbEntity
  8
Defpoints
 62
     0
100
AcDbPoint
 10
274.2064771218872
 20
738.7393226611688
 30
0.0
  0
POINT
  5
E9C
330
E92
100
AcDbEntity
  8
Defpoints
 62
     0
100
AcDbPoint
 10
194.0905381821246
 20
738.7393226611688
 30
0.0
  0
ENDBLK
  5
E9D
330
E92
100
AcDbEntity
  8
0
100
AcDbBlockEnd
  0
BLOCK
  5
EA8
330
EA7
100
AcDbEntity
  8
0
100
AcDbBlockBegin
  2
*D10
 70
     1
 10
0.0
 20
0.0
 30
0.0
  3
*D10
  1
*D126
  0
LINE
  5
EA9
330
EA7
100
AcDbEntity
  8
DIM
  6
Continuous
 62
     0
370
    -2
100
AcDbLine
 10
374.2064771218875
 20
373.7393226611686
 30
0.0
 11
406.1667071319921
 21
373.7393226611686
 31
0.0
  0
LINE
  5
EAA
330
EA7
100
AcDbEntity
  8
DIM
  6
Continuous
 62
     0
370
    -2
100
AcDbLine
 10
372.6921680612045
 20
288.7393226611686
 30
0.0
 11
406.1667071319921
 21
288.7393226611686
 31
0.0
  0
LINE
  5
EAB
330
EA7
100
AcDbEntity
  8
DIM
  6
Continuous
 62
     0
370
    -2
100
AcDbLine
 10
406.1667071319921
 20
368.7393226611686
 30
0.0
 11
406.1667071319921
 21
293.7393226611686
 31
0.0
  0
INSERT
  5
EAC
330
EA7
100
AcDbEntity
  8
DIM
 62
     0
370
    -2
100
AcDbBlockReference
  2
_DOT
 10
406.1667071319921
 20
373.7393226611686
 30
0.0
 41
5.0
 42
5.0
 43
5.0
 50
90.0
  0
INSERT
  5
EAD
330
EA7
100
AcDbEntity
  8
DIM
 62
     0
370
    -2
100
AcDbBlockReference
  2
_DOT
 10
406.1667071319921
 20
288.7393226611686
 30
0.0
 41
5.0
 42
5.0
 43
5.0
 50
270.0
  0
MTEXT
  5
EAE
330
EA7
100
AcDbEntity
  8
DIM
  6
Continuous
 62
     0
100
AcDbMText
 10
374.1667071319921
 20
331.2393226611686
 30
0.0
 40
24.0
 41
0.0
 46
0.0
 71
     5
 72
     1
  1
\A1;85
  7
ＭＳ ゴシック
 11
0.0
 21
1.0
 31
0.0
 73
     1
 44
1.0
  0
POINT
  5
EAF
330
EA7
100
AcDbEntity
  8
Defpoints
 62
     0
100
AcDbPoint
 10
364.2064771218875
 20
373.7393226611686
 30
0.0
  0
POINT
  5
EB0
330
EA7
100
AcDbEntity
  8
Defpoints
 62
     0
100
AcDbPoint
 10
362.6921680612045
 20
288.7393226611686
 30
0.0
  0
POINT
  5
EB1
330
EA7
100
AcDbEntity
  8
Defpoints
 62
     0
100
AcDbPoint
 10
406.1667071319921
 20
288.7393226611686
 30
0.0
  0
ENDBLK
  5
EB2
330
EA7
100
AcDbEntity
  8
0
100
AcDbBlockEnd
  0
BLOCK
  5
EB5
330
EB4
100
AcDbEntity
  8
0
100
AcDbBlockBegin
  2
*D11
 70
     1
 10
0.0
 20
0.0
 30
0.0
  3
*D11
  1
*D127
  0
LINE
  5
EB6
330
EB4
100
AcDbEntity
  8
DIM
  6
Continuous
 62
     0
370
    -2
100
AcDbLine
 10
364.2064771218875
 20
383.7393226611686
 30
0.0
 11
364.2064771218875
 21
409.4509136303089
 31
0.0
  0
LINE
  5
EB7
330
EB4
100
AcDbEntity
  8
DIM
  6
Continuous
 62
     0
370
    -2
100
AcDbLine
 10
269.206477121887
 20
388.8227350457622
 30
0.0
 11
269.206477121887
 21
409.4509136303089
 31
0.0
  0
LINE
  5
EB8
330
EB4
100
AcDbEntity
  8
DIM
  6
Continuous
 62
     0
370
    -2
100
AcDbLine
 10
359.2064771218875
 20
409.4509136303089
 30
0.0
 11
274.206477121887
 21
409.4509136303089
 31
0.0
  0
INSERT
  5
EB9
330
EB4
100
AcDbEntity
  8
DIM
 62
     0
370
    -2
100
AcDbBlockReference
  2
_DOT
 10
364.2064771218875
 20
409.4509136303089
 30
0.0
 41
5.0
 42
5.0
 43
5.0
  0
INSERT
  5
EBA
330
EB4
100
AcDbEntity
  8
DIM
 62
     0
370
    -2
100
AcDbBlockReference
  2
_DOT
 10
269.206477121887
 20
409.4509136303089
 30
0.0
 41
5.0
 42
5.0
 43
5.0
 50
180.0
  0
MTEXT
  5
EBB
330
EB4
100
AcDbEntity
  8
DIM
  6
Continuous
 62
     0
100
AcDbMText
 10
316.7064771218872
 20
441.4509136303089
 30
0.0
 40
24.0
 41
0.0
 46
0.0
 71
     5
 72
     1
  1
\A1;95
  7
ＭＳ ゴシック
 73
     1
 44
1.0
  0
POINT
  5
EBC
330
EB4
100
AcDbEntity
  8
Defpoints
 62
     0
100
AcDbPoint
 10
364.2064771218875
 20
373.7393226611686
 30
0.0
  0
POINT
  5
EBD
330
EB4
100
AcDbEntity
  8
Defpoints
 62
     0
100
AcDbPoint
 10
269.206477121887
 20
378.8227350457622
 30
0.0
  0
POINT
  5
EBE
330
EB4
100
AcDbEntity
  8
Defpoints
 62
     0
100
AcDbPoint
 10
269.206477121887
 20
409.4509136303089
 30
0.0
  0
ENDBLK
  5
EBF
330
EB4
100
AcDbEntity
  8
0
100
AcDbBlockEnd
  0
BLOCK
  5
EC2
330
EC1
100
AcDbEntity
  8
0
100
AcDbBlockBegin
  2
*D12
 70
     1
 10
0.0
 20
0.0
 30
0.0
  3
*D12
  1
*D128
  0
LINE
  5
EC3
330
EC1
100
AcDbEntity
  8
DIM
  6
Continuous
 62
     0
370
    -2
100
AcDbLine
 10
269.2064771218868
 20
282.2999828329424
 30
0.0
 11
269.2064771218868
 21
240.7186809304145
 31
0.0
  0
LINE
  5
EC4
330
EC1
100
AcDbEntity
  8
DIM
  6
Continuous
 62
     0
370
    -2
100
AcDbLine
 10
459.206477121887
 20
281.7393226611686
 30
0.0
 11
459.206477121887
 21
240.7186809304145
 31
0.0
  0
LINE
  5
EC5
330
EC1
100
AcDbEntity
  8
DIM
  6
Continuous
 62
     0
370
    -2
100
AcDbLine
 10
274.2064771218868
 20
240.7186809304145
 30
0.0
 11
454.206477121887
 21
240.7186809304145
 31
0.0
  0
INSERT
  5
EC6
330
EC1
100
AcDbEntity
  8
DIM
 62
     0
370
    -2
100
AcDbBlockReference
  2
_DOT
 10
269.2064771218868
 20
240.7186809304145
 30
0.0
 41
5.0
 42
5.0
 43
5.0
 50
180.0
  0
INSERT
  5
EC7
330
EC1
100
AcDbEntity
  8
DIM
 62
     0
370
    -2
100
AcDbBlockReference
  2
_DOT
 10
459.206477121887
 20
240.7186809304145
 30
0.0
 41
5.0
 42
5.0
 43
5.0
 50
360.0
  0
MTEXT
  5
EC8
330
EC1
100
AcDbEntity
  8
DIM
  6
Continuous
 62
     0
100
AcDbMText
 10
364.2064771218869
 20
272.7186809304145
 30
0.0
 40
24.0
 41
0.0
 46
0.0
 71
     5
 72
     1
  1
\A1;190
  7
ＭＳ ゴシック
 73
     1
 44
1.0
  0
POINT
  5
EC9
330
EC1
100
AcDbEntity
  8
Defpoints
 62
     0
100
AcDbPoint
 10
269.2064771218868
 20
292.2999828329424
 30
0.0
  0
POINT
  5
ECA
330
EC1
100
AcDbEntity
  8
Defpoints
 62
     0
100
AcDbPoint
 10
459.206477121887
 20
291.7393226611686
 30
0.0
  0
POINT
  5
ECB
330
EC1
100
AcDbEntity
  8
Defpoints
 62
     0
100
AcDbPoint
 10
459.206477121887
 20
240.7186809304145
 30
0.0
  0
ENDBLK
  5
ECC
330
EC1
100
AcDbEntity
  8
0
100
AcDbBlockEnd
  0
BLOCK
  5
ED1
330
ED0
100
AcDbEntity
  8
0
100
AcDbBlockBegin
  2
*D13
 70
     1
 10
0.0
 20
0.0
 30
0.0
  3
*D13
  1
*D129
  0
LINE
  5
ED2
330
ED0
100
AcDbEntity
  8
DIM
  6
Continuous
 62
     0
370
    -2
100
AcDbLine
 10
449.206477121887
 20
738.7393226611688
 30
0.0
 11
449.206477121887
 21
779.8861862747275
 31
0.0
  0
LINE
  5
ED3
330
ED0
100
AcDbEntity
  8
DIM
  6
Continuous
 62
     0
370
    -2
100
AcDbLine
 10
279.2064771218872
 20
738.7393226611688
 30
0.0
 11
279.2064771218872
 21
779.8861862747275
 31
0.0
  0
LINE
  5
ED4
330
ED0
100
AcDbEntity
  8
DIM
  6
Continuous
 62
     0
370
    -2
100
AcDbLine
 10
444.206477121887
 20
779.8861862747275
 30
0.0
 11
284.2064771218872
 21
779.8861862747275
 31
0.0
  0
INSERT
  5
ED5
330
ED0
100
AcDbEntity
  8
DIM
 62
     0
370
    -2
100
AcDbBlockReference
  2
_DOT
 10
449.206477121887
 20
779.8861862747275
 30
0.0
 41
5.0
 42
5.0
 43
5.0
  0
INSERT
  5
ED6
330
ED0
100
AcDbEntity
  8
DIM
 62
     0
370
    -2
100
AcDbBlockReference
  2
_DOT
 10
279.2064771218872
 20
779.8861862747275
 30
0.0
 41
5.0
 42
5.0
 43
5.0
 50
180.0
  0
MTEXT
  5
ED7
330
ED0
100
AcDbEntity
  8
DIM
  6
Continuous
 62
     0
100
AcDbMText
 10
364.2064771218871
 20
811.8861862747275
 30
0.0
 40
24.0
 41
0.0
 46
0.0
 71
     5
 72
     1
  1
\A1;170
  7
ＭＳ ゴシック
 73
     1
 44
1.0
  0
POINT
  5
ED8
330
ED0
100
AcDbEntity
  8
Defpoints
 62
     0
100
AcDbPoint
 10
449.206477121887
 20
728.7393226611688
 30
0.0
  0
POINT
  5
ED9
330
ED0
100
AcDbEntity
  8
Defpoints
 62
     0
100
AcDbPoint
 10
279.2064771218872
 20
728.7393226611688
 30
0.0
  0
POINT
  5
EDA
330
ED0
100
AcDbEntity
  8
Defpoints
 62
     0
100
AcDbPoint
 10
279.2064771218872
 20
779.8861862747275
 30
0.0
  0
ENDBLK
  5
EDB
330
ED0
100
AcDbEntity
  8
0
100
AcDbBlockEnd
  0
BLOCK
  5
EE0
330
EDF
100
AcDbEntity
  8
0
100
AcDbBlockBegin
  2
*D14
 70
     1
 10
0.0
 20
0.0
 30
0.0
  3
*D14
  1
*D130
  0
LINE
  5
EE1
330
EDF
100
AcDbEntity
  8
DIM
  6
Continuous
 62
     0
370
    -2
100
AcDbLine
 10
459.206477121887
 20
728.7393226611688
 30
0.0
 11
518.2858270843586
 21
728.7393226611688
 31
0.0
  0
LINE
  5
EE2
330
EDF
100
AcDbEntity
  8
DIM
  6
Continuous
 62
     0
370
    -2
100
AcDbLine
 10
459.206477121887
 20
433.7393226611686
 30
0.0
 11
518.2858270843585
 21
433.7393226611686
 31
0.0
  0
LINE
  5
EE3
330
EDF
100
AcDbEntity
  8
DIM
  6
Continuous
 62
     0
370
    -2
100
AcDbLine
 10
518.2858270843586
 20
723.7393226611688
 30
0.0
 11
518.2858270843585
 21
438.7393226611686
 31
0.0
  0
INSERT
  5
EE4
330
EDF
100
AcDbEntity
  8
DIM
 62
     0
370
    -2
100
AcDbBlockReference
  2
_DOT
 10
518.2858270843586
 20
728.7393226611688
 30
0.0
 41
5.0
 42
5.0
 43
5.0
 50
89.99999999999999
  0
INSERT
  5
EE5
330
EDF
100
AcDbEntity
  8
DIM
 62
     0
370
    -2
100
AcDbBlockReference
  2
_DOT
 10
518.2858270843585
 20
433.7393226611686
 30
0.0
 41
5.0
 42
5.0
 43
5.0
 50
270.0
  0
MTEXT
  5
EE6
330
EDF
100
AcDbEntity
  8
DIM
  6
Continuous
 62
     0
100
AcDbMText
 10
486.2858270843585
 20
581.2393226611687
 30
0.0
 40
24.0
 41
0.0
 46
0.0
 71
     5
 72
     1
  1
\A1;295
  7
ＭＳ ゴシック
 11
3.853791109207321E-16
 21
1.0
 31
0.0
 73
     1
 44
1.0
  0
POINT
  5
EE7
330
EDF
100
AcDbEntity
  8
Defpoints
 62
     0
100
AcDbPoint
 10
449.206477121887
 20
728.7393226611688
 30
0.0
  0
POINT
  5
EE8
330
EDF
100
AcDbEntity
  8
Defpoints
 62
     0
100
AcDbPoint
 10
449.206477121887
 20
433.7393226611686
 30
0.0
  0
POINT
  5
EE9
330
EDF
100
AcDbEntity
  8
Defpoints
 62
     0
100
AcDbPoint
 10
518.2858270843585
 20
433.7393226611686
 30
0.0
  0
ENDBLK
  5
EEA
330
EDF
100
AcDbEntity
  8
0
100
AcDbBlockEnd
  0
BLOCK
  5
EEF
330
EEE
100
AcDbEntity
  8
0
100
AcDbBlockBegin
  2
*D15
 70
     1
 10
0.0
 20
0.0
 30
0.0
  3
*D15
  1
*D131
  0
LINE
  5
EF0
330
EEE
100
AcDbEntity
  8
DIM
  6
Continuous
 62
     0
370
    -2
100
AcDbLine
 10
811.9087740864675
 20
581.2393250453546
 30
0.0
 11
857.4497098178277
 21
581.2393250453546
 31
0.0
  0
LINE
  5
EF1
330
EEE
100
AcDbEntity
  8
DIM
  6
Continuous
 62
     0
370
    -2
100
AcDbLine
 10
796.9087744217436
 20
288.7393208730292
 30
0.0
 11
857.4497098178276
 21
288.7393208730292
 31
0.0
  0
LINE
  5
EF2
330
EEE
100
AcDbEntity
  8
DIM
  6
Continuous
 62
     0
370
    -2
100
AcDbLine
 10
857.4497098178277
 20
576.2393250453546
 30
0.0
 11
857.4497098178276
 21
293.7393208730292
 31
0.0
  0
INSERT
  5
EF3
330
EEE
100
AcDbEntity
  8
DIM
 62
     0
370
    -2
100
AcDbBlockReference
  2
_DOT
 10
857.4497098178277
 20
581.2393250453546
 30
0.0
 41
5.0
 42
5.0
 43
5.0
 50
89.99999999999999
  0
INSERT
  5
EF4
330
EEE
100
AcDbEntity
  8
DIM
 62
     0
370
    -2
100
AcDbBlockReference
  2
_DOT
 10
857.4497098178276
 20
288.7393208730292
 30
0.0
 41
5.0
 42
5.0
 43
5.0
 50
270.0
  0
MTEXT
  5
EF5
330
EEE
100
AcDbEntity
  8
DIM
  6
Continuous
 62
     0
100
AcDbMText
 10
825.4497098178276
 20
434.9893229591919
 30
0.0
 40
24.0
 41
0.0
 46
0.0
 71
     5
 72
     1
  1
\A1;292.5
  7
ＭＳ ゴシック
 11
3.886729439314395E-16
 21
1.0
 31
0.0
 73
     1
 44
1.0
  0
POINT
  5
EF6
330
EEE
100
AcDbEntity
  8
Defpoints
 62
     0
100
AcDbPoint
 10
801.9087740864675
 20
581.2393250453546
 30
0.0
  0
POINT
  5
EF7
330
EEE
100
AcDbEntity
  8
Defpoints
 62
     0
100
AcDbPoint
 10
786.9087744217436
 20
288.7393208730292
 30
0.0
  0
POINT
  5
EF8
330
EEE
100
AcDbEntity
  8
Defpoints
 62
     0
100
AcDbPoint
 10
857.4497098178276
 20
288.7393208730292
 30
0.0
  0
ENDBLK
  5
EF9
330
EEE
100
AcDbEntity
  8
0
100
AcDbBlockEnd
  0
BLOCK
  5
EFC
330
EFB
100
AcDbEntity
  8
0
100
AcDbBlockBegin
  2
*D16
 70
     1
 10
0.0
 20
0.0
 30
0.0
  3
*D16
  1
*D132
  0
LINE
  5
EFD
330
EFB
100
AcDbEntity
  8
DIM
  6
Continuous
 62
     0
370
    -2
100
AcDbLine
 10
731.9087743099849
 20
278.9305622830375
 30
0.0
 11
731.9087743099849
 21
240.7186809304145
 31
0.0
  0
LINE
  5
EFE
330
EFB
100
AcDbEntity
  8
DIM
  6
Continuous
 62
     0
370
    -2
100
AcDbLine
 10
766.9087743099849
 20
278.9305622830375
 30
0.0
 11
766.9087743099849
 21
240.7186809304145
 31
0.0
  0
LINE
  5
EFF
330
EFB
100
AcDbEntity
  8
DIM
  6
Continuous
 62
     0
370
    -2
100
AcDbLine
 10
726.9087743099849
 20
240.7186809304145
 30
0.0
 11
721.9087743099849
 21
240.7186809304145
 31
0.0
  0
LINE
  5
F00
330
EFB
100
AcDbEntity
  8
DIM
  6
Continuous
 62
     0
370
    -2
100
AcDbLine
 10
771.9087743099849
 20
240.7186809304145
 30
0.0
 11
776.9087743099849
 21
240.7186809304145
 31
0.0
  0
INSERT
  5
F01
330
EFB
100
AcDbEntity
  8
DIM
 62
     0
370
    -2
100
AcDbBlockReference
  2
_DOT
 10
731.9087743099849
 20
240.7186809304145
 30
0.0
 41
5.0
 42
5.0
 43
5.0
  0
INSERT
  5
F02
330
EFB
100
AcDbEntity
  8
DIM
 62
     0
370
    -2
100
AcDbBlockReference
  2
_DOT
 10
766.9087743099849
 20
240.7186809304145
 30
0.0
 41
5.0
 42
5.0
 43
5.0
 50
180.0
  0
MTEXT
  5
F03
330
EFB
100
AcDbEntity
  8
DIM
  6
Continuous
 62
     0
100
AcDbMText
 10
749.4087743099849
 20
272.7186809304145
 30
0.0
 40
24.0
 41
0.0
 46
0.0
 71
     5
 72
     1
  1
\A1;35
  7
ＭＳ ゴシック
 73
     1
 44
1.0
  0
POINT
  5
F04
330
EFB
100
AcDbEntity
  8
Defpoints
 62
     0
100
AcDbPoint
 10
731.9087743099849
 20
288.9305622830375
 30
0.0
  0
POINT
  5
F05
330
EFB
100
AcDbEntity
  8
Defpoints
 62
     0
100
AcDbPoint
 10
766.9087743099849
 20
288.9305622830375
 30
0.0
  0
POINT
  5
FEF
330
EFB
100
AcDbEntity
  8
Defpoints
 62
     0
100
AcDbPoint
 10
766.9087743099849
 20
240.7186809304145
 30
0.0
  0
ENDBLK
  5
F06
330
EFB
100
AcDbEntity
  8
0
100
AcDbBlockEnd
  0
BLOCK
  5
F0B
330
F0A
100
AcDbEntity
  8
0
100
AcDbBlockBegin
  2
*D17
 70
     1
 10
0.0
 20
0.0
 30
0.0
  3
*D17
  1
*D133
  0
LINE
  5
F0C
330
F0A
100
AcDbEntity
  8
DIM
  6
Continuous
 62
     0
370
    -2
100
AcDbLine
 10
731.9087743099849
 20
1036.84096917911
 30
0.0
 11
731.9087743099849
 21
1004.443607165605
 31
0.0
  0
LINE
  5
F0D
330
F0A
100
AcDbEntity
  8
DIM
  6
Continuous
 62
     0
370
    -2
100
AcDbLine
 10
791.9087743099849
 20
1036.280309007329
 30
0.0
 11
791.9087743099849
 21
1004.443607165605
 31
0.0
  0
LINE
  5
F0E
330
F0A
100
AcDbEntity
  8
DIM
  6
Continuous
 62
     0
370
    -2
100
AcDbLine
 10
726.9087743099849
 20
1004.443607165605
 30
0.0
 11
721.9087743099849
 21
1004.443607165605
 31
0.0
  0
LINE
  5
F0F
330
F0A
100
AcDbEntity
  8
DIM
  6
Continuous
 62
     0
370
    -2
100
AcDbLine
 10
796.9087743099849
 20
1004.443607165605
 30
0.0
 11
801.9087743099849
 21
1004.443607165605
 31
0.0
  0
INSERT
  5
F10
330
F0A
100
AcDbEntity
  8
DIM
 62
     0
370
    -2
100
AcDbBlockReference
  2
_DOT
 10
731.9087743099849
 20
1004.443607165605
 30
0.0
 41
5.0
 42
5.0
 43
5.0
  0
INSERT
  5
F11
330
F0A
100
AcDbEntity
  8
DIM
 62
     0
370
    -2
100
AcDbBlockReference
  2
_DOT
 10
791.9087743099849
 20
1004.443607165605
 30
0.0
 41
5.0
 42
5.0
 43
5.0
 50
180.0
  0
MTEXT
  5
F12
330
F0A
100
AcDbEntity
  8
DIM
  6
Continuous
 62
     0
100
AcDbMText
 10
761.9087743099849
 20
1036.443607165605
 30
0.0
 40
24.0
 41
0.0
 46
0.0
 71
     5
 72
     1
  1
\A1;60
  7
ＭＳ ゴシック
 73
     1
 44
1.0
  0
POINT
  5
F13
330
F0A
100
AcDbEntity
  8
Defpoints
 62
     0
100
AcDbPoint
 10
731.9087743099849
 20
1046.84096917911
 30
0.0
  0
POINT
  5
F14
330
F0A
100
AcDbEntity
  8
Defpoints
 62
     0
100
AcDbPoint
 10
791.9087743099849
 20
1046.280309007329
 30
0.0
  0
POINT
  5
FF0
330
F0A
100
AcDbEntity
  8
Defpoints
 62
     0
100
AcDbPoint
 10
791.9087743099849
 20
1004.443607165605
 30
0.0
  0
ENDBLK
  5
F15
330
F0A
100
AcDbEntity
  8
0
100
AcDbBlockEnd
  0
BLOCK
  5
F1A
330
F19
100
AcDbEntity
  8
0
100
AcDbBlockBegin
  2
*D18
 70
     1
 10
0.0
 20
0.0
 30
0.0
  3
*D18
  1
*D134
  0
LINE
  5
F1B
330
F19
100
AcDbEntity
  8
DIM
  6
Continuous
 62
     0
370
    -2
100
AcDbLine
 10
791.9087743099849
 20
1038.280309007329
 30
0.0
 11
791.9087743099849
 21
1004.443607165605
 31
0.0
  0
LINE
  5
F1C
330
F19
100
AcDbEntity
  8
DIM
  6
Continuous
 62
     0
370
    -2
100
AcDbLine
 10
801.9087743099849
 20
1093.280309007329
 30
0.0
 11
801.9087743099849
 21
1004.443607165605
 31
0.0
  0
LINE
  5
F1D
330
F19
100
AcDbEntity
  8
DIM
  6
Continuous
 62
     0
370
    -2
100
AcDbLine
 10
801.9087743099849
 20
1004.443607165605
 30
0.0
 11
892.8367743099848
 21
1004.443607165605
 31
0.0
  0
LINE
  5
F1E
330
F19
100
AcDbEntity
  8
DIM
  6
Continuous
 62
     0
370
    -2
100
AcDbLine
 10
791.9087743099849
 20
1004.443607165605
 30
0.0
 11
801.9087743099849
 21
1004.443607165605
 31
0.0
  0
LINE
  5
F1F
330
F19
100
AcDbEntity
  8
DIM
  6
Continuous
 62
     0
370
    -2
100
AcDbLine
 10
786.9087743099849
 20
1004.443607165605
 30
0.0
 11
781.9087743099849
 21
1004.443607165605
 31
0.0
  0
LINE
  5
F20
330
F19
100
AcDbEntity
  8
DIM
  6
Continuous
 62
     0
370
    -2
100
AcDbLine
 10
806.9087743099849
 20
1004.443607165605
 30
0.0
 11
811.9087743099849
 21
1004.443607165605
 31
0.0
  0
INSERT
  5
F21
330
F19
100
AcDbEntity
  8
DIM
 62
     0
370
    -2
100
AcDbBlockReference
  2
_DOT
 10
791.9087743099849
 20
1004.443607165605
 30
0.0
 41
5.0
 42
5.0
 43
5.0
  0
INSERT
  5
F22
330
F19
100
AcDbEntity
  8
DIM
 62
     0
370
    -2
100
AcDbBlockReference
  2
_DOT
 10
801.9087743099849
 20
1004.443607165605
 30
0.0
 41
5.0
 42
5.0
 43
5.0
 50
180.0
  0
MTEXT
  5
F23
330
F19
100
AcDbEntity
  8
DIM
  6
Continuous
 62
     0
100
AcDbMText
 10
859.3727743099848
 20
1036.443607165605
 30
0.0
 40
24.0
 41
0.0
 46
0.0
 71
     5
 72
     1
  1
\A1;10
  7
ＭＳ ゴシック
 73
     1
 44
1.0
  0
POINT
  5
F24
330
F19
100
AcDbEntity
  8
Defpoints
 62
     0
100
AcDbPoint
 10
791.9087743099849
 20
1048.280309007329
 30
0.0
  0
POINT
  5
F25
330
F19
100
AcDbEntity
  8
Defpoints
 62
     0
100
AcDbPoint
 10
801.9087743099849
 20
1103.280309007329
 30
0.0
  0
POINT
  5
F26
330
F19
100
AcDbEntity
  8
Defpoints
 62
     0
100
AcDbPoint
 10
801.9087743099849
 20
1004.443607165605
 30
0.0
  0
ENDBLK
  5
F27
330
F19
100
AcDbEntity
  8
0
100
AcDbBlockEnd
  0
BLOCK
  5
F2A
330
F29
100
AcDbEntity
  8
0
100
AcDbBlockBegin
  2
*D19
 70
     1
 10
0.0
 20
0.0
 30
0.0
  3
*D19
  1
*D135
  0
LINE
  5
F2B
330
F29
100
AcDbEntity
  8
DIM
  6
Continuous
 62
     0
370
    -2
100
AcDbLine
 10
731.9087743099849
 20
1138.280309007329
 30
0.0
 11
551.7727743099849
 21
1138.280309007329
 31
0.0
  0
LINE
  5
F2C
330
F29
100
AcDbEntity
  8
DIM
  6
Continuous
 62
     0
370
    -2
100
AcDbLine
 10
736.9087743099849
 20
1138.280309007329
 30
0.0
 11
776.9087743099849
 21
1138.280309007329
 31
0.0
  0
INSERT
  5
F2D
330
F29
100
AcDbEntity
  8
DIM
 62
     0
370
    -2
100
AcDbBlockReference
  2
_DOT
 10
731.9087743099849
 20
1138.280309007329
 30
0.0
 41
5.0
 42
5.0
 43
5.0
 50
180.0
  0
INSERT
  5
F2E
330
F29
100
AcDbEntity
  8
DIM
 62
     0
370
    -2
100
AcDbBlockReference
  2
_DOT
 10
781.9087743099849
 20
1138.280309007329
 30
0.0
 41
5.0
 42
5.0
 43
5.0
  0
MTEXT
  5
F2F
330
F29
100
AcDbEntity
  8
DIM
  6
Continuous
 62
     0
100
AcDbMText
 10
629.8407743099849
 20
1172.404309007329
 30
0.0
 40
24.0
 41
0.0
 46
0.0
 71
     5
 72
     1
  1
\A1;50(深さ)
  7
ＭＳ ゴシック
 73
     1
 44
1.0
  0
POINT
  5
F30
330
F29
100
AcDbEntity
  8
Defpoints
 62
     0
100
AcDbPoint
 10
731.9087743099849
 20
1160.782009375292
 30
0.0
  0
POINT
  5
F31
330
F29
100
AcDbEntity
  8
Defpoints
 62
     0
100
AcDbPoint
 10
781.9087743099849
 20
1157.166429368087
 30
0.0
  0
POINT
  5
F32
330
F29
100
AcDbEntity
  8
Defpoints
 62
     0
100
AcDbPoint
 10
781.9087743099849
 20
1138.280309007329
 30
0.0
  0
ENDBLK
  5
F33
330
F29
100
AcDbEntity
  8
0
100
AcDbBlockEnd
  0
BLOCK
  5
F38
330
F37
100
AcDbEntity
  8
0
100
AcDbBlockBegin
  2
*D20
 70
     1
 10
0.0
 20
0.0
 30
0.0
  3
*D20
  1
*D136
  0
LINE
  5
F39
330
F37
100
AcDbEntity
  8
DIM
  6
Continuous
 62
     0
370
    -2
100
AcDbLine
 10
811.9087743099849
 20
1138.280309007329
 30
0.0
 11
859.1091364149556
 21
1138.280309007329
 31
0.0
  0
LINE
  5
F3A
330
F37
100
AcDbEntity
  8
DIM
  6
Continuous
 62
     0
370
    -2
100
AcDbLine
 10
798.9087743099849
 20
1233.280309007329
 30
0.0
 11
859.1091364149556
 21
1233.280309007329
 31
0.0
  0
LINE
  5
F3B
330
F37
100
AcDbEntity
  8
DIM
  6
Continuous
 62
     0
370
    -2
100
AcDbLine
 10
859.1091364149556
 20
1143.280309007329
 30
0.0
 11
859.1091364149556
 21
1228.280309007329
 31
0.0
  0
INSERT
  5
F3C
330
F37
100
AcDbEntity
  8
DIM
 62
     0
370
    -2
100
AcDbBlockReference
  2
_DOT
 10
859.1091364149556
 20
1138.280309007329
 30
0.0
 41
5.0
 42
5.0
 43
5.0
 50
270.0
  0
INSERT
  5
F3D
330
F37
100
AcDbEntity
  8
DIM
 62
     0
370
    -2
100
AcDbBlockReference
  2
_DOT
 10
859.1091364149556
 20
1233.280309007329
 30
0.0
 41
5.0
 42
5.0
 43
5.0
 50
90.0
  0
MTEXT
  5
F3E
330
F37
100
AcDbEntity
  8
DIM
  6
Continuous
 62
     0
100
AcDbMText
 10
827.1091364149556
 20
1185.780309007329
 30
0.0
 40
24.0
 41
0.0
 46
0.0
 71
     5
 72
     1
  1
\A1;95
  7
ＭＳ ゴシック
 11
0.0
 21
1.0
 31
0.0
 73
     1
 44
1.0
  0
POINT
  5
F3F
330
F37
100
AcDbEntity
  8
Defpoints
 62
     0
100
AcDbPoint
 10
801.9087743099849
 20
1138.280309007329
 30
0.0
  0
POINT
  5
F40
330
F37
100
AcDbEntity
  8
Defpoints
 62
     0
100
AcDbPoint
 10
788.9087743099849
 20
1233.280309007329
 30
0.0
  0
POINT
  5
F41
330
F37
100
AcDbEntity
  8
Defpoints
 62
     0
100
AcDbPoint
 10
859.1091364149556
 20
1233.280309007329
 30
0.0
  0
ENDBLK
  5
F42
330
F37
100
AcDbEntity
  8
0
100
AcDbBlockEnd
  0
BLOCK
  5
F47
330
F46
100
AcDbEntity
  8
0
100
AcDbBlockBegin
  2
*D21
 70
     1
 10
0.0
 20
0.0
 30
0.0
  3
*D21
  1
*D137
  0
LINE
  5
F48
330
F46
100
AcDbEntity
  8
DIM
  6
Continuous
 62
     0
370
    -2
100
AcDbLine
 10
731.9087743099849
 20
743.7393226611688
 30
0.0
 11
731.9087743099849
 21
814.5959382259629
 31
0.0
  0
LINE
  5
F49
330
F46
100
AcDbEntity
  8
DIM
  6
Continuous
 62
     0
370
    -2
100
AcDbLine
 10
801.9087740864675
 20
626.2393214690759
 30
0.0
 11
801.9087740864675
 21
814.5959382259629
 31
0.0
  0
LINE
  5
F4A
330
F46
100
AcDbEntity
  8
DIM
  6
Continuous
 62
     0
370
    -2
100
AcDbLine
 10
736.9087743099849
 20
814.5959382259629
 30
0.0
 11
796.9087740864675
 21
814.5959382259629
 31
0.0
  0
INSERT
  5
F4B
330
F46
100
AcDbEntity
  8
DIM
 62
     0
370
    -2
100
AcDbBlockReference
  2
_DOT
 10
731.9087743099849
 20
814.5959382259629
 30
0.0
 41
5.0
 42
5.0
 43
5.0
 50
180.0
  0
INSERT
  5
F4C
330
F46
100
AcDbEntity
  8
DIM
 62
     0
370
    -2
100
AcDbBlockReference
  2
_DOT
 10
801.9087740864675
 20
814.5959382259629
 30
0.0
 41
5.0
 42
5.0
 43
5.0
  0
MTEXT
  5
F4D
330
F46
100
AcDbEntity
  8
DIM
  6
Continuous
 62
     0
100
AcDbMText
 10
761.9087743099849
 20
846.5959382259629
 30
0.0
 40
24.0
 41
0.0
 46
0.0
 71
     5
 72
     1
  1
\A1;70
  7
ＭＳ ゴシック
 73
     1
 44
1.0
  0
POINT
  5
F4E
330
F46
100
AcDbEntity
  8
Defpoints
 62
     0
100
AcDbPoint
 10
731.9087743099849
 20
733.7393226611688
 30
0.0
  0
POINT
  5
F4F
330
F46
100
AcDbEntity
  8
Defpoints
 62
     0
100
AcDbPoint
 10
801.9087740864675
 20
616.2393214690759
 30
0.0
  0
POINT
  5
F50
330
F46
100
AcDbEntity
  8
Defpoints
 62
     0
100
AcDbPoint
 10
801.9087740864675
 20
814.5959382259629
 30
0.0
  0
ENDBLK
  5
F51
330
F46
100
AcDbEntity
  8
0
100
AcDbBlockEnd
  0
BLOCK
  5
F54
330
F53
100
AcDbEntity
  8
0
100
AcDbBlockBegin
  2
*D22
 70
     1
 10
0.0
 20
0.0
 30
0.0
  3
*D22
  1
*D138
  0
LINE
  5
F55
330
F53
100
AcDbEntity
  8
DIM
  6
Continuous
 62
     0
370
    -2
100
AcDbLine
 10
724.9087743099849
 20
288.7393226611686
 30
0.0
 11
685.2353911847472
 21
288.7393226611686
 31
0.0
  0
LINE
  5
F56
330
F53
100
AcDbEntity
  8
DIM
  6
Continuous
 62
     0
370
    -2
100
AcDbLine
 10
724.9087743099849
 20
358.7393226611686
 30
0.0
 11
685.2353911847472
 21
358.7393226611686
 31
0.0
  0
LINE
  5
F57
330
F53
100
AcDbEntity
  8
DIM
  6
Continuous
 62
     0
370
    -2
100
AcDbLine
 10
685.2353911847472
 20
293.7393226611686
 30
0.0
 11
685.2353911847472
 21
353.7393226611686
 31
0.0
  0
INSERT
  5
F58
330
F53
100
AcDbEntity
  8
DIM
 62
     0
370
    -2
100
AcDbBlockReference
  2
_DOT
 10
685.2353911847472
 20
288.7393226611686
 30
0.0
 41
5.0
 42
5.0
 43
5.0
 50
270.0
  0
INSERT
  5
F59
330
F53
100
AcDbEntity
  8
DIM
 62
     0
370
    -2
100
AcDbBlockReference
  2
_DOT
 10
685.2353911847472
 20
358.7393226611686
 30
0.0
 41
5.0
 42
5.0
 43
5.0
 50
90.0
  0
MTEXT
  5
F5A
330
F53
100
AcDbEntity
  8
DIM
  6
Continuous
 62
     0
100
AcDbMText
 10
653.2353911847472
 20
323.7393226611686
 30
0.0
 40
24.0
 41
0.0
 46
0.0
 71
     5
 72
     1
  1
\A1;70
  7
ＭＳ ゴシック
 11
0.0
 21
1.0
 31
0.0
 73
     1
 44
1.0
  0
POINT
  5
F5B
330
F53
100
AcDbEntity
  8
Defpoints
 62
     0
100
AcDbPoint
 10
734.9087743099849
 20
288.7393226611686
 30
0.0
  0
POINT
  5
F5C
330
F53
100
AcDbEntity
  8
Defpoints
 62
     0
100
AcDbPoint
 10
734.9087743099849
 20
358.7393226611686
 30
0.0
  0
POINT
  5
F5D
330
F53
100
AcDbEntity
  8
Defpoints
 62
     0
100
AcDbPoint
 10
685.2353911847472
 20
358.7393226611686
 30
0.0
  0
ENDBLK
  5
F5E
330
F53
100
AcDbEntity
  8
0
100
AcDbBlockEnd
  0
BLOCK
  5
F63
330
F62
100
AcDbEntity
  8
0
100
AcDbBlockBegin
  2
*D23
 70
     1
 10
0.0
 20
0.0
 30
0.0
  3
*D23
  1
*D139
  0
LINE
  5
F64
330
F62
100
AcDbEntity
  8
DIM
  6
Continuous
 62
     0
370
    -2
100
AcDbLine
 10
264.2064771218868
 20
288.7393226611688
 30
0.0
 11
231.7405790383195
 21
288.7393226611688
 31
0.0
  0
LINE
  5
F65
330
F62
100
AcDbEntity
  8
DIM
  6
Continuous
 62
     0
370
    -2
100
AcDbLine
 10
269.206477121887
 20
433.7393226611686
 30
0.0
 11
231.7405790383195
 21
433.7393226611686
 31
0.0
  0
LINE
  5
F66
330
F62
100
AcDbEntity
  8
DIM
  6
Continuous
 62
     0
370
    -2
100
AcDbLine
 10
231.7405790383195
 20
293.7393226611688
 30
0.0
 11
231.7405790383195
 21
428.7393226611686
 31
0.0
  0
INSERT
  5
F67
330
F62
100
AcDbEntity
  8
DIM
 62
     0
370
    -2
100
AcDbBlockReference
  2
_DOT
 10
231.7405790383195
 20
288.7393226611688
 30
0.0
 41
5.0
 42
5.0
 43
5.0
 50
270.0
  0
INSERT
  5
F68
330
F62
100
AcDbEntity
  8
DIM
 62
     0
370
    -2
100
AcDbBlockReference
  2
_DOT
 10
231.7405790383195
 20
433.7393226611686
 30
0.0
 41
5.0
 42
5.0
 43
5.0
 50
89.99999999999999
  0
MTEXT
  5
F69
330
F62
100
AcDbEntity
  8
DIM
  6
Continuous
 62
     0
100
AcDbMText
 10
199.7405790383195
 20
361.2393226611687
 30
0.0
 40
24.0
 41
0.0
 46
0.0
 71
     5
 72
     1
  1
\A1;145
  7
ＭＳ ゴシック
 11
1.960117891752003E-16
 21
1.0
 31
0.0
 73
     1
 44
1.0
  0
POINT
  5
F6A
330
F62
100
AcDbEntity
  8
Defpoints
 62
     0
100
AcDbPoint
 10
274.2064771218868
 20
288.7393226611688
 30
0.0
  0
POINT
  5
F6B
330
F62
100
AcDbEntity
  8
Defpoints
 62
     0
100
AcDbPoint
 10
279.206477121887
 20
433.7393226611686
 30
0.0
  0
POINT
  5
F6C
330
F62
100
AcDbEntity
  8
Defpoints
 62
     0
100
AcDbPoint
 10
231.7405790383195
 20
433.7393226611686
 30
0.0
  0
ENDBLK
  5
F6D
330
F62
100
AcDbEntity
  8
0
100
AcDbBlockEnd
  0
BLOCK
  5
F72
330
F71
100
AcDbEntity
  8
0
100
AcDbBlockBegin
  2
*D24
 70
     1
 10
0.0
 20
0.0
 30
0.0
  3
*D24
  1
*D140
  0
LINE
  5
F73
330
F71
100
AcDbEntity
  8
DIM
  6
Continuous
 62
     0
370
    -2
100
AcDbLine
 10
726.9087743099849
 20
738.7393226611688
 30
0.0
 11
685.2353911847481
 21
738.7393226611688
 31
0.0
  0
LINE
  5
F74
330
F71
100
AcDbEntity
  8
DIM
  6
Continuous
 62
     0
370
    -2
100
AcDbLine
 10
721.9087756510894
 20
703.7393226611688
 30
0.0
 11
685.2353911847481
 21
703.7393226611688
 31
0.0
  0
LINE
  5
F75
330
F71
100
AcDbEntity
  8
DIM
  6
Continuous
 62
     0
370
    -2
100
AcDbLine
 10
685.2353911847481
 20
743.7393226611688
 30
0.0
 11
685.2353911847481
 21
748.7393226611688
 31
0.0
  0
LINE
  5
F76
330
F71
100
AcDbEntity
  8
DIM
  6
Continuous
 62
     0
370
    -2
100
AcDbLine
 10
685.2353911847481
 20
698.7393226611688
 30
0.0
 11
685.2353911847481
 21
693.7393226611688
 31
0.0
  0
INSERT
  5
F77
330
F71
100
AcDbEntity
  8
DIM
 62
     0
370
    -2
100
AcDbBlockReference
  2
_DOT
 10
685.2353911847481
 20
738.7393226611688
 30
0.0
 41
5.0
 42
5.0
 43
5.0
 50
270.0
  0
INSERT
  5
F78
330
F71
100
AcDbEntity
  8
DIM
 62
     0
370
    -2
100
AcDbBlockReference
  2
_DOT
 10
685.2353911847481
 20
703.7393226611688
 30
0.0
 41
5.0
 42
5.0
 43
5.0
 50
90.0
  0
MTEXT
  5
F79
330
F71
100
AcDbEntity
  8
DIM
  6
Continuous
 62
     0
100
AcDbMText
 10
653.2353911847481
 20
721.2393226611688
 30
0.0
 40
24.0
 41
0.0
 46
0.0
 71
     5
 72
     1
  1
\A1;35
  7
ＭＳ ゴシック
 11
0.0
 21
1.0
 31
0.0
 73
     1
 44
1.0
  0
POINT
  5
F7A
330
F71
100
AcDbEntity
  8
Defpoints
 62
     0
100
AcDbPoint
 10
736.9087743099849
 20
738.7393226611688
 30
0.0
  0
POINT
  5
F7B
330
F71
100
AcDbEntity
  8
Defpoints
 62
     0
100
AcDbPoint
 10
731.9087756510894
 20
703.7393226611688
 30
0.0
  0
POINT
  5
FF1
330
F71
100
AcDbEntity
  8
Defpoints
 62
     0
100
AcDbPoint
 10
685.2353911847481
 20
703.7393226611688
 30
0.0
  0
ENDBLK
  5
F7C
330
F71
100
AcDbEntity
  8
0
100
AcDbBlockEnd
  0
BLOCK
  5
F7F
330
F7E
100
AcDbEntity
  8
0
100
AcDbBlockBegin
  2
*D25
 70
     1
 10
0.0
 20
0.0
 30
0.0
  3
*D25
  1
*D141
  0
LINE
  5
F80
330
F7E
100
AcDbEntity
  8
DIM
  6
Continuous
 62
     0
370
    -2
100
AcDbLine
 10
731.9087743099849
 20
745.1786624893952
 30
0.0
 11
731.9087743099849
 21
779.8861862747275
 31
0.0
  0
LINE
  5
F81
330
F7E
100
AcDbEntity
  8
DIM
  6
Continuous
 62
     0
370
    -2
100
AcDbLine
 10
767.9087743099849
 20
745.1786624893952
 30
0.0
 11
767.9087743099849
 21
779.8861862747275
 31
0.0
  0
LINE
  5
F82
330
F7E
100
AcDbEntity
  8
DIM
  6
Continuous
 62
     0
370
    -2
100
AcDbLine
 10
726.9087743099849
 20
779.8861862747275
 30
0.0
 11
721.9087743099849
 21
779.8861862747275
 31
0.0
  0
LINE
  5
F83
330
F7E
100
AcDbEntity
  8
DIM
  6
Continuous
 62
     0
370
    -2
100
AcDbLine
 10
772.9087743099849
 20
779.8861862747275
 30
0.0
 11
777.9087743099849
 21
779.8861862747275
 31
0.0
  0
INSERT
  5
F84
330
F7E
100
AcDbEntity
  8
DIM
 62
     0
370
    -2
100
AcDbBlockReference
  2
_DOT
 10
731.9087743099849
 20
779.8861862747275
 30
0.0
 41
5.0
 42
5.0
 43
5.0
  0
INSERT
  5
F85
330
F7E
100
AcDbEntity
  8
DIM
 62
     0
370
    -2
100
AcDbBlockReference
  2
_DOT
 10
767.9087743099849
 20
779.8861862747275
 30
0.0
 41
5.0
 42
5.0
 43
5.0
 50
180.0
  0
MTEXT
  5
F86
330
F7E
100
AcDbEntity
  8
DIM
  6
Continuous
 62
     0
100
AcDbMText
 10
749.9087743099849
 20
811.8861862747275
 30
0.0
 40
24.0
 41
0.0
 46
0.0
 71
     5
 72
     1
  1
\A1;36
  7
ＭＳ ゴシック
 73
     1
 44
1.0
  0
POINT
  5
F87
330
F7E
100
AcDbEntity
  8
Defpoints
 62
     0
100
AcDbPoint
 10
731.9087743099849
 20
735.1786624893952
 30
0.0
  0
POINT
  5
F88
330
F7E
100
AcDbEntity
  8
Defpoints
 62
     0
100
AcDbPoint
 10
767.9087743099849
 20
735.1786624893952
 30
0.0
  0
POINT
  5
FF2
330
F7E
100
AcDbEntity
  8
Defpoints
 62
     0
100
AcDbPoint
 10
767.9087743099849
 20
779.8861862747275
 30
0.0
  0
ENDBLK
  5
F89
330
F7E
100
AcDbEntity
  8
0
100
AcDbBlockEnd
  0
BLOCK
  5
F97
330
F96
100
AcDbEntity
  8
0
100
AcDbBlockBegin
  2
*D26
 70
     1
 10
0.0
 20
0.0
 30
0.0
  3
*D26
  1
*D142
  0
LINE
  5
F98
330
F96
100
AcDbEntity
  8
MODEL
  6
Continuous
 62
     0
370
    -2
100
AcDbLine
 10
269.2064771218882
 20
1350.939464502728
 30
0.0
 11
269.2064771218882
 21
1393.996367881161
 31
0.0
  0
LINE
  5
F99
330
F96
100
AcDbEntity
  8
MODEL
  6
Continuous
 62
     0
370
    -2
100
AcDbLine
 10
314.2064771218884
 20
1350.939464502728
 30
0.0
 11
314.2064771218884
 21
1393.996367881161
 31
0.0
  0
LINE
  5
F9A
330
F96
100
AcDbEntity
  8
MODEL
  6
Continuous
 62
     0
370
    -2
100
AcDbLine
 10
264.2064771218882
 20
1393.996367881161
 30
0.0
 11
259.2064771218882
 21
1393.996367881161
 31
0.0
  0
LINE
  5
F9B
330
F96
100
AcDbEntity
  8
MODEL
  6
Continuous
 62
     0
370
    -2
100
AcDbLine
 10
319.2064771218884
 20
1393.996367881161
 30
0.0
 11
324.2064771218884
 21
1393.996367881161
 31
0.0
  0
INSERT
  5
F9C
330
F96
100
AcDbEntity
  8
MODEL
 62
     0
370
    -2
100
AcDbBlockReference
  2
_DOT
 10
269.2064771218882
 20
1393.996367881161
 30
0.0
 41
5.0
 42
5.0
 43
5.0
  0
INSERT
  5
F9D
330
F96
100
AcDbEntity
  8
MODEL
 62
     0
370
    -2
100
AcDbBlockReference
  2
_DOT
 10
314.2064771218884
 20
1393.996367881161
 30
0.0
 41
5.0
 42
5.0
 43
5.0
 50
180.0
  0
MTEXT
  5
F9E
330
F96
100
AcDbEntity
  8
MODEL
  6
Continuous
 62
     0
100
AcDbMText
 10
291.7064771218883
 20
1425.996367881161
 30
0.0
 40
24.0
 41
0.0
 46
0.0
 71
     5
 72
     1
  1
\A1;45
  7
ＭＳ ゴシック
 73
     1
 44
1.0
  0
POINT
  5
F9F
330
F96
100
AcDbEntity
  8
Defpoints
 62
     0
100
AcDbPoint
 10
269.2064771218882
 20
1340.939464502728
 30
0.0
  0
POINT
  5
FA0
330
F96
100
AcDbEntity
  8
Defpoints
 62
     0
100
AcDbPoint
 10
314.2064771218884
 20
1340.939464502728
 30
0.0
  0
POINT
  5
FF3
330
F96
100
AcDbEntity
  8
Defpoints
 62
     0
100
AcDbPoint
 10
314.2064771218884
 20
1393.996367881161
 30
0.0
  0
ENDBLK
  5
FA1
330
F96
100
AcDbEntity
  8
0
100
AcDbBlockEnd
  0
BLOCK
  5
FA4
330
FA3
100
AcDbEntity
  8
0
100
AcDbBlockBegin
  2
*D27
 70
     1
 10
0.0
 20
0.0
 30
0.0
  3
*D27
  1
*D143
  0
LINE
  5
FA5
330
FA3
100
AcDbEntity
  8
MODEL
  6
Continuous
 62
     0
370
    -2
100
AcDbLine
 10
314.2064771218884
 20
1350.939464502728
 30
0.0
 11
314.2064771218884
 21
1393.996367881161
 31
0.0
  0
LINE
  5
FA6
330
FA3
100
AcDbEntity
  8
MODEL
  6
Continuous
 62
     0
370
    -2
100
AcDbLine
 10
414.2064771218884
 20
1350.939464502728
 30
0.0
 11
414.2064771218884
 21
1393.996367881161
 31
0.0
  0
LINE
  5
FA7
330
FA3
100
AcDbEntity
  8
MODEL
  6
Continuous
 62
     0
370
    -2
100
AcDbLine
 10
319.2064771218884
 20
1393.996367881161
 30
0.0
 11
409.2064771218884
 21
1393.996367881161
 31
0.0
  0
INSERT
  5
FA8
330
FA3
100
AcDbEntity
  8
MODEL
 62
     0
370
    -2
100
AcDbBlockReference
  2
_DOT
 10
314.2064771218884
 20
1393.996367881161
 30
0.0
 41
5.0
 42
5.0
 43
5.0
 50
180.0
  0
INSERT
  5
FA9
330
FA3
100
AcDbEntity
  8
MODEL
 62
     0
370
    -2
100
AcDbBlockReference
  2
_DOT
 10
414.2064771218884
 20
1393.996367881161
 30
0.0
 41
5.0
 42
5.0
 43
5.0
  0
MTEXT
  5
FAA
330
FA3
100
AcDbEntity
  8
MODEL
  6
Continuous
 62
     0
100
AcDbMText
 10
364.2064771218884
 20
1425.996367881161
 30
0.0
 40
24.0
 41
0.0
 46
0.0
 71
     5
 72
     1
  1
\A1;100
  7
ＭＳ ゴシック
 73
     1
 44
1.0
  0
POINT
  5
FAB
330
FA3
100
AcDbEntity
  8
Defpoints
 62
     0
100
AcDbPoint
 10
314.2064771218884
 20
1340.939464502728
 30
0.0
  0
POINT
  5
FAC
330
FA3
100
AcDbEntity
  8
Defpoints
 62
     0
100
AcDbPoint
 10
414.2064771218884
 20
1340.939464502728
 30
0.0
  0
POINT
  5
FAD
330
FA3
100
AcDbEntity
  8
Defpoints
 62
     0
100
AcDbPoint
 10
414.2064771218884
 20
1393.996367881161
 30
0.0
  0
ENDBLK
  5
FAE
330
FA3
100
AcDbEntity
  8
0
100
AcDbBlockEnd
  0
BLOCK
  5
FB1
330
FB0
100
AcDbEntity
  8
0
100
AcDbBlockBegin
  2
*D28
 70
     1
 10
0.0
 20
0.0
 30
0.0
  3
*D28
  1
*D144
  0
LINE
  5
FB2
330
FB0
100
AcDbEntity
  8
MODEL
  6
Continuous
 62
     0
370
    -2
100
AcDbLine
 10
467.9406765832464
 20
1341.907733947812
 30
0.0
 11
518.285827084359
 21
1341.907733947812
 31
0.0
  0
LINE
  5
FB3
330
FB0
100
AcDbEntity
  8
MODEL
  6
Continuous
 62
     0
370
    -2
100
AcDbLine
 10
467.9406765832464
 20
1241.907733947812
 30
0.0
 11
518.285827084359
 21
1241.907733947812
 31
0.0
  0
LINE
  5
FB4
330
FB0
100
AcDbEntity
  8
MODEL
  6
Continuous
 62
     0
370
    -2
100
AcDbLine
 10
518.285827084359
 20
1336.907733947812
 30
0.0
 11
518.285827084359
 21
1246.907733947812
 31
0.0
  0
INSERT
  5
FB5
330
FB0
100
AcDbEntity
  8
MODEL
 62
     0
370
    -2
100
AcDbBlockReference
  2
_DOT
 10
518.285827084359
 20
1341.907733947812
 30
0.0
 41
5.0
 42
5.0
 43
5.0
 50
90.0
  0
INSERT
  5
FB6
330
FB0
100
AcDbEntity
  8
MODEL
 62
     0
370
    -2
100
AcDbBlockReference
  2
_DOT
 10
518.285827084359
 20
1241.907733947812
 30
0.0
 41
5.0
 42
5.0
 43
5.0
 50
270.0
  0
MTEXT
  5
FB7
330
FB0
100
AcDbEntity
  8
MODEL
  6
Continuous
 62
     0
100
AcDbMText
 10
486.285827084359
 20
1291.907733947812
 30
0.0
 40
24.0
 41
0.0
 46
0.0
 71
     5
 72
     1
  1
\A1;100
  7
ＭＳ ゴシック
 11
0.0
 21
1.0
 31
0.0
 73
     1
 44
1.0
  0
POINT
  5
FB8
330
FB0
100
AcDbEntity
  8
Defpoints
 62
     0
100
AcDbPoint
 10
457.9406765832464
 20
1341.907733947812
 30
0.0
  0
POINT
  5
FB9
330
FB0
100
AcDbEntity
  8
Defpoints
 62
     0
100
AcDbPoint
 10
457.9406765832464
 20
1241.907733947812
 30
0.0
  0
POINT
  5
FBA
330
FB0
100
AcDbEntity
  8
Defpoints
 62
     0
100
AcDbPoint
 10
518.285827084359
 20
1241.907733947812
 30
0.0
  0
ENDBLK
  5
FBB
330
FB0
100
AcDbEntity
  8
0
100
AcDbBlockEnd
  0
BLOCK
  5
FBE
330
FBD
100
AcDbEntity
  8
0
100
AcDbBlockBegin
  2
*D29
 70
     1
 10
0.0
 20
0.0
 30
0.0
  3
*D29
  1
*D145
  0
LINE
  5
FBF
330
FBD
100
AcDbEntity
  8
MODEL
  6
Continuous
 62
     0
370
    -2
100
AcDbLine
 10
467.9406765832464
 20
1241.907733947812
 30
0.0
 11
518.2858270843586
 21
1241.907733947812
 31
0.0
  0
LINE
  5
FC0
330
FBD
100
AcDbEntity
  8
MODEL
  6
Continuous
 62
     0
370
    -2
100
AcDbLine
 10
467.9406765832459
 20
941.9077339478121
 30
0.0
 11
518.2858270843585
 21
941.9077339478121
 31
0.0
  0
LINE
  5
FC1
330
FBD
100
AcDbEntity
  8
MODEL
  6
Continuous
 62
     0
370
    -2
100
AcDbLine
 10
518.2858270843586
 20
1236.907733947812
 30
0.0
 11
518.2858270843585
 21
946.9077339478121
 31
0.0
  0
INSERT
  5
FC2
330
FBD
100
AcDbEntity
  8
MODEL
 62
     0
370
    -2
100
AcDbBlockReference
  2
_DOT
 10
518.2858270843586
 20
1241.907733947812
 30
0.0
 41
5.0
 42
5.0
 43
5.0
 50
89.99999999999999
  0
INSERT
  5
FC3
330
FBD
100
AcDbEntity
  8
MODEL
 62
     0
370
    -2
100
AcDbBlockReference
  2
_DOT
 10
518.2858270843585
 20
941.9077339478121
 30
0.0
 41
5.0
 42
5.0
 43
5.0
 50
270.0
  0
MTEXT
  5
FC4
330
FBD
100
AcDbEntity
  8
MODEL
  6
Continuous
 62
     0
100
AcDbMText
 10
486.2858270843585
 20
1091.907733947812
 30
0.0
 40
24.0
 41
0.0
 46
0.0
 71
     5
 72
     1
  1
\A1;300
  7
ＭＳ ゴシック
 11
3.789561257387202E-16
 21
1.0
 31
0.0
 73
     1
 44
1.0
  0
POINT
  5
FC5
330
FBD
100
AcDbEntity
  8
Defpoints
 62
     0
100
AcDbPoint
 10
457.9406765832464
 20
1241.907733947812
 30
0.0
  0
POINT
  5
FC6
330
FBD
100
AcDbEntity
  8
Defpoints
 62
     0
100
AcDbPoint
 10
457.9406765832459
 20
941.9077339478121
 30
0.0
  0
POINT
  5
FC7
330
FBD
100
AcDbEntity
  8
Defpoints
 62
     0
100
AcDbPoint
 10
518.2858270843585
 20
941.9077339478121
 30
0.0
  0
ENDBLK
  5
FC8
330
FBD
100
AcDbEntity
  8
0
100
AcDbBlockEnd
  0
BLOCK
  5
10E2
330
10E1
100
AcDbEntity
  8
0
100
AcDbBlockBegin
  2
*D30
 70
     1
 10
0.0
 20
0.0
 30
0.0
  3
*D30
  1
*D31
  0
LINE
  5
10E4
330
10E1
100
AcDbEntity
  8
DIM
  6
Continuous
 62
     0
370
    -2
100
AcDbLine
 10
377.8658902423974
 20
2166.597609423778
 30
0.0
 11
377.8658902423974
 21
2268.413677448338
 31
0.0
  0
LINE
  5
10E5
330
10E1
100
AcDbEntity
  8
DIM
  6
Continuous
 62
     0
370
    -2
100
AcDbLine
 10
827.8658902423974
 20
2151.786155579268
 30
0.0
 11
827.8658902423974
 21
2268.413677448338
 31
0.0
  0
LINE
  5
10E6
330
10E1
100
AcDbEntity
  8
DIM
  6
Continuous
 62
     0
370
    -2
100
AcDbLine
 10
382.8658902423974
 20
2268.413677448338
 30
0.0
 11
822.8658902423974
 21
2268.413677448338
 31
0.0
  0
INSERT
  5
10E7
330
10E1
100
AcDbEntity
  8
DIM
 62
     0
370
    -2
100
AcDbBlockReference
  2
_DOT
 10
377.8658902423974
 20
2268.413677448338
 30
0.0
 41
5.0
 42
5.0
 43
5.0
 50
180.0
  0
INSERT
  5
10E8
330
10E1
100
AcDbEntity
  8
DIM
 62
     0
370
    -2
100
AcDbBlockReference
  2
_DOT
 10
827.8658902423974
 20
2268.413677448338
 30
0.0
 41
5.0
 42
5.0
 43
5.0
  0
MTEXT
  5
10E9
330
10E1
100
AcDbEntity
  8
DIM
  6
Continuous
 62
     0
100
AcDbMText
 10
602.8658902423974
 20
2300.413677448338
 30
0.0
 40
24.0
 41
0.0
 46
0.0
 71
     5
 72
     1
  1
\A1;450
  7
ＭＳ ゴシック
 73
     1
 44
1.0
  0
POINT
  5
10EA
330
10E1
100
AcDbEntity
  8
Defpoints
 62
     0
100
AcDbPoint
 10
377.8658902423974
 20
2156.597609423778
 30
0.0
  0
POINT
  5
10EB
330
10E1
100
AcDbEntity
  8
Defpoints
 62
     0
100
AcDbPoint
 10
827.8658902423974
 20
2141.786155579268
 30
0.0
  0
POINT
  5
10EC
330
10E1
100
AcDbEntity
  8
Defpoints
 62
     0
100
AcDbPoint
 10
827.8658902423974
 20
2268.413677448338
 30
0.0
  0
ENDBLK
  5
10E3
330
10E1
100
AcDbEntity
  8
0
100
AcDbBlockEnd
  0
BLOCK
  5
10EE
330
10ED
100
AcDbEntity
  8
0
100
AcDbBlockBegin
  2
*D31
 70
     1
 10
0.0
 20
0.0
 30
0.0
  3
*D31
  1
*D32
  0
LINE
  5
10F0
330
10ED
100
AcDbEntity
  8
DIM
  6
Continuous
 62
     0
370
    -2
100
AcDbLine
 10
462.865890242397
 20
1961.304423811476
 30
0.0
 11
462.865890242397
 21
1929.344193801371
 31
0.0
  0
LINE
  5
10F1
330
10ED
100
AcDbEntity
  8
DIM
  6
Continuous
 62
     0
370
    -2
100
AcDbLine
 10
377.865890242397
 20
1962.81873287216
 30
0.0
 11
377.865890242397
 21
1929.344193801371
 31
0.0
  0
LINE
  5
10F2
330
10ED
100
AcDbEntity
  8
DIM
  6
Continuous
 62
     0
370
    -2
100
AcDbLine
 10
450.865890242397
 20
1929.344193801371
 30
0.0
 11
389.865890242397
 21
1929.344193801371
 31
0.0
  0
INSERT
  5
10F3
330
10ED
100
AcDbEntity
  8
DIM
 62
     0
370
    -2
100
AcDbBlockReference
  2
_DOT
 10
462.865890242397
 20
1929.344193801371
 30
0.0
 41
12.0
 42
12.0
 43
12.0
  0
INSERT
  5
10F4
330
10ED
100
AcDbEntity
  8
DIM
 62
     0
370
    -2
100
AcDbBlockReference
  2
_DOT
 10
377.865890242397
 20
1929.344193801371
 30
0.0
 41
12.0
 42
12.0
 43
12.0
 50
180.0
  0
MTEXT
  5
10F5
330
10ED
100
AcDbEntity
  8
DIM
  6
Continuous
 62
     0
100
AcDbMText
 10
420.365890242397
 20
1961.344193801371
 30
0.0
 40
24.0
 41
0.0
 46
0.0
 71
     5
 72
     1
  1
\A1;85
  7
ＭＳ ゴシック
 73
     1
 44
1.0
  0
POINT
  5
10F6
330
10ED
100
AcDbEntity
  8
Defpoints
 62
     0
100
AcDbPoint
 10
462.865890242397
 20
1971.304423811476
 30
0.0
  0
POINT
  5
10F7
330
10ED
100
AcDbEntity
  8
Defpoints
 62
     0
100
AcDbPoint
 10
377.865890242397
 20
1972.81873287216
 30
0.0
  0
POINT
  5
10F8
330
10ED
100
AcDbEntity
  8
Defpoints
 62
     0
100
AcDbPoint
 10
377.865890242397
 20
1929.344193801371
 30
0.0
  0
ENDBLK
  5
10EF
330
10ED
100
AcDbEntity
  8
0
100
AcDbBlockEnd
  0
BLOCK
  5
10FA
330
10F9
100
AcDbEntity
  8
0
100
AcDbBlockBegin
  2
*D32
 70
     1
 10
0.0
 20
0.0
 30
0.0
  3
*D32
  1
*D33
  0
LINE
  5
10FC
330
10F9
100
AcDbEntity
  8
DIM
  6
Continuous
 62
     0
370
    -2
100
AcDbLine
 10
472.865890242397
 20
1971.304423811476
 30
0.0
 11
498.5774812115371
 21
1971.304423811476
 31
0.0
  0
LINE
  5
10FD
330
10F9
100
AcDbEntity
  8
DIM
  6
Continuous
 62
     0
370
    -2
100
AcDbLine
 10
477.9493026269909
 20
2066.304423811476
 30
0.0
 11
498.5774812115371
 21
2066.304423811476
 31
0.0
  0
LINE
  5
10FE
330
10F9
100
AcDbEntity
  8
DIM
  6
Continuous
 62
     0
370
    -2
100
AcDbLine
 10
498.5774812115371
 20
1983.304423811476
 30
0.0
 11
498.5774812115371
 21
2054.304423811476
 31
0.0
  0
INSERT
  5
10FF
330
10F9
100
AcDbEntity
  8
DIM
 62
     0
370
    -2
100
AcDbBlockReference
  2
_DOT
 10
498.5774812115371
 20
1971.304423811476
 30
0.0
 41
12.0
 42
12.0
 43
12.0
 50
270.0
  0
INSERT
  5
1100
330
10F9
100
AcDbEntity
  8
DIM
 62
     0
370
    -2
100
AcDbBlockReference
  2
_DOT
 10
498.5774812115371
 20
2066.304423811476
 30
0.0
 41
12.0
 42
12.0
 43
12.0
 50
90.0
  0
MTEXT
  5
1101
330
10F9
100
AcDbEntity
  8
DIM
  6
Continuous
 62
     0
100
AcDbMText
 10
466.5774812115371
 20
2018.804423811476
 30
0.0
 40
24.0
 41
0.0
 46
0.0
 71
     5
 72
     1
  1
\A1;95
  7
ＭＳ ゴシック
 11
0.0
 21
1.0
 31
0.0
 73
     1
 44
1.0
  0
POINT
  5
1102
330
10F9
100
AcDbEntity
  8
Defpoints
 62
     0
100
AcDbPoint
 10
462.865890242397
 20
1971.304423811476
 30
0.0
  0
POINT
  5
1103
330
10F9
100
AcDbEntity
  8
Defpoints
 62
     0
100
AcDbPoint
 10
467.9493026269909
 20
2066.304423811476
 30
0.0
  0
POINT
  5
1104
330
10F9
100
AcDbEntity
  8
Defpoints
 62
     0
100
AcDbPoint
 10
498.5774812115371
 20
2066.304423811476
 30
0.0
  0
ENDBLK
  5
10FB
330
10F9
100
AcDbEntity
  8
0
100
AcDbBlockEnd
  0
BLOCK
  5
1106
330
1105
100
AcDbEntity
  8
0
100
AcDbBlockBegin
  2
*D33
 70
     1
 10
0.0
 20
0.0
 30
0.0
  3
*D33
  1
*D34
  0
LINE
  5
1108
330
1105
100
AcDbEntity
  8
DIM
  6
Continuous
 62
     0
370
    -2
100
AcDbLine
 10
354.1876423041855
 20
2066.304423811477
 30
0.0
 11
230.4476809683979
 21
2066.304423811477
 31
0.0
  0
LINE
  5
1109
330
1105
100
AcDbEntity
  8
DIM
  6
Continuous
 62
     0
370
    -2
100
AcDbLine
 10
353.6269821324115
 20
1876.304423811476
 30
0.0
 11
230.4476809683979
 21
1876.304423811476
 31
0.0
  0
LINE
  5
110A
330
1105
100
AcDbEntity
  8
DIM
  6
Continuous
 62
     0
370
    -2
100
AcDbLine
 10
230.4476809683979
 20
2054.304423811477
 30
0.0
 11
230.4476809683979
 21
1888.304423811476
 31
0.0
  0
INSERT
  5
110B
330
1105
100
AcDbEntity
  8
DIM
 62
     0
370
    -2
100
AcDbBlockReference
  2
_DOT
 10
230.4476809683979
 20
2066.304423811477
 30
0.0
 41
12.0
 42
12.0
 43
12.0
 50
89.99999999999999
  0
INSERT
  5
110C
330
1105
100
AcDbEntity
  8
DIM
 62
     0
370
    -2
100
AcDbBlockReference
  2
_DOT
 10
230.4476809683979
 20
1876.304423811476
 30
0.0
 41
12.0
 42
12.0
 43
12.0
 50
270.0
  0
MTEXT
  5
110D
330
1105
100
AcDbEntity
  8
DIM
  6
Continuous
 62
     0
100
AcDbMText
 10
198.4476809683979
 20
1971.304423811477
 30
0.0
 40
24.0
 41
0.0
 46
0.0
 71
     5
 72
     1
  1
\A1;190
  7
ＭＳ ゴシック
 11
2.991758887410934E-16
 21
1.0
 31
0.0
 73
     1
 44
1.0
  0
POINT
  5
110E
330
1105
100
AcDbEntity
  8
Defpoints
 62
     0
100
AcDbPoint
 10
364.1876423041855
 20
2066.304423811477
 30
0.0
  0
POINT
  5
110F
330
1105
100
AcDbEntity
  8
Defpoints
 62
     0
100
AcDbPoint
 10
363.6269821324115
 20
1876.304423811476
 30
0.0
  0
POINT
  5
1110
330
1105
100
AcDbEntity
  8
Defpoints
 62
     0
100
AcDbPoint
 10
230.4476809683979
 20
1876.304423811476
 30
0.0
  0
ENDBLK
  5
1107
330
1105
100
AcDbEntity
  8
0
100
AcDbBlockEnd
  0
BLOCK
  5
1112
330
1111
100
AcDbEntity
  8
0
100
AcDbBlockBegin
  2
*D34
 70
     1
 10
0.0
 20
0.0
 30
0.0
  3
*D34
  1
*D35
  0
LINE
  5
1114
330
1111
100
AcDbEntity
  8
DIM
  6
Continuous
 62
     0
370
    -2
100
AcDbLine
 10
838.8987914327882
 20
1886.304423811476
 30
0.0
 11
928.7663125080177
 21
1886.304423811476
 31
0.0
  0
LINE
  5
1115
330
1111
100
AcDbEntity
  8
DIM
  6
Continuous
 62
     0
370
    -2
100
AcDbLine
 10
838.8987914327882
 20
2056.304423811476
 30
0.0
 11
928.7663125080177
 21
2056.304423811476
 31
0.0
  0
LINE
  5
1116
330
1111
100
AcDbEntity
  8
DIM
  6
Continuous
 62
     0
370
    -2
100
AcDbLine
 10
928.7663125080177
 20
1898.304423811476
 30
0.0
 11
928.7663125080177
 21
2044.304423811476
 31
0.0
  0
INSERT
  5
1117
330
1111
100
AcDbEntity
  8
DIM
 62
     0
370
    -2
100
AcDbBlockReference
  2
_DOT
 10
928.7663125080177
 20
1886.304423811476
 30
0.0
 41
12.0
 42
12.0
 43
12.0
 50
270.0
  0
INSERT
  5
1118
330
1111
100
AcDbEntity
  8
DIM
 62
     0
370
    -2
100
AcDbBlockReference
  2
_DOT
 10
928.7663125080177
 20
2056.304423811476
 30
0.0
 41
12.0
 42
12.0
 43
12.0
 50
90.0
  0
MTEXT
  5
1119
330
1111
100
AcDbEntity
  8
DIM
  6
Continuous
 62
     0
100
AcDbMText
 10
896.7663125080177
 20
1971.304423811476
 30
0.0
 40
24.0
 41
0.0
 46
0.0
 71
     5
 72
     1
  1
\A1;170
  7
ＭＳ ゴシック
 11
0.0
 21
1.0
 31
0.0
 73
     1
 44
1.0
  0
POINT
  5
111A
330
1111
100
AcDbEntity
  8
Defpoints
 62
     0
100
AcDbPoint
 10
828.8987914327882
 20
1886.304423811476
 30
0.0
  0
POINT
  5
111B
330
1111
100
AcDbEntity
  8
Defpoints
 62
     0
100
AcDbPoint
 10
828.8987914327882
 20
2056.304423811476
 30
0.0
  0
POINT
  5
111C
330
1111
100
AcDbEntity
  8
Defpoints
 62
     0
100
AcDbPoint
 10
928.7663125080177
 20
2056.304423811476
 30
0.0
  0
ENDBLK
  5
1113
330
1111
100
AcDbEntity
  8
0
100
AcDbBlockEnd
  0
BLOCK
  5
111E
330
111D
100
AcDbEntity
  8
0
100
AcDbBlockBegin
  2
*D35
 70
     1
 10
0.0
 20
0.0
 30
0.0
  3
*D35
  1
*D36
  0
LINE
  5
1120
330
111D
100
AcDbEntity
  8
DIM
  6
Continuous
 62
     0
370
    -2
100
AcDbLine
 10
817.8658902423974
 20
1955.195760664521
 30
0.0
 11
817.8658902423974
 21
1878.899624494447
 31
0.0
  0
LINE
  5
1121
330
111D
100
AcDbEntity
  8
DIM
  6
Continuous
 62
     0
370
    -2
100
AcDbLine
 10
522.865890242397
 20
1955.217882566903
 30
0.0
 11
522.865890242397
 21
1878.899624494447
 31
0.0
  0
LINE
  5
1122
330
111D
100
AcDbEntity
  8
DIM
  6
Continuous
 62
     0
370
    -2
100
AcDbLine
 10
812.8658902423974
 20
1878.899624494447
 30
0.0
 11
527.865890242397
 21
1878.899624494447
 31
0.0
  0
INSERT
  5
1123
330
111D
100
AcDbEntity
  8
DIM
 62
     0
370
    -2
100
AcDbBlockReference
  2
_DOT
 10
817.8658902423974
 20
1878.899624494447
 30
0.0
 41
5.0
 42
5.0
 43
5.0
  0
INSERT
  5
1124
330
111D
100
AcDbEntity
  8
DIM
 62
     0
370
    -2
100
AcDbBlockReference
  2
_DOT
 10
522.865890242397
 20
1878.899624494447
 30
0.0
 41
5.0
 42
5.0
 43
5.0
 50
180.0
  0
MTEXT
  5
1125
330
111D
100
AcDbEntity
  8
DIM
  6
Continuous
 62
     0
100
AcDbMText
 10
670.3658902423972
 20
1910.899624494447
 30
0.0
 40
24.0
 41
0.0
 46
0.0
 71
     5
 72
     1
  1
\A1;295
  7
ＭＳ ゴシック
 73
     1
 44
1.0
  0
POINT
  5
1126
330
111D
100
AcDbEntity
  8
Defpoints
 62
     0
100
AcDbPoint
 10
817.8658902423974
 20
1965.195760664521
 30
0.0
  0
POINT
  5
1127
330
111D
100
AcDbEntity
  8
Defpoints
 62
     0
100
AcDbPoint
 10
522.865890242397
 20
1965.217882566903
 30
0.0
  0
POINT
  5
1128
330
111D
100
AcDbEntity
  8
Defpoints
 62
     0
100
AcDbPoint
 10
522.865890242397
 20
1878.899624494447
 30
0.0
  0
ENDBLK
  5
111F
330
111D
100
AcDbEntity
  8
0
100
AcDbBlockEnd
  0
BLOCK
  5
112A
330
1129
100
AcDbEntity
  8
0
100
AcDbBlockBegin
  2
*D36
 70
     1
 10
0.0
 20
0.0
 30
0.0
  3
*D36
  1
*D37
  0
LINE
  5
112C
330
1129
100
AcDbEntity
  8
DIM
  6
Continuous
 62
     0
370
    -2
100
AcDbLine
 10
670.3658926265832
 20
1022.589345370774
 30
0.0
 11
670.3658926265832
 21
977.0484096394134
 31
0.0
  0
LINE
  5
112D
330
1129
100
AcDbEntity
  8
DIM
  6
Continuous
 62
     0
370
    -2
100
AcDbLine
 10
378.3653195695167
 20
1025.931342248416
 30
0.0
 11
378.3653195695167
 21
977.0484096394134
 31
0.0
  0
LINE
  5
112E
330
1129
100
AcDbEntity
  8
DIM
  6
Continuous
 62
     0
370
    -2
100
AcDbLine
 10
665.3658926265832
 20
977.0484096394134
 30
0.0
 11
383.3653195695167
 21
977.0484096394134
 31
0.0
  0
INSERT
  5
112F
330
1129
100
AcDbEntity
  8
DIM
 62
     0
370
    -2
100
AcDbBlockReference
  2
_DOT
 10
670.3658926265832
 20
977.0484096394134
 30
0.0
 41
5.0
 42
5.0
 43
5.0
  0
INSERT
  5
1130
330
1129
100
AcDbEntity
  8
DIM
 62
     0
370
    -2
100
AcDbBlockReference
  2
_DOT
 10
378.3653195695167
 20
977.0484096394134
 30
0.0
 41
5.0
 42
5.0
 43
5.0
 50
180.0
  0
MTEXT
  5
1131
330
1129
100
AcDbEntity
  8
DIM
  6
Continuous
 62
     0
100
AcDbMText
 10
524.36560609805
 20
1009.048409639413
 30
0.0
 40
24.0
 41
0.0
 46
0.0
 71
     5
 72
     1
  1
\A1;292
  7
ＭＳ ゴシック
 73
     1
 44
1.0
  0
POINT
  5
1132
330
1129
100
AcDbEntity
  8
Defpoints
 62
     0
100
AcDbPoint
 10
670.3658926265832
 20
1032.589345370774
 30
0.0
  0
POINT
  5
1133
330
1129
100
AcDbEntity
  8
Defpoints
 62
     0
100
AcDbPoint
 10
378.3653195695167
 20
1035.931342248416
 30
0.0
  0
POINT
  5
1134
330
1129
100
AcDbEntity
  8
Defpoints
 62
     0
100
AcDbPoint
 10
378.3653195695167
 20
977.0484096394134
 30
0.0
  0
ENDBLK
  5
112B
330
1129
100
AcDbEntity
  8
0
100
AcDbBlockEnd
  0
BLOCK
  5
1136
330
1135
100
AcDbEntity
  8
0
100
AcDbBlockBegin
  2
*D37
 70
     1
 10
0.0
 20
0.0
 30
0.0
  3
*D37
  1
*D38
  0
LINE
  5
1138
330
1135
100
AcDbEntity
  8
DIM
  6
Continuous
 62
     0
370
    -2
100
AcDbLine
 10
370.8619737779395
 20
1102.589345147256
 30
0.0
 11
323.3183065262843
 21
1102.589345147256
 31
0.0
  0
LINE
  5
1139
330
1135
100
AcDbEntity
  8
DIM
  6
Continuous
 62
     0
370
    -2
100
AcDbLine
 10
417.8472643291407
 20
1067.589345147256
 30
0.0
 11
323.3183065262843
 21
1067.589345147256
 31
0.0
  0
LINE
  5
113A
330
1135
100
AcDbEntity
  8
DIM
  6
Continuous
 62
     0
370
    -2
100
AcDbLine
 10
323.3183065262843
 20
1097.589345147256
 30
0.0
 11
323.3183065262843
 21
1072.589345147256
 31
0.0
  0
INSERT
  5
113B
330
1135
100
AcDbEntity
  8
DIM
 62
     0
370
    -2
100
AcDbBlockReference
  2
_DOT
 10
323.3183065262843
 20
1102.589345147256
 30
0.0
 41
5.0
 42
5.0
 43
5.0
 50
90.0
  0
INSERT
  5
113C
330
1135
100
AcDbEntity
  8
DIM
 62
     0
370
    -2
100
AcDbBlockReference
  2
_DOT
 10
323.3183065262843
 20
1067.589345147256
 30
0.0
 41
5.0
 42
5.0
 43
5.0
 50
270.0
  0
MTEXT
  5
113D
330
1135
100
AcDbEntity
  8
DIM
  6
Continuous
 62
     0
100
AcDbMText
 10
291.3183065262843
 20
1085.089345147256
 30
0.0
 40
24.0
 41
0.0
 46
0.0
 71
     5
 72
     1
  1
\A1;35
  7
ＭＳ ゴシック
 11
0.0
 21
1.0
 31
0.0
 73
     1
 44
1.0
  0
POINT
  5
113E
330
1135
100
AcDbEntity
  8
Defpoints
 62
     0
100
AcDbPoint
 10
380.8619737779395
 20
1102.589345147256
 30
0.0
  0
POINT
  5
113F
330
1135
100
AcDbEntity
  8
Defpoints
 62
     0
100
AcDbPoint
 10
427.8472643291407
 20
1067.589345147256
 30
0.0
  0
POINT
  5
1140
330
1135
100
AcDbEntity
  8
Defpoints
 62
     0
100
AcDbPoint
 10
323.3183065262843
 20
1067.589345147256
 30
0.0
  0
ENDBLK
  5
1137
330
1135
100
AcDbEntity
  8
0
100
AcDbBlockEnd
  0
BLOCK
  5
1143
330
1142
100
AcDbEntity
  8
0
100
AcDbBlockBegin
  2
*D38
 70
     1
 10
0.0
 20
0.0
 30
0.0
  3
*D38
  1
*D39
  0
LINE
  5
1145
330
1142
100
AcDbEntity
  8
DIM
  6
Continuous
 62
     0
370
    -2
100
AcDbLine
 10
1392.490388434494
 20
1102.589345147256
 30
0.0
 11
1360.093026420989
 21
1102.589345147256
 31
0.0
  0
LINE
  5
1146
330
1142
100
AcDbEntity
  8
DIM
  6
Continuous
 62
     0
370
    -2
100
AcDbLine
 10
1391.929728262713
 20
1042.589345147256
 30
0.0
 11
1360.093026420989
 21
1042.589345147256
 31
0.0
  0
LINE
  5
1147
330
1142
100
AcDbEntity
  8
DIM
  6
Continuous
 62
     0
370
    -2
100
AcDbLine
 10
1360.093026420989
 20
1097.589345147256
 30
0.0
 11
1360.093026420989
 21
1047.589345147256
 31
0.0
  0
INSERT
  5
1148
330
1142
100
AcDbEntity
  8
DIM
 62
     0
370
    -2
100
AcDbBlockReference
  2
_DOT
 10
1360.093026420989
 20
1102.589345147256
 30
0.0
 41
5.0
 42
5.0
 43
5.0
 50
90.0
  0
INSERT
  5
1149
330
1142
100
AcDbEntity
  8
DIM
 62
     0
370
    -2
100
AcDbBlockReference
  2
_DOT
 10
1360.093026420989
 20
1042.589345147256
 30
0.0
 41
5.0
 42
5.0
 43
5.0
 50
270.0
  0
MTEXT
  5
114A
330
1142
100
AcDbEntity
  8
DIM
  6
Continuous
 62
     0
100
AcDbMText
 10
1328.093026420989
 20
1072.589345147256
 30
0.0
 40
24.0
 41
0.0
 46
0.0
 71
     5
 72
     1
  1
\A1;60
  7
ＭＳ ゴシック
 11
0.0
 21
1.0
 31
0.0
 73
     1
 44
1.0
  0
POINT
  5
114B
330
1142
100
AcDbEntity
  8
Defpoints
 62
     0
100
AcDbPoint
 10
1402.490388434494
 20
1102.589345147256
 30
0.0
  0
POINT
  5
114C
330
1142
100
AcDbEntity
  8
Defpoints
 62
     0
100
AcDbPoint
 10
1401.929728262713
 20
1042.589345147256
 30
0.0
  0
POINT
  5
114D
330
1142
100
AcDbEntity
  8
Defpoints
 62
     0
100
AcDbPoint
 10
1360.093026420989
 20
1042.589345147256
 30
0.0
  0
ENDBLK
  5
1144
330
1142
100
AcDbEntity
  8
0
100
AcDbBlockEnd
  0
BLOCK
  5
1150
330
114F
100
AcDbEntity
  8
0
100
AcDbBlockBegin
  2
*D39
 70
     1
 10
0.0
 20
0.0
 30
0.0
  3
*D39
  1
*D40
  0
LINE
  5
1152
330
114F
100
AcDbEntity
  8
DIM
  6
Continuous
 62
     0
370
    -2
100
AcDbLine
 10
1393.959003940222
 20
1291.079058606012
 30
0.0
 11
1360.122302098498
 21
1291.079058606012
 31
0.0
  0
LINE
  5
1153
330
114F
100
AcDbEntity
  8
DIM
  6
Continuous
 62
     0
370
    -2
100
AcDbLine
 10
1448.959003940222
 20
1281.079058606012
 30
0.0
 11
1360.122302098498
 21
1281.079058606012
 31
0.0
  0
LINE
  5
1154
330
114F
100
AcDbEntity
  8
DIM
  6
Continuous
 62
     0
370
    -2
100
AcDbLine
 10
1360.122302098498
 20
1281.079058606012
 30
0.0
 11
1360.122302098498
 21
1190.151058606012
 31
0.0
  0
LINE
  5
1155
330
114F
100
AcDbEntity
  8
DIM
  6
Continuous
 62
     0
370
    -2
100
AcDbLine
 10
1360.122302098498
 20
1291.079058606012
 30
0.0
 11
1360.122302098498
 21
1281.079058606012
 31
0.0
  0
LINE
  5
1156
330
114F
100
AcDbEntity
  8
DIM
  6
Continuous
 62
     0
370
    -2
100
AcDbLine
 10
1360.122302098498
 20
1303.079058606012
 30
0.0
 11
1360.122302098498
 21
1315.079058606012
 31
0.0
  0
LINE
  5
1157
330
114F
100
AcDbEntity
  8
DIM
  6
Continuous
 62
     0
370
    -2
100
AcDbLine
 10
1360.122302098498
 20
1269.079058606012
 30
0.0
 11
1360.122302098498
 21
1257.079058606012
 31
0.0
  0
INSERT
  5
1158
330
114F
100
AcDbEntity
  8
DIM
 62
     0
370
    -2
100
AcDbBlockReference
  2
_DOT
 10
1360.122302098498
 20
1291.079058606012
 30
0.0
 41
12.0
 42
12.0
 43
12.0
 50
270.0
  0
INSERT
  5
1159
330
114F
100
AcDbEntity
  8
DIM
 62
     0
370
    -2
100
AcDbBlockReference
  2
_DOT
 10
1360.122302098498
 20
1281.079058606012
 30
0.0
 41
12.0
 42
12.0
 43
12.0
 50
90.0
  0
MTEXT
  5
115A
330
114F
100
AcDbEntity
  8
DIM
  6
Continuous
 62
     0
100
AcDbMText
 10
1328.122302098498
 20
1223.615058606012
 30
0.0
 40
24.0
 41
0.0
 46
0.0
 71
     5
 72
     1
  1
\A1;10
  7
ＭＳ ゴシック
 11
0.0
 21
1.0
 31
0.0
 73
     1
 44
1.0
  0
POINT
  5
115B
330
114F
100
AcDbEntity
  8
Defpoints
 62
     0
100
AcDbPoint
 10
1403.959003940222
 20
1291.079058606012
 30
0.0
  0
POINT
  5
115C
330
114F
100
AcDbEntity
  8
Defpoints
 62
     0
100
AcDbPoint
 10
1458.959003940222
 20
1281.079058606012
 30
0.0
  0
POINT
  5
115D
330
114F
100
AcDbEntity
  8
Defpoints
 62
     0
100
AcDbPoint
 10
1360.122302098498
 20
1281.079058606012
 30
0.0
  0
ENDBLK
  5
1151
330
114F
100
AcDbEntity
  8
0
100
AcDbBlockEnd
  0
BLOCK
  5
115F
330
115E
100
AcDbEntity
  8
0
100
AcDbBlockBegin
  2
*D40
 70
     1
 10
0.0
 20
0.0
 30
0.0
  3
*D40
  1
*D41
  0
LINE
  5
1161
330
115E
100
AcDbEntity
  8
DIM
  6
Continuous
 62
     0
370
    -2
100
AcDbLine
 10
1493.959003940222
 20
1102.589345147256
 30
0.0
 11
1493.959003940222
 21
1282.725345147257
 31
0.0
  0
LINE
  5
1162
330
115E
100
AcDbEntity
  8
DIM
  6
Continuous
 62
     0
370
    -2
100
AcDbLine
 10
1493.959003940222
 20
1097.589345147256
 30
0.0
 11
1493.959003940222
 21
1057.589345147256
 31
0.0
  0
INSERT
  5
1163
330
115E
100
AcDbEntity
  8
DIM
 62
     0
370
    -2
100
AcDbBlockReference
  2
_DOT
 10
1493.959003940222
 20
1102.589345147256
 30
0.0
 41
5.0
 42
5.0
 43
5.0
 50
90.0
  0
INSERT
  5
1164
330
115E
100
AcDbEntity
  8
DIM
 62
     0
370
    -2
100
AcDbBlockReference
  2
_DOT
 10
1493.959003940222
 20
1052.589345147256
 30
0.0
 41
5.0
 42
5.0
 43
5.0
 50
270.0
  0
MTEXT
  5
1165
330
115E
100
AcDbEntity
  8
DIM
  6
Continuous
 62
     0
100
AcDbMText
 10
1459.835003940222
 20
1204.657345147257
 30
0.0
 40
24.0
 41
0.0
 46
0.0
 71
     5
 72
     1
  1
\A1;50(深さ)
  7
ＭＳ ゴシック
 11
0.0
 21
1.0
 31
0.0
 73
     1
 44
1.0
  0
POINT
  5
1166
330
115E
100
AcDbEntity
  8
Defpoints
 62
     0
100
AcDbPoint
 10
1516.460704308185
 20
1102.589345147256
 30
0.0
  0
POINT
  5
1167
330
115E
100
AcDbEntity
  8
Defpoints
 62
     0
100
AcDbPoint
 10
1512.84512430098
 20
1052.589345147256
 30
0.0
  0
POINT
  5
1168
330
115E
100
AcDbEntity
  8
Defpoints
 62
     0
100
AcDbPoint
 10
1493.959003940222
 20
1052.589345147256
 30
0.0
  0
ENDBLK
  5
1160
330
115E
100
AcDbEntity
  8
0
100
AcDbBlockEnd
  0
BLOCK
  5
116A
330
1169
100
AcDbEntity
  8
0
100
AcDbBlockBegin
  2
*D41
 70
     1
 10
0.0
 20
0.0
 30
0.0
  3
*D41
  1
*D42
  0
LINE
  5
116C
330
1169
100
AcDbEntity
  8
DIM
  6
Continuous
 62
     0
370
    -2
100
AcDbLine
 10
1493.959003940222
 20
1022.589345147256
 30
0.0
 11
1493.959003940222
 21
965.0456381762949
 31
0.0
  0
LINE
  5
116D
330
1169
100
AcDbEntity
  8
DIM
  6
Continuous
 62
     0
370
    -2
100
AcDbLine
 10
1588.959003940222
 20
1035.504091852234
 30
0.0
 11
1588.959003940222
 21
965.0456381762949
 31
0.0
  0
LINE
  5
116E
330
1169
100
AcDbEntity
  8
DIM
  6
Continuous
 62
     0
370
    -2
100
AcDbLine
 10
1498.959003940222
 20
965.0456381762949
 30
0.0
 11
1583.959003940222
 21
965.0456381762949
 31
0.0
  0
INSERT
  5
116F
330
1169
100
AcDbEntity
  8
DIM
 62
     0
370
    -2
100
AcDbBlockReference
  2
_DOT
 10
1493.959003940222
 20
965.0456381762949
 30
0.0
 41
5.0
 42
5.0
 43
5.0
 50
180.0
  0
INSERT
  5
1170
330
1169
100
AcDbEntity
  8
DIM
 62
     0
370
    -2
100
AcDbBlockReference
  2
_DOT
 10
1588.959003940222
 20
965.0456381762949
 30
0.0
 41
5.0
 42
5.0
 43
5.0
  0
MTEXT
  5
1171
330
1169
100
AcDbEntity
  8
DIM
  6
Continuous
 62
     0
100
AcDbMText
 10
1541.459003940222
 20
997.0456381762949
 30
0.0
 40
24.0
 41
0.0
 46
0.0
 71
     5
 72
     1
  1
\A1;95
  7
ＭＳ ゴシック
 73
     1
 44
1.0
  0
POINT
  5
1172
330
1169
100
AcDbEntity
  8
Defpoints
 62
     0
100
AcDbPoint
 10
1493.959003940222
 20
1032.589345147256
 30
0.0
  0
POINT
  5
1173
330
1169
100
AcDbEntity
  8
Defpoints
 62
     0
100
AcDbPoint
 10
1588.959003940222
 20
1045.504091852234
 30
0.0
  0
POINT
  5
1174
330
1169
100
AcDbEntity
  8
Defpoints
 62
     0
100
AcDbPoint
 10
1588.959003940222
 20
965.0456381762949
 30
0.0
  0
ENDBLK
  5
116B
330
1169
100
AcDbEntity
  8
0
100
AcDbBlockEnd
  0
BLOCK
  5
1176
330
1175
100
AcDbEntity
  8
0
100
AcDbBlockBegin
  2
*D42
 70
     1
 10
0.0
 20
0.0
 30
0.0
  3
*D42
  1
*D43
  0
LINE
  5
1178
330
1175
100
AcDbEntity
  8
DIM
  6
Continuous
 62
     0
370
    -2
100
AcDbLine
 10
835.1210116385674
 20
1102.589345147256
 30
0.0
 11
981.2268687871251
 21
1102.589345147256
 31
0.0
  0
LINE
  5
1179
330
1175
100
AcDbEntity
  8
DIM
  6
Continuous
 62
     0
370
    -2
100
AcDbLine
 10
715.5395728285813
 20
1032.589345370774
 30
0.0
 11
981.2268687871251
 21
1032.589345370774
 31
0.0
  0
LINE
  5
117A
330
1175
100
AcDbEntity
  8
DIM
  6
Continuous
 62
     0
370
    -2
100
AcDbLine
 10
981.2268687871251
 20
1097.589345147256
 30
0.0
 11
981.2268687871251
 21
1037.589345370774
 31
0.0
  0
INSERT
  5
117B
330
1175
100
AcDbEntity
  8
DIM
 62
     0
370
    -2
100
AcDbBlockReference
  2
_DOT
 10
981.2268687871251
 20
1102.589345147256
 30
0.0
 41
5.0
 42
5.0
 43
5.0
 50
90.0
  0
INSERT
  5
117C
330
1175
100
AcDbEntity
  8
DIM
 62
     0
370
    -2
100
AcDbBlockReference
  2
_DOT
 10
981.2268687871251
 20
1032.589345370774
 30
0.0
 41
5.0
 42
5.0
 43
5.0
 50
270.0
  0
MTEXT
  5
117D
330
1175
100
AcDbEntity
  8
DIM
  6
Continuous
 62
     0
100
AcDbMText
 10
949.2268687871251
 20
1072.589345147256
 30
0.0
 40
24.0
 41
0.0
 46
0.0
 71
     5
 72
     1
  1
\A1;70
  7
ＭＳ ゴシック
 11
0.0
 21
1.0
 31
0.0
 73
     1
 44
1.0
  0
POINT
  5
117E
330
1175
100
AcDbEntity
  8
Defpoints
 62
     0
100
AcDbPoint
 10
825.1210116385674
 20
1102.589345147256
 30
0.0
  0
POINT
  5
117F
330
1175
100
AcDbEntity
  8
Defpoints
 62
     0
100
AcDbPoint
 10
705.5395728285813
 20
1032.589345370774
 30
0.0
  0
POINT
  5
1180
330
1175
100
AcDbEntity
  8
Defpoints
 62
     0
100
AcDbPoint
 10
981.2268687871251
 20
1032.589345370774
 30
0.0
  0
ENDBLK
  5
1177
330
1175
100
AcDbEntity
  8
0
100
AcDbBlockEnd
  0
BLOCK
  5
1182
330
1181
100
AcDbEntity
  8
0
100
AcDbBlockBegin
  2
*D43
 70
     1
 10
0.0
 20
0.0
 30
0.0
  3
*D43
  1
*D44
  0
LINE
  5
1184
330
1181
100
AcDbEntity
  8
DIM
  6
Continuous
 62
     0
370
    -2
100
AcDbLine
 10
377.865890242397
 20
1109.589345147256
 30
0.0
 11
377.865890242397
 21
1149.262728272495
 31
0.0
  0
LINE
  5
1185
330
1181
100
AcDbEntity
  8
DIM
  6
Continuous
 62
     0
370
    -2
100
AcDbLine
 10
447.865890242397
 20
1097.623921927409
 30
0.0
 11
447.865890242397
 21
1149.262728272495
 31
0.0
  0
LINE
  5
1186
330
1181
100
AcDbEntity
  8
DIM
  6
Continuous
 62
     0
370
    -2
100
AcDbLine
 10
382.865890242397
 20
1149.262728272495
 30
0.0
 11
442.865890242397
 21
1149.262728272495
 31
0.0
  0
INSERT
  5
1187
330
1181
100
AcDbEntity
  8
DIM
 62
     0
370
    -2
100
AcDbBlockReference
  2
_DOT
 10
377.865890242397
 20
1149.262728272495
 30
0.0
 41
5.0
 42
5.0
 43
5.0
 50
180.0
  0
INSERT
  5
1188
330
1181
100
AcDbEntity
  8
DIM
 62
     0
370
    -2
100
AcDbBlockReference
  2
_DOT
 10
447.865890242397
 20
1149.262728272495
 30
0.0
 41
5.0
 42
5.0
 43
5.0
  0
MTEXT
  5
1189
330
1181
100
AcDbEntity
  8
DIM
  6
Continuous
 62
     0
100
AcDbMText
 10
412.865890242397
 20
1181.262728272495
 30
0.0
 40
24.0
 41
0.0
 46
0.0
 71
     5
 72
     1
  1
\A1;70
  7
ＭＳ ゴシック
 73
     1
 44
1.0
  0
POINT
  5
118A
330
1181
100
AcDbEntity
  8
Defpoints
 62
     0
100
AcDbPoint
 10
377.865890242397
 20
1099.589345147256
 30
0.0
  0
POINT
  5
118B
330
1181
100
AcDbEntity
  8
Defpoints
 62
     0
100
AcDbPoint
 10
447.865890242397
 20
1087.623921927409
 30
0.0
  0
POINT
  5
118C
330
1181
100
AcDbEntity
  8
Defpoints
 62
     0
100
AcDbPoint
 10
447.865890242397
 20
1149.262728272495
 30
0.0
  0
ENDBLK
  5
1183
330
1181
100
AcDbEntity
  8
0
100
AcDbBlockEnd
  0
BLOCK
  5
118E
330
118D
100
AcDbEntity
  8
0
100
AcDbBlockBegin
  2
*D44
 70
     1
 10
0.0
 20
0.0
 30
0.0
  3
*D44
  1
*D45
  0
LINE
  5
1190
330
118D
100
AcDbEntity
  8
DIM
  6
Continuous
 62
     0
370
    -2
100
AcDbLine
 10
377.8658902423974
 20
2071.304423811477
 30
0.0
 11
377.8658902423974
 21
2103.770321895045
 31
0.0
  0
LINE
  5
1191
330
118D
100
AcDbEntity
  8
DIM
  6
Continuous
 62
     0
370
    -2
100
AcDbLine
 10
522.865890242397
 20
2066.304423811476
 30
0.0
 11
522.865890242397
 21
2103.770321895045
 31
0.0
  0
LINE
  5
1192
330
118D
100
AcDbEntity
  8
DIM
  6
Continuous
 62
     0
370
    -2
100
AcDbLine
 10
389.8658902423974
 20
2103.770321895045
 30
0.0
 11
510.865890242397
 21
2103.770321895045
 31
0.0
  0
INSERT
  5
1193
330
118D
100
AcDbEntity
  8
DIM
 62
     0
370
    -2
100
AcDbBlockReference
  2
_DOT
 10
377.8658902423974
 20
2103.770321895045
 30
0.0
 41
12.0
 42
12.0
 43
12.0
 50
180.0
  0
INSERT
  5
1194
330
118D
100
AcDbEntity
  8
DIM
 62
     0
370
    -2
100
AcDbBlockReference
  2
_DOT
 10
522.865890242397
 20
2103.770321895045
 30
0.0
 41
12.0
 42
12.0
 43
12.0
  0
MTEXT
  5
1195
330
118D
100
AcDbEntity
  8
DIM
  6
Continuous
 62
     0
100
AcDbMText
 10
450.3658902423972
 20
2135.770321895045
 30
0.0
 40
24.0
 41
0.0
 46
0.0
 71
     5
 72
     1
  1
\A1;145
  7
ＭＳ ゴシック
 73
     1
 44
1.0
  0
POINT
  5
1196
330
118D
100
AcDbEntity
  8
Defpoints
 62
     0
100
AcDbPoint
 10
377.8658902423974
 20
2061.304423811477
 30
0.0
  0
POINT
  5
1197
330
118D
100
AcDbEntity
  8
Defpoints
 62
     0
100
AcDbPoint
 10
522.865890242397
 20
2056.304423811476
 30
0.0
  0
POINT
  5
1198
330
118D
100
AcDbEntity
  8
Defpoints
 62
     0
100
AcDbPoint
 10
522.865890242397
 20
2103.770321895045
 30
0.0
  0
ENDBLK
  5
118F
330
118D
100
AcDbEntity
  8
0
100
AcDbBlockEnd
  0
BLOCK
  5
119A
330
1199
100
AcDbEntity
  8
0
100
AcDbBlockBegin
  2
*D45
 70
     1
 10
0.0
 20
0.0
 30
0.0
  3
*D45
  1
*D46
  0
LINE
  5
119C
330
1199
100
AcDbEntity
  8
DIM
  6
Continuous
 62
     0
370
    -2
100
AcDbLine
 10
827.8658902423974
 20
1107.589345147256
 30
0.0
 11
827.8658902423974
 21
1149.015347588631
 31
0.0
  0
LINE
  5
119D
330
1199
100
AcDbEntity
  8
DIM
  6
Continuous
 62
     0
370
    -2
100
AcDbLine
 10
792.8658902423974
 20
1096.759498167533
 30
0.0
 11
792.8658902423974
 21
1149.015347588631
 31
0.0
  0
LINE
  5
119E
330
1199
100
AcDbEntity
  8
DIM
  6
Continuous
 62
     0
370
    -2
100
AcDbLine
 10
822.8658902423974
 20
1149.015347588631
 30
0.0
 11
797.8658902423974
 21
1149.015347588631
 31
0.0
  0
INSERT
  5
119F
330
1199
100
AcDbEntity
  8
DIM
 62
     0
370
    -2
100
AcDbBlockReference
  2
_DOT
 10
827.8658902423974
 20
1149.015347588631
 30
0.0
 41
5.0
 42
5.0
 43
5.0
  0
INSERT
  5
11A0
330
1199
100
AcDbEntity
  8
DIM
 62
     0
370
    -2
100
AcDbBlockReference
  2
_DOT
 10
792.8658902423974
 20
1149.015347588631
 30
0.0
 41
5.0
 42
5.0
 43
5.0
 50
180.0
  0
MTEXT
  5
11A1
330
1199
100
AcDbEntity
  8
DIM
  6
Continuous
 62
     0
100
AcDbMText
 10
810.3658902423974
 20
1181.015347588631
 30
0.0
 40
24.0
 41
0.0
 46
0.0
 71
     5
 72
     1
  1
\A1;35
  7
ＭＳ ゴシック
 73
     1
 44
1.0
  0
POINT
  5
11A2
330
1199
100
AcDbEntity
  8
Defpoints
 62
     0
100
AcDbPoint
 10
827.8658902423974
 20
1097.589345147256
 30
0.0
  0
POINT
  5
11A3
330
1199
100
AcDbEntity
  8
Defpoints
 62
     0
100
AcDbPoint
 10
792.8658902423974
 20
1086.759498167533
 30
0.0
  0
POINT
  5
11A4
330
1199
100
AcDbEntity
  8
Defpoints
 62
     0
100
AcDbPoint
 10
792.8658902423974
 20
1149.015347588631
 30
0.0
  0
ENDBLK
  5
119B
330
1199
100
AcDbEntity
  8
0
100
AcDbBlockEnd
  0
BLOCK
  5
11A7
330
11A6
100
AcDbEntity
  8
0
100
AcDbBlockBegin
  2
*D46
 70
     1
 10
0.0
 20
0.0
 30
0.0
  3
*D46
  1
*D47
  0
LINE
  5
11A9
330
11A6
100
AcDbEntity
  8
DIM
  6
Continuous
 62
     0
370
    -2
100
AcDbLine
 10
834.6482912583556
 20
1102.589345147256
 30
0.0
 11
913.5584081527285
 21
1102.589345147256
 31
0.0
  0
LINE
  5
11AA
330
11A6
100
AcDbEntity
  8
DIM
  6
Continuous
 62
     0
370
    -2
100
AcDbLine
 10
823.0120972839115
 20
1066.589345147256
 30
0.0
 11
913.5584081527285
 21
1066.589345147256
 31
0.0
  0
LINE
  5
11AB
330
11A6
100
AcDbEntity
  8
DIM
  6
Continuous
 62
     0
370
    -2
100
AcDbLine
 10
913.5584081527285
 20
1097.589345147256
 30
0.0
 11
913.5584081527285
 21
1071.589345147256
 31
0.0
  0
INSERT
  5
11AC
330
11A6
100
AcDbEntity
  8
DIM
 62
     0
370
    -2
100
AcDbBlockReference
  2
_DOT
 10
913.5584081527285
 20
1102.589345147256
 30
0.0
 41
5.0
 42
5.0
 43
5.0
 50
90.0
  0
INSERT
  5
11AD
330
11A6
100
AcDbEntity
  8
DIM
 62
     0
370
    -2
100
AcDbBlockReference
  2
_DOT
 10
913.5584081527285
 20
1066.589345147256
 30
0.0
 41
5.0
 42
5.0
 43
5.0
 50
270.0
  0
MTEXT
  5
11AE
330
11A6
100
AcDbEntity
  8
DIM
  6
Continuous
 62
     0
100
AcDbMText
 10
881.5584081527285
 20
1084.589345147256
 30
0.0
 40
24.0
 41
0.0
 46
0.0
 71
     5
 72
     1
  1
\A1;36
  7
ＭＳ ゴシック
 11
0.0
 21
1.0
 31
0.0
 73
     1
 44
1.0
  0
POINT
  5
11AF
330
11A6
100
AcDbEntity
  8
Defpoints
 62
     0
100
AcDbPoint
 10
824.6482912583556
 20
1102.589345147256
 30
0.0
  0
POINT
  5
11B0
330
11A6
100
AcDbEntity
  8
Defpoints
 62
     0
100
AcDbPoint
 10
813.0120972839115
 20
1066.589345147256
 30
0.0
  0
POINT
  5
11B1
330
11A6
100
AcDbEntity
  8
Defpoints
 62
     0
100
AcDbPoint
 10
913.5584081527285
 20
1066.589345147256
 30
0.0
  0
ENDBLK
  5
11A8
330
11A6
100
AcDbEntity
  8
0
100
AcDbBlockEnd
  0
BLOCK
  5
11B4
330
11B3
100
AcDbEntity
  8
0
100
AcDbBlockBegin
  2
*D47
 70
     1
 10
0.0
 20
0.0
 30
0.0
  3
*D47
  1
*D48
  0
LINE
  5
11B6
330
11B3
100
AcDbEntity
  8
DIM
  6
Continuous
 62
     0
370
    -2
100
AcDbLine
 10
1706.38399677036
 20
2145.217882566903
 30
0.0
 11
1786.861832119684
 21
2145.217882566903
 31
0.0
  0
LINE
  5
11B7
330
11B3
100
AcDbEntity
  8
DIM
  6
Continuous
 62
     0
370
    -2
100
AcDbLine
 10
1719.489877491077
 20
2100.217882566903
 30
0.0
 11
1786.861832119684
 21
2100.217882566903
 31
0.0
  0
LINE
  5
11B8
330
11B3
100
AcDbEntity
  8
DIM
  6
Continuous
 62
     0
370
    -2
100
AcDbLine
 10
1786.861832119684
 20
2140.217882566903
 30
0.0
 11
1786.861832119684
 21
2105.217882566903
 31
0.0
  0
INSERT
  5
11B9
330
11B3
100
AcDbEntity
  8
DIM
 62
     0
370
    -2
100
AcDbBlockReference
  2
_DOT
 10
1786.861832119684
 20
2145.217882566903
 30
0.0
 41
5.0
 42
5.0
 43
5.0
 50
90.0
  0
INSERT
  5
11BA
330
11B3
100
AcDbEntity
  8
DIM
 62
     0
370
    -2
100
AcDbBlockReference
  2
_DOT
 10
1786.861832119684
 20
2100.217882566903
 30
0.0
 41
5.0
 42
5.0
 43
5.0
 50
270.0
  0
MTEXT
  5
11BB
330
11B3
100
AcDbEntity
  8
DIM
  6
Continuous
 62
     0
100
AcDbMText
 10
1754.861832119684
 20
2122.717882566903
 30
0.0
 40
24.0
 41
0.0
 46
0.0
 71
     5
 72
     1
  1
\A1;45
  7
ＭＳ ゴシック
 11
0.0
 21
1.0
 31
0.0
 73
     1
 44
1.0
  0
POINT
  5
11BC
330
11B3
100
AcDbEntity
  8
Defpoints
 62
     0
100
AcDbPoint
 10
1696.38399677036
 20
2145.217882566903
 30
0.0
  0
POINT
  5
11BD
330
11B3
100
AcDbEntity
  8
Defpoints
 62
     0
100
AcDbPoint
 10
1709.489877491077
 20
2100.217882566903
 30
0.0
  0
POINT
  5
11BE
330
11B3
100
AcDbEntity
  8
Defpoints
 62
     0
100
AcDbPoint
 10
1786.861832119684
 20
2100.217882566903
 30
0.0
  0
ENDBLK
  5
11B5
330
11B3
100
AcDbEntity
  8
0
100
AcDbBlockEnd
  0
BLOCK
  5
11C1
330
11C0
100
AcDbEntity
  8
0
100
AcDbBlockBegin
  2
*D48
 70
     1
 10
0.0
 20
0.0
 30
0.0
  3
*D48
  1
*D49
  0
LINE
  5
11C3
330
11C0
100
AcDbEntity
  8
DIM
  6
Continuous
 62
     0
370
    -2
100
AcDbLine
 10
1607.586428880705
 20
2100.217882566903
 30
0.0
 11
1786.861832119684
 21
2100.217882566903
 31
0.0
  0
LINE
  5
11C4
330
11C0
100
AcDbEntity
  8
DIM
  6
Continuous
 62
     0
370
    -2
100
AcDbLine
 10
1607.586428880704
 20
2000.217882566903
 30
0.0
 11
1786.861832119684
 21
2000.217882566903
 31
0.0
  0
LINE
  5
11C5
330
11C0
100
AcDbEntity
  8
DIM
  6
Continuous
 62
     0
370
    -2
100
AcDbLine
 10
1786.861832119684
 20
2095.217882566903
 30
0.0
 11
1786.861832119684
 21
2005.217882566903
 31
0.0
  0
INSERT
  5
11C6
330
11C0
100
AcDbEntity
  8
DIM
 62
     0
370
    -2
100
AcDbBlockReference
  2
_DOT
 10
1786.861832119684
 20
2100.217882566903
 30
0.0
 41
5.0
 42
5.0
 43
5.0
 50
90.0
  0
INSERT
  5
11C7
330
11C0
100
AcDbEntity
  8
DIM
 62
     0
370
    -2
100
AcDbBlockReference
  2
_DOT
 10
1786.861832119684
 20
2000.217882566903
 30
0.0
 41
5.0
 42
5.0
 43
5.0
 50
270.0
  0
MTEXT
  5
11C8
330
11C0
100
AcDbEntity
  8
DIM
  6
Continuous
 62
     0
100
AcDbMText
 10
1754.861832119684
 20
2050.217882566903
 30
0.0
 40
24.0
 41
0.0
 46
0.0
 71
     5
 72
     1
  1
\A1;100
  7
ＭＳ ゴシック
 11
0.0
 21
1.0
 31
0.0
 73
     1
 44
1.0
  0
POINT
  5
11C9
330
11C0
100
AcDbEntity
  8
Defpoints
 62
     0
100
AcDbPoint
 10
1597.586428880705
 20
2100.217882566903
 30
0.0
  0
POINT
  5
11CA
330
11C0
100
AcDbEntity
  8
Defpoints
 62
     0
100
AcDbPoint
 10
1597.586428880704
 20
2000.217882566903
 30
0.0
  0
POINT
  5
11CB
330
11C0
100
AcDbEntity
  8
Defpoints
 62
     0
100
AcDbPoint
 10
1786.861832119684
 20
2000.217882566903
 30
0.0
  0
ENDBLK
  5
11C2
330
11C0
100
AcDbEntity
  8
0
100
AcDbBlockEnd
  0
BLOCK
  5
11CD
330
11CC
100
AcDbEntity
  8
0
100
AcDbBlockBegin
  2
*D49
 70
     1
 10
0.0
 20
0.0
 30
0.0
  3
*D49
  1
*D50
  0
LINE
  5
11CF
330
11CC
100
AcDbEntity
  8
DIM
  6
Continuous
 62
     0
370
    -2
100
AcDbLine
 10
1697.586428880704
 20
1947.711910857858
 30
0.0
 11
1697.586428880704
 21
1887.863856711639
 31
0.0
  0
LINE
  5
11D0
330
11CC
100
AcDbEntity
  8
DIM
  6
Continuous
 62
     0
370
    -2
100
AcDbLine
 10
1597.586428880704
 20
1938.209007212751
 30
0.0
 11
1597.586428880704
 21
1887.863856711639
 31
0.0
  0
LINE
  5
11D1
330
11CC
100
AcDbEntity
  8
DIM
  6
Continuous
 62
     0
370
    -2
100
AcDbLine
 10
1692.586428880704
 20
1887.863856711639
 30
0.0
 11
1602.586428880704
 21
1887.863856711639
 31
0.0
  0
INSERT
  5
11D2
330
11CC
100
AcDbEntity
  8
DIM
 62
     0
370
    -2
100
AcDbBlockReference
  2
_DOT
 10
1697.586428880704
 20
1887.863856711639
 30
0.0
 41
5.0
 42
5.0
 43
5.0
  0
INSERT
  5
11D3
330
11CC
100
AcDbEntity
  8
DIM
 62
     0
370
    -2
100
AcDbBlockReference
  2
_DOT
 10
1597.586428880704
 20
1887.863856711639
 30
0.0
 41
5.0
 42
5.0
 43
5.0
 50
180.0
  0
MTEXT
  5
11D4
330
11CC
100
AcDbEntity
  8
DIM
  6
Continuous
 62
     0
100
AcDbMText
 10
1647.586428880704
 20
1919.863856711639
 30
0.0
 40
24.0
 41
0.0
 46
0.0
 71
     5
 72
     1
  1
\A1;100
  7
ＭＳ ゴシック
 73
     1
 44
1.0
  0
POINT
  5
11D5
330
11CC
100
AcDbEntity
  8
Defpoints
 62
     0
100
AcDbPoint
 10
1697.586428880704
 20
1957.711910857858
 30
0.0
  0
POINT
  5
11D6
330
11CC
100
AcDbEntity
  8
Defpoints
 62
     0
100
AcDbPoint
 10
1597.586428880704
 20
1948.209007212751
 30
0.0
  0
POINT
  5
11D7
330
11CC
100
AcDbEntity
  8
Defpoints
 62
     0
100
AcDbPoint
 10
1597.586428880704
 20
1887.863856711639
 30
0.0
  0
ENDBLK
  5
11CE
330
11CC
100
AcDbEntity
  8
0
100
AcDbBlockEnd
  0
BLOCK
  5
11D9
330
11D8
100
AcDbEntity
  8
0
100
AcDbBlockBegin
  2
*D50
 70
     1
 10
0.0
 20
0.0
 30
0.0
  3
*D50
  1
*D51
  0
LINE
  5
11DB
330
11D8
100
AcDbEntity
  8
DIM
  6
Continuous
 62
     0
370
    -2
100
AcDbLine
 10
1597.586428880704
 20
1990.324925900988
 30
0.0
 11
1597.586428880704
 21
1887.86385671164
 31
0.0
  0
LINE
  5
11DC
330
11D8
100
AcDbEntity
  8
DIM
  6
Continuous
 62
     0
370
    -2
100
AcDbLine
 10
1297.586428880704
 20
1990.457499725567
 30
0.0
 11
1297.586428880704
 21
1887.86385671164
 31
0.0
  0
LINE
  5
11DD
330
11D8
100
AcDbEntity
  8
DIM
  6
Continuous
 62
     0
370
    -2
100
AcDbLine
 10
1592.586428880704
 20
1887.86385671164
 30
0.0
 11
1302.586428880704
 21
1887.86385671164
 31
0.0
  0
INSERT
  5
11DE
330
11D8
100
AcDbEntity
  8
DIM
 62
     0
370
    -2
100
AcDbBlockReference
  2
_DOT
 10
1597.586428880704
 20
1887.86385671164
 30
0.0
 41
5.0
 42
5.0
 43
5.0
  0
INSERT
  5
11DF
330
11D8
100
AcDbEntity
  8
DIM
 62
     0
370
    -2
100
AcDbBlockReference
  2
_DOT
 10
1297.586428880704
 20
1887.86385671164
 30
0.0
 41
5.0
 42
5.0
 43
5.0
 50
180.0
  0
MTEXT
  5
11E0
330
11D8
100
AcDbEntity
  8
DIM
  6
Continuous
 62
     0
100
AcDbMText
 10
1447.586428880704
 20
1919.86385671164
 30
0.0
 40
24.0
 41
0.0
 46
0.0
 71
     5
 72
     1
  1
\A1;300
  7
ＭＳ ゴシック
 73
     1
 44
1.0
  0
POINT
  5
11E1
330
11D8
100
AcDbEntity
  8
Defpoints
 62
     0
100
AcDbPoint
 10
1597.586428880704
 20
2000.324925900988
 30
0.0
  0
POINT
  5
11E2
330
11D8
100
AcDbEntity
  8
Defpoints
 62
     0
100
AcDbPoint
 10
1297.586428880704
 20
2000.457499725567
 30
0.0
  0
POINT
  5
11E3
330
11D8
100
AcDbEntity
  8
Defpoints
 62
     0
100
AcDbPoint
 10
1297.586428880704
 20
1887.86385671164
 30
0.0
  0
ENDBLK
  5
11DA
330
11D8
100
AcDbEntity
  8
0
100
AcDbBlockEnd
  0
BLOCK
  5
1225
330
1224
100
AcDbEntity
  8
0
100
AcDbBlockBegin
  2
*D51
 70
     1
 10
0.0
 20
0.0
 30
0.0
  3
*D51
  1
*D52
  0
LINE
  5
1227
330
1224
100
AcDbEntity
  8
DIM
  6
Continuous
 62
     0
370
    -2
100
AcDbLine
 10
377.8658902423974
 20
1948.296467320507
 30
0.0
 11
377.8658902423975
 21
1878.899624494447
 31
0.0
  0
LINE
  5
1228
330
1224
100
AcDbEntity
  8
DIM
  6
Continuous
 62
     0
370
    -2
100
AcDbLine
 10
522.865890242397
 20
1945.217882566903
 30
0.0
 11
522.865890242397
 21
1878.899624494447
 31
0.0
  0
LINE
  5
1229
330
1224
100
AcDbEntity
  8
DIM
  6
Continuous
 62
     0
370
    -2
100
AcDbLine
 10
382.8658902423975
 20
1878.899624494447
 30
0.0
 11
517.865890242397
 21
1878.899624494447
 31
0.0
  0
INSERT
  5
122A
330
1224
100
AcDbEntity
  8
DIM
 62
     0
370
    -2
100
AcDbBlockReference
  2
_DOT
 10
377.8658902423975
 20
1878.899624494447
 30
0.0
 41
5.0
 42
5.0
 43
5.0
 50
180.0
  0
INSERT
  5
122B
330
1224
100
AcDbEntity
  8
DIM
 62
     0
370
    -2
100
AcDbBlockReference
  2
_DOT
 10
522.865890242397
 20
1878.899624494447
 30
0.0
 41
5.0
 42
5.0
 43
5.0
  0
MTEXT
  5
122C
330
1224
100
AcDbEntity
  8
DIM
  6
Continuous
 62
     0
100
AcDbMText
 10
450.3658902423972
 20
1910.899624494447
 30
0.0
 40
24.0
 41
0.0
 46
0.0
 71
     5
 72
     1
  1
\A1;145
  7
ＭＳ ゴシック
 73
     1
 44
1.0
  0
POINT
  5
122D
330
1224
100
AcDbEntity
  8
Defpoints
 62
     0
100
AcDbPoint
 10
377.8658902423974
 20
1958.296467320507
 30
0.0
  0
POINT
  5
122E
330
1224
100
AcDbEntity
  8
Defpoints
 62
     0
100
AcDbPoint
 10
522.865890242397
 20
1955.217882566903
 30
0.0
  0
POINT
  5
122F
330
1224
100
AcDbEntity
  8
Defpoints
 62
     0
100
AcDbPoint
 10
522.865890242397
 20
1878.899624494447
 30
0.0
  0
ENDBLK
  5
1226
330
1224
100
AcDbEntity
  8
0
100
AcDbBlockEnd
  0
BLOCK
  5
1236
330
1235
100
AcDbEntity
  8
0
100
AcDbBlockBegin
  2
*D52
 70
     1
 10
0.0
 20
0.0
 30
0.0
  3
*D52
  1
*D53
  0
LINE
  5
1238
330
1235
100
AcDbEntity
  8
DIM
  6
Continuous
 62
     0
370
    -2
100
AcDbLine
 10
462.8658902423974
 20
2075.37698936267
 30
0.0
 11
462.8658902423974
 21
2195.008869131116
 31
0.0
  0
LINE
  5
1239
330
1235
100
AcDbEntity
  8
DIM
  6
Continuous
 62
     0
370
    -2
100
AcDbLine
 10
377.8658902423974
 20
2152.563742726482
 30
0.0
 11
377.8658902423974
 21
2195.008869131116
 31
0.0
  0
LINE
  5
123A
330
1235
100
AcDbEntity
  8
DIM
  6
Continuous
 62
     0
370
    -2
100
AcDbLine
 10
457.8658902423974
 20
2195.008869131116
 30
0.0
 11
382.8658902423974
 21
2195.008869131116
 31
0.0
  0
INSERT
  5
123B
330
1235
100
AcDbEntity
  8
DIM
 62
     0
370
    -2
100
AcDbBlockReference
  2
_DOT
 10
462.8658902423974
 20
2195.008869131116
 30
0.0
 41
5.0
 42
5.0
 43
5.0
  0
INSERT
  5
123C
330
1235
100
AcDbEntity
  8
DIM
 62
     0
370
    -2
100
AcDbBlockReference
  2
_DOT
 10
377.8658902423974
 20
2195.008869131116
 30
0.0
 41
5.0
 42
5.0
 43
5.0
 50
180.0
  0
MTEXT
  5
123D
330
1235
100
AcDbEntity
  8
DIM
  6
Continuous
 62
     0
100
AcDbMText
 10
420.3658902423974
 20
2227.008869131116
 30
0.0
 40
24.0
 41
0.0
 46
0.0
 71
     5
 72
     1
  1
\A1;85
  7
ＭＳ ゴシック
 73
     1
 44
1.0
  0
POINT
  5
123E
330
1235
100
AcDbEntity
  8
Defpoints
 62
     0
100
AcDbPoint
 10
462.8658902423974
 20
2065.37698936267
 30
0.0
  0
POINT
  5
123F
330
1235
100
AcDbEntity
  8
Defpoints
 62
     0
100
AcDbPoint
 10
377.8658902423974
 20
2142.563742726482
 30
0.0
  0
POINT
  5
1240
330
1235
100
AcDbEntity
  8
Defpoints
 62
     0
100
AcDbPoint
 10
377.8658902423974
 20
2195.008869131116
 30
0.0
  0
ENDBLK
  5
1237
330
1235
100
AcDbEntity
  8
0
100
AcDbBlockEnd
  0
BLOCK
  5
1243
330
1242
100
AcDbEntity
  8
0
100
AcDbBlockBegin
  2
*D53
 70
     1
 10
0.0
 20
0.0
 30
0.0
  3
*D53
  1
*D54
  0
LINE
  5
1245
330
1242
100
AcDbEntity
  8
DIM
  6
Continuous
 62
     0
370
    -2
100
AcDbLine
 10
357.5225453764059
 20
1971.304423811477
 30
0.0
 11
320.4569506778529
 21
1971.304423811477
 31
0.0
  0
LINE
  5
1246
330
1242
100
AcDbEntity
  8
DIM
  6
Continuous
 62
     0
370
    -2
100
AcDbLine
 10
341.0851292623992
 20
2066.304423811476
 30
0.0
 11
320.4569506778529
 21
2066.304423811476
 31
0.0
  0
LINE
  5
1247
330
1242
100
AcDbEntity
  8
DIM
  6
Continuous
 62
     0
370
    -2
100
AcDbLine
 10
320.4569506778529
 20
1983.304423811477
 30
0.0
 11
320.4569506778529
 21
2054.304423811476
 31
0.0
  0
INSERT
  5
1248
330
1242
100
AcDbEntity
  8
DIM
 62
     0
370
    -2
100
AcDbBlockReference
  2
_DOT
 10
320.4569506778529
 20
1971.304423811477
 30
0.0
 41
12.0
 42
12.0
 43
12.0
 50
270.0
  0
INSERT
  5
1249
330
1242
100
AcDbEntity
  8
DIM
 62
     0
370
    -2
100
AcDbBlockReference
  2
_DOT
 10
320.4569506778529
 20
2066.304423811476
 30
0.0
 41
12.0
 42
12.0
 43
12.0
 50
90.00000000000004
  0
MTEXT
  5
124A
330
1242
100
AcDbEntity
  8
DIM
  6
Continuous
 62
     0
100
AcDbMText
 10
288.4569506778529
 20
2018.804423811476
 30
0.0
 40
24.0
 41
0.0
 46
0.0
 71
     5
 72
     1
  1
\A1;95
  7
ＭＳ ゴシック
 11
-5.983517774821925E-16
 21
1.0
 31
0.0
 73
     1
 44
1.0
  0
POINT
  5
124B
330
1242
100
AcDbEntity
  8
Defpoints
 62
     0
100
AcDbPoint
 10
367.5225453764059
 20
1971.304423811477
 30
0.0
  0
POINT
  5
124C
330
1242
100
AcDbEntity
  8
Defpoints
 62
     0
100
AcDbPoint
 10
351.0851292623992
 20
2066.304423811476
 30
0.0
  0
POINT
  5
124D
330
1242
100
AcDbEntity
  8
Defpoints
 62
     0
100
AcDbPoint
 10
320.4569506778529
 20
2066.304423811476
 30
0.0
  0
ENDBLK
  5
1244
330
1242
100
AcDbEntity
  8
0
100
AcDbBlockEnd
  0
BLOCK
  5
129C
330
129B
100
AcDbEntity
  8
0
100
AcDbBlockBegin
  2
*D54
 70
     1
 10
0.0
 20
0.0
 30
0.0
  3
*D54
  1
*D55
  0
LINE
  5
129E
330
129B
100
AcDbEntity
  8
DIM
  6
Continuous
 62
     0
370
    -2
100
AcDbLine
 10
834.9775156706107
 20
2145.217882566904
 30
0.0
 11
977.969436812413
 21
2145.217882566904
 31
0.0
  0
LINE
  5
129F
330
129B
100
AcDbEntity
  8
DIM
  6
Continuous
 62
     0
370
    -2
100
AcDbLine
 10
834.8781231804124
 20
1955.217882566903
 30
0.0
 11
977.9694368124132
 21
1955.217882566903
 31
0.0
  0
LINE
  5
12A0
330
129B
100
AcDbEntity
  8
DIM
  6
Continuous
 62
     0
370
    -2
100
AcDbLine
 10
977.969436812413
 20
2140.217882566904
 30
0.0
 11
977.9694368124132
 21
1960.217882566903
 31
0.0
  0
INSERT
  5
12A1
330
129B
100
AcDbEntity
  8
DIM
 62
     0
370
    -2
100
AcDbBlockReference
  2
_DOT
 10
977.969436812413
 20
2145.217882566904
 30
0.0
 41
5.0
 42
5.0
 43
5.0
 50
90.00000000000004
  0
INSERT
  5
12A2
330
129B
100
AcDbEntity
  8
DIM
 62
     0
370
    -2
100
AcDbBlockReference
  2
_DOT
 10
977.9694368124132
 20
1955.217882566903
 30
0.0
 41
5.0
 42
5.0
 43
5.0
 50
270.0
  0
MTEXT
  5
12A3
330
129B
100
AcDbEntity
  8
DIM
  6
Continuous
 62
     0
100
AcDbMText
 10
945.969436812413
 20
2050.217882566904
 30
0.0
 40
24.0
 41
0.0
 46
0.0
 71
     5
 72
     1
  1
\A1;190
  7
ＭＳ ゴシック
 11
-5.983517774821868E-16
 21
1.0
 31
0.0
 73
     1
 44
1.0
  0
POINT
  5
12A4
330
129B
100
AcDbEntity
  8
Defpoints
 62
     0
100
AcDbPoint
 10
824.9775156706107
 20
2145.217882566904
 30
0.0
  0
POINT
  5
12A5
330
129B
100
AcDbEntity
  8
Defpoints
 62
     0
100
AcDbPoint
 10
824.8781231804124
 20
1955.217882566903
 30
0.0
  0
POINT
  5
12A6
330
129B
100
AcDbEntity
  8
Defpoints
 62
     0
100
AcDbPoint
 10
977.9694368124132
 20
1955.217882566903
 30
0.0
  0
ENDBLK
  5
129D
330
129B
100
AcDbEntity
  8
0
100
AcDbBlockEnd
  0
BLOCK
  5
12AA
330
12A9
100
AcDbEntity
  8
0
100
AcDbBlockBegin
  2
*D55
 70
     1
 10
0.0
 20
0.0
 30
0.0
  3
*D55
  1
*D56
  0
LINE
  5
12AC
330
12A9
100
AcDbEntity
  8
DIM
  6
Continuous
 62
     0
370
    -2
100
AcDbLine
 10
512.865890242397
 20
1965.217882566903
 30
0.0
 11
306.880289355575
 21
1965.217882566903
 31
0.0
  0
LINE
  5
12AD
330
12A9
100
AcDbEntity
  8
DIM
  6
Continuous
 62
     0
370
    -2
100
AcDbLine
 10
513.1530527960293
 20
2135.217882566903
 30
0.0
 11
306.880289355575
 21
2135.217882566903
 31
0.0
  0
LINE
  5
12AE
330
12A9
100
AcDbEntity
  8
DIM
  6
Continuous
 62
     0
370
    -2
100
AcDbLine
 10
306.880289355575
 20
1970.217882566903
 30
0.0
 11
306.880289355575
 21
2130.217882566903
 31
0.0
  0
INSERT
  5
12AF
330
12A9
100
AcDbEntity
  8
DIM
 62
     0
370
    -2
100
AcDbBlockReference
  2
_DOT
 10
306.880289355575
 20
1965.217882566903
 30
0.0
 41
5.0
 42
5.0
 43
5.0
 50
270.0
  0
INSERT
  5
12B0
330
12A9
100
AcDbEntity
  8
DIM
 62
     0
370
    -2
100
AcDbBlockReference
  2
_DOT
 10
306.880289355575
 20
2135.217882566903
 30
0.0
 41
5.0
 42
5.0
 43
5.0
 50
90.00000000000001
  0
MTEXT
  5
12B1
330
12A9
100
AcDbEntity
  8
DIM
  6
Continuous
 62
     0
100
AcDbMText
 10
274.880289355575
 20
2050.217882566903
 30
0.0
 40
24.0
 41
0.0
 46
0.0
 71
     5
 72
     1
  1
\A1;170
  7
ＭＳ ゴシック
 11
-3.343730521224001E-16
 21
1.0
 31
0.0
 73
     1
 44
1.0
  0
POINT
  5
12B2
330
12A9
100
AcDbEntity
  8
Defpoints
 62
     0
100
AcDbPoint
 10
522.865890242397
 20
1965.217882566903
 30
0.0
  0
POINT
  5
12B3
330
12A9
100
AcDbEntity
  8
Defpoints
 62
     0
100
AcDbPoint
 10
523.1530527960293
 20
2135.217882566903
 30
0.0
  0
POINT
  5
12B4
330
12A9
100
AcDbEntity
  8
Defpoints
 62
     0
100
AcDbPoint
 10
306.880289355575
 20
2135.217882566903
 30
0.0
  0
ENDBLK
  5
12AB
330
12A9
100
AcDbEntity
  8
0
100
AcDbBlockEnd
  0
BLOCK
  5
139F
330
139E
100
AcDbEntity
  8
0
100
AcDbBlockBegin
  2
*D56
 70
     1
 10
0.0
 20
0.0
 30
0.0
  3
*D56
  1
*D56
  0
LINE
  5
13A1
330
139E
100
AcDbEntity
  8
DIM
  6
Continuous
 62
     0
370
    -2
100
AcDbLine
 10
377.865890242397
 20
1035.589345147256
 30
0.0
 11
377.865890242397
 21
952.8892092322293
 31
0.0
  0
LINE
  5
13A2
330
139E
100
AcDbEntity
  8
DIM
  6
Continuous
 62
     0
370
    -2
100
AcDbLine
 10
673.2055745785661
 20
1022.589345370774
 30
0.0
 11
673.2055745785661
 21
952.8892092322293
 31
0.0
  0
LINE
  5
13A3
330
139E
100
AcDbEntity
  8
DIM
  6
Continuous
 62
     0
370
    -2
100
AcDbLine
 10
382.865890242397
 20
952.8892092322293
 30
0.0
 11
668.2055745785661
 21
952.8892092322293
 31
0.0
  0
INSERT
  5
13A4
330
139E
100
AcDbEntity
  8
DIM
 62
     0
370
    -2
100
AcDbBlockReference
  2
_DOT
 10
377.865890242397
 20
952.8892092322293
 30
0.0
 41
5.0
 42
5.0
 43
5.0
 50
180.0
  0
INSERT
  5
13A5
330
139E
100
AcDbEntity
  8
DIM
 62
     0
370
    -2
100
AcDbBlockReference
  2
_DOT
 10
673.2055745785661
 20
952.8892092322293
 30
0.0
 41
5.0
 42
5.0
 43
5.0
  0
MTEXT
  5
13A6
330
139E
100
AcDbEntity
  8
DIM
  6
Continuous
 62
     0
100
AcDbMText
 10
525.5357324104816
 20
984.8892092322293
 30
0.0
 40
24.0
 41
0.0
 46
0.0
 71
     5
 72
     1
  1
\A1;295
  7
ＭＳ ゴシック
 73
     1
 44
1.0
  0
POINT
  5
13A7
330
139E
100
AcDbEntity
  8
Defpoints
 62
     0
100
AcDbPoint
 10
377.865890242397
 20
1045.589345147256
 30
0.0
  0
POINT
  5
13A8
330
139E
100
AcDbEntity
  8
Defpoints
 62
     0
100
AcDbPoint
 10
673.2055745785661
 20
1032.589345370774
 30
0.0
  0
POINT
  5
13A9
330
139E
100
AcDbEntity
  8
Defpoints
 62
     0
100
AcDbPoint
 10
673.2055745785661
 20
952.8892092322293
 30
0.0
  0
ENDBLK
  5
13A0
330
139E
100
AcDbEntity
  8
0
100
AcDbBlockEnd
  0
BLOCK
  5
1430
330
142F
100
AcDbEntity
  8
0
100
AcDbBlockBegin
  2
*D57
 70
     1
 10
0.0
 20
0.0
 30
0.0
  3
*D57
  1
*D58
  0
LINE
  5
1432
330
142F
100
AcDbEntity
  8
DIM
  6
Continuous
 62
     0
370
    -2
100
AcDbLine
 10
377.865890242397
 20
1035.589345147256
 30
0.0
 11
377.865890242397
 21
965.9756491466544
 31
0.0
  0
LINE
  5
1433
330
142F
100
AcDbEntity
  8
DIM
  6
Continuous
 62
     0
370
    -2
100
AcDbLine
 10
669.865890242397
 20
1022.589345370774
 30
0.0
 11
669.865890242397
 21
965.9756491466544
 31
0.0
  0
LINE
  5
1434
330
142F
100
AcDbEntity
  8
DIM
  6
Continuous
 62
     0
370
    -2
100
AcDbLine
 10
382.865890242397
 20
965.9756491466544
 30
0.0
 11
664.865890242397
 21
965.9756491466544
 31
0.0
  0
INSERT
  5
1435
330
142F
100
AcDbEntity
  8
DIM
 62
     0
370
    -2
100
AcDbBlockReference
  2
_DOT
 10
377.865890242397
 20
965.9756491466544
 30
0.0
 41
5.0
 42
5.0
 43
5.0
 50
180.0
  0
INSERT
  5
1436
330
142F
100
AcDbEntity
  8
DIM
 62
     0
370
    -2
100
AcDbBlockReference
  2
_DOT
 10
669.865890242397
 20
965.9756491466544
 30
0.0
 41
5.0
 42
5.0
 43
5.0
  0
MTEXT
  5
1437
330
142F
100
AcDbEntity
  8
DIM
  6
Continuous
 62
     0
100
AcDbMText
 10
523.865890242397
 20
997.9756491466544
 30
0.0
 40
24.0
 41
0.0
 46
0.0
 71
     5
 72
     1
  1
\A1;292
  7
ＭＳ ゴシック
 73
     1
 44
1.0
  0
POINT
  5
1438
330
142F
100
AcDbEntity
  8
Defpoints
 62
     0
100
AcDbPoint
 10
377.865890242397
 20
1045.589345147256
 30
0.0
  0
POINT
  5
1439
330
142F
100
AcDbEntity
  8
Defpoints
 62
     0
100
AcDbPoint
 10
669.865890242397
 20
1032.589345370774
 30
0.0
  0
POINT
  5
143A
330
142F
100
AcDbEntity
  8
Defpoints
 62
     0
100
AcDbPoint
 10
669.865890242397
 20
965.9756491466544
 30
0.0
  0
ENDBLK
  5
1431
330
142F
100
AcDbEntity
  8
0
100
AcDbBlockEnd
  0
BLOCK
  5
1461
330
1460
100
AcDbEntity
  8
0
100
AcDbBlockBegin
  2
*D58
 70
     1
 10
0.0
 20
0.0
 30
0.0
  3
*D58
  1
*D59
  0
LINE
  5
1463
330
1460
100
AcDbEntity
  8
DIM
  6
Continuous
 62
     0
370
    -2
100
AcDbLine
 10
834.3052300706238
 20
2145.217882566903
 30
0.0
 11
898.0700336065439
 21
2145.217882566903
 31
0.0
  0
LINE
  5
1464
330
1460
100
AcDbEntity
  8
DIM
  6
Continuous
 62
     0
370
    -2
100
AcDbLine
 10
708.0256018762939
 20
2050.217882566903
 30
0.0
 11
898.0700336065439
 21
2050.217882566903
 31
0.0
  0
LINE
  5
1465
330
1460
100
AcDbEntity
  8
DIM
  6
Continuous
 62
     0
370
    -2
100
AcDbLine
 10
898.0700336065439
 20
2140.217882566903
 30
0.0
 11
898.0700336065439
 21
2055.217882566903
 31
0.0
  0
INSERT
  5
1466
330
1460
100
AcDbEntity
  8
DIM
 62
     0
370
    -2
100
AcDbBlockReference
  2
_DOT
 10
898.0700336065439
 20
2145.217882566903
 30
0.0
 41
5.0
 42
5.0
 43
5.0
 50
90.0
  0
INSERT
  5
1467
330
1460
100
AcDbEntity
  8
DIM
 62
     0
370
    -2
100
AcDbBlockReference
  2
_DOT
 10
898.0700336065439
 20
2050.217882566903
 30
0.0
 41
5.0
 42
5.0
 43
5.0
 50
270.0
  0
MTEXT
  5
1468
330
1460
100
AcDbEntity
  8
DIM
  6
Continuous
 62
     0
100
AcDbMText
 10
866.0700336065439
 20
2097.717882566903
 30
0.0
 40
24.0
 41
0.0
 46
0.0
 71
     5
 72
     1
  1
\A1;95
  7
ＭＳ ゴシック
 11
0.0
 21
1.0
 31
0.0
 73
     1
 44
1.0
  0
POINT
  5
1469
330
1460
100
AcDbEntity
  8
Defpoints
 62
     0
100
AcDbPoint
 10
824.3052300706238
 20
2145.217882566903
 30
0.0
  0
POINT
  5
146A
330
1460
100
AcDbEntity
  8
Defpoints
 62
     0
100
AcDbPoint
 10
698.0256018762939
 20
2050.217882566903
 30
0.0
  0
POINT
  5
146B
330
1460
100
AcDbEntity
  8
Defpoints
 62
     0
100
AcDbPoint
 10
898.0700336065439
 20
2050.217882566903
 30
0.0
  0
ENDBLK
  5
1462
330
1460
100
AcDbEntity
  8
0
100
AcDbBlockEnd
  0
ENDSEC
  0
SECTION
  2
ENTITIES
  0
MTEXT
  5
177
330
A
100
AcDbEntity
  8
TEMPLATE
390
1D
100
AcDbMText
 10
79.20214454773075
 20
343.7317516314282
 30
0.0
 40
16.28841145833333
 41
0.0
 46
0.0
 71
     1
 72
     1
  1
品名
  7
ＭＳ ゴシック
 73
     1
 44
0.7828267384257843
  0
MTEXT
  5
178
330
A
100
AcDbEntity
  8
TEMPLATE
390
1D
100
AcDbMText
 10
79.20214454773075
 20
258.731751631428
 30
0.0
 40
16.28841145833333
 41
0.0
 46
0.0
 71
     1
 72
     1
  1
仕様
  7
ＭＳ ゴシック
 73
     1
 44
0.7828267384257843
  0
LINE
  5
179
330
A
100
AcDbEntity
  8
TEMPLATE
390
1D
100
AcDbLine
 10
2022.202144547248
 20
267.1466735064284
 30
0.0
 11
72.20214454724874
 21
267.1466735064284
 31
0.0
  0
LWPOLYLINE
  5
17A
330
A
100
AcDbEntity
  8
TEMPLATE
390
1D
100
AcDbPolyline
 90
        5
 70
   128
 43
0.0
 10
2022.202144547248
 20
2897.146673506426
 10
72.20214454724874
 20
2897.146673506426
 10
72.20214454724874
 20
97.14667350642826
 10
2022.202144547248
 20
97.14667350642826
 10
2022.202144547248
 20
2897.146673506426
  0
LINE
  5
17B
330
A
100
AcDbEntity
  8
TEMPLATE
390
1D
100
AcDbLine
 10
2022.202144547248
 20
352.1466735064282
 30
0.0
 11
72.20214454724874
 21
352.1466735064282
 31
0.0
  0
LINE
  5
17C
330
A
100
AcDbEntity
  8
TEMPLATE
390
1D
100
AcDbLine
 10
2022.202144547732
 20
182.1466735064282
 30
0.0
 11
1269.20214454773
 21
182.1466735064282
 31
0.0
  0
MTEXT
  5
17D
330
A
100
AcDbEntity
  8
TEMPLATE
390
1D
100
AcDbMText
 10
72.2021445479345
 20
85.29285144957115
 30
0.0
 40
21.71788194444444
 41
0.0
 46
21.71788194444444
 71
     1
 72
     1
  1
{160418N}
  7
ＭＳ ゴシック
 73
     1
 44
0.7828267384257843
1001
ACAD
1000
ACAD_MTEXT_DEFINED_HEIGHT_BEGIN
1070
    46
1040
21.71788194444444
1000
ACAD_MTEXT_DEFINED_HEIGHT_END
  0
MTEXT
  5
17E
330
A
100
AcDbEntity
  8
TEMPLATE
390
1D
100
AcDbMText
 10
1299.073550799991
 20
152.2362790331201
 30
0.0
 40
24.4326171875
 41
0.0
 46
0.0
 71
     1
 72
     1
  1
大洋金物株式会社 ティーフォルム事業部
  7
ＭＳ ゴシック
 73
     1
 44
0.7828267384257843
  0
MTEXT
  5
180
330
A
100
AcDbEntity
  8
TEMPLATE
390
1D
100
AcDbMText
 10
1831.20214454799
 20
230.1492906939282
 30
0.0
 40
24.4326171875
 41
0.0
 46
24.4326171875
 71
     1
 72
     1
  1
{1:10}
  7
ＭＳ ゴシック
 73
     1
 44
0.7828267384257843
1001
ACAD
1000
ACAD_MTEXT_DEFINED_HEIGHT_BEGIN
1070
    46
1040
24.4326171875
1000
ACAD_MTEXT_DEFINED_HEIGHT_END
  0
MTEXT
  5
181
330
A
100
AcDbEntity
  8
TEMPLATE
390
1D
100
AcDbMText
 10
1778.20214454799
 20
258.731751631428
 30
0.0
 40
16.28841145833333
 41
0.0
 46
0.0
 71
     1
 72
     1
  1
縮尺
  7
ＭＳ ゴシック
 73
     1
 44
0.7828267384257843
  0
LINE
  5
182
330
A
100
AcDbEntity
  8
TEMPLATE
390
1D
100
AcDbLine
 10
1771.20214454799
 20
182.1466735064282
 30
0.0
 11
1771.20214454799
 21
267.1466735064284
 31
0.0
  0
MTEXT
  5
183
330
A
100
AcDbEntity
  8
TEMPLATE
390
1D
100
AcDbMText
 10
1527.20214454799
 20
258.731751631428
 30
0.0
 40
16.28841145833333
 41
0.0
 46
0.0
 71
     1
 72
     1
  1
容量
  7
ＭＳ ゴシック
 73
     1
 44
0.7828267384257843
  0
LINE
  5
184
330
A
100
AcDbEntity
  8
TEMPLATE
390
1D
100
AcDbLine
 10
1520.20214454799
 20
182.1466735064282
 30
0.0
 11
1520.20214454799
 21
267.1466735064284
 31
0.0
  0
MTEXT
  5
185
330
A
100
AcDbEntity
  8
TEMPLATE
390
1D
100
AcDbMText
 10
1276.20214454799
 20
343.7317516314282
 30
0.0
 40
16.28841145833333
 41
0.0
 46
0.0
 71
     1
 72
     1
  1
品番
  7
ＭＳ ゴシック
 73
     1
 44
0.7828267384257843
  0
MTEXT
  5
186
330
A
100
AcDbEntity
  8
TEMPLATE
390
1D
100
AcDbMText
 10
1276.20214454799
 20
258.731751631428
 30
0.0
 40
16.28841145833333
 41
0.0
 46
0.0
 71
     1
 72
     1
  1
重量
  7
ＭＳ ゴシック
 73
     1
 44
0.7828267384257843
  0
MTEXT
  5
187
330
A
100
AcDbEntity
  8
TEMPLATE
390
1D
100
AcDbMText
 10
1329.20214454799
 20
315.1492906939282
 30
0.0
 40
24.4326171875
 41
0.0
 46
24.4326171875
 71
     1
 72
     1
  1
{BRS70-0201-001}
  7
ＭＳ ゴシック
 73
     1
 44
0.7828267384257843
1001
ACAD
1000
ACAD_MTEXT_DEFINED_HEIGHT_BEGIN
1070
    46
1040
24.4326171875
1000
ACAD_MTEXT_DEFINED_HEIGHT_END
  0
LINE
  5
188
330
A
100
AcDbEntity
  8
TEMPLATE
390
1D
100
AcDbLine
 10
1269.20214454799
 20
97.14667350642826
 30
0.0
 11
1269.20214454799
 21
352.1466735064282
 31
0.0
  0
MTEXT
  5
189
330
A
100
AcDbEntity
  8
TEMPLATE
390
1D
100
AcDbMText
 10
132.2021445477307
 20
315.1492906939282
 30
0.0
 40
24.4326171875
 41
0.0
 46
27.5355595703125
 71
     1
 72
     1
  1
{手洗器　-CLOU, Mini Wash Me-}
  7
ＭＳ ゴシック
 73
     1
 44
0.7828267384257843
1001
ACAD
1000
ACAD_MTEXT_DEFINED_HEIGHT_BEGIN
1070
    46
1040
27.5355595703125
1000
ACAD_MTEXT_DEFINED_HEIGHT_END
  0
INSERT
  5
6B5
330
A
100
AcDbEntity
  8
TEMPLATE
100
AcDbBlockReference
  2
名称未設定-1
 10
1870.75074808845
 20
25.94676575665382
 30
0.0
 41
0.7619999999999998
 42
0.7619999999999998
 43
0.7619999999999998
  0
MTEXT
  5
7D9
330
A
100
AcDbEntity
  8
TEMPLATE
390
1D
100
AcDbMText
 10
125.2543452760364
 20
226.8119760293952
 30
0.0
 40
24.4326171875
 41
1118.661816684109
 46
27.902048828125
 71
     1
 72
     1
  1
{壁掛け、カウンター置き/オーバーフローなし/壁取付ボルト付属/}
  7
ＭＳ ゴシック
 73
     1
 44
0.7828267384257843
1001
ACAD
1000
ACAD_MTEXT_DEFINED_HEIGHT_BEGIN
1070
    46
1040
27.902048828125
1000
ACAD_MTEXT_DEFINED_HEIGHT_END
  0
INSERT
  5
68C
330
A
100
AcDbEntity
  8
TEMPLATE
100
AcDbBlockReference
  2
block 2
 10
919.2743017702577
 20
8.373076514336368
 30
0.0
 41
0.3809999999999999
 42
0.3809999999999999
 43
0.3809999999999999
  0
LWPOLYLINE
  5
100B
330
A
100
AcDbEntity
  8
PRINT BORDER
 48
0.05
100
AcDbPolyline
 90
        4
 70
     1
 43
0.0
 10
0.0
 20
0.0
 10
0.000000000001819
 20
2970.000000000002
 10
2100.0
 20
2970.000000000002
 10
2100.0
 20
0.0
  0
LINE
  5
100E
330
A
100
AcDbEntity
  8
MODEL
100
AcDbLine
 10
634.7533988731491
 20
1038.416830488835
 30
0.0
 11
635.3658887522804
 21
1032.589345370774
 31
0.0
  0
LINE
  5
100F
330
A
100
AcDbEntity
  8
MODEL
100
AcDbLine
 10
705.3658890503045
 20
1032.589345370774
 30
0.0
 11
705.9783863800164
 21
1038.416797426883
 31
0.0
  0
SPLINE
  5
1010
330
A
100
AcDbEntity
  8
MODEL
100
AcDbSpline
210
0.0
220
0.0
230
1.0
 70
     8
 71
     3
 72
    10
 73
     6
 74
     0
 42
0.000000001
 43
0.00000001
 40
0.0
 40
0.0
 40
0.0
 40
0.0
 40
0.2516457341688669
 40
0.7302010152635706
 40
1.0
 40
1.0
 40
1.0
 40
1.0
 10
631.6674875991928
 20
1042.498800002043
 30
0.0
 10
631.8493061163215
 20
1042.428074426834
 30
0.0
 10
632.3768893325948
 20
1042.222849859868
 30
0.0
 10
633.0333576164674
 20
1041.76888899641
 30
0.0
 10
633.4159951440859
 20
1041.327304606804
 30
0.0
 10
633.5539448040115
 20
1041.168103242647
 30
0.0
  0
SPLINE
  5
1011
330
A
100
AcDbEntity
  8
MODEL
100
AcDbSpline
210
0.0
220
0.0
230
1.0
 70
     8
 71
     3
 72
    10
 73
     6
 74
     0
 42
0.000000001
 43
0.00000001
 40
0.0
 40
0.0
 40
0.0
 40
0.0
 40
0.2757453797413899
 40
0.7542185031976066
 40
0.9999999999999999
 40
0.9999999999999999
 40
0.9999999999999999
 40
0.9999999999999999
 10
631.6674875991928
 20
1042.498800002043
 30
0.0
 10
631.8595168492363
 20
1042.42109087893
 30
0.0
 10
632.384755073236
 20
1042.208540958499
 30
0.0
 10
633.0121888298061
 20
1041.764742242163
 30
0.0
 10
633.3667909732656
 20
1041.35047223147
 30
0.0
 10
633.4871279972183
 20
1041.209886447881
 30
0.0
  0
LINE
  5
1012
330
A
100
AcDbEntity
  8
MODEL
100
AcDbLine
 10
827.8658914344903
 20
1097.589344849233
 30
0.0
 11
827.8658914344903
 21
1047.589345035497
 31
0.0
  0
LINE
  5
1013
330
A
100
AcDbEntity
  8
MODEL
100
AcDbLine
 10
377.8658884542576
 20
1047.589345035497
 30
0.0
 11
377.8658884542576
 21
1097.589344849233
 31
0.0
  0
LINE
  5
1014
330
A
100
AcDbEntity
  8
MODEL
100
AcDbLine
 10
822.8658962028619
 20
1042.589345147256
 30
0.0
 11
382.865883685886
 21
1042.589345147256
 31
0.0
  0
LINE
  5
1015
330
A
100
AcDbEntity
  8
MODEL
100
AcDbLine
 10
382.865883685886
 20
1102.589343806152
 30
0.0
 11
822.8658962028619
 21
1102.589343806152
 31
0.0
  0
SPLINE
  5
1016
330
A
100
AcDbEntity
  8
MODEL
100
AcDbSpline
210
0.0
220
0.0
230
1.0
 70
    24
 71
     3
 72
    18
 73
    14
 74
     0
 42
0.000000001
 43
0.00000001
 40
0.0
 40
0.0
 40
0.0
 40
0.0
 40
0.0899907167152244
 40
0.1786730807626778
 40
0.2665403601173583
 40
0.3540995992606771
 40
0.4418631818421934
 40
0.5303399414220317
 40
0.6200265738371777
 40
0.7114000468597786
 40
0.8049115199551872
 40
0.900982036341611
 40
0.9999999999999999
 40
0.9999999999999999
 40
0.9999999999999999
 40
0.9999999999999999
 10
381.4265504141779
 20
1102.589345147256
 30
0.0
 10
381.4609280132838
 20
1102.589345147256
 30
0.0
 10
381.5291834041175
 20
1102.589345147256
 30
0.0
 10
381.6397059101994
 20
1102.589345147256
 30
0.0
 10
381.7550219332309
 20
1102.589345147256
 30
0.0
 10
381.8757557174879
 20
1102.589345147256
 30
0.0
 10
382.0017271871377
 20
1102.589345147256
 30
0.0
 10
382.1329674884594
 20
1102.589345147256
 30
0.0
 10
382.269450827361
 20
1102.589345147256
 30
0.0
 10
382.411168398173
 20
1102.589345147256
 30
0.0
 10
382.5581093904959
 20
1102.589345147256
 30
0.0
 10
382.7102683941023
 20
1102.589345147256
 30
0.0
 10
382.8134964276808
 20
1102.589345147256
 30
0.0
 10
382.865890242397
 20
1102.589345147256
 30
0.0
  0
SPLINE
  5
1017
330
A
100
AcDbEntity
  8
MODEL
100
AcDbSpline
210
0.0
220
0.0
230
1.0
 70
    24
 71
     3
 72
    17
 73
    13
 74
     0
 42
0.000000001
 43
0.00000001
 40
0.0
 40
0.0
 40
0.0
 40
0.0
 40
0.108752915733241
 40
0.2139847941175793
 40
0.3162192408300573
 40
0.416027047535776
 40
0.5140214187144914
 40
0.610850017818805
 40
0.7071840239889953
 40
0.8037049346953725
 40
0.9010903236450031
 40
1.0
 40
1.0
 40
1.0
 40
1.0
 10
382.865890242397
 20
1042.589345147256
 30
0.0
 10
382.808345677023
 20
1042.589345147256
 30
0.0
 10
382.6951196371349
 20
1042.589345147256
 30
0.0
 10
382.528529948014
 20
1042.589345147256
 30
0.0
 10
382.3682479316678
 20
1042.589345147256
 30
0.0
 10
382.2142851070651
 20
1042.589345147256
 30
0.0
 10
382.0666549218997
 20
1042.589345147256
 30
0.0
 10
381.9253929426388
 20
1042.589345147256
 30
0.0
 10
381.7904671617919
 20
1042.589345147256
 30
0.0
 10
381.6621013225788
 20
1042.589345147256
 30
0.0
 10
381.5395465908853
 20
1042.589345147256
 30
0.0
 10
381.464410291371
 20
1042.589345147256
 30
0.0
 10
381.4265504141779
 20
1042.589345147256
 30
0.0
  0
SPLINE
  5
1018
330
A
100
AcDbEntity
  8
MODEL
100
AcDbSpline
210
0.0
220
0.0
230
1.0
 70
    24
 71
     3
 72
    17
 73
    13
 74
     0
 42
0.000000001
 43
0.00000001
 40
0.0
 40
0.0
 40
0.0
 40
0.0
 40
0.1087529157332468
 40
0.2139847941175796
 40
0.3162192408300465
 40
0.4160270475357795
 40
0.514021418714477
 40
0.610850017818804
 40
0.7071840239889996
 40
0.8037049346953706
 40
0.901090323645002
 40
1.0
 40
1.0
 40
1.0
 40
1.0
 10
377.865890242397
 20
1097.589345147256
 30
0.0
 10
377.865890242397
 20
1097.64688971263
 30
0.0
 10
377.865890242397
 20
1097.760115752518
 30
0.0
 10
377.865890242397
 20
1097.926705441646
 30
0.0
 10
377.865890242397
 20
1098.086987457982
 30
0.0
 10
377.865890242397
 20
1098.240950282588
 30
0.0
 10
377.865890242397
 20
1098.388580467753
 30
0.0
 10
377.865890242397
 20
1098.529842447014
 30
0.0
 10
377.865890242397
 20
1098.664768227865
 30
0.0
 10
377.865890242397
 20
1098.793134067082
 30
0.0
 10
377.865890242397
 20
1098.915688798775
 30
0.0
 10
377.865890242397
 20
1098.990825098278
 30
0.0
 10
377.865890242397
 20
1099.028684975475
 30
0.0
  0
SPLINE
  5
1019
330
A
100
AcDbEntity
  8
MODEL
100
AcDbSpline
210
0.0
220
0.0
230
1.0
 70
    24
 71
     3
 72
    17
 73
    13
 74
     0
 42
0.000000001
 43
0.00000001
 40
0.0
 40
0.0
 40
0.0
 40
0.0
 40
0.1087529157332479
 40
0.2139847941175879
 40
0.3162192408300559
 40
0.4160270475357855
 40
0.5140214187144938
 40
0.6108500178188178
 40
0.7071840239890189
 40
0.8037049346953755
 40
0.9010903236450044
 40
1.0
 40
1.0
 40
1.0
 40
1.0
 10
827.8658902423974
 20
1047.589345147256
 30
0.0
 10
827.8658902423974
 20
1047.531800581882
 30
0.0
 10
827.8658902423974
 20
1047.418574541998
 30
0.0
 10
827.8658902423974
 20
1047.251984852866
 30
0.0
 10
827.8658902423974
 20
1047.091702836531
 30
0.0
 10
827.8658902423974
 20
1046.937740011924
 30
0.0
 10
827.8658902423974
 20
1046.790109826759
 30
0.0
 10
827.8658902423974
 20
1046.648847847498
 30
0.0
 10
827.8658902423974
 20
1046.513922066651
 30
0.0
 10
827.8658902423974
 20
1046.385556227434
 30
0.0
 10
827.8658902423974
 20
1046.263001495741
 30
0.0
 10
827.8658902423974
 20
1046.187865196234
 30
0.0
 10
827.8658902423974
 20
1046.150005319037
 30
0.0
  0
SPLINE
  5
101A
330
A
100
AcDbEntity
  8
MODEL
100
AcDbSpline
210
0.0
220
0.0
230
1.0
 70
    24
 71
     3
 72
    18
 73
    14
 74
     0
 42
0.000000001
 43
0.00000001
 40
0.0
 40
0.0
 40
0.0
 40
0.0
 40
0.0899907167152111
 40
0.1786730807626755
 40
0.2665403601173425
 40
0.3540995992606801
 40
0.4418631818421915
 40
0.5303399414220235
 40
0.620026573837174
 40
0.7114000468597778
 40
0.8049115199551848
 40
0.9009820363416123
 40
1.0
 40
1.0
 40
1.0
 40
1.0
 10
377.865890242397
 20
1046.150005319037
 30
0.0
 10
377.865890242397
 20
1046.184382918139
 30
0.0
 10
377.865890242397
 20
1046.252638308973
 30
0.0
 10
377.865890242397
 20
1046.363160815062
 30
0.0
 10
377.865890242397
 20
1046.478476838083
 30
0.0
 10
377.865890242397
 20
1046.599210622343
 30
0.0
 10
377.865890242397
 20
1046.725182091986
 30
0.0
 10
377.865890242397
 20
1046.856422393319
 30
0.0
 10
377.865890242397
 20
1046.992905732217
 30
0.0
 10
377.865890242397
 20
1047.134623303029
 30
0.0
 10
377.865890242397
 20
1047.281564295351
 30
0.0
 10
377.865890242397
 20
1047.433723298961
 30
0.0
 10
377.865890242397
 20
1047.53695133254
 30
0.0
 10
377.865890242397
 20
1047.589345147256
 30
0.0
  0
SPLINE
  5
101B
330
A
100
AcDbEntity
  8
MODEL
100
AcDbSpline
210
0.0
220
0.0
230
1.0
 70
    24
 71
     3
 72
    18
 73
    14
 74
     0
 42
0.000000001
 43
0.00000001
 40
0.0
 40
0.0
 40
0.0
 40
0.0
 40
0.0899907167152471
 40
0.1786730807626513
 40
0.2665403601173339
 40
0.354099599260665
 40
0.4418631818421591
 40
0.5303399414219977
 40
0.6200265738371884
 40
0.7114000468597693
 40
0.8049115199551934
 40
0.9009820363415967
 40
1.0
 40
1.0
 40
1.0
 40
1.0
 10
824.3052300706238
 20
1042.589345147256
 30
0.0
 10
824.2708524715179
 20
1042.589345147256
 30
0.0
 10
824.2025970806842
 20
1042.589345147256
 30
0.0
 10
824.0920745746023
 20
1042.589345147256
 30
0.0
 10
823.9767585515708
 20
1042.589345147256
 30
0.0
 10
823.8560247673065
 20
1042.589345147256
 30
0.0
 10
823.7300532976712
 20
1042.589345147256
 30
0.0
 10
823.5988129963423
 20
1042.589345147256
 30
0.0
 10
823.4623296574407
 20
1042.589345147256
 30
0.0
 10
823.3206120866287
 20
1042.589345147256
 30
0.0
 10
823.173671094313
 20
1042.589345147256
 30
0.0
 10
823.0215120906994
 20
1042.589345147256
 30
0.0
 10
822.9182840571209
 20
1042.589345147256
 30
0.0
 10
822.8658902423974
 20
1042.589345147256
 30
0.0
  0
SPLINE
  5
101C
330
A
100
AcDbEntity
  8
MODEL
100
AcDbSpline
210
0.0
220
0.0
230
1.0
 70
    24
 71
     3
 72
    17
 73
    13
 74
     0
 42
0.000000001
 43
0.00000001
 40
0.0
 40
0.0
 40
0.0
 40
0.0
 40
0.1087529157332548
 40
0.2139847941176244
 40
0.3162192408300832
 40
0.4160270475357986
 40
0.5140214187145107
 40
0.610850017818869
 40
0.7071840239890254
 40
0.8037049346953801
 40
0.9010903236449935
 40
1.0
 40
1.0
 40
1.0
 40
1.0
 10
822.8658902423974
 20
1102.589345147256
 30
0.0
 10
822.9234348077714
 20
1102.589345147256
 30
0.0
 10
823.0366608476668
 20
1102.589345147256
 30
0.0
 10
823.2032505367877
 20
1102.589345147256
 30
0.0
 10
823.3635325531266
 20
1102.589345147256
 30
0.0
 10
823.5174953777366
 20
1102.589345147256
 30
0.0
 10
823.6651255628947
 20
1102.589345147256
 30
0.0
 10
823.8063875421628
 20
1102.589345147256
 30
0.0
 10
823.9413133230098
 20
1102.589345147256
 30
0.0
 10
824.0696791622229
 20
1102.589345147256
 30
0.0
 10
824.1922338939164
 20
1102.589345147256
 30
0.0
 10
824.2673701934161
 20
1102.589345147256
 30
0.0
 10
824.3052300706238
 20
1102.589345147256
 30
0.0
  0
SPLINE
  5
101D
102
{ACAD_REACTORS
330
10AC
102
}
330
A
100
AcDbEntity
  8
MODEL
100
AcDbSpline
210
0.0
220
0.0
230
1.0
 70
    24
 71
     3
 72
    18
 73
    14
 74
     0
 42
0.000000001
 43
0.00000001
 40
0.0
 40
0.0
 40
0.0
 40
0.0
 40
0.0899907167152113
 40
0.1786730807626827
 40
0.2665403601173534
 40
0.3540995992606912
 40
0.4418631818422142
 40
0.53033994142204
 40
0.6200265738371864
 40
0.7114000468597903
 40
0.8049115199551976
 40
0.9009820363416166
 40
1.0
 40
1.0
 40
1.0
 40
1.0
 10
827.8658902423974
 20
1099.028684975475
 30
0.0
 10
827.8658902423974
 20
1098.994307376377
 30
0.0
 10
827.8658902423974
 20
1098.926051985539
 30
0.0
 10
827.8658902423974
 20
1098.815529479454
 30
0.0
 10
827.8658902423974
 20
1098.70021345643
 30
0.0
 10
827.8658902423974
 20
1098.579479672169
 30
0.0
 10
827.8658902423974
 20
1098.453508202526
 30
0.0
 10
827.8658902423974
 20
1098.322267901197
 30
0.0
 10
827.8658902423974
 20
1098.185784562296
 30
0.0
 10
827.8658902423974
 20
1098.044066991487
 30
0.0
 10
827.8658902423974
 20
1097.897125999161
 30
0.0
 10
827.8658902423974
 20
1097.744966995551
 30
0.0
 10
827.8658902423974
 20
1097.641738961976
 30
0.0
 10
827.8658902423974
 20
1097.589345147256
 30
0.0
  0
SPLINE
  5
101E
330
A
100
AcDbEntity
  8
MODEL
100
AcDbSpline
210
0.0
220
0.0
230
1.0
 70
     8
 71
     3
 72
    14
 73
    10
 74
     0
 42
0.000000001
 43
0.00000001
 40
0.0
 40
0.0
 40
0.0
 40
0.0
 40
0.25
 40
0.25
 40
0.5
 40
0.5
 40
0.75
 40
0.75
 40
1.0
 40
1.0
 40
1.0
 40
1.0
 10
377.865890242397
 20
1099.589345147256
 30
0.0
 10
377.865890242397
 20
1099.982044228954
 30
0.0
 10
377.9439722123982
 20
1100.374588800337
 30
0.0
 10
378.2445310773376
 20
1101.100202088369
 30
0.0
 10
378.4668897152053
 20
1101.432985307181
 30
0.0
 10
379.0222500824796
 20
1101.988345674451
 30
0.0
 10
379.3550333012874
 20
1102.210704312319
 30
0.0
 10
380.0806465893231
 20
1102.511263177262
 30
0.0
 10
380.4731911606989
 20
1102.589345147256
 30
0.0
 10
380.8658902424042
 20
1102.589345147256
 30
0.0
  0
SPLINE
  5
101F
330
A
100
AcDbEntity
  8
MODEL
100
AcDbSpline
210
0.0
220
0.0
230
1.0
 70
    24
 71
     3
 72
    18
 73
    14
 74
     0
 42
0.000000001
 43
0.00000001
 40
0.0
 40
0.0
 40
0.0
 40
0.0
 40
0.0899907167152372
 40
0.1786730807626877
 40
0.2665403601173678
 40
0.3540995992606858
 40
0.4418631818421955
 40
0.5303399414220341
 40
0.6200265738371925
 40
0.7114000468597714
 40
0.804911519955194
 40
0.9009820363416318
 40
1.0
 40
1.0
 40
1.0
 40
1.0
 10
377.865890242397
 20
1099.028684975475
 30
0.0
 10
377.865890242397
 20
1099.06165242005
 30
0.0
 10
377.865890242397
 20
1099.127108003709
 30
0.0
 10
377.865890242397
 20
1099.214995448992
 30
0.0
 10
377.865890242397
 20
1099.294089464243
 30
0.0
 10
377.865890242397
 20
1099.363747089033
 30
0.0
 10
377.865890242397
 20
1099.424127610274
 30
0.0
 10
377.865890242397
 20
1099.4751863869
 30
0.0
 10
377.865890242397
 20
1099.516922911554
 30
0.0
 10
377.865890242397
 20
1099.549389933652
 30
0.0
 10
377.865890242397
 20
1099.572397135756
 30
0.0
 10
377.865890242397
 20
1099.586722861402
 30
0.0
 10
377.865890242397
 20
1099.588462292047
 30
0.0
 10
377.865890242397
 20
1099.589345147256
 30
0.0
  0
SPLINE
  5
1020
330
A
100
AcDbEntity
  8
MODEL
100
AcDbSpline
210
0.0
220
0.0
230
1.0
 70
    24
 71
     3
 72
    17
 73
    13
 74
     0
 42
0.000000001
 43
0.00000001
 40
0.0
 40
0.0
 40
0.0
 40
0.0
 40
0.1087529157332286
 40
0.2139847941175453
 40
0.3162192408300011
 40
0.4160270475357293
 40
0.5140214187144304
 40
0.6108500178187488
 40
0.7071840239889478
 40
0.8037049346953292
 40
0.901090323644981
 40
1.0
 40
1.0
 40
1.0
 40
1.0
 10
380.8658902424042
 20
1102.589345147256
 30
0.0
 10
380.8669525586495
 20
1102.589345147256
 30
0.0
 10
380.8690427970917
 20
1102.589345147256
 30
0.0
 10
380.8863588905926
 20
1102.589345147256
 30
0.0
 10
380.9141972008631
 20
1102.589345147256
 30
0.0
 10
380.9534966900148
 20
1102.589345147256
 30
0.0
 10
381.0040260020226
 20
1102.589345147256
 30
0.0
 10
381.0658662827093
 20
1102.589345147256
 30
0.0
 10
381.1389447896702
 20
1102.589345147256
 30
0.0
 10
381.2234585925301
 20
1102.589345147256
 30
0.0
 10
381.3186270005874
 20
1102.589345147256
 30
0.0
 10
381.3903901890783
 20
1102.589345147256
 30
0.0
 10
381.4265504141779
 20
1102.589345147256
 30
0.0
  0
SPLINE
  5
1021
330
A
100
AcDbEntity
  8
MODEL
100
AcDbSpline
210
0.0
220
0.0
230
1.0
 70
     8
 71
     3
 72
    14
 73
    10
 74
     0
 42
0.000000001
 43
0.00000001
 40
0.0
 40
0.0
 40
0.0
 40
0.0
 40
0.2499999999999999
 40
0.2499999999999999
 40
0.4999999999999999
 40
0.4999999999999999
 40
0.7499999999999999
 40
0.7499999999999999
 40
1.0
 40
1.0
 40
1.0
 40
1.0
 10
827.8658902423974
 20
1045.589345147256
 30
0.0
 10
827.8658902423974
 20
1045.196646065558
 30
0.0
 10
827.7878082724035
 20
1044.804101494179
 30
0.0
 10
827.4872494074714
 20
1044.078488206147
 30
0.0
 10
827.2648907695891
 20
1043.745704987331
 30
0.0
 10
826.7095304023221
 20
1043.190344620061
 30
0.0
 10
826.3767471835142
 20
1042.967985982193
 30
0.0
 10
825.6511338954786
 20
1042.66742711725
 30
0.0
 10
825.2585893241028
 20
1042.589345147256
 30
0.0
 10
824.8658902423974
 20
1042.589345147256
 30
0.0
  0
SPLINE
  5
1022
330
A
100
AcDbEntity
  8
MODEL
100
AcDbSpline
210
0.0
220
0.0
230
1.0
 70
    24
 71
     3
 72
    18
 73
    14
 74
     0
 42
0.000000001
 43
0.00000001
 40
0.0
 40
0.0
 40
0.0
 40
0.0
 40
0.0899907167152343
 40
0.1786730807626876
 40
0.2665403601173652
 40
0.3540995992606856
 40
0.4418631818421953
 40
0.5303399414220339
 40
0.6200265738371912
 40
0.7114000468597711
 40
0.8049115199551938
 40
0.9009820363416315
 40
1.0
 40
1.0
 40
1.0
 40
1.0
 10
827.8658902423974
 20
1046.150005319037
 30
0.0
 10
827.8658902423974
 20
1046.117037874466
 30
0.0
 10
827.8658902423974
 20
1046.051582290807
 30
0.0
 10
827.8658902423974
 20
1045.96369484552
 30
0.0
 10
827.8658902423974
 20
1045.884600830269
 30
0.0
 10
827.8658902423974
 20
1045.814943205483
 30
0.0
 10
827.8658902423974
 20
1045.754562684242
 30
0.0
 10
827.8658902423974
 20
1045.703503907616
 30
0.0
 10
827.8658902423974
 20
1045.661767382962
 30
0.0
 10
827.8658902423974
 20
1045.62930036086
 30
0.0
 10
827.8658902423974
 20
1045.606293158756
 30
0.0
 10
827.8658902423974
 20
1045.591967433114
 30
0.0
 10
827.8658902423974
 20
1045.590228002465
 30
0.0
 10
827.8658902423974
 20
1045.589345147256
 30
0.0
  0
SPLINE
  5
1023
330
A
100
AcDbEntity
  8
MODEL
100
AcDbSpline
210
0.0
220
0.0
230
1.0
 70
    24
 71
     3
 72
    17
 73
    13
 74
     0
 42
0.000000001
 43
0.00000001
 40
0.0
 40
0.0
 40
0.0
 40
0.0
 40
0.1087529157332466
 40
0.213984794117573
 40
0.3162192408300415
 40
0.4160270475357707
 40
0.5140214187144728
 40
0.6108500178188142
 40
0.7071840239889564
 40
0.8037049346953603
 40
0.9010903236450102
 40
0.9999999999999999
 40
0.9999999999999999
 40
0.9999999999999999
 40
0.9999999999999999
 10
824.8658902423974
 20
1042.589345147256
 30
0.0
 10
824.8648279261449
 20
1042.589345147256
 30
0.0
 10
824.86273768771
 20
1042.589345147256
 30
0.0
 10
824.845421594209
 20
1042.589345147256
 30
0.0
 10
824.8175832839386
 20
1042.589345147256
 30
0.0
 10
824.7782837947868
 20
1042.589345147256
 30
0.0
 10
824.7277544827864
 20
1042.589345147256
 30
0.0
 10
824.6659142020997
 20
1042.589345147256
 30
0.0
 10
824.5928356951315
 20
1042.589345147256
 30
0.0
 10
824.5083218922716
 20
1042.589345147256
 30
0.0
 10
824.413153484207
 20
1042.589345147256
 30
0.0
 10
824.3413902957234
 20
1042.589345147256
 30
0.0
 10
824.3052300706238
 20
1042.589345147256
 30
0.0
  0
SPLINE
  5
1024
330
A
100
AcDbEntity
  8
MODEL
100
AcDbSpline
210
0.0
220
0.0
230
1.0
 70
     8
 71
     3
 72
    14
 73
    10
 74
     0
 42
0.000000001
 43
0.00000001
 40
0.0
 40
0.0
 40
0.0
 40
0.0
 40
0.25
 40
0.25
 40
0.5
 40
0.5
 40
0.75
 40
0.75
 40
1.0
 40
1.0
 40
1.0
 40
1.0
 10
380.8658902424042
 20
1042.589345147256
 30
0.0
 10
380.4731911606989
 20
1042.589345147256
 30
0.0
 10
380.0806465893231
 20
1042.66742711725
 30
0.0
 10
379.3550333012874
 20
1042.967985982193
 30
0.0
 10
379.0222500824796
 20
1043.190344620061
 30
0.0
 10
378.4668897152053
 20
1043.745704987331
 30
0.0
 10
378.2445310773376
 20
1044.078488206147
 30
0.0
 10
377.9439722123982
 20
1044.804101494179
 30
0.0
 10
377.865890242397
 20
1045.196646065558
 30
0.0
 10
377.865890242397
 20
1045.589345147256
 30
0.0
  0
SPLINE
  5
1025
330
A
100
AcDbEntity
  8
MODEL
100
AcDbSpline
210
0.0
220
0.0
230
1.0
 70
    24
 71
     3
 72
    17
 73
    13
 74
     0
 42
0.000000001
 43
0.00000001
 40
0.0
 40
0.0
 40
0.0
 40
0.0
 40
0.1087529157332548
 40
0.213984794117589
 40
0.3162192408300316
 40
0.416027047535763
 40
0.5140214187144588
 40
0.6108500178187695
 40
0.7071840239889721
 40
0.8037049346953464
 40
0.9010903236449903
 40
1.0
 40
1.0
 40
1.0
 40
1.0
 10
377.865890242397
 20
1045.589345147256
 30
0.0
 10
377.865890242397
 20
1045.590407463512
 30
0.0
 10
377.865890242397
 20
1045.592497701951
 30
0.0
 10
377.865890242397
 20
1045.609813795448
 30
0.0
 10
377.865890242397
 20
1045.637652105715
 30
0.0
 10
377.865890242397
 20
1045.67695159487
 30
0.0
 10
377.865890242397
 20
1045.727480906878
 30
0.0
 10
377.865890242397
 20
1045.789321187565
 30
0.0
 10
377.865890242397
 20
1045.862399694529
 30
0.0
 10
377.865890242397
 20
1045.946913497389
 30
0.0
 10
377.865890242397
 20
1046.042081905443
 30
0.0
 10
377.865890242397
 20
1046.113845093937
 30
0.0
 10
377.865890242397
 20
1046.150005319037
 30
0.0
  0
SPLINE
  5
1026
330
A
100
AcDbEntity
  8
MODEL
100
AcDbSpline
210
0.0
220
0.0
230
1.0
 70
    24
 71
     3
 72
    18
 73
    14
 74
     0
 42
0.000000001
 43
0.00000001
 40
0.0
 40
0.0
 40
0.0
 40
0.0
 40
0.0899907167152343
 40
0.1786730807627108
 40
0.2665403601173935
 40
0.3540995992607333
 40
0.4418631818422548
 40
0.5303399414220852
 40
0.6200265738372343
 40
0.7114000468598237
 40
0.8049115199552205
 40
0.9009820363416317
 40
1.0
 40
1.0
 40
1.0
 40
1.0
 10
381.4265504141779
 20
1042.589345147256
 30
0.0
 10
381.3935829696104
 20
1042.589345147256
 30
0.0
 10
381.3281273859513
 20
1042.589345147256
 30
0.0
 10
381.2402399406612
 20
1042.589345147256
 30
0.0
 10
381.1611459254175
 20
1042.589345147256
 30
0.0
 10
381.0914883006237
 20
1042.589345147256
 30
0.0
 10
381.0311077793788
 20
1042.589345147256
 30
0.0
 10
380.980049002753
 20
1042.589345147256
 30
0.0
 10
380.9383124780991
 20
1042.589345147256
 30
0.0
 10
380.9058454560047
 20
1042.589345147256
 30
0.0
 10
380.882838253897
 20
1042.589345147256
 30
0.0
 10
380.8685125282548
 20
1042.589345147256
 30
0.0
 10
380.8667730976133
 20
1042.589345147256
 30
0.0
 10
380.8658902424042
 20
1042.589345147256
 30
0.0
  0
SPLINE
  5
1027
330
A
100
AcDbEntity
  8
MODEL
100
AcDbSpline
210
0.0
220
0.0
230
1.0
 70
     8
 71
     3
 72
    14
 73
    10
 74
     0
 42
0.000000001
 43
0.00000001
 40
0.0
 40
0.0
 40
0.0
 40
0.0
 40
0.25
 40
0.25
 40
0.5
 40
0.5
 40
0.75
 40
0.75
 40
1.0
 40
1.0
 40
1.0
 40
1.0
 10
824.8658902423974
 20
1102.589345147256
 30
0.0
 10
825.2585893241028
 20
1102.589345147256
 30
0.0
 10
825.6511338954786
 20
1102.511263177262
 30
0.0
 10
826.3767471835142
 20
1102.210704312319
 30
0.0
 10
826.7095304023221
 20
1101.988345674451
 30
0.0
 10
827.2648907695891
 20
1101.432985307181
 30
0.0
 10
827.4872494074714
 20
1101.100202088369
 30
0.0
 10
827.7878082724035
 20
1100.374588800337
 30
0.0
 10
827.8658902423974
 20
1099.982044228954
 30
0.0
 10
827.8658902423974
 20
1099.589345147256
 30
0.0
  0
SPLINE
  5
1028
330
A
100
AcDbEntity
  8
MODEL
100
AcDbSpline
210
0.0
220
0.0
230
1.0
 70
    24
 71
     3
 72
    17
 73
    13
 74
     0
 42
0.000000001
 43
0.00000001
 40
0.0
 40
0.0
 40
0.0
 40
0.0
 40
0.108752915733255
 40
0.2139847941175897
 40
0.3162192408300301
 40
0.4160270475357627
 40
0.5140214187144586
 40
0.6108500178187692
 40
0.707184023988972
 40
0.8037049346953463
 40
0.9010903236449903
 40
1.0
 40
1.0
 40
1.0
 40
1.0
 10
827.8658902423974
 20
1099.589345147256
 30
0.0
 10
827.8658902423974
 20
1099.588282831004
 30
0.0
 10
827.8658902423974
 20
1099.586192592561
 30
0.0
 10
827.8658902423974
 20
1099.568876499064
 30
0.0
 10
827.8658902423974
 20
1099.541038188797
 30
0.0
 10
827.8658902423974
 20
1099.501738699646
 30
0.0
 10
827.8658902423974
 20
1099.451209387638
 30
0.0
 10
827.8658902423974
 20
1099.389369106951
 30
0.0
 10
827.8658902423974
 20
1099.316290599983
 30
0.0
 10
827.8658902423974
 20
1099.231776797123
 30
0.0
 10
827.8658902423974
 20
1099.136608389069
 30
0.0
 10
827.8658902423974
 20
1099.064845200578
 30
0.0
 10
827.8658902423974
 20
1099.028684975475
 30
0.0
  0
SPLINE
  5
1029
330
A
100
AcDbEntity
  8
MODEL
100
AcDbSpline
210
0.0
220
0.0
230
1.0
 70
    24
 71
     3
 72
    18
 73
    14
 74
     0
 42
0.000000001
 43
0.00000001
 40
0.0
 40
0.0
 40
0.0
 40
0.0
 40
0.089990716715223
 40
0.1786730807626723
 40
0.2665403601173663
 40
0.3540995992606913
 40
0.4418631818422141
 40
0.5303399414220398
 40
0.6200265738371818
 40
0.7114000468597821
 40
0.8049115199552028
 40
0.9009820363416212
 40
1.0
 40
1.0
 40
1.0
 40
1.0
 10
824.3052300706238
 20
1102.589345147256
 30
0.0
 10
824.3381975151913
 20
1102.589345147256
 30
0.0
 10
824.4036530988503
 20
1102.589345147256
 30
0.0
 10
824.4915405441404
 20
1102.589345147256
 30
0.0
 10
824.5706345593842
 20
1102.589345147256
 30
0.0
 10
824.640292184178
 20
1102.589345147256
 30
0.0
 10
824.7006727054229
 20
1102.589345147256
 30
0.0
 10
824.7517314820486
 20
1102.589345147256
 30
0.0
 10
824.7934680067026
 20
1102.589345147256
 30
0.0
 10
824.8259350287897
 20
1102.589345147256
 30
0.0
 10
824.8489422308974
 20
1102.589345147256
 30
0.0
 10
824.8632679565396
 20
1102.589345147256
 30
0.0
 10
824.8650073871884
 20
1102.589345147256
 30
0.0
 10
824.8658902423974
 20
1102.589345147256
 30
0.0
  0
LINE
  5
102A
330
A
100
AcDbEntity
  8
MODEL
100
AcDbLine
 10
670.3658926265832
 20
1032.589345370774
 30
0.0
 11
705.3658890503045
 21
1032.589345370774
 31
0.0
  0
LINE
  5
102B
330
A
100
AcDbEntity
  8
MODEL
100
AcDbLine
 10
635.3658887522804
 20
1032.589345370774
 30
0.0
 11
670.3658926265832
 21
1032.589345370774
 31
0.0
  0
LINE
  5
102C
330
A
100
AcDbEntity
  8
MODEL
100
AcDbLine
 10
705.9758382814523
 20
1038.416920361463
 30
0.0
 11
705.9781628625985
 21
1038.416819778625
 31
0.0
  0
ARC
  5
102D
330
A
100
AcDbEntity
  8
MODEL
100
AcDbCircle
 10
629.7807628778799
 20
1037.894167470962
 30
0.0
 40
5.000028537092214
100
AcDbArc
 50
6.000204157455228
 51
69.88931976805942
  0
ARC
  5
102E
330
A
100
AcDbEntity
  8
MODEL
100
AcDbCircle
 10
710.9484232885932
 20
1037.89438939425
 30
0.0
 40
4.999964026362049
100
AcDbArc
 50
110.116056834441
 51
174.0012396760169
  0
CIRCLE
  5
102F
330
A
100
AcDbEntity
  8
MODEL
100
AcDbCircle
 10
670.3658902423974
 20
2050.217882566903
 30
0.0
 40
22.62480694623946
  0
LINE
  5
1030
330
A
100
AcDbEntity
  8
MODEL
100
AcDbLine
 10
382.8658902423974
 20
2145.217882566904
 30
0.0
 11
822.8658902423974
 21
2145.217882566903
 31
0.0
  0
LINE
  5
1031
330
A
100
AcDbEntity
  8
MODEL
100
AcDbLine
 10
377.865890242397
 20
1960.217882566903
 30
0.0
 11
377.8658902423974
 21
2140.217882566904
 31
0.0
  0
LINE
  5
1032
330
A
100
AcDbEntity
  8
MODEL
100
AcDbLine
 10
827.8658902423974
 20
2140.217882566903
 30
0.0
 11
827.8658902423974
 21
1960.217882566903
 31
0.0
  0
LINE
  5
1033
330
A
100
AcDbEntity
  8
MODEL
100
AcDbLine
 10
822.8658902423974
 20
1955.217882566903
 30
0.0
 11
382.865890242397
 21
1955.217882566903
 31
0.0
  0
SPLINE
  5
1034
330
A
100
AcDbEntity
  8
MODEL
100
AcDbSpline
210
0.0
220
0.0
230
1.0
 70
    24
 71
     3
 72
    18
 73
    14
 74
     0
 42
0.000000001
 43
0.00000001
 40
0.0
 40
0.0
 40
0.0
 40
0.0
 40
0.0899907167152371
 40
0.178673080762704
 40
0.2665403601173865
 40
0.3540995992607197
 40
0.441863181842245
 40
0.5303399414220673
 40
0.6200265738372104
 40
0.7114000468598063
 40
0.8049115199552117
 40
0.9009820363416319
 40
1.0
 40
1.0
 40
1.0
 40
1.0
 10
381.4265504141783
 20
2145.217882566904
 30
0.0
 10
381.4609280132838
 20
2145.217882566904
 30
0.0
 10
381.5291834041179
 20
2145.217882566904
 30
0.0
 10
381.6397059101998
 20
2145.217882566904
 30
0.0
 10
381.755021933224
 20
2145.217882566904
 30
0.0
 10
381.8757557174883
 20
2145.217882566904
 30
0.0
 10
382.0017271871382
 20
2145.217882566904
 30
0.0
 10
382.1329674884598
 20
2145.217882566904
 30
0.0
 10
382.2694508273614
 20
2145.217882566904
 30
0.0
 10
382.4111683981657
 20
2145.217882566904
 30
0.0
 10
382.5581093904959
 20
2145.217882566904
 30
0.0
 10
382.7102683941027
 20
2145.217882566904
 30
0.0
 10
382.8134964276812
 20
2145.217882566904
 30
0.0
 10
382.8658902423974
 20
2145.217882566904
 30
0.0
  0
SPLINE
  5
1035
330
A
100
AcDbEntity
  8
MODEL
100
AcDbSpline
210
0.0
220
0.0
230
1.0
 70
    24
 71
     3
 72
    17
 73
    13
 74
     0
 42
0.000000001
 43
0.00000001
 40
0.0
 40
0.0
 40
0.0
 40
0.0
 40
0.1087529157332381
 40
0.2139847941175735
 40
0.3162192408300317
 40
0.4160270475357648
 40
0.5140214187144696
 40
0.6108500178187888
 40
0.7071840239889842
 40
0.8037049346953519
 40
0.9010903236449896
 40
0.9999999999999999
 40
0.9999999999999999
 40
0.9999999999999999
 40
0.9999999999999999
 10
377.8658902423974
 20
2140.217882566904
 30
0.0
 10
377.8658902423974
 20
2140.275427132278
 30
0.0
 10
377.8658902423974
 20
2140.388653172162
 30
0.0
 10
377.8658902423974
 20
2140.555242861294
 30
0.0
 10
377.8658902423974
 20
2140.71552487763
 30
0.0
 10
377.8658902423974
 20
2140.869487702236
 30
0.0
 10
377.8658902423974
 20
2141.017117887402
 30
0.0
 10
377.8658902423974
 20
2141.158379866662
 30
0.0
 10
377.8658902423974
 20
2141.293305647513
 30
0.0
 10
377.8658902423974
 20
2141.42167148673
 30
0.0
 10
377.8658902423974
 20
2141.544226218423
 30
0.0
 10
377.8658902423974
 20
2141.619362517926
 30
0.0
 10
377.8658902423974
 20
2141.657222395123
 30
0.0
  0
SPLINE
  5
1036
330
A
100
AcDbEntity
  8
MODEL
100
AcDbSpline
210
0.0
220
0.0
230
1.0
 70
    24
 71
     3
 72
    18
 73
    14
 74
     0
 42
0.000000001
 43
0.00000001
 40
0.0
 40
0.0
 40
0.0
 40
0.0
 40
0.0899907167152248
 40
0.1786730807626922
 40
0.2665403601173728
 40
0.3540995992607065
 40
0.4418631818422264
 40
0.5303399414220558
 40
0.6200265738371993
 40
0.7114000468597957
 40
0.8049115199552017
 40
0.9009820363416224
 40
0.9999999999999999
 40
0.9999999999999999
 40
0.9999999999999999
 40
0.9999999999999999
 10
827.8658902423974
 20
2141.657222395123
 30
0.0
 10
827.8658902423974
 20
2141.62284479602
 30
0.0
 10
827.8658902423974
 20
2141.554589405187
 30
0.0
 10
827.8658902423974
 20
2141.444066899097
 30
0.0
 10
827.8658902423974
 20
2141.328750876077
 30
0.0
 10
827.8658902423974
 20
2141.208017091816
 30
0.0
 10
827.8658902423974
 20
2141.082045622174
 30
0.0
 10
827.8658902423974
 20
2140.950805320841
 30
0.0
 10
827.8658902423974
 20
2140.814321981943
 30
0.0
 10
827.8658902423974
 20
2140.672604411135
 30
0.0
 10
827.8658902423974
 20
2140.525663418808
 30
0.0
 10
827.8658902423974
 20
2140.373504415198
 30
0.0
 10
827.8658902423974
 20
2140.270276381623
 30
0.0
 10
827.8658902423974
 20
2140.217882566903
 30
0.0
  0
SPLINE
  5
1037
330
A
100
AcDbEntity
  8
MODEL
100
AcDbSpline
210
0.0
220
0.0
230
1.0
 70
    24
 71
     3
 72
    18
 73
    14
 74
     0
 42
0.000000001
 43
0.00000001
 40
0.0
 40
0.0
 40
0.0
 40
0.0
 40
0.0899907167152372
 40
0.1786730807626877
 40
0.2665403601173678
 40
0.3540995992606858
 40
0.4418631818421955
 40
0.5303399414220341
 40
0.6200265738371925
 40
0.7114000468597714
 40
0.804911519955194
 40
0.9009820363416318
 40
1.0
 40
1.0
 40
1.0
 40
1.0
 10
377.865890242397
 20
1958.778542738684
 30
0.0
 10
377.865890242397
 20
1958.812920337787
 30
0.0
 10
377.865890242397
 20
1958.88117572862
 30
0.0
 10
377.865890242397
 20
1958.991698234709
 30
0.0
 10
377.865890242397
 20
1959.10701425773
 30
0.0
 10
377.865890242397
 20
1959.227748041991
 30
0.0
 10
377.865890242397
 20
1959.353719511633
 30
0.0
 10
377.865890242397
 20
1959.484959812966
 30
0.0
 10
377.865890242397
 20
1959.621443151864
 30
0.0
 10
377.865890242397
 20
1959.763160722672
 30
0.0
 10
377.865890242397
 20
1959.910101714999
 30
0.0
 10
377.865890242397
 20
1960.062260718609
 30
0.0
 10
377.865890242397
 20
1960.165488752187
 30
0.0
 10
377.865890242397
 20
1960.217882566903
 30
0.0
  0
SPLINE
  5
1038
330
A
100
AcDbEntity
  8
MODEL
100
AcDbSpline
210
0.0
220
0.0
230
1.0
 70
    24
 71
     3
 72
    17
 73
    13
 74
     0
 42
0.000000001
 43
0.00000001
 40
0.0
 40
0.0
 40
0.0
 40
0.0
 40
0.1087529157332575
 40
0.2139847941175774
 40
0.3162192408300547
 40
0.4160270475357907
 40
0.5140214187144889
 40
0.6108500178188019
 40
0.7071840239889914
 40
0.8037049346953655
 40
0.9010903236450007
 40
1.0
 40
1.0
 40
1.0
 40
1.0
 10
382.865890242397
 20
1955.217882566903
 30
0.0
 10
382.808345677023
 20
1955.217882566903
 30
0.0
 10
382.6951196371349
 20
1955.217882566903
 30
0.0
 10
382.528529948014
 20
1955.217882566903
 30
0.0
 10
382.3682479316678
 20
1955.217882566903
 30
0.0
 10
382.2142851070651
 20
1955.217882566903
 30
0.0
 10
382.0666549218997
 20
1955.217882566903
 30
0.0
 10
381.9253929426388
 20
1955.217882566903
 30
0.0
 10
381.7904671617919
 20
1955.217882566903
 30
0.0
 10
381.6621013225788
 20
1955.217882566903
 30
0.0
 10
381.5395465908853
 20
1955.217882566903
 30
0.0
 10
381.464410291371
 20
1955.217882566903
 30
0.0
 10
381.4265504141779
 20
1955.217882566903
 30
0.0
  0
SPLINE
  5
1039
330
A
100
AcDbEntity
  8
MODEL
100
AcDbSpline
210
0.0
220
0.0
230
1.0
 70
    24
 71
     3
 72
    17
 73
    13
 74
     0
 42
0.000000001
 43
0.00000001
 40
0.0
 40
0.0
 40
0.0
 40
0.0
 40
0.1087529157332547
 40
0.2139847941175892
 40
0.3162192408300465
 40
0.4160270475357281
 40
0.5140214187144734
 40
0.6108500178187677
 40
0.7071840239889854
 40
0.8037049346953742
 40
0.9010903236449904
 40
1.0
 40
1.0
 40
1.0
 40
1.0
 10
822.8658902423974
 20
2145.217882566903
 30
0.0
 10
822.9234348077714
 20
2145.217882566903
 30
0.0
 10
823.0366608476668
 20
2145.217882566903
 30
0.0
 10
823.2032505367877
 20
2145.217882566903
 30
0.0
 10
823.3635325531266
 20
2145.217882566903
 30
0.0
 10
823.5174953777366
 20
2145.217882566903
 30
0.0
 10
823.6651255628947
 20
2145.217882566903
 30
0.0
 10
823.8063875421628
 20
2145.217882566903
 30
0.0
 10
823.9413133230098
 20
2145.217882566903
 30
0.0
 10
824.0696791622229
 20
2145.217882566903
 30
0.0
 10
824.1922338939164
 20
2145.217882566903
 30
0.0
 10
824.2673701934161
 20
2145.217882566903
 30
0.0
 10
824.3052300706238
 20
2145.217882566903
 30
0.0
  0
SPLINE
  5
103A
330
A
100
AcDbEntity
  8
MODEL
100
AcDbSpline
210
0.0
220
0.0
230
1.0
 70
    24
 71
     3
 72
    17
 73
    13
 74
     0
 42
0.000000001
 43
0.00000001
 40
0.0
 40
0.0
 40
0.0
 40
0.0
 40
0.108752915733255
 40
0.2139847941175897
 40
0.3162192408300301
 40
0.4160270475357627
 40
0.5140214187144586
 40
0.6108500178187692
 40
0.707184023988972
 40
0.8037049346953463
 40
0.9010903236449903
 40
1.0
 40
1.0
 40
1.0
 40
1.0
 10
827.8658902423974
 20
1960.217882566903
 30
0.0
 10
827.8658902423974
 20
1960.160338001529
 30
0.0
 10
827.8658902423974
 20
1960.047111961645
 30
0.0
 10
827.8658902423974
 20
1959.880522272513
 30
0.0
 10
827.8658902423974
 20
1959.720240256178
 30
0.0
 10
827.8658902423974
 20
1959.566277431572
 30
0.0
 10
827.8658902423974
 20
1959.418647246406
 30
0.0
 10
827.8658902423974
 20
1959.277385267145
 30
0.0
 10
827.8658902423974
 20
1959.142459486295
 30
0.0
 10
827.8658902423974
 20
1959.014093647082
 30
0.0
 10
827.8658902423974
 20
1958.891538915384
 30
0.0
 10
827.8658902423974
 20
1958.816402615881
 30
0.0
 10
827.8658902423974
 20
1958.778542738684
 30
0.0
  0
SPLINE
  5
103B
330
A
100
AcDbEntity
  8
MODEL
100
AcDbSpline
210
0.0
220
0.0
230
1.0
 70
    24
 71
     3
 72
    18
 73
    14
 74
     0
 42
0.000000001
 43
0.00000001
 40
0.0
 40
0.0
 40
0.0
 40
0.0
 40
0.0899907167152493
 40
0.178673080762661
 40
0.2665403601173405
 40
0.3540995992607034
 40
0.441863181842167
 40
0.5303399414220359
 40
0.6200265738371952
 40
0.7114000468597734
 40
0.8049115199551954
 40
0.9009820363415976
 40
1.0
 40
1.0
 40
1.0
 40
1.0
 10
824.3052300706238
 20
1955.217882566903
 30
0.0
 10
824.2708524715179
 20
1955.217882566903
 30
0.0
 10
824.2025970806842
 20
1955.217882566903
 30
0.0
 10
824.0920745746023
 20
1955.217882566903
 30
0.0
 10
823.9767585515708
 20
1955.217882566903
 30
0.0
 10
823.8560247673065
 20
1955.217882566903
 30
0.0
 10
823.7300532976712
 20
1955.217882566903
 30
0.0
 10
823.5988129963423
 20
1955.217882566903
 30
0.0
 10
823.4623296574407
 20
1955.217882566903
 30
0.0
 10
823.3206120866287
 20
1955.217882566903
 30
0.0
 10
823.173671094313
 20
1955.217882566903
 30
0.0
 10
823.0215120906994
 20
1955.217882566903
 30
0.0
 10
822.9182840571209
 20
1955.217882566903
 30
0.0
 10
822.8658902423974
 20
1955.217882566903
 30
0.0
  0
CIRCLE
  5
103C
330
A
100
AcDbEntity
  8
MODEL
  6
HIDDEN
 48
0.03
100
AcDbCircle
 10
462.865890242397
 20
2050.217882566903
 30
0.0
 40
15.0
  0
SPLINE
  5
103D
330
A
100
AcDbEntity
  8
MODEL
100
AcDbSpline
210
0.0
220
0.0
230
1.0
 70
     8
 71
     3
 72
    14
 73
    10
 74
     0
 42
0.000000001
 43
0.00000001
 40
0.0
 40
0.0
 40
0.0
 40
0.0
 40
0.25
 40
0.25
 40
0.5
 40
0.5
 40
0.75
 40
0.75
 40
1.0
 40
1.0
 40
1.0
 40
1.0
 10
380.8658902424047
 20
2145.217882566904
 30
0.0
 10
380.4731911606993
 20
2145.217882566904
 30
0.0
 10
380.0817011666275
 20
2145.13705274461
 30
0.0
 10
379.3562306275173
 20
2144.836553008209
 30
0.0
 10
379.02225008248
 20
2144.6168830941
 30
0.0
 10
378.4668897152058
 20
2144.061522726829
 30
0.0
 10
378.2472198010998
 20
2143.727542181788
 30
0.0
 10
377.9467200646952
 20
2143.002071642674
 30
0.0
 10
377.8658902423974
 20
2142.610581648602
 30
0.0
 10
377.8658902423974
 20
2142.217882566904
 30
0.0
  0
SPLINE
  5
103E
330
A
100
AcDbEntity
  8
MODEL
100
AcDbSpline
210
0.0
220
0.0
230
1.0
 70
    24
 71
     3
 72
    18
 73
    14
 74
     0
 42
0.000000001
 43
0.00000001
 40
0.0
 40
0.0
 40
0.0
 40
0.0
 40
0.0899907167152258
 40
0.1786730807626911
 40
0.2665403601173663
 40
0.3540995992606947
 40
0.4418631818422212
 40
0.5303399414220454
 40
0.6200265738371938
 40
0.711400046859793
 40
0.8049115199551996
 40
0.9009820363416216
 40
0.9999999999999999
 40
0.9999999999999999
 40
0.9999999999999999
 40
0.9999999999999999
 10
377.8658902423974
 20
2141.657222395123
 30
0.0
 10
377.8658902423974
 20
2141.690189839697
 30
0.0
 10
377.8658902423974
 20
2141.755645423357
 30
0.0
 10
377.8658902423974
 20
2141.843532868639
 30
0.0
 10
377.8658902423974
 20
2141.922626883891
 30
0.0
 10
377.8658902423974
 20
2141.992284508678
 30
0.0
 10
377.8658902423974
 20
2142.052665029919
 30
0.0
 10
377.8658902423974
 20
2142.103723806547
 30
0.0
 10
377.8658902423974
 20
2142.145460331202
 30
0.0
 10
377.8658902423974
 20
2142.1779273533
 30
0.0
 10
377.8658902423974
 20
2142.200934555403
 30
0.0
 10
377.8658902423974
 20
2142.215260281049
 30
0.0
 10
377.8658902423974
 20
2142.216999711695
 30
0.0
 10
377.8658902423974
 20
2142.217882566904
 30
0.0
  0
SPLINE
  5
103F
330
A
100
AcDbEntity
  8
MODEL
100
AcDbSpline
210
0.0
220
0.0
230
1.0
 70
    24
 71
     3
 72
    17
 73
    13
 74
     0
 42
0.000000001
 43
0.00000001
 40
0.0
 40
0.0
 40
0.0
 40
0.0
 40
0.1087529157332469
 40
0.2139847941175865
 40
0.3162192408300553
 40
0.4160270475357803
 40
0.5140214187144883
 40
0.6108500178188118
 40
0.7071840239889958
 40
0.8037049346953675
 40
0.9010903236449961
 40
1.0
 40
1.0
 40
1.0
 40
1.0
 10
380.8658902424047
 20
2145.217882566904
 30
0.0
 10
380.8669525586499
 20
2145.217882566904
 30
0.0
 10
380.8690427970921
 20
2145.217882566904
 30
0.0
 10
380.8863588905931
 20
2145.217882566904
 30
0.0
 10
380.9141972008636
 20
2145.217882566904
 30
0.0
 10
380.9534966900153
 20
2145.217882566904
 30
0.0
 10
381.004026002023
 20
2145.217882566904
 30
0.0
 10
381.0658662827097
 20
2145.217882566904
 30
0.0
 10
381.1389447896706
 20
2145.217882566904
 30
0.0
 10
381.2234585925305
 20
2145.217882566904
 30
0.0
 10
381.3186270005879
 20
2145.217882566904
 30
0.0
 10
381.3903901890787
 20
2145.217882566904
 30
0.0
 10
381.4265504141783
 20
2145.217882566904
 30
0.0
  0
SPLINE
  5
1040
330
A
100
AcDbEntity
  8
MODEL
100
AcDbSpline
210
0.0
220
0.0
230
1.0
 70
     8
 71
     3
 72
    14
 73
    10
 74
     0
 42
0.000000001
 43
0.00000001
 40
0.0
 40
0.0
 40
0.0
 40
0.0
 40
0.25
 40
0.25
 40
0.5
 40
0.5
 40
0.75
 40
0.75
 40
1.0
 40
1.0
 40
1.0
 40
1.0
 10
827.8658902423974
 20
2142.217882566903
 30
0.0
 10
827.8658902423974
 20
2142.610581648602
 30
0.0
 10
827.7850604201137
 20
2143.002071642673
 30
0.0
 10
827.4845606837096
 20
2143.727542181787
 30
0.0
 10
827.2648907695891
 20
2144.061522726828
 30
0.0
 10
826.7095304023221
 20
2144.616883094099
 30
0.0
 10
826.3755498572843
 20
2144.836553008208
 30
0.0
 10
825.6500793181747
 20
2145.137052744609
 30
0.0
 10
825.2585893241028
 20
2145.217882566903
 30
0.0
 10
824.8658902423974
 20
2145.217882566903
 30
0.0
  0
SPLINE
  5
1041
330
A
100
AcDbEntity
  8
MODEL
100
AcDbSpline
210
0.0
220
0.0
230
1.0
 70
    24
 71
     3
 72
    17
 73
    13
 74
     0
 42
0.000000001
 43
0.00000001
 40
0.0
 40
0.0
 40
0.0
 40
0.0
 40
0.1087529157332432
 40
0.2139847941175751
 40
0.3162192408300381
 40
0.4160270475357675
 40
0.5140214187144685
 40
0.6108500178187922
 40
0.7071840239889843
 40
0.8037049346953549
 40
0.9010903236449922
 40
1.0
 40
1.0
 40
1.0
 40
1.0
 10
827.8658902423974
 20
2142.217882566903
 30
0.0
 10
827.8658902423974
 20
2142.216820250651
 30
0.0
 10
827.8658902423974
 20
2142.214730012209
 30
0.0
 10
827.8658902423974
 20
2142.197413918711
 30
0.0
 10
827.8658902423974
 20
2142.169575608445
 30
0.0
 10
827.8658902423974
 20
2142.130276119293
 30
0.0
 10
827.8658902423974
 20
2142.079746807281
 30
0.0
 10
827.8658902423974
 20
2142.017906526595
 30
0.0
 10
827.8658902423974
 20
2141.94482801963
 30
0.0
 10
827.8658902423974
 20
2141.86031421677
 30
0.0
 10
827.8658902423974
 20
2141.765145808717
 30
0.0
 10
827.8658902423974
 20
2141.693382620222
 30
0.0
 10
827.8658902423974
 20
2141.657222395123
 30
0.0
  0
SPLINE
  5
1042
330
A
100
AcDbEntity
  8
MODEL
100
AcDbSpline
210
0.0
220
0.0
230
1.0
 70
    24
 71
     3
 72
    18
 73
    14
 74
     0
 42
0.000000001
 43
0.00000001
 40
0.0
 40
0.0
 40
0.0
 40
0.0
 40
0.0899907167152461
 40
0.1786730807627097
 40
0.2665403601174349
 40
0.3540995992607757
 40
0.4418631818422729
 40
0.5303399414221118
 40
0.6200265738372648
 40
0.7114000468598565
 40
0.8049115199552441
 40
0.9009820363416434
 40
1.0
 40
1.0
 40
1.0
 40
1.0
 10
824.3052300706238
 20
2145.217882566903
 30
0.0
 10
824.3381975151913
 20
2145.217882566903
 30
0.0
 10
824.4036530988503
 20
2145.217882566903
 30
0.0
 10
824.4915405441404
 20
2145.217882566903
 30
0.0
 10
824.5706345593842
 20
2145.217882566903
 30
0.0
 10
824.640292184178
 20
2145.217882566903
 30
0.0
 10
824.7006727054229
 20
2145.217882566903
 30
0.0
 10
824.7517314820486
 20
2145.217882566903
 30
0.0
 10
824.7934680067026
 20
2145.217882566903
 30
0.0
 10
824.8259350287897
 20
2145.217882566903
 30
0.0
 10
824.8489422308974
 20
2145.217882566903
 30
0.0
 10
824.8632679565396
 20
2145.217882566903
 30
0.0
 10
824.8650073871884
 20
2145.217882566903
 30
0.0
 10
824.8658902423974
 20
2145.217882566903
 30
0.0
  0
SPLINE
  5
1043
330
A
100
AcDbEntity
  8
MODEL
100
AcDbSpline
210
0.0
220
0.0
230
1.0
 70
     8
 71
     3
 72
    14
 73
    10
 74
     0
 42
0.000000001
 43
0.00000001
 40
0.0
 40
0.0
 40
0.0
 40
0.0
 40
0.25
 40
0.25
 40
0.5
 40
0.5
 40
0.75
 40
0.75
 40
1.0
 40
1.0
 40
1.0
 40
1.0
 10
377.865890242397
 20
1958.217882566903
 30
0.0
 10
377.865890242397
 20
1957.825183485205
 30
0.0
 10
377.9467200646952
 20
1957.433693491133
 30
0.0
 10
378.2472198010994
 20
1956.70822295202
 30
0.0
 10
378.4668897152053
 20
1956.374242406979
 30
0.0
 10
379.0222500824796
 20
1955.818882039708
 30
0.0
 10
379.3562306275173
 20
1955.599212125599
 30
0.0
 10
380.081701166627
 20
1955.298712389198
 30
0.0
 10
380.4731911606989
 20
1955.217882566903
 30
0.0
 10
380.8658902424042
 20
1955.217882566903
 30
0.0
  0
SPLINE
  5
1044
330
A
100
AcDbEntity
  8
MODEL
100
AcDbSpline
210
0.0
220
0.0
230
1.0
 70
    24
 71
     3
 72
    18
 73
    14
 74
     0
 42
0.000000001
 43
0.00000001
 40
0.0
 40
0.0
 40
0.0
 40
0.0
 40
0.0899907167152183
 40
0.1786730807626812
 40
0.2665403601173602
 40
0.3540995992606838
 40
0.4418631818422012
 40
0.5303399414220318
 40
0.6200265738371764
 40
0.7114000468597786
 40
0.8049115199551884
 40
0.9009820363416142
 40
1.0
 40
1.0
 40
1.0
 40
1.0
 10
381.4265504141779
 20
1955.217882566903
 30
0.0
 10
381.3935829696104
 20
1955.217882566903
 30
0.0
 10
381.3281273859513
 20
1955.217882566903
 30
0.0
 10
381.2402399406612
 20
1955.217882566903
 30
0.0
 10
381.1611459254175
 20
1955.217882566903
 30
0.0
 10
381.0914883006237
 20
1955.217882566903
 30
0.0
 10
381.0311077793788
 20
1955.217882566903
 30
0.0
 10
380.980049002753
 20
1955.217882566903
 30
0.0
 10
380.9383124780991
 20
1955.217882566903
 30
0.0
 10
380.9058454560047
 20
1955.217882566903
 30
0.0
 10
380.882838253897
 20
1955.217882566903
 30
0.0
 10
380.8685125282548
 20
1955.217882566903
 30
0.0
 10
380.8667730976133
 20
1955.217882566903
 30
0.0
 10
380.8658902424042
 20
1955.217882566903
 30
0.0
  0
SPLINE
  5
1045
330
A
100
AcDbEntity
  8
MODEL
100
AcDbSpline
210
0.0
220
0.0
230
1.0
 70
    24
 71
     3
 72
    17
 73
    13
 74
     0
 42
0.000000001
 43
0.00000001
 40
0.0
 40
0.0
 40
0.0
 40
0.0
 40
0.1087529157332468
 40
0.2139847941175796
 40
0.3162192408300465
 40
0.4160270475357795
 40
0.514021418714477
 40
0.610850017818804
 40
0.7071840239889996
 40
0.8037049346953706
 40
0.901090323645002
 40
1.0
 40
1.0
 40
1.0
 40
1.0
 10
377.865890242397
 20
1958.217882566903
 30
0.0
 10
377.865890242397
 20
1958.21894488316
 30
0.0
 10
377.865890242397
 20
1958.221035121598
 30
0.0
 10
377.865890242397
 20
1958.238351215095
 30
0.0
 10
377.865890242397
 20
1958.266189525362
 30
0.0
 10
377.865890242397
 20
1958.305489014518
 30
0.0
 10
377.865890242397
 20
1958.356018326525
 30
0.0
 10
377.865890242397
 20
1958.417858607212
 30
0.0
 10
377.865890242397
 20
1958.490937114177
 30
0.0
 10
377.865890242397
 20
1958.575450917037
 30
0.0
 10
377.865890242397
 20
1958.67061932509
 30
0.0
 10
377.865890242397
 20
1958.742382513585
 30
0.0
 10
377.865890242397
 20
1958.778542738684
 30
0.0
  0
SPLINE
  5
1046
330
A
100
AcDbEntity
  8
MODEL
100
AcDbSpline
210
0.0
220
0.0
230
1.0
 70
     8
 71
     3
 72
    14
 73
    10
 74
     0
 42
0.000000001
 43
0.00000001
 40
0.0
 40
0.0
 40
0.0
 40
0.0
 40
0.25
 40
0.25
 40
0.5
 40
0.5
 40
0.75
 40
0.75
 40
1.0
 40
1.0
 40
1.0
 40
1.0
 10
824.8658902423974
 20
1955.217882566903
 30
0.0
 10
825.2585893241028
 20
1955.217882566903
 30
0.0
 10
825.6500793181747
 20
1955.298712389198
 30
0.0
 10
826.3755498572843
 20
1955.599212125599
 30
0.0
 10
826.7095304023221
 20
1955.818882039708
 30
0.0
 10
827.2648907695891
 20
1956.374242406979
 30
0.0
 10
827.4845606837096
 20
1956.70822295202
 30
0.0
 10
827.7850604201137
 20
1957.433693491133
 30
0.0
 10
827.8658902423974
 20
1957.825183485205
 30
0.0
 10
827.8658902423974
 20
1958.217882566903
 30
0.0
  0
SPLINE
  5
1047
330
A
100
AcDbEntity
  8
MODEL
100
AcDbSpline
210
0.0
220
0.0
230
1.0
 70
    24
 71
     3
 72
    17
 73
    13
 74
     0
 42
0.000000001
 43
0.00000001
 40
0.0
 40
0.0
 40
0.0
 40
0.0
 40
0.1087529157332422
 40
0.2139847941175729
 40
0.3162192408300415
 40
0.4160270475357749
 40
0.5140214187144728
 40
0.6108500178188102
 40
0.7071840239889562
 40
0.8037049346953602
 40
0.9010903236450135
 40
0.9999999999999999
 40
0.9999999999999999
 40
0.9999999999999999
 40
0.9999999999999999
 10
824.8658902423974
 20
1955.217882566903
 30
0.0
 10
824.8648279261449
 20
1955.217882566903
 30
0.0
 10
824.86273768771
 20
1955.217882566903
 30
0.0
 10
824.845421594209
 20
1955.217882566903
 30
0.0
 10
824.8175832839386
 20
1955.217882566903
 30
0.0
 10
824.7782837947868
 20
1955.217882566903
 30
0.0
 10
824.7277544827864
 20
1955.217882566903
 30
0.0
 10
824.6659142020997
 20
1955.217882566903
 30
0.0
 10
824.5928356951315
 20
1955.217882566903
 30
0.0
 10
824.5083218922716
 20
1955.217882566903
 30
0.0
 10
824.413153484207
 20
1955.217882566903
 30
0.0
 10
824.3413902957234
 20
1955.217882566903
 30
0.0
 10
824.3052300706238
 20
1955.217882566903
 30
0.0
  0
SPLINE
  5
1048
330
A
100
AcDbEntity
  8
MODEL
100
AcDbSpline
210
0.0
220
0.0
230
1.0
 70
    24
 71
     3
 72
    18
 73
    14
 74
     0
 42
0.000000001
 43
0.00000001
 40
0.0
 40
0.0
 40
0.0
 40
0.0
 40
0.0899907167152113
 40
0.1786730807626827
 40
0.2665403601173534
 40
0.3540995992606912
 40
0.4418631818422142
 40
0.53033994142204
 40
0.6200265738371864
 40
0.7114000468597903
 40
0.8049115199551976
 40
0.9009820363416166
 40
1.0
 40
1.0
 40
1.0
 40
1.0
 10
827.8658902423974
 20
1958.778542738684
 30
0.0
 10
827.8658902423974
 20
1958.745575294113
 30
0.0
 10
827.8658902423974
 20
1958.680119710451
 30
0.0
 10
827.8658902423974
 20
1958.592232265168
 30
0.0
 10
827.8658902423974
 20
1958.513138249917
 30
0.0
 10
827.8658902423974
 20
1958.44348062513
 30
0.0
 10
827.8658902423974
 20
1958.383100103889
 30
0.0
 10
827.8658902423974
 20
1958.33204132726
 30
0.0
 10
827.8658902423974
 20
1958.290304802606
 30
0.0
 10
827.8658902423974
 20
1958.257837780508
 30
0.0
 10
827.8658902423974
 20
1958.234830578403
 30
0.0
 10
827.8658902423974
 20
1958.220504852758
 30
0.0
 10
827.8658902423974
 20
1958.218765422112
 30
0.0
 10
827.8658902423974
 20
1958.217882566903
 30
0.0
  0
LINE
  5
1049
330
A
100
AcDbEntity
  8
MODEL
100
AcDbLine
 10
1458.346474285097
 20
1038.417175525157
 30
0.0
 11
1458.959003940222
 21
1032.589345147256
 31
0.0
  0
LINE
  5
104A
330
A
100
AcDbEntity
  8
MODEL
100
AcDbLine
 10
1528.959003940222
 20
1032.589345147256
 30
0.0
 11
1529.571533940423
 21
1038.417178808276
 31
0.0
  0
SPLINE
  5
104B
330
A
100
AcDbEntity
  8
MODEL
100
AcDbSpline
210
0.0
220
0.0
230
1.0
 70
     8
 71
     3
 72
    14
 73
    10
 74
     0
 42
0.000000001
 43
0.00000001
 40
0.0
 40
0.0
 40
0.0
 40
0.0
 40
0.0153890660201576
 40
0.1903649247861224
 40
0.3907298145963646
 40
0.5791143552117882
 40
0.7841644208821792
 40
0.9956968952301765
 40
0.9999999999999999
 40
0.9999999999999999
 40
0.9999999999999999
 40
0.9999999999999999
 10
1455.076101599986
 20
1042.589345147256
 30
0.0
 10
1455.102742520915
 20
1042.581459631865
 30
0.0
 10
1455.43229448341
 20
1042.48391469037
 30
0.0
 10
1456.085404445997
 20
1042.128091884374
 30
0.0
 10
1456.912864635303
 20
1041.483159587924
 30
0.0
 10
1457.621948291159
 20
1040.614922117112
 30
0.0
 10
1458.1009482411
 20
1039.597058604735
 30
0.0
 10
1458.352817383694
 20
1038.827503833688
 30
0.0
 10
1458.343557162935
 20
1038.42533157635
 30
0.0
 10
1458.343372542307
 20
1038.417313485142
 30
0.0
  0
SPLINE
  5
104C
330
A
100
AcDbEntity
  8
MODEL
100
AcDbSpline
210
0.0
220
0.0
230
1.0
 70
     8
 71
     3
 72
    13
 73
     9
 74
     0
 42
0.000000001
 43
0.00000001
 40
0.0
 40
0.0
 40
0.0
 40
0.0
 40
0.1860892931076229
 40
0.3838506985148802
 40
0.5630460120902272
 40
0.7262158658500194
 40
0.8736466514151502
 40
1.0
 40
1.0
 40
1.0
 40
1.0
 10
1529.592188541054
 20
1038.4132668908
 30
0.0
 10
1529.641021162953
 20
1038.758951035759
 30
0.0
 10
1529.741749344093
 20
1039.47200173466
 30
0.0
 10
1530.199160756933
 20
1040.434510857181
 30
0.0
 10
1530.797094141516
 20
1041.251614387592
 30
0.0
 10
1531.474430866668
 20
1041.869300615408
 30
0.0
 10
1532.160071752111
 20
1042.315367683249
 30
0.0
 10
1532.621943933887
 20
1042.502829958082
 30
0.0
 10
1532.835101270289
 20
1042.589345147256
 30
0.0
  0
LINE
  5
104D
330
A
100
AcDbEntity
  8
MODEL
100
AcDbLine
 10
1398.959003940222
 20
1047.589345147256
 30
0.0
 11
1398.959003940222
 21
1097.589345147256
 31
0.0
  0
LINE
  5
104E
330
A
100
AcDbEntity
  8
MODEL
100
AcDbLine
 10
1583.959003940222
 20
1042.589345147256
 30
0.0
 11
1403.959003940222
 21
1042.589345147256
 31
0.0
  0
LINE
  5
104F
330
A
100
AcDbEntity
  8
MODEL
100
AcDbLine
 10
1403.959003940222
 20
1102.589345147256
 30
0.0
 11
1583.959003940222
 21
1102.589345147256
 31
0.0
  0
LINE
  5
1050
330
A
100
AcDbEntity
  8
MODEL
100
AcDbLine
 10
1588.959003940222
 20
1097.589345147256
 30
0.0
 11
1588.959003940222
 21
1047.589345147256
 31
0.0
  0
SPLINE
  5
1051
330
A
100
AcDbEntity
  8
MODEL
100
AcDbSpline
210
0.0
220
0.0
230
1.0
 70
    24
 71
     3
 72
    17
 73
    13
 74
     0
 42
0.000000001
 43
0.00000001
 40
0.0
 40
0.0
 40
0.0
 40
0.0
 40
0.1087529157332469
 40
0.2139847941175865
 40
0.3162192408300553
 40
0.4160270475357803
 40
0.5140214187144883
 40
0.6108500178188118
 40
0.7071840239889958
 40
0.8037049346953675
 40
0.9010903236449961
 40
1.0
 40
1.0
 40
1.0
 40
1.0
 10
1398.959003940222
 20
1097.589345147256
 30
0.0
 10
1398.959003940222
 20
1097.64688971263
 30
0.0
 10
1398.959003940222
 20
1097.760115752518
 30
0.0
 10
1398.959003940222
 20
1097.926705441646
 30
0.0
 10
1398.959003940222
 20
1098.086987457982
 30
0.0
 10
1398.959003940222
 20
1098.240950282588
 30
0.0
 10
1398.959003940222
 20
1098.388580467753
 30
0.0
 10
1398.959003940222
 20
1098.529842447014
 30
0.0
 10
1398.959003940222
 20
1098.664768227865
 30
0.0
 10
1398.959003940222
 20
1098.793134067082
 30
0.0
 10
1398.959003940222
 20
1098.915688798775
 30
0.0
 10
1398.959003940222
 20
1098.990825098278
 30
0.0
 10
1398.959003940222
 20
1099.028684975475
 30
0.0
  0
SPLINE
  5
1052
330
A
100
AcDbEntity
  8
MODEL
100
AcDbSpline
210
0.0
220
0.0
230
1.0
 70
    24
 71
     3
 72
    17
 73
    13
 74
     0
 42
0.000000001
 43
0.00000001
 40
0.0
 40
0.0
 40
0.0
 40
0.0
 40
0.1087529157332546
 40
0.2139847941175889
 40
0.3162192408300481
 40
0.4160270475357594
 40
0.5140214187144747
 40
0.6108500178188014
 40
0.7071840239889845
 40
0.8037049346953589
 40
0.9010903236450002
 40
0.9999999999999999
 40
0.9999999999999999
 40
0.9999999999999999
 40
0.9999999999999999
 10
1403.959003940222
 20
1042.589345147256
 30
0.0
 10
1403.901459374841
 20
1042.589345147256
 30
0.0
 10
1403.78823333496
 20
1042.589345147256
 30
0.0
 10
1403.621643645832
 20
1042.589345147256
 30
0.0
 10
1403.461361629493
 20
1042.589345147256
 30
0.0
 10
1403.30739880489
 20
1042.589345147256
 30
0.0
 10
1403.159768619725
 20
1042.589345147256
 30
0.0
 10
1403.018506640464
 20
1042.589345147256
 30
0.0
 10
1402.883580859617
 20
1042.589345147256
 30
0.0
 10
1402.755215020404
 20
1042.589345147256
 30
0.0
 10
1402.63266028871
 20
1042.589345147256
 30
0.0
 10
1402.557523989196
 20
1042.589345147256
 30
0.0
 10
1402.519664112003
 20
1042.589345147256
 30
0.0
  0
SPLINE
  5
1053
330
A
100
AcDbEntity
  8
MODEL
100
AcDbSpline
210
0.0
220
0.0
230
1.0
 70
    24
 71
     3
 72
    18
 73
    14
 74
     0
 42
0.000000001
 43
0.00000001
 40
0.0
 40
0.0
 40
0.0
 40
0.0
 40
0.0899907167152361
 40
0.178673080762711
 40
0.2665403601173955
 40
0.3540995992607246
 40
0.4418631818422557
 40
0.5303399414220799
 40
0.6200265738372223
 40
0.7114000468598225
 40
0.8049115199552169
 40
0.9009820363416258
 40
1.0
 40
1.0
 40
1.0
 40
1.0
 10
1398.959003940222
 20
1046.150005319037
 30
0.0
 10
1398.959003940222
 20
1046.184382918139
 30
0.0
 10
1398.959003940222
 20
1046.252638308973
 30
0.0
 10
1398.959003940222
 20
1046.363160815062
 30
0.0
 10
1398.959003940222
 20
1046.478476838083
 30
0.0
 10
1398.959003940222
 20
1046.599210622343
 30
0.0
 10
1398.959003940222
 20
1046.725182091986
 30
0.0
 10
1398.959003940222
 20
1046.856422393319
 30
0.0
 10
1398.959003940222
 20
1046.992905732217
 30
0.0
 10
1398.959003940222
 20
1047.134623303029
 30
0.0
 10
1398.959003940222
 20
1047.281564295351
 30
0.0
 10
1398.959003940222
 20
1047.433723298961
 30
0.0
 10
1398.959003940222
 20
1047.53695133254
 30
0.0
 10
1398.959003940222
 20
1047.589345147256
 30
0.0
  0
SPLINE
  5
1054
330
A
100
AcDbEntity
  8
MODEL
100
AcDbSpline
210
0.0
220
0.0
230
1.0
 70
    24
 71
     3
 72
    18
 73
    14
 74
     0
 42
0.000000001
 43
0.00000001
 40
0.0
 40
0.0
 40
0.0
 40
0.0
 40
0.0899907167152338
 40
0.1786730807626621
 40
0.2665403601173443
 40
0.3540995992606599
 40
0.4418631818421811
 40
0.5303399414220029
 40
0.6200265738371598
 40
0.7114000468597572
 40
0.8049115199551942
 40
0.9009820363416152
 40
1.0
 40
1.0
 40
1.0
 40
1.0
 10
1402.519664112003
 20
1102.589345147256
 30
0.0
 10
1402.554041711109
 20
1102.589345147256
 30
0.0
 10
1402.622297101942
 20
1102.589345147256
 30
0.0
 10
1402.732819608024
 20
1102.589345147256
 30
0.0
 10
1402.848135631049
 20
1102.589345147256
 30
0.0
 10
1402.968869415313
 20
1102.589345147256
 30
0.0
 10
1403.094840884955
 20
1102.589345147256
 30
0.0
 10
1403.226081186284
 20
1102.589345147256
 30
0.0
 10
1403.362564525186
 20
1102.589345147256
 30
0.0
 10
1403.504282095998
 20
1102.589345147256
 30
0.0
 10
1403.651223088314
 20
1102.589345147256
 30
0.0
 10
1403.803382091927
 20
1102.589345147256
 30
0.0
 10
1403.906610125498
 20
1102.589345147256
 30
0.0
 10
1403.959003940222
 20
1102.589345147256
 30
0.0
  0
SPLINE
  5
1055
330
A
100
AcDbEntity
  8
MODEL
100
AcDbSpline
210
0.0
220
0.0
230
1.0
 70
    24
 71
     3
 72
    17
 73
    13
 74
     0
 42
0.000000001
 43
0.00000001
 40
0.0
 40
0.0
 40
0.0
 40
0.0
 40
0.1087529157332286
 40
0.2139847941175453
 40
0.3162192408300011
 40
0.4160270475357293
 40
0.5140214187144304
 40
0.6108500178187488
 40
0.7071840239889478
 40
0.8037049346953292
 40
0.901090323644981
 40
1.0
 40
1.0
 40
1.0
 40
1.0
 10
1583.959003940222
 20
1102.589345147256
 30
0.0
 10
1584.016548505602
 20
1102.589345147256
 30
0.0
 10
1584.129774545491
 20
1102.589345147256
 30
0.0
 10
1584.296364234611
 20
1102.589345147256
 30
0.0
 10
1584.456646250944
 20
1102.589345147256
 30
0.0
 10
1584.61060907556
 20
1102.589345147256
 30
0.0
 10
1584.758239260712
 20
1102.589345147256
 30
0.0
 10
1584.899501239987
 20
1102.589345147256
 30
0.0
 10
1585.034427020834
 20
1102.589345147256
 30
0.0
 10
1585.162792860047
 20
1102.589345147256
 30
0.0
 10
1585.285347591741
 20
1102.589345147256
 30
0.0
 10
1585.360483891241
 20
1102.589345147256
 30
0.0
 10
1585.398343768448
 20
1102.589345147256
 30
0.0
  0
SPLINE
  5
1056
330
A
100
AcDbEntity
  8
MODEL
100
AcDbSpline
210
0.0
220
0.0
230
1.0
 70
    24
 71
     3
 72
    18
 73
    14
 74
     0
 42
0.000000001
 43
0.00000001
 40
0.0
 40
0.0
 40
0.0
 40
0.0
 40
0.0899907167152183
 40
0.1786730807626812
 40
0.2665403601173602
 40
0.3540995992606838
 40
0.4418631818422012
 40
0.5303399414220318
 40
0.6200265738371764
 40
0.7114000468597786
 40
0.8049115199551884
 40
0.9009820363416142
 40
1.0
 40
1.0
 40
1.0
 40
1.0
 10
1588.959003940222
 20
1099.028684975475
 30
0.0
 10
1588.959003940222
 20
1098.994307376377
 30
0.0
 10
1588.959003940222
 20
1098.926051985539
 30
0.0
 10
1588.959003940222
 20
1098.815529479454
 30
0.0
 10
1588.959003940222
 20
1098.70021345643
 30
0.0
 10
1588.959003940222
 20
1098.579479672169
 30
0.0
 10
1588.959003940222
 20
1098.453508202526
 30
0.0
 10
1588.959003940222
 20
1098.322267901197
 30
0.0
 10
1588.959003940222
 20
1098.185784562296
 30
0.0
 10
1588.959003940222
 20
1098.044066991487
 30
0.0
 10
1588.959003940222
 20
1097.897125999161
 30
0.0
 10
1588.959003940222
 20
1097.744966995551
 30
0.0
 10
1588.959003940222
 20
1097.641738961976
 30
0.0
 10
1588.959003940222
 20
1097.589345147256
 30
0.0
  0
SPLINE
  5
1057
330
A
100
AcDbEntity
  8
MODEL
100
AcDbSpline
210
0.0
220
0.0
230
1.0
 70
    24
 71
     3
 72
    17
 73
    13
 74
     0
 42
0.000000001
 43
0.00000001
 40
0.0
 40
0.0
 40
0.0
 40
0.0
 40
0.1087529157332328
 40
0.213984794117558
 40
0.3162192408300094
 40
0.4160270475357374
 40
0.5140214187144301
 40
0.6108500178187564
 40
0.7071840239889551
 40
0.8037049346953364
 40
0.9010903236449812
 40
1.0
 40
1.0
 40
1.0
 40
1.0
 10
1588.959003940222
 20
1047.589345147256
 30
0.0
 10
1588.959003940222
 20
1047.531800581882
 30
0.0
 10
1588.959003940222
 20
1047.418574541998
 30
0.0
 10
1588.959003940222
 20
1047.251984852866
 30
0.0
 10
1588.959003940222
 20
1047.091702836531
 30
0.0
 10
1588.959003940222
 20
1046.937740011924
 30
0.0
 10
1588.959003940222
 20
1046.790109826759
 30
0.0
 10
1588.959003940222
 20
1046.648847847498
 30
0.0
 10
1588.959003940222
 20
1046.513922066651
 30
0.0
 10
1588.959003940222
 20
1046.385556227434
 30
0.0
 10
1588.959003940222
 20
1046.263001495741
 30
0.0
 10
1588.959003940222
 20
1046.187865196234
 30
0.0
 10
1588.959003940222
 20
1046.150005319037
 30
0.0
  0
SPLINE
  5
1058
330
A
100
AcDbEntity
  8
MODEL
100
AcDbSpline
210
0.0
220
0.0
230
1.0
 70
    24
 71
     3
 72
    18
 73
    14
 74
     0
 42
0.000000001
 43
0.00000001
 40
0.0
 40
0.0
 40
0.0
 40
0.0
 40
0.0899907167152343
 40
0.1786730807627108
 40
0.2665403601173935
 40
0.3540995992607333
 40
0.4418631818422548
 40
0.5303399414220852
 40
0.6200265738372343
 40
0.7114000468598237
 40
0.8049115199552205
 40
0.9009820363416317
 40
1.0
 40
1.0
 40
1.0
 40
1.0
 10
1585.398343768448
 20
1042.589345147256
 30
0.0
 10
1585.363966169342
 20
1042.589345147256
 30
0.0
 10
1585.295710778509
 20
1042.589345147256
 30
0.0
 10
1585.185188272427
 20
1042.589345147256
 30
0.0
 10
1585.069872249395
 20
1042.589345147256
 30
0.0
 10
1584.949138465131
 20
1042.589345147256
 30
0.0
 10
1584.823166995488
 20
1042.589345147256
 30
0.0
 10
1584.691926694167
 20
1042.589345147256
 30
0.0
 10
1584.555443355265
 20
1042.589345147256
 30
0.0
 10
1584.413725784452
 20
1042.589345147256
 30
0.0
 10
1584.266784792123
 20
1042.589345147256
 30
0.0
 10
1584.114625788524
 20
1042.589345147256
 30
0.0
 10
1584.011397754945
 20
1042.589345147256
 30
0.0
 10
1583.959003940222
 20
1042.589345147256
 30
0.0
  0
SPLINE
  5
1059
330
A
100
AcDbEntity
  8
MODEL
100
AcDbSpline
210
0.0
220
0.0
230
1.0
 70
     8
 71
     3
 72
    14
 73
    10
 74
     0
 42
0.000000001
 43
0.00000001
 40
0.0
 40
0.0
 40
0.0
 40
0.0
 40
0.25
 40
0.25
 40
0.5
 40
0.5
 40
0.75
 40
0.75
 40
1.0
 40
1.0
 40
1.0
 40
1.0
 10
1398.959003940222
 20
1045.589345147256
 30
0.0
 10
1398.959003940222
 20
1045.196646065558
 30
0.0
 10
1399.039833762513
 20
1044.805156071486
 30
0.0
 10
1399.340333498917
 20
1044.079685532373
 30
0.0
 10
1399.56000341303
 20
1043.745704987331
 30
0.0
 10
1400.11536378029
 20
1043.190344620061
 30
0.0
 10
1400.449344325342
 20
1042.970674705951
 30
0.0
 10
1401.174814864452
 20
1042.670174969551
 30
0.0
 10
1401.566304858524
 20
1042.589345147256
 30
0.0
 10
1401.959003940222
 20
1042.589345147256
 30
0.0
  0
SPLINE
  5
105A
330
A
100
AcDbEntity
  8
MODEL
100
AcDbSpline
210
0.0
220
0.0
230
1.0
 70
    24
 71
     3
 72
    18
 73
    14
 74
     0
 42
0.000000001
 43
0.00000001
 40
0.0
 40
0.0
 40
0.0
 40
0.0
 40
0.0899907167152107
 40
0.1786730807626816
 40
0.2665403601173555
 40
0.3540995992606965
 40
0.4418631818422193
 40
0.5303399414220428
 40
0.6200265738371845
 40
0.7114000468598007
 40
0.8049115199551901
 40
0.9009820363416129
 40
0.9999999999999999
 40
0.9999999999999999
 40
0.9999999999999999
 40
0.9999999999999999
 10
1402.519664112003
 20
1042.589345147256
 30
0.0
 10
1402.486696667435
 20
1042.589345147256
 30
0.0
 10
1402.421241083776
 20
1042.589345147256
 30
0.0
 10
1402.333353638486
 20
1042.589345147256
 30
0.0
 10
1402.254259623234
 20
1042.589345147256
 30
0.0
 10
1402.184601998449
 20
1042.589345147256
 30
0.0
 10
1402.124221477204
 20
1042.589345147256
 30
0.0
 10
1402.073162700578
 20
1042.589345147256
 30
0.0
 10
1402.031426175924
 20
1042.589345147256
 30
0.0
 10
1401.99895915383
 20
1042.589345147256
 30
0.0
 10
1401.975951951722
 20
1042.589345147256
 30
0.0
 10
1401.96162622608
 20
1042.589345147256
 30
0.0
 10
1401.959886795431
 20
1042.589345147256
 30
0.0
 10
1401.959003940222
 20
1042.589345147256
 30
0.0
  0
SPLINE
  5
105B
330
A
100
AcDbEntity
  8
MODEL
100
AcDbSpline
210
0.0
220
0.0
230
1.0
 70
    24
 71
     3
 72
    17
 73
    13
 74
     0
 42
0.000000001
 43
0.00000001
 40
0.0
 40
0.0
 40
0.0
 40
0.0
 40
0.1087529157332371
 40
0.2139847941175542
 40
0.3162192408300131
 40
0.4160270475357455
 40
0.5140214187144411
 40
0.6108500178187676
 40
0.7071840239889677
 40
0.8037049346953468
 40
0.9010903236449905
 40
1.0
 40
1.0
 40
1.0
 40
1.0
 10
1398.959003940222
 20
1045.589345147256
 30
0.0
 10
1398.959003940222
 20
1045.590407463512
 30
0.0
 10
1398.959003940222
 20
1045.592497701951
 30
0.0
 10
1398.959003940222
 20
1045.609813795448
 30
0.0
 10
1398.959003940222
 20
1045.637652105715
 30
0.0
 10
1398.959003940222
 20
1045.67695159487
 30
0.0
 10
1398.959003940222
 20
1045.727480906878
 30
0.0
 10
1398.959003940222
 20
1045.789321187565
 30
0.0
 10
1398.959003940222
 20
1045.862399694529
 30
0.0
 10
1398.959003940222
 20
1045.946913497389
 30
0.0
 10
1398.959003940222
 20
1046.042081905443
 30
0.0
 10
1398.959003940222
 20
1046.113845093937
 30
0.0
 10
1398.959003940222
 20
1046.150005319037
 30
0.0
  0
SPLINE
  5
105C
330
A
100
AcDbEntity
  8
MODEL
100
AcDbSpline
210
0.0
220
0.0
230
1.0
 70
     8
 71
     3
 72
    14
 73
    10
 74
     0
 42
0.000000001
 43
0.00000001
 40
0.0
 40
0.0
 40
0.0
 40
0.0
 40
0.25
 40
0.25
 40
0.5
 40
0.5
 40
0.75
 40
0.75
 40
1.0
 40
1.0
 40
1.0
 40
1.0
 10
1398.959003940222
 20
1099.589345147256
 30
0.0
 10
1398.959003940222
 20
1099.982044228954
 30
0.0
 10
1399.037085910222
 20
1100.374588800337
 30
0.0
 10
1399.337644775155
 20
1101.100202088369
 30
0.0
 10
1399.56000341303
 20
1101.432985307181
 30
0.0
 10
1400.11536378029
 20
1101.988345674451
 30
0.0
 10
1400.448146999112
 20
1102.210704312319
 30
0.0
 10
1401.173760287141
 20
1102.511263177262
 30
0.0
 10
1401.566304858524
 20
1102.589345147256
 30
0.0
 10
1401.959003940222
 20
1102.589345147256
 30
0.0
  0
SPLINE
  5
105D
330
A
100
AcDbEntity
  8
MODEL
100
AcDbSpline
210
0.0
220
0.0
230
1.0
 70
    24
 71
     3
 72
    18
 73
    14
 74
     0
 42
0.000000001
 43
0.00000001
 40
0.0
 40
0.0
 40
0.0
 40
0.0
 40
0.0899907167152371
 40
0.178673080762704
 40
0.2665403601173865
 40
0.3540995992607197
 40
0.441863181842245
 40
0.5303399414220673
 40
0.6200265738372104
 40
0.7114000468598063
 40
0.8049115199552117
 40
0.9009820363416319
 40
1.0
 40
1.0
 40
1.0
 40
1.0
 10
1398.959003940222
 20
1099.028684975475
 30
0.0
 10
1398.959003940222
 20
1099.06165242005
 30
0.0
 10
1398.959003940222
 20
1099.127108003709
 30
0.0
 10
1398.959003940222
 20
1099.214995448992
 30
0.0
 10
1398.959003940222
 20
1099.294089464243
 30
0.0
 10
1398.959003940222
 20
1099.363747089033
 30
0.0
 10
1398.959003940222
 20
1099.424127610274
 30
0.0
 10
1398.959003940222
 20
1099.4751863869
 30
0.0
 10
1398.959003940222
 20
1099.516922911554
 30
0.0
 10
1398.959003940222
 20
1099.549389933652
 30
0.0
 10
1398.959003940222
 20
1099.572397135756
 30
0.0
 10
1398.959003940222
 20
1099.586722861402
 30
0.0
 10
1398.959003940222
 20
1099.588462292047
 30
0.0
 10
1398.959003940222
 20
1099.589345147256
 30
0.0
  0
SPLINE
  5
105E
330
A
100
AcDbEntity
  8
MODEL
100
AcDbSpline
210
0.0
220
0.0
230
1.0
 70
    24
 71
     3
 72
    17
 73
    13
 74
     0
 42
0.000000001
 43
0.00000001
 40
0.0
 40
0.0
 40
0.0
 40
0.0
 40
0.1087529157332395
 40
0.2139847941175582
 40
0.3162192408300221
 40
0.416027047535752
 40
0.5140214187144525
 40
0.6108500178187808
 40
0.7071840239889976
 40
0.8037049346953544
 40
0.9010903236449975
 40
1.0
 40
1.0
 40
1.0
 40
1.0
 10
1401.959003940222
 20
1102.589345147256
 30
0.0
 10
1401.960066256474
 20
1102.589345147256
 30
0.0
 10
1401.962156494917
 20
1102.589345147256
 30
0.0
 10
1401.979472588418
 20
1102.589345147256
 30
0.0
 10
1402.007310898681
 20
1102.589345147256
 30
0.0
 10
1402.04661038784
 20
1102.589345147256
 30
0.0
 10
1402.09713969984
 20
1102.589345147256
 30
0.0
 10
1402.158979980527
 20
1102.589345147256
 30
0.0
 10
1402.232058487494
 20
1102.589345147256
 30
0.0
 10
1402.316572290355
 20
1102.589345147256
 30
0.0
 10
1402.411740698412
 20
1102.589345147256
 30
0.0
 10
1402.483503886903
 20
1102.589345147256
 30
0.0
 10
1402.519664112003
 20
1102.589345147256
 30
0.0
  0
SPLINE
  5
105F
330
A
100
AcDbEntity
  8
MODEL
100
AcDbSpline
210
0.0
220
0.0
230
1.0
 70
     8
 71
     3
 72
    14
 73
    10
 74
     0
 42
0.000000001
 43
0.00000001
 40
0.0
 40
0.0
 40
0.0
 40
0.0
 40
0.25
 40
0.25
 40
0.5
 40
0.5
 40
0.75
 40
0.75
 40
1.0
 40
1.0
 40
1.0
 40
1.0
 10
1585.959003940222
 20
1102.589345147256
 30
0.0
 10
1586.351703021927
 20
1102.589345147256
 30
0.0
 10
1586.744247593303
 20
1102.511263177262
 30
0.0
 10
1587.469860881331
 20
1102.210704312319
 30
0.0
 10
1587.802644100147
 20
1101.988345674451
 30
0.0
 10
1588.358004467414
 20
1101.432985307181
 30
0.0
 10
1588.580363105281
 20
1101.100202088369
 30
0.0
 10
1588.880921970228
 20
1100.374588800337
 30
0.0
 10
1588.959003940222
 20
1099.982044228954
 30
0.0
 10
1588.959003940222
 20
1099.589345147256
 30
0.0
  0
SPLINE
  5
1060
330
A
100
AcDbEntity
  8
MODEL
100
AcDbSpline
210
0.0
220
0.0
230
1.0
 70
    24
 71
     3
 72
    17
 73
    13
 74
     0
 42
0.000000001
 43
0.00000001
 40
0.0
 40
0.0
 40
0.0
 40
0.0
 40
0.1087529157332575
 40
0.2139847941175774
 40
0.3162192408300547
 40
0.4160270475357907
 40
0.5140214187144889
 40
0.6108500178188019
 40
0.7071840239889914
 40
0.8037049346953655
 40
0.9010903236450007
 40
1.0
 40
1.0
 40
1.0
 40
1.0
 10
1588.959003940222
 20
1099.589345147256
 30
0.0
 10
1588.959003940222
 20
1099.588282831004
 30
0.0
 10
1588.959003940222
 20
1099.586192592561
 30
0.0
 10
1588.959003940222
 20
1099.568876499064
 30
0.0
 10
1588.959003940222
 20
1099.541038188797
 30
0.0
 10
1588.959003940222
 20
1099.501738699646
 30
0.0
 10
1588.959003940222
 20
1099.451209387638
 30
0.0
 10
1588.959003940222
 20
1099.389369106951
 30
0.0
 10
1588.959003940222
 20
1099.316290599983
 30
0.0
 10
1588.959003940222
 20
1099.231776797123
 30
0.0
 10
1588.959003940222
 20
1099.136608389069
 30
0.0
 10
1588.959003940222
 20
1099.064845200578
 30
0.0
 10
1588.959003940222
 20
1099.028684975475
 30
0.0
  0
SPLINE
  5
1061
330
A
100
AcDbEntity
  8
MODEL
100
AcDbSpline
210
0.0
220
0.0
230
1.0
 70
    24
 71
     3
 72
    18
 73
    14
 74
     0
 42
0.000000001
 43
0.00000001
 40
0.0
 40
0.0
 40
0.0
 40
0.0
 40
0.0899907167152244
 40
0.1786730807626778
 40
0.2665403601173583
 40
0.3540995992606771
 40
0.4418631818421934
 40
0.5303399414220317
 40
0.6200265738371777
 40
0.7114000468597786
 40
0.8049115199551872
 40
0.900982036341611
 40
0.9999999999999999
 40
0.9999999999999999
 40
0.9999999999999999
 40
0.9999999999999999
 10
1585.398343768448
 20
1102.589345147256
 30
0.0
 10
1585.431311213016
 20
1102.589345147256
 30
0.0
 10
1585.496766796675
 20
1102.589345147256
 30
0.0
 10
1585.584654241965
 20
1102.589345147256
 30
0.0
 10
1585.663748257209
 20
1102.589345147256
 30
0.0
 10
1585.733405881994
 20
1102.589345147256
 30
0.0
 10
1585.793786403233
 20
1102.589345147256
 30
0.0
 10
1585.844845179872
 20
1102.589345147256
 30
0.0
 10
1585.886581704527
 20
1102.589345147256
 30
0.0
 10
1585.919048726613
 20
1102.589345147256
 30
0.0
 10
1585.942055928722
 20
1102.589345147256
 30
0.0
 10
1585.956381654363
 20
1102.589345147256
 30
0.0
 10
1585.958121085013
 20
1102.589345147256
 30
0.0
 10
1585.959003940222
 20
1102.589345147256
 30
0.0
  0
SPLINE
  5
1062
330
A
100
AcDbEntity
  8
MODEL
100
AcDbSpline
210
0.0
220
0.0
230
1.0
 70
     8
 71
     3
 72
    14
 73
    10
 74
     0
 42
0.000000001
 43
0.00000001
 40
0.0
 40
0.0
 40
0.0
 40
0.0
 40
0.25
 40
0.25
 40
0.5
 40
0.5
 40
0.75
 40
0.75
 40
1.0
 40
1.0
 40
1.0
 40
1.0
 10
1588.959003940222
 20
1045.589345147256
 30
0.0
 10
1588.959003940222
 20
1045.196646065558
 30
0.0
 10
1588.880921970228
 20
1044.804101494179
 30
0.0
 10
1588.580363105281
 20
1044.078488206147
 30
0.0
 10
1588.358004467414
 20
1043.745704987331
 30
0.0
 10
1587.802644100147
 20
1043.190344620061
 30
0.0
 10
1587.469860881331
 20
1042.967985982193
 30
0.0
 10
1586.744247593303
 20
1042.66742711725
 30
0.0
 10
1586.351703021927
 20
1042.589345147256
 30
0.0
 10
1585.959003940222
 20
1042.589345147256
 30
0.0
  0
SPLINE
  5
1063
330
A
100
AcDbEntity
  8
MODEL
100
AcDbSpline
210
0.0
220
0.0
230
1.0
 70
    24
 71
     3
 72
    18
 73
    14
 74
     0
 42
0.000000001
 43
0.00000001
 40
0.0
 40
0.0
 40
0.0
 40
0.0
 40
0.0899907167152242
 40
0.1786730807626911
 40
0.2665403601173619
 40
0.3540995992607
 40
0.4418631818422105
 40
0.530339941422037
 40
0.6200265738371802
 40
0.7114000468597971
 40
0.8049115199551881
 40
0.9009820363416112
 40
1.0
 40
1.0
 40
1.0
 40
1.0
 10
1588.959003940222
 20
1046.150005319037
 30
0.0
 10
1588.959003940222
 20
1046.117037874466
 30
0.0
 10
1588.959003940222
 20
1046.051582290807
 30
0.0
 10
1588.959003940222
 20
1045.96369484552
 30
0.0
 10
1588.959003940222
 20
1045.884600830269
 30
0.0
 10
1588.959003940222
 20
1045.814943205483
 30
0.0
 10
1588.959003940222
 20
1045.754562684242
 30
0.0
 10
1588.959003940222
 20
1045.703503907616
 30
0.0
 10
1588.959003940222
 20
1045.661767382962
 30
0.0
 10
1588.959003940222
 20
1045.62930036086
 30
0.0
 10
1588.959003940222
 20
1045.606293158756
 30
0.0
 10
1588.959003940222
 20
1045.591967433114
 30
0.0
 10
1588.959003940222
 20
1045.590228002465
 30
0.0
 10
1588.959003940222
 20
1045.589345147256
 30
0.0
  0
SPLINE
  5
1064
330
A
100
AcDbEntity
  8
MODEL
100
AcDbSpline
210
0.0
220
0.0
230
1.0
 70
    24
 71
     3
 72
    17
 73
    13
 74
     0
 42
0.000000001
 43
0.00000001
 40
0.0
 40
0.0
 40
0.0
 40
0.0
 40
0.108752915733241
 40
0.2139847941175793
 40
0.3162192408300573
 40
0.416027047535776
 40
0.5140214187144914
 40
0.610850017818805
 40
0.7071840239889953
 40
0.8037049346953725
 40
0.9010903236450031
 40
1.0
 40
1.0
 40
1.0
 40
1.0
 10
1585.959003940222
 20
1042.589345147256
 30
0.0
 10
1585.957941623969
 20
1042.589345147256
 30
0.0
 10
1585.955851385527
 20
1042.589345147256
 30
0.0
 10
1585.938535292034
 20
1042.589345147256
 30
0.0
 10
1585.910696981763
 20
1042.589345147256
 30
0.0
 10
1585.871397492604
 20
1042.589345147256
 30
0.0
 10
1585.820868180604
 20
1042.589345147256
 30
0.0
 10
1585.759027899917
 20
1042.589345147256
 30
0.0
 10
1585.685949392949
 20
1042.589345147256
 30
0.0
 10
1585.601435590082
 20
1042.589345147256
 30
0.0
 10
1585.506267182031
 20
1042.589345147256
 30
0.0
 10
1585.434503993541
 20
1042.589345147256
 30
0.0
 10
1585.398343768448
 20
1042.589345147256
 30
0.0
  0
LINE
  5
1065
330
A
100
AcDbEntity
  8
MODEL
100
AcDbLine
 10
1458.959003940222
 20
1032.589345147256
 30
0.0
 11
1528.959003940222
 21
1032.589345147256
 31
0.0
  0
CIRCLE
  5
1066
330
A
100
AcDbEntity
  8
MODEL
  6
HIDDEN
 48
0.05
100
AcDbCircle
 10
1540.086428880705
 20
2050.217882566903
 30
0.0
 40
22.62480694623946
  0
LINE
  5
1067
330
A
100
AcDbEntity
  8
MODEL
  6
HIDDEN
 48
0.05
100
AcDbLine
 10
1252.586428880705
 20
2145.217882566903
 30
0.0
 11
1692.586428880705
 21
2145.217882566903
 31
0.0
  0
LINE
  5
1068
330
A
100
AcDbEntity
  8
MODEL
  6
HIDDEN
 48
0.05
100
AcDbLine
 10
1247.586428880704
 20
1960.217882566903
 30
0.0
 11
1247.586428880705
 21
2140.217882566903
 31
0.0
  0
LINE
  5
1069
330
A
100
AcDbEntity
  8
MODEL
  6
HIDDEN
 48
0.05
100
AcDbLine
 10
1697.586428880705
 20
2140.217882566903
 30
0.0
 11
1697.586428880704
 21
1960.217882566903
 31
0.0
  0
LINE
  5
106A
330
A
100
AcDbEntity
  8
MODEL
  6
HIDDEN
 48
0.05
100
AcDbLine
 10
1692.586428880704
 20
1955.217882566903
 30
0.0
 11
1252.586428880704
 21
1955.217882566903
 31
0.0
  0
SPLINE
  5
106B
330
A
100
AcDbEntity
  8
MODEL
  6
HIDDEN
 48
0.05
100
AcDbSpline
210
0.0
220
0.0
230
1.0
 70
    24
 71
     3
 72
    18
 73
    14
 74
     0
 42
0.000000001
 43
0.00000001
 40
0.0
 40
0.0
 40
0.0
 40
0.0
 40
0.0899907167152371
 40
0.178673080762704
 40
0.2665403601173865
 40
0.3540995992607197
 40
0.441863181842245
 40
0.5303399414220673
 40
0.6200265738372104
 40
0.7114000468598063
 40
0.8049115199552117
 40
0.9009820363416319
 40
1.0
 40
1.0
 40
1.0
 40
1.0
 10
1251.147089052486
 20
2145.217882566903
 30
0.0
 10
1251.181466651592
 20
2145.217882566903
 30
0.0
 10
1251.249722042426
 20
2145.217882566903
 30
0.0
 10
1251.360244548508
 20
2145.217882566903
 30
0.0
 10
1251.475560571532
 20
2145.217882566903
 30
0.0
 10
1251.596294355796
 20
2145.217882566903
 30
0.0
 10
1251.722265825446
 20
2145.217882566903
 30
0.0
 10
1251.853506126768
 20
2145.217882566903
 30
0.0
 10
1251.989989465669
 20
2145.217882566903
 30
0.0
 10
1252.131707036474
 20
2145.217882566903
 30
0.0
 10
1252.278648028804
 20
2145.217882566903
 30
0.0
 10
1252.430807032411
 20
2145.217882566903
 30
0.0
 10
1252.534035065989
 20
2145.217882566903
 30
0.0
 10
1252.586428880705
 20
2145.217882566903
 30
0.0
  0
SPLINE
  5
106C
330
A
100
AcDbEntity
  8
MODEL
  6
HIDDEN
 48
0.05
100
AcDbSpline
210
0.0
220
0.0
230
1.0
 70
    24
 71
     3
 72
    17
 73
    13
 74
     0
 42
0.000000001
 43
0.00000001
 40
0.0
 40
0.0
 40
0.0
 40
0.0
 40
0.1087529157332381
 40
0.2139847941175735
 40
0.3162192408300317
 40
0.4160270475357648
 40
0.5140214187144696
 40
0.6108500178187888
 40
0.7071840239889842
 40
0.8037049346953519
 40
0.9010903236449896
 40
0.9999999999999999
 40
0.9999999999999999
 40
0.9999999999999999
 40
0.9999999999999999
 10
1247.586428880705
 20
2140.217882566903
 30
0.0
 10
1247.586428880705
 20
2140.275427132277
 30
0.0
 10
1247.586428880705
 20
2140.388653172162
 30
0.0
 10
1247.586428880705
 20
2140.555242861294
 30
0.0
 10
1247.586428880705
 20
2140.715524877629
 30
0.0
 10
1247.586428880705
 20
2140.869487702235
 30
0.0
 10
1247.586428880705
 20
2141.017117887401
 30
0.0
 10
1247.586428880705
 20
2141.158379866662
 30
0.0
 10
1247.586428880705
 20
2141.293305647512
 30
0.0
 10
1247.586428880705
 20
2141.421671486729
 30
0.0
 10
1247.586428880705
 20
2141.544226218422
 30
0.0
 10
1247.586428880705
 20
2141.619362517926
 30
0.0
 10
1247.586428880705
 20
2141.657222395123
 30
0.0
  0
SPLINE
  5
106D
330
A
100
AcDbEntity
  8
MODEL
  6
HIDDEN
 48
0.05
100
AcDbSpline
210
0.0
220
0.0
230
1.0
 70
    24
 71
     3
 72
    18
 73
    14
 74
     0
 42
0.000000001
 43
0.00000001
 40
0.0
 40
0.0
 40
0.0
 40
0.0
 40
0.0899907167152248
 40
0.1786730807626922
 40
0.2665403601173728
 40
0.3540995992607065
 40
0.4418631818422264
 40
0.5303399414220558
 40
0.6200265738371993
 40
0.7114000468597957
 40
0.8049115199552017
 40
0.9009820363416224
 40
0.9999999999999999
 40
0.9999999999999999
 40
0.9999999999999999
 40
0.9999999999999999
 10
1697.586428880705
 20
2141.657222395122
 30
0.0
 10
1697.586428880705
 20
2141.622844796019
 30
0.0
 10
1697.586428880705
 20
2141.554589405186
 30
0.0
 10
1697.586428880705
 20
2141.444066899096
 30
0.0
 10
1697.586428880705
 20
2141.328750876076
 30
0.0
 10
1697.586428880705
 20
2141.208017091816
 30
0.0
 10
1697.586428880705
 20
2141.082045622173
 30
0.0
 10
1697.586428880705
 20
2140.95080532084
 30
0.0
 10
1697.586428880705
 20
2140.814321981942
 30
0.0
 10
1697.586428880705
 20
2140.672604411134
 30
0.0
 10
1697.586428880705
 20
2140.525663418807
 30
0.0
 10
1697.586428880705
 20
2140.373504415197
 30
0.0
 10
1697.586428880705
 20
2140.270276381622
 30
0.0
 10
1697.586428880705
 20
2140.217882566903
 30
0.0
  0
SPLINE
  5
106E
330
A
100
AcDbEntity
  8
MODEL
  6
HIDDEN
 48
0.05
100
AcDbSpline
210
0.0
220
0.0
230
1.0
 70
    24
 71
     3
 72
    18
 73
    14
 74
     0
 42
0.000000001
 43
0.00000001
 40
0.0
 40
0.0
 40
0.0
 40
0.0
 40
0.0899907167152372
 40
0.1786730807626877
 40
0.2665403601173678
 40
0.3540995992606858
 40
0.4418631818421955
 40
0.5303399414220341
 40
0.6200265738371925
 40
0.7114000468597714
 40
0.804911519955194
 40
0.9009820363416318
 40
1.0
 40
1.0
 40
1.0
 40
1.0
 10
1247.586428880704
 20
1958.778542738684
 30
0.0
 10
1247.586428880704
 20
1958.812920337787
 30
0.0
 10
1247.586428880704
 20
1958.88117572862
 30
0.0
 10
1247.586428880704
 20
1958.991698234709
 30
0.0
 10
1247.586428880704
 20
1959.10701425773
 30
0.0
 10
1247.586428880704
 20
1959.227748041991
 30
0.0
 10
1247.586428880704
 20
1959.353719511633
 30
0.0
 10
1247.586428880704
 20
1959.484959812966
 30
0.0
 10
1247.586428880704
 20
1959.621443151864
 30
0.0
 10
1247.586428880704
 20
1959.763160722672
 30
0.0
 10
1247.586428880704
 20
1959.910101714999
 30
0.0
 10
1247.586428880704
 20
1960.062260718609
 30
0.0
 10
1247.586428880704
 20
1960.165488752187
 30
0.0
 10
1247.586428880704
 20
1960.217882566903
 30
0.0
  0
SPLINE
  5
106F
330
A
100
AcDbEntity
  8
MODEL
  6
HIDDEN
 48
0.05
100
AcDbSpline
210
0.0
220
0.0
230
1.0
 70
    24
 71
     3
 72
    17
 73
    13
 74
     0
 42
0.000000001
 43
0.00000001
 40
0.0
 40
0.0
 40
0.0
 40
0.0
 40
0.1087529157332575
 40
0.2139847941175774
 40
0.3162192408300547
 40
0.4160270475357907
 40
0.5140214187144889
 40
0.6108500178188019
 40
0.7071840239889914
 40
0.8037049346953655
 40
0.9010903236450007
 40
1.0
 40
1.0
 40
1.0
 40
1.0
 10
1252.586428880704
 20
1955.217882566903
 30
0.0
 10
1252.528884315331
 20
1955.217882566903
 30
0.0
 10
1252.415658275442
 20
1955.217882566903
 30
0.0
 10
1252.249068586322
 20
1955.217882566903
 30
0.0
 10
1252.088786569975
 20
1955.217882566903
 30
0.0
 10
1251.934823745373
 20
1955.217882566903
 30
0.0
 10
1251.787193560207
 20
1955.217882566903
 30
0.0
 10
1251.645931580946
 20
1955.217882566903
 30
0.0
 10
1251.511005800099
 20
1955.217882566903
 30
0.0
 10
1251.382639960886
 20
1955.217882566903
 30
0.0
 10
1251.260085229193
 20
1955.217882566903
 30
0.0
 10
1251.184948929679
 20
1955.217882566903
 30
0.0
 10
1251.147089052485
 20
1955.217882566903
 30
0.0
  0
SPLINE
  5
1070
330
A
100
AcDbEntity
  8
MODEL
  6
HIDDEN
 48
0.05
100
AcDbSpline
210
0.0
220
0.0
230
1.0
 70
    24
 71
     3
 72
    17
 73
    13
 74
     0
 42
0.000000001
 43
0.00000001
 40
0.0
 40
0.0
 40
0.0
 40
0.0
 40
0.1087529157332547
 40
0.2139847941175892
 40
0.3162192408300465
 40
0.4160270475357281
 40
0.5140214187144734
 40
0.6108500178187677
 40
0.7071840239889854
 40
0.8037049346953742
 40
0.9010903236449904
 40
1.0
 40
1.0
 40
1.0
 40
1.0
 10
1692.586428880705
 20
2145.217882566903
 30
0.0
 10
1692.643973446079
 20
2145.217882566903
 30
0.0
 10
1692.757199485976
 20
2145.217882566903
 30
0.0
 10
1692.923789175095
 20
2145.217882566903
 30
0.0
 10
1693.084071191435
 20
2145.217882566903
 30
0.0
 10
1693.238034016044
 20
2145.217882566903
 30
0.0
 10
1693.385664201202
 20
2145.217882566903
 30
0.0
 10
1693.526926180472
 20
2145.217882566903
 30
0.0
 10
1693.661851961319
 20
2145.217882566903
 30
0.0
 10
1693.790217800532
 20
2145.217882566903
 30
0.0
 10
1693.912772532224
 20
2145.217882566903
 30
0.0
 10
1693.987908831724
 20
2145.217882566903
 30
0.0
 10
1694.025768708933
 20
2145.217882566903
 30
0.0
  0
SPLINE
  5
1071
330
A
100
AcDbEntity
  8
MODEL
  6
HIDDEN
 48
0.05
100
AcDbSpline
210
0.0
220
0.0
230
1.0
 70
    24
 71
     3
 72
    17
 73
    13
 74
     0
 42
0.000000001
 43
0.00000001
 40
0.0
 40
0.0
 40
0.0
 40
0.0
 40
0.108752915733255
 40
0.2139847941175897
 40
0.3162192408300301
 40
0.4160270475357627
 40
0.5140214187144586
 40
0.6108500178187692
 40
0.707184023988972
 40
0.8037049346953463
 40
0.9010903236449903
 40
1.0
 40
1.0
 40
1.0
 40
1.0
 10
1697.586428880704
 20
1960.217882566903
 30
0.0
 10
1697.586428880704
 20
1960.160338001529
 30
0.0
 10
1697.586428880704
 20
1960.047111961644
 30
0.0
 10
1697.586428880704
 20
1959.880522272512
 30
0.0
 10
1697.586428880704
 20
1959.720240256177
 30
0.0
 10
1697.586428880704
 20
1959.566277431571
 30
0.0
 10
1697.586428880704
 20
1959.418647246405
 30
0.0
 10
1697.586428880704
 20
1959.277385267144
 30
0.0
 10
1697.586428880704
 20
1959.142459486294
 30
0.0
 10
1697.586428880704
 20
1959.014093647081
 30
0.0
 10
1697.586428880704
 20
1958.891538915384
 30
0.0
 10
1697.586428880704
 20
1958.81640261588
 30
0.0
 10
1697.586428880704
 20
1958.778542738683
 30
0.0
  0
SPLINE
  5
1072
330
A
100
AcDbEntity
  8
MODEL
  6
HIDDEN
 48
0.05
100
AcDbSpline
210
0.0
220
0.0
230
1.0
 70
    24
 71
     3
 72
    18
 73
    14
 74
     0
 42
0.000000001
 43
0.00000001
 40
0.0
 40
0.0
 40
0.0
 40
0.0
 40
0.0899907167152493
 40
0.178673080762661
 40
0.2665403601173405
 40
0.3540995992607034
 40
0.441863181842167
 40
0.5303399414220359
 40
0.6200265738371952
 40
0.7114000468597734
 40
0.8049115199551954
 40
0.9009820363415976
 40
1.0
 40
1.0
 40
1.0
 40
1.0
 10
1694.025768708932
 20
1955.217882566903
 30
0.0
 10
1693.991391109826
 20
1955.217882566903
 30
0.0
 10
1693.923135718992
 20
1955.217882566903
 30
0.0
 10
1693.81261321291
 20
1955.217882566903
 30
0.0
 10
1693.697297189879
 20
1955.217882566903
 30
0.0
 10
1693.576563405614
 20
1955.217882566903
 30
0.0
 10
1693.450591935979
 20
1955.217882566903
 30
0.0
 10
1693.31935163465
 20
1955.217882566903
 30
0.0
 10
1693.182868295748
 20
1955.217882566903
 30
0.0
 10
1693.041150724936
 20
1955.217882566903
 30
0.0
 10
1692.894209732621
 20
1955.217882566903
 30
0.0
 10
1692.742050729006
 20
1955.217882566903
 30
0.0
 10
1692.638822695429
 20
1955.217882566903
 30
0.0
 10
1692.586428880704
 20
1955.217882566903
 30
0.0
  0
CIRCLE
  5
1073
330
A
100
AcDbEntity
  8
MODEL
  6
HIDDEN
 48
0.05
100
AcDbCircle
 10
1332.586428880705
 20
2050.217882566903
 30
0.0
 40
15.0
  0
SPLINE
  5
1074
330
A
100
AcDbEntity
  8
MODEL
  6
HIDDEN
 48
0.05
100
AcDbSpline
210
0.0
220
0.0
230
1.0
 70
     8
 71
     3
 72
    14
 73
    10
 74
     0
 42
0.000000001
 43
0.00000001
 40
0.0
 40
0.0
 40
0.0
 40
0.0
 40
0.25
 40
0.25
 40
0.5
 40
0.5
 40
0.75
 40
0.75
 40
1.0
 40
1.0
 40
1.0
 40
1.0
 10
1250.586428880713
 20
2145.217882566903
 30
0.0
 10
1250.193729799007
 20
2145.217882566903
 30
0.0
 10
1249.802239804935
 20
2145.137052744609
 30
0.0
 10
1249.076769265826
 20
2144.836553008208
 30
0.0
 10
1248.742788720788
 20
2144.616883094099
 30
0.0
 10
1248.187428353514
 20
2144.061522726828
 30
0.0
 10
1247.967758439408
 20
2143.727542181787
 30
0.0
 10
1247.667258703004
 20
2143.002071642673
 30
0.0
 10
1247.586428880705
 20
2142.610581648602
 30
0.0
 10
1247.586428880705
 20
2142.217882566903
 30
0.0
  0
SPLINE
  5
1075
330
A
100
AcDbEntity
  8
MODEL
  6
HIDDEN
 48
0.05
100
AcDbSpline
210
0.0
220
0.0
230
1.0
 70
    24
 71
     3
 72
    18
 73
    14
 74
     0
 42
0.000000001
 43
0.00000001
 40
0.0
 40
0.0
 40
0.0
 40
0.0
 40
0.0899907167152258
 40
0.1786730807626911
 40
0.2665403601173663
 40
0.3540995992606947
 40
0.4418631818422212
 40
0.5303399414220454
 40
0.6200265738371938
 40
0.711400046859793
 40
0.8049115199551996
 40
0.9009820363416216
 40
0.9999999999999999
 40
0.9999999999999999
 40
0.9999999999999999
 40
0.9999999999999999
 10
1247.586428880705
 20
2141.657222395123
 30
0.0
 10
1247.586428880705
 20
2141.690189839697
 30
0.0
 10
1247.586428880705
 20
2141.755645423356
 30
0.0
 10
1247.586428880705
 20
2141.843532868639
 30
0.0
 10
1247.586428880705
 20
2141.92262688389
 30
0.0
 10
1247.586428880705
 20
2141.992284508677
 30
0.0
 10
1247.586428880705
 20
2142.052665029918
 30
0.0
 10
1247.586428880705
 20
2142.103723806547
 30
0.0
 10
1247.586428880705
 20
2142.145460331201
 30
0.0
 10
1247.586428880705
 20
2142.177927353299
 30
0.0
 10
1247.586428880705
 20
2142.200934555403
 30
0.0
 10
1247.586428880705
 20
2142.215260281049
 30
0.0
 10
1247.586428880705
 20
2142.216999711694
 30
0.0
 10
1247.586428880705
 20
2142.217882566903
 30
0.0
  0
SPLINE
  5
1076
330
A
100
AcDbEntity
  8
MODEL
  6
HIDDEN
 48
0.05
100
AcDbSpline
210
0.0
220
0.0
230
1.0
 70
    24
 71
     3
 72
    17
 73
    13
 74
     0
 42
0.000000001
 43
0.00000001
 40
0.0
 40
0.0
 40
0.0
 40
0.0
 40
0.1087529157332469
 40
0.2139847941175865
 40
0.3162192408300553
 40
0.4160270475357803
 40
0.5140214187144883
 40
0.6108500178188118
 40
0.7071840239889958
 40
0.8037049346953675
 40
0.9010903236449961
 40
1.0
 40
1.0
 40
1.0
 40
1.0
 10
1250.586428880713
 20
2145.217882566903
 30
0.0
 10
1250.587491196958
 20
2145.217882566903
 30
0.0
 10
1250.5895814354
 20
2145.217882566903
 30
0.0
 10
1250.606897528901
 20
2145.217882566903
 30
0.0
 10
1250.634735839172
 20
2145.217882566903
 30
0.0
 10
1250.674035328323
 20
2145.217882566903
 30
0.0
 10
1250.724564640331
 20
2145.217882566903
 30
0.0
 10
1250.786404921018
 20
2145.217882566903
 30
0.0
 10
1250.859483427979
 20
2145.217882566903
 30
0.0
 10
1250.943997230838
 20
2145.217882566903
 30
0.0
 10
1251.039165638896
 20
2145.217882566903
 30
0.0
 10
1251.110928827387
 20
2145.217882566903
 30
0.0
 10
1251.147089052486
 20
2145.217882566903
 30
0.0
  0
SPLINE
  5
1077
330
A
100
AcDbEntity
  8
MODEL
  6
HIDDEN
 48
0.05
100
AcDbSpline
210
0.0
220
0.0
230
1.0
 70
     8
 71
     3
 72
    14
 73
    10
 74
     0
 42
0.000000001
 43
0.00000001
 40
0.0
 40
0.0
 40
0.0
 40
0.0
 40
0.25
 40
0.25
 40
0.5
 40
0.5
 40
0.75
 40
0.75
 40
1.0
 40
1.0
 40
1.0
 40
1.0
 10
1697.586428880705
 20
2142.217882566903
 30
0.0
 10
1697.586428880705
 20
2142.610581648601
 30
0.0
 10
1697.505599058421
 20
2143.002071642672
 30
0.0
 10
1697.205099322018
 20
2143.727542181786
 30
0.0
 10
1696.985429407897
 20
2144.061522726827
 30
0.0
 10
1696.43006904063
 20
2144.616883094099
 30
0.0
 10
1696.096088495592
 20
2144.836553008207
 30
0.0
 10
1695.370617956482
 20
2145.137052744608
 30
0.0
 10
1694.979127962412
 20
2145.217882566903
 30
0.0
 10
1694.586428880705
 20
2145.217882566903
 30
0.0
  0
SPLINE
  5
1078
330
A
100
AcDbEntity
  8
MODEL
  6
HIDDEN
 48
0.05
100
AcDbSpline
210
0.0
220
0.0
230
1.0
 70
    24
 71
     3
 72
    17
 73
    13
 74
     0
 42
0.000000001
 43
0.00000001
 40
0.0
 40
0.0
 40
0.0
 40
0.0
 40
0.1087529157332432
 40
0.2139847941175751
 40
0.3162192408300381
 40
0.4160270475357675
 40
0.5140214187144685
 40
0.6108500178187922
 40
0.7071840239889843
 40
0.8037049346953549
 40
0.9010903236449922
 40
1.0
 40
1.0
 40
1.0
 40
1.0
 10
1697.586428880705
 20
2142.217882566903
 30
0.0
 10
1697.586428880705
 20
2142.21682025065
 30
0.0
 10
1697.586428880705
 20
2142.214730012209
 30
0.0
 10
1697.586428880705
 20
2142.19741391871
 30
0.0
 10
1697.586428880705
 20
2142.169575608444
 30
0.0
 10
1697.586428880705
 20
2142.130276119292
 30
0.0
 10
1697.586428880705
 20
2142.079746807281
 30
0.0
 10
1697.586428880705
 20
2142.017906526595
 30
0.0
 10
1697.586428880705
 20
2141.944828019629
 30
0.0
 10
1697.586428880705
 20
2141.86031421677
 30
0.0
 10
1697.586428880705
 20
2141.765145808716
 30
0.0
 10
1697.586428880705
 20
2141.693382620221
 30
0.0
 10
1697.586428880705
 20
2141.657222395122
 30
0.0
  0
SPLINE
  5
1079
330
A
100
AcDbEntity
  8
MODEL
  6
HIDDEN
 48
0.05
100
AcDbSpline
210
0.0
220
0.0
230
1.0
 70
    24
 71
     3
 72
    18
 73
    14
 74
     0
 42
0.000000001
 43
0.00000001
 40
0.0
 40
0.0
 40
0.0
 40
0.0
 40
0.0899907167152461
 40
0.1786730807627097
 40
0.2665403601174349
 40
0.3540995992607757
 40
0.4418631818422729
 40
0.5303399414221118
 40
0.6200265738372648
 40
0.7114000468598565
 40
0.8049115199552441
 40
0.9009820363416434
 40
1.0
 40
1.0
 40
1.0
 40
1.0
 10
1694.025768708933
 20
2145.217882566903
 30
0.0
 10
1694.058736153499
 20
2145.217882566903
 30
0.0
 10
1694.124191737158
 20
2145.217882566903
 30
0.0
 10
1694.212079182448
 20
2145.217882566903
 30
0.0
 10
1694.291173197692
 20
2145.217882566903
 30
0.0
 10
1694.360830822486
 20
2145.217882566903
 30
0.0
 10
1694.421211343732
 20
2145.217882566903
 30
0.0
 10
1694.472270120356
 20
2145.217882566903
 30
0.0
 10
1694.51400664501
 20
2145.217882566903
 30
0.0
 10
1694.546473667097
 20
2145.217882566903
 30
0.0
 10
1694.569480869205
 20
2145.217882566903
 30
0.0
 10
1694.583806594847
 20
2145.217882566903
 30
0.0
 10
1694.585546025496
 20
2145.217882566903
 30
0.0
 10
1694.586428880705
 20
2145.217882566903
 30
0.0
  0
SPLINE
  5
107A
330
A
100
AcDbEntity
  8
MODEL
  6
HIDDEN
 48
0.05
100
AcDbSpline
210
0.0
220
0.0
230
1.0
 70
     8
 71
     3
 72
    14
 73
    10
 74
     0
 42
0.000000001
 43
0.00000001
 40
0.0
 40
0.0
 40
0.0
 40
0.0
 40
0.25
 40
0.25
 40
0.5
 40
0.5
 40
0.75
 40
0.75
 40
1.0
 40
1.0
 40
1.0
 40
1.0
 10
1247.586428880704
 20
1958.217882566903
 30
0.0
 10
1247.586428880704
 20
1957.825183485205
 30
0.0
 10
1247.667258703003
 20
1957.433693491133
 30
0.0
 10
1247.967758439407
 20
1956.70822295202
 30
0.0
 10
1248.187428353513
 20
1956.374242406979
 30
0.0
 10
1248.742788720787
 20
1955.818882039708
 30
0.0
 10
1249.076769265825
 20
1955.599212125599
 30
0.0
 10
1249.802239804935
 20
1955.298712389198
 30
0.0
 10
1250.193729799006
 20
1955.217882566903
 30
0.0
 10
1250.586428880712
 20
1955.217882566903
 30
0.0
  0
SPLINE
  5
107B
330
A
100
AcDbEntity
  8
MODEL
  6
HIDDEN
 48
0.05
100
AcDbSpline
210
0.0
220
0.0
230
1.0
 70
    24
 71
     3
 72
    18
 73
    14
 74
     0
 42
0.000000001
 43
0.00000001
 40
0.0
 40
0.0
 40
0.0
 40
0.0
 40
0.0899907167152183
 40
0.1786730807626812
 40
0.2665403601173602
 40
0.3540995992606838
 40
0.4418631818422012
 40
0.5303399414220318
 40
0.6200265738371764
 40
0.7114000468597786
 40
0.8049115199551884
 40
0.9009820363416142
 40
1.0
 40
1.0
 40
1.0
 40
1.0
 10
1251.147089052485
 20
1955.217882566903
 30
0.0
 10
1251.114121607918
 20
1955.217882566903
 30
0.0
 10
1251.048666024259
 20
1955.217882566903
 30
0.0
 10
1250.960778578969
 20
1955.217882566903
 30
0.0
 10
1250.881684563725
 20
1955.217882566903
 30
0.0
 10
1250.812026938931
 20
1955.217882566903
 30
0.0
 10
1250.751646417686
 20
1955.217882566903
 30
0.0
 10
1250.700587641061
 20
1955.217882566903
 30
0.0
 10
1250.658851116407
 20
1955.217882566903
 30
0.0
 10
1250.626384094312
 20
1955.217882566903
 30
0.0
 10
1250.603376892205
 20
1955.217882566903
 30
0.0
 10
1250.589051166562
 20
1955.217882566903
 30
0.0
 10
1250.587311735921
 20
1955.217882566903
 30
0.0
 10
1250.586428880712
 20
1955.217882566903
 30
0.0
  0
SPLINE
  5
107C
330
A
100
AcDbEntity
  8
MODEL
  6
HIDDEN
 48
0.05
100
AcDbSpline
210
0.0
220
0.0
230
1.0
 70
    24
 71
     3
 72
    17
 73
    13
 74
     0
 42
0.000000001
 43
0.00000001
 40
0.0
 40
0.0
 40
0.0
 40
0.0
 40
0.1087529157332468
 40
0.2139847941175796
 40
0.3162192408300465
 40
0.4160270475357795
 40
0.514021418714477
 40
0.610850017818804
 40
0.7071840239889996
 40
0.8037049346953706
 40
0.901090323645002
 40
1.0
 40
1.0
 40
1.0
 40
1.0
 10
1247.586428880704
 20
1958.217882566903
 30
0.0
 10
1247.586428880704
 20
1958.21894488316
 30
0.0
 10
1247.586428880704
 20
1958.221035121598
 30
0.0
 10
1247.586428880704
 20
1958.238351215095
 30
0.0
 10
1247.586428880704
 20
1958.266189525362
 30
0.0
 10
1247.586428880704
 20
1958.305489014518
 30
0.0
 10
1247.586428880704
 20
1958.356018326525
 30
0.0
 10
1247.586428880704
 20
1958.417858607212
 30
0.0
 10
1247.586428880704
 20
1958.490937114177
 30
0.0
 10
1247.586428880704
 20
1958.575450917037
 30
0.0
 10
1247.586428880704
 20
1958.67061932509
 30
0.0
 10
1247.586428880704
 20
1958.742382513585
 30
0.0
 10
1247.586428880704
 20
1958.778542738684
 30
0.0
  0
SPLINE
  5
107D
330
A
100
AcDbEntity
  8
MODEL
  6
HIDDEN
 48
0.05
100
AcDbSpline
210
0.0
220
0.0
230
1.0
 70
     8
 71
     3
 72
    14
 73
    10
 74
     0
 42
0.000000001
 43
0.00000001
 40
0.0
 40
0.0
 40
0.0
 40
0.0
 40
0.25
 40
0.25
 40
0.5
 40
0.5
 40
0.75
 40
0.75
 40
1.0
 40
1.0
 40
1.0
 40
1.0
 10
1694.586428880704
 20
1955.217882566903
 30
0.0
 10
1694.979127962411
 20
1955.217882566903
 30
0.0
 10
1695.370617956482
 20
1955.298712389197
 30
0.0
 10
1696.096088495592
 20
1955.599212125598
 30
0.0
 10
1696.43006904063
 20
1955.818882039707
 30
0.0
 10
1696.985429407897
 20
1956.374242406978
 30
0.0
 10
1697.205099322017
 20
1956.708222952019
 30
0.0
 10
1697.505599058421
 20
1957.433693491133
 30
0.0
 10
1697.586428880704
 20
1957.825183485204
 30
0.0
 10
1697.586428880704
 20
1958.217882566903
 30
0.0
  0
SPLINE
  5
107E
330
A
100
AcDbEntity
  8
MODEL
  6
HIDDEN
 48
0.05
100
AcDbSpline
210
0.0
220
0.0
230
1.0
 70
    24
 71
     3
 72
    17
 73
    13
 74
     0
 42
0.000000001
 43
0.00000001
 40
0.0
 40
0.0
 40
0.0
 40
0.0
 40
0.1087529157332422
 40
0.2139847941175729
 40
0.3162192408300415
 40
0.4160270475357749
 40
0.5140214187144728
 40
0.6108500178188102
 40
0.7071840239889562
 40
0.8037049346953602
 40
0.9010903236450135
 40
0.9999999999999999
 40
0.9999999999999999
 40
0.9999999999999999
 40
0.9999999999999999
 10
1694.586428880704
 20
1955.217882566903
 30
0.0
 10
1694.585366564453
 20
1955.217882566903
 30
0.0
 10
1694.583276326018
 20
1955.217882566903
 30
0.0
 10
1694.565960232517
 20
1955.217882566903
 30
0.0
 10
1694.538121922246
 20
1955.217882566903
 30
0.0
 10
1694.498822433095
 20
1955.217882566903
 30
0.0
 10
1694.448293121093
 20
1955.217882566903
 30
0.0
 10
1694.386452840407
 20
1955.217882566903
 30
0.0
 10
1694.313374333439
 20
1955.217882566903
 30
0.0
 10
1694.228860530579
 20
1955.217882566903
 30
0.0
 10
1694.133692122515
 20
1955.217882566903
 30
0.0
 10
1694.06192893403
 20
1955.217882566903
 30
0.0
 10
1694.025768708932
 20
1955.217882566903
 30
0.0
  0
SPLINE
  5
107F
330
A
100
AcDbEntity
  8
MODEL
  6
HIDDEN
 48
0.05
100
AcDbSpline
210
0.0
220
0.0
230
1.0
 70
    24
 71
     3
 72
    18
 73
    14
 74
     0
 42
0.000000001
 43
0.00000001
 40
0.0
 40
0.0
 40
0.0
 40
0.0
 40
0.0899907167152113
 40
0.1786730807626827
 40
0.2665403601173534
 40
0.3540995992606912
 40
0.4418631818422142
 40
0.53033994142204
 40
0.6200265738371864
 40
0.7114000468597903
 40
0.8049115199551976
 40
0.9009820363416166
 40
1.0
 40
1.0
 40
1.0
 40
1.0
 10
1697.586428880704
 20
1958.778542738683
 30
0.0
 10
1697.586428880704
 20
1958.745575294112
 30
0.0
 10
1697.586428880704
 20
1958.68011971045
 30
0.0
 10
1697.586428880704
 20
1958.592232265167
 30
0.0
 10
1697.586428880704
 20
1958.513138249916
 30
0.0
 10
1697.586428880704
 20
1958.443480625129
 30
0.0
 10
1697.586428880704
 20
1958.383100103888
 30
0.0
 10
1697.586428880704
 20
1958.332041327259
 30
0.0
 10
1697.586428880704
 20
1958.290304802605
 30
0.0
 10
1697.586428880704
 20
1958.257837780507
 30
0.0
 10
1697.586428880704
 20
1958.234830578403
 30
0.0
 10
1697.586428880704
 20
1958.220504852757
 30
0.0
 10
1697.586428880704
 20
1958.218765422112
 30
0.0
 10
1697.586428880704
 20
1958.217882566903
 30
0.0
  0
MTEXT
  5
1080
330
A
100
AcDbEntity
  8
MODEL
390
1D
100
AcDbMText
 10
1183.549252247378
 20
1764.685086212292
 30
0.0
 40
24.0
 41
949.7161250932047
 46
105.2714765578161
 71
     1
 72
     1
  1
{\C7;※陶器製品には寸法公差がありますので、\P　必ず現物合わせでカウンターに切込を\P　行ってください。}
  7
ＭＳ ゴシック
 73
     1
 44
0.9822934569727008
1001
ACAD
1000
ACAD_MTEXT_DEFINED_HEIGHT_BEGIN
1070
    46
1040
105.2714765578161
1000
ACAD_MTEXT_DEFINED_HEIGHT_END
  0
DIMENSION
  5
1081
330
A
100
AcDbEntity
  8
DIM
  6
Continuous
100
AcDbDimension
  2
*D30
 10
827.8658902423974
 20
2268.413677448338
 30
0.0
 11
602.8658902423974
 21
2300.413677448338
 31
0.0
 70
    32
 71
     5
 42
450.0
 73
     0
 74
     0
 75
     0
  3
tfrom線あり
100
AcDbAlignedDimension
 13
377.8658902423974
 23
2156.597609423778
 33
0.0
 14
827.8658902423974
 24
2141.786155579268
 34
0.0
 50
-0.0000000000000268
100
AcDbRotatedDimension
  0
LINE
  5
1084
330
A
100
AcDbEntity
  8
MODEL
100
AcDbLine
 10
522.865890242397
 20
1965.217882566903
 30
0.0
 11
817.8658902423974
 21
1965.217882566903
 31
0.0
  0
LINE
  5
1085
330
A
100
AcDbEntity
  8
MODEL
100
AcDbLine
 10
817.8658902423974
 20
1965.217882566903
 30
0.0
 11
817.8658902423974
 21
2135.217882566903
 31
0.0
  0
LINE
  5
1086
330
A
100
AcDbEntity
  8
MODEL
100
AcDbLine
 10
817.8658902423974
 20
2135.217882566903
 30
0.0
 11
522.865890242397
 21
2135.217882566903
 31
0.0
  0
LINE
  5
1087
330
A
100
AcDbEntity
  8
MODEL
100
AcDbLine
 10
522.865890242397
 20
2135.217882566903
 30
0.0
 11
522.865890242397
 21
1965.217882566903
 31
0.0
  0
LINE
  5
1088
330
A
100
AcDbEntity
  8
DIM
 62
   253
100
AcDbLine
 10
534.865890242397
 20
2123.217882566903
 30
0.0
 11
534.865890242397
 21
1977.217882566903
 31
0.0
  0
LINE
  5
1089
330
A
100
AcDbEntity
  8
DIM
 62
   253
100
AcDbLine
 10
805.8658902423974
 20
2123.217882566903
 30
0.0
 11
805.8658902423974
 21
1977.217882566903
 31
0.0
  0
LINE
  5
108A
330
A
100
AcDbEntity
  8
DIM
 62
   253
100
AcDbLine
 10
805.8658902423974
 20
2123.217882566903
 30
0.0
 11
534.865890242397
 21
2123.217882566903
 31
0.0
  0
LINE
  5
108B
330
A
100
AcDbEntity
  8
DIM
 62
   253
100
AcDbLine
 10
805.8658902423974
 20
1977.217882566903
 30
0.0
 11
534.865890242397
 21
1977.217882566903
 31
0.0
  0
DIMENSION
  5
1092
330
A
100
AcDbEntity
  8
DIM
  6
Continuous
100
AcDbDimension
  2
*D35
 10
522.865890242397
 20
1878.899624494447
 30
0.0
 11
670.3658902423972
 21
1910.899624494447
 31
0.0
 70
    32
 71
     5
 42
295.0000000000005
 73
     0
 74
     0
 75
     0
  3
tfrom線あり
100
AcDbAlignedDimension
 13
817.8658902423974
 23
1965.195760664521
 33
0.0
 14
522.865890242397
 24
1965.217882566903
 34
0.0
 50
-0.0000000000000268
100
AcDbRotatedDimension
  0
DIMENSION
  5
1098
330
A
100
AcDbEntity
  8
DIM
  6
Continuous
100
AcDbDimension
  2
*D37
 10
323.3183065262843
 20
1067.589345147256
 30
0.0
 11
323.3183065262843
 21
1085.089345147256
 31
0.0
 70
   160
 71
     5
 42
34.99999999999999
 73
     0
 74
     0
 75
     0
  3
tfrom線あり
100
AcDbAlignedDimension
 13
380.8619737779395
 23
1102.589345147256
 33
0.0
 14
427.8472643291407
 24
1067.589345147256
 34
0.0
 50
89.99999999999999
100
AcDbRotatedDimension
  0
DIMENSION
  5
1099
330
A
100
AcDbEntity
  8
DIM
  6
Continuous
100
AcDbDimension
  2
*D38
 10
1360.093026420989
 20
1042.589345147256
 30
0.0
 11
1360.093026420989
 21
1072.589345147256
 31
0.0
 70
   160
 71
     5
 42
60.0
 73
     0
 74
     0
 75
     0
  3
tfrom線あり
100
AcDbAlignedDimension
 13
1402.490388434494
 23
1102.589345147256
 33
0.0
 14
1401.929728262713
 24
1042.589345147256
 34
0.0
 50
89.99999999999999
100
AcDbRotatedDimension
  0
DIMENSION
  5
109F
330
A
100
AcDbEntity
  8
DIM
  6
Continuous
100
AcDbDimension
  2
*D40
 10
1493.959003940222
 20
1052.589345147256
 30
0.0
 11
1493.959003940222
 21
1204.657345147257
 31
0.0
 70
   160
  1
50(深さ)
 71
     5
 42
50.0
 73
     0
 74
     1
 75
     1
  3
tfrom線あり
100
AcDbAlignedDimension
 13
1516.460704308185
 23
1102.589345147256
 33
0.0
 14
1512.84512430098
 24
1052.589345147256
 34
0.0
 50
89.99999999999999
100
AcDbRotatedDimension
1001
ACAD
1000
DSTYLE
1002
{
1070
     3
1000
<>
1070
   172
1070
     1
1070
    75
1070
     1
1070
    76
1070
     1
1002
}
  0
DIMENSION
  5
10A0
330
A
100
AcDbEntity
  8
DIM
  6
Continuous
100
AcDbDimension
  2
*D41
 10
1588.959003940222
 20
965.0456381762949
 30
0.0
 11
1541.459003940222
 21
997.0456381762949
 31
0.0
 70
    32
 71
     5
 42
95.0
 73
     0
 74
     0
 75
     0
  3
tfrom線あり
100
AcDbAlignedDimension
 13
1493.959003940222
 23
1032.589345147256
 33
0.0
 14
1588.959003940222
 24
1045.504091852234
 34
0.0
 50
-0.0000000000000268
100
AcDbRotatedDimension
  0
DIMENSION
  5
10A3
330
A
100
AcDbEntity
  8
DIM
  6
Continuous
100
AcDbDimension
  2
*D42
 10
981.2268687871251
 20
1032.589345370774
 30
0.0
 11
981.2268687871251
 21
1072.589345147256
 31
0.0
 70
   160
 71
     5
 42
69.99999977648193
 73
     0
 74
     0
 75
     0
  3
tfrom線あり
100
AcDbAlignedDimension
 13
825.1210116385674
 23
1102.589345147256
 33
0.0
 14
705.5395728285813
 24
1032.589345370774
 34
0.0
 50
89.99999999999999
100
AcDbRotatedDimension
  0
DIMENSION
  5
10A6
330
A
100
AcDbEntity
  8
DIM
  6
Continuous
100
AcDbDimension
  2
*D43
 10
447.865890242397
 20
1149.262728272495
 30
0.0
 11
412.865890242397
 21
1181.262728272495
 31
0.0
 70
    32
 71
     5
 42
70.0
 73
     0
 74
     0
 75
     0
  3
tfrom線あり
100
AcDbAlignedDimension
 13
377.865890242397
 23
1099.589345147256
 33
0.0
 14
447.865890242397
 24
1087.623921927409
 34
0.0
 50
-0.0000000000000268
100
AcDbRotatedDimension
  0
DIMENSION
  5
10AA
102
{ACAD_REACTORS
330
10AC
102
}
102
{ACAD_XDICTIONARY
360
10AB
102
}
330
A
100
AcDbEntity
  8
DIM
  6
Continuous
100
AcDbDimension
  2
*D45
 10
792.8658902423974
 20
1149.015347588631
 30
0.0
 11
810.3658902423974
 21
1149.015347588631
 31
0.0
 70
   160
 71
     5
 42
34.99999999999999
 73
     0
 74
     0
 75
     0
  3
tfrom線あり
100
AcDbAlignedDimension
 13
827.8658902423974
 23
1097.589345147256
 33
0.0
 14
792.8658902423974
 24
1086.759498167533
 34
0.0
 50
-0.0000000000000268
100
AcDbRotatedDimension
  0
DIMENSION
  5
10AD
330
A
100
AcDbEntity
  8
DIM
  6
Continuous
100
AcDbDimension
  2
*D46
 10
913.5584081527285
 20
1066.589345147256
 30
0.0
 11
913.5584081527285
 21
1084.589345147256
 31
0.0
 70
   160
 71
     5
 42
36.0
 73
     0
 74
     0
 75
     0
  3
tfrom線あり
100
AcDbAlignedDimension
 13
824.6482912583556
 23
1102.589345147256
 33
0.0
 14
813.0120972839115
 24
1066.589345147256
 34
0.0
 50
89.99999999999999
100
AcDbRotatedDimension
  0
CIRCLE
  5
10AE
330
A
100
AcDbEntity
  8
MODEL
  6
HIDDEN
 48
0.01
100
AcDbCircle
 10
792.8658902423974
 20
1066.589345147256
 30
0.0
 40
3.185626131860098
  0
LINE
  5
10AF
330
A
100
AcDbEntity
  8
MODEL
  6
HIDDEN
 48
0.03
100
AcDbLine
 10
785.7059281870022
 20
1075.02694338971
 30
0.0
 11
800.0258522977927
 21
1075.02694338971
 31
0.0
  0
LINE
  5
10B0
330
A
100
AcDbEntity
  8
MODEL
  6
HIDDEN
 48
0.03
100
AcDbLine
 10
785.7059281870022
 20
1075.02694338971
 30
0.0
 11
785.7059281870022
 21
1042.589345147256
 31
0.0
  0
LINE
  5
10B1
330
A
100
AcDbEntity
  8
MODEL
  6
HIDDEN
 48
0.03
100
AcDbLine
 10
800.0258522977927
 20
1075.02694338971
 30
0.0
 11
800.0258522977927
 21
1042.589345147256
 31
0.0
  0
LINE
  5
10B2
330
A
100
AcDbEntity
  8
MODEL
  6
HIDDEN
 48
0.025
100
AcDbLine
 10
455.0258522977922
 20
1076.783205436118
 30
0.0
 11
455.0258522977922
 21
1058.395484858394
 31
0.0
  0
ELLIPSE
  5
10B3
330
A
100
AcDbEntity
  8
MODEL
  6
HIDDEN
 48
0.025
100
AcDbEllipse
 10
447.865890242397
 20
1058.395484858394
 30
0.0
 11
7.15996205539534
 21
-3.507369845262563E-15
 31
0.0
210
0.0
220
0.0
230
-1.0
 40
0.7209466022103551
 41
0.0
 42
3.141592653589793
  0
LINE
  5
10B4
330
A
100
AcDbEntity
  8
MODEL
  6
HIDDEN
 48
0.025
100
AcDbLine
 10
440.7059281870013
 20
1076.783205436118
 30
0.0
 11
440.7059281870013
 21
1058.395484858394
 31
0.0
  0
MTEXT
  5
10B6
330
A
100
AcDbEntity
  8
MODEL
390
1D
100
AcDbMText
 10
264.2476220152801
 20
1761.633361613053
 30
0.0
 40
24.0
 41
829.0626663944752
 46
29.52329017633032
 71
     1
 72
     1
  1
{\C7;＝φ30もしくはφ35の水栓取付用穴あけ加工を承ります。\P  必要な場合、ご注文の際にご指示ください。}
  7
ＭＳ ゴシック
 73
     1
 44
0.9822934569727008
1001
ACAD
1000
ACAD_MTEXT_DEFINED_HEIGHT_BEGIN
1070
    46
1040
29.52329017633032
1000
ACAD_MTEXT_DEFINED_HEIGHT_END
  0
CIRCLE
  5
10B7
330
A
100
AcDbEntity
  8
MODEL
  6
HIDDEN
 48
0.03
390
1D
100
AcDbCircle
 10
239.4060283964113
 20
1748.286211296587
 30
0.0
 40
11.9063232142867
  0
MTEXT
  5
10B8
330
A
100
AcDbEntity
  8
DIM
 62
     7
390
1D
100
AcDbMText
 10
1338.342415636579
 20
2349.469668286064
 30
0.0
 40
24.0
 41
0.0
 46
0.0
 71
     1
 72
     1
  1
カウンター切込寸法
  7
ＭＳ ゴシック
 73
     1
 44
0.7828267384257843
  0
DIMENSION
  5
10B9
330
A
100
AcDbEntity
  8
DIM
  6
Continuous
100
AcDbDimension
  2
*D47
 10
1786.861832119684
 20
2100.217882566903
 30
0.0
 11
1786.861832119684
 21
2122.717882566903
 31
0.0
 70
   160
 71
     5
 42
44.99999999999999
 73
     0
 74
     0
 75
     0
  3
tfrom線あり
100
AcDbAlignedDimension
 13
1696.38399677036
 23
2145.217882566903
 33
0.0
 14
1709.489877491077
 24
2100.217882566903
 34
0.0
 50
89.99999999999999
100
AcDbRotatedDimension
  0
DIMENSION
  5
10BA
330
A
100
AcDbEntity
  8
DIM
  6
Continuous
100
AcDbDimension
  2
*D48
 10
1786.861832119684
 20
2000.217882566903
 30
0.0
 11
1754.861832119684
 21
2050.217882566903
 31
0.0
 70
    32
 71
     5
 42
100.0
 73
     0
 74
     0
 75
     0
  3
tfrom線あり
100
AcDbAlignedDimension
 13
1597.586428880705
 23
2100.217882566903
 33
0.0
 14
1597.586428880704
 24
2000.217882566903
 34
0.0
 50
89.99999999999999
100
AcDbRotatedDimension
  0
DIMENSION
  5
10BB
330
A
100
AcDbEntity
  8
DIM
  6
Continuous
100
AcDbDimension
  2
*D49
 10
1597.586428880704
 20
1887.863856711639
 30
0.0
 11
1647.586428880704
 21
1919.863856711639
 31
0.0
 70
    32
 71
     5
 42
100.0
 73
     0
 74
     0
 75
     0
  3
tfrom線あり
100
AcDbAlignedDimension
 13
1697.586428880704
 23
1957.711910857858
 33
0.0
 14
1597.586428880704
 24
1948.209007212751
 34
0.0
 50
-0.0000000000000268
100
AcDbRotatedDimension
  0
DIMENSION
  5
10BC
330
A
100
AcDbEntity
  8
DIM
  6
Continuous
100
AcDbDimension
  2
*D50
 10
1297.586428880704
 20
1887.86385671164
 30
0.0
 11
1447.586428880704
 21
1919.86385671164
 31
0.0
 70
    32
 71
     5
 42
300.0
 73
     0
 74
     0
 75
     0
  3
tfrom線あり
100
AcDbAlignedDimension
 13
1597.586428880704
 23
2000.324925900988
 33
0.0
 14
1297.586428880704
 24
2000.457499725567
 34
0.0
 50
-0.0000000000000268
100
AcDbRotatedDimension
  0
LINE
  5
10BD
102
{ACAD_REACTORS
330
10C1
102
}
330
A
100
AcDbEntity
  8
MODEL
  6
Continuous
100
AcDbLine
 10
1297.586428880704
 20
2000.217882566903
 30
0.0
 11
1297.586428880705
 21
2100.217882566903
 31
0.0
  0
LINE
  5
10BE
102
{ACAD_REACTORS
330
10C1
102
}
330
A
100
AcDbEntity
  8
MODEL
  6
Continuous
100
AcDbLine
 10
1597.586428880704
 20
2000.217882566903
 30
0.0
 11
1597.586428880705
 21
2100.217882566903
 31
0.0
  0
LINE
  5
10BF
102
{ACAD_REACTORS
330
10C1
102
}
330
A
100
AcDbEntity
  8
MODEL
  6
Continuous
100
AcDbLine
 10
1597.586428880705
 20
2100.217882566903
 30
0.0
 11
1297.586428880705
 21
2100.217882566903
 31
0.0
  0
LINE
  5
10C0
102
{ACAD_REACTORS
330
10C1
102
}
330
A
100
AcDbEntity
  8
MODEL
  6
Continuous
100
AcDbLine
 10
1597.586428880704
 20
2000.217882566903
 30
0.0
 11
1297.586428880704
 21
2000.217882566903
 31
0.0
  0
HATCH
  5
10C1
330
A
100
AcDbEntity
  8
MODEL
  6
Continuous
100
AcDbHatch
 10
0.0
 20
0.0
 30
0.0
210
0.0
220
0.0
230
1.0
  2
ANSI31
 70
     0
 71
     1
 91
        1
 92
        1
 93
        4
 72
     1
 10
1597.586428880705
 20
2100.217882566903
 11
1297.586428880705
 21
2100.217882566903
 72
     1
 10
1597.586428880704
 20
2000.217882566903
 11
1597.586428880705
 21
2100.217882566903
 72
     1
 10
1597.586428880704
 20
2000.217882566903
 11
1297.586428880704
 21
2000.217882566903
 72
     1
 10
1297.586428880704
 20
2000.217882566903
 11
1297.586428880705
 21
2100.217882566903
 97
        4
330
10BF
330
10BE
330
10C0
330
10BD
 75
     0
 76
     1
 52
359.9999999999998
 41
4.0
 77
     0
 78
     1
 53
404.9999999999999
 43
0.0
 44
0.0
 45
-8.980256121069143
 46
8.980256121069164
 79
     0
 98
        1
 10
405.0894031790656
 20
1286.868967091424
1001
ACAD
1010
0.0
1020
0.0
1030
0.0
  0
LINE
  5
10C2
330
A
100
AcDbEntity
  8
MODEL
  6
HIDDEN
 48
0.025
100
AcDbLine
 10
1425.276897839772
 20
1056.522539068577
 30
0.0
 11
1467.447409824571
 21
1053.398325922034
 31
0.0
  0
ARC
  5
10C3
330
A
100
AcDbEntity
  8
MODEL
  6
HIDDEN
 48
0.025
100
AcDbCircle
 10
1426.265303724121
 20
1061.42387090878
 30
0.0
 40
4.999999999999997
100
AcDbArc
 50
196.7720371847101
 51
258.5986067797378
  0
ARC
  5
10C4
330
A
100
AcDbEntity
  8
MODEL
  6
HIDDEN
 48
0.025
100
AcDbCircle
 10
1408.019343319031
 20
1101.402824164515
 30
0.0
 40
1.249999999999999
100
AcDbArc
 50
10.31711635800509
 51
72.14368595308417
  0
LINE
  5
10C5
330
A
100
AcDbEntity
  8
MODEL
  6
HIDDEN
 48
0.025
100
AcDbLine
 10
1409.249132793067
 20
1101.626694326771
 30
0.0
 11
1421.478001506531
 21
1059.981048162406
 31
0.0
  0
ARC
  5
10C6
330
A
100
AcDbEntity
  8
MODEL
  6
HIDDEN
 48
0.025
100
AcDbCircle
 10
1466.459003940222
 20
1048.496994081831
 30
0.0
 40
5.0
100
AcDbArc
 50
0.0
 51
78.59860677974856
  0
LINE
  5
10C7
330
A
100
AcDbEntity
  8
MODEL
  6
HIDDEN
 48
0.025
100
AcDbLine
 10
1471.459003940222
 20
1032.589345147256
 30
0.0
 11
1471.459003940222
 21
1048.496994081831
 31
0.0
  0
ARC
  5
10C8
330
A
100
AcDbEntity
  8
MODEL
  6
HIDDEN
 48
0.025
100
AcDbCircle
 10
1521.459003940222
 20
1048.496994081831
 30
0.0
 40
5.0
100
AcDbArc
 50
101.4013932202622
 51
180.0
  0
LINE
  5
10C9
330
A
100
AcDbEntity
  8
MODEL
  6
HIDDEN
 48
0.025
100
AcDbLine
 10
1516.459003940222
 20
1032.589345147256
 30
0.0
 11
1516.459003940222
 21
1048.496994081831
 31
0.0
  0
LINE
  5
10CA
330
A
100
AcDbEntity
  8
MODEL
  6
HIDDEN
 48
0.025
100
AcDbLine
 10
1469.331748752646
 20
1052.589345147256
 30
0.0
 11
1518.586259127796
 21
1052.589345147256
 31
0.0
  0
LINE
  5
10CB
330
A
100
AcDbEntity
  8
MODEL
  6
HIDDEN
 48
0.025
100
AcDbLine
 10
1562.641110040671
 20
1056.522539068577
 30
0.0
 11
1520.470598055873
 21
1053.398325922034
 31
0.0
  0
ARC
  5
10CC
330
A
100
AcDbEntity
  8
MODEL
  6
HIDDEN
 48
0.025
100
AcDbCircle
 10
1561.652704156322
 20
1061.42387090878
 30
0.0
 40
4.999999999999997
100
AcDbArc
 50
281.4013932202514
 51
343.2279628152874
  0
LINE
  5
10CD
330
A
100
AcDbEntity
  8
MODEL
  6
HIDDEN
 48
0.025
100
AcDbLine
 10
1578.668875087376
 20
1101.626694326771
 30
0.0
 11
1566.440006373912
 21
1059.981048162406
 31
0.0
  0
ARC
  5
10CE
330
A
100
AcDbEntity
  8
MODEL
  6
HIDDEN
 48
0.05
100
AcDbCircle
 10
1579.898664561413
 20
1101.402824164515
 30
0.0
 40
1.249999999999999
100
AcDbArc
 50
107.8563140470048
 51
169.6828836419949
  0
LINE
  5
10CF
330
A
100
AcDbEntity
  8
MODEL
  6
HIDDEN
 48
0.025
100
AcDbLine
 10
539.7401560477358
 20
1056.519273115814
 30
0.0
 11
643.7294891805066
 21
1053.39505996927
 31
0.0
  0
ARC
  5
10D0
330
A
100
AcDbEntity
  8
MODEL
  6
HIDDEN
 48
0.025
100
AcDbCircle
 10
540.7285619320844
 20
1061.420604956016
 30
0.0
 40
4.999999999999997
100
AcDbArc
 50
196.7720371846883
 51
258.5986067797378
  0
LINE
  5
10D1
330
A
100
AcDbEntity
  8
MODEL
  6
HIDDEN
 48
0.025
100
AcDbLine
 10
523.7123910010307
 20
1101.623428374006
 30
0.0
 11
535.9412597144949
 21
1059.977782209642
 31
0.0
  0
ARC
  5
10D2
330
A
100
AcDbEntity
  8
MODEL
  6
HIDDEN
 48
0.025
100
AcDbCircle
 10
642.7410832961575
 20
1048.493728129069
 30
0.0
 40
5.0
100
AcDbArc
 50
0.0
 51
78.59860677973784
  0
LINE
  5
10D3
330
A
100
AcDbEntity
  8
MODEL
  6
HIDDEN
 48
0.025
100
AcDbLine
 10
645.6060725650239
 20
1052.591512468108
 30
0.0
 11
694.8605829401747
 21
1052.591512468108
 31
0.0
  0
LINE
  5
10D4
330
A
100
AcDbEntity
  8
MODEL
  6
HIDDEN
 48
0.025
100
AcDbLine
 10
647.7410832961584
 20
1032.586079194494
 30
0.0
 11
647.7410832961584
 21
1048.493728129069
 31
0.0
  0
ARC
  5
10D5
330
A
100
AcDbEntity
  8
MODEL
  6
HIDDEN
 48
0.025
100
AcDbCircle
 10
522.4826015269948
 20
1101.399558211751
 30
0.0
 40
1.249999999999999
100
AcDbArc
 50
10.31711635800509
 51
72.14368595308417
  0
ARC
  5
10D6
330
A
100
AcDbEntity
  8
MODEL
  6
HIDDEN
 48
0.025
100
AcDbCircle
 10
697.9907019570089
 20
1048.493728129069
 30
0.0
 40
5.0
100
AcDbArc
 50
101.4013932202622
 51
180.0
  0
LINE
  5
10D7
330
A
100
AcDbEntity
  8
MODEL
  6
HIDDEN
 48
0.025
100
AcDbLine
 10
692.9907019570089
 20
1032.586079194494
 30
0.0
 11
692.9907019570089
 21
1048.493728129069
 31
0.0
  0
LINE
  5
10D8
330
A
100
AcDbEntity
  8
MODEL
  6
HIDDEN
 48
0.025
100
AcDbLine
 10
800.9916292054302
 20
1056.519273115813
 30
0.0
 11
697.0022960726599
 21
1053.39505996927
 31
0.0
  0
ARC
  5
10D9
330
A
100
AcDbEntity
  8
MODEL
  6
HIDDEN
 48
0.025
100
AcDbCircle
 10
800.0032233210811
 20
1061.420604956016
 30
0.0
 40
4.999999999999997
100
AcDbArc
 50
281.4013932202622
 51
343.2279628153117
  0
LINE
  5
10DA
330
A
100
AcDbEntity
  8
MODEL
  6
HIDDEN
 48
0.025
100
AcDbLine
 10
817.0193942521353
 20
1101.623428374006
 30
0.0
 11
804.7905255386711
 21
1059.977782209642
 31
0.0
  0
ARC
  5
10DB
330
A
100
AcDbEntity
  8
MODEL
  6
HIDDEN
 48
0.025
100
AcDbCircle
 10
818.2491837261721
 20
1101.399558211751
 30
0.0
 40
1.249999999999999
100
AcDbArc
 50
107.8563140469619
 51
169.6828836419949
  0
ELLIPSE
  5
10DC
330
A
100
AcDbEntity
  8
MODEL
  6
HIDDEN
 48
0.025
100
AcDbEllipse
 10
447.865890242397
 20
1076.783205436118
 30
0.0
 11
7.15996205539534
 21
0.0
 31
0.0
210
0.0
220
0.0
230
1.0
 40
0.7209466022103551
 41
0.0
 42
3.141592653589793
  0
LINE
  5
10DD
330
A
100
AcDbEntity
  8
DIM
  6
Continuous
100
AcDbLine
 10
447.9345111136547
 20
1067.589345147256
 30
0.0
 11
698.5447900844244
 21
1249.7825117942
 31
0.0
  0
LINE
  5
10DE
330
A
100
AcDbEntity
  8
DIM
  6
Continuous
100
AcDbLine
 10
792.8658902423974
 20
1066.589345147256
 30
0.0
 11
698.5447900844244
 21
1249.7825117942
 31
0.0
  0
MTEXT
  5
10DF
330
A
100
AcDbEntity
  8
DIM
390
1D
100
AcDbMText
 10
707.6852085986427
 20
1286.06447333016
 30
0.0
 40
24.0
 41
542.920144539582
 46
13.64561669921875
 71
     1
 72
     1
  1
{\C7;壁取付ボルト位置(2ヶ所)}
  7
ＭＳ ゴシック
 73
     1
 44
0.9822934569727008
1001
ACAD
1000
ACAD_MTEXT_DEFINED_HEIGHT_BEGIN
1070
    46
1040
13.64561669921875
1000
ACAD_MTEXT_DEFINED_HEIGHT_END
  0
LINE
  5
10E0
330
A
100
AcDbEntity
  8
DIM
  6
Continuous
100
AcDbLine
 10
698.5447900844244
 20
1249.7825117942
 30
0.0
 11
1066.547971326147
 21
1249.7825117942
 31
0.0
  0
MTEXT
  5
11E4
330
A
100
AcDbEntity
  8
TEMPLATE
390
1D
100
AcDbMText
 10
125.2543452760364
 20
186.1258251214523
 30
0.0
 40
24.4326171875
 41
1118.661816684109
 46
25.556517578125
 71
     1
 72
     1
  1
{陶器/ホワイト}
  7
ＭＳ ゴシック
 73
     1
 44
0.7828267384257843
1001
ACAD
1000
ACAD_MTEXT_DEFINED_HEIGHT_BEGIN
1070
    46
1040
25.556517578125
1000
ACAD_MTEXT_DEFINED_HEIGHT_END
  0
MTEXT
  5
11F6
330
A
100
AcDbEntity
  8
TEMPLATE
390
1D
100
AcDbMText
 10
1580.20214454773
 20
230.1492906939282
 30
0.0
 40
24.4326171875
 41
0.0
 46
24.4326171875
 71
     1
 72
     1
  1
{2L}
  7
ＭＳ ゴシック
 73
     1
 44
0.7828267384257843
1001
ACAD
1000
ACAD_MTEXT_DEFINED_HEIGHT_BEGIN
1070
    46
1040
24.4326171875
1000
ACAD_MTEXT_DEFINED_HEIGHT_END
  0
MTEXT
  5
11F7
330
A
100
AcDbEntity
  8
TEMPLATE
390
1D
100
AcDbMText
 10
1329.20214454747
 20
230.1492906939282
 30
0.0
 40
24.4326171875
 41
0.0
 46
28.390701171875
 71
     1
 72
     1
  1
{3.6kg}
  7
ＭＳ ゴシック
 73
     1
 44
0.7828267384257843
1001
ACAD
1000
ACAD_MTEXT_DEFINED_HEIGHT_BEGIN
1070
    46
1040
28.390701171875
1000
ACAD_MTEXT_DEFINED_HEIGHT_END
  0
DIMENSION
  5
1221
330
A
100
AcDbEntity
  8
DIM
  6
Continuous
100
AcDbDimension
  2
*D51
 10
522.865890242397
 20
1878.899624494447
 30
0.0
 11
450.3658902423972
 21
1910.899624494447
 31
0.0
 70
    32
 71
     5
 42
144.9999999999995
 73
     0
 74
     0
 75
     0
 52
-90.0
  3
tfrom線あり
100
AcDbAlignedDimension
 13
377.8658902423974
 23
1958.296467320507
 33
0.0
 14
522.865890242397
 24
1955.217882566903
 34
0.0
 50
0.0000000000000268
100
AcDbRotatedDimension
1001
ACAD
1000
DSTYLE
1002
{
1070
   271
1070
     0
1002
}
  0
DIMENSION
  5
1234
330
A
100
AcDbEntity
  8
DIM
  6
Continuous
100
AcDbDimension
  2
*D52
 10
377.8658902423974
 20
2195.008869131116
 30
0.0
 11
420.3658902423974
 21
2227.008869131116
 31
0.0
 70
    32
 71
     5
 42
84.99999999999996
 73
     0
 74
     0
 75
     0
 52
-90.0
  3
tfrom線あり
100
AcDbAlignedDimension
 13
462.8658902423974
 23
2065.37698936267
 33
0.0
 14
377.8658902423974
 24
2142.563742726482
 34
0.0
 50
0.0000000000000268
100
AcDbRotatedDimension
  0
DIMENSION
  5
129A
330
A
100
AcDbEntity
  8
DIM
  6
Continuous
100
AcDbDimension
  2
*D54
 10
977.9694368124132
 20
1955.217882566903
 30
0.0
 11
977.969436812413
 21
2050.217882566904
 31
0.0
 70
   160
 71
     5
 42
190.0000000000009
 73
     0
 74
     0
 75
     0
 52
-270.0
  3
tfrom線あり
100
AcDbAlignedDimension
 13
824.9775156706107
 23
2145.217882566904
 33
0.0
 14
824.8781231804124
 24
1955.217882566903
 34
0.0
 50
90.00000000000001
100
AcDbRotatedDimension
  0
DIMENSION
  5
12A7
330
A
100
AcDbEntity
  8
DIM
  6
Continuous
100
AcDbDimension
  2
*D55
 10
306.880289355575
 20
2135.217882566903
 30
0.0
 11
274.880289355575
 21
2050.217882566903
 31
0.0
 70
    32
 71
     5
 42
170.0
 73
     0
 74
     0
 75
     0
 52
-90.00000000000001
  3
tfrom線あり
100
AcDbAlignedDimension
 13
522.865890242397
 23
1965.217882566903
 33
0.0
 14
523.1530527960293
 24
2135.217882566903
 34
0.0
 50
90.00000000000001
100
AcDbRotatedDimension
  0
CIRCLE
  5
1383
330
A
100
AcDbEntity
  8
MODEL
100
AcDbCircle
 10
670.3658902423974
 20
2050.217882566903
 30
0.0
 40
27.46172080557267
  0
LINE
  5
13EC
330
A
100
AcDbEntity
  8
DIM
  6
CENTER
 48
0.009
370
     0
100
AcDbLine
 10
447.865890242397
 20
1087.661779753172
 30
0.0
 11
447.865890242397
 21
1047.51691054134
 31
0.0
  0
LINE
  5
13EE
330
A
100
AcDbEntity
  8
DIM
  6
CENTER
 48
0.009
370
     0
100
AcDbLine
 10
467.9383248483131
 20
1067.589345147256
 30
0.0
 11
427.7934556364809
 21
1067.589345147256
 31
0.0
  0
LINE
  5
1425
102
{ACAD_REACTORS
330
1427
102
}
330
A
100
AcDbEntity
  8
DIM
  6
CENTER
 48
0.009
370
     0
100
AcDbLine
 10
792.8658902423974
 20
1086.661779753172
 30
0.0
 11
792.8658902423974
 21
1046.51691054134
 31
0.0
  0
LINE
  5
1426
102
{ACAD_REACTORS
330
1427
102
}
330
A
100
AcDbEntity
  8
DIM
  6
CENTER
 48
0.009
370
     0
100
AcDbLine
 10
812.9383248483135
 20
1066.589345147256
 30
0.0
 11
772.7934556364813
 21
1066.589345147256
 31
0.0
  0
DIMENSION
  5
142E
330
A
100
AcDbEntity
  8
DIM
  6
Continuous
100
AcDbDimension
  2
*D57
 10
669.865890242397
 20
965.9756491466544
 30
0.0
 11
523.865890242397
 21
997.9756491466544
 31
0.0
 70
    32
 71
     5
 42
292.0
 73
     0
 74
     0
 75
     0
  3
tfrom線あり
100
AcDbAlignedDimension
 13
377.865890242397
 23
1045.589345147256
 33
0.0
 14
669.865890242397
 24
1032.589345370774
 34
0.0
100
AcDbRotatedDimension
  0
DIMENSION
  5
145F
330
A
100
AcDbEntity
  8
DIM
  6
Continuous
100
AcDbDimension
  2
*D58
 10
898.0700336065439
 20
2050.217882566903
 30
0.0
 11
866.0700336065439
 21
2097.717882566903
 31
0.0
 70
    32
 71
     5
 42
95.00000000000001
 73
     0
 74
     0
 75
     0
  3
tfrom線あり
100
AcDbAlignedDimension
 13
824.3052300706238
 23
2145.217882566903
 33
0.0
 14
698.0256018762939
 24
2050.217882566903
 34
0.0
 50
90.0
100
AcDbRotatedDimension
  0
VIEWPORT
  5
349
330
B
100
AcDbEntity
 67
     1
  8
0
100
AcDbViewport
 10
202.5
 20
128.5
 30
0.0
 40
486.0
 41
308.4
 68
     1
 69
     1
 12
202.5
 22
128.5
 13
0.0
 23
0.0
 14
0.5
 24
0.5
 15
0.0
 25
0.0
 16
0.0
 26
0.0
 36
1.0
 17
0.0
 27
0.0
 37
0.0
 42
50.0
 43
0.0
 44
0.0
 45
308.4
 50
0.0
 51
0.0
 72
   100
 90
   557152
  1

281
     0
 71
     1
 74
     0
110
0.0
120
0.0
130
0.0
111
1.0
121
0.0
131
0.0
112
0.0
122
1.0
132
0.0
 79
     0
146
0.0
170
     0
 61
     5
348
26C
292
     1
282
     1
141
0.0
142
0.0
 63
   256
  0
VIEWPORT
  5
34A
330
B
100
AcDbEntity
 67
     1
  8
0
100
AcDbViewport
 10
202.5
 20
128.5
 30
0.0
 40
324.0
 41
205.6
 68
     2
 69
     2
 12
986.6781359294573
 22
1427.077061889956
 13
0.0
 23
0.0
 14
0.5
 24
0.5
 15
0.0
 25
0.0
 16
0.0
 26
0.0
 36
1.0
 17
0.0
 27
0.0
 37
0.0
 42
50.0
 43
0.0
 44
0.0
 45
2890.021615685494
 50
0.0
 51
0.0
 72
   100
 90
   557152
  1

281
     0
 71
     1
 74
     0
110
0.0
120
0.0
130
0.0
111
1.0
121
0.0
131
0.0
112
0.0
122
1.0
132
0.0
 79
     0
146
0.0
170
     0
 61
     5
348
26C
292
     1
282
     1
141
0.0
142
0.0
 63
   256
  0
ENDSEC
  0
SECTION
  2
OBJECTS
  0
DICTIONARY
  5
19
330
0
100
AcDbDictionary
281
     1
  3
ACAD_COLOR
350
674
  3
ACAD_DETAILVIEWSTYLE
350
BBF
  3
ACAD_GROUP
350
1A
  3
ACAD_IMAGE_VARS
350
27B
  3
ACAD_LAYOUT
350
1E
  3
ACAD_MATERIAL
350
263
  3
ACAD_MLEADERSTYLE
350
336
  3
ACAD_MLINESTYLE
350
1B
  3
ACAD_PLOTSETTINGS
350
22
  3
ACAD_PLOTSTYLENAME
350
1F
  3
ACAD_SCALELIST
350
241
  3
ACAD_SECTIONVIEWSTYLE
350
BC0
  3
ACAD_TABLESTYLE
350
278
  3
ACAD_VISUALSTYLE
350
267
  3
ACDB_RECOMPOSE_DATA
350
1498
  3
AcDbVariableDictionary
350
330
  3
APPDATA
350
27A
  3
DimOffsetDictionary
350
132E
  0
SUN
  5
904
330
15
100
AcDbSun
 90
        1
290
     0
 63
     7
421
 16777215
 40
1.0
291
     1
 91
  2455826
 92
 54000000
292
     0
 70
     2
 71
   256
280
     1
  0
DICTIONARY
  5
2E1
330
2
100
AcDbDictionary
280
     1
281
     1
  3
ACAD_LAYERSTATES
360
2E2
  3
ACLYDICTIONARY
360
D22
  0
DICTIONARY
  5
10AB
330
10AA
100
AcDbDictionary
280
     1
281
     1
  3
ACAD_DIMASSOC
360
10AC
  0
DICTIONARY
  5
674
102
{ACAD_REACTORS
330
19
102
}
330
19
100
AcDbDictionary
281
     1
  0
DICTIONARY
  5
BBF
102
{ACAD_REACTORS
330
19
102
}
330
19
100
AcDbDictionary
281
     1
  0
DICTIONARY
  5
1A
102
{ACAD_REACTORS
330
19
102
}
330
19
100
AcDbDictionary
281
     1
  3
*A1
350
1427
  0
RASTERVARIABLES
  5
27B
102
{ACAD_REACTORS
330
19
102
}
330
19
100
AcDbRasterVariables
 90
        0
 70
     1
 71
     1
 72
     1
  0
DICTIONARY
  5
1E
102
{ACAD_REACTORS
330
19
102
}
330
19
100
AcDbDictionary
281
     1
  3
Layout1
350
21
  3
Model
350
20
  0
DICTIONARY
  5
263
102
{ACAD_REACTORS
330
19
102
}
330
19
100
AcDbDictionary
281
     1
  3
ByBlock
350
265
  3
ByLayer
350
264
  3
Global
350
266
  0
DICTIONARY
  5
336
102
{ACAD_REACTORS
330
19
102
}
330
19
100
AcDbDictionary
281
     1
  3
Standard
350
DAB
  0
DICTIONARY
  5
1B
102
{ACAD_REACTORS
330
19
102
}
330
19
100
AcDbDictionary
281
     1
  3
Standard
350
1C
  0
DICTIONARY
  5
22
102
{ACAD_REACTORS
330
19
102
}
330
19
100
AcDbDictionary
281
     1
  0
ACDBDICTIONARYWDFLT
  5
1F
102
{ACAD_REACTORS
330
19
102
}
330
19
100
AcDbDictionary
281
     1
  3
Normal
350
1D
100
AcDbDictionaryWithDefault
340
1D
  0
DICTIONARY
  5
241
102
{ACAD_REACTORS
330
19
102
}
330
19
100
AcDbDictionary
281
     1
  3
A0
350
242
  3
A1
350
243
  3
A2
350
244
  3
A3
350
245
  3
A4
350
246
  3
A5
350
247
  3
A6
350
248
  3
A7
350
249
  3
A8
350
24A
  3
A9
350
24B
  3
B0
350
24C
  3
B1
350
24D
  3
B2
350
24E
  3
B3
350
24F
  3
B4
350
250
  3
B5
350
251
  3
B6
350
252
  3
B7
350
253
  3
B8
350
254
  3
B9
350
255
  3
C0
350
256
  3
C1
350
257
  3
C2
350
258
  3
C3
350
259
  3
C4
350
25A
  3
C5
350
25B
  3
C6
350
25C
  3
C7
350
25D
  3
C8
350
25E
  3
C9
350
25F
  3
D0
350
260
  3
D1
350
261
  3
D2
350
262
  0
DICTIONARY
  5
BC0
102
{ACAD_REACTORS
330
19
102
}
330
19
100
AcDbDictionary
281
     1
  0
DICTIONARY
  5
278
102
{ACAD_REACTORS
330
19
102
}
330
19
100
AcDbDictionary
281
     1
  3
Standard
350
279
  0
DICTIONARY
  5
267
102
{ACAD_REACTORS
330
19
102
}
330
19
100
AcDbDictionary
281
     1
  3
2dWireframe
350
26C
  3
3D Hidden
350
26E
  3
3dWireframe
350
26D
  3
Basic
350
26F
  3
Brighten
350
273
  3
ColorChange
350
277
  3
Conceptual
350
271
  3
Dim
350
272
  3
EdgeColorOff
350
8FE
  3
Facepattern
350
276
  3
Flat
350
268
  3
FlatWithEdges
350
269
  3
Gouraud
350
26A
  3
GouraudWithEdges
350
26B
  3
Hidden
350
8FB
  3
JitterOff
350
8FC
  3
Linepattern
350
275
  3
OverhangOff
350
8FD
  3
Realistic
350
270
  3
Shaded
350
903
  3
Shaded with edges
350
902
  3
Shades of Gray
350
8FF
  3
Sketchy
350
900
  3
Thicken
350
274
  3
Wireframe
350
8FA
  3
X-Ray
350
901
  0
XRECORD
  5
1498
102
{ACAD_REACTORS
330
19
102
}
330
19
100
AcDbXrecord
280
     1
 90
        1
330
279
  0
DICTIONARY
  5
330
102
{ACAD_REACTORS
330
19
102
}
330
19
100
AcDbDictionary
281
     1
  3
CANNOSCALE
350
331
  3
CMLEADERSTYLE
350
11E9
  3
CTABLESTYLE
350
335
  3
HPTRANSPARENCY
350
D52
  3
XCLIPFRAME
350
896
  0
DICTIONARY
  5
27A
102
{ACAD_REACTORS
330
19
102
}
330
19
100
AcDbDictionary
281
     1
  0
DICTIONARY
  5
132E
102
{ACAD_REACTORS
330
19
102
}
330
19
100
AcDbDictionary
281
     1
  3
DIMRAILANGLE
350
1331
  3
DIMRAILFIRSTOFFSET
350
132F
  3
DIMRAILOFFSET
350
1330
  3
DIMRAILSENABLED
350
1332
  0
DICTIONARY
  5
2E2
102
{ACAD_REACTORS
330
2E1
102
}
330
2E1
100
AcDbDictionary
281
     1
  3
ARGON_LAYERP_9
350
7AA
  0
DICTIONARY
  5
D22
102
{ACAD_REACTORS
330
2E1
102
}
330
2E1
100
AcDbDictionary
281
     1
1001
ACAD
1000
<All
  0
DIMASSOC
  5
10AC
102
{ACAD_REACTORS
330
10AB
102
}
330
10AB
100
AcDbDimAssoc
330
10AA
 90
        1
 70
     0
 71
     1
  1
AcDbOsnapPointRef
 72
     1
331
101D
 73
     0
 91
        0
 40
0.0
 10
0.0
 20
0.0
 30
0.0
 75
     0
  0
GROUP
  5
1427
102
{ACAD_REACTORS
330
1A
102
}
330
1A
100
AcDbGroup
300

 70
     1
 71
     1
340
1425
340
1426
  0
LAYOUT
  5
21
102
{ACAD_REACTORS
330
1E
102
}
330
1E
100
AcDbPlotSettings
  1

  2
none_device
  4
ISO_A3_(420.00_x_297.00_MM)
  6

 40
7.5
 41
20.0
 42
7.5
 43
20.0
 44
420.0
 45
297.0
 46
0.0
 47
0.0
 48
0.0
 49
0.0
140
0.0
141
0.0
142
1.0
143
1.0
 70
     0
 72
     1
 73
     0
 74
     0
  7

 75
     0
 76
     0
 77
     2
 78
   300
147
1.0
148
0.0
149
0.0
100
AcDbLayout
  1
Layout1
 70
     0
 71
     0
 10
-7.5
 20
-20.0
 11
412.5
 21
277.0
 12
0.0
 22
0.0
 32
0.0
 14
0.0
 24
0.0
 34
0.0
 15
0.0
 25
0.0
 35
0.0
146
0.0
 13
0.0
 23
0.0
 33
0.0
 16
0.0
 26
0.0
 36
0.0
 17
0.0
 27
0.0
 37
0.0
 76
     0
330
B
331
349
  0
LAYOUT
  5
20
102
{ACAD_REACTORS
330
1E
102
}
330
1E
100
AcDbPlotSettings
  1

  2
none_device
  4
ISO_A3_(420.00_x_297.00_MM)
  6

 40
7.5
 41
20.0
 42
7.5
 43
20.0
 44
420.0
 45
297.0
 46
0.0
 47
0.0
 48
0.0
 49
0.0
140
0.0
141
0.0
142
1.0
143
1.0
 70
  1024
 72
     1
 73
     0
 74
     0
  7

 75
     0
 76
     0
 77
     2
 78
   300
147
1.0
148
0.0
149
0.0
100
AcDbLayout
  1
Model
 70
     0
 71
     1
 10
0.0
 20
0.0
 11
2100.0
 21
2970.0
 12
0.0
 22
0.0
 32
0.0
 14
0.0
 24
0.0
 34
-0.0000000000000071
 15
2100.0
 25
2970.000000000002
 35
0.0000000000000071
146
0.0
 13
0.0
 23
0.0
 33
0.0
 16
0.0
 26
0.0
 36
0.0
 17
0.0
 27
0.0
 37
0.0
 76
     0
330
A
331
15
  0
MATERIAL
  5
265
102
{ACAD_REACTORS
330
263
102
}
330
263
100
AcDbMaterial
  1
ByBlock
 72
     1
 94
      127
  0
MATERIAL
  5
264
102
{ACAD_REACTORS
330
263
102
}
330
263
100
AcDbMaterial
  1
ByLayer
 72
     1
 94
      127
  0
MATERIAL
  5
266
102
{ACAD_REACTORS
330
263
102
}
330
263
100
AcDbMaterial
  1
Global
 72
     1
 94
      127
  0
MLEADERSTYLE
  5
DAB
102
{ACAD_REACTORS
330
336
102
}
330
336
100
AcDbMLeaderStyle
170
     2
171
     1
172
     0
 90
        2
 40
0.0
 41
0.0
173
     1
 91
-1056964608
340
11
 92
       -2
290
     1
 42
2.0
291
     1
 43
8.0
  3
Standard
341
0
 44
4.0
300

342
17
174
     1
178
     6
175
     1
176
     0
 93
-1056964608
 45
4.0
292
     0
297
     0
 46
4.0
343
0
 94
-1056964608
 47
1.0
 49
1.0
140
1.0
293
     1
141
0.0
294
     1
177
     0
142
1.0
295
     0
296
     0
143
3.75
1001
ACAD_MLEADERVER
1070
     2
  0
MLINESTYLE
  5
1C
102
{ACAD_REACTORS
330
1B
102
}
330
1B
100
AcDbMlineStyle
  2
Standard
 70
     0
  3

 62
     0
 51
90.0
 52
90.0
 71
     2
 49
0.5
 62
   256
  6
BYLAYER
 49
-0.5
 62
   256
  6
BYLAYER
  0
ACDBPLACEHOLDER
  5
1D
102
{ACAD_REACTORS
330
1F
102
}
330
1F
  0
SCALE
  5
242
102
{ACAD_REACTORS
330
241
102
}
330
241
100
AcDbScale
 70
     0
300
1:1
140
1.0
141
1.0
290
     1
  0
SCALE
  5
243
102
{ACAD_REACTORS
330
241
102
}
330
241
100
AcDbScale
 70
     0
300
1:2
140
1.0
141
2.0
290
     0
  0
SCALE
  5
244
102
{ACAD_REACTORS
330
241
102
}
330
241
100
AcDbScale
 70
     0
300
1:4
140
1.0
141
4.0
290
     0
  0
SCALE
  5
245
102
{ACAD_REACTORS
330
241
102
}
330
241
100
AcDbScale
 70
     0
300
1:5
140
1.0
141
5.0
290
     0
  0
SCALE
  5
246
102
{ACAD_REACTORS
330
241
102
}
330
241
100
AcDbScale
 70
     0
300
1:8
140
1.0
141
8.0
290
     0
  0
SCALE
  5
247
102
{ACAD_REACTORS
330
241
102
}
330
241
100
AcDbScale
 70
     0
300
1:10
140
1.0
141
10.0
290
     0
  0
SCALE
  5
248
102
{ACAD_REACTORS
330
241
102
}
330
241
100
AcDbScale
 70
     0
300
1:16
140
1.0
141
16.0
290
     0
  0
SCALE
  5
249
102
{ACAD_REACTORS
330
241
102
}
330
241
100
AcDbScale
 70
     0
300
1:20
140
1.0
141
20.0
290
     0
  0
SCALE
  5
24A
102
{ACAD_REACTORS
330
241
102
}
330
241
100
AcDbScale
 70
     0
300
1:30
140
1.0
141
30.0
290
     0
  0
SCALE
  5
24B
102
{ACAD_REACTORS
330
241
102
}
330
241
100
AcDbScale
 70
     0
300
1:40
140
1.0
141
40.0
290
     0
  0
SCALE
  5
24C
102
{ACAD_REACTORS
330
241
102
}
330
241
100
AcDbScale
 70
     0
300
1:50
140
1.0
141
50.0
290
     0
  0
SCALE
  5
24D
102
{ACAD_REACTORS
330
241
102
}
330
241
100
AcDbScale
 70
     0
300
1:100
140
1.0
141
100.0
290
     0
  0
SCALE
  5
24E
102
{ACAD_REACTORS
330
241
102
}
330
241
100
AcDbScale
 70
     0
300
2:1
140
2.0
141
1.0
290
     0
  0
SCALE
  5
24F
102
{ACAD_REACTORS
330
241
102
}
330
241
100
AcDbScale
 70
     0
300
4:1
140
4.0
141
1.0
290
     0
  0
SCALE
  5
250
102
{ACAD_REACTORS
330
241
102
}
330
241
100
AcDbScale
 70
     0
300
8:1
140
8.0
141
1.0
290
     0
  0
SCALE
  5
251
102
{ACAD_REACTORS
330
241
102
}
330
241
100
AcDbScale
 70
     0
300
10:1
140
10.0
141
1.0
290
     0
  0
SCALE
  5
252
102
{ACAD_REACTORS
330
241
102
}
330
241
100
AcDbScale
 70
     0
300
100:1
140
100.0
141
1.0
290
     0
  0
SCALE
  5
253
102
{ACAD_REACTORS
330
241
102
}
330
241
100
AcDbScale
 70
     0
300
1/128" = 1'-0"
140
0.0078125
141
12.0
290
     0
  0
SCALE
  5
254
102
{ACAD_REACTORS
330
241
102
}
330
241
100
AcDbScale
 70
     0
300
1/64" = 1'-0"
140
0.015625
141
12.0
290
     0
  0
SCALE
  5
255
102
{ACAD_REACTORS
330
241
102
}
330
241
100
AcDbScale
 70
     0
300
1/32" = 1'-0"
140
0.03125
141
12.0
290
     0
  0
SCALE
  5
256
102
{ACAD_REACTORS
330
241
102
}
330
241
100
AcDbScale
 70
     0
300
1/16" = 1'-0"
140
0.0625
141
12.0
290
     0
  0
SCALE
  5
257
102
{ACAD_REACTORS
330
241
102
}
330
241
100
AcDbScale
 70
     0
300
3/32" = 1'-0"
140
0.09375
141
12.0
290
     0
  0
SCALE
  5
258
102
{ACAD_REACTORS
330
241
102
}
330
241
100
AcDbScale
 70
     0
300
1/8" = 1'-0"
140
0.125
141
12.0
290
     0
  0
SCALE
  5
259
102
{ACAD_REACTORS
330
241
102
}
330
241
100
AcDbScale
 70
     0
300
3/16" = 1'-0"
140
0.1875
141
12.0
290
     0
  0
SCALE
  5
25A
102
{ACAD_REACTORS
330
241
102
}
330
241
100
AcDbScale
 70
     0
300
1/4" = 1'-0"
140
0.25
141
12.0
290
     0
  0
SCALE
  5
25B
102
{ACAD_REACTORS
330
241
102
}
330
241
100
AcDbScale
 70
     0
300
3/8" = 1'-0"
140
0.375
141
12.0
290
     0
  0
SCALE
  5
25C
102
{ACAD_REACTORS
330
241
102
}
330
241
100
AcDbScale
 70
     0
300
1/2" = 1'-0"
140
0.5
141
12.0
290
     0
  0
SCALE
  5
25D
102
{ACAD_REACTORS
330
241
102
}
330
241
100
AcDbScale
 70
     0
300
3/4" = 1'-0"
140
0.75
141
12.0
290
     0
  0
SCALE
  5
25E
102
{ACAD_REACTORS
330
241
102
}
330
241
100
AcDbScale
 70
     0
300
1" = 1'-0"
140
1.0
141
12.0
290
     0
  0
SCALE
  5
25F
102
{ACAD_REACTORS
330
241
102
}
330
241
100
AcDbScale
 70
     0
300
1-1/2" = 1'-0"
140
1.5
141
12.0
290
     0
  0
SCALE
  5
260
102
{ACAD_REACTORS
330
241
102
}
330
241
100
AcDbScale
 70
     0
300
3" = 1'-0"
140
3.0
141
12.0
290
     0
  0
SCALE
  5
261
102
{ACAD_REACTORS
330
241
102
}
330
241
100
AcDbScale
 70
     0
300
6" = 1'-0"
140
6.0
141
12.0
290
     0
  0
SCALE
  5
262
102
{ACAD_REACTORS
330
241
102
}
330
241
100
AcDbScale
 70
     0
300
1'-0" = 1'-0"
140
12.0
141
12.0
290
     0
  0
TABLESTYLE
  5
279
102
{ACAD_REACTORS
330
278
102
}
102
{ACAD_XDICTIONARY
360
1496
102
}
330
278
100
AcDbTableStyle
  3
Standard
 70
     0
 71
     0
 40
0.06
 41
0.06
280
     0
281
     0
  7
Standard
140
4.5
170
     2
 62
     0
 63
   257
283
     0
 90
        4
 91
        0
  1

274
    -2
284
     1
 64
     0
275
    -2
285
     1
 65
     0
276
    -2
286
     1
 66
     0
277
    -2
287
     1
 67
     0
278
    -2
288
     1
 68
     0
279
    -2
289
     1
 69
     0
  7
Standard
140
6.0
170
     5
 62
     0
 63
   257
283
     0
 90
        4
 91
        0
  1

274
    -2
284
     1
 64
     0
275
    -2
285
     1
 65
     0
276
    -2
286
     1
 66
     0
277
    -2
287
     1
 67
     0
278
    -2
288
     1
 68
     0
279
    -2
289
     1
 69
     0
  7
Standard
140
4.5
170
     5
 62
     0
 63
   257
283
     0
 90
        4
 91
        0
  1

274
    -2
284
     1
 64
     0
275
    -2
285
     1
 65
     0
276
    -2
286
     1
 66
     0
277
    -2
287
     1
 67
     0
278
    -2
288
     1
 68
     0
279
    -2
289
     1
 69
     0
  0
VISUALSTYLE
  5
26C
102
{ACAD_REACTORS
330
267
102
}
330
267
100
AcDbVisualStyle
  2
2dWireframe
 70
     4
 71
     0
 72
     2
 73
     0
 90
        0
 40
-0.6
 41
-30.0
 62
     5
 63
     7
421
 16777215
 74
     1
 91
        4
 64
     7
 65
   257
 75
     1
175
     1
 42
1.0
 92
        0
 66
   257
 43
1.0
 76
     1
 77
     6
 78
     2
 67
     7
 79
     5
170
     0
171
     0
290
     0
174
     0
 93
        1
 44
0.0
173
     0
291
     0
 45
0.0
  0
VISUALSTYLE
  5
26E
102
{ACAD_REACTORS
330
267
102
}
330
267
100
AcDbVisualStyle
  2
3D Hidden
 70
     6
 71
     1
 72
     2
 73
     2
 90
        0
 40
-0.6
 41
-30.0
 62
     5
 63
     7
421
 16777215
 74
     2
 91
        2
 64
     7
 65
   257
 75
     2
175
     1
 42
40.0
 92
        0
 66
   257
 43
1.0
 76
     1
 77
     6
 78
     2
 67
     7
 79
     3
170
     0
171
     0
290
     0
174
     0
 93
        1
 44
0.0
173
     0
291
     0
 45
0.0
  0
VISUALSTYLE
  5
26D
102
{ACAD_REACTORS
330
267
102
}
330
267
100
AcDbVisualStyle
  2
3dWireframe
 70
     5
 71
     0
 72
     2
 73
     0
 90
        0
 40
-0.6
 41
-30.0
 62
     5
 63
     7
421
 16777215
 74
     1
 91
        4
 64
     7
 65
   257
 75
     1
175
     1
 42
1.0
 92
        0
 66
   257
 43
1.0
 76
     1
 77
     6
 78
     2
 67
     7
 79
     5
170
     0
171
     0
290
     0
174
     0
 93
        1
 44
0.0
173
     0
291
     0
 45
0.0
  0
VISUALSTYLE
  5
26F
102
{ACAD_REACTORS
330
267
102
}
330
267
100
AcDbVisualStyle
  2
Basic
 70
     7
 71
     1
 72
     0
 73
     1
 90
        0
 40
-0.6
 41
-30.0
 62
     5
 63
     7
421
 16777215
 74
     0
 91
        4
 64
     7
 65
   257
 75
     1
175
     1
 42
1.0
 92
        8
 66
     7
 43
1.0
 76
     1
 77
     6
 78
     2
 67
     7
 79
     5
170
     0
171
     0
290
     0
174
     0
 93
        1
 44
0.0
173
     0
291
     1
 45
0.0
  0
VISUALSTYLE
  5
273
102
{ACAD_REACTORS
330
267
102
}
330
267
100
AcDbVisualStyle
  2
Brighten
 70
    12
 71
     2
 72
     2
 73
     0
 90
        0
 40
-0.6
 41
-30.0
 62
     5
 63
     7
421
 16777215
 74
     1
 91
        4
 64
     7
 65
   257
 75
     1
175
     1
 42
1.0
 92
        8
 66
     7
 43
1.0
 76
     1
 77
     6
 78
     2
 67
     7
 79
     5
170
     0
171
     0
290
     0
174
     0
 93
        1
 44
50.0
173
     0
291
     1
 45
0.0
  0
VISUALSTYLE
  5
277
102
{ACAD_REACTORS
330
267
102
}
330
267
100
AcDbVisualStyle
  2
ColorChange
 70
    16
 71
     2
 72
     2
 73
     3
 90
        0
 40
-0.6
 41
-30.0
 62
     5
 63
     8
421
  8421504
 74
     1
 91
        4
 64
     7
 65
   257
 75
     1
175
     1
 42
1.0
 92
        8
 66
     8
424
  8421504
 43
1.0
 76
     1
 77
     6
 78
     2
 67
     7
 79
     5
170
     0
171
     0
290
     0
174
     0
 93
        1
 44
0.0
173
     0
291
     1
 45
0.0
  0
VISUALSTYLE
  5
271
102
{ACAD_REACTORS
330
267
102
}
330
267
100
AcDbVisualStyle
  2
Conceptual
 70
     9
 71
     3
 72
     2
 73
     0
 90
        0
 40
-0.6
 41
-30.0
 62
     5
 63
     7
421
 16777215
 74
     2
 91
        2
 64
     7
 65
   257
 75
     1
175
     1
 42
40.0
 92
        8
 66
     7
 43
1.0
 76
     1
 77
     6
 78
     2
 67
     7
 79
     3
170
     0
171
     0
290
     0
174
     0
 93
        1
 44
0.0
173
     0
291
     0
 45
0.0
  0
VISUALSTYLE
  5
272
102
{ACAD_REACTORS
330
267
102
}
330
267
100
AcDbVisualStyle
  2
Dim
 70
    11
 71
     2
 72
     2
 73
     0
 90
        0
 40
-0.6
 41
-30.0
 62
     5
 63
     7
421
 16777215
 74
     1
 91
        4
 64
     7
 65
   257
 75
     1
175
     1
 42
1.0
 92
        8
 66
     7
 43
1.0
 76
     1
 77
     6
 78
     2
 67
     7
 79
     5
170
     0
171
     0
290
     0
174
     0
 93
        1
 44
-50.0
173
     0
291
     1
 45
0.0
  0
VISUALSTYLE
  5
8FE
102
{ACAD_REACTORS
330
267
102
}
330
267
100
AcDbVisualStyle
  2
EdgeColorOff
 70
    22
 71
     2
 72
     2
 73
     0
 90
        0
 40
0.6
 41
30.0
 62
     5
 63
     7
421
 16777215
 74
     1
 91
        4
 64
     7
 65
   257
 75
     1
175
     1
 42
1.0
 92
        8
 66
     7
 43
1.0
 76
     1
 77
     6
 78
     2
 67
     7
 79
     5
170
     0
171
     0
290
     0
174
     0
 93
        1
 44
0.0
173
     0
291
     1
 45
0.0
  0
VISUALSTYLE
  5
276
102
{ACAD_REACTORS
330
267
102
}
330
267
100
AcDbVisualStyle
  2
Facepattern
 70
    15
 71
     2
 72
     2
 73
     0
 90
        0
 40
-0.6
 41
-30.0
 62
     5
 63
     7
421
 16777215
 74
     1
 91
        4
 64
     7
 65
   257
 75
     1
175
     1
 42
1.0
 92
        8
 66
     7
 43
1.0
 76
     1
 77
     6
 78
     2
 67
     7
 79
     5
170
     0
171
     0
290
     0
174
     0
 93
        1
 44
0.0
173
     0
291
     1
 45
0.0
  0
VISUALSTYLE
  5
268
102
{ACAD_REACTORS
330
267
102
}
330
267
100
AcDbVisualStyle
  2
Flat
 70
     0
 71
     2
 72
     1
 73
     1
 90
        2
 40
-0.6
 41
30.0
 62
     5
 63
     7
421
 16777215
 74
     0
 91
        4
 64
     7
 65
   257
 75
     1
175
     1
 42
1.0
 92
        8
 66
     7
 43
1.0
 76
     1
 77
     6
 78
     2
 67
     7
 79
     5
170
     0
171
     0
290
     0
174
     0
 93
       13
 44
0.0
173
     0
291
     1
 45
0.0
  0
VISUALSTYLE
  5
269
102
{ACAD_REACTORS
330
267
102
}
330
267
100
AcDbVisualStyle
  2
FlatWithEdges
 70
     1
 71
     2
 72
     1
 73
     1
 90
        2
 40
-0.6
 41
30.0
 62
     5
 63
     7
421
 16777215
 74
     1
 91
        4
 64
     7
 65
   257
 75
     1
175
     1
 42
1.0
 92
        0
 66
   257
 43
1.0
 76
     1
 77
     6
 78
     2
 67
     7
 79
     5
170
     0
171
     0
290
     0
174
     0
 93
       13
 44
0.0
173
     0
291
     1
 45
0.0
  0
VISUALSTYLE
  5
26A
102
{ACAD_REACTORS
330
267
102
}
330
267
100
AcDbVisualStyle
  2
Gouraud
 70
     2
 71
     2
 72
     2
 73
     1
 90
        2
 40
-0.6
 41
30.0
 62
     5
 63
     7
421
 16777215
 74
     0
 91
        4
 64
     7
 65
   257
 75
     1
175
     1
 42
1.0
 92
        0
 66
     7
 43
1.0
 76
     1
 77
     6
 78
     2
 67
     7
 79
     5
170
     0
171
     0
290
     0
174
     0
 93
       13
 44
0.0
173
     0
291
     1
 45
0.0
  0
VISUALSTYLE
  5
26B
102
{ACAD_REACTORS
330
267
102
}
330
267
100
AcDbVisualStyle
  2
GouraudWithEdges
 70
     3
 71
     2
 72
     2
 73
     1
 90
        2
 40
-0.6
 41
30.0
 62
     5
 63
     7
421
 16777215
 74
     1
 91
        4
 64
     7
 65
   257
 75
     1
175
     1
 42
1.0
 92
        0
 66
   257
 43
1.0
 76
     1
 77
     6
 78
     2
 67
     7
 79
     5
170
     0
171
     0
290
     0
174
     0
 93
       13
 44
0.0
173
     0
291
     1
 45
0.0
  0
VISUALSTYLE
  5
8FB
102
{ACAD_REACTORS
330
267
102
}
330
267
100
AcDbVisualStyle
  2
Hidden
 70
     6
 71
     1
 72
     2
 73
     2
 90
        0
 40
0.6
 41
30.0
 62
     5
 63
     7
421
 16777215
 74
     2
 91
        2
 64
     7
 65
   257
 75
     2
175
     1
 42
40.0
 92
        0
 66
   257
 43
1.0
 76
     1
 77
     6
 78
     2
 67
     7
 79
     3
170
     0
171
     0
290
     0
174
     0
 93
        1
 44
0.0
173
     0
291
     0
 45
0.0
  0
VISUALSTYLE
  5
8FC
102
{ACAD_REACTORS
330
267
102
}
330
267
100
AcDbVisualStyle
  2
JitterOff
 70
    20
 71
     2
 72
     2
 73
     0
 90
        0
 40
0.6
 41
30.0
 62
     5
 63
     7
421
 16777215
 74
     1
 91
        4
 64
     7
 65
   257
 75
     1
175
     1
 42
1.0
 92
       10
 66
     7
 43
1.0
 76
     1
 77
     6
 78
     2
 67
     7
 79
     5
170
     0
171
     0
290
     0
174
     0
 93
        1
 44
0.0
173
     0
291
     1
 45
0.0
  0
VISUALSTYLE
  5
275
102
{ACAD_REACTORS
330
267
102
}
330
267
100
AcDbVisualStyle
  2
Linepattern
 70
    14
 71
     2
 72
     2
 73
     0
 90
        0
 40
-0.6
 41
-30.0
 62
     5
 63
     7
421
 16777215
 74
     1
 91
        4
 64
     7
 65
   257
 75
     7
175
     7
 42
1.0
 92
        8
 66
     7
 43
1.0
 76
     1
 77
     6
 78
     2
 67
     7
 79
     5
170
     0
171
     0
290
     0
174
     0
 93
        1
 44
0.0
173
     0
291
     1
 45
0.0
  0
VISUALSTYLE
  5
8FD
102
{ACAD_REACTORS
330
267
102
}
330
267
100
AcDbVisualStyle
  2
OverhangOff
 70
    21
 71
     2
 72
     2
 73
     0
 90
        0
 40
0.6
 41
30.0
 62
     5
 63
     7
421
 16777215
 74
     1
 91
        4
 64
     7
 65
   257
 75
     1
175
     1
 42
1.0
 92
        9
 66
     7
 43
1.0
 76
     1
 77
     6
 78
     2
 67
     7
 79
     5
170
     0
171
     0
290
     0
174
     0
 93
        1
 44
0.0
173
     0
291
     1
 45
0.0
  0
VISUALSTYLE
  5
270
102
{ACAD_REACTORS
330
267
102
}
330
267
100
AcDbVisualStyle
  2
Realistic
 70
     8
 71
     2
 72
     2
 73
     0
 90
        0
 40
-0.6
 41
-30.0
 62
     5
 63
     7
421
 16777215
 74
     1
 91
        0
 64
     7
 65
   257
 75
     1
175
     1
 42
1.0
 92
        8
 66
     8
424
  7895160
 43
1.0
 76
     1
 77
     6
 78
     2
 67
     7
 79
     5
170
     0
171
     0
290
     0
174
     0
 93
       13
 44
0.0
173
     0
291
     0
 45
0.0
  0
VISUALSTYLE
  5
903
102
{ACAD_REACTORS
330
267
102
}
330
267
100
AcDbVisualStyle
  2
Shaded
 70
    27
 71
     2
 72
     2
 73
     1
 90
        2
 40
0.6
 41
30.0
 62
     5
 63
     7
421
 16777215
 74
     0
 91
        4
 64
     7
 65
   257
 75
     1
175
     1
 42
1.0
 92
        8
 66
   257
 43
1.0
 76
     1
 77
     6
 78
     2
 67
     8
425
  7895160
 79
     3
170
     0
171
     0
290
     0
174
     0
 93
        5
 44
0.0
173
     0
291
     0
 45
0.0
  0
VISUALSTYLE
  5
902
102
{ACAD_REACTORS
330
267
102
}
330
267
100
AcDbVisualStyle
  2
Shaded with edges
 70
    26
 71
     2
 72
     2
 73
     1
 90
        2
 40
0.6
 41
30.0
 62
     5
 63
     7
421
 16777215
 74
     1
 91
       10
 64
     7
 65
   257
 75
     2
175
     1
 42
1.0
 92
        8
 66
   257
 43
1.0
 76
     1
 77
     6
 78
     2
 67
     7
 79
     3
170
     0
171
     0
290
     0
174
     0
 93
        5
 44
0.0
173
     0
291
     0
 45
0.0
  0
VISUALSTYLE
  5
8FF
102
{ACAD_REACTORS
330
267
102
}
330
267
100
AcDbVisualStyle
  2
Shades of Gray
 70
    23
 71
     2
 72
     2
 73
     3
 90
        0
 40
0.6
 41
30.0
 62
     5
 63
     7
421
 16777215
 74
     2
 91
        2
 64
     7
 65
     7
 75
     1
175
     1
 42
40.0
 92
        8
 66
     7
 43
1.0
 76
     1
 77
     6
 78
     2
 67
     7
 79
     3
170
     0
171
     0
290
     0
174
     0
 93
        1
 44
0.0
173
     0
291
     0
 45
0.0
  0
VISUALSTYLE
  5
900
102
{ACAD_REACTORS
330
267
102
}
330
267
100
AcDbVisualStyle
  2
Sketchy
 70
    24
 71
     1
 72
     2
 73
     2
 90
        0
 40
0.6
 41
30.0
 62
     5
 63
     7
421
 16777215
 74
     2
 91
        2
 64
     7
 65
     7
 75
     1
175
     1
 42
40.0
 92
       11
 66
     7
 43
1.0
 76
     1
 77
     6
 78
     2
 67
     7
 79
     6
170
     0
171
     0
290
     0
174
     0
 93
        1
 44
0.0
173
     0
291
     0
 45
0.0
  0
VISUALSTYLE
  5
274
102
{ACAD_REACTORS
330
267
102
}
330
267
100
AcDbVisualStyle
  2
Thicken
 70
    13
 71
     2
 72
     2
 73
     0
 90
        0
 40
-0.6
 41
-30.0
 62
     5
 63
     7
421
 16777215
 74
     1
 91
        4
 64
     7
 65
   257
 75
     1
175
     1
 42
1.0
 92
       12
 66
     7
 43
1.0
 76
     1
 77
     6
 78
     2
 67
     7
 79
     5
170
     0
171
     0
290
     0
174
     0
 93
        1
 44
0.0
173
     0
291
     1
 45
0.0
  0
VISUALSTYLE
  5
8FA
102
{ACAD_REACTORS
330
267
102
}
330
267
100
AcDbVisualStyle
  2
Wireframe
 70
     5
 71
     0
 72
     2
 73
     0
 90
        0
 40
0.6
 41
30.0
 62
     5
 63
     7
421
 16777215
 74
     1
 91
        4
 64
     7
 65
   257
 75
     1
175
     1
 42
1.0
 92
        0
 66
   257
 43
1.0
 76
     1
 77
     6
 78
     2
 67
     7
 79
     3
170
     0
171
     0
290
     0
174
     0
 93
        1
 44
0.0
173
     0
291
     0
 45
0.0
  0
VISUALSTYLE
  5
901
102
{ACAD_REACTORS
330
267
102
}
330
267
100
AcDbVisualStyle
  2
X-Ray
 70
    25
 71
     2
 72
     2
 73
     1
 90
        1
 40
0.5
 41
30.0
 62
     5
 63
     7
421
 16777215
 74
     1
 91
        0
 64
     7
 65
   257
 75
     1
175
     1
 42
1.0
 92
        8
 66
     7
 43
1.0
 76
     1
 77
     6
 78
     2
 67
     7
 79
     3
170
     0
171
     0
290
     0
174
     0
 93
       13
 44
0.0
173
     0
291
     0
 45
0.0
  0
DICTIONARYVAR
  5
331
102
{ACAD_REACTORS
330
330
102
}
330
330
100
DictionaryVariables
280
     0
  1
1:1
  0
DICTIONARYVAR
  5
11E9
102
{ACAD_REACTORS
330
330
102
}
330
330
100
DictionaryVariables
280
     0
  1
Standard
  0
DICTIONARYVAR
  5
335
102
{ACAD_REACTORS
330
330
102
}
330
330
100
DictionaryVariables
280
     0
  1
Standard
  0
DICTIONARYVAR
  5
D52
102
{ACAD_REACTORS
330
330
102
}
330
330
100
DictionaryVariables
280
     0
  1
ByLayer
  0
DICTIONARYVAR
  5
896
102
{ACAD_REACTORS
330
330
102
}
330
330
100
DictionaryVariables
280
     0
  1
0
  0
DICTIONARYVAR
  5
1331
102
{ACAD_REACTORS
330
132E
102
}
330
132E
100
DictionaryVariables
280
     0
  1
0.261799
  0
DICTIONARYVAR
  5
132F
102
{ACAD_REACTORS
330
132E
102
}
330
132E
100
DictionaryVariables
280
     0
  1
0.400000
  0
DICTIONARYVAR
  5
1330
102
{ACAD_REACTORS
330
132E
102
}
330
132E
100
DictionaryVariables
280
     0
  1
0.250000
  0
DICTIONARYVAR
  5
1332
102
{ACAD_REACTORS
330
132E
102
}
330
132E
100
DictionaryVariables
280
     0
  1
1
  0
XRECORD
  5
7AA
102
{ACAD_REACTORS
330
2E2
102
}
330
2E2
100
AcDbXrecord
280
     1
 91
     1023
301

290
     0
302
MODEL
330
14
 90
        8
 62
     7
370
    -3
331
13
  1
Color_7
330
0
 90
        0
 62
     7
370
    -3
331
13
  1
Color_7
330
4B
 90
        8
 62
     7
370
    20
331
13
  1
Color_7
330
4C
 90
        8
 62
     7
370
    13
331
13
  1
Color_7
330
4D
 90
        8
 62
     7
370
    20
331
13
  1
Color_7
330
667
 90
        8
 62
     7
370
    -3
331
13
  1
Color_7
330
88C
 90
        8
 62
     7
370
    20
331
45
  1
Color_7
330
0
 90
        8
 62
     7
370
    -3
331
13
  1
Color_7
  0
DICTIONARY
  5
1496
330
279
100
AcDbDictionary
280
     1
281
     1
  3
ACAD_ROUNDTRIP_2008_TABLESTYLE_CELLSTYLEMAP
360
1497
  0
CELLSTYLEMAP
  5
1497
102
{ACAD_REACTORS
330
1496
102
}
330
1496
100
AcDbCellStyleMap
 90
        3
300
CELLSTYLE
  1
TABLEFORMAT_BEGIN
 90
        5
170
     1
 91
        0
 92
    32768
 62
   257
 93
        1
300
CONTENTFORMAT
  1
CONTENTFORMAT_BEGIN
 90
        0
 91
        0
 92
        4
 93
        0
300

 40
0.0
140
1.0
 94
        5
 62
     0
340
17
144
6.0
309
CONTENTFORMAT_END
171
     1
301
MARGIN
  1
CELLMARGIN_BEGIN
 40
0.06
 40
0.06
 40
0.06
 40
0.06
 40
0.18
 40
0.18
309
CELLMARGIN_END
 94
        6
 95
        1
302
GRIDFORMAT
  1
GRIDFORMAT_BEGIN
 90
        0
 91
        1
 62
     0
 92
       -2
340
0
 93
        0
 40
0.045
309
GRIDFORMAT_END
 95
        2
302
GRIDFORMAT
  1
GRIDFORMAT_BEGIN
 90
        0
 91
        1
 62
     0
 92
       -2
340
0
 93
        0
 40
0.045
309
GRIDFORMAT_END
 95
        4
302
GRIDFORMAT
  1
GRIDFORMAT_BEGIN
 90
        0
 91
        1
 62
     0
 92
       -2
340
0
 93
        0
 40
0.045
309
GRIDFORMAT_END
 95
        8
302
GRIDFORMAT
  1
GRIDFORMAT_BEGIN
 90
        0
 91
        1
 62
     0
 92
       -2
340
0
 93
        0
 40
0.045
309
GRIDFORMAT_END
 95
       16
302
GRIDFORMAT
  1
GRIDFORMAT_BEGIN
 90
        0
 91
        1
 62
     0
 92
       -2
340
0
 93
        0
 40
0.045
309
GRIDFORMAT_END
 95
       32
302
GRIDFORMAT
  1
GRIDFORMAT_BEGIN
 90
        0
 91
        1
 62
     0
 92
       -2
340
0
 93
        0
 40
0.045
309
GRIDFORMAT_END
309
TABLEFORMAT_END
  1
CELLSTYLE_BEGIN
 90
        1
 91
        1
300
_TITLE
309
CELLSTYLE_END
300
CELLSTYLE
  1
TABLEFORMAT_BEGIN
 90
        5
170
     1
 91
        0
 92
        0
 62
   257
 93
        1
300
CONTENTFORMAT
  1
CONTENTFORMAT_BEGIN
 90
        0
 91
        0
 92
        4
 93
        0
300

 40
0.0
140
1.0
 94
        5
 62
     0
340
17
144
4.5
309
CONTENTFORMAT_END
171
     1
301
MARGIN
  1
CELLMARGIN_BEGIN
 40
0.06
 40
0.06
 40
0.06
 40
0.06
 40
0.18
 40
0.18
309
CELLMARGIN_END
 94
        6
 95
        1
302
GRIDFORMAT
  1
GRIDFORMAT_BEGIN
 90
        0
 91
        1
 62
     0
 92
       -2
340
0
 93
        0
 40
0.045
309
GRIDFORMAT_END
 95
        2
302
GRIDFORMAT
  1
GRIDFORMAT_BEGIN
 90
        0
 91
        1
 62
     0
 92
       -2
340
0
 93
        0
 40
0.045
309
GRIDFORMAT_END
 95
        4
302
GRIDFORMAT
  1
GRIDFORMAT_BEGIN
 90
        0
 91
        1
 62
     0
 92
       -2
340
0
 93
        0
 40
0.045
309
GRIDFORMAT_END
 95
        8
302
GRIDFORMAT
  1
GRIDFORMAT_BEGIN
 90
        0
 91
        1
 62
     0
 92
       -2
340
0
 93
        0
 40
0.045
309
GRIDFORMAT_END
 95
       16
302
GRIDFORMAT
  1
GRIDFORMAT_BEGIN
 90
        0
 91
        1
 62
     0
 92
       -2
340
0
 93
        0
 40
0.045
309
GRIDFORMAT_END
 95
       32
302
GRIDFORMAT
  1
GRIDFORMAT_BEGIN
 90
        0
 91
        1
 62
     0
 92
       -2
340
0
 93
        0
 40
0.045
309
GRIDFORMAT_END
309
TABLEFORMAT_END
  1
CELLSTYLE_BEGIN
 90
        2
 91
        1
300
_HEADER
309
CELLSTYLE_END
300
CELLSTYLE
  1
TABLEFORMAT_BEGIN
 90
        5
170
     1
 91
        0
 92
        0
 62
   257
 93
        1
300
CONTENTFORMAT
  1
CONTENTFORMAT_BEGIN
 90
        0
 91
        0
 92
        4
 93
        0
300

 40
0.0
140
1.0
 94
        2
 62
     0
340
17
144
4.5
309
CONTENTFORMAT_END
171
     1
301
MARGIN
  1
CELLMARGIN_BEGIN
 40
0.06
 40
0.06
 40
0.06
 40
0.06
 40
0.18
 40
0.18
309
CELLMARGIN_END
 94
        6
 95
        1
302
GRIDFORMAT
  1
GRIDFORMAT_BEGIN
 90
        0
 91
        1
 62
     0
 92
       -2
340
0
 93
        0
 40
0.045
309
GRIDFORMAT_END
 95
        2
302
GRIDFORMAT
  1
GRIDFORMAT_BEGIN
 90
        0
 91
        1
 62
     0
 92
       -2
340
0
 93
        0
 40
0.045
309
GRIDFORMAT_END
 95
        4
302
GRIDFORMAT
  1
GRIDFORMAT_BEGIN
 90
        0
 91
        1
 62
     0
 92
       -2
340
0
 93
        0
 40
0.045
309
GRIDFORMAT_END
 95
        8
302
GRIDFORMAT
  1
GRIDFORMAT_BEGIN
 90
        0
 91
        1
 62
     0
 92
       -2
340
0
 93
        0
 40
0.045
309
GRIDFORMAT_END
 95
       16
302
GRIDFORMAT
  1
GRIDFORMAT_BEGIN
 90
        0
 91
        1
 62
     0
 92
       -2
340
0
 93
        0
 40
0.045
309
GRIDFORMAT_END
 95
       32
302
GRIDFORMAT
  1
GRIDFORMAT_BEGIN
 90
        0
 91
        1
 62
     0
 92
       -2
340
0
 93
        0
 40
0.045
309
GRIDFORMAT_END
309
TABLEFORMAT_END
  1
CELLSTYLE_BEGIN
 90
        3
 91
        2
300
_DATA
309
CELLSTYLE_END
  0
ENDSEC
  0
EOF
