  0
SECTION
  2
HEADER
  9
$ACADVER
  1
AC1021
  9
$ACADMAINTVER
 70
    25
  9
$DWGCODEPAGE
  3
ANSI_932
  9
$LASTSAVEDBY
  1
howeNelson
  9
$INSBASE
 10
0.0
 20
0.0
 30
0.0
  9
$EXTMIN
 10
0.0
 20
0.0
 30
0.0
  9
$EXTMAX
 10
1050.0
 20
1485.0
 30
0.0000000000000071
  9
$LIMMIN
 10
0.0
 20
0.0
  9
$LIMMAX
 10
1050.0
 20
1485.0
  9
$ORTHOMODE
 70
     0
  9
$REGENMODE
 70
     1
  9
$FILLMODE
 70
     1
  9
$QTEXTMODE
 70
     0
  9
$MIRRTEXT
 70
     1
  9
$LTSCALE
 40
50.0
  9
$ATTMODE
 70
     1
  9
$TEXTSIZE
 40
2.5
  9
$TRACEWID
 40
1.0
  9
$TEXTSTYLE
  7
ＭＳ ゴシック
  9
$CLAYER
  8
HIDDEN
  9
$CELTYPE
  6
ByLayer
  9
$CECOLOR
 62
   256
  9
$CELTSCALE
 40
0.05
  9
$DISPSILH
 70
     0
  9
$DIMSCALE
 40
1.0
  9
$DIMASZ
 40
3.0
  9
$DIMEXO
 40
15.0
  9
$DIMDLI
 40
0.9999999999999999
  9
$DIMRND
 40
0.0
  9
$DIMDLE
 40
0.0
  9
$DIMEXE
 40
0.0
  9
$DIMTP
 40
0.0
  9
$DIMTM
 40
0.0
  9
$DIMTXT
 40
12.0
  9
$DIMCEN
 40
0.0
  9
$DIMTSZ
 40
0.0
  9
$DIMTOL
 70
     0
  9
$DIMLIM
 70
     0
  9
$DIMTIH
 70
     0
  9
$DIMTOH
 70
     0
  9
$DIMSE1
 70
     0
  9
$DIMSE2
 70
     0
  9
$DIMTAD
 70
     1
  9
$DIMZIN
 70
    11
  9
$DIMBLK
  1
DOT
  9
$DIMASO
 70
     1
  9
$DIMSHO
 70
     1
  9
$DIMPOST
  1
<>
  9
$DIMAPOST
  1
[]
  9
$DIMALT
 70
     0
  9
$DIMALTD
 70
     1
  9
$DIMALTF
 40
1.0
  9
$DIMLFAC
 40
1.0
  9
$DIMTOFL
 70
     0
  9
$DIMTVP
 40
0.0
  9
$DIMTIX
 70
     1
  9
$DIMSOXD
 70
     0
  9
$DIMSAH
 70
     0
  9
$DIMBLK1
  1

  9
$DIMBLK2
  1

  9
$DIMSTYLE
  2
tfrom線あり
  9
$DIMCLRD
 70
     0
  9
$DIMCLRE
 70
     0
  9
$DIMCLRT
 70
     0
  9
$DIMTFAC
 40
1.0
  9
$DIMGAP
 40
10.0
  9
$DIMJUST
 70
     0
  9
$DIMSD1
 70
     0
  9
$DIMSD2
 70
     0
  9
$DIMTOLJ
 70
     1
  9
$DIMTZIN
 70
    11
  9
$DIMALTZ
 70
    11
  9
$DIMALTTZ
 70
    11
  9
$DIMUPT
 70
     0
  9
$DIMDEC
 70
     0
  9
$DIMTDEC
 70
     1
  9
$DIMALTU
 70
     2
  9
$DIMALTTD
 70
     2
  9
$DIMTXSTY
  7
ＭＳ ゴシック
  9
$DIMAUNIT
 70
     0
  9
$DIMADEC
 70
     2
  9
$DIMALTRND
 40
0.0
  9
$DIMAZIN
 70
     0
  9
$DIMDSEP
 70
    46
  9
$DIMATFIT
 70
     0
  9
$DIMFRAC
 70
     2
  9
$DIMLDRBLK
  1
DOT
  9
$DIMLUNIT
 70
     2
  9
$DIMLWD
 70
    -2
  9
$DIMLWE
 70
    -2
  9
$DIMTMOVE
 70
     0
  9
$DIMFXL
 40
1.0
  9
$DIMFXLON
 70
     0
  9
$DIMJOGANG
 40
0.7853981633974483
  9
$DIMTFILL
 70
     0
  9
$DIMTFILLCLR
 70
     0
  9
$DIMARCSYM
 70
     0
  9
$DIMLTYPE
  6

  9
$DIMLTEX1
  6

  9
$DIMLTEX2
  6

  9
$LUNITS
 70
     2
  9
$LUPREC
 70
     0
  9
$SKETCHINC
 40
0.1
  9
$FILLETRAD
 40
0.0
  9
$AUNITS
 70
     0
  9
$AUPREC
 70
     0
  9
$MENU
  1
acad
  9
$ELEVATION
 40
0.0
  9
$PELEVATION
 40
0.0
  9
$THICKNESS
 40
0.0
  9
$LIMCHECK
 70
     0
  9
$CHAMFERA
 40
0.0
  9
$CHAMFERB
 40
0.0
  9
$CHAMFERC
 40
0.0
  9
$CHAMFERD
 40
0.0
  9
$SKPOLY
 70
     0
  9
$TDCREATE
 40
2447893.375
  9
$TDUCREATE
 40
0.0
  9
$TDUPDATE
 40
2457611.485716366
  9
$TDUUPDATE
 40
2457611.110716366
  9
$TDINDWG
 40
0.2082534606
  9
$TDUSRTIMER
 40
2457611.110345463
  9
$USRTIMER
 70
     1
  9
$ANGBASE
 50
0.0
  9
$ANGDIR
 70
     0
  9
$PDMODE
 70
     1
  9
$PDSIZE
 40
-2.0
  9
$PLINEWID
 40
0.0
  9
$SPLFRAME
 70
     0
  9
$SPLINETYPE
 70
     6
  9
$SPLINESEGS
 70
     8
  9
$HANDSEED
  5
1730
  9
$SURFTAB1
 70
     6
  9
$SURFTAB2
 70
     6
  9
$SURFTYPE
 70
     6
  9
$SURFU
 70
     6
  9
$SURFV
 70
     6
  9
$UCSBASE
  2

  9
$UCSNAME
  2

  9
$UCSORG
 10
0.0
 20
0.0
 30
0.0
  9
$UCSXDIR
 10
1.0
 20
0.0
 30
0.0
  9
$UCSYDIR
 10
0.0
 20
1.0
 30
0.0
  9
$UCSORTHOREF
  2

  9
$UCSORTHOVIEW
 70
     0
  9
$UCSORGTOP
 10
0.0
 20
0.0
 30
0.0
  9
$UCSORGBOTTOM
 10
0.0
 20
0.0
 30
0.0
  9
$UCSORGLEFT
 10
0.0
 20
0.0
 30
0.0
  9
$UCSORGRIGHT
 10
0.0
 20
0.0
 30
0.0
  9
$UCSORGFRONT
 10
0.0
 20
0.0
 30
0.0
  9
$UCSORGBACK
 10
0.0
 20
0.0
 30
0.0
  9
$PUCSBASE
  2

  9
$PUCSNAME
  2

  9
$PUCSORG
 10
0.0
 20
0.0
 30
0.0
  9
$PUCSXDIR
 10
1.0
 20
0.0
 30
0.0
  9
$PUCSYDIR
 10
0.0
 20
1.0
 30
0.0
  9
$PUCSORTHOREF
  2

  9
$PUCSORTHOVIEW
 70
     0
  9
$PUCSORGTOP
 10
0.0
 20
0.0
 30
0.0
  9
$PUCSORGBOTTOM
 10
0.0
 20
0.0
 30
0.0
  9
$PUCSORGLEFT
 10
0.0
 20
0.0
 30
0.0
  9
$PUCSORGRIGHT
 10
0.0
 20
0.0
 30
0.0
  9
$PUCSORGFRONT
 10
0.0
 20
0.0
 30
0.0
  9
$PUCSORGBACK
 10
0.0
 20
0.0
 30
0.0
  9
$USERI1
 70
     0
  9
$USERI2
 70
     0
  9
$USERI3
 70
     0
  9
$USERI4
 70
     0
  9
$USERI5
 70
     0
  9
$USERR1
 40
0.0
  9
$USERR2
 40
0.0
  9
$USERR3
 40
0.0
  9
$USERR4
 40
0.0
  9
$USERR5
 40
0.0
  9
$WORLDVIEW
 70
     1
  9
$SHADEDGE
 70
     3
  9
$SHADEDIF
 70
    70
  9
$TILEMODE
 70
     1
  9
$MAXACTVP
 70
    64
  9
$PINSBASE
 10
0.0
 20
0.0
 30
0.0
  9
$PLIMCHECK
 70
     0
  9
$PEXTMIN
 10
0.0
 20
0.0
 30
0.0
  9
$PEXTMAX
 10
0.0
 20
0.0
 30
0.0
  9
$PLIMMIN
 10
-95.87226993865028
 20
-25.69999999999999
  9
$PLIMMAX
 10
201.1277300613497
 20
184.3
  9
$UNITMODE
 70
     0
  9
$VISRETAIN
 70
     0
  9
$PLINEGEN
 70
     1
  9
$PSLTSCALE
 70
     0
  9
$TREEDEPTH
 70
  3020
  9
$CMLSTYLE
  2
Standard
  9
$CMLJUST
 70
     0
  9
$CMLSCALE
 40
1.0
  9
$PROXYGRAPHICS
 70
     0
  9
$MEASUREMENT
 70
     1
  9
$CELWEIGHT
370
    -1
  9
$ENDCAPS
280
     0
  9
$JOINSTYLE
280
     0
  9
$LWDISPLAY
290
     1
  9
$INSUNITS
 70
     4
  9
$HYPERLINKBASE
  1

  9
$STYLESHEET
  1

  9
$XEDIT
290
     1
  9
$CEPSNTYPE
380
     0
  9
$PSTYLEMODE
290
     1
  9
$FINGERPRINTGUID
  2

  9
$VERSIONGUID
  2

  9
$EXTNAMES
290
     1
  9
$PSVPSCALE
 40
0.0
  9
$OLESTARTUP
290
     0
  9
$SORTENTS
280
   127
  9
$INDEXCTL
280
     0
  9
$HIDETEXT
280
     1
  9
$XCLIPFRAME
290
     0
  9
$HALOGAP
280
     0
  9
$OBSCOLOR
 70
   257
  9
$OBSLTYPE
280
     0
  9
$INTERSECTIONDISPLAY
280
     0
  9
$INTERSECTIONCOLOR
 70
   257
  9
$DIMASSOC
280
     2
  9
$PROJECTNAME
  1

  9
$CAMERADISPLAY
290
     0
  9
$LENSLENGTH
 40
50.0
  9
$CAMERAHEIGHT
 40
0.0
  9
$STEPSPERSEC
 40
2.0
  9
$STEPSIZE
 40
6.0
  9
$3DDWFPREC
 40
2.0
  9
$PSOLWIDTH
 40
0.25
  9
$PSOLHEIGHT
 40
4.0
  9
$LOFTANG1
 40
1.570796326794897
  9
$LOFTANG2
 40
1.570796326794897
  9
$LOFTMAG1
 40
0.0
  9
$LOFTMAG2
 40
0.0
  9
$LOFTPARAM
 70
     7
  9
$LOFTNORMALS
280
     1
  9
$LATITUDE
 40
37.795
  9
$LONGITUDE
 40
-122.394
  9
$NORTHDIRECTION
 40
0.0
  9
$TIMEZONE
 70
 -8000
  9
$LIGHTGLYPHDISPLAY
280
     1
  9
$TILEMODELIGHTSYNCH
280
     1
  9
$SOLIDHIST
280
     1
  9
$SHOWHIST
280
     1
  9
$DWFFRAME
280
     2
  9
$DGNFRAME
280
     2
  9
$REALWORLDSCALE
290
     1
  9
$INTERFERECOLOR
 62
   256
  9
$CSHADOW
280
     0
  9
$SHADOWPLANELOCATION
 40
0.0
  0
ENDSEC
  0
SECTION
  2
CLASSES
  0
CLASS
  1
LWPOLYLINE
  2
AcDbPolyline
  3
ObjectDBX Classes
 90
        0
 91
        1
280
     0
281
     1
  0
CLASS
  1
IMAGE
  2
AcDbRasterImage
  3
ISM
 90
      127
 91
        5
280
     0
281
     1
  0
CLASS
  1
OLE2FRAME
  2
AcDbOle2Frame
  3
ObjectDBX Classes
 90
        0
 91
        1
280
     0
281
     1
  0
CLASS
  1
HATCH
  2
AcDbHatch
  3
ObjectDBX Classes
 90
        0
 91
        1
280
     0
281
     1
  0
CLASS
  1
DICTIONARYVAR
  2
AcDbDictionaryVar
  3
ObjectDBX Classes
 90
        0
 91
        4
280
     0
281
     0
  0
CLASS
  1
RASTERVARIABLES
  2
AcDbRasterVariables
  3
ISM
 90
        0
 91
        4
280
     0
281
     0
  0
CLASS
  1
IMAGEDEF
  2
AcDbRasterImageDef
  3
ISM
 90
        0
 91
        4
280
     0
281
     0
  0
CLASS
  1
IMAGEDEF_REACTOR
  2
AcDbRasterImageDefReactor
  3
ISM
 90
        1
 91
        4
280
     0
281
     0
  0
CLASS
  1
IDBUFFER
  2
AcDbIdBuffer
  3
ObjectDBX Classes
 90
        0
 91
        4
280
     0
281
     0
  0
CLASS
  1
SPATIAL_FILTER
  2
AcDbSpatialFilter
  3
ObjectDBX Classes
 90
        0
 91
        4
280
     0
281
     0
  0
CLASS
  1
XRECORD
  2
AcDbXrecord
  3
ObjectDBX Classes
 90
        0
 91
        1
280
     0
281
     0
  0
CLASS
  1
SORTENTSTABLE
  2
AcDbSortentsTable
  3
ObjectDBX Classes
 90
        0
 91
        4
280
     0
281
     0
  0
CLASS
  1
LAYER_INDEX
  2
AcDbLayerIndex
  3
ObjectDBX Classes
 90
        0
 91
        4
280
     0
281
     0
  0
CLASS
  1
SPATIAL_INDEX
  2
AcDbSpatialIndex
  3
AutoCAD 2000
 90
        0
 91
        4
280
     0
281
     0
  0
CLASS
  1
OBJECT_PTR
  2
CAseDLPNTableRecord
  3
ASE-LPNTableRecord
 90
        1
 91
        4
280
     0
281
     0
  0
CLASS
  1
LAYOUT
  2
AcDbLayout
  3
ObjectDBX Classes
 90
        0
 91
        1
280
     0
281
     0
  0
CLASS
  1
PLOTSETTINGS
  2
AcDbPlotSettings
  3
ObjectDBX Classes
 90
        0
 91
        4
280
     0
281
     0
  0
CLASS
  1
ACDBDICTIONARYWDFLT
  2
AcDbDictionaryWithDefault
  3
ObjectDBX Classes
 90
        0
 91
        4
280
     0
281
     0
  0
CLASS
  1
ACDBPLACEHOLDER
  2
AcDbPlaceHolder
  3
ObjectDBX Classes
 90
        0
 91
        1
280
     0
281
     0
  0
CLASS
  1
SCALE
  2
AcDbScale
  3
ObjectDBX Classes
 90
     1153
 91
        4
280
     0
281
     0
  0
CLASS
  1
MATERIAL
  2
AcDbMaterial
  3
ObjectDBX Classes
 90
     1153
 91
        4
280
     0
281
     0
  0
CLASS
  1
VISUALSTYLE
  2
AcDbVisualStyle
  3
ObjectDBX Classes
 90
     4095
 91
        4
280
     0
281
     0
  0
CLASS
  1
TABLESTYLE
  2
AcDbTableStyle
  3
ObjectDBX Classes
 90
     4095
 91
        4
280
     0
281
     0
  0
CLASS
  1
DIMASSOC
  2
AcDbDimAssoc
  3
"AcDbDimAssoc|Product Desc:     AcDim ARX App For Dimension|Company:          Autodesk, Inc.|WEB Address:      www.autodesk.com"
 90
        0
 91
        4
280
     0
281
     0
  0
CLASS
  1
CELLSTYLEMAP
  2
AcDbCellStyleMap
  3
ObjectDBX Classes
 90
     1152
 91
        4
280
     0
281
     0
  0
CLASS
  1
SUN
  2
AcDbSun
  3
SCENEOE
 90
     1153
 91
        4
280
     0
281
     0
  0
CLASS
  1
MLEADERSTYLE
  2
AcDbMLeaderStyle
  3
ACDB_MLEADERSTYLE_CLASS
 90
     4095
 91
        4
280
     0
281
     0
  0
CLASS
  1
FIELD
  2
AcDbField
  3
ObjectDBX Classes
 90
     1152
 91
        4
280
     0
281
     0
  0
CLASS
  1
FIELDLIST
  2
AcDbFieldList
  3
ObjectDBX Classes
 90
     1152
 91
        4
280
     0
281
     0
  0
ENDSEC
  0
SECTION
  2
TABLES
  0
TABLE
  2
VPORT
  5
7
330
0
100
AcDbSymbolTable
 70
     1
  0
VPORT
  5
15
330
7
100
AcDbSymbolTableRecord
100
AcDbViewportTableRecord
  2
*ACTIVE
 70
     0
 10
0.0
 20
0.0
 11
1.0
 21
1.0
 12
616.0201356709008
 22
668.901285469834
 13
0.0
 23
0.0
 14
1.0
 24
1.0
 15
0.0
 25
0.0
 16
0.0
 26
0.0
 36
1.0
 17
-91.0201356709008
 27
73.59871453016603
 37
-46.86809886248109
 40
1514.7
 41
2.46165191740413
 42
50.0
 43
0.0
 44
0.0
 50
0.0
 51
0.0
 71
    16
 72
  2000
 73
     1
 74
     1
 75
     0
 76
     0
 77
     0
 78
     0
281
     0
 65
     1
110
0.0
120
0.0
130
0.0
111
1.0
121
0.0
131
0.0
112
0.0
122
1.0
132
0.0
 79
     0
146
0.0
348
26C
 60
     3
 61
     5
292
     1
282
     1
141
0.0
142
0.0
 63
   256
361
904
  0
ENDTAB
  0
TABLE
  2
LTYPE
  5
4
330
0
100
AcDbSymbolTable
 70
     4
  0
LTYPE
  5
11
330
4
100
AcDbSymbolTableRecord
100
AcDbLinetypeTableRecord
  2
ByBlock
 70
     0
  3

 72
    65
 73
     0
 40
0.0
  0
LTYPE
  5
12
330
4
100
AcDbSymbolTableRecord
100
AcDbLinetypeTableRecord
  2
ByLayer
 70
     0
  3

 72
    65
 73
     0
 40
0.0
  0
LTYPE
  5
13
330
4
100
AcDbSymbolTableRecord
100
AcDbLinetypeTableRecord
  2
Continuous
 70
     0
  3
Solid line
 72
    65
 73
     0
 40
0.0
  0
LTYPE
  5
D6C
330
4
100
AcDbSymbolTableRecord
100
AcDbLinetypeTableRecord
  2
BORDER
 70
     0
  3
Border __  __  . __  __  . __  __  . __  __  . 
 72
    65
 73
     6
 40
44.45
 49
12.7
 74
     0
 49
-6.35
 74
     0
 49
12.7
 74
     0
 49
-6.35
 74
     0
 49
0.0
 74
     0
 49
-6.35
 74
     0
  0
LTYPE
  5
D6D
330
4
100
AcDbSymbolTableRecord
100
AcDbLinetypeTableRecord
  2
HIDDEN
 70
     0
  3
Hidden _ _ _ _ _ _ _ _ _ _ _ _ _ _ _ _ _ _ _ _ 
 72
    65
 73
     2
 40
9.524999999999999
 49
6.35
 74
     0
 49
-3.175
 74
     0
  0
LTYPE
  5
1559
330
4
100
AcDbSymbolTableRecord
100
AcDbLinetypeTableRecord
  2
CENTER
 70
     0
  3
 Center _____  _  _____  _  _____  _  _____  _ 
 72
    65
 73
     4
 40
50.8
 49
31.75
 74
     0
 49
-6.35
 74
     0
 49
6.35
 74
     0
 49
-6.35
 74
     0
  0
ENDTAB
  0
TABLE
  2
LAYER
  5
2
102
{ACAD_XDICTIONARY
360
2E1
102
}
330
0
100
AcDbSymbolTable
 70
     8
  0
LAYER
  5
14
330
2
100
AcDbSymbolTableRecord
100
AcDbLayerTableRecord
  2
0
 70
     0
 62
     7
  6
Continuous
370
    -3
390
1D
347
266
  0
LAYER
  5
4B
330
2
100
AcDbSymbolTableRecord
100
AcDbLayerTableRecord
  2
TEMPLATE
 70
     0
 62
     7
  6
Continuous
370
    20
390
1D
347
266
  0
LAYER
  5
4C
330
2
100
AcDbSymbolTableRecord
100
AcDbLayerTableRecord
  2
DIM
 70
     0
 62
     3
  6
Continuous
370
    13
390
1D
347
266
  0
LAYER
  5
4D
330
2
100
AcDbSymbolTableRecord
100
AcDbLayerTableRecord
  2
MODEL
 70
     0
 62
     7
  6
Continuous
370
    20
390
1D
347
266
  0
LAYER
  5
667
330
2
100
AcDbSymbolTableRecord
100
AcDbLayerTableRecord
  2
LOGO
 70
     0
 62
     7
  6
Continuous
370
    -3
390
1D
347
266
  0
LAYER
  5
88C
330
2
100
AcDbSymbolTableRecord
100
AcDbLayerTableRecord
  2
HIDDEN
 70
     0
 62
     8
  6
HIDDEN
370
    20
390
1D
347
266
1001
AcAecLayerStandard
1000

1000

  0
LAYER
  5
D6B
330
2
100
AcDbSymbolTableRecord
100
AcDbLayerTableRecord
  2
BORDER
 70
     0
 62
     4
  6
BORDER
290
     0
370
    20
390
1D
347
266
1001
AcAecLayerStandard
1000

1000

  0
LAYER
  5
D8C
330
2
100
AcDbSymbolTableRecord
100
AcDbLayerTableRecord
  2
Defpoints
 70
     0
 62
     7
  6
Continuous
290
     0
370
    -3
390
1D
347
266
  0
ENDTAB
  0
TABLE
  2
STYLE
  5
3
330
0
100
AcDbSymbolTable
 70
     2
  0
STYLE
  5
17
330
3
100
AcDbSymbolTableRecord
100
AcDbTextStyleTableRecord
  2
Standard
 70
     0
 40
0.0
 41
1.0
 50
0.0
 71
     0
 42
2.5
  3
txt
  4
BIGFONT.SHX
  0
STYLE
  5
39
330
3
100
AcDbSymbolTableRecord
100
AcDbTextStyleTableRecord
  2
ＭＳ ゴシック
 70
     0
 40
0.0
 41
1.0
 50
0.0
 71
     0
 42
2.5
  3
msgothic.ttc
  4
ＭＳ ゴシック
1001
ACAD
1000
ＭＳ ゴシック
1071
        0
  0
ENDTAB
  0
TABLE
  2
VIEW
  5
5
330
0
100
AcDbSymbolTable
 70
     0
  0
ENDTAB
  0
TABLE
  2
UCS
  5
6
330
0
100
AcDbSymbolTable
 70
     0
  0
ENDTAB
  0
TABLE
  2
APPID
  5
8
330
0
100
AcDbSymbolTable
 70
     3
  0
APPID
  5
16
330
8
100
AcDbSymbolTableRecord
100
AcDbRegAppTableRecord
  2
ACAD
 70
     0
  0
APPID
  5
7AC
330
8
100
AcDbSymbolTableRecord
100
AcDbRegAppTableRecord
  2
AcAecLayerStandard
 70
     0
  0
APPID
  5
E29
330
8
100
AcDbSymbolTableRecord
100
AcDbRegAppTableRecord
  2
ACAD_MLEADERVER
 70
     0
  0
ENDTAB
  0
TABLE
  2
DIMSTYLE
  5
9
330
0
100
AcDbSymbolTable
 70
     2
100
AcDbDimStyleTable
  0
DIMSTYLE
105
18
330
9
100
AcDbSymbolTableRecord
100
AcDbDimStyleTableRecord
  2
Standard
 70
     0
178
     0
340
17
  0
DIMSTYLE
105
57
102
{ACAD_REACTORS
330
1039
330
103A
330
103B
330
103C
330
103D
330
103E
330
103F
330
1040
330
1045
330
1046
330
1050
330
1051
330
1078
330
12F8
330
12F9
330
1327
330
1334
330
1374
330
13B2
330
13CE
330
143E
102
}
330
9
100
AcDbSymbolTableRecord
100
AcDbDimStyleTableRecord
  2
tfrom線あり
 70
     0
  3
<>
  4
[]
 41
3.0
 42
15.0
 43
0.9999999999999999
 44
0.0
 73
     0
 74
     0
 77
     1
 78
    11
140
12.0
141
0.0
143
1.0
147
10.0
171
     1
174
     1
178
     0
179
     2
271
     0
272
     1
276
     2
284
    11
285
    11
286
    11
289
     0
340
39
341
4E
342
4E
  0
ENDTAB
  0
TABLE
  2
BLOCK_RECORD
  5
1
330
0
100
AcDbSymbolTable
 70
    27
  0
BLOCK_RECORD
  5
A
330
1
100
AcDbSymbolTableRecord
100
AcDbBlockTableRecord
  2
*MODEL_SPACE
340
20
 70
     0
280
     1
281
     0
  0
BLOCK_RECORD
  5
B
330
1
100
AcDbSymbolTableRecord
100
AcDbBlockTableRecord
  2
*PAPER_SPACE
340
21
 70
     0
280
     1
281
     0
  0
BLOCK_RECORD
  5
4E
330
1
100
AcDbSymbolTableRecord
100
AcDbBlockTableRecord
  2
_DOT
340
0
102
{BLKREFS
331
10D2
331
10D3
331
10DE
331
10DF
331
10EA
331
10EB
331
10F6
331
10F7
331
1101
331
1102
331
110D
331
110E
331
1119
331
111A
331
1125
331
1126
331
1155
331
1156
331
1162
331
1163
331
116E
331
116F
331
117A
331
117B
331
119E
331
119F
331
1300
331
1301
331
130C
331
130D
331
132E
331
132F
331
133B
331
133C
331
137D
331
137E
331
13B9
331
13BA
331
13D7
331
13D8
331
144E
331
144F
102
}
 70
     0
280
     1
281
     0
  0
BLOCK_RECORD
  5
68A
330
1
100
AcDbSymbolTableRecord
100
AcDbBlockTableRecord
  2
名称未設定-1
340
0
102
{BLKREFS
331
6B5
102
}
 70
     1
280
     1
281
     0
  0
BLOCK_RECORD
  5
68D
330
1
100
AcDbSymbolTableRecord
100
AcDbBlockTableRecord
  2
block 2
340
0
102
{BLKREFS
331
68C
331
1031
102
}
 70
     0
280
     1
281
     0
  0
BLOCK_RECORD
  5
690
330
1
100
AcDbSymbolTableRecord
100
AcDbBlockTableRecord
  2
block 3
340
0
102
{BLKREFS
331
68F
102
}
 70
     0
280
     1
281
     0
  0
BLOCK_RECORD
  5
693
330
1
100
AcDbSymbolTableRecord
100
AcDbBlockTableRecord
  2
block 4
340
0
102
{BLKREFS
331
692
102
}
 70
     0
280
     1
281
     0
  0
BLOCK_RECORD
  5
6A2
330
1
100
AcDbSymbolTableRecord
100
AcDbBlockTableRecord
  2
block 5
340
0
102
{BLKREFS
331
6A1
102
}
 70
     0
280
     1
281
     0
  0
BLOCK_RECORD
  5
10CC
330
1
100
AcDbSymbolTableRecord
100
AcDbBlockTableRecord
  2
*D6
340
0
 70
     0
280
     1
281
     0
  0
BLOCK_RECORD
  5
10D8
330
1
100
AcDbSymbolTableRecord
100
AcDbBlockTableRecord
  2
*D7
340
0
 70
     0
280
     1
281
     0
  0
BLOCK_RECORD
  5
10E4
330
1
100
AcDbSymbolTableRecord
100
AcDbBlockTableRecord
  2
*D8
340
0
 70
     0
280
     1
281
     0
  0
BLOCK_RECORD
  5
10F0
330
1
100
AcDbSymbolTableRecord
100
AcDbBlockTableRecord
  2
*D9
340
0
 70
     0
280
     1
281
     0
  0
BLOCK_RECORD
  5
10FC
330
1
100
AcDbSymbolTableRecord
100
AcDbBlockTableRecord
  2
*D10
340
0
 70
     0
280
     1
281
     0
  0
BLOCK_RECORD
  5
1107
330
1
100
AcDbSymbolTableRecord
100
AcDbBlockTableRecord
  2
*D11
340
0
 70
     0
280
     1
281
     0
  0
BLOCK_RECORD
  5
1113
330
1
100
AcDbSymbolTableRecord
100
AcDbBlockTableRecord
  2
*D12
340
0
 70
     0
280
     1
281
     0
  0
BLOCK_RECORD
  5
111F
330
1
100
AcDbSymbolTableRecord
100
AcDbBlockTableRecord
  2
*D13
340
0
 70
     0
280
     1
281
     0
  0
BLOCK_RECORD
  5
114F
330
1
100
AcDbSymbolTableRecord
100
AcDbBlockTableRecord
  2
*D14
340
0
 70
     0
280
     1
281
     0
  0
BLOCK_RECORD
  5
115C
330
1
100
AcDbSymbolTableRecord
100
AcDbBlockTableRecord
  2
*D15
340
0
 70
     0
280
     1
281
     0
  0
BLOCK_RECORD
  5
1168
330
1
100
AcDbSymbolTableRecord
100
AcDbBlockTableRecord
  2
*D16
340
0
 70
     0
280
     1
281
     0
  0
BLOCK_RECORD
  5
1174
330
1
100
AcDbSymbolTableRecord
100
AcDbBlockTableRecord
  2
*D17
340
0
 70
     0
280
     1
281
     0
  0
BLOCK_RECORD
  5
1198
330
1
100
AcDbSymbolTableRecord
100
AcDbBlockTableRecord
  2
*D18
340
0
 70
     0
280
     1
281
     0
  0
BLOCK_RECORD
  5
12FA
330
1
100
AcDbSymbolTableRecord
100
AcDbBlockTableRecord
  2
*D19
340
0
 70
     0
280
     1
281
     0
  0
BLOCK_RECORD
  5
1306
330
1
100
AcDbSymbolTableRecord
100
AcDbBlockTableRecord
  2
*D20
340
0
 70
     0
280
     1
281
     0
  0
BLOCK_RECORD
  5
1328
330
1
100
AcDbSymbolTableRecord
100
AcDbBlockTableRecord
  2
*D21
340
0
 70
     0
280
     1
281
     0
  0
BLOCK_RECORD
  5
1335
330
1
100
AcDbSymbolTableRecord
100
AcDbBlockTableRecord
  2
*D22
340
0
 70
     0
280
     1
281
     0
  0
BLOCK_RECORD
  5
1377
330
1
100
AcDbSymbolTableRecord
100
AcDbBlockTableRecord
  2
*D23
340
0
 70
     0
280
     1
281
     0
  0
BLOCK_RECORD
  5
13B3
330
1
100
AcDbSymbolTableRecord
100
AcDbBlockTableRecord
  2
*D24
340
0
 70
     0
280
     1
281
     0
  0
BLOCK_RECORD
  5
13D1
330
1
100
AcDbSymbolTableRecord
100
AcDbBlockTableRecord
  2
*D25
340
0
 70
     0
280
     1
281
     0
  0
BLOCK_RECORD
  5
1448
330
1
100
AcDbSymbolTableRecord
100
AcDbBlockTableRecord
  2
*D26
340
0
 70
     0
280
     1
281
     0
  0
ENDTAB
  0
ENDSEC
  0
SECTION
  2
BLOCKS
  0
BLOCK
  5
D
330
A
100
AcDbEntity
  8
0
390
1D
100
AcDbBlockBegin
  2
*MODEL_SPACE
 70
     0
 10
0.0
 20
0.0
 30
0.0
  3
*MODEL_SPACE
  1
*MODEL_SPACE
  0
ENDBLK
  5
E
330
A
100
AcDbEntity
  8
0
390
1D
100
AcDbBlockEnd
  0
BLOCK
  5
F
330
B
100
AcDbEntity
 67
     1
  8
0
390
1D
100
AcDbBlockBegin
  2
*PAPER_SPACE
 70
     0
 10
0.0
 20
0.0
 30
0.0
  3
*PAPER_SPACE
  1
*PAPER_SPACE
  0
ENDBLK
  5
10
330
B
100
AcDbEntity
 67
     1
  8
0
390
1D
100
AcDbBlockEnd
  0
BLOCK
  5
122E
330
4E
100
AcDbEntity
  8
0
390
1D
100
AcDbBlockBegin
  2
_DOT
 70
     0
 10
0.0
 20
0.0
 30
0.0
  3
_DOT
  1
_DOT
  0
POLYLINE
  5
1230
330
4E
100
AcDbEntity
  8
0
  6
ByBlock
 62
     0
370
    -2
390
1D
100
AcDb2dPolyline
 66
     1
 10
0.0
 20
0.0
 30
0.0
 70
     1
 40
0.5
 41
0.5
  0
VERTEX
  5
1231
330
1230
100
AcDbEntity
  8
0
  6
ByBlock
 62
     0
370
    -2
390
1D
100
AcDbVertex
100
AcDb2dVertex
 10
-0.25
 20
0.0
 30
0.0
 42
1.0
  0
VERTEX
  5
1232
330
1230
100
AcDbEntity
  8
0
  6
ByBlock
 62
     0
370
    -2
390
1D
100
AcDbVertex
100
AcDb2dVertex
 10
0.25
 20
0.0
 30
0.0
 42
1.0
  0
SEQEND
  5
1233
330
1230
100
AcDbEntity
  8
0
390
1D
  0
LINE
  5
1234
330
4E
100
AcDbEntity
  8
0
  6
ByBlock
 62
     0
370
    -2
390
1D
100
AcDbLine
 10
-0.5
 20
0.0
 30
0.0
 11
-1.0
 21
0.0
 31
0.0
  0
ENDBLK
  5
1235
330
4E
100
AcDbEntity
  8
0
390
1D
100
AcDbBlockEnd
  0
BLOCK
  5
68B
330
68A
100
AcDbEntity
  8
0
100
AcDbBlockBegin
  2
名称未設定-1
 70
     0
 10
0.0
 20
0.0
 30
0.0
  3
名称未設定-1
  1
名称未設定-1
  0
INSERT
  5
68F
330
68A
100
AcDbEntity
  8
LOGO
100
AcDbBlockReference
  2
block 3
 10
0.0
 20
0.0
 30
0.0
  0
ENDBLK
  5
6B1
330
68A
100
AcDbEntity
  8
0
100
AcDbBlockEnd
  0
BLOCK
  5
68E
330
68D
100
AcDbEntity
  8
0
100
AcDbBlockBegin
  2
block 2
 70
     0
 10
0.0
 20
0.0
 30
0.0
  3
block 2
  1
block 2
  0
ENDBLK
  5
6B0
330
68D
100
AcDbEntity
  8
0
100
AcDbBlockEnd
  0
BLOCK
  5
691
330
690
100
AcDbEntity
  8
0
100
AcDbBlockBegin
  2
block 3
 70
     0
 10
0.0
 20
0.0
 30
0.0
  3
block 3
  1
block 3
  0
INSERT
  5
692
330
690
100
AcDbEntity
  8
LOGO
100
AcDbBlockReference
  2
block 4
 10
0.0
 20
0.0
 30
0.0
  0
INSERT
  5
6A1
330
690
100
AcDbEntity
  8
LOGO
100
AcDbBlockReference
  2
block 5
 10
0.0
 20
0.0
 30
0.0
  0
ENDBLK
  5
6AF
330
690
100
AcDbEntity
  8
0
100
AcDbBlockEnd
  0
BLOCK
  5
694
330
693
100
AcDbEntity
  8
0
100
AcDbBlockBegin
  2
block 4
 70
     0
 10
0.0
 20
0.0
 30
0.0
  3
block 4
  1
block 4
  0
POLYLINE
  5
695
330
693
100
AcDbEntity
  8
LOGO
370
     0
100
AcDb2dPolyline
 66
     1
 10
0.0
 20
0.0
 30
0.0
  0
VERTEX
  5
696
330
695
100
AcDbEntity
  8
LOGO
370
     0
100
AcDbVertex
100
AcDb2dVertex
 10
83.79545727667795
 20
167.6444858234922
 30
0.0
  0
VERTEX
  5
697
330
695
100
AcDbEntity
  8
LOGO
370
     0
100
AcDbVertex
100
AcDb2dVertex
 10
83.79545727667795
 20
159.7968976406313
 30
0.0
  0
VERTEX
  5
698
330
695
100
AcDbEntity
  8
LOGO
370
     0
100
AcDbVertex
100
AcDb2dVertex
 10
71.3631329975216
 20
159.7968976406313
 30
0.0
  0
VERTEX
  5
699
330
695
100
AcDbEntity
  8
LOGO
370
     0
100
AcDbVertex
100
AcDb2dVertex
 10
71.3631329975216
 20
127.8027915271048
 30
0.0
  0
VERTEX
  5
69A
330
695
100
AcDbEntity
  8
LOGO
370
     0
100
AcDbVertex
100
AcDb2dVertex
 10
60.43011526263018
 20
127.8027915271048
 30
0.0
  0
VERTEX
  5
69B
330
695
100
AcDbEntity
  8
LOGO
370
     0
100
AcDbVertex
100
AcDb2dVertex
 10
60.43011526263018
 20
159.7968976406313
 30
0.0
  0
VERTEX
  5
69C
330
695
100
AcDbEntity
  8
LOGO
370
     0
100
AcDbVertex
100
AcDb2dVertex
 10
48.21793273020759
 20
159.7968976406313
 30
0.0
  0
VERTEX
  5
69D
330
695
100
AcDbEntity
  8
LOGO
370
     0
100
AcDbVertex
100
AcDb2dVertex
 10
48.21793273020759
 20
167.6444858234922
 30
0.0
  0
VERTEX
  5
69E
330
695
100
AcDbEntity
  8
LOGO
370
     0
100
AcDbVertex
100
AcDb2dVertex
 10
83.79545727667795
 20
167.6444858234922
 30
0.0
  0
SEQEND
  5
69F
330
695
100
AcDbEntity
  8
LOGO
370
     0
  0
HATCH
  5
6A0
330
693
100
AcDbEntity
  8
LOGO
 62
   250
420
  2234388
100
AcDbHatch
 10
0.0
 20
0.0
 30
0.0
210
0.0
220
0.0
230
1.0
  2
SOLID
 70
     1
 71
     0
 91
        1
 92
        1
 93
        8
 72
     1
 10
83.79545727667795
 20
167.6444858234922
 11
83.79545727667795
 21
159.7968976406313
 72
     1
 10
83.79545727667795
 20
159.7968976406313
 11
71.3631329975216
 21
159.7968976406313
 72
     1
 10
71.3631329975216
 20
159.7968976406313
 11
71.3631329975216
 21
127.8027915271048
 72
     1
 10
71.3631329975216
 20
127.8027915271048
 11
60.43011526263018
 21
127.8027915271048
 72
     1
 10
60.43011526263018
 20
127.8027915271048
 11
60.43011526263018
 21
159.7968976406313
 72
     1
 10
60.43011526263018
 20
159.7968976406313
 11
48.21793273020759
 21
159.7968976406313
 72
     1
 10
48.21793273020759
 20
159.7968976406313
 11
48.21793273020759
 21
167.6444858234922
 72
     1
 10
48.21793273020759
 20
167.6444858234922
 11
83.79545727667795
 21
167.6444858234922
 97
        0
 75
     2
 76
     1
 98
        0
  0
ENDBLK
  5
6AE
330
693
100
AcDbEntity
  8
0
100
AcDbBlockEnd
  0
BLOCK
  5
6A3
330
6A2
100
AcDbEntity
  8
0
100
AcDbBlockBegin
  2
block 5
 70
     0
 10
0.0
 20
0.0
 30
0.0
  3
block 5
  1
block 5
  0
SPLINE
  5
6A4
330
6A2
100
AcDbEntity
  8
LOGO
370
     0
100
AcDbSpline
210
0.0
220
0.0
230
1.0
 70
    11
 71
     3
 72
    56
 73
    52
 74
     0
 42
0.000000001
 43
0.0000000001
 40
0.0
 40
0.0
 40
0.0
 40
0.0
 40
1.0
 40
1.0
 40
1.0
 40
2.0
 40
2.0
 40
2.0
 40
3.0
 40
3.0
 40
3.0
 40
4.0
 40
4.0
 40
4.0
 40
5.0
 40
5.0
 40
5.0
 40
6.0
 40
6.0
 40
6.0
 40
7.0
 40
7.0
 40
7.0
 40
8.0
 40
8.0
 40
8.0
 40
9.0
 40
9.0
 40
9.0
 40
10.0
 40
10.0
 40
10.0
 40
11.0
 40
11.0
 40
11.0
 40
12.0
 40
12.0
 40
12.0
 40
13.0
 40
13.0
 40
13.0
 40
14.0
 40
14.0
 40
14.0
 40
15.0
 40
15.0
 40
15.0
 40
16.0
 40
16.0
 40
16.0
 40
17.0
 40
17.0
 40
17.0
 40
17.0
 10
100.4504378777679
 20
166.69157178364
 30
0.0
 10
101.9848844191641
 20
167.1313385124438
 30
0.0
 10
103.9637485713373
 20
166.7649523658846
 30
0.0
 10
103.9637485713373
 20
166.7649523658846
 30
0.0
 10
103.9637485713373
 20
166.7649523658846
 30
0.0
 10
103.0132460999156
 20
163.911205638077
 30
0.0
 10
103.0132460999156
 20
163.911205638077
 30
0.0
 10
103.0132460999156
 20
163.911205638077
 30
0.0
 10
101.0674548862189
 20
164.3601018759394
 30
0.0
 10
99.57090442016032
 20
163.1805004036133
 30
0.0
 10
98.40508333886608
 20
162.258247733807
 30
0.0
 10
97.65301849830304
 20
159.804132345923
 30
0.0
 10
97.3598406791005
 20
158.8699940888517
 30
0.0
 10
97.3598406791005
 20
158.8699940888517
 30
0.0
 10
96.07137411762282
 20
154.9119212747295
 30
0.0
 10
96.07137411762282
 20
154.9119212747295
 30
0.0
 10
96.07137411762282
 20
154.9119212747295
 30
0.0
 10
100.3012651448482
 20
154.9119212747295
 30
0.0
 10
100.3012651448482
 20
154.9119212747295
 30
0.0
 10
100.3012651448482
 20
154.9119212747295
 30
0.0
 10
99.64152892419852
 20
152.4199098115079
 30
0.0
 10
99.64152892419852
 20
152.4199098115079
 30
0.0
 10
99.64152892419852
 20
152.4199098115079
 30
0.0
 10
95.38097652692731
 20
152.4199098115079
 30
0.0
 10
95.38097652692731
 20
152.4199098115079
 30
0.0
 10
95.38097652692731
 20
152.4199098115079
 30
0.0
 10
87.75353009080013
 20
127.8027915271048
 30
0.0
 10
87.75353009080013
 20
127.8027915271048
 30
0.0
 10
87.75353009080013
 20
127.8027915271048
 30
0.0
 10
85.36538832498108
 20
127.8027915271048
 30
0.0
 10
85.36538832498108
 20
127.8027915271048
 30
0.0
 10
85.36538832498108
 20
127.8027915271048
 30
0.0
 10
93.00006946639998
 20
152.4199098115079
 30
0.0
 10
93.00006946639998
 20
152.4199098115079
 30
0.0
 10
93.00006946639998
 20
152.4199098115079
 30
0.0
 10
89.85297266450198
 20
152.4199098115079
 30
0.0
 10
89.85297266450198
 20
152.4199098115079
 30
0.0
 10
89.85297266450198
 20
152.4199098115079
 30
0.0
 10
90.51270888515164
 20
154.9119212747295
 30
0.0
 10
90.51270888515164
 20
154.9119212747295
 30
0.0
 10
90.51270888515164
 20
154.9119212747295
 30
0.0
 10
93.6904670570955
 20
154.9119212747295
 30
0.0
 10
93.6904670570955
 20
154.9119212747295
 30
0.0
 10
93.6904670570955
 20
154.9119212747295
 30
0.0
 10
94.81598049462158
 20
158.3616699146644
 30
0.0
 10
94.81598049462158
 20
158.3616699146644
 30
0.0
 10
95.7237637538445
 20
161.2605474231013
 30
0.0
 10
96.4968436907311
 20
162.8139420021662
 30
0.0
 10
97.15657991138076
 20
163.9844139654337
 30
0.0
 10
97.81183750494507
 20
165.1523021053827
 30
0.0
 10
99.1047826935081
 20
166.3084769129547
 30
0.0
 10
100.4504378777679
 20
166.69157178364
 30
0.0
  0
HATCH
  5
6A5
330
6A2
100
AcDbEntity
  8
LOGO
 62
   250
420
  2234388
100
AcDbHatch
 10
0.0
 20
0.0
 30
0.0
210
0.0
220
0.0
230
1.0
  2
SOLID
 70
     1
 71
     0
 91
        1
 92
        1
 93
        1
 72
     4
 94
        3
 73
     0
 74
     1
 95
       56
 96
       52
 40
0.0
 40
0.0
 40
0.0
 40
0.0
 40
1.0
 40
1.0
 40
1.0
 40
2.0
 40
2.0
 40
2.0
 40
3.0
 40
3.0
 40
3.0
 40
4.0
 40
4.0
 40
4.0
 40
5.0
 40
5.0
 40
5.0
 40
6.0
 40
6.0
 40
6.0
 40
7.0
 40
7.0
 40
7.0
 40
8.0
 40
8.0
 40
8.0
 40
9.0
 40
9.0
 40
9.0
 40
10.0
 40
10.0
 40
10.0
 40
11.0
 40
11.0
 40
11.0
 40
12.0
 40
12.0
 40
12.0
 40
13.0
 40
13.0
 40
13.0
 40
14.0
 40
14.0
 40
14.0
 40
15.0
 40
15.0
 40
15.0
 40
16.0
 40
16.0
 40
16.0
 40
17.0
 40
17.0
 40
17.0
 40
17.0
 10
100.4504378777679
 20
166.69157178364
 10
101.9848844191641
 20
167.1313385124438
 10
103.9637485713373
 20
166.7649523658846
 10
103.9637485713373
 20
166.7649523658846
 10
103.9637485713373
 20
166.7649523658846
 10
103.0132460999156
 20
163.911205638077
 10
103.0132460999156
 20
163.911205638077
 10
103.0132460999156
 20
163.911205638077
 10
101.0674548862189
 20
164.3601018759394
 10
99.57090442016032
 20
163.1805004036133
 10
98.40508333886608
 20
162.258247733807
 10
97.65301849830304
 20
159.804132345923
 10
97.3598406791005
 20
158.8699940888517
 10
97.3598406791005
 20
158.8699940888517
 10
96.07137411762282
 20
154.9119212747295
 10
96.07137411762282
 20
154.9119212747295
 10
96.07137411762282
 20
154.9119212747295
 10
100.3012651448482
 20
154.9119212747295
 10
100.3012651448482
 20
154.9119212747295
 10
100.3012651448482
 20
154.9119212747295
 10
99.64152892419852
 20
152.4199098115079
 10
99.64152892419852
 20
152.4199098115079
 10
99.64152892419852
 20
152.4199098115079
 10
95.38097652692731
 20
152.4199098115079
 10
95.38097652692731
 20
152.4199098115079
 10
95.38097652692731
 20
152.4199098115079
 10
87.75353009080013
 20
127.8027915271048
 10
87.75353009080013
 20
127.8027915271048
 10
87.75353009080013
 20
127.8027915271048
 10
85.36538832498108
 20
127.8027915271048
 10
85.36538832498108
 20
127.8027915271048
 10
85.36538832498108
 20
127.8027915271048
 10
93.00006946639998
 20
152.4199098115079
 10
93.00006946639998
 20
152.4199098115079
 10
93.00006946639998
 20
152.4199098115079
 10
89.85297266450198
 20
152.4199098115079
 10
89.85297266450198
 20
152.4199098115079
 10
89.85297266450198
 20
152.4199098115079
 10
90.51270888515164
 20
154.9119212747295
 10
90.51270888515164
 20
154.9119212747295
 10
90.51270888515164
 20
154.9119212747295
 10
93.6904670570955
 20
154.9119212747295
 10
93.6904670570955
 20
154.9119212747295
 10
93.6904670570955
 20
154.9119212747295
 10
94.81598049462158
 20
158.3616699146644
 10
94.81598049462158
 20
158.3616699146644
 10
95.7237637538445
 20
161.2605474231013
 10
96.4968436907311
 20
162.8139420021662
 10
97.15657991138076
 20
163.9844139654337
 10
97.81183750494507
 20
165.1523021053827
 10
99.1047826935081
 20
166.3084769129547
 10
100.4504378777679
 20
166.69157178364
 97
        0
 75
     2
 76
     1
 98
        0
  0
SPLINE
  5
6A6
330
6A2
100
AcDbEntity
  8
LOGO
370
     0
100
AcDbSpline
210
0.0
220
0.0
230
1.0
 70
    11
 71
     3
 72
    38
 73
    34
 74
     0
 42
0.000000001
 43
0.0000000001
 40
0.0
 40
0.0
 40
0.0
 40
0.0
 40
1.0
 40
1.0
 40
1.0
 40
2.0
 40
2.0
 40
2.0
 40
3.0
 40
3.0
 40
3.0
 40
4.0
 40
4.0
 40
4.0
 40
5.0
 40
5.0
 40
5.0
 40
6.0
 40
6.0
 40
6.0
 40
7.0
 40
7.0
 40
7.0
 40
8.0
 40
8.0
 40
8.0
 40
9.0
 40
9.0
 40
9.0
 40
10.0
 40
10.0
 40
10.0
 40
11.0
 40
11.0
 40
11.0
 40
11.0
 10
126.377554584636
 20
154.8151140277308
 30
0.0
 10
126.377554584636
 20
154.8151140277308
 30
0.0
 10
128.8311532078563
 20
154.8151140277308
 30
0.0
 10
128.8311532078563
 20
154.8151140277308
 30
0.0
 10
128.8311532078563
 20
154.8151140277308
 30
0.0
 10
127.7345785914971
 20
151.3062819612468
 30
0.0
 10
127.7345785914971
 20
151.3062819612468
 30
0.0
 10
128.571392836906
 20
152.2922689395754
 30
0.0
 10
129.8860421413442
 20
153.604506675583
 30
0.0
 10
131.0163787157314
 20
154.2664822097754
 30
0.0
 10
132.7044766171327
 20
155.2500576196734
 30
0.0
 10
133.6642808525008
 20
155.3847609420097
 30
0.0
 10
134.7284715499351
 20
155.3565111403944
 30
0.0
 10
134.7284715499351
 20
155.3565111403944
 30
0.0
 10
133.6877075172549
 20
152.0345756272799
 30
0.0
 10
133.6877075172549
 20
152.0345756272799
 30
0.0
 10
133.011434827367
 20
152.3184516825359
 30
0.0
 10
130.930940291334
 20
151.7768823149844
 30
0.0
 10
129.739280976855
 20
150.9162968950455
 30
0.0
 10
128.66613302525
 20
150.1454562717016
 30
0.0
 10
127.9192358313239
 20
149.4857200510519
 30
0.0
 10
127.0393578639405
 20
147.8282835196966
 30
0.0
 10
126.164647543194
 20
146.1699857139017
 30
0.0
 10
125.4742499524985
 20
143.5262176944419
 30
0.0
 10
124.2822461282437
 20
139.6959580071401
 30
0.0
 10
124.2822461282437
 20
139.6959580071401
 30
0.0
 10
120.5753209406769
 20
127.8027915271048
 30
0.0
 10
120.5753209406769
 20
127.8027915271048
 30
0.0
 10
120.5753209406769
 20
127.8027915271048
 30
0.0
 10
118.1964809388044
 20
127.8027915271048
 30
0.0
 10
118.1964809388044
 20
127.8027915271048
 30
0.0
 10
118.1964809388044
 20
127.8027915271048
 30
0.0
 10
126.377554584636
 20
154.8151140277308
 30
0.0
 10
126.377554584636
 20
154.8151140277308
 30
0.0
  0
HATCH
  5
6A7
330
6A2
100
AcDbEntity
  8
LOGO
 62
   250
420
  2234388
100
AcDbHatch
 10
0.0
 20
0.0
 30
0.0
210
0.0
220
0.0
230
1.0
  2
SOLID
 70
     1
 71
     0
 91
        1
 92
        1
 93
        1
 72
     4
 94
        3
 73
     0
 74
     1
 95
       38
 96
       34
 40
0.0
 40
0.0
 40
0.0
 40
0.0
 40
1.0
 40
1.0
 40
1.0
 40
2.0
 40
2.0
 40
2.0
 40
3.0
 40
3.0
 40
3.0
 40
4.0
 40
4.0
 40
4.0
 40
5.0
 40
5.0
 40
5.0
 40
6.0
 40
6.0
 40
6.0
 40
7.0
 40
7.0
 40
7.0
 40
8.0
 40
8.0
 40
8.0
 40
9.0
 40
9.0
 40
9.0
 40
10.0
 40
10.0
 40
10.0
 40
11.0
 40
11.0
 40
11.0
 40
11.0
 10
126.377554584636
 20
154.8151140277308
 10
126.377554584636
 20
154.8151140277308
 10
128.8311532078563
 20
154.8151140277308
 10
128.8311532078563
 20
154.8151140277308
 10
128.8311532078563
 20
154.8151140277308
 10
127.7345785914971
 20
151.3062819612468
 10
127.7345785914971
 20
151.3062819612468
 10
128.571392836906
 20
152.2922689395754
 10
129.8860421413442
 20
153.604506675583
 10
131.0163787157314
 20
154.2664822097754
 10
132.7044766171327
 20
155.2500576196734
 10
133.6642808525008
 20
155.3847609420097
 10
134.7284715499351
 20
155.3565111403944
 10
134.7284715499351
 20
155.3565111403944
 10
133.6877075172549
 20
152.0345756272799
 10
133.6877075172549
 20
152.0345756272799
 10
133.011434827367
 20
152.3184516825359
 10
130.930940291334
 20
151.7768823149844
 10
129.739280976855
 20
150.9162968950455
 10
128.66613302525
 20
150.1454562717016
 10
127.9192358313239
 20
149.4857200510519
 10
127.0393578639405
 20
147.8282835196966
 10
126.164647543194
 20
146.1699857139017
 10
125.4742499524985
 20
143.5262176944419
 10
124.2822461282437
 20
139.6959580071401
 10
124.2822461282437
 20
139.6959580071401
 10
120.5753209406769
 20
127.8027915271048
 10
120.5753209406769
 20
127.8027915271048
 10
120.5753209406769
 20
127.8027915271048
 10
118.1964809388044
 20
127.8027915271048
 10
118.1964809388044
 20
127.8027915271048
 10
118.1964809388044
 20
127.8027915271048
 10
126.377554584636
 20
154.8151140277308
 10
126.377554584636
 20
154.8151140277308
 97
        0
 75
     2
 76
     1
 98
        0
  0
SPLINE
  5
6A8
330
6A2
100
AcDbEntity
  8
LOGO
370
     0
100
AcDbSpline
210
0.0
220
0.0
230
1.0
 70
    11
 71
     3
 72
   104
 73
   100
 74
     0
 42
0.000000001
 43
0.0000000001
 40
0.0
 40
0.0
 40
0.0
 40
0.0
 40
1.0
 40
1.0
 40
1.0
 40
2.0
 40
2.0
 40
2.0
 40
3.0
 40
3.0
 40
3.0
 40
4.0
 40
4.0
 40
4.0
 40
5.0
 40
5.0
 40
5.0
 40
6.0
 40
6.0
 40
6.0
 40
7.0
 40
7.0
 40
7.0
 40
8.0
 40
8.0
 40
8.0
 40
9.0
 40
9.0
 40
9.0
 40
10.0
 40
10.0
 40
10.0
 40
11.0
 40
11.0
 40
11.0
 40
12.0
 40
12.0
 40
12.0
 40
13.0
 40
13.0
 40
13.0
 40
14.0
 40
14.0
 40
14.0
 40
15.0
 40
15.0
 40
15.0
 40
16.0
 40
16.0
 40
16.0
 40
17.0
 40
17.0
 40
17.0
 40
18.0
 40
18.0
 40
18.0
 40
19.0
 40
19.0
 40
19.0
 40
20.0
 40
20.0
 40
20.0
 40
21.0
 40
21.0
 40
21.0
 40
22.0
 40
22.0
 40
22.0
 40
23.0
 40
23.0
 40
23.0
 40
24.0
 40
24.0
 40
24.0
 40
25.0
 40
25.0
 40
25.0
 40
26.0
 40
26.0
 40
26.0
 40
27.0
 40
27.0
 40
27.0
 40
28.0
 40
28.0
 40
28.0
 40
29.0
 40
29.0
 40
29.0
 40
30.0
 40
30.0
 40
30.0
 40
31.0
 40
31.0
 40
31.0
 40
32.0
 40
32.0
 40
32.0
 40
33.0
 40
33.0
 40
33.0
 40
33.0
 10
139.8926730891197
 20
154.8294111834263
 30
0.0
 10
139.8926730891197
 20
154.8294111834263
 30
0.0
 10
142.0344903652445
 20
154.8294111834263
 30
0.0
 10
142.0344903652445
 20
154.8294111834263
 30
0.0
 10
142.0344903652445
 20
154.8294111834263
 30
0.0
 10
140.9516961399171
 20
151.3157559800812
 30
0.0
 10
140.9516961399171
 20
151.3157559800812
 30
0.0
 10
141.8928968473923
 20
152.7887075264977
 30
0.0
 10
142.7341897198865
 20
153.4484437471474
 30
0.0
 10
143.8552245303272
 20
154.2926649527359
 30
0.0
 10
144.9803934580775
 20
155.1296514530327
 30
0.0
 10
146.3139908001845
 20
155.3044901642492
 30
0.0
 10
147.241066606852
 20
155.3044901642492
 30
0.0
 10
148.3855280820469
 20
155.3044901642492
 30
0.0
 10
149.4969166187653
 20
155.0752189084569
 30
0.0
 10
150.0784491203092
 20
153.8172414621372
 30
0.0
 10
150.5228667310863
 20
152.833838307127
 30
0.0
 10
150.5414702589793
 20
152.7201500811143
 30
0.0
 10
150.4140016419347
 20
150.7765981809602
 30
0.0
 10
151.5818897818837
 20
152.7699317437168
 30
0.0
 10
152.4424752018226
 20
153.6256940267945
 30
0.0
 10
153.9038856707499
 20
154.4507949398263
 30
0.0
 10
155.4455669174378
 20
155.3044901642492
 30
0.0
 10
156.339225275853
 20
155.3659851592288
 30
0.0
 10
157.3748216618963
 20
155.2147453676543
 30
0.0
 10
158.911679771723
 20
154.9877134254046
 30
0.0
 10
159.8859534176746
 20
154.4390816074493
 30
0.0
 10
160.3965169054045
 20
152.7816450760939
 30
0.0
 10
160.9070803931344
 20
151.1219692311958
 30
0.0
 10
160.6328506116007
 20
150.2303779314354
 30
0.0
 10
159.9992971339115
 20
147.597634224801
 30
0.0
 10
159.7105979417943
 20
146.4014962832367
 30
0.0
 10
159.2947746424084
 20
144.9400858143094
 30
0.0
 10
158.7463150793409
 20
143.2092687007094
 30
0.0
 10
158.7463150793409
 20
143.2092687007094
 30
0.0
 10
153.9038856707499
 20
127.8027915271048
 30
0.0
 10
153.9038856707499
 20
127.8027915271048
 30
0.0
 10
153.9038856707499
 20
127.8027915271048
 30
0.0
 10
151.3882752878863
 20
127.8027915271048
 30
0.0
 10
151.3882752878863
 20
127.8027915271048
 30
0.0
 10
151.3882752878863
 20
127.8027915271048
 30
0.0
 10
155.6250565106276
 20
141.2751908193897
 30
0.0
 10
155.6250565106276
 20
141.2751908193897
 30
0.0
 10
156.5094131050963
 20
144.0936252951782
 30
0.0
 10
157.109893644309
 20
146.1506931664571
 30
0.0
 10
157.4220195011804
 20
147.4415712963654
 30
0.0
 10
157.8095929989511
 20
149.0530157726519
 30
0.0
 10
157.9656559273867
 20
149.5826995529385
 30
0.0
 10
157.7816877071116
 20
150.7529992613181
 30
0.0
 10
157.6111553680925
 20
151.8430281919372
 30
0.0
 10
157.0582171779396
 20
152.5547853887321
 30
0.0
 10
156.1170164704645
 20
152.5547853887321
 30
0.0
 10
155.1096698860365
 20
152.5547853887321
 30
0.0
 10
154.2962823053817
 20
152.4412694176073
 30
0.0
 10
153.156643967048
 20
151.2945686288697
 30
0.0
 10
152.0170056287143
 20
150.1476955852443
 30
0.0
 10
151.076149431015
 20
148.7930831468137
 30
0.0
 10
150.3337308641742
 20
147.2290087646991
 30
0.0
 10
149.5957909244188
 20
145.6683794803425
 30
0.0
 10
148.8530278478023
 20
143.6822806228776
 30
0.0
 10
148.0964843801539
 20
141.2751908193897
 30
0.0
 10
148.0964843801539
 20
141.2751908193897
 30
0.0
 10
143.8552245303272
 20
127.8027915271048
 30
0.0
 10
143.8552245303272
 20
127.8027915271048
 30
0.0
 10
143.8552245303272
 20
127.8027915271048
 30
0.0
 10
141.486030802177
 20
127.8027915271048
 30
0.0
 10
141.486030802177
 20
127.8027915271048
 30
0.0
 10
141.486030802177
 20
127.8027915271048
 30
0.0
 10
146.3329388378533
 20
143.2092687007094
 30
0.0
 10
146.3329388378533
 20
143.2092687007094
 30
0.0
 10
146.8483254624444
 20
144.8408669988801
 30
0.0
 10
147.2314203331297
 20
146.1837661049335
 30
0.0
 10
147.4867020769946
 20
147.224185627838
 30
0.0
 10
147.9169947869641
 20
149.0197705792876
 30
0.0
 10
148.0306830129768
 20
150.2400242051577
 30
0.0
 10
147.709255392159
 20
151.3157559800812
 30
0.0
 10
147.3874832615654
 20
152.3916600098926
 30
0.0
 10
146.8245542879144
 20
152.6683013598569
 30
0.0
 10
145.8840425999909
 20
152.6683013598569
 30
0.0
 10
145.0989048209514
 20
152.6683013598569
 30
0.0
 10
144.3282364524954
 20
152.3275811915945
 30
0.0
 10
143.4531816219731
 20
151.6538923250251
 30
0.0
 10
142.34627171234
 20
150.8074318058939
 30
0.0
 10
141.901854101563
 20
150.1097995099067
 30
0.0
 10
141.3578731655808
 20
149.289521733736
 30
0.0
 10
140.6299240093235
 20
148.192602607601
 30
0.0
 10
140.2850697237515
 20
147.455696197173
 30
0.0
 10
139.6652966370942
 20
145.8385673095858
 30
0.0
 10
139.0506911970739
 20
144.2214384219986
 30
0.0
 10
138.463991048893
 20
142.3252566160164
 30
0.0
 10
138.0571250036777
 20
141.0154304484394
 30
0.0
 10
138.0571250036777
 20
141.0154304484394
 30
0.0
 10
133.9009590684727
 20
127.8027915271048
 30
0.0
 10
133.9009590684727
 20
127.8027915271048
 30
0.0
 10
133.9009590684727
 20
127.8027915271048
 30
0.0
 10
131.4180771143097
 20
127.8027915271048
 30
0.0
 10
131.4180771143097
 20
127.8027915271048
 30
0.0
 10
131.4180771143097
 20
127.8027915271048
 30
0.0
 10
139.8926730891197
 20
154.8294111834263
 30
0.0
 10
139.8926730891197
 20
154.8294111834263
 30
0.0
  0
HATCH
  5
6A9
330
6A2
100
AcDbEntity
  8
LOGO
 62
   250
420
  2234388
100
AcDbHatch
 10
0.0
 20
0.0
 30
0.0
210
0.0
220
0.0
230
1.0
  2
SOLID
 70
     1
 71
     0
 91
        1
 92
        1
 93
        1
 72
     4
 94
        3
 73
     0
 74
     1
 95
      104
 96
      100
 40
0.0
 40
0.0
 40
0.0
 40
0.0
 40
1.0
 40
1.0
 40
1.0
 40
2.0
 40
2.0
 40
2.0
 40
3.0
 40
3.0
 40
3.0
 40
4.0
 40
4.0
 40
4.0
 40
5.0
 40
5.0
 40
5.0
 40
6.0
 40
6.0
 40
6.0
 40
7.0
 40
7.0
 40
7.0
 40
8.0
 40
8.0
 40
8.0
 40
9.0
 40
9.0
 40
9.0
 40
10.0
 40
10.0
 40
10.0
 40
11.0
 40
11.0
 40
11.0
 40
12.0
 40
12.0
 40
12.0
 40
13.0
 40
13.0
 40
13.0
 40
14.0
 40
14.0
 40
14.0
 40
15.0
 40
15.0
 40
15.0
 40
16.0
 40
16.0
 40
16.0
 40
17.0
 40
17.0
 40
17.0
 40
18.0
 40
18.0
 40
18.0
 40
19.0
 40
19.0
 40
19.0
 40
20.0
 40
20.0
 40
20.0
 40
21.0
 40
21.0
 40
21.0
 40
22.0
 40
22.0
 40
22.0
 40
23.0
 40
23.0
 40
23.0
 40
24.0
 40
24.0
 40
24.0
 40
25.0
 40
25.0
 40
25.0
 40
26.0
 40
26.0
 40
26.0
 40
27.0
 40
27.0
 40
27.0
 40
28.0
 40
28.0
 40
28.0
 40
29.0
 40
29.0
 40
29.0
 40
30.0
 40
30.0
 40
30.0
 40
31.0
 40
31.0
 40
31.0
 40
32.0
 40
32.0
 40
32.0
 40
33.0
 40
33.0
 40
33.0
 40
33.0
 10
139.8926730891197
 20
154.8294111834263
 10
139.8926730891197
 20
154.8294111834263
 10
142.0344903652445
 20
154.8294111834263
 10
142.0344903652445
 20
154.8294111834263
 10
142.0344903652445
 20
154.8294111834263
 10
140.9516961399171
 20
151.3157559800812
 10
140.9516961399171
 20
151.3157559800812
 10
141.8928968473923
 20
152.7887075264977
 10
142.7341897198865
 20
153.4484437471474
 10
143.8552245303272
 20
154.2926649527359
 10
144.9803934580775
 20
155.1296514530327
 10
146.3139908001845
 20
155.3044901642492
 10
147.241066606852
 20
155.3044901642492
 10
148.3855280820469
 20
155.3044901642492
 10
149.4969166187653
 20
155.0752189084569
 10
150.0784491203092
 20
153.8172414621372
 10
150.5228667310863
 20
152.833838307127
 10
150.5414702589793
 20
152.7201500811143
 10
150.4140016419347
 20
150.7765981809602
 10
151.5818897818837
 20
152.7699317437168
 10
152.4424752018226
 20
153.6256940267945
 10
153.9038856707499
 20
154.4507949398263
 10
155.4455669174378
 20
155.3044901642492
 10
156.339225275853
 20
155.3659851592288
 10
157.3748216618963
 20
155.2147453676543
 10
158.911679771723
 20
154.9877134254046
 10
159.8859534176746
 20
154.4390816074493
 10
160.3965169054045
 20
152.7816450760939
 10
160.9070803931344
 20
151.1219692311958
 10
160.6328506116007
 20
150.2303779314354
 10
159.9992971339115
 20
147.597634224801
 10
159.7105979417943
 20
146.4014962832367
 10
159.2947746424084
 20
144.9400858143094
 10
158.7463150793409
 20
143.2092687007094
 10
158.7463150793409
 20
143.2092687007094
 10
153.9038856707499
 20
127.8027915271048
 10
153.9038856707499
 20
127.8027915271048
 10
153.9038856707499
 20
127.8027915271048
 10
151.3882752878863
 20
127.8027915271048
 10
151.3882752878863
 20
127.8027915271048
 10
151.3882752878863
 20
127.8027915271048
 10
155.6250565106276
 20
141.2751908193897
 10
155.6250565106276
 20
141.2751908193897
 10
156.5094131050963
 20
144.0936252951782
 10
157.109893644309
 20
146.1506931664571
 10
157.4220195011804
 20
147.4415712963654
 10
157.8095929989511
 20
149.0530157726519
 10
157.9656559273867
 20
149.5826995529385
 10
157.7816877071116
 20
150.7529992613181
 10
157.6111553680925
 20
151.8430281919372
 10
157.0582171779396
 20
152.5547853887321
 10
156.1170164704645
 20
152.5547853887321
 10
155.1096698860365
 20
152.5547853887321
 10
154.2962823053817
 20
152.4412694176073
 10
153.156643967048
 20
151.2945686288697
 10
152.0170056287143
 20
150.1476955852443
 10
151.076149431015
 20
148.7930831468137
 10
150.3337308641742
 20
147.2290087646991
 10
149.5957909244188
 20
145.6683794803425
 10
148.8530278478023
 20
143.6822806228776
 10
148.0964843801539
 20
141.2751908193897
 10
148.0964843801539
 20
141.2751908193897
 10
143.8552245303272
 20
127.8027915271048
 10
143.8552245303272
 20
127.8027915271048
 10
143.8552245303272
 20
127.8027915271048
 10
141.486030802177
 20
127.8027915271048
 10
141.486030802177
 20
127.8027915271048
 10
141.486030802177
 20
127.8027915271048
 10
146.3329388378533
 20
143.2092687007094
 10
146.3329388378533
 20
143.2092687007094
 10
146.8483254624444
 20
144.8408669988801
 10
147.2314203331297
 20
146.1837661049335
 10
147.4867020769946
 20
147.224185627838
 10
147.9169947869641
 20
149.0197705792876
 10
148.0306830129768
 20
150.2400242051577
 10
147.709255392159
 20
151.3157559800812
 10
147.3874832615654
 20
152.3916600098926
 10
146.8245542879144
 20
152.6683013598569
 10
145.8840425999909
 20
152.6683013598569
 10
145.0989048209514
 20
152.6683013598569
 10
144.3282364524954
 20
152.3275811915945
 10
143.4531816219731
 20
151.6538923250251
 10
142.34627171234
 20
150.8074318058939
 10
141.901854101563
 20
150.1097995099067
 10
141.3578731655808
 20
149.289521733736
 10
140.6299240093235
 20
148.192602607601
 10
140.2850697237515
 20
147.455696197173
 10
139.6652966370942
 20
145.8385673095858
 10
139.0506911970739
 20
144.2214384219986
 10
138.463991048893
 20
142.3252566160164
 10
138.0571250036777
 20
141.0154304484394
 10
138.0571250036777
 20
141.0154304484394
 10
133.9009590684727
 20
127.8027915271048
 10
133.9009590684727
 20
127.8027915271048
 10
133.9009590684727
 20
127.8027915271048
 10
131.4180771143097
 20
127.8027915271048
 10
131.4180771143097
 20
127.8027915271048
 10
131.4180771143097
 20
127.8027915271048
 10
139.8926730891197
 20
154.8294111834263
 10
139.8926730891197
 20
154.8294111834263
 97
        0
 75
     2
 76
     1
 98
        0
  0
SPLINE
  5
6AA
330
6A2
100
AcDbEntity
  8
LOGO
370
     0
100
AcDbSpline
210
0.0
220
0.0
230
1.0
 70
    11
 71
     3
 72
    29
 73
    25
 74
     0
 42
0.000000001
 43
0.0000000001
 40
0.0
 40
0.0
 40
0.0
 40
0.0
 40
1.0
 40
1.0
 40
1.0
 40
2.0
 40
2.0
 40
2.0
 40
3.0
 40
3.0
 40
3.0
 40
4.0
 40
4.0
 40
4.0
 40
5.0
 40
5.0
 40
5.0
 40
6.0
 40
6.0
 40
6.0
 40
7.0
 40
7.0
 40
7.0
 40
8.0
 40
8.0
 40
8.0
 40
8.0
 10
101.6420971922469
 20
132.8388354296931
 30
0.0
 10
101.630039350094
 20
134.7164137077823
 30
0.0
 10
102.2236296937908
 20
138.0598810818841
 30
0.0
 10
103.7487744712405
 20
142.5378191476827
 30
0.0
 10
105.819967243327
 20
148.5896501242061
 30
0.0
 10
107.0602024361932
 20
150.8074318058939
 30
0.0
 10
108.1522984254671
 20
151.8833358357054
 30
0.0
 10
109.741177511439
 20
153.4532668840085
 30
0.0
 10
111.8740375333931
 20
153.5290590346837
 30
0.0
 10
112.5075910110823
 20
153.4532668840085
 30
0.0
 10
113.4012493694975
 20
153.3490526768302
 30
0.0
 10
114.6683563248758
 20
152.7580461564518
 30
0.0
 10
114.7493161221879
 20
150.7838328862519
 30
0.0
 10
114.8106388622796
 20
149.0909118479895
 30
0.0
 10
114.3186789024427
 20
145.9191825971221
 30
0.0
 10
112.6164561002338
 20
140.9489400617108
 30
0.0
 10
110.6444821435766
 20
135.1746117095912
 30
0.0
 10
109.4669477299053
 20
132.8960240524753
 30
0.0
 10
108.5212683953448
 20
131.9072809959403
 30
0.0
 10
106.7346406980658
 20
130.0538184021569
 30
0.0
 10
104.8222669326213
 20
130.2336525051225
 30
0.0
 10
104.5408024457958
 20
130.2336525051225
 30
0.0
 10
104.1721769856939
 20
130.2336525051225
 30
0.0
 10
101.6465758193322
 20
130.6305277668397
 30
0.0
 10
101.6420971922469
 20
132.8388354296931
 30
0.0
  0
SPLINE
  5
6AB
330
6A2
100
AcDbEntity
  8
LOGO
370
     0
100
AcDbSpline
210
0.0
220
0.0
230
1.0
 70
    11
 71
     3
 72
    32
 73
    28
 74
     0
 42
0.000000001
 43
0.0000000001
 40
0.0
 40
0.0
 40
0.0
 40
0.0
 40
1.0
 40
1.0
 40
1.0
 40
2.0
 40
2.0
 40
2.0
 40
3.0
 40
3.0
 40
3.0
 40
4.0
 40
4.0
 40
4.0
 40
5.0
 40
5.0
 40
5.0
 40
6.0
 40
6.0
 40
6.0
 40
7.0
 40
7.0
 40
7.0
 40
8.0
 40
8.0
 40
8.0
 40
9.0
 40
9.0
 40
9.0
 40
9.0
 10
106.2595617172429
 20
153.4105476718098
 30
0.0
 10
104.8222669326213
 20
151.5474388043041
 30
0.0
 10
103.7177685914188
 20
149.8758773721411
 30
0.0
 10
101.9232171692965
 20
144.6141795664062
 30
0.0
 10
100.2754269116635
 20
139.7999999594306
 30
0.0
 10
99.22777268346732
 20
136.3052927937542
 30
0.0
 10
99.06964269637689
 20
132.039572749846
 30
0.0
 10
98.94665270641765
 20
128.8673267343149
 30
0.0
 10
100.8807305877373
 20
127.8027915271048
 30
0.0
 10
103.7129454545577
 20
127.8027915271048
 30
0.0
 10
104.9352661390825
 20
127.8027915271048
 30
0.0
 10
108.0151835347002
 20
127.8827177950895
 30
0.0
 10
110.2045431598849
 20
130.5926316915021
 30
0.0
 10
111.7417457794874
 20
132.4984597712065
 30
0.0
 10
113.155269389579
 20
134.475256864725
 30
0.0
 10
115.0562743324223
 20
140.9489400617108
 30
0.0
 10
116.6361961642235
 20
146.3680788349845
 30
0.0
 10
117.7282921534974
 20
149.8639917848761
 30
0.0
 10
117.6480213757369
 20
151.8595646611754
 30
0.0
 10
117.6480213757369
 20
151.8595646611754
 30
0.0
 10
117.6480213757369
 20
151.8595646611754
 30
0.0
 10
117.6480213757369
 20
151.8595646611754
 30
0.0
 10
117.13229024137
 20
155.18150017429
 30
0.0
 10
114.7162431837115
 20
155.886194920681
 30
0.0
 10
113.3351034925446
 20
155.886194920681
 30
0.0
 10
111.9829026225447
 20
155.886194920681
 30
0.0
 10
108.3414342923792
 20
156.1251124501957
 30
0.0
 10
106.2595617172429
 20
153.4105476718098
 30
0.0
  0
HATCH
  5
6AC
330
6A2
100
AcDbEntity
  8
LOGO
 62
   250
420
  2234388
100
AcDbHatch
 10
0.0
 20
0.0
 30
0.0
210
0.0
220
0.0
230
1.0
  2
SOLID
 70
     1
 71
     0
 91
        2
 92
        1
 93
        1
 72
     4
 94
        3
 73
     0
 74
     1
 95
       29
 96
       25
 40
0.0
 40
0.0
 40
0.0
 40
0.0
 40
1.0
 40
1.0
 40
1.0
 40
2.0
 40
2.0
 40
2.0
 40
3.0
 40
3.0
 40
3.0
 40
4.0
 40
4.0
 40
4.0
 40
5.0
 40
5.0
 40
5.0
 40
6.0
 40
6.0
 40
6.0
 40
7.0
 40
7.0
 40
7.0
 40
8.0
 40
8.0
 40
8.0
 40
8.0
 10
101.6420971922469
 20
132.8388354296931
 10
101.630039350094
 20
134.7164137077823
 10
102.2236296937908
 20
138.0598810818841
 10
103.7487744712405
 20
142.5378191476827
 10
105.819967243327
 20
148.5896501242061
 10
107.0602024361932
 20
150.8074318058939
 10
108.1522984254671
 20
151.8833358357054
 10
109.741177511439
 20
153.4532668840085
 10
111.8740375333931
 20
153.5290590346837
 10
112.5075910110823
 20
153.4532668840085
 10
113.4012493694975
 20
153.3490526768302
 10
114.6683563248758
 20
152.7580461564518
 10
114.7493161221879
 20
150.7838328862519
 10
114.8106388622796
 20
149.0909118479895
 10
114.3186789024427
 20
145.9191825971221
 10
112.6164561002338
 20
140.9489400617108
 10
110.6444821435766
 20
135.1746117095912
 10
109.4669477299053
 20
132.8960240524753
 10
108.5212683953448
 20
131.9072809959403
 10
106.7346406980658
 20
130.0538184021569
 10
104.8222669326213
 20
130.2336525051225
 10
104.5408024457958
 20
130.2336525051225
 10
104.1721769856939
 20
130.2336525051225
 10
101.6465758193322
 20
130.6305277668397
 10
101.6420971922469
 20
132.8388354296931
 97
        0
 92
        1
 93
        1
 72
     4
 94
        3
 73
     0
 74
     1
 95
       32
 96
       28
 40
0.0
 40
0.0
 40
0.0
 40
0.0
 40
1.0
 40
1.0
 40
1.0
 40
2.0
 40
2.0
 40
2.0
 40
3.0
 40
3.0
 40
3.0
 40
4.0
 40
4.0
 40
4.0
 40
5.0
 40
5.0
 40
5.0
 40
6.0
 40
6.0
 40
6.0
 40
7.0
 40
7.0
 40
7.0
 40
8.0
 40
8.0
 40
8.0
 40
9.0
 40
9.0
 40
9.0
 40
9.0
 10
106.2595617172429
 20
153.4105476718098
 10
104.8222669326213
 20
151.5474388043041
 10
103.7177685914188
 20
149.8758773721411
 10
101.9232171692965
 20
144.6141795664062
 10
100.2754269116635
 20
139.7999999594306
 10
99.22777268346732
 20
136.3052927937542
 10
99.06964269637689
 20
132.039572749846
 10
98.94665270641765
 20
128.8673267343149
 10
100.8807305877373
 20
127.8027915271048
 10
103.7129454545577
 20
127.8027915271048
 10
104.9352661390825
 20
127.8027915271048
 10
108.0151835347002
 20
127.8827177950895
 10
110.2045431598849
 20
130.5926316915021
 10
111.7417457794874
 20
132.4984597712065
 10
113.155269389579
 20
134.475256864725
 10
115.0562743324223
 20
140.9489400617108
 10
116.6361961642235
 20
146.3680788349845
 10
117.7282921534974
 20
149.8639917848761
 10
117.6480213757369
 20
151.8595646611754
 10
117.6480213757369
 20
151.8595646611754
 10
117.6480213757369
 20
151.8595646611754
 10
117.6480213757369
 20
151.8595646611754
 10
117.13229024137
 20
155.18150017429
 10
114.7162431837115
 20
155.886194920681
 10
113.3351034925446
 20
155.886194920681
 10
111.9829026225447
 20
155.886194920681
 10
108.3414342923792
 20
156.1251124501957
 10
106.2595617172429
 20
153.4105476718098
 97
        0
 75
     2
 76
     1
 98
        0
  0
ENDBLK
  5
6AD
330
6A2
100
AcDbEntity
  8
0
100
AcDbBlockEnd
  0
BLOCK
  5
10CD
330
10CC
100
AcDbEntity
  8
0
100
AcDbBlockBegin
  2
*D6
 70
     1
 10
0.0
 20
0.0
 30
0.0
  3
*D6
  1
*D28
  0
LINE
  5
10CF
330
10CC
100
AcDbEntity
  8
DIM
  6
Continuous
 62
     0
370
    -2
100
AcDbLine
 10
484.2154214923985
 20
1139.042023879012
 30
0.0
 11
484.2154214923985
 21
1192.559730815598
 31
0.0
  0
LINE
  5
10D0
330
10CC
100
AcDbEntity
  8
DIM
  6
Continuous
 62
     0
370
    -2
100
AcDbLine
 10
124.2154214923987
 20
1138.900848583667
 30
0.0
 11
124.2154214923987
 21
1192.559730815598
 31
0.0
  0
LINE
  5
10D1
330
10CC
100
AcDbEntity
  8
DIM
  6
Continuous
 62
     0
370
    -2
100
AcDbLine
 10
481.2154214923985
 20
1192.559730815598
 30
0.0
 11
127.2154214923987
 21
1192.559730815598
 31
0.0
  0
INSERT
  5
10D2
330
10CC
100
AcDbEntity
  8
DIM
 62
     0
370
    -2
100
AcDbBlockReference
  2
_DOT
 10
484.2154214923985
 20
1192.559730815598
 30
0.0
 41
3.0
 42
3.0
 43
3.0
  0
INSERT
  5
10D3
330
10CC
100
AcDbEntity
  8
DIM
 62
     0
370
    -2
100
AcDbBlockReference
  2
_DOT
 10
124.2154214923987
 20
1192.559730815598
 30
0.0
 41
3.0
 42
3.0
 43
3.0
 50
180.0
  0
MTEXT
  5
10D4
330
10CC
100
AcDbEntity
  8
DIM
  6
HIDDEN
 62
     0
 48
0.05
100
AcDbMText
 10
304.2154214923987
 20
1208.559730815598
 30
0.0
 40
12.0
 41
0.0
 46
0.0
 71
     5
 72
     1
  1
\A1;360
  7
ＭＳ ゴシック
 73
     1
 44
1.0
  0
POINT
  5
10D5
330
10CC
100
AcDbEntity
  8
Defpoints
 62
     0
100
AcDbPoint
 10
484.2154214923985
 20
1124.042023879012
 30
0.0
  0
POINT
  5
10D6
330
10CC
100
AcDbEntity
  8
Defpoints
 62
     0
100
AcDbPoint
 10
124.2154214923987
 20
1123.900848583667
 30
0.0
  0
POINT
  5
10D7
330
10CC
100
AcDbEntity
  8
Defpoints
 62
     0
100
AcDbPoint
 10
124.2154214923987
 20
1192.559730815598
 30
0.0
  0
ENDBLK
  5
10CE
330
10CC
100
AcDbEntity
  8
0
100
AcDbBlockEnd
  0
BLOCK
  5
10D9
330
10D8
100
AcDbEntity
  8
0
100
AcDbBlockBegin
  2
*D7
 70
     1
 10
0.0
 20
0.0
 30
0.0
  3
*D7
  1
*D29
  0
LINE
  5
10DB
330
10D8
100
AcDbEntity
  8
DIM
  6
Continuous
 62
     0
370
    -2
100
AcDbLine
 10
144.215421492398
 20
955.9832113954461
 30
0.0
 11
144.215421492398
 21
898.5240604123683
 31
0.0
  0
LINE
  5
10DC
330
10D8
100
AcDbEntity
  8
DIM
  6
Continuous
 62
     0
370
    -2
100
AcDbLine
 10
394.2154214923987
 20
954.8046630325383
 30
0.0
 11
394.2154214923987
 21
898.5240604123683
 31
0.0
  0
LINE
  5
10DD
330
10D8
100
AcDbEntity
  8
DIM
  6
Continuous
 62
     0
370
    -2
100
AcDbLine
 10
147.215421492398
 20
898.5240604123683
 30
0.0
 11
391.2154214923987
 21
898.5240604123683
 31
0.0
  0
INSERT
  5
10DE
330
10D8
100
AcDbEntity
  8
DIM
 62
     0
370
    -2
100
AcDbBlockReference
  2
_DOT
 10
144.215421492398
 20
898.5240604123683
 30
0.0
 41
3.0
 42
3.0
 43
3.0
 50
180.0
  0
INSERT
  5
10DF
330
10D8
100
AcDbEntity
  8
DIM
 62
     0
370
    -2
100
AcDbBlockReference
  2
_DOT
 10
394.2154214923987
 20
898.5240604123683
 30
0.0
 41
3.0
 42
3.0
 43
3.0
  0
MTEXT
  5
10E0
330
10D8
100
AcDbEntity
  8
DIM
  6
HIDDEN
 62
     0
 48
0.05
100
AcDbMText
 10
269.2154214923984
 20
914.5240604123683
 30
0.0
 40
12.0
 41
0.0
 46
0.0
 71
     5
 72
     1
  1
\A1;250
  7
ＭＳ ゴシック
 73
     1
 44
1.0
  0
POINT
  5
10E1
330
10D8
100
AcDbEntity
  8
Defpoints
 62
     0
100
AcDbPoint
 10
144.215421492398
 20
970.9832113954461
 30
0.0
  0
POINT
  5
10E2
330
10D8
100
AcDbEntity
  8
Defpoints
 62
     0
100
AcDbPoint
 10
394.2154214923987
 20
969.8046630325383
 30
0.0
  0
POINT
  5
10E3
330
10D8
100
AcDbEntity
  8
Defpoints
 62
     0
100
AcDbPoint
 10
394.2154214923987
 20
898.5240604123683
 30
0.0
  0
ENDBLK
  5
10DA
330
10D8
100
AcDbEntity
  8
0
100
AcDbBlockEnd
  0
BLOCK
  5
10E5
330
10E4
100
AcDbEntity
  8
0
100
AcDbBlockBegin
  2
*D8
 70
     1
 10
0.0
 20
0.0
 30
0.0
  3
*D8
  1
*D30
  0
LINE
  5
10E7
330
10E4
100
AcDbEntity
  8
DIM
  6
Continuous
 62
     0
370
    -2
100
AcDbLine
 10
499.2154214923987
 20
522.8163319524599
 30
0.0
 11
527.4967292432257
 21
522.8163319524599
 31
0.0
  0
LINE
  5
10E8
330
10E4
100
AcDbEntity
  8
DIM
  6
Continuous
 62
     0
370
    -2
100
AcDbLine
 10
472.9194711694811
 20
479.8163319524599
 30
0.0
 11
527.4967292432257
 21
479.8163319524599
 31
0.0
  0
LINE
  5
10E9
330
10E4
100
AcDbEntity
  8
DIM
  6
Continuous
 62
     0
370
    -2
100
AcDbLine
 10
527.4967292432257
 20
519.8163319524599
 30
0.0
 11
527.4967292432257
 21
482.8163319524599
 31
0.0
  0
INSERT
  5
10EA
330
10E4
100
AcDbEntity
  8
DIM
 62
     0
370
    -2
100
AcDbBlockReference
  2
_DOT
 10
527.4967292432257
 20
522.8163319524599
 30
0.0
 41
3.0
 42
3.0
 43
3.0
 50
90.0
  0
INSERT
  5
10EB
330
10E4
100
AcDbEntity
  8
DIM
 62
     0
370
    -2
100
AcDbBlockReference
  2
_DOT
 10
527.4967292432257
 20
479.8163319524599
 30
0.0
 41
3.0
 42
3.0
 43
3.0
 50
270.0
  0
MTEXT
  5
10EC
330
10E4
100
AcDbEntity
  8
DIM
 62
     0
 48
0.05
100
AcDbMText
 10
511.4967292432257
 20
501.3163319524599
 30
0.0
 40
12.0
 41
0.0
 46
0.0
 71
     5
 72
     1
  1
\A1;43
  7
ＭＳ ゴシック
 11
0.0
 21
1.0
 31
0.0
 73
     1
 44
1.0
  0
POINT
  5
10ED
330
10E4
100
AcDbEntity
  8
Defpoints
 62
     0
100
AcDbPoint
 10
484.2154214923987
 20
522.8163319524599
 30
0.0
  0
POINT
  5
10EE
330
10E4
100
AcDbEntity
  8
Defpoints
 62
     0
100
AcDbPoint
 10
457.9194711694811
 20
479.8163319524599
 30
0.0
  0
POINT
  5
10EF
330
10E4
100
AcDbEntity
  8
Defpoints
 62
     0
100
AcDbPoint
 10
527.4967292432257
 20
479.8163319524599
 30
0.0
  0
ENDBLK
  5
10E6
330
10E4
100
AcDbEntity
  8
0
100
AcDbBlockEnd
  0
BLOCK
  5
10F1
330
10F0
100
AcDbEntity
  8
0
100
AcDbBlockBegin
  2
*D9
 70
     1
 10
0.0
 20
0.0
 30
0.0
  3
*D9
  1
*D31
  0
LINE
  5
10F3
330
10F0
100
AcDbEntity
  8
DIM
  6
Continuous
 62
     0
370
    -2
100
AcDbLine
 10
697.2602336780267
 20
522.8163319524599
 30
0.0
 11
669.5892521057106
 21
522.8163319524599
 31
0.0
  0
LINE
  5
10F4
330
10F0
100
AcDbEntity
  8
DIM
  6
Continuous
 62
     0
370
    -2
100
AcDbLine
 10
696.4259539474344
 20
432.8163319524599
 30
0.0
 11
669.5892521057106
 21
432.8163319524599
 31
0.0
  0
LINE
  5
10F5
330
10F0
100
AcDbEntity
  8
DIM
  6
Continuous
 62
     0
370
    -2
100
AcDbLine
 10
669.5892521057106
 20
519.8163319524599
 30
0.0
 11
669.5892521057106
 21
435.8163319524599
 31
0.0
  0
INSERT
  5
10F6
330
10F0
100
AcDbEntity
  8
DIM
 62
     0
370
    -2
100
AcDbBlockReference
  2
_DOT
 10
669.5892521057106
 20
522.8163319524599
 30
0.0
 41
3.0
 42
3.0
 43
3.0
 50
90.0
  0
INSERT
  5
10F7
330
10F0
100
AcDbEntity
  8
DIM
 62
     0
370
    -2
100
AcDbBlockReference
  2
_DOT
 10
669.5892521057106
 20
432.8163319524599
 30
0.0
 41
3.0
 42
3.0
 43
3.0
 50
270.0
  0
MTEXT
  5
10F8
330
10F0
100
AcDbEntity
  8
DIM
  6
HIDDEN
 62
     0
 48
0.05
100
AcDbMText
 10
653.5892521057106
 20
477.8163319524599
 30
0.0
 40
12.0
 41
0.0
 46
0.0
 71
     5
 72
     1
  1
\A1;90
  7
ＭＳ ゴシック
 11
0.0
 21
1.0
 31
0.0
 73
     1
 44
1.0
  0
POINT
  5
10F9
330
10F0
100
AcDbEntity
  8
Defpoints
 62
     0
100
AcDbPoint
 10
712.2602336780267
 20
522.8163319524599
 30
0.0
  0
POINT
  5
10FA
330
10F0
100
AcDbEntity
  8
Defpoints
 62
     0
100
AcDbPoint
 10
711.4259539474344
 20
432.8163319524599
 30
0.0
  0
POINT
  5
10FB
330
10F0
100
AcDbEntity
  8
Defpoints
 62
     0
100
AcDbPoint
 10
669.5892521057106
 20
432.8163319524599
 30
0.0
  0
ENDBLK
  5
10F2
330
10F0
100
AcDbEntity
  8
0
100
AcDbBlockEnd
  0
BLOCK
  5
10FD
330
10FC
100
AcDbEntity
  8
0
100
AcDbBlockBegin
  2
*D10
 70
     1
 10
0.0
 20
0.0
 30
0.0
  3
*D10
  1
*D32
  0
LINE
  5
10FF
330
10FC
100
AcDbEntity
  8
DIM
  6
Continuous
 62
     0
370
    -2
100
AcDbLine
 10
802.2602336780253
 20
522.8163319524599
 30
0.0
 11
802.2602336780253
 21
606.5843319524599
 31
0.0
  0
LINE
  5
1100
330
10FC
100
AcDbEntity
  8
DIM
  6
Continuous
 62
     0
370
    -2
100
AcDbLine
 10
802.2602336780253
 20
519.8163319524599
 30
0.0
 11
802.2602336780253
 21
450.2144785639218
 31
0.0
  0
INSERT
  5
1101
330
10FC
100
AcDbEntity
  8
DIM
 62
     0
370
    -2
100
AcDbBlockReference
  2
_DOT
 10
802.2602336780253
 20
522.8163319524599
 30
0.0
 41
3.0
 42
3.0
 43
3.0
 50
90.0
  0
INSERT
  5
1102
330
10FC
100
AcDbEntity
  8
DIM
 62
     0
370
    -2
100
AcDbBlockReference
  2
_DOT
 10
802.2602336780253
 20
447.2144785639218
 30
0.0
 41
3.0
 42
3.0
 43
3.0
 50
270.0
  0
MTEXT
  5
1103
330
10FC
100
AcDbEntity
  8
DIM
  6
HIDDEN
 62
     0
 48
0.05
100
AcDbMText
 10
785.1982336780253
 20
567.7003319524599
 30
0.0
 40
12.0
 41
0.0
 46
0.0
 71
     5
 72
     1
  1
\A1;75(深さ)
  7
ＭＳ ゴシック
 11
0.0
 21
1.0
 31
0.0
 73
     1
 44
1.0
  0
POINT
  5
1104
330
10FC
100
AcDbEntity
  8
Defpoints
 62
     0
100
AcDbPoint
 10
825.3714936597983
 20
522.8163319524599
 30
0.0
  0
POINT
  5
1105
330
10FC
100
AcDbEntity
  8
Defpoints
 62
     0
100
AcDbPoint
 10
802.2602336780253
 20
447.2144785639218
 30
0.0
  0
POINT
  5
1106
330
10FC
100
AcDbEntity
  8
Defpoints
 62
     0
100
AcDbPoint
 10
802.2602336780253
 20
447.2144785639218
 30
0.0
  0
ENDBLK
  5
10FE
330
10FC
100
AcDbEntity
  8
0
100
AcDbBlockEnd
  0
BLOCK
  5
1108
330
1107
100
AcDbEntity
  8
0
100
AcDbBlockBegin
  2
*D11
 70
     1
 10
0.0
 20
0.0
 30
0.0
  3
*D11
  1
*D33
  0
LINE
  5
110A
330
1107
100
AcDbEntity
  8
DIM
  6
Continuous
 62
     0
370
    -2
100
AcDbLine
 10
802.2602336780267
 20
396.7816069758296
 30
0.0
 11
802.2602336780267
 21
362.6159698474902
 31
0.0
  0
LINE
  5
110B
330
1107
100
AcDbEntity
  8
DIM
  6
Continuous
 62
     0
370
    -2
100
AcDbLine
 10
892.2602336780267
 20
417.8163319524599
 30
0.0
 11
892.2602336780267
 21
362.6159698474902
 31
0.0
  0
LINE
  5
110C
330
1107
100
AcDbEntity
  8
DIM
  6
Continuous
 62
     0
370
    -2
100
AcDbLine
 10
805.2602336780267
 20
362.6159698474902
 30
0.0
 11
889.2602336780267
 21
362.6159698474902
 31
0.0
  0
INSERT
  5
110D
330
1107
100
AcDbEntity
  8
DIM
 62
     0
370
    -2
100
AcDbBlockReference
  2
_DOT
 10
802.2602336780267
 20
362.6159698474902
 30
0.0
 41
3.0
 42
3.0
 43
3.0
 50
180.0
  0
INSERT
  5
110E
330
1107
100
AcDbEntity
  8
DIM
 62
     0
370
    -2
100
AcDbBlockReference
  2
_DOT
 10
892.2602336780267
 20
362.6159698474902
 30
0.0
 41
3.0
 42
3.0
 43
3.0
  0
MTEXT
  5
110F
330
1107
100
AcDbEntity
  8
DIM
 62
     0
 48
0.05
100
AcDbMText
 10
847.2602336780267
 20
378.6159698474902
 30
0.0
 40
12.0
 41
0.0
 46
0.0
 71
     5
 72
     1
  1
\A1;90
  7
ＭＳ ゴシック
 73
     1
 44
1.0
  0
POINT
  5
1110
330
1107
100
AcDbEntity
  8
Defpoints
 62
     0
100
AcDbPoint
 10
802.2602336780267
 20
411.7816069758296
 30
0.0
  0
POINT
  5
1111
330
1107
100
AcDbEntity
  8
Defpoints
 62
     0
100
AcDbPoint
 10
892.2602336780267
 20
432.8163319524599
 30
0.0
  0
POINT
  5
1112
330
1107
100
AcDbEntity
  8
Defpoints
 62
     0
100
AcDbPoint
 10
892.2602336780267
 20
362.6159698474902
 30
0.0
  0
ENDBLK
  5
1109
330
1107
100
AcDbEntity
  8
0
100
AcDbBlockEnd
  0
BLOCK
  5
1114
330
1113
100
AcDbEntity
  8
0
100
AcDbBlockBegin
  2
*D12
 70
     1
 10
0.0
 20
0.0
 30
0.0
  3
*D12
  1
*D34
  0
LINE
  5
1116
330
1113
100
AcDbEntity
  8
DIM
  6
Continuous
 62
     0
370
    -2
100
AcDbLine
 10
484.2154214923987
 20
537.8163319524599
 30
0.0
 11
484.2154214923987
 21
558.432484314242
 31
0.0
  0
LINE
  5
1117
330
1113
100
AcDbEntity
  8
DIM
  6
Continuous
 62
     0
370
    -2
100
AcDbLine
 10
434.2154214923987
 20
518.5203816295423
 30
0.0
 11
434.2154214923987
 21
558.432484314242
 31
0.0
  0
LINE
  5
1118
330
1113
100
AcDbEntity
  8
DIM
  6
Continuous
 62
     0
370
    -2
100
AcDbLine
 10
481.2154214923987
 20
558.432484314242
 30
0.0
 11
437.2154214923987
 21
558.432484314242
 31
0.0
  0
INSERT
  5
1119
330
1113
100
AcDbEntity
  8
DIM
 62
     0
370
    -2
100
AcDbBlockReference
  2
_DOT
 10
484.2154214923987
 20
558.432484314242
 30
0.0
 41
3.0
 42
3.0
 43
3.0
  0
INSERT
  5
111A
330
1113
100
AcDbEntity
  8
DIM
 62
     0
370
    -2
100
AcDbBlockReference
  2
_DOT
 10
434.2154214923987
 20
558.432484314242
 30
0.0
 41
3.0
 42
3.0
 43
3.0
 50
180.0
  0
MTEXT
  5
111B
330
1113
100
AcDbEntity
  8
DIM
 62
     0
 48
0.05
100
AcDbMText
 10
461.7154214923987
 20
574.432484314242
 30
0.0
 40
12.0
 41
0.0
 46
0.0
 71
     5
 72
     1
  1
\A1;50
  7
ＭＳ ゴシック
 73
     1
 44
1.0
  0
POINT
  5
111C
330
1113
100
AcDbEntity
  8
Defpoints
 62
     0
100
AcDbPoint
 10
484.2154214923987
 20
522.8163319524599
 30
0.0
  0
POINT
  5
111D
330
1113
100
AcDbEntity
  8
Defpoints
 62
     0
100
AcDbPoint
 10
434.2154214923987
 20
503.5203816295423
 30
0.0
  0
POINT
  5
111E
330
1113
100
AcDbEntity
  8
Defpoints
 62
     0
100
AcDbPoint
 10
434.2154214923987
 20
558.432484314242
 30
0.0
  0
ENDBLK
  5
1115
330
1113
100
AcDbEntity
  8
0
100
AcDbBlockEnd
  0
BLOCK
  5
1120
330
111F
100
AcDbEntity
  8
0
100
AcDbBlockBegin
  2
*D13
 70
     1
 10
0.0
 20
0.0
 30
0.0
  3
*D13
  1
*D35
  0
LINE
  5
1122
330
111F
100
AcDbEntity
  8
DIM
  6
Continuous
 62
     0
370
    -2
100
AcDbLine
 10
124.2154214923987
 20
537.8163319524599
 30
0.0
 11
124.2154214923987
 21
558.432484314242
 31
0.0
  0
LINE
  5
1123
330
111F
100
AcDbEntity
  8
DIM
  6
Continuous
 62
     0
370
    -2
100
AcDbLine
 10
174.2154214923987
 20
508.5203816295423
 30
0.0
 11
174.2154214923987
 21
558.432484314242
 31
0.0
  0
LINE
  5
1124
330
111F
100
AcDbEntity
  8
DIM
  6
Continuous
 62
     0
370
    -2
100
AcDbLine
 10
127.2154214923987
 20
558.432484314242
 30
0.0
 11
171.2154214923987
 21
558.432484314242
 31
0.0
  0
INSERT
  5
1125
330
111F
100
AcDbEntity
  8
DIM
 62
     0
370
    -2
100
AcDbBlockReference
  2
_DOT
 10
124.2154214923987
 20
558.432484314242
 30
0.0
 41
3.0
 42
3.0
 43
3.0
 50
180.0
  0
INSERT
  5
1126
330
111F
100
AcDbEntity
  8
DIM
 62
     0
370
    -2
100
AcDbBlockReference
  2
_DOT
 10
174.2154214923987
 20
558.432484314242
 30
0.0
 41
3.0
 42
3.0
 43
3.0
  0
MTEXT
  5
1127
330
111F
100
AcDbEntity
  8
DIM
 62
     0
 48
0.05
100
AcDbMText
 10
149.2154214923987
 20
574.432484314242
 30
0.0
 40
12.0
 41
0.0
 46
0.0
 71
     5
 72
     1
  1
\A1;50
  7
ＭＳ ゴシック
 73
     1
 44
1.0
  0
POINT
  5
1128
330
111F
100
AcDbEntity
  8
Defpoints
 62
     0
100
AcDbPoint
 10
124.2154214923987
 20
522.8163319524599
 30
0.0
  0
POINT
  5
1129
330
111F
100
AcDbEntity
  8
Defpoints
 62
     0
100
AcDbPoint
 10
174.2154214923987
 20
493.5203816295423
 30
0.0
  0
POINT
  5
112A
330
111F
100
AcDbEntity
  8
Defpoints
 62
     0
100
AcDbPoint
 10
174.2154214923987
 20
558.432484314242
 30
0.0
  0
ENDBLK
  5
1121
330
111F
100
AcDbEntity
  8
0
100
AcDbBlockEnd
  0
BLOCK
  5
1150
330
114F
100
AcDbEntity
  8
0
100
AcDbBlockBegin
  2
*D14
 70
     1
 10
0.0
 20
0.0
 30
0.0
  3
*D14
  1
*D39
  0
LINE
  5
1152
330
114F
100
AcDbEntity
  8
DIM
  6
Continuous
 62
     0
370
    -2
100
AcDbLine
 10
943.6160460036928
 20
928.9008485836671
 30
0.0
 11
943.6160460036928
 21
894.9818427052676
 31
0.0
  0
LINE
  5
1153
330
114F
100
AcDbEntity
  8
DIM
  6
Continuous
 62
     0
370
    -2
100
AcDbLine
 10
923.6160460036909
 20
968.9008485836671
 30
0.0
 11
923.6160460036909
 21
894.9818427052676
 31
0.0
  0
LINE
  5
1154
330
114F
100
AcDbEntity
  8
DIM
  6
Continuous
 62
     0
370
    -2
100
AcDbLine
 10
940.6160460036928
 20
894.9818427052676
 30
0.0
 11
926.6160460036909
 21
894.9818427052676
 31
0.0
  0
INSERT
  5
1155
330
114F
100
AcDbEntity
  8
DIM
 62
     0
370
    -2
100
AcDbBlockReference
  2
_DOT
 10
943.6160460036928
 20
894.9818427052676
 30
0.0
 41
3.0
 42
3.0
 43
3.0
  0
INSERT
  5
1156
330
114F
100
AcDbEntity
  8
DIM
 62
     0
370
    -2
100
AcDbBlockReference
  2
_DOT
 10
923.6160460036909
 20
894.9818427052676
 30
0.0
 41
3.0
 42
3.0
 43
3.0
 50
180.0
  0
MTEXT
  5
1157
330
114F
100
AcDbEntity
  8
DIM
  6
HIDDEN
 62
     0
 48
0.05
100
AcDbMText
 10
933.6160460036928
 20
910.9818427052676
 30
0.0
 40
12.0
 41
0.0
 46
0.0
 71
     5
 72
     1
  1
\A1;20
  7
ＭＳ ゴシック
 73
     1
 44
1.0
  0
POINT
  5
1158
330
114F
100
AcDbEntity
  8
Defpoints
 62
     0
100
AcDbPoint
 10
943.6160460036928
 20
943.9008485836671
 30
0.0
  0
POINT
  5
1159
330
114F
100
AcDbEntity
  8
Defpoints
 62
     0
100
AcDbPoint
 10
923.6160460036909
 20
983.9008485836671
 30
0.0
  0
POINT
  5
115A
330
114F
100
AcDbEntity
  8
Defpoints
 62
     0
100
AcDbPoint
 10
923.6160460036909
 20
894.9818427052676
 30
0.0
  0
ENDBLK
  5
1151
330
114F
100
AcDbEntity
  8
0
100
AcDbBlockEnd
  0
BLOCK
  5
115D
330
115C
100
AcDbEntity
  8
0
100
AcDbBlockBegin
  2
*D15
 70
     1
 10
0.0
 20
0.0
 30
0.0
  3
*D15
  1
*D40
  0
LINE
  5
115F
330
115C
100
AcDbEntity
  8
DIM
  6
Continuous
 62
     0
370
    -2
100
AcDbLine
 10
923.6160460036928
 20
928.9008485836671
 30
0.0
 11
923.6160460036928
 21
894.9818427052676
 31
0.0
  0
LINE
  5
1160
330
115C
100
AcDbEntity
  8
DIM
  6
Continuous
 62
     0
370
    -2
100
AcDbLine
 10
753.6160460036909
 20
968.9008485836671
 30
0.0
 11
753.6160460036909
 21
894.9818427052676
 31
0.0
  0
LINE
  5
1161
330
115C
100
AcDbEntity
  8
DIM
  6
Continuous
 62
     0
370
    -2
100
AcDbLine
 10
920.6160460036928
 20
894.9818427052676
 30
0.0
 11
756.6160460036909
 21
894.9818427052676
 31
0.0
  0
INSERT
  5
1162
330
115C
100
AcDbEntity
  8
DIM
 62
     0
370
    -2
100
AcDbBlockReference
  2
_DOT
 10
923.6160460036928
 20
894.9818427052676
 30
0.0
 41
3.0
 42
3.0
 43
3.0
  0
INSERT
  5
1163
330
115C
100
AcDbEntity
  8
DIM
 62
     0
370
    -2
100
AcDbBlockReference
  2
_DOT
 10
753.6160460036909
 20
894.9818427052676
 30
0.0
 41
3.0
 42
3.0
 43
3.0
 50
180.0
  0
MTEXT
  5
1164
330
115C
100
AcDbEntity
  8
DIM
  6
HIDDEN
 62
     0
 48
0.05
100
AcDbMText
 10
838.6160460036918
 20
910.9818427052676
 30
0.0
 40
12.0
 41
0.0
 46
0.0
 71
     5
 72
     1
  1
\A1;170
  7
ＭＳ ゴシック
 73
     1
 44
1.0
  0
POINT
  5
1165
330
115C
100
AcDbEntity
  8
Defpoints
 62
     0
100
AcDbPoint
 10
923.6160460036928
 20
943.9008485836671
 30
0.0
  0
POINT
  5
1166
330
115C
100
AcDbEntity
  8
Defpoints
 62
     0
100
AcDbPoint
 10
753.6160460036909
 20
983.9008485836671
 30
0.0
  0
POINT
  5
1167
330
115C
100
AcDbEntity
  8
Defpoints
 62
     0
100
AcDbPoint
 10
753.6160460036909
 20
894.9818427052676
 30
0.0
  0
ENDBLK
  5
115E
330
115C
100
AcDbEntity
  8
0
100
AcDbBlockEnd
  0
BLOCK
  5
1169
330
1168
100
AcDbEntity
  8
0
100
AcDbBlockBegin
  2
*D16
 70
     1
 10
0.0
 20
0.0
 30
0.0
  3
*D16
  1
*D41
  0
LINE
  5
116B
330
1168
100
AcDbEntity
  8
DIM
  6
Continuous
 62
     0
370
    -2
100
AcDbLine
 10
484.2154214923985
 20
928.6225191866874
 30
0.0
 11
484.2154214923985
 21
898.5240604123683
 31
0.0
  0
LINE
  5
116C
330
1168
100
AcDbEntity
  8
DIM
  6
Continuous
 62
     0
370
    -2
100
AcDbLine
 10
394.2154214923987
 20
954.8046630325383
 30
0.0
 11
394.2154214923987
 21
898.5240604123683
 31
0.0
  0
LINE
  5
116D
330
1168
100
AcDbEntity
  8
DIM
  6
Continuous
 62
     0
370
    -2
100
AcDbLine
 10
481.2154214923985
 20
898.5240604123683
 30
0.0
 11
397.2154214923987
 21
898.5240604123683
 31
0.0
  0
INSERT
  5
116E
330
1168
100
AcDbEntity
  8
DIM
 62
     0
370
    -2
100
AcDbBlockReference
  2
_DOT
 10
484.2154214923985
 20
898.5240604123683
 30
0.0
 41
3.0
 42
3.0
 43
3.0
  0
INSERT
  5
116F
330
1168
100
AcDbEntity
  8
DIM
 62
     0
370
    -2
100
AcDbBlockReference
  2
_DOT
 10
394.2154214923987
 20
898.5240604123683
 30
0.0
 41
3.0
 42
3.0
 43
3.0
 50
180.0
  0
MTEXT
  5
1170
330
1168
100
AcDbEntity
  8
DIM
  6
HIDDEN
 62
     0
 48
0.05
100
AcDbMText
 10
439.2154214923986
 20
914.5240604123683
 30
0.0
 40
12.0
 41
0.0
 46
0.0
 71
     5
 72
     1
  1
\A1;90
  7
ＭＳ ゴシック
 73
     1
 44
1.0
  0
POINT
  5
1171
330
1168
100
AcDbEntity
  8
Defpoints
 62
     0
100
AcDbPoint
 10
484.2154214923985
 20
943.6225191866874
 30
0.0
  0
POINT
  5
1172
330
1168
100
AcDbEntity
  8
Defpoints
 62
     0
100
AcDbPoint
 10
394.2154214923987
 20
969.8046630325383
 30
0.0
  0
POINT
  5
1173
330
1168
100
AcDbEntity
  8
Defpoints
 62
     0
100
AcDbPoint
 10
394.2154214923987
 20
898.5240604123683
 30
0.0
  0
ENDBLK
  5
116A
330
1168
100
AcDbEntity
  8
0
100
AcDbBlockEnd
  0
BLOCK
  5
1175
330
1174
100
AcDbEntity
  8
0
100
AcDbBlockBegin
  2
*D17
 70
     1
 10
0.0
 20
0.0
 30
0.0
  3
*D17
  1
*D42
  0
LINE
  5
1177
330
1174
100
AcDbEntity
  8
DIM
  6
Continuous
 62
     0
370
    -2
100
AcDbLine
 10
434.2154214923987
 20
1066.400848583667
 30
0.0
 11
434.2154214923987
 21
1155.669093082653
 31
0.0
  0
LINE
  5
1178
330
1174
100
AcDbEntity
  8
DIM
  6
Continuous
 62
     0
370
    -2
100
AcDbLine
 10
484.2154214923985
 20
1138.536720522636
 30
0.0
 11
484.2154214923985
 21
1155.669093082653
 31
0.0
  0
LINE
  5
1179
330
1174
100
AcDbEntity
  8
DIM
  6
Continuous
 62
     0
370
    -2
100
AcDbLine
 10
437.2154214923987
 20
1155.669093082653
 30
0.0
 11
481.2154214923985
 21
1155.669093082653
 31
0.0
  0
INSERT
  5
117A
330
1174
100
AcDbEntity
  8
DIM
 62
     0
370
    -2
100
AcDbBlockReference
  2
_DOT
 10
434.2154214923987
 20
1155.669093082653
 30
0.0
 41
3.0
 42
3.0
 43
3.0
 50
180.0
  0
INSERT
  5
117B
330
1174
100
AcDbEntity
  8
DIM
 62
     0
370
    -2
100
AcDbBlockReference
  2
_DOT
 10
484.2154214923985
 20
1155.669093082653
 30
0.0
 41
3.0
 42
3.0
 43
3.0
  0
MTEXT
  5
117C
330
1174
100
AcDbEntity
  8
DIM
  6
HIDDEN
 62
     0
 48
0.05
100
AcDbMText
 10
459.2154214923985
 20
1171.669093082653
 30
0.0
 40
12.0
 41
0.0
 46
0.0
 71
     5
 72
     1
  1
\A1;50
  7
ＭＳ ゴシック
 73
     1
 44
1.0
  0
POINT
  5
117D
330
1174
100
AcDbEntity
  8
Defpoints
 62
     0
100
AcDbPoint
 10
434.2154214923987
 20
1051.400848583667
 30
0.0
  0
POINT
  5
117E
330
1174
100
AcDbEntity
  8
Defpoints
 62
     0
100
AcDbPoint
 10
484.2154214923985
 20
1123.536720522636
 30
0.0
  0
POINT
  5
117F
330
1174
100
AcDbEntity
  8
Defpoints
 62
     0
100
AcDbPoint
 10
484.2154214923985
 20
1155.669093082653
 30
0.0
  0
ENDBLK
  5
1176
330
1174
100
AcDbEntity
  8
0
100
AcDbBlockEnd
  0
BLOCK
  5
1199
330
1198
100
AcDbEntity
  8
0
100
AcDbBlockBegin
  2
*D18
 70
     1
 10
0.0
 20
0.0
 30
0.0
  3
*D18
  1
*D45
  0
LINE
  5
119B
330
1198
100
AcDbEntity
  8
DIM
  6
Continuous
 62
     0
370
    -2
100
AcDbLine
 10
484.2154214923987
 20
416.1743667451151
 30
0.0
 11
484.2154214923987
 21
321.7776631369517
 31
0.0
  0
LINE
  5
119C
330
1198
100
AcDbEntity
  8
DIM
  6
Continuous
 62
     0
370
    -2
100
AcDbLine
 10
354.2154214923987
 20
349.0314163824328
 30
0.0
 11
354.2154214923987
 21
321.7776631369517
 31
0.0
  0
LINE
  5
119D
330
1198
100
AcDbEntity
  8
DIM
  6
Continuous
 62
     0
370
    -2
100
AcDbLine
 10
481.2154214923987
 20
321.7776631369517
 30
0.0
 11
357.2154214923987
 21
321.7776631369517
 31
0.0
  0
INSERT
  5
119E
330
1198
100
AcDbEntity
  8
DIM
 62
     0
370
    -2
100
AcDbBlockReference
  2
_DOT
 10
484.2154214923987
 20
321.7776631369517
 30
0.0
 41
3.0
 42
3.0
 43
3.0
  0
INSERT
  5
119F
330
1198
100
AcDbEntity
  8
DIM
 62
     0
370
    -2
100
AcDbBlockReference
  2
_DOT
 10
354.2154214923987
 20
321.7776631369517
 30
0.0
 41
3.0
 42
3.0
 43
3.0
 50
180.0
  0
MTEXT
  5
11A0
330
1198
100
AcDbEntity
  8
DIM
  6
HIDDEN
 62
     0
 48
0.05
100
AcDbMText
 10
419.2154214923987
 20
337.7776631369517
 30
0.0
 40
12.0
 41
0.0
 46
0.0
 71
     5
 72
     1
  1
\A1;130
  7
ＭＳ ゴシック
 73
     1
 44
1.0
  0
POINT
  5
11A1
330
1198
100
AcDbEntity
  8
Defpoints
 62
     0
100
AcDbPoint
 10
484.2154214923987
 20
431.1743667451151
 30
0.0
  0
POINT
  5
11A2
330
1198
100
AcDbEntity
  8
Defpoints
 62
     0
100
AcDbPoint
 10
354.2154214923987
 20
364.0314163824328
 30
0.0
  0
POINT
  5
11A3
330
1198
100
AcDbEntity
  8
Defpoints
 62
     0
100
AcDbPoint
 10
354.2154214923987
 20
321.7776631369517
 30
0.0
  0
ENDBLK
  5
119A
330
1198
100
AcDbEntity
  8
0
100
AcDbBlockEnd
  0
BLOCK
  5
12FB
330
12FA
100
AcDbEntity
  8
0
100
AcDbBlockBegin
  2
*D19
 70
     1
 10
0.0
 20
0.0
 30
0.0
  3
*D19
  1
*D46
  0
LINE
  5
12FD
330
12FA
100
AcDbEntity
  8
DIM
  6
Continuous
 62
     0
370
    -2
100
AcDbLine
 10
958.4800690317894
 20
1123.900848583667
 30
0.0
 11
983.4853889884672
 21
1123.900848583667
 31
0.0
  0
LINE
  5
12FE
330
12FA
100
AcDbEntity
  8
DIM
  6
Continuous
 62
     0
370
    -2
100
AcDbLine
 10
938.6160460036918
 20
1083.900848583667
 30
0.0
 11
983.4853889884672
 21
1083.900848583667
 31
0.0
  0
LINE
  5
12FF
330
12FA
100
AcDbEntity
  8
DIM
  6
Continuous
 62
     0
370
    -2
100
AcDbLine
 10
983.4853889884672
 20
1120.900848583667
 30
0.0
 11
983.4853889884672
 21
1086.900848583667
 31
0.0
  0
INSERT
  5
1300
330
12FA
100
AcDbEntity
  8
DIM
 62
     0
370
    -2
100
AcDbBlockReference
  2
_DOT
 10
983.4853889884672
 20
1123.900848583667
 30
0.0
 41
3.0
 42
3.0
 43
3.0
 50
90.0
  0
INSERT
  5
1301
330
12FA
100
AcDbEntity
  8
DIM
 62
     0
370
    -2
100
AcDbBlockReference
  2
_DOT
 10
983.4853889884672
 20
1083.900848583667
 30
0.0
 41
3.0
 42
3.0
 43
3.0
 50
270.0
  0
MTEXT
  5
1302
330
12FA
100
AcDbEntity
  8
DIM
  6
HIDDEN
 62
     0
 48
0.05
100
AcDbMText
 10
967.4853889884672
 20
1103.900848583667
 30
0.0
 40
12.0
 41
0.0
 46
0.0
 71
     5
 72
     1
  1
\A1;40
  7
ＭＳ ゴシック
 11
0.0
 21
1.0
 31
0.0
 73
     1
 44
1.0
  0
POINT
  5
1303
330
12FA
100
AcDbEntity
  8
Defpoints
 62
     0
100
AcDbPoint
 10
943.4800690317894
 20
1123.900848583667
 30
0.0
  0
POINT
  5
1304
330
12FA
100
AcDbEntity
  8
Defpoints
 62
     0
100
AcDbPoint
 10
923.6160460036918
 20
1083.900848583667
 30
0.0
  0
POINT
  5
1305
330
12FA
100
AcDbEntity
  8
Defpoints
 62
     0
100
AcDbPoint
 10
983.4853889884672
 20
1083.900848583667
 30
0.0
  0
ENDBLK
  5
12FC
330
12FA
100
AcDbEntity
  8
0
100
AcDbBlockEnd
  0
BLOCK
  5
1307
330
1306
100
AcDbEntity
  8
0
100
AcDbBlockBegin
  2
*D20
 70
     1
 10
0.0
 20
0.0
 30
0.0
  3
*D20
  1
*D47
  0
LINE
  5
1309
330
1306
100
AcDbEntity
  8
DIM
  6
Continuous
 62
     0
370
    -2
100
AcDbLine
 10
938.61604600369
 20
1083.900848583667
 30
0.0
 11
983.4853889884672
 21
1083.900848583667
 31
0.0
  0
LINE
  5
130A
330
1306
100
AcDbEntity
  8
DIM
  6
Continuous
 62
     0
370
    -2
100
AcDbLine
 10
938.6160460036909
 20
983.9008485836671
 30
0.0
 11
983.4853889884672
 21
983.9008485836671
 31
0.0
  0
LINE
  5
130B
330
1306
100
AcDbEntity
  8
DIM
  6
Continuous
 62
     0
370
    -2
100
AcDbLine
 10
983.4853889884672
 20
1080.900848583667
 30
0.0
 11
983.4853889884672
 21
986.9008485836671
 31
0.0
  0
INSERT
  5
130C
330
1306
100
AcDbEntity
  8
DIM
 62
     0
370
    -2
100
AcDbBlockReference
  2
_DOT
 10
983.4853889884672
 20
1083.900848583667
 30
0.0
 41
3.0
 42
3.0
 43
3.0
 50
90.0
  0
INSERT
  5
130D
330
1306
100
AcDbEntity
  8
DIM
 62
     0
370
    -2
100
AcDbBlockReference
  2
_DOT
 10
983.4853889884672
 20
983.9008485836671
 30
0.0
 41
3.0
 42
3.0
 43
3.0
 50
270.0
  0
MTEXT
  5
130E
330
1306
100
AcDbEntity
  8
DIM
  6
HIDDEN
 62
     0
 48
0.05
100
AcDbMText
 10
967.4853889884672
 20
1033.900848583667
 30
0.0
 40
12.0
 41
0.0
 46
0.0
 71
     5
 72
     1
  1
\A1;100
  7
ＭＳ ゴシック
 11
0.0
 21
1.0
 31
0.0
 73
     1
 44
1.0
  0
POINT
  5
130F
330
1306
100
AcDbEntity
  8
Defpoints
 62
     0
100
AcDbPoint
 10
923.61604600369
 20
1083.900848583667
 30
0.0
  0
POINT
  5
1310
330
1306
100
AcDbEntity
  8
Defpoints
 62
     0
100
AcDbPoint
 10
923.6160460036909
 20
983.9008485836671
 30
0.0
  0
POINT
  5
1311
330
1306
100
AcDbEntity
  8
Defpoints
 62
     0
100
AcDbPoint
 10
983.4853889884672
 20
983.9008485836671
 30
0.0
  0
ENDBLK
  5
1308
330
1306
100
AcDbEntity
  8
0
100
AcDbBlockEnd
  0
BLOCK
  5
1329
330
1328
100
AcDbEntity
  8
0
100
AcDbBlockBegin
  2
*D21
 70
     1
 10
0.0
 20
0.0
 30
0.0
  3
*D21
  1
*D48
  0
LINE
  5
132B
330
1328
100
AcDbEntity
  8
DIM
  6
Continuous
 62
     0
370
    -2
100
AcDbLine
 10
499.2154214923987
 20
1123.900848583667
 30
0.0
 11
561.9956462548695
 21
1123.900848583667
 31
0.0
  0
LINE
  5
132C
330
1328
100
AcDbEntity
  8
DIM
  6
Continuous
 62
     0
370
    -2
100
AcDbLine
 10
499.2154214923987
 20
943.9008485836671
 30
0.0
 11
561.9956462548696
 21
943.9008485836671
 31
0.0
  0
LINE
  5
132D
330
1328
100
AcDbEntity
  8
DIM
  6
Continuous
 62
     0
370
    -2
100
AcDbLine
 10
561.9956462548695
 20
1120.900848583667
 30
0.0
 11
561.9956462548696
 21
946.9008485836671
 31
0.0
  0
INSERT
  5
132E
330
1328
100
AcDbEntity
  8
DIM
 62
     0
370
    -2
100
AcDbBlockReference
  2
_DOT
 10
561.9956462548695
 20
1123.900848583667
 30
0.0
 41
3.0
 42
3.0
 43
3.0
 50
90.00000000000004
  0
INSERT
  5
132F
330
1328
100
AcDbEntity
  8
DIM
 62
     0
370
    -2
100
AcDbBlockReference
  2
_DOT
 10
561.9956462548696
 20
943.9008485836671
 30
0.0
 41
3.0
 42
3.0
 43
3.0
 50
270.0000000000001
  0
MTEXT
  5
1330
330
1328
100
AcDbEntity
  8
DIM
  6
HIDDEN
 62
     0
 48
0.05
100
AcDbMText
 10
545.9956462548695
 20
1033.900848583668
 30
0.0
 40
12.0
 41
0.0
 46
0.0
 71
     5
 72
     1
  1
\A1;180
  7
ＭＳ ゴシック
 11
-6.315935428978669E-16
 21
1.0
 31
0.0
 73
     1
 44
1.0
  0
POINT
  5
1331
330
1328
100
AcDbEntity
  8
Defpoints
 62
     0
100
AcDbPoint
 10
484.2154214923987
 20
1123.900848583667
 30
0.0
  0
POINT
  5
1332
330
1328
100
AcDbEntity
  8
Defpoints
 62
     0
100
AcDbPoint
 10
484.2154214923987
 20
943.9008485836671
 30
0.0
  0
POINT
  5
1333
330
1328
100
AcDbEntity
  8
Defpoints
 62
     0
100
AcDbPoint
 10
561.9956462548696
 20
943.9008485836671
 30
0.0
  0
ENDBLK
  5
132A
330
1328
100
AcDbEntity
  8
0
100
AcDbBlockEnd
  0
BLOCK
  5
1336
330
1335
100
AcDbEntity
  8
0
100
AcDbBlockBegin
  2
*D22
 70
     1
 10
0.0
 20
0.0
 30
0.0
  3
*D22
  1
*D49
  0
LINE
  5
1338
330
1335
100
AcDbEntity
  8
DIM
  6
Continuous
 62
     0
370
    -2
100
AcDbLine
 10
137.7241112707222
 20
963.9008485836671
 30
0.0
 11
89.37062840029446
 21
963.9008485836671
 31
0.0
  0
LINE
  5
1339
330
1335
100
AcDbEntity
  8
DIM
  6
Continuous
 62
     0
370
    -2
100
AcDbLine
 10
136.5455629078144
 20
1103.900848583667
 30
0.0
 11
89.37062840029441
 21
1103.900848583667
 31
0.0
  0
LINE
  5
133A
330
1335
100
AcDbEntity
  8
DIM
  6
Continuous
 62
     0
370
    -2
100
AcDbLine
 10
89.37062840029446
 20
966.9008485836671
 30
0.0
 11
89.37062840029441
 21
1100.900848583667
 31
0.0
  0
INSERT
  5
133B
330
1335
100
AcDbEntity
  8
DIM
 62
     0
370
    -2
100
AcDbBlockReference
  2
_DOT
 10
89.37062840029446
 20
963.9008485836671
 30
0.0
 41
3.0
 42
3.0
 43
3.0
 50
270.0
  0
INSERT
  5
133C
330
1335
100
AcDbEntity
  8
DIM
 62
     0
370
    -2
100
AcDbBlockReference
  2
_DOT
 10
89.37062840029441
 20
1103.900848583667
 30
0.0
 41
3.0
 42
3.0
 43
3.0
 50
90.00000000000001
  0
MTEXT
  5
133D
330
1335
100
AcDbEntity
  8
DIM
  6
HIDDEN
 62
     0
 48
0.05
100
AcDbMText
 10
73.37062840029444
 20
1033.900848583667
 30
0.0
 40
12.0
 41
0.0
 46
0.0
 71
     5
 72
     1
  1
\A1;140
  7
ＭＳ ゴシック
 11
-4.060244204343430E-16
 21
1.0
 31
0.0
 73
     1
 44
1.0
  0
POINT
  5
133E
330
1335
100
AcDbEntity
  8
Defpoints
 62
     0
100
AcDbPoint
 10
152.7241112707222
 20
963.9008485836671
 30
0.0
  0
POINT
  5
133F
330
1335
100
AcDbEntity
  8
Defpoints
 62
     0
100
AcDbPoint
 10
151.5455629078144
 20
1103.900848583667
 30
0.0
  0
POINT
  5
1340
330
1335
100
AcDbEntity
  8
Defpoints
 62
     0
100
AcDbPoint
 10
89.37062840029441
 20
1103.900848583667
 30
0.0
  0
ENDBLK
  5
1337
330
1335
100
AcDbEntity
  8
0
100
AcDbBlockEnd
  0
BLOCK
  5
1378
330
1377
100
AcDbEntity
  8
0
100
AcDbBlockBegin
  2
*D23
 70
     1
 10
0.0
 20
0.0
 30
0.0
  3
*D23
  1
*D51
  0
LINE
  5
137A
330
1377
100
AcDbEntity
  8
DIM
 62
     0
 48
0.05
370
    -2
100
AcDbLine
 10
499.2154214923987
 20
1123.900848583667
 30
0.0
 11
519.986842303565
 21
1123.900848583667
 31
0.0
  0
LINE
  5
137B
330
1377
100
AcDbEntity
  8
DIM
 62
     0
 48
0.05
370
    -2
100
AcDbLine
 10
466.7154214923987
 20
1033.900848583667
 30
0.0
 11
519.986842303565
 21
1033.900848583667
 31
0.0
  0
LINE
  5
137C
330
1377
100
AcDbEntity
  8
DIM
 62
     0
 48
0.05
370
    -2
100
AcDbLine
 10
519.986842303565
 20
1120.900848583667
 30
0.0
 11
519.986842303565
 21
1036.900848583667
 31
0.0
  0
INSERT
  5
137D
330
1377
100
AcDbEntity
  8
DIM
 62
     0
370
    -2
100
AcDbBlockReference
  2
_DOT
 10
519.986842303565
 20
1123.900848583667
 30
0.0
 41
3.0
 42
3.0
 43
3.0
 50
90.0
  0
INSERT
  5
137E
330
1377
100
AcDbEntity
  8
DIM
 62
     0
370
    -2
100
AcDbBlockReference
  2
_DOT
 10
519.986842303565
 20
1033.900848583667
 30
0.0
 41
3.0
 42
3.0
 43
3.0
 50
270.0
  0
MTEXT
  5
137F
330
1377
100
AcDbEntity
  8
DIM
  6
HIDDEN
 62
     0
 48
0.05
100
AcDbMText
 10
503.986842303565
 20
1078.900848583667
 30
0.0
 40
12.0
 41
0.0
 46
0.0
 71
     5
 72
     1
  1
\A1;90
  7
ＭＳ ゴシック
 11
0.0
 21
1.0
 31
0.0
 73
     1
 44
1.0
  0
POINT
  5
1380
330
1377
100
AcDbEntity
  8
Defpoints
 62
     0
100
AcDbPoint
 10
484.2154214923987
 20
1123.900848583667
 30
0.0
  0
POINT
  5
1381
330
1377
100
AcDbEntity
  8
Defpoints
 62
     0
100
AcDbPoint
 10
451.7154214923987
 20
1033.900848583667
 30
0.0
  0
POINT
  5
1382
330
1377
100
AcDbEntity
  8
Defpoints
 62
     0
100
AcDbPoint
 10
519.986842303565
 20
1033.900848583667
 30
0.0
  0
ENDBLK
  5
1379
330
1377
100
AcDbEntity
  8
0
100
AcDbBlockEnd
  0
BLOCK
  5
13B4
330
13B3
100
AcDbEntity
  8
0
100
AcDbBlockBegin
  2
*D24
 70
     1
 10
0.0
 20
0.0
 30
0.0
  3
*D24
  1
*D53
  0
LINE
  5
13B6
330
13B3
100
AcDbEntity
  8
DIM
 62
     0
 48
0.05
370
    -2
100
AcDbLine
 10
499.2154214923987
 20
522.8163319524599
 30
0.0
 11
567.0043329314612
 21
522.8163319524599
 31
0.0
  0
LINE
  5
13B7
330
13B3
100
AcDbEntity
  8
DIM
 62
     0
 48
0.05
370
    -2
100
AcDbLine
 10
390.8585203223482
 20
412.8163319524599
 30
0.0
 11
567.0043329314612
 21
412.8163319524599
 31
0.0
  0
LINE
  5
13B8
330
13B3
100
AcDbEntity
  8
DIM
 62
     0
 48
0.05
370
    -2
100
AcDbLine
 10
567.0043329314612
 20
519.8163319524599
 30
0.0
 11
567.0043329314612
 21
415.8163319524599
 31
0.0
  0
INSERT
  5
13B9
330
13B3
100
AcDbEntity
  8
DIM
 62
     0
370
    -2
100
AcDbBlockReference
  2
_DOT
 10
567.0043329314612
 20
522.8163319524599
 30
0.0
 41
3.0
 42
3.0
 43
3.0
 50
90.0
  0
INSERT
  5
13BA
330
13B3
100
AcDbEntity
  8
DIM
 62
     0
370
    -2
100
AcDbBlockReference
  2
_DOT
 10
567.0043329314612
 20
412.8163319524599
 30
0.0
 41
3.0
 42
3.0
 43
3.0
 50
270.0
  0
MTEXT
  5
13BB
330
13B3
100
AcDbEntity
  8
DIM
 62
     0
 48
0.05
100
AcDbMText
 10
551.0043329314612
 20
467.8163319524599
 30
0.0
 40
12.0
 41
0.0
 46
0.0
 71
     5
 72
     1
  1
\A1;110
  7
ＭＳ ゴシック
 11
0.0
 21
1.0
 31
0.0
 73
     1
 44
1.0
  0
POINT
  5
13BC
330
13B3
100
AcDbEntity
  8
Defpoints
 62
     0
100
AcDbPoint
 10
484.2154214923987
 20
522.8163319524599
 30
0.0
  0
POINT
  5
13BD
330
13B3
100
AcDbEntity
  8
Defpoints
 62
     0
100
AcDbPoint
 10
375.8585203223482
 20
412.8163319524599
 30
0.0
  0
POINT
  5
13BE
330
13B3
100
AcDbEntity
  8
Defpoints
 62
     0
100
AcDbPoint
 10
567.0043329314612
 20
412.8163319524599
 30
0.0
  0
ENDBLK
  5
13B5
330
13B3
100
AcDbEntity
  8
0
100
AcDbBlockEnd
  0
BLOCK
  5
13D2
330
13D1
100
AcDbEntity
  8
0
100
AcDbBlockBegin
  2
*D25
 70
     1
 10
0.0
 20
0.0
 30
0.0
  3
*D25
  1
*D54
  0
LINE
  5
13D4
330
13D1
100
AcDbEntity
  8
DIM
 62
     0
 48
0.05
370
    -2
100
AcDbLine
 10
109.2154214923987
 20
522.8163319524599
 30
0.0
 11
87.85076413674813
 21
522.8163319524599
 31
0.0
  0
LINE
  5
13D5
330
13D1
100
AcDbEntity
  8
DIM
 62
     0
 48
0.05
370
    -2
100
AcDbLine
 10
135.5113718153163
 20
469.8163319524599
 30
0.0
 11
87.85076413674813
 21
469.8163319524599
 31
0.0
  0
LINE
  5
13D6
330
13D1
100
AcDbEntity
  8
DIM
 62
     0
 48
0.05
370
    -2
100
AcDbLine
 10
87.85076413674813
 20
519.8163319524599
 30
0.0
 11
87.85076413674813
 21
472.8163319524599
 31
0.0
  0
INSERT
  5
13D7
330
13D1
100
AcDbEntity
  8
DIM
 62
     0
370
    -2
100
AcDbBlockReference
  2
_DOT
 10
87.85076413674813
 20
522.8163319524599
 30
0.0
 41
3.0
 42
3.0
 43
3.0
 50
90.0
  0
INSERT
  5
13D8
330
13D1
100
AcDbEntity
  8
DIM
 62
     0
370
    -2
100
AcDbBlockReference
  2
_DOT
 10
87.85076413674813
 20
469.8163319524599
 30
0.0
 41
3.0
 42
3.0
 43
3.0
 50
270.0
  0
MTEXT
  5
13D9
330
13D1
100
AcDbEntity
  8
DIM
 62
     0
 48
0.05
100
AcDbMText
 10
71.85076413674813
 20
496.3163319524599
 30
0.0
 40
12.0
 41
0.0
 46
0.0
 71
     5
 72
     1
  1
\A1;53
  7
ＭＳ ゴシック
 11
0.0
 21
1.0
 31
0.0
 73
     1
 44
1.0
  0
POINT
  5
13DA
330
13D1
100
AcDbEntity
  8
Defpoints
 62
     0
100
AcDbPoint
 10
124.2154214923987
 20
522.8163319524599
 30
0.0
  0
POINT
  5
13DB
330
13D1
100
AcDbEntity
  8
Defpoints
 62
     0
100
AcDbPoint
 10
150.5113718153163
 20
469.8163319524599
 30
0.0
  0
POINT
  5
13DC
330
13D1
100
AcDbEntity
  8
Defpoints
 62
     0
100
AcDbPoint
 10
87.85076413674813
 20
469.8163319524599
 30
0.0
  0
ENDBLK
  5
13D3
330
13D1
100
AcDbEntity
  8
0
100
AcDbBlockEnd
  0
BLOCK
  5
1449
330
1448
100
AcDbEntity
  8
0
100
AcDbBlockBegin
  2
*D26
 70
     1
 10
0.0
 20
0.0
 30
0.0
  3
*D26
  1
*D58
  0
LINE
  5
144B
330
1448
100
AcDbEntity
  8
DIM
 62
     0
 48
0.05
370
    -2
100
AcDbLine
 10
333.2154214923987
 20
397.8163319524599
 30
0.0
 11
333.2154214923987
 21
381.3007931618801
 31
0.0
  0
LINE
  5
144C
330
1448
100
AcDbEntity
  8
DIM
 62
     0
 48
0.05
370
    -2
100
AcDbLine
 10
375.2154214923987
 20
397.8163319524599
 30
0.0
 11
375.2154214923987
 21
381.3007931618801
 31
0.0
  0
LINE
  5
144D
330
1448
100
AcDbEntity
  8
DIM
 62
     0
 48
0.05
370
    -2
100
AcDbLine
 10
336.2154214923987
 20
381.3007931618801
 30
0.0
 11
372.2154214923987
 21
381.3007931618801
 31
0.0
  0
INSERT
  5
144E
330
1448
100
AcDbEntity
  8
DIM
 62
     0
370
    -2
100
AcDbBlockReference
  2
_DOT
 10
333.2154214923987
 20
381.3007931618801
 30
0.0
 41
3.0
 42
3.0
 43
3.0
 50
180.0
  0
INSERT
  5
144F
330
1448
100
AcDbEntity
  8
DIM
 62
     0
370
    -2
100
AcDbBlockReference
  2
_DOT
 10
375.2154214923987
 20
381.3007931618801
 30
0.0
 41
3.0
 42
3.0
 43
3.0
  0
MTEXT
  5
1450
330
1448
100
AcDbEntity
  8
DIM
 62
     0
 48
0.05
100
AcDbMText
 10
354.2154214923987
 20
364.0227931618801
 30
0.0
 40
12.0
 41
0.0
 46
0.0
 71
     5
 72
     1
  1
\A1;G1 1/4"
  7
ＭＳ ゴシック
 73
     1
 44
1.0
  0
POINT
  5
1451
330
1448
100
AcDbEntity
  8
Defpoints
 62
     0
100
AcDbPoint
 10
333.2154214923987
 20
412.8163319524599
 30
0.0
  0
POINT
  5
1452
330
1448
100
AcDbEntity
  8
Defpoints
 62
     0
100
AcDbPoint
 10
375.2154214923987
 20
412.8163319524599
 30
0.0
  0
POINT
  5
1453
330
1448
100
AcDbEntity
  8
Defpoints
 62
     0
100
AcDbPoint
 10
375.2154214923987
 20
381.3007931618801
 30
0.0
  0
ENDBLK
  5
144A
330
1448
100
AcDbEntity
  8
0
100
AcDbBlockEnd
  0
ENDSEC
  0
SECTION
  2
ENTITIES
  0
MTEXT
  5
177
330
A
100
AcDbEntity
  8
TEMPLATE
390
1D
100
AcDbMText
 10
39.60107227386538
 20
171.8658758157141
 30
0.0
 40
8.144205729166663
 41
0.0
 46
0.0
 71
     1
 72
     1
  1
品名
  7
ＭＳ ゴシック
 73
     1
 44
0.7828267384257843
  0
MTEXT
  5
178
330
A
100
AcDbEntity
  8
TEMPLATE
390
1D
100
AcDbMText
 10
39.60107227386538
 20
129.365875815714
 30
0.0
 40
8.144205729166663
 41
0.0
 46
0.0
 71
     1
 72
     1
  1
仕様
  7
ＭＳ ゴシック
 73
     1
 44
0.7828267384257843
  0
LINE
  5
179
330
A
100
AcDbEntity
  8
TEMPLATE
390
1D
100
AcDbLine
 10
1011.101072273624
 20
133.5733367532142
 30
0.0
 11
36.10107227362437
 21
133.5733367532142
 31
0.0
  0
LWPOLYLINE
  5
17A
330
A
100
AcDbEntity
  8
TEMPLATE
390
1D
100
AcDbPolyline
 90
        5
 70
   128
 43
0.0
 10
1011.101072273624
 20
1448.573336753213
 10
36.10107227362437
 20
1448.573336753213
 10
36.10107227362437
 20
48.57333675321413
 10
1011.101072273624
 20
48.57333675321413
 10
1011.101072273624
 20
1448.573336753213
  0
LINE
  5
17B
330
A
100
AcDbEntity
  8
TEMPLATE
390
1D
100
AcDbLine
 10
1011.101072273624
 20
176.0733367532141
 30
0.0
 11
36.10107227362437
 21
176.0733367532141
 31
0.0
  0
LINE
  5
17C
330
A
100
AcDbEntity
  8
TEMPLATE
390
1D
100
AcDbLine
 10
1011.101072273866
 20
91.07333675321412
 30
0.0
 11
634.601072273865
 21
91.07333675321412
 31
0.0
  0
MTEXT
  5
17E
330
A
100
AcDbEntity
  8
TEMPLATE
390
1D
100
AcDbMText
 10
649.5367753999956
 20
76.11813951656006
 30
0.0
 40
12.21630859375
 41
0.0
 46
0.0
 71
     1
 72
     1
  1
大洋金物株式会社 ティーフォルム事業部
  7
ＭＳ ゴシック
 73
     1
 44
0.7828267384257843
  0
MTEXT
  5
180
330
A
100
AcDbEntity
  8
TEMPLATE
390
1D
100
AcDbMText
 10
915.601072273995
 20
115.0746453469641
 30
0.0
 40
12.21630859375
 41
0.0
 46
12.21630859375
 71
     1
 72
     1
  1
{1:5}
  7
ＭＳ ゴシック
 73
     1
 44
0.7828267384257843
1001
ACAD
1000
ACAD_MTEXT_DEFINED_HEIGHT_BEGIN
1070
    46
1040
12.21630859375
1000
ACAD_MTEXT_DEFINED_HEIGHT_END
  0
MTEXT
  5
181
330
A
100
AcDbEntity
  8
TEMPLATE
390
1D
100
AcDbMText
 10
889.101072273995
 20
129.365875815714
 30
0.0
 40
8.144205729166663
 41
0.0
 46
0.0
 71
     1
 72
     1
  1
縮尺
  7
ＭＳ ゴシック
 73
     1
 44
0.7828267384257843
  0
LINE
  5
182
330
A
100
AcDbEntity
  8
TEMPLATE
390
1D
100
AcDbLine
 10
885.601072273995
 20
91.07333675321412
 30
0.0
 11
885.601072273995
 21
133.5733367532142
 31
0.0
  0
MTEXT
  5
183
330
A
100
AcDbEntity
  8
TEMPLATE
390
1D
100
AcDbMText
 10
763.601072273995
 20
129.365875815714
 30
0.0
 40
8.144205729166663
 41
0.0
 46
0.0
 71
     1
 72
     1
  1
容量
  7
ＭＳ ゴシック
 73
     1
 44
0.7828267384257843
  0
LINE
  5
184
330
A
100
AcDbEntity
  8
TEMPLATE
390
1D
100
AcDbLine
 10
760.101072273995
 20
91.07333675321412
 30
0.0
 11
760.101072273995
 21
133.5733367532142
 31
0.0
  0
MTEXT
  5
185
330
A
100
AcDbEntity
  8
TEMPLATE
390
1D
100
AcDbMText
 10
638.101072273995
 20
171.8658758157141
 30
0.0
 40
8.144205729166663
 41
0.0
 46
0.0
 71
     1
 72
     1
  1
品番
  7
ＭＳ ゴシック
 73
     1
 44
0.7828267384257843
  0
MTEXT
  5
186
330
A
100
AcDbEntity
  8
TEMPLATE
390
1D
100
AcDbMText
 10
638.101072273995
 20
129.365875815714
 30
0.0
 40
8.144205729166663
 41
0.0
 46
0.0
 71
     1
 72
     1
  1
重量
  7
ＭＳ ゴシック
 73
     1
 44
0.7828267384257843
  0
MTEXT
  5
187
330
A
100
AcDbEntity
  8
TEMPLATE
390
1D
100
AcDbMText
 10
664.601072273995
 20
157.5746453469641
 30
0.0
 40
12.21630859375
 41
0.0
 46
12.21630859375
 71
     1
 72
     1
  1
{BRS70-0403-001}
  7
ＭＳ ゴシック
 73
     1
 44
0.7828267384257843
1001
ACAD
1000
ACAD_MTEXT_DEFINED_HEIGHT_BEGIN
1070
    46
1040
12.21630859375
1000
ACAD_MTEXT_DEFINED_HEIGHT_END
  0
LINE
  5
188
330
A
100
AcDbEntity
  8
TEMPLATE
390
1D
100
AcDbLine
 10
634.601072273995
 20
48.57333675321413
 30
0.0
 11
634.601072273995
 21
176.0733367532141
 31
0.0
  0
MTEXT
  5
189
330
A
100
AcDbEntity
  8
TEMPLATE
390
1D
100
AcDbMText
 10
66.10107227386537
 20
157.5746453469641
 30
0.0
 40
12.21630859375
 41
0.0
 46
13.76777978515625
 71
     1
 72
     1
  1
{手洗器　-CLOU, Flush-}
  7
ＭＳ ゴシック
 73
     1
 44
0.7828267384257843
1001
ACAD
1000
ACAD_MTEXT_DEFINED_HEIGHT_BEGIN
1070
    46
1040
13.76777978515625
1000
ACAD_MTEXT_DEFINED_HEIGHT_END
  0
INSERT
  5
6B5
330
A
100
AcDbEntity
  8
TEMPLATE
100
AcDbBlockReference
  2
名称未設定-1
 10
935.3753740442249
 20
12.97338287832691
 30
0.0
 41
0.3809999999999999
 42
0.3809999999999999
 43
0.3809999999999999
  0
MTEXT
  5
7D9
330
A
100
AcDbEntity
  8
TEMPLATE
390
1D
100
AcDbMText
 10
62.62717263801819
 20
113.4059880146976
 30
0.0
 40
12.21630859375
 41
0.0
 46
48.7782587890625
 71
     1
 72
     1
  1
{壁掛け、カウンター置き/オーバーフローなし/\P排水目皿(水溜め不可)、壁取付ボルト付属/\P陶器/ホワイト}
  7
ＭＳ ゴシック
 73
     1
 44
0.8840641112754306
1001
ACAD
1000
ACAD_MTEXT_DEFINED_HEIGHT_BEGIN
1070
    46
1040
48.7782587890625
1000
ACAD_MTEXT_DEFINED_HEIGHT_END
  0
INSERT
  5
68C
330
A
100
AcDbEntity
  8
TEMPLATE
100
AcDbBlockReference
  2
block 2
 10
919.2743017702577
 20
8.373076514336368
 30
0.0
 41
0.3809999999999999
 42
0.3809999999999999
 43
0.3809999999999999
  0
MTEXT
  5
D60
330
A
100
AcDbEntity
  8
TEMPLATE
390
1D
100
AcDbMText
 10
664.601072273865
 20
115.0746453469641
 30
0.0
 40
12.21630859375
 41
0.0
 46
14.1953505859375
 71
     1
 72
     1
  1
{3.7kg}
  7
ＭＳ ゴシック
 73
     1
 44
0.7828267384257843
1001
ACAD
1000
ACAD_MTEXT_DEFINED_HEIGHT_BEGIN
1070
    46
1040
14.1953505859375
1000
ACAD_MTEXT_DEFINED_HEIGHT_END
  0
LWPOLYLINE
  5
D69
330
A
100
AcDbEntity
  8
BORDER
 48
0.05
100
AcDbPolyline
 90
        4
 70
     1
 43
0.0
 10
0.0
 20
0.0
 10
0.0
 20
1485.0
 10
1050.0
 20
1485.0
 10
1050.0
 20
0.0
  0
INSERT
  5
1031
330
A
100
AcDbEntity
  8
TEMPLATE
100
AcDbBlockReference
  2
block 2
 10
2132.07175074985
 20
33.26739138314142
 30
0.0
 41
0.3809999999999999
 42
0.3809999999999999
 43
0.3809999999999999
  0
CIRCLE
  5
1033
330
A
100
AcDbEntity
  8
HIDDEN
  6
HIDDEN
 48
0.05
370
     0
100
AcDbCircle
 10
813.6160460036918
 20
1033.900848583667
 30
0.0
 40
26.5
  0
LINE
  5
1034
330
A
100
AcDbEntity
  8
HIDDEN
  6
HIDDEN
 48
0.05
100
AcDbLine
 10
943.6160460036918
 20
1123.900848583667
 30
0.0
 11
583.6160460036918
 21
1123.900848583667
 31
0.0
  0
LINE
  5
1035
330
A
100
AcDbEntity
  8
HIDDEN
  6
HIDDEN
 48
0.05
100
AcDbLine
 10
943.6160460036928
 20
943.9008485836671
 30
0.0
 11
943.6160460036918
 21
1123.900848583667
 31
0.0
  0
LINE
  5
1036
330
A
100
AcDbEntity
  8
HIDDEN
  6
HIDDEN
 48
0.05
100
AcDbLine
 10
583.6160460036918
 20
943.9008485836671
 30
0.0
 11
943.6160460036928
 21
943.9008485836671
 31
0.0
  0
CIRCLE
  5
1037
330
A
100
AcDbEntity
  8
HIDDEN
  6
HIDDEN
 48
0.05
370
     0
100
AcDbCircle
 10
893.6160460036918
 20
1033.900848583667
 30
0.0
 40
17.5
  0
MTEXT
  5
1038
330
A
100
AcDbEntity
  8
MODEL
390
1D
100
AcDbMText
 10
619.5067244594791
 20
833.9287300716217
 30
0.0
 40
12.0
 41
949.7161250932047
 46
52.63573827890803
 71
     1
 72
     1
  1
{\C7;※陶器製品には寸法公差がありますので、\P　必ず現物合わせでカウンターに切込を\P　行ってください。}
  7
ＭＳ ゴシック
 73
     1
 44
0.9822934569727008
1001
ACAD
1000
ACAD_MTEXT_DEFINED_HEIGHT_BEGIN
1070
    46
1040
52.63573827890803
1000
ACAD_MTEXT_DEFINED_HEIGHT_END
  0
DIMENSION
  5
1039
330
A
100
AcDbEntity
  8
DIM
  6
Continuous
100
AcDbDimension
  2
*D6
 10
124.2154214923987
 20
1192.559730815598
 30
0.0
 11
304.2154214923987
 21
1192.559730815598
 31
0.0
 70
   160
 71
     5
 42
359.9999999999998
 73
     0
 74
     0
 75
     0
 52
270.0
  3
tfrom線あり
100
AcDbAlignedDimension
 13
484.2154214923985
 23
1124.042023879012
 33
0.0
 14
124.2154214923987
 24
1123.900848583667
 34
0.0
 50
-180.0
100
AcDbRotatedDimension
  0
DIMENSION
  5
103A
330
A
100
AcDbEntity
  8
DIM
  6
Continuous
100
AcDbDimension
  2
*D7
 10
394.2154214923987
 20
898.5240604123683
 30
0.0
 11
269.2154214923984
 21
914.5240604123683
 31
0.0
 70
    32
 71
     5
 42
250.0000000000007
 73
     0
 74
     0
 75
     0
 52
270.0
  3
tfrom線あり
100
AcDbAlignedDimension
 13
144.215421492398
 23
970.9832113954461
 33
0.0
 14
394.2154214923987
 24
969.8046630325383
 34
0.0
 50
-180.0
100
AcDbRotatedDimension
  0
DIMENSION
  5
103B
330
A
100
AcDbEntity
  8
DIM
  6
Continuous
100
AcDbDimension
  2
*D8
 10
527.4967292432257
 20
479.8163319524599
 30
0.0
 11
527.4967292432257
 21
501.3163319524599
 31
0.0
 70
   160
 71
     5
 42
42.99999999999999
 73
     0
 74
     0
 75
     0
 52
-90.00000000000001
  3
tfrom線あり
100
AcDbAlignedDimension
 13
484.2154214923987
 23
522.8163319524599
 33
0.0
 14
457.9194711694811
 24
479.8163319524599
 34
0.0
 50
90.00000000000001
100
AcDbRotatedDimension
  0
DIMENSION
  5
103C
330
A
100
AcDbEntity
  8
DIM
  6
Continuous
100
AcDbDimension
  2
*D9
 10
669.5892521057106
 20
432.8163319524599
 30
0.0
 11
669.5892521057106
 21
477.8163319524599
 31
0.0
 70
   160
 71
     5
 42
90.0
 73
     0
 74
     0
 75
     0
  3
tfrom線あり
100
AcDbAlignedDimension
 13
712.2602336780267
 23
522.8163319524599
 33
0.0
 14
711.4259539474344
 24
432.8163319524599
 34
0.0
 50
89.99999999999999
100
AcDbRotatedDimension
  0
DIMENSION
  5
103D
330
A
100
AcDbEntity
  8
DIM
  6
Continuous
100
AcDbDimension
  2
*D10
 10
802.2602336780253
 20
447.2144785639218
 30
0.0
 11
802.2602336780253
 21
567.7003319524599
 31
0.0
 70
   160
  1
75(深さ)
 71
     5
 42
75.60185338853807
 73
     0
 74
     1
 75
     1
  3
tfrom線あり
100
AcDbAlignedDimension
 13
825.3714936597983
 23
522.8163319524599
 33
0.0
 14
802.2602336780253
 24
447.2144785639218
 34
0.0
 50
89.99999999999999
100
AcDbRotatedDimension
1001
ACAD
1000
DSTYLE
1002
{
1070
     3
1000
<>
1070
   172
1070
     1
1070
    75
1070
     1
1070
    76
1070
     1
1002
}
  0
DIMENSION
  5
103E
330
A
100
AcDbEntity
  8
DIM
  6
Continuous
100
AcDbDimension
  2
*D11
 10
892.2602336780267
 20
362.6159698474902
 30
0.0
 11
847.2602336780267
 21
378.6159698474902
 31
0.0
 70
    32
 71
     5
 42
89.99999999999999
 73
     0
 74
     0
 75
     0
  3
tfrom線あり
100
AcDbAlignedDimension
 13
802.2602336780267
 23
411.7816069758296
 33
0.0
 14
892.2602336780267
 24
432.8163319524599
 34
0.0
 50
-0.0000000000000268
100
AcDbRotatedDimension
  0
DIMENSION
  5
103F
330
A
100
AcDbEntity
  8
DIM
  6
Continuous
100
AcDbDimension
  2
*D12
 10
434.2154214923987
 20
558.432484314242
 30
0.0
 11
461.7154214923987
 21
558.432484314242
 31
0.0
 70
   160
 71
     5
 42
50.0
 73
     0
 74
     0
 75
     0
 52
270.0
  3
tfrom線あり
100
AcDbAlignedDimension
 13
484.2154214923987
 23
522.8163319524599
 33
0.0
 14
434.2154214923987
 24
503.5203816295423
 34
0.0
 50
-180.0
100
AcDbRotatedDimension
  0
DIMENSION
  5
1040
330
A
100
AcDbEntity
  8
DIM
  6
Continuous
100
AcDbDimension
  2
*D13
 10
174.2154214923987
 20
558.432484314242
 30
0.0
 11
149.2154214923987
 21
558.432484314242
 31
0.0
 70
   160
 71
     5
 42
49.99999999999998
 73
     0
 74
     0
 75
     0
 52
270.0
  3
tfrom線あり
100
AcDbAlignedDimension
 13
124.2154214923987
 23
522.8163319524599
 33
0.0
 14
174.2154214923987
 24
493.5203816295423
 34
0.0
 50
-180.0
100
AcDbRotatedDimension
  0
MTEXT
  5
1042
330
A
100
AcDbEntity
  8
DIM
 62
     7
390
1D
100
AcDbMText
 10
719.0994505308956
 20
1212.401677670175
 30
0.0
 40
12.0
 41
0.0
 46
0.0
 71
     1
 72
     1
  1
カウンター切込寸法
  7
ＭＳ ゴシック
 73
     1
 44
0.7828267384257843
  0
DIMENSION
  5
1045
330
A
100
AcDbEntity
  8
DIM
  6
Continuous
100
AcDbDimension
  2
*D14
 10
923.6160460036909
 20
894.9818427052676
 30
0.0
 11
933.6160460036928
 21
894.9818427052676
 31
0.0
 70
   160
 71
     5
 42
20.00000000000182
 73
     0
 74
     0
 75
     0
  3
tfrom線あり
100
AcDbAlignedDimension
 13
943.6160460036928
 23
943.9008485836671
 33
0.0
 14
923.6160460036909
 24
983.9008485836671
 34
0.0
 50
-0.000000000000007
100
AcDbRotatedDimension
1001
ACAD
1000
DSTYLE
1002
{
1070
   172
1070
     1
1002
}
  0
DIMENSION
  5
1046
330
A
100
AcDbEntity
  8
DIM
  6
Continuous
100
AcDbDimension
  2
*D15
 10
753.6160460036909
 20
894.9818427052676
 30
0.0
 11
838.6160460036918
 21
910.9818427052676
 31
0.0
 70
    32
 71
     5
 42
170.0000000000018
 73
     0
 74
     0
 75
     0
  3
tfrom線あり
100
AcDbAlignedDimension
 13
923.6160460036928
 23
943.9008485836671
 33
0.0
 14
753.6160460036909
 24
983.9008485836671
 34
0.0
 50
-0.000000000000007
100
AcDbRotatedDimension
  0
LINE
  5
1047
102
{ACAD_REACTORS
330
10B0
102
}
330
A
100
AcDbEntity
  8
MODEL
  6
Continuous
100
AcDbLine
 10
753.6160460036909
 20
983.9008485836671
 30
0.0
 11
753.6160460036918
 21
1083.900848583667
 31
0.0
  0
LINE
  5
1048
102
{ACAD_REACTORS
330
10B0
102
}
330
A
100
AcDbEntity
  8
MODEL
  6
Continuous
100
AcDbLine
 10
923.6160460036909
 20
983.9008485836671
 30
0.0
 11
923.6160460036918
 21
1083.900848583667
 31
0.0
  0
LINE
  5
1049
102
{ACAD_REACTORS
330
10B0
102
}
330
A
100
AcDbEntity
  8
MODEL
  6
Continuous
100
AcDbLine
 10
923.6160460036918
 20
1083.900848583667
 30
0.0
 11
753.6160460036909
 21
1083.900848583667
 31
0.0
  0
LINE
  5
104A
102
{ACAD_REACTORS
330
10B0
102
}
330
A
100
AcDbEntity
  8
MODEL
  6
Continuous
100
AcDbLine
 10
923.6160460036909
 20
983.9008485836671
 30
0.0
 11
753.6160460036909
 21
983.9008485836671
 31
0.0
  0
LINE
  5
104B
330
A
100
AcDbEntity
  8
DIM
  6
Continuous
100
AcDbLine
 10
421.1500451414265
 20
484.8439144800809
 30
0.0
 11
304.7337214145615
 21
640.009498599404
 31
0.0
  0
LINE
  5
104C
330
A
100
AcDbEntity
  8
DIM
  6
Continuous
100
AcDbLine
 10
174.2154214923987
 20
469.8163319524598
 30
0.0
 11
304.7337214145615
 21
640.009498599404
 31
0.0
  0
MTEXT
  5
104D
330
A
100
AcDbEntity
  8
DIM
390
1D
100
AcDbMText
 10
211.6289240611833
 20
664.7150893831774
 30
0.0
 40
12.0
 41
542.920144539582
 46
13.64561669921875
 71
     1
 72
     1
  1
{\C7;壁取付ボルト位置(2ヶ所)}
  7
ＭＳ ゴシック
 73
     1
 44
0.9822934569727008
1001
ACAD
1000
ACAD_MTEXT_DEFINED_HEIGHT_BEGIN
1070
    46
1040
13.64561669921875
1000
ACAD_MTEXT_DEFINED_HEIGHT_END
  0
DIMENSION
  5
1050
330
A
100
AcDbEntity
  8
DIM
  6
Continuous
100
AcDbDimension
  2
*D16
 10
394.2154214923987
 20
898.5240604123683
 30
0.0
 11
439.2154214923986
 21
914.5240604123683
 31
0.0
 70
    32
 71
     5
 42
89.99999999999977
 73
     0
 74
     0
 75
     0
 52
-270.0
  3
tfrom線あり
100
AcDbAlignedDimension
 13
484.2154214923985
 23
943.6225191866874
 33
0.0
 14
394.2154214923987
 24
969.8046630325383
 34
0.0
 50
180.0
100
AcDbRotatedDimension
1001
ACAD
1000
DSTYLE
1002
{
1070
   271
1070
     0
1002
}
  0
DIMENSION
  5
1051
330
A
100
AcDbEntity
  8
DIM
  6
Continuous
100
AcDbDimension
  2
*D17
 10
484.2154214923985
 20
1155.669093082653
 30
0.0
 11
459.2154214923985
 21
1155.669093082653
 31
0.0
 70
   160
 71
     5
 42
49.99999999999977
 73
     0
 74
     0
 75
     0
 52
-270.0
  3
tfrom線あり
100
AcDbAlignedDimension
 13
434.2154214923987
 23
1051.400848583667
 33
0.0
 14
484.2154214923985
 24
1123.536720522636
 34
0.0
 50
180.0
100
AcDbRotatedDimension
  0
LINE
  5
1054
330
A
100
AcDbEntity
  8
HIDDEN
  6
HIDDEN
 48
0.025
100
AcDbLine
 10
426.7154214923987
 20
487.3163319524599
 30
0.0
 11
441.7154214923987
 21
487.3163319524599
 31
0.0
  0
ARC
  5
1055
330
A
100
AcDbEntity
  8
HIDDEN
  6
HIDDEN
 48
0.025
100
AcDbCircle
 10
426.7154214923987
 20
479.8163319524599
 30
0.0
 40
7.5
100
AcDbArc
 50
90.0
 51
270.0
  0
LINE
  5
1056
330
A
100
AcDbEntity
  8
HIDDEN
  6
HIDDEN
 48
0.025
100
AcDbLine
 10
441.7154214923987
 20
472.3163319524599
 30
0.0
 11
426.7154214923987
 21
472.3163319524599
 31
0.0
  0
ARC
  5
1057
330
A
100
AcDbEntity
  8
HIDDEN
  6
HIDDEN
 48
0.025
100
AcDbCircle
 10
441.7154214923987
 20
479.8163319524599
 30
0.0
 40
7.5
100
AcDbArc
 50
270.0
 51
90.0
  0
LINE
  5
1058
102
{ACAD_REACTORS
330
13D0
102
}
330
A
100
AcDbEntity
  8
MODEL
100
AcDbLine
 10
124.2154214923987
 20
522.8163319524599
 30
0.0
 11
124.2154214923987
 21
432.8163319524599
 31
0.0
  0
LINE
  5
1059
330
A
100
AcDbEntity
  8
MODEL
100
AcDbLine
 10
124.2154214923987
 20
522.8163319524599
 30
0.0
 11
484.2154214923987
 21
522.8163319524599
 31
0.0
  0
LINE
  5
105A
330
A
100
AcDbEntity
  8
MODEL
100
AcDbLine
 10
484.2154214923987
 20
522.8163319524599
 30
0.0
 11
484.2154214923987
 21
432.8163319524599
 31
0.0
  0
LINE
  5
105B
330
A
100
AcDbEntity
  8
MODEL
100
AcDbLine
 10
124.2154214923987
 20
432.8163319524599
 30
0.0
 11
484.2154214923987
 21
432.8163319524599
 31
0.0
  0
LINE
  5
105C
102
{ACAD_REACTORS
330
1376
102
}
330
A
100
AcDbEntity
  8
MODEL
100
AcDbLine
 10
484.2154214923987
 20
1123.900848583667
 30
0.0
 11
124.2154214923987
 21
1123.900848583667
 31
0.0
  0
LINE
  5
105D
330
A
100
AcDbEntity
  8
MODEL
100
AcDbLine
 10
484.2154214923987
 20
943.9008485836671
 30
0.0
 11
484.2154214923987
 21
1123.900848583667
 31
0.0
  0
LINE
  5
105E
330
A
100
AcDbEntity
  8
MODEL
100
AcDbLine
 10
124.2154214923987
 20
943.9008485836671
 30
0.0
 11
484.2154214923987
 21
943.9008485836671
 31
0.0
  0
LINE
  5
105F
330
A
100
AcDbEntity
  8
MODEL
100
AcDbLine
 10
124.2154214923987
 20
1123.900848583667
 30
0.0
 11
124.2154214923987
 21
943.9008485836671
 31
0.0
  0
LINE
  5
1060
330
A
100
AcDbEntity
  8
MODEL
100
AcDbLine
 10
394.2154214923987
 20
971.9008485837862
 30
0.0
 11
394.2154214923987
 21
1095.900848583822
 31
0.0
  0
ARC
  5
1061
330
A
100
AcDbEntity
  8
MODEL
100
AcDbCircle
 10
386.2154214923987
 20
1095.900848583667
 30
0.0
 40
8.000000000000114
100
AcDbArc
 50
0.0000000011073419
 51
90.0
  0
LINE
  5
1062
330
A
100
AcDbEntity
  8
MODEL
100
AcDbLine
 10
386.2154214923987
 20
1103.900848583667
 30
0.0
 11
152.2154214923987
 21
1103.900848583667
 31
0.0
  0
ARC
  5
1063
330
A
100
AcDbEntity
  8
MODEL
100
AcDbCircle
 10
152.2154214923987
 20
1095.900848583667
 30
0.0
 40
8.000000000000114
100
AcDbArc
 50
90.0
 51
180.0000000000261
  0
LINE
  5
1064
330
A
100
AcDbEntity
  8
MODEL
100
AcDbLine
 10
144.2154214923987
 20
1095.900848583664
 30
0.0
 11
144.2154214923987
 21
971.9008485836684
 31
0.0
  0
ARC
  5
1065
330
A
100
AcDbEntity
  8
MODEL
100
AcDbCircle
 10
152.2154214923987
 20
971.9008485836684
 30
0.0
 40
8.000000000000682
100
AcDbArc
 50
180.0
 51
270.0000000021886
  0
LINE
  5
1066
330
A
100
AcDbEntity
  8
MODEL
100
AcDbLine
 10
152.2154214927043
 20
963.9008485836671
 30
0.0
 11
386.2154214921222
 21
963.9008485836671
 31
0.0
  0
ARC
  5
1067
330
A
100
AcDbEntity
  8
MODEL
100
AcDbCircle
 10
386.2154214923987
 20
971.9008485836684
 30
0.0
 40
8.000000000000682
100
AcDbArc
 50
269.9999999980198
 51
0.0000000008402771
  0
ARC
  5
1068
330
A
100
AcDbEntity
  8
DIM
370
     0
100
AcDbCircle
 10
157.1192085597334
 20
1090.997061516337
 30
0.0
 40
8.000000000000114
100
AcDbArc
 50
90.0
 51
180.0000000000065
  0
LINE
  5
1069
330
A
100
AcDbEntity
  8
DIM
370
     0
100
AcDbLine
 10
149.1192085597334
 20
1090.997061516336
 30
0.0
 11
149.1192085597334
 21
976.8046356510004
 31
0.0
  0
ARC
  5
106A
330
A
100
AcDbEntity
  8
DIM
370
     0
100
AcDbCircle
 10
157.1192085597334
 20
976.8046356510004
 30
0.0
 40
8.000000000000114
100
AcDbArc
 50
180.0
 51
270.0
  0
LINE
  5
106B
330
A
100
AcDbEntity
  8
DIM
370
     0
100
AcDbLine
 10
157.1192085597334
 20
968.8046356510004
 30
0.0
 11
376.3321985378764
 21
968.8046356510004
 31
0.0
  0
ARC
  5
106C
330
A
100
AcDbEntity
  8
DIM
370
     0
100
AcDbCircle
 10
376.3321985378764
 20
976.8046356510004
 30
0.0
 40
8.000000000000114
100
AcDbArc
 50
270.0
 51
359.9999999957008
  0
LINE
  5
106D
330
A
100
AcDbEntity
  8
DIM
370
     0
100
AcDbLine
 10
384.3321985378764
 20
976.8046356504001
 30
0.0
 11
384.3321985378764
 21
1090.997061516336
 31
0.0
  0
ARC
  5
106E
330
A
100
AcDbEntity
  8
DIM
370
     0
100
AcDbCircle
 10
376.3321985378764
 20
1090.997061516337
 30
0.0
 40
8.000000000000114
100
AcDbArc
 50
359.9999999999935
 51
90.0
  0
LINE
  5
106F
330
A
100
AcDbEntity
  8
DIM
370
     0
100
AcDbLine
 10
376.3321985378764
 20
1098.997061516336
 30
0.0
 11
157.1192085597334
 21
1098.997061516336
 31
0.0
  0
ARC
  5
1070
330
A
100
AcDbEntity
  8
MODEL
100
AcDbCircle
 10
354.2154214923987
 20
1015.900848583667
 30
0.0
 40
8.000000000000114
100
AcDbArc
 50
180.0
 51
359.9999999992183
  0
LINE
  5
1071
330
A
100
AcDbEntity
  8
MODEL
100
AcDbLine
 10
362.2154214923987
 20
1015.900848583558
 30
0.0
 11
362.2154214923987
 21
1051.900848583973
 31
0.0
  0
ARC
  5
1072
330
A
100
AcDbEntity
  8
MODEL
100
AcDbCircle
 10
354.2154214923987
 20
1051.900848583668
 30
0.0
 40
8.000000000000114
100
AcDbArc
 50
0.000000002182115
 51
180.0
  0
LINE
  5
1073
330
A
100
AcDbEntity
  8
MODEL
100
AcDbLine
 10
346.2154214923987
 20
1051.900848583668
 30
0.0
 11
346.2154214923987
 21
1015.900848583667
 31
0.0
  0
LINE
  5
1074
330
A
100
AcDbEntity
  8
MODEL
100
AcDbLine
 10
892.2602336780267
 20
522.8163319524599
 30
0.0
 11
892.2602336780267
 21
432.8163319524599
 31
0.0
  0
LINE
  5
1075
330
A
100
AcDbEntity
  8
MODEL
100
AcDbLine
 10
892.2602336780267
 20
522.8163319524599
 30
0.0
 11
712.2602336780267
 21
522.8163319524599
 31
0.0
  0
LINE
  5
1076
330
A
100
AcDbEntity
  8
MODEL
100
AcDbLine
 10
712.2602336780267
 20
522.8163319524599
 30
0.0
 11
712.2602336780267
 21
432.8163319524599
 31
0.0
  0
LINE
  5
1077
330
A
100
AcDbEntity
  8
MODEL
100
AcDbLine
 10
892.2602336780267
 20
432.8163319524599
 30
0.0
 11
712.2602336780267
 21
432.8163319524599
 31
0.0
  0
DIMENSION
  5
1078
330
A
100
AcDbEntity
  8
DIM
  6
Continuous
100
AcDbDimension
  2
*D18
 10
354.2154214923987
 20
321.7776631369517
 30
0.0
 11
419.2154214923987
 21
337.7776631369517
 31
0.0
 70
    32
 71
     5
 42
130.0
 73
     0
 74
     0
 75
     0
 52
-89.99999999999999
  3
tfrom線あり
100
AcDbAlignedDimension
 13
484.2154214923987
 23
431.1743667451151
 33
0.0
 14
354.2154214923987
 24
364.0314163824328
 34
0.0
 50
180.0
100
AcDbRotatedDimension
  0
CIRCLE
  5
1079
330
A
100
AcDbEntity
  8
HIDDEN
  6
HIDDEN
 48
0.05
100
AcDbCircle
 10
434.2154214923987
 20
1033.900848583667
 30
0.0
 40
17.5
  0
CIRCLE
  5
107A
330
A
100
AcDbEntity
  8
HIDDEN
  6
HIDDEN
 48
0.01
100
AcDbCircle
 10
174.2154214923987
 20
469.8163319524598
 30
0.0
 40
3.185626131860098
  0
LINE
  5
107B
330
A
100
AcDbEntity
  8
HIDDEN
  6
HIDDEN
 48
0.025
100
AcDbLine
 10
181.3753835477939
 20
478.2539301949138
 30
0.0
 11
167.0554594370035
 21
478.2539301949138
 31
0.0
  0
LINE
  5
107C
330
A
100
AcDbEntity
  8
HIDDEN
  6
HIDDEN
 48
0.025
100
AcDbLine
 10
181.3753835477939
 20
478.2539301949138
 30
0.0
 11
181.3753835477939
 21
432.8163319524599
 31
0.0
  0
LINE
  5
107D
330
A
100
AcDbEntity
  8
HIDDEN
  6
HIDDEN
 48
0.025
100
AcDbLine
 10
167.0554594370035
 20
478.2539301949138
 30
0.0
 11
167.0554594370035
 21
432.8163319524599
 31
0.0
  0
LINE
  5
107E
330
A
100
AcDbEntity
  8
HIDDEN
  6
Continuous
100
AcDbLine
 10
345.4654214922464
 20
453.6076693748389
 30
0.0
 11
345.4654214922464
 21
451.4833960807157
 31
0.0
  0
LINE
  5
107F
330
A
100
AcDbEntity
  8
HIDDEN
  6
Continuous
100
AcDbLine
 10
362.9654214922464
 20
453.6076693748389
 30
0.0
 11
362.9654214922464
 21
451.4833960807157
 31
0.0
  0
LINE
  5
1080
330
A
100
AcDbEntity
  8
HIDDEN
  6
Continuous
100
AcDbLine
 10
362.9654214922464
 20
453.6076693748389
 30
0.0
 11
345.4654214922464
 21
453.6076693748389
 31
0.0
  0
LINE
  5
1081
330
A
100
AcDbEntity
  8
HIDDEN
  6
Continuous
100
AcDbLine
 10
345.4654214922464
 20
451.4833960807157
 30
0.0
 11
362.9654214922464
 21
451.4833960807157
 31
0.0
  0
LINE
  5
1082
330
A
100
AcDbEntity
  8
HIDDEN
  6
Continuous
100
AcDbLine
 10
357.1831479606813
 20
451.4833960807157
 30
0.0
 11
357.1831479606813
 21
440.7911105223263
 31
0.0
  0
LINE
  5
1083
330
A
100
AcDbEntity
  8
HIDDEN
  6
Continuous
100
AcDbLine
 10
351.2476950238115
 20
451.4833960807157
 30
0.0
 11
351.2476950238115
 21
440.7911105223263
 31
0.0
  0
LINE
  5
1084
330
A
100
AcDbEntity
  8
HIDDEN
  6
HIDDEN
 48
0.05
100
AcDbLine
 10
385.0094402337161
 20
452.831280028184
 30
0.0
 11
394.1096292718867
 21
520.217821326565
 31
0.0
  0
LINE
  5
1085
330
A
100
AcDbEntity
  8
HIDDEN
  6
HIDDEN
 48
0.05
100
AcDbLine
 10
357.1831479606813
 20
440.7911105223263
 30
0.0
 11
358.1915552147698
 21
445.7064596106609
 31
0.0
  0
LINE
  5
1086
330
A
100
AcDbEntity
  8
HIDDEN
  6
HIDDEN
 48
0.05
100
AcDbLine
 10
351.2476950238115
 20
440.7911105223263
 30
0.0
 11
350.2322585739867
 21
445.7312511881557
 31
0.0
  0
LINE
  5
1087
330
A
100
AcDbEntity
  8
HIDDEN
  6
HIDDEN
 48
0.05
100
AcDbLine
 10
144.4209001136578
 20
520.037565908656
 30
0.0
 11
148.7913162467835
 21
460.934755730095
 31
0.0
  0
LINE
  5
1088
330
A
100
AcDbEntity
  8
HIDDEN
  6
HIDDEN
 48
0.05
100
AcDbLine
 10
153.5613645719602
 20
456.3081613723709
 30
0.0
 11
347.4758310072343
 21
447.9101043257317
 31
0.0
  0
LINE
  5
1089
330
A
100
AcDbEntity
  8
HIDDEN
  6
HIDDEN
 48
0.05
100
AcDbLine
 10
360.9816849183669
 20
447.8865825698911
 30
0.0
 11
380.2145857992286
 21
448.5029949975517
 31
0.0
  0
ARC
  5
108A
330
A
100
AcDbEntity
  8
HIDDEN
  6
HIDDEN
 48
0.05
100
AcDbCircle
 10
153.7777020278172
 20
461.3034789904198
 30
0.0
 40
5.000000000000001
100
AcDbArc
 50
184.2290964118336
 51
267.520181220174
  0
ARC
  5
108B
330
A
100
AcDbEntity
  8
HIDDEN
  6
HIDDEN
 48
0.05
100
AcDbCircle
 10
380.0544185714468
 20
453.5004289850237
 30
0.0
 40
5.000000000000002
100
AcDbArc
 50
271.8356952721939
 51
352.3090421547625
  0
ARC
  5
108C
330
A
100
AcDbEntity
  8
HIDDEN
  6
HIDDEN
 48
0.05
100
AcDbCircle
 10
397.0826422692483
 20
519.8163319524599
 30
0.0
 40
3.000000000000001
100
AcDbArc
 50
90.0
 51
172.3090421547626
  0
ARC
  5
108D
330
A
100
AcDbEntity
  8
HIDDEN
  6
HIDDEN
 48
0.05
100
AcDbCircle
 10
361.0777852550361
 20
444.8881221774079
 30
0.0
 40
2.999999999999999
100
AcDbArc
 50
91.8356952721939
 51
164.1702907108061
  0
ARC
  5
108E
330
A
100
AcDbEntity
  8
HIDDEN
  6
HIDDEN
 48
0.05
100
AcDbCircle
 10
347.3460285337203
 20
444.9129137549019
 30
0.0
 40
2.999999999999998
100
AcDbArc
 50
15.82970928919392
 51
87.52018122017728
  0
ARC
  5
108F
330
A
100
AcDbEntity
  8
HIDDEN
  6
HIDDEN
 48
0.05
100
AcDbCircle
 10
141.4290686450374
 20
519.8163319524599
 30
0.0
 40
3.0
100
AcDbArc
 50
4.229096411835325
 51
90.0
  0
LINE
  5
1093
330
A
100
AcDbEntity
  8
HIDDEN
  6
HIDDEN
 48
0.05
100
AcDbLine
 10
732.3835197119813
 20
520.948021510507
 30
0.0
 11
736.8000381215081
 21
454.0188877148778
 31
0.0
  0
LINE
  5
1094
330
A
100
AcDbEntity
  8
HIDDEN
  6
HIDDEN
 48
0.05
100
AcDbLine
 10
802.2602336780253
 20
447.2144785639218
 30
0.0
 11
742.6912048022662
 21
448.4147214420971
 31
0.0
  0
LINE
  5
1095
330
A
100
AcDbEntity
  8
HIDDEN
  6
HIDDEN
 48
0.025
100
AcDbLine
 10
775.7602336780253
 20
445.9182691212388
 30
0.0
 11
775.7602336780253
 21
432.8163319524599
 31
0.0
  0
ARC
  5
1096
330
A
100
AcDbEntity
  8
HIDDEN
  6
HIDDEN
 48
0.05
100
AcDbCircle
 10
773.9361879092523
 20
445.9941257095199
 30
0.0
 40
1.825622411279926
100
AcDbArc
 50
357.6186127349735
 51
77.6183580648771
  0
ARC
  5
1097
330
A
100
AcDbEntity
  8
HIDDEN
  6
HIDDEN
 48
0.05
100
AcDbCircle
 10
730.3878599563352
 20
520.8163319524599
 30
0.0
 40
2.0
100
AcDbArc
 50
3.775359333312235
 51
90.0
  0
ARC
  5
1098
330
A
100
AcDbEntity
  8
HIDDEN
  6
HIDDEN
 48
0.05
100
AcDbCircle
 10
742.7870173884432
 20
454.413956389016
 30
0.0
 40
6.0
100
AcDbArc
 50
183.7753593333121
 51
269.0850183082148
  0
LINE
  5
1099
330
A
100
AcDbEntity
  8
HIDDEN
  6
HIDDEN
 48
0.05
100
AcDbLine
 10
802.2602336780253
 20
447.2144785639218
 30
0.0
 11
861.8292625537854
 21
448.4147214420971
 31
0.0
  0
LINE
  5
109A
330
A
100
AcDbEntity
  8
HIDDEN
  6
HIDDEN
 48
0.025
100
AcDbLine
 10
828.7602336780267
 20
445.9182691212388
 30
0.0
 11
828.7602336780267
 21
432.8163319524599
 31
0.0
  0
LINE
  5
109B
330
A
100
AcDbEntity
  8
HIDDEN
  6
HIDDEN
 48
0.05
100
AcDbLine
 10
872.1369476440716
 20
520.948021510507
 30
0.0
 11
867.7204292345434
 21
454.0188877148778
 31
0.0
  0
ARC
  5
109C
330
A
100
AcDbEntity
  8
HIDDEN
  6
HIDDEN
 48
0.05
100
AcDbCircle
 10
861.7334499676083
 20
454.413956389016
 30
0.0
 40
6.0
100
AcDbArc
 50
270.9149816917852
 51
356.2246406666878
  0
ARC
  5
109D
330
A
100
AcDbEntity
  8
HIDDEN
  6
HIDDEN
 48
0.05
100
AcDbCircle
 10
874.1326073997163
 20
520.8163319524599
 30
0.0
 40
2.0
100
AcDbArc
 50
90.0
 51
176.2246406666878
  0
LINE
  5
109E
330
A
100
AcDbEntity
  8
HIDDEN
  6
HIDDEN
 48
0.05
100
AcDbLine
 10
775.7602336780253
 20
453.6076693748389
 30
0.0
 11
828.7602336780253
 21
453.6076693748389
 31
0.0
  0
LINE
  5
109F
330
A
100
AcDbEntity
  8
HIDDEN
  6
HIDDEN
 48
0.05
100
AcDbLine
 10
828.7602336780253
 20
453.6076693748389
 30
0.0
 11
828.7602336780253
 21
451.4833960807157
 31
0.0
  0
LINE
  5
10A0
330
A
100
AcDbEntity
  8
HIDDEN
  6
HIDDEN
 48
0.05
100
AcDbLine
 10
828.7602336780253
 20
451.4833960807157
 30
0.0
 11
775.7602336780253
 21
451.4833960807157
 31
0.0
  0
LINE
  5
10A1
330
A
100
AcDbEntity
  8
HIDDEN
  6
HIDDEN
 48
0.05
100
AcDbLine
 10
775.7602336780253
 20
451.4833960807157
 30
0.0
 11
775.7602336780253
 21
453.6076693748389
 31
0.0
  0
LINE
  5
10A4
330
A
100
AcDbEntity
  8
HIDDEN
  6
HIDDEN
 48
0.05
100
AcDbLine
 10
797.8375025562311
 20
441.6321163476757
 30
0.0
 11
796.3808580116895
 21
443.8360624464797
 31
0.0
  0
LINE
  5
10A5
330
A
100
AcDbEntity
  8
HIDDEN
  6
HIDDEN
 48
0.05
100
AcDbLine
 10
797.8375025562311
 20
446.0400085452841
 30
0.0
 11
796.3808580116895
 21
443.8360624464797
 31
0.0
  0
LINE
  5
10A6
330
A
100
AcDbEntity
  8
HIDDEN
  6
HIDDEN
 48
0.05
100
AcDbLine
 10
793.5108052675093
 20
451.4833960807157
 30
0.0
 11
797.8375025562311
 21
446.0400085452841
 31
0.0
  0
LINE
  5
10A9
330
A
100
AcDbEntity
  8
HIDDEN
  6
HIDDEN
 48
0.05
100
AcDbLine
 10
806.6829647998204
 20
441.6321163476757
 30
0.0
 11
808.139609344362
 21
443.8360624464797
 31
0.0
  0
LINE
  5
10AA
330
A
100
AcDbEntity
  8
HIDDEN
  6
HIDDEN
 48
0.05
100
AcDbLine
 10
806.6829647998204
 20
446.0400085452841
 30
0.0
 11
808.139609344362
 21
443.8360624464797
 31
0.0
  0
LINE
  5
10AB
330
A
100
AcDbEntity
  8
HIDDEN
  6
HIDDEN
 48
0.05
100
AcDbLine
 10
811.0096620885427
 20
451.4833960807157
 30
0.0
 11
806.6829647998204
 21
446.0400085452841
 31
0.0
  0
ARC
  5
10AE
330
A
100
AcDbEntity
  8
HIDDEN
  6
HIDDEN
 48
0.05
100
AcDbCircle
 10
830.5842794468001
 20
445.9941257095199
 30
0.0
 40
1.825622411279926
100
AcDbArc
 50
102.3816419351229
 51
182.3813872650265
  0
LINE
  5
10AF
330
A
100
AcDbEntity
  8
HIDDEN
  6
HIDDEN
 48
0.05
100
AcDbLine
 10
583.6160460036909
 20
943.9008485836671
 30
0.0
 11
583.6160460036918
 21
1123.900848583667
 31
0.0
  0
HATCH
  5
10B0
330
A
100
AcDbEntity
  8
MODEL
  6
Continuous
100
AcDbHatch
 10
0.0
 20
0.0
 30
0.0
210
0.0
220
0.0
230
1.0
  2
ANSI31
 70
     0
 71
     1
 91
        1
 92
        1
 93
        4
 72
     1
 10
753.6160460036909
 20
983.9008485836671
 11
753.6160460036918
 21
1083.900848583667
 72
     1
 10
923.6160460036918
 20
1083.900848583667
 11
753.6160460036909
 21
1083.900848583667
 72
     1
 10
923.6160460036909
 20
983.9008485836671
 11
923.6160460036918
 21
1083.900848583667
 72
     1
 10
923.6160460036909
 20
983.9008485836671
 11
753.6160460036909
 21
983.9008485836671
 97
        4
330
1047
330
1049
330
1048
330
104A
 75
     0
 76
     1
 52
0.0
 41
4.0
 77
     0
 78
     1
 53
45.0
 43
0.0
 44
0.0
 45
-8.980256121069152
 46
8.980256121069154
 79
     0
 98
        1
 10
0.0
 20
0.0
1001
ACAD
1010
0.0
1020
0.0
1030
0.0
  0
CIRCLE
  5
10B1
330
A
100
AcDbEntity
  8
HIDDEN
  6
HIDDEN
 48
0.05
370
     0
100
AcDbCircle
 10
354.2154214923987
 20
1033.900848583667
 30
0.0
 40
26.5
  0
LINE
  5
10B6
330
A
100
AcDbEntity
  8
HIDDEN
  6
HIDDEN
 48
0.025
100
AcDbLine
 10
327.7154214922459
 20
448.7658890921928
 30
0.0
 11
327.7154214922459
 21
432.8163319524599
 31
0.0
  0
LINE
  5
10B7
330
A
100
AcDbEntity
  8
HIDDEN
  6
HIDDEN
 48
0.025
100
AcDbLine
 10
380.7154214922464
 20
448.5443140611458
 30
0.0
 11
380.7154214922464
 21
432.8163319524599
 31
0.0
  0
LINE
  5
10BA
330
A
100
AcDbEntity
  8
MODEL
  6
Continuous
100
AcDbLine
 10
383.2345120281841
 20
432.8163319524599
 30
0.0
 11
325.1963309566133
 21
432.8163319524599
 31
0.0
  0
MTEXT
  5
10CA
330
A
100
AcDbEntity
  8
MODEL
390
1D
100
AcDbMText
 10
127.9392051763293
 20
832.6789791658234
 30
0.0
 40
12.0
 41
829.0626663944752
 46
29.52329017633032
 71
     1
 72
     1
  1
{\C7;＝φ30もしくはφ35の水栓取付用穴あけ加工を承ります。\P  必要な場合、ご注文の際にご指示ください。}
  7
ＭＳ ゴシック
 73
     1
 44
0.9822934569727008
1001
ACAD
1000
ACAD_MTEXT_DEFINED_HEIGHT_BEGIN
1070
    46
1040
29.52329017633032
1000
ACAD_MTEXT_DEFINED_HEIGHT_END
  0
DIMENSION
  5
12F8
330
A
100
AcDbEntity
  8
DIM
  6
Continuous
100
AcDbDimension
  2
*D19
 10
983.4853889884672
 20
1083.900848583667
 30
0.0
 11
983.4853889884672
 21
1103.900848583667
 31
0.0
 70
   160
 71
     5
 42
40.00000000000001
 73
     0
 74
     0
 75
     0
  3
tfrom線あり
100
AcDbAlignedDimension
 13
943.4800690317894
 23
1123.900848583667
 33
0.0
 14
923.6160460036918
 24
1083.900848583667
 34
0.0
 50
89.99999999999999
100
AcDbRotatedDimension
  0
DIMENSION
  5
12F9
330
A
100
AcDbEntity
  8
DIM
  6
Continuous
100
AcDbDimension
  2
*D20
 10
983.4853889884672
 20
983.9008485836671
 30
0.0
 11
967.4853889884672
 21
1033.900848583667
 31
0.0
 70
    32
 71
     5
 42
100.0
 73
     0
 74
     0
 75
     0
  3
tfrom線あり
100
AcDbAlignedDimension
 13
923.61604600369
 23
1083.900848583667
 33
0.0
 14
923.6160460036909
 24
983.9008485836671
 34
0.0
 50
89.99999999999999
100
AcDbRotatedDimension
  0
DIMENSION
  5
1327
330
A
100
AcDbEntity
  8
DIM
  6
Continuous
100
AcDbDimension
  2
*D21
 10
561.9956462548696
 20
943.9008485836671
 30
0.0
 11
561.9956462548695
 21
1033.900848583668
 31
0.0
 70
   160
 71
     5
 42
180.0
 73
     0
 74
     0
 75
     0
 52
-270.0
  3
tfrom線あり
100
AcDbAlignedDimension
 13
484.2154214923987
 23
1123.900848583667
 33
0.0
 14
484.2154214923987
 24
943.9008485836671
 34
0.0
 50
90.00000000000001
100
AcDbRotatedDimension
  0
DIMENSION
  5
1334
330
A
100
AcDbEntity
  8
DIM
  6
Continuous
100
AcDbDimension
  2
*D22
 10
89.37062840029441
 20
1103.900848583667
 30
0.0
 11
89.37062840029444
 21
1033.900848583667
 31
0.0
 70
   160
 71
     5
 42
140.0
 73
     0
 74
     0
 75
     0
 52
-90.00000000000001
  3
tfrom線あり
100
AcDbAlignedDimension
 13
152.7241112707222
 23
963.9008485836671
 33
0.0
 14
151.5455629078144
 24
1103.900848583667
 34
0.0
 50
90.00000000000001
100
AcDbRotatedDimension
  0
DIMENSION
  5
1374
102
{ACAD_REACTORS
330
1376
102
}
102
{ACAD_XDICTIONARY
360
1375
102
}
330
A
100
AcDbEntity
  8
DIM
 48
0.05
100
AcDbDimension
  2
*D23
 10
519.986842303565
 20
1033.900848583667
 30
0.0
 11
503.986842303565
 21
1078.900848583667
 31
0.0
 70
    32
 71
     5
 42
90.0
 73
     0
 74
     0
 75
     0
  3
tfrom線あり
100
AcDbAlignedDimension
 13
484.2154214923987
 23
1123.900848583667
 33
0.0
 14
451.7154214923987
 24
1033.900848583667
 34
0.0
 50
90.0
100
AcDbRotatedDimension
  0
DIMENSION
  5
13B2
330
A
100
AcDbEntity
  8
DIM
 48
0.05
100
AcDbDimension
  2
*D24
 10
567.0043329314612
 20
412.8163319524599
 30
0.0
 11
551.0043329314612
 21
467.8163319524599
 31
0.0
 70
    32
 71
     5
 42
110.0
 73
     0
 74
     0
 75
     0
  3
tfrom線あり
100
AcDbAlignedDimension
 13
484.2154214923987
 23
522.8163319524599
 33
0.0
 14
375.8585203223482
 24
412.8163319524599
 34
0.0
 50
90.0
100
AcDbRotatedDimension
  0
DIMENSION
  5
13CE
102
{ACAD_REACTORS
330
13D0
102
}
102
{ACAD_XDICTIONARY
360
13CF
102
}
330
A
100
AcDbEntity
  8
DIM
 48
0.05
100
AcDbDimension
  2
*D25
 10
87.85076413674813
 20
469.8163319524599
 30
0.0
 11
71.85076413674813
 21
496.3163319524599
 31
0.0
 70
    32
 71
     5
 42
53.0
 73
     0
 74
     0
 75
     0
  3
tfrom線あり
100
AcDbAlignedDimension
 13
124.2154214923987
 23
522.8163319524599
 33
0.0
 14
150.5113718153163
 24
469.8163319524599
 34
0.0
 50
90.0
100
AcDbRotatedDimension
  0
DIMENSION
  5
143E
330
A
100
AcDbEntity
  8
DIM
 48
0.05
100
AcDbDimension
  2
*D26
 10
375.2154214923987
 20
381.3007931618801
 30
0.0
 11
354.2154214923987
 21
381.3007931618801
 31
0.0
 70
   160
  1
G1 1/4"
 71
     5
 42
42.0
 73
     0
 74
     0
 75
     0
  3
tfrom線あり
100
AcDbAlignedDimension
 13
333.2154214923987
 23
412.8163319524599
 33
0.0
 14
375.2154214923987
 24
412.8163319524599
 34
0.0
100
AcDbRotatedDimension
1001
ACAD
1000
DSTYLE
1002
{
1070
    77
1070
     2
1002
}
  0
LINE
  5
14D7
330
A
100
AcDbEntity
  8
HIDDEN
 48
0.05
100
AcDbLine
 10
804.2024264040818
 20
440.7911105223263
 30
0.0
 11
804.202426404082
 21
432.8163319524599
 31
0.0
  0
LINE
  5
14D8
330
A
100
AcDbEntity
  8
HIDDEN
 48
0.05
100
AcDbLine
 10
800.3180409519716
 20
440.7911105223263
 30
0.0
 11
800.3180409519715
 21
432.8163319524599
 31
0.0
  0
LINE
  5
1524
330
A
100
AcDbEntity
  8
HIDDEN
 48
0.05
100
AcDbLine
 10
356.1576142184539
 20
440.7911105223263
 30
0.0
 11
356.157614218454
 21
432.8163319524599
 31
0.0
  0
LINE
  5
1525
330
A
100
AcDbEntity
  8
HIDDEN
 48
0.05
100
AcDbLine
 10
352.2732287663437
 20
440.7911105223263
 30
0.0
 11
352.2732287663435
 21
432.8163319524599
 31
0.0
  0
LINE
  5
1528
330
A
100
AcDbEntity
  8
HIDDEN
 48
0.05
100
AcDbLine
 10
327.7154214922459
 20
440.7911105223263
 30
0.0
 11
380.7154214922464
 21
440.7911105223263
 31
0.0
  0
LINE
  5
1532
330
A
100
AcDbEntity
  8
HIDDEN
 48
0.05
100
AcDbLine
 10
775.7602336780253
 20
440.7911105223263
 30
0.0
 11
828.7602336780267
 21
440.7911105223263
 31
0.0
  0
LINE
  5
1536
330
A
100
AcDbEntity
  8
HIDDEN
 48
0.05
100
AcDbLine
 10
797.8375025562311
 20
441.6321163476757
 30
0.0
 11
795.6541458759832
 21
440.7911105223263
 31
0.0
  0
LINE
  5
1537
330
A
100
AcDbEntity
  8
HIDDEN
 48
0.05
100
AcDbLine
 10
806.6829647998209
 20
441.6321163476757
 30
0.0
 11
808.8663214800688
 21
440.7911105223263
 31
0.0
  0
LINE
  5
1589
330
A
100
AcDbEntity
  8
MODEL
  6
CENTER
 48
0.01
100
AcDbLine
 10
457.9194711694811
 20
479.8163319524599
 30
0.0
 11
410.5113718153163
 21
479.8163319524599
 31
0.0
  0
LINE
  5
158A
330
A
100
AcDbEntity
  8
MODEL
  6
CENTER
 48
0.01
100
AcDbLine
 10
434.2154214923987
 20
503.5203816295423
 30
0.0
 11
434.2154214923987
 21
456.1122822753774
 31
0.0
  0
LINE
  5
158B
330
A
100
AcDbEntity
  8
MODEL
  6
CENTER
 48
0.01
100
AcDbLine
 10
174.2154214923987
 20
493.5203816295423
 30
0.0
 11
174.2154214923987
 21
446.1122822753774
 31
0.0
  0
LINE
  5
158C
330
A
100
AcDbEntity
  8
MODEL
  6
CENTER
 48
0.01
100
AcDbLine
 10
150.5113718153163
 20
469.8163319524599
 30
0.0
 11
197.9194711694811
 21
469.8163319524599
 31
0.0
  0
CIRCLE
  5
1609
330
A
100
AcDbEntity
  8
MODEL
  6
HIDDEN
 48
0.02
390
1D
100
AcDbCircle
 10
113.743038834651
 20
824.9755810226795
 30
0.0
 40
7.480904845869645
  0
HATCH
  5
16A3
330
A
100
AcDbEntity
  8
HIDDEN
  6
Continuous
 48
0.05
370
     0
100
AcDbHatch
 10
0.0
 20
0.0
 30
0.0
210
0.0
220
0.0
230
1.0
  2
ANSI31
 70
     0
 71
     1
 91
        1
 92
        1
 93
        4
 72
     1
 10
375.2154214923988
 20
425.2205706520703
 11
375.2154214923988
 21
412.8163319524599
 72
     1
 10
335.8551042337228
 20
425.2205706520703
 11
372.5757387510748
 21
425.2205706520703
 72
     1
 10
333.2154214923988
 20
425.2205706520703
 11
333.2154214923988
 21
412.8163319524599
 72
     1
 10
333.2154214923988
 20
412.8163319524599
 11
375.2154214923988
 21
412.8163319524599
 97
        4
330
16A6
330
16A8
330
16A5
330
16A4
 75
     0
 76
     1
 52
145.0
 41
0.9999999999999977
 77
     0
 78
     1
 53
189.9999999999995
 43
111.2642171710015
 44
-31.55196543214328
 45
0.5513329640925042
 46
-3.12676461581376
 79
     0
 98
        1
 10
111.2642171710015
 20
-31.55196543214328
1001
ACAD
1010
0.0
1020
0.0
1030
0.0
  0
LINE
  5
16A4
102
{ACAD_REACTORS
330
16A3
102
}
330
A
100
AcDbEntity
  8
HIDDEN
  6
Continuous
 48
0.05
100
AcDbLine
 10
333.2154214923988
 20
412.8163319524599
 30
0.0
 11
375.2154214923988
 21
412.8163319524599
 31
0.0
  0
LINE
  5
16A5
102
{ACAD_REACTORS
330
16A3
102
}
330
A
100
AcDbEntity
  8
HIDDEN
  6
Continuous
 48
0.05
100
AcDbLine
 10
333.2154214923988
 20
425.2205706520703
 30
0.0
 11
333.2154214923988
 21
412.8163319524599
 31
0.0
  0
LINE
  5
16A6
102
{ACAD_REACTORS
330
16A3
102
}
330
A
100
AcDbEntity
  8
HIDDEN
  6
Continuous
 48
0.05
100
AcDbLine
 10
375.2154214923988
 20
425.2205706520703
 30
0.0
 11
375.2154214923988
 21
412.8163319524599
 31
0.0
  0
LINE
  5
16A7
330
A
100
AcDbEntity
  8
HIDDEN
  6
Continuous
 48
0.05
100
AcDbLine
 10
383.3867724800929
 20
425.2205706520703
 30
0.0
 11
325.0440705047046
 21
425.2205706520703
 31
0.0
  0
LINE
  5
16A8
102
{ACAD_REACTORS
330
16A3
102
}
330
A
100
AcDbEntity
  8
HIDDEN
  6
Continuous
 48
0.05
100
AcDbLine
 10
335.8551042337228
 20
425.2205706520703
 30
0.0
 11
372.5757387510748
 21
425.2205706520703
 31
0.0
  0
LINE
  5
16A9
330
A
100
AcDbEntity
  8
HIDDEN
  6
Continuous
 48
0.05
100
AcDbLine
 10
325.0440705047046
 20
425.2205706520703
 30
0.0
 11
325.0440705047046
 21
432.8163319524599
 31
0.0
  0
LINE
  5
16AA
330
A
100
AcDbEntity
  8
HIDDEN
  6
Continuous
 48
0.05
100
AcDbLine
 10
383.3867724800929
 20
425.2205706520703
 30
0.0
 11
383.3867724800929
 21
432.8163319524599
 31
0.0
  0
HATCH
  5
16AB
330
A
100
AcDbEntity
  8
HIDDEN
  6
Continuous
 48
0.05
370
     0
100
AcDbHatch
 10
0.0
 20
0.0
 30
0.0
210
0.0
220
0.0
230
1.0
  2
ANSI31
 70
     0
 71
     1
 91
        1
 92
        1
 93
        4
 72
     1
 10
823.2602336780267
 20
425.2205706520703
 11
823.2602336780267
 21
412.8163319524599
 72
     1
 10
783.8999164193508
 20
425.2205706520703
 11
820.6205509367028
 21
425.2205706520703
 72
     1
 10
781.2602336780267
 20
425.2205706520703
 11
781.2602336780267
 21
412.8163319524599
 72
     1
 10
781.2602336780267
 20
412.8163319524599
 11
823.2602336780267
 21
412.8163319524599
 97
        4
330
16AE
330
16B0
330
16AD
330
16AC
 75
     0
 76
     1
 52
145.0
 41
0.9999999999999977
 77
     0
 78
     1
 53
189.9999999999995
 43
559.3090293566295
 44
-31.55196543214328
 45
0.5513329640925042
 46
-3.12676461581376
 79
     0
 98
        1
 10
559.3090293566295
 20
-31.55196543214328
1001
ACAD
1010
0.0
1020
0.0
1030
0.0
  0
LINE
  5
16AC
102
{ACAD_REACTORS
330
16AB
102
}
330
A
100
AcDbEntity
  8
HIDDEN
  6
Continuous
 48
0.05
100
AcDbLine
 10
781.2602336780267
 20
412.8163319524599
 30
0.0
 11
823.2602336780267
 21
412.8163319524599
 31
0.0
  0
LINE
  5
16AD
102
{ACAD_REACTORS
330
16AB
102
}
330
A
100
AcDbEntity
  8
HIDDEN
  6
Continuous
 48
0.05
100
AcDbLine
 10
781.2602336780267
 20
425.2205706520703
 30
0.0
 11
781.2602336780267
 21
412.8163319524599
 31
0.0
  0
LINE
  5
16AE
102
{ACAD_REACTORS
330
16AB
102
}
330
A
100
AcDbEntity
  8
HIDDEN
  6
Continuous
 48
0.05
100
AcDbLine
 10
823.2602336780267
 20
425.2205706520703
 30
0.0
 11
823.2602336780267
 21
412.8163319524599
 31
0.0
  0
LINE
  5
16AF
330
A
100
AcDbEntity
  8
HIDDEN
  6
Continuous
 48
0.05
100
AcDbLine
 10
831.4315846657208
 20
425.2205706520703
 30
0.0
 11
773.0888826903326
 21
425.2205706520703
 31
0.0
  0
LINE
  5
16B0
102
{ACAD_REACTORS
330
16AB
102
}
330
A
100
AcDbEntity
  8
HIDDEN
  6
Continuous
 48
0.05
100
AcDbLine
 10
783.8999164193508
 20
425.2205706520703
 30
0.0
 11
820.6205509367028
 21
425.2205706520703
 31
0.0
  0
LINE
  5
16B1
330
A
100
AcDbEntity
  8
HIDDEN
  6
Continuous
 48
0.05
100
AcDbLine
 10
773.0888826903326
 20
425.2205706520703
 30
0.0
 11
773.0888826903326
 21
432.8163319524599
 31
0.0
  0
LINE
  5
16B2
330
A
100
AcDbEntity
  8
HIDDEN
  6
Continuous
 48
0.05
100
AcDbLine
 10
831.4315846657208
 20
425.2205706520703
 30
0.0
 11
831.4315846657208
 21
432.8163319524599
 31
0.0
  0
MTEXT
  5
16FD
102
{ACAD_XDICTIONARY
360
16FE
102
}
330
A
100
AcDbEntity
  8
TEMPLATE
 48
0.05
100
AcDbMText
 10
36.36419193819329
 20
42.69568631955732
 30
0.0
 40
11.0
 41
0.0
 46
11.0
 71
     1
 72
     1
  1
{20160810N}
  7
ＭＳ ゴシック
 73
     1
 44
1.0
1001
ACAD
1000
ACAD_MTEXT_DEFINED_HEIGHT_BEGIN
1070
    46
1040
11.0
1000
ACAD_MTEXT_DEFINED_HEIGHT_END
  0
VIEWPORT
  5
349
330
B
100
AcDbEntity
 67
     1
  8
0
100
AcDbViewport
 10
202.5
 20
128.5
 30
0.0
 40
486.0
 41
308.4
 68
     1
 69
     1
 12
202.5
 22
128.5
 13
0.0
 23
0.0
 14
0.5
 24
0.5
 15
0.0
 25
0.0
 16
0.0
 26
0.0
 36
1.0
 17
0.0
 27
0.0
 37
0.0
 42
50.0
 43
0.0
 44
0.0
 45
308.4
 50
0.0
 51
0.0
 72
   100
 90
   557152
  1

281
     0
 71
     1
 74
     0
110
0.0
120
0.0
130
0.0
111
1.0
121
0.0
131
0.0
112
0.0
122
1.0
132
0.0
 79
     0
146
0.0
170
     0
 61
     5
348
26C
292
     1
282
     1
141
0.0
142
0.0
 63
   256
  0
VIEWPORT
  5
34A
330
B
100
AcDbEntity
 67
     1
  8
0
100
AcDbViewport
 10
202.5
 20
128.5
 30
0.0
 40
324.0
 41
205.6
 68
     2
 69
     2
 12
986.6781359294573
 22
1427.077061889956
 13
0.0
 23
0.0
 14
0.5
 24
0.5
 15
0.0
 25
0.0
 16
0.0
 26
0.0
 36
1.0
 17
0.0
 27
0.0
 37
0.0
 42
50.0
 43
0.0
 44
0.0
 45
2890.021615685494
 50
0.0
 51
0.0
 72
   100
 90
   557152
  1

281
     0
 71
     1
 74
     0
110
0.0
120
0.0
130
0.0
111
1.0
121
0.0
131
0.0
112
0.0
122
1.0
132
0.0
 79
     0
146
0.0
170
     0
 61
     5
348
26C
292
     1
282
     1
141
0.0
142
0.0
 63
   256
  0
ENDSEC
  0
SECTION
  2
OBJECTS
  0
DICTIONARY
  5
19
330
0
100
AcDbDictionary
281
     1
  3
ACAD_COLOR
350
674
  3
ACAD_DETAILVIEWSTYLE
350
BBF
  3
ACAD_FIELDLIST
350
16FB
  3
ACAD_GROUP
350
1A
  3
ACAD_IMAGE_VARS
350
27B
  3
ACAD_LAYOUT
350
1E
  3
ACAD_MATERIAL
350
263
  3
ACAD_MLEADERSTYLE
350
336
  3
ACAD_MLINESTYLE
350
1B
  3
ACAD_PLOTSETTINGS
350
22
  3
ACAD_PLOTSTYLENAME
350
1F
  3
ACAD_SCALELIST
350
241
  3
ACAD_SECTIONVIEWSTYLE
350
BC0
  3
ACAD_TABLESTYLE
350
278
  3
ACAD_VISUALSTYLE
350
267
  3
ACDB_RECOMPOSE_DATA
350
172F
  3
AcDbVariableDictionary
350
330
  3
APPDATA
350
27A
  3
DimOffsetDictionary
350
11E6
  0
SUN
  5
904
330
15
100
AcDbSun
 90
        1
290
     0
 63
     7
421
 16777215
 40
1.0
291
     1
 91
  2455826
 92
 54000000
292
     0
 70
     2
 71
   256
280
     1
  0
DICTIONARY
  5
2E1
330
2
100
AcDbDictionary
280
     1
281
     1
  3
ACAD_LAYERSTATES
360
2E2
  3
ACLYDICTIONARY
360
DDE
  0
DICTIONARY
  5
1375
330
1374
100
AcDbDictionary
280
     1
281
     1
  3
ACAD_DIMASSOC
360
1376
  0
DICTIONARY
  5
13CF
330
13CE
100
AcDbDictionary
280
     1
281
     1
  3
ACAD_DIMASSOC
360
13D0
  0
DICTIONARY
  5
16FE
330
16FD
100
AcDbDictionary
280
     1
281
     1
  3
ACAD_FIELD
360
16FF
  0
DICTIONARY
  5
674
102
{ACAD_REACTORS
330
19
102
}
330
19
100
AcDbDictionary
281
     1
  0
DICTIONARY
  5
BBF
102
{ACAD_REACTORS
330
19
102
}
330
19
100
AcDbDictionary
281
     1
  0
FIELDLIST
  5
16FB
102
{ACAD_REACTORS
330
19
102
}
330
19
100
AcDbIdSet
 90
        1
330
1700
100
AcDbFieldList
  0
DICTIONARY
  5
1A
102
{ACAD_REACTORS
330
19
102
}
330
19
100
AcDbDictionary
281
     1
  0
RASTERVARIABLES
  5
27B
102
{ACAD_REACTORS
330
19
102
}
330
19
100
AcDbRasterVariables
 90
        0
 70
     1
 71
     1
 72
     1
  0
DICTIONARY
  5
1E
102
{ACAD_REACTORS
330
19
102
}
330
19
100
AcDbDictionary
281
     1
  3
Layout1
350
21
  3
Model
350
20
  0
DICTIONARY
  5
263
102
{ACAD_REACTORS
330
19
102
}
330
19
100
AcDbDictionary
281
     1
  3
ByBlock
350
1726
  3
ByLayer
350
264
  3
Global
350
266
  0
DICTIONARY
  5
336
102
{ACAD_REACTORS
330
19
102
}
330
19
100
AcDbDictionary
281
     1
  3
Standard
350
D59
  0
DICTIONARY
  5
1B
102
{ACAD_REACTORS
330
19
102
}
330
19
100
AcDbDictionary
281
     1
  3
Standard
350
1C
  0
DICTIONARY
  5
22
102
{ACAD_REACTORS
330
19
102
}
330
19
100
AcDbDictionary
281
     1
  0
ACDBDICTIONARYWDFLT
  5
1F
102
{ACAD_REACTORS
330
19
102
}
330
19
100
AcDbDictionary
281
     1
  3
Normal
350
1D
100
AcDbDictionaryWithDefault
340
1D
  0
DICTIONARY
  5
241
102
{ACAD_REACTORS
330
19
102
}
330
19
100
AcDbDictionary
281
     1
  3
A0
350
242
  3
A1
350
243
  3
A2
350
244
  3
A3
350
245
  3
A4
350
246
  3
A5
350
247
  3
A6
350
248
  3
A7
350
249
  3
A8
350
24A
  3
A9
350
24B
  3
B0
350
24C
  3
B1
350
24D
  3
B2
350
24E
  3
B3
350
24F
  3
B4
350
250
  3
B5
350
251
  3
B6
350
252
  3
B7
350
253
  3
B8
350
254
  3
B9
350
255
  3
C0
350
256
  3
C1
350
257
  3
C2
350
258
  3
C3
350
259
  3
C4
350
25A
  3
C5
350
25B
  3
C6
350
25C
  3
C7
350
25D
  3
C8
350
25E
  3
C9
350
25F
  3
D0
350
260
  3
D1
350
261
  3
D2
350
262
  0
DICTIONARY
  5
BC0
102
{ACAD_REACTORS
330
19
102
}
330
19
100
AcDbDictionary
281
     1
  0
DICTIONARY
  5
278
102
{ACAD_REACTORS
330
19
102
}
330
19
100
AcDbDictionary
281
     1
  3
Standard
350
279
  0
DICTIONARY
  5
267
102
{ACAD_REACTORS
330
19
102
}
330
19
100
AcDbDictionary
281
     1
  3
2dWireframe
350
26C
  3
3D Hidden
350
26E
  3
3dWireframe
350
26D
  3
Basic
350
26F
  3
Brighten
350
273
  3
ColorChange
350
277
  3
Conceptual
350
271
  3
Dim
350
272
  3
EdgeColorOff
350
8FE
  3
Facepattern
350
276
  3
Flat
350
268
  3
FlatWithEdges
350
269
  3
Gouraud
350
26A
  3
GouraudWithEdges
350
26B
  3
Hidden
350
8FB
  3
JitterOff
350
8FC
  3
Linepattern
350
275
  3
OverhangOff
350
8FD
  3
Realistic
350
270
  3
Shaded
350
903
  3
Shaded with edges
350
902
  3
Shades of Gray
350
8FF
  3
Sketchy
350
900
  3
Thicken
350
274
  3
Wireframe
350
8FA
  3
X-Ray
350
901
  0
XRECORD
  5
172F
102
{ACAD_REACTORS
330
19
102
}
330
19
100
AcDbXrecord
280
     1
 90
        1
330
279
  0
DICTIONARY
  5
330
102
{ACAD_REACTORS
330
19
102
}
330
19
100
AcDbDictionary
281
     1
  3
CANNOSCALE
350
331
  3
CMLEADERSTYLE
350
D5E
  3
CTABLESTYLE
350
335
  3
HPTRANSPARENCY
350
D52
  3
XCLIPFRAME
350
896
  0
DICTIONARY
  5
27A
102
{ACAD_REACTORS
330
19
102
}
330
19
100
AcDbDictionary
281
     1
  0
DICTIONARY
  5
11E6
102
{ACAD_REACTORS
330
19
102
}
330
19
100
AcDbDictionary
281
     1
  3
DIMRAILANGLE
350
1238
  3
DIMRAILFIRSTOFFSET
350
1236
  3
DIMRAILOFFSET
350
1237
  3
DIMRAILSENABLED
350
1239
  0
DICTIONARY
  5
2E2
102
{ACAD_REACTORS
330
2E1
102
}
330
2E1
100
AcDbDictionary
281
     1
  3
ARGON_LAYERP_9
350
7AA
  0
DICTIONARY
  5
DDE
102
{ACAD_REACTORS
330
2E1
102
}
330
2E1
100
AcDbDictionary
281
     1
1001
ACAD
1000
<All
  0
DIMASSOC
  5
1376
102
{ACAD_REACTORS
330
1375
102
}
330
1375
100
AcDbDimAssoc
330
1374
 90
        1
 70
     0
 71
     1
  1
AcDbOsnapPointRef
 72
    13
331
105C
 73
     0
 91
        0
 40
0.0
 10
0.0
 20
0.0
 30
0.0
 75
     0
  0
DIMASSOC
  5
13D0
102
{ACAD_REACTORS
330
13CF
102
}
330
13CF
100
AcDbDimAssoc
330
13CE
 90
        1
 70
     0
 71
     1
  1
AcDbOsnapPointRef
 72
    13
331
1058
 73
     0
 91
        0
 40
0.0
 10
0.0
 20
0.0
 30
0.0
 75
     0
  0
DICTIONARY
  5
16FF
102
{ACAD_REACTORS
330
16FE
102
}
330
16FE
100
AcDbDictionary
280
     1
281
     1
  3
TEXT
360
1700
  0
LAYOUT
  5
21
102
{ACAD_REACTORS
330
1E
102
}
330
1E
100
AcDbPlotSettings
  1

  2
none_device
  4
ISO_A3_(420.00_x_297.00_MM)
  6

 40
7.5
 41
20.0
 42
7.5
 43
20.0
 44
420.0
 45
297.0
 46
0.0
 47
0.0
 48
0.0
 49
0.0
140
0.0
141
0.0
142
1.0
143
1.0
 70
     0
 72
     1
 73
     0
 74
     0
  7

 75
     0
 76
     0
 77
     2
 78
   300
147
1.0
148
0.0
149
0.0
100
AcDbLayout
  1
Layout1
 70
     0
 71
     0
 10
-7.5
 20
-20.0
 11
412.5
 21
277.0
 12
0.0
 22
0.0
 32
0.0
 14
0.0
 24
0.0
 34
0.0
 15
0.0
 25
0.0
 35
0.0
146
0.0
 13
0.0
 23
0.0
 33
0.0
 16
0.0
 26
0.0
 36
0.0
 17
0.0
 27
0.0
 37
0.0
 76
     0
330
B
331
349
  0
LAYOUT
  5
20
102
{ACAD_REACTORS
330
1E
102
}
330
1E
100
AcDbPlotSettings
  1

  2
none_device
  4
ISO_A3_(420.00_x_297.00_MM)
  6

 40
7.5
 41
20.0
 42
7.5
 43
20.0
 44
420.0
 45
297.0
 46
0.0
 47
0.0
 48
0.0
 49
0.0
140
0.0
141
0.0
142
1.0
143
1.0
 70
  1024
 72
     1
 73
     0
 74
     0
  7

 75
     0
 76
     0
 77
     2
 78
   300
147
1.0
148
0.0
149
0.0
100
AcDbLayout
  1
Model
 70
     0
 71
     1
 10
0.0
 20
0.0
 11
1050.0
 21
1485.0
 12
0.0
 22
0.0
 32
0.0
 14
0.0
 24
0.0
 34
0.0
 15
1050.0
 25
1485.0
 35
0.0000000000000071
146
0.0
 13
0.0
 23
0.0
 33
0.0
 16
0.0
 26
0.0
 36
0.0
 17
0.0
 27
0.0
 37
0.0
 76
     0
330
A
331
15
  0
MATERIAL
  5
1726
102
{ACAD_REACTORS
330
263
102
}
330
263
100
AcDbMaterial
  1
ByBlock
 72
     1
 94
      127
  0
MATERIAL
  5
264
102
{ACAD_REACTORS
330
263
102
}
330
263
100
AcDbMaterial
  1
ByLayer
 72
     1
 94
      127
  0
MATERIAL
  5
266
102
{ACAD_REACTORS
330
263
102
}
330
263
100
AcDbMaterial
  1
Global
 72
     1
 94
      127
  0
MLEADERSTYLE
  5
D59
102
{ACAD_REACTORS
330
336
102
}
330
336
100
AcDbMLeaderStyle
170
     2
171
     1
172
     0
 90
        2
 40
0.0
 41
0.0
173
     1
 91
-1056964608
340
11
 92
       -2
290
     1
 42
2.0
291
     1
 43
8.0
  3
Standard
341
0
 44
4.0
300

342
17
174
     1
178
     6
175
     1
176
     0
 93
-1056964608
 45
4.0
292
     0
297
     0
 46
4.0
343
0
 94
-1056964608
 47
1.0
 49
1.0
140
1.0
293
     1
141
0.0
294
     1
177
     0
142
1.0
295
     0
296
     0
143
3.75
1001
ACAD_MLEADERVER
1070
     2
  0
MLINESTYLE
  5
1C
102
{ACAD_REACTORS
330
1B
102
}
330
1B
100
AcDbMlineStyle
  2
Standard
 70
     0
  3

 62
     0
 51
90.0
 52
90.0
 71
     2
 49
0.5
 62
   256
  6
BYLAYER
 49
-0.5
 62
   256
  6
BYLAYER
  0
ACDBPLACEHOLDER
  5
1D
102
{ACAD_REACTORS
330
1F
102
}
330
1F
  0
SCALE
  5
242
102
{ACAD_REACTORS
330
241
102
}
330
241
100
AcDbScale
 70
     0
300
1:1
140
1.0
141
1.0
290
     1
  0
SCALE
  5
243
102
{ACAD_REACTORS
330
241
102
}
330
241
100
AcDbScale
 70
     0
300
1:2
140
1.0
141
2.0
290
     0
  0
SCALE
  5
244
102
{ACAD_REACTORS
330
241
102
}
330
241
100
AcDbScale
 70
     0
300
1:4
140
1.0
141
4.0
290
     0
  0
SCALE
  5
245
102
{ACAD_REACTORS
330
241
102
}
330
241
100
AcDbScale
 70
     0
300
1:5
140
1.0
141
5.0
290
     0
  0
SCALE
  5
246
102
{ACAD_REACTORS
330
241
102
}
330
241
100
AcDbScale
 70
     0
300
1:8
140
1.0
141
8.0
290
     0
  0
SCALE
  5
247
102
{ACAD_REACTORS
330
241
102
}
330
241
100
AcDbScale
 70
     0
300
1:10
140
1.0
141
10.0
290
     0
  0
SCALE
  5
248
102
{ACAD_REACTORS
330
241
102
}
330
241
100
AcDbScale
 70
     0
300
1:16
140
1.0
141
16.0
290
     0
  0
SCALE
  5
249
102
{ACAD_REACTORS
330
241
102
}
330
241
100
AcDbScale
 70
     0
300
1:20
140
1.0
141
20.0
290
     0
  0
SCALE
  5
24A
102
{ACAD_REACTORS
330
241
102
}
330
241
100
AcDbScale
 70
     0
300
1:30
140
1.0
141
30.0
290
     0
  0
SCALE
  5
24B
102
{ACAD_REACTORS
330
241
102
}
330
241
100
AcDbScale
 70
     0
300
1:40
140
1.0
141
40.0
290
     0
  0
SCALE
  5
24C
102
{ACAD_REACTORS
330
241
102
}
330
241
100
AcDbScale
 70
     0
300
1:50
140
1.0
141
50.0
290
     0
  0
SCALE
  5
24D
102
{ACAD_REACTORS
330
241
102
}
330
241
100
AcDbScale
 70
     0
300
1:100
140
1.0
141
100.0
290
     0
  0
SCALE
  5
24E
102
{ACAD_REACTORS
330
241
102
}
330
241
100
AcDbScale
 70
     0
300
2:1
140
2.0
141
1.0
290
     0
  0
SCALE
  5
24F
102
{ACAD_REACTORS
330
241
102
}
330
241
100
AcDbScale
 70
     0
300
4:1
140
4.0
141
1.0
290
     0
  0
SCALE
  5
250
102
{ACAD_REACTORS
330
241
102
}
330
241
100
AcDbScale
 70
     0
300
8:1
140
8.0
141
1.0
290
     0
  0
SCALE
  5
251
102
{ACAD_REACTORS
330
241
102
}
330
241
100
AcDbScale
 70
     0
300
10:1
140
10.0
141
1.0
290
     0
  0
SCALE
  5
252
102
{ACAD_REACTORS
330
241
102
}
330
241
100
AcDbScale
 70
     0
300
100:1
140
100.0
141
1.0
290
     0
  0
SCALE
  5
253
102
{ACAD_REACTORS
330
241
102
}
330
241
100
AcDbScale
 70
     0
300
1/128" = 1'-0"
140
0.0078125
141
12.0
290
     0
  0
SCALE
  5
254
102
{ACAD_REACTORS
330
241
102
}
330
241
100
AcDbScale
 70
     0
300
1/64" = 1'-0"
140
0.015625
141
12.0
290
     0
  0
SCALE
  5
255
102
{ACAD_REACTORS
330
241
102
}
330
241
100
AcDbScale
 70
     0
300
1/32" = 1'-0"
140
0.03125
141
12.0
290
     0
  0
SCALE
  5
256
102
{ACAD_REACTORS
330
241
102
}
330
241
100
AcDbScale
 70
     0
300
1/16" = 1'-0"
140
0.0625
141
12.0
290
     0
  0
SCALE
  5
257
102
{ACAD_REACTORS
330
241
102
}
330
241
100
AcDbScale
 70
     0
300
3/32" = 1'-0"
140
0.09375
141
12.0
290
     0
  0
SCALE
  5
258
102
{ACAD_REACTORS
330
241
102
}
330
241
100
AcDbScale
 70
     0
300
1/8" = 1'-0"
140
0.125
141
12.0
290
     0
  0
SCALE
  5
259
102
{ACAD_REACTORS
330
241
102
}
330
241
100
AcDbScale
 70
     0
300
3/16" = 1'-0"
140
0.1875
141
12.0
290
     0
  0
SCALE
  5
25A
102
{ACAD_REACTORS
330
241
102
}
330
241
100
AcDbScale
 70
     0
300
1/4" = 1'-0"
140
0.25
141
12.0
290
     0
  0
SCALE
  5
25B
102
{ACAD_REACTORS
330
241
102
}
330
241
100
AcDbScale
 70
     0
300
3/8" = 1'-0"
140
0.375
141
12.0
290
     0
  0
SCALE
  5
25C
102
{ACAD_REACTORS
330
241
102
}
330
241
100
AcDbScale
 70
     0
300
1/2" = 1'-0"
140
0.5
141
12.0
290
     0
  0
SCALE
  5
25D
102
{ACAD_REACTORS
330
241
102
}
330
241
100
AcDbScale
 70
     0
300
3/4" = 1'-0"
140
0.75
141
12.0
290
     0
  0
SCALE
  5
25E
102
{ACAD_REACTORS
330
241
102
}
330
241
100
AcDbScale
 70
     0
300
1" = 1'-0"
140
1.0
141
12.0
290
     0
  0
SCALE
  5
25F
102
{ACAD_REACTORS
330
241
102
}
330
241
100
AcDbScale
 70
     0
300
1-1/2" = 1'-0"
140
1.5
141
12.0
290
     0
  0
SCALE
  5
260
102
{ACAD_REACTORS
330
241
102
}
330
241
100
AcDbScale
 70
     0
300
3" = 1'-0"
140
3.0
141
12.0
290
     0
  0
SCALE
  5
261
102
{ACAD_REACTORS
330
241
102
}
330
241
100
AcDbScale
 70
     0
300
6" = 1'-0"
140
6.0
141
12.0
290
     0
  0
SCALE
  5
262
102
{ACAD_REACTORS
330
241
102
}
330
241
100
AcDbScale
 70
     0
300
1'-0" = 1'-0"
140
12.0
141
12.0
290
     0
  0
TABLESTYLE
  5
279
102
{ACAD_REACTORS
330
278
102
}
102
{ACAD_XDICTIONARY
360
172D
102
}
330
278
100
AcDbTableStyle
  3
Standard
 70
     0
 71
     0
 40
0.06
 41
0.06
280
     0
281
     0
  7
Standard
140
4.5
170
     2
 62
     0
 63
   257
283
     0
 90
        4
 91
        0
  1

274
    -2
284
     1
 64
     0
275
    -2
285
     1
 65
     0
276
    -2
286
     1
 66
     0
277
    -2
287
     1
 67
     0
278
    -2
288
     1
 68
     0
279
    -2
289
     1
 69
     0
  7
Standard
140
6.0
170
     5
 62
     0
 63
   257
283
     0
 90
        4
 91
        0
  1

274
    -2
284
     1
 64
     0
275
    -2
285
     1
 65
     0
276
    -2
286
     1
 66
     0
277
    -2
287
     1
 67
     0
278
    -2
288
     1
 68
     0
279
    -2
289
     1
 69
     0
  7
Standard
140
4.5
170
     5
 62
     0
 63
   257
283
     0
 90
        4
 91
        0
  1

274
    -2
284
     1
 64
     0
275
    -2
285
     1
 65
     0
276
    -2
286
     1
 66
     0
277
    -2
287
     1
 67
     0
278
    -2
288
     1
 68
     0
279
    -2
289
     1
 69
     0
  0
VISUALSTYLE
  5
26C
102
{ACAD_REACTORS
330
267
102
}
330
267
100
AcDbVisualStyle
  2
2dWireframe
 70
     4
 71
     0
 72
     2
 73
     0
 90
        0
 40
-0.6
 41
-30.0
 62
     5
 63
     7
421
 16777215
 74
     1
 91
        4
 64
     7
 65
   257
 75
     1
175
     1
 42
1.0
 92
        0
 66
   257
 43
1.0
 76
     1
 77
     6
 78
     2
 67
     7
 79
     5
170
     0
171
     0
290
     0
174
     0
 93
        1
 44
0.0
173
     0
291
     0
 45
0.0
  0
VISUALSTYLE
  5
26E
102
{ACAD_REACTORS
330
267
102
}
330
267
100
AcDbVisualStyle
  2
3D Hidden
 70
     6
 71
     1
 72
     2
 73
     2
 90
        0
 40
-0.6
 41
-30.0
 62
     5
 63
     7
421
 16777215
 74
     2
 91
        2
 64
     7
 65
   257
 75
     2
175
     1
 42
40.0
 92
        0
 66
   257
 43
1.0
 76
     1
 77
     6
 78
     2
 67
     7
 79
     3
170
     0
171
     0
290
     0
174
     0
 93
        1
 44
0.0
173
     0
291
     0
 45
0.0
  0
VISUALSTYLE
  5
26D
102
{ACAD_REACTORS
330
267
102
}
330
267
100
AcDbVisualStyle
  2
3dWireframe
 70
     5
 71
     0
 72
     2
 73
     0
 90
        0
 40
-0.6
 41
-30.0
 62
     5
 63
     7
421
 16777215
 74
     1
 91
        4
 64
     7
 65
   257
 75
     1
175
     1
 42
1.0
 92
        0
 66
   257
 43
1.0
 76
     1
 77
     6
 78
     2
 67
     7
 79
     5
170
     0
171
     0
290
     0
174
     0
 93
        1
 44
0.0
173
     0
291
     0
 45
0.0
  0
VISUALSTYLE
  5
26F
102
{ACAD_REACTORS
330
267
102
}
330
267
100
AcDbVisualStyle
  2
Basic
 70
     7
 71
     1
 72
     0
 73
     1
 90
        0
 40
-0.6
 41
-30.0
 62
     5
 63
     7
421
 16777215
 74
     0
 91
        4
 64
     7
 65
   257
 75
     1
175
     1
 42
1.0
 92
        8
 66
     7
 43
1.0
 76
     1
 77
     6
 78
     2
 67
     7
 79
     5
170
     0
171
     0
290
     0
174
     0
 93
        1
 44
0.0
173
     0
291
     1
 45
0.0
  0
VISUALSTYLE
  5
273
102
{ACAD_REACTORS
330
267
102
}
330
267
100
AcDbVisualStyle
  2
Brighten
 70
    12
 71
     2
 72
     2
 73
     0
 90
        0
 40
-0.6
 41
-30.0
 62
     5
 63
     7
421
 16777215
 74
     1
 91
        4
 64
     7
 65
   257
 75
     1
175
     1
 42
1.0
 92
        8
 66
     7
 43
1.0
 76
     1
 77
     6
 78
     2
 67
     7
 79
     5
170
     0
171
     0
290
     0
174
     0
 93
        1
 44
50.0
173
     0
291
     1
 45
0.0
  0
VISUALSTYLE
  5
277
102
{ACAD_REACTORS
330
267
102
}
330
267
100
AcDbVisualStyle
  2
ColorChange
 70
    16
 71
     2
 72
     2
 73
     3
 90
        0
 40
-0.6
 41
-30.0
 62
     5
 63
     8
421
  8421504
 74
     1
 91
        4
 64
     7
 65
   257
 75
     1
175
     1
 42
1.0
 92
        8
 66
     8
424
  8421504
 43
1.0
 76
     1
 77
     6
 78
     2
 67
     7
 79
     5
170
     0
171
     0
290
     0
174
     0
 93
        1
 44
0.0
173
     0
291
     1
 45
0.0
  0
VISUALSTYLE
  5
271
102
{ACAD_REACTORS
330
267
102
}
330
267
100
AcDbVisualStyle
  2
Conceptual
 70
     9
 71
     3
 72
     2
 73
     0
 90
        0
 40
-0.6
 41
-30.0
 62
     5
 63
     7
421
 16777215
 74
     2
 91
        2
 64
     7
 65
   257
 75
     1
175
     1
 42
40.0
 92
        8
 66
     7
 43
1.0
 76
     1
 77
     6
 78
     2
 67
     7
 79
     3
170
     0
171
     0
290
     0
174
     0
 93
        1
 44
0.0
173
     0
291
     0
 45
0.0
  0
VISUALSTYLE
  5
272
102
{ACAD_REACTORS
330
267
102
}
330
267
100
AcDbVisualStyle
  2
Dim
 70
    11
 71
     2
 72
     2
 73
     0
 90
        0
 40
-0.6
 41
-30.0
 62
     5
 63
     7
421
 16777215
 74
     1
 91
        4
 64
     7
 65
   257
 75
     1
175
     1
 42
1.0
 92
        8
 66
     7
 43
1.0
 76
     1
 77
     6
 78
     2
 67
     7
 79
     5
170
     0
171
     0
290
     0
174
     0
 93
        1
 44
-50.0
173
     0
291
     1
 45
0.0
  0
VISUALSTYLE
  5
8FE
102
{ACAD_REACTORS
330
267
102
}
330
267
100
AcDbVisualStyle
  2
EdgeColorOff
 70
    22
 71
     2
 72
     2
 73
     0
 90
        0
 40
0.6
 41
30.0
 62
     5
 63
     7
421
 16777215
 74
     1
 91
        4
 64
     7
 65
   257
 75
     1
175
     1
 42
1.0
 92
        8
 66
     7
 43
1.0
 76
     1
 77
     6
 78
     2
 67
     7
 79
     5
170
     0
171
     0
290
     0
174
     0
 93
        1
 44
0.0
173
     0
291
     1
 45
0.0
  0
VISUALSTYLE
  5
276
102
{ACAD_REACTORS
330
267
102
}
330
267
100
AcDbVisualStyle
  2
Facepattern
 70
    15
 71
     2
 72
     2
 73
     0
 90
        0
 40
-0.6
 41
-30.0
 62
     5
 63
     7
421
 16777215
 74
     1
 91
        4
 64
     7
 65
   257
 75
     1
175
     1
 42
1.0
 92
        8
 66
     7
 43
1.0
 76
     1
 77
     6
 78
     2
 67
     7
 79
     5
170
     0
171
     0
290
     0
174
     0
 93
        1
 44
0.0
173
     0
291
     1
 45
0.0
  0
VISUALSTYLE
  5
268
102
{ACAD_REACTORS
330
267
102
}
330
267
100
AcDbVisualStyle
  2
Flat
 70
     0
 71
     2
 72
     1
 73
     1
 90
        2
 40
-0.6
 41
30.0
 62
     5
 63
     7
421
 16777215
 74
     0
 91
        4
 64
     7
 65
   257
 75
     1
175
     1
 42
1.0
 92
        8
 66
     7
 43
1.0
 76
     1
 77
     6
 78
     2
 67
     7
 79
     5
170
     0
171
     0
290
     0
174
     0
 93
       13
 44
0.0
173
     0
291
     1
 45
0.0
  0
VISUALSTYLE
  5
269
102
{ACAD_REACTORS
330
267
102
}
330
267
100
AcDbVisualStyle
  2
FlatWithEdges
 70
     1
 71
     2
 72
     1
 73
     1
 90
        2
 40
-0.6
 41
30.0
 62
     5
 63
     7
421
 16777215
 74
     1
 91
        4
 64
     7
 65
   257
 75
     1
175
     1
 42
1.0
 92
        0
 66
   257
 43
1.0
 76
     1
 77
     6
 78
     2
 67
     7
 79
     5
170
     0
171
     0
290
     0
174
     0
 93
       13
 44
0.0
173
     0
291
     1
 45
0.0
  0
VISUALSTYLE
  5
26A
102
{ACAD_REACTORS
330
267
102
}
330
267
100
AcDbVisualStyle
  2
Gouraud
 70
     2
 71
     2
 72
     2
 73
     1
 90
        2
 40
-0.6
 41
30.0
 62
     5
 63
     7
421
 16777215
 74
     0
 91
        4
 64
     7
 65
   257
 75
     1
175
     1
 42
1.0
 92
        0
 66
     7
 43
1.0
 76
     1
 77
     6
 78
     2
 67
     7
 79
     5
170
     0
171
     0
290
     0
174
     0
 93
       13
 44
0.0
173
     0
291
     1
 45
0.0
  0
VISUALSTYLE
  5
26B
102
{ACAD_REACTORS
330
267
102
}
330
267
100
AcDbVisualStyle
  2
GouraudWithEdges
 70
     3
 71
     2
 72
     2
 73
     1
 90
        2
 40
-0.6
 41
30.0
 62
     5
 63
     7
421
 16777215
 74
     1
 91
        4
 64
     7
 65
   257
 75
     1
175
     1
 42
1.0
 92
        0
 66
   257
 43
1.0
 76
     1
 77
     6
 78
     2
 67
     7
 79
     5
170
     0
171
     0
290
     0
174
     0
 93
       13
 44
0.0
173
     0
291
     1
 45
0.0
  0
VISUALSTYLE
  5
8FB
102
{ACAD_REACTORS
330
267
102
}
330
267
100
AcDbVisualStyle
  2
Hidden
 70
     6
 71
     1
 72
     2
 73
     2
 90
        0
 40
0.6
 41
30.0
 62
     5
 63
     7
421
 16777215
 74
     2
 91
        2
 64
     7
 65
   257
 75
     2
175
     1
 42
40.0
 92
        0
 66
   257
 43
1.0
 76
     1
 77
     6
 78
     2
 67
     7
 79
     3
170
     0
171
     0
290
     0
174
     0
 93
        1
 44
0.0
173
     0
291
     0
 45
0.0
  0
VISUALSTYLE
  5
8FC
102
{ACAD_REACTORS
330
267
102
}
330
267
100
AcDbVisualStyle
  2
JitterOff
 70
    20
 71
     2
 72
     2
 73
     0
 90
        0
 40
0.6
 41
30.0
 62
     5
 63
     7
421
 16777215
 74
     1
 91
        4
 64
     7
 65
   257
 75
     1
175
     1
 42
1.0
 92
       10
 66
     7
 43
1.0
 76
     1
 77
     6
 78
     2
 67
     7
 79
     5
170
     0
171
     0
290
     0
174
     0
 93
        1
 44
0.0
173
     0
291
     1
 45
0.0
  0
VISUALSTYLE
  5
275
102
{ACAD_REACTORS
330
267
102
}
330
267
100
AcDbVisualStyle
  2
Linepattern
 70
    14
 71
     2
 72
     2
 73
     0
 90
        0
 40
-0.6
 41
-30.0
 62
     5
 63
     7
421
 16777215
 74
     1
 91
        4
 64
     7
 65
   257
 75
     7
175
     7
 42
1.0
 92
        8
 66
     7
 43
1.0
 76
     1
 77
     6
 78
     2
 67
     7
 79
     5
170
     0
171
     0
290
     0
174
     0
 93
        1
 44
0.0
173
     0
291
     1
 45
0.0
  0
VISUALSTYLE
  5
8FD
102
{ACAD_REACTORS
330
267
102
}
330
267
100
AcDbVisualStyle
  2
OverhangOff
 70
    21
 71
     2
 72
     2
 73
     0
 90
        0
 40
0.6
 41
30.0
 62
     5
 63
     7
421
 16777215
 74
     1
 91
        4
 64
     7
 65
   257
 75
     1
175
     1
 42
1.0
 92
        9
 66
     7
 43
1.0
 76
     1
 77
     6
 78
     2
 67
     7
 79
     5
170
     0
171
     0
290
     0
174
     0
 93
        1
 44
0.0
173
     0
291
     1
 45
0.0
  0
VISUALSTYLE
  5
270
102
{ACAD_REACTORS
330
267
102
}
330
267
100
AcDbVisualStyle
  2
Realistic
 70
     8
 71
     2
 72
     2
 73
     0
 90
        0
 40
-0.6
 41
-30.0
 62
     5
 63
     7
421
 16777215
 74
     1
 91
        0
 64
     7
 65
   257
 75
     1
175
     1
 42
1.0
 92
        8
 66
     8
424
  7895160
 43
1.0
 76
     1
 77
     6
 78
     2
 67
     7
 79
     5
170
     0
171
     0
290
     0
174
     0
 93
       13
 44
0.0
173
     0
291
     0
 45
0.0
  0
VISUALSTYLE
  5
903
102
{ACAD_REACTORS
330
267
102
}
330
267
100
AcDbVisualStyle
  2
Shaded
 70
    27
 71
     2
 72
     2
 73
     1
 90
        2
 40
0.6
 41
30.0
 62
     5
 63
     7
421
 16777215
 74
     0
 91
        4
 64
     7
 65
   257
 75
     1
175
     1
 42
1.0
 92
        8
 66
   257
 43
1.0
 76
     1
 77
     6
 78
     2
 67
     8
425
  7895160
 79
     3
170
     0
171
     0
290
     0
174
     0
 93
        5
 44
0.0
173
     0
291
     0
 45
0.0
  0
VISUALSTYLE
  5
902
102
{ACAD_REACTORS
330
267
102
}
330
267
100
AcDbVisualStyle
  2
Shaded with edges
 70
    26
 71
     2
 72
     2
 73
     1
 90
        2
 40
0.6
 41
30.0
 62
     5
 63
     7
421
 16777215
 74
     1
 91
       10
 64
     7
 65
   257
 75
     2
175
     1
 42
1.0
 92
        8
 66
   257
 43
1.0
 76
     1
 77
     6
 78
     2
 67
     7
 79
     3
170
     0
171
     0
290
     0
174
     0
 93
        5
 44
0.0
173
     0
291
     0
 45
0.0
  0
VISUALSTYLE
  5
8FF
102
{ACAD_REACTORS
330
267
102
}
330
267
100
AcDbVisualStyle
  2
Shades of Gray
 70
    23
 71
     2
 72
     2
 73
     3
 90
        0
 40
0.6
 41
30.0
 62
     5
 63
     7
421
 16777215
 74
     2
 91
        2
 64
     7
 65
     7
 75
     1
175
     1
 42
40.0
 92
        8
 66
     7
 43
1.0
 76
     1
 77
     6
 78
     2
 67
     7
 79
     3
170
     0
171
     0
290
     0
174
     0
 93
        1
 44
0.0
173
     0
291
     0
 45
0.0
  0
VISUALSTYLE
  5
900
102
{ACAD_REACTORS
330
267
102
}
330
267
100
AcDbVisualStyle
  2
Sketchy
 70
    24
 71
     1
 72
     2
 73
     2
 90
        0
 40
0.6
 41
30.0
 62
     5
 63
     7
421
 16777215
 74
     2
 91
        2
 64
     7
 65
     7
 75
     1
175
     1
 42
40.0
 92
       11
 66
     7
 43
1.0
 76
     1
 77
     6
 78
     2
 67
     7
 79
     6
170
     0
171
     0
290
     0
174
     0
 93
        1
 44
0.0
173
     0
291
     0
 45
0.0
  0
VISUALSTYLE
  5
274
102
{ACAD_REACTORS
330
267
102
}
330
267
100
AcDbVisualStyle
  2
Thicken
 70
    13
 71
     2
 72
     2
 73
     0
 90
        0
 40
-0.6
 41
-30.0
 62
     5
 63
     7
421
 16777215
 74
     1
 91
        4
 64
     7
 65
   257
 75
     1
175
     1
 42
1.0
 92
       12
 66
     7
 43
1.0
 76
     1
 77
     6
 78
     2
 67
     7
 79
     5
170
     0
171
     0
290
     0
174
     0
 93
        1
 44
0.0
173
     0
291
     1
 45
0.0
  0
VISUALSTYLE
  5
8FA
102
{ACAD_REACTORS
330
267
102
}
330
267
100
AcDbVisualStyle
  2
Wireframe
 70
     5
 71
     0
 72
     2
 73
     0
 90
        0
 40
0.6
 41
30.0
 62
     5
 63
     7
421
 16777215
 74
     1
 91
        4
 64
     7
 65
   257
 75
     1
175
     1
 42
1.0
 92
        0
 66
   257
 43
1.0
 76
     1
 77
     6
 78
     2
 67
     7
 79
     3
170
     0
171
     0
290
     0
174
     0
 93
        1
 44
0.0
173
     0
291
     0
 45
0.0
  0
VISUALSTYLE
  5
901
102
{ACAD_REACTORS
330
267
102
}
330
267
100
AcDbVisualStyle
  2
X-Ray
 70
    25
 71
     2
 72
     2
 73
     1
 90
        1
 40
0.5
 41
30.0
 62
     5
 63
     7
421
 16777215
 74
     1
 91
        0
 64
     7
 65
   257
 75
     1
175
     1
 42
1.0
 92
        8
 66
     7
 43
1.0
 76
     1
 77
     6
 78
     2
 67
     7
 79
     3
170
     0
171
     0
290
     0
174
     0
 93
       13
 44
0.0
173
     0
291
     0
 45
0.0
  0
DICTIONARYVAR
  5
331
102
{ACAD_REACTORS
330
330
102
}
330
330
100
DictionaryVariables
280
     0
  1
1:1
  0
DICTIONARYVAR
  5
D5E
102
{ACAD_REACTORS
330
330
102
}
330
330
100
DictionaryVariables
280
     0
  1
Standard
  0
DICTIONARYVAR
  5
335
102
{ACAD_REACTORS
330
330
102
}
330
330
100
DictionaryVariables
280
     0
  1
Standard
  0
DICTIONARYVAR
  5
D52
102
{ACAD_REACTORS
330
330
102
}
330
330
100
DictionaryVariables
280
     0
  1
ByLayer
  0
DICTIONARYVAR
  5
896
102
{ACAD_REACTORS
330
330
102
}
330
330
100
DictionaryVariables
280
     0
  1
0
  0
DICTIONARYVAR
  5
1238
102
{ACAD_REACTORS
330
11E6
102
}
330
11E6
100
DictionaryVariables
280
     0
  1
0.261799
  0
DICTIONARYVAR
  5
1236
102
{ACAD_REACTORS
330
11E6
102
}
330
11E6
100
DictionaryVariables
280
     0
  1
0.400000
  0
DICTIONARYVAR
  5
1237
102
{ACAD_REACTORS
330
11E6
102
}
330
11E6
100
DictionaryVariables
280
     0
  1
0.250000
  0
DICTIONARYVAR
  5
1239
102
{ACAD_REACTORS
330
11E6
102
}
330
11E6
100
DictionaryVariables
280
     0
  1
1
  0
XRECORD
  5
7AA
102
{ACAD_REACTORS
330
2E2
102
}
330
2E2
100
AcDbXrecord
280
     1
 91
    34815
301

290
     0
302
HIDDEN
330
14
 90
        8
 62
     7
370
    -3
331
13
  1
Color_7
440
 33554687
330
4B
 90
        8
 62
     7
370
    20
331
13
  1
Color_7
440
 33554687
330
4C
 90
        8
 62
     3
370
    13
331
13
  1
Color_3
440
 33554687
330
4D
 90
        8
 62
     7
370
    20
331
13
  1
Color_7
440
 33554687
330
667
 90
        8
 62
     7
370
    -3
331
13
  1
Color_7
440
 33554687
330
88C
 90
        8
 62
     8
370
    20
331
D6D
  1
Color_8
440
 33554687
330
D6B
 90
        0
 62
     4
370
    20
331
D6C
  1
Color_4
440
 33554687
330
D8C
 90
        0
 62
     7
370
    -3
331
13
  1
Color_7
440
 33554687
  0
FIELD
  5
1700
102
{ACAD_REACTORS
330
16FF
102
}
330
16FF
100
AcDbField
  1
_text
  2
{%<\_FldIdx 0>%N}
 90
        1
360
1701
 97
        0
 91
       63
 92
        0
 94
        8
 95
        2
 96
        0
300

 93
        1
  6
ACFD_FIELDTEXT_CHECKSUM
 93
        2
 90
        2
140
4492.0
 94
        0
300

302

304
ACVALUE_END
  7
ACFD_FIELD_VALUE
 93
        6
 90
        4
  1
{20160810N}
 94
        0
300

302

304
ACVALUE_END
301
{20160810N}
 98
       11
  0
DICTIONARY
  5
172D
330
279
100
AcDbDictionary
280
     1
281
     1
  3
ACAD_ROUNDTRIP_2008_TABLESTYLE_CELLSTYLEMAP
360
172E
  0
FIELD
  5
1701
330
1700
100
AcDbField
  1
AcVar
  2
\AcVar CreateDate \f "yyyyMMdd"
 90
        0
 97
        0
 91
       63
 92
        0
 94
        8
 95
        2
 96
        0
300

 93
        1
  6
Variable
 93
        2
 90
        4
  1
CreateDate
 94
        0
300

302

304
ACVALUE_END
  7
ACFD_FIELD_VALUE
 93
        6
 90
        8
 92
       16
310
E007080000000A000200270009000000
 94
        0
300
yyyyMMdd
302

304
ACVALUE_END
301
20160810
 98
        8
  0
CELLSTYLEMAP
  5
172E
102
{ACAD_REACTORS
330
172D
102
}
330
172D
100
AcDbCellStyleMap
 90
        3
300
CELLSTYLE
  1
TABLEFORMAT_BEGIN
 90
        5
170
     1
 91
        0
 92
    32768
 62
   257
 93
        1
300
CONTENTFORMAT
  1
CONTENTFORMAT_BEGIN
 90
        0
 91
        0
 92
        4
 93
        0
300

 40
0.0
140
1.0
 94
        5
 62
     0
340
17
144
6.0
309
CONTENTFORMAT_END
171
     1
301
MARGIN
  1
CELLMARGIN_BEGIN
 40
0.06
 40
0.06
 40
0.06
 40
0.06
 40
0.18
 40
0.18
309
CELLMARGIN_END
 94
        6
 95
        1
302
GRIDFORMAT
  1
GRIDFORMAT_BEGIN
 90
        0
 91
        1
 62
     0
 92
       -2
340
0
 93
        0
 40
0.045
309
GRIDFORMAT_END
 95
        2
302
GRIDFORMAT
  1
GRIDFORMAT_BEGIN
 90
        0
 91
        1
 62
     0
 92
       -2
340
0
 93
        0
 40
0.045
309
GRIDFORMAT_END
 95
        4
302
GRIDFORMAT
  1
GRIDFORMAT_BEGIN
 90
        0
 91
        1
 62
     0
 92
       -2
340
0
 93
        0
 40
0.045
309
GRIDFORMAT_END
 95
        8
302
GRIDFORMAT
  1
GRIDFORMAT_BEGIN
 90
        0
 91
        1
 62
     0
 92
       -2
340
0
 93
        0
 40
0.045
309
GRIDFORMAT_END
 95
       16
302
GRIDFORMAT
  1
GRIDFORMAT_BEGIN
 90
        0
 91
        1
 62
     0
 92
       -2
340
0
 93
        0
 40
0.045
309
GRIDFORMAT_END
 95
       32
302
GRIDFORMAT
  1
GRIDFORMAT_BEGIN
 90
        0
 91
        1
 62
     0
 92
       -2
340
0
 93
        0
 40
0.045
309
GRIDFORMAT_END
309
TABLEFORMAT_END
  1
CELLSTYLE_BEGIN
 90
        1
 91
        1
300
_TITLE
309
CELLSTYLE_END
300
CELLSTYLE
  1
TABLEFORMAT_BEGIN
 90
        5
170
     1
 91
        0
 92
        0
 62
   257
 93
        1
300
CONTENTFORMAT
  1
CONTENTFORMAT_BEGIN
 90
        0
 91
        0
 92
        4
 93
        0
300

 40
0.0
140
1.0
 94
        5
 62
     0
340
17
144
4.5
309
CONTENTFORMAT_END
171
     1
301
MARGIN
  1
CELLMARGIN_BEGIN
 40
0.06
 40
0.06
 40
0.06
 40
0.06
 40
0.18
 40
0.18
309
CELLMARGIN_END
 94
        6
 95
        1
302
GRIDFORMAT
  1
GRIDFORMAT_BEGIN
 90
        0
 91
        1
 62
     0
 92
       -2
340
0
 93
        0
 40
0.045
309
GRIDFORMAT_END
 95
        2
302
GRIDFORMAT
  1
GRIDFORMAT_BEGIN
 90
        0
 91
        1
 62
     0
 92
       -2
340
0
 93
        0
 40
0.045
309
GRIDFORMAT_END
 95
        4
302
GRIDFORMAT
  1
GRIDFORMAT_BEGIN
 90
        0
 91
        1
 62
     0
 92
       -2
340
0
 93
        0
 40
0.045
309
GRIDFORMAT_END
 95
        8
302
GRIDFORMAT
  1
GRIDFORMAT_BEGIN
 90
        0
 91
        1
 62
     0
 92
       -2
340
0
 93
        0
 40
0.045
309
GRIDFORMAT_END
 95
       16
302
GRIDFORMAT
  1
GRIDFORMAT_BEGIN
 90
        0
 91
        1
 62
     0
 92
       -2
340
0
 93
        0
 40
0.045
309
GRIDFORMAT_END
 95
       32
302
GRIDFORMAT
  1
GRIDFORMAT_BEGIN
 90
        0
 91
        1
 62
     0
 92
       -2
340
0
 93
        0
 40
0.045
309
GRIDFORMAT_END
309
TABLEFORMAT_END
  1
CELLSTYLE_BEGIN
 90
        2
 91
        1
300
_HEADER
309
CELLSTYLE_END
300
CELLSTYLE
  1
TABLEFORMAT_BEGIN
 90
        5
170
     1
 91
        0
 92
        0
 62
   257
 93
        1
300
CONTENTFORMAT
  1
CONTENTFORMAT_BEGIN
 90
        0
 91
        0
 92
        4
 93
        0
300

 40
0.0
140
1.0
 94
        2
 62
     0
340
17
144
4.5
309
CONTENTFORMAT_END
171
     1
301
MARGIN
  1
CELLMARGIN_BEGIN
 40
0.06
 40
0.06
 40
0.06
 40
0.06
 40
0.18
 40
0.18
309
CELLMARGIN_END
 94
        6
 95
        1
302
GRIDFORMAT
  1
GRIDFORMAT_BEGIN
 90
        0
 91
        1
 62
     0
 92
       -2
340
0
 93
        0
 40
0.045
309
GRIDFORMAT_END
 95
        2
302
GRIDFORMAT
  1
GRIDFORMAT_BEGIN
 90
        0
 91
        1
 62
     0
 92
       -2
340
0
 93
        0
 40
0.045
309
GRIDFORMAT_END
 95
        4
302
GRIDFORMAT
  1
GRIDFORMAT_BEGIN
 90
        0
 91
        1
 62
     0
 92
       -2
340
0
 93
        0
 40
0.045
309
GRIDFORMAT_END
 95
        8
302
GRIDFORMAT
  1
GRIDFORMAT_BEGIN
 90
        0
 91
        1
 62
     0
 92
       -2
340
0
 93
        0
 40
0.045
309
GRIDFORMAT_END
 95
       16
302
GRIDFORMAT
  1
GRIDFORMAT_BEGIN
 90
        0
 91
        1
 62
     0
 92
       -2
340
0
 93
        0
 40
0.045
309
GRIDFORMAT_END
 95
       32
302
GRIDFORMAT
  1
GRIDFORMAT_BEGIN
 90
        0
 91
        1
 62
     0
 92
       -2
340
0
 93
        0
 40
0.045
309
GRIDFORMAT_END
309
TABLEFORMAT_END
  1
CELLSTYLE_BEGIN
 90
        3
 91
        2
300
_DATA
309
CELLSTYLE_END
  0
ENDSEC
  0
EOF
