  0
SECTION
  2
HEADER
  9
$ACADVER
  1
AC1021
  9
$ACADMAINTVER
 70
    25
  9
$DWGCODEPAGE
  3
ANSI_932
  9
$LASTSAVEDBY
  1
tform
  9
$INSBASE
 10
0.0
 20
0.0
 30
0.0
  9
$EXTMIN
 10
0.0
 20
0.0
 30
0.0
  9
$EXTMAX
 10
1050.0
 20
1485.0
 30
0.0000000000000142
  9
$LIMMIN
 10
0.0
 20
0.0
  9
$LIMMAX
 10
1050.0
 20
1485.0
  9
$ORTHOMODE
 70
     1
  9
$REGENMODE
 70
     1
  9
$FILLMODE
 70
     1
  9
$QTEXTMODE
 70
     0
  9
$MIRRTEXT
 70
     1
  9
$LTSCALE
 40
50.0
  9
$ATTMODE
 70
     1
  9
$TEXTSIZE
 40
2.5
  9
$TRACEWID
 40
1.0
  9
$TEXTSTYLE
  7
ＭＳ ゴシック
  9
$CLAYER
  8
DIM
  9
$CELTYPE
  6
ByLayer
  9
$CECOLOR
 62
   256
  9
$CELTSCALE
 40
0.05
  9
$DISPSILH
 70
     0
  9
$DIMSCALE
 40
1.0
  9
$DIMASZ
 40
3.0
  9
$DIMEXO
 40
10.0
  9
$DIMDLI
 40
0.9999999999999999
  9
$DIMRND
 40
0.0
  9
$DIMDLE
 40
0.0
  9
$DIMEXE
 40
0.0
  9
$DIMTP
 40
0.0
  9
$DIMTM
 40
0.0
  9
$DIMTXT
 40
12.0
  9
$DIMCEN
 40
0.0
  9
$DIMTSZ
 40
0.0
  9
$DIMTOL
 70
     0
  9
$DIMLIM
 70
     0
  9
$DIMTIH
 70
     0
  9
$DIMTOH
 70
     0
  9
$DIMSE1
 70
     0
  9
$DIMSE2
 70
     0
  9
$DIMTAD
 70
     1
  9
$DIMZIN
 70
    11
  9
$DIMBLK
  1
DOT
  9
$DIMASO
 70
     1
  9
$DIMSHO
 70
     1
  9
$DIMPOST
  1
<>
  9
$DIMAPOST
  1
[]
  9
$DIMALT
 70
     0
  9
$DIMALTD
 70
     1
  9
$DIMALTF
 40
1.0
  9
$DIMLFAC
 40
1.0
  9
$DIMTOFL
 70
     0
  9
$DIMTVP
 40
0.0
  9
$DIMTIX
 70
     1
  9
$DIMSOXD
 70
     0
  9
$DIMSAH
 70
     0
  9
$DIMBLK1
  1

  9
$DIMBLK2
  1

  9
$DIMSTYLE
  2
tfrom線あり
  9
$DIMCLRD
 70
     0
  9
$DIMCLRE
 70
     0
  9
$DIMCLRT
 70
     0
  9
$DIMTFAC
 40
1.0
  9
$DIMGAP
 40
10.0
  9
$DIMJUST
 70
     0
  9
$DIMSD1
 70
     0
  9
$DIMSD2
 70
     0
  9
$DIMTOLJ
 70
     1
  9
$DIMTZIN
 70
    11
  9
$DIMALTZ
 70
    11
  9
$DIMALTTZ
 70
    11
  9
$DIMUPT
 70
     0
  9
$DIMDEC
 70
     0
  9
$DIMTDEC
 70
     1
  9
$DIMALTU
 70
     2
  9
$DIMALTTD
 70
     2
  9
$DIMTXSTY
  7
ＭＳ ゴシック
  9
$DIMAUNIT
 70
     0
  9
$DIMADEC
 70
     2
  9
$DIMALTRND
 40
0.0
  9
$DIMAZIN
 70
     0
  9
$DIMDSEP
 70
    46
  9
$DIMATFIT
 70
     0
  9
$DIMFRAC
 70
     2
  9
$DIMLDRBLK
  1
DOT
  9
$DIMLUNIT
 70
     2
  9
$DIMLWD
 70
    -2
  9
$DIMLWE
 70
    -2
  9
$DIMTMOVE
 70
     0
  9
$DIMFXL
 40
1.0
  9
$DIMFXLON
 70
     0
  9
$DIMJOGANG
 40
0.7853981633974483
  9
$DIMTFILL
 70
     0
  9
$DIMTFILLCLR
 70
     0
  9
$DIMARCSYM
 70
     0
  9
$DIMLTYPE
  6

  9
$DIMLTEX1
  6

  9
$DIMLTEX2
  6

  9
$LUNITS
 70
     2
  9
$LUPREC
 70
     0
  9
$SKETCHINC
 40
0.1
  9
$FILLETRAD
 40
0.0
  9
$AUNITS
 70
     0
  9
$AUPREC
 70
     0
  9
$MENU
  1
acad
  9
$ELEVATION
 40
0.0
  9
$PELEVATION
 40
0.0
  9
$THICKNESS
 40
0.0
  9
$LIMCHECK
 70
     0
  9
$CHAMFERA
 40
0.0
  9
$CHAMFERB
 40
0.0
  9
$CHAMFERC
 40
0.0
  9
$CHAMFERD
 40
0.0
  9
$SKPOLY
 70
     0
  9
$TDCREATE
 40
2447893.375
  9
$TDUCREATE
 40
0.0
  9
$TDUPDATE
 40
2459499.563526724
  9
$TDUUPDATE
 40
2459499.188526724
  9
$TDINDWG
 40
0.2060823611
  9
$TDUSRTIMER
 40
0.0178390856
  9
$USRTIMER
 70
     1
  9
$ANGBASE
 50
0.0
  9
$ANGDIR
 70
     0
  9
$PDMODE
 70
     1
  9
$PDSIZE
 40
-2.0
  9
$PLINEWID
 40
0.0
  9
$SPLFRAME
 70
     0
  9
$SPLINETYPE
 70
     6
  9
$SPLINESEGS
 70
     8
  9
$HANDSEED
  5
2E57
  9
$SURFTAB1
 70
     6
  9
$SURFTAB2
 70
     6
  9
$SURFTYPE
 70
     6
  9
$SURFU
 70
     6
  9
$SURFV
 70
     6
  9
$UCSBASE
  2

  9
$UCSNAME
  2

  9
$UCSORG
 10
0.0
 20
0.0
 30
0.0
  9
$UCSXDIR
 10
1.0
 20
0.0
 30
0.0
  9
$UCSYDIR
 10
0.0
 20
1.0
 30
0.0
  9
$UCSORTHOREF
  2

  9
$UCSORTHOVIEW
 70
     0
  9
$UCSORGTOP
 10
0.0
 20
0.0
 30
0.0
  9
$UCSORGBOTTOM
 10
0.0
 20
0.0
 30
0.0
  9
$UCSORGLEFT
 10
0.0
 20
0.0
 30
0.0
  9
$UCSORGRIGHT
 10
0.0
 20
0.0
 30
0.0
  9
$UCSORGFRONT
 10
0.0
 20
0.0
 30
0.0
  9
$UCSORGBACK
 10
0.0
 20
0.0
 30
0.0
  9
$PUCSBASE
  2

  9
$PUCSNAME
  2

  9
$PUCSORG
 10
0.0
 20
0.0
 30
0.0
  9
$PUCSXDIR
 10
1.0
 20
0.0
 30
0.0
  9
$PUCSYDIR
 10
0.0
 20
1.0
 30
0.0
  9
$PUCSORTHOREF
  2

  9
$PUCSORTHOVIEW
 70
     0
  9
$PUCSORGTOP
 10
0.0
 20
0.0
 30
0.0
  9
$PUCSORGBOTTOM
 10
0.0
 20
0.0
 30
0.0
  9
$PUCSORGLEFT
 10
0.0
 20
0.0
 30
0.0
  9
$PUCSORGRIGHT
 10
0.0
 20
0.0
 30
0.0
  9
$PUCSORGFRONT
 10
0.0
 20
0.0
 30
0.0
  9
$PUCSORGBACK
 10
0.0
 20
0.0
 30
0.0
  9
$USERI1
 70
     0
  9
$USERI2
 70
     0
  9
$USERI3
 70
     0
  9
$USERI4
 70
     0
  9
$USERI5
 70
     0
  9
$USERR1
 40
0.0
  9
$USERR2
 40
0.0
  9
$USERR3
 40
0.0
  9
$USERR4
 40
0.0
  9
$USERR5
 40
0.0
  9
$WORLDVIEW
 70
     1
  9
$SHADEDGE
 70
     3
  9
$SHADEDIF
 70
    70
  9
$TILEMODE
 70
     1
  9
$MAXACTVP
 70
    64
  9
$PINSBASE
 10
0.0
 20
0.0
 30
0.0
  9
$PLIMCHECK
 70
     0
  9
$PEXTMIN
 10
0.0
 20
0.0
 30
0.0
  9
$PEXTMAX
 10
0.0
 20
0.0
 30
0.0
  9
$PLIMMIN
 10
-7.5
 20
-20.0
  9
$PLIMMAX
 10
412.5
 20
277.0
  9
$UNITMODE
 70
     0
  9
$VISRETAIN
 70
     0
  9
$PLINEGEN
 70
     1
  9
$PSLTSCALE
 70
     0
  9
$TREEDEPTH
 70
  3020
  9
$CMLSTYLE
  2
Standard
  9
$CMLJUST
 70
     0
  9
$CMLSCALE
 40
1.0
  9
$PROXYGRAPHICS
 70
     0
  9
$MEASUREMENT
 70
     1
  9
$CELWEIGHT
370
    -1
  9
$ENDCAPS
280
     0
  9
$JOINSTYLE
280
     0
  9
$LWDISPLAY
290
     1
  9
$INSUNITS
 70
     4
  9
$HYPERLINKBASE
  1

  9
$STYLESHEET
  1

  9
$XEDIT
290
     1
  9
$CEPSNTYPE
380
     0
  9
$PSTYLEMODE
290
     1
  9
$FINGERPRINTGUID
  2

  9
$VERSIONGUID
  2

  9
$EXTNAMES
290
     1
  9
$PSVPSCALE
 40
0.0
  9
$OLESTARTUP
290
     0
  9
$SORTENTS
280
   127
  9
$INDEXCTL
280
     0
  9
$HIDETEXT
280
     1
  9
$XCLIPFRAME
290
     0
  9
$HALOGAP
280
     0
  9
$OBSCOLOR
 70
   257
  9
$OBSLTYPE
280
     0
  9
$INTERSECTIONDISPLAY
280
     0
  9
$INTERSECTIONCOLOR
 70
   257
  9
$DIMASSOC
280
     2
  9
$PROJECTNAME
  1

  9
$CAMERADISPLAY
290
     0
  9
$LENSLENGTH
 40
50.0
  9
$CAMERAHEIGHT
 40
0.0
  9
$STEPSPERSEC
 40
2.0
  9
$STEPSIZE
 40
6.0
  9
$3DDWFPREC
 40
2.0
  9
$PSOLWIDTH
 40
0.25
  9
$PSOLHEIGHT
 40
4.0
  9
$LOFTANG1
 40
1.570796326794897
  9
$LOFTANG2
 40
1.570796326794897
  9
$LOFTMAG1
 40
0.0
  9
$LOFTMAG2
 40
0.0
  9
$LOFTPARAM
 70
     7
  9
$LOFTNORMALS
280
     1
  9
$LATITUDE
 40
37.795
  9
$LONGITUDE
 40
-122.394
  9
$NORTHDIRECTION
 40
0.0
  9
$TIMEZONE
 70
 -8000
  9
$LIGHTGLYPHDISPLAY
280
     1
  9
$TILEMODELIGHTSYNCH
280
     1
  9
$SOLIDHIST
280
     1
  9
$SHOWHIST
280
     1
  9
$DWFFRAME
280
     2
  9
$DGNFRAME
280
     2
  9
$REALWORLDSCALE
290
     1
  9
$INTERFERECOLOR
 62
   256
  9
$CSHADOW
280
     0
  9
$SHADOWPLANELOCATION
 40
0.0
  0
ENDSEC
  0
SECTION
  2
CLASSES
  0
CLASS
  1
LWPOLYLINE
  2
AcDbPolyline
  3
ObjectDBX Classes
 90
        0
 91
        1
280
     0
281
     1
  0
CLASS
  1
IMAGE
  2
AcDbRasterImage
  3
ISM
 90
      127
 91
        4
280
     0
281
     1
  0
CLASS
  1
OLE2FRAME
  2
AcDbOle2Frame
  3
ObjectDBX Classes
 90
        0
 91
        1
280
     0
281
     1
  0
CLASS
  1
HATCH
  2
AcDbHatch
  3
ObjectDBX Classes
 90
        0
 91
        1
280
     0
281
     1
  0
CLASS
  1
DICTIONARYVAR
  2
AcDbDictionaryVar
  3
ObjectDBX Classes
 90
        0
 91
        3
280
     0
281
     0
  0
CLASS
  1
RASTERVARIABLES
  2
AcDbRasterVariables
  3
ISM
 90
        0
 91
        3
280
     0
281
     0
  0
CLASS
  1
IMAGEDEF
  2
AcDbRasterImageDef
  3
ISM
 90
        0
 91
        3
280
     0
281
     0
  0
CLASS
  1
IMAGEDEF_REACTOR
  2
AcDbRasterImageDefReactor
  3
ISM
 90
        1
 91
        3
280
     0
281
     0
  0
CLASS
  1
IDBUFFER
  2
AcDbIdBuffer
  3
ObjectDBX Classes
 90
        0
 91
        3
280
     0
281
     0
  0
CLASS
  1
SPATIAL_FILTER
  2
AcDbSpatialFilter
  3
ObjectDBX Classes
 90
        0
 91
        3
280
     0
281
     0
  0
CLASS
  1
XRECORD
  2
AcDbXrecord
  3
ObjectDBX Classes
 90
        0
 91
        1
280
     0
281
     0
  0
CLASS
  1
SORTENTSTABLE
  2
AcDbSortentsTable
  3
ObjectDBX Classes
 90
        0
 91
        3
280
     0
281
     0
  0
CLASS
  1
LAYER_INDEX
  2
AcDbLayerIndex
  3
ObjectDBX Classes
 90
        0
 91
        3
280
     0
281
     0
  0
CLASS
  1
SPATIAL_INDEX
  2
AcDbSpatialIndex
  3
AutoCAD 2000
 90
        0
 91
        3
280
     0
281
     0
  0
CLASS
  1
OBJECT_PTR
  2
CAseDLPNTableRecord
  3
ASE-LPNTableRecord
 90
        1
 91
        3
280
     0
281
     0
  0
CLASS
  1
LAYOUT
  2
AcDbLayout
  3
ObjectDBX Classes
 90
        0
 91
        1
280
     0
281
     0
  0
CLASS
  1
PLOTSETTINGS
  2
AcDbPlotSettings
  3
ObjectDBX Classes
 90
        0
 91
        3
280
     0
281
     0
  0
CLASS
  1
ACDBDICTIONARYWDFLT
  2
AcDbDictionaryWithDefault
  3
ObjectDBX Classes
 90
        0
 91
        3
280
     0
281
     0
  0
CLASS
  1
ACDBPLACEHOLDER
  2
AcDbPlaceHolder
  3
ObjectDBX Classes
 90
        0
 91
        1
280
     0
281
     0
  0
CLASS
  1
SCALE
  2
AcDbScale
  3
ObjectDBX Classes
 90
     1153
 91
        3
280
     0
281
     0
  0
CLASS
  1
MATERIAL
  2
AcDbMaterial
  3
ObjectDBX Classes
 90
     1153
 91
        3
280
     0
281
     0
  0
CLASS
  1
VISUALSTYLE
  2
AcDbVisualStyle
  3
ObjectDBX Classes
 90
     4095
 91
        3
280
     0
281
     0
  0
CLASS
  1
TABLESTYLE
  2
AcDbTableStyle
  3
ObjectDBX Classes
 90
     4095
 91
        3
280
     0
281
     0
  0
CLASS
  1
DIMASSOC
  2
AcDbDimAssoc
  3
"AcDbDimAssoc|Product Desc:     AcDim ARX App For Dimension|Company:          Autodesk, Inc.|WEB Address:      www.autodesk.com"
 90
        0
 91
        3
280
     0
281
     0
  0
CLASS
  1
CELLSTYLEMAP
  2
AcDbCellStyleMap
  3
ObjectDBX Classes
 90
     1152
 91
        3
280
     0
281
     0
  0
CLASS
  1
SUN
  2
AcDbSun
  3
SCENEOE
 90
     1153
 91
        3
280
     0
281
     0
  0
CLASS
  1
MLEADERSTYLE
  2
AcDbMLeaderStyle
  3
ACDB_MLEADERSTYLE_CLASS
 90
     4095
 91
        3
280
     0
281
     0
  0
CLASS
  1
FIELD
  2
AcDbField
  3
ObjectDBX Classes
 90
     1152
 91
        3
280
     0
281
     0
  0
CLASS
  1
FIELDLIST
  2
AcDbFieldList
  3
ObjectDBX Classes
 90
     1152
 91
        3
280
     0
281
     0
  0
ENDSEC
  0
SECTION
  2
TABLES
  0
TABLE
  2
VPORT
  5
7
330
0
100
AcDbSymbolTable
 70
     1
  0
VPORT
  5
15
330
7
100
AcDbSymbolTableRecord
100
AcDbViewportTableRecord
  2
*ACTIVE
 70
     0
 10
0.0
 20
0.0
 11
1.0
 21
1.0
 12
616.0201356709006
 22
668.901285469834
 13
0.0
 23
0.0
 14
1.0
 24
1.0
 15
0.0
 25
0.0
 16
0.0
 26
0.0
 36
1.0
 17
-91.02013567090057
 27
73.59871453016603
 37
-46.86809886248109
 40
1514.7
 41
2.333333333333333
 42
50.0
 43
0.0
 44
0.0
 50
0.0
 51
0.0
 71
    16
 72
  2000
 73
     1
 74
     1
 75
     0
 76
     0
 77
     0
 78
     0
281
     0
 65
     1
110
0.0
120
0.0
130
0.0
111
1.0
121
0.0
131
0.0
112
0.0
122
1.0
132
0.0
 79
     0
146
0.0
348
26C
 60
     3
 61
     5
292
     1
282
     1
141
0.0
142
0.0
 63
   256
361
904
  0
ENDTAB
  0
TABLE
  2
LTYPE
  5
4
330
0
100
AcDbSymbolTable
 70
     3
  0
LTYPE
  5
11
330
4
100
AcDbSymbolTableRecord
100
AcDbLinetypeTableRecord
  2
ByBlock
 70
     0
  3

 72
    65
 73
     0
 40
0.0
  0
LTYPE
  5
12
330
4
100
AcDbSymbolTableRecord
100
AcDbLinetypeTableRecord
  2
ByLayer
 70
     0
  3

 72
    65
 73
     0
 40
0.0
  0
LTYPE
  5
13
330
4
100
AcDbSymbolTableRecord
100
AcDbLinetypeTableRecord
  2
Continuous
 70
     0
  3
Solid line
 72
    65
 73
     0
 40
0.0
  0
LTYPE
  5
D6C
330
4
100
AcDbSymbolTableRecord
100
AcDbLinetypeTableRecord
  2
BORDER
 70
     0
  3
Border __  __  . __  __  . __  __  . __  __  . 
 72
    65
 73
     6
 40
44.45
 49
12.7
 74
     0
 49
-6.35
 74
     0
 49
12.7
 74
     0
 49
-6.35
 74
     0
 49
0.0
 74
     0
 49
-6.35
 74
     0
  0
LTYPE
  5
D6D
330
4
100
AcDbSymbolTableRecord
100
AcDbLinetypeTableRecord
  2
HIDDEN
 70
     0
  3
Hidden _ _ _ _ _ _ _ _ _ _ _ _ _ _ _ _ _ _ _ _ 
 72
    65
 73
     2
 40
9.524999999999999
 49
6.35
 74
     0
 49
-3.175
 74
     0
  0
ENDTAB
  0
TABLE
  2
LAYER
  5
2
102
{ACAD_XDICTIONARY
360
2E1
102
}
330
0
100
AcDbSymbolTable
 70
     8
  0
LAYER
  5
14
330
2
100
AcDbSymbolTableRecord
100
AcDbLayerTableRecord
  2
0
 70
     0
 62
     7
  6
Continuous
370
    -3
390
1D
347
266
  0
LAYER
  5
4B
330
2
100
AcDbSymbolTableRecord
100
AcDbLayerTableRecord
  2
TEMPLATE
 70
     0
 62
     7
  6
Continuous
370
    20
390
1D
347
266
  0
LAYER
  5
4C
330
2
100
AcDbSymbolTableRecord
100
AcDbLayerTableRecord
  2
DIM
 70
     0
 62
     3
  6
Continuous
370
    13
390
1D
347
266
  0
LAYER
  5
4D
330
2
100
AcDbSymbolTableRecord
100
AcDbLayerTableRecord
  2
MODEL
 70
     0
 62
     7
  6
Continuous
370
    20
390
1D
347
266
  0
LAYER
  5
667
330
2
100
AcDbSymbolTableRecord
100
AcDbLayerTableRecord
  2
LOGO
 70
     0
 62
     7
  6
Continuous
370
    -3
390
1D
347
266
  0
LAYER
  5
88C
330
2
100
AcDbSymbolTableRecord
100
AcDbLayerTableRecord
  2
HIDDEN
 70
     0
 62
     8
  6
HIDDEN
370
    20
390
1D
347
266
1001
AcAecLayerStandard
1000

1000

  0
LAYER
  5
D6B
330
2
100
AcDbSymbolTableRecord
100
AcDbLayerTableRecord
  2
BORDER
 70
     0
 62
     4
  6
BORDER
290
     0
370
    20
390
1D
347
266
1001
AcAecLayerStandard
1000

1000

  0
LAYER
  5
D8C
330
2
100
AcDbSymbolTableRecord
100
AcDbLayerTableRecord
  2
Defpoints
 70
     0
 62
     7
  6
Continuous
290
     0
370
    -3
390
1D
347
266
  0
ENDTAB
  0
TABLE
  2
STYLE
  5
3
330
0
100
AcDbSymbolTable
 70
     2
  0
STYLE
  5
17
330
3
100
AcDbSymbolTableRecord
100
AcDbTextStyleTableRecord
  2
Standard
 70
     0
 40
0.0
 41
1.0
 50
0.0
 71
     0
 42
2.5
  3
txt
  4
BIGFONT.SHX
  0
STYLE
  5
39
330
3
100
AcDbSymbolTableRecord
100
AcDbTextStyleTableRecord
  2
ＭＳ ゴシック
 70
     0
 40
0.0
 41
1.0
 50
0.0
 71
     0
 42
2.5
  3
msgothic.ttc
  4
ＭＳ ゴシック
1001
ACAD
1000
ＭＳ ゴシック
1071
        0
  0
ENDTAB
  0
TABLE
  2
VIEW
  5
5
330
0
100
AcDbSymbolTable
 70
     0
  0
ENDTAB
  0
TABLE
  2
UCS
  5
6
330
0
100
AcDbSymbolTable
 70
     0
  0
ENDTAB
  0
TABLE
  2
APPID
  5
8
330
0
100
AcDbSymbolTable
 70
     4
  0
APPID
  5
16
330
8
100
AcDbSymbolTableRecord
100
AcDbRegAppTableRecord
  2
ACAD
 70
     0
  0
APPID
  5
7AC
330
8
100
AcDbSymbolTableRecord
100
AcDbRegAppTableRecord
  2
AcAecLayerStandard
 70
     0
  0
APPID
  5
E29
330
8
100
AcDbSymbolTableRecord
100
AcDbRegAppTableRecord
  2
ACAD_MLEADERVER
 70
     0
  0
APPID
  5
29CE
330
8
100
AcDbSymbolTableRecord
100
AcDbRegAppTableRecord
  2
PLOTTRANSPARENCY
 70
     0
  0
ENDTAB
  0
TABLE
  2
DIMSTYLE
  5
9
330
0
100
AcDbSymbolTable
 70
     1
100
AcDbDimStyleTable
  0
DIMSTYLE
105
57
102
{ACAD_REACTORS
330
28B1
330
28C1
330
28D0
330
28DF
330
296A
330
297B
330
298E
330
299D
330
29E7
330
29F7
330
2A07
102
}
330
9
100
AcDbSymbolTableRecord
100
AcDbDimStyleTableRecord
  2
tfrom線あり
 70
     0
  3
<>
  4
[]
 41
3.0
 42
10.0
 43
0.9999999999999999
 44
0.0
 73
     0
 74
     0
 77
     1
 78
    11
140
12.0
141
0.0
143
1.0
147
10.0
171
     1
174
     1
178
     0
179
     2
271
     0
272
     1
276
     2
284
    11
285
    11
286
    11
289
     0
340
39
341
4E
342
4E
  0
ENDTAB
  0
TABLE
  2
BLOCK_RECORD
  5
1
330
0
100
AcDbSymbolTable
 70
    17
  0
BLOCK_RECORD
  5
A
102
{ACAD_XDICTIONARY
360
288E
102
}
330
1
100
AcDbSymbolTableRecord
100
AcDbBlockTableRecord
  2
*MODEL_SPACE
340
20
 70
     0
280
     1
281
     0
  0
BLOCK_RECORD
  5
B
330
1
100
AcDbSymbolTableRecord
100
AcDbBlockTableRecord
  2
*PAPER_SPACE
340
21
 70
     0
280
     1
281
     0
  0
BLOCK_RECORD
  5
4E
330
1
100
AcDbSymbolTableRecord
100
AcDbBlockTableRecord
  2
_DOT
340
0
102
{BLKREFS
331
28BA
331
28BB
331
28CA
331
28CB
331
28D9
331
28DA
331
28E8
331
28E9
331
2952
331
2953
331
2963
331
2964
331
2975
331
2976
331
2986
331
2987
331
2997
331
2998
331
29A6
331
29A7
331
29E1
331
29E2
331
29F0
331
29F1
331
2A00
331
2A01
331
2A10
331
2A11
102
}
 70
     0
280
     1
281
     0
  0
BLOCK_RECORD
  5
68A
330
1
100
AcDbSymbolTableRecord
100
AcDbBlockTableRecord
  2
名称未設定-1
340
0
102
{BLKREFS
331
6B5
102
}
 70
     1
280
     1
281
     0
  0
BLOCK_RECORD
  5
68D
330
1
100
AcDbSymbolTableRecord
100
AcDbBlockTableRecord
  2
block 2
340
0
102
{BLKREFS
331
68C
331
104A
102
}
 70
     0
280
     1
281
     0
  0
BLOCK_RECORD
  5
690
330
1
100
AcDbSymbolTableRecord
100
AcDbBlockTableRecord
  2
block 3
340
0
102
{BLKREFS
331
68F
102
}
 70
     0
280
     1
281
     0
  0
BLOCK_RECORD
  5
693
330
1
100
AcDbSymbolTableRecord
100
AcDbBlockTableRecord
  2
block 4
340
0
102
{BLKREFS
331
692
102
}
 70
     0
280
     1
281
     0
  0
BLOCK_RECORD
  5
6A2
330
1
100
AcDbSymbolTableRecord
100
AcDbBlockTableRecord
  2
block 5
340
0
102
{BLKREFS
331
6A1
102
}
 70
     0
280
     1
281
     0
  0
BLOCK_RECORD
  5
28B4
330
1
100
AcDbSymbolTableRecord
100
AcDbBlockTableRecord
  2
*D6
340
0
 70
     0
280
     1
281
     0
  0
BLOCK_RECORD
  5
28C4
330
1
100
AcDbSymbolTableRecord
100
AcDbBlockTableRecord
  2
*D7
340
0
 70
     0
280
     1
281
     0
  0
BLOCK_RECORD
  5
28D3
330
1
100
AcDbSymbolTableRecord
100
AcDbBlockTableRecord
  2
*D8
340
0
 70
     0
280
     1
281
     0
  0
BLOCK_RECORD
  5
28E2
330
1
100
AcDbSymbolTableRecord
100
AcDbBlockTableRecord
  2
*D9
340
0
 70
     0
280
     1
281
     0
  0
BLOCK_RECORD
  5
296D
330
1
100
AcDbSymbolTableRecord
100
AcDbBlockTableRecord
  2
*D12
340
0
 70
     0
280
     1
281
     0
  0
BLOCK_RECORD
  5
297E
330
1
100
AcDbSymbolTableRecord
100
AcDbBlockTableRecord
  2
*D13
340
0
 70
     0
280
     1
281
     0
  0
BLOCK_RECORD
  5
298F
330
1
100
AcDbSymbolTableRecord
100
AcDbBlockTableRecord
  2
*D14
340
0
 70
     0
280
     1
281
     0
  0
BLOCK_RECORD
  5
29A0
330
1
100
AcDbSymbolTableRecord
100
AcDbBlockTableRecord
  2
*D15
340
0
 70
     0
280
     1
281
     0
  0
BLOCK_RECORD
  5
29EA
330
1
100
AcDbSymbolTableRecord
100
AcDbBlockTableRecord
  2
*D17
340
0
 70
     0
280
     1
281
     0
  0
BLOCK_RECORD
  5
29FA
330
1
100
AcDbSymbolTableRecord
100
AcDbBlockTableRecord
  2
*D18
340
0
 70
     0
280
     1
281
     0
  0
BLOCK_RECORD
  5
2A0A
330
1
100
AcDbSymbolTableRecord
100
AcDbBlockTableRecord
  2
*D19
340
0
 70
     0
280
     1
281
     0
  0
ENDTAB
  0
ENDSEC
  0
SECTION
  2
BLOCKS
  0
BLOCK
  5
D
330
A
100
AcDbEntity
  8
0
390
1D
100
AcDbBlockBegin
  2
*MODEL_SPACE
 70
     0
 10
0.0
 20
0.0
 30
0.0
  3
*MODEL_SPACE
  1
*MODEL_SPACE
  0
ENDBLK
  5
E
330
A
100
AcDbEntity
  8
0
390
1D
100
AcDbBlockEnd
  0
BLOCK
  5
F
330
B
100
AcDbEntity
 67
     1
  8
0
390
1D
100
AcDbBlockBegin
  2
*PAPER_SPACE
 70
     0
 10
0.0
 20
0.0
 30
0.0
  3
*PAPER_SPACE
  1
*PAPER_SPACE
  0
ENDBLK
  5
10
330
B
100
AcDbEntity
 67
     1
  8
0
390
1D
100
AcDbBlockEnd
  0
BLOCK
  5
E30
330
4E
100
AcDbEntity
  8
0
390
1D
100
AcDbBlockBegin
  2
_DOT
 70
     0
 10
0.0
 20
0.0
 30
0.0
  3
_DOT
  1
_DOT
  0
POLYLINE
  5
E32
330
4E
100
AcDbEntity
  8
0
  6
ByBlock
 62
     0
370
    -2
390
1D
100
AcDb2dPolyline
 66
     1
 10
0.0
 20
0.0
 30
0.0
 70
     1
 40
0.5
 41
0.5
  0
VERTEX
  5
E33
330
E32
100
AcDbEntity
  8
0
  6
ByBlock
 62
     0
370
    -2
390
1D
100
AcDbVertex
100
AcDb2dVertex
 10
-0.25
 20
0.0
 30
0.0
 42
1.0
  0
VERTEX
  5
E34
330
E32
100
AcDbEntity
  8
0
  6
ByBlock
 62
     0
370
    -2
390
1D
100
AcDbVertex
100
AcDb2dVertex
 10
0.25
 20
0.0
 30
0.0
 42
1.0
  0
SEQEND
  5
E35
330
E32
100
AcDbEntity
  8
0
390
1D
  0
LINE
  5
E36
330
4E
100
AcDbEntity
  8
0
  6
ByBlock
 62
     0
370
    -2
390
1D
100
AcDbLine
 10
-0.5
 20
0.0
 30
0.0
 11
-1.0
 21
0.0
 31
0.0
  0
ENDBLK
  5
E37
330
4E
100
AcDbEntity
  8
0
390
1D
100
AcDbBlockEnd
  0
BLOCK
  5
68B
330
68A
100
AcDbEntity
  8
0
100
AcDbBlockBegin
  2
名称未設定-1
 70
     0
 10
0.0
 20
0.0
 30
0.0
  3
名称未設定-1
  1
名称未設定-1
  0
INSERT
  5
68F
330
68A
100
AcDbEntity
  8
LOGO
100
AcDbBlockReference
  2
block 3
 10
0.0
 20
0.0
 30
0.0
  0
ENDBLK
  5
6B1
330
68A
100
AcDbEntity
  8
0
100
AcDbBlockEnd
  0
BLOCK
  5
68E
330
68D
100
AcDbEntity
  8
0
100
AcDbBlockBegin
  2
block 2
 70
     0
 10
0.0
 20
0.0
 30
0.0
  3
block 2
  1
block 2
  0
ENDBLK
  5
6B0
330
68D
100
AcDbEntity
  8
0
100
AcDbBlockEnd
  0
BLOCK
  5
691
330
690
100
AcDbEntity
  8
0
100
AcDbBlockBegin
  2
block 3
 70
     0
 10
0.0
 20
0.0
 30
0.0
  3
block 3
  1
block 3
  0
INSERT
  5
692
330
690
100
AcDbEntity
  8
LOGO
100
AcDbBlockReference
  2
block 4
 10
0.0
 20
0.0
 30
0.0
  0
INSERT
  5
6A1
330
690
100
AcDbEntity
  8
LOGO
100
AcDbBlockReference
  2
block 5
 10
0.0
 20
0.0
 30
0.0
  0
ENDBLK
  5
6AF
330
690
100
AcDbEntity
  8
0
100
AcDbBlockEnd
  0
BLOCK
  5
694
330
693
100
AcDbEntity
  8
0
100
AcDbBlockBegin
  2
block 4
 70
     0
 10
0.0
 20
0.0
 30
0.0
  3
block 4
  1
block 4
  0
POLYLINE
  5
695
330
693
100
AcDbEntity
  8
LOGO
370
     0
100
AcDb2dPolyline
 66
     1
 10
0.0
 20
0.0
 30
0.0
  0
VERTEX
  5
696
330
695
100
AcDbEntity
  8
LOGO
370
     0
100
AcDbVertex
100
AcDb2dVertex
 10
83.79545727667795
 20
167.6444858234922
 30
0.0
  0
VERTEX
  5
697
330
695
100
AcDbEntity
  8
LOGO
370
     0
100
AcDbVertex
100
AcDb2dVertex
 10
83.79545727667795
 20
159.7968976406313
 30
0.0
  0
VERTEX
  5
698
330
695
100
AcDbEntity
  8
LOGO
370
     0
100
AcDbVertex
100
AcDb2dVertex
 10
71.3631329975216
 20
159.7968976406313
 30
0.0
  0
VERTEX
  5
699
330
695
100
AcDbEntity
  8
LOGO
370
     0
100
AcDbVertex
100
AcDb2dVertex
 10
71.3631329975216
 20
127.8027915271048
 30
0.0
  0
VERTEX
  5
69A
330
695
100
AcDbEntity
  8
LOGO
370
     0
100
AcDbVertex
100
AcDb2dVertex
 10
60.43011526263018
 20
127.8027915271048
 30
0.0
  0
VERTEX
  5
69B
330
695
100
AcDbEntity
  8
LOGO
370
     0
100
AcDbVertex
100
AcDb2dVertex
 10
60.43011526263018
 20
159.7968976406313
 30
0.0
  0
VERTEX
  5
69C
330
695
100
AcDbEntity
  8
LOGO
370
     0
100
AcDbVertex
100
AcDb2dVertex
 10
48.21793273020759
 20
159.7968976406313
 30
0.0
  0
VERTEX
  5
69D
330
695
100
AcDbEntity
  8
LOGO
370
     0
100
AcDbVertex
100
AcDb2dVertex
 10
48.21793273020759
 20
167.6444858234922
 30
0.0
  0
VERTEX
  5
69E
330
695
100
AcDbEntity
  8
LOGO
370
     0
100
AcDbVertex
100
AcDb2dVertex
 10
83.79545727667795
 20
167.6444858234922
 30
0.0
  0
SEQEND
  5
69F
330
695
100
AcDbEntity
  8
LOGO
370
     0
  0
HATCH
  5
6A0
330
693
100
AcDbEntity
  8
LOGO
 62
   250
420
  2234388
100
AcDbHatch
 10
0.0
 20
0.0
 30
0.0
210
0.0
220
0.0
230
1.0
  2
SOLID
 70
     1
 71
     0
 91
        1
 92
        1
 93
        8
 72
     1
 10
83.79545727667795
 20
167.6444858234922
 11
83.79545727667795
 21
159.7968976406313
 72
     1
 10
83.79545727667795
 20
159.7968976406313
 11
71.3631329975216
 21
159.7968976406313
 72
     1
 10
71.3631329975216
 20
159.7968976406313
 11
71.3631329975216
 21
127.8027915271048
 72
     1
 10
71.3631329975216
 20
127.8027915271048
 11
60.43011526263018
 21
127.8027915271048
 72
     1
 10
60.43011526263018
 20
127.8027915271048
 11
60.43011526263018
 21
159.7968976406313
 72
     1
 10
60.43011526263018
 20
159.7968976406313
 11
48.21793273020759
 21
159.7968976406313
 72
     1
 10
48.21793273020759
 20
159.7968976406313
 11
48.21793273020759
 21
167.6444858234922
 72
     1
 10
48.21793273020759
 20
167.6444858234922
 11
83.79545727667795
 21
167.6444858234922
 97
        0
 75
     2
 76
     1
 98
        0
  0
ENDBLK
  5
6AE
330
693
100
AcDbEntity
  8
0
100
AcDbBlockEnd
  0
BLOCK
  5
6A3
330
6A2
100
AcDbEntity
  8
0
100
AcDbBlockBegin
  2
block 5
 70
     0
 10
0.0
 20
0.0
 30
0.0
  3
block 5
  1
block 5
  0
SPLINE
  5
6A4
330
6A2
100
AcDbEntity
  8
LOGO
370
     0
100
AcDbSpline
210
0.0
220
0.0
230
1.0
 70
    11
 71
     3
 72
    56
 73
    52
 74
     0
 42
0.000000001
 43
0.0000000001
 40
0.0
 40
0.0
 40
0.0
 40
0.0
 40
1.0
 40
1.0
 40
1.0
 40
2.0
 40
2.0
 40
2.0
 40
3.0
 40
3.0
 40
3.0
 40
4.0
 40
4.0
 40
4.0
 40
5.0
 40
5.0
 40
5.0
 40
6.0
 40
6.0
 40
6.0
 40
7.0
 40
7.0
 40
7.0
 40
8.0
 40
8.0
 40
8.0
 40
9.0
 40
9.0
 40
9.0
 40
10.0
 40
10.0
 40
10.0
 40
11.0
 40
11.0
 40
11.0
 40
12.0
 40
12.0
 40
12.0
 40
13.0
 40
13.0
 40
13.0
 40
14.0
 40
14.0
 40
14.0
 40
15.0
 40
15.0
 40
15.0
 40
16.0
 40
16.0
 40
16.0
 40
17.0
 40
17.0
 40
17.0
 40
17.0
 10
100.4504378777679
 20
166.69157178364
 30
0.0
 10
101.9848844191641
 20
167.1313385124438
 30
0.0
 10
103.9637485713373
 20
166.7649523658846
 30
0.0
 10
103.9637485713373
 20
166.7649523658846
 30
0.0
 10
103.9637485713373
 20
166.7649523658846
 30
0.0
 10
103.0132460999156
 20
163.911205638077
 30
0.0
 10
103.0132460999156
 20
163.911205638077
 30
0.0
 10
103.0132460999156
 20
163.911205638077
 30
0.0
 10
101.0674548862189
 20
164.3601018759394
 30
0.0
 10
99.57090442016032
 20
163.1805004036133
 30
0.0
 10
98.40508333886608
 20
162.258247733807
 30
0.0
 10
97.65301849830304
 20
159.804132345923
 30
0.0
 10
97.3598406791005
 20
158.8699940888517
 30
0.0
 10
97.3598406791005
 20
158.8699940888517
 30
0.0
 10
96.07137411762282
 20
154.9119212747295
 30
0.0
 10
96.07137411762282
 20
154.9119212747295
 30
0.0
 10
96.07137411762282
 20
154.9119212747295
 30
0.0
 10
100.3012651448482
 20
154.9119212747295
 30
0.0
 10
100.3012651448482
 20
154.9119212747295
 30
0.0
 10
100.3012651448482
 20
154.9119212747295
 30
0.0
 10
99.64152892419852
 20
152.4199098115079
 30
0.0
 10
99.64152892419852
 20
152.4199098115079
 30
0.0
 10
99.64152892419852
 20
152.4199098115079
 30
0.0
 10
95.38097652692731
 20
152.4199098115079
 30
0.0
 10
95.38097652692731
 20
152.4199098115079
 30
0.0
 10
95.38097652692731
 20
152.4199098115079
 30
0.0
 10
87.75353009080013
 20
127.8027915271048
 30
0.0
 10
87.75353009080013
 20
127.8027915271048
 30
0.0
 10
87.75353009080013
 20
127.8027915271048
 30
0.0
 10
85.36538832498108
 20
127.8027915271048
 30
0.0
 10
85.36538832498108
 20
127.8027915271048
 30
0.0
 10
85.36538832498108
 20
127.8027915271048
 30
0.0
 10
93.00006946639998
 20
152.4199098115079
 30
0.0
 10
93.00006946639998
 20
152.4199098115079
 30
0.0
 10
93.00006946639998
 20
152.4199098115079
 30
0.0
 10
89.85297266450198
 20
152.4199098115079
 30
0.0
 10
89.85297266450198
 20
152.4199098115079
 30
0.0
 10
89.85297266450198
 20
152.4199098115079
 30
0.0
 10
90.51270888515164
 20
154.9119212747295
 30
0.0
 10
90.51270888515164
 20
154.9119212747295
 30
0.0
 10
90.51270888515164
 20
154.9119212747295
 30
0.0
 10
93.6904670570955
 20
154.9119212747295
 30
0.0
 10
93.6904670570955
 20
154.9119212747295
 30
0.0
 10
93.6904670570955
 20
154.9119212747295
 30
0.0
 10
94.81598049462158
 20
158.3616699146644
 30
0.0
 10
94.81598049462158
 20
158.3616699146644
 30
0.0
 10
95.7237637538445
 20
161.2605474231013
 30
0.0
 10
96.4968436907311
 20
162.8139420021662
 30
0.0
 10
97.15657991138076
 20
163.9844139654337
 30
0.0
 10
97.81183750494507
 20
165.1523021053827
 30
0.0
 10
99.1047826935081
 20
166.3084769129547
 30
0.0
 10
100.4504378777679
 20
166.69157178364
 30
0.0
  0
HATCH
  5
6A5
330
6A2
100
AcDbEntity
  8
LOGO
 62
   250
420
  2234388
100
AcDbHatch
 10
0.0
 20
0.0
 30
0.0
210
0.0
220
0.0
230
1.0
  2
SOLID
 70
     1
 71
     0
 91
        1
 92
        1
 93
        1
 72
     4
 94
        3
 73
     0
 74
     1
 95
       56
 96
       52
 40
0.0
 40
0.0
 40
0.0
 40
0.0
 40
1.0
 40
1.0
 40
1.0
 40
2.0
 40
2.0
 40
2.0
 40
3.0
 40
3.0
 40
3.0
 40
4.0
 40
4.0
 40
4.0
 40
5.0
 40
5.0
 40
5.0
 40
6.0
 40
6.0
 40
6.0
 40
7.0
 40
7.0
 40
7.0
 40
8.0
 40
8.0
 40
8.0
 40
9.0
 40
9.0
 40
9.0
 40
10.0
 40
10.0
 40
10.0
 40
11.0
 40
11.0
 40
11.0
 40
12.0
 40
12.0
 40
12.0
 40
13.0
 40
13.0
 40
13.0
 40
14.0
 40
14.0
 40
14.0
 40
15.0
 40
15.0
 40
15.0
 40
16.0
 40
16.0
 40
16.0
 40
17.0
 40
17.0
 40
17.0
 40
17.0
 10
100.4504378777679
 20
166.69157178364
 10
101.9848844191641
 20
167.1313385124438
 10
103.9637485713373
 20
166.7649523658846
 10
103.9637485713373
 20
166.7649523658846
 10
103.9637485713373
 20
166.7649523658846
 10
103.0132460999156
 20
163.911205638077
 10
103.0132460999156
 20
163.911205638077
 10
103.0132460999156
 20
163.911205638077
 10
101.0674548862189
 20
164.3601018759394
 10
99.57090442016032
 20
163.1805004036133
 10
98.40508333886608
 20
162.258247733807
 10
97.65301849830304
 20
159.804132345923
 10
97.3598406791005
 20
158.8699940888517
 10
97.3598406791005
 20
158.8699940888517
 10
96.07137411762282
 20
154.9119212747295
 10
96.07137411762282
 20
154.9119212747295
 10
96.07137411762282
 20
154.9119212747295
 10
100.3012651448482
 20
154.9119212747295
 10
100.3012651448482
 20
154.9119212747295
 10
100.3012651448482
 20
154.9119212747295
 10
99.64152892419852
 20
152.4199098115079
 10
99.64152892419852
 20
152.4199098115079
 10
99.64152892419852
 20
152.4199098115079
 10
95.38097652692731
 20
152.4199098115079
 10
95.38097652692731
 20
152.4199098115079
 10
95.38097652692731
 20
152.4199098115079
 10
87.75353009080013
 20
127.8027915271048
 10
87.75353009080013
 20
127.8027915271048
 10
87.75353009080013
 20
127.8027915271048
 10
85.36538832498108
 20
127.8027915271048
 10
85.36538832498108
 20
127.8027915271048
 10
85.36538832498108
 20
127.8027915271048
 10
93.00006946639998
 20
152.4199098115079
 10
93.00006946639998
 20
152.4199098115079
 10
93.00006946639998
 20
152.4199098115079
 10
89.85297266450198
 20
152.4199098115079
 10
89.85297266450198
 20
152.4199098115079
 10
89.85297266450198
 20
152.4199098115079
 10
90.51270888515164
 20
154.9119212747295
 10
90.51270888515164
 20
154.9119212747295
 10
90.51270888515164
 20
154.9119212747295
 10
93.6904670570955
 20
154.9119212747295
 10
93.6904670570955
 20
154.9119212747295
 10
93.6904670570955
 20
154.9119212747295
 10
94.81598049462158
 20
158.3616699146644
 10
94.81598049462158
 20
158.3616699146644
 10
95.7237637538445
 20
161.2605474231013
 10
96.4968436907311
 20
162.8139420021662
 10
97.15657991138076
 20
163.9844139654337
 10
97.81183750494507
 20
165.1523021053827
 10
99.1047826935081
 20
166.3084769129547
 10
100.4504378777679
 20
166.69157178364
 97
        0
 75
     2
 76
     1
 98
        0
  0
SPLINE
  5
6A6
330
6A2
100
AcDbEntity
  8
LOGO
370
     0
100
AcDbSpline
210
0.0
220
0.0
230
1.0
 70
    11
 71
     3
 72
    38
 73
    34
 74
     0
 42
0.000000001
 43
0.0000000001
 40
0.0
 40
0.0
 40
0.0
 40
0.0
 40
1.0
 40
1.0
 40
1.0
 40
2.0
 40
2.0
 40
2.0
 40
3.0
 40
3.0
 40
3.0
 40
4.0
 40
4.0
 40
4.0
 40
5.0
 40
5.0
 40
5.0
 40
6.0
 40
6.0
 40
6.0
 40
7.0
 40
7.0
 40
7.0
 40
8.0
 40
8.0
 40
8.0
 40
9.0
 40
9.0
 40
9.0
 40
10.0
 40
10.0
 40
10.0
 40
11.0
 40
11.0
 40
11.0
 40
11.0
 10
126.377554584636
 20
154.8151140277308
 30
0.0
 10
126.377554584636
 20
154.8151140277308
 30
0.0
 10
128.8311532078563
 20
154.8151140277308
 30
0.0
 10
128.8311532078563
 20
154.8151140277308
 30
0.0
 10
128.8311532078563
 20
154.8151140277308
 30
0.0
 10
127.7345785914971
 20
151.3062819612468
 30
0.0
 10
127.7345785914971
 20
151.3062819612468
 30
0.0
 10
128.571392836906
 20
152.2922689395754
 30
0.0
 10
129.8860421413442
 20
153.604506675583
 30
0.0
 10
131.0163787157314
 20
154.2664822097754
 30
0.0
 10
132.7044766171327
 20
155.2500576196734
 30
0.0
 10
133.6642808525008
 20
155.3847609420097
 30
0.0
 10
134.7284715499351
 20
155.3565111403944
 30
0.0
 10
134.7284715499351
 20
155.3565111403944
 30
0.0
 10
133.6877075172549
 20
152.0345756272799
 30
0.0
 10
133.6877075172549
 20
152.0345756272799
 30
0.0
 10
133.011434827367
 20
152.3184516825359
 30
0.0
 10
130.930940291334
 20
151.7768823149844
 30
0.0
 10
129.739280976855
 20
150.9162968950455
 30
0.0
 10
128.66613302525
 20
150.1454562717016
 30
0.0
 10
127.9192358313239
 20
149.4857200510519
 30
0.0
 10
127.0393578639405
 20
147.8282835196966
 30
0.0
 10
126.164647543194
 20
146.1699857139017
 30
0.0
 10
125.4742499524985
 20
143.5262176944419
 30
0.0
 10
124.2822461282437
 20
139.6959580071401
 30
0.0
 10
124.2822461282437
 20
139.6959580071401
 30
0.0
 10
120.5753209406769
 20
127.8027915271048
 30
0.0
 10
120.5753209406769
 20
127.8027915271048
 30
0.0
 10
120.5753209406769
 20
127.8027915271048
 30
0.0
 10
118.1964809388044
 20
127.8027915271048
 30
0.0
 10
118.1964809388044
 20
127.8027915271048
 30
0.0
 10
118.1964809388044
 20
127.8027915271048
 30
0.0
 10
126.377554584636
 20
154.8151140277308
 30
0.0
 10
126.377554584636
 20
154.8151140277308
 30
0.0
  0
HATCH
  5
6A7
330
6A2
100
AcDbEntity
  8
LOGO
 62
   250
420
  2234388
100
AcDbHatch
 10
0.0
 20
0.0
 30
0.0
210
0.0
220
0.0
230
1.0
  2
SOLID
 70
     1
 71
     0
 91
        1
 92
        1
 93
        1
 72
     4
 94
        3
 73
     0
 74
     1
 95
       38
 96
       34
 40
0.0
 40
0.0
 40
0.0
 40
0.0
 40
1.0
 40
1.0
 40
1.0
 40
2.0
 40
2.0
 40
2.0
 40
3.0
 40
3.0
 40
3.0
 40
4.0
 40
4.0
 40
4.0
 40
5.0
 40
5.0
 40
5.0
 40
6.0
 40
6.0
 40
6.0
 40
7.0
 40
7.0
 40
7.0
 40
8.0
 40
8.0
 40
8.0
 40
9.0
 40
9.0
 40
9.0
 40
10.0
 40
10.0
 40
10.0
 40
11.0
 40
11.0
 40
11.0
 40
11.0
 10
126.377554584636
 20
154.8151140277308
 10
126.377554584636
 20
154.8151140277308
 10
128.8311532078563
 20
154.8151140277308
 10
128.8311532078563
 20
154.8151140277308
 10
128.8311532078563
 20
154.8151140277308
 10
127.7345785914971
 20
151.3062819612468
 10
127.7345785914971
 20
151.3062819612468
 10
128.571392836906
 20
152.2922689395754
 10
129.8860421413442
 20
153.604506675583
 10
131.0163787157314
 20
154.2664822097754
 10
132.7044766171327
 20
155.2500576196734
 10
133.6642808525008
 20
155.3847609420097
 10
134.7284715499351
 20
155.3565111403944
 10
134.7284715499351
 20
155.3565111403944
 10
133.6877075172549
 20
152.0345756272799
 10
133.6877075172549
 20
152.0345756272799
 10
133.011434827367
 20
152.3184516825359
 10
130.930940291334
 20
151.7768823149844
 10
129.739280976855
 20
150.9162968950455
 10
128.66613302525
 20
150.1454562717016
 10
127.9192358313239
 20
149.4857200510519
 10
127.0393578639405
 20
147.8282835196966
 10
126.164647543194
 20
146.1699857139017
 10
125.4742499524985
 20
143.5262176944419
 10
124.2822461282437
 20
139.6959580071401
 10
124.2822461282437
 20
139.6959580071401
 10
120.5753209406769
 20
127.8027915271048
 10
120.5753209406769
 20
127.8027915271048
 10
120.5753209406769
 20
127.8027915271048
 10
118.1964809388044
 20
127.8027915271048
 10
118.1964809388044
 20
127.8027915271048
 10
118.1964809388044
 20
127.8027915271048
 10
126.377554584636
 20
154.8151140277308
 10
126.377554584636
 20
154.8151140277308
 97
        0
 75
     2
 76
     1
 98
        0
  0
SPLINE
  5
6A8
330
6A2
100
AcDbEntity
  8
LOGO
370
     0
100
AcDbSpline
210
0.0
220
0.0
230
1.0
 70
    11
 71
     3
 72
   104
 73
   100
 74
     0
 42
0.000000001
 43
0.0000000001
 40
0.0
 40
0.0
 40
0.0
 40
0.0
 40
1.0
 40
1.0
 40
1.0
 40
2.0
 40
2.0
 40
2.0
 40
3.0
 40
3.0
 40
3.0
 40
4.0
 40
4.0
 40
4.0
 40
5.0
 40
5.0
 40
5.0
 40
6.0
 40
6.0
 40
6.0
 40
7.0
 40
7.0
 40
7.0
 40
8.0
 40
8.0
 40
8.0
 40
9.0
 40
9.0
 40
9.0
 40
10.0
 40
10.0
 40
10.0
 40
11.0
 40
11.0
 40
11.0
 40
12.0
 40
12.0
 40
12.0
 40
13.0
 40
13.0
 40
13.0
 40
14.0
 40
14.0
 40
14.0
 40
15.0
 40
15.0
 40
15.0
 40
16.0
 40
16.0
 40
16.0
 40
17.0
 40
17.0
 40
17.0
 40
18.0
 40
18.0
 40
18.0
 40
19.0
 40
19.0
 40
19.0
 40
20.0
 40
20.0
 40
20.0
 40
21.0
 40
21.0
 40
21.0
 40
22.0
 40
22.0
 40
22.0
 40
23.0
 40
23.0
 40
23.0
 40
24.0
 40
24.0
 40
24.0
 40
25.0
 40
25.0
 40
25.0
 40
26.0
 40
26.0
 40
26.0
 40
27.0
 40
27.0
 40
27.0
 40
28.0
 40
28.0
 40
28.0
 40
29.0
 40
29.0
 40
29.0
 40
30.0
 40
30.0
 40
30.0
 40
31.0
 40
31.0
 40
31.0
 40
32.0
 40
32.0
 40
32.0
 40
33.0
 40
33.0
 40
33.0
 40
33.0
 10
139.8926730891197
 20
154.8294111834263
 30
0.0
 10
139.8926730891197
 20
154.8294111834263
 30
0.0
 10
142.0344903652445
 20
154.8294111834263
 30
0.0
 10
142.0344903652445
 20
154.8294111834263
 30
0.0
 10
142.0344903652445
 20
154.8294111834263
 30
0.0
 10
140.9516961399171
 20
151.3157559800812
 30
0.0
 10
140.9516961399171
 20
151.3157559800812
 30
0.0
 10
141.8928968473923
 20
152.7887075264977
 30
0.0
 10
142.7341897198865
 20
153.4484437471474
 30
0.0
 10
143.8552245303272
 20
154.2926649527359
 30
0.0
 10
144.9803934580775
 20
155.1296514530327
 30
0.0
 10
146.3139908001845
 20
155.3044901642492
 30
0.0
 10
147.241066606852
 20
155.3044901642492
 30
0.0
 10
148.3855280820469
 20
155.3044901642492
 30
0.0
 10
149.4969166187653
 20
155.0752189084569
 30
0.0
 10
150.0784491203092
 20
153.8172414621372
 30
0.0
 10
150.5228667310863
 20
152.833838307127
 30
0.0
 10
150.5414702589793
 20
152.7201500811143
 30
0.0
 10
150.4140016419347
 20
150.7765981809602
 30
0.0
 10
151.5818897818837
 20
152.7699317437168
 30
0.0
 10
152.4424752018226
 20
153.6256940267945
 30
0.0
 10
153.9038856707499
 20
154.4507949398263
 30
0.0
 10
155.4455669174378
 20
155.3044901642492
 30
0.0
 10
156.339225275853
 20
155.3659851592288
 30
0.0
 10
157.3748216618963
 20
155.2147453676543
 30
0.0
 10
158.911679771723
 20
154.9877134254046
 30
0.0
 10
159.8859534176746
 20
154.4390816074493
 30
0.0
 10
160.3965169054045
 20
152.7816450760939
 30
0.0
 10
160.9070803931344
 20
151.1219692311958
 30
0.0
 10
160.6328506116007
 20
150.2303779314354
 30
0.0
 10
159.9992971339115
 20
147.597634224801
 30
0.0
 10
159.7105979417943
 20
146.4014962832367
 30
0.0
 10
159.2947746424084
 20
144.9400858143094
 30
0.0
 10
158.7463150793409
 20
143.2092687007094
 30
0.0
 10
158.7463150793409
 20
143.2092687007094
 30
0.0
 10
153.9038856707499
 20
127.8027915271048
 30
0.0
 10
153.9038856707499
 20
127.8027915271048
 30
0.0
 10
153.9038856707499
 20
127.8027915271048
 30
0.0
 10
151.3882752878863
 20
127.8027915271048
 30
0.0
 10
151.3882752878863
 20
127.8027915271048
 30
0.0
 10
151.3882752878863
 20
127.8027915271048
 30
0.0
 10
155.6250565106276
 20
141.2751908193897
 30
0.0
 10
155.6250565106276
 20
141.2751908193897
 30
0.0
 10
156.5094131050963
 20
144.0936252951782
 30
0.0
 10
157.109893644309
 20
146.1506931664571
 30
0.0
 10
157.4220195011804
 20
147.4415712963654
 30
0.0
 10
157.8095929989511
 20
149.0530157726519
 30
0.0
 10
157.9656559273867
 20
149.5826995529385
 30
0.0
 10
157.7816877071116
 20
150.7529992613181
 30
0.0
 10
157.6111553680925
 20
151.8430281919372
 30
0.0
 10
157.0582171779396
 20
152.5547853887321
 30
0.0
 10
156.1170164704645
 20
152.5547853887321
 30
0.0
 10
155.1096698860365
 20
152.5547853887321
 30
0.0
 10
154.2962823053817
 20
152.4412694176073
 30
0.0
 10
153.156643967048
 20
151.2945686288697
 30
0.0
 10
152.0170056287143
 20
150.1476955852443
 30
0.0
 10
151.076149431015
 20
148.7930831468137
 30
0.0
 10
150.3337308641742
 20
147.2290087646991
 30
0.0
 10
149.5957909244188
 20
145.6683794803425
 30
0.0
 10
148.8530278478023
 20
143.6822806228776
 30
0.0
 10
148.0964843801539
 20
141.2751908193897
 30
0.0
 10
148.0964843801539
 20
141.2751908193897
 30
0.0
 10
143.8552245303272
 20
127.8027915271048
 30
0.0
 10
143.8552245303272
 20
127.8027915271048
 30
0.0
 10
143.8552245303272
 20
127.8027915271048
 30
0.0
 10
141.486030802177
 20
127.8027915271048
 30
0.0
 10
141.486030802177
 20
127.8027915271048
 30
0.0
 10
141.486030802177
 20
127.8027915271048
 30
0.0
 10
146.3329388378533
 20
143.2092687007094
 30
0.0
 10
146.3329388378533
 20
143.2092687007094
 30
0.0
 10
146.8483254624444
 20
144.8408669988801
 30
0.0
 10
147.2314203331297
 20
146.1837661049335
 30
0.0
 10
147.4867020769946
 20
147.224185627838
 30
0.0
 10
147.9169947869641
 20
149.0197705792876
 30
0.0
 10
148.0306830129768
 20
150.2400242051577
 30
0.0
 10
147.709255392159
 20
151.3157559800812
 30
0.0
 10
147.3874832615654
 20
152.3916600098926
 30
0.0
 10
146.8245542879144
 20
152.6683013598569
 30
0.0
 10
145.8840425999909
 20
152.6683013598569
 30
0.0
 10
145.0989048209514
 20
152.6683013598569
 30
0.0
 10
144.3282364524954
 20
152.3275811915945
 30
0.0
 10
143.4531816219731
 20
151.6538923250251
 30
0.0
 10
142.34627171234
 20
150.8074318058939
 30
0.0
 10
141.901854101563
 20
150.1097995099067
 30
0.0
 10
141.3578731655808
 20
149.289521733736
 30
0.0
 10
140.6299240093235
 20
148.192602607601
 30
0.0
 10
140.2850697237515
 20
147.455696197173
 30
0.0
 10
139.6652966370942
 20
145.8385673095858
 30
0.0
 10
139.0506911970739
 20
144.2214384219986
 30
0.0
 10
138.463991048893
 20
142.3252566160164
 30
0.0
 10
138.0571250036777
 20
141.0154304484394
 30
0.0
 10
138.0571250036777
 20
141.0154304484394
 30
0.0
 10
133.9009590684727
 20
127.8027915271048
 30
0.0
 10
133.9009590684727
 20
127.8027915271048
 30
0.0
 10
133.9009590684727
 20
127.8027915271048
 30
0.0
 10
131.4180771143097
 20
127.8027915271048
 30
0.0
 10
131.4180771143097
 20
127.8027915271048
 30
0.0
 10
131.4180771143097
 20
127.8027915271048
 30
0.0
 10
139.8926730891197
 20
154.8294111834263
 30
0.0
 10
139.8926730891197
 20
154.8294111834263
 30
0.0
  0
HATCH
  5
6A9
330
6A2
100
AcDbEntity
  8
LOGO
 62
   250
420
  2234388
100
AcDbHatch
 10
0.0
 20
0.0
 30
0.0
210
0.0
220
0.0
230
1.0
  2
SOLID
 70
     1
 71
     0
 91
        1
 92
        1
 93
        1
 72
     4
 94
        3
 73
     0
 74
     1
 95
      104
 96
      100
 40
0.0
 40
0.0
 40
0.0
 40
0.0
 40
1.0
 40
1.0
 40
1.0
 40
2.0
 40
2.0
 40
2.0
 40
3.0
 40
3.0
 40
3.0
 40
4.0
 40
4.0
 40
4.0
 40
5.0
 40
5.0
 40
5.0
 40
6.0
 40
6.0
 40
6.0
 40
7.0
 40
7.0
 40
7.0
 40
8.0
 40
8.0
 40
8.0
 40
9.0
 40
9.0
 40
9.0
 40
10.0
 40
10.0
 40
10.0
 40
11.0
 40
11.0
 40
11.0
 40
12.0
 40
12.0
 40
12.0
 40
13.0
 40
13.0
 40
13.0
 40
14.0
 40
14.0
 40
14.0
 40
15.0
 40
15.0
 40
15.0
 40
16.0
 40
16.0
 40
16.0
 40
17.0
 40
17.0
 40
17.0
 40
18.0
 40
18.0
 40
18.0
 40
19.0
 40
19.0
 40
19.0
 40
20.0
 40
20.0
 40
20.0
 40
21.0
 40
21.0
 40
21.0
 40
22.0
 40
22.0
 40
22.0
 40
23.0
 40
23.0
 40
23.0
 40
24.0
 40
24.0
 40
24.0
 40
25.0
 40
25.0
 40
25.0
 40
26.0
 40
26.0
 40
26.0
 40
27.0
 40
27.0
 40
27.0
 40
28.0
 40
28.0
 40
28.0
 40
29.0
 40
29.0
 40
29.0
 40
30.0
 40
30.0
 40
30.0
 40
31.0
 40
31.0
 40
31.0
 40
32.0
 40
32.0
 40
32.0
 40
33.0
 40
33.0
 40
33.0
 40
33.0
 10
139.8926730891197
 20
154.8294111834263
 10
139.8926730891197
 20
154.8294111834263
 10
142.0344903652445
 20
154.8294111834263
 10
142.0344903652445
 20
154.8294111834263
 10
142.0344903652445
 20
154.8294111834263
 10
140.9516961399171
 20
151.3157559800812
 10
140.9516961399171
 20
151.3157559800812
 10
141.8928968473923
 20
152.7887075264977
 10
142.7341897198865
 20
153.4484437471474
 10
143.8552245303272
 20
154.2926649527359
 10
144.9803934580775
 20
155.1296514530327
 10
146.3139908001845
 20
155.3044901642492
 10
147.241066606852
 20
155.3044901642492
 10
148.3855280820469
 20
155.3044901642492
 10
149.4969166187653
 20
155.0752189084569
 10
150.0784491203092
 20
153.8172414621372
 10
150.5228667310863
 20
152.833838307127
 10
150.5414702589793
 20
152.7201500811143
 10
150.4140016419347
 20
150.7765981809602
 10
151.5818897818837
 20
152.7699317437168
 10
152.4424752018226
 20
153.6256940267945
 10
153.9038856707499
 20
154.4507949398263
 10
155.4455669174378
 20
155.3044901642492
 10
156.339225275853
 20
155.3659851592288
 10
157.3748216618963
 20
155.2147453676543
 10
158.911679771723
 20
154.9877134254046
 10
159.8859534176746
 20
154.4390816074493
 10
160.3965169054045
 20
152.7816450760939
 10
160.9070803931344
 20
151.1219692311958
 10
160.6328506116007
 20
150.2303779314354
 10
159.9992971339115
 20
147.597634224801
 10
159.7105979417943
 20
146.4014962832367
 10
159.2947746424084
 20
144.9400858143094
 10
158.7463150793409
 20
143.2092687007094
 10
158.7463150793409
 20
143.2092687007094
 10
153.9038856707499
 20
127.8027915271048
 10
153.9038856707499
 20
127.8027915271048
 10
153.9038856707499
 20
127.8027915271048
 10
151.3882752878863
 20
127.8027915271048
 10
151.3882752878863
 20
127.8027915271048
 10
151.3882752878863
 20
127.8027915271048
 10
155.6250565106276
 20
141.2751908193897
 10
155.6250565106276
 20
141.2751908193897
 10
156.5094131050963
 20
144.0936252951782
 10
157.109893644309
 20
146.1506931664571
 10
157.4220195011804
 20
147.4415712963654
 10
157.8095929989511
 20
149.0530157726519
 10
157.9656559273867
 20
149.5826995529385
 10
157.7816877071116
 20
150.7529992613181
 10
157.6111553680925
 20
151.8430281919372
 10
157.0582171779396
 20
152.5547853887321
 10
156.1170164704645
 20
152.5547853887321
 10
155.1096698860365
 20
152.5547853887321
 10
154.2962823053817
 20
152.4412694176073
 10
153.156643967048
 20
151.2945686288697
 10
152.0170056287143
 20
150.1476955852443
 10
151.076149431015
 20
148.7930831468137
 10
150.3337308641742
 20
147.2290087646991
 10
149.5957909244188
 20
145.6683794803425
 10
148.8530278478023
 20
143.6822806228776
 10
148.0964843801539
 20
141.2751908193897
 10
148.0964843801539
 20
141.2751908193897
 10
143.8552245303272
 20
127.8027915271048
 10
143.8552245303272
 20
127.8027915271048
 10
143.8552245303272
 20
127.8027915271048
 10
141.486030802177
 20
127.8027915271048
 10
141.486030802177
 20
127.8027915271048
 10
141.486030802177
 20
127.8027915271048
 10
146.3329388378533
 20
143.2092687007094
 10
146.3329388378533
 20
143.2092687007094
 10
146.8483254624444
 20
144.8408669988801
 10
147.2314203331297
 20
146.1837661049335
 10
147.4867020769946
 20
147.224185627838
 10
147.9169947869641
 20
149.0197705792876
 10
148.0306830129768
 20
150.2400242051577
 10
147.709255392159
 20
151.3157559800812
 10
147.3874832615654
 20
152.3916600098926
 10
146.8245542879144
 20
152.6683013598569
 10
145.8840425999909
 20
152.6683013598569
 10
145.0989048209514
 20
152.6683013598569
 10
144.3282364524954
 20
152.3275811915945
 10
143.4531816219731
 20
151.6538923250251
 10
142.34627171234
 20
150.8074318058939
 10
141.901854101563
 20
150.1097995099067
 10
141.3578731655808
 20
149.289521733736
 10
140.6299240093235
 20
148.192602607601
 10
140.2850697237515
 20
147.455696197173
 10
139.6652966370942
 20
145.8385673095858
 10
139.0506911970739
 20
144.2214384219986
 10
138.463991048893
 20
142.3252566160164
 10
138.0571250036777
 20
141.0154304484394
 10
138.0571250036777
 20
141.0154304484394
 10
133.9009590684727
 20
127.8027915271048
 10
133.9009590684727
 20
127.8027915271048
 10
133.9009590684727
 20
127.8027915271048
 10
131.4180771143097
 20
127.8027915271048
 10
131.4180771143097
 20
127.8027915271048
 10
131.4180771143097
 20
127.8027915271048
 10
139.8926730891197
 20
154.8294111834263
 10
139.8926730891197
 20
154.8294111834263
 97
        0
 75
     2
 76
     1
 98
        0
  0
SPLINE
  5
6AA
330
6A2
100
AcDbEntity
  8
LOGO
370
     0
100
AcDbSpline
210
0.0
220
0.0
230
1.0
 70
    11
 71
     3
 72
    29
 73
    25
 74
     0
 42
0.000000001
 43
0.0000000001
 40
0.0
 40
0.0
 40
0.0
 40
0.0
 40
1.0
 40
1.0
 40
1.0
 40
2.0
 40
2.0
 40
2.0
 40
3.0
 40
3.0
 40
3.0
 40
4.0
 40
4.0
 40
4.0
 40
5.0
 40
5.0
 40
5.0
 40
6.0
 40
6.0
 40
6.0
 40
7.0
 40
7.0
 40
7.0
 40
8.0
 40
8.0
 40
8.0
 40
8.0
 10
101.6420971922469
 20
132.8388354296931
 30
0.0
 10
101.630039350094
 20
134.7164137077823
 30
0.0
 10
102.2236296937908
 20
138.0598810818841
 30
0.0
 10
103.7487744712405
 20
142.5378191476827
 30
0.0
 10
105.819967243327
 20
148.5896501242061
 30
0.0
 10
107.0602024361932
 20
150.8074318058939
 30
0.0
 10
108.1522984254671
 20
151.8833358357054
 30
0.0
 10
109.741177511439
 20
153.4532668840085
 30
0.0
 10
111.8740375333931
 20
153.5290590346837
 30
0.0
 10
112.5075910110823
 20
153.4532668840085
 30
0.0
 10
113.4012493694975
 20
153.3490526768302
 30
0.0
 10
114.6683563248758
 20
152.7580461564518
 30
0.0
 10
114.7493161221879
 20
150.7838328862519
 30
0.0
 10
114.8106388622796
 20
149.0909118479895
 30
0.0
 10
114.3186789024427
 20
145.9191825971221
 30
0.0
 10
112.6164561002338
 20
140.9489400617108
 30
0.0
 10
110.6444821435766
 20
135.1746117095912
 30
0.0
 10
109.4669477299053
 20
132.8960240524753
 30
0.0
 10
108.5212683953448
 20
131.9072809959403
 30
0.0
 10
106.7346406980658
 20
130.0538184021569
 30
0.0
 10
104.8222669326213
 20
130.2336525051225
 30
0.0
 10
104.5408024457958
 20
130.2336525051225
 30
0.0
 10
104.1721769856939
 20
130.2336525051225
 30
0.0
 10
101.6465758193322
 20
130.6305277668397
 30
0.0
 10
101.6420971922469
 20
132.8388354296931
 30
0.0
  0
SPLINE
  5
6AB
330
6A2
100
AcDbEntity
  8
LOGO
370
     0
100
AcDbSpline
210
0.0
220
0.0
230
1.0
 70
    11
 71
     3
 72
    32
 73
    28
 74
     0
 42
0.000000001
 43
0.0000000001
 40
0.0
 40
0.0
 40
0.0
 40
0.0
 40
1.0
 40
1.0
 40
1.0
 40
2.0
 40
2.0
 40
2.0
 40
3.0
 40
3.0
 40
3.0
 40
4.0
 40
4.0
 40
4.0
 40
5.0
 40
5.0
 40
5.0
 40
6.0
 40
6.0
 40
6.0
 40
7.0
 40
7.0
 40
7.0
 40
8.0
 40
8.0
 40
8.0
 40
9.0
 40
9.0
 40
9.0
 40
9.0
 10
106.2595617172429
 20
153.4105476718098
 30
0.0
 10
104.8222669326213
 20
151.5474388043041
 30
0.0
 10
103.7177685914188
 20
149.8758773721411
 30
0.0
 10
101.9232171692965
 20
144.6141795664062
 30
0.0
 10
100.2754269116635
 20
139.7999999594306
 30
0.0
 10
99.22777268346732
 20
136.3052927937542
 30
0.0
 10
99.06964269637689
 20
132.039572749846
 30
0.0
 10
98.94665270641765
 20
128.8673267343149
 30
0.0
 10
100.8807305877373
 20
127.8027915271048
 30
0.0
 10
103.7129454545577
 20
127.8027915271048
 30
0.0
 10
104.9352661390825
 20
127.8027915271048
 30
0.0
 10
108.0151835347002
 20
127.8827177950895
 30
0.0
 10
110.2045431598849
 20
130.5926316915021
 30
0.0
 10
111.7417457794874
 20
132.4984597712065
 30
0.0
 10
113.155269389579
 20
134.475256864725
 30
0.0
 10
115.0562743324223
 20
140.9489400617108
 30
0.0
 10
116.6361961642235
 20
146.3680788349845
 30
0.0
 10
117.7282921534974
 20
149.8639917848761
 30
0.0
 10
117.6480213757369
 20
151.8595646611754
 30
0.0
 10
117.6480213757369
 20
151.8595646611754
 30
0.0
 10
117.6480213757369
 20
151.8595646611754
 30
0.0
 10
117.6480213757369
 20
151.8595646611754
 30
0.0
 10
117.13229024137
 20
155.18150017429
 30
0.0
 10
114.7162431837115
 20
155.886194920681
 30
0.0
 10
113.3351034925446
 20
155.886194920681
 30
0.0
 10
111.9829026225447
 20
155.886194920681
 30
0.0
 10
108.3414342923792
 20
156.1251124501957
 30
0.0
 10
106.2595617172429
 20
153.4105476718098
 30
0.0
  0
HATCH
  5
6AC
330
6A2
100
AcDbEntity
  8
LOGO
 62
   250
420
  2234388
100
AcDbHatch
 10
0.0
 20
0.0
 30
0.0
210
0.0
220
0.0
230
1.0
  2
SOLID
 70
     1
 71
     0
 91
        2
 92
        1
 93
        1
 72
     4
 94
        3
 73
     0
 74
     1
 95
       29
 96
       25
 40
0.0
 40
0.0
 40
0.0
 40
0.0
 40
1.0
 40
1.0
 40
1.0
 40
2.0
 40
2.0
 40
2.0
 40
3.0
 40
3.0
 40
3.0
 40
4.0
 40
4.0
 40
4.0
 40
5.0
 40
5.0
 40
5.0
 40
6.0
 40
6.0
 40
6.0
 40
7.0
 40
7.0
 40
7.0
 40
8.0
 40
8.0
 40
8.0
 40
8.0
 10
101.6420971922469
 20
132.8388354296931
 10
101.630039350094
 20
134.7164137077823
 10
102.2236296937908
 20
138.0598810818841
 10
103.7487744712405
 20
142.5378191476827
 10
105.819967243327
 20
148.5896501242061
 10
107.0602024361932
 20
150.8074318058939
 10
108.1522984254671
 20
151.8833358357054
 10
109.741177511439
 20
153.4532668840085
 10
111.8740375333931
 20
153.5290590346837
 10
112.5075910110823
 20
153.4532668840085
 10
113.4012493694975
 20
153.3490526768302
 10
114.6683563248758
 20
152.7580461564518
 10
114.7493161221879
 20
150.7838328862519
 10
114.8106388622796
 20
149.0909118479895
 10
114.3186789024427
 20
145.9191825971221
 10
112.6164561002338
 20
140.9489400617108
 10
110.6444821435766
 20
135.1746117095912
 10
109.4669477299053
 20
132.8960240524753
 10
108.5212683953448
 20
131.9072809959403
 10
106.7346406980658
 20
130.0538184021569
 10
104.8222669326213
 20
130.2336525051225
 10
104.5408024457958
 20
130.2336525051225
 10
104.1721769856939
 20
130.2336525051225
 10
101.6465758193322
 20
130.6305277668397
 10
101.6420971922469
 20
132.8388354296931
 97
        0
 92
        1
 93
        1
 72
     4
 94
        3
 73
     0
 74
     1
 95
       32
 96
       28
 40
0.0
 40
0.0
 40
0.0
 40
0.0
 40
1.0
 40
1.0
 40
1.0
 40
2.0
 40
2.0
 40
2.0
 40
3.0
 40
3.0
 40
3.0
 40
4.0
 40
4.0
 40
4.0
 40
5.0
 40
5.0
 40
5.0
 40
6.0
 40
6.0
 40
6.0
 40
7.0
 40
7.0
 40
7.0
 40
8.0
 40
8.0
 40
8.0
 40
9.0
 40
9.0
 40
9.0
 40
9.0
 10
106.2595617172429
 20
153.4105476718098
 10
104.8222669326213
 20
151.5474388043041
 10
103.7177685914188
 20
149.8758773721411
 10
101.9232171692965
 20
144.6141795664062
 10
100.2754269116635
 20
139.7999999594306
 10
99.22777268346732
 20
136.3052927937542
 10
99.06964269637689
 20
132.039572749846
 10
98.94665270641765
 20
128.8673267343149
 10
100.8807305877373
 20
127.8027915271048
 10
103.7129454545577
 20
127.8027915271048
 10
104.9352661390825
 20
127.8027915271048
 10
108.0151835347002
 20
127.8827177950895
 10
110.2045431598849
 20
130.5926316915021
 10
111.7417457794874
 20
132.4984597712065
 10
113.155269389579
 20
134.475256864725
 10
115.0562743324223
 20
140.9489400617108
 10
116.6361961642235
 20
146.3680788349845
 10
117.7282921534974
 20
149.8639917848761
 10
117.6480213757369
 20
151.8595646611754
 10
117.6480213757369
 20
151.8595646611754
 10
117.6480213757369
 20
151.8595646611754
 10
117.6480213757369
 20
151.8595646611754
 10
117.13229024137
 20
155.18150017429
 10
114.7162431837115
 20
155.886194920681
 10
113.3351034925446
 20
155.886194920681
 10
111.9829026225447
 20
155.886194920681
 10
108.3414342923792
 20
156.1251124501957
 10
106.2595617172429
 20
153.4105476718098
 97
        0
 75
     2
 76
     1
 98
        0
  0
ENDBLK
  5
6AD
330
6A2
100
AcDbEntity
  8
0
100
AcDbBlockEnd
  0
BLOCK
  5
28B5
330
28B4
100
AcDbEntity
  8
0
100
AcDbBlockBegin
  2
*D6
 70
     1
 10
0.0
 20
0.0
 30
0.0
  3
*D6
  1

  0
LINE
  5
28B7
330
28B4
100
AcDbEntity
  8
DIM
 62
     0
 48
0.05
370
    -2
100
AcDbLine
 10
206.3085498098338
 20
1106.770040126892
 30
0.0
 11
206.3085498098338
 21
1235.049530724505
 31
0.0
  0
LINE
  5
28B8
330
28B4
100
AcDbEntity
  8
DIM
 62
     0
 48
0.05
370
    -2
100
AcDbLine
 10
426.3085498098338
 20
1106.770040126892
 30
0.0
 11
426.3085498098338
 21
1235.049530724505
 31
0.0
  0
LINE
  5
28B9
330
28B4
100
AcDbEntity
  8
DIM
 62
     0
 48
0.05
370
    -2
100
AcDbLine
 10
209.3085498098338
 20
1235.049530724505
 30
0.0
 11
423.3085498098338
 21
1235.049530724505
 31
0.0
  0
INSERT
  5
28BA
330
28B4
100
AcDbEntity
  8
DIM
 62
     0
370
    -2
100
AcDbBlockReference
  2
_DOT
 10
206.3085498098338
 20
1235.049530724505
 30
0.0
 41
3.0
 42
3.0
 43
3.0
 50
180.0
  0
INSERT
  5
28BB
330
28B4
100
AcDbEntity
  8
DIM
 62
     0
370
    -2
100
AcDbBlockReference
  2
_DOT
 10
426.3085498098338
 20
1235.049530724505
 30
0.0
 41
3.0
 42
3.0
 43
3.0
  0
MTEXT
  5
28BC
330
28B4
100
AcDbEntity
  8
DIM
 62
     0
 48
0.05
100
AcDbMText
 10
316.3085498098339
 20
1251.051781568572
 30
0.0
 40
12.0
 41
0.0
 46
0.0
 71
     5
 72
     1
  1
\A1;%%c220
  7
ＭＳ ゴシック
 73
     1
 44
1.0
  0
POINT
  5
28BD
330
28B4
100
AcDbEntity
  8
Defpoints
 62
     0
100
AcDbPoint
 10
206.3085498098338
 20
1096.770040126892
 30
0.0
  0
POINT
  5
28BE
330
28B4
100
AcDbEntity
  8
Defpoints
 62
     0
100
AcDbPoint
 10
426.3085498098338
 20
1096.770040126892
 30
0.0
  0
POINT
  5
28BF
330
28B4
100
AcDbEntity
  8
Defpoints
 62
     0
100
AcDbPoint
 10
426.3085498098338
 20
1235.049530724505
 30
0.0
  0
ENDBLK
  5
28B6
330
28B4
100
AcDbEntity
  8
0
100
AcDbBlockEnd
  0
BLOCK
  5
28C5
330
28C4
100
AcDbEntity
  8
0
100
AcDbBlockBegin
  2
*D7
 70
     1
 10
0.0
 20
0.0
 30
0.0
  3
*D7
  1

  0
LINE
  5
28C7
330
28C4
100
AcDbEntity
  8
DIM
 62
     0
 48
0.05
370
    -2
100
AcDbLine
 10
209.3085498098338
 20
1008.983454975768
 30
0.0
 11
209.3085498098338
 21
888.8280399955448
 31
0.0
  0
LINE
  5
28C8
330
28C4
100
AcDbEntity
  8
DIM
 62
     0
 48
0.05
370
    -2
100
AcDbLine
 10
423.3085498098338
 20
1009.056571495915
 30
0.0
 11
423.3085498098338
 21
888.8280399955448
 31
0.0
  0
LINE
  5
28C9
330
28C4
100
AcDbEntity
  8
DIM
 62
     0
 48
0.05
370
    -2
100
AcDbLine
 10
212.3085498098338
 20
888.8280399955448
 30
0.0
 11
420.3085498098338
 21
888.8280399955448
 31
0.0
  0
INSERT
  5
28CA
330
28C4
100
AcDbEntity
  8
DIM
 62
     0
370
    -2
100
AcDbBlockReference
  2
_DOT
 10
209.3085498098338
 20
888.8280399955448
 30
0.0
 41
3.0
 42
3.0
 43
3.0
 50
180.0
  0
INSERT
  5
28CB
330
28C4
100
AcDbEntity
  8
DIM
 62
     0
370
    -2
100
AcDbBlockReference
  2
_DOT
 10
423.3085498098338
 20
888.8280399955448
 30
0.0
 41
3.0
 42
3.0
 43
3.0
  0
MTEXT
  5
28CC
330
28C4
100
AcDbEntity
  8
DIM
 62
     0
 48
0.05
100
AcDbMText
 10
316.3085498098338
 20
904.8302908396114
 30
0.0
 40
12.0
 41
0.0
 46
0.0
 71
     5
 72
     1
  1
\A1;%%c214
  7
ＭＳ ゴシック
 73
     1
 44
1.0
  0
POINT
  5
28CD
330
28C4
100
AcDbEntity
  8
Defpoints
 62
     0
100
AcDbPoint
 10
209.3085498098338
 20
1018.983454975768
 30
0.0
  0
POINT
  5
28CE
330
28C4
100
AcDbEntity
  8
Defpoints
 62
     0
100
AcDbPoint
 10
423.3085498098338
 20
1019.056571495915
 30
0.0
  0
POINT
  5
28CF
330
28C4
100
AcDbEntity
  8
Defpoints
 62
     0
100
AcDbPoint
 10
423.3085498098338
 20
888.8280399955448
 30
0.0
  0
ENDBLK
  5
28C6
330
28C4
100
AcDbEntity
  8
0
100
AcDbBlockEnd
  0
BLOCK
  5
28D4
330
28D3
100
AcDbEntity
  8
0
100
AcDbBlockBegin
  2
*D8
 70
     1
 10
0.0
 20
0.0
 30
0.0
  3
*D8
  1

  0
LINE
  5
28D6
330
28D3
100
AcDbEntity
  8
DIM
 62
     0
 48
0.05
370
    -2
100
AcDbLine
 10
359.7667436335521
 20
1168.837275158471
 30
0.0
 11
501.164009688289
 21
1168.837275158471
 31
0.0
  0
LINE
  5
28D7
330
28D3
100
AcDbEntity
  8
DIM
 62
     0
 48
0.05
370
    -2
100
AcDbLine
 10
436.3085498098338
 20
1058.837275158471
 30
0.0
 11
501.164009688289
 21
1058.837275158471
 31
0.0
  0
LINE
  5
28D8
330
28D3
100
AcDbEntity
  8
DIM
 62
     0
 48
0.05
370
    -2
100
AcDbLine
 10
501.164009688289
 20
1165.837275158471
 30
0.0
 11
501.164009688289
 21
1061.837275158471
 31
0.0
  0
INSERT
  5
28D9
330
28D3
100
AcDbEntity
  8
DIM
 62
     0
370
    -2
100
AcDbBlockReference
  2
_DOT
 10
501.164009688289
 20
1168.837275158471
 30
0.0
 41
3.0
 42
3.0
 43
3.0
 50
90.0
  0
INSERT
  5
28DA
330
28D3
100
AcDbEntity
  8
DIM
 62
     0
370
    -2
100
AcDbBlockReference
  2
_DOT
 10
501.164009688289
 20
1058.837275158471
 30
0.0
 41
3.0
 42
3.0
 43
3.0
 50
270.0
  0
MTEXT
  5
28DB
330
28D3
100
AcDbEntity
  8
DIM
 62
     0
 48
0.05
100
AcDbMText
 10
485.1617588442224
 20
1113.837275158471
 30
0.0
 40
12.0
 41
0.0
 46
0.0
 71
     5
 72
     1
  1
\A1;110
  7
ＭＳ ゴシック
 11
0.0
 21
1.0
 31
0.0
 73
     1
 44
1.0
  0
POINT
  5
28DC
330
28D3
100
AcDbEntity
  8
Defpoints
 62
     0
100
AcDbPoint
 10
349.7667436335521
 20
1168.837275158471
 30
0.0
  0
POINT
  5
28DD
330
28D3
100
AcDbEntity
  8
Defpoints
 62
     0
100
AcDbPoint
 10
426.3085498098338
 20
1058.837275158471
 30
0.0
  0
POINT
  5
28DE
330
28D3
100
AcDbEntity
  8
Defpoints
 62
     0
100
AcDbPoint
 10
501.164009688289
 20
1058.837275158471
 30
0.0
  0
ENDBLK
  5
28D5
330
28D3
100
AcDbEntity
  8
0
100
AcDbBlockEnd
  0
BLOCK
  5
28E3
330
28E2
100
AcDbEntity
  8
0
100
AcDbBlockBegin
  2
*D9
 70
     1
 10
0.0
 20
0.0
 30
0.0
  3
*D9
  1

  0
LINE
  5
28E5
330
28E2
100
AcDbEntity
  8
DIM
 62
     0
 48
0.05
370
    -2
100
AcDbLine
 10
257.0337518842818
 20
1165.837275158471
 30
0.0
 11
135.889314888713
 21
1165.837275158471
 31
0.0
  0
LINE
  5
28E6
330
28E2
100
AcDbEntity
  8
DIM
 62
     0
 48
0.05
370
    -2
100
AcDbLine
 10
196.3085498098338
 20
1058.837275158471
 30
0.0
 11
135.889314888713
 21
1058.837275158471
 31
0.0
  0
LINE
  5
28E7
330
28E2
100
AcDbEntity
  8
DIM
 62
     0
 48
0.05
370
    -2
100
AcDbLine
 10
135.889314888713
 20
1162.837275158471
 30
0.0
 11
135.889314888713
 21
1061.837275158471
 31
0.0
  0
INSERT
  5
28E8
330
28E2
100
AcDbEntity
  8
DIM
 62
     0
370
    -2
100
AcDbBlockReference
  2
_DOT
 10
135.889314888713
 20
1165.837275158471
 30
0.0
 41
3.0
 42
3.0
 43
3.0
 50
90.0
  0
INSERT
  5
28E9
330
28E2
100
AcDbEntity
  8
DIM
 62
     0
370
    -2
100
AcDbBlockReference
  2
_DOT
 10
135.889314888713
 20
1058.837275158471
 30
0.0
 41
3.0
 42
3.0
 43
3.0
 50
270.0
  0
MTEXT
  5
28EA
330
28E2
100
AcDbEntity
  8
DIM
 62
     0
 48
0.05
100
AcDbMText
 10
119.8870640446464
 20
1112.337275158471
 30
0.0
 40
12.0
 41
0.0
 46
0.0
 71
     5
 72
     1
  1
\A1;107
  7
ＭＳ ゴシック
 11
0.0
 21
1.0
 31
0.0
 73
     1
 44
1.0
  0
POINT
  5
28EB
330
28E2
100
AcDbEntity
  8
Defpoints
 62
     0
100
AcDbPoint
 10
267.0337518842818
 20
1165.837275158471
 30
0.0
  0
POINT
  5
28EC
330
28E2
100
AcDbEntity
  8
Defpoints
 62
     0
100
AcDbPoint
 10
206.3085498098338
 20
1058.837275158471
 30
0.0
  0
POINT
  5
28ED
330
28E2
100
AcDbEntity
  8
Defpoints
 62
     0
100
AcDbPoint
 10
135.889314888713
 20
1058.837275158471
 30
0.0
  0
ENDBLK
  5
28E4
330
28E2
100
AcDbEntity
  8
0
100
AcDbBlockEnd
  0
BLOCK
  5
296E
330
296D
100
AcDbEntity
  8
0
100
AcDbBlockBegin
  2
*D12
 70
     1
 10
0.0
 20
0.0
 30
0.0
  3
*D12
  1

  0
LINE
  5
2970
330
296D
100
AcDbEntity
  8
DIM
 62
     0
 48
0.05
370
    -2
100
AcDbLine
 10
716.1288795737711
 20
480.6101126943478
 30
0.0
 11
688.4123376847776
 21
480.6101126943478
 31
0.0
  0
LINE
  5
2971
330
296D
100
AcDbEntity
  8
DIM
 62
     0
 48
0.05
370
    -2
100
AcDbLine
 10
715.2693337286711
 20
521.4823900435327
 30
0.0
 11
688.4123376847776
 21
521.4823900435327
 31
0.0
  0
LINE
  5
2972
330
296D
100
AcDbEntity
  8
DIM
 62
     0
 48
0.05
370
    -2
100
AcDbLine
 10
688.4123376847776
 20
521.4823900435327
 30
0.0
 11
688.4123376847776
 21
614.3523412752446
 31
0.0
  0
LINE
  5
2973
330
296D
100
AcDbEntity
  8
DIM
 62
     0
 48
0.05
370
    -2
100
AcDbLine
 10
688.4123376847776
 20
483.6101126943478
 30
0.0
 11
688.4123376847776
 21
518.4823900435327
 31
0.0
  0
LINE
  5
2974
330
296D
100
AcDbEntity
  8
DIM
 62
     0
 48
0.05
370
    -2
100
AcDbLine
 10
688.4123376847776
 20
518.4823900435327
 30
0.0
 11
688.4123376847776
 21
515.4823900435327
 31
0.0
  0
INSERT
  5
2975
330
296D
100
AcDbEntity
  8
DIM
 62
     0
370
    -2
100
AcDbBlockReference
  2
_DOT
 10
688.4123376847776
 20
480.6101126943478
 30
0.0
 41
3.0
 42
3.0
 43
3.0
 50
270.0
  0
INSERT
  5
2976
330
296D
100
AcDbEntity
  8
DIM
 62
     0
370
    -2
100
AcDbBlockReference
  2
_DOT
 10
688.4123376847776
 20
521.4823900435327
 30
0.0
 41
3.0
 42
3.0
 43
3.0
 50
90.0
  0
MTEXT
  5
2977
330
296D
100
AcDbEntity
  8
DIM
 62
     0
 48
0.05
100
AcDbMText
 10
671.5577672208536
 20
570.9173656593887
 30
0.0
 40
12.0
 41
0.0
 46
0.0
 71
     5
 72
     1
  1
\A1;40（深さ）
  7
ＭＳ ゴシック
 11
0.0
 21
1.0
 31
0.0
 73
     1
 44
1.0
  0
POINT
  5
2978
330
296D
100
AcDbEntity
  8
Defpoints
 62
     0
100
AcDbPoint
 10
726.1288795737711
 20
480.6101126943478
 30
0.0
  0
POINT
  5
2979
330
296D
100
AcDbEntity
  8
Defpoints
 62
     0
100
AcDbPoint
 10
725.2693337286711
 20
521.4823900435327
 30
0.0
  0
POINT
  5
297A
330
296D
100
AcDbEntity
  8
Defpoints
 62
     0
100
AcDbPoint
 10
688.4123376847776
 20
521.4823900435327
 30
0.0
  0
ENDBLK
  5
296F
330
296D
100
AcDbEntity
  8
0
100
AcDbBlockEnd
  0
BLOCK
  5
297F
330
297E
100
AcDbEntity
  8
0
100
AcDbBlockBegin
  2
*D13
 70
     1
 10
0.0
 20
0.0
 30
0.0
  3
*D13
  1

  0
LINE
  5
2981
330
297E
100
AcDbEntity
  8
DIM
 62
     0
 48
0.05
370
    -2
100
AcDbLine
 10
730.9050517382805
 20
467.8347479571214
 30
0.0
 11
738.5053464881565
 21
467.8347479571214
 31
0.0
  0
LINE
  5
2982
330
297E
100
AcDbEntity
  8
DIM
 62
     0
 48
0.05
370
    -2
100
AcDbLine
 10
742.0398953283527
 20
521.4823900435327
 30
0.0
 11
738.5053464881565
 21
521.4823900435327
 31
0.0
  0
LINE
  5
2983
330
297E
100
AcDbEntity
  8
DIM
 62
     0
 48
0.05
370
    -2
100
AcDbLine
 10
738.5053464881565
 20
521.4823900435327
 30
0.0
 11
738.5053464881565
 21
613.3750998096951
 31
0.0
  0
LINE
  5
2984
330
297E
100
AcDbEntity
  8
DIM
 62
     0
 48
0.05
370
    -2
100
AcDbLine
 10
738.5053464881565
 20
470.8347479571214
 30
0.0
 11
738.5053464881565
 21
518.4823900435327
 31
0.0
  0
LINE
  5
2985
330
297E
100
AcDbEntity
  8
DIM
 62
     0
 48
0.05
370
    -2
100
AcDbLine
 10
738.5053464881565
 20
518.4823900435327
 30
0.0
 11
738.5053464881565
 21
515.4823900435327
 31
0.0
  0
INSERT
  5
2986
330
297E
100
AcDbEntity
  8
DIM
 62
     0
370
    -2
100
AcDbBlockReference
  2
_DOT
 10
738.5053464881565
 20
467.8347479571214
 30
0.0
 41
3.0
 42
3.0
 43
3.0
 50
270.0
  0
INSERT
  5
2987
330
297E
100
AcDbEntity
  8
DIM
 62
     0
370
    -2
100
AcDbBlockReference
  2
_DOT
 10
738.5053464881565
 20
521.4823900435327
 30
0.0
 41
3.0
 42
3.0
 43
3.0
 50
90.0
  0
MTEXT
  5
2988
330
297E
100
AcDbEntity
  8
DIM
 62
     0
 48
0.05
100
AcDbMText
 10
721.5007197531309
 20
570.428744926614
 30
0.0
 40
12.0
 41
0.0
 46
0.0
 71
     5
 72
     1
  1
\A1;55 (深さ)
  7
ＭＳ ゴシック
 11
0.0
 21
1.0
 31
0.0
 73
     1
 44
1.0
  0
POINT
  5
2989
330
297E
100
AcDbEntity
  8
Defpoints
 62
     0
100
AcDbPoint
 10
720.9050517382805
 20
467.8347479571214
 30
0.0
  0
POINT
  5
298A
330
297E
100
AcDbEntity
  8
Defpoints
 62
     0
100
AcDbPoint
 10
732.0398953283527
 20
521.4823900435327
 30
0.0
  0
POINT
  5
298B
330
297E
100
AcDbEntity
  8
Defpoints
 62
     0
100
AcDbPoint
 10
738.5053464881565
 20
521.4823900435327
 30
0.0
  0
ENDBLK
  5
2980
330
297E
100
AcDbEntity
  8
0
100
AcDbBlockEnd
  0
BLOCK
  5
2990
330
298F
100
AcDbEntity
  8
0
100
AcDbBlockBegin
  2
*D14
 70
     1
 10
0.0
 20
0.0
 30
0.0
  3
*D14
  1

  0
LINE
  5
2992
330
298F
100
AcDbEntity
  8
DIM
 62
     0
 48
0.05
370
    -2
100
AcDbLine
 10
295.2296694026074
 20
430.5386935800299
 30
0.0
 11
295.2296694026074
 21
415.1687320080562
 31
0.0
  0
LINE
  5
2993
330
298F
100
AcDbEntity
  8
DIM
 62
     0
 48
0.05
370
    -2
100
AcDbLine
 10
337.5065166539474
 20
430.5386935800299
 30
0.0
 11
337.5065166539474
 21
415.1687320080562
 31
0.0
  0
LINE
  5
2994
330
298F
100
AcDbEntity
  8
DIM
 62
     0
 48
0.05
370
    -2
100
AcDbLine
 10
295.2296694026074
 20
415.1687320080562
 30
0.0
 11
225.2468864886036
 21
415.1687320080562
 31
0.0
  0
LINE
  5
2995
330
298F
100
AcDbEntity
  8
DIM
 62
     0
 48
0.05
370
    -2
100
AcDbLine
 10
298.2296694026074
 20
415.1687320080562
 30
0.0
 11
334.5065166539474
 21
415.1687320080562
 31
0.0
  0
LINE
  5
2996
330
298F
100
AcDbEntity
  8
DIM
 62
     0
 48
0.05
370
    -2
100
AcDbLine
 10
298.2296694026074
 20
415.1687320080562
 30
0.0
 11
301.2296694026074
 21
415.1687320080562
 31
0.0
  0
INSERT
  5
2997
330
298F
100
AcDbEntity
  8
DIM
 62
     0
370
    -2
100
AcDbBlockReference
  2
_DOT
 10
295.2296694026074
 20
415.1687320080562
 30
0.0
 41
3.0
 42
3.0
 43
3.0
 50
180.0
  0
INSERT
  5
2998
330
298F
100
AcDbEntity
  8
DIM
 62
     0
370
    -2
100
AcDbBlockReference
  2
_DOT
 10
337.5065166539474
 20
415.1687320080562
 30
0.0
 41
3.0
 42
3.0
 43
3.0
  0
MTEXT
  5
2999
330
298F
100
AcDbEntity
  8
DIM
 62
     0
 48
0.05
100
AcDbMText
 10
256.8216645303693
 20
427.4494622819089
 30
0.0
 40
12.0
 41
0.0
 46
0.0
 71
     5
 72
     1
  1
\A1;G1 1/4"
  7
ＭＳ ゴシック
 73
     1
 44
1.0
  0
POINT
  5
299A
330
298F
100
AcDbEntity
  8
Defpoints
 62
     0
100
AcDbPoint
 10
295.2296694026074
 20
440.5386935800299
 30
0.0
  0
POINT
  5
299B
330
298F
100
AcDbEntity
  8
Defpoints
 62
     0
100
AcDbPoint
 10
337.5065166539474
 20
440.5386935800299
 30
0.0
  0
POINT
  5
299C
330
298F
100
AcDbEntity
  8
Defpoints
 62
     0
100
AcDbPoint
 10
337.5065166539474
 20
415.1687320080562
 30
0.0
  0
ENDBLK
  5
2991
330
298F
100
AcDbEntity
  8
0
100
AcDbBlockEnd
  0
BLOCK
  5
29A1
330
29A0
100
AcDbEntity
  8
0
100
AcDbBlockBegin
  2
*D15
 70
     1
 10
0.0
 20
0.0
 30
0.0
  3
*D15
  1

  0
LINE
  5
29A3
330
29A0
100
AcDbEntity
  8
DIM
 62
     0
 48
0.05
370
    -2
100
AcDbLine
 10
837.0026636791018
 20
440.8417878085693
 30
0.0
 11
837.0026636791018
 21
395.7365563993206
 31
0.0
  0
LINE
  5
29A4
330
29A0
100
AcDbEntity
  8
DIM
 62
     0
 48
0.05
370
    -2
100
AcDbLine
 10
726.2150646487154
 20
427.7993341210296
 30
0.0
 11
726.2150646487154
 21
395.7365563993206
 31
0.0
  0
LINE
  5
29A5
330
29A0
100
AcDbEntity
  8
DIM
 62
     0
 48
0.05
370
    -2
100
AcDbLine
 10
834.0026636791018
 20
395.7365563993206
 30
0.0
 11
729.2150646487154
 21
395.7365563993206
 31
0.0
  0
INSERT
  5
29A6
330
29A0
100
AcDbEntity
  8
DIM
 62
     0
370
    -2
100
AcDbBlockReference
  2
_DOT
 10
837.0026636791018
 20
395.7365563993206
 30
0.0
 41
3.0
 42
3.0
 43
3.0
  0
INSERT
  5
29A7
330
29A0
100
AcDbEntity
  8
DIM
 62
     0
370
    -2
100
AcDbBlockReference
  2
_DOT
 10
726.2150646487154
 20
395.7365563993206
 30
0.0
 41
3.0
 42
3.0
 43
3.0
 50
180.0
  0
MTEXT
  5
29A8
330
29A0
100
AcDbEntity
  8
DIM
 62
     0
 48
0.05
100
AcDbMText
 10
781.6088641639087
 20
411.7388072433871
 30
0.0
 40
12.0
 41
0.0
 46
0.0
 71
     5
 72
     1
  1
\A1;110
  7
ＭＳ ゴシック
 73
     1
 44
1.0
  0
POINT
  5
29A9
330
29A0
100
AcDbEntity
  8
Defpoints
 62
     0
100
AcDbPoint
 10
837.0026636791018
 20
450.8417878085693
 30
0.0
  0
POINT
  5
29AA
330
29A0
100
AcDbEntity
  8
Defpoints
 62
     0
100
AcDbPoint
 10
726.2150646487154
 20
437.7993341210296
 30
0.0
  0
POINT
  5
29AB
330
29A0
100
AcDbEntity
  8
Defpoints
 62
     0
100
AcDbPoint
 10
726.2150646487154
 20
395.7365563993206
 30
0.0
  0
ENDBLK
  5
29A2
330
29A0
100
AcDbEntity
  8
0
100
AcDbBlockEnd
  0
BLOCK
  5
29EB
330
29EA
100
AcDbEntity
  8
0
100
AcDbBlockBegin
  2
*D17
 70
     1
 10
0.0
 20
0.0
 30
0.0
  3
*D17
  1

  0
LINE
  5
29ED
330
29EA
100
AcDbEntity
  8
DIM
 62
     0
 48
0.05
370
    -2
100
AcDbLine
 10
606.9018933619928
 20
521.4823900435327
 30
0.0
 11
590.8948738923011
 21
521.4823900435327
 31
0.0
  0
LINE
  5
29EE
330
29EA
100
AcDbEntity
  8
DIM
 62
     0
 48
0.05
370
    -2
100
AcDbLine
 10
606.9018933619928
 20
450.8417878085693
 30
0.0
 11
590.8948738923011
 21
450.8417878085693
 31
0.0
  0
LINE
  5
29EF
330
29EA
100
AcDbEntity
  8
DIM
 62
     0
 48
0.05
370
    -2
100
AcDbLine
 10
590.8948738923011
 20
518.4823900435327
 30
0.0
 11
590.8948738923011
 21
453.8417878085693
 31
0.0
  0
INSERT
  5
29F0
330
29EA
100
AcDbEntity
  8
DIM
 62
     0
370
    -2
100
AcDbBlockReference
  2
_DOT
 10
590.8948738923011
 20
521.4823900435327
 30
0.0
 41
3.0
 42
3.0
 43
3.0
 50
90.0
  0
INSERT
  5
29F1
330
29EA
100
AcDbEntity
  8
DIM
 62
     0
370
    -2
100
AcDbBlockReference
  2
_DOT
 10
590.8948738923011
 20
450.8417878085693
 30
0.0
 41
3.0
 42
3.0
 43
3.0
 50
270.0
  0
MTEXT
  5
29F2
330
29EA
100
AcDbEntity
  8
DIM
 62
     0
 48
0.05
100
AcDbMText
 10
574.8926230482346
 20
486.1620889260511
 30
0.0
 40
12.0
 41
0.0
 46
0.0
 71
     5
 72
     1
  1
\A1;70
  7
ＭＳ ゴシック
 11
0.0
 21
1.0
 31
0.0
 73
     1
 44
1.0
  0
POINT
  5
29F3
330
29EA
100
AcDbEntity
  8
Defpoints
 62
     0
100
AcDbPoint
 10
616.9018933619928
 20
521.4823900435327
 30
0.0
  0
POINT
  5
29F4
330
29EA
100
AcDbEntity
  8
Defpoints
 62
     0
100
AcDbPoint
 10
616.9018933619928
 20
450.8417878085693
 30
0.0
  0
POINT
  5
29F5
330
29EA
100
AcDbEntity
  8
Defpoints
 62
     0
100
AcDbPoint
 10
590.8948738923011
 20
450.8417878085693
 30
0.0
  0
ENDBLK
  5
29EC
330
29EA
100
AcDbEntity
  8
0
100
AcDbBlockEnd
  0
BLOCK
  5
29FB
330
29FA
100
AcDbEntity
  8
0
100
AcDbBlockBegin
  2
*D18
 70
     1
 10
0.0
 20
0.0
 30
0.0
  3
*D18
  1

  0
LINE
  5
29FD
330
29FA
100
AcDbEntity
  8
DIM
 62
     0
 48
0.05
370
    -2
100
AcDbLine
 10
696.4998972741379
 20
438.7632810361761
 30
0.0
 11
590.8948738923011
 21
438.7632810361761
 31
0.0
  0
LINE
  5
29FE
330
29FA
100
AcDbEntity
  8
DIM
 62
     0
 48
0.05
370
    -2
100
AcDbLine
 10
606.9018933619928
 20
450.8417878085693
 30
0.0
 11
590.8948738923011
 21
450.8417878085693
 31
0.0
  0
LINE
  5
29FF
330
29FA
100
AcDbEntity
  8
DIM
 62
     0
 48
0.05
370
    -2
100
AcDbLine
 10
590.8948738923011
 20
441.7632810361761
 30
0.0
 11
590.8948738923011
 21
447.8417878085693
 31
0.0
  0
INSERT
  5
2A00
330
29FA
100
AcDbEntity
  8
DIM
 62
     0
370
    -2
100
AcDbBlockReference
  2
_DOT
 10
590.8948738923011
 20
438.7632810361761
 30
0.0
 41
3.0
 42
3.0
 43
3.0
 50
270.0
  0
INSERT
  5
2A01
330
29FA
100
AcDbEntity
  8
DIM
 62
     0
370
    -2
100
AcDbBlockReference
  2
_DOT
 10
590.8948738923011
 20
450.8417878085693
 30
0.0
 41
3.0
 42
3.0
 43
3.0
 50
90.0
  0
MTEXT
  5
2A02
330
29FA
100
AcDbEntity
  8
DIM
 62
     0
 48
0.05
100
AcDbMText
 10
574.8926230482346
 20
444.8025344223727
 30
0.0
 40
12.0
 41
0.0
 46
0.0
 71
     5
 72
     1
  1
\A1;12
  7
ＭＳ ゴシック
 11
0.0
 21
1.0
 31
0.0
 73
     1
 44
1.0
  0
POINT
  5
2A03
330
29FA
100
AcDbEntity
  8
Defpoints
 62
     0
100
AcDbPoint
 10
706.4998972741379
 20
438.7632810361761
 30
0.0
  0
POINT
  5
2A04
330
29FA
100
AcDbEntity
  8
Defpoints
 62
     0
100
AcDbPoint
 10
616.9018933619928
 20
450.8417878085693
 30
0.0
  0
POINT
  5
2A05
330
29FA
100
AcDbEntity
  8
Defpoints
 62
     0
100
AcDbPoint
 10
590.8948738923011
 20
450.8417878085693
 30
0.0
  0
ENDBLK
  5
29FC
330
29FA
100
AcDbEntity
  8
0
100
AcDbBlockEnd
  0
BLOCK
  5
2A0B
330
2A0A
100
AcDbEntity
  8
0
100
AcDbBlockBegin
  2
*D19
 70
     1
 10
0.0
 20
0.0
 30
0.0
  3
*D19
  1

  0
LINE
  5
2A0D
330
2A0A
100
AcDbEntity
  8
DIM
 62
     0
 48
0.05
370
    -2
100
AcDbLine
 10
436.1792722730518
 20
521.4823900435327
 30
0.0
 11
465.1476053068222
 21
521.4823900435327
 31
0.0
  0
LINE
  5
2A0E
330
2A0A
100
AcDbEntity
  8
DIM
 62
     0
 48
0.05
370
    -2
100
AcDbLine
 10
345.731350929532
 20
438.7632810361762
 30
0.0
 11
465.1476053068222
 21
438.7632810361762
 31
0.0
  0
LINE
  5
2A0F
330
2A0A
100
AcDbEntity
  8
DIM
 62
     0
 48
0.05
370
    -2
100
AcDbLine
 10
465.1476053068222
 20
518.4823900435327
 30
0.0
 11
465.1476053068222
 21
441.7632810361762
 31
0.0
  0
INSERT
  5
2A10
330
2A0A
100
AcDbEntity
  8
DIM
 62
     0
370
    -2
100
AcDbBlockReference
  2
_DOT
 10
465.1476053068222
 20
521.4823900435327
 30
0.0
 41
3.0
 42
3.0
 43
3.0
 50
90.0
  0
INSERT
  5
2A11
330
2A0A
100
AcDbEntity
  8
DIM
 62
     0
370
    -2
100
AcDbBlockReference
  2
_DOT
 10
465.1476053068222
 20
438.7632810361762
 30
0.0
 41
3.0
 42
3.0
 43
3.0
 50
270.0
  0
MTEXT
  5
2A12
330
2A0A
100
AcDbEntity
  8
DIM
 62
     0
 48
0.05
100
AcDbMText
 10
449.1453544627557
 20
480.1228355398545
 30
0.0
 40
12.0
 41
0.0
 46
0.0
 71
     5
 72
     1
  1
\A1;82
  7
ＭＳ ゴシック
 11
0.0
 21
1.0
 31
0.0
 73
     1
 44
1.0
  0
POINT
  5
2A13
330
2A0A
100
AcDbEntity
  8
Defpoints
 62
     0
100
AcDbPoint
 10
426.1792722730518
 20
521.4823900435327
 30
0.0
  0
POINT
  5
2A14
330
2A0A
100
AcDbEntity
  8
Defpoints
 62
     0
100
AcDbPoint
 10
335.731350929532
 20
438.7632810361762
 30
0.0
  0
POINT
  5
2A15
330
2A0A
100
AcDbEntity
  8
Defpoints
 62
     0
100
AcDbPoint
 10
465.1476053068222
 20
438.7632810361762
 30
0.0
  0
ENDBLK
  5
2A0C
330
2A0A
100
AcDbEntity
  8
0
100
AcDbBlockEnd
  0
ENDSEC
  0
SECTION
  2
ENTITIES
  0
MTEXT
  5
177
330
A
100
AcDbEntity
  8
TEMPLATE
390
1D
100
AcDbMText
 10
39.60107227386538
 20
171.8658758157141
 30
0.0
 40
8.144205729166663
 41
0.0
 46
0.0
 71
     1
 72
     1
  1
品名
  7
ＭＳ ゴシック
 73
     1
 44
0.7828267384257843
  0
MTEXT
  5
178
330
A
100
AcDbEntity
  8
TEMPLATE
390
1D
100
AcDbMText
 10
39.60107227386538
 20
129.365875815714
 30
0.0
 40
8.144205729166663
 41
0.0
 46
0.0
 71
     1
 72
     1
  1
仕様
  7
ＭＳ ゴシック
 73
     1
 44
0.7828267384257843
  0
LINE
  5
179
330
A
100
AcDbEntity
  8
TEMPLATE
390
1D
100
AcDbLine
 10
1011.101072273624
 20
133.5733367532142
 30
0.0
 11
36.10107227362437
 21
133.5733367532142
 31
0.0
  0
LWPOLYLINE
  5
17A
330
A
100
AcDbEntity
  8
TEMPLATE
390
1D
100
AcDbPolyline
 90
        5
 70
   128
 43
0.0
 10
1011.101072273624
 20
1448.573336753213
 10
36.10107227362437
 20
1448.573336753213
 10
36.10107227362437
 20
48.57333675321413
 10
1011.101072273624
 20
48.57333675321413
 10
1011.101072273624
 20
1448.573336753213
  0
LINE
  5
17B
330
A
100
AcDbEntity
  8
TEMPLATE
390
1D
100
AcDbLine
 10
1011.101072273624
 20
176.0733367532141
 30
0.0
 11
36.10107227362437
 21
176.0733367532141
 31
0.0
  0
LINE
  5
17C
330
A
100
AcDbEntity
  8
TEMPLATE
390
1D
100
AcDbLine
 10
1011.101072273866
 20
91.07333675321412
 30
0.0
 11
634.601072273865
 21
91.07333675321412
 31
0.0
  0
MTEXT
  5
17E
330
A
100
AcDbEntity
  8
TEMPLATE
390
1D
100
AcDbMText
 10
649.5367753999956
 20
76.11813951656006
 30
0.0
 40
12.21630859375
 41
0.0
 46
0.0
 71
     1
 72
     1
  1
大洋金物株式会社 ティーフォルム事業部
  7
ＭＳ ゴシック
 73
     1
 44
0.7828267384257843
  0
MTEXT
  5
180
330
A
100
AcDbEntity
  8
TEMPLATE
390
1D
100
AcDbMText
 10
915.601072273995
 20
115.0746453469641
 30
0.0
 40
12.21630859375
 41
0.0
 46
12.21630859375
 71
     1
 72
     1
  1
{1:5}
  7
ＭＳ ゴシック
 73
     1
 44
0.7828267384257843
1001
ACAD
1000
ACAD_MTEXT_DEFINED_HEIGHT_BEGIN
1070
    46
1040
12.21630859375
1000
ACAD_MTEXT_DEFINED_HEIGHT_END
  0
MTEXT
  5
181
330
A
100
AcDbEntity
  8
TEMPLATE
390
1D
100
AcDbMText
 10
889.101072273995
 20
129.365875815714
 30
0.0
 40
8.144205729166663
 41
0.0
 46
0.0
 71
     1
 72
     1
  1
縮尺
  7
ＭＳ ゴシック
 73
     1
 44
0.7828267384257843
  0
LINE
  5
182
330
A
100
AcDbEntity
  8
TEMPLATE
390
1D
100
AcDbLine
 10
885.601072273995
 20
91.07333675321412
 30
0.0
 11
885.601072273995
 21
133.5733367532142
 31
0.0
  0
MTEXT
  5
183
330
A
100
AcDbEntity
  8
TEMPLATE
390
1D
100
AcDbMText
 10
763.601072273995
 20
129.365875815714
 30
0.0
 40
8.144205729166663
 41
0.0
 46
0.0
 71
     1
 72
     1
  1
容量
  7
ＭＳ ゴシック
 73
     1
 44
0.7828267384257843
  0
LINE
  5
184
330
A
100
AcDbEntity
  8
TEMPLATE
390
1D
100
AcDbLine
 10
760.101072273995
 20
91.07333675321412
 30
0.0
 11
760.101072273995
 21
133.5733367532142
 31
0.0
  0
MTEXT
  5
185
330
A
100
AcDbEntity
  8
TEMPLATE
390
1D
100
AcDbMText
 10
638.101072273995
 20
171.8658758157141
 30
0.0
 40
8.144205729166663
 41
0.0
 46
0.0
 71
     1
 72
     1
  1
品番
  7
ＭＳ ゴシック
 73
     1
 44
0.7828267384257843
  0
MTEXT
  5
186
330
A
100
AcDbEntity
  8
TEMPLATE
390
1D
100
AcDbMText
 10
638.101072273995
 20
129.365875815714
 30
0.0
 40
8.144205729166663
 41
0.0
 46
0.0
 71
     1
 72
     1
  1
重量
  7
ＭＳ ゴシック
 73
     1
 44
0.7828267384257843
  0
MTEXT
  5
187
330
A
100
AcDbEntity
  8
TEMPLATE
390
1D
100
AcDbMText
 10
664.601072273995
 20
157.5746453469641
 30
0.0
 40
12.21630859375
 41
0.0
 46
12.21630859375
 71
     1
 72
     1
  1
{BRS70-0601}
  7
ＭＳ ゴシック
 73
     1
 44
0.7828267384257843
1001
ACAD
1000
ACAD_MTEXT_DEFINED_HEIGHT_BEGIN
1070
    46
1040
12.21630859375
1000
ACAD_MTEXT_DEFINED_HEIGHT_END
  0
LINE
  5
188
330
A
100
AcDbEntity
  8
TEMPLATE
390
1D
100
AcDbLine
 10
634.601072273995
 20
48.57333675321413
 30
0.0
 11
634.601072273995
 21
176.0733367532141
 31
0.0
  0
MTEXT
  5
189
330
A
100
AcDbEntity
  8
TEMPLATE
390
1D
100
AcDbMText
 10
66.10107227386537
 20
157.5746453469641
 30
0.0
 40
12.21630859375
 41
0.0
 46
13.76836180511051
 71
     1
 72
     1
  1
{手洗器　-CLOU, VALE-}
  7
ＭＳ ゴシック
 73
     1
 44
0.7828267384257843
1001
ACAD
1000
ACAD_MTEXT_DEFINED_HEIGHT_BEGIN
1070
    46
1040
13.76836180511051
1000
ACAD_MTEXT_DEFINED_HEIGHT_END
  0
INSERT
  5
6B5
330
A
100
AcDbEntity
  8
TEMPLATE
100
AcDbBlockReference
  2
名称未設定-1
 10
935.3753740442249
 20
12.97338287832691
 30
0.0
 41
0.3809999999999999
 42
0.3809999999999999
 43
0.3809999999999999
  0
MTEXT
  5
7D9
330
A
100
AcDbEntity
  8
TEMPLATE
390
1D
100
AcDbMText
 10
62.62717263801819
 20
113.4059880146976
 30
0.0
 40
12.21630859375
 41
0.0
 46
32.0637758460493
 71
     1
 72
     1
  1
{\fＭＳ ゴシック|b0|i0|c1|p0;\H0.982293x;カウンター置き\fＭＳ ゴシック|b0|i0|c0|p0;\H1.01803x;/オーバーフローなし\P陶器/ホワイト}
  7
ＭＳ ゴシック
 73
     1
 44
0.8840641112754306
1001
ACAD
1000
ACAD_MTEXT_DEFINED_HEIGHT_BEGIN
1070
    46
1040
32.0637758460493
1000
ACAD_MTEXT_DEFINED_HEIGHT_END
  0
INSERT
  5
68C
330
A
100
AcDbEntity
  8
TEMPLATE
100
AcDbBlockReference
  2
block 2
 10
919.2743017702577
 20
8.373076514336368
 30
0.0
 41
0.3809999999999999
 42
0.3809999999999999
 43
0.3809999999999999
  0
MTEXT
  5
D60
330
A
100
AcDbEntity
  8
TEMPLATE
390
1D
100
AcDbMText
 10
664.601072273865
 20
115.0746453469641
 30
0.0
 40
12.21630859375
 41
0.0
 46
14.20067583937727
 71
     1
 72
     1
  1
{2kg}
  7
ＭＳ ゴシック
 73
     1
 44
0.7828267384257843
1001
ACAD
1000
ACAD_MTEXT_DEFINED_HEIGHT_BEGIN
1070
    46
1040
14.20067583937727
1000
ACAD_MTEXT_DEFINED_HEIGHT_END
  0
LWPOLYLINE
  5
D69
330
A
100
AcDbEntity
  8
BORDER
 48
0.05
100
AcDbPolyline
 90
        4
 70
     1
 43
0.0
 10
0.0
 20
0.0
 10
0.0
 20
1485.0
 10
1050.0
 20
1485.0
 10
1050.0
 20
0.0
  0
INSERT
  5
104A
330
A
100
AcDbEntity
  8
TEMPLATE
100
AcDbBlockReference
  2
block 2
 10
2109.991575822736
 20
17.8112689341617
 30
0.0
 41
0.3809999999999999
 42
0.3809999999999999
 43
0.3809999999999999
  0
MTEXT
  5
12B8
102
{ACAD_XDICTIONARY
360
12BA
102
}
330
A
100
AcDbEntity
  8
TEMPLATE
 48
0.05
100
AcDbMText
 10
36.10107227396725
 20
42.78748475256335
 30
0.0
 40
11.0
 41
0.0
 46
11.0
 71
     1
 72
     1
  1
{20211005N}
  7
ＭＳ ゴシック
 73
     1
 44
1.0
1001
ACAD
1000
ACAD_MTEXT_DEFINED_HEIGHT_BEGIN
1070
    46
1040
11.0
1000
ACAD_MTEXT_DEFINED_HEIGHT_END
  0
LINE
  5
1D88
330
A
100
AcDbEntity
  8
MODEL
100
AcDbLine
 10
837.0026636791018
 20
521.4823900435327
 30
0.0
 11
837.0026636791018
 21
450.8417878085693
 31
0.0
  0
LINE
  5
1D89
102
{ACAD_REACTORS
330
296C
330
297D
102
}
330
A
100
AcDbEntity
  8
MODEL
100
AcDbLine
 10
837.0026636791018
 20
521.4823900435327
 30
0.0
 11
616.9018933619928
 21
521.4823900435327
 31
0.0
  0
LINE
  5
1D8A
330
A
100
AcDbEntity
  8
MODEL
100
AcDbLine
 10
616.9018933619928
 20
521.4823900435327
 30
0.0
 11
616.9018933619928
 21
450.8417878085693
 31
0.0
  0
LINE
  5
1D8B
102
{ACAD_REACTORS
330
299F
330
29E9
330
29F9
102
}
330
A
100
AcDbEntity
  8
MODEL
100
AcDbLine
 10
837.0026636791018
 20
450.8417878085693
 30
0.0
 11
616.9018933619928
 21
450.8417878085693
 31
0.0
  0
LINE
  5
1FB8
330
A
100
AcDbEntity
  8
MODEL
100
AcDbLine
 10
426.1792722730518
 20
521.4823900435327
 30
0.0
 11
206.3085498098337
 21
521.4823900435327
 31
0.0
  0
LINE
  5
1FBA
330
A
100
AcDbEntity
  8
MODEL
100
AcDbLine
 10
426.1792722730518
 20
521.4823900435327
 30
0.0
 11
426.1792722730518
 21
450.8417878085694
 31
0.0
  0
LINE
  5
1FBB
330
A
100
AcDbEntity
  8
MODEL
100
AcDbLine
 10
426.1792722730518
 20
450.8417878085694
 30
0.0
 11
206.3085498098337
 21
450.8417878085694
 31
0.0
  0
LINE
  5
1FBC
330
A
100
AcDbEntity
  8
MODEL
100
AcDbLine
 10
206.3085498098337
 20
521.4823900435327
 30
0.0
 11
206.3085498098337
 21
450.8417878085694
 31
0.0
  0
LINE
  5
1FBD
330
A
100
AcDbEntity
  8
MODEL
100
AcDbLine
 10
206.4835718081815
 20
521.4823900435327
 30
0.0
 11
206.4835718081815
 21
521.4823900435327
 31
0.0
  0
LINE
  5
228A
330
A
100
AcDbEntity
  8
MODEL
100
AcDbLine
 10
295.2296694026074
 20
449.7757447277191
 30
0.0
 11
295.2296694026074
 21
449.7757447277191
 31
0.0
  0
LINE
  5
228B
330
A
100
AcDbEntity
  8
MODEL
100
AcDbLine
 10
295.2296694026074
 20
449.7757447277191
 30
0.0
 11
295.5830282098798
 21
449.7757447277191
 31
0.0
  0
LINE
  5
228C
330
A
100
AcDbEntity
  8
MODEL
100
AcDbLine
 10
295.5830282098798
 20
449.7757447277191
 30
0.0
 11
296.2957124834577
 21
449.7757447277191
 31
0.0
  0
LINE
  5
228D
330
A
100
AcDbEntity
  8
MODEL
100
AcDbLine
 10
296.2957124834577
 20
449.7757447277191
 30
0.0
 11
297.1820928311547
 21
449.7757447277191
 31
0.0
  0
LINE
  5
228E
330
A
100
AcDbEntity
  8
MODEL
100
AcDbLine
 10
297.1820928311547
 20
449.7757447277191
 30
0.0
 11
298.4271356830425
 21
449.7757447277191
 31
0.0
  0
LINE
  5
228F
330
A
100
AcDbEntity
  8
MODEL
100
AcDbLine
 10
298.4271356830425
 20
449.7757447277191
 30
0.0
 11
300.0242114179739
 21
449.7757447277191
 31
0.0
  0
LINE
  5
2290
330
A
100
AcDbEntity
  8
MODEL
100
AcDbLine
 10
300.0242114179739
 20
449.7757447277191
 30
0.0
 11
301.8009498860567
 21
449.7757447277191
 31
0.0
  0
LINE
  5
2291
330
A
100
AcDbEntity
  8
MODEL
100
AcDbLine
 10
301.8009498860567
 20
449.7757447277191
 30
0.0
 11
303.9330360477563
 21
449.7757447277191
 31
0.0
  0
LINE
  5
2292
330
A
100
AcDbEntity
  8
MODEL
100
AcDbLine
 10
303.9330360477563
 20
449.7757447277191
 30
0.0
 11
306.2394812456907
 21
449.7757447277191
 31
0.0
  0
LINE
  5
2293
330
A
100
AcDbEntity
  8
MODEL
100
AcDbLine
 10
306.2394812456907
 20
449.7757447277191
 30
0.0
 11
308.5532190268889
 21
449.7757447277191
 31
0.0
  0
LINE
  5
2294
330
A
100
AcDbEntity
  8
MODEL
100
AcDbLine
 10
308.5532190268889
 20
449.7757447277191
 30
0.0
 11
311.038001033746
 21
449.7757447277191
 31
0.0
  0
LINE
  5
2295
330
A
100
AcDbEntity
  8
MODEL
100
AcDbLine
 10
311.038001033746
 20
449.7757447277191
 30
0.0
 11
313.7017828116416
 21
449.7757447277191
 31
0.0
  0
LINE
  5
2296
330
A
100
AcDbEntity
  8
MODEL
100
AcDbLine
 10
313.7017828116416
 20
449.7757447277191
 30
0.0
 11
316.3668905137667
 21
449.7757447277191
 31
0.0
  0
LINE
  5
2297
330
A
100
AcDbEntity
  8
MODEL
100
AcDbLine
 10
316.3675534758816
 20
449.7757447277191
 30
0.0
 11
319.0326611780067
 21
449.7757447277191
 31
0.0
  0
LINE
  5
2298
330
A
100
AcDbEntity
  8
MODEL
100
AcDbLine
 10
319.0326611780067
 20
449.7757447277191
 30
0.0
 11
321.520095033324
 21
449.7757447277191
 31
0.0
  0
LINE
  5
2299
330
A
100
AcDbEntity
  8
MODEL
100
AcDbLine
 10
321.520095033324
 20
449.7757447277191
 30
0.0
 11
324.0048770401811
 21
449.7757447277191
 31
0.0
  0
LINE
  5
229A
330
A
100
AcDbEntity
  8
MODEL
100
AcDbLine
 10
324.0048770401811
 20
449.7757447277191
 30
0.0
 11
326.4923108954974
 21
449.7757447277191
 31
0.0
  0
LINE
  5
229B
330
A
100
AcDbEntity
  8
MODEL
100
AcDbLine
 10
326.4923108954974
 20
449.7757447277191
 30
0.0
 11
328.8020709040059
 21
449.7757447277191
 31
0.0
  0
LINE
  5
229C
330
A
100
AcDbEntity
  8
MODEL
100
AcDbLine
 10
328.8020709040059
 20
449.7757447277191
 30
0.0
 11
330.7571461810132
 21
449.7757447277191
 31
0.0
  0
LINE
  5
229D
330
A
100
AcDbEntity
  8
MODEL
100
AcDbLine
 10
330.7571461810132
 20
449.7757447277191
 30
0.0
 11
332.5325587248665
 21
449.7757447277191
 31
0.0
  0
LINE
  5
229E
330
A
100
AcDbEntity
  8
MODEL
100
AcDbLine
 10
332.5325587248665
 20
449.7757447277191
 30
0.0
 11
334.1322863082562
 21
449.7757447277191
 31
0.0
  0
LINE
  5
229F
330
A
100
AcDbEntity
  8
MODEL
100
AcDbLine
 10
334.1322863082562
 20
449.7757447277191
 30
0.0
 11
335.3760032359153
 21
449.7757447277191
 31
0.0
  0
LINE
  5
22A0
330
A
100
AcDbEntity
  8
MODEL
100
AcDbLine
 10
335.3760032359153
 20
449.7757447277191
 30
0.0
 11
336.4393944683054
 21
449.7757447277191
 31
0.0
  0
LINE
  5
22A1
330
A
100
AcDbEntity
  8
MODEL
100
AcDbLine
 10
336.4393944683054
 20
449.7757447277191
 30
0.0
 11
336.9750678571902
 21
449.7757447277191
 31
0.0
  0
LINE
  5
22A2
330
A
100
AcDbEntity
  8
MODEL
100
AcDbLine
 10
336.9750678571902
 20
449.7757447277191
 30
0.0
 11
337.3284266644625
 21
449.7757447277191
 31
0.0
  0
LINE
  5
22A3
330
A
100
AcDbEntity
  8
MODEL
100
AcDbLine
 10
337.3284266644625
 20
449.7757447277191
 30
0.0
 11
337.507426435501
 21
449.7757447277191
 31
0.0
  0
LINE
  5
22E9
330
A
100
AcDbEntity
  8
MODEL
100
AcDbLine
 10
337.3277637023477
 20
444.0921705161969
 30
0.0
 11
337.3277637023477
 21
444.0921705161969
 31
0.0
  0
LINE
  5
22EA
330
A
100
AcDbEntity
  8
MODEL
100
AcDbLine
 10
337.3277637023477
 20
444.0921705161969
 30
0.0
 11
336.2643724699576
 21
444.0921705161969
 31
0.0
  0
LINE
  5
22EB
330
A
100
AcDbEntity
  8
MODEL
100
AcDbLine
 10
336.2643724699576
 20
444.0921705161969
 30
0.0
 11
334.1316233461414
 21
444.2685184387752
 31
0.0
  0
LINE
  5
22EC
330
A
100
AcDbEntity
  8
MODEL
100
AcDbLine
 10
334.1316233461414
 20
444.2685184387752
 30
0.0
 11
331.1118309125143
 21
444.2685184387752
 31
0.0
  0
LINE
  5
22ED
330
A
100
AcDbEntity
  8
MODEL
100
AcDbLine
 10
331.1118309125143
 20
444.2685184387752
 30
0.0
 11
327.2056581311911
 21
444.4461922855836
 31
0.0
  0
LINE
  5
22EE
330
A
100
AcDbEntity
  8
MODEL
100
AcDbLine
 10
327.2056581311911
 20
444.4461922855836
 30
0.0
 11
322.586801076289
 21
444.4461922855836
 31
0.0
  0
LINE
  5
22EF
330
A
100
AcDbEntity
  8
MODEL
100
AcDbLine
 10
322.586801076289
 20
444.4461922855836
 30
0.0
 11
317.7882812882337
 21
444.6245290945072
 31
0.0
  0
LINE
  5
22F0
330
A
100
AcDbEntity
  8
MODEL
100
AcDbLine
 10
317.7882812882337
 20
444.6245290945072
 30
0.0
 11
312.994402234983
 21
444.6245290945072
 31
0.0
  0
LINE
  5
22F1
330
A
100
AcDbEntity
  8
MODEL
100
AcDbLine
 10
312.994402234983
 20
444.6245290945072
 30
0.0
 11
308.1972083711573
 21
444.8022029413152
 31
0.0
  0
LINE
  5
22F2
330
A
100
AcDbEntity
  8
MODEL
100
AcDbLine
 10
308.1972083711573
 20
444.8022029413152
 30
0.0
 11
303.9323730856415
 21
444.8022029413152
 31
0.0
  0
LINE
  5
22F3
330
A
100
AcDbEntity
  8
MODEL
100
AcDbLine
 10
303.9323730856415
 20
444.8022029413152
 30
0.0
 11
300.2012223026661
 21
444.9798767881235
 31
0.0
  0
LINE
  5
22F4
330
A
100
AcDbEntity
  8
MODEL
100
AcDbLine
 10
300.2012223026661
 20
444.9798767881235
 30
0.0
 11
299.3135160307395
 21
444.9798767881235
 31
0.0
  0
LINE
  5
22F5
330
A
100
AcDbEntity
  8
MODEL
100
AcDbLine
 10
299.3135160307395
 20
444.9798767881235
 30
0.0
 11
297.1820928311547
 21
444.9798767881235
 31
0.0
  0
LINE
  5
22F6
330
A
100
AcDbEntity
  8
MODEL
100
AcDbLine
 10
297.1820928311547
 20
444.9798767881235
 30
0.0
 11
295.7633539051478
 21
445.1582135970467
 31
0.0
  0
LINE
  5
22F7
330
A
100
AcDbEntity
  8
MODEL
100
AcDbLine
 10
295.7633539051478
 20
445.1582135970467
 30
0.0
 11
295.2296694026074
 21
445.1582135970467
 31
0.0
  0
LINE
  5
22F9
330
A
100
AcDbEntity
  8
MODEL
100
AcDbLine
 10
337.3277637023477
 20
441.7824105076885
 30
0.0
 11
336.2643724699576
 21
441.7824105076885
 31
0.0
  0
LINE
  5
22FA
330
A
100
AcDbEntity
  8
MODEL
100
AcDbLine
 10
336.2643724699576
 20
441.7824105076885
 30
0.0
 11
334.1316233461414
 21
441.9607473166117
 31
0.0
  0
LINE
  5
22FB
330
A
100
AcDbEntity
  8
MODEL
100
AcDbLine
 10
334.1316233461414
 20
441.9607473166117
 30
0.0
 11
331.1118309125143
 21
441.9607473166117
 31
0.0
  0
LINE
  5
22FC
330
A
100
AcDbEntity
  8
MODEL
100
AcDbLine
 10
331.1118309125143
 20
441.9607473166117
 30
0.0
 11
327.2056581311911
 21
442.1384211634196
 31
0.0
  0
LINE
  5
22FD
330
A
100
AcDbEntity
  8
MODEL
100
AcDbLine
 10
327.2056581311911
 20
442.1384211634196
 30
0.0
 11
322.586801076289
 21
442.1384211634196
 31
0.0
  0
LINE
  5
22FE
330
A
100
AcDbEntity
  8
MODEL
100
AcDbLine
 10
322.586801076289
 20
442.1384211634196
 30
0.0
 11
317.7882812882337
 21
442.3147690859979
 31
0.0
  0
LINE
  5
22FF
330
A
100
AcDbEntity
  8
MODEL
100
AcDbLine
 10
317.7882812882337
 20
442.3147690859979
 30
0.0
 11
312.994402234983
 21
442.3147690859979
 31
0.0
  0
LINE
  5
2300
330
A
100
AcDbEntity
  8
MODEL
100
AcDbLine
 10
312.994402234983
 20
442.3147690859979
 30
0.0
 11
308.1972083711573
 21
442.4924429328067
 31
0.0
  0
LINE
  5
2301
330
A
100
AcDbEntity
  8
MODEL
100
AcDbLine
 10
308.1972083711573
 20
442.4924429328067
 30
0.0
 11
303.9323730856415
 21
442.4924429328067
 31
0.0
  0
LINE
  5
2302
330
A
100
AcDbEntity
  8
MODEL
100
AcDbLine
 10
303.9323730856415
 20
442.4924429328067
 30
0.0
 11
300.2012223026661
 21
442.6707797417299
 31
0.0
  0
LINE
  5
2303
330
A
100
AcDbEntity
  8
MODEL
100
AcDbLine
 10
300.2012223026661
 20
442.6707797417299
 30
0.0
 11
299.3135160307395
 21
442.6707797417299
 31
0.0
  0
LINE
  5
2304
330
A
100
AcDbEntity
  8
MODEL
100
AcDbLine
 10
299.3135160307395
 20
442.6707797417299
 30
0.0
 11
297.1820928311547
 21
442.6707797417299
 31
0.0
  0
LINE
  5
2305
330
A
100
AcDbEntity
  8
MODEL
100
AcDbLine
 10
297.1820928311547
 20
442.6707797417299
 30
0.0
 11
295.7633539051478
 21
442.6707797417299
 31
0.0
  0
LINE
  5
2306
330
A
100
AcDbEntity
  8
MODEL
100
AcDbLine
 10
295.7633539051478
 20
442.6707797417299
 30
0.0
 11
295.2296694026074
 21
442.8484535885383
 31
0.0
  0
LINE
  5
2307
330
A
100
AcDbEntity
  8
MODEL
100
AcDbLine
 10
299.3135160307395
 20
440.3616826953363
 30
0.0
 11
297.1820928311547
 21
440.3616826953363
 31
0.0
  0
LINE
  5
2308
330
A
100
AcDbEntity
  8
MODEL
100
AcDbLine
 10
297.1820928311547
 20
440.3616826953363
 30
0.0
 11
295.7633539051478
 21
440.3616826953363
 31
0.0
  0
LINE
  5
2309
330
A
100
AcDbEntity
  8
MODEL
100
AcDbLine
 10
295.7633539051478
 20
440.3616826953363
 30
0.0
 11
295.2296694026074
 21
440.5393565421447
 31
0.0
  0
LINE
  5
230A
330
A
100
AcDbEntity
  8
MODEL
100
AcDbLine
 10
295.2296694026074
 20
447.8219953749423
 30
0.0
 11
295.2296694026074
 21
447.8219953749423
 31
0.0
  0
LINE
  5
230B
330
A
100
AcDbEntity
  8
MODEL
100
AcDbLine
 10
295.2296694026074
 20
447.8219953749423
 30
0.0
 11
295.5830282098798
 21
447.8219953749423
 31
0.0
  0
LINE
  5
230C
330
A
100
AcDbEntity
  8
MODEL
100
AcDbLine
 10
295.5830282098798
 20
447.8219953749423
 30
0.0
 11
296.1173756745341
 21
447.8219953749423
 31
0.0
  0
LINE
  5
230D
330
A
100
AcDbEntity
  8
MODEL
100
AcDbLine
 10
296.1173756745341
 20
447.8219953749423
 30
0.0
 11
297.007070832806
 21
447.8219953749423
 31
0.0
  0
LINE
  5
230E
330
A
100
AcDbEntity
  8
MODEL
100
AcDbLine
 10
297.007070832806
 20
447.8219953749423
 30
0.0
 11
298.248135912005
 21
447.8219953749423
 31
0.0
  0
LINE
  5
230F
330
A
100
AcDbEntity
  8
MODEL
100
AcDbLine
 10
298.248135912005
 20
447.8219953749423
 30
0.0
 11
299.8458746090494
 21
447.8219953749423
 31
0.0
  0
LINE
  5
2310
330
A
100
AcDbEntity
  8
MODEL
100
AcDbLine
 10
299.8458746090494
 20
447.8219953749423
 30
0.0
 11
301.6232760392479
 21
447.8219953749423
 31
0.0
  0
LINE
  5
2311
330
A
100
AcDbEntity
  8
MODEL
100
AcDbLine
 10
301.6232760392479
 20
447.8219953749423
 30
0.0
 11
303.5770253920248
 21
447.8219953749423
 31
0.0
  0
LINE
  5
2312
330
A
100
AcDbEntity
  8
MODEL
100
AcDbLine
 10
303.5770253920248
 20
447.8219953749423
 30
0.0
 11
305.8881113247637
 21
447.8219953749423
 31
0.0
  0
LINE
  5
2313
330
A
100
AcDbEntity
  8
MODEL
100
AcDbLine
 10
305.8881113247637
 20
447.8219953749423
 30
0.0
 11
308.197871333273
 21
447.8219953749423
 31
0.0
  0
LINE
  5
2314
330
A
100
AcDbEntity
  8
MODEL
100
AcDbLine
 10
308.197871333273
 20
447.8219953749423
 30
0.0
 11
310.8629790353982
 21
447.8219953749423
 31
0.0
  0
LINE
  5
2315
330
A
100
AcDbEntity
  8
MODEL
100
AcDbLine
 10
310.8629790353982
 20
447.8219953749423
 30
0.0
 11
313.3477610422544
 21
447.8219953749423
 31
0.0
  0
LINE
  5
2316
330
A
100
AcDbEntity
  8
MODEL
100
AcDbLine
 10
313.3477610422544
 20
447.8219953749423
 30
0.0
 11
316.0128687443796
 21
447.8219953749423
 31
0.0
  0
LINE
  5
2317
330
A
100
AcDbEntity
  8
MODEL
100
AcDbLine
 10
316.0128687443796
 20
447.8219953749423
 30
0.0
 11
318.6779764465048
 21
447.8219953749423
 31
0.0
  0
LINE
  5
2318
330
A
100
AcDbEntity
  8
MODEL
100
AcDbLine
 10
318.6779764465048
 20
447.8219953749423
 30
0.0
 11
321.3417582244003
 21
447.8219953749423
 31
0.0
  0
LINE
  5
2319
330
A
100
AcDbEntity
  8
MODEL
100
AcDbLine
 10
321.3417582244003
 20
447.8219953749423
 30
0.0
 11
323.8278661554871
 21
447.8219953749423
 31
0.0
  0
LINE
  5
231A
330
A
100
AcDbEntity
  8
MODEL
100
AcDbLine
 10
323.8278661554871
 20
447.8219953749423
 30
0.0
 11
326.3166259350339
 21
447.8219953749423
 31
0.0
  0
LINE
  5
231B
330
A
100
AcDbEntity
  8
MODEL
100
AcDbLine
 10
326.3166259350339
 20
447.8219953749423
 30
0.0
 11
328.6250600193137
 21
447.8219953749423
 31
0.0
  0
LINE
  5
231C
330
A
100
AcDbEntity
  8
MODEL
100
AcDbLine
 10
328.6250600193137
 20
447.8219953749423
 30
0.0
 11
330.5788093720905
 21
447.8219953749423
 31
0.0
  0
LINE
  5
231D
330
A
100
AcDbEntity
  8
MODEL
100
AcDbLine
 10
330.5788093720905
 20
447.8219953749423
 30
0.0
 11
332.5338846490961
 21
447.8219953749423
 31
0.0
  0
LINE
  5
231E
330
A
100
AcDbEntity
  8
MODEL
100
AcDbLine
 10
332.5338846490961
 20
447.8219953749423
 30
0.0
 11
334.1316233461414
 21
447.8219953749423
 31
0.0
  0
LINE
  5
231F
330
A
100
AcDbEntity
  8
MODEL
100
AcDbLine
 10
334.1316233461414
 20
447.8219953749423
 30
0.0
 11
335.3753402738005
 21
447.8219953749423
 31
0.0
  0
LINE
  5
2320
330
A
100
AcDbEntity
  8
MODEL
100
AcDbLine
 10
335.3753402738005
 20
447.8219953749423
 30
0.0
 11
336.4400574304202
 21
447.8219953749423
 31
0.0
  0
LINE
  5
2321
330
A
100
AcDbEntity
  8
MODEL
100
AcDbLine
 10
336.4400574304202
 20
447.8219953749423
 30
0.0
 11
336.9750678571902
 21
447.8219953749423
 31
0.0
  0
LINE
  5
2322
330
A
100
AcDbEntity
  8
MODEL
100
AcDbLine
 10
336.9750678571902
 20
447.8219953749423
 30
0.0
 11
337.3277637023477
 21
447.8219953749423
 31
0.0
  0
LINE
  5
2323
330
A
100
AcDbEntity
  8
MODEL
100
AcDbLine
 10
337.3277637023477
 20
447.8219953749423
 30
0.0
 11
337.5087523597306
 21
447.8219953749423
 31
0.0
  0
LINE
  5
2324
330
A
100
AcDbEntity
  8
MODEL
100
AcDbLine
 10
295.2296694026074
 20
447.8219953749423
 30
0.0
 11
295.2296694026074
 21
447.8219953749423
 31
0.0
  0
LINE
  5
2325
330
A
100
AcDbEntity
  8
MODEL
100
AcDbLine
 10
336.0866986231488
 20
447.2896367966324
 30
0.0
 11
336.0866986231488
 21
447.4673106434403
 31
0.0
  0
LINE
  5
232B
330
A
100
AcDbEntity
  8
MODEL
100
AcDbLine
 10
322.2281385720974
 20
447.8219953749423
 30
0.0
 11
321.165410301822
 21
447.8219953749423
 31
0.0
  0
LINE
  5
232C
330
A
100
AcDbEntity
  8
MODEL
100
AcDbLine
 10
336.0866986231488
 20
444.9798767881235
 30
0.0
 11
336.0866986231488
 21
444.9798767881235
 31
0.0
  0
LINE
  5
233A
330
A
100
AcDbEntity
  8
MODEL
100
AcDbLine
 10
336.0866986231488
 20
442.6707797417299
 30
0.0
 11
336.0866986231488
 21
442.6707797417299
 31
0.0
  0
LINE
  5
2348
330
A
100
AcDbEntity
  8
MODEL
100
AcDbLine
 10
336.0866986231488
 20
440.3616826953363
 30
0.0
 11
336.0866986231488
 21
440.3616826953363
 31
0.0
  0
LINE
  5
2372
330
A
100
AcDbEntity
  8
MODEL
100
AcDbLine
 10
337.3277637023477
 20
441.9600843544964
 30
0.0
 11
337.3277637023477
 21
441.9600843544964
 31
0.0
  0
LINE
  5
2380
330
A
100
AcDbEntity
  8
MODEL
100
AcDbLine
 10
312.994402234983
 20
440.3616826953363
 30
0.0
 11
308.1972083711573
 21
440.3616826953363
 31
0.0
  0
LINE
  5
2386
330
A
100
AcDbEntity
  8
MODEL
100
AcDbLine
 10
295.2296694026074
 20
447.8219953749423
 30
0.0
 11
295.4073432494163
 21
447.8219953749423
 31
0.0
  0
LINE
  5
2387
330
A
100
AcDbEntity
  8
MODEL
100
AcDbLine
 10
296.6510601770735
 20
438.7632810361762
 30
0.0
 11
296.8287340238824
 21
438.7632810361762
 31
0.0
  0
LINE
  5
2388
330
A
100
AcDbEntity
  8
MODEL
100
AcDbLine
 10
296.8287340238824
 20
438.7632810361762
 30
0.0
 11
297.358440753733
 21
438.7632810361762
 31
0.0
  0
LINE
  5
2389
330
A
100
AcDbEntity
  8
MODEL
100
AcDbLine
 10
297.358440753733
 20
438.7632810361762
 30
0.0
 11
298.2474729498892
 21
438.7632810361762
 31
0.0
  0
LINE
  5
238A
330
A
100
AcDbEntity
  8
MODEL
100
AcDbLine
 10
298.2474729498892
 20
438.7632810361762
 30
0.0
 11
299.3135160307395
 21
438.7632810361762
 31
0.0
  0
LINE
  5
238B
330
A
100
AcDbEntity
  8
MODEL
100
AcDbLine
 10
299.3135160307395
 20
438.7632810361762
 30
0.0
 11
300.7349068052065
 21
438.7632810361762
 31
0.0
  0
LINE
  5
238C
330
A
100
AcDbEntity
  8
MODEL
100
AcDbLine
 10
300.7349068052065
 20
438.7632810361762
 30
0.0
 11
302.5109823111745
 21
438.7632810361762
 31
0.0
  0
LINE
  5
238D
330
A
100
AcDbEntity
  8
MODEL
100
AcDbLine
 10
302.5109823111745
 20
438.7632810361762
 30
0.0
 11
304.4660575881819
 21
438.7632810361762
 31
0.0
  0
LINE
  5
238E
330
A
100
AcDbEntity
  8
MODEL
100
AcDbLine
 10
304.4660575881819
 20
438.7632810361762
 30
0.0
 11
306.5981437498824
 21
438.7632810361762
 31
0.0
  0
LINE
  5
238F
330
A
100
AcDbEntity
  8
MODEL
100
AcDbLine
 10
306.5981437498824
 20
438.7632810361762
 30
0.0
 11
308.9045889478159
 21
438.7632810361762
 31
0.0
  0
LINE
  5
2390
330
A
100
AcDbEntity
  8
MODEL
100
AcDbLine
 10
308.9045889478159
 20
438.7632810361762
 30
0.0
 11
311.218326729015
 21
438.7632810361762
 31
0.0
  0
LINE
  5
2391
330
A
100
AcDbEntity
  8
MODEL
100
AcDbLine
 10
311.218326729015
 20
438.7632810361762
 30
0.0
 11
313.7031087358712
 21
438.7632810361762
 31
0.0
  0
LINE
  5
2392
330
A
100
AcDbEntity
  8
MODEL
100
AcDbLine
 10
313.7031087358712
 20
438.7632810361762
 30
0.0
 11
316.3668905137667
 21
438.7632810361762
 31
0.0
  0
LINE
  5
2393
330
A
100
AcDbEntity
  8
MODEL
100
AcDbLine
 10
316.3668905137667
 20
438.7632810361762
 30
0.0
 11
318.8556502933127
 21
438.7632810361762
 31
0.0
  0
LINE
  5
2394
330
A
100
AcDbEntity
  8
MODEL
100
AcDbLine
 10
318.8556502933127
 20
438.7632810361762
 30
0.0
 11
321.3430841486309
 21
438.7632810361762
 31
0.0
  0
LINE
  5
2395
330
A
100
AcDbEntity
  8
MODEL
100
AcDbLine
 10
321.3430841486309
 20
438.7632810361762
 30
0.0
 11
323.8278661554871
 21
438.7632810361762
 31
0.0
  0
LINE
  5
2396
330
A
100
AcDbEntity
  8
MODEL
100
AcDbLine
 10
323.8278661554871
 20
438.7632810361762
 30
0.0
 11
326.1369632018807
 21
438.7632810361762
 31
0.0
  0
LINE
  5
2397
330
A
100
AcDbEntity
  8
MODEL
100
AcDbLine
 10
326.1369632018807
 20
438.7632810361762
 30
0.0
 11
328.2690493635812
 21
438.7632810361762
 31
0.0
  0
LINE
  5
2398
330
A
100
AcDbEntity
  8
MODEL
100
AcDbLine
 10
328.2690493635812
 20
438.7632810361762
 30
0.0
 11
330.2241246405877
 21
438.7632810361762
 31
0.0
  0
LINE
  5
2399
330
A
100
AcDbEntity
  8
MODEL
100
AcDbLine
 10
330.2241246405877
 20
438.7632810361762
 30
0.0
 11
331.8218633376339
 21
438.7632810361762
 31
0.0
  0
LINE
  5
239A
330
A
100
AcDbEntity
  8
MODEL
100
AcDbLine
 10
331.8218633376339
 20
438.7632810361762
 30
0.0
 11
333.2439170742157
 21
438.7632810361762
 31
0.0
  0
LINE
  5
239B
330
A
100
AcDbEntity
  8
MODEL
100
AcDbLine
 10
333.2439170742157
 20
438.7632810361762
 30
0.0
 11
334.4876340018729
 21
438.7632810361762
 31
0.0
  0
LINE
  5
239C
330
A
100
AcDbEntity
  8
MODEL
100
AcDbLine
 10
334.4876340018729
 20
438.7632810361762
 30
0.0
 11
335.1989923512222
 21
438.7632810361762
 31
0.0
  0
LINE
  5
239D
102
{ACAD_REACTORS
330
2A09
102
}
330
A
100
AcDbEntity
  8
MODEL
100
AcDbLine
 10
335.1989923512222
 20
438.7632810361762
 30
0.0
 11
335.731350929532
 21
438.7632810361762
 31
0.0
  0
LINE
  5
239E
330
A
100
AcDbEntity
  8
MODEL
100
AcDbLine
 10
335.731350929532
 20
438.7632810361762
 30
0.0
 11
335.9090247763409
 21
438.7632810361762
 31
0.0
  0
LINE
  5
239F
330
A
100
AcDbEntity
  8
MODEL
100
AcDbLine
 10
312.994402234983
 20
440.3616826953363
 30
0.0
 11
311.038001033746
 21
440.3616826953363
 31
0.0
  0
LINE
  5
23A0
330
A
100
AcDbEntity
  8
MODEL
100
AcDbLine
 10
311.038001033746
 20
440.3616826953363
 30
0.0
 11
309.0855776051997
 21
440.3616826953363
 31
0.0
  0
LINE
  5
23A1
330
A
100
AcDbEntity
  8
MODEL
100
AcDbLine
 10
309.0855776051997
 20
440.3616826953363
 30
0.0
 11
307.1318282524228
 21
440.3616826953363
 31
0.0
  0
LINE
  5
23A2
330
A
100
AcDbEntity
  8
MODEL
100
AcDbLine
 10
307.1318282524228
 20
440.3616826953363
 30
0.0
 11
305.3544268222233
 21
440.3616826953363
 31
0.0
  0
LINE
  5
23A3
330
A
100
AcDbEntity
  8
MODEL
100
AcDbLine
 10
305.3544268222233
 20
440.3616826953363
 30
0.0
 11
303.5770253920248
 21
440.3616826953363
 31
0.0
  0
LINE
  5
23A4
330
A
100
AcDbEntity
  8
MODEL
100
AcDbLine
 10
303.5770253920248
 20
440.3616826953363
 30
0.0
 11
301.9786237328647
 21
440.3616826953363
 31
0.0
  0
LINE
  5
23A5
330
A
100
AcDbEntity
  8
MODEL
100
AcDbLine
 10
301.9786237328647
 20
440.3616826953363
 30
0.0
 11
300.5598848068578
 21
440.3616826953363
 31
0.0
  0
LINE
  5
23A6
330
A
100
AcDbEntity
  8
MODEL
100
AcDbLine
 10
300.5598848068578
 20
440.3616826953363
 30
0.0
 11
299.3135160307395
 21
440.3616826953363
 31
0.0
  0
LINE
  5
23AB
330
A
100
AcDbEntity
  8
MODEL
100
AcDbLine
 10
312.994402234983
 20
440.3616826953363
 30
0.0
 11
316.0128687443796
 21
440.1840088485279
 31
0.0
  0
LINE
  5
23AC
330
A
100
AcDbEntity
  8
MODEL
100
AcDbLine
 10
316.0128687443796
 20
440.1840088485279
 30
0.0
 11
319.0319982158919
 21
440.1840088485279
 31
0.0
  0
LINE
  5
23AD
330
A
100
AcDbEntity
  8
MODEL
100
AcDbLine
 10
319.0319982158919
 20
440.1840088485279
 30
0.0
 11
322.0531165737486
 21
440.1840088485279
 31
0.0
  0
LINE
  5
23AE
330
A
100
AcDbEntity
  8
MODEL
100
AcDbLine
 10
322.0531165737486
 20
440.1840088485279
 30
0.0
 11
324.8939092363373
 21
440.1840088485279
 31
0.0
  0
LINE
  5
23AF
330
A
100
AcDbEntity
  8
MODEL
100
AcDbLine
 10
324.8939092363373
 20
440.1840088485279
 30
0.0
 11
327.9130387078496
 21
440.1840088485279
 31
0.0
  0
LINE
  5
23B0
330
A
100
AcDbEntity
  8
MODEL
100
AcDbLine
 10
327.9130387078496
 20
440.1840088485279
 30
0.0
 11
330.5788093720905
 21
440.0056720396047
 31
0.0
  0
LINE
  5
23B1
330
A
100
AcDbEntity
  8
MODEL
100
AcDbLine
 10
330.5788093720905
 20
440.0056720396047
 30
0.0
 11
332.885254570024
 21
440.0056720396047
 31
0.0
  0
LINE
  5
23B2
330
A
100
AcDbEntity
  8
MODEL
100
AcDbLine
 10
332.885254570024
 20
440.0056720396047
 30
0.0
 11
334.6653078486818
 21
440.0056720396047
 31
0.0
  0
LINE
  5
23B3
330
A
100
AcDbEntity
  8
MODEL
100
AcDbLine
 10
334.6653078486818
 20
440.0056720396047
 30
0.0
 11
336.0866986231488
 21
440.0056720396047
 31
0.0
  0
LINE
  5
23B4
330
A
100
AcDbEntity
  8
MODEL
100
AcDbLine
 10
336.0866986231488
 20
440.0056720396047
 30
0.0
 11
336.7967310482666
 21
439.8279981927964
 31
0.0
  0
LINE
  5
23B5
330
A
100
AcDbEntity
  8
MODEL
100
AcDbLine
 10
336.7967310482666
 20
439.8279981927964
 30
0.0
 11
336.9750678571902
 21
439.8279981927964
 31
0.0
  0
LINE
  5
23C9
330
A
100
AcDbEntity
  8
MODEL
100
AcDbLine
 10
296.4707344818064
 20
439.2956396144865
 30
0.0
 11
296.4707344818064
 21
439.4733134612944
 31
0.0
  0
LINE
  5
23CA
330
A
100
AcDbEntity
  8
MODEL
100
AcDbLine
 10
296.4707344818064
 20
439.4733134612944
 30
0.0
 11
296.4707344818064
 21
439.8293241170264
 31
0.0
  0
LINE
  5
23CB
330
A
100
AcDbEntity
  8
MODEL
100
AcDbLine
 10
336.0866986231488
 20
440.8940412736462
 30
0.0
 11
336.0866986231488
 21
440.7163674268378
 31
0.0
  0
LINE
  5
23CC
330
A
100
AcDbEntity
  8
MODEL
100
AcDbLine
 10
336.0866986231488
 20
440.7163674268378
 30
0.0
 11
336.0866986231488
 21
440.3616826953363
 31
0.0
  0
LINE
  5
23CD
330
A
100
AcDbEntity
  8
MODEL
100
AcDbLine
 10
336.0866986231488
 20
447.8219953749423
 30
0.0
 11
336.0866986231488
 21
447.6443215281339
 31
0.0
  0
LINE
  5
23CE
330
A
100
AcDbEntity
  8
MODEL
100
AcDbLine
 10
336.0866986231488
 20
447.6443215281339
 30
0.0
 11
336.0866986231488
 21
447.2902997587472
 31
0.0
  0
LINE
  5
23CF
330
A
100
AcDbEntity
  8
MODEL
100
AcDbLine
 10
336.0866986231488
 20
445.5135612906635
 30
0.0
 11
336.0866986231488
 21
445.3345615196255
 31
0.0
  0
LINE
  5
23D0
330
A
100
AcDbEntity
  8
MODEL
100
AcDbLine
 10
336.0866986231488
 20
445.3345615196255
 30
0.0
 11
336.0866986231488
 21
444.9805397502388
 31
0.0
  0
LINE
  5
23D1
330
A
100
AcDbEntity
  8
MODEL
100
AcDbLine
 10
336.0866986231488
 20
443.2044642442703
 30
0.0
 11
336.0866986231488
 21
443.0267903974619
 31
0.0
  0
LINE
  5
23D2
330
A
100
AcDbEntity
  8
MODEL
100
AcDbLine
 10
336.0866986231488
 20
443.0267903974619
 30
0.0
 11
336.0866986231488
 21
442.6707797417299
 31
0.0
  0
LINE
  5
23D3
330
A
100
AcDbEntity
  8
MODEL
100
AcDbLine
 10
296.4707344818064
 20
446.2235937157822
 30
0.0
 11
296.4707344818064
 21
446.4012675625905
 31
0.0
  0
LINE
  5
23D4
330
A
100
AcDbEntity
  8
MODEL
100
AcDbLine
 10
296.4707344818064
 20
446.4012675625905
 30
0.0
 11
296.4707344818064
 21
446.7572782183221
 31
0.0
  0
LINE
  5
23D5
330
A
100
AcDbEntity
  8
MODEL
100
AcDbLine
 10
296.4707344818064
 20
443.9144966693885
 30
0.0
 11
296.4707344818064
 21
444.0921705161969
 31
0.0
  0
LINE
  5
23D6
330
A
100
AcDbEntity
  8
MODEL
100
AcDbLine
 10
296.4707344818064
 20
444.0921705161969
 30
0.0
 11
296.4707344818064
 21
444.4468552476989
 31
0.0
  0
LINE
  5
23D7
330
A
100
AcDbEntity
  8
MODEL
100
AcDbLine
 10
296.4707344818064
 20
441.6047366608801
 30
0.0
 11
296.4707344818064
 21
441.7824105076885
 31
0.0
  0
LINE
  5
23D8
330
A
100
AcDbEntity
  8
MODEL
100
AcDbLine
 10
296.4707344818064
 20
441.7824105076885
 30
0.0
 11
296.4707344818064
 21
442.1384211634196
 31
0.0
  0
LINE
  5
23D9
330
A
100
AcDbEntity
  8
MODEL
100
AcDbLine
 10
296.4707344818064
 20
439.8286611549116
 30
0.0
 11
295.9397018277261
 21
440.1846718106427
 31
0.0
  0
LINE
  5
23DA
330
A
100
AcDbEntity
  8
MODEL
100
AcDbLine
 10
295.9397018277261
 20
440.1846718106427
 30
0.0
 11
295.2296694026074
 21
440.5386935800299
 31
0.0
  0
LINE
  5
23DB
330
A
100
AcDbEntity
  8
MODEL
100
AcDbLine
 10
337.5080893976149
 20
441.6040736987653
 30
0.0
 11
336.7967310482666
 21
441.2487260051481
 31
0.0
  0
LINE
  5
23DC
330
A
100
AcDbEntity
  8
MODEL
100
AcDbLine
 10
336.7967310482666
 20
441.2487260051481
 30
0.0
 11
336.0866986231488
 21
440.8947042357614
 31
0.0
  0
LINE
  5
23DD
330
A
100
AcDbEntity
  8
MODEL
100
AcDbLine
 10
337.5080893976149
 20
446.4012675625905
 30
0.0
 11
336.7967310482666
 21
446.0452569068585
 31
0.0
  0
LINE
  5
23DE
330
A
100
AcDbEntity
  8
MODEL
100
AcDbLine
 10
336.7967310482666
 20
446.0452569068585
 30
0.0
 11
336.0866986231488
 21
445.5135612906635
 31
0.0
  0
LINE
  5
23DF
330
A
100
AcDbEntity
  8
MODEL
100
AcDbLine
 10
337.5080893976149
 20
444.0928334783117
 30
0.0
 11
336.7967310482666
 21
443.558486013657
 31
0.0
  0
LINE
  5
23E0
330
A
100
AcDbEntity
  8
MODEL
100
AcDbLine
 10
336.7967310482666
 20
443.558486013657
 30
0.0
 11
336.0866986231488
 21
443.2044642442703
 31
0.0
  0
LINE
  5
23E1
330
A
100
AcDbEntity
  8
MODEL
100
AcDbLine
 10
296.4707344818064
 20
446.7566152562073
 30
0.0
 11
295.9397018277261
 21
447.110637025594
 31
0.0
  0
LINE
  5
23E2
330
A
100
AcDbEntity
  8
MODEL
100
AcDbLine
 10
295.9397018277261
 20
447.110637025594
 30
0.0
 11
295.2296694026074
 21
447.4666476813255
 31
0.0
  0
LINE
  5
23E3
330
A
100
AcDbEntity
  8
MODEL
100
AcDbLine
 10
296.4707344818064
 20
444.4468552476989
 30
0.0
 11
295.9397018277261
 21
444.8028659034304
 31
0.0
  0
LINE
  5
23E4
330
A
100
AcDbEntity
  8
MODEL
100
AcDbLine
 10
295.9397018277261
 20
444.8028659034304
 30
0.0
 11
295.2296694026074
 21
445.1568876728171
 31
0.0
  0
LINE
  5
23E5
330
A
100
AcDbEntity
  8
MODEL
100
AcDbLine
 10
296.4707344818064
 20
442.1384211634196
 30
0.0
 11
295.9397018277261
 21
442.4931058949215
 31
0.0
  0
LINE
  5
23E6
330
A
100
AcDbEntity
  8
MODEL
100
AcDbLine
 10
295.9397018277261
 20
442.4931058949215
 30
0.0
 11
295.2296694026074
 21
442.8484535885383
 31
0.0
  0
LINE
  5
23E7
330
A
100
AcDbEntity
  8
MODEL
100
AcDbLine
 10
295.2296694026074
 20
440.5393565421447
 30
0.0
 11
295.2296694026074
 21
440.8933783115314
 31
0.0
  0
LINE
  5
23E8
330
A
100
AcDbEntity
  8
MODEL
100
AcDbLine
 10
295.2296694026074
 20
442.8484535885383
 30
0.0
 11
295.2296694026074
 21
443.2044642442703
 31
0.0
  0
LINE
  5
23E9
330
A
100
AcDbEntity
  8
MODEL
100
AcDbLine
 10
295.2296694026074
 20
445.1575506349324
 30
0.0
 11
295.2296694026074
 21
445.5135612906635
 31
0.0
  0
LINE
  5
23EA
330
A
100
AcDbEntity
  8
MODEL
100
AcDbLine
 10
295.2296694026074
 20
447.4673106434403
 30
0.0
 11
295.2296694026074
 21
447.8219953749423
 31
0.0
  0
LINE
  5
23EB
330
A
100
AcDbEntity
  8
MODEL
100
AcDbLine
 10
295.2296694026074
 20
447.8219953749423
 30
0.0
 11
295.2296694026074
 21
449.7757447277191
 31
0.0
  0
LINE
  5
23EC
330
A
100
AcDbEntity
  8
MODEL
100
AcDbLine
 10
337.5080893976149
 20
449.7757447277191
 30
0.0
 11
337.5080893976149
 21
447.8219953749423
 31
0.0
  0
LINE
  5
23ED
330
A
100
AcDbEntity
  8
MODEL
100
AcDbLine
 10
337.5080893976149
 20
446.5789414093989
 30
0.0
 11
337.5080893976149
 21
446.4012675625905
 31
0.0
  0
LINE
  5
23EE
330
A
100
AcDbEntity
  8
MODEL
100
AcDbLine
 10
337.5080893976149
 20
444.26918140089
 30
0.0
 11
337.5080893976149
 21
444.0928334783117
 31
0.0
  0
LINE
  5
23EF
330
A
100
AcDbEntity
  8
MODEL
100
AcDbLine
 10
337.5080893976149
 20
441.9600843544964
 30
0.0
 11
337.5080893976149
 21
441.6040736987653
 31
0.0
  0
LINE
  5
23F0
330
A
100
AcDbEntity
  8
MODEL
100
AcDbLine
 10
336.0866986231488
 20
440.3616826953363
 30
0.0
 11
336.7967310482666
 21
440.0056720396047
 31
0.0
  0
LINE
  5
23F1
330
A
100
AcDbEntity
  8
MODEL
100
AcDbLine
 10
336.7967310482666
 20
440.0056720396047
 30
0.0
 11
336.9744048950754
 21
439.8279981927964
 31
0.0
  0
LINE
  5
23F2
330
A
100
AcDbEntity
  8
MODEL
100
AcDbLine
 10
336.0866986231488
 20
447.2896367966324
 30
0.0
 11
336.7967310482666
 21
446.9336261409009
 31
0.0
  0
LINE
  5
23F3
330
A
100
AcDbEntity
  8
MODEL
100
AcDbLine
 10
336.7967310482666
 20
446.9336261409009
 30
0.0
 11
337.5080893976149
 21
446.5796043715137
 31
0.0
  0
LINE
  5
23F4
330
A
100
AcDbEntity
  8
MODEL
100
AcDbLine
 10
336.0866986231488
 20
444.9798767881235
 30
0.0
 11
336.7967310482666
 21
444.623866132392
 31
0.0
  0
LINE
  5
23F5
330
A
100
AcDbEntity
  8
MODEL
100
AcDbLine
 10
336.7967310482666
 20
444.623866132392
 30
0.0
 11
337.5080893976149
 21
444.2698443630053
 31
0.0
  0
LINE
  5
23F6
330
A
100
AcDbEntity
  8
MODEL
100
AcDbLine
 10
336.0866986231488
 20
442.6707797417299
 30
0.0
 11
336.7967310482666
 21
442.3147690859979
 31
0.0
  0
LINE
  5
23F7
330
A
100
AcDbEntity
  8
MODEL
100
AcDbLine
 10
336.7967310482666
 20
442.3147690859979
 30
0.0
 11
337.5080893976149
 21
441.9607473166117
 31
0.0
  0
LINE
  5
23F8
330
A
100
AcDbEntity
  8
MODEL
100
AcDbLine
 10
295.2296694026074
 20
445.5128983285487
 30
0.0
 11
295.9397018277261
 21
445.8689089842807
 31
0.0
  0
LINE
  5
23F9
330
A
100
AcDbEntity
  8
MODEL
100
AcDbLine
 10
295.9397018277261
 20
445.8689089842807
 30
0.0
 11
296.4707344818064
 21
446.2229307536669
 31
0.0
  0
LINE
  5
23FA
330
A
100
AcDbEntity
  8
MODEL
100
AcDbLine
 10
295.2296694026074
 20
443.2044642442703
 30
0.0
 11
295.9397018277261
 21
443.558486013657
 31
0.0
  0
LINE
  5
23FB
330
A
100
AcDbEntity
  8
MODEL
100
AcDbLine
 10
295.9397018277261
 20
443.558486013657
 30
0.0
 11
296.4707344818064
 21
443.9144966693885
 31
0.0
  0
LINE
  5
23FC
330
A
100
AcDbEntity
  8
MODEL
100
AcDbLine
 10
295.2296694026074
 20
440.8940412736462
 30
0.0
 11
295.9397018277261
 21
441.2500519293782
 31
0.0
  0
LINE
  5
23FD
330
A
100
AcDbEntity
  8
MODEL
100
AcDbLine
 10
295.9397018277261
 20
441.2500519293782
 30
0.0
 11
296.4707344818064
 21
441.6040736987653
 31
0.0
  0
LINE
  5
23FF
330
A
100
AcDbEntity
  8
MODEL
100
AcDbLine
 10
336.9750678571902
 20
439.8286611549116
 30
0.0
 11
335.9090247763409
 21
438.7626180740609
 31
0.0
  0
LINE
  5
2400
330
A
100
AcDbEntity
  8
MODEL
100
AcDbLine
 10
295.2296694026074
 20
449.7757447277191
 30
0.0
 11
295.2296694026074
 21
450.1317553834507
 31
0.0
  0
LINE
  5
2401
330
A
100
AcDbEntity
  8
MODEL
100
AcDbLine
 10
295.2296694026074
 20
450.1317553834507
 30
0.0
 11
295.2296694026074
 21
450.3094292302586
 31
0.0
  0
LINE
  5
2402
330
A
100
AcDbEntity
  8
MODEL
100
AcDbLine
 10
295.2296694026074
 20
450.3094292302586
 30
0.0
 11
295.0493437073394
 21
450.4857771528378
 31
0.0
  0
LINE
  5
2403
330
A
100
AcDbEntity
  8
MODEL
100
AcDbLine
 10
295.0493437073394
 20
450.4857771528378
 30
0.0
 11
294.8743217089907
 21
450.4857771528378
 31
0.0
  0
LINE
  5
2404
330
A
100
AcDbEntity
  8
MODEL
100
AcDbLine
 10
294.8743217089907
 20
450.4857771528378
 30
0.0
 11
294.695984900068
 21
450.6654398859906
 31
0.0
  0
LINE
  5
2405
330
A
100
AcDbEntity
  8
MODEL
100
AcDbLine
 10
294.695984900068
 20
450.6654398859906
 30
0.0
 11
294.5196369774897
 21
450.8417878085694
 31
0.0
  0
LINE
  5
2406
330
A
100
AcDbEntity
  8
MODEL
100
AcDbLine
 10
294.5196369774897
 20
450.8417878085694
 30
0.0
 11
294.3419631306808
 21
450.8417878085694
 31
0.0
  0
LINE
  5
2407
330
A
100
AcDbEntity
  8
MODEL
100
AcDbLine
 10
294.3419631306808
 20
450.8417878085694
 30
0.0
 11
294.1636263217572
 21
450.8417878085694
 31
0.0
  0
LINE
  5
2408
330
A
100
AcDbEntity
  8
MODEL
100
AcDbLine
 10
338.3964586316572
 20
450.8417878085694
 30
0.0
 11
338.2161329363882
 21
450.8417878085694
 31
0.0
  0
LINE
  5
2409
330
A
100
AcDbEntity
  8
MODEL
100
AcDbLine
 10
338.2161329363882
 20
450.8417878085694
 30
0.0
 11
338.0377961274655
 21
450.8417878085694
 31
0.0
  0
LINE
  5
240A
330
A
100
AcDbEntity
  8
MODEL
100
AcDbLine
 10
338.0377961274655
 20
450.8417878085694
 30
0.0
 11
337.8627741291177
 21
450.6654398859906
 31
0.0
  0
LINE
  5
240B
330
A
100
AcDbEntity
  8
MODEL
100
AcDbLine
 10
337.8627741291177
 20
450.6654398859906
 30
0.0
 11
337.6837743580793
 21
450.4857771528378
 31
0.0
  0
LINE
  5
240C
330
A
100
AcDbEntity
  8
MODEL
100
AcDbLine
 10
337.6837743580793
 20
450.4857771528378
 30
0.0
 11
337.5087523597306
 21
450.3094292302586
 31
0.0
  0
LINE
  5
240D
330
A
100
AcDbEntity
  8
MODEL
100
AcDbLine
 10
337.5087523597306
 20
450.3094292302586
 30
0.0
 11
337.5087523597306
 21
450.1317553834507
 31
0.0
  0
LINE
  5
240E
330
A
100
AcDbEntity
  8
MODEL
100
AcDbLine
 10
337.5087523597306
 20
450.1317553834507
 30
0.0
 11
337.5087523597306
 21
449.7757447277191
 31
0.0
  0
LINE
  5
2842
330
A
100
AcDbEntity
  8
HIDDEN
 48
0.05
100
AcDbLine
 10
726.1288795737711
 20
480.6101126943478
 30
0.0
 11
726.1288795737711
 21
476.8243900708651
 31
0.0
  0
SPLINE
  5
284F
102
{ACAD_REACTORS
330
296C
330
29E9
102
}
330
A
100
AcDbEntity
  8
HIDDEN
 48
0.05
100
AcDbSpline
210
0.0
220
0.0
230
1.0
 70
  1064
 71
     3
 72
    20
 73
    16
 74
    14
 42
0.000000001
 43
0.0000000001
 44
0.0
 40
0.0
 40
0.0
 40
0.0
 40
0.0
 40
4.472671795638617
 40
10.5334372748799
 40
17.82050477328652
 40
24.15802477093382
 40
32.16698454880375
 40
37.96766925106805
 40
46.95701238376245
 40
58.89493190037125
 40
71.83512251550577
 40
82.4316415050554
 40
95.70928239627014
 40
107.2746909435411
 40
118.6639809961648
 40
118.6639809961648
 40
118.6639809961648
 40
118.6639809961648
 10
616.9018933619928
 20
521.4823900435327
 30
0.0
 10
618.1148462109797
 20
520.6155028348294
 30
0.0
 10
620.9714302251813
 20
518.5739262438138
 30
0.0
 10
625.8274781279468
 20
515.1524621863477
 30
0.0
 10
631.2739994303174
 20
511.4913190364732
 30
0.0
 10
637.3649361988587
 20
507.6298002556667
 30
0.0
 10
643.1478842146124
 20
504.2116384887802
 30
0.0
 10
649.8212769811429
 20
500.574366897442
 30
0.0
 10
657.768000886491
 20
496.5397124711357
 30
0.0
 10
668.1255342635277
 20
492.0293411954918
 30
0.0
 10
679.2627215852938
 20
488.0210286837071
 30
0.0
 10
691.0894542946994
 20
484.7210072899069
 30
0.0
 10
702.664514598409
 20
482.2944701083159
 30
0.0
 10
714.6801918483736
 20
480.8940592102415
 30
0.0
 10
722.3322202356337
 20
480.7042761667873
 30
0.0
 10
726.1288795737711
 20
480.6101126943478
 30
0.0
 11
616.9018933619928
 21
521.4823900435327
 31
0.0
 11
620.5432317818319
 21
518.8851901082745
 31
0.0
 11
625.5048198288688
 21
515.404454231213
 31
0.0
 11
631.5557062835084
 21
511.343896900083
 31
0.0
 11
636.9096965828272
 21
507.9528870806665
 31
0.0
 11
643.8080749015295
 21
503.8840035365482
 31
0.0
 11
648.8984339161399
 21
501.1026031487116
 31
0.0
 11
656.9241809770282
 21
497.0534459435684
 31
0.0
 11
667.8655430812347
 21
492.2784571802662
 31
0.0
 11
680.0504855350679
 21
487.9223453184346
 31
0.0
 11
690.2533476850132
 21
485.0609088531083
 31
0.0
 11
703.2593384562298
 21
482.3888400487759
 31
0.0
 11
714.7486491402996
 21
481.0642967802461
 31
0.0
 11
726.1288795737711
 21
480.6101126943478
 31
0.0
  0
SPLINE
  5
2850
330
A
100
AcDbEntity
  8
HIDDEN
 48
0.05
100
AcDbSpline
210
0.0
220
0.0
230
1.0
 70
  1064
 71
     3
 72
    19
 73
    15
 74
    13
 42
0.000000001
 43
0.0000000001
 44
0.0
 40
0.0
 40
0.0
 40
0.0
 40
0.0
 40
9.015628723029259
 40
22.91605934562604
 40
37.85760666963159
 40
48.0328710417178
 40
56.6197107789204
 40
70.20801636655256
 40
80.30846543420603
 40
92.50992391328558
 40
104.5735543471345
 40
115.0316720218136
 40
122.9697980336382
 40
126.9974997317802
 40
126.9974997317802
 40
126.9974997317802
 40
126.9974997317802
 10
837.0026636791018
 20
521.4823900435327
 30
0.0
 10
835.0393538015408
 20
519.2067351923645
 30
0.0
 10
830.048983517867
 20
513.4224418034488
 30
0.0
 10
821.066626088479
 20
504.5237136305579
 30
0.0
 10
810.8487501732518
 20
496.4335169051108
 30
0.0
 10
801.4639477349986
 20
490.2419197840856
 30
0.0
 10
792.0910409250923
 20
484.9002041324173
 30
0.0
 10
782.359618977144
 20
480.26582727478
 30
0.0
 10
771.1653993695961
 20
476.0441987093917
 30
0.0
 10
760.297805603758
 20
472.3575508077929
 30
0.0
 10
748.9192299696642
 20
470.130784639532
 30
0.0
 10
738.9034525023601
 20
468.471589675033
 30
0.0
 10
731.4573815043118
 20
467.7241630639577
 30
0.0
 10
727.4707732688119
 20
467.5867356684175
 30
0.0
 10
726.1288795737711
 20
467.5404775600942
 30
0.0
 11
837.0026636791018
 21
521.4823900435327
 31
0.0
 11
831.0435706664763
 21
514.7169800974624
 31
0.0
 11
821.1487504438616
 21
504.954065355657
 31
0.0
 11
809.4532729920826
 21
495.655374931171
 31
0.0
 11
800.9594023752599
 21
490.0526820976737
 31
0.0
 11
793.5009513993724
 21
485.7976467614297
 31
0.0
 11
781.2269979856934
 21
479.9673709238974
 31
0.0
 11
771.8008844523703
 21
476.3386721178287
 31
0.0
 11
760.1839174948583
 21
472.6074970047072
 31
0.0
 11
748.3858436970914
 21
470.0902298542175
 31
0.0
 11
738.0555680218387
 21
468.4600060135396
 31
0.0
 11
730.1530596115573
 21
467.7088699372931
 31
0.0
 11
726.1288795737711
 21
467.5404775600942
 31
0.0
  0
CIRCLE
  5
2887
330
A
100
AcDbEntity
  8
HIDDEN
 48
0.05
100
AcDbCircle
 10
727.0026636791018
 20
1058.837275158471
 30
0.0
 40
110.0
  0
CIRCLE
  5
288A
330
A
100
AcDbEntity
  8
MODEL
 48
0.05
100
AcDbCircle
 10
316.3085498098338
 20
1058.837275158471
 30
0.0
 40
110.0
  0
LINE
  5
288B
330
A
100
AcDbEntity
  8
MODEL
 48
0.05
100
AcDbLine
 10
209.3085498098338
 20
1058.837275158471
 30
0.0
 11
423.3085498098338
 21
1058.837275158471
 31
0.0
  0
CIRCLE
  5
288C
102
{ACAD_REACTORS
330
2893
102
}
330
A
100
AcDbEntity
  8
MODEL
 48
0.05
100
AcDbCircle
 10
727.0026636791018
 20
1058.837275158471
 30
0.0
 40
60.0
  0
HATCH
  5
2893
330
A
100
AcDbEntity
  8
DIM
 48
0.05
100
AcDbHatch
 10
0.0
 20
0.0
 30
0.0
210
0.0
220
0.0
230
1.0
  2
ANSI31
 70
     0
 71
     1
 91
        1
 92
        1
 93
        1
 72
     2
 10
727.0026636791018
 20
1058.837275158471
 40
60.0
 50
0.0
 51
360.0
 73
     1
 97
        1
330
288C
 75
     0
 76
     1
 52
0.0
 41
4.0
 77
     0
 78
     1
 53
45.0
 43
0.0
 44
0.0
 45
-8.980256121069154
 46
8.980256121069154
 79
     0
 98
        1
 10
0.0
 20
0.0
1001
ACAD
1010
0.0
1020
0.0
1030
0.0
  0
CIRCLE
  5
28A1
330
A
100
AcDbEntity
  8
HIDDEN
 48
0.05
100
AcDbCircle
 10
727.0026636791018
 20
1058.837275158471
 30
0.0
 40
21.0
  0
SPLINE
  5
28A2
330
A
100
AcDbEntity
  8
HIDDEN
 48
0.05
100
AcDbSpline
210
0.0
220
0.0
230
1.0
 70
  1080
 71
     3
 72
     8
 73
     4
 74
     2
 42
0.000000001
 43
0.0000000001
 44
0.0
 40
0.0
 40
0.0
 40
0.0
 40
0.0
 40
20.61508250081602
 40
20.61508250081602
 40
20.61508250081602
 40
20.61508250081602
 10
726.1288795737711
 20
476.8243900708651
 30
0.0
 10
719.2572620947207
 20
476.7919255433292
 30
0.0
 10
712.3856446156702
 20
476.7594610157932
 30
0.0
 10
705.5140271366199
 20
476.7269964882573
 30
0.0
 11
726.1288795737711
 21
476.8243900708651
 31
0.0
 11
705.5140271366199
 21
476.7269964882573
 31
0.0
  0
SPLINE
  5
28A3
330
A
100
AcDbEntity
  8
HIDDEN
 48
0.05
100
AcDbSpline
210
0.0
220
0.0
230
1.0
 70
  1064
 71
     3
 72
    15
 73
    11
 74
     9
 42
0.000000001
 43
0.0000000001
 44
0.0
 40
0.0
 40
0.0
 40
0.0
 40
0.0
 40
0.4372541592707404
 40
0.7296944325380559
 40
1.122044230768577
 40
1.569997580687092
 40
2.00086162735484
 40
2.388397135306675
 40
3.057449502315033
 40
3.425097966110466
 40
3.425097966110466
 40
3.425097966110466
 40
3.425097966110466
 10
705.5140271366199
 20
476.7269964882573
 30
0.0
 10
705.3675589797674
 20
476.7143923610797
 30
0.0
 10
705.1231313480721
 20
476.6933584584087
 30
0.0
 10
704.7793332847449
 20
476.5313226658224
 30
0.0
 10
704.4924689322677
 20
476.2824704070632
 30
0.0
 10
704.1959473575813
 20
475.979369103096
 30
0.0
 10
703.9664139889846
 20
475.6172822602884
 30
0.0
 10
703.8319022689648
 20
475.1389276232244
 30
0.0
 10
703.6956249849542
 20
474.6778295662117
 30
0.0
 10
703.7089230438803
 20
474.3309308981957
 30
0.0
 10
703.7136389761824
 20
474.2079091366622
 30
0.0
 11
705.5140271366199
 21
476.7269964882573
 31
0.0
 11
705.0821082580875
 21
476.658898895298
 31
0.0
 11
704.8165843675686
 21
476.5363494073662
 31
0.0
 11
704.5102106477391
 21
476.2912504315026
 31
0.0
 11
704.2038369279096
 21
475.9644517970179
 31
0.0
 11
703.9791628667014
 21
475.5968033332225
 31
0.0
 11
703.8566133787696
 21
475.2291548694271
 31
0.0
 11
703.7136389761824
 21
474.5755576004576
 31
0.0
 11
703.7136389761824
 21
474.2079091366622
 31
0.0
  0
LINE
  5
28A4
330
A
100
AcDbEntity
  8
HIDDEN
 48
0.05
100
AcDbLine
 10
703.7136389761824
 20
474.2079091366622
 30
0.0
 11
703.7136389761824
 21
450.8417878085693
 31
0.0
  0
LINE
  5
28A6
330
A
100
AcDbEntity
  8
HIDDEN
 48
0.05
100
AcDbLine
 10
726.1288795737711
 20
467.5404775600942
 30
0.0
 11
726.1288795737711
 21
450.8417878085693
 31
0.0
  0
SPLINE
  5
28A7
330
A
100
AcDbEntity
  8
HIDDEN
 48
0.05
100
AcDbSpline
210
0.0
220
0.0
230
1.0
 70
  1064
 71
     3
 72
    36
 73
    32
 74
    30
 42
0.000000001
 43
0.0000000001
 44
0.0
 40
0.0
 40
0.0
 40
0.0
 40
0.0
 40
1.513562330701322
 40
3.186794760876138
 40
4.548859876942746
 40
6.922836878579766
 40
11.5133553386016
 40
15.36185229296874
 40
20.77152303573984
 40
27.04655190433034
 40
30.34150957640609
 40
34.35885240594937
 40
43.9067952183765
 40
48.09120590919472
 40
58.0827759743641
 40
63.3853189272878
 40
70.68657939343092
 40
78.72063794249584
 40
89.00862823454966
 40
95.46008504026915
 40
102.9487826227065
 40
113.3772600363479
 40
130.0151611719773
 40
140.4971009611604
 40
151.2278277544732
 40
163.3252828609669
 40
171.2779112895631
 40
181.5660421742353
 40
200.3673378971194
 40
219.8572154804795
 40
238.6383937716033
 40
238.6383937716033
 40
238.6383937716033
 40
238.6383937716033
 10
206.3085498098337
 20
521.4823900435327
 30
0.0
 10
206.7100975265889
 20
521.1769391032848
 30
0.0
 10
207.5555533985014
 20
520.5338143132828
 30
0.0
 10
208.7622777380979
 20
519.6156862071656
 30
0.0
 10
210.1976290783302
 20
518.5244378723122
 30
0.0
 10
212.404139687439
 20
516.8404107468342
 30
0.0
 10
215.2909800027733
 20
514.6845043440054
 30
0.0
 10
218.8930741794645
 20
511.7856493493762
 30
0.0
 10
223.3983108133574
 20
509.2066274018314
 30
0.0
 10
227.623433544621
 20
506.5541641107808
 30
0.0
 10
231.4241768872591
 20
504.0815373751693
 30
0.0
 10
236.4752184819627
 20
501.6024866473567
 30
0.0
 10
241.6459446030827
 20
498.7204130599311
 30
0.0
 10
248.8556709176135
 20
495.4644580544788
 30
0.0
 10
254.8418877092843
 20
492.9446395291453
 30
0.0
 10
261.9168394812141
 20
490.356015102982
 30
0.0
 10
268.4809123982229
 20
488.2884083023799
 30
0.0
 10
276.702431213308
 20
485.9802705785486
 30
0.0
 10
284.7464774343833
 20
484.0491825206683
 30
0.0
 10
292.7540245082517
 20
482.9784393905492
 30
0.0
 10
300.7881879467953
 20
481.7459102700722
 30
0.0
 10
312.309430723318
 20
481.2363737616732
 30
0.0
 10
324.8435714824802
 20
481.2400350156601
 30
0.0
 10
337.399242063411
 20
482.6135976040616
 30
0.0
 10
348.3638016454167
 20
484.3573744098654
 30
0.0
 10
358.4120571292803
 20
486.5341424577466
 30
0.0
 10
368.0142360662178
 20
489.7228099225014
 30
0.0
 10
379.6965604696225
 20
493.7353470479153
 30
0.0
 10
394.3988565884337
 20
500.6044034166316
 30
0.0
 10
410.9367987065629
 20
510.0840653902467
 30
0.0
 10
421.1615614360143
 20
517.730144918266
 30
0.0
 10
426.1792722730518
 20
521.4823900435327
 30
0.0
 11
206.3085498098337
 21
521.4823900435327
 31
0.0
 11
207.5131791994933
 21
520.5660173232457
 31
0.0
 11
208.8448884527133
 21
519.5529737751802
 31
0.0
 11
209.9289426975647
 21
518.728323682944
 31
0.0
 11
211.8183676710462
 21
517.2910206272575
 31
0.0
 11
215.4719162157929
 21
514.5117324516664
 31
0.0
 11
218.5348971338619
 21
512.1816945328079
 31
0.0
 11
223.1273322409543
 21
509.3226601971731
 31
0.0
 11
228.4543963534314
 21
506.0062803571664
 31
0.0
 11
231.2515867942442
 21
504.2648810064727
 31
0.0
 11
234.808506532707
 21
502.397432109122
 31
0.0
 11
243.2919775614725
 21
498.0163442015954
 31
0.0
 11
247.0950965303624
 21
496.2711854873509
 31
0.0
 11
256.3207392105556
 21
492.4346519602477
 31
0.0
 11
261.3020416559054
 21
490.617074529833
 31
0.0
 11
268.2575762989155
 21
488.3969524105904
 31
0.0
 11
275.9927697577454
 21
486.2260358013494
 31
0.0
 11
286.02890196945
 21
483.9635605023506
 31
0.0
 11
292.4087823661709
 21
483.0052176411572
 31
0.0
 11
299.8306195304318
 21
482.0067565310492
 31
0.0
 11
310.2406990777806
 21
481.3875756328459
 31
0.0
 11
326.8771126971153
 21
481.6100527898618
 31
0.0
 11
337.3035031717574
 21
482.6877556312571
 31
0.0
 11
347.9001983121827
 21
484.3784802136798
 31
0.0
 11
359.6925559374208
 21
487.0782434796197
 31
0.0
 11
367.2711407365679
 21
489.4885030850263
 31
0.0
 11
376.965341187666
 21
492.9335161059122
 31
0.0
 11
394.0716153724073
 21
500.7350611051924
 31
0.0
 11
410.9178006732927
 21
510.5361513008081
 31
0.0
 11
426.1792722730518
 21
521.4823900435327
 31
0.0
  0
SPLINE
  5
28A8
102
{ACAD_REACTORS
330
2A09
102
}
330
A
100
AcDbEntity
  8
HIDDEN
 48
0.05
100
AcDbSpline
210
0.0
220
0.0
230
1.0
 70
  1064
 71
     3
 72
    41
 73
    37
 74
    35
 42
0.000000001
 43
0.0000000001
 44
0.0
 40
0.0
 40
0.0
 40
0.0
 40
0.0
 40
2.086793755365994
 40
5.203020884663692
 40
7.828024981406347
 40
11.84431621068082
 40
13.89999860729188
 40
15.56522146135924
 40
17.99859425955053
 40
21.64470070268186
 40
26.44067460744804
 40
29.13125060886256
 40
35.14488256507151
 40
37.9276734273312
 40
42.00873415228325
 40
46.2965259181237
 40
50.24111473296245
 40
54.49426613111251
 40
58.14121746495898
 40
70.45539814868556
 40
81.44025702876219
 40
91.22784526108738
 40
98.23228556241682
 40
109.3497687712969
 40
122.9039573225795
 40
134.0011013902693
 40
148.9800527034971
 40
161.9345360165316
 40
176.813821708056
 40
184.8743468265758
 40
194.0653871868309
 40
205.8956212114189
 40
220.0121203849573
 40
228.147619956457
 40
238.8758401788702
 40
254.2598989934321
 40
254.2598989934321
 40
254.2598989934321
 40
254.2598989934321
 10
206.3085498098337
 20
521.4823900435327
 30
0.0
 10
206.774241833536
 20
520.9656791173531
 30
0.0
 10
207.9353557763557
 20
519.6773593045624
 30
0.0
 10
209.6820571382018
 20
517.738946294955
 30
0.0
 10
211.8602713792655
 20
515.3232747970308
 30
0.0
 10
213.7976928105837
 20
513.167954417305
 30
0.0
 10
215.5316445001763
 20
511.2561386463736
 30
0.0
 10
217.039024952485
 20
509.8630944808948
 30
0.0
 10
218.8938170967365
 20
508.0676084787488
 30
0.0
 10
221.540796243421
 20
505.5919182965303
 30
0.0
 10
224.1326563334395
 20
502.9253404256259
 30
0.0
 10
227.6721237199193
 20
500.1396944676309
 30
0.0
 10
230.6293029686449
 20
497.7100014271871
 30
0.0
 10
233.9243184526638
 20
494.9565134873735
 30
0.0
 10
236.9538313017638
 20
492.7972075268041
 30
0.0
 10
240.3490159921365
 20
490.4925406837347
 30
0.0
 10
243.7367465464595
 20
488.0719004797144
 30
0.0
 10
247.1158262008138
 20
486.0242638462776
 30
0.0
 10
252.9654811330444
 20
482.6819867045198
 30
0.0
 10
260.9082977925613
 20
478.4672335743234
 30
0.0
 10
271.1053300146112
 20
474.2204640234559
 30
0.0
 10
279.919988406536
 20
471.3742798383982
 30
0.0
 10
288.8691510176656
 20
468.8130542226019
 30
0.0
 10
299.2852265874409
 20
466.9620981319803
 30
0.0
 10
311.1762482874805
 20
465.8785347370995
 30
0.0
 10
324.4051276469028
 20
465.9757561295953
 30
0.0
 10
337.3562038135386
 20
467.5622515779872
 30
0.0
 10
351.2717482628569
 20
470.7755484660148
 30
0.0
 10
362.6882581417708
 20
474.4719530399501
 30
0.0
 10
372.4296058746488
 20
478.9450945540069
 30
0.0
 10
381.0206099773305
 20
483.4418737825565
 30
0.0
 10
391.0498853506584
 20
489.5195095959796
 30
0.0
 10
400.1707584798496
 20
496.3163237566802
 30
0.0
 10
408.6718928497204
 20
503.2911086826258
 30
0.0
 10
416.9431751761114
 20
511.1802936538571
 30
0.0
 10
422.7551469571097
 20
517.663063689022
 30
0.0
 10
426.1792722730518
 20
521.4823900435327
 30
0.0
 11
206.3085498098337
 21
521.4823900435327
 31
0.0
 11
207.7056031681622
 21
519.9322448595524
 31
0.0
 11
209.7918350083262
 21
517.6173996745655
 31
0.0
 11
211.549205989311
 21
515.6674525616652
 31
0.0
 11
214.2380069958577
 21
512.6840075084523
 31
0.0
 11
215.6428010998641
 21
511.1832131717474
 31
0.0
 11
216.8471995638578
 21
510.0332603493943
 31
0.0
 11
218.6071744845161
 21
508.3528462773183
 31
0.0
 11
221.2442779742616
 21
505.8349548223473
 31
0.0
 11
224.7130410831426
 21
502.5229994800058
 31
0.0
 11
226.7969434271261
 21
500.821074029192
 31
0.0
 11
231.4546158819498
 21
497.0171475566752
 31
0.0
 11
233.6099403915085
 21
495.2568915407583
 31
0.0
 11
236.9057591645335
 21
492.8501021324132
 31
0.0
 11
240.4338265857798
 21
490.4133217774469
 31
0.0
 11
243.6795008274059
 21
488.1715859242751
 31
0.0
 11
247.2981524115289
 21
485.9367128790419
 31
0.0
 11
250.4618266659388
 21
484.1224859793878
 31
0.0
 11
261.3875073346842
 21
478.4419448224145
 31
0.0
 11
271.5274478686827
 21
474.2171690198219
 31
0.0
 11
280.8220774458899
 21
471.150127378752
 31
0.0
 11
287.5724569748611
 21
469.2807531118557
 31
0.0
 11
298.5020504020342
 21
467.245459418939
 31
0.0
 11
312.0032532023142
 21
466.048149839327
 31
0.0
 11
323.0999604724511
 21
466.1466090692337
 31
0.0
 11
337.9734550484553
 21
467.9209093655822
 31
0.0
 11
350.6040770748857
 21
470.7994550284367
 31
0.0
 11
364.7134027469713
 21
475.523867348401
 31
0.0
 11
372.0575994883026
 21
478.8457402253949
 31
0.0
 11
380.2008607144714
 21
483.1074909813887
 31
0.0
 11
390.3012389308682
 21
489.2667764076583
 31
0.0
 11
401.6831536064653
 21
497.6170798293273
 31
0.0
 11
407.9465595225755
 21
502.8090062163157
 31
0.0
 11
415.735262542623
 21
510.1867304186765
 31
0.0
 11
426.1792722730518
 21
521.4823900435327
 31
0.0
  0
LINE
  5
28AF
330
A
100
AcDbEntity
  8
HIDDEN
 48
0.05
100
AcDbLine
 10
292.0399305697795
 20
450.8417878085694
 30
0.0
 11
292.0355445227196
 21
468.3088957046443
 31
0.0
  0
LINE
  5
28B0
330
A
100
AcDbEntity
  8
HIDDEN
 48
0.05
100
AcDbLine
 10
339.8001775267933
 20
450.8417878085694
 30
0.0
 11
339.8045635738531
 21
468.3088957046443
 31
0.0
  0
DIMENSION
  5
28B1
330
A
100
AcDbEntity
  8
DIM
 48
0.05
100
AcDbDimension
  2
*D6
 10
426.3085498098338
 20
1235.049530724505
 30
0.0
 11
316.3085498098339
 21
1235.049530724505
 31
0.0
 70
   160
 71
     5
 42
220.0
 73
     0
 74
     0
 75
     0
  3
tfrom線あり
100
AcDbAlignedDimension
 13
206.3085498098338
 23
1096.770040126892
 33
0.0
 14
426.3085498098338
 24
1096.770040126892
 34
0.0
100
AcDbRotatedDimension
1001
ACAD
1000
DSTYLE
1002
{
1070
     3
1000
%%c<>
1002
}
  0
CIRCLE
  5
28C0
330
A
100
AcDbEntity
  8
MODEL
 48
0.05
100
AcDbCircle
 10
316.3085498098338
 20
1058.837275158471
 30
0.0
 40
107.0
  0
DIMENSION
  5
28C1
330
A
100
AcDbEntity
  8
DIM
 48
0.05
100
AcDbDimension
  2
*D7
 10
423.3085498098338
 20
888.8280399955448
 30
0.0
 11
316.3085498098338
 21
904.8302908396114
 31
0.0
 70
    32
 71
     5
 42
214.0
 73
     0
 74
     0
 75
     0
  3
tfrom線あり
100
AcDbAlignedDimension
 13
209.3085498098338
 23
1018.983454975768
 33
0.0
 14
423.3085498098338
 24
1019.056571495915
 34
0.0
100
AcDbRotatedDimension
1001
ACAD
1000
DSTYLE
1002
{
1070
     3
1000
%%c<>
1002
}
  0
DIMENSION
  5
28D0
330
A
100
AcDbEntity
  8
DIM
 48
0.05
100
AcDbDimension
  2
*D8
 10
501.164009688289
 20
1058.837275158471
 30
0.0
 11
485.1617588442224
 21
1113.837275158471
 31
0.0
 70
    32
 71
     5
 42
109.9999999999998
 73
     0
 74
     0
 75
     0
  3
tfrom線あり
100
AcDbAlignedDimension
 13
349.7667436335521
 23
1168.837275158471
 33
0.0
 14
426.3085498098338
 24
1058.837275158471
 34
0.0
 50
90.0
100
AcDbRotatedDimension
  0
DIMENSION
  5
28DF
330
A
100
AcDbEntity
  8
DIM
 48
0.05
100
AcDbDimension
  2
*D9
 10
135.889314888713
 20
1058.837275158471
 30
0.0
 11
119.8870640446464
 21
1112.337275158471
 31
0.0
 70
    32
 71
     5
 42
107.0
 73
     0
 74
     0
 75
     0
  3
tfrom線あり
100
AcDbAlignedDimension
 13
267.0337518842818
 23
1165.837275158471
 33
0.0
 14
206.3085498098338
 24
1058.837275158471
 34
0.0
 50
90.0
100
AcDbRotatedDimension
  0
LINE
  5
28F8
330
A
100
AcDbEntity
  8
DIM
 48
0.05
100
AcDbLine
 10
753.134221655424
 20
1112.847845214064
 30
0.0
 11
800.7959212566304
 21
1190.063389493879
 31
0.0
  0
LINE
  5
28F9
330
A
100
AcDbEntity
  8
DIM
 48
0.05
100
AcDbLine
 10
800.7959212566304
 20
1190.063389493879
 30
0.0
 11
800.7959212566304
 21
1190.063389493879
 31
0.0
  0
LINE
  5
28FA
330
A
100
AcDbEntity
  8
DIM
 48
0.05
100
AcDbLine
 10
800.7959212566304
 20
1190.063389493879
 30
0.0
 11
861.7495751513674
 21
1190.063389493879
 31
0.0
  0
MTEXT
  5
2937
330
A
100
AcDbEntity
  8
DIM
390
1D
100
AcDbMText
 10
826.7051641988251
 20
1207.129417552288
 30
0.0
 40
12.21630859375
 41
0.0
 46
12.58847292801939
 71
     1
 72
     1
  1
{%%c120}
  7
ＭＳ ゴシック
 73
     1
 44
0.7828267384257843
1001
ACAD
1000
ACAD_MTEXT_DEFINED_HEIGHT_BEGIN
1070
    46
1040
12.58847292801939
1000
ACAD_MTEXT_DEFINED_HEIGHT_END
  0
MTEXT
  5
2938
330
A
100
AcDbEntity
  8
DIM
390
1D
100
AcDbMText
 10
654.3025433732246
 20
1260.230484225157
 30
0.0
 40
12.21630859375
 41
0.0
 46
27.413396484375
 71
     1
 72
     1
  1
{カウンター切込寸法}
  7
ＭＳ ゴシック
 73
     1
 44
0.7828267384257843
1001
ACAD
1000
ACAD_MTEXT_DEFINED_HEIGHT_BEGIN
1070
    46
1040
27.413396484375
1000
ACAD_MTEXT_DEFINED_HEIGHT_END
  0
DIMENSION
  5
296A
102
{ACAD_REACTORS
330
296C
102
}
102
{ACAD_XDICTIONARY
360
296B
102
}
330
A
100
AcDbEntity
  8
DIM
 48
0.05
100
AcDbDimension
  2
*D12
 10
688.4123376847776
 20
521.4823900435327
 30
0.0
 11
688.4123376847776
 21
570.9173656593887
 31
0.0
 70
   160
  1
40（深さ）
 71
     5
 42
40.87227734918497
 73
     0
 74
     1
 75
     1
  3
tfrom線あり
100
AcDbAlignedDimension
 13
726.1288795737711
 23
480.6101126943478
 33
0.0
 14
725.2693337286711
 24
521.4823900435327
 34
0.0
 50
90.0
100
AcDbRotatedDimension
1001
ACAD
1000
DSTYLE
1002
{
1070
     3
1000
<>（深さ）
1070
   172
1070
     1
1002
}
  0
DIMENSION
  5
297B
102
{ACAD_REACTORS
330
297D
102
}
102
{ACAD_XDICTIONARY
360
297C
102
}
330
A
100
AcDbEntity
  8
DIM
 48
0.05
100
AcDbDimension
  2
*D13
 10
738.5053464881565
 20
521.4823900435327
 30
0.0
 11
738.5053464881565
 21
570.428744926614
 31
0.0
 70
   160
  1
55 (深さ)
 71
     5
 42
53.64764208641134
 73
     0
 74
     1
 75
     1
  3
tfrom線あり
100
AcDbAlignedDimension
 13
720.9050517382805
 23
467.8347479571214
 33
0.0
 14
732.0398953283527
 24
521.4823900435327
 34
0.0
 50
90.0
100
AcDbRotatedDimension
1001
ACAD
1000
DSTYLE
1002
{
1070
     3
1000
<>（深さ）
1070
   172
1070
     1
1002
}
  0
DIMENSION
  5
298E
330
A
100
AcDbEntity
  8
DIM
 48
0.05
100
AcDbDimension
  2
*D14
 10
337.5065166539474
 20
415.1687320080562
 30
0.0
 11
256.8216645303693
 21
415.1687320080562
 31
0.0
 70
   160
  1
G1 1/4"
 71
     5
 42
42.27684725134003
 73
     0
 74
     1
 75
     1
  3
tfrom線あり
100
AcDbAlignedDimension
 13
295.2296694026074
 23
440.5386935800299
 33
0.0
 14
337.5065166539474
 24
440.5386935800299
 34
0.0
100
AcDbRotatedDimension
1001
ACAD
1000
DSTYLE
1002
{
1070
     3
1000
<>
1070
   172
1070
     1
1070
   147
1040
5.0
1002
}
  0
DIMENSION
  5
299D
102
{ACAD_REACTORS
330
299F
102
}
102
{ACAD_XDICTIONARY
360
299E
102
}
330
A
100
AcDbEntity
  8
DIM
 48
0.05
100
AcDbDimension
  2
*D15
 10
726.2150646487154
 20
395.7365563993206
 30
0.0
 11
781.6088641639087
 21
395.7365563993206
 31
0.0
 70
   160
  1
110
 71
     5
 42
110.7875990303864
 73
     0
 74
     0
 75
     0
  3
tfrom線あり
100
AcDbAlignedDimension
 13
837.0026636791018
 23
450.8417878085693
 33
0.0
 14
726.2150646487154
 24
437.7993341210296
 34
0.0
100
AcDbRotatedDimension
  0
MTEXT
  5
29C7
330
A
100
AcDbEntity
  8
DIM
390
1D
100
AcDbMText
 10
565.8618626469729
 20
909.6835261065553
 30
0.0
 40
12.21630859375
 41
445.2585327933489
 46
13.58065655083303
 71
     1
 72
     1
  1
{\pxr0.447879;※こちらの寸法を参考に加工を行って下さい。}
  7
ＭＳ ゴシック
 73
     1
 44
1.043768984567712
1001
ACAD
1000
ACAD_MTEXT_DEFINED_HEIGHT_BEGIN
1070
    46
1040
13.58065655083303
1000
ACAD_MTEXT_DEFINED_HEIGHT_END
  0
MTEXT
  5
29C8
330
A
100
AcDbEntity
  8
TEMPLATE
390
1D
100
AcDbMText
 10
664.6010722739951
 20
225.0465336744994
 30
0.0
 40
12.21630859375
 41
0.0
 46
13.38951417084141
 71
     1
 72
     1
  1
{BRS70-0601-008　ブラック}
  7
ＭＳ ゴシック
 73
     1
 44
0.7828267384257843
1001
ACAD
1000
ACAD_MTEXT_DEFINED_HEIGHT_BEGIN
1070
    46
1040
13.38951417084141
1000
ACAD_MTEXT_DEFINED_HEIGHT_END
  0
MTEXT
  5
29C9
330
A
100
AcDbEntity
  8
TEMPLATE
390
1D
100
AcDbMText
 10
664.6010722739951
 20
205.0769556366046
 30
0.0
 40
12.21630859375
 41
0.0
 46
12.77846959943963
 71
     1
 72
     1
  1
{BRS70-0601-010　マットホワイト}
  7
ＭＳ ゴシック
 73
     1
 44
0.7828267384257843
1001
ACAD
1000
ACAD_MTEXT_DEFINED_HEIGHT_BEGIN
1070
    46
1040
12.77846959943963
1000
ACAD_MTEXT_DEFINED_HEIGHT_END
  0
MTEXT
  5
29CA
330
A
100
AcDbEntity
  8
TEMPLATE
390
1D
100
AcDbMText
 10
664.6010722739952
 20
243.6228853376573
 30
0.0
 40
12.21630859375
 41
0.0
 46
12.77846959943963
 71
     1
 72
     1
  1
{BRS70-0601-001　ホワイト }
  7
ＭＳ ゴシック
 73
     1
 44
0.7828267384257843
1001
ACAD
1000
ACAD_MTEXT_DEFINED_HEIGHT_BEGIN
1070
    46
1040
12.77846959943963
1000
ACAD_MTEXT_DEFINED_HEIGHT_END
  0
DIMENSION
  5
29E7
102
{ACAD_REACTORS
330
29E9
102
}
102
{ACAD_XDICTIONARY
360
29E8
102
}
330
A
100
AcDbEntity
  8
DIM
 48
0.05
100
AcDbDimension
  2
*D17
 10
590.8948738923011
 20
450.8417878085693
 30
0.0
 11
574.8926230482346
 21
486.1620889260511
 31
0.0
 70
    32
  1
70
 71
     5
 42
70.64060223496341
 73
     0
 74
     0
 75
     0
  3
tfrom線あり
100
AcDbAlignedDimension
 13
616.9018933619928
 23
521.4823900435327
 33
0.0
 14
616.9018933619928
 24
450.8417878085693
 34
0.0
 50
90.0
100
AcDbRotatedDimension
  0
DIMENSION
  5
29F7
102
{ACAD_REACTORS
330
29F9
102
}
102
{ACAD_XDICTIONARY
360
29F8
102
}
330
A
100
AcDbEntity
  8
DIM
 48
0.05
100
AcDbDimension
  2
*D18
 10
590.8948738923011
 20
450.8417878085693
 30
0.0
 11
574.8926230482346
 21
444.8025344223727
 31
0.0
 70
    32
 71
     5
 42
12.07850677239321
 73
     0
 74
     1
 75
     1
  3
tfrom線あり
100
AcDbAlignedDimension
 13
706.4998972741379
 23
438.7632810361761
 33
0.0
 14
616.9018933619928
 24
450.8417878085693
 34
0.0
 50
90.0
100
AcDbRotatedDimension
1001
ACAD
1000
DSTYLE
1002
{
1070
   172
1070
     1
1002
}
  0
DIMENSION
  5
2A07
102
{ACAD_REACTORS
330
2A09
102
}
102
{ACAD_XDICTIONARY
360
2A08
102
}
330
A
100
AcDbEntity
  8
DIM
 48
0.05
100
AcDbDimension
  2
*D19
 10
465.1476053068222
 20
438.7632810361762
 30
0.0
 11
449.1453544627557
 21
480.1228355398545
 31
0.0
 70
    32
  1
82
 71
     5
 42
82.71910900735656
 73
     0
 74
     0
 75
     0
  3
tfrom線あり
100
AcDbAlignedDimension
 13
426.1792722730518
 23
521.4823900435327
 33
0.0
 14
335.731350929532
 24
438.7632810361762
 34
0.0
 50
90.0
100
AcDbRotatedDimension
  0
LINE
  5
2C93
330
A
100
AcDbEntity
  8
MODEL
 48
0.05
100
AcDbLine
 10
296.6510601770735
 20
438.7632810361762
 30
0.0
 11
296.4707344818064
 21
439.2956396144865
 31
0.0
  0
LINE
  5
2D7A
330
A
100
AcDbEntity
  8
MODEL
100
AcDbLine
 10
705.0347510000838
 20
449.775744727719
 30
0.0
 11
705.0347510000838
 21
449.775744727719
 31
0.0
  0
LINE
  5
2D7B
330
A
100
AcDbEntity
  8
MODEL
100
AcDbLine
 10
705.0347510000838
 20
449.775744727719
 30
0.0
 11
705.3881098073562
 21
449.775744727719
 31
0.0
  0
LINE
  5
2D92
330
A
100
AcDbEntity
  8
MODEL
100
AcDbLine
 10
746.7801494546666
 20
449.775744727719
 30
0.0
 11
747.1335082619389
 21
449.775744727719
 31
0.0
  0
LINE
  5
2D93
330
A
100
AcDbEntity
  8
MODEL
100
AcDbLine
 10
747.1335082619389
 20
449.775744727719
 30
0.0
 11
747.3125080329773
 21
449.775744727719
 31
0.0
  0
LINE
  5
2D94
330
A
100
AcDbEntity
  8
MODEL
100
AcDbLine
 10
747.1328452998241
 20
444.0921705161968
 30
0.0
 11
747.1328452998241
 21
444.0921705161968
 31
0.0
  0
LINE
  5
2D95
330
A
100
AcDbEntity
  8
MODEL
100
AcDbLine
 10
747.1328452998241
 20
444.0921705161968
 30
0.0
 11
746.069454067434
 21
444.0921705161968
 31
0.0
  0
LINE
  5
2D96
330
A
100
AcDbEntity
  8
MODEL
100
AcDbLine
 10
746.069454067434
 20
444.0921705161968
 30
0.0
 11
743.9367049436178
 21
444.2685184387751
 31
0.0
  0
LINE
  5
2D97
330
A
100
AcDbEntity
  8
MODEL
100
AcDbLine
 10
743.9367049436178
 20
444.2685184387751
 30
0.0
 11
740.9169125099907
 21
444.2685184387751
 31
0.0
  0
LINE
  5
2D98
330
A
100
AcDbEntity
  8
MODEL
100
AcDbLine
 10
740.9169125099907
 20
444.2685184387751
 30
0.0
 11
737.0107397286674
 21
444.4461922855835
 31
0.0
  0
LINE
  5
2D99
330
A
100
AcDbEntity
  8
MODEL
100
AcDbLine
 10
737.0107397286674
 20
444.4461922855835
 30
0.0
 11
732.3918826737654
 21
444.4461922855835
 31
0.0
  0
LINE
  5
2D9A
330
A
100
AcDbEntity
  8
MODEL
100
AcDbLine
 10
732.3918826737654
 20
444.4461922855835
 30
0.0
 11
727.5933628857101
 21
444.6245290945071
 31
0.0
  0
LINE
  5
2D9B
330
A
100
AcDbEntity
  8
MODEL
100
AcDbLine
 10
727.5933628857101
 20
444.6245290945071
 30
0.0
 11
722.7994838324594
 21
444.6245290945071
 31
0.0
  0
LINE
  5
2D9C
330
A
100
AcDbEntity
  8
MODEL
100
AcDbLine
 10
722.7994838324594
 20
444.6245290945071
 30
0.0
 11
718.0022899686337
 21
444.8022029413151
 31
0.0
  0
LINE
  5
2D9D
330
A
100
AcDbEntity
  8
MODEL
100
AcDbLine
 10
718.0022899686337
 20
444.8022029413151
 30
0.0
 11
713.7374546831179
 21
444.8022029413151
 31
0.0
  0
LINE
  5
2D9E
330
A
100
AcDbEntity
  8
MODEL
100
AcDbLine
 10
713.7374546831179
 20
444.8022029413151
 30
0.0
 11
710.0063039001425
 21
444.9798767881234
 31
0.0
  0
LINE
  5
2D9F
330
A
100
AcDbEntity
  8
MODEL
100
AcDbLine
 10
710.0063039001425
 20
444.9798767881234
 30
0.0
 11
709.1185976282159
 21
444.9798767881234
 31
0.0
  0
LINE
  5
2DA0
330
A
100
AcDbEntity
  8
MODEL
100
AcDbLine
 10
709.1185976282159
 20
444.9798767881234
 30
0.0
 11
706.9871744286311
 21
444.9798767881234
 31
0.0
  0
LINE
  5
2DA1
330
A
100
AcDbEntity
  8
MODEL
100
AcDbLine
 10
706.9871744286311
 20
444.9798767881234
 30
0.0
 11
705.5684355026242
 21
445.1582135970466
 31
0.0
  0
LINE
  5
2DA2
330
A
100
AcDbEntity
  8
MODEL
100
AcDbLine
 10
705.5684355026242
 20
445.1582135970466
 30
0.0
 11
705.0347510000838
 21
445.1582135970466
 31
0.0
  0
LINE
  5
2DA3
330
A
100
AcDbEntity
  8
MODEL
100
AcDbLine
 10
747.1328452998241
 20
441.7824105076884
 30
0.0
 11
746.069454067434
 21
441.7824105076884
 31
0.0
  0
LINE
  5
2DA4
330
A
100
AcDbEntity
  8
MODEL
100
AcDbLine
 10
746.069454067434
 20
441.7824105076884
 30
0.0
 11
743.9367049436178
 21
441.9607473166116
 31
0.0
  0
LINE
  5
2DA5
330
A
100
AcDbEntity
  8
MODEL
100
AcDbLine
 10
743.9367049436178
 20
441.9607473166116
 30
0.0
 11
740.9169125099907
 21
441.9607473166116
 31
0.0
  0
LINE
  5
2DA6
330
A
100
AcDbEntity
  8
MODEL
100
AcDbLine
 10
740.9169125099907
 20
441.9607473166116
 30
0.0
 11
737.0107397286674
 21
442.1384211634195
 31
0.0
  0
LINE
  5
2DA7
330
A
100
AcDbEntity
  8
MODEL
100
AcDbLine
 10
737.0107397286674
 20
442.1384211634195
 30
0.0
 11
732.3918826737654
 21
442.1384211634195
 31
0.0
  0
LINE
  5
2DA8
330
A
100
AcDbEntity
  8
MODEL
100
AcDbLine
 10
732.3918826737654
 20
442.1384211634195
 30
0.0
 11
727.5933628857101
 21
442.3147690859978
 31
0.0
  0
LINE
  5
2DA9
330
A
100
AcDbEntity
  8
MODEL
100
AcDbLine
 10
727.5933628857101
 20
442.3147690859978
 30
0.0
 11
722.7994838324594
 21
442.3147690859978
 31
0.0
  0
LINE
  5
2DAA
330
A
100
AcDbEntity
  8
MODEL
100
AcDbLine
 10
722.7994838324594
 20
442.3147690859978
 30
0.0
 11
718.0022899686337
 21
442.4924429328066
 31
0.0
  0
LINE
  5
2DAB
330
A
100
AcDbEntity
  8
MODEL
100
AcDbLine
 10
718.0022899686337
 20
442.4924429328066
 30
0.0
 11
713.7374546831179
 21
442.4924429328066
 31
0.0
  0
LINE
  5
2DAC
330
A
100
AcDbEntity
  8
MODEL
100
AcDbLine
 10
713.7374546831179
 20
442.4924429328066
 30
0.0
 11
710.0063039001425
 21
442.6707797417298
 31
0.0
  0
LINE
  5
2DAD
330
A
100
AcDbEntity
  8
MODEL
100
AcDbLine
 10
710.0063039001425
 20
442.6707797417298
 30
0.0
 11
709.1185976282159
 21
442.6707797417298
 31
0.0
  0
LINE
  5
2DAE
330
A
100
AcDbEntity
  8
MODEL
100
AcDbLine
 10
709.1185976282159
 20
442.6707797417298
 30
0.0
 11
706.9871744286311
 21
442.6707797417298
 31
0.0
  0
LINE
  5
2DAF
330
A
100
AcDbEntity
  8
MODEL
100
AcDbLine
 10
706.9871744286311
 20
442.6707797417298
 30
0.0
 11
705.5684355026242
 21
442.6707797417298
 31
0.0
  0
LINE
  5
2DB0
330
A
100
AcDbEntity
  8
MODEL
100
AcDbLine
 10
705.5684355026242
 20
442.6707797417298
 30
0.0
 11
705.0347510000838
 21
442.8484535885382
 31
0.0
  0
LINE
  5
2DB1
330
A
100
AcDbEntity
  8
MODEL
100
AcDbLine
 10
709.1185976282159
 20
440.3616826953362
 30
0.0
 11
706.9871744286311
 21
440.3616826953362
 31
0.0
  0
LINE
  5
2DB2
330
A
100
AcDbEntity
  8
MODEL
100
AcDbLine
 10
706.9871744286311
 20
440.3616826953362
 30
0.0
 11
705.5684355026242
 21
440.3616826953362
 31
0.0
  0
LINE
  5
2DB3
330
A
100
AcDbEntity
  8
MODEL
100
AcDbLine
 10
705.5684355026242
 20
440.3616826953362
 30
0.0
 11
705.0347510000838
 21
440.5393565421446
 31
0.0
  0
LINE
  5
2DB4
330
A
100
AcDbEntity
  8
MODEL
100
AcDbLine
 10
705.0347510000838
 20
447.8219953749422
 30
0.0
 11
705.0347510000838
 21
447.8219953749422
 31
0.0
  0
LINE
  5
2DB5
330
A
100
AcDbEntity
  8
MODEL
100
AcDbLine
 10
705.0347510000838
 20
447.8219953749422
 30
0.0
 11
705.3881098073562
 21
447.8219953749422
 31
0.0
  0
LINE
  5
2DB6
330
A
100
AcDbEntity
  8
MODEL
100
AcDbLine
 10
705.3881098073562
 20
447.8219953749422
 30
0.0
 11
705.9224572720104
 21
447.8219953749422
 31
0.0
  0
LINE
  5
2DB7
330
A
100
AcDbEntity
  8
MODEL
100
AcDbLine
 10
705.9224572720104
 20
447.8219953749422
 30
0.0
 11
706.8121524302824
 21
447.8219953749422
 31
0.0
  0
LINE
  5
2DB8
330
A
100
AcDbEntity
  8
MODEL
100
AcDbLine
 10
706.8121524302824
 20
447.8219953749422
 30
0.0
 11
708.0532175094813
 21
447.8219953749422
 31
0.0
  0
LINE
  5
2DB9
330
A
100
AcDbEntity
  8
MODEL
100
AcDbLine
 10
708.0532175094813
 20
447.8219953749422
 30
0.0
 11
709.6509562065257
 21
447.8219953749422
 31
0.0
  0
LINE
  5
2DBA
330
A
100
AcDbEntity
  8
MODEL
100
AcDbLine
 10
709.6509562065257
 20
447.8219953749422
 30
0.0
 11
711.4283576367243
 21
447.8219953749422
 31
0.0
  0
LINE
  5
2DBB
330
A
100
AcDbEntity
  8
MODEL
100
AcDbLine
 10
711.4283576367243
 20
447.8219953749422
 30
0.0
 11
713.3821069895012
 21
447.8219953749422
 31
0.0
  0
LINE
  5
2DBC
330
A
100
AcDbEntity
  8
MODEL
100
AcDbLine
 10
713.3821069895012
 20
447.8219953749422
 30
0.0
 11
715.6931929222401
 21
447.8219953749422
 31
0.0
  0
LINE
  5
2DBD
330
A
100
AcDbEntity
  8
MODEL
100
AcDbLine
 10
715.6931929222401
 20
447.8219953749422
 30
0.0
 11
718.0029529307494
 21
447.8219953749422
 31
0.0
  0
LINE
  5
2DBE
330
A
100
AcDbEntity
  8
MODEL
100
AcDbLine
 10
718.0029529307494
 20
447.8219953749422
 30
0.0
 11
720.6680606328746
 21
447.8219953749422
 31
0.0
  0
LINE
  5
2DBF
330
A
100
AcDbEntity
  8
MODEL
100
AcDbLine
 10
720.6680606328746
 20
447.8219953749422
 30
0.0
 11
723.1528426397308
 21
447.8219953749422
 31
0.0
  0
LINE
  5
2DC0
330
A
100
AcDbEntity
  8
MODEL
100
AcDbLine
 10
723.1528426397308
 20
447.8219953749422
 30
0.0
 11
725.817950341856
 21
447.8219953749422
 31
0.0
  0
LINE
  5
2DC1
330
A
100
AcDbEntity
  8
MODEL
100
AcDbLine
 10
725.817950341856
 20
447.8219953749422
 30
0.0
 11
728.4830580439811
 21
447.8219953749422
 31
0.0
  0
LINE
  5
2DC2
330
A
100
AcDbEntity
  8
MODEL
100
AcDbLine
 10
728.4830580439811
 20
447.8219953749422
 30
0.0
 11
731.1468398218767
 21
447.8219953749422
 31
0.0
  0
LINE
  5
2DC3
330
A
100
AcDbEntity
  8
MODEL
100
AcDbLine
 10
731.1468398218767
 20
447.8219953749422
 30
0.0
 11
733.6329477529634
 21
447.8219953749422
 31
0.0
  0
LINE
  5
2DC4
330
A
100
AcDbEntity
  8
MODEL
100
AcDbLine
 10
733.6329477529634
 20
447.8219953749422
 30
0.0
 11
736.1217075325103
 21
447.8219953749422
 31
0.0
  0
LINE
  5
2DC5
330
A
100
AcDbEntity
  8
MODEL
100
AcDbLine
 10
736.1217075325103
 20
447.8219953749422
 30
0.0
 11
738.43014161679
 21
447.8219953749422
 31
0.0
  0
LINE
  5
2DC6
330
A
100
AcDbEntity
  8
MODEL
100
AcDbLine
 10
738.43014161679
 20
447.8219953749422
 30
0.0
 11
740.3838909695669
 21
447.8219953749422
 31
0.0
  0
LINE
  5
2DC7
330
A
100
AcDbEntity
  8
MODEL
100
AcDbLine
 10
740.3838909695669
 20
447.8219953749422
 30
0.0
 11
742.3389662465725
 21
447.8219953749422
 31
0.0
  0
LINE
  5
2DC8
330
A
100
AcDbEntity
  8
MODEL
100
AcDbLine
 10
742.3389662465725
 20
447.8219953749422
 30
0.0
 11
743.9367049436178
 21
447.8219953749422
 31
0.0
  0
LINE
  5
2DC9
330
A
100
AcDbEntity
  8
MODEL
100
AcDbLine
 10
743.9367049436178
 20
447.8219953749422
 30
0.0
 11
745.1804218712768
 21
447.8219953749422
 31
0.0
  0
LINE
  5
2DCA
330
A
100
AcDbEntity
  8
MODEL
100
AcDbLine
 10
745.1804218712768
 20
447.8219953749422
 30
0.0
 11
746.2451390278966
 21
447.8219953749422
 31
0.0
  0
LINE
  5
2DCB
330
A
100
AcDbEntity
  8
MODEL
100
AcDbLine
 10
746.2451390278966
 20
447.8219953749422
 30
0.0
 11
746.7801494546666
 21
447.8219953749422
 31
0.0
  0
LINE
  5
2DCC
330
A
100
AcDbEntity
  8
MODEL
100
AcDbLine
 10
746.7801494546666
 20
447.8219953749422
 30
0.0
 11
747.1328452998241
 21
447.8219953749422
 31
0.0
  0
LINE
  5
2DCD
330
A
100
AcDbEntity
  8
MODEL
100
AcDbLine
 10
747.1328452998241
 20
447.8219953749422
 30
0.0
 11
747.313833957207
 21
447.8219953749422
 31
0.0
  0
LINE
  5
2DCE
330
A
100
AcDbEntity
  8
MODEL
100
AcDbLine
 10
705.0347510000838
 20
447.8219953749422
 30
0.0
 11
705.0347510000838
 21
447.8219953749422
 31
0.0
  0
LINE
  5
2DCF
330
A
100
AcDbEntity
  8
MODEL
100
AcDbLine
 10
745.8917802206252
 20
447.2896367966323
 30
0.0
 11
745.8917802206252
 21
447.4673106434402
 31
0.0
  0
LINE
  5
2DD0
330
A
100
AcDbEntity
  8
MODEL
100
AcDbLine
 10
732.0332201695737
 20
447.8219953749422
 30
0.0
 11
730.9704918992984
 21
447.8219953749422
 31
0.0
  0
LINE
  5
2DD1
330
A
100
AcDbEntity
  8
MODEL
100
AcDbLine
 10
745.8917802206252
 20
444.9798767881234
 30
0.0
 11
745.8917802206252
 21
444.9798767881234
 31
0.0
  0
LINE
  5
2DD2
330
A
100
AcDbEntity
  8
MODEL
100
AcDbLine
 10
745.8917802206252
 20
442.6707797417298
 30
0.0
 11
745.8917802206252
 21
442.6707797417298
 31
0.0
  0
LINE
  5
2DD3
330
A
100
AcDbEntity
  8
MODEL
100
AcDbLine
 10
745.8917802206252
 20
440.3616826953362
 30
0.0
 11
745.8917802206252
 21
440.3616826953362
 31
0.0
  0
LINE
  5
2DD4
330
A
100
AcDbEntity
  8
MODEL
100
AcDbLine
 10
747.1328452998241
 20
441.9600843544963
 30
0.0
 11
747.1328452998241
 21
441.9600843544963
 31
0.0
  0
LINE
  5
2DD5
330
A
100
AcDbEntity
  8
MODEL
100
AcDbLine
 10
722.7994838324594
 20
440.3616826953362
 30
0.0
 11
718.0022899686337
 21
440.3616826953362
 31
0.0
  0
LINE
  5
2DD6
330
A
100
AcDbEntity
  8
MODEL
100
AcDbLine
 10
705.0347510000838
 20
447.8219953749422
 30
0.0
 11
705.2124248468926
 21
447.8219953749422
 31
0.0
  0
LINE
  5
2DD7
330
A
100
AcDbEntity
  8
MODEL
100
AcDbLine
 10
706.4561417745499
 20
438.7632810361761
 30
0.0
 11
706.6338156213587
 21
438.7632810361761
 31
0.0
  0
LINE
  5
2DD8
330
A
100
AcDbEntity
  8
MODEL
100
AcDbLine
 10
706.6338156213587
 20
438.7632810361761
 30
0.0
 11
707.1635223512094
 21
438.7632810361761
 31
0.0
  0
LINE
  5
2DD9
330
A
100
AcDbEntity
  8
MODEL
100
AcDbLine
 10
707.1635223512094
 20
438.7632810361761
 30
0.0
 11
708.0525545473656
 21
438.7632810361761
 31
0.0
  0
LINE
  5
2DDA
330
A
100
AcDbEntity
  8
MODEL
100
AcDbLine
 10
708.0525545473656
 20
438.7632810361761
 30
0.0
 11
709.1185976282159
 21
438.7632810361761
 31
0.0
  0
LINE
  5
2DDB
330
A
100
AcDbEntity
  8
MODEL
100
AcDbLine
 10
709.1185976282159
 20
438.7632810361761
 30
0.0
 11
710.5399884026829
 21
438.7632810361761
 31
0.0
  0
LINE
  5
2DDC
330
A
100
AcDbEntity
  8
MODEL
100
AcDbLine
 10
710.5399884026829
 20
438.7632810361761
 30
0.0
 11
712.3160639086509
 21
438.7632810361761
 31
0.0
  0
LINE
  5
2DDD
330
A
100
AcDbEntity
  8
MODEL
100
AcDbLine
 10
712.3160639086509
 20
438.7632810361761
 30
0.0
 11
714.2711391856583
 21
438.7632810361761
 31
0.0
  0
LINE
  5
2DDE
330
A
100
AcDbEntity
  8
MODEL
100
AcDbLine
 10
714.2711391856583
 20
438.7632810361761
 30
0.0
 11
716.4032253473588
 21
438.7632810361761
 31
0.0
  0
LINE
  5
2DDF
330
A
100
AcDbEntity
  8
MODEL
100
AcDbLine
 10
716.4032253473588
 20
438.7632810361761
 30
0.0
 11
718.7096705452923
 21
438.7632810361761
 31
0.0
  0
LINE
  5
2DE0
330
A
100
AcDbEntity
  8
MODEL
100
AcDbLine
 10
718.7096705452923
 20
438.7632810361761
 30
0.0
 11
721.0234083264913
 21
438.7632810361761
 31
0.0
  0
LINE
  5
2DE1
330
A
100
AcDbEntity
  8
MODEL
100
AcDbLine
 10
721.0234083264913
 20
438.7632810361761
 30
0.0
 11
723.5081903333476
 21
438.7632810361761
 31
0.0
  0
LINE
  5
2DE2
330
A
100
AcDbEntity
  8
MODEL
100
AcDbLine
 10
723.5081903333476
 20
438.7632810361761
 30
0.0
 11
726.1719721112431
 21
438.7632810361761
 31
0.0
  0
LINE
  5
2DE3
330
A
100
AcDbEntity
  8
MODEL
100
AcDbLine
 10
726.1719721112431
 20
438.7632810361761
 30
0.0
 11
728.6607318907891
 21
438.7632810361761
 31
0.0
  0
LINE
  5
2DE4
330
A
100
AcDbEntity
  8
MODEL
100
AcDbLine
 10
728.6607318907891
 20
438.7632810361761
 30
0.0
 11
731.1481657461072
 21
438.7632810361761
 31
0.0
  0
LINE
  5
2DE5
330
A
100
AcDbEntity
  8
MODEL
100
AcDbLine
 10
731.1481657461072
 20
438.7632810361761
 30
0.0
 11
733.6329477529634
 21
438.7632810361761
 31
0.0
  0
LINE
  5
2DE6
330
A
100
AcDbEntity
  8
MODEL
100
AcDbLine
 10
733.6329477529634
 20
438.7632810361761
 30
0.0
 11
735.9420447993571
 21
438.7632810361761
 31
0.0
  0
LINE
  5
2DE7
330
A
100
AcDbEntity
  8
MODEL
100
AcDbLine
 10
735.9420447993571
 20
438.7632810361761
 30
0.0
 11
738.0741309610576
 21
438.7632810361761
 31
0.0
  0
LINE
  5
2DE8
330
A
100
AcDbEntity
  8
MODEL
100
AcDbLine
 10
738.0741309610576
 20
438.7632810361761
 30
0.0
 11
740.029206238064
 21
438.7632810361761
 31
0.0
  0
LINE
  5
2DE9
330
A
100
AcDbEntity
  8
MODEL
100
AcDbLine
 10
740.029206238064
 20
438.7632810361761
 30
0.0
 11
741.6269449351103
 21
438.7632810361761
 31
0.0
  0
LINE
  5
2DEA
330
A
100
AcDbEntity
  8
MODEL
100
AcDbLine
 10
741.6269449351103
 20
438.7632810361761
 30
0.0
 11
743.0489986716921
 21
438.7632810361761
 31
0.0
  0
LINE
  5
2DEB
330
A
100
AcDbEntity
  8
MODEL
100
AcDbLine
 10
743.0489986716921
 20
438.7632810361761
 30
0.0
 11
744.2927155993493
 21
438.7632810361761
 31
0.0
  0
LINE
  5
2DEC
330
A
100
AcDbEntity
  8
MODEL
100
AcDbLine
 10
744.2927155993493
 20
438.7632810361761
 30
0.0
 11
745.0040739486985
 21
438.7632810361761
 31
0.0
  0
LINE
  5
2DED
102
{ACAD_REACTORS
102
}
330
A
100
AcDbEntity
  8
MODEL
100
AcDbLine
 10
745.0040739486985
 20
438.7632810361761
 30
0.0
 11
745.5364325270084
 21
438.7632810361761
 31
0.0
  0
LINE
  5
2DEE
330
A
100
AcDbEntity
  8
MODEL
100
AcDbLine
 10
745.5364325270084
 20
438.7632810361761
 30
0.0
 11
745.7141063738172
 21
438.7632810361761
 31
0.0
  0
LINE
  5
2DEF
330
A
100
AcDbEntity
  8
MODEL
100
AcDbLine
 10
722.7994838324594
 20
440.3616826953362
 30
0.0
 11
720.8430826312224
 21
440.3616826953362
 31
0.0
  0
LINE
  5
2DF0
330
A
100
AcDbEntity
  8
MODEL
100
AcDbLine
 10
720.8430826312224
 20
440.3616826953362
 30
0.0
 11
718.890659202676
 21
440.3616826953362
 31
0.0
  0
LINE
  5
2DF1
330
A
100
AcDbEntity
  8
MODEL
100
AcDbLine
 10
718.890659202676
 20
440.3616826953362
 30
0.0
 11
716.9369098498992
 21
440.3616826953362
 31
0.0
  0
LINE
  5
2DF2
330
A
100
AcDbEntity
  8
MODEL
100
AcDbLine
 10
716.9369098498992
 20
440.3616826953362
 30
0.0
 11
715.1595084196997
 21
440.3616826953362
 31
0.0
  0
LINE
  5
2DF3
330
A
100
AcDbEntity
  8
MODEL
100
AcDbLine
 10
715.1595084196997
 20
440.3616826953362
 30
0.0
 11
713.3821069895012
 21
440.3616826953362
 31
0.0
  0
LINE
  5
2DF4
330
A
100
AcDbEntity
  8
MODEL
100
AcDbLine
 10
713.3821069895012
 20
440.3616826953362
 30
0.0
 11
711.783705330341
 21
440.3616826953362
 31
0.0
  0
LINE
  5
2DF5
330
A
100
AcDbEntity
  8
MODEL
100
AcDbLine
 10
711.783705330341
 20
440.3616826953362
 30
0.0
 11
710.3649664043342
 21
440.3616826953362
 31
0.0
  0
LINE
  5
2DF6
330
A
100
AcDbEntity
  8
MODEL
100
AcDbLine
 10
710.3649664043342
 20
440.3616826953362
 30
0.0
 11
709.1185976282159
 21
440.3616826953362
 31
0.0
  0
LINE
  5
2DF7
330
A
100
AcDbEntity
  8
MODEL
100
AcDbLine
 10
722.7994838324594
 20
440.3616826953362
 30
0.0
 11
725.817950341856
 21
440.1840088485278
 31
0.0
  0
LINE
  5
2DF8
330
A
100
AcDbEntity
  8
MODEL
100
AcDbLine
 10
725.817950341856
 20
440.1840088485278
 30
0.0
 11
728.8370798133683
 21
440.1840088485278
 31
0.0
  0
LINE
  5
2DF9
330
A
100
AcDbEntity
  8
MODEL
100
AcDbLine
 10
728.8370798133683
 20
440.1840088485278
 30
0.0
 11
731.858198171225
 21
440.1840088485278
 31
0.0
  0
LINE
  5
2DFA
330
A
100
AcDbEntity
  8
MODEL
100
AcDbLine
 10
731.858198171225
 20
440.1840088485278
 30
0.0
 11
734.6989908338137
 21
440.1840088485278
 31
0.0
  0
LINE
  5
2DFB
330
A
100
AcDbEntity
  8
MODEL
100
AcDbLine
 10
734.6989908338137
 20
440.1840088485278
 30
0.0
 11
737.718120305326
 21
440.1840088485278
 31
0.0
  0
LINE
  5
2DFC
330
A
100
AcDbEntity
  8
MODEL
100
AcDbLine
 10
737.718120305326
 20
440.1840088485278
 30
0.0
 11
740.3838909695669
 21
440.0056720396046
 31
0.0
  0
LINE
  5
2DFD
330
A
100
AcDbEntity
  8
MODEL
100
AcDbLine
 10
740.3838909695669
 20
440.0056720396046
 30
0.0
 11
742.6903361675004
 21
440.0056720396046
 31
0.0
  0
LINE
  5
2DFE
330
A
100
AcDbEntity
  8
MODEL
100
AcDbLine
 10
742.6903361675004
 20
440.0056720396046
 30
0.0
 11
744.4703894461582
 21
440.0056720396046
 31
0.0
  0
LINE
  5
2DFF
330
A
100
AcDbEntity
  8
MODEL
100
AcDbLine
 10
744.4703894461582
 20
440.0056720396046
 30
0.0
 11
745.8917802206252
 21
440.0056720396046
 31
0.0
  0
LINE
  5
2E00
330
A
100
AcDbEntity
  8
MODEL
100
AcDbLine
 10
745.8917802206252
 20
440.0056720396046
 30
0.0
 11
746.6018126457429
 21
439.8279981927963
 31
0.0
  0
LINE
  5
2E01
330
A
100
AcDbEntity
  8
MODEL
100
AcDbLine
 10
746.6018126457429
 20
439.8279981927963
 30
0.0
 11
746.7801494546666
 21
439.8279981927963
 31
0.0
  0
LINE
  5
2E02
330
A
100
AcDbEntity
  8
MODEL
100
AcDbLine
 10
706.2758160792828
 20
439.2956396144864
 30
0.0
 11
706.2758160792828
 21
439.4733134612943
 31
0.0
  0
LINE
  5
2E03
330
A
100
AcDbEntity
  8
MODEL
100
AcDbLine
 10
706.2758160792828
 20
439.4733134612943
 30
0.0
 11
706.2758160792828
 21
439.8293241170263
 31
0.0
  0
LINE
  5
2E04
330
A
100
AcDbEntity
  8
MODEL
100
AcDbLine
 10
745.8917802206252
 20
440.8940412736461
 30
0.0
 11
745.8917802206252
 21
440.7163674268377
 31
0.0
  0
LINE
  5
2E05
330
A
100
AcDbEntity
  8
MODEL
100
AcDbLine
 10
745.8917802206252
 20
440.7163674268377
 30
0.0
 11
745.8917802206252
 21
440.3616826953362
 31
0.0
  0
LINE
  5
2E06
330
A
100
AcDbEntity
  8
MODEL
100
AcDbLine
 10
745.8917802206252
 20
447.8219953749422
 30
0.0
 11
745.8917802206252
 21
447.6443215281338
 31
0.0
  0
LINE
  5
2E07
330
A
100
AcDbEntity
  8
MODEL
100
AcDbLine
 10
745.8917802206252
 20
447.6443215281338
 30
0.0
 11
745.8917802206252
 21
447.2902997587471
 31
0.0
  0
LINE
  5
2E08
330
A
100
AcDbEntity
  8
MODEL
100
AcDbLine
 10
745.8917802206252
 20
445.5135612906634
 30
0.0
 11
745.8917802206252
 21
445.3345615196254
 31
0.0
  0
LINE
  5
2E09
330
A
100
AcDbEntity
  8
MODEL
100
AcDbLine
 10
745.8917802206252
 20
445.3345615196254
 30
0.0
 11
745.8917802206252
 21
444.9805397502387
 31
0.0
  0
LINE
  5
2E0A
330
A
100
AcDbEntity
  8
MODEL
100
AcDbLine
 10
745.8917802206252
 20
443.2044642442702
 30
0.0
 11
745.8917802206252
 21
443.0267903974618
 31
0.0
  0
LINE
  5
2E0B
330
A
100
AcDbEntity
  8
MODEL
100
AcDbLine
 10
745.8917802206252
 20
443.0267903974618
 30
0.0
 11
745.8917802206252
 21
442.6707797417298
 31
0.0
  0
LINE
  5
2E0C
330
A
100
AcDbEntity
  8
MODEL
100
AcDbLine
 10
706.2758160792828
 20
446.2235937157821
 30
0.0
 11
706.2758160792828
 21
446.4012675625904
 31
0.0
  0
LINE
  5
2E0D
330
A
100
AcDbEntity
  8
MODEL
100
AcDbLine
 10
706.2758160792828
 20
446.4012675625904
 30
0.0
 11
706.2758160792828
 21
446.757278218322
 31
0.0
  0
LINE
  5
2E0E
330
A
100
AcDbEntity
  8
MODEL
100
AcDbLine
 10
706.2758160792828
 20
443.9144966693884
 30
0.0
 11
706.2758160792828
 21
444.0921705161968
 31
0.0
  0
LINE
  5
2E0F
330
A
100
AcDbEntity
  8
MODEL
100
AcDbLine
 10
706.2758160792828
 20
444.0921705161968
 30
0.0
 11
706.2758160792828
 21
444.4468552476988
 31
0.0
  0
LINE
  5
2E10
330
A
100
AcDbEntity
  8
MODEL
100
AcDbLine
 10
706.2758160792828
 20
441.60473666088
 30
0.0
 11
706.2758160792828
 21
441.7824105076884
 31
0.0
  0
LINE
  5
2E11
330
A
100
AcDbEntity
  8
MODEL
100
AcDbLine
 10
706.2758160792828
 20
441.7824105076884
 30
0.0
 11
706.2758160792828
 21
442.1384211634195
 31
0.0
  0
LINE
  5
2E12
330
A
100
AcDbEntity
  8
MODEL
100
AcDbLine
 10
706.2758160792828
 20
439.8286611549115
 30
0.0
 11
705.7447834252025
 21
440.1846718106426
 31
0.0
  0
LINE
  5
2E13
330
A
100
AcDbEntity
  8
MODEL
100
AcDbLine
 10
705.7447834252025
 20
440.1846718106426
 30
0.0
 11
705.0347510000838
 21
440.5386935800298
 31
0.0
  0
LINE
  5
2E14
330
A
100
AcDbEntity
  8
MODEL
100
AcDbLine
 10
747.3131709950912
 20
441.6040736987652
 30
0.0
 11
746.6018126457429
 21
441.248726005148
 31
0.0
  0
LINE
  5
2E15
330
A
100
AcDbEntity
  8
MODEL
100
AcDbLine
 10
746.6018126457429
 20
441.248726005148
 30
0.0
 11
745.8917802206252
 21
440.8947042357613
 31
0.0
  0
LINE
  5
2E16
330
A
100
AcDbEntity
  8
MODEL
100
AcDbLine
 10
747.3131709950912
 20
446.4012675625904
 30
0.0
 11
746.6018126457429
 21
446.0452569068584
 31
0.0
  0
LINE
  5
2E17
330
A
100
AcDbEntity
  8
MODEL
100
AcDbLine
 10
746.6018126457429
 20
446.0452569068584
 30
0.0
 11
745.8917802206252
 21
445.5135612906634
 31
0.0
  0
LINE
  5
2E18
330
A
100
AcDbEntity
  8
MODEL
100
AcDbLine
 10
747.3131709950912
 20
444.0928334783116
 30
0.0
 11
746.6018126457429
 21
443.5584860136569
 31
0.0
  0
LINE
  5
2E19
330
A
100
AcDbEntity
  8
MODEL
100
AcDbLine
 10
746.6018126457429
 20
443.5584860136569
 30
0.0
 11
745.8917802206252
 21
443.2044642442702
 31
0.0
  0
LINE
  5
2E1A
330
A
100
AcDbEntity
  8
MODEL
100
AcDbLine
 10
706.2758160792828
 20
446.7566152562072
 30
0.0
 11
705.7447834252025
 21
447.1106370255939
 31
0.0
  0
LINE
  5
2E1B
330
A
100
AcDbEntity
  8
MODEL
100
AcDbLine
 10
705.7447834252025
 20
447.1106370255939
 30
0.0
 11
705.0347510000838
 21
447.4666476813254
 31
0.0
  0
LINE
  5
2E1C
330
A
100
AcDbEntity
  8
MODEL
100
AcDbLine
 10
706.2758160792828
 20
444.4468552476988
 30
0.0
 11
705.7447834252025
 21
444.8028659034303
 31
0.0
  0
LINE
  5
2E1D
330
A
100
AcDbEntity
  8
MODEL
100
AcDbLine
 10
705.7447834252025
 20
444.8028659034303
 30
0.0
 11
705.0347510000838
 21
445.156887672817
 31
0.0
  0
LINE
  5
2E1E
330
A
100
AcDbEntity
  8
MODEL
100
AcDbLine
 10
706.2758160792828
 20
442.1384211634195
 30
0.0
 11
705.7447834252025
 21
442.4931058949214
 31
0.0
  0
LINE
  5
2E1F
330
A
100
AcDbEntity
  8
MODEL
100
AcDbLine
 10
705.7447834252025
 20
442.4931058949214
 30
0.0
 11
705.0347510000838
 21
442.8484535885382
 31
0.0
  0
LINE
  5
2E20
330
A
100
AcDbEntity
  8
MODEL
100
AcDbLine
 10
705.0347510000838
 20
440.5393565421446
 30
0.0
 11
705.0347510000838
 21
440.8933783115313
 31
0.0
  0
LINE
  5
2E21
330
A
100
AcDbEntity
  8
MODEL
100
AcDbLine
 10
705.0347510000838
 20
442.8484535885382
 30
0.0
 11
705.0347510000838
 21
443.2044642442702
 31
0.0
  0
LINE
  5
2E22
330
A
100
AcDbEntity
  8
MODEL
100
AcDbLine
 10
705.0347510000838
 20
445.1575506349323
 30
0.0
 11
705.0347510000838
 21
445.5135612906634
 31
0.0
  0
LINE
  5
2E23
330
A
100
AcDbEntity
  8
MODEL
100
AcDbLine
 10
705.0347510000838
 20
447.4673106434402
 30
0.0
 11
705.0347510000838
 21
447.8219953749422
 31
0.0
  0
LINE
  5
2E24
330
A
100
AcDbEntity
  8
MODEL
100
AcDbLine
 10
705.0347510000838
 20
447.8219953749422
 30
0.0
 11
705.0347510000838
 21
449.775744727719
 31
0.0
  0
LINE
  5
2E25
330
A
100
AcDbEntity
  8
MODEL
100
AcDbLine
 10
747.3131709950912
 20
449.775744727719
 30
0.0
 11
747.3131709950912
 21
447.8219953749422
 31
0.0
  0
LINE
  5
2E26
330
A
100
AcDbEntity
  8
MODEL
100
AcDbLine
 10
747.3131709950912
 20
446.5789414093988
 30
0.0
 11
747.3131709950912
 21
446.4012675625904
 31
0.0
  0
LINE
  5
2E27
330
A
100
AcDbEntity
  8
MODEL
100
AcDbLine
 10
747.3131709950912
 20
444.2691814008899
 30
0.0
 11
747.3131709950912
 21
444.0928334783116
 31
0.0
  0
LINE
  5
2E28
330
A
100
AcDbEntity
  8
MODEL
100
AcDbLine
 10
747.3131709950912
 20
441.9600843544963
 30
0.0
 11
747.3131709950912
 21
441.6040736987652
 31
0.0
  0
LINE
  5
2E29
330
A
100
AcDbEntity
  8
MODEL
100
AcDbLine
 10
745.8917802206252
 20
440.3616826953362
 30
0.0
 11
746.6018126457429
 21
440.0056720396046
 31
0.0
  0
LINE
  5
2E2A
330
A
100
AcDbEntity
  8
MODEL
100
AcDbLine
 10
746.6018126457429
 20
440.0056720396046
 30
0.0
 11
746.7794864925518
 21
439.8279981927963
 31
0.0
  0
LINE
  5
2E2B
330
A
100
AcDbEntity
  8
MODEL
100
AcDbLine
 10
745.8917802206252
 20
447.2896367966323
 30
0.0
 11
746.6018126457429
 21
446.9336261409008
 31
0.0
  0
LINE
  5
2E2C
330
A
100
AcDbEntity
  8
MODEL
100
AcDbLine
 10
746.6018126457429
 20
446.9336261409008
 30
0.0
 11
747.3131709950912
 21
446.5796043715136
 31
0.0
  0
LINE
  5
2E2D
330
A
100
AcDbEntity
  8
MODEL
100
AcDbLine
 10
745.8917802206252
 20
444.9798767881234
 30
0.0
 11
746.6018126457429
 21
444.6238661323919
 31
0.0
  0
LINE
  5
2E2E
330
A
100
AcDbEntity
  8
MODEL
100
AcDbLine
 10
746.6018126457429
 20
444.6238661323919
 30
0.0
 11
747.3131709950912
 21
444.2698443630052
 31
0.0
  0
LINE
  5
2E2F
330
A
100
AcDbEntity
  8
MODEL
100
AcDbLine
 10
745.8917802206252
 20
442.6707797417298
 30
0.0
 11
746.6018126457429
 21
442.3147690859978
 31
0.0
  0
LINE
  5
2E30
330
A
100
AcDbEntity
  8
MODEL
100
AcDbLine
 10
746.6018126457429
 20
442.3147690859978
 30
0.0
 11
747.3131709950912
 21
441.9607473166116
 31
0.0
  0
LINE
  5
2E31
330
A
100
AcDbEntity
  8
MODEL
100
AcDbLine
 10
705.0347510000838
 20
445.5128983285486
 30
0.0
 11
705.7447834252025
 21
445.8689089842806
 31
0.0
  0
LINE
  5
2E32
330
A
100
AcDbEntity
  8
MODEL
100
AcDbLine
 10
705.7447834252025
 20
445.8689089842806
 30
0.0
 11
706.2758160792828
 21
446.2229307536668
 31
0.0
  0
LINE
  5
2E33
330
A
100
AcDbEntity
  8
MODEL
100
AcDbLine
 10
705.0347510000838
 20
443.2044642442702
 30
0.0
 11
705.7447834252025
 21
443.5584860136569
 31
0.0
  0
LINE
  5
2E34
330
A
100
AcDbEntity
  8
MODEL
100
AcDbLine
 10
705.7447834252025
 20
443.5584860136569
 30
0.0
 11
706.2758160792828
 21
443.9144966693884
 31
0.0
  0
LINE
  5
2E35
330
A
100
AcDbEntity
  8
MODEL
100
AcDbLine
 10
705.0347510000838
 20
440.8940412736461
 30
0.0
 11
705.7447834252025
 21
441.2500519293781
 31
0.0
  0
LINE
  5
2E36
330
A
100
AcDbEntity
  8
MODEL
100
AcDbLine
 10
705.7447834252025
 20
441.2500519293781
 30
0.0
 11
706.2758160792828
 21
441.6040736987652
 31
0.0
  0
LINE
  5
2E37
330
A
100
AcDbEntity
  8
MODEL
100
AcDbLine
 10
746.7801494546666
 20
439.8286611549115
 30
0.0
 11
745.7141063738172
 21
438.7626180740608
 31
0.0
  0
LINE
  5
2E38
330
A
100
AcDbEntity
  8
MODEL
100
AcDbLine
 10
705.0347510000838
 20
449.775744727719
 30
0.0
 11
705.0347510000838
 21
450.1317553834506
 31
0.0
  0
LINE
  5
2E39
330
A
100
AcDbEntity
  8
MODEL
100
AcDbLine
 10
705.0347510000838
 20
450.1317553834506
 30
0.0
 11
705.0347510000838
 21
450.3094292302585
 31
0.0
  0
LINE
  5
2E3A
330
A
100
AcDbEntity
  8
MODEL
100
AcDbLine
 10
705.0347510000838
 20
450.3094292302585
 30
0.0
 11
704.8544253048158
 21
450.4857771528377
 31
0.0
  0
LINE
  5
2E3B
330
A
100
AcDbEntity
  8
MODEL
100
AcDbLine
 10
704.8544253048158
 20
450.4857771528377
 30
0.0
 11
704.6794033064671
 21
450.4857771528377
 31
0.0
  0
LINE
  5
2E3C
330
A
100
AcDbEntity
  8
MODEL
100
AcDbLine
 10
704.6794033064671
 20
450.4857771528377
 30
0.0
 11
704.5010664975443
 21
450.6654398859905
 31
0.0
  0
LINE
  5
2E3D
330
A
100
AcDbEntity
  8
MODEL
100
AcDbLine
 10
704.5010664975443
 20
450.6654398859905
 30
0.0
 11
704.324718574966
 21
450.8417878085693
 31
0.0
  0
LINE
  5
2E3E
330
A
100
AcDbEntity
  8
MODEL
100
AcDbLine
 10
704.324718574966
 20
450.8417878085693
 30
0.0
 11
704.1470447281572
 21
450.8417878085693
 31
0.0
  0
LINE
  5
2E3F
330
A
100
AcDbEntity
  8
MODEL
100
AcDbLine
 10
704.1470447281572
 20
450.8417878085693
 30
0.0
 11
703.9687079192336
 21
450.8417878085693
 31
0.0
  0
LINE
  5
2E40
330
A
100
AcDbEntity
  8
MODEL
100
AcDbLine
 10
748.0212145338646
 20
450.8417878085693
 30
0.0
 11
747.8428777249419
 21
450.8417878085693
 31
0.0
  0
LINE
  5
2E41
330
A
100
AcDbEntity
  8
MODEL
100
AcDbLine
 10
747.8428777249419
 20
450.8417878085693
 30
0.0
 11
747.6678557265941
 21
450.6654398859905
 31
0.0
  0
LINE
  5
2E42
330
A
100
AcDbEntity
  8
MODEL
100
AcDbLine
 10
747.6678557265941
 20
450.6654398859905
 30
0.0
 11
747.4888559555557
 21
450.4857771528377
 31
0.0
  0
LINE
  5
2E43
330
A
100
AcDbEntity
  8
MODEL
100
AcDbLine
 10
747.4888559555557
 20
450.4857771528377
 30
0.0
 11
747.313833957207
 21
450.3094292302585
 31
0.0
  0
LINE
  5
2E44
330
A
100
AcDbEntity
  8
MODEL
100
AcDbLine
 10
747.313833957207
 20
450.3094292302585
 30
0.0
 11
747.313833957207
 21
450.1317553834506
 31
0.0
  0
LINE
  5
2E45
330
A
100
AcDbEntity
  8
MODEL
100
AcDbLine
 10
747.313833957207
 20
450.1317553834506
 30
0.0
 11
747.313833957207
 21
449.775744727719
 31
0.0
  0
LINE
  5
2E46
330
A
100
AcDbEntity
  8
MODEL
 48
0.05
100
AcDbLine
 10
706.4561417745499
 20
438.7632810361761
 30
0.0
 11
706.2758160792828
 21
439.2956396144864
 31
0.0
  0
LINE
  5
2E47
330
A
100
AcDbEntity
  8
MODEL
 48
0.05
100
AcDbLine
 10
705.0347510000838
 20
449.775744727719
 30
0.0
 11
747.2230081474581
 21
449.775744727719
 31
0.0
  0
VIEWPORT
  5
349
330
B
100
AcDbEntity
 67
     1
  8
0
100
AcDbViewport
 10
202.5
 20
128.5
 30
0.0
 40
486.0
 41
308.4
 68
     1
 69
     1
 12
202.5
 22
128.5
 13
0.0
 23
0.0
 14
0.5
 24
0.5
 15
0.0
 25
0.0
 16
0.0
 26
0.0
 36
1.0
 17
0.0
 27
0.0
 37
0.0
 42
50.0
 43
0.0
 44
0.0
 45
308.4
 50
0.0
 51
0.0
 72
   100
 90
   557152
  1

281
     0
 71
     1
 74
     0
110
0.0
120
0.0
130
0.0
111
1.0
121
0.0
131
0.0
112
0.0
122
1.0
132
0.0
 79
     0
146
0.0
170
     0
 61
     5
348
26C
292
     1
282
     1
141
0.0
142
0.0
 63
   256
  0
VIEWPORT
  5
34A
330
B
100
AcDbEntity
 67
     1
  8
0
100
AcDbViewport
 10
202.5
 20
128.5
 30
0.0
 40
324.0
 41
205.6
 68
     2
 69
     2
 12
986.6781359294573
 22
1427.077061889956
 13
0.0
 23
0.0
 14
0.5
 24
0.5
 15
0.0
 25
0.0
 16
0.0
 26
0.0
 36
1.0
 17
0.0
 27
0.0
 37
0.0
 42
50.0
 43
0.0
 44
0.0
 45
2890.021615685494
 50
0.0
 51
0.0
 72
   100
 90
   557152
  1

281
     0
 71
     1
 74
     0
110
0.0
120
0.0
130
0.0
111
1.0
121
0.0
131
0.0
112
0.0
122
1.0
132
0.0
 79
     0
146
0.0
170
     0
 61
     5
348
26C
292
     1
282
     1
141
0.0
142
0.0
 63
   256
  0
ENDSEC
  0
SECTION
  2
OBJECTS
  0
DICTIONARY
  5
19
330
0
100
AcDbDictionary
281
     1
  3
ACAD_COLOR
350
674
  3
ACAD_DETAILVIEWSTYLE
350
BBF
  3
ACAD_FIELDLIST
350
12BC
  3
ACAD_GROUP
350
1A
  3
ACAD_IMAGE_VARS
350
27B
  3
ACAD_LAYOUT
350
1E
  3
ACAD_MATERIAL
350
263
  3
ACAD_MLEADERSTYLE
350
336
  3
ACAD_MLINESTYLE
350
1B
  3
ACAD_PLOTSETTINGS
350
22
  3
ACAD_PLOTSTYLENAME
350
1F
  3
ACAD_SCALELIST
350
241
  3
ACAD_SECTIONVIEWSTYLE
350
BC0
  3
ACAD_TABLESTYLE
350
278
  3
ACAD_VISUALSTYLE
350
267
  3
ACDB_RECOMPOSE_DATA
350
2E56
  3
AcDbVariableDictionary
350
330
  3
APPDATA
350
27A
  3
DimOffsetDictionary
350
E38
  0
SUN
  5
904
330
15
100
AcDbSun
 90
        1
290
     0
 63
     7
421
 16777215
 40
1.0
291
     1
 91
  2455826
 92
 54000000
292
     0
 70
     2
 71
   256
280
     1
  0
DICTIONARY
  5
2E1
330
2
100
AcDbDictionary
280
     1
281
     1
  3
ACAD_LAYERSTATES
360
2E2
  3
ACLYDICTIONARY
360
DDE
  0
DICTIONARY
  5
288E
330
A
100
AcDbDictionary
280
     1
281
     1
  3
ACAD_SORTENTS
360
288F
  0
DICTIONARY
  5
12BA
330
12B8
100
AcDbDictionary
280
     1
281
     1
  3
ACAD_FIELD
360
12BE
  0
DICTIONARY
  5
296B
330
296A
100
AcDbDictionary
280
     1
281
     1
  3
ACAD_DIMASSOC
360
296C
  0
DICTIONARY
  5
297C
330
297B
100
AcDbDictionary
280
     1
281
     1
  3
ACAD_DIMASSOC
360
297D
  0
DICTIONARY
  5
299E
330
299D
100
AcDbDictionary
280
     1
281
     1
  3
ACAD_DIMASSOC
360
299F
  0
DICTIONARY
  5
29E8
330
29E7
100
AcDbDictionary
280
     1
281
     1
  3
ACAD_DIMASSOC
360
29E9
  0
DICTIONARY
  5
29F8
330
29F7
100
AcDbDictionary
280
     1
281
     1
  3
ACAD_DIMASSOC
360
29F9
  0
DICTIONARY
  5
2A08
330
2A07
100
AcDbDictionary
280
     1
281
     1
  3
ACAD_DIMASSOC
360
2A09
  0
DICTIONARY
  5
674
102
{ACAD_REACTORS
330
19
102
}
330
19
100
AcDbDictionary
281
     1
  0
DICTIONARY
  5
BBF
102
{ACAD_REACTORS
330
19
102
}
330
19
100
AcDbDictionary
281
     1
  0
FIELDLIST
  5
12BC
102
{ACAD_REACTORS
330
19
102
}
330
19
100
AcDbIdSet
 90
        2
330
12BD
330
12B9
100
AcDbFieldList
  0
DICTIONARY
  5
1A
102
{ACAD_REACTORS
330
19
102
}
330
19
100
AcDbDictionary
281
     1
  0
RASTERVARIABLES
  5
27B
102
{ACAD_REACTORS
330
19
102
}
330
19
100
AcDbRasterVariables
 90
        0
 70
     1
 71
     1
 72
     1
  0
DICTIONARY
  5
1E
102
{ACAD_REACTORS
330
19
102
}
330
19
100
AcDbDictionary
281
     1
  3
Layout1
350
21
  3
Model
350
20
  0
DICTIONARY
  5
263
102
{ACAD_REACTORS
330
19
102
}
330
19
100
AcDbDictionary
281
     1
  3
ByBlock
350
265
  3
ByLayer
350
264
  3
Global
350
266
  0
DICTIONARY
  5
336
102
{ACAD_REACTORS
330
19
102
}
330
19
100
AcDbDictionary
281
     1
  3
Standard
350
D59
  0
DICTIONARY
  5
1B
102
{ACAD_REACTORS
330
19
102
}
330
19
100
AcDbDictionary
281
     1
  3
Standard
350
1C
  0
DICTIONARY
  5
22
102
{ACAD_REACTORS
330
19
102
}
330
19
100
AcDbDictionary
281
     1
  0
ACDBDICTIONARYWDFLT
  5
1F
102
{ACAD_REACTORS
330
19
102
}
330
19
100
AcDbDictionary
281
     1
  3
Normal
350
1D
100
AcDbDictionaryWithDefault
340
1D
  0
DICTIONARY
  5
241
102
{ACAD_REACTORS
330
19
102
}
330
19
100
AcDbDictionary
281
     1
  3
A0
350
242
  3
A1
350
243
  3
A2
350
244
  3
A3
350
245
  3
A4
350
246
  3
A5
350
247
  3
A6
350
248
  3
A7
350
249
  3
A8
350
24A
  3
A9
350
24B
  3
B0
350
24C
  3
B1
350
24D
  3
B2
350
24E
  3
B3
350
24F
  3
B4
350
250
  3
B5
350
251
  3
B6
350
252
  3
B7
350
253
  3
B8
350
254
  3
B9
350
255
  3
C0
350
256
  3
C1
350
257
  3
C2
350
258
  3
C3
350
259
  3
C4
350
25A
  3
C5
350
25B
  3
C6
350
25C
  3
C7
350
25D
  3
C8
350
25E
  3
C9
350
25F
  3
D0
350
260
  3
D1
350
261
  3
D2
350
262
  0
DICTIONARY
  5
BC0
102
{ACAD_REACTORS
330
19
102
}
330
19
100
AcDbDictionary
281
     1
  0
DICTIONARY
  5
278
102
{ACAD_REACTORS
330
19
102
}
330
19
100
AcDbDictionary
281
     1
  3
Standard
350
279
  0
DICTIONARY
  5
267
102
{ACAD_REACTORS
330
19
102
}
330
19
100
AcDbDictionary
281
     1
  3
2dWireframe
350
26C
  3
3D Hidden
350
26E
  3
3dWireframe
350
26D
  3
Basic
350
26F
  3
Brighten
350
273
  3
ColorChange
350
277
  3
Conceptual
350
271
  3
Dim
350
272
  3
EdgeColorOff
350
8FE
  3
Facepattern
350
276
  3
Flat
350
268
  3
FlatWithEdges
350
269
  3
Gouraud
350
26A
  3
GouraudWithEdges
350
26B
  3
Hidden
350
8FB
  3
JitterOff
350
8FC
  3
Linepattern
350
275
  3
OverhangOff
350
8FD
  3
Realistic
350
270
  3
Shaded
350
903
  3
Shaded with edges
350
902
  3
Shades of Gray
350
8FF
  3
Sketchy
350
900
  3
Thicken
350
274
  3
Wireframe
350
8FA
  3
X-Ray
350
901
  0
XRECORD
  5
2E56
102
{ACAD_REACTORS
330
19
102
}
330
19
100
AcDbXrecord
280
     1
 90
        1
330
279
  0
DICTIONARY
  5
330
102
{ACAD_REACTORS
330
19
102
}
330
19
100
AcDbDictionary
281
     1
  3
CANNOSCALE
350
331
  3
CMLEADERSTYLE
350
D5E
  3
CTABLESTYLE
350
335
  3
HPTRANSPARENCY
350
D52
  3
XCLIPFRAME
350
896
  0
DICTIONARY
  5
27A
102
{ACAD_REACTORS
330
19
102
}
330
19
100
AcDbDictionary
281
     1
  0
DICTIONARY
  5
E38
102
{ACAD_REACTORS
330
19
102
}
330
19
100
AcDbDictionary
281
     1
  3
DIMRAILANGLE
350
E3B
  3
DIMRAILFIRSTOFFSET
350
E39
  3
DIMRAILOFFSET
350
E3A
  3
DIMRAILSENABLED
350
E3C
  0
DICTIONARY
  5
2E2
102
{ACAD_REACTORS
330
2E1
102
}
330
2E1
100
AcDbDictionary
281
     1
  0
DICTIONARY
  5
DDE
102
{ACAD_REACTORS
330
2E1
102
}
330
2E1
100
AcDbDictionary
281
     1
1001
ACAD
1000
<All
  0
SORTENTSTABLE
  5
288F
102
{ACAD_REACTORS
330
288E
102
}
330
288E
100
AcDbSortentsTable
330
A
331
288C
  5
2893
331
2893
  5
2892
  0
DICTIONARY
  5
12BE
102
{ACAD_REACTORS
330
12BA
102
}
330
12BA
100
AcDbDictionary
280
     1
281
     1
  3
TEXT
360
12B9
  0
DIMASSOC
  5
296C
102
{ACAD_REACTORS
330
296B
102
}
330
296B
100
AcDbDimAssoc
330
296A
 90
        3
 70
     0
 71
     1
  1
AcDbOsnapPointRef
 72
     1
331
284F
 73
     0
 91
        0
 40
0.0
 10
0.0
 20
0.0
 30
0.0
 75
     0
  1
AcDbOsnapPointRef
 72
    10
331
1D89
 73
     0
 91
        0
 40
0.5076462467144097
 10
0.0
 20
0.0
 30
0.0
 75
     0
  0
DIMASSOC
  5
297D
102
{ACAD_REACTORS
330
297C
102
}
330
297C
100
AcDbDimAssoc
330
297B
 90
        2
 70
     0
 71
     1
  1
AcDbOsnapPointRef
 72
     8
331
1D89
 73
     0
 91
        0
 40
0.4768850567834205
 10
0.0
 20
0.0
 30
0.0
 75
     1
  1
AcDbOsnapPointRef
 72
    10
331
2850
 73
     0
 91
        0
 40
121.0788356896457
 10
0.0
 20
0.0
 30
0.0
 75
     0
  0
DIMASSOC
  5
299F
102
{ACAD_REACTORS
330
299E
102
}
330
299E
100
AcDbDimAssoc
330
299D
 90
        1
 70
     0
 71
     1
  1
AcDbOsnapPointRef
 72
    13
331
1D8B
 73
     0
 91
        0
 40
0.0
 10
0.0
 20
0.0
 30
0.0
 75
     0
  0
DIMASSOC
  5
29E9
102
{ACAD_REACTORS
330
29E8
102
}
330
29E8
100
AcDbDimAssoc
330
29E7
 90
        3
 70
     0
 71
     1
  1
AcDbOsnapPointRef
 72
    13
331
284F
 73
     0
 91
        0
 40
0.0
 10
0.0
 20
0.0
 30
0.0
 75
     0
  1
AcDbOsnapPointRef
 72
     1
331
1D8B
 73
     0
 91
        0
 40
0.0
 10
0.0
 20
0.0
 30
0.0
 75
     0
  0
DIMASSOC
  5
29F9
102
{ACAD_REACTORS
330
29F8
102
}
330
29F8
100
AcDbDimAssoc
330
29F7
 90
        2
 70
     0
 71
     1
  1
AcDbOsnapPointRef
 72
     1
331
1D8B
 73
     0
 91
        0
 40
0.0
 10
0.0
 20
0.0
 30
0.0
 75
     0
  0
DIMASSOC
  5
2A09
102
{ACAD_REACTORS
330
2A08
102
}
330
2A08
100
AcDbDimAssoc
330
2A07
 90
        3
 70
     0
 71
     1
  1
AcDbOsnapPointRef
 72
     1
331
28A8
 73
     0
 91
        0
 40
0.0
 10
0.0
 20
0.0
 30
0.0
 75
     0
  1
AcDbOsnapPointRef
 72
     1
331
239D
 73
     0
 91
        0
 40
0.0
 10
0.0
 20
0.0
 30
0.0
 75
     0
  0
LAYOUT
  5
21
102
{ACAD_REACTORS
330
1E
102
}
330
1E
100
AcDbPlotSettings
  1

  2
none_device
  4
ISO_A3_(420.00_x_297.00_MM)
  6

 40
7.5
 41
20.0
 42
7.5
 43
20.0
 44
420.0
 45
297.0
 46
0.0
 47
0.0
 48
0.0
 49
0.0
140
0.0
141
0.0
142
1.0
143
1.0
 70
     0
 72
     1
 73
     0
 74
     0
  7

 75
     0
 76
     0
 77
     2
 78
   300
147
1.0
148
0.0
149
0.0
100
AcDbLayout
  1
Layout1
 70
     0
 71
     0
 10
-7.5
 20
-20.0
 11
412.5
 21
277.0
 12
0.0
 22
0.0
 32
0.0
 14
0.0
 24
0.0
 34
0.0
 15
0.0
 25
0.0
 35
0.0
146
0.0
 13
0.0
 23
0.0
 33
0.0
 16
0.0
 26
0.0
 36
0.0
 17
0.0
 27
0.0
 37
0.0
 76
     0
330
B
331
349
  0
LAYOUT
  5
20
102
{ACAD_REACTORS
330
1E
102
}
330
1E
100
AcDbPlotSettings
  1

  2
none_device
  4
ISO_A3_(420.00_x_297.00_MM)
  6

 40
7.5
 41
20.0
 42
7.5
 43
20.0
 44
420.0
 45
297.0
 46
0.0
 47
0.0
 48
0.0
 49
0.0
140
0.0
141
0.0
142
1.0
143
1.0
 70
  1024
 72
     1
 73
     0
 74
     0
  7

 75
     0
 76
     0
 77
     2
 78
   300
147
1.0
148
0.0
149
0.0
100
AcDbLayout
  1
Model
 70
     0
 71
     1
 10
0.0
 20
0.0
 11
1050.0
 21
1485.0
 12
0.0
 22
0.0
 32
0.0
 14
0.0
 24
0.0
 34
0.0
 15
1050.0
 25
1485.0
 35
0.0000000000000142
146
0.0
 13
0.0
 23
0.0
 33
0.0
 16
0.0
 26
0.0
 36
0.0
 17
0.0
 27
0.0
 37
0.0
 76
     0
330
A
331
15
  0
MATERIAL
  5
265
102
{ACAD_REACTORS
330
263
102
}
330
263
100
AcDbMaterial
  1
ByBlock
 72
     1
 94
      127
  0
MATERIAL
  5
264
102
{ACAD_REACTORS
330
263
102
}
330
263
100
AcDbMaterial
  1
ByLayer
 72
     1
 94
      127
  0
MATERIAL
  5
266
102
{ACAD_REACTORS
330
263
102
}
330
263
100
AcDbMaterial
  1
Global
 72
     1
 94
      127
  0
MLEADERSTYLE
  5
D59
102
{ACAD_REACTORS
330
336
102
}
330
336
100
AcDbMLeaderStyle
170
     2
171
     1
172
     0
 90
        2
 40
0.0
 41
0.0
173
     1
 91
-1056964608
340
11
 92
       -2
290
     1
 42
2.0
291
     1
 43
8.0
  3
Standard
341
0
 44
4.0
300

342
17
174
     1
178
     6
175
     1
176
     0
 93
-1056964608
 45
4.0
292
     0
297
     0
 46
4.0
343
0
 94
-1056964608
 47
1.0
 49
1.0
140
1.0
293
     1
141
0.0
294
     1
177
     0
142
1.0
295
     0
296
     0
143
3.75
1001
ACAD_MLEADERVER
1070
     2
  0
MLINESTYLE
  5
1C
102
{ACAD_REACTORS
330
1B
102
}
330
1B
100
AcDbMlineStyle
  2
Standard
 70
     0
  3

 62
     0
 51
90.0
 52
90.0
 71
     2
 49
0.5
 62
   256
  6
BYLAYER
 49
-0.5
 62
   256
  6
BYLAYER
  0
ACDBPLACEHOLDER
  5
1D
102
{ACAD_REACTORS
330
1F
102
}
330
1F
  0
SCALE
  5
242
102
{ACAD_REACTORS
330
241
102
}
330
241
100
AcDbScale
 70
     0
300
1:1
140
1.0
141
1.0
290
     1
  0
SCALE
  5
243
102
{ACAD_REACTORS
330
241
102
}
330
241
100
AcDbScale
 70
     0
300
1:2
140
1.0
141
2.0
290
     0
  0
SCALE
  5
244
102
{ACAD_REACTORS
330
241
102
}
330
241
100
AcDbScale
 70
     0
300
1:4
140
1.0
141
4.0
290
     0
  0
SCALE
  5
245
102
{ACAD_REACTORS
330
241
102
}
330
241
100
AcDbScale
 70
     0
300
1:5
140
1.0
141
5.0
290
     0
  0
SCALE
  5
246
102
{ACAD_REACTORS
330
241
102
}
330
241
100
AcDbScale
 70
     0
300
1:8
140
1.0
141
8.0
290
     0
  0
SCALE
  5
247
102
{ACAD_REACTORS
330
241
102
}
330
241
100
AcDbScale
 70
     0
300
1:10
140
1.0
141
10.0
290
     0
  0
SCALE
  5
248
102
{ACAD_REACTORS
330
241
102
}
330
241
100
AcDbScale
 70
     0
300
1:16
140
1.0
141
16.0
290
     0
  0
SCALE
  5
249
102
{ACAD_REACTORS
330
241
102
}
330
241
100
AcDbScale
 70
     0
300
1:20
140
1.0
141
20.0
290
     0
  0
SCALE
  5
24A
102
{ACAD_REACTORS
330
241
102
}
330
241
100
AcDbScale
 70
     0
300
1:30
140
1.0
141
30.0
290
     0
  0
SCALE
  5
24B
102
{ACAD_REACTORS
330
241
102
}
330
241
100
AcDbScale
 70
     0
300
1:40
140
1.0
141
40.0
290
     0
  0
SCALE
  5
24C
102
{ACAD_REACTORS
330
241
102
}
330
241
100
AcDbScale
 70
     0
300
1:50
140
1.0
141
50.0
290
     0
  0
SCALE
  5
24D
102
{ACAD_REACTORS
330
241
102
}
330
241
100
AcDbScale
 70
     0
300
1:100
140
1.0
141
100.0
290
     0
  0
SCALE
  5
24E
102
{ACAD_REACTORS
330
241
102
}
330
241
100
AcDbScale
 70
     0
300
2:1
140
2.0
141
1.0
290
     0
  0
SCALE
  5
24F
102
{ACAD_REACTORS
330
241
102
}
330
241
100
AcDbScale
 70
     0
300
4:1
140
4.0
141
1.0
290
     0
  0
SCALE
  5
250
102
{ACAD_REACTORS
330
241
102
}
330
241
100
AcDbScale
 70
     0
300
8:1
140
8.0
141
1.0
290
     0
  0
SCALE
  5
251
102
{ACAD_REACTORS
330
241
102
}
330
241
100
AcDbScale
 70
     0
300
10:1
140
10.0
141
1.0
290
     0
  0
SCALE
  5
252
102
{ACAD_REACTORS
330
241
102
}
330
241
100
AcDbScale
 70
     0
300
100:1
140
100.0
141
1.0
290
     0
  0
SCALE
  5
253
102
{ACAD_REACTORS
330
241
102
}
330
241
100
AcDbScale
 70
     0
300
1/128" = 1'-0"
140
0.0078125
141
12.0
290
     0
  0
SCALE
  5
254
102
{ACAD_REACTORS
330
241
102
}
330
241
100
AcDbScale
 70
     0
300
1/64" = 1'-0"
140
0.015625
141
12.0
290
     0
  0
SCALE
  5
255
102
{ACAD_REACTORS
330
241
102
}
330
241
100
AcDbScale
 70
     0
300
1/32" = 1'-0"
140
0.03125
141
12.0
290
     0
  0
SCALE
  5
256
102
{ACAD_REACTORS
330
241
102
}
330
241
100
AcDbScale
 70
     0
300
1/16" = 1'-0"
140
0.0625
141
12.0
290
     0
  0
SCALE
  5
257
102
{ACAD_REACTORS
330
241
102
}
330
241
100
AcDbScale
 70
     0
300
3/32" = 1'-0"
140
0.09375
141
12.0
290
     0
  0
SCALE
  5
258
102
{ACAD_REACTORS
330
241
102
}
330
241
100
AcDbScale
 70
     0
300
1/8" = 1'-0"
140
0.125
141
12.0
290
     0
  0
SCALE
  5
259
102
{ACAD_REACTORS
330
241
102
}
330
241
100
AcDbScale
 70
     0
300
3/16" = 1'-0"
140
0.1875
141
12.0
290
     0
  0
SCALE
  5
25A
102
{ACAD_REACTORS
330
241
102
}
330
241
100
AcDbScale
 70
     0
300
1/4" = 1'-0"
140
0.25
141
12.0
290
     0
  0
SCALE
  5
25B
102
{ACAD_REACTORS
330
241
102
}
330
241
100
AcDbScale
 70
     0
300
3/8" = 1'-0"
140
0.375
141
12.0
290
     0
  0
SCALE
  5
25C
102
{ACAD_REACTORS
330
241
102
}
330
241
100
AcDbScale
 70
     0
300
1/2" = 1'-0"
140
0.5
141
12.0
290
     0
  0
SCALE
  5
25D
102
{ACAD_REACTORS
330
241
102
}
330
241
100
AcDbScale
 70
     0
300
3/4" = 1'-0"
140
0.75
141
12.0
290
     0
  0
SCALE
  5
25E
102
{ACAD_REACTORS
330
241
102
}
330
241
100
AcDbScale
 70
     0
300
1" = 1'-0"
140
1.0
141
12.0
290
     0
  0
SCALE
  5
25F
102
{ACAD_REACTORS
330
241
102
}
330
241
100
AcDbScale
 70
     0
300
1-1/2" = 1'-0"
140
1.5
141
12.0
290
     0
  0
SCALE
  5
260
102
{ACAD_REACTORS
330
241
102
}
330
241
100
AcDbScale
 70
     0
300
3" = 1'-0"
140
3.0
141
12.0
290
     0
  0
SCALE
  5
261
102
{ACAD_REACTORS
330
241
102
}
330
241
100
AcDbScale
 70
     0
300
6" = 1'-0"
140
6.0
141
12.0
290
     0
  0
SCALE
  5
262
102
{ACAD_REACTORS
330
241
102
}
330
241
100
AcDbScale
 70
     0
300
1'-0" = 1'-0"
140
12.0
141
12.0
290
     0
  0
TABLESTYLE
  5
279
102
{ACAD_REACTORS
330
278
102
}
102
{ACAD_XDICTIONARY
360
2E54
102
}
330
278
100
AcDbTableStyle
  3
Standard
 70
     0
 71
     0
 40
0.06
 41
0.06
280
     0
281
     0
  7
Standard
140
4.5
170
     2
 62
     0
 63
   257
283
     0
 90
        4
 91
        0
  1

274
    -2
284
     1
 64
     0
275
    -2
285
     1
 65
     0
276
    -2
286
     1
 66
     0
277
    -2
287
     1
 67
     0
278
    -2
288
     1
 68
     0
279
    -2
289
     1
 69
     0
  7
Standard
140
6.0
170
     5
 62
     0
 63
   257
283
     0
 90
        4
 91
        0
  1

274
    -2
284
     1
 64
     0
275
    -2
285
     1
 65
     0
276
    -2
286
     1
 66
     0
277
    -2
287
     1
 67
     0
278
    -2
288
     1
 68
     0
279
    -2
289
     1
 69
     0
  7
Standard
140
4.5
170
     5
 62
     0
 63
   257
283
     0
 90
        4
 91
        0
  1

274
    -2
284
     1
 64
     0
275
    -2
285
     1
 65
     0
276
    -2
286
     1
 66
     0
277
    -2
287
     1
 67
     0
278
    -2
288
     1
 68
     0
279
    -2
289
     1
 69
     0
  0
VISUALSTYLE
  5
26C
102
{ACAD_REACTORS
330
267
102
}
330
267
100
AcDbVisualStyle
  2
2dWireframe
 70
     4
 71
     0
 72
     2
 73
     0
 90
        0
 40
-0.6
 41
-30.0
 62
     5
 63
     7
421
 16777215
 74
     1
 91
        4
 64
     7
 65
   257
 75
     1
175
     1
 42
1.0
 92
        0
 66
   257
 43
1.0
 76
     1
 77
     6
 78
     2
 67
     7
 79
     5
170
     0
171
     0
290
     0
174
     0
 93
        1
 44
0.0
173
     0
291
     0
 45
0.0
  0
VISUALSTYLE
  5
26E
102
{ACAD_REACTORS
330
267
102
}
330
267
100
AcDbVisualStyle
  2
3D Hidden
 70
     6
 71
     1
 72
     2
 73
     2
 90
        0
 40
-0.6
 41
-30.0
 62
     5
 63
     7
421
 16777215
 74
     2
 91
        2
 64
     7
 65
   257
 75
     2
175
     1
 42
40.0
 92
        0
 66
   257
 43
1.0
 76
     1
 77
     6
 78
     2
 67
     7
 79
     3
170
     0
171
     0
290
     0
174
     0
 93
        1
 44
0.0
173
     0
291
     0
 45
0.0
  0
VISUALSTYLE
  5
26D
102
{ACAD_REACTORS
330
267
102
}
330
267
100
AcDbVisualStyle
  2
3dWireframe
 70
     5
 71
     0
 72
     2
 73
     0
 90
        0
 40
-0.6
 41
-30.0
 62
     5
 63
     7
421
 16777215
 74
     1
 91
        4
 64
     7
 65
   257
 75
     1
175
     1
 42
1.0
 92
        0
 66
   257
 43
1.0
 76
     1
 77
     6
 78
     2
 67
     7
 79
     5
170
     0
171
     0
290
     0
174
     0
 93
        1
 44
0.0
173
     0
291
     0
 45
0.0
  0
VISUALSTYLE
  5
26F
102
{ACAD_REACTORS
330
267
102
}
330
267
100
AcDbVisualStyle
  2
Basic
 70
     7
 71
     1
 72
     0
 73
     1
 90
        0
 40
-0.6
 41
-30.0
 62
     5
 63
     7
421
 16777215
 74
     0
 91
        4
 64
     7
 65
   257
 75
     1
175
     1
 42
1.0
 92
        8
 66
     7
 43
1.0
 76
     1
 77
     6
 78
     2
 67
     7
 79
     5
170
     0
171
     0
290
     0
174
     0
 93
        1
 44
0.0
173
     0
291
     1
 45
0.0
  0
VISUALSTYLE
  5
273
102
{ACAD_REACTORS
330
267
102
}
330
267
100
AcDbVisualStyle
  2
Brighten
 70
    12
 71
     2
 72
     2
 73
     0
 90
        0
 40
-0.6
 41
-30.0
 62
     5
 63
     7
421
 16777215
 74
     1
 91
        4
 64
     7
 65
   257
 75
     1
175
     1
 42
1.0
 92
        8
 66
     7
 43
1.0
 76
     1
 77
     6
 78
     2
 67
     7
 79
     5
170
     0
171
     0
290
     0
174
     0
 93
        1
 44
50.0
173
     0
291
     1
 45
0.0
  0
VISUALSTYLE
  5
277
102
{ACAD_REACTORS
330
267
102
}
330
267
100
AcDbVisualStyle
  2
ColorChange
 70
    16
 71
     2
 72
     2
 73
     3
 90
        0
 40
-0.6
 41
-30.0
 62
     5
 63
     8
421
  8421504
 74
     1
 91
        4
 64
     7
 65
   257
 75
     1
175
     1
 42
1.0
 92
        8
 66
     8
424
  8421504
 43
1.0
 76
     1
 77
     6
 78
     2
 67
     7
 79
     5
170
     0
171
     0
290
     0
174
     0
 93
        1
 44
0.0
173
     0
291
     1
 45
0.0
  0
VISUALSTYLE
  5
271
102
{ACAD_REACTORS
330
267
102
}
330
267
100
AcDbVisualStyle
  2
Conceptual
 70
     9
 71
     3
 72
     2
 73
     0
 90
        0
 40
-0.6
 41
-30.0
 62
     5
 63
     7
421
 16777215
 74
     2
 91
        2
 64
     7
 65
   257
 75
     1
175
     1
 42
40.0
 92
        8
 66
     7
 43
1.0
 76
     1
 77
     6
 78
     2
 67
     7
 79
     3
170
     0
171
     0
290
     0
174
     0
 93
        1
 44
0.0
173
     0
291
     0
 45
0.0
  0
VISUALSTYLE
  5
272
102
{ACAD_REACTORS
330
267
102
}
330
267
100
AcDbVisualStyle
  2
Dim
 70
    11
 71
     2
 72
     2
 73
     0
 90
        0
 40
-0.6
 41
-30.0
 62
     5
 63
     7
421
 16777215
 74
     1
 91
        4
 64
     7
 65
   257
 75
     1
175
     1
 42
1.0
 92
        8
 66
     7
 43
1.0
 76
     1
 77
     6
 78
     2
 67
     7
 79
     5
170
     0
171
     0
290
     0
174
     0
 93
        1
 44
-50.0
173
     0
291
     1
 45
0.0
  0
VISUALSTYLE
  5
8FE
102
{ACAD_REACTORS
330
267
102
}
330
267
100
AcDbVisualStyle
  2
EdgeColorOff
 70
    22
 71
     2
 72
     2
 73
     0
 90
        0
 40
0.6
 41
30.0
 62
     5
 63
     7
421
 16777215
 74
     1
 91
        4
 64
     7
 65
   257
 75
     1
175
     1
 42
1.0
 92
        8
 66
     7
 43
1.0
 76
     1
 77
     6
 78
     2
 67
     7
 79
     5
170
     0
171
     0
290
     0
174
     0
 93
        1
 44
0.0
173
     0
291
     1
 45
0.0
  0
VISUALSTYLE
  5
276
102
{ACAD_REACTORS
330
267
102
}
330
267
100
AcDbVisualStyle
  2
Facepattern
 70
    15
 71
     2
 72
     2
 73
     0
 90
        0
 40
-0.6
 41
-30.0
 62
     5
 63
     7
421
 16777215
 74
     1
 91
        4
 64
     7
 65
   257
 75
     1
175
     1
 42
1.0
 92
        8
 66
     7
 43
1.0
 76
     1
 77
     6
 78
     2
 67
     7
 79
     5
170
     0
171
     0
290
     0
174
     0
 93
        1
 44
0.0
173
     0
291
     1
 45
0.0
  0
VISUALSTYLE
  5
268
102
{ACAD_REACTORS
330
267
102
}
330
267
100
AcDbVisualStyle
  2
Flat
 70
     0
 71
     2
 72
     1
 73
     1
 90
        2
 40
-0.6
 41
30.0
 62
     5
 63
     7
421
 16777215
 74
     0
 91
        4
 64
     7
 65
   257
 75
     1
175
     1
 42
1.0
 92
        8
 66
     7
 43
1.0
 76
     1
 77
     6
 78
     2
 67
     7
 79
     5
170
     0
171
     0
290
     0
174
     0
 93
       13
 44
0.0
173
     0
291
     1
 45
0.0
  0
VISUALSTYLE
  5
269
102
{ACAD_REACTORS
330
267
102
}
330
267
100
AcDbVisualStyle
  2
FlatWithEdges
 70
     1
 71
     2
 72
     1
 73
     1
 90
        2
 40
-0.6
 41
30.0
 62
     5
 63
     7
421
 16777215
 74
     1
 91
        4
 64
     7
 65
   257
 75
     1
175
     1
 42
1.0
 92
        0
 66
   257
 43
1.0
 76
     1
 77
     6
 78
     2
 67
     7
 79
     5
170
     0
171
     0
290
     0
174
     0
 93
       13
 44
0.0
173
     0
291
     1
 45
0.0
  0
VISUALSTYLE
  5
26A
102
{ACAD_REACTORS
330
267
102
}
330
267
100
AcDbVisualStyle
  2
Gouraud
 70
     2
 71
     2
 72
     2
 73
     1
 90
        2
 40
-0.6
 41
30.0
 62
     5
 63
     7
421
 16777215
 74
     0
 91
        4
 64
     7
 65
   257
 75
     1
175
     1
 42
1.0
 92
        0
 66
     7
 43
1.0
 76
     1
 77
     6
 78
     2
 67
     7
 79
     5
170
     0
171
     0
290
     0
174
     0
 93
       13
 44
0.0
173
     0
291
     1
 45
0.0
  0
VISUALSTYLE
  5
26B
102
{ACAD_REACTORS
330
267
102
}
330
267
100
AcDbVisualStyle
  2
GouraudWithEdges
 70
     3
 71
     2
 72
     2
 73
     1
 90
        2
 40
-0.6
 41
30.0
 62
     5
 63
     7
421
 16777215
 74
     1
 91
        4
 64
     7
 65
   257
 75
     1
175
     1
 42
1.0
 92
        0
 66
   257
 43
1.0
 76
     1
 77
     6
 78
     2
 67
     7
 79
     5
170
     0
171
     0
290
     0
174
     0
 93
       13
 44
0.0
173
     0
291
     1
 45
0.0
  0
VISUALSTYLE
  5
8FB
102
{ACAD_REACTORS
330
267
102
}
330
267
100
AcDbVisualStyle
  2
Hidden
 70
     6
 71
     1
 72
     2
 73
     2
 90
        0
 40
0.6
 41
30.0
 62
     5
 63
     7
421
 16777215
 74
     2
 91
        2
 64
     7
 65
   257
 75
     2
175
     1
 42
40.0
 92
        0
 66
   257
 43
1.0
 76
     1
 77
     6
 78
     2
 67
     7
 79
     3
170
     0
171
     0
290
     0
174
     0
 93
        1
 44
0.0
173
     0
291
     0
 45
0.0
  0
VISUALSTYLE
  5
8FC
102
{ACAD_REACTORS
330
267
102
}
330
267
100
AcDbVisualStyle
  2
JitterOff
 70
    20
 71
     2
 72
     2
 73
     0
 90
        0
 40
0.6
 41
30.0
 62
     5
 63
     7
421
 16777215
 74
     1
 91
        4
 64
     7
 65
   257
 75
     1
175
     1
 42
1.0
 92
       10
 66
     7
 43
1.0
 76
     1
 77
     6
 78
     2
 67
     7
 79
     5
170
     0
171
     0
290
     0
174
     0
 93
        1
 44
0.0
173
     0
291
     1
 45
0.0
  0
VISUALSTYLE
  5
275
102
{ACAD_REACTORS
330
267
102
}
330
267
100
AcDbVisualStyle
  2
Linepattern
 70
    14
 71
     2
 72
     2
 73
     0
 90
        0
 40
-0.6
 41
-30.0
 62
     5
 63
     7
421
 16777215
 74
     1
 91
        4
 64
     7
 65
   257
 75
     7
175
     7
 42
1.0
 92
        8
 66
     7
 43
1.0
 76
     1
 77
     6
 78
     2
 67
     7
 79
     5
170
     0
171
     0
290
     0
174
     0
 93
        1
 44
0.0
173
     0
291
     1
 45
0.0
  0
VISUALSTYLE
  5
8FD
102
{ACAD_REACTORS
330
267
102
}
330
267
100
AcDbVisualStyle
  2
OverhangOff
 70
    21
 71
     2
 72
     2
 73
     0
 90
        0
 40
0.6
 41
30.0
 62
     5
 63
     7
421
 16777215
 74
     1
 91
        4
 64
     7
 65
   257
 75
     1
175
     1
 42
1.0
 92
        9
 66
     7
 43
1.0
 76
     1
 77
     6
 78
     2
 67
     7
 79
     5
170
     0
171
     0
290
     0
174
     0
 93
        1
 44
0.0
173
     0
291
     1
 45
0.0
  0
VISUALSTYLE
  5
270
102
{ACAD_REACTORS
330
267
102
}
330
267
100
AcDbVisualStyle
  2
Realistic
 70
     8
 71
     2
 72
     2
 73
     0
 90
        0
 40
-0.6
 41
-30.0
 62
     5
 63
     7
421
 16777215
 74
     1
 91
        0
 64
     7
 65
   257
 75
     1
175
     1
 42
1.0
 92
        8
 66
     8
424
  7895160
 43
1.0
 76
     1
 77
     6
 78
     2
 67
     7
 79
     5
170
     0
171
     0
290
     0
174
     0
 93
       13
 44
0.0
173
     0
291
     0
 45
0.0
  0
VISUALSTYLE
  5
903
102
{ACAD_REACTORS
330
267
102
}
330
267
100
AcDbVisualStyle
  2
Shaded
 70
    27
 71
     2
 72
     2
 73
     1
 90
        2
 40
0.6
 41
30.0
 62
     5
 63
     7
421
 16777215
 74
     0
 91
        4
 64
     7
 65
   257
 75
     1
175
     1
 42
1.0
 92
        8
 66
   257
 43
1.0
 76
     1
 77
     6
 78
     2
 67
     8
425
  7895160
 79
     3
170
     0
171
     0
290
     0
174
     0
 93
        5
 44
0.0
173
     0
291
     0
 45
0.0
  0
VISUALSTYLE
  5
902
102
{ACAD_REACTORS
330
267
102
}
330
267
100
AcDbVisualStyle
  2
Shaded with edges
 70
    26
 71
     2
 72
     2
 73
     1
 90
        2
 40
0.6
 41
30.0
 62
     5
 63
     7
421
 16777215
 74
     1
 91
       10
 64
     7
 65
   257
 75
     2
175
     1
 42
1.0
 92
        8
 66
   257
 43
1.0
 76
     1
 77
     6
 78
     2
 67
     7
 79
     3
170
     0
171
     0
290
     0
174
     0
 93
        5
 44
0.0
173
     0
291
     0
 45
0.0
  0
VISUALSTYLE
  5
8FF
102
{ACAD_REACTORS
330
267
102
}
330
267
100
AcDbVisualStyle
  2
Shades of Gray
 70
    23
 71
     2
 72
     2
 73
     3
 90
        0
 40
0.6
 41
30.0
 62
     5
 63
     7
421
 16777215
 74
     2
 91
        2
 64
     7
 65
     7
 75
     1
175
     1
 42
40.0
 92
        8
 66
     7
 43
1.0
 76
     1
 77
     6
 78
     2
 67
     7
 79
     3
170
     0
171
     0
290
     0
174
     0
 93
        1
 44
0.0
173
     0
291
     0
 45
0.0
  0
VISUALSTYLE
  5
900
102
{ACAD_REACTORS
330
267
102
}
330
267
100
AcDbVisualStyle
  2
Sketchy
 70
    24
 71
     1
 72
     2
 73
     2
 90
        0
 40
0.6
 41
30.0
 62
     5
 63
     7
421
 16777215
 74
     2
 91
        2
 64
     7
 65
     7
 75
     1
175
     1
 42
40.0
 92
       11
 66
     7
 43
1.0
 76
     1
 77
     6
 78
     2
 67
     7
 79
     6
170
     0
171
     0
290
     0
174
     0
 93
        1
 44
0.0
173
     0
291
     0
 45
0.0
  0
VISUALSTYLE
  5
274
102
{ACAD_REACTORS
330
267
102
}
330
267
100
AcDbVisualStyle
  2
Thicken
 70
    13
 71
     2
 72
     2
 73
     0
 90
        0
 40
-0.6
 41
-30.0
 62
     5
 63
     7
421
 16777215
 74
     1
 91
        4
 64
     7
 65
   257
 75
     1
175
     1
 42
1.0
 92
       12
 66
     7
 43
1.0
 76
     1
 77
     6
 78
     2
 67
     7
 79
     5
170
     0
171
     0
290
     0
174
     0
 93
        1
 44
0.0
173
     0
291
     1
 45
0.0
  0
VISUALSTYLE
  5
8FA
102
{ACAD_REACTORS
330
267
102
}
330
267
100
AcDbVisualStyle
  2
Wireframe
 70
     5
 71
     0
 72
     2
 73
     0
 90
        0
 40
0.6
 41
30.0
 62
     5
 63
     7
421
 16777215
 74
     1
 91
        4
 64
     7
 65
   257
 75
     1
175
     1
 42
1.0
 92
        0
 66
   257
 43
1.0
 76
     1
 77
     6
 78
     2
 67
     7
 79
     3
170
     0
171
     0
290
     0
174
     0
 93
        1
 44
0.0
173
     0
291
     0
 45
0.0
  0
VISUALSTYLE
  5
901
102
{ACAD_REACTORS
330
267
102
}
330
267
100
AcDbVisualStyle
  2
X-Ray
 70
    25
 71
     2
 72
     2
 73
     1
 90
        1
 40
0.5
 41
30.0
 62
     5
 63
     7
421
 16777215
 74
     1
 91
        0
 64
     7
 65
   257
 75
     1
175
     1
 42
1.0
 92
        8
 66
     7
 43
1.0
 76
     1
 77
     6
 78
     2
 67
     7
 79
     3
170
     0
171
     0
290
     0
174
     0
 93
       13
 44
0.0
173
     0
291
     0
 45
0.0
  0
DICTIONARYVAR
  5
331
102
{ACAD_REACTORS
330
330
102
}
330
330
100
DictionaryVariables
280
     0
  1
1:1
  0
DICTIONARYVAR
  5
D5E
102
{ACAD_REACTORS
330
330
102
}
330
330
100
DictionaryVariables
280
     0
  1
Standard
  0
DICTIONARYVAR
  5
335
102
{ACAD_REACTORS
330
330
102
}
330
330
100
DictionaryVariables
280
     0
  1
Standard
  0
DICTIONARYVAR
  5
D52
102
{ACAD_REACTORS
330
330
102
}
330
330
100
DictionaryVariables
280
     0
  1
ByLayer
  0
DICTIONARYVAR
  5
896
102
{ACAD_REACTORS
330
330
102
}
330
330
100
DictionaryVariables
280
     0
  1
0
  0
DICTIONARYVAR
  5
E3B
102
{ACAD_REACTORS
330
E38
102
}
330
E38
100
DictionaryVariables
280
     0
  1
0.261799
  0
DICTIONARYVAR
  5
E39
102
{ACAD_REACTORS
330
E38
102
}
330
E38
100
DictionaryVariables
280
     0
  1
0.400000
  0
DICTIONARYVAR
  5
E3A
102
{ACAD_REACTORS
330
E38
102
}
330
E38
100
DictionaryVariables
280
     0
  1
0.250000
  0
DICTIONARYVAR
  5
E3C
102
{ACAD_REACTORS
330
E38
102
}
330
E38
100
DictionaryVariables
280
     0
  1
1
  0
FIELD
  5
12B9
102
{ACAD_REACTORS
330
12BE
102
}
330
12BE
100
AcDbField
  1
_text
  2
{%<\_FldIdx 0>%N}
 90
        1
360
12BD
 97
        0
 91
       63
 92
        0
 94
        8
 95
        2
 96
        0
300

 93
        1
  6
ACFD_FIELDTEXT_CHECKSUM
 93
        2
 90
        2
140
4458.0
 94
        0
300

302

304
ACVALUE_END
  7
ACFD_FIELD_VALUE
 93
        6
 90
        4
  1
{20211005N}
 94
        0
300

302

304
ACVALUE_END
301
{20211005N}
 98
       11
  0
DICTIONARY
  5
2E54
330
279
100
AcDbDictionary
280
     1
281
     1
  3
ACAD_ROUNDTRIP_2008_TABLESTYLE_CELLSTYLEMAP
360
2E55
  0
FIELD
  5
12BD
330
12B9
100
AcDbField
  1
AcVar
  2
\AcVar CreateDate \f "yyyyMMdd"
 90
        0
 97
        0
 91
       63
 92
        0
 94
        8
 95
        2
 96
        0
300

 93
        1
  6
Variable
 93
        2
 90
        4
  1
CreateDate
 94
        0
300

302

304
ACVALUE_END
  7
ACFD_FIELD_VALUE
 93
        6
 90
        8
 92
       16
310
E5070A000000050005000B001F000000
 94
        0
300
yyyyMMdd
302

304
ACVALUE_END
301
20211005
 98
        8
  0
CELLSTYLEMAP
  5
2E55
102
{ACAD_REACTORS
330
2E54
102
}
330
2E54
100
AcDbCellStyleMap
 90
        3
300
CELLSTYLE
  1
TABLEFORMAT_BEGIN
 90
        5
170
     1
 91
        0
 92
    32768
 62
   257
 93
        1
300
CONTENTFORMAT
  1
CONTENTFORMAT_BEGIN
 90
        0
 91
        0
 92
        4
 93
        0
300

 40
0.0
140
1.0
 94
        5
 62
     0
340
17
144
6.0
309
CONTENTFORMAT_END
171
     1
301
MARGIN
  1
CELLMARGIN_BEGIN
 40
0.06
 40
0.06
 40
0.06
 40
0.06
 40
0.18
 40
0.18
309
CELLMARGIN_END
 94
        6
 95
        1
302
GRIDFORMAT
  1
GRIDFORMAT_BEGIN
 90
        0
 91
        1
 62
     0
 92
       -2
340
0
 93
        0
 40
0.045
309
GRIDFORMAT_END
 95
        2
302
GRIDFORMAT
  1
GRIDFORMAT_BEGIN
 90
        0
 91
        1
 62
     0
 92
       -2
340
0
 93
        0
 40
0.045
309
GRIDFORMAT_END
 95
        4
302
GRIDFORMAT
  1
GRIDFORMAT_BEGIN
 90
        0
 91
        1
 62
     0
 92
       -2
340
0
 93
        0
 40
0.045
309
GRIDFORMAT_END
 95
        8
302
GRIDFORMAT
  1
GRIDFORMAT_BEGIN
 90
        0
 91
        1
 62
     0
 92
       -2
340
0
 93
        0
 40
0.045
309
GRIDFORMAT_END
 95
       16
302
GRIDFORMAT
  1
GRIDFORMAT_BEGIN
 90
        0
 91
        1
 62
     0
 92
       -2
340
0
 93
        0
 40
0.045
309
GRIDFORMAT_END
 95
       32
302
GRIDFORMAT
  1
GRIDFORMAT_BEGIN
 90
        0
 91
        1
 62
     0
 92
       -2
340
0
 93
        0
 40
0.045
309
GRIDFORMAT_END
309
TABLEFORMAT_END
  1
CELLSTYLE_BEGIN
 90
        1
 91
        1
300
_TITLE
309
CELLSTYLE_END
300
CELLSTYLE
  1
TABLEFORMAT_BEGIN
 90
        5
170
     1
 91
        0
 92
        0
 62
   257
 93
        1
300
CONTENTFORMAT
  1
CONTENTFORMAT_BEGIN
 90
        0
 91
        0
 92
        4
 93
        0
300

 40
0.0
140
1.0
 94
        5
 62
     0
340
17
144
4.5
309
CONTENTFORMAT_END
171
     1
301
MARGIN
  1
CELLMARGIN_BEGIN
 40
0.06
 40
0.06
 40
0.06
 40
0.06
 40
0.18
 40
0.18
309
CELLMARGIN_END
 94
        6
 95
        1
302
GRIDFORMAT
  1
GRIDFORMAT_BEGIN
 90
        0
 91
        1
 62
     0
 92
       -2
340
0
 93
        0
 40
0.045
309
GRIDFORMAT_END
 95
        2
302
GRIDFORMAT
  1
GRIDFORMAT_BEGIN
 90
        0
 91
        1
 62
     0
 92
       -2
340
0
 93
        0
 40
0.045
309
GRIDFORMAT_END
 95
        4
302
GRIDFORMAT
  1
GRIDFORMAT_BEGIN
 90
        0
 91
        1
 62
     0
 92
       -2
340
0
 93
        0
 40
0.045
309
GRIDFORMAT_END
 95
        8
302
GRIDFORMAT
  1
GRIDFORMAT_BEGIN
 90
        0
 91
        1
 62
     0
 92
       -2
340
0
 93
        0
 40
0.045
309
GRIDFORMAT_END
 95
       16
302
GRIDFORMAT
  1
GRIDFORMAT_BEGIN
 90
        0
 91
        1
 62
     0
 92
       -2
340
0
 93
        0
 40
0.045
309
GRIDFORMAT_END
 95
       32
302
GRIDFORMAT
  1
GRIDFORMAT_BEGIN
 90
        0
 91
        1
 62
     0
 92
       -2
340
0
 93
        0
 40
0.045
309
GRIDFORMAT_END
309
TABLEFORMAT_END
  1
CELLSTYLE_BEGIN
 90
        2
 91
        1
300
_HEADER
309
CELLSTYLE_END
300
CELLSTYLE
  1
TABLEFORMAT_BEGIN
 90
        5
170
     1
 91
        0
 92
        0
 62
   257
 93
        1
300
CONTENTFORMAT
  1
CONTENTFORMAT_BEGIN
 90
        0
 91
        0
 92
        4
 93
        0
300

 40
0.0
140
1.0
 94
        2
 62
     0
340
17
144
4.5
309
CONTENTFORMAT_END
171
     1
301
MARGIN
  1
CELLMARGIN_BEGIN
 40
0.06
 40
0.06
 40
0.06
 40
0.06
 40
0.18
 40
0.18
309
CELLMARGIN_END
 94
        6
 95
        1
302
GRIDFORMAT
  1
GRIDFORMAT_BEGIN
 90
        0
 91
        1
 62
     0
 92
       -2
340
0
 93
        0
 40
0.045
309
GRIDFORMAT_END
 95
        2
302
GRIDFORMAT
  1
GRIDFORMAT_BEGIN
 90
        0
 91
        1
 62
     0
 92
       -2
340
0
 93
        0
 40
0.045
309
GRIDFORMAT_END
 95
        4
302
GRIDFORMAT
  1
GRIDFORMAT_BEGIN
 90
        0
 91
        1
 62
     0
 92
       -2
340
0
 93
        0
 40
0.045
309
GRIDFORMAT_END
 95
        8
302
GRIDFORMAT
  1
GRIDFORMAT_BEGIN
 90
        0
 91
        1
 62
     0
 92
       -2
340
0
 93
        0
 40
0.045
309
GRIDFORMAT_END
 95
       16
302
GRIDFORMAT
  1
GRIDFORMAT_BEGIN
 90
        0
 91
        1
 62
     0
 92
       -2
340
0
 93
        0
 40
0.045
309
GRIDFORMAT_END
 95
       32
302
GRIDFORMAT
  1
GRIDFORMAT_BEGIN
 90
        0
 91
        1
 62
     0
 92
       -2
340
0
 93
        0
 40
0.045
309
GRIDFORMAT_END
309
TABLEFORMAT_END
  1
CELLSTYLE_BEGIN
 90
        3
 91
        2
300
_DATA
309
CELLSTYLE_END
  0
ENDSEC
  0
EOF
