  0
SECTION
  2
HEADER
  9
$ACADVER
  1
AC1021
  9
$ACADMAINTVER
 70
    25
  9
$DWGCODEPAGE
  3
ANSI_932
  9
$LASTSAVEDBY
  1
howeNelson
  9
$INSBASE
 10
0.0
 20
0.0
 30
0.0
  9
$EXTMIN
 10
36.10107227362437
 20
31.89607416228557
 30
-0.0000000000000071
  9
$EXTMAX
 10
1011.101072273866
 20
1448.573336753213
 30
0.0000000000000142
  9
$LIMMIN
 10
0.0
 20
0.0
  9
$LIMMAX
 10
1050.0
 20
1485.0
  9
$ORTHOMODE
 70
     0
  9
$REGENMODE
 70
     1
  9
$FILLMODE
 70
     1
  9
$QTEXTMODE
 70
     0
  9
$MIRRTEXT
 70
     1
  9
$LTSCALE
 40
50.8
  9
$ATTMODE
 70
     1
  9
$TEXTSIZE
 40
2.5
  9
$TRACEWID
 40
1.0
  9
$TEXTSTYLE
  7
ＭＳ ゴシック
  9
$CLAYER
  8
DIM
  9
$CELTYPE
  6
ByLayer
  9
$CECOLOR
 62
   256
  9
$CELTSCALE
 40
1.0
  9
$DISPSILH
 70
     0
  9
$DIMSCALE
 40
1.0
  9
$DIMASZ
 40
2.0
  9
$DIMEXO
 40
15.0
  9
$DIMDLI
 40
0.9999999999999999
  9
$DIMRND
 40
0.0
  9
$DIMDLE
 40
0.0
  9
$DIMEXE
 40
0.0
  9
$DIMTP
 40
0.0
  9
$DIMTM
 40
0.0
  9
$DIMTXT
 40
12.0
  9
$DIMCEN
 40
0.0
  9
$DIMTSZ
 40
0.0
  9
$DIMTOL
 70
     0
  9
$DIMLIM
 70
     0
  9
$DIMTIH
 70
     0
  9
$DIMTOH
 70
     0
  9
$DIMSE1
 70
     0
  9
$DIMSE2
 70
     0
  9
$DIMTAD
 70
     1
  9
$DIMZIN
 70
    11
  9
$DIMBLK
  1
DOT
  9
$DIMASO
 70
     1
  9
$DIMSHO
 70
     1
  9
$DIMPOST
  1
<>
  9
$DIMAPOST
  1
[]
  9
$DIMALT
 70
     0
  9
$DIMALTD
 70
     1
  9
$DIMALTF
 40
1.0
  9
$DIMLFAC
 40
1.0
  9
$DIMTOFL
 70
     0
  9
$DIMTVP
 40
0.0
  9
$DIMTIX
 70
     1
  9
$DIMSOXD
 70
     0
  9
$DIMSAH
 70
     0
  9
$DIMBLK1
  1

  9
$DIMBLK2
  1

  9
$DIMSTYLE
  2
tfrom線あり
  9
$DIMCLRD
 70
     0
  9
$DIMCLRE
 70
     0
  9
$DIMCLRT
 70
     0
  9
$DIMTFAC
 40
1.0
  9
$DIMGAP
 40
8.0
  9
$DIMJUST
 70
     0
  9
$DIMSD1
 70
     0
  9
$DIMSD2
 70
     0
  9
$DIMTOLJ
 70
     1
  9
$DIMTZIN
 70
    11
  9
$DIMALTZ
 70
    11
  9
$DIMALTTZ
 70
    11
  9
$DIMUPT
 70
     0
  9
$DIMDEC
 70
     0
  9
$DIMTDEC
 70
     1
  9
$DIMALTU
 70
     2
  9
$DIMALTTD
 70
     2
  9
$DIMTXSTY
  7
ＭＳ ゴシック
  9
$DIMAUNIT
 70
     0
  9
$DIMADEC
 70
     2
  9
$DIMALTRND
 40
0.0
  9
$DIMAZIN
 70
     0
  9
$DIMDSEP
 70
    46
  9
$DIMATFIT
 70
     0
  9
$DIMFRAC
 70
     2
  9
$DIMLDRBLK
  1
DOT
  9
$DIMLUNIT
 70
     2
  9
$DIMLWD
 70
    -2
  9
$DIMLWE
 70
    -2
  9
$DIMTMOVE
 70
     0
  9
$DIMFXL
 40
1.0
  9
$DIMFXLON
 70
     0
  9
$DIMJOGANG
 40
0.7853981633974483
  9
$DIMTFILL
 70
     0
  9
$DIMTFILLCLR
 70
     0
  9
$DIMARCSYM
 70
     0
  9
$DIMLTYPE
  6

  9
$DIMLTEX1
  6

  9
$DIMLTEX2
  6

  9
$LUNITS
 70
     2
  9
$LUPREC
 70
     0
  9
$SKETCHINC
 40
0.1
  9
$FILLETRAD
 40
0.0
  9
$AUNITS
 70
     0
  9
$AUPREC
 70
     0
  9
$MENU
  1
acad
  9
$ELEVATION
 40
0.0
  9
$PELEVATION
 40
0.0
  9
$THICKNESS
 40
0.0
  9
$LIMCHECK
 70
     0
  9
$CHAMFERA
 40
0.0
  9
$CHAMFERB
 40
0.0
  9
$CHAMFERC
 40
0.0
  9
$CHAMFERD
 40
0.0
  9
$SKPOLY
 70
     0
  9
$TDCREATE
 40
2447893.375
  9
$TDUCREATE
 40
0.0
  9
$TDUPDATE
 40
2457522.592578541
  9
$TDUUPDATE
 40
2457522.217578541
  9
$TDINDWG
 40
0.171863912
  9
$TDUSRTIMER
 40
2457522.217569132
  9
$USRTIMER
 70
     1
  9
$ANGBASE
 50
0.0
  9
$ANGDIR
 70
     0
  9
$PDMODE
 70
     1
  9
$PDSIZE
 40
-2.0
  9
$PLINEWID
 40
0.0
  9
$SPLFRAME
 70
     0
  9
$SPLINETYPE
 70
     6
  9
$SPLINESEGS
 70
     8
  9
$HANDSEED
  5
1571
  9
$SURFTAB1
 70
     6
  9
$SURFTAB2
 70
     6
  9
$SURFTYPE
 70
     6
  9
$SURFU
 70
     6
  9
$SURFV
 70
     6
  9
$UCSBASE
  2

  9
$UCSNAME
  2

  9
$UCSORG
 10
0.0
 20
0.0
 30
0.0
  9
$UCSXDIR
 10
1.0
 20
0.0
 30
0.0
  9
$UCSYDIR
 10
0.0
 20
1.0
 30
0.0
  9
$UCSORTHOREF
  2

  9
$UCSORTHOVIEW
 70
     0
  9
$UCSORGTOP
 10
0.0
 20
0.0
 30
0.0
  9
$UCSORGBOTTOM
 10
0.0
 20
0.0
 30
0.0
  9
$UCSORGLEFT
 10
0.0
 20
0.0
 30
0.0
  9
$UCSORGRIGHT
 10
0.0
 20
0.0
 30
0.0
  9
$UCSORGFRONT
 10
0.0
 20
0.0
 30
0.0
  9
$UCSORGBACK
 10
0.0
 20
0.0
 30
0.0
  9
$PUCSBASE
  2

  9
$PUCSNAME
  2

  9
$PUCSORG
 10
0.0
 20
0.0
 30
0.0
  9
$PUCSXDIR
 10
1.0
 20
0.0
 30
0.0
  9
$PUCSYDIR
 10
0.0
 20
1.0
 30
0.0
  9
$PUCSORTHOREF
  2

  9
$PUCSORTHOVIEW
 70
     0
  9
$PUCSORGTOP
 10
0.0
 20
0.0
 30
0.0
  9
$PUCSORGBOTTOM
 10
0.0
 20
0.0
 30
0.0
  9
$PUCSORGLEFT
 10
0.0
 20
0.0
 30
0.0
  9
$PUCSORGRIGHT
 10
0.0
 20
0.0
 30
0.0
  9
$PUCSORGFRONT
 10
0.0
 20
0.0
 30
0.0
  9
$PUCSORGBACK
 10
0.0
 20
0.0
 30
0.0
  9
$USERI1
 70
     0
  9
$USERI2
 70
     0
  9
$USERI3
 70
     0
  9
$USERI4
 70
     0
  9
$USERI5
 70
     0
  9
$USERR1
 40
0.0
  9
$USERR2
 40
0.0
  9
$USERR3
 40
0.0
  9
$USERR4
 40
0.0
  9
$USERR5
 40
0.0
  9
$WORLDVIEW
 70
     1
  9
$SHADEDGE
 70
     3
  9
$SHADEDIF
 70
    70
  9
$TILEMODE
 70
     1
  9
$MAXACTVP
 70
    64
  9
$PINSBASE
 10
0.0
 20
0.0
 30
0.0
  9
$PLIMCHECK
 70
     0
  9
$PEXTMIN
 10
0.0
 20
0.0
 30
0.0
  9
$PEXTMAX
 10
0.0
 20
0.0
 30
0.0
  9
$PLIMMIN
 10
-95.87226993865028
 20
-25.69999999999999
  9
$PLIMMAX
 10
201.1277300613497
 20
184.3
  9
$UNITMODE
 70
     0
  9
$VISRETAIN
 70
     0
  9
$PLINEGEN
 70
     1
  9
$PSLTSCALE
 70
     0
  9
$TREEDEPTH
 70
  3020
  9
$CMLSTYLE
  2
Standard
  9
$CMLJUST
 70
     0
  9
$CMLSCALE
 40
1.0
  9
$PROXYGRAPHICS
 70
     0
  9
$MEASUREMENT
 70
     1
  9
$CELWEIGHT
370
    -1
  9
$ENDCAPS
280
     0
  9
$JOINSTYLE
280
     0
  9
$LWDISPLAY
290
     1
  9
$INSUNITS
 70
     4
  9
$HYPERLINKBASE
  1

  9
$STYLESHEET
  1

  9
$XEDIT
290
     1
  9
$CEPSNTYPE
380
     0
  9
$PSTYLEMODE
290
     1
  9
$FINGERPRINTGUID
  2

  9
$VERSIONGUID
  2

  9
$EXTNAMES
290
     1
  9
$PSVPSCALE
 40
0.0
  9
$OLESTARTUP
290
     0
  9
$SORTENTS
280
   127
  9
$INDEXCTL
280
     0
  9
$HIDETEXT
280
     1
  9
$XCLIPFRAME
290
     0
  9
$HALOGAP
280
     0
  9
$OBSCOLOR
 70
   257
  9
$OBSLTYPE
280
     0
  9
$INTERSECTIONDISPLAY
280
     0
  9
$INTERSECTIONCOLOR
 70
   257
  9
$DIMASSOC
280
     2
  9
$PROJECTNAME
  1

  9
$CAMERADISPLAY
290
     0
  9
$LENSLENGTH
 40
50.0
  9
$CAMERAHEIGHT
 40
0.0
  9
$STEPSPERSEC
 40
2.0
  9
$STEPSIZE
 40
6.0
  9
$3DDWFPREC
 40
2.0
  9
$PSOLWIDTH
 40
0.25
  9
$PSOLHEIGHT
 40
4.0
  9
$LOFTANG1
 40
1.570796326794897
  9
$LOFTANG2
 40
1.570796326794897
  9
$LOFTMAG1
 40
0.0
  9
$LOFTMAG2
 40
0.0
  9
$LOFTPARAM
 70
     7
  9
$LOFTNORMALS
280
     1
  9
$LATITUDE
 40
37.795
  9
$LONGITUDE
 40
-122.394
  9
$NORTHDIRECTION
 40
0.0
  9
$TIMEZONE
 70
 -8000
  9
$LIGHTGLYPHDISPLAY
280
     1
  9
$TILEMODELIGHTSYNCH
280
     1
  9
$SOLIDHIST
280
     1
  9
$SHOWHIST
280
     1
  9
$DWFFRAME
280
     2
  9
$DGNFRAME
280
     2
  9
$REALWORLDSCALE
290
     1
  9
$INTERFERECOLOR
 62
   256
  9
$CSHADOW
280
     0
  9
$SHADOWPLANELOCATION
 40
0.0
  0
ENDSEC
  0
SECTION
  2
CLASSES
  0
CLASS
  1
LWPOLYLINE
  2
AcDbPolyline
  3
ObjectDBX Classes
 90
        0
 91
        1
280
     0
281
     1
  0
CLASS
  1
IMAGE
  2
AcDbRasterImage
  3
ISM
 90
      127
 91
        7
280
     0
281
     1
  0
CLASS
  1
OLE2FRAME
  2
AcDbOle2Frame
  3
ObjectDBX Classes
 90
        0
 91
        1
280
     0
281
     1
  0
CLASS
  1
HATCH
  2
AcDbHatch
  3
ObjectDBX Classes
 90
        0
 91
        1
280
     0
281
     1
  0
CLASS
  1
DICTIONARYVAR
  2
AcDbDictionaryVar
  3
ObjectDBX Classes
 90
        0
 91
        6
280
     0
281
     0
  0
CLASS
  1
RASTERVARIABLES
  2
AcDbRasterVariables
  3
ISM
 90
        0
 91
        6
280
     0
281
     0
  0
CLASS
  1
IMAGEDEF
  2
AcDbRasterImageDef
  3
ISM
 90
        0
 91
        6
280
     0
281
     0
  0
CLASS
  1
IMAGEDEF_REACTOR
  2
AcDbRasterImageDefReactor
  3
ISM
 90
        1
 91
        6
280
     0
281
     0
  0
CLASS
  1
IDBUFFER
  2
AcDbIdBuffer
  3
ObjectDBX Classes
 90
        0
 91
        6
280
     0
281
     0
  0
CLASS
  1
SPATIAL_FILTER
  2
AcDbSpatialFilter
  3
ObjectDBX Classes
 90
        0
 91
        6
280
     0
281
     0
  0
CLASS
  1
XRECORD
  2
AcDbXrecord
  3
ObjectDBX Classes
 90
        0
 91
        1
280
     0
281
     0
  0
CLASS
  1
SORTENTSTABLE
  2
AcDbSortentsTable
  3
ObjectDBX Classes
 90
        0
 91
        6
280
     0
281
     0
  0
CLASS
  1
LAYER_INDEX
  2
AcDbLayerIndex
  3
ObjectDBX Classes
 90
        0
 91
        6
280
     0
281
     0
  0
CLASS
  1
SPATIAL_INDEX
  2
AcDbSpatialIndex
  3
AutoCAD 2000
 90
        0
 91
        6
280
     0
281
     0
  0
CLASS
  1
OBJECT_PTR
  2
CAseDLPNTableRecord
  3
ASE-LPNTableRecord
 90
        1
 91
        6
280
     0
281
     0
  0
CLASS
  1
LAYOUT
  2
AcDbLayout
  3
ObjectDBX Classes
 90
        0
 91
        1
280
     0
281
     0
  0
CLASS
  1
PLOTSETTINGS
  2
AcDbPlotSettings
  3
ObjectDBX Classes
 90
        0
 91
        6
280
     0
281
     0
  0
CLASS
  1
ACDBDICTIONARYWDFLT
  2
AcDbDictionaryWithDefault
  3
ObjectDBX Classes
 90
        0
 91
        6
280
     0
281
     0
  0
CLASS
  1
ACDBPLACEHOLDER
  2
AcDbPlaceHolder
  3
ObjectDBX Classes
 90
        0
 91
        1
280
     0
281
     0
  0
CLASS
  1
SCALE
  2
AcDbScale
  3
ObjectDBX Classes
 90
     1153
 91
        6
280
     0
281
     0
  0
CLASS
  1
MATERIAL
  2
AcDbMaterial
  3
ObjectDBX Classes
 90
     1153
 91
        6
280
     0
281
     0
  0
CLASS
  1
VISUALSTYLE
  2
AcDbVisualStyle
  3
ObjectDBX Classes
 90
     4095
 91
        6
280
     0
281
     0
  0
CLASS
  1
TABLESTYLE
  2
AcDbTableStyle
  3
ObjectDBX Classes
 90
     4095
 91
        6
280
     0
281
     0
  0
CLASS
  1
DIMASSOC
  2
AcDbDimAssoc
  3
"AcDbDimAssoc|Product Desc:     AcDim ARX App For Dimension|Company:          Autodesk, Inc.|WEB Address:      www.autodesk.com"
 90
        0
 91
        6
280
     0
281
     0
  0
CLASS
  1
CELLSTYLEMAP
  2
AcDbCellStyleMap
  3
ObjectDBX Classes
 90
     1152
 91
        6
280
     0
281
     0
  0
CLASS
  1
SUN
  2
AcDbSun
  3
SCENEOE
 90
     1153
 91
        6
280
     0
281
     0
  0
CLASS
  1
MLEADERSTYLE
  2
AcDbMLeaderStyle
  3
ACDB_MLEADERSTYLE_CLASS
 90
     4095
 91
        6
280
     0
281
     0
  0
ENDSEC
  0
SECTION
  2
TABLES
  0
TABLE
  2
VPORT
  5
7
330
0
100
AcDbSymbolTable
 70
     1
  0
VPORT
  5
15
330
7
100
AcDbSymbolTableRecord
100
AcDbViewportTableRecord
  2
*ACTIVE
 70
     0
 10
0.0
 20
0.0
 11
1.0
 21
1.0
 12
614.6212079446452
 22
666.6359909275833
 13
0.0
 23
0.0
 14
1.0
 24
1.0
 15
0.0
 25
0.0
 16
0.0
 26
0.0
 36
1.0
 17
-91.02013567090012
 27
73.59871453016603
 37
-46.86809886248109
 40
1445.010807842746
 41
2.418840579710145
 42
50.0
 43
0.0
 44
0.0
 50
0.0
 51
0.0
 71
    16
 72
  2000
 73
     1
 74
     1
 75
     0
 76
     0
 77
     0
 78
     0
281
     0
 65
     1
110
0.0
120
0.0
130
0.0
111
1.0
121
0.0
131
0.0
112
0.0
122
1.0
132
0.0
 79
     0
146
0.0
348
26C
 60
     3
 61
     5
292
     1
282
     1
141
0.0
142
0.0
 63
   256
361
904
  0
ENDTAB
  0
TABLE
  2
LTYPE
  5
4
330
0
100
AcDbSymbolTable
 70
    19
  0
LTYPE
  5
11
330
4
100
AcDbSymbolTableRecord
100
AcDbLinetypeTableRecord
  2
ByBlock
 70
     0
  3

 72
    65
 73
     0
 40
0.0
  0
LTYPE
  5
12
330
4
100
AcDbSymbolTableRecord
100
AcDbLinetypeTableRecord
  2
ByLayer
 70
     0
  3

 72
    65
 73
     0
 40
0.0
  0
LTYPE
  5
13
330
4
100
AcDbSymbolTableRecord
100
AcDbLinetypeTableRecord
  2
Continuous
 70
     0
  3
Solid line
 72
    65
 73
     0
 40
0.0
  0
LTYPE
  5
3A
330
4
100
AcDbSymbolTableRecord
100
AcDbLinetypeTableRecord
  2
STYLE_01
 70
     0
  3

 72
    65
 73
     2
 40
0.2460629921259842
 49
0.1230314960629921
 74
     0
 49
-0.1230314960629921
 74
     0
  0
LTYPE
  5
3B
330
4
100
AcDbSymbolTableRecord
100
AcDbLinetypeTableRecord
  2
STYLE_02
 70
     0
  3

 72
    65
 73
     2
 40
0.6944250000000001
 49
0.48607
 74
     0
 49
-0.2083550000000001
 74
     0
  0
LTYPE
  5
3C
330
4
100
AcDbSymbolTableRecord
100
AcDbLinetypeTableRecord
  2
STYLE_03
 70
     0
  3

 72
    65
 73
     2
 40
1.25
 49
1.04164
 74
     0
 49
-0.2083599999999999
 74
     0
  0
LTYPE
  5
3D
330
4
100
AcDbSymbolTableRecord
100
AcDbLinetypeTableRecord
  2
STYLE_04
 70
     0
  3

 72
    65
 73
     2
 40
1.52771
 49
1.319425
 74
     0
 49
-0.208285
 74
     0
  0
LTYPE
  5
3E
330
4
100
AcDbSymbolTableRecord
100
AcDbLinetypeTableRecord
  2
STYLE_05
 70
     0
  3

 72
    65
 73
     2
 40
0.20828
 49
0.069425
 74
     0
 49
-0.138855
 74
     0
  0
LTYPE
  5
3F
330
4
100
AcDbSymbolTableRecord
100
AcDbLinetypeTableRecord
  2
STYLE_06
 70
     0
  3

 72
    65
 73
     4
 40
1.04164
 49
0.625
 74
     0
 49
-0.20828
 74
     0
 49
0.06943
 74
     0
 49
-0.13893
 74
     0
  0
LTYPE
  5
40
330
4
100
AcDbSymbolTableRecord
100
AcDbLinetypeTableRecord
  2
STYLE_07
 70
     0
  3

 72
    65
 73
     6
 40
1.875
 49
0.625
 74
     0
 49
-0.20828
 74
     0
 49
0.6250000000000001
 74
     0
 49
-0.2083599999999999
 74
     0
 49
0.06943
 74
     0
 49
-0.1389299999999999
 74
     0
  0
LTYPE
  5
41
330
4
100
AcDbSymbolTableRecord
100
AcDbLinetypeTableRecord
  2
STYLE_08
 70
     0
  3

 72
    65
 73
     6
 40
1.25
 49
0.625
 74
     0
 49
-0.20828
 74
     0
 49
0.06943
 74
     0
 49
-0.13893
 74
     0
 49
0.0694299999999999
 74
     0
 49
-0.13893
 74
     0
  0
LTYPE
  5
42
330
4
100
AcDbSymbolTableRecord
100
AcDbLinetypeTableRecord
  2
STYLE_09
 70
     0
  3

 72
    65
 73
     4
 40
5.0
 49
3.75
 74
     0
 49
-0.2777849999999998
 74
     0
 49
0.6944300000000003
 74
     0
 49
-0.2777849999999998
 74
     0
  0
LTYPE
  5
43
330
4
100
AcDbSymbolTableRecord
100
AcDbLinetypeTableRecord
  2
STYLE_10
 70
     0
  3

 72
    65
 73
     6
 40
5.9375
 49
3.75
 74
     0
 49
-0.2777849999999998
 74
     0
 49
0.6944300000000003
 74
     0
 49
-0.2777849999999998
 74
     0
 49
0.625
 74
     0
 49
-0.3125
 74
     0
  0
LTYPE
  5
44
330
4
100
AcDbSymbolTableRecord
100
AcDbLinetypeTableRecord
  2
STYLE_11
 70
     0
  3

 72
    65
 73
     2
 40
0.0694444881889764
 49
0.0347222440944882
 74
     0
 49
-0.0347222440944882
 74
     0
  0
LTYPE
  5
45
330
4
100
AcDbSymbolTableRecord
100
AcDbLinetypeTableRecord
  2
STYLE_12
 70
     0
  3

 72
    65
 73
     2
 40
0.3937007874015748
 49
0.1968503937007874
 74
     0
 49
-0.1968503937007874
 74
     0
  0
LTYPE
  5
46
330
4
100
AcDbSymbolTableRecord
100
AcDbLinetypeTableRecord
  2
STYLE_13
 70
     0
  3

 72
    65
 73
     2
 40
0.5905511811023622
 49
0.2952755905511811
 74
     0
 49
-0.2952755905511811
 74
     0
  0
LTYPE
  5
47
330
4
100
AcDbSymbolTableRecord
100
AcDbLinetypeTableRecord
  2
STYLE_14
 70
     0
  3

 72
    65
 73
     2
 40
1.968503937007874
 49
0.9842519685039369
 74
     0
 49
-0.9842519685039369
 74
     0
  0
LTYPE
  5
48
330
4
100
AcDbSymbolTableRecord
100
AcDbLinetypeTableRecord
  2
STYLE_15
 70
     0
  3

 72
    65
 73
     2
 40
0.1875
 49
0.125
 74
     0
 49
-0.0625
 74
     0
  0
LTYPE
  5
49
330
4
100
AcDbSymbolTableRecord
100
AcDbLinetypeTableRecord
  2
STYLE_16
 70
     0
  3

 72
    65
 73
     2
 40
0.3690944881889764
 49
0.2460629921259843
 74
     0
 49
-0.1230314960629922
 74
     0
  0
LTYPE
  5
908
330
4
100
AcDbSymbolTableRecord
100
AcDbLinetypeTableRecord
  2
AI-LINETYPE-1
 70
     0
  3
Adobe Illustrator Linetype No. 1
 72
    65
 73
     4
 40
2.116668062491661
 49
1.058334031245831
 74
     0
 49
-0.3527780104152769
 74
     0
 49
0.3527780104152769
 74
     0
 49
-0.3527780104152769
 74
     0
  0
LTYPE
  5
909
330
4
100
AcDbSymbolTableRecord
100
AcDbLinetypeTableRecord
  2
AI-LINETYPE-2
 70
     0
  3
Adobe Illustrator Linetype No. 2
 72
    65
 73
     4
 40
2.116668062491661
 49
1.058334031245831
 74
     0
 49
-0.3527780104152769
 74
     0
 49
0.3527780104152769
 74
     0
 49
-0.3527780104152769
 74
     0
  0
ENDTAB
  0
TABLE
  2
LAYER
  5
2
102
{ACAD_XDICTIONARY
360
2E1
102
}
330
0
100
AcDbSymbolTable
 70
     7
  0
LAYER
  5
14
330
2
100
AcDbSymbolTableRecord
100
AcDbLayerTableRecord
  2
0
 70
     0
 62
     7
  6
Continuous
370
    -3
390
1D
347
266
  0
LAYER
  5
4B
330
2
100
AcDbSymbolTableRecord
100
AcDbLayerTableRecord
  2
TEMPLATE
 70
     0
 62
     7
  6
Continuous
370
    20
390
1D
347
266
  0
LAYER
  5
4C
330
2
100
AcDbSymbolTableRecord
100
AcDbLayerTableRecord
  2
DIM
 70
     0
 62
     7
  6
Continuous
370
    13
390
1D
347
266
  0
LAYER
  5
4D
330
2
100
AcDbSymbolTableRecord
100
AcDbLayerTableRecord
  2
MODEL
 70
     0
 62
     7
  6
Continuous
370
    20
390
1D
347
266
  0
LAYER
  5
667
330
2
100
AcDbSymbolTableRecord
100
AcDbLayerTableRecord
  2
LOGO
 70
     0
 62
     7
  6
Continuous
370
    -3
390
1D
347
266
  0
LAYER
  5
88C
330
2
100
AcDbSymbolTableRecord
100
AcDbLayerTableRecord
  2
HIDDEN
 70
     0
 62
     7
  6
STYLE_12
370
    20
390
1D
347
266
1001
AcAecLayerStandard
1000

1000

  0
LAYER
  5
E85
330
2
100
AcDbSymbolTableRecord
100
AcDbLayerTableRecord
  2
Defpoints
 70
     0
 62
     7
  6
Continuous
290
     0
370
    -3
390
1D
347
266
  0
ENDTAB
  0
TABLE
  2
STYLE
  5
3
330
0
100
AcDbSymbolTable
 70
     4
  0
STYLE
  5
17
330
3
100
AcDbSymbolTableRecord
100
AcDbTextStyleTableRecord
  2
Standard
 70
     0
 40
0.0
 41
1.0
 50
0.0
 71
     0
 42
2.5
  3
txt
  4
BIGFONT.SHX
  0
STYLE
  5
39
330
3
100
AcDbSymbolTableRecord
100
AcDbTextStyleTableRecord
  2
ＭＳ ゴシック
 70
     0
 40
0.0
 41
1.0
 50
0.0
 71
     0
 42
2.5
  3
msgothic.ttc
  4
ＭＳ ゴシック
1001
ACAD
1000
ＭＳ ゴシック
1071
        0
  0
STYLE
  5
384
330
3
100
AcDbSymbolTableRecord
100
AcDbTextStyleTableRecord
  2
ARIAL
 70
     0
 40
0.0
 41
1.0
 50
0.0
 71
     0
 42
12.0
  3
ARIAL.TTF
  4

1001
ACAD
1000
Arial
1071
       34
  0
STYLE
  5
385
330
3
100
AcDbSymbolTableRecord
100
AcDbTextStyleTableRecord
  2
ROMANS
 70
     0
 40
0.0
 41
1.0
 50
0.0
 71
     0
 42
5.0
  3
romans.shx
  4

  0
ENDTAB
  0
TABLE
  2
VIEW
  5
5
330
0
100
AcDbSymbolTable
 70
     0
  0
ENDTAB
  0
TABLE
  2
UCS
  5
6
330
0
100
AcDbSymbolTable
 70
     0
  0
ENDTAB
  0
TABLE
  2
APPID
  5
8
330
0
100
AcDbSymbolTable
 70
     3
  0
APPID
  5
16
330
8
100
AcDbSymbolTableRecord
100
AcDbRegAppTableRecord
  2
ACAD
 70
     0
  0
APPID
  5
7AC
330
8
100
AcDbSymbolTableRecord
100
AcDbRegAppTableRecord
  2
AcAecLayerStandard
 70
     0
  0
APPID
  5
1564
330
8
100
AcDbSymbolTableRecord
100
AcDbRegAppTableRecord
  2
ACAD_MLEADERVER
 70
     0
  0
ENDTAB
  0
TABLE
  2
DIMSTYLE
  5
9
330
0
100
AcDbSymbolTable
 70
     6
100
AcDbDimStyleTable
  0
DIMSTYLE
105
18
330
9
100
AcDbSymbolTableRecord
100
AcDbDimStyleTableRecord
  2
Standard
 70
     0
178
     0
340
17
  0
DIMSTYLE
105
56
330
9
100
AcDbSymbolTableRecord
100
AcDbDimStyleTableRecord
  2
tform線あり
 70
     0
  3
<>
  4
[]
 41
9.999389648437498
 42
25.0
 43
0.9999999999999999
 44
0.0
 73
     0
 74
     0
 77
     1
 78
    11
140
24.4326171875
141
0.0
143
1.0
146
0.8
147
0.4999999999999999
171
     1
172
     1
174
     1
178
     0
179
     2
271
     1
272
     1
276
     2
284
    11
285
    11
286
    11
289
     0
340
39
341
4E
342
4E
  0
DIMSTYLE
105
57
102
{ACAD_REACTORS
330
1444
330
1448
330
1449
330
144B
330
144E
330
1451
330
1456
330
145B
330
145E
330
1460
330
1463
102
}
330
9
100
AcDbSymbolTableRecord
100
AcDbDimStyleTableRecord
  2
tfrom線あり
 70
     0
  3
<>
  4
[]
 41
2.0
 42
15.0
 43
0.9999999999999999
 44
0.0
 73
     0
 74
     0
 77
     1
 78
    11
140
12.0
141
0.0
143
1.0
147
8.0
171
     1
174
     1
178
     0
179
     2
271
     0
272
     1
276
     2
284
    11
285
    11
286
    11
289
     0
340
39
341
4E
342
4E
  0
DIMSTYLE
105
5C
330
9
100
AcDbSymbolTableRecord
100
AcDbDimStyleTableRecord
  2
JIS
 70
     0
  3
<>
  4
[]
 41
9.0
 42
0.0
 43
6.99999999999994
 44
19.9999999999962
 73
     0
 74
     0
 77
     1
 78
    11
140
24.4326171875
141
0.0
143
1.0
147
10.0
171
     1
174
     1
178
     0
179
     2
271
     1
272
     1
276
     2
284
    11
285
    11
286
    11
289
     0
340
39
341
4E
342
4E
  0
DIMSTYLE
105
383
330
9
100
AcDbSymbolTableRecord
100
AcDbDimStyleTableRecord
  2
ARIAL
 70
     0
 41
10.0
 42
3.0
 43
0.5
 44
3.0
 73
     0
 74
     0
 77
     1
 78
     8
140
12.0
141
0.0
146
0.5
147
4.0
171
     1
172
     1
178
     0
271
     1
289
     0
340
384
  0
DIMSTYLE
105
D5B
330
9
100
AcDbSymbolTableRecord
100
AcDbDimStyleTableRecord
  2
ISO-25
 70
     0
 41
2.5
 42
0.625
 43
3.75
 44
1.25
 73
     0
 74
     0
 77
     1
 78
     8
140
2.5
141
2.5
143
0.03937007874016
147
0.625
171
     3
172
     1
178
     0
271
     2
272
     2
274
     3
278
    44
283
     0
284
     8
340
17
  0
ENDTAB
  0
TABLE
  2
BLOCK_RECORD
  5
1
330
0
100
AcDbSymbolTable
 70
    39
  0
BLOCK_RECORD
  5
A
330
1
100
AcDbSymbolTableRecord
100
AcDbBlockTableRecord
  2
*MODEL_SPACE
340
20
 70
     0
280
     1
281
     0
  0
BLOCK_RECORD
  5
B
330
1
100
AcDbSymbolTableRecord
100
AcDbBlockTableRecord
  2
*PAPER_SPACE
340
21
 70
     0
280
     1
281
     0
  0
BLOCK_RECORD
  5
4E
330
1
100
AcDbSymbolTableRecord
100
AcDbBlockTableRecord
  2
_DOT
340
0
102
{BLKREFS
331
E8F
331
E90
331
E9E
331
E9F
331
ED6
331
ED7
331
F64
331
F65
331
F71
331
F72
331
FAE
331
FAF
331
FC0
331
FC1
331
FDF
331
FE0
331
1009
331
100A
331
1018
331
1019
331
1027
331
1028
331
1061
331
1062
331
108C
331
108D
331
10A3
331
10A4
331
10B6
331
10B7
331
1110
331
1111
331
112F
331
1130
331
116A
331
116B
331
1188
331
1189
331
11D9
331
11DA
331
11EC
331
11ED
331
1412
331
1413
331
146C
331
146D
331
1478
331
1479
331
1484
331
1485
331
1490
331
1491
331
149C
331
149D
331
14A8
331
14A9
331
14B4
331
14B5
331
14C0
331
14C1
331
14CC
331
14CD
331
14D8
331
14D9
331
14E4
331
14E5
102
}
 70
     0
280
     1
281
     0
  0
BLOCK_RECORD
  5
68A
330
1
100
AcDbSymbolTableRecord
100
AcDbBlockTableRecord
  2
名称未設定-1
340
0
102
{BLKREFS
331
6B5
102
}
 70
     1
280
     1
281
     0
  0
BLOCK_RECORD
  5
68D
330
1
100
AcDbSymbolTableRecord
100
AcDbBlockTableRecord
  2
block 2
340
0
102
{BLKREFS
331
68C
102
}
 70
     0
280
     1
281
     0
  0
BLOCK_RECORD
  5
690
330
1
100
AcDbSymbolTableRecord
100
AcDbBlockTableRecord
  2
block 3
340
0
102
{BLKREFS
331
68F
102
}
 70
     0
280
     1
281
     0
  0
BLOCK_RECORD
  5
693
330
1
100
AcDbSymbolTableRecord
100
AcDbBlockTableRecord
  2
block 4
340
0
102
{BLKREFS
331
692
102
}
 70
     0
280
     1
281
     0
  0
BLOCK_RECORD
  5
6A2
330
1
100
AcDbSymbolTableRecord
100
AcDbBlockTableRecord
  2
block 5
340
0
102
{BLKREFS
331
6A1
102
}
 70
     0
280
     1
281
     0
  0
BLOCK_RECORD
  5
E89
330
1
100
AcDbSymbolTableRecord
100
AcDbBlockTableRecord
  2
*D6
340
0
 70
     0
280
     1
281
     0
  0
BLOCK_RECORD
  5
E98
330
1
100
AcDbSymbolTableRecord
100
AcDbBlockTableRecord
  2
*D7
340
0
 70
     0
280
     1
281
     0
  0
BLOCK_RECORD
  5
ED0
330
1
100
AcDbSymbolTableRecord
100
AcDbBlockTableRecord
  2
*D8
340
0
 70
     0
280
     1
281
     0
  0
BLOCK_RECORD
  5
F5E
330
1
100
AcDbSymbolTableRecord
100
AcDbBlockTableRecord
  2
*D9
340
0
 70
     0
280
     1
281
     0
  0
BLOCK_RECORD
  5
F6B
330
1
100
AcDbSymbolTableRecord
100
AcDbBlockTableRecord
  2
*D10
340
0
 70
     0
280
     1
281
     0
  0
BLOCK_RECORD
  5
FA9
330
1
100
AcDbSymbolTableRecord
100
AcDbBlockTableRecord
  2
*D11
340
0
 70
     0
280
     1
281
     0
  0
BLOCK_RECORD
  5
FBA
330
1
100
AcDbSymbolTableRecord
100
AcDbBlockTableRecord
  2
*D12
340
0
 70
     0
280
     1
281
     0
  0
BLOCK_RECORD
  5
FD9
330
1
100
AcDbSymbolTableRecord
100
AcDbBlockTableRecord
  2
*D13
340
0
 70
     0
280
     1
281
     0
  0
BLOCK_RECORD
  5
1003
330
1
100
AcDbSymbolTableRecord
100
AcDbBlockTableRecord
  2
*D14
340
0
 70
     0
280
     1
281
     0
  0
BLOCK_RECORD
  5
1012
330
1
100
AcDbSymbolTableRecord
100
AcDbBlockTableRecord
  2
*D15
340
0
 70
     0
280
     1
281
     0
  0
BLOCK_RECORD
  5
1021
330
1
100
AcDbSymbolTableRecord
100
AcDbBlockTableRecord
  2
*D16
340
0
 70
     0
280
     1
281
     0
  0
BLOCK_RECORD
  5
105B
330
1
100
AcDbSymbolTableRecord
100
AcDbBlockTableRecord
  2
*D17
340
0
 70
     0
280
     1
281
     0
  0
BLOCK_RECORD
  5
1086
330
1
100
AcDbSymbolTableRecord
100
AcDbBlockTableRecord
  2
*D18
340
0
 70
     0
280
     1
281
     0
  0
BLOCK_RECORD
  5
109D
330
1
100
AcDbSymbolTableRecord
100
AcDbBlockTableRecord
  2
*D19
340
0
 70
     0
280
     1
281
     0
  0
BLOCK_RECORD
  5
10B0
330
1
100
AcDbSymbolTableRecord
100
AcDbBlockTableRecord
  2
*D20
340
0
 70
     0
280
     1
281
     0
  0
BLOCK_RECORD
  5
110A
330
1
100
AcDbSymbolTableRecord
100
AcDbBlockTableRecord
  2
*D21
340
0
 70
     0
280
     1
281
     0
  0
BLOCK_RECORD
  5
1129
330
1
100
AcDbSymbolTableRecord
100
AcDbBlockTableRecord
  2
*D22
340
0
 70
     0
280
     1
281
     0
  0
BLOCK_RECORD
  5
1164
330
1
100
AcDbSymbolTableRecord
100
AcDbBlockTableRecord
  2
*D23
340
0
 70
     0
280
     1
281
     0
  0
BLOCK_RECORD
  5
1182
330
1
100
AcDbSymbolTableRecord
100
AcDbBlockTableRecord
  2
*D24
340
0
 70
     0
280
     1
281
     0
  0
BLOCK_RECORD
  5
11D4
330
1
100
AcDbSymbolTableRecord
100
AcDbBlockTableRecord
  2
*D25
340
0
 70
     0
280
     1
281
     0
  0
BLOCK_RECORD
  5
11E6
330
1
100
AcDbSymbolTableRecord
100
AcDbBlockTableRecord
  2
*D26
340
0
 70
     0
280
     1
281
     0
  0
BLOCK_RECORD
  5
140C
330
1
100
AcDbSymbolTableRecord
100
AcDbBlockTableRecord
  2
*D27
340
0
 70
     0
280
     1
281
     0
  0
BLOCK_RECORD
  5
1466
330
1
100
AcDbSymbolTableRecord
100
AcDbBlockTableRecord
  2
*D28
340
0
 70
     0
280
     1
281
     0
  0
BLOCK_RECORD
  5
1472
330
1
100
AcDbSymbolTableRecord
100
AcDbBlockTableRecord
  2
*D29
340
0
 70
     0
280
     1
281
     0
  0
BLOCK_RECORD
  5
147E
330
1
100
AcDbSymbolTableRecord
100
AcDbBlockTableRecord
  2
*D30
340
0
 70
     0
280
     1
281
     0
  0
BLOCK_RECORD
  5
148A
330
1
100
AcDbSymbolTableRecord
100
AcDbBlockTableRecord
  2
*D31
340
0
 70
     0
280
     1
281
     0
  0
BLOCK_RECORD
  5
1496
330
1
100
AcDbSymbolTableRecord
100
AcDbBlockTableRecord
  2
*D32
340
0
 70
     0
280
     1
281
     0
  0
BLOCK_RECORD
  5
14A2
330
1
100
AcDbSymbolTableRecord
100
AcDbBlockTableRecord
  2
*D33
340
0
 70
     0
280
     1
281
     0
  0
BLOCK_RECORD
  5
14AE
330
1
100
AcDbSymbolTableRecord
100
AcDbBlockTableRecord
  2
*D34
340
0
 70
     0
280
     1
281
     0
  0
BLOCK_RECORD
  5
14BA
330
1
100
AcDbSymbolTableRecord
100
AcDbBlockTableRecord
  2
*D35
340
0
 70
     0
280
     1
281
     0
  0
BLOCK_RECORD
  5
14C6
330
1
100
AcDbSymbolTableRecord
100
AcDbBlockTableRecord
  2
*D36
340
0
 70
     0
280
     1
281
     0
  0
BLOCK_RECORD
  5
14D2
330
1
100
AcDbSymbolTableRecord
100
AcDbBlockTableRecord
  2
*D37
340
0
 70
     0
280
     1
281
     0
  0
BLOCK_RECORD
  5
14DE
330
1
100
AcDbSymbolTableRecord
100
AcDbBlockTableRecord
  2
*D38
340
0
 70
     0
280
     1
281
     0
  0
ENDTAB
  0
ENDSEC
  0
SECTION
  2
BLOCKS
  0
BLOCK
  5
D
330
A
100
AcDbEntity
  8
0
390
1D
100
AcDbBlockBegin
  2
*MODEL_SPACE
 70
     0
 10
0.0
 20
0.0
 30
0.0
  3
*MODEL_SPACE
  1
*MODEL_SPACE
  0
ENDBLK
  5
E
330
A
100
AcDbEntity
  8
0
390
1D
100
AcDbBlockEnd
  0
BLOCK
  5
F
330
B
100
AcDbEntity
 67
     1
  8
0
390
1D
100
AcDbBlockBegin
  2
*PAPER_SPACE
 70
     0
 10
0.0
 20
0.0
 30
0.0
  3
*PAPER_SPACE
  1
*PAPER_SPACE
  0
ENDBLK
  5
10
330
B
100
AcDbEntity
 67
     1
  8
0
390
1D
100
AcDbBlockEnd
  0
BLOCK
  5
10F3
330
4E
100
AcDbEntity
  8
0
390
1D
100
AcDbBlockBegin
  2
_DOT
 70
     0
 10
0.0
 20
0.0
 30
0.0
  3
_DOT
  1
_DOT
  0
POLYLINE
  5
10F5
330
4E
100
AcDbEntity
  8
0
  6
ByBlock
 62
     0
370
    -2
390
1D
100
AcDb2dPolyline
 66
     1
 10
0.0
 20
0.0
 30
0.0
 70
     1
 40
0.5
 41
0.5
  0
VERTEX
  5
10F6
330
10F5
100
AcDbEntity
  8
0
  6
ByBlock
 62
     0
370
    -2
390
1D
100
AcDbVertex
100
AcDb2dVertex
 10
-0.25
 20
0.0
 30
0.0
 42
1.0
  0
VERTEX
  5
10F7
330
10F5
100
AcDbEntity
  8
0
  6
ByBlock
 62
     0
370
    -2
390
1D
100
AcDbVertex
100
AcDb2dVertex
 10
0.25
 20
0.0
 30
0.0
 42
1.0
  0
SEQEND
  5
10F8
330
10F5
100
AcDbEntity
  8
0
390
1D
  0
LINE
  5
10F9
330
4E
100
AcDbEntity
  8
0
  6
ByBlock
 62
     0
370
    -2
390
1D
100
AcDbLine
 10
-0.5
 20
0.0
 30
0.0
 11
-1.0
 21
0.0
 31
0.0
  0
ENDBLK
  5
10FA
330
4E
100
AcDbEntity
  8
0
390
1D
100
AcDbBlockEnd
  0
BLOCK
  5
68B
330
68A
100
AcDbEntity
  8
0
100
AcDbBlockBegin
  2
名称未設定-1
 70
     0
 10
0.0
 20
0.0
 30
0.0
  3
名称未設定-1
  1
名称未設定-1
  0
INSERT
  5
68F
330
68A
100
AcDbEntity
  8
LOGO
100
AcDbBlockReference
  2
block 3
 10
0.0
 20
0.0
 30
0.0
  0
ENDBLK
  5
6B1
330
68A
100
AcDbEntity
  8
0
100
AcDbBlockEnd
  0
BLOCK
  5
68E
330
68D
100
AcDbEntity
  8
0
100
AcDbBlockBegin
  2
block 2
 70
     0
 10
0.0
 20
0.0
 30
0.0
  3
block 2
  1
block 2
  0
ENDBLK
  5
6B0
330
68D
100
AcDbEntity
  8
0
100
AcDbBlockEnd
  0
BLOCK
  5
691
330
690
100
AcDbEntity
  8
0
100
AcDbBlockBegin
  2
block 3
 70
     0
 10
0.0
 20
0.0
 30
0.0
  3
block 3
  1
block 3
  0
INSERT
  5
692
330
690
100
AcDbEntity
  8
LOGO
100
AcDbBlockReference
  2
block 4
 10
0.0
 20
0.0
 30
0.0
  0
INSERT
  5
6A1
330
690
100
AcDbEntity
  8
LOGO
100
AcDbBlockReference
  2
block 5
 10
0.0
 20
0.0
 30
0.0
  0
ENDBLK
  5
6AF
330
690
100
AcDbEntity
  8
0
100
AcDbBlockEnd
  0
BLOCK
  5
694
330
693
100
AcDbEntity
  8
0
100
AcDbBlockBegin
  2
block 4
 70
     0
 10
0.0
 20
0.0
 30
0.0
  3
block 4
  1
block 4
  0
POLYLINE
  5
695
330
693
100
AcDbEntity
  8
LOGO
370
     0
100
AcDb2dPolyline
 66
     1
 10
0.0
 20
0.0
 30
0.0
  0
VERTEX
  5
696
330
695
100
AcDbEntity
  8
LOGO
370
     0
100
AcDbVertex
100
AcDb2dVertex
 10
83.79545727667795
 20
167.6444858234922
 30
0.0
  0
VERTEX
  5
697
330
695
100
AcDbEntity
  8
LOGO
370
     0
100
AcDbVertex
100
AcDb2dVertex
 10
83.79545727667795
 20
159.7968976406313
 30
0.0
  0
VERTEX
  5
698
330
695
100
AcDbEntity
  8
LOGO
370
     0
100
AcDbVertex
100
AcDb2dVertex
 10
71.3631329975216
 20
159.7968976406313
 30
0.0
  0
VERTEX
  5
699
330
695
100
AcDbEntity
  8
LOGO
370
     0
100
AcDbVertex
100
AcDb2dVertex
 10
71.3631329975216
 20
127.8027915271048
 30
0.0
  0
VERTEX
  5
69A
330
695
100
AcDbEntity
  8
LOGO
370
     0
100
AcDbVertex
100
AcDb2dVertex
 10
60.43011526263018
 20
127.8027915271048
 30
0.0
  0
VERTEX
  5
69B
330
695
100
AcDbEntity
  8
LOGO
370
     0
100
AcDbVertex
100
AcDb2dVertex
 10
60.43011526263018
 20
159.7968976406313
 30
0.0
  0
VERTEX
  5
69C
330
695
100
AcDbEntity
  8
LOGO
370
     0
100
AcDbVertex
100
AcDb2dVertex
 10
48.21793273020759
 20
159.7968976406313
 30
0.0
  0
VERTEX
  5
69D
330
695
100
AcDbEntity
  8
LOGO
370
     0
100
AcDbVertex
100
AcDb2dVertex
 10
48.21793273020759
 20
167.6444858234922
 30
0.0
  0
VERTEX
  5
69E
330
695
100
AcDbEntity
  8
LOGO
370
     0
100
AcDbVertex
100
AcDb2dVertex
 10
83.79545727667795
 20
167.6444858234922
 30
0.0
  0
SEQEND
  5
69F
330
695
100
AcDbEntity
  8
LOGO
370
     0
  0
HATCH
  5
6A0
330
693
100
AcDbEntity
  8
LOGO
 62
   250
420
  2234388
100
AcDbHatch
 10
0.0
 20
0.0
 30
0.0
210
0.0
220
0.0
230
1.0
  2
SOLID
 70
     1
 71
     0
 91
        1
 92
        1
 93
        8
 72
     1
 10
83.79545727667795
 20
167.6444858234922
 11
83.79545727667795
 21
159.7968976406313
 72
     1
 10
83.79545727667795
 20
159.7968976406313
 11
71.3631329975216
 21
159.7968976406313
 72
     1
 10
71.3631329975216
 20
159.7968976406313
 11
71.3631329975216
 21
127.8027915271048
 72
     1
 10
71.3631329975216
 20
127.8027915271048
 11
60.43011526263018
 21
127.8027915271048
 72
     1
 10
60.43011526263018
 20
127.8027915271048
 11
60.43011526263018
 21
159.7968976406313
 72
     1
 10
60.43011526263018
 20
159.7968976406313
 11
48.21793273020759
 21
159.7968976406313
 72
     1
 10
48.21793273020759
 20
159.7968976406313
 11
48.21793273020759
 21
167.6444858234922
 72
     1
 10
48.21793273020759
 20
167.6444858234922
 11
83.79545727667795
 21
167.6444858234922
 97
        0
 75
     2
 76
     1
 98
        0
  0
ENDBLK
  5
6AE
330
693
100
AcDbEntity
  8
0
100
AcDbBlockEnd
  0
BLOCK
  5
6A3
330
6A2
100
AcDbEntity
  8
0
100
AcDbBlockBegin
  2
block 5
 70
     0
 10
0.0
 20
0.0
 30
0.0
  3
block 5
  1
block 5
  0
SPLINE
  5
6A4
330
6A2
100
AcDbEntity
  8
LOGO
370
     0
100
AcDbSpline
210
0.0
220
0.0
230
1.0
 70
    11
 71
     3
 72
    56
 73
    52
 74
     0
 42
0.000000001
 43
0.0000000001
 40
0.0
 40
0.0
 40
0.0
 40
0.0
 40
1.0
 40
1.0
 40
1.0
 40
2.0
 40
2.0
 40
2.0
 40
3.0
 40
3.0
 40
3.0
 40
4.0
 40
4.0
 40
4.0
 40
5.0
 40
5.0
 40
5.0
 40
6.0
 40
6.0
 40
6.0
 40
7.0
 40
7.0
 40
7.0
 40
8.0
 40
8.0
 40
8.0
 40
9.0
 40
9.0
 40
9.0
 40
10.0
 40
10.0
 40
10.0
 40
11.0
 40
11.0
 40
11.0
 40
12.0
 40
12.0
 40
12.0
 40
13.0
 40
13.0
 40
13.0
 40
14.0
 40
14.0
 40
14.0
 40
15.0
 40
15.0
 40
15.0
 40
16.0
 40
16.0
 40
16.0
 40
17.0
 40
17.0
 40
17.0
 40
17.0
 10
100.4504378777679
 20
166.69157178364
 30
0.0
 10
101.9848844191641
 20
167.1313385124438
 30
0.0
 10
103.9637485713373
 20
166.7649523658846
 30
0.0
 10
103.9637485713373
 20
166.7649523658846
 30
0.0
 10
103.9637485713373
 20
166.7649523658846
 30
0.0
 10
103.0132460999156
 20
163.911205638077
 30
0.0
 10
103.0132460999156
 20
163.911205638077
 30
0.0
 10
103.0132460999156
 20
163.911205638077
 30
0.0
 10
101.0674548862189
 20
164.3601018759394
 30
0.0
 10
99.57090442016032
 20
163.1805004036133
 30
0.0
 10
98.40508333886608
 20
162.258247733807
 30
0.0
 10
97.65301849830304
 20
159.804132345923
 30
0.0
 10
97.3598406791005
 20
158.8699940888517
 30
0.0
 10
97.3598406791005
 20
158.8699940888517
 30
0.0
 10
96.07137411762282
 20
154.9119212747295
 30
0.0
 10
96.07137411762282
 20
154.9119212747295
 30
0.0
 10
96.07137411762282
 20
154.9119212747295
 30
0.0
 10
100.3012651448482
 20
154.9119212747295
 30
0.0
 10
100.3012651448482
 20
154.9119212747295
 30
0.0
 10
100.3012651448482
 20
154.9119212747295
 30
0.0
 10
99.64152892419852
 20
152.4199098115079
 30
0.0
 10
99.64152892419852
 20
152.4199098115079
 30
0.0
 10
99.64152892419852
 20
152.4199098115079
 30
0.0
 10
95.38097652692731
 20
152.4199098115079
 30
0.0
 10
95.38097652692731
 20
152.4199098115079
 30
0.0
 10
95.38097652692731
 20
152.4199098115079
 30
0.0
 10
87.75353009080013
 20
127.8027915271048
 30
0.0
 10
87.75353009080013
 20
127.8027915271048
 30
0.0
 10
87.75353009080013
 20
127.8027915271048
 30
0.0
 10
85.36538832498108
 20
127.8027915271048
 30
0.0
 10
85.36538832498108
 20
127.8027915271048
 30
0.0
 10
85.36538832498108
 20
127.8027915271048
 30
0.0
 10
93.00006946639998
 20
152.4199098115079
 30
0.0
 10
93.00006946639998
 20
152.4199098115079
 30
0.0
 10
93.00006946639998
 20
152.4199098115079
 30
0.0
 10
89.85297266450198
 20
152.4199098115079
 30
0.0
 10
89.85297266450198
 20
152.4199098115079
 30
0.0
 10
89.85297266450198
 20
152.4199098115079
 30
0.0
 10
90.51270888515164
 20
154.9119212747295
 30
0.0
 10
90.51270888515164
 20
154.9119212747295
 30
0.0
 10
90.51270888515164
 20
154.9119212747295
 30
0.0
 10
93.6904670570955
 20
154.9119212747295
 30
0.0
 10
93.6904670570955
 20
154.9119212747295
 30
0.0
 10
93.6904670570955
 20
154.9119212747295
 30
0.0
 10
94.81598049462158
 20
158.3616699146644
 30
0.0
 10
94.81598049462158
 20
158.3616699146644
 30
0.0
 10
95.7237637538445
 20
161.2605474231013
 30
0.0
 10
96.4968436907311
 20
162.8139420021662
 30
0.0
 10
97.15657991138076
 20
163.9844139654337
 30
0.0
 10
97.81183750494507
 20
165.1523021053827
 30
0.0
 10
99.1047826935081
 20
166.3084769129547
 30
0.0
 10
100.4504378777679
 20
166.69157178364
 30
0.0
  0
HATCH
  5
6A5
330
6A2
100
AcDbEntity
  8
LOGO
 62
   250
420
  2234388
100
AcDbHatch
 10
0.0
 20
0.0
 30
0.0
210
0.0
220
0.0
230
1.0
  2
SOLID
 70
     1
 71
     0
 91
        1
 92
        1
 93
        1
 72
     4
 94
        3
 73
     0
 74
     1
 95
       56
 96
       52
 40
0.0
 40
0.0
 40
0.0
 40
0.0
 40
1.0
 40
1.0
 40
1.0
 40
2.0
 40
2.0
 40
2.0
 40
3.0
 40
3.0
 40
3.0
 40
4.0
 40
4.0
 40
4.0
 40
5.0
 40
5.0
 40
5.0
 40
6.0
 40
6.0
 40
6.0
 40
7.0
 40
7.0
 40
7.0
 40
8.0
 40
8.0
 40
8.0
 40
9.0
 40
9.0
 40
9.0
 40
10.0
 40
10.0
 40
10.0
 40
11.0
 40
11.0
 40
11.0
 40
12.0
 40
12.0
 40
12.0
 40
13.0
 40
13.0
 40
13.0
 40
14.0
 40
14.0
 40
14.0
 40
15.0
 40
15.0
 40
15.0
 40
16.0
 40
16.0
 40
16.0
 40
17.0
 40
17.0
 40
17.0
 40
17.0
 10
100.4504378777679
 20
166.69157178364
 10
101.9848844191641
 20
167.1313385124438
 10
103.9637485713373
 20
166.7649523658846
 10
103.9637485713373
 20
166.7649523658846
 10
103.9637485713373
 20
166.7649523658846
 10
103.0132460999156
 20
163.911205638077
 10
103.0132460999156
 20
163.911205638077
 10
103.0132460999156
 20
163.911205638077
 10
101.0674548862189
 20
164.3601018759394
 10
99.57090442016032
 20
163.1805004036133
 10
98.40508333886608
 20
162.258247733807
 10
97.65301849830304
 20
159.804132345923
 10
97.3598406791005
 20
158.8699940888517
 10
97.3598406791005
 20
158.8699940888517
 10
96.07137411762282
 20
154.9119212747295
 10
96.07137411762282
 20
154.9119212747295
 10
96.07137411762282
 20
154.9119212747295
 10
100.3012651448482
 20
154.9119212747295
 10
100.3012651448482
 20
154.9119212747295
 10
100.3012651448482
 20
154.9119212747295
 10
99.64152892419852
 20
152.4199098115079
 10
99.64152892419852
 20
152.4199098115079
 10
99.64152892419852
 20
152.4199098115079
 10
95.38097652692731
 20
152.4199098115079
 10
95.38097652692731
 20
152.4199098115079
 10
95.38097652692731
 20
152.4199098115079
 10
87.75353009080013
 20
127.8027915271048
 10
87.75353009080013
 20
127.8027915271048
 10
87.75353009080013
 20
127.8027915271048
 10
85.36538832498108
 20
127.8027915271048
 10
85.36538832498108
 20
127.8027915271048
 10
85.36538832498108
 20
127.8027915271048
 10
93.00006946639998
 20
152.4199098115079
 10
93.00006946639998
 20
152.4199098115079
 10
93.00006946639998
 20
152.4199098115079
 10
89.85297266450198
 20
152.4199098115079
 10
89.85297266450198
 20
152.4199098115079
 10
89.85297266450198
 20
152.4199098115079
 10
90.51270888515164
 20
154.9119212747295
 10
90.51270888515164
 20
154.9119212747295
 10
90.51270888515164
 20
154.9119212747295
 10
93.6904670570955
 20
154.9119212747295
 10
93.6904670570955
 20
154.9119212747295
 10
93.6904670570955
 20
154.9119212747295
 10
94.81598049462158
 20
158.3616699146644
 10
94.81598049462158
 20
158.3616699146644
 10
95.7237637538445
 20
161.2605474231013
 10
96.4968436907311
 20
162.8139420021662
 10
97.15657991138076
 20
163.9844139654337
 10
97.81183750494507
 20
165.1523021053827
 10
99.1047826935081
 20
166.3084769129547
 10
100.4504378777679
 20
166.69157178364
 97
        0
 75
     2
 76
     1
 98
        0
  0
SPLINE
  5
6A6
330
6A2
100
AcDbEntity
  8
LOGO
370
     0
100
AcDbSpline
210
0.0
220
0.0
230
1.0
 70
    11
 71
     3
 72
    38
 73
    34
 74
     0
 42
0.000000001
 43
0.0000000001
 40
0.0
 40
0.0
 40
0.0
 40
0.0
 40
1.0
 40
1.0
 40
1.0
 40
2.0
 40
2.0
 40
2.0
 40
3.0
 40
3.0
 40
3.0
 40
4.0
 40
4.0
 40
4.0
 40
5.0
 40
5.0
 40
5.0
 40
6.0
 40
6.0
 40
6.0
 40
7.0
 40
7.0
 40
7.0
 40
8.0
 40
8.0
 40
8.0
 40
9.0
 40
9.0
 40
9.0
 40
10.0
 40
10.0
 40
10.0
 40
11.0
 40
11.0
 40
11.0
 40
11.0
 10
126.377554584636
 20
154.8151140277308
 30
0.0
 10
126.377554584636
 20
154.8151140277308
 30
0.0
 10
128.8311532078563
 20
154.8151140277308
 30
0.0
 10
128.8311532078563
 20
154.8151140277308
 30
0.0
 10
128.8311532078563
 20
154.8151140277308
 30
0.0
 10
127.7345785914971
 20
151.3062819612468
 30
0.0
 10
127.7345785914971
 20
151.3062819612468
 30
0.0
 10
128.571392836906
 20
152.2922689395754
 30
0.0
 10
129.8860421413442
 20
153.604506675583
 30
0.0
 10
131.0163787157314
 20
154.2664822097754
 30
0.0
 10
132.7044766171327
 20
155.2500576196734
 30
0.0
 10
133.6642808525008
 20
155.3847609420097
 30
0.0
 10
134.7284715499351
 20
155.3565111403944
 30
0.0
 10
134.7284715499351
 20
155.3565111403944
 30
0.0
 10
133.6877075172549
 20
152.0345756272799
 30
0.0
 10
133.6877075172549
 20
152.0345756272799
 30
0.0
 10
133.011434827367
 20
152.3184516825359
 30
0.0
 10
130.930940291334
 20
151.7768823149844
 30
0.0
 10
129.739280976855
 20
150.9162968950455
 30
0.0
 10
128.66613302525
 20
150.1454562717016
 30
0.0
 10
127.9192358313239
 20
149.4857200510519
 30
0.0
 10
127.0393578639405
 20
147.8282835196966
 30
0.0
 10
126.164647543194
 20
146.1699857139017
 30
0.0
 10
125.4742499524985
 20
143.5262176944419
 30
0.0
 10
124.2822461282437
 20
139.6959580071401
 30
0.0
 10
124.2822461282437
 20
139.6959580071401
 30
0.0
 10
120.5753209406769
 20
127.8027915271048
 30
0.0
 10
120.5753209406769
 20
127.8027915271048
 30
0.0
 10
120.5753209406769
 20
127.8027915271048
 30
0.0
 10
118.1964809388044
 20
127.8027915271048
 30
0.0
 10
118.1964809388044
 20
127.8027915271048
 30
0.0
 10
118.1964809388044
 20
127.8027915271048
 30
0.0
 10
126.377554584636
 20
154.8151140277308
 30
0.0
 10
126.377554584636
 20
154.8151140277308
 30
0.0
  0
HATCH
  5
6A7
330
6A2
100
AcDbEntity
  8
LOGO
 62
   250
420
  2234388
100
AcDbHatch
 10
0.0
 20
0.0
 30
0.0
210
0.0
220
0.0
230
1.0
  2
SOLID
 70
     1
 71
     0
 91
        1
 92
        1
 93
        1
 72
     4
 94
        3
 73
     0
 74
     1
 95
       38
 96
       34
 40
0.0
 40
0.0
 40
0.0
 40
0.0
 40
1.0
 40
1.0
 40
1.0
 40
2.0
 40
2.0
 40
2.0
 40
3.0
 40
3.0
 40
3.0
 40
4.0
 40
4.0
 40
4.0
 40
5.0
 40
5.0
 40
5.0
 40
6.0
 40
6.0
 40
6.0
 40
7.0
 40
7.0
 40
7.0
 40
8.0
 40
8.0
 40
8.0
 40
9.0
 40
9.0
 40
9.0
 40
10.0
 40
10.0
 40
10.0
 40
11.0
 40
11.0
 40
11.0
 40
11.0
 10
126.377554584636
 20
154.8151140277308
 10
126.377554584636
 20
154.8151140277308
 10
128.8311532078563
 20
154.8151140277308
 10
128.8311532078563
 20
154.8151140277308
 10
128.8311532078563
 20
154.8151140277308
 10
127.7345785914971
 20
151.3062819612468
 10
127.7345785914971
 20
151.3062819612468
 10
128.571392836906
 20
152.2922689395754
 10
129.8860421413442
 20
153.604506675583
 10
131.0163787157314
 20
154.2664822097754
 10
132.7044766171327
 20
155.2500576196734
 10
133.6642808525008
 20
155.3847609420097
 10
134.7284715499351
 20
155.3565111403944
 10
134.7284715499351
 20
155.3565111403944
 10
133.6877075172549
 20
152.0345756272799
 10
133.6877075172549
 20
152.0345756272799
 10
133.011434827367
 20
152.3184516825359
 10
130.930940291334
 20
151.7768823149844
 10
129.739280976855
 20
150.9162968950455
 10
128.66613302525
 20
150.1454562717016
 10
127.9192358313239
 20
149.4857200510519
 10
127.0393578639405
 20
147.8282835196966
 10
126.164647543194
 20
146.1699857139017
 10
125.4742499524985
 20
143.5262176944419
 10
124.2822461282437
 20
139.6959580071401
 10
124.2822461282437
 20
139.6959580071401
 10
120.5753209406769
 20
127.8027915271048
 10
120.5753209406769
 20
127.8027915271048
 10
120.5753209406769
 20
127.8027915271048
 10
118.1964809388044
 20
127.8027915271048
 10
118.1964809388044
 20
127.8027915271048
 10
118.1964809388044
 20
127.8027915271048
 10
126.377554584636
 20
154.8151140277308
 10
126.377554584636
 20
154.8151140277308
 97
        0
 75
     2
 76
     1
 98
        0
  0
SPLINE
  5
6A8
330
6A2
100
AcDbEntity
  8
LOGO
370
     0
100
AcDbSpline
210
0.0
220
0.0
230
1.0
 70
    11
 71
     3
 72
   104
 73
   100
 74
     0
 42
0.000000001
 43
0.0000000001
 40
0.0
 40
0.0
 40
0.0
 40
0.0
 40
1.0
 40
1.0
 40
1.0
 40
2.0
 40
2.0
 40
2.0
 40
3.0
 40
3.0
 40
3.0
 40
4.0
 40
4.0
 40
4.0
 40
5.0
 40
5.0
 40
5.0
 40
6.0
 40
6.0
 40
6.0
 40
7.0
 40
7.0
 40
7.0
 40
8.0
 40
8.0
 40
8.0
 40
9.0
 40
9.0
 40
9.0
 40
10.0
 40
10.0
 40
10.0
 40
11.0
 40
11.0
 40
11.0
 40
12.0
 40
12.0
 40
12.0
 40
13.0
 40
13.0
 40
13.0
 40
14.0
 40
14.0
 40
14.0
 40
15.0
 40
15.0
 40
15.0
 40
16.0
 40
16.0
 40
16.0
 40
17.0
 40
17.0
 40
17.0
 40
18.0
 40
18.0
 40
18.0
 40
19.0
 40
19.0
 40
19.0
 40
20.0
 40
20.0
 40
20.0
 40
21.0
 40
21.0
 40
21.0
 40
22.0
 40
22.0
 40
22.0
 40
23.0
 40
23.0
 40
23.0
 40
24.0
 40
24.0
 40
24.0
 40
25.0
 40
25.0
 40
25.0
 40
26.0
 40
26.0
 40
26.0
 40
27.0
 40
27.0
 40
27.0
 40
28.0
 40
28.0
 40
28.0
 40
29.0
 40
29.0
 40
29.0
 40
30.0
 40
30.0
 40
30.0
 40
31.0
 40
31.0
 40
31.0
 40
32.0
 40
32.0
 40
32.0
 40
33.0
 40
33.0
 40
33.0
 40
33.0
 10
139.8926730891197
 20
154.8294111834263
 30
0.0
 10
139.8926730891197
 20
154.8294111834263
 30
0.0
 10
142.0344903652445
 20
154.8294111834263
 30
0.0
 10
142.0344903652445
 20
154.8294111834263
 30
0.0
 10
142.0344903652445
 20
154.8294111834263
 30
0.0
 10
140.9516961399171
 20
151.3157559800812
 30
0.0
 10
140.9516961399171
 20
151.3157559800812
 30
0.0
 10
141.8928968473923
 20
152.7887075264977
 30
0.0
 10
142.7341897198865
 20
153.4484437471474
 30
0.0
 10
143.8552245303272
 20
154.2926649527359
 30
0.0
 10
144.9803934580775
 20
155.1296514530327
 30
0.0
 10
146.3139908001845
 20
155.3044901642492
 30
0.0
 10
147.241066606852
 20
155.3044901642492
 30
0.0
 10
148.3855280820469
 20
155.3044901642492
 30
0.0
 10
149.4969166187653
 20
155.0752189084569
 30
0.0
 10
150.0784491203092
 20
153.8172414621372
 30
0.0
 10
150.5228667310863
 20
152.833838307127
 30
0.0
 10
150.5414702589793
 20
152.7201500811143
 30
0.0
 10
150.4140016419347
 20
150.7765981809602
 30
0.0
 10
151.5818897818837
 20
152.7699317437168
 30
0.0
 10
152.4424752018226
 20
153.6256940267945
 30
0.0
 10
153.9038856707499
 20
154.4507949398263
 30
0.0
 10
155.4455669174378
 20
155.3044901642492
 30
0.0
 10
156.339225275853
 20
155.3659851592288
 30
0.0
 10
157.3748216618963
 20
155.2147453676543
 30
0.0
 10
158.911679771723
 20
154.9877134254046
 30
0.0
 10
159.8859534176746
 20
154.4390816074493
 30
0.0
 10
160.3965169054045
 20
152.7816450760939
 30
0.0
 10
160.9070803931344
 20
151.1219692311958
 30
0.0
 10
160.6328506116007
 20
150.2303779314354
 30
0.0
 10
159.9992971339115
 20
147.597634224801
 30
0.0
 10
159.7105979417943
 20
146.4014962832367
 30
0.0
 10
159.2947746424084
 20
144.9400858143094
 30
0.0
 10
158.7463150793409
 20
143.2092687007094
 30
0.0
 10
158.7463150793409
 20
143.2092687007094
 30
0.0
 10
153.9038856707499
 20
127.8027915271048
 30
0.0
 10
153.9038856707499
 20
127.8027915271048
 30
0.0
 10
153.9038856707499
 20
127.8027915271048
 30
0.0
 10
151.3882752878863
 20
127.8027915271048
 30
0.0
 10
151.3882752878863
 20
127.8027915271048
 30
0.0
 10
151.3882752878863
 20
127.8027915271048
 30
0.0
 10
155.6250565106276
 20
141.2751908193897
 30
0.0
 10
155.6250565106276
 20
141.2751908193897
 30
0.0
 10
156.5094131050963
 20
144.0936252951782
 30
0.0
 10
157.109893644309
 20
146.1506931664571
 30
0.0
 10
157.4220195011804
 20
147.4415712963654
 30
0.0
 10
157.8095929989511
 20
149.0530157726519
 30
0.0
 10
157.9656559273867
 20
149.5826995529385
 30
0.0
 10
157.7816877071116
 20
150.7529992613181
 30
0.0
 10
157.6111553680925
 20
151.8430281919372
 30
0.0
 10
157.0582171779396
 20
152.5547853887321
 30
0.0
 10
156.1170164704645
 20
152.5547853887321
 30
0.0
 10
155.1096698860365
 20
152.5547853887321
 30
0.0
 10
154.2962823053817
 20
152.4412694176073
 30
0.0
 10
153.156643967048
 20
151.2945686288697
 30
0.0
 10
152.0170056287143
 20
150.1476955852443
 30
0.0
 10
151.076149431015
 20
148.7930831468137
 30
0.0
 10
150.3337308641742
 20
147.2290087646991
 30
0.0
 10
149.5957909244188
 20
145.6683794803425
 30
0.0
 10
148.8530278478023
 20
143.6822806228776
 30
0.0
 10
148.0964843801539
 20
141.2751908193897
 30
0.0
 10
148.0964843801539
 20
141.2751908193897
 30
0.0
 10
143.8552245303272
 20
127.8027915271048
 30
0.0
 10
143.8552245303272
 20
127.8027915271048
 30
0.0
 10
143.8552245303272
 20
127.8027915271048
 30
0.0
 10
141.486030802177
 20
127.8027915271048
 30
0.0
 10
141.486030802177
 20
127.8027915271048
 30
0.0
 10
141.486030802177
 20
127.8027915271048
 30
0.0
 10
146.3329388378533
 20
143.2092687007094
 30
0.0
 10
146.3329388378533
 20
143.2092687007094
 30
0.0
 10
146.8483254624444
 20
144.8408669988801
 30
0.0
 10
147.2314203331297
 20
146.1837661049335
 30
0.0
 10
147.4867020769946
 20
147.224185627838
 30
0.0
 10
147.9169947869641
 20
149.0197705792876
 30
0.0
 10
148.0306830129768
 20
150.2400242051577
 30
0.0
 10
147.709255392159
 20
151.3157559800812
 30
0.0
 10
147.3874832615654
 20
152.3916600098926
 30
0.0
 10
146.8245542879144
 20
152.6683013598569
 30
0.0
 10
145.8840425999909
 20
152.6683013598569
 30
0.0
 10
145.0989048209514
 20
152.6683013598569
 30
0.0
 10
144.3282364524954
 20
152.3275811915945
 30
0.0
 10
143.4531816219731
 20
151.6538923250251
 30
0.0
 10
142.34627171234
 20
150.8074318058939
 30
0.0
 10
141.901854101563
 20
150.1097995099067
 30
0.0
 10
141.3578731655808
 20
149.289521733736
 30
0.0
 10
140.6299240093235
 20
148.192602607601
 30
0.0
 10
140.2850697237515
 20
147.455696197173
 30
0.0
 10
139.6652966370942
 20
145.8385673095858
 30
0.0
 10
139.0506911970739
 20
144.2214384219986
 30
0.0
 10
138.463991048893
 20
142.3252566160164
 30
0.0
 10
138.0571250036777
 20
141.0154304484394
 30
0.0
 10
138.0571250036777
 20
141.0154304484394
 30
0.0
 10
133.9009590684727
 20
127.8027915271048
 30
0.0
 10
133.9009590684727
 20
127.8027915271048
 30
0.0
 10
133.9009590684727
 20
127.8027915271048
 30
0.0
 10
131.4180771143097
 20
127.8027915271048
 30
0.0
 10
131.4180771143097
 20
127.8027915271048
 30
0.0
 10
131.4180771143097
 20
127.8027915271048
 30
0.0
 10
139.8926730891197
 20
154.8294111834263
 30
0.0
 10
139.8926730891197
 20
154.8294111834263
 30
0.0
  0
HATCH
  5
6A9
330
6A2
100
AcDbEntity
  8
LOGO
 62
   250
420
  2234388
100
AcDbHatch
 10
0.0
 20
0.0
 30
0.0
210
0.0
220
0.0
230
1.0
  2
SOLID
 70
     1
 71
     0
 91
        1
 92
        1
 93
        1
 72
     4
 94
        3
 73
     0
 74
     1
 95
      104
 96
      100
 40
0.0
 40
0.0
 40
0.0
 40
0.0
 40
1.0
 40
1.0
 40
1.0
 40
2.0
 40
2.0
 40
2.0
 40
3.0
 40
3.0
 40
3.0
 40
4.0
 40
4.0
 40
4.0
 40
5.0
 40
5.0
 40
5.0
 40
6.0
 40
6.0
 40
6.0
 40
7.0
 40
7.0
 40
7.0
 40
8.0
 40
8.0
 40
8.0
 40
9.0
 40
9.0
 40
9.0
 40
10.0
 40
10.0
 40
10.0
 40
11.0
 40
11.0
 40
11.0
 40
12.0
 40
12.0
 40
12.0
 40
13.0
 40
13.0
 40
13.0
 40
14.0
 40
14.0
 40
14.0
 40
15.0
 40
15.0
 40
15.0
 40
16.0
 40
16.0
 40
16.0
 40
17.0
 40
17.0
 40
17.0
 40
18.0
 40
18.0
 40
18.0
 40
19.0
 40
19.0
 40
19.0
 40
20.0
 40
20.0
 40
20.0
 40
21.0
 40
21.0
 40
21.0
 40
22.0
 40
22.0
 40
22.0
 40
23.0
 40
23.0
 40
23.0
 40
24.0
 40
24.0
 40
24.0
 40
25.0
 40
25.0
 40
25.0
 40
26.0
 40
26.0
 40
26.0
 40
27.0
 40
27.0
 40
27.0
 40
28.0
 40
28.0
 40
28.0
 40
29.0
 40
29.0
 40
29.0
 40
30.0
 40
30.0
 40
30.0
 40
31.0
 40
31.0
 40
31.0
 40
32.0
 40
32.0
 40
32.0
 40
33.0
 40
33.0
 40
33.0
 40
33.0
 10
139.8926730891197
 20
154.8294111834263
 10
139.8926730891197
 20
154.8294111834263
 10
142.0344903652445
 20
154.8294111834263
 10
142.0344903652445
 20
154.8294111834263
 10
142.0344903652445
 20
154.8294111834263
 10
140.9516961399171
 20
151.3157559800812
 10
140.9516961399171
 20
151.3157559800812
 10
141.8928968473923
 20
152.7887075264977
 10
142.7341897198865
 20
153.4484437471474
 10
143.8552245303272
 20
154.2926649527359
 10
144.9803934580775
 20
155.1296514530327
 10
146.3139908001845
 20
155.3044901642492
 10
147.241066606852
 20
155.3044901642492
 10
148.3855280820469
 20
155.3044901642492
 10
149.4969166187653
 20
155.0752189084569
 10
150.0784491203092
 20
153.8172414621372
 10
150.5228667310863
 20
152.833838307127
 10
150.5414702589793
 20
152.7201500811143
 10
150.4140016419347
 20
150.7765981809602
 10
151.5818897818837
 20
152.7699317437168
 10
152.4424752018226
 20
153.6256940267945
 10
153.9038856707499
 20
154.4507949398263
 10
155.4455669174378
 20
155.3044901642492
 10
156.339225275853
 20
155.3659851592288
 10
157.3748216618963
 20
155.2147453676543
 10
158.911679771723
 20
154.9877134254046
 10
159.8859534176746
 20
154.4390816074493
 10
160.3965169054045
 20
152.7816450760939
 10
160.9070803931344
 20
151.1219692311958
 10
160.6328506116007
 20
150.2303779314354
 10
159.9992971339115
 20
147.597634224801
 10
159.7105979417943
 20
146.4014962832367
 10
159.2947746424084
 20
144.9400858143094
 10
158.7463150793409
 20
143.2092687007094
 10
158.7463150793409
 20
143.2092687007094
 10
153.9038856707499
 20
127.8027915271048
 10
153.9038856707499
 20
127.8027915271048
 10
153.9038856707499
 20
127.8027915271048
 10
151.3882752878863
 20
127.8027915271048
 10
151.3882752878863
 20
127.8027915271048
 10
151.3882752878863
 20
127.8027915271048
 10
155.6250565106276
 20
141.2751908193897
 10
155.6250565106276
 20
141.2751908193897
 10
156.5094131050963
 20
144.0936252951782
 10
157.109893644309
 20
146.1506931664571
 10
157.4220195011804
 20
147.4415712963654
 10
157.8095929989511
 20
149.0530157726519
 10
157.9656559273867
 20
149.5826995529385
 10
157.7816877071116
 20
150.7529992613181
 10
157.6111553680925
 20
151.8430281919372
 10
157.0582171779396
 20
152.5547853887321
 10
156.1170164704645
 20
152.5547853887321
 10
155.1096698860365
 20
152.5547853887321
 10
154.2962823053817
 20
152.4412694176073
 10
153.156643967048
 20
151.2945686288697
 10
152.0170056287143
 20
150.1476955852443
 10
151.076149431015
 20
148.7930831468137
 10
150.3337308641742
 20
147.2290087646991
 10
149.5957909244188
 20
145.6683794803425
 10
148.8530278478023
 20
143.6822806228776
 10
148.0964843801539
 20
141.2751908193897
 10
148.0964843801539
 20
141.2751908193897
 10
143.8552245303272
 20
127.8027915271048
 10
143.8552245303272
 20
127.8027915271048
 10
143.8552245303272
 20
127.8027915271048
 10
141.486030802177
 20
127.8027915271048
 10
141.486030802177
 20
127.8027915271048
 10
141.486030802177
 20
127.8027915271048
 10
146.3329388378533
 20
143.2092687007094
 10
146.3329388378533
 20
143.2092687007094
 10
146.8483254624444
 20
144.8408669988801
 10
147.2314203331297
 20
146.1837661049335
 10
147.4867020769946
 20
147.224185627838
 10
147.9169947869641
 20
149.0197705792876
 10
148.0306830129768
 20
150.2400242051577
 10
147.709255392159
 20
151.3157559800812
 10
147.3874832615654
 20
152.3916600098926
 10
146.8245542879144
 20
152.6683013598569
 10
145.8840425999909
 20
152.6683013598569
 10
145.0989048209514
 20
152.6683013598569
 10
144.3282364524954
 20
152.3275811915945
 10
143.4531816219731
 20
151.6538923250251
 10
142.34627171234
 20
150.8074318058939
 10
141.901854101563
 20
150.1097995099067
 10
141.3578731655808
 20
149.289521733736
 10
140.6299240093235
 20
148.192602607601
 10
140.2850697237515
 20
147.455696197173
 10
139.6652966370942
 20
145.8385673095858
 10
139.0506911970739
 20
144.2214384219986
 10
138.463991048893
 20
142.3252566160164
 10
138.0571250036777
 20
141.0154304484394
 10
138.0571250036777
 20
141.0154304484394
 10
133.9009590684727
 20
127.8027915271048
 10
133.9009590684727
 20
127.8027915271048
 10
133.9009590684727
 20
127.8027915271048
 10
131.4180771143097
 20
127.8027915271048
 10
131.4180771143097
 20
127.8027915271048
 10
131.4180771143097
 20
127.8027915271048
 10
139.8926730891197
 20
154.8294111834263
 10
139.8926730891197
 20
154.8294111834263
 97
        0
 75
     2
 76
     1
 98
        0
  0
SPLINE
  5
6AA
330
6A2
100
AcDbEntity
  8
LOGO
370
     0
100
AcDbSpline
210
0.0
220
0.0
230
1.0
 70
    11
 71
     3
 72
    29
 73
    25
 74
     0
 42
0.000000001
 43
0.0000000001
 40
0.0
 40
0.0
 40
0.0
 40
0.0
 40
1.0
 40
1.0
 40
1.0
 40
2.0
 40
2.0
 40
2.0
 40
3.0
 40
3.0
 40
3.0
 40
4.0
 40
4.0
 40
4.0
 40
5.0
 40
5.0
 40
5.0
 40
6.0
 40
6.0
 40
6.0
 40
7.0
 40
7.0
 40
7.0
 40
8.0
 40
8.0
 40
8.0
 40
8.0
 10
101.6420971922469
 20
132.8388354296931
 30
0.0
 10
101.630039350094
 20
134.7164137077823
 30
0.0
 10
102.2236296937908
 20
138.0598810818841
 30
0.0
 10
103.7487744712405
 20
142.5378191476827
 30
0.0
 10
105.819967243327
 20
148.5896501242061
 30
0.0
 10
107.0602024361932
 20
150.8074318058939
 30
0.0
 10
108.1522984254671
 20
151.8833358357054
 30
0.0
 10
109.741177511439
 20
153.4532668840085
 30
0.0
 10
111.8740375333931
 20
153.5290590346837
 30
0.0
 10
112.5075910110823
 20
153.4532668840085
 30
0.0
 10
113.4012493694975
 20
153.3490526768302
 30
0.0
 10
114.6683563248758
 20
152.7580461564518
 30
0.0
 10
114.7493161221879
 20
150.7838328862519
 30
0.0
 10
114.8106388622796
 20
149.0909118479895
 30
0.0
 10
114.3186789024427
 20
145.9191825971221
 30
0.0
 10
112.6164561002338
 20
140.9489400617108
 30
0.0
 10
110.6444821435766
 20
135.1746117095912
 30
0.0
 10
109.4669477299053
 20
132.8960240524753
 30
0.0
 10
108.5212683953448
 20
131.9072809959403
 30
0.0
 10
106.7346406980658
 20
130.0538184021569
 30
0.0
 10
104.8222669326213
 20
130.2336525051225
 30
0.0
 10
104.5408024457958
 20
130.2336525051225
 30
0.0
 10
104.1721769856939
 20
130.2336525051225
 30
0.0
 10
101.6465758193322
 20
130.6305277668397
 30
0.0
 10
101.6420971922469
 20
132.8388354296931
 30
0.0
  0
SPLINE
  5
6AB
330
6A2
100
AcDbEntity
  8
LOGO
370
     0
100
AcDbSpline
210
0.0
220
0.0
230
1.0
 70
    11
 71
     3
 72
    32
 73
    28
 74
     0
 42
0.000000001
 43
0.0000000001
 40
0.0
 40
0.0
 40
0.0
 40
0.0
 40
1.0
 40
1.0
 40
1.0
 40
2.0
 40
2.0
 40
2.0
 40
3.0
 40
3.0
 40
3.0
 40
4.0
 40
4.0
 40
4.0
 40
5.0
 40
5.0
 40
5.0
 40
6.0
 40
6.0
 40
6.0
 40
7.0
 40
7.0
 40
7.0
 40
8.0
 40
8.0
 40
8.0
 40
9.0
 40
9.0
 40
9.0
 40
9.0
 10
106.2595617172429
 20
153.4105476718098
 30
0.0
 10
104.8222669326213
 20
151.5474388043041
 30
0.0
 10
103.7177685914188
 20
149.8758773721411
 30
0.0
 10
101.9232171692965
 20
144.6141795664062
 30
0.0
 10
100.2754269116635
 20
139.7999999594306
 30
0.0
 10
99.22777268346732
 20
136.3052927937542
 30
0.0
 10
99.06964269637689
 20
132.039572749846
 30
0.0
 10
98.94665270641765
 20
128.8673267343149
 30
0.0
 10
100.8807305877373
 20
127.8027915271048
 30
0.0
 10
103.7129454545577
 20
127.8027915271048
 30
0.0
 10
104.9352661390825
 20
127.8027915271048
 30
0.0
 10
108.0151835347002
 20
127.8827177950895
 30
0.0
 10
110.2045431598849
 20
130.5926316915021
 30
0.0
 10
111.7417457794874
 20
132.4984597712065
 30
0.0
 10
113.155269389579
 20
134.475256864725
 30
0.0
 10
115.0562743324223
 20
140.9489400617108
 30
0.0
 10
116.6361961642235
 20
146.3680788349845
 30
0.0
 10
117.7282921534974
 20
149.8639917848761
 30
0.0
 10
117.6480213757369
 20
151.8595646611754
 30
0.0
 10
117.6480213757369
 20
151.8595646611754
 30
0.0
 10
117.6480213757369
 20
151.8595646611754
 30
0.0
 10
117.6480213757369
 20
151.8595646611754
 30
0.0
 10
117.13229024137
 20
155.18150017429
 30
0.0
 10
114.7162431837115
 20
155.886194920681
 30
0.0
 10
113.3351034925446
 20
155.886194920681
 30
0.0
 10
111.9829026225447
 20
155.886194920681
 30
0.0
 10
108.3414342923792
 20
156.1251124501957
 30
0.0
 10
106.2595617172429
 20
153.4105476718098
 30
0.0
  0
HATCH
  5
6AC
330
6A2
100
AcDbEntity
  8
LOGO
 62
   250
420
  2234388
100
AcDbHatch
 10
0.0
 20
0.0
 30
0.0
210
0.0
220
0.0
230
1.0
  2
SOLID
 70
     1
 71
     0
 91
        2
 92
        1
 93
        1
 72
     4
 94
        3
 73
     0
 74
     1
 95
       29
 96
       25
 40
0.0
 40
0.0
 40
0.0
 40
0.0
 40
1.0
 40
1.0
 40
1.0
 40
2.0
 40
2.0
 40
2.0
 40
3.0
 40
3.0
 40
3.0
 40
4.0
 40
4.0
 40
4.0
 40
5.0
 40
5.0
 40
5.0
 40
6.0
 40
6.0
 40
6.0
 40
7.0
 40
7.0
 40
7.0
 40
8.0
 40
8.0
 40
8.0
 40
8.0
 10
101.6420971922469
 20
132.8388354296931
 10
101.630039350094
 20
134.7164137077823
 10
102.2236296937908
 20
138.0598810818841
 10
103.7487744712405
 20
142.5378191476827
 10
105.819967243327
 20
148.5896501242061
 10
107.0602024361932
 20
150.8074318058939
 10
108.1522984254671
 20
151.8833358357054
 10
109.741177511439
 20
153.4532668840085
 10
111.8740375333931
 20
153.5290590346837
 10
112.5075910110823
 20
153.4532668840085
 10
113.4012493694975
 20
153.3490526768302
 10
114.6683563248758
 20
152.7580461564518
 10
114.7493161221879
 20
150.7838328862519
 10
114.8106388622796
 20
149.0909118479895
 10
114.3186789024427
 20
145.9191825971221
 10
112.6164561002338
 20
140.9489400617108
 10
110.6444821435766
 20
135.1746117095912
 10
109.4669477299053
 20
132.8960240524753
 10
108.5212683953448
 20
131.9072809959403
 10
106.7346406980658
 20
130.0538184021569
 10
104.8222669326213
 20
130.2336525051225
 10
104.5408024457958
 20
130.2336525051225
 10
104.1721769856939
 20
130.2336525051225
 10
101.6465758193322
 20
130.6305277668397
 10
101.6420971922469
 20
132.8388354296931
 97
        0
 92
        1
 93
        1
 72
     4
 94
        3
 73
     0
 74
     1
 95
       32
 96
       28
 40
0.0
 40
0.0
 40
0.0
 40
0.0
 40
1.0
 40
1.0
 40
1.0
 40
2.0
 40
2.0
 40
2.0
 40
3.0
 40
3.0
 40
3.0
 40
4.0
 40
4.0
 40
4.0
 40
5.0
 40
5.0
 40
5.0
 40
6.0
 40
6.0
 40
6.0
 40
7.0
 40
7.0
 40
7.0
 40
8.0
 40
8.0
 40
8.0
 40
9.0
 40
9.0
 40
9.0
 40
9.0
 10
106.2595617172429
 20
153.4105476718098
 10
104.8222669326213
 20
151.5474388043041
 10
103.7177685914188
 20
149.8758773721411
 10
101.9232171692965
 20
144.6141795664062
 10
100.2754269116635
 20
139.7999999594306
 10
99.22777268346732
 20
136.3052927937542
 10
99.06964269637689
 20
132.039572749846
 10
98.94665270641765
 20
128.8673267343149
 10
100.8807305877373
 20
127.8027915271048
 10
103.7129454545577
 20
127.8027915271048
 10
104.9352661390825
 20
127.8027915271048
 10
108.0151835347002
 20
127.8827177950895
 10
110.2045431598849
 20
130.5926316915021
 10
111.7417457794874
 20
132.4984597712065
 10
113.155269389579
 20
134.475256864725
 10
115.0562743324223
 20
140.9489400617108
 10
116.6361961642235
 20
146.3680788349845
 10
117.7282921534974
 20
149.8639917848761
 10
117.6480213757369
 20
151.8595646611754
 10
117.6480213757369
 20
151.8595646611754
 10
117.6480213757369
 20
151.8595646611754
 10
117.6480213757369
 20
151.8595646611754
 10
117.13229024137
 20
155.18150017429
 10
114.7162431837115
 20
155.886194920681
 10
113.3351034925446
 20
155.886194920681
 10
111.9829026225447
 20
155.886194920681
 10
108.3414342923792
 20
156.1251124501957
 10
106.2595617172429
 20
153.4105476718098
 97
        0
 75
     2
 76
     1
 98
        0
  0
ENDBLK
  5
6AD
330
6A2
100
AcDbEntity
  8
0
100
AcDbBlockEnd
  0
BLOCK
  5
E8A
330
E89
100
AcDbEntity
  8
0
100
AcDbBlockBegin
  2
*D6
 70
     1
 10
0.0
 20
0.0
 30
0.0
  3
*D6
  1
*D7
  0
LINE
  5
E8C
330
E89
100
AcDbEntity
  8
MODEL
  6
Continuous
 62
     0
370
    -2
100
AcDbLine
 10
501.3830447138743
 20
838.6576534467056
 30
0.0
 11
456.2467057498549
 21
838.6576534467056
 31
0.0
  0
LINE
  5
E8D
330
E89
100
AcDbEntity
  8
MODEL
  6
Continuous
 62
     0
370
    -2
100
AcDbLine
 10
501.3830447138743
 20
965.6576534467047
 30
0.0
 11
456.2467057498549
 21
965.6576534467047
 31
0.0
  0
LINE
  5
E8E
330
E89
100
AcDbEntity
  8
MODEL
  6
Continuous
 62
     0
370
    -2
100
AcDbLine
 10
456.2467057498549
 20
844.6576534467056
 30
0.0
 11
456.2467057498549
 21
959.6576534467047
 31
0.0
  0
INSERT
  5
E8F
330
E89
100
AcDbEntity
  8
MODEL
 62
     0
370
    -2
100
AcDbBlockReference
  2
_DOT
 10
456.2467057498549
 20
838.6576534467056
 30
0.0
 41
6.0
 42
6.0
 43
6.0
 50
270.0
  0
INSERT
  5
E90
330
E89
100
AcDbEntity
  8
MODEL
 62
     0
370
    -2
100
AcDbBlockReference
  2
_DOT
 10
456.2467057498549
 20
965.6576534467047
 30
0.0
 41
6.0
 42
6.0
 43
6.0
 50
90.0
  0
MTEXT
  5
E91
330
E89
100
AcDbEntity
  8
MODEL
  6
Continuous
 62
     0
100
AcDbMText
 10
440.2467057498549
 20
902.1576534467051
 30
0.0
 40
12.0
 41
0.0
 46
0.0
 71
     5
 72
     1
  1
\A1;127
  7
ＭＳ ゴシック
 11
0.0
 21
1.0
 31
0.0
 73
     1
 44
1.0
  0
POINT
  5
E92
330
E89
100
AcDbEntity
  8
Defpoints
 62
     0
100
AcDbPoint
 10
506.3830447138743
 20
838.6576534467056
 30
0.0
  0
POINT
  5
E93
330
E89
100
AcDbEntity
  8
Defpoints
 62
     0
100
AcDbPoint
 10
506.3830447138743
 20
965.6576534467047
 30
0.0
  0
POINT
  5
E94
330
E89
100
AcDbEntity
  8
Defpoints
 62
     0
100
AcDbPoint
 10
456.2467057498549
 20
965.6576534467047
 30
0.0
  0
ENDBLK
  5
E8B
330
E89
100
AcDbEntity
  8
0
100
AcDbBlockEnd
  0
BLOCK
  5
E99
330
E98
100
AcDbEntity
  8
0
100
AcDbBlockBegin
  2
*D7
 70
     1
 10
0.0
 20
0.0
 30
0.0
  3
*D7
  1
*D8
  0
LINE
  5
E9B
330
E98
100
AcDbEntity
  8
MODEL
  6
Continuous
 62
     0
370
    -2
100
AcDbLine
 10
501.3830447138743
 20
965.6576534467047
 30
0.0
 11
465.2823238631478
 21
965.6576534467047
 31
0.0
  0
LINE
  5
E9C
330
E98
100
AcDbEntity
  8
MODEL
  6
Continuous
 62
     0
370
    -2
100
AcDbLine
 10
501.3830447138743
 20
1123.657653446706
 30
0.0
 11
465.2823238631478
 21
1123.657653446706
 31
0.0
  0
LINE
  5
E9D
330
E98
100
AcDbEntity
  8
MODEL
  6
Continuous
 62
     0
370
    -2
100
AcDbLine
 10
465.2823238631478
 20
971.6576534467047
 30
0.0
 11
465.2823238631478
 21
1117.657653446706
 31
0.0
  0
INSERT
  5
E9E
330
E98
100
AcDbEntity
  8
MODEL
 62
     0
370
    -2
100
AcDbBlockReference
  2
_DOT
 10
465.2823238631478
 20
965.6576534467047
 30
0.0
 41
6.0
 42
6.0
 43
6.0
 50
270.0
  0
INSERT
  5
E9F
330
E98
100
AcDbEntity
  8
MODEL
 62
     0
370
    -2
100
AcDbBlockReference
  2
_DOT
 10
465.2823238631478
 20
1123.657653446706
 30
0.0
 41
6.0
 42
6.0
 43
6.0
 50
90.0
  0
MTEXT
  5
EA0
330
E98
100
AcDbEntity
  8
MODEL
  6
Continuous
 62
     0
100
AcDbMText
 10
448.2803238631479
 20
1044.657653446705
 30
0.0
 40
12.0
 41
0.0
 46
0.0
 71
     5
 72
     1
  1
\A1;縦管カット
  7
ＭＳ ゴシック
 11
0.0
 21
1.0
 31
0.0
 73
     1
 44
1.0
  0
POINT
  5
EA1
330
E98
100
AcDbEntity
  8
Defpoints
 62
     0
100
AcDbPoint
 10
506.3830447138743
 20
965.6576534467047
 30
0.0
  0
POINT
  5
EA2
330
E98
100
AcDbEntity
  8
Defpoints
 62
     0
100
AcDbPoint
 10
506.3830447138743
 20
1123.657653446706
 30
0.0
  0
POINT
  5
EA3
330
E98
100
AcDbEntity
  8
Defpoints
 62
     0
100
AcDbPoint
 10
465.2823238631478
 20
1123.657653446706
 30
0.0
  0
ENDBLK
  5
E9A
330
E98
100
AcDbEntity
  8
0
100
AcDbBlockEnd
  0
BLOCK
  5
ED1
330
ED0
100
AcDbEntity
  8
0
100
AcDbBlockBegin
  2
*D8
 70
     1
 10
0.0
 20
0.0
 30
0.0
  3
*D8
  1
*D9
  0
LINE
  5
ED3
330
ED0
100
AcDbEntity
  8
DIM
 62
     0
370
    -2
100
AcDbLine
 10
267.1357765155845
 20
1310.251429551457
 30
0.0
 11
267.1357765155845
 21
1343.269334009806
 31
0.0
  0
LINE
  5
ED4
330
ED0
100
AcDbEntity
  8
DIM
 62
     0
370
    -2
100
AcDbLine
 10
317.1357765155842
 20
1310.251429551457
 30
0.0
 11
317.1357765155842
 21
1343.269334009806
 31
0.0
  0
LINE
  5
ED5
330
ED0
100
AcDbEntity
  8
DIM
 62
     0
370
    -2
100
AcDbLine
 10
269.1357765155845
 20
1343.269334009806
 30
0.0
 11
315.1357765155842
 21
1343.269334009806
 31
0.0
  0
INSERT
  5
ED6
330
ED0
100
AcDbEntity
  8
DIM
 62
     0
370
    -2
100
AcDbBlockReference
  2
_DOT
 10
267.1357765155845
 20
1343.269334009806
 30
0.0
 41
2.0
 42
2.0
 43
2.0
 50
180.0
  0
INSERT
  5
ED7
330
ED0
100
AcDbEntity
  8
DIM
 62
     0
370
    -2
100
AcDbBlockReference
  2
_DOT
 10
317.1357765155842
 20
1343.269334009806
 30
0.0
 41
2.0
 42
2.0
 43
2.0
  0
MTEXT
  5
ED8
330
ED0
100
AcDbEntity
  8
DIM
 62
     0
100
AcDbMText
 10
292.1357765155843
 20
1357.329334009806
 30
0.0
 40
12.0
 41
0.0
 46
0.0
 71
     5
 72
     1
  1
\A1;ø50
  7
ＭＳ ゴシック
 73
     1
 44
1.0
  0
POINT
  5
ED9
330
ED0
100
AcDbEntity
  8
Defpoints
 62
     0
100
AcDbPoint
 10
267.1357765155845
 20
1295.251429551457
 30
0.0
  0
POINT
  5
EDA
330
ED0
100
AcDbEntity
  8
Defpoints
 62
     0
100
AcDbPoint
 10
317.1357765155842
 20
1295.251429551457
 30
0.0
  0
POINT
  5
EDB
330
ED0
100
AcDbEntity
  8
Defpoints
 62
     0
100
AcDbPoint
 10
317.1357765155842
 20
1343.269334009806
 30
0.0
  0
ENDBLK
  5
ED2
330
ED0
100
AcDbEntity
  8
0
100
AcDbBlockEnd
  0
BLOCK
  5
F5F
330
F5E
100
AcDbEntity
  8
0
100
AcDbBlockBegin
  2
*D9
 70
     1
 10
0.0
 20
0.0
 30
0.0
  3
*D9
  1
*D11
  0
LINE
  5
F61
330
F5E
100
AcDbEntity
  8
DIM
 62
     0
370
    -2
100
AcDbLine
 10
501.3830447138743
 20
524.4653627585708
 30
0.0
 11
465.2338935923693
 21
524.4653627585708
 31
0.0
  0
LINE
  5
F62
330
F5E
100
AcDbEntity
  8
DIM
 62
     0
370
    -2
100
AcDbLine
 10
501.3830447138743
 20
397.4653627585717
 30
0.0
 11
465.2338935923693
 21
397.4653627585717
 31
0.0
  0
LINE
  5
F63
330
F5E
100
AcDbEntity
  8
DIM
 62
     0
370
    -2
100
AcDbLine
 10
465.2338935923693
 20
522.4653627585708
 30
0.0
 11
465.2338935923693
 21
399.4653627585717
 31
0.0
  0
INSERT
  5
F64
330
F5E
100
AcDbEntity
  8
DIM
 62
     0
370
    -2
100
AcDbBlockReference
  2
_DOT
 10
465.2338935923693
 20
524.4653627585708
 30
0.0
 41
2.0
 42
2.0
 43
2.0
 50
90.0
  0
INSERT
  5
F65
330
F5E
100
AcDbEntity
  8
DIM
 62
     0
370
    -2
100
AcDbBlockReference
  2
_DOT
 10
465.2338935923693
 20
397.4653627585717
 30
0.0
 41
2.0
 42
2.0
 43
2.0
 50
270.0
  0
MTEXT
  5
F66
330
F5E
100
AcDbEntity
  8
DIM
 62
     0
100
AcDbMText
 10
449.2338935923693
 20
460.9653627585712
 30
0.0
 40
12.0
 41
0.0
 46
0.0
 71
     5
 72
     1
  1
\A1;127
  7
ＭＳ ゴシック
 11
0.0
 21
1.0
 31
0.0
 73
     1
 44
1.0
  0
POINT
  5
F67
330
F5E
100
AcDbEntity
  8
Defpoints
 62
     0
100
AcDbPoint
 10
506.3830447138743
 20
524.4653627585708
 30
0.0
  0
POINT
  5
F68
330
F5E
100
AcDbEntity
  8
Defpoints
 62
     0
100
AcDbPoint
 10
506.3830447138743
 20
397.4653627585717
 30
0.0
  0
POINT
  5
F69
330
F5E
100
AcDbEntity
  8
Defpoints
 62
     0
100
AcDbPoint
 10
465.2338935923693
 20
397.4653627585717
 30
0.0
  0
ENDBLK
  5
F60
330
F5E
100
AcDbEntity
  8
0
100
AcDbBlockEnd
  0
BLOCK
  5
F6C
330
F6B
100
AcDbEntity
  8
0
100
AcDbBlockBegin
  2
*D10
 70
     1
 10
0.0
 20
0.0
 30
0.0
  3
*D10
  1
*D12
  0
LINE
  5
F6E
330
F6B
100
AcDbEntity
  8
DIM
 62
     0
370
    -2
100
AcDbLine
 10
248.6142480161104
 20
566.8876984016606
 30
0.0
 11
219.8521470579397
 21
566.8876984016606
 31
0.0
  0
LINE
  5
F6F
330
F6B
100
AcDbEntity
  8
DIM
 62
     0
370
    -2
100
AcDbLine
 10
248.6142480161104
 20
444.8876984016606
 30
0.0
 11
219.8521470579397
 21
444.8876984016606
 31
0.0
  0
LINE
  5
F70
330
F6B
100
AcDbEntity
  8
DIM
 62
     0
370
    -2
100
AcDbLine
 10
219.8521470579397
 20
564.8876984016606
 30
0.0
 11
219.8521470579397
 21
446.8876984016606
 31
0.0
  0
INSERT
  5
F71
330
F6B
100
AcDbEntity
  8
DIM
 62
     0
370
    -2
100
AcDbBlockReference
  2
_DOT
 10
219.8521470579397
 20
566.8876984016606
 30
0.0
 41
2.0
 42
2.0
 43
2.0
 50
90.0
  0
INSERT
  5
F72
330
F6B
100
AcDbEntity
  8
DIM
 62
     0
370
    -2
100
AcDbBlockReference
  2
_DOT
 10
219.8521470579397
 20
444.8876984016606
 30
0.0
 41
2.0
 42
2.0
 43
2.0
 50
270.0
  0
MTEXT
  5
F73
330
F6B
100
AcDbEntity
  8
DIM
 62
     0
100
AcDbMText
 10
205.8521470579397
 20
505.8876984016606
 30
0.0
 40
12.0
 41
0.0
 46
0.0
 71
     5
 72
     1
  1
\A1;122
  7
ＭＳ ゴシック
 11
0.0
 21
1.0
 31
0.0
 73
     1
 44
1.0
  0
POINT
  5
F74
330
F6B
100
AcDbEntity
  8
Defpoints
 62
     0
100
AcDbPoint
 10
263.6142480161104
 20
566.8876984016606
 30
0.0
  0
POINT
  5
F75
330
F6B
100
AcDbEntity
  8
Defpoints
 62
     0
100
AcDbPoint
 10
263.6142480161104
 20
444.8876984016606
 30
0.0
  0
POINT
  5
F76
330
F6B
100
AcDbEntity
  8
Defpoints
 62
     0
100
AcDbPoint
 10
219.8521470579397
 20
444.8876984016606
 30
0.0
  0
ENDBLK
  5
F6D
330
F6B
100
AcDbEntity
  8
0
100
AcDbBlockEnd
  0
BLOCK
  5
FAA
330
FA9
100
AcDbEntity
  8
0
100
AcDbBlockBegin
  2
*D11
 70
     1
 10
0.0
 20
0.0
 30
0.0
  3
*D11
  1
*D14
  0
LINE
  5
FAB
330
FA9
100
AcDbEntity
  8
DIM
 62
     0
370
    -2
100
AcDbLine
 10
1.0
 20
15.0
 30
0.0
 11
1.0
 21
31.95790445834882
 31
0.0
  0
LINE
  5
FAC
330
FA9
100
AcDbEntity
  8
DIM
 62
     0
370
    -2
100
AcDbLine
 10
50.99999999999966
 20
15.0
 30
0.0
 11
50.99999999999966
 21
31.95790445834882
 31
0.0
  0
LINE
  5
FAD
330
FA9
100
AcDbEntity
  8
DIM
 62
     0
370
    -2
100
AcDbLine
 10
3.0
 20
31.95790445834882
 30
0.0
 11
48.99999999999966
 21
31.95790445834882
 31
0.0
  0
INSERT
  5
FAE
330
FA9
100
AcDbEntity
  8
DIM
 62
     0
370
    -2
100
AcDbBlockReference
  2
_DOT
 10
1.0
 20
31.95790445834882
 30
0.0
 41
2.0
 42
2.0
 43
2.0
 50
180.0
  0
INSERT
  5
FAF
330
FA9
100
AcDbEntity
  8
DIM
 62
     0
370
    -2
100
AcDbBlockReference
  2
_DOT
 10
50.99999999999966
 20
31.95790445834882
 30
0.0
 41
2.0
 42
2.0
 43
2.0
  0
MTEXT
  5
FB0
330
FA9
100
AcDbEntity
  8
DIM
 62
     0
100
AcDbMText
 10
25.99999999999983
 20
46.01790445834882
 30
0.0
 40
12.0
 41
0.0
 46
0.0
 71
     5
 72
     1
  1
\A1;ø50
  7
ＭＳ ゴシック
 73
     1
 44
1.0
  0
POINT
  5
FB1
330
FA9
100
AcDbEntity
  8
Defpoints
 62
     0
100
AcDbPoint
 10
1.0
 20
0.0
 30
0.0
  0
POINT
  5
FB2
330
FA9
100
AcDbEntity
  8
Defpoints
 62
     0
100
AcDbPoint
 10
50.99999999999966
 20
0.0
 30
0.0
  0
POINT
  5
FB3
330
FA9
100
AcDbEntity
  8
Defpoints
 62
     0
100
AcDbPoint
 10
50.99999999999966
 20
31.95790445834882
 30
0.0
  0
ENDBLK
  5
FB4
330
FA9
100
AcDbEntity
  8
0
100
AcDbBlockEnd
  0
BLOCK
  5
FBB
330
FBA
100
AcDbEntity
  8
0
100
AcDbBlockBegin
  2
*D12
 70
     1
 10
0.0
 20
0.0
 30
0.0
  3
*D12
  1
*D15
  0
LINE
  5
FBD
330
FBA
100
AcDbEntity
  8
DIM
 62
     0
370
    -2
100
AcDbLine
 10
556.3830447138743
 20
397.4653627585708
 30
0.0
 11
556.3830447138743
 21
364.1422167418021
 31
0.0
  0
LINE
  5
FBE
330
FBA
100
AcDbEntity
  8
DIM
 62
     0
370
    -2
100
AcDbLine
 10
506.3830447138747
 20
397.4653627585708
 30
0.0
 11
506.3830447138747
 21
364.1422167418021
 31
0.0
  0
LINE
  5
FBF
330
FBA
100
AcDbEntity
  8
DIM
 62
     0
370
    -2
100
AcDbLine
 10
554.3830447138743
 20
364.1422167418021
 30
0.0
 11
508.3830447138747
 21
364.1422167418021
 31
0.0
  0
INSERT
  5
FC0
330
FBA
100
AcDbEntity
  8
DIM
 62
     0
370
    -2
100
AcDbBlockReference
  2
_DOT
 10
556.3830447138743
 20
364.1422167418021
 30
0.0
 41
2.0
 42
2.0
 43
2.0
  0
INSERT
  5
FC1
330
FBA
100
AcDbEntity
  8
DIM
 62
     0
370
    -2
100
AcDbBlockReference
  2
_DOT
 10
506.3830447138747
 20
364.1422167418021
 30
0.0
 41
2.0
 42
2.0
 43
2.0
 50
180.0
  0
MTEXT
  5
FC2
330
FBA
100
AcDbEntity
  8
DIM
 62
     0
100
AcDbMText
 10
531.3830447138745
 20
380.2022167418021
 30
0.0
 40
12.0
 41
0.0
 46
0.0
 71
     5
 72
     1
  1
\A1;ø50
  7
ＭＳ ゴシック
 73
     1
 44
1.0
  0
POINT
  5
FC3
330
FBA
100
AcDbEntity
  8
Defpoints
 62
     0
100
AcDbPoint
 10
556.3830447138743
 20
402.4653627585708
 30
0.0
  0
POINT
  5
FC4
330
FBA
100
AcDbEntity
  8
Defpoints
 62
     0
100
AcDbPoint
 10
506.3830447138747
 20
402.4653627585708
 30
0.0
  0
POINT
  5
FC5
330
FBA
100
AcDbEntity
  8
Defpoints
 62
     0
100
AcDbPoint
 10
506.3830447138747
 20
364.1422167418021
 30
0.0
  0
ENDBLK
  5
FBC
330
FBA
100
AcDbEntity
  8
0
100
AcDbBlockEnd
  0
BLOCK
  5
FDA
330
FD9
100
AcDbEntity
  8
0
100
AcDbBlockBegin
  2
*D13
 70
     1
 10
0.0
 20
0.0
 30
0.0
  3
*D13
  1
*D16
  0
LINE
  5
FDC
330
FD9
100
AcDbEntity
  8
DIM
 62
     0
370
    -2
100
AcDbLine
 10
491.3830447138743
 20
724.8876984016615
 30
0.0
 11
433.8974312594569
 21
724.8876984016615
 31
0.0
  0
LINE
  5
FDD
330
FD9
100
AcDbEntity
  8
DIM
 62
     0
370
    -2
100
AcDbLine
 10
491.3830447138743
 20
524.8876984016615
 30
0.0
 11
433.8974312594569
 21
524.8876984016615
 31
0.0
  0
LINE
  5
FDE
330
FD9
100
AcDbEntity
  8
DIM
 62
     0
370
    -2
100
AcDbLine
 10
433.8974312594569
 20
722.8876984016615
 30
0.0
 11
433.8974312594569
 21
526.8876984016615
 31
0.0
  0
INSERT
  5
FDF
330
FD9
100
AcDbEntity
  8
DIM
 62
     0
370
    -2
100
AcDbBlockReference
  2
_DOT
 10
433.8974312594569
 20
724.8876984016615
 30
0.0
 41
2.0
 42
2.0
 43
2.0
 50
90.0
  0
INSERT
  5
FE0
330
FD9
100
AcDbEntity
  8
DIM
 62
     0
370
    -2
100
AcDbBlockReference
  2
_DOT
 10
433.8974312594569
 20
524.8876984016615
 30
0.0
 41
2.0
 42
2.0
 43
2.0
 50
270.0
  0
MTEXT
  5
FE1
330
FD9
100
AcDbEntity
  8
DIM
 62
     0
100
AcDbMText
 10
419.8974312594569
 20
624.8876984016615
 30
0.0
 40
12.0
 41
0.0
 46
0.0
 71
     5
 72
     1
  1
\A1;55～230
  7
ＭＳ ゴシック
 11
0.0
 21
1.0
 31
0.0
 73
     1
 44
1.0
  0
POINT
  5
FE2
330
FD9
100
AcDbEntity
  8
Defpoints
 62
     0
100
AcDbPoint
 10
506.3830447138743
 20
724.8876984016615
 30
0.0
  0
POINT
  5
FE3
330
FD9
100
AcDbEntity
  8
Defpoints
 62
     0
100
AcDbPoint
 10
506.3830447138743
 20
524.8876984016615
 30
0.0
  0
POINT
  5
FE4
330
FD9
100
AcDbEntity
  8
Defpoints
 62
     0
100
AcDbPoint
 10
433.8974312594569
 20
524.8876984016615
 30
0.0
  0
ENDBLK
  5
FDB
330
FD9
100
AcDbEntity
  8
0
100
AcDbBlockEnd
  0
BLOCK
  5
1004
330
1003
100
AcDbEntity
  8
0
100
AcDbBlockBegin
  2
*D14
 70
     1
 10
0.0
 20
0.0
 30
0.0
  3
*D14
  1
*D17
  0
LINE
  5
1006
330
1003
100
AcDbEntity
  8
DIM
 62
     0
370
    -2
100
AcDbLine
 10
317.1357765155843
 20
429.8876984016606
 30
0.0
 11
317.1357765155843
 21
391.9129500904137
 31
0.0
  0
LINE
  5
1007
330
1003
100
AcDbEntity
  8
DIM
 62
     0
370
    -2
100
AcDbLine
 10
267.1357765155848
 20
429.8876984016606
 30
0.0
 11
267.1357765155848
 21
391.9129500904137
 31
0.0
  0
LINE
  5
1008
330
1003
100
AcDbEntity
  8
DIM
 62
     0
370
    -2
100
AcDbLine
 10
315.1357765155843
 20
391.9129500904137
 30
0.0
 11
269.1357765155848
 21
391.9129500904137
 31
0.0
  0
INSERT
  5
1009
330
1003
100
AcDbEntity
  8
DIM
 62
     0
370
    -2
100
AcDbBlockReference
  2
_DOT
 10
317.1357765155843
 20
391.9129500904137
 30
0.0
 41
2.0
 42
2.0
 43
2.0
  0
INSERT
  5
100A
330
1003
100
AcDbEntity
  8
DIM
 62
     0
370
    -2
100
AcDbBlockReference
  2
_DOT
 10
267.1357765155848
 20
391.9129500904137
 30
0.0
 41
2.0
 42
2.0
 43
2.0
 50
180.0
  0
MTEXT
  5
100B
330
1003
100
AcDbEntity
  8
DIM
 62
     0
100
AcDbMText
 10
292.1357765155846
 20
405.9729500904137
 30
0.0
 40
12.0
 41
0.0
 46
0.0
 71
     5
 72
     1
  1
\A1;ø50
  7
ＭＳ ゴシック
 73
     1
 44
1.0
  0
POINT
  5
100C
330
1003
100
AcDbEntity
  8
Defpoints
 62
     0
100
AcDbPoint
 10
317.1357765155843
 20
444.8876984016606
 30
0.0
  0
POINT
  5
100D
330
1003
100
AcDbEntity
  8
Defpoints
 62
     0
100
AcDbPoint
 10
267.1357765155848
 20
444.8876984016606
 30
0.0
  0
POINT
  5
100E
330
1003
100
AcDbEntity
  8
Defpoints
 62
     0
100
AcDbPoint
 10
267.1357765155848
 20
391.9129500904137
 30
0.0
  0
ENDBLK
  5
1005
330
1003
100
AcDbEntity
  8
0
100
AcDbBlockEnd
  0
BLOCK
  5
1013
330
1012
100
AcDbEntity
  8
0
100
AcDbBlockBegin
  2
*D15
 70
     1
 10
0.0
 20
0.0
 30
0.0
  3
*D15
  1
*D18
  0
LINE
  5
1015
330
1012
100
AcDbEntity
  8
DIM
 62
     0
370
    -2
100
AcDbLine
 10
536.3830447138743
 20
402.4653627585708
 30
0.0
 11
824.5435131013928
 21
402.4653627585708
 31
0.0
  0
LINE
  5
1016
330
1012
100
AcDbEntity
  8
DIM
 62
     0
370
    -2
100
AcDbLine
 10
821.3830447138724
 20
447.4653627585717
 30
0.0
 11
824.5435131013928
 21
447.4653627585717
 31
0.0
  0
LINE
  5
1017
330
1012
100
AcDbEntity
  8
DIM
 62
     0
370
    -2
100
AcDbLine
 10
824.5435131013928
 20
404.4653627585708
 30
0.0
 11
824.5435131013928
 21
445.4653627585717
 31
0.0
  0
INSERT
  5
1018
330
1012
100
AcDbEntity
  8
DIM
 62
     0
370
    -2
100
AcDbBlockReference
  2
_DOT
 10
824.5435131013928
 20
402.4653627585708
 30
0.0
 41
2.0
 42
2.0
 43
2.0
 50
270.0
  0
INSERT
  5
1019
330
1012
100
AcDbEntity
  8
DIM
 62
     0
370
    -2
100
AcDbBlockReference
  2
_DOT
 10
824.5435131013928
 20
447.4653627585717
 30
0.0
 41
2.0
 42
2.0
 43
2.0
 50
90.0
  0
MTEXT
  5
101A
330
1012
100
AcDbEntity
  8
DIM
 62
     0
100
AcDbMText
 10
808.5435131013928
 20
424.9653627585712
 30
0.0
 40
12.0
 41
0.0
 46
0.0
 71
     5
 72
     1
  1
\A1;45
  7
ＭＳ ゴシック
 11
0.0
 21
1.0
 31
0.0
 73
     1
 44
1.0
  0
POINT
  5
101B
330
1012
100
AcDbEntity
  8
Defpoints
 62
     0
100
AcDbPoint
 10
531.3830447138743
 20
402.4653627585708
 30
0.0
  0
POINT
  5
101C
330
1012
100
AcDbEntity
  8
Defpoints
 62
     0
100
AcDbPoint
 10
816.3830447138724
 20
447.4653627585717
 30
0.0
  0
POINT
  5
101D
330
1012
100
AcDbEntity
  8
Defpoints
 62
     0
100
AcDbPoint
 10
824.5435131013928
 20
447.4653627585717
 30
0.0
  0
ENDBLK
  5
1014
330
1012
100
AcDbEntity
  8
0
100
AcDbBlockEnd
  0
BLOCK
  5
1022
330
1021
100
AcDbEntity
  8
0
100
AcDbBlockBegin
  2
*D16
 70
     1
 10
0.0
 20
0.0
 30
0.0
  3
*D16
  1
*D19
  0
LINE
  5
1024
330
1021
100
AcDbEntity
  8
DIM
 62
     0
370
    -2
100
AcDbLine
 10
531.3830447138743
 20
429.8876984016606
 30
0.0
 11
531.3830447138743
 21
352.2952399013599
 31
0.0
  0
LINE
  5
1025
330
1021
100
AcDbEntity
  8
DIM
 62
     0
370
    -2
100
AcDbLine
 10
856.3830447138724
 20
493.8876984016615
 30
0.0
 11
856.3830447138724
 21
352.2952399013599
 31
0.0
  0
LINE
  5
1026
330
1021
100
AcDbEntity
  8
DIM
 62
     0
370
    -2
100
AcDbLine
 10
533.3830447138743
 20
352.2952399013599
 30
0.0
 11
854.3830447138724
 21
352.2952399013599
 31
0.0
  0
INSERT
  5
1027
330
1021
100
AcDbEntity
  8
DIM
 62
     0
370
    -2
100
AcDbBlockReference
  2
_DOT
 10
531.3830447138743
 20
352.2952399013599
 30
0.0
 41
2.0
 42
2.0
 43
2.0
 50
180.0
  0
INSERT
  5
1028
330
1021
100
AcDbEntity
  8
DIM
 62
     0
370
    -2
100
AcDbBlockReference
  2
_DOT
 10
856.3830447138724
 20
352.2952399013599
 30
0.0
 41
2.0
 42
2.0
 43
2.0
  0
MTEXT
  5
1029
330
1021
100
AcDbEntity
  8
DIM
 62
     0
100
AcDbMText
 10
693.8830447138733
 20
366.2952399013599
 30
0.0
 40
12.0
 41
0.0
 46
0.0
 71
     5
 72
     1
  1
\A1;115～325
  7
ＭＳ ゴシック
 73
     1
 44
1.0
  0
POINT
  5
102A
330
1021
100
AcDbEntity
  8
Defpoints
 62
     0
100
AcDbPoint
 10
531.3830447138743
 20
444.8876984016606
 30
0.0
  0
POINT
  5
102B
330
1021
100
AcDbEntity
  8
Defpoints
 62
     0
100
AcDbPoint
 10
856.3830447138724
 20
508.8876984016615
 30
0.0
  0
POINT
  5
102C
330
1021
100
AcDbEntity
  8
Defpoints
 62
     0
100
AcDbPoint
 10
856.3830447138724
 20
352.2952399013599
 30
0.0
  0
ENDBLK
  5
1023
330
1021
100
AcDbEntity
  8
0
100
AcDbBlockEnd
  0
BLOCK
  5
105C
330
105B
100
AcDbEntity
  8
0
100
AcDbBlockBegin
  2
*D17
 70
     1
 10
0.0
 20
0.0
 30
0.0
  3
*D17
  1
*D20
  0
LINE
  5
105E
330
105B
100
AcDbEntity
  8
DIM
 62
     0
370
    -2
100
AcDbLine
 10
816.3830447138724
 20
427.4653627585717
 30
0.0
 11
816.3830447138724
 21
380.0727065230848
 31
0.0
  0
LINE
  5
105F
330
105B
100
AcDbEntity
  8
DIM
 62
     0
370
    -2
100
AcDbLine
 10
531.3830447138743
 20
382.4653627585708
 30
0.0
 11
531.3830447138743
 21
380.0727065230848
 31
0.0
  0
LINE
  5
1060
330
105B
100
AcDbEntity
  8
DIM
 62
     0
370
    -2
100
AcDbLine
 10
814.3830447138724
 20
380.0727065230848
 30
0.0
 11
533.3830447138743
 21
380.0727065230848
 31
0.0
  0
INSERT
  5
1061
330
105B
100
AcDbEntity
  8
DIM
 62
     0
370
    -2
100
AcDbBlockReference
  2
_DOT
 10
816.3830447138724
 20
380.0727065230848
 30
0.0
 41
2.0
 42
2.0
 43
2.0
  0
INSERT
  5
1062
330
105B
100
AcDbEntity
  8
DIM
 62
     0
370
    -2
100
AcDbBlockReference
  2
_DOT
 10
531.3830447138743
 20
380.0727065230848
 30
0.0
 41
2.0
 42
2.0
 43
2.0
 50
180.0
  0
MTEXT
  5
1063
330
105B
100
AcDbEntity
  8
DIM
 62
     0
100
AcDbMText
 10
673.8830447138733
 20
396.0727065230848
 30
0.0
 40
12.0
 41
0.0
 46
0.0
 71
     5
 72
     1
  1
\A1;285
  7
ＭＳ ゴシック
 73
     1
 44
1.0
  0
POINT
  5
1064
330
105B
100
AcDbEntity
  8
Defpoints
 62
     0
100
AcDbPoint
 10
816.3830447138724
 20
447.4653627585717
 30
0.0
  0
POINT
  5
1065
330
105B
100
AcDbEntity
  8
Defpoints
 62
     0
100
AcDbPoint
 10
531.3830447138743
 20
402.4653627585708
 30
0.0
  0
POINT
  5
1066
330
105B
100
AcDbEntity
  8
Defpoints
 62
     0
100
AcDbPoint
 10
531.3830447138743
 20
380.0727065230848
 30
0.0
  0
ENDBLK
  5
105D
330
105B
100
AcDbEntity
  8
0
100
AcDbBlockEnd
  0
BLOCK
  5
1087
330
1086
100
AcDbEntity
  8
0
100
AcDbBlockBegin
  2
*D18
 70
     1
 10
0.0
 20
0.0
 30
0.0
  3
*D18
  1
*D21
  0
LINE
  5
1089
330
1086
100
AcDbEntity
  8
DIM
 62
     0
370
    -2
100
AcDbLine
 10
531.3830447138743
 20
429.8876984016606
 30
0.0
 11
531.3830447138743
 21
404.4238059395886
 31
0.0
  0
LINE
  5
108A
330
1086
100
AcDbEntity
  8
DIM
 62
     0
370
    -2
100
AcDbLine
 10
592.3830447138888
 20
487.3876984016615
 30
0.0
 11
592.3830447138888
 21
404.4238059395886
 31
0.0
  0
LINE
  5
108B
330
1086
100
AcDbEntity
  8
DIM
 62
     0
370
    -2
100
AcDbLine
 10
533.3830447138743
 20
404.4238059395886
 30
0.0
 11
590.3830447138888
 21
404.4238059395886
 31
0.0
  0
INSERT
  5
108C
330
1086
100
AcDbEntity
  8
DIM
 62
     0
370
    -2
100
AcDbBlockReference
  2
_DOT
 10
531.3830447138743
 20
404.4238059395886
 30
0.0
 41
2.0
 42
2.0
 43
2.0
 50
180.0
  0
INSERT
  5
108D
330
1086
100
AcDbEntity
  8
DIM
 62
     0
370
    -2
100
AcDbBlockReference
  2
_DOT
 10
592.3830447138888
 20
404.4238059395886
 30
0.0
 41
2.0
 42
2.0
 43
2.0
  0
MTEXT
  5
108E
330
1086
100
AcDbEntity
  8
DIM
 62
     0
100
AcDbMText
 10
561.8830447138815
 20
418.4238059395886
 30
0.0
 40
12.0
 41
0.0
 46
0.0
 71
     5
 72
     1
  1
\A1;61
  7
ＭＳ ゴシック
 73
     1
 44
1.0
  0
POINT
  5
108F
330
1086
100
AcDbEntity
  8
Defpoints
 62
     0
100
AcDbPoint
 10
531.3830447138743
 20
444.8876984016606
 30
0.0
  0
POINT
  5
1090
330
1086
100
AcDbEntity
  8
Defpoints
 62
     0
100
AcDbPoint
 10
592.3830447138888
 20
502.3876984016615
 30
0.0
  0
POINT
  5
1091
330
1086
100
AcDbEntity
  8
Defpoints
 62
     0
100
AcDbPoint
 10
592.3830447138888
 20
404.4238059395886
 30
0.0
  0
ENDBLK
  5
1088
330
1086
100
AcDbEntity
  8
0
100
AcDbBlockEnd
  0
BLOCK
  5
109E
330
109D
100
AcDbEntity
  8
0
100
AcDbBlockBegin
  2
*D19
 70
     1
 10
0.0
 20
0.0
 30
0.0
  3
*D19
  1
*D22
  0
LINE
  5
10A0
330
109D
100
AcDbEntity
  8
DIM
 62
     0
370
    -2
100
AcDbLine
 10
866.1354220726915
 20
559.8876984016624
 30
0.0
 11
903.7855231042726
 21
559.8876984016624
 31
0.0
  0
LINE
  5
10A1
330
109D
100
AcDbEntity
  8
DIM
 62
     0
370
    -2
100
AcDbLine
 10
866.1354220726915
 20
489.8876984016615
 30
0.0
 11
903.7855231042726
 21
489.8876984016615
 31
0.0
  0
LINE
  5
10A2
330
109D
100
AcDbEntity
  8
DIM
 62
     0
370
    -2
100
AcDbLine
 10
903.7855231042726
 20
557.8876984016624
 30
0.0
 11
903.7855231042726
 21
491.8876984016615
 31
0.0
  0
INSERT
  5
10A3
330
109D
100
AcDbEntity
  8
DIM
 62
     0
370
    -2
100
AcDbBlockReference
  2
_DOT
 10
903.7855231042726
 20
559.8876984016624
 30
0.0
 41
2.0
 42
2.0
 43
2.0
 50
90.0
  0
INSERT
  5
10A4
330
109D
100
AcDbEntity
  8
DIM
 62
     0
370
    -2
100
AcDbBlockReference
  2
_DOT
 10
903.7855231042726
 20
489.8876984016615
 30
0.0
 41
2.0
 42
2.0
 43
2.0
 50
270.0
  0
MTEXT
  5
10A5
330
109D
100
AcDbEntity
  8
DIM
 62
     0
100
AcDbMText
 10
889.7855231042726
 20
524.887698401662
 30
0.0
 40
12.0
 41
0.0
 46
0.0
 71
     5
 72
     1
  1
\A1;70
  7
ＭＳ ゴシック
 11
0.0
 21
1.0
 31
0.0
 73
     1
 44
1.0
  0
POINT
  5
10A6
330
109D
100
AcDbEntity
  8
Defpoints
 62
     0
100
AcDbPoint
 10
851.1354220726915
 20
559.8876984016624
 30
0.0
  0
POINT
  5
10A7
330
109D
100
AcDbEntity
  8
Defpoints
 62
     0
100
AcDbPoint
 10
851.1354220726915
 20
489.8876984016615
 30
0.0
  0
POINT
  5
10A8
330
109D
100
AcDbEntity
  8
Defpoints
 62
     0
100
AcDbPoint
 10
903.7855231042726
 20
489.8876984016615
 30
0.0
  0
ENDBLK
  5
109F
330
109D
100
AcDbEntity
  8
0
100
AcDbBlockEnd
  0
BLOCK
  5
10B1
330
10B0
100
AcDbEntity
  8
0
100
AcDbBlockBegin
  2
*D20
 70
     1
 10
0.0
 20
0.0
 30
0.0
  3
*D20
  1
*D23
  0
LINE
  5
10B3
330
10B0
100
AcDbEntity
  8
DIM
 62
     0
370
    -2
100
AcDbLine
 10
871.3830447138724
 20
466.4653627585717
 30
0.0
 11
913.5095991399699
 21
466.4653627585717
 31
0.0
  0
LINE
  5
10B4
330
10B0
100
AcDbEntity
  8
DIM
 62
     0
370
    -2
100
AcDbLine
 10
871.3830447138724
 20
498.4653627585717
 30
0.0
 11
913.5095991399699
 21
498.4653627585717
 31
0.0
  0
LINE
  5
10B5
330
10B0
100
AcDbEntity
  8
DIM
 62
     0
370
    -2
100
AcDbLine
 10
913.5095991399699
 20
468.4653627585717
 30
0.0
 11
913.5095991399699
 21
496.4653627585717
 31
0.0
  0
INSERT
  5
10B6
330
10B0
100
AcDbEntity
  8
DIM
 62
     0
370
    -2
100
AcDbBlockReference
  2
_DOT
 10
913.5095991399699
 20
466.4653627585717
 30
0.0
 41
2.0
 42
2.0
 43
2.0
 50
270.0
  0
INSERT
  5
10B7
330
10B0
100
AcDbEntity
  8
DIM
 62
     0
370
    -2
100
AcDbBlockReference
  2
_DOT
 10
913.5095991399699
 20
498.4653627585717
 30
0.0
 41
2.0
 42
2.0
 43
2.0
 50
90.0
  0
MTEXT
  5
10B8
330
10B0
100
AcDbEntity
  8
DIM
 62
     0
100
AcDbMText
 10
899.4495991399699
 20
482.4653627585717
 30
0.0
 40
12.0
 41
0.0
 46
0.0
 71
     5
 72
     1
  1
\A1;ø32
  7
ＭＳ ゴシック
 11
0.0
 21
1.0
 31
0.0
 73
     1
 44
1.0
  0
POINT
  5
10B9
330
10B0
100
AcDbEntity
  8
Defpoints
 62
     0
100
AcDbPoint
 10
856.3830447138724
 20
466.4653627585717
 30
0.0
  0
POINT
  5
10BA
330
10B0
100
AcDbEntity
  8
Defpoints
 62
     0
100
AcDbPoint
 10
856.3830447138724
 20
498.4653627585717
 30
0.0
  0
POINT
  5
10BB
330
10B0
100
AcDbEntity
  8
Defpoints
 62
     0
100
AcDbPoint
 10
913.5095991399699
 20
498.4653627585717
 30
0.0
  0
ENDBLK
  5
10B2
330
10B0
100
AcDbEntity
  8
0
100
AcDbBlockEnd
  0
BLOCK
  5
110B
330
110A
100
AcDbEntity
  8
0
100
AcDbBlockBegin
  2
*D21
 70
     1
 10
0.0
 20
0.0
 30
0.0
  3
*D21
  1
*D24
  0
LINE
  5
110D
330
110A
100
AcDbEntity
  8
DIM
 62
     0
370
    -2
100
AcDbLine
 10
491.3830447138743
 20
566.8876984016606
 30
0.0
 11
468.9329876701369
 21
566.8876984016606
 31
0.0
  0
LINE
  5
110E
330
110A
100
AcDbEntity
  8
DIM
 62
     0
370
    -2
100
AcDbLine
 10
491.3830447138743
 20
524.8876984016615
 30
0.0
 11
468.9329876701369
 21
524.8876984016615
 31
0.0
  0
LINE
  5
110F
330
110A
100
AcDbEntity
  8
DIM
 62
     0
370
    -2
100
AcDbLine
 10
468.9329876701369
 20
564.8876984016606
 30
0.0
 11
468.9329876701369
 21
526.8876984016615
 31
0.0
  0
INSERT
  5
1110
330
110A
100
AcDbEntity
  8
DIM
 62
     0
370
    -2
100
AcDbBlockReference
  2
_DOT
 10
468.9329876701369
 20
566.8876984016606
 30
0.0
 41
2.0
 42
2.0
 43
2.0
 50
90.0
  0
INSERT
  5
1111
330
110A
100
AcDbEntity
  8
DIM
 62
     0
370
    -2
100
AcDbBlockReference
  2
_DOT
 10
468.9329876701369
 20
524.8876984016615
 30
0.0
 41
2.0
 42
2.0
 43
2.0
 50
270.0
  0
MTEXT
  5
1112
330
110A
100
AcDbEntity
  8
DIM
 62
     0
100
AcDbMText
 10
454.9329876701369
 20
545.887698401661
 30
0.0
 40
12.0
 41
0.0
 46
0.0
 71
     5
 72
     1
  1
\A1;42
  7
ＭＳ ゴシック
 11
0.0
 21
1.0
 31
0.0
 73
     1
 44
1.0
  0
POINT
  5
1113
330
110A
100
AcDbEntity
  8
Defpoints
 62
     0
100
AcDbPoint
 10
506.3830447138743
 20
566.8876984016606
 30
0.0
  0
POINT
  5
1114
330
110A
100
AcDbEntity
  8
Defpoints
 62
     0
100
AcDbPoint
 10
506.3830447138743
 20
524.8876984016615
 30
0.0
  0
POINT
  5
1115
330
110A
100
AcDbEntity
  8
Defpoints
 62
     0
100
AcDbPoint
 10
468.9329876701369
 20
524.8876984016615
 30
0.0
  0
ENDBLK
  5
110C
330
110A
100
AcDbEntity
  8
0
100
AcDbBlockEnd
  0
BLOCK
  5
112A
330
1129
100
AcDbEntity
  8
0
100
AcDbBlockBegin
  2
*D22
 70
     1
 10
0.0
 20
0.0
 30
0.0
  3
*D22
  1
*D25
  0
LINE
  5
112C
330
1129
100
AcDbEntity
  8
DIM
 62
     0
370
    -2
100
AcDbLine
 10
491.3830447138743
 20
444.8876984016606
 30
0.0
 11
468.9329876701369
 21
444.8876984016606
 31
0.0
  0
LINE
  5
112D
330
1129
100
AcDbEntity
  8
DIM
 62
     0
370
    -2
100
AcDbLine
 10
491.3830447138743
 20
524.8876984016615
 30
0.0
 11
468.9329876701369
 21
524.8876984016615
 31
0.0
  0
LINE
  5
112E
330
1129
100
AcDbEntity
  8
DIM
 62
     0
370
    -2
100
AcDbLine
 10
468.9329876701369
 20
446.8876984016606
 30
0.0
 11
468.9329876701369
 21
522.8876984016615
 31
0.0
  0
INSERT
  5
112F
330
1129
100
AcDbEntity
  8
DIM
 62
     0
370
    -2
100
AcDbBlockReference
  2
_DOT
 10
468.9329876701369
 20
444.8876984016606
 30
0.0
 41
2.0
 42
2.0
 43
2.0
 50
270.0
  0
INSERT
  5
1130
330
1129
100
AcDbEntity
  8
DIM
 62
     0
370
    -2
100
AcDbBlockReference
  2
_DOT
 10
468.9329876701369
 20
524.8876984016615
 30
0.0
 41
2.0
 42
2.0
 43
2.0
 50
90.0
  0
MTEXT
  5
1131
330
1129
100
AcDbEntity
  8
DIM
 62
     0
100
AcDbMText
 10
454.9329876701369
 20
484.8876984016611
 30
0.0
 40
12.0
 41
0.0
 46
0.0
 71
     5
 72
     1
  1
\A1;80
  7
ＭＳ ゴシック
 11
0.0
 21
1.0
 31
0.0
 73
     1
 44
1.0
  0
POINT
  5
1132
330
1129
100
AcDbEntity
  8
Defpoints
 62
     0
100
AcDbPoint
 10
506.3830447138743
 20
444.8876984016606
 30
0.0
  0
POINT
  5
1133
330
1129
100
AcDbEntity
  8
Defpoints
 62
     0
100
AcDbPoint
 10
506.3830447138743
 20
524.8876984016615
 30
0.0
  0
POINT
  5
1134
330
1129
100
AcDbEntity
  8
Defpoints
 62
     0
100
AcDbPoint
 10
468.9329876701369
 20
524.8876984016615
 30
0.0
  0
ENDBLK
  5
112B
330
1129
100
AcDbEntity
  8
0
100
AcDbBlockEnd
  0
BLOCK
  5
1165
330
1164
100
AcDbEntity
  8
0
100
AcDbBlockBegin
  2
*D23
 70
     1
 10
0.0
 20
0.0
 30
0.0
  3
*D23
  1
*D26
  0
LINE
  5
1167
330
1164
100
AcDbEntity
  8
DIM
 62
     0
370
    -2
100
AcDbLine
 10
816.3830447138724
 20
574.8876984016624
 30
0.0
 11
816.3830447138724
 21
591.6821608066834
 31
0.0
  0
LINE
  5
1168
330
1164
100
AcDbEntity
  8
DIM
 62
     0
370
    -2
100
AcDbLine
 10
806.3830447138724
 20
574.8876984016624
 30
0.0
 11
806.3830447138724
 21
591.6821608066834
 31
0.0
  0
LINE
  5
1169
330
1164
100
AcDbEntity
  8
DIM
 62
     0
370
    -2
100
AcDbLine
 10
814.3830447138724
 20
591.6821608066834
 30
0.0
 11
808.3830447138724
 21
591.6821608066834
 31
0.0
  0
INSERT
  5
116A
330
1164
100
AcDbEntity
  8
DIM
 62
     0
370
    -2
100
AcDbBlockReference
  2
_DOT
 10
816.3830447138724
 20
591.6821608066834
 30
0.0
 41
2.0
 42
2.0
 43
2.0
  0
INSERT
  5
116B
330
1164
100
AcDbEntity
  8
DIM
 62
     0
370
    -2
100
AcDbBlockReference
  2
_DOT
 10
806.3830447138724
 20
591.6821608066834
 30
0.0
 41
2.0
 42
2.0
 43
2.0
 50
180.0
  0
MTEXT
  5
116C
330
1164
100
AcDbEntity
  8
DIM
 62
     0
100
AcDbMText
 10
811.4329585278231
 20
605.6821608066834
 30
0.0
 40
12.0
 41
0.0
 46
0.0
 71
     5
 72
     1
  1
\A1;10
  7
ＭＳ ゴシック
 73
     1
 44
1.0
  0
POINT
  5
116D
330
1164
100
AcDbEntity
  8
Defpoints
 62
     0
100
AcDbPoint
 10
816.3830447138724
 20
559.8876984016624
 30
0.0
  0
POINT
  5
116E
330
1164
100
AcDbEntity
  8
Defpoints
 62
     0
100
AcDbPoint
 10
806.3830447138724
 20
559.8876984016624
 30
0.0
  0
POINT
  5
116F
330
1164
100
AcDbEntity
  8
Defpoints
 62
     0
100
AcDbPoint
 10
806.3830447138724
 20
591.6821608066834
 30
0.0
  0
ENDBLK
  5
1166
330
1164
100
AcDbEntity
  8
0
100
AcDbBlockEnd
  0
BLOCK
  5
1183
330
1182
100
AcDbEntity
  8
0
100
AcDbBlockBegin
  2
*D24
 70
     1
 10
0.0
 20
0.0
 30
0.0
  3
*D24
  1
*D27
  0
LINE
  5
1185
330
1182
100
AcDbEntity
  8
DIM
 62
     0
370
    -2
100
AcDbLine
 10
607.3830447138888
 20
547.3876984016615
 30
0.0
 11
650.5867232743777
 21
547.3876984016615
 31
0.0
  0
LINE
  5
1186
330
1182
100
AcDbEntity
  8
DIM
 62
     0
370
    -2
100
AcDbLine
 10
607.3830447138888
 20
502.3876984016615
 30
0.0
 11
650.5867232743777
 21
502.3876984016615
 31
0.0
  0
LINE
  5
1187
330
1182
100
AcDbEntity
  8
DIM
 62
     0
370
    -2
100
AcDbLine
 10
650.5867232743777
 20
545.3876984016615
 30
0.0
 11
650.5867232743777
 21
504.3876984016615
 31
0.0
  0
INSERT
  5
1188
330
1182
100
AcDbEntity
  8
DIM
 62
     0
370
    -2
100
AcDbBlockReference
  2
_DOT
 10
650.5867232743777
 20
547.3876984016615
 30
0.0
 41
2.0
 42
2.0
 43
2.0
 50
90.0
  0
INSERT
  5
1189
330
1182
100
AcDbEntity
  8
DIM
 62
     0
370
    -2
100
AcDbBlockReference
  2
_DOT
 10
650.5867232743777
 20
502.3876984016615
 30
0.0
 41
2.0
 42
2.0
 43
2.0
 50
270.0
  0
MTEXT
  5
118A
330
1182
100
AcDbEntity
  8
DIM
 62
     0
100
AcDbMText
 10
636.5267232743778
 20
524.8876984016615
 30
0.0
 40
12.0
 41
0.0
 46
0.0
 71
     5
 72
     1
  1
\A1;ø45
  7
ＭＳ ゴシック
 11
0.0
 21
1.0
 31
0.0
 73
     1
 44
1.0
  0
POINT
  5
118B
330
1182
100
AcDbEntity
  8
Defpoints
 62
     0
100
AcDbPoint
 10
592.3830447138888
 20
547.3876984016615
 30
0.0
  0
POINT
  5
118C
330
1182
100
AcDbEntity
  8
Defpoints
 62
     0
100
AcDbPoint
 10
592.3830447138888
 20
502.3876984016615
 30
0.0
  0
POINT
  5
118D
330
1182
100
AcDbEntity
  8
Defpoints
 62
     0
100
AcDbPoint
 10
650.5867232743777
 20
502.3876984016615
 30
0.0
  0
ENDBLK
  5
1184
330
1182
100
AcDbEntity
  8
0
100
AcDbBlockEnd
  0
BLOCK
  5
11D5
330
11D4
100
AcDbEntity
  8
0
100
AcDbBlockBegin
  2
*D25
 70
     1
 10
0.0
 20
0.0
 30
0.0
  3
*D25
  1
*D29
  0
LINE
  5
11D6
330
11D4
100
AcDbEntity
  8
DIM
 62
     0
370
    -2
100
AcDbLine
 10
15.0
 20
1.0
 30
0.0
 11
57.12655442609741
 21
1.0
 31
0.0
  0
LINE
  5
11D7
330
11D4
100
AcDbEntity
  8
DIM
 62
     0
370
    -2
100
AcDbLine
 10
15.0
 20
33.0
 30
0.0
 11
57.12655442609741
 21
33.0
 31
0.0
  0
LINE
  5
11D8
330
11D4
100
AcDbEntity
  8
DIM
 62
     0
370
    -2
100
AcDbLine
 10
57.12655442609741
 20
3.0
 30
0.0
 11
57.12655442609741
 21
31.0
 31
0.0
  0
INSERT
  5
11D9
330
11D4
100
AcDbEntity
  8
DIM
 62
     0
370
    -2
100
AcDbBlockReference
  2
_DOT
 10
57.12655442609741
 20
1.0
 30
0.0
 41
2.0
 42
2.0
 43
2.0
 50
270.0
  0
INSERT
  5
11DA
330
11D4
100
AcDbEntity
  8
DIM
 62
     0
370
    -2
100
AcDbBlockReference
  2
_DOT
 10
57.12655442609741
 20
33.0
 30
0.0
 41
2.0
 42
2.0
 43
2.0
 50
90.0
  0
MTEXT
  5
11DB
330
11D4
100
AcDbEntity
  8
DIM
 62
     0
100
AcDbMText
 10
43.06655442609741
 20
17.0
 30
0.0
 40
12.0
 41
0.0
 46
0.0
 71
     5
 72
     1
  1
\A1;ø32
  7
ＭＳ ゴシック
 11
0.0
 21
1.0
 31
0.0
 73
     1
 44
1.0
  0
POINT
  5
11DC
330
11D4
100
AcDbEntity
  8
Defpoints
 62
     0
100
AcDbPoint
 10
0.0
 20
1.0
 30
0.0
  0
POINT
  5
11DD
330
11D4
100
AcDbEntity
  8
Defpoints
 62
     0
100
AcDbPoint
 10
0.0
 20
33.0
 30
0.0
  0
POINT
  5
11DE
330
11D4
100
AcDbEntity
  8
Defpoints
 62
     0
100
AcDbPoint
 10
57.12655442609741
 20
33.0
 30
0.0
  0
ENDBLK
  5
11DF
330
11D4
100
AcDbEntity
  8
0
100
AcDbBlockEnd
  0
BLOCK
  5
11E7
330
11E6
100
AcDbEntity
  8
0
100
AcDbBlockBegin
  2
*D26
 70
     1
 10
0.0
 20
0.0
 30
0.0
  3
*D26
  1
*D30
  0
LINE
  5
11E9
330
11E6
100
AcDbEntity
  8
DIM
 62
     0
370
    -2
100
AcDbLine
 10
308.1357765155843
 20
530.0501473941354
 30
0.0
 11
308.1357765155843
 21
552.3335403959974
 31
0.0
  0
LINE
  5
11EA
330
11E6
100
AcDbEntity
  8
DIM
 62
     0
370
    -2
100
AcDbLine
 10
276.1357765155843
 20
530.0501473941354
 30
0.0
 11
276.1357765155843
 21
552.3335403959974
 31
0.0
  0
LINE
  5
11EB
330
11E6
100
AcDbEntity
  8
DIM
 62
     0
370
    -2
100
AcDbLine
 10
306.1357765155843
 20
552.3335403959974
 30
0.0
 11
278.1357765155843
 21
552.3335403959974
 31
0.0
  0
INSERT
  5
11EC
330
11E6
100
AcDbEntity
  8
DIM
 62
     0
370
    -2
100
AcDbBlockReference
  2
_DOT
 10
308.1357765155843
 20
552.3335403959974
 30
0.0
 41
2.0
 42
2.0
 43
2.0
  0
INSERT
  5
11ED
330
11E6
100
AcDbEntity
  8
DIM
 62
     0
370
    -2
100
AcDbBlockReference
  2
_DOT
 10
276.1357765155843
 20
552.3335403959974
 30
0.0
 41
2.0
 42
2.0
 43
2.0
 50
180.0
  0
MTEXT
  5
11EE
330
11E6
100
AcDbEntity
  8
DIM
 62
     0
100
AcDbMText
 10
292.1357765155843
 20
566.3335403959974
 30
0.0
 40
12.0
 41
0.0
 46
0.0
 71
     5
 72
     1
  1
\A1;32
  7
ＭＳ ゴシック
 73
     1
 44
1.0
  0
POINT
  5
11EF
330
11E6
100
AcDbEntity
  8
Defpoints
 62
     0
100
AcDbPoint
 10
308.1357765155843
 20
515.0501473941354
 30
0.0
  0
POINT
  5
11F0
330
11E6
100
AcDbEntity
  8
Defpoints
 62
     0
100
AcDbPoint
 10
276.1357765155843
 20
515.0501473941354
 30
0.0
  0
POINT
  5
11F1
330
11E6
100
AcDbEntity
  8
Defpoints
 62
     0
100
AcDbPoint
 10
276.1357765155843
 20
552.3335403959974
 30
0.0
  0
ENDBLK
  5
11E8
330
11E6
100
AcDbEntity
  8
0
100
AcDbBlockEnd
  0
BLOCK
  5
140D
330
140C
100
AcDbEntity
  8
0
100
AcDbBlockBegin
  2
*D27
 70
     1
 10
0.0
 20
0.0
 30
0.0
  3
*D27
  1
*D33
  0
LINE
  5
140F
330
140C
100
AcDbEntity
  8
DIM
 62
     0
370
    -2
100
AcDbLine
 10
1165.231290788976
 20
719.8876984016615
 30
0.0
 11
1165.231290788976
 21
808.879881347853
 31
0.0
  0
LINE
  5
1410
330
140C
100
AcDbEntity
  8
DIM
 62
     0
370
    -2
100
AcDbLine
 10
1398.221237664661
 20
626.4820407325901
 30
0.0
 11
1398.221237664661
 21
808.879881347853
 31
0.0
  0
LINE
  5
1411
330
140C
100
AcDbEntity
  8
DIM
 62
     0
370
    -2
100
AcDbLine
 10
1167.231290788976
 20
808.879881347853
 30
0.0
 11
1396.221237664661
 21
808.879881347853
 31
0.0
  0
INSERT
  5
1412
330
140C
100
AcDbEntity
  8
DIM
 62
     0
370
    -2
100
AcDbBlockReference
  2
_DOT
 10
1165.231290788976
 20
808.879881347853
 30
0.0
 41
2.0
 42
2.0
 43
2.0
 50
180.0
  0
INSERT
  5
1413
330
140C
100
AcDbEntity
  8
DIM
 62
     0
370
    -2
100
AcDbBlockReference
  2
_DOT
 10
1398.221237664661
 20
808.879881347853
 30
0.0
 41
2.0
 42
2.0
 43
2.0
  0
MTEXT
  5
1414
330
140C
100
AcDbEntity
  8
DIM
 62
     0
100
AcDbMText
 10
1281.726264226819
 20
822.879881347853
 30
0.0
 40
12.0
 41
0.0
 46
0.0
 71
     5
 72
     1
  1
\A1;233
  7
ＭＳ ゴシック
 73
     1
 44
1.0
  0
POINT
  5
1415
330
140C
100
AcDbEntity
  8
Defpoints
 62
     0
100
AcDbPoint
 10
1165.231290788976
 20
704.8876984016615
 30
0.0
  0
POINT
  5
1416
330
140C
100
AcDbEntity
  8
Defpoints
 62
     0
100
AcDbPoint
 10
1398.221237664661
 20
611.4820407325901
 30
0.0
  0
POINT
  5
1417
330
140C
100
AcDbEntity
  8
Defpoints
 62
     0
100
AcDbPoint
 10
1398.221237664661
 20
808.879881347853
 30
0.0
  0
ENDBLK
  5
140E
330
140C
100
AcDbEntity
  8
0
100
AcDbBlockEnd
  0
BLOCK
  5
1467
330
1466
100
AcDbEntity
  8
0
100
AcDbBlockBegin
  2
*D28
 70
     1
 10
0.0
 20
0.0
 30
0.0
  3
*D28
  1
*D34
  0
LINE
  5
1469
330
1466
100
AcDbEntity
  8
DIM
 62
     0
370
    -2
100
AcDbLine
 10
265.2706181502497
 20
1298.436309467006
 30
0.0
 11
265.2706181502497
 21
1331.454213925355
 31
0.0
  0
LINE
  5
146A
330
1466
100
AcDbEntity
  8
DIM
 62
     0
370
    -2
100
AcDbLine
 10
315.2706181502492
 20
1298.436309467006
 30
0.0
 11
315.2706181502492
 21
1331.454213925355
 31
0.0
  0
LINE
  5
146B
330
1466
100
AcDbEntity
  8
DIM
 62
     0
370
    -2
100
AcDbLine
 10
267.2706181502497
 20
1331.454213925355
 30
0.0
 11
313.2706181502492
 21
1331.454213925355
 31
0.0
  0
INSERT
  5
146C
330
1466
100
AcDbEntity
  8
DIM
 62
     0
370
    -2
100
AcDbBlockReference
  2
_DOT
 10
265.2706181502497
 20
1331.454213925355
 30
0.0
 41
2.0
 42
2.0
 43
2.0
 50
180.0
  0
INSERT
  5
146D
330
1466
100
AcDbEntity
  8
DIM
 62
     0
370
    -2
100
AcDbBlockReference
  2
_DOT
 10
315.2706181502492
 20
1331.454213925355
 30
0.0
 41
2.0
 42
2.0
 43
2.0
  0
MTEXT
  5
146E
330
1466
100
AcDbEntity
  8
DIM
 62
     0
100
AcDbMText
 10
290.2706181502494
 20
1345.514213925355
 30
0.0
 40
12.0
 41
0.0
 46
0.0
 71
     5
 72
     1
  1
\A1;ø50
  7
ＭＳ ゴシック
 73
     1
 44
1.0
  0
POINT
  5
146F
330
1466
100
AcDbEntity
  8
Defpoints
 62
     0
100
AcDbPoint
 10
265.2706181502497
 20
1283.436309467006
 30
0.0
  0
POINT
  5
1470
330
1466
100
AcDbEntity
  8
Defpoints
 62
     0
100
AcDbPoint
 10
315.2706181502492
 20
1283.436309467006
 30
0.0
  0
POINT
  5
1471
330
1466
100
AcDbEntity
  8
Defpoints
 62
     0
100
AcDbPoint
 10
315.2706181502492
 20
1331.454213925355
 30
0.0
  0
ENDBLK
  5
1468
330
1466
100
AcDbEntity
  8
0
100
AcDbBlockEnd
  0
BLOCK
  5
1473
330
1472
100
AcDbEntity
  8
0
100
AcDbBlockBegin
  2
*D29
 70
     1
 10
0.0
 20
0.0
 30
0.0
  3
*D29
  1
*D35
  0
LINE
  5
1475
330
1472
100
AcDbEntity
  8
DIM
 62
     0
370
    -2
100
AcDbLine
 10
250.2706181502494
 20
566.8876984016624
 30
0.0
 11
217.9869886926049
 21
566.8876984016624
 31
0.0
  0
LINE
  5
1476
330
1472
100
AcDbEntity
  8
DIM
 62
     0
370
    -2
100
AcDbLine
 10
250.2706181502494
 20
479.8876984016624
 30
0.0
 11
217.9869886926049
 21
479.8876984016624
 31
0.0
  0
LINE
  5
1477
330
1472
100
AcDbEntity
  8
DIM
 62
     0
370
    -2
100
AcDbLine
 10
217.9869886926049
 20
564.8876984016624
 30
0.0
 11
217.9869886926049
 21
481.8876984016624
 31
0.0
  0
INSERT
  5
1478
330
1472
100
AcDbEntity
  8
DIM
 62
     0
370
    -2
100
AcDbBlockReference
  2
_DOT
 10
217.9869886926049
 20
566.8876984016624
 30
0.0
 41
2.0
 42
2.0
 43
2.0
 50
90.0
  0
INSERT
  5
1479
330
1472
100
AcDbEntity
  8
DIM
 62
     0
370
    -2
100
AcDbBlockReference
  2
_DOT
 10
217.9869886926049
 20
479.8876984016624
 30
0.0
 41
2.0
 42
2.0
 43
2.0
 50
270.0
  0
MTEXT
  5
147A
330
1472
100
AcDbEntity
  8
DIM
 62
     0
100
AcDbMText
 10
203.9869886926049
 20
523.1376984016624
 30
0.0
 40
12.0
 41
0.0
 46
0.0
 71
     5
 72
     1
  1
\A1;87
  7
ＭＳ ゴシック
 11
0.0
 21
1.0
 31
0.0
 73
     1
 44
1.0
  0
POINT
  5
147B
330
1472
100
AcDbEntity
  8
Defpoints
 62
     0
100
AcDbPoint
 10
265.2706181502494
 20
566.8876984016624
 30
0.0
  0
POINT
  5
147C
330
1472
100
AcDbEntity
  8
Defpoints
 62
     0
100
AcDbPoint
 10
265.2706181502494
 20
479.8876984016624
 30
0.0
  0
POINT
  5
147D
330
1472
100
AcDbEntity
  8
Defpoints
 62
     0
100
AcDbPoint
 10
217.9869886926049
 20
479.8876984016624
 30
0.0
  0
ENDBLK
  5
1474
330
1472
100
AcDbEntity
  8
0
100
AcDbBlockEnd
  0
BLOCK
  5
147F
330
147E
100
AcDbEntity
  8
0
100
AcDbBlockBegin
  2
*D30
 70
     1
 10
0.0
 20
0.0
 30
0.0
  3
*D30
  1
*D36
  0
LINE
  5
1481
330
147E
100
AcDbEntity
  8
DIM
 62
     0
370
    -2
100
AcDbLine
 10
315.2706181502494
 20
468.9611795312757
 30
0.0
 11
315.2706181502494
 21
438.9238059395905
 31
0.0
  0
LINE
  5
1482
330
147E
100
AcDbEntity
  8
DIM
 62
     0
370
    -2
100
AcDbLine
 10
265.2706181502499
 20
468.9611795312757
 30
0.0
 11
265.2706181502499
 21
438.9238059395905
 31
0.0
  0
LINE
  5
1483
330
147E
100
AcDbEntity
  8
DIM
 62
     0
370
    -2
100
AcDbLine
 10
313.2706181502494
 20
438.9238059395905
 30
0.0
 11
267.2706181502499
 21
438.9238059395905
 31
0.0
  0
INSERT
  5
1484
330
147E
100
AcDbEntity
  8
DIM
 62
     0
370
    -2
100
AcDbBlockReference
  2
_DOT
 10
315.2706181502494
 20
438.9238059395905
 30
0.0
 41
2.0
 42
2.0
 43
2.0
  0
INSERT
  5
1485
330
147E
100
AcDbEntity
  8
DIM
 62
     0
370
    -2
100
AcDbBlockReference
  2
_DOT
 10
265.2706181502499
 20
438.9238059395905
 30
0.0
 41
2.0
 42
2.0
 43
2.0
 50
180.0
  0
MTEXT
  5
1486
330
147E
100
AcDbEntity
  8
DIM
 62
     0
100
AcDbMText
 10
290.2706181502497
 20
452.9838059395905
 30
0.0
 40
12.0
 41
0.0
 46
0.0
 71
     5
 72
     1
  1
\A1;ø50
  7
ＭＳ ゴシック
 73
     1
 44
1.0
  0
POINT
  5
1487
330
147E
100
AcDbEntity
  8
Defpoints
 62
     0
100
AcDbPoint
 10
315.2706181502494
 20
483.9611795312757
 30
0.0
  0
POINT
  5
1488
330
147E
100
AcDbEntity
  8
Defpoints
 62
     0
100
AcDbPoint
 10
265.2706181502499
 20
483.9611795312757
 30
0.0
  0
POINT
  5
1489
330
147E
100
AcDbEntity
  8
Defpoints
 62
     0
100
AcDbPoint
 10
265.2706181502499
 20
438.9238059395905
 30
0.0
  0
ENDBLK
  5
1480
330
147E
100
AcDbEntity
  8
0
100
AcDbBlockEnd
  0
BLOCK
  5
148B
330
148A
100
AcDbEntity
  8
0
100
AcDbBlockBegin
  2
*D31
 70
     1
 10
0.0
 20
0.0
 30
0.0
  3
*D31
  1
*D37
  0
LINE
  5
148D
330
148A
100
AcDbEntity
  8
DIM
 62
     0
370
    -2
100
AcDbLine
 10
483.2605650259343
 20
704.8876984016615
 30
0.0
 11
432.0322728941221
 21
704.8876984016615
 31
0.0
  0
LINE
  5
148E
330
148A
100
AcDbEntity
  8
DIM
 62
     0
370
    -2
100
AcDbLine
 10
483.2605650259343
 20
524.8876984016615
 30
0.0
 11
432.0322728941221
 21
524.8876984016615
 31
0.0
  0
LINE
  5
148F
330
148A
100
AcDbEntity
  8
DIM
 62
     0
370
    -2
100
AcDbLine
 10
432.0322728941221
 20
702.8876984016615
 30
0.0
 11
432.0322728941221
 21
526.8876984016615
 31
0.0
  0
INSERT
  5
1490
330
148A
100
AcDbEntity
  8
DIM
 62
     0
370
    -2
100
AcDbBlockReference
  2
_DOT
 10
432.0322728941221
 20
704.8876984016615
 30
0.0
 41
2.0
 42
2.0
 43
2.0
 50
90.0
  0
INSERT
  5
1491
330
148A
100
AcDbEntity
  8
DIM
 62
     0
370
    -2
100
AcDbBlockReference
  2
_DOT
 10
432.0322728941221
 20
524.8876984016615
 30
0.0
 41
2.0
 42
2.0
 43
2.0
 50
270.0
  0
MTEXT
  5
1492
330
148A
100
AcDbEntity
  8
DIM
 62
     0
100
AcDbMText
 10
418.0322728941221
 20
614.8876984016615
 30
0.0
 40
12.0
 41
0.0
 46
0.0
 71
     5
 72
     1
  1
\A1;55～230
  7
ＭＳ ゴシック
 11
0.0
 21
1.0
 31
0.0
 73
     1
 44
1.0
  0
POINT
  5
1493
330
148A
100
AcDbEntity
  8
Defpoints
 62
     0
100
AcDbPoint
 10
498.2605650259343
 20
704.8876984016615
 30
0.0
  0
POINT
  5
1494
330
148A
100
AcDbEntity
  8
Defpoints
 62
     0
100
AcDbPoint
 10
498.2605650259343
 20
524.8876984016615
 30
0.0
  0
POINT
  5
1495
330
148A
100
AcDbEntity
  8
Defpoints
 62
     0
100
AcDbPoint
 10
432.0322728941221
 20
524.8876984016615
 30
0.0
  0
ENDBLK
  5
148C
330
148A
100
AcDbEntity
  8
0
100
AcDbBlockEnd
  0
BLOCK
  5
1497
330
1496
100
AcDbEntity
  8
0
100
AcDbBlockBegin
  2
*D32
 70
     1
 10
0.0
 20
0.0
 30
0.0
  3
*D32
  1
*D38
  0
LINE
  5
1499
330
1496
100
AcDbEntity
  8
DIM
 62
     0
370
    -2
100
AcDbLine
 10
483.2605650259343
 20
566.8876984016624
 30
0.0
 11
467.067829304802
 21
566.8876984016624
 31
0.0
  0
LINE
  5
149A
330
1496
100
AcDbEntity
  8
DIM
 62
     0
370
    -2
100
AcDbLine
 10
483.2605650259343
 20
524.8876984016615
 30
0.0
 11
467.067829304802
 21
524.8876984016615
 31
0.0
  0
LINE
  5
149B
330
1496
100
AcDbEntity
  8
DIM
 62
     0
370
    -2
100
AcDbLine
 10
467.067829304802
 20
564.8876984016624
 30
0.0
 11
467.067829304802
 21
526.8876984016615
 31
0.0
  0
INSERT
  5
149C
330
1496
100
AcDbEntity
  8
DIM
 62
     0
370
    -2
100
AcDbBlockReference
  2
_DOT
 10
467.067829304802
 20
566.8876984016624
 30
0.0
 41
2.0
 42
2.0
 43
2.0
 50
90.0
  0
INSERT
  5
149D
330
1496
100
AcDbEntity
  8
DIM
 62
     0
370
    -2
100
AcDbBlockReference
  2
_DOT
 10
467.067829304802
 20
524.8876984016615
 30
0.0
 41
2.0
 42
2.0
 43
2.0
 50
270.0
  0
MTEXT
  5
149E
330
1496
100
AcDbEntity
  8
DIM
 62
     0
100
AcDbMText
 10
453.067829304802
 20
545.887698401662
 30
0.0
 40
12.0
 41
0.0
 46
0.0
 71
     5
 72
     1
  1
\A1;42
  7
ＭＳ ゴシック
 11
0.0
 21
1.0
 31
0.0
 73
     1
 44
1.0
  0
POINT
  5
149F
330
1496
100
AcDbEntity
  8
Defpoints
 62
     0
100
AcDbPoint
 10
498.2605650259343
 20
566.8876984016624
 30
0.0
  0
POINT
  5
14A0
330
1496
100
AcDbEntity
  8
Defpoints
 62
     0
100
AcDbPoint
 10
498.2605650259343
 20
524.8876984016615
 30
0.0
  0
POINT
  5
14A1
330
1496
100
AcDbEntity
  8
Defpoints
 62
     0
100
AcDbPoint
 10
467.067829304802
 20
524.8876984016615
 30
0.0
  0
ENDBLK
  5
1498
330
1496
100
AcDbEntity
  8
0
100
AcDbBlockEnd
  0
BLOCK
  5
14A3
330
14A2
100
AcDbEntity
  8
0
100
AcDbBlockBegin
  2
*D33
 70
     1
 10
0.0
 20
0.0
 30
0.0
  3
*D33
  1
*D39
  0
LINE
  5
14A5
330
14A2
100
AcDbEntity
  8
DIM
 62
     0
370
    -2
100
AcDbLine
 10
483.2605650259343
 20
479.8876984016624
 30
0.0
 11
467.067829304802
 21
479.8876984016624
 31
0.0
  0
LINE
  5
14A6
330
14A2
100
AcDbEntity
  8
DIM
 62
     0
370
    -2
100
AcDbLine
 10
483.2605650259343
 20
524.8876984016615
 30
0.0
 11
467.067829304802
 21
524.8876984016615
 31
0.0
  0
LINE
  5
14A7
330
14A2
100
AcDbEntity
  8
DIM
 62
     0
370
    -2
100
AcDbLine
 10
467.067829304802
 20
481.8876984016624
 30
0.0
 11
467.067829304802
 21
522.8876984016615
 31
0.0
  0
INSERT
  5
14A8
330
14A2
100
AcDbEntity
  8
DIM
 62
     0
370
    -2
100
AcDbBlockReference
  2
_DOT
 10
467.067829304802
 20
479.8876984016624
 30
0.0
 41
2.0
 42
2.0
 43
2.0
 50
270.0
  0
INSERT
  5
14A9
330
14A2
100
AcDbEntity
  8
DIM
 62
     0
370
    -2
100
AcDbBlockReference
  2
_DOT
 10
467.067829304802
 20
524.8876984016615
 30
0.0
 41
2.0
 42
2.0
 43
2.0
 50
90.0
  0
MTEXT
  5
14AA
330
14A2
100
AcDbEntity
  8
DIM
 62
     0
100
AcDbMText
 10
453.067829304802
 20
502.387698401662
 30
0.0
 40
12.0
 41
0.0
 46
0.0
 71
     5
 72
     1
  1
\A1;45
  7
ＭＳ ゴシック
 11
0.0
 21
1.0
 31
0.0
 73
     1
 44
1.0
  0
POINT
  5
14AB
330
14A2
100
AcDbEntity
  8
Defpoints
 62
     0
100
AcDbPoint
 10
498.2605650259343
 20
479.8876984016624
 30
0.0
  0
POINT
  5
14AC
330
14A2
100
AcDbEntity
  8
Defpoints
 62
     0
100
AcDbPoint
 10
498.2605650259343
 20
524.8876984016615
 30
0.0
  0
POINT
  5
14AD
330
14A2
100
AcDbEntity
  8
Defpoints
 62
     0
100
AcDbPoint
 10
467.067829304802
 20
524.8876984016615
 30
0.0
  0
ENDBLK
  5
14A4
330
14A2
100
AcDbEntity
  8
0
100
AcDbBlockEnd
  0
BLOCK
  5
14AF
330
14AE
100
AcDbEntity
  8
0
100
AcDbBlockBegin
  2
*D34
 70
     1
 10
0.0
 20
0.0
 30
0.0
  3
*D34
  1
*D40
  0
LINE
  5
14B1
330
14AE
100
AcDbEntity
  8
DIM
 62
     0
370
    -2
100
AcDbLine
 10
808.2605650259343
 20
574.8876984016615
 30
0.0
 11
808.2605650259343
 21
591.6821608066825
 31
0.0
  0
LINE
  5
14B2
330
14AE
100
AcDbEntity
  8
DIM
 62
     0
370
    -2
100
AcDbLine
 10
798.2605650259343
 20
574.8876984016615
 30
0.0
 11
798.2605650259343
 21
591.6821608066825
 31
0.0
  0
LINE
  5
14B3
330
14AE
100
AcDbEntity
  8
DIM
 62
     0
370
    -2
100
AcDbLine
 10
806.2605650259343
 20
591.6821608066825
 30
0.0
 11
800.2605650259343
 21
591.6821608066825
 31
0.0
  0
INSERT
  5
14B4
330
14AE
100
AcDbEntity
  8
DIM
 62
     0
370
    -2
100
AcDbBlockReference
  2
_DOT
 10
808.2605650259343
 20
591.6821608066825
 30
0.0
 41
2.0
 42
2.0
 43
2.0
  0
INSERT
  5
14B5
330
14AE
100
AcDbEntity
  8
DIM
 62
     0
370
    -2
100
AcDbBlockReference
  2
_DOT
 10
798.2605650259343
 20
591.6821608066825
 30
0.0
 41
2.0
 42
2.0
 43
2.0
 50
180.0
  0
MTEXT
  5
14B6
330
14AE
100
AcDbEntity
  8
DIM
 62
     0
100
AcDbMText
 10
803.310478839885
 20
605.6821608066825
 30
0.0
 40
12.0
 41
0.0
 46
0.0
 71
     5
 72
     1
  1
\A1;10
  7
ＭＳ ゴシック
 73
     1
 44
1.0
  0
POINT
  5
14B7
330
14AE
100
AcDbEntity
  8
Defpoints
 62
     0
100
AcDbPoint
 10
808.2605650259343
 20
559.8876984016615
 30
0.0
  0
POINT
  5
14B8
330
14AE
100
AcDbEntity
  8
Defpoints
 62
     0
100
AcDbPoint
 10
798.2605650259343
 20
559.8876984016615
 30
0.0
  0
POINT
  5
14B9
330
14AE
100
AcDbEntity
  8
Defpoints
 62
     0
100
AcDbPoint
 10
798.2605650259343
 20
591.6821608066825
 30
0.0
  0
ENDBLK
  5
14B0
330
14AE
100
AcDbEntity
  8
0
100
AcDbBlockEnd
  0
BLOCK
  5
14BB
330
14BA
100
AcDbEntity
  8
0
100
AcDbBlockBegin
  2
*D35
 70
     1
 10
0.0
 20
0.0
 30
0.0
  3
*D35
  1
*D41
  0
LINE
  5
14BD
330
14BA
100
AcDbEntity
  8
DIM
 62
     0
370
    -2
100
AcDbLine
 10
587.2605650259379
 20
543.6376984016615
 30
0.0
 11
621.8603913134884
 21
543.6376984016615
 31
0.0
  0
LINE
  5
14BE
330
14BA
100
AcDbEntity
  8
DIM
 62
     0
370
    -2
100
AcDbLine
 10
587.2605650259379
 20
506.1376984016615
 30
0.0
 11
621.8603913134884
 21
506.1376984016615
 31
0.0
  0
LINE
  5
14BF
330
14BA
100
AcDbEntity
  8
DIM
 62
     0
370
    -2
100
AcDbLine
 10
621.8603913134884
 20
541.6376984016615
 30
0.0
 11
621.8603913134884
 21
508.1376984016615
 31
0.0
  0
INSERT
  5
14C0
330
14BA
100
AcDbEntity
  8
DIM
 62
     0
370
    -2
100
AcDbBlockReference
  2
_DOT
 10
621.8603913134884
 20
543.6376984016615
 30
0.0
 41
2.0
 42
2.0
 43
2.0
 50
90.0
  0
INSERT
  5
14C1
330
14BA
100
AcDbEntity
  8
DIM
 62
     0
370
    -2
100
AcDbBlockReference
  2
_DOT
 10
621.8603913134884
 20
506.1376984016615
 30
0.0
 41
2.0
 42
2.0
 43
2.0
 50
270.0
  0
MTEXT
  5
14C2
330
14BA
100
AcDbEntity
  8
DIM
 62
     0
100
AcDbMText
 10
607.8003913134885
 20
524.8876984016615
 30
0.0
 40
12.0
 41
0.0
 46
0.0
 71
     5
 72
     1
  1
\A1;ø38
  7
ＭＳ ゴシック
 11
0.0
 21
1.0
 31
0.0
 73
     1
 44
1.0
  0
POINT
  5
14C3
330
14BA
100
AcDbEntity
  8
Defpoints
 62
     0
100
AcDbPoint
 10
572.2605650259379
 20
543.6376984016615
 30
0.0
  0
POINT
  5
14C4
330
14BA
100
AcDbEntity
  8
Defpoints
 62
     0
100
AcDbPoint
 10
572.2605650259379
 20
506.1376984016615
 30
0.0
  0
POINT
  5
14C5
330
14BA
100
AcDbEntity
  8
Defpoints
 62
     0
100
AcDbPoint
 10
621.8603913134884
 20
506.1376984016615
 30
0.0
  0
ENDBLK
  5
14BC
330
14BA
100
AcDbEntity
  8
0
100
AcDbBlockEnd
  0
BLOCK
  5
14C7
330
14C6
100
AcDbEntity
  8
0
100
AcDbBlockBegin
  2
*D36
 70
     1
 10
0.0
 20
0.0
 30
0.0
  3
*D36
  1
*D42
  0
LINE
  5
14C9
330
14C6
100
AcDbEntity
  8
DIM
 62
     0
370
    -2
100
AcDbLine
 10
823.2605650259343
 20
559.8876984016615
 30
0.0
 11
886.9167688919315
 21
559.8876984016615
 31
0.0
  0
LINE
  5
14CA
330
14C6
100
AcDbEntity
  8
DIM
 62
     0
370
    -2
100
AcDbLine
 10
823.2605650259343
 20
489.8876984016606
 30
0.0
 11
886.9167688919315
 21
489.8876984016606
 31
0.0
  0
LINE
  5
14CB
330
14C6
100
AcDbEntity
  8
DIM
 62
     0
370
    -2
100
AcDbLine
 10
886.9167688919315
 20
557.8876984016615
 30
0.0
 11
886.9167688919315
 21
491.8876984016606
 31
0.0
  0
INSERT
  5
14CC
330
14C6
100
AcDbEntity
  8
DIM
 62
     0
370
    -2
100
AcDbBlockReference
  2
_DOT
 10
886.9167688919315
 20
559.8876984016615
 30
0.0
 41
2.0
 42
2.0
 43
2.0
 50
90.0
  0
INSERT
  5
14CD
330
14C6
100
AcDbEntity
  8
DIM
 62
     0
370
    -2
100
AcDbBlockReference
  2
_DOT
 10
886.9167688919315
 20
489.8876984016606
 30
0.0
 41
2.0
 42
2.0
 43
2.0
 50
270.0
  0
MTEXT
  5
14CE
330
14C6
100
AcDbEntity
  8
DIM
 62
     0
100
AcDbMText
 10
872.9167688919315
 20
524.887698401661
 30
0.0
 40
12.0
 41
0.0
 46
0.0
 71
     5
 72
     1
  1
\A1;70
  7
ＭＳ ゴシック
 11
0.0
 21
1.0
 31
0.0
 73
     1
 44
1.0
  0
POINT
  5
14CF
330
14C6
100
AcDbEntity
  8
Defpoints
 62
     0
100
AcDbPoint
 10
808.2605650259343
 20
559.8876984016615
 30
0.0
  0
POINT
  5
14D0
330
14C6
100
AcDbEntity
  8
Defpoints
 62
     0
100
AcDbPoint
 10
808.2605650259343
 20
489.8876984016606
 30
0.0
  0
POINT
  5
14D1
330
14C6
100
AcDbEntity
  8
Defpoints
 62
     0
100
AcDbPoint
 10
886.9167688919315
 20
489.8876984016606
 30
0.0
  0
ENDBLK
  5
14C8
330
14C6
100
AcDbEntity
  8
0
100
AcDbBlockEnd
  0
BLOCK
  5
14D3
330
14D2
100
AcDbEntity
  8
0
100
AcDbBlockBegin
  2
*D37
 70
     1
 10
0.0
 20
0.0
 30
0.0
  3
*D37
  1
*D43
  0
LINE
  5
14D5
330
14D2
100
AcDbEntity
  8
DIM
 62
     0
370
    -2
100
AcDbLine
 10
523.2605650259343
 20
464.3876984016624
 30
0.0
 11
523.2605650259343
 21
386.7952399013618
 31
0.0
  0
LINE
  5
14D6
330
14D2
100
AcDbEntity
  8
DIM
 62
     0
370
    -2
100
AcDbLine
 10
848.2605650259325
 20
474.8876984016606
 30
0.0
 11
848.2605650259325
 21
386.7952399013618
 31
0.0
  0
LINE
  5
14D7
330
14D2
100
AcDbEntity
  8
DIM
 62
     0
370
    -2
100
AcDbLine
 10
525.2605650259343
 20
386.7952399013618
 30
0.0
 11
846.2605650259325
 21
386.7952399013618
 31
0.0
  0
INSERT
  5
14D8
330
14D2
100
AcDbEntity
  8
DIM
 62
     0
370
    -2
100
AcDbBlockReference
  2
_DOT
 10
523.2605650259343
 20
386.7952399013618
 30
0.0
 41
2.0
 42
2.0
 43
2.0
 50
180.0
  0
INSERT
  5
14D9
330
14D2
100
AcDbEntity
  8
DIM
 62
     0
370
    -2
100
AcDbBlockReference
  2
_DOT
 10
848.2605650259325
 20
386.7952399013618
 30
0.0
 41
2.0
 42
2.0
 43
2.0
  0
MTEXT
  5
14DA
330
14D2
100
AcDbEntity
  8
DIM
 62
     0
100
AcDbMText
 10
685.7605650259334
 20
400.7952399013618
 30
0.0
 40
12.0
 41
0.0
 46
0.0
 71
     5
 72
     1
  1
\A1;100～325
  7
ＭＳ ゴシック
 73
     1
 44
1.0
  0
POINT
  5
14DB
330
14D2
100
AcDbEntity
  8
Defpoints
 62
     0
100
AcDbPoint
 10
523.2605650259343
 20
479.3876984016624
 30
0.0
  0
POINT
  5
14DC
330
14D2
100
AcDbEntity
  8
Defpoints
 62
     0
100
AcDbPoint
 10
848.2605650259325
 20
489.8876984016606
 30
0.0
  0
POINT
  5
14DD
330
14D2
100
AcDbEntity
  8
Defpoints
 62
     0
100
AcDbPoint
 10
848.2605650259325
 20
386.7952399013618
 30
0.0
  0
ENDBLK
  5
14D4
330
14D2
100
AcDbEntity
  8
0
100
AcDbBlockEnd
  0
BLOCK
  5
14DF
330
14DE
100
AcDbEntity
  8
0
100
AcDbBlockBegin
  2
*D38
 70
     1
 10
0.0
 20
0.0
 30
0.0
  3
*D38
  1
*D44
  0
LINE
  5
14E1
330
14DE
100
AcDbEntity
  8
DIM
 62
     0
370
    -2
100
AcDbLine
 10
523.2605650259343
 20
464.3876984016624
 30
0.0
 11
523.2605650259343
 21
438.9238059395905
 31
0.0
  0
LINE
  5
14E2
330
14DE
100
AcDbEntity
  8
DIM
 62
     0
370
    -2
100
AcDbLine
 10
572.2605650259379
 20
491.1376984016615
 30
0.0
 11
572.2605650259379
 21
438.9238059395905
 31
0.0
  0
LINE
  5
14E3
330
14DE
100
AcDbEntity
  8
DIM
 62
     0
370
    -2
100
AcDbLine
 10
525.2605650259343
 20
438.9238059395905
 30
0.0
 11
570.2605650259379
 21
438.9238059395905
 31
0.0
  0
INSERT
  5
14E4
330
14DE
100
AcDbEntity
  8
DIM
 62
     0
370
    -2
100
AcDbBlockReference
  2
_DOT
 10
523.2605650259343
 20
438.9238059395905
 30
0.0
 41
2.0
 42
2.0
 43
2.0
 50
180.0
  0
INSERT
  5
14E5
330
14DE
100
AcDbEntity
  8
DIM
 62
     0
370
    -2
100
AcDbBlockReference
  2
_DOT
 10
572.2605650259379
 20
438.9238059395905
 30
0.0
 41
2.0
 42
2.0
 43
2.0
  0
MTEXT
  5
14E6
330
14DE
100
AcDbEntity
  8
DIM
 62
     0
100
AcDbMText
 10
547.7605650259361
 20
452.9238059395905
 30
0.0
 40
12.0
 41
0.0
 46
0.0
 71
     5
 72
     1
  1
\A1;49
  7
ＭＳ ゴシック
 73
     1
 44
1.0
  0
POINT
  5
14E7
330
14DE
100
AcDbEntity
  8
Defpoints
 62
     0
100
AcDbPoint
 10
523.2605650259343
 20
479.3876984016624
 30
0.0
  0
POINT
  5
14E8
330
14DE
100
AcDbEntity
  8
Defpoints
 62
     0
100
AcDbPoint
 10
572.2605650259379
 20
506.1376984016615
 30
0.0
  0
POINT
  5
14E9
330
14DE
100
AcDbEntity
  8
Defpoints
 62
     0
100
AcDbPoint
 10
572.2605650259379
 20
438.9238059395905
 30
0.0
  0
ENDBLK
  5
14E0
330
14DE
100
AcDbEntity
  8
0
100
AcDbBlockEnd
  0
ENDSEC
  0
SECTION
  2
ENTITIES
  0
MTEXT
  5
177
330
A
100
AcDbEntity
  8
TEMPLATE
390
1D
100
AcDbMText
 10
39.60107227386538
 20
171.8658758157141
 30
0.0
 40
8.144205729166663
 41
0.0
 46
0.0
 71
     1
 72
     1
  1
品名
  7
ＭＳ ゴシック
 73
     1
 44
0.7828267384257843
  0
MTEXT
  5
178
330
A
100
AcDbEntity
  8
TEMPLATE
390
1D
100
AcDbMText
 10
39.60107227386538
 20
129.365875815714
 30
0.0
 40
8.144205729166663
 41
0.0
 46
0.0
 71
     1
 72
     1
  1
仕様
  7
ＭＳ ゴシック
 73
     1
 44
0.7828267384257843
  0
LINE
  5
179
330
A
100
AcDbEntity
  8
TEMPLATE
390
1D
100
AcDbLine
 10
1011.101072273624
 20
133.5733367532142
 30
0.0
 11
36.10107227362437
 21
133.5733367532142
 31
0.0
  0
LWPOLYLINE
  5
17A
330
A
100
AcDbEntity
  8
TEMPLATE
390
1D
100
AcDbPolyline
 90
        5
 70
   128
 43
0.0
 10
1011.101072273624
 20
1448.573336753213
 10
36.10107227362437
 20
1448.573336753213
 10
36.10107227362437
 20
48.57333675321413
 10
1011.101072273624
 20
48.57333675321413
 10
1011.101072273624
 20
1448.573336753213
  0
LINE
  5
17B
330
A
100
AcDbEntity
  8
TEMPLATE
390
1D
100
AcDbLine
 10
1011.101072273624
 20
176.0733367532141
 30
0.0
 11
36.10107227362437
 21
176.0733367532141
 31
0.0
  0
LINE
  5
17C
330
A
100
AcDbEntity
  8
TEMPLATE
390
1D
100
AcDbLine
 10
1011.101072273866
 20
91.07333675321412
 30
0.0
 11
634.601072273865
 21
91.07333675321412
 31
0.0
  0
MTEXT
  5
17D
330
A
100
AcDbEntity
  8
TEMPLATE
390
1D
100
AcDbMText
 10
36.10107227396725
 20
42.64642572478557
 30
0.0
 40
10.85894097222222
 41
0.0
 46
10.85894097222222
 71
     1
 72
     1
  1
{160503N}
  7
ＭＳ ゴシック
 73
     1
 44
0.7828267384257843
1001
ACAD
1000
ACAD_MTEXT_DEFINED_HEIGHT_BEGIN
1070
    46
1040
10.85894097222222
1000
ACAD_MTEXT_DEFINED_HEIGHT_END
  0
MTEXT
  5
17E
330
A
100
AcDbEntity
  8
TEMPLATE
390
1D
100
AcDbMText
 10
649.5367753999956
 20
76.11813951656006
 30
0.0
 40
12.21630859375
 41
0.0
 46
0.0
 71
     1
 72
     1
  1
大洋金物株式会社 ティーフォルム事業部
  7
ＭＳ ゴシック
 73
     1
 44
0.7828267384257843
  0
MTEXT
  5
180
330
A
100
AcDbEntity
  8
TEMPLATE
390
1D
100
AcDbMText
 10
915.601072273995
 20
115.0746453469641
 30
0.0
 40
12.21630859375
 41
0.0
 46
12.21630859375
 71
     1
 72
     1
  1
{1:5}
  7
ＭＳ ゴシック
 73
     1
 44
0.7828267384257843
1001
ACAD
1000
ACAD_MTEXT_DEFINED_HEIGHT_BEGIN
1070
    46
1040
12.21630859375
1000
ACAD_MTEXT_DEFINED_HEIGHT_END
  0
MTEXT
  5
181
330
A
100
AcDbEntity
  8
TEMPLATE
390
1D
100
AcDbMText
 10
889.101072273995
 20
129.365875815714
 30
0.0
 40
8.144205729166663
 41
0.0
 46
0.0
 71
     1
 72
     1
  1
縮尺
  7
ＭＳ ゴシック
 73
     1
 44
0.7828267384257843
  0
LINE
  5
182
330
A
100
AcDbEntity
  8
TEMPLATE
390
1D
100
AcDbLine
 10
885.601072273995
 20
91.07333675321412
 30
0.0
 11
885.601072273995
 21
133.5733367532142
 31
0.0
  0
MTEXT
  5
183
330
A
100
AcDbEntity
  8
TEMPLATE
390
1D
100
AcDbMText
 10
763.601072273995
 20
129.365875815714
 30
0.0
 40
8.144205729166663
 41
0.0
 46
0.0
 71
     1
 72
     1
  1
容量
  7
ＭＳ ゴシック
 73
     1
 44
0.7828267384257843
  0
LINE
  5
184
330
A
100
AcDbEntity
  8
TEMPLATE
390
1D
100
AcDbLine
 10
760.101072273995
 20
91.07333675321412
 30
0.0
 11
760.101072273995
 21
133.5733367532142
 31
0.0
  0
MTEXT
  5
185
330
A
100
AcDbEntity
  8
TEMPLATE
390
1D
100
AcDbMText
 10
638.101072273995
 20
171.8658758157141
 30
0.0
 40
8.144205729166663
 41
0.0
 46
0.0
 71
     1
 72
     1
  1
品番
  7
ＭＳ ゴシック
 73
     1
 44
0.7828267384257843
  0
MTEXT
  5
186
330
A
100
AcDbEntity
  8
TEMPLATE
390
1D
100
AcDbMText
 10
638.101072273995
 20
129.365875815714
 30
0.0
 40
8.144205729166663
 41
0.0
 46
0.0
 71
     1
 72
     1
  1
重量
  7
ＭＳ ゴシック
 73
     1
 44
0.7828267384257843
  0
MTEXT
  5
187
330
A
100
AcDbEntity
  8
TEMPLATE
390
1D
100
AcDbMText
 10
664.601072273995
 20
157.5746453469641
 30
0.0
 40
12.21630859375
 41
0.0
 46
12.21630859375
 71
     1
 72
     1
  1
{BRS73-0502-020}
  7
ＭＳ ゴシック
 73
     1
 44
0.7828267384257843
1001
ACAD
1000
ACAD_MTEXT_DEFINED_HEIGHT_BEGIN
1070
    46
1040
12.21630859375
1000
ACAD_MTEXT_DEFINED_HEIGHT_END
  0
LINE
  5
188
330
A
100
AcDbEntity
  8
TEMPLATE
390
1D
100
AcDbLine
 10
634.601072273995
 20
48.57333675321413
 30
0.0
 11
634.601072273995
 21
176.0733367532141
 31
0.0
  0
MTEXT
  5
189
330
A
100
AcDbEntity
  8
TEMPLATE
390
1D
100
AcDbMText
 10
66.10107227386537
 20
157.5746453469641
 30
0.0
 40
12.21630859375
 41
0.0
 46
13.76777978515625
 71
     1
 72
     1
  1
{ボトルトラップ　-CLOU, InBe-}
  7
ＭＳ ゴシック
 73
     1
 44
0.7828267384257843
1001
ACAD
1000
ACAD_MTEXT_DEFINED_HEIGHT_BEGIN
1070
    46
1040
13.76777978515625
1000
ACAD_MTEXT_DEFINED_HEIGHT_END
  0
INSERT
  5
6B5
330
A
100
AcDbEntity
  8
TEMPLATE
100
AcDbBlockReference
  2
名称未設定-1
 10
935.3753740442249
 20
12.97338287832691
 30
0.0
 41
0.3809999999999999
 42
0.3809999999999999
 43
0.3809999999999999
  0
MTEXT
  5
7D9
330
A
100
AcDbEntity
  8
TEMPLATE
390
1D
100
AcDbMText
 10
62.62717263801819
 20
113.4059880146976
 30
0.0
 40
12.21630859375
 41
0.0
 46
12.39955322265625
 71
     1
 72
     1
  1
{クローム}
  7
ＭＳ ゴシック
 73
     1
 44
0.7828267384257843
1001
ACAD
1000
ACAD_MTEXT_DEFINED_HEIGHT_BEGIN
1070
    46
1040
12.39955322265625
1000
ACAD_MTEXT_DEFINED_HEIGHT_END
  0
INSERT
  5
68C
330
A
100
AcDbEntity
  8
TEMPLATE
100
AcDbBlockReference
  2
block 2
 10
919.2743017702577
 20
8.373076514336368
 30
0.0
 41
0.3809999999999999
 42
0.3809999999999999
 43
0.3809999999999999
  0
LINE
  5
1364
330
A
100
AcDbEntity
  8
MODEL
100
AcDbLine
 10
798.2605650259343
 20
559.8876984016615
 30
0.0
 11
808.2605650259343
 21
559.8876984016615
 31
0.0
  0
LINE
  5
1365
330
A
100
AcDbEntity
  8
MODEL
100
AcDbLine
 10
808.2605650259343
 20
489.8876984016615
 30
0.0
 11
798.2605650259343
 21
489.8876984016615
 31
0.0
  0
LINE
  5
1366
330
A
100
AcDbEntity
  8
MODEL
100
AcDbLine
 10
848.2605650259343
 20
508.8876984016615
 30
0.0
 11
808.2605650259343
 21
508.8876984016615
 31
0.0
  0
LINE
  5
1367
330
A
100
AcDbEntity
  8
MODEL
100
AcDbLine
 10
798.2605650259343
 20
508.8876984016615
 30
0.0
 11
572.2605650259379
 21
508.8876984016615
 31
0.0
  0
LINE
  5
1368
330
A
100
AcDbEntity
  8
MODEL
100
AcDbLine
 10
572.2605650259379
 20
540.8876984016615
 30
0.0
 11
798.2605650259343
 21
540.8876984016615
 31
0.0
  0
LINE
  5
1369
330
A
100
AcDbEntity
  8
MODEL
100
AcDbLine
 10
808.2605650259343
 20
540.8876984016615
 30
0.0
 11
848.2605650259343
 21
540.8876984016615
 31
0.0
  0
LINE
  5
136A
330
A
100
AcDbEntity
  8
MODEL
100
AcDbLine
 10
498.2605650259343
 20
554.8876984016615
 30
0.0
 11
498.2605650259343
 21
566.8876984016624
 31
0.0
  0
LINE
  5
136B
330
A
100
AcDbEntity
  8
MODEL
100
AcDbLine
 10
548.2605650259343
 20
566.8876984016624
 30
0.0
 11
548.2605650259343
 21
554.8876984016615
 31
0.0
  0
LINE
  5
136C
330
A
100
AcDbEntity
  8
MODEL
100
AcDbLine
 10
548.2605650259343
 20
704.8876984016615
 30
0.0
 11
548.2605650259343
 21
692.8876984016615
 31
0.0
  0
LINE
  5
136D
330
A
100
AcDbEntity
  8
MODEL
100
AcDbLine
 10
498.2605650259343
 20
692.8876984016615
 30
0.0
 11
498.2605650259343
 21
704.8876984016615
 31
0.0
  0
LINE
  5
136E
330
A
100
AcDbEntity
  8
MODEL
100
AcDbLine
 10
539.2605650259343
 20
692.8876984016615
 30
0.0
 11
539.2605650259343
 21
566.8876984016624
 31
0.0
  0
LINE
  5
136F
330
A
100
AcDbEntity
  8
MODEL
100
AcDbLine
 10
507.2605650259379
 20
566.8876984016624
 30
0.0
 11
507.2605650259379
 21
692.8876984016615
 31
0.0
  0
LINE
  5
1370
330
A
100
AcDbEntity
  8
MODEL
100
AcDbLine
 10
548.2605650259343
 20
481.8876984016624
 30
0.0
 11
548.2605650259343
 21
479.8876984016624
 31
0.0
  0
LINE
  5
1371
330
A
100
AcDbEntity
  8
MODEL
100
AcDbLine
 10
498.2605650259343
 20
479.8876984016624
 30
0.0
 11
498.2605650259343
 21
481.8876984016624
 31
0.0
  0
LINE
  5
1372
330
A
100
AcDbEntity
  8
MODEL
100
AcDbLine
 10
548.2605650259343
 20
506.1815762672277
 30
0.0
 11
548.2605650259343
 21
481.8876984016624
 31
0.0
  0
LINE
  5
1373
330
A
100
AcDbEntity
  8
MODEL
100
AcDbLine
 10
548.2605650259343
 20
554.8876984016615
 30
0.0
 11
548.2605650259343
 21
543.5926241002126
 31
0.0
  0
LINE
  5
1374
330
A
100
AcDbEntity
  8
MODEL
100
AcDbLine
 10
498.2605650259343
 20
481.8876984016624
 30
0.0
 11
498.2605650259343
 21
554.8876984016615
 31
0.0
  0
LINE
  5
1375
330
A
100
AcDbEntity
  8
MODEL
100
AcDbLine
 10
572.2605650259379
 20
506.1376984016615
 30
0.0
 11
548.2276761726703
 21
506.1376984016615
 31
0.0
  0
LINE
  5
1376
330
A
100
AcDbEntity
  8
MODEL
100
AcDbLine
 10
548.2267771594984
 20
543.6376984016615
 30
0.0
 11
572.2605650259379
 21
543.6376984016615
 31
0.0
  0
LINE
  5
1377
330
A
100
AcDbEntity
  8
MODEL
100
AcDbLine
 10
808.2605650259343
 20
559.8876984016615
 30
0.0
 11
808.2605650259343
 21
489.8876984016615
 31
0.0
  0
LINE
  5
1378
330
A
100
AcDbEntity
  8
MODEL
100
AcDbLine
 10
798.2605650259343
 20
559.8876984016615
 30
0.0
 11
798.2605650259343
 21
489.8876984016615
 31
0.0
  0
LINE
  5
1379
330
A
100
AcDbEntity
  8
MODEL
100
AcDbLine
 10
848.2605650259343
 20
540.8876984016615
 30
0.0
 11
848.2605650259343
 21
508.8876984016615
 31
0.0
  0
LINE
  5
137A
330
A
100
AcDbEntity
  8
MODEL
100
AcDbLine
 10
498.2605650259343
 20
554.8876984016615
 30
0.0
 11
548.2605650259343
 21
554.8876984016615
 31
0.0
  0
LINE
  5
137B
330
A
100
AcDbEntity
  8
MODEL
100
AcDbLine
 10
498.2605650259343
 20
566.8876984016624
 30
0.0
 11
548.2605650259343
 21
566.8876984016624
 31
0.0
  0
LINE
  5
137C
330
A
100
AcDbEntity
  8
MODEL
100
AcDbLine
 10
548.2605650259343
 20
692.8876984016615
 30
0.0
 11
498.2605650259343
 21
692.8876984016615
 31
0.0
  0
LINE
  5
137D
330
A
100
AcDbEntity
  8
MODEL
100
AcDbLine
 10
548.2605650259343
 20
704.8876984016615
 30
0.0
 11
498.2605650259343
 21
704.8876984016615
 31
0.0
  0
LINE
  5
137E
330
A
100
AcDbEntity
  8
MODEL
100
AcDbLine
 10
548.2605650259343
 20
479.8876984016624
 30
0.0
 11
498.2605650259343
 21
479.8876984016624
 31
0.0
  0
LINE
  5
137F
330
A
100
AcDbEntity
  8
MODEL
100
AcDbLine
 10
548.2605650259343
 20
482.3876984016624
 30
0.0
 11
498.2605650259343
 21
482.3876984016624
 31
0.0
  0
SPLINE
  5
1380
330
A
100
AcDbEntity
  8
MODEL
100
AcDbSpline
210
0.0
220
0.0
230
1.0
 70
     8
 71
     3
 72
    18
 73
    14
 74
     0
 42
0.000000001
 43
0.00000001
 40
0.0
 40
0.0
 40
0.0
 40
0.0
 40
0.0833723140695985
 40
0.1701496667051385
 40
0.2533254249669886
 40
0.3381911807456337
 40
0.4388768232724879
 40
0.5415662267383322
 40
0.6616753505868073
 40
0.786354907965827
 40
0.8705217000607324
 40
0.957039059001456
 40
1.0
 40
1.0
 40
1.0
 40
1.0
 10
539.7965107200894
 20
524.8876984016615
 30
0.0
 10
539.8360820523981
 20
525.7467405869729
 30
0.0
 10
539.9168408639803
 20
527.4999094074356
 30
0.0
 10
540.5219688878301
 20
530.0006471038969
 30
0.0
 10
541.3615102027711
 20
532.3461893946269
 30
0.0
 10
542.4192089910925
 20
534.6282390327606
 30
0.0
 10
543.6419628314275
 20
536.847251679209
 30
0.0
 10
545.0101306266938
 20
539.0462428425681
 30
0.0
 10
546.3576660096319
 20
541.0313414434959
 30
0.0
 10
547.3812875411263
 20
542.4527854997605
 30
0.0
 10
547.9829216133207
 20
543.2671389845882
 30
0.0
 10
548.2516543046681
 20
543.6258288136823
 30
0.0
 10
548.2329749471414
 20
543.6008966124809
 30
0.0
 10
548.2267771303909
 20
543.5926241002126
 30
0.0
  0
SPLINE
  5
1381
330
A
100
AcDbEntity
  8
MODEL
100
AcDbSpline
210
0.0
220
0.0
230
1.0
 70
     8
 71
     3
 72
    19
 73
    15
 74
     0
 42
0.000000001
 43
0.00000001
 40
0.0
 40
0.0
 40
0.0
 40
0.0
 40
0.0477856044158641
 40
0.1342602894841505
 40
0.2160171280843009
 40
0.2997094016837087
 40
0.3909243945036037
 40
0.4840052043424292
 40
0.5931648284884409
 40
0.7049008273379327
 40
0.7904116159404782
 40
0.8778982920256219
 40
0.9383176204359582
 40
1.0
 40
1.0
 40
1.0
 40
1.0
 10
548.2276748351128
 20
506.1815762672277
 30
0.0
 10
548.2320211267711
 20
506.1757695542719
 30
0.0
 10
548.2442326365622
 20
506.1594547880995
 30
0.0
 10
547.9630501565975
 20
506.5349487624999
 30
0.0
 10
547.4393333114735
 20
507.2444286317705
 30
0.0
 10
546.6886153757755
 20
508.2843700787516
 30
0.0
 10
545.7333296509155
 20
509.6555938595584
 30
0.0
 10
544.5517013006743
 20
511.447232024434
 30
0.0
 10
543.2104055147634
 20
513.6643352339424
 30
0.0
 10
541.9307003685303
 20
516.1240238115779
 30
0.0
 10
540.8863203568894
 20
518.6476144905691
 30
0.0
 10
540.2318618621125
 20
520.8857444295782
 30
0.0
 10
539.860269653173
 20
522.9947715669341
 30
0.0
 10
539.8179097582965
 20
524.2523864273198
 30
0.0
 10
539.7965107200894
 20
524.8876984016615
 30
0.0
  0
LINE
  5
1382
330
A
100
AcDbEntity
  8
MODEL
100
AcDbLine
 10
572.2605650259379
 20
524.8876984016615
 30
0.0
 11
572.2605650259379
 21
543.6376984016615
 31
0.0
  0
LINE
  5
1383
330
A
100
AcDbEntity
  8
MODEL
100
AcDbLine
 10
572.2605650259379
 20
506.1376984016615
 30
0.0
 11
572.2605650259379
 21
524.8876984016615
 31
0.0
  0
LINE
  5
1384
330
A
100
AcDbEntity
  8
MODEL
100
AcDbLine
 10
315.2706181502494
 20
554.8876984016615
 30
0.0
 11
315.2706181502494
 21
566.8876984016624
 31
0.0
  0
LINE
  5
1385
330
A
100
AcDbEntity
  8
MODEL
100
AcDbLine
 10
265.2706181502494
 20
566.8876984016624
 30
0.0
 11
265.2706181502494
 21
554.8876984016615
 31
0.0
  0
LINE
  5
1386
330
A
100
AcDbEntity
  8
MODEL
100
AcDbLine
 10
265.2706181502494
 20
704.8876984016615
 30
0.0
 11
265.2706181502494
 21
692.8876984016615
 31
0.0
  0
LINE
  5
1387
330
A
100
AcDbEntity
  8
MODEL
100
AcDbLine
 10
315.2706181502494
 20
692.8876984016615
 30
0.0
 11
315.2706181502494
 21
704.8876984016615
 31
0.0
  0
LINE
  5
1388
330
A
100
AcDbEntity
  8
MODEL
100
AcDbLine
 10
274.2706181502422
 20
692.8876984016615
 30
0.0
 11
274.2706181502422
 21
566.8876984016624
 31
0.0
  0
LINE
  5
1389
330
A
100
AcDbEntity
  8
MODEL
100
AcDbLine
 10
306.2706181502458
 20
566.8876984016624
 30
0.0
 11
306.2706181502458
 21
692.8876984016615
 31
0.0
  0
LINE
  5
138A
330
A
100
AcDbEntity
  8
MODEL
100
AcDbLine
 10
265.2706181502494
 20
481.8876984016624
 30
0.0
 11
265.2706181502494
 21
479.8876984016624
 31
0.0
  0
LINE
  5
138B
330
A
100
AcDbEntity
  8
MODEL
100
AcDbLine
 10
315.2706181502494
 20
479.8876984016624
 30
0.0
 11
315.2706181502494
 21
481.8876984016624
 31
0.0
  0
LINE
  5
138C
330
A
100
AcDbEntity
  8
MODEL
100
AcDbLine
 10
265.2706181502494
 20
554.8876984016615
 30
0.0
 11
265.2706181502494
 21
549.3825958294938
 31
0.0
  0
LINE
  5
138D
330
A
100
AcDbEntity
  8
MODEL
100
AcDbLine
 10
265.2706181502494
 20
500.3928009738311
 30
0.0
 11
265.2706181502494
 21
481.8876984016624
 31
0.0
  0
LINE
  5
138E
330
A
100
AcDbEntity
  8
MODEL
100
AcDbLine
 10
315.2706181502494
 20
481.8876984016624
 30
0.0
 11
315.2706181502494
 21
500.3928009738293
 31
0.0
  0
LINE
  5
138F
330
A
100
AcDbEntity
  8
MODEL
100
AcDbLine
 10
315.2706181502494
 20
549.3825958294947
 30
0.0
 11
315.2706181502494
 21
554.8876984016615
 31
0.0
  0
CIRCLE
  5
1390
330
A
100
AcDbEntity
  8
MODEL
100
AcDbCircle
 10
290.2706181502494
 20
524.8876984016615
 30
0.0
 40
34.49999999999989
  0
CIRCLE
  5
1391
330
A
100
AcDbEntity
  8
MODEL
100
AcDbCircle
 10
290.2706181502494
 20
524.8876984016615
 30
0.0
 40
35.0
  0
LINE
  5
1392
330
A
100
AcDbEntity
  8
MODEL
100
AcDbLine
 10
274.4263290503791
 20
522.6609287863012
 30
0.0
 11
273.9311950160104
 21
522.5913422358208
 31
0.0
  0
SPLINE
  5
1393
330
A
100
AcDbEntity
  8
MODEL
100
AcDbSpline
210
0.0
220
0.0
230
1.0
 70
     8
 71
     3
 72
    12
 73
     8
 74
     0
 42
0.000000001
 43
0.00000001
 40
0.0
 40
0.0
 40
0.0
 40
0.0
 40
0.2143497681795033
 40
0.4287029860488824
 40
0.6429151547894586
 40
0.8565804980658616
 40
0.9999999999999999
 40
0.9999999999999999
 40
0.9999999999999999
 40
0.9999999999999999
 10
273.9311950160104
 20
522.5913422358208
 30
0.0
 10
273.9280481846022
 20
522.6132195444543
 30
0.0
 10
273.9217544711487
 20
522.6569745138104
 30
0.0
 10
273.8771338097781
 20
522.9987627170449
 30
0.0
 10
273.8257033026189
 20
523.5030656811177
 30
0.0
 10
273.7870670093057
 20
524.0656276341051
 30
0.0
 10
273.7772631053508
 20
524.4388923000306
 30
0.0
 10
273.7733254668915
 20
524.5888102626504
 30
0.0
  0
LINE
  5
1394
330
A
100
AcDbEntity
  8
MODEL
100
AcDbLine
 10
292.4973877656071
 20
509.0434093017966
 30
0.0
 11
292.5669743160856
 21
508.5482752674261
 31
0.0
  0
SPLINE
  5
1395
330
A
100
AcDbEntity
  8
MODEL
100
AcDbSpline
210
0.0
220
0.0
230
1.0
 70
     8
 71
     3
 72
    12
 73
     8
 74
     0
 42
0.000000001
 43
0.00000001
 40
0.0
 40
0.0
 40
0.0
 40
0.0
 40
0.2143497681795033
 40
0.4287029860488824
 40
0.6429151547894586
 40
0.8565804980658613
 40
0.9999999999999999
 40
0.9999999999999999
 40
0.9999999999999999
 40
0.9999999999999999
 10
292.5669743160856
 20
508.5482752674261
 30
0.0
 10
292.5450970074548
 20
508.5451284360215
 30
0.0
 10
292.5013420380988
 20
508.5388347225644
 30
0.0
 10
292.1595538348615
 20
508.4942140611938
 30
0.0
 10
291.6552508707887
 20
508.4427835540346
 30
0.0
 10
291.0926889178068
 20
508.4041472607232
 30
0.0
 10
290.7194242518804
 20
508.3943433567702
 30
0.0
 10
290.5695062892578
 20
508.3904057183054
 30
0.0
  0
LINE
  5
1396
330
A
100
AcDbEntity
  8
MODEL
100
AcDbLine
 10
288.0438485348845
 20
540.7319875015282
 30
0.0
 11
287.9742619844023
 21
541.2271215358987
 31
0.0
  0
SPLINE
  5
1397
330
A
100
AcDbEntity
  8
MODEL
100
AcDbSpline
210
0.0
220
0.0
230
1.0
 70
     8
 71
     3
 72
    12
 73
     8
 74
     0
 42
0.000000001
 43
0.00000001
 40
0.0
 40
0.0
 40
0.0
 40
0.0
 40
0.2143497681795033
 40
0.4287029860488824
 40
0.6429151547894586
 40
0.8565804980658613
 40
0.9999999999999999
 40
0.9999999999999999
 40
0.9999999999999999
 40
0.9999999999999999
 10
287.9742619844023
 20
541.2271215358987
 30
0.0
 10
287.9961392930404
 20
541.2302683673042
 30
0.0
 10
288.0398942623965
 20
541.2365620807595
 30
0.0
 10
288.3816824656301
 20
541.281182742131
 30
0.0
 10
288.8859854297029
 20
541.3326132492894
 30
0.0
 10
289.4485473826885
 20
541.3712495426007
 30
0.0
 10
289.8218120486113
 20
541.3810534465547
 30
0.0
 10
289.9717300112338
 20
541.3849910850195
 30
0.0
  0
LINE
  5
1398
330
A
100
AcDbEntity
  8
MODEL
100
AcDbLine
 10
306.1149072501125
 20
527.1144680170228
 30
0.0
 11
306.6100412844849
 21
527.1840545675032
 31
0.0
  0
SPLINE
  5
1399
330
A
100
AcDbEntity
  8
MODEL
100
AcDbSpline
210
0.0
220
0.0
230
1.0
 70
     8
 71
     3
 72
    12
 73
     8
 74
     0
 42
0.000000001
 43
0.00000001
 40
0.0
 40
0.0
 40
0.0
 40
0.0
 40
0.2143497681795034
 40
0.4287029860488824
 40
0.6429151547894588
 40
0.8565804980658618
 40
1.0
 40
1.0
 40
1.0
 40
1.0
 10
306.6100412844849
 20
527.1840545675032
 30
0.0
 10
306.6131881158894
 20
527.1621772588687
 30
0.0
 10
306.6194818293429
 20
527.1184222895126
 30
0.0
 10
306.6641024907171
 20
526.776634086279
 30
0.0
 10
306.7155329978727
 20
526.2723311222062
 30
0.0
 10
306.7541692911823
 20
525.7097691692206
 30
0.0
 10
306.7639731951372
 20
525.3365045032942
 30
0.0
 10
306.7679108336038
 20
525.1865865406735
 30
0.0
  0
SPLINE
  5
139A
330
A
100
AcDbEntity
  8
MODEL
100
AcDbSpline
210
0.0
220
0.0
230
1.0
 70
     8
 71
     3
 72
    12
 73
     8
 74
     0
 42
0.000000001
 43
0.00000001
 40
0.0
 40
0.0
 40
0.0
 40
0.0
 40
0.214249962629432
 40
0.4285450548860241
 40
0.6420229910737009
 40
0.8558588622490438
 40
1.0
 40
1.0
 40
1.0
 40
1.0
 10
273.7733254668915
 20
525.1865865406735
 30
0.0
 10
273.7801427990366
 20
525.4112325487695
 30
0.0
 10
273.793778899339
 20
525.8605718844128
 30
0.0
 10
273.8430080159874
 20
526.4582410812773
 30
0.0
 10
273.8933953036963
 20
526.9083707762466
 30
0.0
 10
273.9262628572019
 20
527.1491426370922
 30
0.0
 10
273.9297791600316
 20
527.1740325330411
 30
0.0
 10
273.9311950160104
 20
527.1840545675032
 30
0.0
  0
LINE
  5
139B
330
A
100
AcDbEntity
  8
MODEL
100
AcDbLine
 10
273.9311950160104
 20
527.1840545675032
 30
0.0
 11
274.4263290503791
 21
527.1144680170228
 31
0.0
  0
LINE
  5
139C
330
A
100
AcDbEntity
  8
MODEL
100
AcDbLine
 10
292.5669743160856
 20
541.2271215358987
 30
0.0
 11
292.4973877656071
 21
540.7319875015282
 31
0.0
  0
SPLINE
  5
139D
330
A
100
AcDbEntity
  8
MODEL
100
AcDbSpline
210
0.0
220
0.0
230
1.0
 70
     8
 71
     3
 72
    12
 73
     8
 74
     0
 42
0.000000001
 43
0.00000001
 40
0.0
 40
0.0
 40
0.0
 40
0.0
 40
0.2142499626294321
 40
0.4285450548860242
 40
0.6420229910737009
 40
0.8558588622490438
 40
1.0
 40
1.0
 40
1.0
 40
1.0
 10
290.5695062892578
 20
541.3849910850195
 30
0.0
 10
290.7941522973547
 20
541.3781737528707
 30
0.0
 10
291.2434916330008
 20
541.3645376525683
 30
0.0
 10
291.8411608298579
 20
541.3153085359236
 30
0.0
 10
292.291290524829
 20
541.2649212482129
 30
0.0
 10
292.5320623856737
 20
541.2320536947054
 30
0.0
 10
292.5569522816245
 20
541.2285373918812
 30
0.0
 10
292.5669743160856
 20
541.2271215358987
 30
0.0
  0
LINE
  5
139E
330
A
100
AcDbEntity
  8
MODEL
100
AcDbLine
 10
287.9742619844023
 20
508.5482752674261
 30
0.0
 11
288.0438485348845
 21
509.0434093017966
 31
0.0
  0
SPLINE
  5
139F
330
A
100
AcDbEntity
  8
MODEL
100
AcDbSpline
210
0.0
220
0.0
230
1.0
 70
     8
 71
     3
 72
    12
 73
     8
 74
     0
 42
0.000000001
 43
0.00000001
 40
0.0
 40
0.0
 40
0.0
 40
0.0
 40
0.2142499626294321
 40
0.4285450548860242
 40
0.6420229910737009
 40
0.8558588622490438
 40
1.0
 40
1.0
 40
1.0
 40
1.0
 10
289.9717300112338
 20
508.3904057183054
 30
0.0
 10
289.7470840031369
 20
508.3972230504542
 30
0.0
 10
289.2977446674981
 20
508.4108591507566
 30
0.0
 10
288.7000754706337
 20
508.4600882674013
 30
0.0
 10
288.2499457756626
 20
508.510475555112
 30
0.0
 10
288.0091739148143
 20
508.5433431086194
 30
0.0
 10
287.9842840188708
 20
508.5468594114436
 30
0.0
 10
287.9742619844023
 20
508.5482752674261
 30
0.0
  0
LINE
  5
13A0
330
A
100
AcDbEntity
  8
MODEL
100
AcDbLine
 10
306.6100412844849
 20
522.5913422358208
 30
0.0
 11
306.1149072501125
 21
522.6609287863012
 31
0.0
  0
SPLINE
  5
13A1
330
A
100
AcDbEntity
  8
MODEL
100
AcDbSpline
210
0.0
220
0.0
230
1.0
 70
     8
 71
     3
 72
    12
 73
     8
 74
     0
 42
0.000000001
 43
0.00000001
 40
0.0
 40
0.0
 40
0.0
 40
0.0
 40
0.2142499626294321
 40
0.4285450548860241
 40
0.6420229910737008
 40
0.8558588622490437
 40
1.0
 40
1.0
 40
1.0
 40
1.0
 10
306.7679108336038
 20
524.5888102626504
 30
0.0
 10
306.761093501455
 20
524.3641642545545
 30
0.0
 10
306.7474574011526
 20
523.914824918912
 30
0.0
 10
306.6982282845079
 20
523.3171557220485
 30
0.0
 10
306.6478409967954
 20
522.8670260270783
 30
0.0
 10
306.6149734432897
 20
522.6262541662336
 30
0.0
 10
306.6114571404673
 20
522.6013642702846
 30
0.0
 10
306.6100412844849
 20
522.5913422358208
 30
0.0
  0
ARC
  5
13A2
330
A
100
AcDbEntity
  8
MODEL
100
AcDbCircle
 10
290.2706181502494
 20
524.8876984016615
 30
0.0
 40
16.49999999999963
100
AcDbArc
 50
178.9620626910827
 51
181.0379373089142
  0
ARC
  5
13A3
330
A
100
AcDbEntity
  8
MODEL
100
AcDbCircle
 10
290.2706181502494
 20
524.8876984016615
 30
0.0
 40
16.5000000000002
100
AcDbArc
 50
268.9620626910701
 51
271.0379373089047
  0
ARC
  5
13A4
330
A
100
AcDbEntity
  8
MODEL
100
AcDbCircle
 10
290.2706181502494
 20
524.8876984016615
 30
0.0
 40
16.49999999999963
100
AcDbArc
 50
88.96206269109531
 51
91.03793730893
  0
ARC
  5
13A5
330
A
100
AcDbEntity
  8
MODEL
100
AcDbCircle
 10
290.2706181502494
 20
524.8876984016615
 30
0.0
 40
16.5000000000002
100
AcDbArc
 50
358.9620626910855
 51
1.037937308917702
  0
ARC
  5
13A6
330
A
100
AcDbEntity
  8
MODEL
100
AcDbCircle
 10
290.2706181502494
 20
524.8876984016615
 30
0.0
 40
16.49999999999985
100
AcDbArc
 50
98.00000000002117
 51
171.9999999999996
  0
ARC
  5
13A7
330
A
100
AcDbEntity
  8
MODEL
100
AcDbCircle
 10
290.2706181502494
 20
524.8876984016615
 30
0.0
 40
16.50000000000034
100
AcDbArc
 50
8.000000000002244
 51
82.00000000001735
  0
ARC
  5
13A8
330
A
100
AcDbEntity
  8
MODEL
100
AcDbCircle
 10
290.2706181502494
 20
524.8876984016615
 30
0.0
 40
16.50000000000042
100
AcDbArc
 50
187.9999999999973
 51
261.9999999999791
  0
ARC
  5
13A9
330
A
100
AcDbEntity
  8
MODEL
100
AcDbCircle
 10
290.2706181502494
 20
524.8876984016615
 30
0.0
 40
16.50000000000049
100
AcDbArc
 50
277.9999999999842
 51
352.0000000000011
  0
CIRCLE
  5
13AA
330
A
100
AcDbEntity
  8
MODEL
100
AcDbCircle
 10
290.2706181502494
 20
524.8876984016615
 30
0.0
 40
15.50000000000006
  0
CIRCLE
  5
13AB
330
A
100
AcDbEntity
  8
MODEL
100
AcDbCircle
 10
290.2706181502494
 20
524.8876984016615
 30
0.0
 40
15.9999999999998
  0
LINE
  5
13AC
330
A
100
AcDbEntity
  8
MODEL
100
AcDbLine
 10
272.2428617729297
 20
554.8876984016615
 30
0.0
 11
265.2706181502494
 21
554.8876984016615
 31
0.0
  0
LINE
  5
13AD
330
A
100
AcDbEntity
  8
MODEL
100
AcDbLine
 10
315.2706181502494
 20
554.8876984016615
 30
0.0
 11
308.2983745275656
 21
554.8876984016615
 31
0.0
  0
LINE
  5
13AE
330
A
100
AcDbEntity
  8
MODEL
100
AcDbLine
 10
276.5970146851491
 20
566.8876984016624
 30
0.0
 11
265.2706181502494
 21
566.8876984016624
 31
0.0
  0
LINE
  5
13AF
330
A
100
AcDbEntity
  8
MODEL
100
AcDbLine
 10
315.2706181502494
 20
566.8876984016624
 30
0.0
 11
276.5970146851491
 21
566.8876984016624
 31
0.0
  0
LINE
  5
13B0
330
A
100
AcDbEntity
  8
MODEL
100
AcDbLine
 10
265.2706181502494
 20
704.8876984016615
 30
0.0
 11
315.2706181502494
 21
704.8876984016615
 31
0.0
  0
LINE
  5
13B1
330
A
100
AcDbEntity
  8
MODEL
100
AcDbLine
 10
265.2706181502494
 20
692.8876984016615
 30
0.0
 11
315.2706181502494
 21
692.8876984016615
 31
0.0
  0
LINE
  5
13B2
330
A
100
AcDbEntity
  8
MODEL
100
AcDbLine
 10
265.2706181502494
 20
479.8876984016624
 30
0.0
 11
315.2706181502494
 21
479.8876984016624
 31
0.0
  0
LINE
  5
13B3
330
A
100
AcDbEntity
  8
MODEL
100
AcDbLine
 10
265.2706181502494
 20
482.3876984016624
 30
0.0
 11
315.2706181502494
 21
482.3876984016624
 31
0.0
  0
LINE
  5
13B4
330
A
100
AcDbEntity
  8
MODEL
100
AcDbLine
 10
283.4882881671206
 20
538.8250582664286
 30
0.0
 11
283.4882881671206
 21
538.2667865619223
 31
0.0
  0
LINE
  5
13B5
330
A
100
AcDbEntity
  8
MODEL
100
AcDbLine
 10
297.052948133371
 20
538.2667865619223
 30
0.0
 11
297.052948133371
 21
538.8250582664286
 31
0.0
  0
LINE
  5
13B6
330
A
100
AcDbEntity
  8
MODEL
100
AcDbLine
 10
297.052948133371
 20
510.9503385368944
 30
0.0
 11
297.052948133371
 21
511.5086102414034
 31
0.0
  0
LINE
  5
13B7
330
A
100
AcDbEntity
  8
MODEL
100
AcDbLine
 10
283.4882881671206
 20
511.5086102414034
 30
0.0
 11
283.4882881671206
 21
510.9503385368962
 31
0.0
  0
ARC
  5
13B8
330
A
100
AcDbEntity
  8
MODEL
100
AcDbCircle
 10
290.2706181502494
 20
524.8876984016615
 30
0.0
 40
14.99999999999993
100
AcDbArc
 50
116.8820521398499
 51
243.1179478601443
  0
ARC
  5
13B9
330
A
100
AcDbEntity
  8
MODEL
100
AcDbCircle
 10
290.2706181502494
 20
524.8876984016615
 30
0.0
 40
15.00000000000018
100
AcDbArc
 50
296.8820521398279
 51
63.11794786017399
  0
LINE
  5
13BA
330
A
100
AcDbEntity
  8
MODEL
100
AcDbLine
 10
255.2706181502494
 20
998.8995689021986
 30
0.0
 11
255.2706181502494
 21
988.8995689021986
 31
0.0
  0
LINE
  5
13BB
330
A
100
AcDbEntity
  8
MODEL
100
AcDbLine
 10
325.2706181502494
 20
988.8995689021986
 30
0.0
 11
325.2706181502494
 21
998.8995689021986
 31
0.0
  0
LINE
  5
13BC
330
A
100
AcDbEntity
  8
MODEL
100
AcDbLine
 10
306.2706181502494
 20
948.8995689021986
 30
0.0
 11
306.2706181502494
 21
988.8995689021986
 31
0.0
  0
LINE
  5
13BD
330
A
100
AcDbEntity
  8
MODEL
100
AcDbLine
 10
306.2706181502494
 20
998.8995689021986
 30
0.0
 11
306.2706181502494
 21
1224.899568902195
 31
0.0
  0
LINE
  5
13BE
330
A
100
AcDbEntity
  8
MODEL
100
AcDbLine
 10
274.2706181502485
 20
1224.899568902195
 30
0.0
 11
274.2706181502485
 21
998.8995689021986
 31
0.0
  0
LINE
  5
13BF
330
A
100
AcDbEntity
  8
MODEL
100
AcDbLine
 10
274.2706181502485
 20
988.8995689021986
 30
0.0
 11
274.2706181502485
 21
948.8995689021986
 31
0.0
  0
LINE
  5
13C0
330
A
100
AcDbEntity
  8
MODEL
100
AcDbLine
 10
309.0206181502494
 20
1224.899568902195
 30
0.0
 11
309.0206181502494
 21
1257.36362320804
 31
0.0
  0
LINE
  5
13C1
330
A
100
AcDbEntity
  8
MODEL
100
AcDbLine
 10
271.5206181502494
 20
1234.901451477229
 30
0.0
 11
271.5206181502494
 21
1224.899568902195
 31
0.0
  0
LINE
  5
13C2
330
A
100
AcDbEntity
  8
MODEL
100
AcDbLine
 10
271.5206181502494
 20
1237.521377658527
 30
0.0
 11
271.5206181502494
 21
1237.117200365604
 31
0.0
  0
LINE
  5
13C3
330
A
100
AcDbEntity
  8
MODEL
100
AcDbLine
 10
271.5206181502494
 20
1241.214647328024
 30
0.0
 11
271.5206181502494
 21
1240.552815040975
 31
0.0
  0
LINE
  5
13C4
330
A
100
AcDbEntity
  8
MODEL
100
AcDbLine
 10
271.5206181502494
 20
1242.760952722719
 30
0.0
 11
271.5206181502494
 21
1241.623587597686
 31
0.0
  0
LINE
  5
13C5
330
A
100
AcDbEntity
  8
MODEL
100
AcDbLine
 10
271.5206181502494
 20
1243.86896520143
 30
0.0
 11
271.5206181502494
 21
1243.169892992385
 31
0.0
  0
LINE
  5
13C6
330
A
100
AcDbEntity
  8
MODEL
100
AcDbLine
 10
271.5206181502494
 20
1257.342207332998
 30
0.0
 11
271.5206181502494
 21
1244.897705567314
 31
0.0
  0
LINE
  5
13C7
330
A
100
AcDbEntity
  8
MODEL
100
AcDbLine
 10
271.5206181502494
 20
1238.549974195838
 30
0.0
 11
271.5206181502494
 21
1237.521377658527
 31
0.0
  0
LINE
  5
13C8
330
A
100
AcDbEntity
  8
MODEL
100
AcDbLine
 10
271.5206181502494
 20
1240.552815040975
 30
0.0
 11
271.5206181502494
 21
1239.517684983341
 31
0.0
  0
LINE
  5
13C9
330
A
100
AcDbEntity
  8
MODEL
100
AcDbLine
 10
271.5206181502494
 20
1244.897705567314
 30
0.0
 11
271.5206181502494
 21
1243.86896520143
 31
0.0
  0
LINE
  5
13CA
330
A
100
AcDbEntity
  8
MODEL
100
AcDbLine
 10
271.5206181502494
 20
1237.117200365604
 30
0.0
 11
271.5206181502494
 21
1234.901451477229
 31
0.0
  0
LINE
  5
13CB
330
A
100
AcDbEntity
  8
MODEL
100
AcDbLine
 10
271.5206181502494
 20
1241.623587597686
 30
0.0
 11
271.5206181502494
 21
1241.214647328024
 31
0.0
  0
LINE
  5
13CC
330
A
100
AcDbEntity
  8
MODEL
100
AcDbLine
 10
271.5206181502494
 20
1243.169892992385
 30
0.0
 11
271.5206181502494
 21
1242.760952722719
 31
0.0
  0
LINE
  5
13CD
330
A
100
AcDbEntity
  8
MODEL
100
AcDbLine
 10
271.5206181502494
 20
1239.517684983341
 30
0.0
 11
271.5206181502494
 21
1238.549974195838
 31
0.0
  0
LINE
  5
13CE
330
A
100
AcDbEntity
  8
MODEL
100
AcDbLine
 10
255.2706181502494
 20
988.8995689021986
 30
0.0
 11
325.2706181502494
 21
988.8995689021986
 31
0.0
  0
LINE
  5
13CF
330
A
100
AcDbEntity
  8
MODEL
100
AcDbLine
 10
255.2706181502494
 20
998.8995689021986
 30
0.0
 11
325.2706181502494
 21
998.8995689021986
 31
0.0
  0
LINE
  5
13D0
330
A
100
AcDbEntity
  8
MODEL
100
AcDbLine
 10
274.2706181502485
 20
948.8995689021986
 30
0.0
 11
306.2706181502494
 21
948.8995689021986
 31
0.0
  0
CIRCLE
  5
13D1
330
A
100
AcDbEntity
  8
MODEL
100
AcDbCircle
 10
290.2706181502494
 20
1273.899568902199
 30
0.0
 40
16.0000000000008
  0
CIRCLE
  5
13D2
330
A
100
AcDbEntity
  8
MODEL
100
AcDbCircle
 10
290.2706181502494
 20
1273.899568902199
 30
0.0
 40
13.50000000000023
  0
CIRCLE
  5
13D3
330
A
100
AcDbEntity
  8
MODEL
100
AcDbCircle
 10
290.2706181502494
 20
1273.899568902199
 30
0.0
 40
22.49999999999943
  0
CIRCLE
  5
13D4
330
A
100
AcDbEntity
  8
MODEL
100
AcDbCircle
 10
290.2706181502494
 20
1273.899568902199
 30
0.0
 40
25.0
  0
CIRCLE
  5
13D5
330
A
100
AcDbEntity
  8
MODEL
100
AcDbCircle
 10
290.2706181502494
 20
1273.899568902199
 30
0.0
 40
20.99999999999966
  0
SPLINE
  5
13D6
330
A
100
AcDbEntity
  8
MODEL
100
AcDbSpline
210
0.0
220
0.0
230
1.0
 70
     8
 71
     3
 72
     9
 73
     5
 74
     0
 42
0.000000001
 43
0.00000001
 40
0.0
 40
0.0
 40
0.0
 40
0.0
 40
0.5014676863653065
 40
0.9999999999999999
 40
0.9999999999999999
 40
0.9999999999999999
 40
0.9999999999999999
 10
299.4202231594886
 20
1292.751538379548
 30
0.0
 10
299.5937673303365
 20
1292.668058685719
 30
0.0
 10
299.9398398202807
 20
1292.501587951728
 30
0.0
 10
300.2668755245727
 20
1292.30028027768
 30
0.0
 10
300.4299133908758
 20
1292.199921897184
 30
0.0
  0
LINE
  5
13D7
330
A
100
AcDbEntity
  8
MODEL
100
AcDbLine
 10
309.8495732591641
 20
1281.271348327254
 30
0.0
 11
310.0593177560463
 21
1280.793000044346
 31
0.0
  0
SPLINE
  5
13D8
330
A
100
AcDbEntity
  8
MODEL
100
AcDbSpline
210
0.0
220
0.0
230
1.0
 70
     8
 71
     3
 72
    16
 73
    12
 74
     0
 42
0.000000001
 43
0.00000001
 40
0.0
 40
0.0
 40
0.0
 40
0.0
 40
0.1029762396833685
 40
0.2059524790462526
 40
0.3113796356768493
 40
0.4249600243951631
 40
0.5417320820545949
 40
0.6570273213458988
 40
0.7755891039556394
 40
0.8863963306485664
 40
0.9999999999999999
 40
0.9999999999999999
 40
0.9999999999999999
 40
0.9999999999999999
 10
308.9977713610374
 20
1267.768556493896
 30
0.0
 10
309.3106424405673
 20
1268.721844395161
 30
0.0
 10
309.9363845986531
 20
1270.628420194725
 30
0.0
 10
310.3114433905962
 20
1273.651216944848
 30
0.0
 10
310.2516494805182
 20
1276.791380266594
 30
0.0
 10
309.6671319530583
 20
1280.020004558276
 30
0.0
 10
308.5255732986893
 20
1283.197924472225
 30
0.0
 10
306.8453580308001
 20
1286.184596136908
 30
0.0
 10
304.7259713367926
 20
1288.797825274462
 30
0.0
 10
302.2468183645437
 20
1291.05937471438
 30
0.0
 10
300.3702165027912
 20
1292.182817320795
 30
0.0
 10
299.4202231594886
 20
1292.751538379548
 30
0.0
  0
SPLINE
  5
13D9
330
A
100
AcDbEntity
  8
MODEL
100
AcDbSpline
210
0.0
220
0.0
230
1.0
 70
     8
 71
     3
 72
    11
 73
     7
 74
     0
 42
0.000000001
 43
0.00000001
 40
0.0
 40
0.0
 40
0.0
 40
0.0
 40
0.0861621312975911
 40
0.4327348951308534
 40
0.711944427962947
 40
1.0
 40
1.0
 40
1.0
 40
1.0
 10
301.7541420819448
 20
1258.169239785796
 30
0.0
 10
302.0378330107019
 20
1258.375271251113
 30
0.0
 10
303.4626232573705
 20
1259.410029830023
 30
0.0
 10
305.5346410019579
 20
1261.469963345303
 30
0.0
 10
307.6811234608799
 20
1264.536559166995
 30
0.0
 10
308.5543496429723
 20
1266.680081885527
 30
0.0
 10
308.9977713610374
 20
1267.768556493896
 30
0.0
  0
ARC
  5
13DA
330
A
100
AcDbEntity
  8
MODEL
100
AcDbCircle
 10
290.2706181502494
 20
1273.899568902199
 30
0.0
 40
19.47599999999998
100
AcDbArc
 50
306.1303558000952
 51
36.13701098461627
  0
SPLINE
  5
13DB
330
A
100
AcDbEntity
  8
MODEL
100
AcDbSpline
210
0.0
220
0.0
230
1.0
 70
     8
 71
     3
 72
    11
 73
     7
 74
     0
 42
0.000000001
 43
0.00000001
 40
0.0
 40
0.0
 40
0.0
 40
0.0
 40
0.0861933751499394
 40
0.4328687065536392
 40
0.7119783028103848
 40
1.0
 40
1.0
 40
1.0
 40
1.0
 10
296.4037623781537
 20
1292.626024050217
 30
0.0
 10
296.7329830677268
 20
1292.505413319145
 30
0.0
 10
298.386350670728
 20
1291.899698424412
 30
0.0
 10
300.9428648824537
 20
1290.487989885792
 30
0.0
 10
303.8494801408738
 20
1288.131544689125
 30
0.0
 10
305.2754329342265
 20
1286.310002953179
 30
0.0
 10
305.9996132931669
 20
1285.38491991094
 30
0.0
  0
LINE
  5
13DC
330
A
100
AcDbEntity
  8
MODEL
100
AcDbLine
 10
310.0593177560463
 20
1280.793000044346
 30
0.0
 11
310.4663129895375
 21
1279.212926270674
 31
0.0
  0
LWPOLYLINE
  5
13DD
330
A
100
AcDbEntity
  8
MODEL
100
AcDbPolyline
 90
       33
 70
   128
 43
0.0
 10
310.8844232760407
 20
1277.190564126403
 10
311.1345673509945
 20
1274.893893391433
 10
311.0213004920447
 20
1271.825698591362
 10
310.3512886085923
 20
1268.419760336511
 10
309.0801212972469
 20
1265.080665499388
 10
307.3249449608506
 20
1262.104698483135
 10
305.0288276930819
 20
1259.389869057112
 10
302.3923248274118
 20
1257.173115538834
 10
299.3328949313886
 20
1255.38168068414
 10
296.1228974695882
 20
1254.171061501865
 10
292.656293122986
 20
1253.500222237018
 10
289.2403832842679
 20
1253.426516689703
 10
285.762217346783
 20
1253.943834261162
 10
282.5252511082631
 20
1255.004840629798
 10
279.4258331472579
 20
1256.644113462688
 10
276.7404150236957
 20
1258.711128972988
 10
274.3740604048185
 20
1261.272974808421
 10
272.5303524615051
 20
1264.108426984375
 10
271.1533688372169
 20
1267.306083077602
 10
270.363638469446
 20
1270.572882378224
 10
270.1259825758302
 20
1273.922032298787
 10
270.465769720397
 20
1277.360789383337
 10
271.3520904103093
 20
1280.586817736309
 10
272.8108098661601
 20
1283.705903354589
 10
274.7109712573297
 20
1286.444768377239
 10
277.1146404837277
 20
1288.893079078081
 10
279.8050870184875
 20
1290.834334977238
 10
282.8707926026004
 20
1292.337565879157
 10
286.0448839874939
 20
1293.273488698368
 10
289.427975028932
 20
1293.670643450067
 10
292.9060055757714
 20
1293.470253374581
 10
296.4037623781537
 20
1292.626024050217
 10
296.4037623781537
 20
1292.626024050217
  0
CIRCLE
  5
13DE
330
A
100
AcDbEntity
  8
MODEL
100
AcDbCircle
 10
290.2706181502494
 20
1273.899568902199
 30
0.0
 40
20.976
  0
LINE
  5
13DF
330
A
100
AcDbEntity
  8
MODEL
100
AcDbLine
 10
299.4202231594868
 20
1292.751538379548
 30
0.0
 11
300.076417010981
 21
1292.357968457022
 31
0.0
  0
SPLINE
  5
13E0
330
A
100
AcDbEntity
  8
MODEL
100
AcDbSpline
210
0.0
220
0.0
230
1.0
 70
     8
 71
     3
 72
    29
 73
    25
 74
     0
 42
0.000000001
 43
0.00000001
 40
0.0
 40
0.0
 40
0.0
 40
0.0
 40
0.0403442985942817
 40
0.0801078983807121
 40
0.1264438512201649
 40
0.173002537070732
 40
0.2188847957717733
 40
0.2652529258199516
 40
0.3117969533601583
 40
0.3576640795141417
 40
0.4040623508120719
 40
0.4505896372385761
 40
0.4964456641617632
 40
0.542872032760692
 40
0.5893804997512475
 40
0.6352294637136995
 40
0.6816818782030111
 40
0.728169452467072
 40
0.7740153916190279
 40
0.8204917936590651
 40
0.8669564074850533
 40
0.9128033607820916
 40
0.9593016856415377
 40
1.0
 40
1.0
 40
1.0
 40
1.0
 10
308.9977713610374
 20
1267.768556493896
 30
0.0
 10
308.557002107877
 20
1266.632118233255
 30
0.0
 10
307.6818078481724
 20
1264.375599124695
 30
0.0
 10
305.5045452640511
 20
1261.211683060444
 30
0.0
 10
302.65307638479
 20
1258.375273077015
 30
0.0
 10
299.0953960392012
 20
1256.115288413036
 30
0.0
 10
295.1449928328079
 20
1254.653839454842
 30
0.0
 10
290.9742720667259
 20
1254.056595261115
 30
0.0
 10
286.7721356710194
 20
1254.356413218339
 30
0.0
 10
282.7276153342214
 20
1255.534975199739
 30
0.0
 10
279.0212940934211
 20
1257.538212061748
 30
0.0
 10
275.8237351650064
 20
1260.281266658324
 30
0.0
 10
273.2759026315457
 20
1263.636184819444
 30
0.0
 10
271.4909297218715
 20
1267.452412810789
 30
0.0
 10
270.5552847928443
 20
1271.560163382063
 30
0.0
 10
270.505705305301
 20
1275.772569299611
 30
0.0
 10
271.3438835694246
 20
1279.901401950367
 30
0.0
 10
273.038042410562
 20
1283.758648685333
 30
0.0
 10
275.5062682645225
 20
1287.172934570976
 30
0.0
 10
278.6377985466356
 20
1289.989707819966
 30
0.0
 10
282.296579927051
 20
1292.084770860683
 30
0.0
 10
286.3089327792609
 20
1293.34050683988
 30
0.0
 10
290.3412973680984
 20
1293.787185281472
 30
0.0
 10
292.9433508977668
 20
1293.365108245206
 30
0.0
 10
294.1578379866946
 20
1293.168107259168
 30
0.0
  0
SPLINE
  5
13E1
330
A
100
AcDbEntity
  8
MODEL
100
AcDbSpline
210
0.0
220
0.0
230
1.0
 70
     8
 71
     3
 72
    20
 73
    16
 74
     0
 42
0.000000001
 43
0.00000001
 40
0.0
 40
0.0
 40
0.0
 40
0.0
 40
0.0395078999324095
 40
0.1228786789721476
 40
0.2055178465542872
 40
0.2893525623106691
 40
0.3726599490504171
 40
0.455344483061709
 40
0.5391961735281616
 40
0.6224365434781757
 40
0.7051736697919354
 40
0.78903856571603
 40
0.8722083120172602
 40
0.9550052425505495
 40
1.0
 40
1.0
 40
1.0
 40
1.0
 10
302.5773639580434
 20
1258.654031447776
 30
0.0
 10
302.0769219453782
 20
1258.219507940125
 30
0.0
 10
300.520431888363
 20
1256.868039633949
 30
0.0
 10
297.3579181761584
 20
1255.385397751864
 30
0.0
 10
293.3111020289257
 20
1254.272477435833
 30
0.0
 10
289.0965056967639
 20
1254.080649000321
 30
0.0
 10
284.9430678991998
 20
1254.774190237048
 30
0.0
 10
281.0268312766943
 20
1256.328601960967
 30
0.0
 10
277.5273023147861
 20
1258.673377546657
 30
0.0
 10
274.6028807627358
 20
1261.706399550982
 30
0.0
 10
272.382522923222
 20
1265.285919074021
 30
0.0
 10
270.9647531711557
 20
1269.254610729794
 30
0.0
 10
270.4300553443586
 20
1273.428854290091
 30
0.0
 10
270.6946376874789
 20
1276.985129705355
 30
0.0
 10
271.262214445846
 20
1279.049307447739
 30
0.0
 10
271.462055131728
 20
1279.776093190362
 30
0.0
  0
SPLINE
  5
13E2
330
A
100
AcDbEntity
  8
MODEL
100
AcDbSpline
210
0.0
220
0.0
230
1.0
 70
     8
 71
     3
 72
    26
 73
    22
 74
     0
 42
0.000000001
 43
0.00000001
 40
0.0
 40
0.0
 40
0.0
 40
0.0
 40
0.0491245349879397
 40
0.0975404168982446
 40
0.1519523032996448
 40
0.2065706046965356
 40
0.2603945653974019
 40
0.3148418224247344
 40
0.3694404781946292
 40
0.423251414000885
 40
0.4777316430907613
 40
0.5323082143317577
 40
0.5861108617860603
 40
0.640621655618336
 40
0.6951737093334105
 40
0.7489728071847569
 40
0.8035117503078134
 40
0.8580368600470589
 40
0.9118371479894921
 40
0.9664018174508736
 40
1.0
 40
1.0
 40
1.0
 40
1.0
 10
301.7541420819448
 20
1258.169239785796
 30
0.0
 10
300.7048464499489
 20
1257.489285312921
 30
0.0
 10
298.6213919517145
 20
1256.139185148667
 30
0.0
 10
294.9455309293921
 20
1254.866050128015
 30
0.0
 10
290.9676217451256
 20
1254.285155039438
 30
0.0
 10
286.8124267220387
 20
1254.584341442446
 30
0.0
 10
282.8154666764426
 20
1255.748437012518
 30
0.0
 10
279.1521201372111
 20
1257.72857589835
 30
0.0
 10
275.9917940075461
 20
1260.439666838441
 30
0.0
 10
273.4735879624955
 20
1263.755575176242
 30
0.0
 10
271.7093814012737
 20
1267.527407014172
 30
0.0
 10
270.7846195232783
 20
1271.587376446555
 30
0.0
 10
270.7356166481736
 20
1275.750778991559
 30
0.0
 10
271.5640458847288
 20
1279.831599736041
 30
0.0
 10
273.238493827324
 20
1283.643915916739
 30
0.0
 10
275.6780221747472
 20
1287.018713661259
 30
0.0
 10
278.7730764009752
 20
1289.80186559404
 30
0.0
 10
282.389478738784
 20
1291.875744281621
 30
0.0
 10
286.3544876421661
 20
1293.105081846553
 30
0.0
 10
289.9806768238473
 20
1293.545285160403
 30
0.0
 10
292.1974932222533
 20
1293.202254341854
 30
0.0
 10
293.0423048445305
 20
1293.071527944064
 30
0.0
  0
LINE
  5
13E3
330
A
100
AcDbEntity
  8
MODEL
100
AcDbLine
 10
309.0206181502494
 20
1224.899568902195
 30
0.0
 11
271.5206181502494
 21
1224.899568902195
 31
0.0
  0
DIMENSION
  5
1444
330
A
100
AcDbEntity
  8
DIM
100
AcDbDimension
  2
*D28
 10
315.2706181502492
 20
1331.454213925355
 30
0.0
 11
290.2706181502494
 21
1331.454213925355
 31
0.0
 70
   160
 71
     5
 42
49.99999999999955
 73
     0
 74
     0
 75
     0
  3
tfrom線あり
100
AcDbAlignedDimension
 13
265.2706181502497
 23
1283.436309467006
 33
0.0
 14
315.2706181502492
 24
1283.436309467006
 34
0.0
100
AcDbRotatedDimension
1001
ACAD
1000
DSTYLE
1002
{
1070
     3
1000
ø<>
1002
}
  0
MTEXT
  5
1446
330
A
100
AcDbEntity
  8
TEMPLATE
390
1D
100
AcDbMText
 10
265.9439816224112
 20
745.3066192176007
 30
0.0
 40
12.0
 41
0.0
 46
13.704
 71
     1
 72
     1
  1
{G1 1/4"}
  7
ＭＳ ゴシック
 73
     1
 44
0.7828267384257843
1001
ACAD
1000
ACAD_MTEXT_DEFINED_HEIGHT_BEGIN
1070
    46
1040
13.704
1000
ACAD_MTEXT_DEFINED_HEIGHT_END
  0
MTEXT
  5
1447
330
A
100
AcDbEntity
  8
TEMPLATE
390
1D
100
AcDbMText
 10
295.3702188456425
 20
712.1990073271867
 30
0.0
 40
10.0
 41
0.0
 46
3.0
 71
     1
 72
     1
  1
{▲}
  7
ＭＳ ゴシック
 11
-1.0
 21
1.224646799147353E-16
 31
0.0
 73
     1
 44
0.7828267384257843
1001
ACAD
1000
ACAD_MTEXT_DEFINED_HEIGHT_BEGIN
1070
    46
1040
3.0
1000
ACAD_MTEXT_DEFINED_HEIGHT_END
  0
DIMENSION
  5
1448
330
A
100
AcDbEntity
  8
DIM
100
AcDbDimension
  2
*D29
 10
217.9869886926049
 20
479.8876984016624
 30
0.0
 11
217.9869886926049
 21
523.1376984016624
 31
0.0
 70
   160
 71
     5
 42
87.0
 73
     0
 74
     0
 75
     0
  3
tfrom線あり
100
AcDbAlignedDimension
 13
265.2706181502494
 23
566.8876984016624
 33
0.0
 14
265.2706181502494
 24
479.8876984016624
 34
0.0
 50
90.0
100
AcDbRotatedDimension
  0
DIMENSION
  5
1449
330
A
100
AcDbEntity
  8
DIM
100
AcDbDimension
  2
*D30
 10
265.2706181502499
 20
438.9238059395905
 30
0.0
 11
290.2706181502497
 21
438.9238059395905
 31
0.0
 70
   160
 71
     5
 42
49.99999999999955
 73
     0
 74
     0
 75
     0
 52
-270.0
  3
tfrom線あり
100
AcDbAlignedDimension
 13
315.2706181502494
 23
483.9611795312757
 33
0.0
 14
265.2706181502499
 24
483.9611795312757
 34
0.0
 50
180.0
100
AcDbRotatedDimension
1001
ACAD
1000
DSTYLE
1002
{
1070
     3
1000
ø<>
1002
}
  0
DIMENSION
  5
144B
330
A
100
AcDbEntity
  8
DIM
100
AcDbDimension
  2
*D31
 10
432.0322728941221
 20
524.8876984016615
 30
0.0
 11
418.0322728941221
 21
614.8876984016615
 31
0.0
 70
    32
  1
55～230
 71
     5
 42
180.0
 73
     0
 74
     0
 75
     0
  3
tfrom線あり
100
AcDbAlignedDimension
 13
498.2605650259343
 23
704.8876984016615
 33
0.0
 14
498.2605650259343
 24
524.8876984016615
 34
0.0
 50
90.0
100
AcDbRotatedDimension
  0
DIMENSION
  5
144E
330
A
100
AcDbEntity
  8
DIM
100
AcDbDimension
  2
*D32
 10
467.067829304802
 20
524.8876984016615
 30
0.0
 11
453.067829304802
 21
545.887698401662
 31
0.0
 70
    32
 71
     5
 42
42.00000000000091
 73
     0
 74
     0
 75
     0
  3
tfrom線あり
100
AcDbAlignedDimension
 13
498.2605650259343
 23
566.8876984016624
 33
0.0
 14
498.2605650259343
 24
524.8876984016615
 34
0.0
 50
90.0
100
AcDbRotatedDimension
  0
DIMENSION
  5
1451
330
A
100
AcDbEntity
  8
DIM
100
AcDbDimension
  2
*D33
 10
467.067829304802
 20
524.8876984016615
 30
0.0
 11
453.067829304802
 21
502.387698401662
 31
0.0
 70
    32
 71
     5
 42
44.99999999999909
 73
     0
 74
     0
 75
     0
  3
tfrom線あり
100
AcDbAlignedDimension
 13
498.2605650259343
 23
479.8876984016624
 33
0.0
 14
498.2605650259343
 24
524.8876984016615
 34
0.0
 50
90.0
100
AcDbRotatedDimension
  0
LINE
  5
1454
330
A
100
AcDbEntity
  8
DIM
100
AcDbLine
 10
306.2706181502494
 20
625.0598887162674
 30
0.0
 11
338.9318515260675
 21
646.834044300146
 31
0.0
  0
MTEXT
  5
1455
330
A
100
AcDbEntity
  8
TEMPLATE
390
1D
100
AcDbMText
 10
343.3485338396024
 20
662.7487709521653
 30
0.0
 40
12.21630859375
 41
0.0
 46
12.3384716796875
 71
     1
 72
     1
  1
{ø32}
  7
ＭＳ ゴシック
 73
     1
 44
0.7828267384257843
1001
ACAD
1000
ACAD_MTEXT_DEFINED_HEIGHT_BEGIN
1070
    46
1040
12.3384716796875
1000
ACAD_MTEXT_DEFINED_HEIGHT_END
  0
DIMENSION
  5
1456
330
A
100
AcDbEntity
  8
DIM
100
AcDbDimension
  2
*D34
 10
798.2605650259343
 20
591.6821608066825
 30
0.0
 11
803.310478839885
 21
591.6821608066825
 31
0.0
 70
   160
 71
     5
 42
10.0
 73
     0
 74
     0
 75
     0
  3
tfrom線あり
100
AcDbAlignedDimension
 13
808.2605650259343
 23
559.8876984016615
 33
0.0
 14
798.2605650259343
 24
559.8876984016615
 34
0.0
100
AcDbRotatedDimension
  0
MTEXT
  5
1459
330
A
100
AcDbEntity
  8
TEMPLATE
390
1D
100
AcDbMText
 10
720.3023257039001
 20
575.8654270194228
 30
0.0
 40
12.21630859375
 41
0.0
 46
12.3384716796875
 71
     1
 72
     1
  1
{ø32}
  7
ＭＳ ゴシック
 73
     1
 44
0.7828267384257843
1001
ACAD
1000
ACAD_MTEXT_DEFINED_HEIGHT_BEGIN
1070
    46
1040
12.3384716796875
1000
ACAD_MTEXT_DEFINED_HEIGHT_END
  0
LINE
  5
145A
330
A
100
AcDbEntity
  8
DIM
100
AcDbLine
 10
683.0776725603444
 20
540.8876984016615
 30
0.0
 11
715.7389059361624
 21
562.6618539855401
 31
0.0
  0
DIMENSION
  5
145B
330
A
100
AcDbEntity
  8
DIM
100
AcDbDimension
  2
*D35
 10
621.8603913134884
 20
506.1376984016615
 30
0.0
 11
621.8603913134884
 21
524.8876984016615
 31
0.0
 70
   160
 71
     5
 42
37.5
 73
     0
 74
     0
 75
     0
  3
tfrom線あり
100
AcDbAlignedDimension
 13
572.2605650259379
 23
543.6376984016615
 33
0.0
 14
572.2605650259379
 24
506.1376984016615
 34
0.0
 50
90.0
100
AcDbRotatedDimension
1001
ACAD
1000
DSTYLE
1002
{
1070
     3
1000
ø<>
1002
}
  0
DIMENSION
  5
145E
330
A
100
AcDbEntity
  8
DIM
100
AcDbDimension
  2
*D36
 10
886.9167688919315
 20
489.8876984016606
 30
0.0
 11
886.9167688919315
 21
524.887698401661
 31
0.0
 70
   160
 71
     5
 42
70.00000000000091
 73
     0
 74
     0
 75
     0
  3
tfrom線あり
100
AcDbAlignedDimension
 13
808.2605650259343
 23
559.8876984016615
 33
0.0
 14
808.2605650259343
 24
489.8876984016606
 34
0.0
 50
90.0
100
AcDbRotatedDimension
  0
DIMENSION
  5
1460
330
A
100
AcDbEntity
  8
DIM
100
AcDbDimension
  2
*D37
 10
848.2605650259325
 20
386.7952399013618
 30
0.0
 11
685.7605650259334
 21
386.7952399013618
 31
0.0
 70
   160
  1
100～325
 71
     5
 42
324.9999999999982
 73
     0
 74
     0
 75
     0
  3
tfrom線あり
100
AcDbAlignedDimension
 13
523.2605650259343
 23
479.3876984016624
 33
0.0
 14
848.2605650259325
 24
489.8876984016606
 34
0.0
100
AcDbRotatedDimension
  0
DIMENSION
  5
1463
330
A
100
AcDbEntity
  8
DIM
100
AcDbDimension
  2
*D38
 10
572.2605650259379
 20
438.9238059395905
 30
0.0
 11
547.7605650259361
 21
452.9238059395905
 31
0.0
 70
    32
 71
     5
 42
49.00000000000364
 73
     0
 74
     0
 75
     0
  3
tfrom線あり
100
AcDbAlignedDimension
 13
523.2605650259343
 23
479.3876984016624
 33
0.0
 14
572.2605650259379
 24
506.1376984016615
 34
0.0
100
AcDbRotatedDimension
  0
VIEWPORT
  5
349
330
B
100
AcDbEntity
 67
     1
  8
0
100
AcDbViewport
 10
202.5
 20
128.5
 30
0.0
 40
486.0
 41
308.4
 68
     1
 69
     1
 12
202.5
 22
128.5
 13
0.0
 23
0.0
 14
0.5
 24
0.5
 15
0.0
 25
0.0
 16
0.0
 26
0.0
 36
1.0
 17
0.0
 27
0.0
 37
0.0
 42
50.0
 43
0.0
 44
0.0
 45
308.4
 50
0.0
 51
0.0
 72
   100
 90
   557152
  1

281
     0
 71
     1
 74
     0
110
0.0
120
0.0
130
0.0
111
1.0
121
0.0
131
0.0
112
0.0
122
1.0
132
0.0
 79
     0
146
0.0
170
     0
 61
     5
348
26C
292
     1
282
     1
141
0.0
142
0.0
 63
   256
  0
VIEWPORT
  5
34A
330
B
100
AcDbEntity
 67
     1
  8
0
100
AcDbViewport
 10
202.5
 20
128.5
 30
0.0
 40
324.0
 41
205.6
 68
     2
 69
     2
 12
986.6781359294573
 22
1427.077061889956
 13
0.0
 23
0.0
 14
0.5
 24
0.5
 15
0.0
 25
0.0
 16
0.0
 26
0.0
 36
1.0
 17
0.0
 27
0.0
 37
0.0
 42
50.0
 43
0.0
 44
0.0
 45
2890.021615685494
 50
0.0
 51
0.0
 72
   100
 90
   557152
  1

281
     0
 71
     1
 74
     0
110
0.0
120
0.0
130
0.0
111
1.0
121
0.0
131
0.0
112
0.0
122
1.0
132
0.0
 79
     0
146
0.0
170
     0
 61
     5
348
26C
292
     1
282
     1
141
0.0
142
0.0
 63
   256
  0
ENDSEC
  0
SECTION
  2
OBJECTS
  0
DICTIONARY
  5
19
330
0
100
AcDbDictionary
281
     1
  3
ACAD_COLOR
350
674
  3
ACAD_DETAILVIEWSTYLE
350
BBF
  3
ACAD_GROUP
350
1A
  3
ACAD_IMAGE_VARS
350
27B
  3
ACAD_LAYOUT
350
1E
  3
ACAD_MATERIAL
350
263
  3
ACAD_MLEADERSTYLE
350
336
  3
ACAD_MLINESTYLE
350
1B
  3
ACAD_PLOTSETTINGS
350
22
  3
ACAD_PLOTSTYLENAME
350
1F
  3
ACAD_SCALELIST
350
241
  3
ACAD_SECTIONVIEWSTYLE
350
BC0
  3
ACAD_TABLESTYLE
350
278
  3
ACAD_VISUALSTYLE
350
267
  3
ACDB_RECOMPOSE_DATA
350
1570
  3
AcDbVariableDictionary
350
330
  3
APPDATA
350
27A
  3
DimOffsetDictionary
350
EE7
  0
SUN
  5
904
330
15
100
AcDbSun
 90
        1
290
     0
 63
     7
421
 16777215
 40
1.0
291
     1
 91
  2455826
 92
 54000000
292
     0
 70
     2
 71
   256
280
     1
  0
DICTIONARY
  5
2E1
330
2
100
AcDbDictionary
280
     1
281
     1
  3
ACAD_LAYERSTATES
360
2E2
  3
ACLYDICTIONARY
360
D22
  0
DICTIONARY
  5
674
102
{ACAD_REACTORS
330
19
102
}
330
19
100
AcDbDictionary
281
     1
  0
DICTIONARY
  5
BBF
102
{ACAD_REACTORS
330
19
102
}
330
19
100
AcDbDictionary
281
     1
  0
DICTIONARY
  5
1A
102
{ACAD_REACTORS
330
19
102
}
330
19
100
AcDbDictionary
281
     1
  0
RASTERVARIABLES
  5
27B
102
{ACAD_REACTORS
330
19
102
}
330
19
100
AcDbRasterVariables
 90
        0
 70
     1
 71
     1
 72
     1
  0
DICTIONARY
  5
1E
102
{ACAD_REACTORS
330
19
102
}
330
19
100
AcDbDictionary
281
     1
  3
Layout1
350
21
  3
Model
350
20
  0
DICTIONARY
  5
263
102
{ACAD_REACTORS
330
19
102
}
330
19
100
AcDbDictionary
281
     1
  3
ByBlock
350
265
  3
ByLayer
350
264
  3
Global
350
266
  0
DICTIONARY
  5
336
102
{ACAD_REACTORS
330
19
102
}
330
19
100
AcDbDictionary
281
     1
  3
Standard
350
D59
  0
DICTIONARY
  5
1B
102
{ACAD_REACTORS
330
19
102
}
330
19
100
AcDbDictionary
281
     1
  3
Standard
350
1C
  0
DICTIONARY
  5
22
102
{ACAD_REACTORS
330
19
102
}
330
19
100
AcDbDictionary
281
     1
  0
ACDBDICTIONARYWDFLT
  5
1F
102
{ACAD_REACTORS
330
19
102
}
330
19
100
AcDbDictionary
281
     1
  3
Normal
350
1D
100
AcDbDictionaryWithDefault
340
1D
  0
DICTIONARY
  5
241
102
{ACAD_REACTORS
330
19
102
}
330
19
100
AcDbDictionary
281
     1
  3
*A1
350
D63
  3
A0
350
242
  3
A1
350
243
  3
A2
350
244
  3
A3
350
245
  3
A4
350
246
  3
A5
350
247
  3
A6
350
248
  3
A7
350
249
  3
A8
350
24A
  3
A9
350
24B
  3
B0
350
24C
  3
B1
350
24D
  3
B2
350
24E
  3
B3
350
24F
  3
B4
350
250
  3
B5
350
251
  3
B6
350
252
  3
B7
350
253
  3
B8
350
254
  3
B9
350
255
  3
C0
350
256
  3
C1
350
257
  3
C2
350
258
  3
C3
350
259
  3
C4
350
25A
  3
C5
350
25B
  3
C6
350
25C
  3
C7
350
25D
  3
C8
350
25E
  3
C9
350
25F
  3
D0
350
260
  3
D1
350
261
  3
D2
350
262
  0
DICTIONARY
  5
BC0
102
{ACAD_REACTORS
330
19
102
}
330
19
100
AcDbDictionary
281
     1
  0
DICTIONARY
  5
278
102
{ACAD_REACTORS
330
19
102
}
330
19
100
AcDbDictionary
281
     1
  3
Standard
350
279
  0
DICTIONARY
  5
267
102
{ACAD_REACTORS
330
19
102
}
330
19
100
AcDbDictionary
281
     1
  3
2dWireframe
350
26C
  3
3D Hidden
350
26E
  3
3dWireframe
350
26D
  3
Basic
350
26F
  3
Brighten
350
273
  3
ColorChange
350
277
  3
Conceptual
350
271
  3
Dim
350
272
  3
EdgeColorOff
350
8FE
  3
Facepattern
350
276
  3
Flat
350
268
  3
FlatWithEdges
350
269
  3
Gouraud
350
26A
  3
GouraudWithEdges
350
26B
  3
Hidden
350
8FB
  3
JitterOff
350
8FC
  3
Linepattern
350
275
  3
OverhangOff
350
8FD
  3
Realistic
350
270
  3
Shaded
350
903
  3
Shaded with edges
350
902
  3
Shades of Gray
350
8FF
  3
Sketchy
350
900
  3
Thicken
350
274
  3
Wireframe
350
8FA
  3
X-Ray
350
901
  0
XRECORD
  5
1570
102
{ACAD_REACTORS
330
19
102
}
330
19
100
AcDbXrecord
280
     1
 90
        1
330
279
  0
DICTIONARY
  5
330
102
{ACAD_REACTORS
330
19
102
}
330
19
100
AcDbDictionary
281
     1
  3
CANNOSCALE
350
331
  3
CMLEADERSTYLE
350
EA4
  3
CTABLESTYLE
350
335
  3
HPTRANSPARENCY
350
D52
  3
XCLIPFRAME
350
896
  0
DICTIONARY
  5
27A
102
{ACAD_REACTORS
330
19
102
}
330
19
100
AcDbDictionary
281
     1
  0
DICTIONARY
  5
EE7
102
{ACAD_REACTORS
330
19
102
}
330
19
100
AcDbDictionary
281
     1
  3
DIMRAILANGLE
350
10FD
  3
DIMRAILFIRSTOFFSET
350
10FB
  3
DIMRAILOFFSET
350
10FC
  3
DIMRAILSENABLED
350
10FE
  0
DICTIONARY
  5
2E2
102
{ACAD_REACTORS
330
2E1
102
}
330
2E1
100
AcDbDictionary
281
     1
  3
ARGON_LAYERP_9
350
7AA
  0
DICTIONARY
  5
D22
102
{ACAD_REACTORS
330
2E1
102
}
330
2E1
100
AcDbDictionary
281
     1
1001
ACAD
1000
<All
  0
LAYOUT
  5
21
102
{ACAD_REACTORS
330
1E
102
}
330
1E
100
AcDbPlotSettings
  1

  2
none_device
  4
ISO_A3_(420.00_x_297.00_MM)
  6

 40
7.5
 41
20.0
 42
7.5
 43
20.0
 44
420.0
 45
297.0
 46
0.0
 47
0.0
 48
0.0
 49
0.0
140
0.0
141
0.0
142
1.0
143
1.0
 70
     0
 72
     1
 73
     0
 74
     0
  7

 75
     0
 76
     0
 77
     2
 78
   300
147
1.0
148
0.0
149
0.0
100
AcDbLayout
  1
Layout1
 70
     0
 71
     0
 10
-7.5
 20
-20.0
 11
412.5
 21
277.0
 12
0.0
 22
0.0
 32
0.0
 14
0.0
 24
0.0
 34
0.0
 15
0.0
 25
0.0
 35
0.0
146
0.0
 13
0.0
 23
0.0
 33
0.0
 16
0.0
 26
0.0
 36
0.0
 17
0.0
 27
0.0
 37
0.0
 76
     0
330
B
331
349
  0
LAYOUT
  5
20
102
{ACAD_REACTORS
330
1E
102
}
330
1E
100
AcDbPlotSettings
  1

  2
none_device
  4
ISO_A3_(420.00_x_297.00_MM)
  6

 40
7.5
 41
20.0
 42
7.5
 43
20.0
 44
420.0
 45
297.0
 46
0.0
 47
0.0
 48
0.0
 49
0.0
140
0.0
141
0.0
142
1.0
143
1.0
 70
  1024
 72
     1
 73
     0
 74
     0
  7

 75
     0
 76
     0
 77
     2
 78
   300
147
1.0
148
0.0
149
0.0
100
AcDbLayout
  1
Model
 70
     0
 71
     1
 10
0.0
 20
0.0
 11
1050.0
 21
1485.0
 12
0.0
 22
0.0
 32
0.0
 14
36.10107227362437
 24
31.89607416228557
 34
-0.0000000000000071
 15
1011.101072273866
 25
1448.573336753213
 35
0.0000000000000142
146
0.0
 13
0.0
 23
0.0
 33
0.0
 16
0.0
 26
0.0
 36
0.0
 17
0.0
 27
0.0
 37
0.0
 76
     0
330
A
331
15
  0
MATERIAL
  5
265
102
{ACAD_REACTORS
330
263
102
}
330
263
100
AcDbMaterial
  1
ByBlock
 72
     1
 94
      127
  0
MATERIAL
  5
264
102
{ACAD_REACTORS
330
263
102
}
330
263
100
AcDbMaterial
  1
ByLayer
 72
     1
 94
      127
  0
MATERIAL
  5
266
102
{ACAD_REACTORS
330
263
102
}
330
263
100
AcDbMaterial
  1
Global
 72
     1
 94
      127
  0
MLEADERSTYLE
  5
D59
102
{ACAD_REACTORS
330
336
102
}
330
336
100
AcDbMLeaderStyle
170
     2
171
     1
172
     0
 90
        2
 40
0.0
 41
0.0
173
     1
 91
-1056964608
340
11
 92
       -2
290
     1
 42
2.0
291
     1
 43
8.0
  3
Standard
341
0
 44
4.0
300

342
17
174
     1
178
     6
175
     1
176
     0
 93
-1056964608
 45
4.0
292
     0
297
     0
 46
4.0
343
0
 94
-1056964608
 47
1.0
 49
1.0
140
1.0
293
     1
141
0.0
294
     1
177
     0
142
1.0
295
     0
296
     0
143
3.75
1001
ACAD_MLEADERVER
1070
     2
  0
MLINESTYLE
  5
1C
102
{ACAD_REACTORS
330
1B
102
}
330
1B
100
AcDbMlineStyle
  2
Standard
 70
     0
  3

 62
     0
 51
90.0
 52
90.0
 71
     2
 49
0.5
 62
   256
  6
BYLAYER
 49
-0.5
 62
   256
  6
BYLAYER
  0
ACDBPLACEHOLDER
  5
1D
102
{ACAD_REACTORS
330
1F
102
}
330
1F
  0
SCALE
  5
D63
102
{ACAD_REACTORS
330
241
102
}
330
241
100
AcDbScale
 70
     0
300
1:1_XREF_XREF
140
1.0
141
1.0
290
     0
  0
SCALE
  5
242
102
{ACAD_REACTORS
330
241
102
}
330
241
100
AcDbScale
 70
     0
300
1:1
140
1.0
141
1.0
290
     1
  0
SCALE
  5
243
102
{ACAD_REACTORS
330
241
102
}
330
241
100
AcDbScale
 70
     0
300
1:2
140
1.0
141
2.0
290
     0
  0
SCALE
  5
244
102
{ACAD_REACTORS
330
241
102
}
330
241
100
AcDbScale
 70
     0
300
1:4
140
1.0
141
4.0
290
     0
  0
SCALE
  5
245
102
{ACAD_REACTORS
330
241
102
}
330
241
100
AcDbScale
 70
     0
300
1:5
140
1.0
141
5.0
290
     0
  0
SCALE
  5
246
102
{ACAD_REACTORS
330
241
102
}
330
241
100
AcDbScale
 70
     0
300
1:8
140
1.0
141
8.0
290
     0
  0
SCALE
  5
247
102
{ACAD_REACTORS
330
241
102
}
330
241
100
AcDbScale
 70
     0
300
1:10
140
1.0
141
10.0
290
     0
  0
SCALE
  5
248
102
{ACAD_REACTORS
330
241
102
}
330
241
100
AcDbScale
 70
     0
300
1:16
140
1.0
141
16.0
290
     0
  0
SCALE
  5
249
102
{ACAD_REACTORS
330
241
102
}
330
241
100
AcDbScale
 70
     0
300
1:20
140
1.0
141
20.0
290
     0
  0
SCALE
  5
24A
102
{ACAD_REACTORS
330
241
102
}
330
241
100
AcDbScale
 70
     0
300
1:30
140
1.0
141
30.0
290
     0
  0
SCALE
  5
24B
102
{ACAD_REACTORS
330
241
102
}
330
241
100
AcDbScale
 70
     0
300
1:40
140
1.0
141
40.0
290
     0
  0
SCALE
  5
24C
102
{ACAD_REACTORS
330
241
102
}
330
241
100
AcDbScale
 70
     0
300
1:50
140
1.0
141
50.0
290
     0
  0
SCALE
  5
24D
102
{ACAD_REACTORS
330
241
102
}
330
241
100
AcDbScale
 70
     0
300
1:100
140
1.0
141
100.0
290
     0
  0
SCALE
  5
24E
102
{ACAD_REACTORS
330
241
102
}
330
241
100
AcDbScale
 70
     0
300
2:1
140
2.0
141
1.0
290
     0
  0
SCALE
  5
24F
102
{ACAD_REACTORS
330
241
102
}
330
241
100
AcDbScale
 70
     0
300
4:1
140
4.0
141
1.0
290
     0
  0
SCALE
  5
250
102
{ACAD_REACTORS
330
241
102
}
330
241
100
AcDbScale
 70
     0
300
8:1
140
8.0
141
1.0
290
     0
  0
SCALE
  5
251
102
{ACAD_REACTORS
330
241
102
}
330
241
100
AcDbScale
 70
     0
300
10:1
140
10.0
141
1.0
290
     0
  0
SCALE
  5
252
102
{ACAD_REACTORS
330
241
102
}
330
241
100
AcDbScale
 70
     0
300
100:1
140
100.0
141
1.0
290
     0
  0
SCALE
  5
253
102
{ACAD_REACTORS
330
241
102
}
330
241
100
AcDbScale
 70
     0
300
1/128" = 1'-0"
140
0.0078125
141
12.0
290
     0
  0
SCALE
  5
254
102
{ACAD_REACTORS
330
241
102
}
330
241
100
AcDbScale
 70
     0
300
1/64" = 1'-0"
140
0.015625
141
12.0
290
     0
  0
SCALE
  5
255
102
{ACAD_REACTORS
330
241
102
}
330
241
100
AcDbScale
 70
     0
300
1/32" = 1'-0"
140
0.03125
141
12.0
290
     0
  0
SCALE
  5
256
102
{ACAD_REACTORS
330
241
102
}
330
241
100
AcDbScale
 70
     0
300
1/16" = 1'-0"
140
0.0625
141
12.0
290
     0
  0
SCALE
  5
257
102
{ACAD_REACTORS
330
241
102
}
330
241
100
AcDbScale
 70
     0
300
3/32" = 1'-0"
140
0.09375
141
12.0
290
     0
  0
SCALE
  5
258
102
{ACAD_REACTORS
330
241
102
}
330
241
100
AcDbScale
 70
     0
300
1/8" = 1'-0"
140
0.125
141
12.0
290
     0
  0
SCALE
  5
259
102
{ACAD_REACTORS
330
241
102
}
330
241
100
AcDbScale
 70
     0
300
3/16" = 1'-0"
140
0.1875
141
12.0
290
     0
  0
SCALE
  5
25A
102
{ACAD_REACTORS
330
241
102
}
330
241
100
AcDbScale
 70
     0
300
1/4" = 1'-0"
140
0.25
141
12.0
290
     0
  0
SCALE
  5
25B
102
{ACAD_REACTORS
330
241
102
}
330
241
100
AcDbScale
 70
     0
300
3/8" = 1'-0"
140
0.375
141
12.0
290
     0
  0
SCALE
  5
25C
102
{ACAD_REACTORS
330
241
102
}
330
241
100
AcDbScale
 70
     0
300
1/2" = 1'-0"
140
0.5
141
12.0
290
     0
  0
SCALE
  5
25D
102
{ACAD_REACTORS
330
241
102
}
330
241
100
AcDbScale
 70
     0
300
3/4" = 1'-0"
140
0.75
141
12.0
290
     0
  0
SCALE
  5
25E
102
{ACAD_REACTORS
330
241
102
}
330
241
100
AcDbScale
 70
     0
300
1" = 1'-0"
140
1.0
141
12.0
290
     0
  0
SCALE
  5
25F
102
{ACAD_REACTORS
330
241
102
}
330
241
100
AcDbScale
 70
     0
300
1-1/2" = 1'-0"
140
1.5
141
12.0
290
     0
  0
SCALE
  5
260
102
{ACAD_REACTORS
330
241
102
}
330
241
100
AcDbScale
 70
     0
300
3" = 1'-0"
140
3.0
141
12.0
290
     0
  0
SCALE
  5
261
102
{ACAD_REACTORS
330
241
102
}
330
241
100
AcDbScale
 70
     0
300
6" = 1'-0"
140
6.0
141
12.0
290
     0
  0
SCALE
  5
262
102
{ACAD_REACTORS
330
241
102
}
330
241
100
AcDbScale
 70
     0
300
1'-0" = 1'-0"
140
12.0
141
12.0
290
     0
  0
TABLESTYLE
  5
279
102
{ACAD_REACTORS
330
278
102
}
102
{ACAD_XDICTIONARY
360
156E
102
}
330
278
100
AcDbTableStyle
  3
Standard
 70
     0
 71
     0
 40
0.06
 41
0.06
280
     0
281
     0
  7
Standard
140
4.5
170
     2
 62
     0
 63
   257
283
     0
 90
        4
 91
        0
  1

274
    -2
284
     1
 64
     0
275
    -2
285
     1
 65
     0
276
    -2
286
     1
 66
     0
277
    -2
287
     1
 67
     0
278
    -2
288
     1
 68
     0
279
    -2
289
     1
 69
     0
  7
Standard
140
6.0
170
     5
 62
     0
 63
   257
283
     0
 90
        4
 91
        0
  1

274
    -2
284
     1
 64
     0
275
    -2
285
     1
 65
     0
276
    -2
286
     1
 66
     0
277
    -2
287
     1
 67
     0
278
    -2
288
     1
 68
     0
279
    -2
289
     1
 69
     0
  7
Standard
140
4.5
170
     5
 62
     0
 63
   257
283
     0
 90
        4
 91
        0
  1

274
    -2
284
     1
 64
     0
275
    -2
285
     1
 65
     0
276
    -2
286
     1
 66
     0
277
    -2
287
     1
 67
     0
278
    -2
288
     1
 68
     0
279
    -2
289
     1
 69
     0
  0
VISUALSTYLE
  5
26C
102
{ACAD_REACTORS
330
267
102
}
330
267
100
AcDbVisualStyle
  2
2dWireframe
 70
     4
 71
     0
 72
     2
 73
     0
 90
        0
 40
-0.6
 41
-30.0
 62
     5
 63
     7
421
 16777215
 74
     1
 91
        4
 64
     7
 65
   257
 75
     1
175
     1
 42
1.0
 92
        0
 66
   257
 43
1.0
 76
     1
 77
     6
 78
     2
 67
     7
 79
     5
170
     0
171
     0
290
     0
174
     0
 93
        1
 44
0.0
173
     0
291
     0
 45
0.0
  0
VISUALSTYLE
  5
26E
102
{ACAD_REACTORS
330
267
102
}
330
267
100
AcDbVisualStyle
  2
3D Hidden
 70
     6
 71
     1
 72
     2
 73
     2
 90
        0
 40
-0.6
 41
-30.0
 62
     5
 63
     7
421
 16777215
 74
     2
 91
        2
 64
     7
 65
   257
 75
     2
175
     1
 42
40.0
 92
        0
 66
   257
 43
1.0
 76
     1
 77
     6
 78
     2
 67
     7
 79
     3
170
     0
171
     0
290
     0
174
     0
 93
        1
 44
0.0
173
     0
291
     0
 45
0.0
  0
VISUALSTYLE
  5
26D
102
{ACAD_REACTORS
330
267
102
}
330
267
100
AcDbVisualStyle
  2
3dWireframe
 70
     5
 71
     0
 72
     2
 73
     0
 90
        0
 40
-0.6
 41
-30.0
 62
     5
 63
     7
421
 16777215
 74
     1
 91
        4
 64
     7
 65
   257
 75
     1
175
     1
 42
1.0
 92
        0
 66
   257
 43
1.0
 76
     1
 77
     6
 78
     2
 67
     7
 79
     5
170
     0
171
     0
290
     0
174
     0
 93
        1
 44
0.0
173
     0
291
     0
 45
0.0
  0
VISUALSTYLE
  5
26F
102
{ACAD_REACTORS
330
267
102
}
330
267
100
AcDbVisualStyle
  2
Basic
 70
     7
 71
     1
 72
     0
 73
     1
 90
        0
 40
-0.6
 41
-30.0
 62
     5
 63
     7
421
 16777215
 74
     0
 91
        4
 64
     7
 65
   257
 75
     1
175
     1
 42
1.0
 92
        8
 66
     7
 43
1.0
 76
     1
 77
     6
 78
     2
 67
     7
 79
     5
170
     0
171
     0
290
     0
174
     0
 93
        1
 44
0.0
173
     0
291
     1
 45
0.0
  0
VISUALSTYLE
  5
273
102
{ACAD_REACTORS
330
267
102
}
330
267
100
AcDbVisualStyle
  2
Brighten
 70
    12
 71
     2
 72
     2
 73
     0
 90
        0
 40
-0.6
 41
-30.0
 62
     5
 63
     7
421
 16777215
 74
     1
 91
        4
 64
     7
 65
   257
 75
     1
175
     1
 42
1.0
 92
        8
 66
     7
 43
1.0
 76
     1
 77
     6
 78
     2
 67
     7
 79
     5
170
     0
171
     0
290
     0
174
     0
 93
        1
 44
50.0
173
     0
291
     1
 45
0.0
  0
VISUALSTYLE
  5
277
102
{ACAD_REACTORS
330
267
102
}
330
267
100
AcDbVisualStyle
  2
ColorChange
 70
    16
 71
     2
 72
     2
 73
     3
 90
        0
 40
-0.6
 41
-30.0
 62
     5
 63
     8
421
  8421504
 74
     1
 91
        4
 64
     7
 65
   257
 75
     1
175
     1
 42
1.0
 92
        8
 66
     8
424
  8421504
 43
1.0
 76
     1
 77
     6
 78
     2
 67
     7
 79
     5
170
     0
171
     0
290
     0
174
     0
 93
        1
 44
0.0
173
     0
291
     1
 45
0.0
  0
VISUALSTYLE
  5
271
102
{ACAD_REACTORS
330
267
102
}
330
267
100
AcDbVisualStyle
  2
Conceptual
 70
     9
 71
     3
 72
     2
 73
     0
 90
        0
 40
-0.6
 41
-30.0
 62
     5
 63
     7
421
 16777215
 74
     2
 91
        2
 64
     7
 65
   257
 75
     1
175
     1
 42
40.0
 92
        8
 66
     7
 43
1.0
 76
     1
 77
     6
 78
     2
 67
     7
 79
     3
170
     0
171
     0
290
     0
174
     0
 93
        1
 44
0.0
173
     0
291
     0
 45
0.0
  0
VISUALSTYLE
  5
272
102
{ACAD_REACTORS
330
267
102
}
330
267
100
AcDbVisualStyle
  2
Dim
 70
    11
 71
     2
 72
     2
 73
     0
 90
        0
 40
-0.6
 41
-30.0
 62
     5
 63
     7
421
 16777215
 74
     1
 91
        4
 64
     7
 65
   257
 75
     1
175
     1
 42
1.0
 92
        8
 66
     7
 43
1.0
 76
     1
 77
     6
 78
     2
 67
     7
 79
     5
170
     0
171
     0
290
     0
174
     0
 93
        1
 44
-50.0
173
     0
291
     1
 45
0.0
  0
VISUALSTYLE
  5
8FE
102
{ACAD_REACTORS
330
267
102
}
330
267
100
AcDbVisualStyle
  2
EdgeColorOff
 70
    22
 71
     2
 72
     2
 73
     0
 90
        0
 40
0.6
 41
30.0
 62
     5
 63
     7
421
 16777215
 74
     1
 91
        4
 64
     7
 65
   257
 75
     1
175
     1
 42
1.0
 92
        8
 66
     7
 43
1.0
 76
     1
 77
     6
 78
     2
 67
     7
 79
     5
170
     0
171
     0
290
     0
174
     0
 93
        1
 44
0.0
173
     0
291
     1
 45
0.0
  0
VISUALSTYLE
  5
276
102
{ACAD_REACTORS
330
267
102
}
330
267
100
AcDbVisualStyle
  2
Facepattern
 70
    15
 71
     2
 72
     2
 73
     0
 90
        0
 40
-0.6
 41
-30.0
 62
     5
 63
     7
421
 16777215
 74
     1
 91
        4
 64
     7
 65
   257
 75
     1
175
     1
 42
1.0
 92
        8
 66
     7
 43
1.0
 76
     1
 77
     6
 78
     2
 67
     7
 79
     5
170
     0
171
     0
290
     0
174
     0
 93
        1
 44
0.0
173
     0
291
     1
 45
0.0
  0
VISUALSTYLE
  5
268
102
{ACAD_REACTORS
330
267
102
}
330
267
100
AcDbVisualStyle
  2
Flat
 70
     0
 71
     2
 72
     1
 73
     1
 90
        2
 40
-0.6
 41
30.0
 62
     5
 63
     7
421
 16777215
 74
     0
 91
        4
 64
     7
 65
   257
 75
     1
175
     1
 42
1.0
 92
        8
 66
     7
 43
1.0
 76
     1
 77
     6
 78
     2
 67
     7
 79
     5
170
     0
171
     0
290
     0
174
     0
 93
       13
 44
0.0
173
     0
291
     1
 45
0.0
  0
VISUALSTYLE
  5
269
102
{ACAD_REACTORS
330
267
102
}
330
267
100
AcDbVisualStyle
  2
FlatWithEdges
 70
     1
 71
     2
 72
     1
 73
     1
 90
        2
 40
-0.6
 41
30.0
 62
     5
 63
     7
421
 16777215
 74
     1
 91
        4
 64
     7
 65
   257
 75
     1
175
     1
 42
1.0
 92
        0
 66
   257
 43
1.0
 76
     1
 77
     6
 78
     2
 67
     7
 79
     5
170
     0
171
     0
290
     0
174
     0
 93
       13
 44
0.0
173
     0
291
     1
 45
0.0
  0
VISUALSTYLE
  5
26A
102
{ACAD_REACTORS
330
267
102
}
330
267
100
AcDbVisualStyle
  2
Gouraud
 70
     2
 71
     2
 72
     2
 73
     1
 90
        2
 40
-0.6
 41
30.0
 62
     5
 63
     7
421
 16777215
 74
     0
 91
        4
 64
     7
 65
   257
 75
     1
175
     1
 42
1.0
 92
        0
 66
     7
 43
1.0
 76
     1
 77
     6
 78
     2
 67
     7
 79
     5
170
     0
171
     0
290
     0
174
     0
 93
       13
 44
0.0
173
     0
291
     1
 45
0.0
  0
VISUALSTYLE
  5
26B
102
{ACAD_REACTORS
330
267
102
}
330
267
100
AcDbVisualStyle
  2
GouraudWithEdges
 70
     3
 71
     2
 72
     2
 73
     1
 90
        2
 40
-0.6
 41
30.0
 62
     5
 63
     7
421
 16777215
 74
     1
 91
        4
 64
     7
 65
   257
 75
     1
175
     1
 42
1.0
 92
        0
 66
   257
 43
1.0
 76
     1
 77
     6
 78
     2
 67
     7
 79
     5
170
     0
171
     0
290
     0
174
     0
 93
       13
 44
0.0
173
     0
291
     1
 45
0.0
  0
VISUALSTYLE
  5
8FB
102
{ACAD_REACTORS
330
267
102
}
330
267
100
AcDbVisualStyle
  2
Hidden
 70
     6
 71
     1
 72
     2
 73
     2
 90
        0
 40
0.6
 41
30.0
 62
     5
 63
     7
421
 16777215
 74
     2
 91
        2
 64
     7
 65
   257
 75
     2
175
     1
 42
40.0
 92
        0
 66
   257
 43
1.0
 76
     1
 77
     6
 78
     2
 67
     7
 79
     3
170
     0
171
     0
290
     0
174
     0
 93
        1
 44
0.0
173
     0
291
     0
 45
0.0
  0
VISUALSTYLE
  5
8FC
102
{ACAD_REACTORS
330
267
102
}
330
267
100
AcDbVisualStyle
  2
JitterOff
 70
    20
 71
     2
 72
     2
 73
     0
 90
        0
 40
0.6
 41
30.0
 62
     5
 63
     7
421
 16777215
 74
     1
 91
        4
 64
     7
 65
   257
 75
     1
175
     1
 42
1.0
 92
       10
 66
     7
 43
1.0
 76
     1
 77
     6
 78
     2
 67
     7
 79
     5
170
     0
171
     0
290
     0
174
     0
 93
        1
 44
0.0
173
     0
291
     1
 45
0.0
  0
VISUALSTYLE
  5
275
102
{ACAD_REACTORS
330
267
102
}
330
267
100
AcDbVisualStyle
  2
Linepattern
 70
    14
 71
     2
 72
     2
 73
     0
 90
        0
 40
-0.6
 41
-30.0
 62
     5
 63
     7
421
 16777215
 74
     1
 91
        4
 64
     7
 65
   257
 75
     7
175
     7
 42
1.0
 92
        8
 66
     7
 43
1.0
 76
     1
 77
     6
 78
     2
 67
     7
 79
     5
170
     0
171
     0
290
     0
174
     0
 93
        1
 44
0.0
173
     0
291
     1
 45
0.0
  0
VISUALSTYLE
  5
8FD
102
{ACAD_REACTORS
330
267
102
}
330
267
100
AcDbVisualStyle
  2
OverhangOff
 70
    21
 71
     2
 72
     2
 73
     0
 90
        0
 40
0.6
 41
30.0
 62
     5
 63
     7
421
 16777215
 74
     1
 91
        4
 64
     7
 65
   257
 75
     1
175
     1
 42
1.0
 92
        9
 66
     7
 43
1.0
 76
     1
 77
     6
 78
     2
 67
     7
 79
     5
170
     0
171
     0
290
     0
174
     0
 93
        1
 44
0.0
173
     0
291
     1
 45
0.0
  0
VISUALSTYLE
  5
270
102
{ACAD_REACTORS
330
267
102
}
330
267
100
AcDbVisualStyle
  2
Realistic
 70
     8
 71
     2
 72
     2
 73
     0
 90
        0
 40
-0.6
 41
-30.0
 62
     5
 63
     7
421
 16777215
 74
     1
 91
        0
 64
     7
 65
   257
 75
     1
175
     1
 42
1.0
 92
        8
 66
     8
424
  7895160
 43
1.0
 76
     1
 77
     6
 78
     2
 67
     7
 79
     5
170
     0
171
     0
290
     0
174
     0
 93
       13
 44
0.0
173
     0
291
     0
 45
0.0
  0
VISUALSTYLE
  5
903
102
{ACAD_REACTORS
330
267
102
}
330
267
100
AcDbVisualStyle
  2
Shaded
 70
    27
 71
     2
 72
     2
 73
     1
 90
        2
 40
0.6
 41
30.0
 62
     5
 63
     7
421
 16777215
 74
     0
 91
        4
 64
     7
 65
   257
 75
     1
175
     1
 42
1.0
 92
        8
 66
   257
 43
1.0
 76
     1
 77
     6
 78
     2
 67
     8
425
  7895160
 79
     3
170
     0
171
     0
290
     0
174
     0
 93
        5
 44
0.0
173
     0
291
     0
 45
0.0
  0
VISUALSTYLE
  5
902
102
{ACAD_REACTORS
330
267
102
}
330
267
100
AcDbVisualStyle
  2
Shaded with edges
 70
    26
 71
     2
 72
     2
 73
     1
 90
        2
 40
0.6
 41
30.0
 62
     5
 63
     7
421
 16777215
 74
     1
 91
       10
 64
     7
 65
   257
 75
     2
175
     1
 42
1.0
 92
        8
 66
   257
 43
1.0
 76
     1
 77
     6
 78
     2
 67
     7
 79
     3
170
     0
171
     0
290
     0
174
     0
 93
        5
 44
0.0
173
     0
291
     0
 45
0.0
  0
VISUALSTYLE
  5
8FF
102
{ACAD_REACTORS
330
267
102
}
330
267
100
AcDbVisualStyle
  2
Shades of Gray
 70
    23
 71
     2
 72
     2
 73
     3
 90
        0
 40
0.6
 41
30.0
 62
     5
 63
     7
421
 16777215
 74
     2
 91
        2
 64
     7
 65
     7
 75
     1
175
     1
 42
40.0
 92
        8
 66
     7
 43
1.0
 76
     1
 77
     6
 78
     2
 67
     7
 79
     3
170
     0
171
     0
290
     0
174
     0
 93
        1
 44
0.0
173
     0
291
     0
 45
0.0
  0
VISUALSTYLE
  5
900
102
{ACAD_REACTORS
330
267
102
}
330
267
100
AcDbVisualStyle
  2
Sketchy
 70
    24
 71
     1
 72
     2
 73
     2
 90
        0
 40
0.6
 41
30.0
 62
     5
 63
     7
421
 16777215
 74
     2
 91
        2
 64
     7
 65
     7
 75
     1
175
     1
 42
40.0
 92
       11
 66
     7
 43
1.0
 76
     1
 77
     6
 78
     2
 67
     7
 79
     6
170
     0
171
     0
290
     0
174
     0
 93
        1
 44
0.0
173
     0
291
     0
 45
0.0
  0
VISUALSTYLE
  5
274
102
{ACAD_REACTORS
330
267
102
}
330
267
100
AcDbVisualStyle
  2
Thicken
 70
    13
 71
     2
 72
     2
 73
     0
 90
        0
 40
-0.6
 41
-30.0
 62
     5
 63
     7
421
 16777215
 74
     1
 91
        4
 64
     7
 65
   257
 75
     1
175
     1
 42
1.0
 92
       12
 66
     7
 43
1.0
 76
     1
 77
     6
 78
     2
 67
     7
 79
     5
170
     0
171
     0
290
     0
174
     0
 93
        1
 44
0.0
173
     0
291
     1
 45
0.0
  0
VISUALSTYLE
  5
8FA
102
{ACAD_REACTORS
330
267
102
}
330
267
100
AcDbVisualStyle
  2
Wireframe
 70
     5
 71
     0
 72
     2
 73
     0
 90
        0
 40
0.6
 41
30.0
 62
     5
 63
     7
421
 16777215
 74
     1
 91
        4
 64
     7
 65
   257
 75
     1
175
     1
 42
1.0
 92
        0
 66
   257
 43
1.0
 76
     1
 77
     6
 78
     2
 67
     7
 79
     3
170
     0
171
     0
290
     0
174
     0
 93
        1
 44
0.0
173
     0
291
     0
 45
0.0
  0
VISUALSTYLE
  5
901
102
{ACAD_REACTORS
330
267
102
}
330
267
100
AcDbVisualStyle
  2
X-Ray
 70
    25
 71
     2
 72
     2
 73
     1
 90
        1
 40
0.5
 41
30.0
 62
     5
 63
     7
421
 16777215
 74
     1
 91
        0
 64
     7
 65
   257
 75
     1
175
     1
 42
1.0
 92
        8
 66
     7
 43
1.0
 76
     1
 77
     6
 78
     2
 67
     7
 79
     3
170
     0
171
     0
290
     0
174
     0
 93
       13
 44
0.0
173
     0
291
     0
 45
0.0
  0
DICTIONARYVAR
  5
331
102
{ACAD_REACTORS
330
330
102
}
330
330
100
DictionaryVariables
280
     0
  1
1:1
  0
DICTIONARYVAR
  5
EA4
102
{ACAD_REACTORS
330
330
102
}
330
330
100
DictionaryVariables
280
     0
  1
Standard
  0
DICTIONARYVAR
  5
335
102
{ACAD_REACTORS
330
330
102
}
330
330
100
DictionaryVariables
280
     0
  1
Standard
  0
DICTIONARYVAR
  5
D52
102
{ACAD_REACTORS
330
330
102
}
330
330
100
DictionaryVariables
280
     0
  1
ByLayer
  0
DICTIONARYVAR
  5
896
102
{ACAD_REACTORS
330
330
102
}
330
330
100
DictionaryVariables
280
     0
  1
0
  0
DICTIONARYVAR
  5
10FD
102
{ACAD_REACTORS
330
EE7
102
}
330
EE7
100
DictionaryVariables
280
     0
  1
0.261799
  0
DICTIONARYVAR
  5
10FB
102
{ACAD_REACTORS
330
EE7
102
}
330
EE7
100
DictionaryVariables
280
     0
  1
0.400000
  0
DICTIONARYVAR
  5
10FC
102
{ACAD_REACTORS
330
EE7
102
}
330
EE7
100
DictionaryVariables
280
     0
  1
0.250000
  0
DICTIONARYVAR
  5
10FE
102
{ACAD_REACTORS
330
EE7
102
}
330
EE7
100
DictionaryVariables
280
     0
  1
1
  0
XRECORD
  5
7AA
102
{ACAD_REACTORS
330
2E2
102
}
330
2E2
100
AcDbXrecord
280
     1
 91
    34815
301

290
     0
302
MODEL
330
14
 90
        8
 62
     7
370
    -3
331
13
  1
Color_7
440
 33554687
330
4B
 90
        8
 62
     7
370
    20
331
13
  1
Color_7
440
 33554687
330
4C
 90
        8
 62
     7
370
    13
331
13
  1
Color_7
440
 33554687
330
4D
 90
        8
 62
     7
370
    20
331
13
  1
Color_7
440
 33554687
330
667
 90
        8
 62
     7
370
    -3
331
13
  1
Color_7
440
 33554687
330
88C
 90
        8
 62
     7
370
    20
331
45
  1
Color_7
440
 33554687
330
E85
 90
        0
 62
     7
370
    -3
331
13
  1
Color_7
440
 33554687
  0
DICTIONARY
  5
156E
330
279
100
AcDbDictionary
280
     1
281
     1
  3
ACAD_ROUNDTRIP_2008_TABLESTYLE_CELLSTYLEMAP
360
156F
  0
CELLSTYLEMAP
  5
156F
102
{ACAD_REACTORS
330
156E
102
}
330
156E
100
AcDbCellStyleMap
 90
        3
300
CELLSTYLE
  1
TABLEFORMAT_BEGIN
 90
        5
170
     1
 91
        0
 92
    32768
 62
   257
 93
        1
300
CONTENTFORMAT
  1
CONTENTFORMAT_BEGIN
 90
        0
 91
        0
 92
        4
 93
        0
300

 40
0.0
140
1.0
 94
        5
 62
     0
340
17
144
6.0
309
CONTENTFORMAT_END
171
     1
301
MARGIN
  1
CELLMARGIN_BEGIN
 40
0.06
 40
0.06
 40
0.06
 40
0.06
 40
0.18
 40
0.18
309
CELLMARGIN_END
 94
        6
 95
        1
302
GRIDFORMAT
  1
GRIDFORMAT_BEGIN
 90
        0
 91
        1
 62
     0
 92
       -2
340
0
 93
        0
 40
0.045
309
GRIDFORMAT_END
 95
        2
302
GRIDFORMAT
  1
GRIDFORMAT_BEGIN
 90
        0
 91
        1
 62
     0
 92
       -2
340
0
 93
        0
 40
0.045
309
GRIDFORMAT_END
 95
        4
302
GRIDFORMAT
  1
GRIDFORMAT_BEGIN
 90
        0
 91
        1
 62
     0
 92
       -2
340
0
 93
        0
 40
0.045
309
GRIDFORMAT_END
 95
        8
302
GRIDFORMAT
  1
GRIDFORMAT_BEGIN
 90
        0
 91
        1
 62
     0
 92
       -2
340
0
 93
        0
 40
0.045
309
GRIDFORMAT_END
 95
       16
302
GRIDFORMAT
  1
GRIDFORMAT_BEGIN
 90
        0
 91
        1
 62
     0
 92
       -2
340
0
 93
        0
 40
0.045
309
GRIDFORMAT_END
 95
       32
302
GRIDFORMAT
  1
GRIDFORMAT_BEGIN
 90
        0
 91
        1
 62
     0
 92
       -2
340
0
 93
        0
 40
0.045
309
GRIDFORMAT_END
309
TABLEFORMAT_END
  1
CELLSTYLE_BEGIN
 90
        1
 91
        1
300
_TITLE
309
CELLSTYLE_END
300
CELLSTYLE
  1
TABLEFORMAT_BEGIN
 90
        5
170
     1
 91
        0
 92
        0
 62
   257
 93
        1
300
CONTENTFORMAT
  1
CONTENTFORMAT_BEGIN
 90
        0
 91
        0
 92
        4
 93
        0
300

 40
0.0
140
1.0
 94
        5
 62
     0
340
17
144
4.5
309
CONTENTFORMAT_END
171
     1
301
MARGIN
  1
CELLMARGIN_BEGIN
 40
0.06
 40
0.06
 40
0.06
 40
0.06
 40
0.18
 40
0.18
309
CELLMARGIN_END
 94
        6
 95
        1
302
GRIDFORMAT
  1
GRIDFORMAT_BEGIN
 90
        0
 91
        1
 62
     0
 92
       -2
340
0
 93
        0
 40
0.045
309
GRIDFORMAT_END
 95
        2
302
GRIDFORMAT
  1
GRIDFORMAT_BEGIN
 90
        0
 91
        1
 62
     0
 92
       -2
340
0
 93
        0
 40
0.045
309
GRIDFORMAT_END
 95
        4
302
GRIDFORMAT
  1
GRIDFORMAT_BEGIN
 90
        0
 91
        1
 62
     0
 92
       -2
340
0
 93
        0
 40
0.045
309
GRIDFORMAT_END
 95
        8
302
GRIDFORMAT
  1
GRIDFORMAT_BEGIN
 90
        0
 91
        1
 62
     0
 92
       -2
340
0
 93
        0
 40
0.045
309
GRIDFORMAT_END
 95
       16
302
GRIDFORMAT
  1
GRIDFORMAT_BEGIN
 90
        0
 91
        1
 62
     0
 92
       -2
340
0
 93
        0
 40
0.045
309
GRIDFORMAT_END
 95
       32
302
GRIDFORMAT
  1
GRIDFORMAT_BEGIN
 90
        0
 91
        1
 62
     0
 92
       -2
340
0
 93
        0
 40
0.045
309
GRIDFORMAT_END
309
TABLEFORMAT_END
  1
CELLSTYLE_BEGIN
 90
        2
 91
        1
300
_HEADER
309
CELLSTYLE_END
300
CELLSTYLE
  1
TABLEFORMAT_BEGIN
 90
        5
170
     1
 91
        0
 92
        0
 62
   257
 93
        1
300
CONTENTFORMAT
  1
CONTENTFORMAT_BEGIN
 90
        0
 91
        0
 92
        4
 93
        0
300

 40
0.0
140
1.0
 94
        2
 62
     0
340
17
144
4.5
309
CONTENTFORMAT_END
171
     1
301
MARGIN
  1
CELLMARGIN_BEGIN
 40
0.06
 40
0.06
 40
0.06
 40
0.06
 40
0.18
 40
0.18
309
CELLMARGIN_END
 94
        6
 95
        1
302
GRIDFORMAT
  1
GRIDFORMAT_BEGIN
 90
        0
 91
        1
 62
     0
 92
       -2
340
0
 93
        0
 40
0.045
309
GRIDFORMAT_END
 95
        2
302
GRIDFORMAT
  1
GRIDFORMAT_BEGIN
 90
        0
 91
        1
 62
     0
 92
       -2
340
0
 93
        0
 40
0.045
309
GRIDFORMAT_END
 95
        4
302
GRIDFORMAT
  1
GRIDFORMAT_BEGIN
 90
        0
 91
        1
 62
     0
 92
       -2
340
0
 93
        0
 40
0.045
309
GRIDFORMAT_END
 95
        8
302
GRIDFORMAT
  1
GRIDFORMAT_BEGIN
 90
        0
 91
        1
 62
     0
 92
       -2
340
0
 93
        0
 40
0.045
309
GRIDFORMAT_END
 95
       16
302
GRIDFORMAT
  1
GRIDFORMAT_BEGIN
 90
        0
 91
        1
 62
     0
 92
       -2
340
0
 93
        0
 40
0.045
309
GRIDFORMAT_END
 95
       32
302
GRIDFORMAT
  1
GRIDFORMAT_BEGIN
 90
        0
 91
        1
 62
     0
 92
       -2
340
0
 93
        0
 40
0.045
309
GRIDFORMAT_END
309
TABLEFORMAT_END
  1
CELLSTYLE_BEGIN
 90
        3
 91
        2
300
_DATA
309
CELLSTYLE_END
  0
ENDSEC
  0
EOF
