  0
SECTION
  2
HEADER
  9
$ACADVER
  1
AC1021
  9
$ACADMAINTVER
 70
    25
  9
$DWGCODEPAGE
  3
ANSI_932
  9
$LASTSAVEDBY
  1
howeNelson
  9
$INSBASE
 10
0.0
 20
0.0
 30
0.0
  9
$EXTMIN
 10
36.10107227362437
 20
31.89607416228557
 30
-0.0000000000000071
  9
$EXTMAX
 10
1011.101072273866
 20
1448.573336753213
 30
0.0000000000000142
  9
$LIMMIN
 10
0.0
 20
0.0
  9
$LIMMAX
 10
1050.0
 20
1485.0
  9
$ORTHOMODE
 70
     0
  9
$REGENMODE
 70
     1
  9
$FILLMODE
 70
     1
  9
$QTEXTMODE
 70
     0
  9
$MIRRTEXT
 70
     1
  9
$LTSCALE
 40
50.8
  9
$ATTMODE
 70
     1
  9
$TEXTSIZE
 40
2.5
  9
$TRACEWID
 40
1.0
  9
$TEXTSTYLE
  7
ＭＳ ゴシック
  9
$CLAYER
  8
DIM
  9
$CELTYPE
  6
ByLayer
  9
$CECOLOR
 62
   256
  9
$CELTSCALE
 40
1.0
  9
$DISPSILH
 70
     0
  9
$DIMSCALE
 40
1.0
  9
$DIMASZ
 40
2.0
  9
$DIMEXO
 40
15.0
  9
$DIMDLI
 40
0.9999999999999999
  9
$DIMRND
 40
0.0
  9
$DIMDLE
 40
0.0
  9
$DIMEXE
 40
0.0
  9
$DIMTP
 40
0.0
  9
$DIMTM
 40
0.0
  9
$DIMTXT
 40
12.0
  9
$DIMCEN
 40
0.0
  9
$DIMTSZ
 40
0.0
  9
$DIMTOL
 70
     0
  9
$DIMLIM
 70
     0
  9
$DIMTIH
 70
     0
  9
$DIMTOH
 70
     0
  9
$DIMSE1
 70
     0
  9
$DIMSE2
 70
     0
  9
$DIMTAD
 70
     1
  9
$DIMZIN
 70
    11
  9
$DIMBLK
  1
DOT
  9
$DIMASO
 70
     1
  9
$DIMSHO
 70
     1
  9
$DIMPOST
  1
<>
  9
$DIMAPOST
  1
[]
  9
$DIMALT
 70
     0
  9
$DIMALTD
 70
     1
  9
$DIMALTF
 40
1.0
  9
$DIMLFAC
 40
1.0
  9
$DIMTOFL
 70
     0
  9
$DIMTVP
 40
0.0
  9
$DIMTIX
 70
     1
  9
$DIMSOXD
 70
     0
  9
$DIMSAH
 70
     0
  9
$DIMBLK1
  1

  9
$DIMBLK2
  1

  9
$DIMSTYLE
  2
tfrom線あり
  9
$DIMCLRD
 70
     0
  9
$DIMCLRE
 70
     0
  9
$DIMCLRT
 70
     0
  9
$DIMTFAC
 40
1.0
  9
$DIMGAP
 40
8.0
  9
$DIMJUST
 70
     0
  9
$DIMSD1
 70
     0
  9
$DIMSD2
 70
     0
  9
$DIMTOLJ
 70
     1
  9
$DIMTZIN
 70
    11
  9
$DIMALTZ
 70
    11
  9
$DIMALTTZ
 70
    11
  9
$DIMUPT
 70
     0
  9
$DIMDEC
 70
     0
  9
$DIMTDEC
 70
     1
  9
$DIMALTU
 70
     2
  9
$DIMALTTD
 70
     2
  9
$DIMTXSTY
  7
ＭＳ ゴシック
  9
$DIMAUNIT
 70
     0
  9
$DIMADEC
 70
     2
  9
$DIMALTRND
 40
0.0
  9
$DIMAZIN
 70
     0
  9
$DIMDSEP
 70
    46
  9
$DIMATFIT
 70
     0
  9
$DIMFRAC
 70
     2
  9
$DIMLDRBLK
  1
DOT
  9
$DIMLUNIT
 70
     2
  9
$DIMLWD
 70
    -2
  9
$DIMLWE
 70
    -2
  9
$DIMTMOVE
 70
     0
  9
$DIMFXL
 40
1.0
  9
$DIMFXLON
 70
     0
  9
$DIMJOGANG
 40
0.7853981633974483
  9
$DIMTFILL
 70
     0
  9
$DIMTFILLCLR
 70
     0
  9
$DIMARCSYM
 70
     0
  9
$DIMLTYPE
  6

  9
$DIMLTEX1
  6

  9
$DIMLTEX2
  6

  9
$LUNITS
 70
     2
  9
$LUPREC
 70
     0
  9
$SKETCHINC
 40
0.1
  9
$FILLETRAD
 40
0.0
  9
$AUNITS
 70
     0
  9
$AUPREC
 70
     0
  9
$MENU
  1
acad
  9
$ELEVATION
 40
0.0
  9
$PELEVATION
 40
0.0
  9
$THICKNESS
 40
0.0
  9
$LIMCHECK
 70
     0
  9
$CHAMFERA
 40
0.0
  9
$CHAMFERB
 40
0.0
  9
$CHAMFERC
 40
0.0
  9
$CHAMFERD
 40
0.0
  9
$SKPOLY
 70
     0
  9
$TDCREATE
 40
2447893.375
  9
$TDUCREATE
 40
0.0
  9
$TDUPDATE
 40
2457522.614559861
  9
$TDUUPDATE
 40
2457522.239559861
  9
$TDINDWG
 40
0.1898913426
  9
$TDUSRTIMER
 40
2457522.23955037
  9
$USRTIMER
 70
     1
  9
$ANGBASE
 50
0.0
  9
$ANGDIR
 70
     0
  9
$PDMODE
 70
     1
  9
$PDSIZE
 40
-2.0
  9
$PLINEWID
 40
0.0
  9
$SPLFRAME
 70
     0
  9
$SPLINETYPE
 70
     6
  9
$SPLINESEGS
 70
     8
  9
$HANDSEED
  5
1B5D
  9
$SURFTAB1
 70
     6
  9
$SURFTAB2
 70
     6
  9
$SURFTYPE
 70
     6
  9
$SURFU
 70
     6
  9
$SURFV
 70
     6
  9
$UCSBASE
  2

  9
$UCSNAME
  2

  9
$UCSORG
 10
0.0
 20
0.0
 30
0.0
  9
$UCSXDIR
 10
1.0
 20
0.0
 30
0.0
  9
$UCSYDIR
 10
0.0
 20
1.0
 30
0.0
  9
$UCSORTHOREF
  2

  9
$UCSORTHOVIEW
 70
     0
  9
$UCSORGTOP
 10
0.0
 20
0.0
 30
0.0
  9
$UCSORGBOTTOM
 10
0.0
 20
0.0
 30
0.0
  9
$UCSORGLEFT
 10
0.0
 20
0.0
 30
0.0
  9
$UCSORGRIGHT
 10
0.0
 20
0.0
 30
0.0
  9
$UCSORGFRONT
 10
0.0
 20
0.0
 30
0.0
  9
$UCSORGBACK
 10
0.0
 20
0.0
 30
0.0
  9
$PUCSBASE
  2

  9
$PUCSNAME
  2

  9
$PUCSORG
 10
0.0
 20
0.0
 30
0.0
  9
$PUCSXDIR
 10
1.0
 20
0.0
 30
0.0
  9
$PUCSYDIR
 10
0.0
 20
1.0
 30
0.0
  9
$PUCSORTHOREF
  2

  9
$PUCSORTHOVIEW
 70
     0
  9
$PUCSORGTOP
 10
0.0
 20
0.0
 30
0.0
  9
$PUCSORGBOTTOM
 10
0.0
 20
0.0
 30
0.0
  9
$PUCSORGLEFT
 10
0.0
 20
0.0
 30
0.0
  9
$PUCSORGRIGHT
 10
0.0
 20
0.0
 30
0.0
  9
$PUCSORGFRONT
 10
0.0
 20
0.0
 30
0.0
  9
$PUCSORGBACK
 10
0.0
 20
0.0
 30
0.0
  9
$USERI1
 70
     0
  9
$USERI2
 70
     0
  9
$USERI3
 70
     0
  9
$USERI4
 70
     0
  9
$USERI5
 70
     0
  9
$USERR1
 40
0.0
  9
$USERR2
 40
0.0
  9
$USERR3
 40
0.0
  9
$USERR4
 40
0.0
  9
$USERR5
 40
0.0
  9
$WORLDVIEW
 70
     1
  9
$SHADEDGE
 70
     3
  9
$SHADEDIF
 70
    70
  9
$TILEMODE
 70
     1
  9
$MAXACTVP
 70
    64
  9
$PINSBASE
 10
0.0
 20
0.0
 30
0.0
  9
$PLIMCHECK
 70
     0
  9
$PEXTMIN
 10
0.0
 20
0.0
 30
0.0
  9
$PEXTMAX
 10
0.0
 20
0.0
 30
0.0
  9
$PLIMMIN
 10
-95.87226993865028
 20
-25.69999999999999
  9
$PLIMMAX
 10
201.1277300613497
 20
184.3
  9
$UNITMODE
 70
     0
  9
$VISRETAIN
 70
     0
  9
$PLINEGEN
 70
     1
  9
$PSLTSCALE
 70
     0
  9
$TREEDEPTH
 70
  3020
  9
$CMLSTYLE
  2
Standard
  9
$CMLJUST
 70
     0
  9
$CMLSCALE
 40
1.0
  9
$PROXYGRAPHICS
 70
     0
  9
$MEASUREMENT
 70
     1
  9
$CELWEIGHT
370
    -1
  9
$ENDCAPS
280
     0
  9
$JOINSTYLE
280
     0
  9
$LWDISPLAY
290
     1
  9
$INSUNITS
 70
     4
  9
$HYPERLINKBASE
  1

  9
$STYLESHEET
  1

  9
$XEDIT
290
     1
  9
$CEPSNTYPE
380
     0
  9
$PSTYLEMODE
290
     1
  9
$FINGERPRINTGUID
  2

  9
$VERSIONGUID
  2

  9
$EXTNAMES
290
     1
  9
$PSVPSCALE
 40
0.0
  9
$OLESTARTUP
290
     0
  9
$SORTENTS
280
   127
  9
$INDEXCTL
280
     0
  9
$HIDETEXT
280
     1
  9
$XCLIPFRAME
290
     0
  9
$HALOGAP
280
     0
  9
$OBSCOLOR
 70
   257
  9
$OBSLTYPE
280
     0
  9
$INTERSECTIONDISPLAY
280
     0
  9
$INTERSECTIONCOLOR
 70
   257
  9
$DIMASSOC
280
     2
  9
$PROJECTNAME
  1

  9
$CAMERADISPLAY
290
     0
  9
$LENSLENGTH
 40
50.0
  9
$CAMERAHEIGHT
 40
0.0
  9
$STEPSPERSEC
 40
2.0
  9
$STEPSIZE
 40
6.0
  9
$3DDWFPREC
 40
2.0
  9
$PSOLWIDTH
 40
0.25
  9
$PSOLHEIGHT
 40
4.0
  9
$LOFTANG1
 40
1.570796326794897
  9
$LOFTANG2
 40
1.570796326794897
  9
$LOFTMAG1
 40
0.0
  9
$LOFTMAG2
 40
0.0
  9
$LOFTPARAM
 70
     7
  9
$LOFTNORMALS
280
     1
  9
$LATITUDE
 40
37.795
  9
$LONGITUDE
 40
-122.394
  9
$NORTHDIRECTION
 40
0.0
  9
$TIMEZONE
 70
 -8000
  9
$LIGHTGLYPHDISPLAY
280
     1
  9
$TILEMODELIGHTSYNCH
280
     1
  9
$SOLIDHIST
280
     1
  9
$SHOWHIST
280
     1
  9
$DWFFRAME
280
     2
  9
$DGNFRAME
280
     2
  9
$REALWORLDSCALE
290
     1
  9
$INTERFERECOLOR
 62
   256
  9
$CSHADOW
280
     0
  9
$SHADOWPLANELOCATION
 40
0.0
  0
ENDSEC
  0
SECTION
  2
CLASSES
  0
CLASS
  1
LWPOLYLINE
  2
AcDbPolyline
  3
ObjectDBX Classes
 90
        0
 91
        1
280
     0
281
     1
  0
CLASS
  1
IMAGE
  2
AcDbRasterImage
  3
ISM
 90
      127
 91
        7
280
     0
281
     1
  0
CLASS
  1
OLE2FRAME
  2
AcDbOle2Frame
  3
ObjectDBX Classes
 90
        0
 91
        1
280
     0
281
     1
  0
CLASS
  1
HATCH
  2
AcDbHatch
  3
ObjectDBX Classes
 90
        0
 91
        1
280
     0
281
     1
  0
CLASS
  1
DICTIONARYVAR
  2
AcDbDictionaryVar
  3
ObjectDBX Classes
 90
        0
 91
        6
280
     0
281
     0
  0
CLASS
  1
RASTERVARIABLES
  2
AcDbRasterVariables
  3
ISM
 90
        0
 91
        6
280
     0
281
     0
  0
CLASS
  1
IMAGEDEF
  2
AcDbRasterImageDef
  3
ISM
 90
        0
 91
        6
280
     0
281
     0
  0
CLASS
  1
IMAGEDEF_REACTOR
  2
AcDbRasterImageDefReactor
  3
ISM
 90
        1
 91
        6
280
     0
281
     0
  0
CLASS
  1
IDBUFFER
  2
AcDbIdBuffer
  3
ObjectDBX Classes
 90
        0
 91
        6
280
     0
281
     0
  0
CLASS
  1
SPATIAL_FILTER
  2
AcDbSpatialFilter
  3
ObjectDBX Classes
 90
        0
 91
        6
280
     0
281
     0
  0
CLASS
  1
XRECORD
  2
AcDbXrecord
  3
ObjectDBX Classes
 90
        0
 91
        1
280
     0
281
     0
  0
CLASS
  1
SORTENTSTABLE
  2
AcDbSortentsTable
  3
ObjectDBX Classes
 90
        0
 91
        6
280
     0
281
     0
  0
CLASS
  1
LAYER_INDEX
  2
AcDbLayerIndex
  3
ObjectDBX Classes
 90
        0
 91
        6
280
     0
281
     0
  0
CLASS
  1
SPATIAL_INDEX
  2
AcDbSpatialIndex
  3
AutoCAD 2000
 90
        0
 91
        6
280
     0
281
     0
  0
CLASS
  1
OBJECT_PTR
  2
CAseDLPNTableRecord
  3
ASE-LPNTableRecord
 90
        1
 91
        6
280
     0
281
     0
  0
CLASS
  1
LAYOUT
  2
AcDbLayout
  3
ObjectDBX Classes
 90
        0
 91
        1
280
     0
281
     0
  0
CLASS
  1
PLOTSETTINGS
  2
AcDbPlotSettings
  3
ObjectDBX Classes
 90
        0
 91
        6
280
     0
281
     0
  0
CLASS
  1
ACDBDICTIONARYWDFLT
  2
AcDbDictionaryWithDefault
  3
ObjectDBX Classes
 90
        0
 91
        6
280
     0
281
     0
  0
CLASS
  1
ACDBPLACEHOLDER
  2
AcDbPlaceHolder
  3
ObjectDBX Classes
 90
        0
 91
        1
280
     0
281
     0
  0
CLASS
  1
SCALE
  2
AcDbScale
  3
ObjectDBX Classes
 90
     1153
 91
        6
280
     0
281
     0
  0
CLASS
  1
MATERIAL
  2
AcDbMaterial
  3
ObjectDBX Classes
 90
     1153
 91
        6
280
     0
281
     0
  0
CLASS
  1
VISUALSTYLE
  2
AcDbVisualStyle
  3
ObjectDBX Classes
 90
     4095
 91
        6
280
     0
281
     0
  0
CLASS
  1
TABLESTYLE
  2
AcDbTableStyle
  3
ObjectDBX Classes
 90
     4095
 91
        6
280
     0
281
     0
  0
CLASS
  1
DIMASSOC
  2
AcDbDimAssoc
  3
"AcDbDimAssoc|Product Desc:     AcDim ARX App For Dimension|Company:          Autodesk, Inc.|WEB Address:      www.autodesk.com"
 90
        0
 91
        6
280
     0
281
     0
  0
CLASS
  1
CELLSTYLEMAP
  2
AcDbCellStyleMap
  3
ObjectDBX Classes
 90
     1152
 91
        6
280
     0
281
     0
  0
CLASS
  1
SUN
  2
AcDbSun
  3
SCENEOE
 90
     1153
 91
        6
280
     0
281
     0
  0
CLASS
  1
MLEADERSTYLE
  2
AcDbMLeaderStyle
  3
ACDB_MLEADERSTYLE_CLASS
 90
     4095
 91
        6
280
     0
281
     0
  0
ENDSEC
  0
SECTION
  2
TABLES
  0
TABLE
  2
VPORT
  5
7
330
0
100
AcDbSymbolTable
 70
     1
  0
VPORT
  5
15
330
7
100
AcDbSymbolTableRecord
100
AcDbViewportTableRecord
  2
*ACTIVE
 70
     0
 10
0.0
 20
0.0
 11
1.0
 21
1.0
 12
614.6212079446442
 22
666.6359909275833
 13
0.0
 23
0.0
 14
1.0
 24
1.0
 15
0.0
 25
0.0
 16
0.0
 26
0.0
 36
1.0
 17
-91.0201356708991
 27
73.59871453016603
 37
-46.86809886248109
 40
1445.010807842746
 41
2.432944606413994
 42
50.0
 43
0.0
 44
0.0
 50
0.0
 51
0.0
 71
    16
 72
  2000
 73
     1
 74
     1
 75
     0
 76
     0
 77
     0
 78
     0
281
     0
 65
     1
110
0.0
120
0.0
130
0.0
111
1.0
121
0.0
131
0.0
112
0.0
122
1.0
132
0.0
 79
     0
146
0.0
348
26C
 60
     3
 61
     5
292
     1
282
     1
141
0.0
142
0.0
 63
   256
361
904
  0
ENDTAB
  0
TABLE
  2
LTYPE
  5
4
330
0
100
AcDbSymbolTable
 70
    19
  0
LTYPE
  5
11
330
4
100
AcDbSymbolTableRecord
100
AcDbLinetypeTableRecord
  2
ByBlock
 70
     0
  3

 72
    65
 73
     0
 40
0.0
  0
LTYPE
  5
12
330
4
100
AcDbSymbolTableRecord
100
AcDbLinetypeTableRecord
  2
ByLayer
 70
     0
  3

 72
    65
 73
     0
 40
0.0
  0
LTYPE
  5
13
330
4
100
AcDbSymbolTableRecord
100
AcDbLinetypeTableRecord
  2
Continuous
 70
     0
  3
Solid line
 72
    65
 73
     0
 40
0.0
  0
LTYPE
  5
3A
330
4
100
AcDbSymbolTableRecord
100
AcDbLinetypeTableRecord
  2
STYLE_01
 70
     0
  3

 72
    65
 73
     2
 40
0.2460629921259842
 49
0.1230314960629921
 74
     0
 49
-0.1230314960629921
 74
     0
  0
LTYPE
  5
3B
330
4
100
AcDbSymbolTableRecord
100
AcDbLinetypeTableRecord
  2
STYLE_02
 70
     0
  3

 72
    65
 73
     2
 40
0.6944250000000001
 49
0.48607
 74
     0
 49
-0.2083550000000001
 74
     0
  0
LTYPE
  5
3C
330
4
100
AcDbSymbolTableRecord
100
AcDbLinetypeTableRecord
  2
STYLE_03
 70
     0
  3

 72
    65
 73
     2
 40
1.25
 49
1.04164
 74
     0
 49
-0.2083599999999999
 74
     0
  0
LTYPE
  5
3D
330
4
100
AcDbSymbolTableRecord
100
AcDbLinetypeTableRecord
  2
STYLE_04
 70
     0
  3

 72
    65
 73
     2
 40
1.52771
 49
1.319425
 74
     0
 49
-0.208285
 74
     0
  0
LTYPE
  5
3E
330
4
100
AcDbSymbolTableRecord
100
AcDbLinetypeTableRecord
  2
STYLE_05
 70
     0
  3

 72
    65
 73
     2
 40
0.20828
 49
0.069425
 74
     0
 49
-0.138855
 74
     0
  0
LTYPE
  5
3F
330
4
100
AcDbSymbolTableRecord
100
AcDbLinetypeTableRecord
  2
STYLE_06
 70
     0
  3

 72
    65
 73
     4
 40
1.04164
 49
0.625
 74
     0
 49
-0.20828
 74
     0
 49
0.06943
 74
     0
 49
-0.13893
 74
     0
  0
LTYPE
  5
40
330
4
100
AcDbSymbolTableRecord
100
AcDbLinetypeTableRecord
  2
STYLE_07
 70
     0
  3

 72
    65
 73
     6
 40
1.875
 49
0.625
 74
     0
 49
-0.20828
 74
     0
 49
0.6250000000000001
 74
     0
 49
-0.2083599999999999
 74
     0
 49
0.06943
 74
     0
 49
-0.1389299999999999
 74
     0
  0
LTYPE
  5
41
330
4
100
AcDbSymbolTableRecord
100
AcDbLinetypeTableRecord
  2
STYLE_08
 70
     0
  3

 72
    65
 73
     6
 40
1.25
 49
0.625
 74
     0
 49
-0.20828
 74
     0
 49
0.06943
 74
     0
 49
-0.13893
 74
     0
 49
0.0694299999999999
 74
     0
 49
-0.13893
 74
     0
  0
LTYPE
  5
42
330
4
100
AcDbSymbolTableRecord
100
AcDbLinetypeTableRecord
  2
STYLE_09
 70
     0
  3

 72
    65
 73
     4
 40
5.0
 49
3.75
 74
     0
 49
-0.2777849999999998
 74
     0
 49
0.6944300000000003
 74
     0
 49
-0.2777849999999998
 74
     0
  0
LTYPE
  5
43
330
4
100
AcDbSymbolTableRecord
100
AcDbLinetypeTableRecord
  2
STYLE_10
 70
     0
  3

 72
    65
 73
     6
 40
5.9375
 49
3.75
 74
     0
 49
-0.2777849999999998
 74
     0
 49
0.6944300000000003
 74
     0
 49
-0.2777849999999998
 74
     0
 49
0.625
 74
     0
 49
-0.3125
 74
     0
  0
LTYPE
  5
44
330
4
100
AcDbSymbolTableRecord
100
AcDbLinetypeTableRecord
  2
STYLE_11
 70
     0
  3

 72
    65
 73
     2
 40
0.0694444881889764
 49
0.0347222440944882
 74
     0
 49
-0.0347222440944882
 74
     0
  0
LTYPE
  5
45
330
4
100
AcDbSymbolTableRecord
100
AcDbLinetypeTableRecord
  2
STYLE_12
 70
     0
  3

 72
    65
 73
     2
 40
0.3937007874015748
 49
0.1968503937007874
 74
     0
 49
-0.1968503937007874
 74
     0
  0
LTYPE
  5
46
330
4
100
AcDbSymbolTableRecord
100
AcDbLinetypeTableRecord
  2
STYLE_13
 70
     0
  3

 72
    65
 73
     2
 40
0.5905511811023622
 49
0.2952755905511811
 74
     0
 49
-0.2952755905511811
 74
     0
  0
LTYPE
  5
47
330
4
100
AcDbSymbolTableRecord
100
AcDbLinetypeTableRecord
  2
STYLE_14
 70
     0
  3

 72
    65
 73
     2
 40
1.968503937007874
 49
0.9842519685039369
 74
     0
 49
-0.9842519685039369
 74
     0
  0
LTYPE
  5
48
330
4
100
AcDbSymbolTableRecord
100
AcDbLinetypeTableRecord
  2
STYLE_15
 70
     0
  3

 72
    65
 73
     2
 40
0.1875
 49
0.125
 74
     0
 49
-0.0625
 74
     0
  0
LTYPE
  5
49
330
4
100
AcDbSymbolTableRecord
100
AcDbLinetypeTableRecord
  2
STYLE_16
 70
     0
  3

 72
    65
 73
     2
 40
0.3690944881889764
 49
0.2460629921259843
 74
     0
 49
-0.1230314960629922
 74
     0
  0
LTYPE
  5
908
330
4
100
AcDbSymbolTableRecord
100
AcDbLinetypeTableRecord
  2
AI-LINETYPE-1
 70
     0
  3
Adobe Illustrator Linetype No. 1
 72
    65
 73
     4
 40
2.116668062491661
 49
1.058334031245831
 74
     0
 49
-0.3527780104152769
 74
     0
 49
0.3527780104152769
 74
     0
 49
-0.3527780104152769
 74
     0
  0
LTYPE
  5
909
330
4
100
AcDbSymbolTableRecord
100
AcDbLinetypeTableRecord
  2
AI-LINETYPE-2
 70
     0
  3
Adobe Illustrator Linetype No. 2
 72
    65
 73
     4
 40
2.116668062491661
 49
1.058334031245831
 74
     0
 49
-0.3527780104152769
 74
     0
 49
0.3527780104152769
 74
     0
 49
-0.3527780104152769
 74
     0
  0
ENDTAB
  0
TABLE
  2
LAYER
  5
2
102
{ACAD_XDICTIONARY
360
2E1
102
}
330
0
100
AcDbSymbolTable
 70
     7
  0
LAYER
  5
14
330
2
100
AcDbSymbolTableRecord
100
AcDbLayerTableRecord
  2
0
 70
     0
 62
     7
  6
Continuous
370
    -3
390
1D
347
266
  0
LAYER
  5
4B
330
2
100
AcDbSymbolTableRecord
100
AcDbLayerTableRecord
  2
TEMPLATE
 70
     0
 62
     7
  6
Continuous
370
    20
390
1D
347
266
  0
LAYER
  5
4C
330
2
100
AcDbSymbolTableRecord
100
AcDbLayerTableRecord
  2
DIM
 70
     0
 62
     7
  6
Continuous
370
    13
390
1D
347
266
  0
LAYER
  5
4D
330
2
100
AcDbSymbolTableRecord
100
AcDbLayerTableRecord
  2
MODEL
 70
     0
 62
     7
  6
Continuous
370
    20
390
1D
347
266
  0
LAYER
  5
667
330
2
100
AcDbSymbolTableRecord
100
AcDbLayerTableRecord
  2
LOGO
 70
     0
 62
     7
  6
Continuous
370
    -3
390
1D
347
266
  0
LAYER
  5
88C
330
2
100
AcDbSymbolTableRecord
100
AcDbLayerTableRecord
  2
HIDDEN
 70
     0
 62
     7
  6
STYLE_12
370
    20
390
1D
347
266
1001
AcAecLayerStandard
1000

1000

  0
LAYER
  5
E85
330
2
100
AcDbSymbolTableRecord
100
AcDbLayerTableRecord
  2
Defpoints
 70
     0
 62
     7
  6
Continuous
290
     0
370
    -3
390
1D
347
266
  0
ENDTAB
  0
TABLE
  2
STYLE
  5
3
330
0
100
AcDbSymbolTable
 70
     4
  0
STYLE
  5
17
330
3
100
AcDbSymbolTableRecord
100
AcDbTextStyleTableRecord
  2
Standard
 70
     0
 40
0.0
 41
1.0
 50
0.0
 71
     0
 42
2.5
  3
txt
  4
BIGFONT.SHX
  0
STYLE
  5
39
330
3
100
AcDbSymbolTableRecord
100
AcDbTextStyleTableRecord
  2
ＭＳ ゴシック
 70
     0
 40
0.0
 41
1.0
 50
0.0
 71
     0
 42
2.5
  3
msgothic.ttc
  4
ＭＳ ゴシック
1001
ACAD
1000
ＭＳ ゴシック
1071
        0
  0
STYLE
  5
384
330
3
100
AcDbSymbolTableRecord
100
AcDbTextStyleTableRecord
  2
ARIAL
 70
     0
 40
0.0
 41
1.0
 50
0.0
 71
     0
 42
12.0
  3
ARIAL.TTF
  4

1001
ACAD
1000
Arial
1071
       34
  0
STYLE
  5
385
330
3
100
AcDbSymbolTableRecord
100
AcDbTextStyleTableRecord
  2
ROMANS
 70
     0
 40
0.0
 41
1.0
 50
0.0
 71
     0
 42
5.0
  3
romans.shx
  4

  0
ENDTAB
  0
TABLE
  2
VIEW
  5
5
330
0
100
AcDbSymbolTable
 70
     0
  0
ENDTAB
  0
TABLE
  2
UCS
  5
6
330
0
100
AcDbSymbolTable
 70
     0
  0
ENDTAB
  0
TABLE
  2
APPID
  5
8
330
0
100
AcDbSymbolTable
 70
     3
  0
APPID
  5
16
330
8
100
AcDbSymbolTableRecord
100
AcDbRegAppTableRecord
  2
ACAD
 70
     0
  0
APPID
  5
7AC
330
8
100
AcDbSymbolTableRecord
100
AcDbRegAppTableRecord
  2
AcAecLayerStandard
 70
     0
  0
APPID
  5
1B32
330
8
100
AcDbSymbolTableRecord
100
AcDbRegAppTableRecord
  2
ACAD_MLEADERVER
 70
     0
  0
ENDTAB
  0
TABLE
  2
DIMSTYLE
  5
9
330
0
100
AcDbSymbolTable
 70
     6
100
AcDbDimStyleTable
  0
DIMSTYLE
105
18
330
9
100
AcDbSymbolTableRecord
100
AcDbDimStyleTableRecord
  2
Standard
 70
     0
178
     0
340
17
  0
DIMSTYLE
105
56
330
9
100
AcDbSymbolTableRecord
100
AcDbDimStyleTableRecord
  2
tform線あり
 70
     0
  3
<>
  4
[]
 41
9.999389648437498
 42
25.0
 43
0.9999999999999999
 44
0.0
 73
     0
 74
     0
 77
     1
 78
    11
140
24.4326171875
141
0.0
143
1.0
146
0.8
147
0.4999999999999999
171
     1
172
     1
174
     1
178
     0
179
     2
271
     1
272
     1
276
     2
284
    11
285
    11
286
    11
289
     0
340
39
341
4E
342
4E
  0
DIMSTYLE
105
57
102
{ACAD_REACTORS
330
1989
330
19D9
330
19FA
330
1A11
330
1A1E
330
1A2D
330
1A48
102
}
330
9
100
AcDbSymbolTableRecord
100
AcDbDimStyleTableRecord
  2
tfrom線あり
 70
     0
  3
<>
  4
[]
 41
2.0
 42
15.0
 43
0.9999999999999999
 44
0.0
 73
     0
 74
     0
 77
     1
 78
    11
140
12.0
141
0.0
143
1.0
147
8.0
171
     1
174
     1
178
     0
179
     2
271
     0
272
     1
276
     2
284
    11
285
    11
286
    11
289
     0
340
39
341
4E
342
4E
  0
DIMSTYLE
105
5C
330
9
100
AcDbSymbolTableRecord
100
AcDbDimStyleTableRecord
  2
JIS
 70
     0
  3
<>
  4
[]
 41
9.0
 42
0.0
 43
6.99999999999994
 44
19.9999999999962
 73
     0
 74
     0
 77
     1
 78
    11
140
24.4326171875
141
0.0
143
1.0
147
10.0
171
     1
174
     1
178
     0
179
     2
271
     1
272
     1
276
     2
284
    11
285
    11
286
    11
289
     0
340
39
341
4E
342
4E
  0
DIMSTYLE
105
383
330
9
100
AcDbSymbolTableRecord
100
AcDbDimStyleTableRecord
  2
ARIAL
 70
     0
 41
10.0
 42
3.0
 43
0.5
 44
3.0
 73
     0
 74
     0
 77
     1
 78
     8
140
12.0
141
0.0
146
0.5
147
4.0
171
     1
172
     1
178
     0
271
     1
289
     0
340
384
  0
DIMSTYLE
105
D5B
330
9
100
AcDbSymbolTableRecord
100
AcDbDimStyleTableRecord
  2
ISO-25
 70
     0
 41
2.5
 42
0.625
 43
3.75
 44
1.25
 73
     0
 74
     0
 77
     1
 78
     8
140
2.5
141
2.5
143
0.03937007874016
147
0.625
171
     3
172
     1
178
     0
271
     2
272
     2
274
     3
278
    44
283
     0
284
     8
340
17
  0
ENDTAB
  0
TABLE
  2
BLOCK_RECORD
  5
1
330
0
100
AcDbSymbolTable
 70
    46
  0
BLOCK_RECORD
  5
A
330
1
100
AcDbSymbolTableRecord
100
AcDbBlockTableRecord
  2
*MODEL_SPACE
340
20
 70
     0
280
     1
281
     0
  0
BLOCK_RECORD
  5
B
330
1
100
AcDbSymbolTableRecord
100
AcDbBlockTableRecord
  2
*PAPER_SPACE
340
21
 70
     0
280
     1
281
     0
  0
BLOCK_RECORD
  5
4E
330
1
100
AcDbSymbolTableRecord
100
AcDbBlockTableRecord
  2
_DOT
340
0
102
{BLKREFS
331
E8F
331
E90
331
E9E
331
E9F
331
ED6
331
ED7
331
F64
331
F65
331
F71
331
F72
331
FAE
331
FAF
331
FC0
331
FC1
331
FDF
331
FE0
331
1009
331
100A
331
1018
331
1019
331
1027
331
1028
331
1061
331
1062
331
108C
331
108D
331
10A3
331
10A4
331
10B6
331
10B7
331
1110
331
1111
331
112F
331
1130
331
116A
331
116B
331
1188
331
1189
331
11D9
331
11DA
331
11EC
331
11ED
331
1412
331
1413
331
146C
331
146D
331
1478
331
1479
331
1484
331
1485
331
1490
331
1491
331
149C
331
149D
331
14A8
331
14A9
331
14B4
331
14B5
331
14C0
331
14C1
331
14CC
331
14CD
331
14D8
331
14D9
331
14E4
331
14E5
331
1992
331
1993
331
19E0
331
19E1
331
1A03
331
1A04
331
1A18
331
1A19
331
1A27
331
1A28
331
1A36
331
1A37
331
1A51
331
1A52
102
}
 70
     0
280
     1
281
     0
  0
BLOCK_RECORD
  5
68A
330
1
100
AcDbSymbolTableRecord
100
AcDbBlockTableRecord
  2
名称未設定-1
340
0
102
{BLKREFS
331
6B5
102
}
 70
     1
280
     1
281
     0
  0
BLOCK_RECORD
  5
68D
330
1
100
AcDbSymbolTableRecord
100
AcDbBlockTableRecord
  2
block 2
340
0
102
{BLKREFS
331
68C
102
}
 70
     0
280
     1
281
     0
  0
BLOCK_RECORD
  5
690
330
1
100
AcDbSymbolTableRecord
100
AcDbBlockTableRecord
  2
block 3
340
0
102
{BLKREFS
331
68F
102
}
 70
     0
280
     1
281
     0
  0
BLOCK_RECORD
  5
693
330
1
100
AcDbSymbolTableRecord
100
AcDbBlockTableRecord
  2
block 4
340
0
102
{BLKREFS
331
692
102
}
 70
     0
280
     1
281
     0
  0
BLOCK_RECORD
  5
6A2
330
1
100
AcDbSymbolTableRecord
100
AcDbBlockTableRecord
  2
block 5
340
0
102
{BLKREFS
331
6A1
102
}
 70
     0
280
     1
281
     0
  0
BLOCK_RECORD
  5
E89
330
1
100
AcDbSymbolTableRecord
100
AcDbBlockTableRecord
  2
*D6
340
0
 70
     0
280
     1
281
     0
  0
BLOCK_RECORD
  5
E98
330
1
100
AcDbSymbolTableRecord
100
AcDbBlockTableRecord
  2
*D7
340
0
 70
     0
280
     1
281
     0
  0
BLOCK_RECORD
  5
ED0
330
1
100
AcDbSymbolTableRecord
100
AcDbBlockTableRecord
  2
*D8
340
0
 70
     0
280
     1
281
     0
  0
BLOCK_RECORD
  5
F5E
330
1
100
AcDbSymbolTableRecord
100
AcDbBlockTableRecord
  2
*D9
340
0
 70
     0
280
     1
281
     0
  0
BLOCK_RECORD
  5
F6B
330
1
100
AcDbSymbolTableRecord
100
AcDbBlockTableRecord
  2
*D10
340
0
 70
     0
280
     1
281
     0
  0
BLOCK_RECORD
  5
FA9
330
1
100
AcDbSymbolTableRecord
100
AcDbBlockTableRecord
  2
*D11
340
0
 70
     0
280
     1
281
     0
  0
BLOCK_RECORD
  5
FBA
330
1
100
AcDbSymbolTableRecord
100
AcDbBlockTableRecord
  2
*D12
340
0
 70
     0
280
     1
281
     0
  0
BLOCK_RECORD
  5
FD9
330
1
100
AcDbSymbolTableRecord
100
AcDbBlockTableRecord
  2
*D13
340
0
 70
     0
280
     1
281
     0
  0
BLOCK_RECORD
  5
1003
330
1
100
AcDbSymbolTableRecord
100
AcDbBlockTableRecord
  2
*D14
340
0
 70
     0
280
     1
281
     0
  0
BLOCK_RECORD
  5
1012
330
1
100
AcDbSymbolTableRecord
100
AcDbBlockTableRecord
  2
*D15
340
0
 70
     0
280
     1
281
     0
  0
BLOCK_RECORD
  5
1021
330
1
100
AcDbSymbolTableRecord
100
AcDbBlockTableRecord
  2
*D16
340
0
 70
     0
280
     1
281
     0
  0
BLOCK_RECORD
  5
105B
330
1
100
AcDbSymbolTableRecord
100
AcDbBlockTableRecord
  2
*D17
340
0
 70
     0
280
     1
281
     0
  0
BLOCK_RECORD
  5
1086
330
1
100
AcDbSymbolTableRecord
100
AcDbBlockTableRecord
  2
*D18
340
0
 70
     0
280
     1
281
     0
  0
BLOCK_RECORD
  5
109D
330
1
100
AcDbSymbolTableRecord
100
AcDbBlockTableRecord
  2
*D19
340
0
 70
     0
280
     1
281
     0
  0
BLOCK_RECORD
  5
10B0
330
1
100
AcDbSymbolTableRecord
100
AcDbBlockTableRecord
  2
*D20
340
0
 70
     0
280
     1
281
     0
  0
BLOCK_RECORD
  5
110A
330
1
100
AcDbSymbolTableRecord
100
AcDbBlockTableRecord
  2
*D21
340
0
 70
     0
280
     1
281
     0
  0
BLOCK_RECORD
  5
1129
330
1
100
AcDbSymbolTableRecord
100
AcDbBlockTableRecord
  2
*D22
340
0
 70
     0
280
     1
281
     0
  0
BLOCK_RECORD
  5
1164
330
1
100
AcDbSymbolTableRecord
100
AcDbBlockTableRecord
  2
*D23
340
0
 70
     0
280
     1
281
     0
  0
BLOCK_RECORD
  5
1182
330
1
100
AcDbSymbolTableRecord
100
AcDbBlockTableRecord
  2
*D24
340
0
 70
     0
280
     1
281
     0
  0
BLOCK_RECORD
  5
11D4
330
1
100
AcDbSymbolTableRecord
100
AcDbBlockTableRecord
  2
*D25
340
0
 70
     0
280
     1
281
     0
  0
BLOCK_RECORD
  5
11E6
330
1
100
AcDbSymbolTableRecord
100
AcDbBlockTableRecord
  2
*D26
340
0
 70
     0
280
     1
281
     0
  0
BLOCK_RECORD
  5
140C
330
1
100
AcDbSymbolTableRecord
100
AcDbBlockTableRecord
  2
*D27
340
0
 70
     0
280
     1
281
     0
  0
BLOCK_RECORD
  5
1466
330
1
100
AcDbSymbolTableRecord
100
AcDbBlockTableRecord
  2
*D28
340
0
 70
     0
280
     1
281
     0
  0
BLOCK_RECORD
  5
1472
330
1
100
AcDbSymbolTableRecord
100
AcDbBlockTableRecord
  2
*D29
340
0
 70
     0
280
     1
281
     0
  0
BLOCK_RECORD
  5
147E
330
1
100
AcDbSymbolTableRecord
100
AcDbBlockTableRecord
  2
*D30
340
0
 70
     0
280
     1
281
     0
  0
BLOCK_RECORD
  5
148A
330
1
100
AcDbSymbolTableRecord
100
AcDbBlockTableRecord
  2
*D31
340
0
 70
     0
280
     1
281
     0
  0
BLOCK_RECORD
  5
1496
330
1
100
AcDbSymbolTableRecord
100
AcDbBlockTableRecord
  2
*D32
340
0
 70
     0
280
     1
281
     0
  0
BLOCK_RECORD
  5
14A2
330
1
100
AcDbSymbolTableRecord
100
AcDbBlockTableRecord
  2
*D33
340
0
 70
     0
280
     1
281
     0
  0
BLOCK_RECORD
  5
14AE
330
1
100
AcDbSymbolTableRecord
100
AcDbBlockTableRecord
  2
*D34
340
0
 70
     0
280
     1
281
     0
  0
BLOCK_RECORD
  5
14BA
330
1
100
AcDbSymbolTableRecord
100
AcDbBlockTableRecord
  2
*D35
340
0
 70
     0
280
     1
281
     0
  0
BLOCK_RECORD
  5
14C6
330
1
100
AcDbSymbolTableRecord
100
AcDbBlockTableRecord
  2
*D36
340
0
 70
     0
280
     1
281
     0
  0
BLOCK_RECORD
  5
14D2
330
1
100
AcDbSymbolTableRecord
100
AcDbBlockTableRecord
  2
*D37
340
0
 70
     0
280
     1
281
     0
  0
BLOCK_RECORD
  5
14DE
330
1
100
AcDbSymbolTableRecord
100
AcDbBlockTableRecord
  2
*D38
340
0
 70
     0
280
     1
281
     0
  0
BLOCK_RECORD
  5
198C
330
1
100
AcDbSymbolTableRecord
100
AcDbBlockTableRecord
  2
*D39
340
0
 70
     0
280
     1
281
     0
  0
BLOCK_RECORD
  5
19DA
330
1
100
AcDbSymbolTableRecord
100
AcDbBlockTableRecord
  2
*D40
340
0
 70
     0
280
     1
281
     0
  0
BLOCK_RECORD
  5
19FD
330
1
100
AcDbSymbolTableRecord
100
AcDbBlockTableRecord
  2
*D41
340
0
 70
     0
280
     1
281
     0
  0
BLOCK_RECORD
  5
1A12
330
1
100
AcDbSymbolTableRecord
100
AcDbBlockTableRecord
  2
*D42
340
0
 70
     0
280
     1
281
     0
  0
BLOCK_RECORD
  5
1A21
330
1
100
AcDbSymbolTableRecord
100
AcDbBlockTableRecord
  2
*D43
340
0
 70
     0
280
     1
281
     0
  0
BLOCK_RECORD
  5
1A30
330
1
100
AcDbSymbolTableRecord
100
AcDbBlockTableRecord
  2
*D44
340
0
 70
     0
280
     1
281
     0
  0
BLOCK_RECORD
  5
1A4B
330
1
100
AcDbSymbolTableRecord
100
AcDbBlockTableRecord
  2
*D45
340
0
 70
     0
280
     1
281
     0
  0
ENDTAB
  0
ENDSEC
  0
SECTION
  2
BLOCKS
  0
BLOCK
  5
D
330
A
100
AcDbEntity
  8
0
390
1D
100
AcDbBlockBegin
  2
*MODEL_SPACE
 70
     0
 10
0.0
 20
0.0
 30
0.0
  3
*MODEL_SPACE
  1
*MODEL_SPACE
  0
ENDBLK
  5
E
330
A
100
AcDbEntity
  8
0
390
1D
100
AcDbBlockEnd
  0
BLOCK
  5
F
330
B
100
AcDbEntity
 67
     1
  8
0
390
1D
100
AcDbBlockBegin
  2
*PAPER_SPACE
 70
     0
 10
0.0
 20
0.0
 30
0.0
  3
*PAPER_SPACE
  1
*PAPER_SPACE
  0
ENDBLK
  5
10
330
B
100
AcDbEntity
 67
     1
  8
0
390
1D
100
AcDbBlockEnd
  0
BLOCK
  5
10F3
330
4E
100
AcDbEntity
  8
0
390
1D
100
AcDbBlockBegin
  2
_DOT
 70
     0
 10
0.0
 20
0.0
 30
0.0
  3
_DOT
  1
_DOT
  0
POLYLINE
  5
10F5
330
4E
100
AcDbEntity
  8
0
  6
ByBlock
 62
     0
370
    -2
390
1D
100
AcDb2dPolyline
 66
     1
 10
0.0
 20
0.0
 30
0.0
 70
     1
 40
0.5
 41
0.5
  0
VERTEX
  5
10F6
330
10F5
100
AcDbEntity
  8
0
  6
ByBlock
 62
     0
370
    -2
390
1D
100
AcDbVertex
100
AcDb2dVertex
 10
-0.25
 20
0.0
 30
0.0
 42
1.0
  0
VERTEX
  5
10F7
330
10F5
100
AcDbEntity
  8
0
  6
ByBlock
 62
     0
370
    -2
390
1D
100
AcDbVertex
100
AcDb2dVertex
 10
0.25
 20
0.0
 30
0.0
 42
1.0
  0
SEQEND
  5
10F8
330
10F5
100
AcDbEntity
  8
0
390
1D
  0
LINE
  5
10F9
330
4E
100
AcDbEntity
  8
0
  6
ByBlock
 62
     0
370
    -2
390
1D
100
AcDbLine
 10
-0.5
 20
0.0
 30
0.0
 11
-1.0
 21
0.0
 31
0.0
  0
ENDBLK
  5
10FA
330
4E
100
AcDbEntity
  8
0
390
1D
100
AcDbBlockEnd
  0
BLOCK
  5
68B
330
68A
100
AcDbEntity
  8
0
100
AcDbBlockBegin
  2
名称未設定-1
 70
     0
 10
0.0
 20
0.0
 30
0.0
  3
名称未設定-1
  1
名称未設定-1
  0
INSERT
  5
68F
330
68A
100
AcDbEntity
  8
LOGO
100
AcDbBlockReference
  2
block 3
 10
0.0
 20
0.0
 30
0.0
  0
ENDBLK
  5
6B1
330
68A
100
AcDbEntity
  8
0
100
AcDbBlockEnd
  0
BLOCK
  5
68E
330
68D
100
AcDbEntity
  8
0
100
AcDbBlockBegin
  2
block 2
 70
     0
 10
0.0
 20
0.0
 30
0.0
  3
block 2
  1
block 2
  0
ENDBLK
  5
6B0
330
68D
100
AcDbEntity
  8
0
100
AcDbBlockEnd
  0
BLOCK
  5
691
330
690
100
AcDbEntity
  8
0
100
AcDbBlockBegin
  2
block 3
 70
     0
 10
0.0
 20
0.0
 30
0.0
  3
block 3
  1
block 3
  0
INSERT
  5
692
330
690
100
AcDbEntity
  8
LOGO
100
AcDbBlockReference
  2
block 4
 10
0.0
 20
0.0
 30
0.0
  0
INSERT
  5
6A1
330
690
100
AcDbEntity
  8
LOGO
100
AcDbBlockReference
  2
block 5
 10
0.0
 20
0.0
 30
0.0
  0
ENDBLK
  5
6AF
330
690
100
AcDbEntity
  8
0
100
AcDbBlockEnd
  0
BLOCK
  5
694
330
693
100
AcDbEntity
  8
0
100
AcDbBlockBegin
  2
block 4
 70
     0
 10
0.0
 20
0.0
 30
0.0
  3
block 4
  1
block 4
  0
POLYLINE
  5
695
330
693
100
AcDbEntity
  8
LOGO
370
     0
100
AcDb2dPolyline
 66
     1
 10
0.0
 20
0.0
 30
0.0
  0
VERTEX
  5
696
330
695
100
AcDbEntity
  8
LOGO
370
     0
100
AcDbVertex
100
AcDb2dVertex
 10
83.79545727667795
 20
167.6444858234922
 30
0.0
  0
VERTEX
  5
697
330
695
100
AcDbEntity
  8
LOGO
370
     0
100
AcDbVertex
100
AcDb2dVertex
 10
83.79545727667795
 20
159.7968976406313
 30
0.0
  0
VERTEX
  5
698
330
695
100
AcDbEntity
  8
LOGO
370
     0
100
AcDbVertex
100
AcDb2dVertex
 10
71.3631329975216
 20
159.7968976406313
 30
0.0
  0
VERTEX
  5
699
330
695
100
AcDbEntity
  8
LOGO
370
     0
100
AcDbVertex
100
AcDb2dVertex
 10
71.3631329975216
 20
127.8027915271048
 30
0.0
  0
VERTEX
  5
69A
330
695
100
AcDbEntity
  8
LOGO
370
     0
100
AcDbVertex
100
AcDb2dVertex
 10
60.43011526263018
 20
127.8027915271048
 30
0.0
  0
VERTEX
  5
69B
330
695
100
AcDbEntity
  8
LOGO
370
     0
100
AcDbVertex
100
AcDb2dVertex
 10
60.43011526263018
 20
159.7968976406313
 30
0.0
  0
VERTEX
  5
69C
330
695
100
AcDbEntity
  8
LOGO
370
     0
100
AcDbVertex
100
AcDb2dVertex
 10
48.21793273020759
 20
159.7968976406313
 30
0.0
  0
VERTEX
  5
69D
330
695
100
AcDbEntity
  8
LOGO
370
     0
100
AcDbVertex
100
AcDb2dVertex
 10
48.21793273020759
 20
167.6444858234922
 30
0.0
  0
VERTEX
  5
69E
330
695
100
AcDbEntity
  8
LOGO
370
     0
100
AcDbVertex
100
AcDb2dVertex
 10
83.79545727667795
 20
167.6444858234922
 30
0.0
  0
SEQEND
  5
69F
330
695
100
AcDbEntity
  8
LOGO
370
     0
  0
HATCH
  5
6A0
330
693
100
AcDbEntity
  8
LOGO
 62
   250
420
  2234388
100
AcDbHatch
 10
0.0
 20
0.0
 30
0.0
210
0.0
220
0.0
230
1.0
  2
SOLID
 70
     1
 71
     0
 91
        1
 92
        1
 93
        8
 72
     1
 10
83.79545727667795
 20
167.6444858234922
 11
83.79545727667795
 21
159.7968976406313
 72
     1
 10
83.79545727667795
 20
159.7968976406313
 11
71.3631329975216
 21
159.7968976406313
 72
     1
 10
71.3631329975216
 20
159.7968976406313
 11
71.3631329975216
 21
127.8027915271048
 72
     1
 10
71.3631329975216
 20
127.8027915271048
 11
60.43011526263018
 21
127.8027915271048
 72
     1
 10
60.43011526263018
 20
127.8027915271048
 11
60.43011526263018
 21
159.7968976406313
 72
     1
 10
60.43011526263018
 20
159.7968976406313
 11
48.21793273020759
 21
159.7968976406313
 72
     1
 10
48.21793273020759
 20
159.7968976406313
 11
48.21793273020759
 21
167.6444858234922
 72
     1
 10
48.21793273020759
 20
167.6444858234922
 11
83.79545727667795
 21
167.6444858234922
 97
        0
 75
     2
 76
     1
 98
        0
  0
ENDBLK
  5
6AE
330
693
100
AcDbEntity
  8
0
100
AcDbBlockEnd
  0
BLOCK
  5
6A3
330
6A2
100
AcDbEntity
  8
0
100
AcDbBlockBegin
  2
block 5
 70
     0
 10
0.0
 20
0.0
 30
0.0
  3
block 5
  1
block 5
  0
SPLINE
  5
6A4
330
6A2
100
AcDbEntity
  8
LOGO
370
     0
100
AcDbSpline
210
0.0
220
0.0
230
1.0
 70
    11
 71
     3
 72
    56
 73
    52
 74
     0
 42
0.000000001
 43
0.0000000001
 40
0.0
 40
0.0
 40
0.0
 40
0.0
 40
1.0
 40
1.0
 40
1.0
 40
2.0
 40
2.0
 40
2.0
 40
3.0
 40
3.0
 40
3.0
 40
4.0
 40
4.0
 40
4.0
 40
5.0
 40
5.0
 40
5.0
 40
6.0
 40
6.0
 40
6.0
 40
7.0
 40
7.0
 40
7.0
 40
8.0
 40
8.0
 40
8.0
 40
9.0
 40
9.0
 40
9.0
 40
10.0
 40
10.0
 40
10.0
 40
11.0
 40
11.0
 40
11.0
 40
12.0
 40
12.0
 40
12.0
 40
13.0
 40
13.0
 40
13.0
 40
14.0
 40
14.0
 40
14.0
 40
15.0
 40
15.0
 40
15.0
 40
16.0
 40
16.0
 40
16.0
 40
17.0
 40
17.0
 40
17.0
 40
17.0
 10
100.4504378777679
 20
166.69157178364
 30
0.0
 10
101.9848844191641
 20
167.1313385124438
 30
0.0
 10
103.9637485713373
 20
166.7649523658846
 30
0.0
 10
103.9637485713373
 20
166.7649523658846
 30
0.0
 10
103.9637485713373
 20
166.7649523658846
 30
0.0
 10
103.0132460999156
 20
163.911205638077
 30
0.0
 10
103.0132460999156
 20
163.911205638077
 30
0.0
 10
103.0132460999156
 20
163.911205638077
 30
0.0
 10
101.0674548862189
 20
164.3601018759394
 30
0.0
 10
99.57090442016032
 20
163.1805004036133
 30
0.0
 10
98.40508333886608
 20
162.258247733807
 30
0.0
 10
97.65301849830304
 20
159.804132345923
 30
0.0
 10
97.3598406791005
 20
158.8699940888517
 30
0.0
 10
97.3598406791005
 20
158.8699940888517
 30
0.0
 10
96.07137411762282
 20
154.9119212747295
 30
0.0
 10
96.07137411762282
 20
154.9119212747295
 30
0.0
 10
96.07137411762282
 20
154.9119212747295
 30
0.0
 10
100.3012651448482
 20
154.9119212747295
 30
0.0
 10
100.3012651448482
 20
154.9119212747295
 30
0.0
 10
100.3012651448482
 20
154.9119212747295
 30
0.0
 10
99.64152892419852
 20
152.4199098115079
 30
0.0
 10
99.64152892419852
 20
152.4199098115079
 30
0.0
 10
99.64152892419852
 20
152.4199098115079
 30
0.0
 10
95.38097652692731
 20
152.4199098115079
 30
0.0
 10
95.38097652692731
 20
152.4199098115079
 30
0.0
 10
95.38097652692731
 20
152.4199098115079
 30
0.0
 10
87.75353009080013
 20
127.8027915271048
 30
0.0
 10
87.75353009080013
 20
127.8027915271048
 30
0.0
 10
87.75353009080013
 20
127.8027915271048
 30
0.0
 10
85.36538832498108
 20
127.8027915271048
 30
0.0
 10
85.36538832498108
 20
127.8027915271048
 30
0.0
 10
85.36538832498108
 20
127.8027915271048
 30
0.0
 10
93.00006946639998
 20
152.4199098115079
 30
0.0
 10
93.00006946639998
 20
152.4199098115079
 30
0.0
 10
93.00006946639998
 20
152.4199098115079
 30
0.0
 10
89.85297266450198
 20
152.4199098115079
 30
0.0
 10
89.85297266450198
 20
152.4199098115079
 30
0.0
 10
89.85297266450198
 20
152.4199098115079
 30
0.0
 10
90.51270888515164
 20
154.9119212747295
 30
0.0
 10
90.51270888515164
 20
154.9119212747295
 30
0.0
 10
90.51270888515164
 20
154.9119212747295
 30
0.0
 10
93.6904670570955
 20
154.9119212747295
 30
0.0
 10
93.6904670570955
 20
154.9119212747295
 30
0.0
 10
93.6904670570955
 20
154.9119212747295
 30
0.0
 10
94.81598049462158
 20
158.3616699146644
 30
0.0
 10
94.81598049462158
 20
158.3616699146644
 30
0.0
 10
95.7237637538445
 20
161.2605474231013
 30
0.0
 10
96.4968436907311
 20
162.8139420021662
 30
0.0
 10
97.15657991138076
 20
163.9844139654337
 30
0.0
 10
97.81183750494507
 20
165.1523021053827
 30
0.0
 10
99.1047826935081
 20
166.3084769129547
 30
0.0
 10
100.4504378777679
 20
166.69157178364
 30
0.0
  0
HATCH
  5
6A5
330
6A2
100
AcDbEntity
  8
LOGO
 62
   250
420
  2234388
100
AcDbHatch
 10
0.0
 20
0.0
 30
0.0
210
0.0
220
0.0
230
1.0
  2
SOLID
 70
     1
 71
     0
 91
        1
 92
        1
 93
        1
 72
     4
 94
        3
 73
     0
 74
     1
 95
       56
 96
       52
 40
0.0
 40
0.0
 40
0.0
 40
0.0
 40
1.0
 40
1.0
 40
1.0
 40
2.0
 40
2.0
 40
2.0
 40
3.0
 40
3.0
 40
3.0
 40
4.0
 40
4.0
 40
4.0
 40
5.0
 40
5.0
 40
5.0
 40
6.0
 40
6.0
 40
6.0
 40
7.0
 40
7.0
 40
7.0
 40
8.0
 40
8.0
 40
8.0
 40
9.0
 40
9.0
 40
9.0
 40
10.0
 40
10.0
 40
10.0
 40
11.0
 40
11.0
 40
11.0
 40
12.0
 40
12.0
 40
12.0
 40
13.0
 40
13.0
 40
13.0
 40
14.0
 40
14.0
 40
14.0
 40
15.0
 40
15.0
 40
15.0
 40
16.0
 40
16.0
 40
16.0
 40
17.0
 40
17.0
 40
17.0
 40
17.0
 10
100.4504378777679
 20
166.69157178364
 10
101.9848844191641
 20
167.1313385124438
 10
103.9637485713373
 20
166.7649523658846
 10
103.9637485713373
 20
166.7649523658846
 10
103.9637485713373
 20
166.7649523658846
 10
103.0132460999156
 20
163.911205638077
 10
103.0132460999156
 20
163.911205638077
 10
103.0132460999156
 20
163.911205638077
 10
101.0674548862189
 20
164.3601018759394
 10
99.57090442016032
 20
163.1805004036133
 10
98.40508333886608
 20
162.258247733807
 10
97.65301849830304
 20
159.804132345923
 10
97.3598406791005
 20
158.8699940888517
 10
97.3598406791005
 20
158.8699940888517
 10
96.07137411762282
 20
154.9119212747295
 10
96.07137411762282
 20
154.9119212747295
 10
96.07137411762282
 20
154.9119212747295
 10
100.3012651448482
 20
154.9119212747295
 10
100.3012651448482
 20
154.9119212747295
 10
100.3012651448482
 20
154.9119212747295
 10
99.64152892419852
 20
152.4199098115079
 10
99.64152892419852
 20
152.4199098115079
 10
99.64152892419852
 20
152.4199098115079
 10
95.38097652692731
 20
152.4199098115079
 10
95.38097652692731
 20
152.4199098115079
 10
95.38097652692731
 20
152.4199098115079
 10
87.75353009080013
 20
127.8027915271048
 10
87.75353009080013
 20
127.8027915271048
 10
87.75353009080013
 20
127.8027915271048
 10
85.36538832498108
 20
127.8027915271048
 10
85.36538832498108
 20
127.8027915271048
 10
85.36538832498108
 20
127.8027915271048
 10
93.00006946639998
 20
152.4199098115079
 10
93.00006946639998
 20
152.4199098115079
 10
93.00006946639998
 20
152.4199098115079
 10
89.85297266450198
 20
152.4199098115079
 10
89.85297266450198
 20
152.4199098115079
 10
89.85297266450198
 20
152.4199098115079
 10
90.51270888515164
 20
154.9119212747295
 10
90.51270888515164
 20
154.9119212747295
 10
90.51270888515164
 20
154.9119212747295
 10
93.6904670570955
 20
154.9119212747295
 10
93.6904670570955
 20
154.9119212747295
 10
93.6904670570955
 20
154.9119212747295
 10
94.81598049462158
 20
158.3616699146644
 10
94.81598049462158
 20
158.3616699146644
 10
95.7237637538445
 20
161.2605474231013
 10
96.4968436907311
 20
162.8139420021662
 10
97.15657991138076
 20
163.9844139654337
 10
97.81183750494507
 20
165.1523021053827
 10
99.1047826935081
 20
166.3084769129547
 10
100.4504378777679
 20
166.69157178364
 97
        0
 75
     2
 76
     1
 98
        0
  0
SPLINE
  5
6A6
330
6A2
100
AcDbEntity
  8
LOGO
370
     0
100
AcDbSpline
210
0.0
220
0.0
230
1.0
 70
    11
 71
     3
 72
    38
 73
    34
 74
     0
 42
0.000000001
 43
0.0000000001
 40
0.0
 40
0.0
 40
0.0
 40
0.0
 40
1.0
 40
1.0
 40
1.0
 40
2.0
 40
2.0
 40
2.0
 40
3.0
 40
3.0
 40
3.0
 40
4.0
 40
4.0
 40
4.0
 40
5.0
 40
5.0
 40
5.0
 40
6.0
 40
6.0
 40
6.0
 40
7.0
 40
7.0
 40
7.0
 40
8.0
 40
8.0
 40
8.0
 40
9.0
 40
9.0
 40
9.0
 40
10.0
 40
10.0
 40
10.0
 40
11.0
 40
11.0
 40
11.0
 40
11.0
 10
126.377554584636
 20
154.8151140277308
 30
0.0
 10
126.377554584636
 20
154.8151140277308
 30
0.0
 10
128.8311532078563
 20
154.8151140277308
 30
0.0
 10
128.8311532078563
 20
154.8151140277308
 30
0.0
 10
128.8311532078563
 20
154.8151140277308
 30
0.0
 10
127.7345785914971
 20
151.3062819612468
 30
0.0
 10
127.7345785914971
 20
151.3062819612468
 30
0.0
 10
128.571392836906
 20
152.2922689395754
 30
0.0
 10
129.8860421413442
 20
153.604506675583
 30
0.0
 10
131.0163787157314
 20
154.2664822097754
 30
0.0
 10
132.7044766171327
 20
155.2500576196734
 30
0.0
 10
133.6642808525008
 20
155.3847609420097
 30
0.0
 10
134.7284715499351
 20
155.3565111403944
 30
0.0
 10
134.7284715499351
 20
155.3565111403944
 30
0.0
 10
133.6877075172549
 20
152.0345756272799
 30
0.0
 10
133.6877075172549
 20
152.0345756272799
 30
0.0
 10
133.011434827367
 20
152.3184516825359
 30
0.0
 10
130.930940291334
 20
151.7768823149844
 30
0.0
 10
129.739280976855
 20
150.9162968950455
 30
0.0
 10
128.66613302525
 20
150.1454562717016
 30
0.0
 10
127.9192358313239
 20
149.4857200510519
 30
0.0
 10
127.0393578639405
 20
147.8282835196966
 30
0.0
 10
126.164647543194
 20
146.1699857139017
 30
0.0
 10
125.4742499524985
 20
143.5262176944419
 30
0.0
 10
124.2822461282437
 20
139.6959580071401
 30
0.0
 10
124.2822461282437
 20
139.6959580071401
 30
0.0
 10
120.5753209406769
 20
127.8027915271048
 30
0.0
 10
120.5753209406769
 20
127.8027915271048
 30
0.0
 10
120.5753209406769
 20
127.8027915271048
 30
0.0
 10
118.1964809388044
 20
127.8027915271048
 30
0.0
 10
118.1964809388044
 20
127.8027915271048
 30
0.0
 10
118.1964809388044
 20
127.8027915271048
 30
0.0
 10
126.377554584636
 20
154.8151140277308
 30
0.0
 10
126.377554584636
 20
154.8151140277308
 30
0.0
  0
HATCH
  5
6A7
330
6A2
100
AcDbEntity
  8
LOGO
 62
   250
420
  2234388
100
AcDbHatch
 10
0.0
 20
0.0
 30
0.0
210
0.0
220
0.0
230
1.0
  2
SOLID
 70
     1
 71
     0
 91
        1
 92
        1
 93
        1
 72
     4
 94
        3
 73
     0
 74
     1
 95
       38
 96
       34
 40
0.0
 40
0.0
 40
0.0
 40
0.0
 40
1.0
 40
1.0
 40
1.0
 40
2.0
 40
2.0
 40
2.0
 40
3.0
 40
3.0
 40
3.0
 40
4.0
 40
4.0
 40
4.0
 40
5.0
 40
5.0
 40
5.0
 40
6.0
 40
6.0
 40
6.0
 40
7.0
 40
7.0
 40
7.0
 40
8.0
 40
8.0
 40
8.0
 40
9.0
 40
9.0
 40
9.0
 40
10.0
 40
10.0
 40
10.0
 40
11.0
 40
11.0
 40
11.0
 40
11.0
 10
126.377554584636
 20
154.8151140277308
 10
126.377554584636
 20
154.8151140277308
 10
128.8311532078563
 20
154.8151140277308
 10
128.8311532078563
 20
154.8151140277308
 10
128.8311532078563
 20
154.8151140277308
 10
127.7345785914971
 20
151.3062819612468
 10
127.7345785914971
 20
151.3062819612468
 10
128.571392836906
 20
152.2922689395754
 10
129.8860421413442
 20
153.604506675583
 10
131.0163787157314
 20
154.2664822097754
 10
132.7044766171327
 20
155.2500576196734
 10
133.6642808525008
 20
155.3847609420097
 10
134.7284715499351
 20
155.3565111403944
 10
134.7284715499351
 20
155.3565111403944
 10
133.6877075172549
 20
152.0345756272799
 10
133.6877075172549
 20
152.0345756272799
 10
133.011434827367
 20
152.3184516825359
 10
130.930940291334
 20
151.7768823149844
 10
129.739280976855
 20
150.9162968950455
 10
128.66613302525
 20
150.1454562717016
 10
127.9192358313239
 20
149.4857200510519
 10
127.0393578639405
 20
147.8282835196966
 10
126.164647543194
 20
146.1699857139017
 10
125.4742499524985
 20
143.5262176944419
 10
124.2822461282437
 20
139.6959580071401
 10
124.2822461282437
 20
139.6959580071401
 10
120.5753209406769
 20
127.8027915271048
 10
120.5753209406769
 20
127.8027915271048
 10
120.5753209406769
 20
127.8027915271048
 10
118.1964809388044
 20
127.8027915271048
 10
118.1964809388044
 20
127.8027915271048
 10
118.1964809388044
 20
127.8027915271048
 10
126.377554584636
 20
154.8151140277308
 10
126.377554584636
 20
154.8151140277308
 97
        0
 75
     2
 76
     1
 98
        0
  0
SPLINE
  5
6A8
330
6A2
100
AcDbEntity
  8
LOGO
370
     0
100
AcDbSpline
210
0.0
220
0.0
230
1.0
 70
    11
 71
     3
 72
   104
 73
   100
 74
     0
 42
0.000000001
 43
0.0000000001
 40
0.0
 40
0.0
 40
0.0
 40
0.0
 40
1.0
 40
1.0
 40
1.0
 40
2.0
 40
2.0
 40
2.0
 40
3.0
 40
3.0
 40
3.0
 40
4.0
 40
4.0
 40
4.0
 40
5.0
 40
5.0
 40
5.0
 40
6.0
 40
6.0
 40
6.0
 40
7.0
 40
7.0
 40
7.0
 40
8.0
 40
8.0
 40
8.0
 40
9.0
 40
9.0
 40
9.0
 40
10.0
 40
10.0
 40
10.0
 40
11.0
 40
11.0
 40
11.0
 40
12.0
 40
12.0
 40
12.0
 40
13.0
 40
13.0
 40
13.0
 40
14.0
 40
14.0
 40
14.0
 40
15.0
 40
15.0
 40
15.0
 40
16.0
 40
16.0
 40
16.0
 40
17.0
 40
17.0
 40
17.0
 40
18.0
 40
18.0
 40
18.0
 40
19.0
 40
19.0
 40
19.0
 40
20.0
 40
20.0
 40
20.0
 40
21.0
 40
21.0
 40
21.0
 40
22.0
 40
22.0
 40
22.0
 40
23.0
 40
23.0
 40
23.0
 40
24.0
 40
24.0
 40
24.0
 40
25.0
 40
25.0
 40
25.0
 40
26.0
 40
26.0
 40
26.0
 40
27.0
 40
27.0
 40
27.0
 40
28.0
 40
28.0
 40
28.0
 40
29.0
 40
29.0
 40
29.0
 40
30.0
 40
30.0
 40
30.0
 40
31.0
 40
31.0
 40
31.0
 40
32.0
 40
32.0
 40
32.0
 40
33.0
 40
33.0
 40
33.0
 40
33.0
 10
139.8926730891197
 20
154.8294111834263
 30
0.0
 10
139.8926730891197
 20
154.8294111834263
 30
0.0
 10
142.0344903652445
 20
154.8294111834263
 30
0.0
 10
142.0344903652445
 20
154.8294111834263
 30
0.0
 10
142.0344903652445
 20
154.8294111834263
 30
0.0
 10
140.9516961399171
 20
151.3157559800812
 30
0.0
 10
140.9516961399171
 20
151.3157559800812
 30
0.0
 10
141.8928968473923
 20
152.7887075264977
 30
0.0
 10
142.7341897198865
 20
153.4484437471474
 30
0.0
 10
143.8552245303272
 20
154.2926649527359
 30
0.0
 10
144.9803934580775
 20
155.1296514530327
 30
0.0
 10
146.3139908001845
 20
155.3044901642492
 30
0.0
 10
147.241066606852
 20
155.3044901642492
 30
0.0
 10
148.3855280820469
 20
155.3044901642492
 30
0.0
 10
149.4969166187653
 20
155.0752189084569
 30
0.0
 10
150.0784491203092
 20
153.8172414621372
 30
0.0
 10
150.5228667310863
 20
152.833838307127
 30
0.0
 10
150.5414702589793
 20
152.7201500811143
 30
0.0
 10
150.4140016419347
 20
150.7765981809602
 30
0.0
 10
151.5818897818837
 20
152.7699317437168
 30
0.0
 10
152.4424752018226
 20
153.6256940267945
 30
0.0
 10
153.9038856707499
 20
154.4507949398263
 30
0.0
 10
155.4455669174378
 20
155.3044901642492
 30
0.0
 10
156.339225275853
 20
155.3659851592288
 30
0.0
 10
157.3748216618963
 20
155.2147453676543
 30
0.0
 10
158.911679771723
 20
154.9877134254046
 30
0.0
 10
159.8859534176746
 20
154.4390816074493
 30
0.0
 10
160.3965169054045
 20
152.7816450760939
 30
0.0
 10
160.9070803931344
 20
151.1219692311958
 30
0.0
 10
160.6328506116007
 20
150.2303779314354
 30
0.0
 10
159.9992971339115
 20
147.597634224801
 30
0.0
 10
159.7105979417943
 20
146.4014962832367
 30
0.0
 10
159.2947746424084
 20
144.9400858143094
 30
0.0
 10
158.7463150793409
 20
143.2092687007094
 30
0.0
 10
158.7463150793409
 20
143.2092687007094
 30
0.0
 10
153.9038856707499
 20
127.8027915271048
 30
0.0
 10
153.9038856707499
 20
127.8027915271048
 30
0.0
 10
153.9038856707499
 20
127.8027915271048
 30
0.0
 10
151.3882752878863
 20
127.8027915271048
 30
0.0
 10
151.3882752878863
 20
127.8027915271048
 30
0.0
 10
151.3882752878863
 20
127.8027915271048
 30
0.0
 10
155.6250565106276
 20
141.2751908193897
 30
0.0
 10
155.6250565106276
 20
141.2751908193897
 30
0.0
 10
156.5094131050963
 20
144.0936252951782
 30
0.0
 10
157.109893644309
 20
146.1506931664571
 30
0.0
 10
157.4220195011804
 20
147.4415712963654
 30
0.0
 10
157.8095929989511
 20
149.0530157726519
 30
0.0
 10
157.9656559273867
 20
149.5826995529385
 30
0.0
 10
157.7816877071116
 20
150.7529992613181
 30
0.0
 10
157.6111553680925
 20
151.8430281919372
 30
0.0
 10
157.0582171779396
 20
152.5547853887321
 30
0.0
 10
156.1170164704645
 20
152.5547853887321
 30
0.0
 10
155.1096698860365
 20
152.5547853887321
 30
0.0
 10
154.2962823053817
 20
152.4412694176073
 30
0.0
 10
153.156643967048
 20
151.2945686288697
 30
0.0
 10
152.0170056287143
 20
150.1476955852443
 30
0.0
 10
151.076149431015
 20
148.7930831468137
 30
0.0
 10
150.3337308641742
 20
147.2290087646991
 30
0.0
 10
149.5957909244188
 20
145.6683794803425
 30
0.0
 10
148.8530278478023
 20
143.6822806228776
 30
0.0
 10
148.0964843801539
 20
141.2751908193897
 30
0.0
 10
148.0964843801539
 20
141.2751908193897
 30
0.0
 10
143.8552245303272
 20
127.8027915271048
 30
0.0
 10
143.8552245303272
 20
127.8027915271048
 30
0.0
 10
143.8552245303272
 20
127.8027915271048
 30
0.0
 10
141.486030802177
 20
127.8027915271048
 30
0.0
 10
141.486030802177
 20
127.8027915271048
 30
0.0
 10
141.486030802177
 20
127.8027915271048
 30
0.0
 10
146.3329388378533
 20
143.2092687007094
 30
0.0
 10
146.3329388378533
 20
143.2092687007094
 30
0.0
 10
146.8483254624444
 20
144.8408669988801
 30
0.0
 10
147.2314203331297
 20
146.1837661049335
 30
0.0
 10
147.4867020769946
 20
147.224185627838
 30
0.0
 10
147.9169947869641
 20
149.0197705792876
 30
0.0
 10
148.0306830129768
 20
150.2400242051577
 30
0.0
 10
147.709255392159
 20
151.3157559800812
 30
0.0
 10
147.3874832615654
 20
152.3916600098926
 30
0.0
 10
146.8245542879144
 20
152.6683013598569
 30
0.0
 10
145.8840425999909
 20
152.6683013598569
 30
0.0
 10
145.0989048209514
 20
152.6683013598569
 30
0.0
 10
144.3282364524954
 20
152.3275811915945
 30
0.0
 10
143.4531816219731
 20
151.6538923250251
 30
0.0
 10
142.34627171234
 20
150.8074318058939
 30
0.0
 10
141.901854101563
 20
150.1097995099067
 30
0.0
 10
141.3578731655808
 20
149.289521733736
 30
0.0
 10
140.6299240093235
 20
148.192602607601
 30
0.0
 10
140.2850697237515
 20
147.455696197173
 30
0.0
 10
139.6652966370942
 20
145.8385673095858
 30
0.0
 10
139.0506911970739
 20
144.2214384219986
 30
0.0
 10
138.463991048893
 20
142.3252566160164
 30
0.0
 10
138.0571250036777
 20
141.0154304484394
 30
0.0
 10
138.0571250036777
 20
141.0154304484394
 30
0.0
 10
133.9009590684727
 20
127.8027915271048
 30
0.0
 10
133.9009590684727
 20
127.8027915271048
 30
0.0
 10
133.9009590684727
 20
127.8027915271048
 30
0.0
 10
131.4180771143097
 20
127.8027915271048
 30
0.0
 10
131.4180771143097
 20
127.8027915271048
 30
0.0
 10
131.4180771143097
 20
127.8027915271048
 30
0.0
 10
139.8926730891197
 20
154.8294111834263
 30
0.0
 10
139.8926730891197
 20
154.8294111834263
 30
0.0
  0
HATCH
  5
6A9
330
6A2
100
AcDbEntity
  8
LOGO
 62
   250
420
  2234388
100
AcDbHatch
 10
0.0
 20
0.0
 30
0.0
210
0.0
220
0.0
230
1.0
  2
SOLID
 70
     1
 71
     0
 91
        1
 92
        1
 93
        1
 72
     4
 94
        3
 73
     0
 74
     1
 95
      104
 96
      100
 40
0.0
 40
0.0
 40
0.0
 40
0.0
 40
1.0
 40
1.0
 40
1.0
 40
2.0
 40
2.0
 40
2.0
 40
3.0
 40
3.0
 40
3.0
 40
4.0
 40
4.0
 40
4.0
 40
5.0
 40
5.0
 40
5.0
 40
6.0
 40
6.0
 40
6.0
 40
7.0
 40
7.0
 40
7.0
 40
8.0
 40
8.0
 40
8.0
 40
9.0
 40
9.0
 40
9.0
 40
10.0
 40
10.0
 40
10.0
 40
11.0
 40
11.0
 40
11.0
 40
12.0
 40
12.0
 40
12.0
 40
13.0
 40
13.0
 40
13.0
 40
14.0
 40
14.0
 40
14.0
 40
15.0
 40
15.0
 40
15.0
 40
16.0
 40
16.0
 40
16.0
 40
17.0
 40
17.0
 40
17.0
 40
18.0
 40
18.0
 40
18.0
 40
19.0
 40
19.0
 40
19.0
 40
20.0
 40
20.0
 40
20.0
 40
21.0
 40
21.0
 40
21.0
 40
22.0
 40
22.0
 40
22.0
 40
23.0
 40
23.0
 40
23.0
 40
24.0
 40
24.0
 40
24.0
 40
25.0
 40
25.0
 40
25.0
 40
26.0
 40
26.0
 40
26.0
 40
27.0
 40
27.0
 40
27.0
 40
28.0
 40
28.0
 40
28.0
 40
29.0
 40
29.0
 40
29.0
 40
30.0
 40
30.0
 40
30.0
 40
31.0
 40
31.0
 40
31.0
 40
32.0
 40
32.0
 40
32.0
 40
33.0
 40
33.0
 40
33.0
 40
33.0
 10
139.8926730891197
 20
154.8294111834263
 10
139.8926730891197
 20
154.8294111834263
 10
142.0344903652445
 20
154.8294111834263
 10
142.0344903652445
 20
154.8294111834263
 10
142.0344903652445
 20
154.8294111834263
 10
140.9516961399171
 20
151.3157559800812
 10
140.9516961399171
 20
151.3157559800812
 10
141.8928968473923
 20
152.7887075264977
 10
142.7341897198865
 20
153.4484437471474
 10
143.8552245303272
 20
154.2926649527359
 10
144.9803934580775
 20
155.1296514530327
 10
146.3139908001845
 20
155.3044901642492
 10
147.241066606852
 20
155.3044901642492
 10
148.3855280820469
 20
155.3044901642492
 10
149.4969166187653
 20
155.0752189084569
 10
150.0784491203092
 20
153.8172414621372
 10
150.5228667310863
 20
152.833838307127
 10
150.5414702589793
 20
152.7201500811143
 10
150.4140016419347
 20
150.7765981809602
 10
151.5818897818837
 20
152.7699317437168
 10
152.4424752018226
 20
153.6256940267945
 10
153.9038856707499
 20
154.4507949398263
 10
155.4455669174378
 20
155.3044901642492
 10
156.339225275853
 20
155.3659851592288
 10
157.3748216618963
 20
155.2147453676543
 10
158.911679771723
 20
154.9877134254046
 10
159.8859534176746
 20
154.4390816074493
 10
160.3965169054045
 20
152.7816450760939
 10
160.9070803931344
 20
151.1219692311958
 10
160.6328506116007
 20
150.2303779314354
 10
159.9992971339115
 20
147.597634224801
 10
159.7105979417943
 20
146.4014962832367
 10
159.2947746424084
 20
144.9400858143094
 10
158.7463150793409
 20
143.2092687007094
 10
158.7463150793409
 20
143.2092687007094
 10
153.9038856707499
 20
127.8027915271048
 10
153.9038856707499
 20
127.8027915271048
 10
153.9038856707499
 20
127.8027915271048
 10
151.3882752878863
 20
127.8027915271048
 10
151.3882752878863
 20
127.8027915271048
 10
151.3882752878863
 20
127.8027915271048
 10
155.6250565106276
 20
141.2751908193897
 10
155.6250565106276
 20
141.2751908193897
 10
156.5094131050963
 20
144.0936252951782
 10
157.109893644309
 20
146.1506931664571
 10
157.4220195011804
 20
147.4415712963654
 10
157.8095929989511
 20
149.0530157726519
 10
157.9656559273867
 20
149.5826995529385
 10
157.7816877071116
 20
150.7529992613181
 10
157.6111553680925
 20
151.8430281919372
 10
157.0582171779396
 20
152.5547853887321
 10
156.1170164704645
 20
152.5547853887321
 10
155.1096698860365
 20
152.5547853887321
 10
154.2962823053817
 20
152.4412694176073
 10
153.156643967048
 20
151.2945686288697
 10
152.0170056287143
 20
150.1476955852443
 10
151.076149431015
 20
148.7930831468137
 10
150.3337308641742
 20
147.2290087646991
 10
149.5957909244188
 20
145.6683794803425
 10
148.8530278478023
 20
143.6822806228776
 10
148.0964843801539
 20
141.2751908193897
 10
148.0964843801539
 20
141.2751908193897
 10
143.8552245303272
 20
127.8027915271048
 10
143.8552245303272
 20
127.8027915271048
 10
143.8552245303272
 20
127.8027915271048
 10
141.486030802177
 20
127.8027915271048
 10
141.486030802177
 20
127.8027915271048
 10
141.486030802177
 20
127.8027915271048
 10
146.3329388378533
 20
143.2092687007094
 10
146.3329388378533
 20
143.2092687007094
 10
146.8483254624444
 20
144.8408669988801
 10
147.2314203331297
 20
146.1837661049335
 10
147.4867020769946
 20
147.224185627838
 10
147.9169947869641
 20
149.0197705792876
 10
148.0306830129768
 20
150.2400242051577
 10
147.709255392159
 20
151.3157559800812
 10
147.3874832615654
 20
152.3916600098926
 10
146.8245542879144
 20
152.6683013598569
 10
145.8840425999909
 20
152.6683013598569
 10
145.0989048209514
 20
152.6683013598569
 10
144.3282364524954
 20
152.3275811915945
 10
143.4531816219731
 20
151.6538923250251
 10
142.34627171234
 20
150.8074318058939
 10
141.901854101563
 20
150.1097995099067
 10
141.3578731655808
 20
149.289521733736
 10
140.6299240093235
 20
148.192602607601
 10
140.2850697237515
 20
147.455696197173
 10
139.6652966370942
 20
145.8385673095858
 10
139.0506911970739
 20
144.2214384219986
 10
138.463991048893
 20
142.3252566160164
 10
138.0571250036777
 20
141.0154304484394
 10
138.0571250036777
 20
141.0154304484394
 10
133.9009590684727
 20
127.8027915271048
 10
133.9009590684727
 20
127.8027915271048
 10
133.9009590684727
 20
127.8027915271048
 10
131.4180771143097
 20
127.8027915271048
 10
131.4180771143097
 20
127.8027915271048
 10
131.4180771143097
 20
127.8027915271048
 10
139.8926730891197
 20
154.8294111834263
 10
139.8926730891197
 20
154.8294111834263
 97
        0
 75
     2
 76
     1
 98
        0
  0
SPLINE
  5
6AA
330
6A2
100
AcDbEntity
  8
LOGO
370
     0
100
AcDbSpline
210
0.0
220
0.0
230
1.0
 70
    11
 71
     3
 72
    29
 73
    25
 74
     0
 42
0.000000001
 43
0.0000000001
 40
0.0
 40
0.0
 40
0.0
 40
0.0
 40
1.0
 40
1.0
 40
1.0
 40
2.0
 40
2.0
 40
2.0
 40
3.0
 40
3.0
 40
3.0
 40
4.0
 40
4.0
 40
4.0
 40
5.0
 40
5.0
 40
5.0
 40
6.0
 40
6.0
 40
6.0
 40
7.0
 40
7.0
 40
7.0
 40
8.0
 40
8.0
 40
8.0
 40
8.0
 10
101.6420971922469
 20
132.8388354296931
 30
0.0
 10
101.630039350094
 20
134.7164137077823
 30
0.0
 10
102.2236296937908
 20
138.0598810818841
 30
0.0
 10
103.7487744712405
 20
142.5378191476827
 30
0.0
 10
105.819967243327
 20
148.5896501242061
 30
0.0
 10
107.0602024361932
 20
150.8074318058939
 30
0.0
 10
108.1522984254671
 20
151.8833358357054
 30
0.0
 10
109.741177511439
 20
153.4532668840085
 30
0.0
 10
111.8740375333931
 20
153.5290590346837
 30
0.0
 10
112.5075910110823
 20
153.4532668840085
 30
0.0
 10
113.4012493694975
 20
153.3490526768302
 30
0.0
 10
114.6683563248758
 20
152.7580461564518
 30
0.0
 10
114.7493161221879
 20
150.7838328862519
 30
0.0
 10
114.8106388622796
 20
149.0909118479895
 30
0.0
 10
114.3186789024427
 20
145.9191825971221
 30
0.0
 10
112.6164561002338
 20
140.9489400617108
 30
0.0
 10
110.6444821435766
 20
135.1746117095912
 30
0.0
 10
109.4669477299053
 20
132.8960240524753
 30
0.0
 10
108.5212683953448
 20
131.9072809959403
 30
0.0
 10
106.7346406980658
 20
130.0538184021569
 30
0.0
 10
104.8222669326213
 20
130.2336525051225
 30
0.0
 10
104.5408024457958
 20
130.2336525051225
 30
0.0
 10
104.1721769856939
 20
130.2336525051225
 30
0.0
 10
101.6465758193322
 20
130.6305277668397
 30
0.0
 10
101.6420971922469
 20
132.8388354296931
 30
0.0
  0
SPLINE
  5
6AB
330
6A2
100
AcDbEntity
  8
LOGO
370
     0
100
AcDbSpline
210
0.0
220
0.0
230
1.0
 70
    11
 71
     3
 72
    32
 73
    28
 74
     0
 42
0.000000001
 43
0.0000000001
 40
0.0
 40
0.0
 40
0.0
 40
0.0
 40
1.0
 40
1.0
 40
1.0
 40
2.0
 40
2.0
 40
2.0
 40
3.0
 40
3.0
 40
3.0
 40
4.0
 40
4.0
 40
4.0
 40
5.0
 40
5.0
 40
5.0
 40
6.0
 40
6.0
 40
6.0
 40
7.0
 40
7.0
 40
7.0
 40
8.0
 40
8.0
 40
8.0
 40
9.0
 40
9.0
 40
9.0
 40
9.0
 10
106.2595617172429
 20
153.4105476718098
 30
0.0
 10
104.8222669326213
 20
151.5474388043041
 30
0.0
 10
103.7177685914188
 20
149.8758773721411
 30
0.0
 10
101.9232171692965
 20
144.6141795664062
 30
0.0
 10
100.2754269116635
 20
139.7999999594306
 30
0.0
 10
99.22777268346732
 20
136.3052927937542
 30
0.0
 10
99.06964269637689
 20
132.039572749846
 30
0.0
 10
98.94665270641765
 20
128.8673267343149
 30
0.0
 10
100.8807305877373
 20
127.8027915271048
 30
0.0
 10
103.7129454545577
 20
127.8027915271048
 30
0.0
 10
104.9352661390825
 20
127.8027915271048
 30
0.0
 10
108.0151835347002
 20
127.8827177950895
 30
0.0
 10
110.2045431598849
 20
130.5926316915021
 30
0.0
 10
111.7417457794874
 20
132.4984597712065
 30
0.0
 10
113.155269389579
 20
134.475256864725
 30
0.0
 10
115.0562743324223
 20
140.9489400617108
 30
0.0
 10
116.6361961642235
 20
146.3680788349845
 30
0.0
 10
117.7282921534974
 20
149.8639917848761
 30
0.0
 10
117.6480213757369
 20
151.8595646611754
 30
0.0
 10
117.6480213757369
 20
151.8595646611754
 30
0.0
 10
117.6480213757369
 20
151.8595646611754
 30
0.0
 10
117.6480213757369
 20
151.8595646611754
 30
0.0
 10
117.13229024137
 20
155.18150017429
 30
0.0
 10
114.7162431837115
 20
155.886194920681
 30
0.0
 10
113.3351034925446
 20
155.886194920681
 30
0.0
 10
111.9829026225447
 20
155.886194920681
 30
0.0
 10
108.3414342923792
 20
156.1251124501957
 30
0.0
 10
106.2595617172429
 20
153.4105476718098
 30
0.0
  0
HATCH
  5
6AC
330
6A2
100
AcDbEntity
  8
LOGO
 62
   250
420
  2234388
100
AcDbHatch
 10
0.0
 20
0.0
 30
0.0
210
0.0
220
0.0
230
1.0
  2
SOLID
 70
     1
 71
     0
 91
        2
 92
        1
 93
        1
 72
     4
 94
        3
 73
     0
 74
     1
 95
       29
 96
       25
 40
0.0
 40
0.0
 40
0.0
 40
0.0
 40
1.0
 40
1.0
 40
1.0
 40
2.0
 40
2.0
 40
2.0
 40
3.0
 40
3.0
 40
3.0
 40
4.0
 40
4.0
 40
4.0
 40
5.0
 40
5.0
 40
5.0
 40
6.0
 40
6.0
 40
6.0
 40
7.0
 40
7.0
 40
7.0
 40
8.0
 40
8.0
 40
8.0
 40
8.0
 10
101.6420971922469
 20
132.8388354296931
 10
101.630039350094
 20
134.7164137077823
 10
102.2236296937908
 20
138.0598810818841
 10
103.7487744712405
 20
142.5378191476827
 10
105.819967243327
 20
148.5896501242061
 10
107.0602024361932
 20
150.8074318058939
 10
108.1522984254671
 20
151.8833358357054
 10
109.741177511439
 20
153.4532668840085
 10
111.8740375333931
 20
153.5290590346837
 10
112.5075910110823
 20
153.4532668840085
 10
113.4012493694975
 20
153.3490526768302
 10
114.6683563248758
 20
152.7580461564518
 10
114.7493161221879
 20
150.7838328862519
 10
114.8106388622796
 20
149.0909118479895
 10
114.3186789024427
 20
145.9191825971221
 10
112.6164561002338
 20
140.9489400617108
 10
110.6444821435766
 20
135.1746117095912
 10
109.4669477299053
 20
132.8960240524753
 10
108.5212683953448
 20
131.9072809959403
 10
106.7346406980658
 20
130.0538184021569
 10
104.8222669326213
 20
130.2336525051225
 10
104.5408024457958
 20
130.2336525051225
 10
104.1721769856939
 20
130.2336525051225
 10
101.6465758193322
 20
130.6305277668397
 10
101.6420971922469
 20
132.8388354296931
 97
        0
 92
        1
 93
        1
 72
     4
 94
        3
 73
     0
 74
     1
 95
       32
 96
       28
 40
0.0
 40
0.0
 40
0.0
 40
0.0
 40
1.0
 40
1.0
 40
1.0
 40
2.0
 40
2.0
 40
2.0
 40
3.0
 40
3.0
 40
3.0
 40
4.0
 40
4.0
 40
4.0
 40
5.0
 40
5.0
 40
5.0
 40
6.0
 40
6.0
 40
6.0
 40
7.0
 40
7.0
 40
7.0
 40
8.0
 40
8.0
 40
8.0
 40
9.0
 40
9.0
 40
9.0
 40
9.0
 10
106.2595617172429
 20
153.4105476718098
 10
104.8222669326213
 20
151.5474388043041
 10
103.7177685914188
 20
149.8758773721411
 10
101.9232171692965
 20
144.6141795664062
 10
100.2754269116635
 20
139.7999999594306
 10
99.22777268346732
 20
136.3052927937542
 10
99.06964269637689
 20
132.039572749846
 10
98.94665270641765
 20
128.8673267343149
 10
100.8807305877373
 20
127.8027915271048
 10
103.7129454545577
 20
127.8027915271048
 10
104.9352661390825
 20
127.8027915271048
 10
108.0151835347002
 20
127.8827177950895
 10
110.2045431598849
 20
130.5926316915021
 10
111.7417457794874
 20
132.4984597712065
 10
113.155269389579
 20
134.475256864725
 10
115.0562743324223
 20
140.9489400617108
 10
116.6361961642235
 20
146.3680788349845
 10
117.7282921534974
 20
149.8639917848761
 10
117.6480213757369
 20
151.8595646611754
 10
117.6480213757369
 20
151.8595646611754
 10
117.6480213757369
 20
151.8595646611754
 10
117.6480213757369
 20
151.8595646611754
 10
117.13229024137
 20
155.18150017429
 10
114.7162431837115
 20
155.886194920681
 10
113.3351034925446
 20
155.886194920681
 10
111.9829026225447
 20
155.886194920681
 10
108.3414342923792
 20
156.1251124501957
 10
106.2595617172429
 20
153.4105476718098
 97
        0
 75
     2
 76
     1
 98
        0
  0
ENDBLK
  5
6AD
330
6A2
100
AcDbEntity
  8
0
100
AcDbBlockEnd
  0
BLOCK
  5
E8A
330
E89
100
AcDbEntity
  8
0
100
AcDbBlockBegin
  2
*D6
 70
     1
 10
0.0
 20
0.0
 30
0.0
  3
*D6
  1
*D7
  0
LINE
  5
E8C
330
E89
100
AcDbEntity
  8
MODEL
  6
Continuous
 62
     0
370
    -2
100
AcDbLine
 10
501.3830447138743
 20
838.6576534467056
 30
0.0
 11
456.2467057498549
 21
838.6576534467056
 31
0.0
  0
LINE
  5
E8D
330
E89
100
AcDbEntity
  8
MODEL
  6
Continuous
 62
     0
370
    -2
100
AcDbLine
 10
501.3830447138743
 20
965.6576534467047
 30
0.0
 11
456.2467057498549
 21
965.6576534467047
 31
0.0
  0
LINE
  5
E8E
330
E89
100
AcDbEntity
  8
MODEL
  6
Continuous
 62
     0
370
    -2
100
AcDbLine
 10
456.2467057498549
 20
844.6576534467056
 30
0.0
 11
456.2467057498549
 21
959.6576534467047
 31
0.0
  0
INSERT
  5
E8F
330
E89
100
AcDbEntity
  8
MODEL
 62
     0
370
    -2
100
AcDbBlockReference
  2
_DOT
 10
456.2467057498549
 20
838.6576534467056
 30
0.0
 41
6.0
 42
6.0
 43
6.0
 50
270.0
  0
INSERT
  5
E90
330
E89
100
AcDbEntity
  8
MODEL
 62
     0
370
    -2
100
AcDbBlockReference
  2
_DOT
 10
456.2467057498549
 20
965.6576534467047
 30
0.0
 41
6.0
 42
6.0
 43
6.0
 50
90.0
  0
MTEXT
  5
E91
330
E89
100
AcDbEntity
  8
MODEL
  6
Continuous
 62
     0
100
AcDbMText
 10
440.2467057498549
 20
902.1576534467051
 30
0.0
 40
12.0
 41
0.0
 46
0.0
 71
     5
 72
     1
  1
\A1;127
  7
ＭＳ ゴシック
 11
0.0
 21
1.0
 31
0.0
 73
     1
 44
1.0
  0
POINT
  5
E92
330
E89
100
AcDbEntity
  8
Defpoints
 62
     0
100
AcDbPoint
 10
506.3830447138743
 20
838.6576534467056
 30
0.0
  0
POINT
  5
E93
330
E89
100
AcDbEntity
  8
Defpoints
 62
     0
100
AcDbPoint
 10
506.3830447138743
 20
965.6576534467047
 30
0.0
  0
POINT
  5
E94
330
E89
100
AcDbEntity
  8
Defpoints
 62
     0
100
AcDbPoint
 10
456.2467057498549
 20
965.6576534467047
 30
0.0
  0
ENDBLK
  5
E8B
330
E89
100
AcDbEntity
  8
0
100
AcDbBlockEnd
  0
BLOCK
  5
E99
330
E98
100
AcDbEntity
  8
0
100
AcDbBlockBegin
  2
*D7
 70
     1
 10
0.0
 20
0.0
 30
0.0
  3
*D7
  1
*D8
  0
LINE
  5
E9B
330
E98
100
AcDbEntity
  8
MODEL
  6
Continuous
 62
     0
370
    -2
100
AcDbLine
 10
501.3830447138743
 20
965.6576534467047
 30
0.0
 11
465.2823238631478
 21
965.6576534467047
 31
0.0
  0
LINE
  5
E9C
330
E98
100
AcDbEntity
  8
MODEL
  6
Continuous
 62
     0
370
    -2
100
AcDbLine
 10
501.3830447138743
 20
1123.657653446706
 30
0.0
 11
465.2823238631478
 21
1123.657653446706
 31
0.0
  0
LINE
  5
E9D
330
E98
100
AcDbEntity
  8
MODEL
  6
Continuous
 62
     0
370
    -2
100
AcDbLine
 10
465.2823238631478
 20
971.6576534467047
 30
0.0
 11
465.2823238631478
 21
1117.657653446706
 31
0.0
  0
INSERT
  5
E9E
330
E98
100
AcDbEntity
  8
MODEL
 62
     0
370
    -2
100
AcDbBlockReference
  2
_DOT
 10
465.2823238631478
 20
965.6576534467047
 30
0.0
 41
6.0
 42
6.0
 43
6.0
 50
270.0
  0
INSERT
  5
E9F
330
E98
100
AcDbEntity
  8
MODEL
 62
     0
370
    -2
100
AcDbBlockReference
  2
_DOT
 10
465.2823238631478
 20
1123.657653446706
 30
0.0
 41
6.0
 42
6.0
 43
6.0
 50
90.0
  0
MTEXT
  5
EA0
330
E98
100
AcDbEntity
  8
MODEL
  6
Continuous
 62
     0
100
AcDbMText
 10
448.2803238631479
 20
1044.657653446705
 30
0.0
 40
12.0
 41
0.0
 46
0.0
 71
     5
 72
     1
  1
\A1;縦管カット
  7
ＭＳ ゴシック
 11
0.0
 21
1.0
 31
0.0
 73
     1
 44
1.0
  0
POINT
  5
EA1
330
E98
100
AcDbEntity
  8
Defpoints
 62
     0
100
AcDbPoint
 10
506.3830447138743
 20
965.6576534467047
 30
0.0
  0
POINT
  5
EA2
330
E98
100
AcDbEntity
  8
Defpoints
 62
     0
100
AcDbPoint
 10
506.3830447138743
 20
1123.657653446706
 30
0.0
  0
POINT
  5
EA3
330
E98
100
AcDbEntity
  8
Defpoints
 62
     0
100
AcDbPoint
 10
465.2823238631478
 20
1123.657653446706
 30
0.0
  0
ENDBLK
  5
E9A
330
E98
100
AcDbEntity
  8
0
100
AcDbBlockEnd
  0
BLOCK
  5
ED1
330
ED0
100
AcDbEntity
  8
0
100
AcDbBlockBegin
  2
*D8
 70
     1
 10
0.0
 20
0.0
 30
0.0
  3
*D8
  1
*D9
  0
LINE
  5
ED3
330
ED0
100
AcDbEntity
  8
DIM
 62
     0
370
    -2
100
AcDbLine
 10
267.1357765155845
 20
1310.251429551457
 30
0.0
 11
267.1357765155845
 21
1343.269334009806
 31
0.0
  0
LINE
  5
ED4
330
ED0
100
AcDbEntity
  8
DIM
 62
     0
370
    -2
100
AcDbLine
 10
317.1357765155842
 20
1310.251429551457
 30
0.0
 11
317.1357765155842
 21
1343.269334009806
 31
0.0
  0
LINE
  5
ED5
330
ED0
100
AcDbEntity
  8
DIM
 62
     0
370
    -2
100
AcDbLine
 10
269.1357765155845
 20
1343.269334009806
 30
0.0
 11
315.1357765155842
 21
1343.269334009806
 31
0.0
  0
INSERT
  5
ED6
330
ED0
100
AcDbEntity
  8
DIM
 62
     0
370
    -2
100
AcDbBlockReference
  2
_DOT
 10
267.1357765155845
 20
1343.269334009806
 30
0.0
 41
2.0
 42
2.0
 43
2.0
 50
180.0
  0
INSERT
  5
ED7
330
ED0
100
AcDbEntity
  8
DIM
 62
     0
370
    -2
100
AcDbBlockReference
  2
_DOT
 10
317.1357765155842
 20
1343.269334009806
 30
0.0
 41
2.0
 42
2.0
 43
2.0
  0
MTEXT
  5
ED8
330
ED0
100
AcDbEntity
  8
DIM
 62
     0
100
AcDbMText
 10
292.1357765155843
 20
1357.329334009806
 30
0.0
 40
12.0
 41
0.0
 46
0.0
 71
     5
 72
     1
  1
\A1;ø50
  7
ＭＳ ゴシック
 73
     1
 44
1.0
  0
POINT
  5
ED9
330
ED0
100
AcDbEntity
  8
Defpoints
 62
     0
100
AcDbPoint
 10
267.1357765155845
 20
1295.251429551457
 30
0.0
  0
POINT
  5
EDA
330
ED0
100
AcDbEntity
  8
Defpoints
 62
     0
100
AcDbPoint
 10
317.1357765155842
 20
1295.251429551457
 30
0.0
  0
POINT
  5
EDB
330
ED0
100
AcDbEntity
  8
Defpoints
 62
     0
100
AcDbPoint
 10
317.1357765155842
 20
1343.269334009806
 30
0.0
  0
ENDBLK
  5
ED2
330
ED0
100
AcDbEntity
  8
0
100
AcDbBlockEnd
  0
BLOCK
  5
F5F
330
F5E
100
AcDbEntity
  8
0
100
AcDbBlockBegin
  2
*D9
 70
     1
 10
0.0
 20
0.0
 30
0.0
  3
*D9
  1
*D11
  0
LINE
  5
F61
330
F5E
100
AcDbEntity
  8
DIM
 62
     0
370
    -2
100
AcDbLine
 10
501.3830447138743
 20
524.4653627585708
 30
0.0
 11
465.2338935923693
 21
524.4653627585708
 31
0.0
  0
LINE
  5
F62
330
F5E
100
AcDbEntity
  8
DIM
 62
     0
370
    -2
100
AcDbLine
 10
501.3830447138743
 20
397.4653627585717
 30
0.0
 11
465.2338935923693
 21
397.4653627585717
 31
0.0
  0
LINE
  5
F63
330
F5E
100
AcDbEntity
  8
DIM
 62
     0
370
    -2
100
AcDbLine
 10
465.2338935923693
 20
522.4653627585708
 30
0.0
 11
465.2338935923693
 21
399.4653627585717
 31
0.0
  0
INSERT
  5
F64
330
F5E
100
AcDbEntity
  8
DIM
 62
     0
370
    -2
100
AcDbBlockReference
  2
_DOT
 10
465.2338935923693
 20
524.4653627585708
 30
0.0
 41
2.0
 42
2.0
 43
2.0
 50
90.0
  0
INSERT
  5
F65
330
F5E
100
AcDbEntity
  8
DIM
 62
     0
370
    -2
100
AcDbBlockReference
  2
_DOT
 10
465.2338935923693
 20
397.4653627585717
 30
0.0
 41
2.0
 42
2.0
 43
2.0
 50
270.0
  0
MTEXT
  5
F66
330
F5E
100
AcDbEntity
  8
DIM
 62
     0
100
AcDbMText
 10
449.2338935923693
 20
460.9653627585712
 30
0.0
 40
12.0
 41
0.0
 46
0.0
 71
     5
 72
     1
  1
\A1;127
  7
ＭＳ ゴシック
 11
0.0
 21
1.0
 31
0.0
 73
     1
 44
1.0
  0
POINT
  5
F67
330
F5E
100
AcDbEntity
  8
Defpoints
 62
     0
100
AcDbPoint
 10
506.3830447138743
 20
524.4653627585708
 30
0.0
  0
POINT
  5
F68
330
F5E
100
AcDbEntity
  8
Defpoints
 62
     0
100
AcDbPoint
 10
506.3830447138743
 20
397.4653627585717
 30
0.0
  0
POINT
  5
F69
330
F5E
100
AcDbEntity
  8
Defpoints
 62
     0
100
AcDbPoint
 10
465.2338935923693
 20
397.4653627585717
 30
0.0
  0
ENDBLK
  5
F60
330
F5E
100
AcDbEntity
  8
0
100
AcDbBlockEnd
  0
BLOCK
  5
F6C
330
F6B
100
AcDbEntity
  8
0
100
AcDbBlockBegin
  2
*D10
 70
     1
 10
0.0
 20
0.0
 30
0.0
  3
*D10
  1
*D12
  0
LINE
  5
F6E
330
F6B
100
AcDbEntity
  8
DIM
 62
     0
370
    -2
100
AcDbLine
 10
248.6142480161104
 20
566.8876984016606
 30
0.0
 11
219.8521470579397
 21
566.8876984016606
 31
0.0
  0
LINE
  5
F6F
330
F6B
100
AcDbEntity
  8
DIM
 62
     0
370
    -2
100
AcDbLine
 10
248.6142480161104
 20
444.8876984016606
 30
0.0
 11
219.8521470579397
 21
444.8876984016606
 31
0.0
  0
LINE
  5
F70
330
F6B
100
AcDbEntity
  8
DIM
 62
     0
370
    -2
100
AcDbLine
 10
219.8521470579397
 20
564.8876984016606
 30
0.0
 11
219.8521470579397
 21
446.8876984016606
 31
0.0
  0
INSERT
  5
F71
330
F6B
100
AcDbEntity
  8
DIM
 62
     0
370
    -2
100
AcDbBlockReference
  2
_DOT
 10
219.8521470579397
 20
566.8876984016606
 30
0.0
 41
2.0
 42
2.0
 43
2.0
 50
90.0
  0
INSERT
  5
F72
330
F6B
100
AcDbEntity
  8
DIM
 62
     0
370
    -2
100
AcDbBlockReference
  2
_DOT
 10
219.8521470579397
 20
444.8876984016606
 30
0.0
 41
2.0
 42
2.0
 43
2.0
 50
270.0
  0
MTEXT
  5
F73
330
F6B
100
AcDbEntity
  8
DIM
 62
     0
100
AcDbMText
 10
205.8521470579397
 20
505.8876984016606
 30
0.0
 40
12.0
 41
0.0
 46
0.0
 71
     5
 72
     1
  1
\A1;122
  7
ＭＳ ゴシック
 11
0.0
 21
1.0
 31
0.0
 73
     1
 44
1.0
  0
POINT
  5
F74
330
F6B
100
AcDbEntity
  8
Defpoints
 62
     0
100
AcDbPoint
 10
263.6142480161104
 20
566.8876984016606
 30
0.0
  0
POINT
  5
F75
330
F6B
100
AcDbEntity
  8
Defpoints
 62
     0
100
AcDbPoint
 10
263.6142480161104
 20
444.8876984016606
 30
0.0
  0
POINT
  5
F76
330
F6B
100
AcDbEntity
  8
Defpoints
 62
     0
100
AcDbPoint
 10
219.8521470579397
 20
444.8876984016606
 30
0.0
  0
ENDBLK
  5
F6D
330
F6B
100
AcDbEntity
  8
0
100
AcDbBlockEnd
  0
BLOCK
  5
FAA
330
FA9
100
AcDbEntity
  8
0
100
AcDbBlockBegin
  2
*D11
 70
     1
 10
0.0
 20
0.0
 30
0.0
  3
*D11
  1
*D14
  0
LINE
  5
FAB
330
FA9
100
AcDbEntity
  8
DIM
 62
     0
370
    -2
100
AcDbLine
 10
1.0
 20
15.0
 30
0.0
 11
1.0
 21
31.95790445834882
 31
0.0
  0
LINE
  5
FAC
330
FA9
100
AcDbEntity
  8
DIM
 62
     0
370
    -2
100
AcDbLine
 10
50.99999999999966
 20
15.0
 30
0.0
 11
50.99999999999966
 21
31.95790445834882
 31
0.0
  0
LINE
  5
FAD
330
FA9
100
AcDbEntity
  8
DIM
 62
     0
370
    -2
100
AcDbLine
 10
3.0
 20
31.95790445834882
 30
0.0
 11
48.99999999999966
 21
31.95790445834882
 31
0.0
  0
INSERT
  5
FAE
330
FA9
100
AcDbEntity
  8
DIM
 62
     0
370
    -2
100
AcDbBlockReference
  2
_DOT
 10
1.0
 20
31.95790445834882
 30
0.0
 41
2.0
 42
2.0
 43
2.0
 50
180.0
  0
INSERT
  5
FAF
330
FA9
100
AcDbEntity
  8
DIM
 62
     0
370
    -2
100
AcDbBlockReference
  2
_DOT
 10
50.99999999999966
 20
31.95790445834882
 30
0.0
 41
2.0
 42
2.0
 43
2.0
  0
MTEXT
  5
FB0
330
FA9
100
AcDbEntity
  8
DIM
 62
     0
100
AcDbMText
 10
25.99999999999983
 20
46.01790445834882
 30
0.0
 40
12.0
 41
0.0
 46
0.0
 71
     5
 72
     1
  1
\A1;ø50
  7
ＭＳ ゴシック
 73
     1
 44
1.0
  0
POINT
  5
FB1
330
FA9
100
AcDbEntity
  8
Defpoints
 62
     0
100
AcDbPoint
 10
1.0
 20
0.0
 30
0.0
  0
POINT
  5
FB2
330
FA9
100
AcDbEntity
  8
Defpoints
 62
     0
100
AcDbPoint
 10
50.99999999999966
 20
0.0
 30
0.0
  0
POINT
  5
FB3
330
FA9
100
AcDbEntity
  8
Defpoints
 62
     0
100
AcDbPoint
 10
50.99999999999966
 20
31.95790445834882
 30
0.0
  0
ENDBLK
  5
FB4
330
FA9
100
AcDbEntity
  8
0
100
AcDbBlockEnd
  0
BLOCK
  5
FBB
330
FBA
100
AcDbEntity
  8
0
100
AcDbBlockBegin
  2
*D12
 70
     1
 10
0.0
 20
0.0
 30
0.0
  3
*D12
  1
*D15
  0
LINE
  5
FBD
330
FBA
100
AcDbEntity
  8
DIM
 62
     0
370
    -2
100
AcDbLine
 10
556.3830447138743
 20
397.4653627585708
 30
0.0
 11
556.3830447138743
 21
364.1422167418021
 31
0.0
  0
LINE
  5
FBE
330
FBA
100
AcDbEntity
  8
DIM
 62
     0
370
    -2
100
AcDbLine
 10
506.3830447138747
 20
397.4653627585708
 30
0.0
 11
506.3830447138747
 21
364.1422167418021
 31
0.0
  0
LINE
  5
FBF
330
FBA
100
AcDbEntity
  8
DIM
 62
     0
370
    -2
100
AcDbLine
 10
554.3830447138743
 20
364.1422167418021
 30
0.0
 11
508.3830447138747
 21
364.1422167418021
 31
0.0
  0
INSERT
  5
FC0
330
FBA
100
AcDbEntity
  8
DIM
 62
     0
370
    -2
100
AcDbBlockReference
  2
_DOT
 10
556.3830447138743
 20
364.1422167418021
 30
0.0
 41
2.0
 42
2.0
 43
2.0
  0
INSERT
  5
FC1
330
FBA
100
AcDbEntity
  8
DIM
 62
     0
370
    -2
100
AcDbBlockReference
  2
_DOT
 10
506.3830447138747
 20
364.1422167418021
 30
0.0
 41
2.0
 42
2.0
 43
2.0
 50
180.0
  0
MTEXT
  5
FC2
330
FBA
100
AcDbEntity
  8
DIM
 62
     0
100
AcDbMText
 10
531.3830447138745
 20
380.2022167418021
 30
0.0
 40
12.0
 41
0.0
 46
0.0
 71
     5
 72
     1
  1
\A1;ø50
  7
ＭＳ ゴシック
 73
     1
 44
1.0
  0
POINT
  5
FC3
330
FBA
100
AcDbEntity
  8
Defpoints
 62
     0
100
AcDbPoint
 10
556.3830447138743
 20
402.4653627585708
 30
0.0
  0
POINT
  5
FC4
330
FBA
100
AcDbEntity
  8
Defpoints
 62
     0
100
AcDbPoint
 10
506.3830447138747
 20
402.4653627585708
 30
0.0
  0
POINT
  5
FC5
330
FBA
100
AcDbEntity
  8
Defpoints
 62
     0
100
AcDbPoint
 10
506.3830447138747
 20
364.1422167418021
 30
0.0
  0
ENDBLK
  5
FBC
330
FBA
100
AcDbEntity
  8
0
100
AcDbBlockEnd
  0
BLOCK
  5
FDA
330
FD9
100
AcDbEntity
  8
0
100
AcDbBlockBegin
  2
*D13
 70
     1
 10
0.0
 20
0.0
 30
0.0
  3
*D13
  1
*D16
  0
LINE
  5
FDC
330
FD9
100
AcDbEntity
  8
DIM
 62
     0
370
    -2
100
AcDbLine
 10
491.3830447138743
 20
724.8876984016615
 30
0.0
 11
433.8974312594569
 21
724.8876984016615
 31
0.0
  0
LINE
  5
FDD
330
FD9
100
AcDbEntity
  8
DIM
 62
     0
370
    -2
100
AcDbLine
 10
491.3830447138743
 20
524.8876984016615
 30
0.0
 11
433.8974312594569
 21
524.8876984016615
 31
0.0
  0
LINE
  5
FDE
330
FD9
100
AcDbEntity
  8
DIM
 62
     0
370
    -2
100
AcDbLine
 10
433.8974312594569
 20
722.8876984016615
 30
0.0
 11
433.8974312594569
 21
526.8876984016615
 31
0.0
  0
INSERT
  5
FDF
330
FD9
100
AcDbEntity
  8
DIM
 62
     0
370
    -2
100
AcDbBlockReference
  2
_DOT
 10
433.8974312594569
 20
724.8876984016615
 30
0.0
 41
2.0
 42
2.0
 43
2.0
 50
90.0
  0
INSERT
  5
FE0
330
FD9
100
AcDbEntity
  8
DIM
 62
     0
370
    -2
100
AcDbBlockReference
  2
_DOT
 10
433.8974312594569
 20
524.8876984016615
 30
0.0
 41
2.0
 42
2.0
 43
2.0
 50
270.0
  0
MTEXT
  5
FE1
330
FD9
100
AcDbEntity
  8
DIM
 62
     0
100
AcDbMText
 10
419.8974312594569
 20
624.8876984016615
 30
0.0
 40
12.0
 41
0.0
 46
0.0
 71
     5
 72
     1
  1
\A1;55～230
  7
ＭＳ ゴシック
 11
0.0
 21
1.0
 31
0.0
 73
     1
 44
1.0
  0
POINT
  5
FE2
330
FD9
100
AcDbEntity
  8
Defpoints
 62
     0
100
AcDbPoint
 10
506.3830447138743
 20
724.8876984016615
 30
0.0
  0
POINT
  5
FE3
330
FD9
100
AcDbEntity
  8
Defpoints
 62
     0
100
AcDbPoint
 10
506.3830447138743
 20
524.8876984016615
 30
0.0
  0
POINT
  5
FE4
330
FD9
100
AcDbEntity
  8
Defpoints
 62
     0
100
AcDbPoint
 10
433.8974312594569
 20
524.8876984016615
 30
0.0
  0
ENDBLK
  5
FDB
330
FD9
100
AcDbEntity
  8
0
100
AcDbBlockEnd
  0
BLOCK
  5
1004
330
1003
100
AcDbEntity
  8
0
100
AcDbBlockBegin
  2
*D14
 70
     1
 10
0.0
 20
0.0
 30
0.0
  3
*D14
  1
*D17
  0
LINE
  5
1006
330
1003
100
AcDbEntity
  8
DIM
 62
     0
370
    -2
100
AcDbLine
 10
317.1357765155843
 20
429.8876984016606
 30
0.0
 11
317.1357765155843
 21
391.9129500904137
 31
0.0
  0
LINE
  5
1007
330
1003
100
AcDbEntity
  8
DIM
 62
     0
370
    -2
100
AcDbLine
 10
267.1357765155848
 20
429.8876984016606
 30
0.0
 11
267.1357765155848
 21
391.9129500904137
 31
0.0
  0
LINE
  5
1008
330
1003
100
AcDbEntity
  8
DIM
 62
     0
370
    -2
100
AcDbLine
 10
315.1357765155843
 20
391.9129500904137
 30
0.0
 11
269.1357765155848
 21
391.9129500904137
 31
0.0
  0
INSERT
  5
1009
330
1003
100
AcDbEntity
  8
DIM
 62
     0
370
    -2
100
AcDbBlockReference
  2
_DOT
 10
317.1357765155843
 20
391.9129500904137
 30
0.0
 41
2.0
 42
2.0
 43
2.0
  0
INSERT
  5
100A
330
1003
100
AcDbEntity
  8
DIM
 62
     0
370
    -2
100
AcDbBlockReference
  2
_DOT
 10
267.1357765155848
 20
391.9129500904137
 30
0.0
 41
2.0
 42
2.0
 43
2.0
 50
180.0
  0
MTEXT
  5
100B
330
1003
100
AcDbEntity
  8
DIM
 62
     0
100
AcDbMText
 10
292.1357765155846
 20
405.9729500904137
 30
0.0
 40
12.0
 41
0.0
 46
0.0
 71
     5
 72
     1
  1
\A1;ø50
  7
ＭＳ ゴシック
 73
     1
 44
1.0
  0
POINT
  5
100C
330
1003
100
AcDbEntity
  8
Defpoints
 62
     0
100
AcDbPoint
 10
317.1357765155843
 20
444.8876984016606
 30
0.0
  0
POINT
  5
100D
330
1003
100
AcDbEntity
  8
Defpoints
 62
     0
100
AcDbPoint
 10
267.1357765155848
 20
444.8876984016606
 30
0.0
  0
POINT
  5
100E
330
1003
100
AcDbEntity
  8
Defpoints
 62
     0
100
AcDbPoint
 10
267.1357765155848
 20
391.9129500904137
 30
0.0
  0
ENDBLK
  5
1005
330
1003
100
AcDbEntity
  8
0
100
AcDbBlockEnd
  0
BLOCK
  5
1013
330
1012
100
AcDbEntity
  8
0
100
AcDbBlockBegin
  2
*D15
 70
     1
 10
0.0
 20
0.0
 30
0.0
  3
*D15
  1
*D18
  0
LINE
  5
1015
330
1012
100
AcDbEntity
  8
DIM
 62
     0
370
    -2
100
AcDbLine
 10
536.3830447138743
 20
402.4653627585708
 30
0.0
 11
824.5435131013928
 21
402.4653627585708
 31
0.0
  0
LINE
  5
1016
330
1012
100
AcDbEntity
  8
DIM
 62
     0
370
    -2
100
AcDbLine
 10
821.3830447138724
 20
447.4653627585717
 30
0.0
 11
824.5435131013928
 21
447.4653627585717
 31
0.0
  0
LINE
  5
1017
330
1012
100
AcDbEntity
  8
DIM
 62
     0
370
    -2
100
AcDbLine
 10
824.5435131013928
 20
404.4653627585708
 30
0.0
 11
824.5435131013928
 21
445.4653627585717
 31
0.0
  0
INSERT
  5
1018
330
1012
100
AcDbEntity
  8
DIM
 62
     0
370
    -2
100
AcDbBlockReference
  2
_DOT
 10
824.5435131013928
 20
402.4653627585708
 30
0.0
 41
2.0
 42
2.0
 43
2.0
 50
270.0
  0
INSERT
  5
1019
330
1012
100
AcDbEntity
  8
DIM
 62
     0
370
    -2
100
AcDbBlockReference
  2
_DOT
 10
824.5435131013928
 20
447.4653627585717
 30
0.0
 41
2.0
 42
2.0
 43
2.0
 50
90.0
  0
MTEXT
  5
101A
330
1012
100
AcDbEntity
  8
DIM
 62
     0
100
AcDbMText
 10
808.5435131013928
 20
424.9653627585712
 30
0.0
 40
12.0
 41
0.0
 46
0.0
 71
     5
 72
     1
  1
\A1;45
  7
ＭＳ ゴシック
 11
0.0
 21
1.0
 31
0.0
 73
     1
 44
1.0
  0
POINT
  5
101B
330
1012
100
AcDbEntity
  8
Defpoints
 62
     0
100
AcDbPoint
 10
531.3830447138743
 20
402.4653627585708
 30
0.0
  0
POINT
  5
101C
330
1012
100
AcDbEntity
  8
Defpoints
 62
     0
100
AcDbPoint
 10
816.3830447138724
 20
447.4653627585717
 30
0.0
  0
POINT
  5
101D
330
1012
100
AcDbEntity
  8
Defpoints
 62
     0
100
AcDbPoint
 10
824.5435131013928
 20
447.4653627585717
 30
0.0
  0
ENDBLK
  5
1014
330
1012
100
AcDbEntity
  8
0
100
AcDbBlockEnd
  0
BLOCK
  5
1022
330
1021
100
AcDbEntity
  8
0
100
AcDbBlockBegin
  2
*D16
 70
     1
 10
0.0
 20
0.0
 30
0.0
  3
*D16
  1
*D19
  0
LINE
  5
1024
330
1021
100
AcDbEntity
  8
DIM
 62
     0
370
    -2
100
AcDbLine
 10
531.3830447138743
 20
429.8876984016606
 30
0.0
 11
531.3830447138743
 21
352.2952399013599
 31
0.0
  0
LINE
  5
1025
330
1021
100
AcDbEntity
  8
DIM
 62
     0
370
    -2
100
AcDbLine
 10
856.3830447138724
 20
493.8876984016615
 30
0.0
 11
856.3830447138724
 21
352.2952399013599
 31
0.0
  0
LINE
  5
1026
330
1021
100
AcDbEntity
  8
DIM
 62
     0
370
    -2
100
AcDbLine
 10
533.3830447138743
 20
352.2952399013599
 30
0.0
 11
854.3830447138724
 21
352.2952399013599
 31
0.0
  0
INSERT
  5
1027
330
1021
100
AcDbEntity
  8
DIM
 62
     0
370
    -2
100
AcDbBlockReference
  2
_DOT
 10
531.3830447138743
 20
352.2952399013599
 30
0.0
 41
2.0
 42
2.0
 43
2.0
 50
180.0
  0
INSERT
  5
1028
330
1021
100
AcDbEntity
  8
DIM
 62
     0
370
    -2
100
AcDbBlockReference
  2
_DOT
 10
856.3830447138724
 20
352.2952399013599
 30
0.0
 41
2.0
 42
2.0
 43
2.0
  0
MTEXT
  5
1029
330
1021
100
AcDbEntity
  8
DIM
 62
     0
100
AcDbMText
 10
693.8830447138733
 20
366.2952399013599
 30
0.0
 40
12.0
 41
0.0
 46
0.0
 71
     5
 72
     1
  1
\A1;115～325
  7
ＭＳ ゴシック
 73
     1
 44
1.0
  0
POINT
  5
102A
330
1021
100
AcDbEntity
  8
Defpoints
 62
     0
100
AcDbPoint
 10
531.3830447138743
 20
444.8876984016606
 30
0.0
  0
POINT
  5
102B
330
1021
100
AcDbEntity
  8
Defpoints
 62
     0
100
AcDbPoint
 10
856.3830447138724
 20
508.8876984016615
 30
0.0
  0
POINT
  5
102C
330
1021
100
AcDbEntity
  8
Defpoints
 62
     0
100
AcDbPoint
 10
856.3830447138724
 20
352.2952399013599
 30
0.0
  0
ENDBLK
  5
1023
330
1021
100
AcDbEntity
  8
0
100
AcDbBlockEnd
  0
BLOCK
  5
105C
330
105B
100
AcDbEntity
  8
0
100
AcDbBlockBegin
  2
*D17
 70
     1
 10
0.0
 20
0.0
 30
0.0
  3
*D17
  1
*D20
  0
LINE
  5
105E
330
105B
100
AcDbEntity
  8
DIM
 62
     0
370
    -2
100
AcDbLine
 10
816.3830447138724
 20
427.4653627585717
 30
0.0
 11
816.3830447138724
 21
380.0727065230848
 31
0.0
  0
LINE
  5
105F
330
105B
100
AcDbEntity
  8
DIM
 62
     0
370
    -2
100
AcDbLine
 10
531.3830447138743
 20
382.4653627585708
 30
0.0
 11
531.3830447138743
 21
380.0727065230848
 31
0.0
  0
LINE
  5
1060
330
105B
100
AcDbEntity
  8
DIM
 62
     0
370
    -2
100
AcDbLine
 10
814.3830447138724
 20
380.0727065230848
 30
0.0
 11
533.3830447138743
 21
380.0727065230848
 31
0.0
  0
INSERT
  5
1061
330
105B
100
AcDbEntity
  8
DIM
 62
     0
370
    -2
100
AcDbBlockReference
  2
_DOT
 10
816.3830447138724
 20
380.0727065230848
 30
0.0
 41
2.0
 42
2.0
 43
2.0
  0
INSERT
  5
1062
330
105B
100
AcDbEntity
  8
DIM
 62
     0
370
    -2
100
AcDbBlockReference
  2
_DOT
 10
531.3830447138743
 20
380.0727065230848
 30
0.0
 41
2.0
 42
2.0
 43
2.0
 50
180.0
  0
MTEXT
  5
1063
330
105B
100
AcDbEntity
  8
DIM
 62
     0
100
AcDbMText
 10
673.8830447138733
 20
396.0727065230848
 30
0.0
 40
12.0
 41
0.0
 46
0.0
 71
     5
 72
     1
  1
\A1;285
  7
ＭＳ ゴシック
 73
     1
 44
1.0
  0
POINT
  5
1064
330
105B
100
AcDbEntity
  8
Defpoints
 62
     0
100
AcDbPoint
 10
816.3830447138724
 20
447.4653627585717
 30
0.0
  0
POINT
  5
1065
330
105B
100
AcDbEntity
  8
Defpoints
 62
     0
100
AcDbPoint
 10
531.3830447138743
 20
402.4653627585708
 30
0.0
  0
POINT
  5
1066
330
105B
100
AcDbEntity
  8
Defpoints
 62
     0
100
AcDbPoint
 10
531.3830447138743
 20
380.0727065230848
 30
0.0
  0
ENDBLK
  5
105D
330
105B
100
AcDbEntity
  8
0
100
AcDbBlockEnd
  0
BLOCK
  5
1087
330
1086
100
AcDbEntity
  8
0
100
AcDbBlockBegin
  2
*D18
 70
     1
 10
0.0
 20
0.0
 30
0.0
  3
*D18
  1
*D21
  0
LINE
  5
1089
330
1086
100
AcDbEntity
  8
DIM
 62
     0
370
    -2
100
AcDbLine
 10
531.3830447138743
 20
429.8876984016606
 30
0.0
 11
531.3830447138743
 21
404.4238059395886
 31
0.0
  0
LINE
  5
108A
330
1086
100
AcDbEntity
  8
DIM
 62
     0
370
    -2
100
AcDbLine
 10
592.3830447138888
 20
487.3876984016615
 30
0.0
 11
592.3830447138888
 21
404.4238059395886
 31
0.0
  0
LINE
  5
108B
330
1086
100
AcDbEntity
  8
DIM
 62
     0
370
    -2
100
AcDbLine
 10
533.3830447138743
 20
404.4238059395886
 30
0.0
 11
590.3830447138888
 21
404.4238059395886
 31
0.0
  0
INSERT
  5
108C
330
1086
100
AcDbEntity
  8
DIM
 62
     0
370
    -2
100
AcDbBlockReference
  2
_DOT
 10
531.3830447138743
 20
404.4238059395886
 30
0.0
 41
2.0
 42
2.0
 43
2.0
 50
180.0
  0
INSERT
  5
108D
330
1086
100
AcDbEntity
  8
DIM
 62
     0
370
    -2
100
AcDbBlockReference
  2
_DOT
 10
592.3830447138888
 20
404.4238059395886
 30
0.0
 41
2.0
 42
2.0
 43
2.0
  0
MTEXT
  5
108E
330
1086
100
AcDbEntity
  8
DIM
 62
     0
100
AcDbMText
 10
561.8830447138815
 20
418.4238059395886
 30
0.0
 40
12.0
 41
0.0
 46
0.0
 71
     5
 72
     1
  1
\A1;61
  7
ＭＳ ゴシック
 73
     1
 44
1.0
  0
POINT
  5
108F
330
1086
100
AcDbEntity
  8
Defpoints
 62
     0
100
AcDbPoint
 10
531.3830447138743
 20
444.8876984016606
 30
0.0
  0
POINT
  5
1090
330
1086
100
AcDbEntity
  8
Defpoints
 62
     0
100
AcDbPoint
 10
592.3830447138888
 20
502.3876984016615
 30
0.0
  0
POINT
  5
1091
330
1086
100
AcDbEntity
  8
Defpoints
 62
     0
100
AcDbPoint
 10
592.3830447138888
 20
404.4238059395886
 30
0.0
  0
ENDBLK
  5
1088
330
1086
100
AcDbEntity
  8
0
100
AcDbBlockEnd
  0
BLOCK
  5
109E
330
109D
100
AcDbEntity
  8
0
100
AcDbBlockBegin
  2
*D19
 70
     1
 10
0.0
 20
0.0
 30
0.0
  3
*D19
  1
*D22
  0
LINE
  5
10A0
330
109D
100
AcDbEntity
  8
DIM
 62
     0
370
    -2
100
AcDbLine
 10
866.1354220726915
 20
559.8876984016624
 30
0.0
 11
903.7855231042726
 21
559.8876984016624
 31
0.0
  0
LINE
  5
10A1
330
109D
100
AcDbEntity
  8
DIM
 62
     0
370
    -2
100
AcDbLine
 10
866.1354220726915
 20
489.8876984016615
 30
0.0
 11
903.7855231042726
 21
489.8876984016615
 31
0.0
  0
LINE
  5
10A2
330
109D
100
AcDbEntity
  8
DIM
 62
     0
370
    -2
100
AcDbLine
 10
903.7855231042726
 20
557.8876984016624
 30
0.0
 11
903.7855231042726
 21
491.8876984016615
 31
0.0
  0
INSERT
  5
10A3
330
109D
100
AcDbEntity
  8
DIM
 62
     0
370
    -2
100
AcDbBlockReference
  2
_DOT
 10
903.7855231042726
 20
559.8876984016624
 30
0.0
 41
2.0
 42
2.0
 43
2.0
 50
90.0
  0
INSERT
  5
10A4
330
109D
100
AcDbEntity
  8
DIM
 62
     0
370
    -2
100
AcDbBlockReference
  2
_DOT
 10
903.7855231042726
 20
489.8876984016615
 30
0.0
 41
2.0
 42
2.0
 43
2.0
 50
270.0
  0
MTEXT
  5
10A5
330
109D
100
AcDbEntity
  8
DIM
 62
     0
100
AcDbMText
 10
889.7855231042726
 20
524.887698401662
 30
0.0
 40
12.0
 41
0.0
 46
0.0
 71
     5
 72
     1
  1
\A1;70
  7
ＭＳ ゴシック
 11
0.0
 21
1.0
 31
0.0
 73
     1
 44
1.0
  0
POINT
  5
10A6
330
109D
100
AcDbEntity
  8
Defpoints
 62
     0
100
AcDbPoint
 10
851.1354220726915
 20
559.8876984016624
 30
0.0
  0
POINT
  5
10A7
330
109D
100
AcDbEntity
  8
Defpoints
 62
     0
100
AcDbPoint
 10
851.1354220726915
 20
489.8876984016615
 30
0.0
  0
POINT
  5
10A8
330
109D
100
AcDbEntity
  8
Defpoints
 62
     0
100
AcDbPoint
 10
903.7855231042726
 20
489.8876984016615
 30
0.0
  0
ENDBLK
  5
109F
330
109D
100
AcDbEntity
  8
0
100
AcDbBlockEnd
  0
BLOCK
  5
10B1
330
10B0
100
AcDbEntity
  8
0
100
AcDbBlockBegin
  2
*D20
 70
     1
 10
0.0
 20
0.0
 30
0.0
  3
*D20
  1
*D23
  0
LINE
  5
10B3
330
10B0
100
AcDbEntity
  8
DIM
 62
     0
370
    -2
100
AcDbLine
 10
871.3830447138724
 20
466.4653627585717
 30
0.0
 11
913.5095991399699
 21
466.4653627585717
 31
0.0
  0
LINE
  5
10B4
330
10B0
100
AcDbEntity
  8
DIM
 62
     0
370
    -2
100
AcDbLine
 10
871.3830447138724
 20
498.4653627585717
 30
0.0
 11
913.5095991399699
 21
498.4653627585717
 31
0.0
  0
LINE
  5
10B5
330
10B0
100
AcDbEntity
  8
DIM
 62
     0
370
    -2
100
AcDbLine
 10
913.5095991399699
 20
468.4653627585717
 30
0.0
 11
913.5095991399699
 21
496.4653627585717
 31
0.0
  0
INSERT
  5
10B6
330
10B0
100
AcDbEntity
  8
DIM
 62
     0
370
    -2
100
AcDbBlockReference
  2
_DOT
 10
913.5095991399699
 20
466.4653627585717
 30
0.0
 41
2.0
 42
2.0
 43
2.0
 50
270.0
  0
INSERT
  5
10B7
330
10B0
100
AcDbEntity
  8
DIM
 62
     0
370
    -2
100
AcDbBlockReference
  2
_DOT
 10
913.5095991399699
 20
498.4653627585717
 30
0.0
 41
2.0
 42
2.0
 43
2.0
 50
90.0
  0
MTEXT
  5
10B8
330
10B0
100
AcDbEntity
  8
DIM
 62
     0
100
AcDbMText
 10
899.4495991399699
 20
482.4653627585717
 30
0.0
 40
12.0
 41
0.0
 46
0.0
 71
     5
 72
     1
  1
\A1;ø32
  7
ＭＳ ゴシック
 11
0.0
 21
1.0
 31
0.0
 73
     1
 44
1.0
  0
POINT
  5
10B9
330
10B0
100
AcDbEntity
  8
Defpoints
 62
     0
100
AcDbPoint
 10
856.3830447138724
 20
466.4653627585717
 30
0.0
  0
POINT
  5
10BA
330
10B0
100
AcDbEntity
  8
Defpoints
 62
     0
100
AcDbPoint
 10
856.3830447138724
 20
498.4653627585717
 30
0.0
  0
POINT
  5
10BB
330
10B0
100
AcDbEntity
  8
Defpoints
 62
     0
100
AcDbPoint
 10
913.5095991399699
 20
498.4653627585717
 30
0.0
  0
ENDBLK
  5
10B2
330
10B0
100
AcDbEntity
  8
0
100
AcDbBlockEnd
  0
BLOCK
  5
110B
330
110A
100
AcDbEntity
  8
0
100
AcDbBlockBegin
  2
*D21
 70
     1
 10
0.0
 20
0.0
 30
0.0
  3
*D21
  1
*D24
  0
LINE
  5
110D
330
110A
100
AcDbEntity
  8
DIM
 62
     0
370
    -2
100
AcDbLine
 10
491.3830447138743
 20
566.8876984016606
 30
0.0
 11
468.9329876701369
 21
566.8876984016606
 31
0.0
  0
LINE
  5
110E
330
110A
100
AcDbEntity
  8
DIM
 62
     0
370
    -2
100
AcDbLine
 10
491.3830447138743
 20
524.8876984016615
 30
0.0
 11
468.9329876701369
 21
524.8876984016615
 31
0.0
  0
LINE
  5
110F
330
110A
100
AcDbEntity
  8
DIM
 62
     0
370
    -2
100
AcDbLine
 10
468.9329876701369
 20
564.8876984016606
 30
0.0
 11
468.9329876701369
 21
526.8876984016615
 31
0.0
  0
INSERT
  5
1110
330
110A
100
AcDbEntity
  8
DIM
 62
     0
370
    -2
100
AcDbBlockReference
  2
_DOT
 10
468.9329876701369
 20
566.8876984016606
 30
0.0
 41
2.0
 42
2.0
 43
2.0
 50
90.0
  0
INSERT
  5
1111
330
110A
100
AcDbEntity
  8
DIM
 62
     0
370
    -2
100
AcDbBlockReference
  2
_DOT
 10
468.9329876701369
 20
524.8876984016615
 30
0.0
 41
2.0
 42
2.0
 43
2.0
 50
270.0
  0
MTEXT
  5
1112
330
110A
100
AcDbEntity
  8
DIM
 62
     0
100
AcDbMText
 10
454.9329876701369
 20
545.887698401661
 30
0.0
 40
12.0
 41
0.0
 46
0.0
 71
     5
 72
     1
  1
\A1;42
  7
ＭＳ ゴシック
 11
0.0
 21
1.0
 31
0.0
 73
     1
 44
1.0
  0
POINT
  5
1113
330
110A
100
AcDbEntity
  8
Defpoints
 62
     0
100
AcDbPoint
 10
506.3830447138743
 20
566.8876984016606
 30
0.0
  0
POINT
  5
1114
330
110A
100
AcDbEntity
  8
Defpoints
 62
     0
100
AcDbPoint
 10
506.3830447138743
 20
524.8876984016615
 30
0.0
  0
POINT
  5
1115
330
110A
100
AcDbEntity
  8
Defpoints
 62
     0
100
AcDbPoint
 10
468.9329876701369
 20
524.8876984016615
 30
0.0
  0
ENDBLK
  5
110C
330
110A
100
AcDbEntity
  8
0
100
AcDbBlockEnd
  0
BLOCK
  5
112A
330
1129
100
AcDbEntity
  8
0
100
AcDbBlockBegin
  2
*D22
 70
     1
 10
0.0
 20
0.0
 30
0.0
  3
*D22
  1
*D25
  0
LINE
  5
112C
330
1129
100
AcDbEntity
  8
DIM
 62
     0
370
    -2
100
AcDbLine
 10
491.3830447138743
 20
444.8876984016606
 30
0.0
 11
468.9329876701369
 21
444.8876984016606
 31
0.0
  0
LINE
  5
112D
330
1129
100
AcDbEntity
  8
DIM
 62
     0
370
    -2
100
AcDbLine
 10
491.3830447138743
 20
524.8876984016615
 30
0.0
 11
468.9329876701369
 21
524.8876984016615
 31
0.0
  0
LINE
  5
112E
330
1129
100
AcDbEntity
  8
DIM
 62
     0
370
    -2
100
AcDbLine
 10
468.9329876701369
 20
446.8876984016606
 30
0.0
 11
468.9329876701369
 21
522.8876984016615
 31
0.0
  0
INSERT
  5
112F
330
1129
100
AcDbEntity
  8
DIM
 62
     0
370
    -2
100
AcDbBlockReference
  2
_DOT
 10
468.9329876701369
 20
444.8876984016606
 30
0.0
 41
2.0
 42
2.0
 43
2.0
 50
270.0
  0
INSERT
  5
1130
330
1129
100
AcDbEntity
  8
DIM
 62
     0
370
    -2
100
AcDbBlockReference
  2
_DOT
 10
468.9329876701369
 20
524.8876984016615
 30
0.0
 41
2.0
 42
2.0
 43
2.0
 50
90.0
  0
MTEXT
  5
1131
330
1129
100
AcDbEntity
  8
DIM
 62
     0
100
AcDbMText
 10
454.9329876701369
 20
484.8876984016611
 30
0.0
 40
12.0
 41
0.0
 46
0.0
 71
     5
 72
     1
  1
\A1;80
  7
ＭＳ ゴシック
 11
0.0
 21
1.0
 31
0.0
 73
     1
 44
1.0
  0
POINT
  5
1132
330
1129
100
AcDbEntity
  8
Defpoints
 62
     0
100
AcDbPoint
 10
506.3830447138743
 20
444.8876984016606
 30
0.0
  0
POINT
  5
1133
330
1129
100
AcDbEntity
  8
Defpoints
 62
     0
100
AcDbPoint
 10
506.3830447138743
 20
524.8876984016615
 30
0.0
  0
POINT
  5
1134
330
1129
100
AcDbEntity
  8
Defpoints
 62
     0
100
AcDbPoint
 10
468.9329876701369
 20
524.8876984016615
 30
0.0
  0
ENDBLK
  5
112B
330
1129
100
AcDbEntity
  8
0
100
AcDbBlockEnd
  0
BLOCK
  5
1165
330
1164
100
AcDbEntity
  8
0
100
AcDbBlockBegin
  2
*D23
 70
     1
 10
0.0
 20
0.0
 30
0.0
  3
*D23
  1
*D26
  0
LINE
  5
1167
330
1164
100
AcDbEntity
  8
DIM
 62
     0
370
    -2
100
AcDbLine
 10
816.3830447138724
 20
574.8876984016624
 30
0.0
 11
816.3830447138724
 21
591.6821608066834
 31
0.0
  0
LINE
  5
1168
330
1164
100
AcDbEntity
  8
DIM
 62
     0
370
    -2
100
AcDbLine
 10
806.3830447138724
 20
574.8876984016624
 30
0.0
 11
806.3830447138724
 21
591.6821608066834
 31
0.0
  0
LINE
  5
1169
330
1164
100
AcDbEntity
  8
DIM
 62
     0
370
    -2
100
AcDbLine
 10
814.3830447138724
 20
591.6821608066834
 30
0.0
 11
808.3830447138724
 21
591.6821608066834
 31
0.0
  0
INSERT
  5
116A
330
1164
100
AcDbEntity
  8
DIM
 62
     0
370
    -2
100
AcDbBlockReference
  2
_DOT
 10
816.3830447138724
 20
591.6821608066834
 30
0.0
 41
2.0
 42
2.0
 43
2.0
  0
INSERT
  5
116B
330
1164
100
AcDbEntity
  8
DIM
 62
     0
370
    -2
100
AcDbBlockReference
  2
_DOT
 10
806.3830447138724
 20
591.6821608066834
 30
0.0
 41
2.0
 42
2.0
 43
2.0
 50
180.0
  0
MTEXT
  5
116C
330
1164
100
AcDbEntity
  8
DIM
 62
     0
100
AcDbMText
 10
811.4329585278231
 20
605.6821608066834
 30
0.0
 40
12.0
 41
0.0
 46
0.0
 71
     5
 72
     1
  1
\A1;10
  7
ＭＳ ゴシック
 73
     1
 44
1.0
  0
POINT
  5
116D
330
1164
100
AcDbEntity
  8
Defpoints
 62
     0
100
AcDbPoint
 10
816.3830447138724
 20
559.8876984016624
 30
0.0
  0
POINT
  5
116E
330
1164
100
AcDbEntity
  8
Defpoints
 62
     0
100
AcDbPoint
 10
806.3830447138724
 20
559.8876984016624
 30
0.0
  0
POINT
  5
116F
330
1164
100
AcDbEntity
  8
Defpoints
 62
     0
100
AcDbPoint
 10
806.3830447138724
 20
591.6821608066834
 30
0.0
  0
ENDBLK
  5
1166
330
1164
100
AcDbEntity
  8
0
100
AcDbBlockEnd
  0
BLOCK
  5
1183
330
1182
100
AcDbEntity
  8
0
100
AcDbBlockBegin
  2
*D24
 70
     1
 10
0.0
 20
0.0
 30
0.0
  3
*D24
  1
*D27
  0
LINE
  5
1185
330
1182
100
AcDbEntity
  8
DIM
 62
     0
370
    -2
100
AcDbLine
 10
607.3830447138888
 20
547.3876984016615
 30
0.0
 11
650.5867232743777
 21
547.3876984016615
 31
0.0
  0
LINE
  5
1186
330
1182
100
AcDbEntity
  8
DIM
 62
     0
370
    -2
100
AcDbLine
 10
607.3830447138888
 20
502.3876984016615
 30
0.0
 11
650.5867232743777
 21
502.3876984016615
 31
0.0
  0
LINE
  5
1187
330
1182
100
AcDbEntity
  8
DIM
 62
     0
370
    -2
100
AcDbLine
 10
650.5867232743777
 20
545.3876984016615
 30
0.0
 11
650.5867232743777
 21
504.3876984016615
 31
0.0
  0
INSERT
  5
1188
330
1182
100
AcDbEntity
  8
DIM
 62
     0
370
    -2
100
AcDbBlockReference
  2
_DOT
 10
650.5867232743777
 20
547.3876984016615
 30
0.0
 41
2.0
 42
2.0
 43
2.0
 50
90.0
  0
INSERT
  5
1189
330
1182
100
AcDbEntity
  8
DIM
 62
     0
370
    -2
100
AcDbBlockReference
  2
_DOT
 10
650.5867232743777
 20
502.3876984016615
 30
0.0
 41
2.0
 42
2.0
 43
2.0
 50
270.0
  0
MTEXT
  5
118A
330
1182
100
AcDbEntity
  8
DIM
 62
     0
100
AcDbMText
 10
636.5267232743778
 20
524.8876984016615
 30
0.0
 40
12.0
 41
0.0
 46
0.0
 71
     5
 72
     1
  1
\A1;ø45
  7
ＭＳ ゴシック
 11
0.0
 21
1.0
 31
0.0
 73
     1
 44
1.0
  0
POINT
  5
118B
330
1182
100
AcDbEntity
  8
Defpoints
 62
     0
100
AcDbPoint
 10
592.3830447138888
 20
547.3876984016615
 30
0.0
  0
POINT
  5
118C
330
1182
100
AcDbEntity
  8
Defpoints
 62
     0
100
AcDbPoint
 10
592.3830447138888
 20
502.3876984016615
 30
0.0
  0
POINT
  5
118D
330
1182
100
AcDbEntity
  8
Defpoints
 62
     0
100
AcDbPoint
 10
650.5867232743777
 20
502.3876984016615
 30
0.0
  0
ENDBLK
  5
1184
330
1182
100
AcDbEntity
  8
0
100
AcDbBlockEnd
  0
BLOCK
  5
11D5
330
11D4
100
AcDbEntity
  8
0
100
AcDbBlockBegin
  2
*D25
 70
     1
 10
0.0
 20
0.0
 30
0.0
  3
*D25
  1
*D29
  0
LINE
  5
11D6
330
11D4
100
AcDbEntity
  8
DIM
 62
     0
370
    -2
100
AcDbLine
 10
15.0
 20
1.0
 30
0.0
 11
57.12655442609741
 21
1.0
 31
0.0
  0
LINE
  5
11D7
330
11D4
100
AcDbEntity
  8
DIM
 62
     0
370
    -2
100
AcDbLine
 10
15.0
 20
33.0
 30
0.0
 11
57.12655442609741
 21
33.0
 31
0.0
  0
LINE
  5
11D8
330
11D4
100
AcDbEntity
  8
DIM
 62
     0
370
    -2
100
AcDbLine
 10
57.12655442609741
 20
3.0
 30
0.0
 11
57.12655442609741
 21
31.0
 31
0.0
  0
INSERT
  5
11D9
330
11D4
100
AcDbEntity
  8
DIM
 62
     0
370
    -2
100
AcDbBlockReference
  2
_DOT
 10
57.12655442609741
 20
1.0
 30
0.0
 41
2.0
 42
2.0
 43
2.0
 50
270.0
  0
INSERT
  5
11DA
330
11D4
100
AcDbEntity
  8
DIM
 62
     0
370
    -2
100
AcDbBlockReference
  2
_DOT
 10
57.12655442609741
 20
33.0
 30
0.0
 41
2.0
 42
2.0
 43
2.0
 50
90.0
  0
MTEXT
  5
11DB
330
11D4
100
AcDbEntity
  8
DIM
 62
     0
100
AcDbMText
 10
43.06655442609741
 20
17.0
 30
0.0
 40
12.0
 41
0.0
 46
0.0
 71
     5
 72
     1
  1
\A1;ø32
  7
ＭＳ ゴシック
 11
0.0
 21
1.0
 31
0.0
 73
     1
 44
1.0
  0
POINT
  5
11DC
330
11D4
100
AcDbEntity
  8
Defpoints
 62
     0
100
AcDbPoint
 10
0.0
 20
1.0
 30
0.0
  0
POINT
  5
11DD
330
11D4
100
AcDbEntity
  8
Defpoints
 62
     0
100
AcDbPoint
 10
0.0
 20
33.0
 30
0.0
  0
POINT
  5
11DE
330
11D4
100
AcDbEntity
  8
Defpoints
 62
     0
100
AcDbPoint
 10
57.12655442609741
 20
33.0
 30
0.0
  0
ENDBLK
  5
11DF
330
11D4
100
AcDbEntity
  8
0
100
AcDbBlockEnd
  0
BLOCK
  5
11E7
330
11E6
100
AcDbEntity
  8
0
100
AcDbBlockBegin
  2
*D26
 70
     1
 10
0.0
 20
0.0
 30
0.0
  3
*D26
  1
*D30
  0
LINE
  5
11E9
330
11E6
100
AcDbEntity
  8
DIM
 62
     0
370
    -2
100
AcDbLine
 10
308.1357765155843
 20
530.0501473941354
 30
0.0
 11
308.1357765155843
 21
552.3335403959974
 31
0.0
  0
LINE
  5
11EA
330
11E6
100
AcDbEntity
  8
DIM
 62
     0
370
    -2
100
AcDbLine
 10
276.1357765155843
 20
530.0501473941354
 30
0.0
 11
276.1357765155843
 21
552.3335403959974
 31
0.0
  0
LINE
  5
11EB
330
11E6
100
AcDbEntity
  8
DIM
 62
     0
370
    -2
100
AcDbLine
 10
306.1357765155843
 20
552.3335403959974
 30
0.0
 11
278.1357765155843
 21
552.3335403959974
 31
0.0
  0
INSERT
  5
11EC
330
11E6
100
AcDbEntity
  8
DIM
 62
     0
370
    -2
100
AcDbBlockReference
  2
_DOT
 10
308.1357765155843
 20
552.3335403959974
 30
0.0
 41
2.0
 42
2.0
 43
2.0
  0
INSERT
  5
11ED
330
11E6
100
AcDbEntity
  8
DIM
 62
     0
370
    -2
100
AcDbBlockReference
  2
_DOT
 10
276.1357765155843
 20
552.3335403959974
 30
0.0
 41
2.0
 42
2.0
 43
2.0
 50
180.0
  0
MTEXT
  5
11EE
330
11E6
100
AcDbEntity
  8
DIM
 62
     0
100
AcDbMText
 10
292.1357765155843
 20
566.3335403959974
 30
0.0
 40
12.0
 41
0.0
 46
0.0
 71
     5
 72
     1
  1
\A1;32
  7
ＭＳ ゴシック
 73
     1
 44
1.0
  0
POINT
  5
11EF
330
11E6
100
AcDbEntity
  8
Defpoints
 62
     0
100
AcDbPoint
 10
308.1357765155843
 20
515.0501473941354
 30
0.0
  0
POINT
  5
11F0
330
11E6
100
AcDbEntity
  8
Defpoints
 62
     0
100
AcDbPoint
 10
276.1357765155843
 20
515.0501473941354
 30
0.0
  0
POINT
  5
11F1
330
11E6
100
AcDbEntity
  8
Defpoints
 62
     0
100
AcDbPoint
 10
276.1357765155843
 20
552.3335403959974
 30
0.0
  0
ENDBLK
  5
11E8
330
11E6
100
AcDbEntity
  8
0
100
AcDbBlockEnd
  0
BLOCK
  5
140D
330
140C
100
AcDbEntity
  8
0
100
AcDbBlockBegin
  2
*D27
 70
     1
 10
0.0
 20
0.0
 30
0.0
  3
*D27
  1
*D33
  0
LINE
  5
140F
330
140C
100
AcDbEntity
  8
DIM
 62
     0
370
    -2
100
AcDbLine
 10
1165.231290788976
 20
719.8876984016615
 30
0.0
 11
1165.231290788976
 21
808.879881347853
 31
0.0
  0
LINE
  5
1410
330
140C
100
AcDbEntity
  8
DIM
 62
     0
370
    -2
100
AcDbLine
 10
1398.221237664661
 20
626.4820407325901
 30
0.0
 11
1398.221237664661
 21
808.879881347853
 31
0.0
  0
LINE
  5
1411
330
140C
100
AcDbEntity
  8
DIM
 62
     0
370
    -2
100
AcDbLine
 10
1167.231290788976
 20
808.879881347853
 30
0.0
 11
1396.221237664661
 21
808.879881347853
 31
0.0
  0
INSERT
  5
1412
330
140C
100
AcDbEntity
  8
DIM
 62
     0
370
    -2
100
AcDbBlockReference
  2
_DOT
 10
1165.231290788976
 20
808.879881347853
 30
0.0
 41
2.0
 42
2.0
 43
2.0
 50
180.0
  0
INSERT
  5
1413
330
140C
100
AcDbEntity
  8
DIM
 62
     0
370
    -2
100
AcDbBlockReference
  2
_DOT
 10
1398.221237664661
 20
808.879881347853
 30
0.0
 41
2.0
 42
2.0
 43
2.0
  0
MTEXT
  5
1414
330
140C
100
AcDbEntity
  8
DIM
 62
     0
100
AcDbMText
 10
1281.726264226819
 20
822.879881347853
 30
0.0
 40
12.0
 41
0.0
 46
0.0
 71
     5
 72
     1
  1
\A1;233
  7
ＭＳ ゴシック
 73
     1
 44
1.0
  0
POINT
  5
1415
330
140C
100
AcDbEntity
  8
Defpoints
 62
     0
100
AcDbPoint
 10
1165.231290788976
 20
704.8876984016615
 30
0.0
  0
POINT
  5
1416
330
140C
100
AcDbEntity
  8
Defpoints
 62
     0
100
AcDbPoint
 10
1398.221237664661
 20
611.4820407325901
 30
0.0
  0
POINT
  5
1417
330
140C
100
AcDbEntity
  8
Defpoints
 62
     0
100
AcDbPoint
 10
1398.221237664661
 20
808.879881347853
 30
0.0
  0
ENDBLK
  5
140E
330
140C
100
AcDbEntity
  8
0
100
AcDbBlockEnd
  0
BLOCK
  5
1467
330
1466
100
AcDbEntity
  8
0
100
AcDbBlockBegin
  2
*D28
 70
     1
 10
0.0
 20
0.0
 30
0.0
  3
*D28
  1
*D34
  0
LINE
  5
1469
330
1466
100
AcDbEntity
  8
DIM
 62
     0
370
    -2
100
AcDbLine
 10
-811.8589977875763
 20
1298.436309467006
 30
0.0
 11
-811.8589977875763
 21
1331.454213925355
 31
0.0
  0
LINE
  5
146A
330
1466
100
AcDbEntity
  8
DIM
 62
     0
370
    -2
100
AcDbLine
 10
-761.8589977875768
 20
1298.436309467006
 30
0.0
 11
-761.8589977875768
 21
1331.454213925355
 31
0.0
  0
LINE
  5
146B
330
1466
100
AcDbEntity
  8
DIM
 62
     0
370
    -2
100
AcDbLine
 10
-809.8589977875763
 20
1331.454213925355
 30
0.0
 11
-763.8589977875768
 21
1331.454213925355
 31
0.0
  0
INSERT
  5
146C
330
1466
100
AcDbEntity
  8
DIM
 62
     0
370
    -2
100
AcDbBlockReference
  2
_DOT
 10
-811.8589977875763
 20
1331.454213925355
 30
0.0
 41
2.0
 42
2.0
 43
2.0
 50
180.0
  0
INSERT
  5
146D
330
1466
100
AcDbEntity
  8
DIM
 62
     0
370
    -2
100
AcDbBlockReference
  2
_DOT
 10
-761.8589977875768
 20
1331.454213925355
 30
0.0
 41
2.0
 42
2.0
 43
2.0
  0
MTEXT
  5
146E
330
1466
100
AcDbEntity
  8
DIM
 62
     0
100
AcDbMText
 10
-786.8589977875765
 20
1345.514213925355
 30
0.0
 40
12.0
 41
0.0
 46
0.0
 71
     5
 72
     1
  1
\A1;ø50
  7
ＭＳ ゴシック
 73
     1
 44
1.0
  0
POINT
  5
146F
330
1466
100
AcDbEntity
  8
Defpoints
 62
     0
100
AcDbPoint
 10
-811.8589977875763
 20
1283.436309467006
 30
0.0
  0
POINT
  5
1470
330
1466
100
AcDbEntity
  8
Defpoints
 62
     0
100
AcDbPoint
 10
-761.8589977875768
 20
1283.436309467006
 30
0.0
  0
POINT
  5
1471
330
1466
100
AcDbEntity
  8
Defpoints
 62
     0
100
AcDbPoint
 10
-761.8589977875768
 20
1331.454213925355
 30
0.0
  0
ENDBLK
  5
1468
330
1466
100
AcDbEntity
  8
0
100
AcDbBlockEnd
  0
BLOCK
  5
1473
330
1472
100
AcDbEntity
  8
0
100
AcDbBlockBegin
  2
*D29
 70
     1
 10
0.0
 20
0.0
 30
0.0
  3
*D29
  1
*D35
  0
LINE
  5
1475
330
1472
100
AcDbEntity
  8
DIM
 62
     0
370
    -2
100
AcDbLine
 10
-826.8589977875765
 20
566.8876984016624
 30
0.0
 11
-859.1426272452211
 21
566.8876984016624
 31
0.0
  0
LINE
  5
1476
330
1472
100
AcDbEntity
  8
DIM
 62
     0
370
    -2
100
AcDbLine
 10
-826.8589977875765
 20
479.8876984016624
 30
0.0
 11
-859.1426272452211
 21
479.8876984016624
 31
0.0
  0
LINE
  5
1477
330
1472
100
AcDbEntity
  8
DIM
 62
     0
370
    -2
100
AcDbLine
 10
-859.1426272452211
 20
564.8876984016624
 30
0.0
 11
-859.1426272452211
 21
481.8876984016624
 31
0.0
  0
INSERT
  5
1478
330
1472
100
AcDbEntity
  8
DIM
 62
     0
370
    -2
100
AcDbBlockReference
  2
_DOT
 10
-859.1426272452211
 20
566.8876984016624
 30
0.0
 41
2.0
 42
2.0
 43
2.0
 50
90.0
  0
INSERT
  5
1479
330
1472
100
AcDbEntity
  8
DIM
 62
     0
370
    -2
100
AcDbBlockReference
  2
_DOT
 10
-859.1426272452211
 20
479.8876984016624
 30
0.0
 41
2.0
 42
2.0
 43
2.0
 50
270.0
  0
MTEXT
  5
147A
330
1472
100
AcDbEntity
  8
DIM
 62
     0
100
AcDbMText
 10
-873.1426272452211
 20
523.1376984016624
 30
0.0
 40
12.0
 41
0.0
 46
0.0
 71
     5
 72
     1
  1
\A1;87
  7
ＭＳ ゴシック
 11
0.0
 21
1.0
 31
0.0
 73
     1
 44
1.0
  0
POINT
  5
147B
330
1472
100
AcDbEntity
  8
Defpoints
 62
     0
100
AcDbPoint
 10
-811.8589977875765
 20
566.8876984016624
 30
0.0
  0
POINT
  5
147C
330
1472
100
AcDbEntity
  8
Defpoints
 62
     0
100
AcDbPoint
 10
-811.8589977875765
 20
479.8876984016624
 30
0.0
  0
POINT
  5
147D
330
1472
100
AcDbEntity
  8
Defpoints
 62
     0
100
AcDbPoint
 10
-859.1426272452211
 20
479.8876984016624
 30
0.0
  0
ENDBLK
  5
1474
330
1472
100
AcDbEntity
  8
0
100
AcDbBlockEnd
  0
BLOCK
  5
147F
330
147E
100
AcDbEntity
  8
0
100
AcDbBlockBegin
  2
*D30
 70
     1
 10
0.0
 20
0.0
 30
0.0
  3
*D30
  1
*D36
  0
LINE
  5
1481
330
147E
100
AcDbEntity
  8
DIM
 62
     0
370
    -2
100
AcDbLine
 10
-761.8589977875765
 20
468.9611795312757
 30
0.0
 11
-761.8589977875765
 21
438.9238059395905
 31
0.0
  0
LINE
  5
1482
330
147E
100
AcDbEntity
  8
DIM
 62
     0
370
    -2
100
AcDbLine
 10
-811.8589977875761
 20
468.9611795312757
 30
0.0
 11
-811.8589977875761
 21
438.9238059395905
 31
0.0
  0
LINE
  5
1483
330
147E
100
AcDbEntity
  8
DIM
 62
     0
370
    -2
100
AcDbLine
 10
-763.8589977875765
 20
438.9238059395905
 30
0.0
 11
-809.8589977875761
 21
438.9238059395905
 31
0.0
  0
INSERT
  5
1484
330
147E
100
AcDbEntity
  8
DIM
 62
     0
370
    -2
100
AcDbBlockReference
  2
_DOT
 10
-761.8589977875765
 20
438.9238059395905
 30
0.0
 41
2.0
 42
2.0
 43
2.0
  0
INSERT
  5
1485
330
147E
100
AcDbEntity
  8
DIM
 62
     0
370
    -2
100
AcDbBlockReference
  2
_DOT
 10
-811.8589977875761
 20
438.9238059395905
 30
0.0
 41
2.0
 42
2.0
 43
2.0
 50
180.0
  0
MTEXT
  5
1486
330
147E
100
AcDbEntity
  8
DIM
 62
     0
100
AcDbMText
 10
-786.8589977875763
 20
452.9838059395905
 30
0.0
 40
12.0
 41
0.0
 46
0.0
 71
     5
 72
     1
  1
\A1;ø50
  7
ＭＳ ゴシック
 73
     1
 44
1.0
  0
POINT
  5
1487
330
147E
100
AcDbEntity
  8
Defpoints
 62
     0
100
AcDbPoint
 10
-761.8589977875765
 20
483.9611795312757
 30
0.0
  0
POINT
  5
1488
330
147E
100
AcDbEntity
  8
Defpoints
 62
     0
100
AcDbPoint
 10
-811.8589977875761
 20
483.9611795312757
 30
0.0
  0
POINT
  5
1489
330
147E
100
AcDbEntity
  8
Defpoints
 62
     0
100
AcDbPoint
 10
-811.8589977875761
 20
438.9238059395905
 30
0.0
  0
ENDBLK
  5
1480
330
147E
100
AcDbEntity
  8
0
100
AcDbBlockEnd
  0
BLOCK
  5
148B
330
148A
100
AcDbEntity
  8
0
100
AcDbBlockBegin
  2
*D31
 70
     1
 10
0.0
 20
0.0
 30
0.0
  3
*D31
  1
*D37
  0
LINE
  5
148D
330
148A
100
AcDbEntity
  8
DIM
 62
     0
370
    -2
100
AcDbLine
 10
-593.8690509118917
 20
704.8876984016615
 30
0.0
 11
-645.0973430437039
 21
704.8876984016615
 31
0.0
  0
LINE
  5
148E
330
148A
100
AcDbEntity
  8
DIM
 62
     0
370
    -2
100
AcDbLine
 10
-593.8690509118917
 20
524.8876984016615
 30
0.0
 11
-645.0973430437039
 21
524.8876984016615
 31
0.0
  0
LINE
  5
148F
330
148A
100
AcDbEntity
  8
DIM
 62
     0
370
    -2
100
AcDbLine
 10
-645.0973430437039
 20
702.8876984016615
 30
0.0
 11
-645.0973430437039
 21
526.8876984016615
 31
0.0
  0
INSERT
  5
1490
330
148A
100
AcDbEntity
  8
DIM
 62
     0
370
    -2
100
AcDbBlockReference
  2
_DOT
 10
-645.0973430437039
 20
704.8876984016615
 30
0.0
 41
2.0
 42
2.0
 43
2.0
 50
90.0
  0
INSERT
  5
1491
330
148A
100
AcDbEntity
  8
DIM
 62
     0
370
    -2
100
AcDbBlockReference
  2
_DOT
 10
-645.0973430437039
 20
524.8876984016615
 30
0.0
 41
2.0
 42
2.0
 43
2.0
 50
270.0
  0
MTEXT
  5
1492
330
148A
100
AcDbEntity
  8
DIM
 62
     0
100
AcDbMText
 10
-659.0973430437039
 20
614.8876984016615
 30
0.0
 40
12.0
 41
0.0
 46
0.0
 71
     5
 72
     1
  1
\A1;55～230
  7
ＭＳ ゴシック
 11
0.0
 21
1.0
 31
0.0
 73
     1
 44
1.0
  0
POINT
  5
1493
330
148A
100
AcDbEntity
  8
Defpoints
 62
     0
100
AcDbPoint
 10
-578.8690509118917
 20
704.8876984016615
 30
0.0
  0
POINT
  5
1494
330
148A
100
AcDbEntity
  8
Defpoints
 62
     0
100
AcDbPoint
 10
-578.8690509118917
 20
524.8876984016615
 30
0.0
  0
POINT
  5
1495
330
148A
100
AcDbEntity
  8
Defpoints
 62
     0
100
AcDbPoint
 10
-645.0973430437039
 20
524.8876984016615
 30
0.0
  0
ENDBLK
  5
148C
330
148A
100
AcDbEntity
  8
0
100
AcDbBlockEnd
  0
BLOCK
  5
1497
330
1496
100
AcDbEntity
  8
0
100
AcDbBlockBegin
  2
*D32
 70
     1
 10
0.0
 20
0.0
 30
0.0
  3
*D32
  1
*D38
  0
LINE
  5
1499
330
1496
100
AcDbEntity
  8
DIM
 62
     0
370
    -2
100
AcDbLine
 10
-593.8690509118917
 20
566.8876984016624
 30
0.0
 11
-610.061786633024
 21
566.8876984016624
 31
0.0
  0
LINE
  5
149A
330
1496
100
AcDbEntity
  8
DIM
 62
     0
370
    -2
100
AcDbLine
 10
-593.8690509118917
 20
524.8876984016615
 30
0.0
 11
-610.061786633024
 21
524.8876984016615
 31
0.0
  0
LINE
  5
149B
330
1496
100
AcDbEntity
  8
DIM
 62
     0
370
    -2
100
AcDbLine
 10
-610.061786633024
 20
564.8876984016624
 30
0.0
 11
-610.061786633024
 21
526.8876984016615
 31
0.0
  0
INSERT
  5
149C
330
1496
100
AcDbEntity
  8
DIM
 62
     0
370
    -2
100
AcDbBlockReference
  2
_DOT
 10
-610.061786633024
 20
566.8876984016624
 30
0.0
 41
2.0
 42
2.0
 43
2.0
 50
90.0
  0
INSERT
  5
149D
330
1496
100
AcDbEntity
  8
DIM
 62
     0
370
    -2
100
AcDbBlockReference
  2
_DOT
 10
-610.061786633024
 20
524.8876984016615
 30
0.0
 41
2.0
 42
2.0
 43
2.0
 50
270.0
  0
MTEXT
  5
149E
330
1496
100
AcDbEntity
  8
DIM
 62
     0
100
AcDbMText
 10
-624.061786633024
 20
545.887698401662
 30
0.0
 40
12.0
 41
0.0
 46
0.0
 71
     5
 72
     1
  1
\A1;42
  7
ＭＳ ゴシック
 11
0.0
 21
1.0
 31
0.0
 73
     1
 44
1.0
  0
POINT
  5
149F
330
1496
100
AcDbEntity
  8
Defpoints
 62
     0
100
AcDbPoint
 10
-578.8690509118917
 20
566.8876984016624
 30
0.0
  0
POINT
  5
14A0
330
1496
100
AcDbEntity
  8
Defpoints
 62
     0
100
AcDbPoint
 10
-578.8690509118917
 20
524.8876984016615
 30
0.0
  0
POINT
  5
14A1
330
1496
100
AcDbEntity
  8
Defpoints
 62
     0
100
AcDbPoint
 10
-610.061786633024
 20
524.8876984016615
 30
0.0
  0
ENDBLK
  5
1498
330
1496
100
AcDbEntity
  8
0
100
AcDbBlockEnd
  0
BLOCK
  5
14A3
330
14A2
100
AcDbEntity
  8
0
100
AcDbBlockBegin
  2
*D33
 70
     1
 10
0.0
 20
0.0
 30
0.0
  3
*D33
  1
*D39
  0
LINE
  5
14A5
330
14A2
100
AcDbEntity
  8
DIM
 62
     0
370
    -2
100
AcDbLine
 10
-593.8690509118917
 20
479.8876984016624
 30
0.0
 11
-610.061786633024
 21
479.8876984016624
 31
0.0
  0
LINE
  5
14A6
330
14A2
100
AcDbEntity
  8
DIM
 62
     0
370
    -2
100
AcDbLine
 10
-593.8690509118917
 20
524.8876984016615
 30
0.0
 11
-610.061786633024
 21
524.8876984016615
 31
0.0
  0
LINE
  5
14A7
330
14A2
100
AcDbEntity
  8
DIM
 62
     0
370
    -2
100
AcDbLine
 10
-610.061786633024
 20
481.8876984016624
 30
0.0
 11
-610.061786633024
 21
522.8876984016615
 31
0.0
  0
INSERT
  5
14A8
330
14A2
100
AcDbEntity
  8
DIM
 62
     0
370
    -2
100
AcDbBlockReference
  2
_DOT
 10
-610.061786633024
 20
479.8876984016624
 30
0.0
 41
2.0
 42
2.0
 43
2.0
 50
270.0
  0
INSERT
  5
14A9
330
14A2
100
AcDbEntity
  8
DIM
 62
     0
370
    -2
100
AcDbBlockReference
  2
_DOT
 10
-610.061786633024
 20
524.8876984016615
 30
0.0
 41
2.0
 42
2.0
 43
2.0
 50
90.0
  0
MTEXT
  5
14AA
330
14A2
100
AcDbEntity
  8
DIM
 62
     0
100
AcDbMText
 10
-624.061786633024
 20
502.387698401662
 30
0.0
 40
12.0
 41
0.0
 46
0.0
 71
     5
 72
     1
  1
\A1;45
  7
ＭＳ ゴシック
 11
0.0
 21
1.0
 31
0.0
 73
     1
 44
1.0
  0
POINT
  5
14AB
330
14A2
100
AcDbEntity
  8
Defpoints
 62
     0
100
AcDbPoint
 10
-578.8690509118917
 20
479.8876984016624
 30
0.0
  0
POINT
  5
14AC
330
14A2
100
AcDbEntity
  8
Defpoints
 62
     0
100
AcDbPoint
 10
-578.8690509118917
 20
524.8876984016615
 30
0.0
  0
POINT
  5
14AD
330
14A2
100
AcDbEntity
  8
Defpoints
 62
     0
100
AcDbPoint
 10
-610.061786633024
 20
524.8876984016615
 30
0.0
  0
ENDBLK
  5
14A4
330
14A2
100
AcDbEntity
  8
0
100
AcDbBlockEnd
  0
BLOCK
  5
14AF
330
14AE
100
AcDbEntity
  8
0
100
AcDbBlockBegin
  2
*D34
 70
     1
 10
0.0
 20
0.0
 30
0.0
  3
*D34
  1
*D40
  0
LINE
  5
14B1
330
14AE
100
AcDbEntity
  8
DIM
 62
     0
370
    -2
100
AcDbLine
 10
-268.8690509118917
 20
574.8876984016615
 30
0.0
 11
-268.8690509118917
 21
591.6821608066825
 31
0.0
  0
LINE
  5
14B2
330
14AE
100
AcDbEntity
  8
DIM
 62
     0
370
    -2
100
AcDbLine
 10
-278.8690509118917
 20
574.8876984016615
 30
0.0
 11
-278.8690509118917
 21
591.6821608066825
 31
0.0
  0
LINE
  5
14B3
330
14AE
100
AcDbEntity
  8
DIM
 62
     0
370
    -2
100
AcDbLine
 10
-270.8690509118917
 20
591.6821608066825
 30
0.0
 11
-276.8690509118917
 21
591.6821608066825
 31
0.0
  0
INSERT
  5
14B4
330
14AE
100
AcDbEntity
  8
DIM
 62
     0
370
    -2
100
AcDbBlockReference
  2
_DOT
 10
-268.8690509118917
 20
591.6821608066825
 30
0.0
 41
2.0
 42
2.0
 43
2.0
  0
INSERT
  5
14B5
330
14AE
100
AcDbEntity
  8
DIM
 62
     0
370
    -2
100
AcDbBlockReference
  2
_DOT
 10
-278.8690509118917
 20
591.6821608066825
 30
0.0
 41
2.0
 42
2.0
 43
2.0
 50
180.0
  0
MTEXT
  5
14B6
330
14AE
100
AcDbEntity
  8
DIM
 62
     0
100
AcDbMText
 10
-273.8191370979409
 20
605.6821608066825
 30
0.0
 40
12.0
 41
0.0
 46
0.0
 71
     5
 72
     1
  1
\A1;10
  7
ＭＳ ゴシック
 73
     1
 44
1.0
  0
POINT
  5
14B7
330
14AE
100
AcDbEntity
  8
Defpoints
 62
     0
100
AcDbPoint
 10
-268.8690509118917
 20
559.8876984016615
 30
0.0
  0
POINT
  5
14B8
330
14AE
100
AcDbEntity
  8
Defpoints
 62
     0
100
AcDbPoint
 10
-278.8690509118917
 20
559.8876984016615
 30
0.0
  0
POINT
  5
14B9
330
14AE
100
AcDbEntity
  8
Defpoints
 62
     0
100
AcDbPoint
 10
-278.8690509118917
 20
591.6821608066825
 30
0.0
  0
ENDBLK
  5
14B0
330
14AE
100
AcDbEntity
  8
0
100
AcDbBlockEnd
  0
BLOCK
  5
14BB
330
14BA
100
AcDbEntity
  8
0
100
AcDbBlockBegin
  2
*D35
 70
     1
 10
0.0
 20
0.0
 30
0.0
  3
*D35
  1
*D41
  0
LINE
  5
14BD
330
14BA
100
AcDbEntity
  8
DIM
 62
     0
370
    -2
100
AcDbLine
 10
-489.8690509118881
 20
543.6376984016615
 30
0.0
 11
-455.2692246243375
 21
543.6376984016615
 31
0.0
  0
LINE
  5
14BE
330
14BA
100
AcDbEntity
  8
DIM
 62
     0
370
    -2
100
AcDbLine
 10
-489.8690509118881
 20
506.1376984016615
 30
0.0
 11
-455.2692246243375
 21
506.1376984016615
 31
0.0
  0
LINE
  5
14BF
330
14BA
100
AcDbEntity
  8
DIM
 62
     0
370
    -2
100
AcDbLine
 10
-455.2692246243375
 20
541.6376984016615
 30
0.0
 11
-455.2692246243375
 21
508.1376984016615
 31
0.0
  0
INSERT
  5
14C0
330
14BA
100
AcDbEntity
  8
DIM
 62
     0
370
    -2
100
AcDbBlockReference
  2
_DOT
 10
-455.2692246243375
 20
543.6376984016615
 30
0.0
 41
2.0
 42
2.0
 43
2.0
 50
90.0
  0
INSERT
  5
14C1
330
14BA
100
AcDbEntity
  8
DIM
 62
     0
370
    -2
100
AcDbBlockReference
  2
_DOT
 10
-455.2692246243375
 20
506.1376984016615
 30
0.0
 41
2.0
 42
2.0
 43
2.0
 50
270.0
  0
MTEXT
  5
14C2
330
14BA
100
AcDbEntity
  8
DIM
 62
     0
100
AcDbMText
 10
-469.3292246243375
 20
524.8876984016615
 30
0.0
 40
12.0
 41
0.0
 46
0.0
 71
     5
 72
     1
  1
\A1;ø38
  7
ＭＳ ゴシック
 11
0.0
 21
1.0
 31
0.0
 73
     1
 44
1.0
  0
POINT
  5
14C3
330
14BA
100
AcDbEntity
  8
Defpoints
 62
     0
100
AcDbPoint
 10
-504.8690509118881
 20
543.6376984016615
 30
0.0
  0
POINT
  5
14C4
330
14BA
100
AcDbEntity
  8
Defpoints
 62
     0
100
AcDbPoint
 10
-504.8690509118881
 20
506.1376984016615
 30
0.0
  0
POINT
  5
14C5
330
14BA
100
AcDbEntity
  8
Defpoints
 62
     0
100
AcDbPoint
 10
-455.2692246243375
 20
506.1376984016615
 30
0.0
  0
ENDBLK
  5
14BC
330
14BA
100
AcDbEntity
  8
0
100
AcDbBlockEnd
  0
BLOCK
  5
14C7
330
14C6
100
AcDbEntity
  8
0
100
AcDbBlockBegin
  2
*D36
 70
     1
 10
0.0
 20
0.0
 30
0.0
  3
*D36
  1
*D42
  0
LINE
  5
14C9
330
14C6
100
AcDbEntity
  8
DIM
 62
     0
370
    -2
100
AcDbLine
 10
-253.8690509118917
 20
559.8876984016615
 30
0.0
 11
-190.2128470458945
 21
559.8876984016615
 31
0.0
  0
LINE
  5
14CA
330
14C6
100
AcDbEntity
  8
DIM
 62
     0
370
    -2
100
AcDbLine
 10
-253.8690509118917
 20
489.8876984016606
 30
0.0
 11
-190.2128470458945
 21
489.8876984016606
 31
0.0
  0
LINE
  5
14CB
330
14C6
100
AcDbEntity
  8
DIM
 62
     0
370
    -2
100
AcDbLine
 10
-190.2128470458945
 20
557.8876984016615
 30
0.0
 11
-190.2128470458945
 21
491.8876984016606
 31
0.0
  0
INSERT
  5
14CC
330
14C6
100
AcDbEntity
  8
DIM
 62
     0
370
    -2
100
AcDbBlockReference
  2
_DOT
 10
-190.2128470458945
 20
559.8876984016615
 30
0.0
 41
2.0
 42
2.0
 43
2.0
 50
90.0
  0
INSERT
  5
14CD
330
14C6
100
AcDbEntity
  8
DIM
 62
     0
370
    -2
100
AcDbBlockReference
  2
_DOT
 10
-190.2128470458945
 20
489.8876984016606
 30
0.0
 41
2.0
 42
2.0
 43
2.0
 50
270.0
  0
MTEXT
  5
14CE
330
14C6
100
AcDbEntity
  8
DIM
 62
     0
100
AcDbMText
 10
-204.2128470458945
 20
524.887698401661
 30
0.0
 40
12.0
 41
0.0
 46
0.0
 71
     5
 72
     1
  1
\A1;70
  7
ＭＳ ゴシック
 11
0.0
 21
1.0
 31
0.0
 73
     1
 44
1.0
  0
POINT
  5
14CF
330
14C6
100
AcDbEntity
  8
Defpoints
 62
     0
100
AcDbPoint
 10
-268.8690509118917
 20
559.8876984016615
 30
0.0
  0
POINT
  5
14D0
330
14C6
100
AcDbEntity
  8
Defpoints
 62
     0
100
AcDbPoint
 10
-268.8690509118917
 20
489.8876984016606
 30
0.0
  0
POINT
  5
14D1
330
14C6
100
AcDbEntity
  8
Defpoints
 62
     0
100
AcDbPoint
 10
-190.2128470458945
 20
489.8876984016606
 30
0.0
  0
ENDBLK
  5
14C8
330
14C6
100
AcDbEntity
  8
0
100
AcDbBlockEnd
  0
BLOCK
  5
14D3
330
14D2
100
AcDbEntity
  8
0
100
AcDbBlockBegin
  2
*D37
 70
     1
 10
0.0
 20
0.0
 30
0.0
  3
*D37
  1
*D43
  0
LINE
  5
14D5
330
14D2
100
AcDbEntity
  8
DIM
 62
     0
370
    -2
100
AcDbLine
 10
-553.8690509118917
 20
464.3876984016624
 30
0.0
 11
-553.8690509118917
 21
386.7952399013618
 31
0.0
  0
LINE
  5
14D6
330
14D2
100
AcDbEntity
  8
DIM
 62
     0
370
    -2
100
AcDbLine
 10
-228.8690509118935
 20
474.8876984016606
 30
0.0
 11
-228.8690509118935
 21
386.7952399013618
 31
0.0
  0
LINE
  5
14D7
330
14D2
100
AcDbEntity
  8
DIM
 62
     0
370
    -2
100
AcDbLine
 10
-551.8690509118917
 20
386.7952399013618
 30
0.0
 11
-230.8690509118935
 21
386.7952399013618
 31
0.0
  0
INSERT
  5
14D8
330
14D2
100
AcDbEntity
  8
DIM
 62
     0
370
    -2
100
AcDbBlockReference
  2
_DOT
 10
-553.8690509118917
 20
386.7952399013618
 30
0.0
 41
2.0
 42
2.0
 43
2.0
 50
180.0
  0
INSERT
  5
14D9
330
14D2
100
AcDbEntity
  8
DIM
 62
     0
370
    -2
100
AcDbBlockReference
  2
_DOT
 10
-228.8690509118935
 20
386.7952399013618
 30
0.0
 41
2.0
 42
2.0
 43
2.0
  0
MTEXT
  5
14DA
330
14D2
100
AcDbEntity
  8
DIM
 62
     0
100
AcDbMText
 10
-391.3690509118926
 20
400.7952399013618
 30
0.0
 40
12.0
 41
0.0
 46
0.0
 71
     5
 72
     1
  1
\A1;100～325
  7
ＭＳ ゴシック
 73
     1
 44
1.0
  0
POINT
  5
14DB
330
14D2
100
AcDbEntity
  8
Defpoints
 62
     0
100
AcDbPoint
 10
-553.8690509118917
 20
479.3876984016624
 30
0.0
  0
POINT
  5
14DC
330
14D2
100
AcDbEntity
  8
Defpoints
 62
     0
100
AcDbPoint
 10
-228.8690509118935
 20
489.8876984016606
 30
0.0
  0
POINT
  5
14DD
330
14D2
100
AcDbEntity
  8
Defpoints
 62
     0
100
AcDbPoint
 10
-228.8690509118935
 20
386.7952399013618
 30
0.0
  0
ENDBLK
  5
14D4
330
14D2
100
AcDbEntity
  8
0
100
AcDbBlockEnd
  0
BLOCK
  5
14DF
330
14DE
100
AcDbEntity
  8
0
100
AcDbBlockBegin
  2
*D38
 70
     1
 10
0.0
 20
0.0
 30
0.0
  3
*D38
  1
*D44
  0
LINE
  5
14E1
330
14DE
100
AcDbEntity
  8
DIM
 62
     0
370
    -2
100
AcDbLine
 10
-553.8690509118917
 20
464.3876984016624
 30
0.0
 11
-553.8690509118917
 21
438.9238059395905
 31
0.0
  0
LINE
  5
14E2
330
14DE
100
AcDbEntity
  8
DIM
 62
     0
370
    -2
100
AcDbLine
 10
-504.8690509118881
 20
491.1376984016615
 30
0.0
 11
-504.8690509118881
 21
438.9238059395905
 31
0.0
  0
LINE
  5
14E3
330
14DE
100
AcDbEntity
  8
DIM
 62
     0
370
    -2
100
AcDbLine
 10
-551.8690509118917
 20
438.9238059395905
 30
0.0
 11
-506.8690509118881
 21
438.9238059395905
 31
0.0
  0
INSERT
  5
14E4
330
14DE
100
AcDbEntity
  8
DIM
 62
     0
370
    -2
100
AcDbBlockReference
  2
_DOT
 10
-553.8690509118917
 20
438.9238059395905
 30
0.0
 41
2.0
 42
2.0
 43
2.0
 50
180.0
  0
INSERT
  5
14E5
330
14DE
100
AcDbEntity
  8
DIM
 62
     0
370
    -2
100
AcDbBlockReference
  2
_DOT
 10
-504.8690509118881
 20
438.9238059395905
 30
0.0
 41
2.0
 42
2.0
 43
2.0
  0
MTEXT
  5
14E6
330
14DE
100
AcDbEntity
  8
DIM
 62
     0
100
AcDbMText
 10
-529.3690509118899
 20
452.9238059395905
 30
0.0
 40
12.0
 41
0.0
 46
0.0
 71
     5
 72
     1
  1
\A1;49
  7
ＭＳ ゴシック
 73
     1
 44
1.0
  0
POINT
  5
14E7
330
14DE
100
AcDbEntity
  8
Defpoints
 62
     0
100
AcDbPoint
 10
-553.8690509118917
 20
479.3876984016624
 30
0.0
  0
POINT
  5
14E8
330
14DE
100
AcDbEntity
  8
Defpoints
 62
     0
100
AcDbPoint
 10
-504.8690509118881
 20
506.1376984016615
 30
0.0
  0
POINT
  5
14E9
330
14DE
100
AcDbEntity
  8
Defpoints
 62
     0
100
AcDbPoint
 10
-504.8690509118881
 20
438.9238059395905
 30
0.0
  0
ENDBLK
  5
14E0
330
14DE
100
AcDbEntity
  8
0
100
AcDbBlockEnd
  0
BLOCK
  5
198D
330
198C
100
AcDbEntity
  8
0
100
AcDbBlockBegin
  2
*D39
 70
     1
 10
0.0
 20
0.0
 30
0.0
  3
*D39
  1
*D46
  0
LINE
  5
198F
330
198C
100
AcDbEntity
  8
DIM
 62
     0
370
    -2
100
AcDbLine
 10
488.5151527351995
 20
1088.923999267578
 30
0.0
 11
488.5151527351995
 21
1114.026404321501
 31
0.0
  0
LINE
  5
1990
330
198C
100
AcDbEntity
  8
DIM
 62
     0
370
    -2
100
AcDbLine
 10
576.5034147757497
 20
1089.940268253581
 30
0.0
 11
576.5034147757497
 21
1114.026404321501
 31
0.0
  0
LINE
  5
1991
330
198C
100
AcDbEntity
  8
DIM
 62
     0
370
    -2
100
AcDbLine
 10
490.5151527351995
 20
1114.026404321501
 30
0.0
 11
574.5034147757497
 21
1114.026404321501
 31
0.0
  0
INSERT
  5
1992
330
198C
100
AcDbEntity
  8
DIM
 62
     0
370
    -2
100
AcDbBlockReference
  2
_DOT
 10
488.5151527351995
 20
1114.026404321501
 30
0.0
 41
2.0
 42
2.0
 43
2.0
 50
180.0
  0
INSERT
  5
1993
330
198C
100
AcDbEntity
  8
DIM
 62
     0
370
    -2
100
AcDbBlockReference
  2
_DOT
 10
576.5034147757497
 20
1114.026404321501
 30
0.0
 41
2.0
 42
2.0
 43
2.0
  0
MTEXT
  5
1994
330
198C
100
AcDbEntity
  8
DIM
 62
     0
100
AcDbMText
 10
532.5092837554748
 20
1128.086404321501
 30
0.0
 40
12.0
 41
0.0
 46
0.0
 71
     5
 72
     1
  1
\A1;ø88
  7
ＭＳ ゴシック
 73
     1
 44
1.0
  0
POINT
  5
1995
330
198C
100
AcDbEntity
  8
Defpoints
 62
     0
100
AcDbPoint
 10
488.5151527351995
 20
1073.923999267578
 30
0.0
  0
POINT
  5
1996
330
198C
100
AcDbEntity
  8
Defpoints
 62
     0
100
AcDbPoint
 10
576.5034147757497
 20
1074.940268253581
 30
0.0
  0
POINT
  5
1997
330
198C
100
AcDbEntity
  8
Defpoints
 62
     0
100
AcDbPoint
 10
576.5034147757497
 20
1114.026404321501
 30
0.0
  0
ENDBLK
  5
198E
330
198C
100
AcDbEntity
  8
0
100
AcDbBlockEnd
  0
BLOCK
  5
19DB
330
19DA
100
AcDbEntity
  8
0
100
AcDbBlockBegin
  2
*D40
 70
     1
 10
0.0
 20
0.0
 30
0.0
  3
*D40
  1
*D48
  0
LINE
  5
19DD
330
19DA
100
AcDbEntity
  8
DIM
 62
     0
370
    -2
100
AcDbLine
 10
591.2651519891992
 20
668.0435805522615
 30
0.0
 11
623.2345151920742
 21
668.0435805522615
 31
0.0
  0
LINE
  5
19DE
330
19DA
100
AcDbEntity
  8
DIM
 62
     0
370
    -2
100
AcDbLine
 10
591.2651519891992
 20
613.0435805522615
 30
0.0
 11
623.2345151920742
 21
613.0435805522615
 31
0.0
  0
LINE
  5
19DF
330
19DA
100
AcDbEntity
  8
DIM
 62
     0
370
    -2
100
AcDbLine
 10
623.2345151920742
 20
666.0435805522615
 30
0.0
 11
623.2345151920742
 21
615.0435805522615
 31
0.0
  0
INSERT
  5
19E0
330
19DA
100
AcDbEntity
  8
DIM
 62
     0
370
    -2
100
AcDbBlockReference
  2
_DOT
 10
623.2345151920742
 20
668.0435805522615
 30
0.0
 41
2.0
 42
2.0
 43
2.0
 50
90.0
  0
INSERT
  5
19E1
330
19DA
100
AcDbEntity
  8
DIM
 62
     0
370
    -2
100
AcDbBlockReference
  2
_DOT
 10
623.2345151920742
 20
613.0435805522615
 30
0.0
 41
2.0
 42
2.0
 43
2.0
 50
270.0
  0
MTEXT
  5
19E2
330
19DA
100
AcDbEntity
  8
DIM
 62
     0
100
AcDbMText
 10
609.2345151920742
 20
640.5435805522615
 30
0.0
 40
12.0
 41
0.0
 46
0.0
 71
     5
 72
     1
  1
\A1;55
  7
ＭＳ ゴシック
 11
0.0
 21
1.0
 31
0.0
 73
     1
 44
1.0
  0
POINT
  5
19E3
330
19DA
100
AcDbEntity
  8
Defpoints
 62
     0
100
AcDbPoint
 10
576.2651519891992
 20
668.0435805522615
 30
0.0
  0
POINT
  5
19E4
330
19DA
100
AcDbEntity
  8
Defpoints
 62
     0
100
AcDbPoint
 10
576.2651519891992
 20
613.0435805522615
 30
0.0
  0
POINT
  5
19E5
330
19DA
100
AcDbEntity
  8
Defpoints
 62
     0
100
AcDbPoint
 10
623.2345151920742
 20
613.0435805522615
 30
0.0
  0
ENDBLK
  5
19DC
330
19DA
100
AcDbEntity
  8
0
100
AcDbBlockEnd
  0
BLOCK
  5
19FE
330
19FD
100
AcDbEntity
  8
0
100
AcDbBlockBegin
  2
*D41
 70
     1
 10
0.0
 20
0.0
 30
0.0
  3
*D41
  1
*D49
  0
LINE
  5
1A00
330
19FD
100
AcDbEntity
  8
DIM
 62
     0
370
    -2
100
AcDbLine
 10
591.2651519891992
 20
613.0435805522615
 30
0.0
 11
654.0406055219287
 21
613.0435805522615
 31
0.0
  0
LINE
  5
1A01
330
19FD
100
AcDbEntity
  8
DIM
 62
     0
370
    -2
100
AcDbLine
 10
574.7651527351959
 20
671.0435802082627
 30
0.0
 11
654.0406055219287
 21
671.0435802082627
 31
0.0
  0
LINE
  5
1A02
330
19FD
100
AcDbEntity
  8
DIM
 62
     0
370
    -2
100
AcDbLine
 10
654.0406055219287
 20
615.0435805522615
 30
0.0
 11
654.0406055219287
 21
669.0435802082627
 31
0.0
  0
INSERT
  5
1A03
330
19FD
100
AcDbEntity
  8
DIM
 62
     0
370
    -2
100
AcDbBlockReference
  2
_DOT
 10
654.0406055219287
 20
613.0435805522615
 30
0.0
 41
2.0
 42
2.0
 43
2.0
 50
270.0
  0
INSERT
  5
1A04
330
19FD
100
AcDbEntity
  8
DIM
 62
     0
370
    -2
100
AcDbBlockReference
  2
_DOT
 10
654.0406055219287
 20
671.0435802082627
 30
0.0
 41
2.0
 42
2.0
 43
2.0
 50
90.0
  0
MTEXT
  5
1A05
330
19FD
100
AcDbEntity
  8
DIM
 62
     0
100
AcDbMText
 10
640.0406055219287
 20
642.043580380262
 30
0.0
 40
12.0
 41
0.0
 46
0.0
 71
     5
 72
     1
  1
\A1;58
  7
ＭＳ ゴシック
 11
0.0
 21
1.0
 31
0.0
 73
     1
 44
1.0
  0
POINT
  5
1A06
330
19FD
100
AcDbEntity
  8
Defpoints
 62
     0
100
AcDbPoint
 10
576.2651519891992
 20
613.0435805522615
 30
0.0
  0
POINT
  5
1A07
330
19FD
100
AcDbEntity
  8
Defpoints
 62
     0
100
AcDbPoint
 10
559.7651527351959
 20
671.0435802082627
 30
0.0
  0
POINT
  5
1A08
330
19FD
100
AcDbEntity
  8
Defpoints
 62
     0
100
AcDbPoint
 10
654.0406055219287
 20
671.0435802082627
 30
0.0
  0
ENDBLK
  5
19FF
330
19FD
100
AcDbEntity
  8
0
100
AcDbBlockEnd
  0
BLOCK
  5
1A13
330
1A12
100
AcDbEntity
  8
0
100
AcDbBlockBegin
  2
*D42
 70
     1
 10
0.0
 20
0.0
 30
0.0
  3
*D42
  1
*D50
  0
LINE
  5
1A15
330
1A12
100
AcDbEntity
  8
DIM
 62
     0
370
    -2
100
AcDbLine
 10
532.5151527341973
 20
985.5806836356012
 30
0.0
 11
532.5151527341973
 21
970.6317572274986
 31
0.0
  0
LINE
  5
1A16
330
1A12
100
AcDbEntity
  8
DIM
 62
     0
370
    -2
100
AcDbLine
 10
410.5151527341973
 20
1014.562892619451
 30
0.0
 11
410.5151527341973
 21
970.6317572274986
 31
0.0
  0
LINE
  5
1A17
330
1A12
100
AcDbEntity
  8
DIM
 62
     0
370
    -2
100
AcDbLine
 10
530.5151527341973
 20
970.6317572274986
 30
0.0
 11
412.5151527341973
 21
970.6317572274986
 31
0.0
  0
INSERT
  5
1A18
330
1A12
100
AcDbEntity
  8
DIM
 62
     0
370
    -2
100
AcDbBlockReference
  2
_DOT
 10
532.5151527341973
 20
970.6317572274986
 30
0.0
 41
2.0
 42
2.0
 43
2.0
  0
INSERT
  5
1A19
330
1A12
100
AcDbEntity
  8
DIM
 62
     0
370
    -2
100
AcDbBlockReference
  2
_DOT
 10
410.5151527341973
 20
970.6317572274986
 30
0.0
 41
2.0
 42
2.0
 43
2.0
 50
180.0
  0
MTEXT
  5
1A1A
330
1A12
100
AcDbEntity
  8
DIM
 62
     0
100
AcDbMText
 10
471.5151527341973
 20
984.6317572274986
 30
0.0
 40
12.0
 41
0.0
 46
0.0
 71
     5
 72
     1
  1
\A1;122
  7
ＭＳ ゴシック
 73
     1
 44
1.0
  0
POINT
  5
1A1B
330
1A12
100
AcDbEntity
  8
Defpoints
 62
     0
100
AcDbPoint
 10
532.5151527341973
 20
1000.580683635601
 30
0.0
  0
POINT
  5
1A1C
330
1A12
100
AcDbEntity
  8
Defpoints
 62
     0
100
AcDbPoint
 10
410.5151527341973
 20
1029.562892619451
 30
0.0
  0
POINT
  5
1A1D
330
1A12
100
AcDbEntity
  8
Defpoints
 62
     0
100
AcDbPoint
 10
410.5151527341973
 20
970.6317572274986
 30
0.0
  0
ENDBLK
  5
1A14
330
1A12
100
AcDbEntity
  8
0
100
AcDbBlockEnd
  0
BLOCK
  5
1A22
330
1A21
100
AcDbEntity
  8
0
100
AcDbBlockBegin
  2
*D43
 70
     1
 10
0.0
 20
0.0
 30
0.0
  3
*D43
  1
*D51
  0
LINE
  5
1A24
330
1A21
100
AcDbEntity
  8
DIM
 62
     0
370
    -2
100
AcDbLine
 10
532.5151527341973
 20
598.0435805522615
 30
0.0
 11
532.5151527341973
 21
547.9589582371254
 31
0.0
  0
LINE
  5
1A25
330
1A21
100
AcDbEntity
  8
DIM
 62
     0
370
    -2
100
AcDbLine
 10
300.5151594111999
 20
604.9964320954749
 30
0.0
 11
300.5151594111999
 21
547.9589582371254
 31
0.0
  0
LINE
  5
1A26
330
1A21
100
AcDbEntity
  8
DIM
 62
     0
370
    -2
100
AcDbLine
 10
530.5151527341973
 20
547.9589582371254
 30
0.0
 11
302.5151594111999
 21
547.9589582371254
 31
0.0
  0
INSERT
  5
1A27
330
1A21
100
AcDbEntity
  8
DIM
 62
     0
370
    -2
100
AcDbBlockReference
  2
_DOT
 10
532.5151527341973
 20
547.9589582371254
 30
0.0
 41
2.0
 42
2.0
 43
2.0
  0
INSERT
  5
1A28
330
1A21
100
AcDbEntity
  8
DIM
 62
     0
370
    -2
100
AcDbBlockReference
  2
_DOT
 10
300.5151594111999
 20
547.9589582371254
 30
0.0
 41
2.0
 42
2.0
 43
2.0
 50
180.0
  0
MTEXT
  5
1A29
330
1A21
100
AcDbEntity
  8
DIM
 62
     0
100
AcDbMText
 10
416.5151560726986
 20
561.9589582371254
 30
0.0
 40
12.0
 41
0.0
 46
0.0
 71
     5
 72
     1
  1
\A1;285～880
  7
ＭＳ ゴシック
 73
     1
 44
1.0
  0
POINT
  5
1A2A
330
1A21
100
AcDbEntity
  8
Defpoints
 62
     0
100
AcDbPoint
 10
532.5151527341973
 20
613.0435805522615
 30
0.0
  0
POINT
  5
1A2B
330
1A21
100
AcDbEntity
  8
Defpoints
 62
     0
100
AcDbPoint
 10
300.5151594111999
 20
619.9964320954749
 30
0.0
  0
POINT
  5
1A2C
330
1A21
100
AcDbEntity
  8
Defpoints
 62
     0
100
AcDbPoint
 10
300.5151594111999
 20
547.9589582371254
 30
0.0
  0
ENDBLK
  5
1A23
330
1A21
100
AcDbEntity
  8
0
100
AcDbBlockEnd
  0
BLOCK
  5
1A31
330
1A30
100
AcDbEntity
  8
0
100
AcDbBlockBegin
  2
*D44
 70
     1
 10
0.0
 20
0.0
 30
0.0
  3
*D44
  1
*D52
  0
LINE
  5
1A33
330
1A30
100
AcDbEntity
  8
DIM
 62
     0
370
    -2
100
AcDbLine
 10
300.5151594111999
 20
604.9964320954749
 30
0.0
 11
300.5151594111999
 21
547.9589582371254
 31
0.0
  0
LINE
  5
1A34
330
1A30
100
AcDbEntity
  8
DIM
 62
     0
370
    -2
100
AcDbLine
 10
225.5151415291989
 20
604.9964320954749
 30
0.0
 11
225.5151415291989
 21
547.9589582371254
 31
0.0
  0
LINE
  5
1A35
330
1A30
100
AcDbEntity
  8
DIM
 62
     0
370
    -2
100
AcDbLine
 10
298.5151594111999
 20
547.9589582371254
 30
0.0
 11
227.5151415291989
 21
547.9589582371254
 31
0.0
  0
INSERT
  5
1A36
330
1A30
100
AcDbEntity
  8
DIM
 62
     0
370
    -2
100
AcDbBlockReference
  2
_DOT
 10
300.5151594111999
 20
547.9589582371254
 30
0.0
 41
2.0
 42
2.0
 43
2.0
  0
INSERT
  5
1A37
330
1A30
100
AcDbEntity
  8
DIM
 62
     0
370
    -2
100
AcDbBlockReference
  2
_DOT
 10
225.5151415291989
 20
547.9589582371254
 30
0.0
 41
2.0
 42
2.0
 43
2.0
 50
180.0
  0
MTEXT
  5
1A38
330
1A30
100
AcDbEntity
  8
DIM
 62
     0
100
AcDbMText
 10
263.0151504701994
 20
561.9589582371254
 30
0.0
 40
12.0
 41
0.0
 46
0.0
 71
     5
 72
     1
  1
\A1;75
  7
ＭＳ ゴシック
 73
     1
 44
1.0
  0
POINT
  5
1A39
330
1A30
100
AcDbEntity
  8
Defpoints
 62
     0
100
AcDbPoint
 10
300.5151594111999
 20
619.9964320954749
 30
0.0
  0
POINT
  5
1A3A
330
1A30
100
AcDbEntity
  8
Defpoints
 62
     0
100
AcDbPoint
 10
225.5151415291989
 20
619.9964320954749
 30
0.0
  0
POINT
  5
1A3B
330
1A30
100
AcDbEntity
  8
Defpoints
 62
     0
100
AcDbPoint
 10
225.5151415291989
 20
547.9589582371254
 30
0.0
  0
ENDBLK
  5
1A32
330
1A30
100
AcDbEntity
  8
0
100
AcDbBlockEnd
  0
BLOCK
  5
1A4C
330
1A4B
100
AcDbEntity
  8
0
100
AcDbBlockBegin
  2
*D45
 70
     1
 10
0.0
 20
0.0
 30
0.0
  3
*D45
  1
*D53
  0
LINE
  5
1A4E
330
1A4B
100
AcDbEntity
  8
DIM
 62
     0
370
    -2
100
AcDbLine
 10
210.5151415291989
 20
625.0435804622615
 30
0.0
 11
173.6918632809874
 21
625.0435804622615
 31
0.0
  0
LINE
  5
1A4F
330
1A4B
100
AcDbEntity
  8
DIM
 62
     0
370
    -2
100
AcDbLine
 10
210.5151415291989
 20
656.0435799562623
 30
0.0
 11
173.6918632809874
 21
656.0435799562623
 31
0.0
  0
LINE
  5
1A50
330
1A4B
100
AcDbEntity
  8
DIM
 62
     0
370
    -2
100
AcDbLine
 10
173.6918632809874
 20
627.0435804622615
 30
0.0
 11
173.6918632809874
 21
654.0435799562623
 31
0.0
  0
INSERT
  5
1A51
330
1A4B
100
AcDbEntity
  8
DIM
 62
     0
370
    -2
100
AcDbBlockReference
  2
_DOT
 10
173.6918632809874
 20
625.0435804622615
 30
0.0
 41
2.0
 42
2.0
 43
2.0
 50
270.0
  0
INSERT
  5
1A52
330
1A4B
100
AcDbEntity
  8
DIM
 62
     0
370
    -2
100
AcDbBlockReference
  2
_DOT
 10
173.6918632809874
 20
656.0435799562623
 30
0.0
 41
2.0
 42
2.0
 43
2.0
 50
90.0
  0
MTEXT
  5
1A53
330
1A4B
100
AcDbEntity
  8
DIM
 62
     0
100
AcDbMText
 10
159.6318632809875
 20
640.5435802092619
 30
0.0
 40
12.0
 41
0.0
 46
0.0
 71
     5
 72
     1
  1
\A1;ø31
  7
ＭＳ ゴシック
 11
0.0
 21
1.0
 31
0.0
 73
     1
 44
1.0
  0
POINT
  5
1A54
330
1A4B
100
AcDbEntity
  8
Defpoints
 62
     0
100
AcDbPoint
 10
225.5151415291989
 20
625.0435804622615
 30
0.0
  0
POINT
  5
1A55
330
1A4B
100
AcDbEntity
  8
Defpoints
 62
     0
100
AcDbPoint
 10
225.5151415291989
 20
656.0435799562623
 30
0.0
  0
POINT
  5
1A56
330
1A4B
100
AcDbEntity
  8
Defpoints
 62
     0
100
AcDbPoint
 10
173.6918632809874
 20
656.0435799562623
 30
0.0
  0
ENDBLK
  5
1A4D
330
1A4B
100
AcDbEntity
  8
0
100
AcDbBlockEnd
  0
ENDSEC
  0
SECTION
  2
ENTITIES
  0
MTEXT
  5
177
330
A
100
AcDbEntity
  8
TEMPLATE
390
1D
100
AcDbMText
 10
39.60107227386538
 20
171.8658758157141
 30
0.0
 40
8.144205729166663
 41
0.0
 46
0.0
 71
     1
 72
     1
  1
品名
  7
ＭＳ ゴシック
 73
     1
 44
0.7828267384257843
  0
MTEXT
  5
178
330
A
100
AcDbEntity
  8
TEMPLATE
390
1D
100
AcDbMText
 10
39.60107227386538
 20
129.365875815714
 30
0.0
 40
8.144205729166663
 41
0.0
 46
0.0
 71
     1
 72
     1
  1
仕様
  7
ＭＳ ゴシック
 73
     1
 44
0.7828267384257843
  0
LINE
  5
179
330
A
100
AcDbEntity
  8
TEMPLATE
390
1D
100
AcDbLine
 10
1011.101072273624
 20
133.5733367532142
 30
0.0
 11
36.10107227362437
 21
133.5733367532142
 31
0.0
  0
LWPOLYLINE
  5
17A
330
A
100
AcDbEntity
  8
TEMPLATE
390
1D
100
AcDbPolyline
 90
        5
 70
   128
 43
0.0
 10
1011.101072273624
 20
1448.573336753213
 10
36.10107227362437
 20
1448.573336753213
 10
36.10107227362437
 20
48.57333675321413
 10
1011.101072273624
 20
48.57333675321413
 10
1011.101072273624
 20
1448.573336753213
  0
LINE
  5
17B
330
A
100
AcDbEntity
  8
TEMPLATE
390
1D
100
AcDbLine
 10
1011.101072273624
 20
176.0733367532141
 30
0.0
 11
36.10107227362437
 21
176.0733367532141
 31
0.0
  0
LINE
  5
17C
330
A
100
AcDbEntity
  8
TEMPLATE
390
1D
100
AcDbLine
 10
1011.101072273866
 20
91.07333675321412
 30
0.0
 11
634.601072273865
 21
91.07333675321412
 31
0.0
  0
MTEXT
  5
17D
330
A
100
AcDbEntity
  8
TEMPLATE
390
1D
100
AcDbMText
 10
36.10107227396725
 20
42.64642572478557
 30
0.0
 40
10.85894097222222
 41
0.0
 46
10.85894097222222
 71
     1
 72
     1
  1
{160503N}
  7
ＭＳ ゴシック
 73
     1
 44
0.7828267384257843
1001
ACAD
1000
ACAD_MTEXT_DEFINED_HEIGHT_BEGIN
1070
    46
1040
10.85894097222222
1000
ACAD_MTEXT_DEFINED_HEIGHT_END
  0
MTEXT
  5
17E
330
A
100
AcDbEntity
  8
TEMPLATE
390
1D
100
AcDbMText
 10
649.5367753999956
 20
76.11813951656006
 30
0.0
 40
12.21630859375
 41
0.0
 46
0.0
 71
     1
 72
     1
  1
大洋金物株式会社 ティーフォルム事業部
  7
ＭＳ ゴシック
 73
     1
 44
0.7828267384257843
  0
MTEXT
  5
180
330
A
100
AcDbEntity
  8
TEMPLATE
390
1D
100
AcDbMText
 10
915.601072273995
 20
115.0746453469641
 30
0.0
 40
12.21630859375
 41
0.0
 46
12.21630859375
 71
     1
 72
     1
  1
{1:5}
  7
ＭＳ ゴシック
 73
     1
 44
0.7828267384257843
1001
ACAD
1000
ACAD_MTEXT_DEFINED_HEIGHT_BEGIN
1070
    46
1040
12.21630859375
1000
ACAD_MTEXT_DEFINED_HEIGHT_END
  0
MTEXT
  5
181
330
A
100
AcDbEntity
  8
TEMPLATE
390
1D
100
AcDbMText
 10
889.101072273995
 20
129.365875815714
 30
0.0
 40
8.144205729166663
 41
0.0
 46
0.0
 71
     1
 72
     1
  1
縮尺
  7
ＭＳ ゴシック
 73
     1
 44
0.7828267384257843
  0
LINE
  5
182
330
A
100
AcDbEntity
  8
TEMPLATE
390
1D
100
AcDbLine
 10
885.601072273995
 20
91.07333675321412
 30
0.0
 11
885.601072273995
 21
133.5733367532142
 31
0.0
  0
MTEXT
  5
183
330
A
100
AcDbEntity
  8
TEMPLATE
390
1D
100
AcDbMText
 10
763.601072273995
 20
129.365875815714
 30
0.0
 40
8.144205729166663
 41
0.0
 46
0.0
 71
     1
 72
     1
  1
容量
  7
ＭＳ ゴシック
 73
     1
 44
0.7828267384257843
  0
LINE
  5
184
330
A
100
AcDbEntity
  8
TEMPLATE
390
1D
100
AcDbLine
 10
760.101072273995
 20
91.07333675321412
 30
0.0
 11
760.101072273995
 21
133.5733367532142
 31
0.0
  0
MTEXT
  5
185
330
A
100
AcDbEntity
  8
TEMPLATE
390
1D
100
AcDbMText
 10
638.101072273995
 20
171.8658758157141
 30
0.0
 40
8.144205729166663
 41
0.0
 46
0.0
 71
     1
 72
     1
  1
品番
  7
ＭＳ ゴシック
 73
     1
 44
0.7828267384257843
  0
MTEXT
  5
186
330
A
100
AcDbEntity
  8
TEMPLATE
390
1D
100
AcDbMText
 10
638.101072273995
 20
129.365875815714
 30
0.0
 40
8.144205729166663
 41
0.0
 46
0.0
 71
     1
 72
     1
  1
重量
  7
ＭＳ ゴシック
 73
     1
 44
0.7828267384257843
  0
MTEXT
  5
187
330
A
100
AcDbEntity
  8
TEMPLATE
390
1D
100
AcDbMText
 10
664.601072273995
 20
157.5746453469641
 30
0.0
 40
12.21630859375
 41
0.0
 46
12.21630859375
 71
     1
 72
     1
  1
{BRS73-0503-020}
  7
ＭＳ ゴシック
 73
     1
 44
0.7828267384257843
1001
ACAD
1000
ACAD_MTEXT_DEFINED_HEIGHT_BEGIN
1070
    46
1040
12.21630859375
1000
ACAD_MTEXT_DEFINED_HEIGHT_END
  0
LINE
  5
188
330
A
100
AcDbEntity
  8
TEMPLATE
390
1D
100
AcDbLine
 10
634.601072273995
 20
48.57333675321413
 30
0.0
 11
634.601072273995
 21
176.0733367532141
 31
0.0
  0
MTEXT
  5
189
330
A
100
AcDbEntity
  8
TEMPLATE
390
1D
100
AcDbMText
 10
66.10107227386537
 20
157.5746453469641
 30
0.0
 40
12.21630859375
 41
0.0
 46
13.76777978515625
 71
     1
 72
     1
  1
{スペースセービングトラップ　-CLOU, InBe-}
  7
ＭＳ ゴシック
 73
     1
 44
0.7828267384257843
1001
ACAD
1000
ACAD_MTEXT_DEFINED_HEIGHT_BEGIN
1070
    46
1040
13.76777978515625
1000
ACAD_MTEXT_DEFINED_HEIGHT_END
  0
INSERT
  5
6B5
330
A
100
AcDbEntity
  8
TEMPLATE
100
AcDbBlockReference
  2
名称未設定-1
 10
935.3753740442249
 20
12.97338287832691
 30
0.0
 41
0.3809999999999999
 42
0.3809999999999999
 43
0.3809999999999999
  0
MTEXT
  5
7D9
330
A
100
AcDbEntity
  8
TEMPLATE
390
1D
100
AcDbMText
 10
62.62717263801819
 20
113.4059880146976
 30
0.0
 40
12.21630859375
 41
0.0
 46
12.39955322265625
 71
     1
 72
     1
  1
{クローム}
  7
ＭＳ ゴシック
 73
     1
 44
0.7828267384257843
1001
ACAD
1000
ACAD_MTEXT_DEFINED_HEIGHT_BEGIN
1070
    46
1040
12.39955322265625
1000
ACAD_MTEXT_DEFINED_HEIGHT_END
  0
INSERT
  5
68C
330
A
100
AcDbEntity
  8
TEMPLATE
100
AcDbBlockReference
  2
block 2
 10
919.2743017702577
 20
8.373076514336368
 30
0.0
 41
0.3809999999999999
 42
0.3809999999999999
 43
0.3809999999999999
  0
ARC
  5
177D
330
A
100
AcDbEntity
  8
MODEL
100
AcDbCircle
 10
860.347468204568
 20
667.7935802082621
 30
0.0
 40
3.250000000000038
100
AcDbArc
 50
4.41173186831845
 51
90.0
  0
ARC
  5
177E
330
A
100
AcDbEntity
  8
MODEL
100
AcDbCircle
 10
805.8474682045721
 20
667.7935802082621
 30
0.0
 40
3.250000000000038
100
AcDbArc
 50
90.0
 51
175.5882681316816
  0
LINE
  5
177F
330
A
100
AcDbEntity
  8
MODEL
100
AcDbLine
 10
860.3474675485677
 20
671.0435805522612
 30
0.0
 11
805.8474688605725
 21
671.0435805522612
 31
0.0
  0
ARC
  5
1780
330
A
100
AcDbEntity
  8
MODEL
100
AcDbCircle
 10
876.847468204568
 20
613.2935812522611
 30
0.0
 40
0.250000000000342
100
AcDbArc
 50
270.0
 51
0.0
  0
ARC
  5
1781
330
A
100
AcDbEntity
  8
MODEL
100
AcDbCircle
 10
789.3474682045685
 20
613.2935812522611
 30
0.0
 40
0.250000000000342
100
AcDbArc
 50
180.0
 51
270.0
  0
ARC
  5
1782
330
A
100
AcDbEntity
  8
MODEL
100
AcDbCircle
 10
789.3474682045685
 20
667.7935798502607
 30
0.0
 40
0.250000000000056
100
AcDbArc
 50
90.0
 51
180.0
  0
ARC
  5
1783
330
A
100
AcDbEntity
  8
MODEL
100
AcDbCircle
 10
876.847468204568
 20
667.7935798502607
 30
0.0
 40
0.250000000000056
100
AcDbArc
 50
0.0
 51
90.0
  0
LINE
  5
1784
330
A
100
AcDbEntity
  8
MODEL
100
AcDbLine
 10
877.0974682045684
 20
613.2935812522611
 30
0.0
 11
877.0974679643626
 21
667.793926408615
 31
0.0
  0
LINE
  5
1785
330
A
100
AcDbEntity
  8
MODEL
100
AcDbLine
 10
789.0974684447739
 20
667.7939264086151
 30
0.0
 11
789.0974682045681
 21
613.2935812522611
 31
0.0
  0
LINE
  5
1786
330
A
100
AcDbEntity
  8
MODEL
100
AcDbLine
 10
876.8474674585677
 20
613.0435805522612
 30
0.0
 11
789.3474689485679
 21
613.0435805522612
 31
0.0
  0
LINE
  5
1787
330
A
100
AcDbEntity
  8
MODEL
100
AcDbLine
 10
833.097468204568
 20
668.0435805522615
 30
0.0
 11
876.8474674585677
 21
668.0435805522615
 31
0.0
  0
LINE
  5
1788
330
A
100
AcDbEntity
  8
MODEL
100
AcDbLine
 10
789.3474689485679
 20
668.0435805522615
 30
0.0
 11
833.097468204568
 21
668.0435805522615
 31
0.0
  0
LINE
  5
1789
330
A
100
AcDbEntity
  8
MODEL
100
AcDbLine
 10
474.0151533911999
 20
619.5435804922621
 30
0.0
 11
475.7651532112
 21
619.5435804922621
 31
0.0
  0
LINE
  5
178A
330
A
100
AcDbEntity
  8
MODEL
100
AcDbLine
 10
475.7651532112
 20
661.5435799262617
 30
0.0
 11
474.0151533911999
 21
661.5435799262617
 31
0.0
  0
LINE
  5
178B
330
A
100
AcDbEntity
  8
MODEL
100
AcDbLine
 10
439.5151505291983
 20
658.7935799402616
 30
0.0
 11
437.5151539271978
 21
656.7935796122623
 31
0.0
  0
LINE
  5
178C
330
A
100
AcDbEntity
  8
MODEL
100
AcDbLine
 10
437.5151539271978
 20
624.2935808062615
 30
0.0
 11
439.5151505291983
 21
622.2935804782622
 31
0.0
  0
LINE
  5
178D
330
A
100
AcDbEntity
  8
MODEL
100
AcDbLine
 10
474.0151533911999
 20
658.7935799402616
 30
0.0
 11
439.5151505291983
 21
658.7935799402616
 31
0.0
  0
LINE
  5
178E
330
A
100
AcDbEntity
  8
MODEL
100
AcDbLine
 10
439.5151505291983
 20
622.2935804782622
 30
0.0
 11
474.0151533911999
 21
622.2935804782622
 31
0.0
  0
LINE
  5
178F
330
A
100
AcDbEntity
  8
MODEL
100
AcDbLine
 10
321.5151572651962
 20
622.5435809842614
 30
0.0
 11
323.5151464171945
 21
626.5435797762615
 31
0.0
  0
LINE
  5
1790
330
A
100
AcDbEntity
  8
MODEL
100
AcDbLine
 10
323.5151464171945
 20
654.5435806422614
 30
0.0
 11
321.5151572651962
 21
658.5435794342624
 31
0.0
  0
LINE
  5
1791
330
A
100
AcDbEntity
  8
MODEL
100
AcDbLine
 10
323.5151464171945
 20
622.5435809842614
 30
0.0
 11
325.5151504691971
 21
626.5435797762615
 31
0.0
  0
LINE
  5
1792
330
A
100
AcDbEntity
  8
MODEL
100
AcDbLine
 10
325.5151504691971
 20
654.5435806422614
 30
0.0
 11
323.5151464171945
 21
658.5435794342624
 31
0.0
  0
LINE
  5
1793
330
A
100
AcDbEntity
  8
MODEL
100
AcDbLine
 10
325.5151504691971
 20
622.5435809842614
 30
0.0
 11
327.515154523197
 21
626.5435797762615
 31
0.0
  0
LINE
  5
1794
330
A
100
AcDbEntity
  8
MODEL
100
AcDbLine
 10
327.515154523197
 20
654.5435806422614
 30
0.0
 11
325.5151504691971
 21
658.5435794342624
 31
0.0
  0
LINE
  5
1795
330
A
100
AcDbEntity
  8
MODEL
100
AcDbLine
 10
327.515154523197
 20
622.5435809842614
 30
0.0
 11
329.515158575196
 21
626.5435797762615
 31
0.0
  0
LINE
  5
1796
330
A
100
AcDbEntity
  8
MODEL
100
AcDbLine
 10
329.515158575196
 20
654.5435806422614
 30
0.0
 11
327.515154523197
 21
658.5435794342624
 31
0.0
  0
LINE
  5
1797
330
A
100
AcDbEntity
  8
MODEL
100
AcDbLine
 10
329.515158575196
 20
622.5435809842614
 30
0.0
 11
331.5151477271979
 21
626.5435797762615
 31
0.0
  0
LINE
  5
1798
330
A
100
AcDbEntity
  8
MODEL
100
AcDbLine
 10
331.5151477271979
 20
654.5435806422614
 30
0.0
 11
329.515158575196
 21
658.5435794342624
 31
0.0
  0
LINE
  5
1799
330
A
100
AcDbEntity
  8
MODEL
100
AcDbLine
 10
331.5151477271979
 20
622.5435809842614
 30
0.0
 11
333.5151517811978
 21
626.5435797762615
 31
0.0
  0
LINE
  5
179A
330
A
100
AcDbEntity
  8
MODEL
100
AcDbLine
 10
333.5151517811978
 20
654.5435806422614
 30
0.0
 11
331.5151477271979
 21
658.5435794342624
 31
0.0
  0
LINE
  5
179B
330
A
100
AcDbEntity
  8
MODEL
100
AcDbLine
 10
333.5151517811978
 20
622.5435809842614
 30
0.0
 11
335.5151558351977
 21
626.5435797762615
 31
0.0
  0
LINE
  5
179C
330
A
100
AcDbEntity
  8
MODEL
100
AcDbLine
 10
335.5151558351977
 20
654.5435806422614
 30
0.0
 11
333.5151517811978
 21
658.5435794342624
 31
0.0
  0
LINE
  5
179D
330
A
100
AcDbEntity
  8
MODEL
100
AcDbLine
 10
335.5151558351977
 20
622.5435809842614
 30
0.0
 11
337.5151598872003
 21
626.5435797762615
 31
0.0
  0
LINE
  5
179E
330
A
100
AcDbEntity
  8
MODEL
100
AcDbLine
 10
337.5151598872003
 20
654.5435806422614
 30
0.0
 11
335.5151558351977
 21
658.5435794342624
 31
0.0
  0
LINE
  5
179F
330
A
100
AcDbEntity
  8
MODEL
100
AcDbLine
 10
337.5151598872003
 20
622.5435809842614
 30
0.0
 11
339.515149039195
 21
626.5435797762615
 31
0.0
  0
LINE
  5
17A0
330
A
100
AcDbEntity
  8
MODEL
100
AcDbLine
 10
339.515149039195
 20
654.5435806422614
 30
0.0
 11
337.5151598872003
 21
658.5435794342624
 31
0.0
  0
LINE
  5
17A1
330
A
100
AcDbEntity
  8
MODEL
100
AcDbLine
 10
339.515149039195
 20
622.5435809842614
 30
0.0
 11
341.5151530931985
 21
626.5435797762615
 31
0.0
  0
LINE
  5
17A2
330
A
100
AcDbEntity
  8
MODEL
100
AcDbLine
 10
341.5151530931985
 20
654.5435806422614
 30
0.0
 11
339.515149039195
 21
658.5435794342624
 31
0.0
  0
LINE
  5
17A3
330
A
100
AcDbEntity
  8
MODEL
100
AcDbLine
 10
341.5151530931985
 20
622.5435809842614
 30
0.0
 11
343.5151571451938
 21
626.5435797762615
 31
0.0
  0
LINE
  5
17A4
330
A
100
AcDbEntity
  8
MODEL
100
AcDbLine
 10
343.5151571451938
 20
654.5435806422614
 30
0.0
 11
341.5151530931985
 21
658.5435794342624
 31
0.0
  0
LINE
  5
17A5
330
A
100
AcDbEntity
  8
MODEL
100
AcDbLine
 10
343.5151571451938
 20
622.5435809842614
 30
0.0
 11
345.5151462971958
 21
626.5435797762615
 31
0.0
  0
LINE
  5
17A6
330
A
100
AcDbEntity
  8
MODEL
100
AcDbLine
 10
345.5151462971958
 20
654.5435806422614
 30
0.0
 11
343.5151571451938
 21
658.5435794342624
 31
0.0
  0
LINE
  5
17A7
330
A
100
AcDbEntity
  8
MODEL
100
AcDbLine
 10
345.5151462971958
 20
622.5435809842614
 30
0.0
 11
347.5151503511993
 21
626.5435797762615
 31
0.0
  0
LINE
  5
17A8
330
A
100
AcDbEntity
  8
MODEL
100
AcDbLine
 10
347.5151503511993
 20
654.5435806422614
 30
0.0
 11
345.5151462971958
 21
658.5435794342624
 31
0.0
  0
LINE
  5
17A9
330
A
100
AcDbEntity
  8
MODEL
100
AcDbLine
 10
347.5151503511993
 20
622.5435809842614
 30
0.0
 11
349.5151544031983
 21
626.5435797762615
 31
0.0
  0
LINE
  5
17AA
330
A
100
AcDbEntity
  8
MODEL
100
AcDbLine
 10
349.5151544031983
 20
654.5435806422614
 30
0.0
 11
347.5151503511993
 21
658.5435794342624
 31
0.0
  0
LINE
  5
17AB
330
A
100
AcDbEntity
  8
MODEL
100
AcDbLine
 10
349.5151544031983
 20
622.5435809842614
 30
0.0
 11
351.5151584571981
 21
626.5435797762615
 31
0.0
  0
LINE
  5
17AC
330
A
100
AcDbEntity
  8
MODEL
100
AcDbLine
 10
351.5151584571981
 20
654.5435806422614
 30
0.0
 11
349.5151544031983
 21
658.5435794342624
 31
0.0
  0
LINE
  5
17AD
330
A
100
AcDbEntity
  8
MODEL
100
AcDbLine
 10
351.5151584571981
 20
622.5435809842614
 30
0.0
 11
353.5151476092001
 21
626.5435797762615
 31
0.0
  0
LINE
  5
17AE
330
A
100
AcDbEntity
  8
MODEL
100
AcDbLine
 10
353.5151476092001
 20
654.5435806422614
 30
0.0
 11
351.5151584571981
 21
658.5435794342624
 31
0.0
  0
LINE
  5
17AF
330
A
100
AcDbEntity
  8
MODEL
100
AcDbLine
 10
353.5151476092001
 20
622.5435809842614
 30
0.0
 11
355.5151516611991
 21
626.5435797762615
 31
0.0
  0
LINE
  5
17B0
330
A
100
AcDbEntity
  8
MODEL
100
AcDbLine
 10
355.5151516611991
 20
654.5435806422614
 30
0.0
 11
353.5151476092001
 21
658.5435794342624
 31
0.0
  0
LINE
  5
17B1
330
A
100
AcDbEntity
  8
MODEL
100
AcDbLine
 10
355.5151516611991
 20
622.5435809842614
 30
0.0
 11
357.5151557151989
 21
626.5435797762615
 31
0.0
  0
LINE
  5
17B2
330
A
100
AcDbEntity
  8
MODEL
100
AcDbLine
 10
357.5151557151989
 20
654.5435806422614
 30
0.0
 11
355.5151516611991
 21
658.5435794342624
 31
0.0
  0
LINE
  5
17B3
330
A
100
AcDbEntity
  8
MODEL
100
AcDbLine
 10
357.5151557151989
 20
622.5435809842614
 30
0.0
 11
359.5151597672016
 21
626.5435797762615
 31
0.0
  0
LINE
  5
17B4
330
A
100
AcDbEntity
  8
MODEL
100
AcDbLine
 10
359.5151597672016
 20
654.5435806422614
 30
0.0
 11
357.5151557151989
 21
658.5435794342624
 31
0.0
  0
LINE
  5
17B5
330
A
100
AcDbEntity
  8
MODEL
100
AcDbLine
 10
359.5151597672016
 20
622.5435809842614
 30
0.0
 11
361.5151489191999
 21
626.5435797762615
 31
0.0
  0
LINE
  5
17B6
330
A
100
AcDbEntity
  8
MODEL
100
AcDbLine
 10
361.5151489191999
 20
654.5435806422614
 30
0.0
 11
359.5151597672016
 21
658.5435794342624
 31
0.0
  0
LINE
  5
17B7
330
A
100
AcDbEntity
  8
MODEL
100
AcDbLine
 10
361.5151489191999
 20
622.5435809842614
 30
0.0
 11
363.5151529731961
 21
626.5435797762615
 31
0.0
  0
LINE
  5
17B8
330
A
100
AcDbEntity
  8
MODEL
100
AcDbLine
 10
363.5151529731961
 20
654.5435806422614
 30
0.0
 11
361.5151489191999
 21
658.5435794342624
 31
0.0
  0
LINE
  5
17B9
330
A
100
AcDbEntity
  8
MODEL
100
AcDbLine
 10
363.5151529731961
 20
622.5435809842614
 30
0.0
 11
365.515157027196
 21
626.5435797762615
 31
0.0
  0
LINE
  5
17BA
330
A
100
AcDbEntity
  8
MODEL
100
AcDbLine
 10
365.515157027196
 20
654.5435806422614
 30
0.0
 11
363.5151529731961
 21
658.5435794342624
 31
0.0
  0
LINE
  5
17BB
330
A
100
AcDbEntity
  8
MODEL
100
AcDbLine
 10
365.515157027196
 20
622.5435809842614
 30
0.0
 11
367.5151461791979
 21
626.5435797762615
 31
0.0
  0
LINE
  5
17BC
330
A
100
AcDbEntity
  8
MODEL
100
AcDbLine
 10
367.5151461791979
 20
654.5435806422614
 30
0.0
 11
365.515157027196
 21
658.5435794342624
 31
0.0
  0
LINE
  5
17BD
330
A
100
AcDbEntity
  8
MODEL
100
AcDbLine
 10
367.5151461791979
 20
622.5435809842614
 30
0.0
 11
369.5151502311969
 21
626.5435797762615
 31
0.0
  0
LINE
  5
17BE
330
A
100
AcDbEntity
  8
MODEL
100
AcDbLine
 10
369.5151502311969
 20
654.5435806422614
 30
0.0
 11
367.5151461791979
 21
658.5435794342624
 31
0.0
  0
LINE
  5
17BF
330
A
100
AcDbEntity
  8
MODEL
100
AcDbLine
 10
369.5151502311969
 20
622.5435809842614
 30
0.0
 11
371.5151542851968
 21
626.5435797762615
 31
0.0
  0
LINE
  5
17C0
330
A
100
AcDbEntity
  8
MODEL
100
AcDbLine
 10
371.5151542851968
 20
654.5435806422614
 30
0.0
 11
369.5151502311969
 21
658.5435794342624
 31
0.0
  0
LINE
  5
17C1
330
A
100
AcDbEntity
  8
MODEL
100
AcDbLine
 10
371.5151542851968
 20
622.5435809842614
 30
0.0
 11
373.5151583371994
 21
626.5435797762615
 31
0.0
  0
LINE
  5
17C2
330
A
100
AcDbEntity
  8
MODEL
100
AcDbLine
 10
373.5151583371994
 20
654.5435806422614
 30
0.0
 11
371.5151542851968
 21
658.5435794342624
 31
0.0
  0
LINE
  5
17C3
330
A
100
AcDbEntity
  8
MODEL
100
AcDbLine
 10
373.5151583371994
 20
622.5435809842614
 30
0.0
 11
375.5151474891977
 21
626.5435797762615
 31
0.0
  0
LINE
  5
17C4
330
A
100
AcDbEntity
  8
MODEL
100
AcDbLine
 10
375.5151474891977
 20
654.5435806422614
 30
0.0
 11
373.5151583371994
 21
658.5435794342624
 31
0.0
  0
LINE
  5
17C5
330
A
100
AcDbEntity
  8
MODEL
100
AcDbLine
 10
375.5151474891977
 20
622.5435809842614
 30
0.0
 11
377.515151543194
 21
626.5435797762615
 31
0.0
  0
LINE
  5
17C6
330
A
100
AcDbEntity
  8
MODEL
100
AcDbLine
 10
377.515151543194
 20
654.5435806422614
 30
0.0
 11
375.5151474891977
 21
658.5435794342624
 31
0.0
  0
LINE
  5
17C7
330
A
100
AcDbEntity
  8
MODEL
100
AcDbLine
 10
377.515151543194
 20
622.5435809842614
 30
0.0
 11
379.5151555951966
 21
626.5435797762615
 31
0.0
  0
LINE
  5
17C8
330
A
100
AcDbEntity
  8
MODEL
100
AcDbLine
 10
379.5151555951966
 20
654.5435806422614
 30
0.0
 11
377.515151543194
 21
658.5435794342624
 31
0.0
  0
LINE
  5
17C9
330
A
100
AcDbEntity
  8
MODEL
100
AcDbLine
 10
379.5151555951966
 20
622.5435809842614
 30
0.0
 11
381.5151596492001
 21
626.5435797762615
 31
0.0
  0
LINE
  5
17CA
330
A
100
AcDbEntity
  8
MODEL
100
AcDbLine
 10
381.5151596492001
 20
654.5435806422614
 30
0.0
 11
379.5151555951966
 21
658.5435794342624
 31
0.0
  0
LINE
  5
17CB
330
A
100
AcDbEntity
  8
MODEL
100
AcDbLine
 10
381.5151596492001
 20
622.5435809842614
 30
0.0
 11
383.5151488011984
 21
626.5435797762615
 31
0.0
  0
LINE
  5
17CC
330
A
100
AcDbEntity
  8
MODEL
100
AcDbLine
 10
383.5151488011984
 20
654.5435806422614
 30
0.0
 11
381.5151596492001
 21
658.5435794342624
 31
0.0
  0
LINE
  5
17CD
330
A
100
AcDbEntity
  8
MODEL
100
AcDbLine
 10
383.5151488011984
 20
622.5435809842614
 30
0.0
 11
385.5151528531974
 21
626.5435797762615
 31
0.0
  0
LINE
  5
17CE
330
A
100
AcDbEntity
  8
MODEL
100
AcDbLine
 10
385.5151528531974
 20
654.5435806422614
 30
0.0
 11
383.5151488011984
 21
658.5435794342624
 31
0.0
  0
LINE
  5
17CF
330
A
100
AcDbEntity
  8
MODEL
100
AcDbLine
 10
385.5151528531974
 20
622.5435809842614
 30
0.0
 11
387.5151569072009
 21
626.5435797762615
 31
0.0
  0
LINE
  5
17D0
330
A
100
AcDbEntity
  8
MODEL
100
AcDbLine
 10
387.5151569072009
 20
654.5435806422614
 30
0.0
 11
385.5151528531974
 21
658.5435794342624
 31
0.0
  0
LINE
  5
17D1
330
A
100
AcDbEntity
  8
MODEL
100
AcDbLine
 10
387.5151569072009
 20
622.5435809842614
 30
0.0
 11
389.5151460591956
 21
626.5435797762615
 31
0.0
  0
LINE
  5
17D2
330
A
100
AcDbEntity
  8
MODEL
100
AcDbLine
 10
389.5151460591956
 20
654.5435806422614
 30
0.0
 11
387.5151569072009
 21
658.5435794342624
 31
0.0
  0
LINE
  5
17D3
330
A
100
AcDbEntity
  8
MODEL
100
AcDbLine
 10
389.5151460591956
 20
622.5435809842614
 30
0.0
 11
391.5151501111982
 21
626.5435797762615
 31
0.0
  0
LINE
  5
17D4
330
A
100
AcDbEntity
  8
MODEL
100
AcDbLine
 10
391.5151501111982
 20
654.5435806422614
 30
0.0
 11
389.5151460591956
 21
658.5435794342624
 31
0.0
  0
LINE
  5
17D5
330
A
100
AcDbEntity
  8
MODEL
100
AcDbLine
 10
391.5151501111982
 20
622.5435809842614
 30
0.0
 11
393.5151541652017
 21
626.5435797762615
 31
0.0
  0
LINE
  5
17D6
330
A
100
AcDbEntity
  8
MODEL
100
AcDbLine
 10
393.5151541652017
 20
654.5435806422614
 30
0.0
 11
391.5151501111982
 21
658.5435794342624
 31
0.0
  0
LINE
  5
17D7
330
A
100
AcDbEntity
  8
MODEL
100
AcDbLine
 10
393.5151541652017
 20
622.5435809842614
 30
0.0
 11
395.5151582191979
 21
626.5435797762615
 31
0.0
  0
LINE
  5
17D8
330
A
100
AcDbEntity
  8
MODEL
100
AcDbLine
 10
395.5151582191979
 20
654.5435806422614
 30
0.0
 11
393.5151541652017
 21
658.5435794342624
 31
0.0
  0
LINE
  5
17D9
330
A
100
AcDbEntity
  8
MODEL
100
AcDbLine
 10
395.5151582191979
 20
622.5435809842614
 30
0.0
 11
397.5151473711962
 21
626.5435797762615
 31
0.0
  0
LINE
  5
17DA
330
A
100
AcDbEntity
  8
MODEL
100
AcDbLine
 10
397.5151473711962
 20
654.5435806422614
 30
0.0
 11
395.5151582191979
 21
658.5435794342624
 31
0.0
  0
LINE
  5
17DB
330
A
100
AcDbEntity
  8
MODEL
100
AcDbLine
 10
397.5151473711962
 20
622.5435809842614
 30
0.0
 11
399.5151514231989
 21
626.5435797762615
 31
0.0
  0
LINE
  5
17DC
330
A
100
AcDbEntity
  8
MODEL
100
AcDbLine
 10
399.5151514231989
 20
654.5435806422614
 30
0.0
 11
397.5151473711962
 21
658.5435794342624
 31
0.0
  0
LINE
  5
17DD
330
A
100
AcDbEntity
  8
MODEL
100
AcDbLine
 10
399.5151514231989
 20
622.5435809842614
 30
0.0
 11
401.5151554771987
 21
626.5435797762615
 31
0.0
  0
LINE
  5
17DE
330
A
100
AcDbEntity
  8
MODEL
100
AcDbLine
 10
401.5151554771987
 20
654.5435806422614
 30
0.0
 11
399.5151514231989
 21
658.5435794342624
 31
0.0
  0
LINE
  5
17DF
330
A
100
AcDbEntity
  8
MODEL
100
AcDbLine
 10
401.5151554771987
 20
622.5435809842614
 30
0.0
 11
403.5151595291977
 21
626.5435797762615
 31
0.0
  0
LINE
  5
17E0
330
A
100
AcDbEntity
  8
MODEL
100
AcDbLine
 10
403.5151595291977
 20
654.5435806422614
 30
0.0
 11
401.5151554771987
 21
658.5435794342624
 31
0.0
  0
LINE
  5
17E1
330
A
100
AcDbEntity
  8
MODEL
100
AcDbLine
 10
403.5151595291977
 20
622.5435809842614
 30
0.0
 11
405.5151486811997
 21
626.5435797762615
 31
0.0
  0
LINE
  5
17E2
330
A
100
AcDbEntity
  8
MODEL
100
AcDbLine
 10
405.5151486811997
 20
654.5435806422614
 30
0.0
 11
403.5151595291977
 21
658.5435794342624
 31
0.0
  0
LINE
  5
17E3
330
A
100
AcDbEntity
  8
MODEL
100
AcDbLine
 10
405.5151486811997
 20
622.5435809842614
 30
0.0
 11
407.5151527351995
 21
626.5435797762615
 31
0.0
  0
LINE
  5
17E4
330
A
100
AcDbEntity
  8
MODEL
100
AcDbLine
 10
407.5151527351995
 20
654.5435806422614
 30
0.0
 11
405.5151486811997
 21
658.5435794342624
 31
0.0
  0
LINE
  5
17E5
330
A
100
AcDbEntity
  8
MODEL
100
AcDbLine
 10
407.5151527351995
 20
622.5435809842614
 30
0.0
 11
410.5151513632013
 21
626.5435797762615
 31
0.0
  0
LINE
  5
17E6
330
A
100
AcDbEntity
  8
MODEL
100
AcDbLine
 10
410.5151513632013
 20
654.5435806422614
 30
0.0
 11
407.5151527351995
 21
658.5435794342624
 31
0.0
  0
ARC
  5
17E7
330
A
100
AcDbEntity
  8
MODEL
100
AcDbCircle
 10
275.5151527351995
 20
656.0435802082615
 30
0.0
 40
0.999999999999944
100
AcDbArc
 50
0.0
 51
180.0
  0
ARC
  5
17E8
330
A
100
AcDbEntity
  8
MODEL
100
AcDbCircle
 10
275.5151527351995
 20
625.0435802082615
 30
0.0
 40
0.999999999999944
100
AcDbArc
 50
180.0
 51
0.0
  0
ARC
  5
17E9
330
A
100
AcDbEntity
  8
MODEL
100
AcDbCircle
 10
289.5151527351959
 20
656.0435802082615
 30
0.0
 40
1.000000000000228
100
AcDbArc
 50
0.0
 51
180.0
  0
ARC
  5
17EA
330
A
100
AcDbEntity
  8
MODEL
100
AcDbCircle
 10
289.5151527351959
 20
625.0435802082615
 30
0.0
 40
1.000000000000228
100
AcDbArc
 50
180.0
 51
0.0
  0
LINE
  5
17EB
102
{ACAD_REACTORS
330
1A4A
102
}
330
A
100
AcDbEntity
  8
MODEL
100
AcDbLine
 10
274.5151663251968
 20
656.0435799562623
 30
0.0
 11
225.5151415291989
 21
656.0435799562623
 31
0.0
  0
LINE
  5
17EC
102
{ACAD_REACTORS
330
1A4A
102
}
330
A
100
AcDbEntity
  8
MODEL
100
AcDbLine
 10
225.5151415291989
 20
625.0435804622615
 30
0.0
 11
274.5151663251968
 21
625.0435804622615
 31
0.0
  0
LINE
  5
17ED
330
A
100
AcDbEntity
  8
MODEL
100
AcDbLine
 10
288.5151499931967
 20
656.0435799562623
 30
0.0
 11
276.5151405752008
 21
656.0435799562623
 31
0.0
  0
LINE
  5
17EE
330
A
100
AcDbEntity
  8
MODEL
100
AcDbLine
 10
276.5151405752008
 20
625.0435804622615
 30
0.0
 11
288.5151499931967
 21
625.0435804622615
 31
0.0
  0
LINE
  5
17EF
330
A
100
AcDbEntity
  8
MODEL
100
AcDbLine
 10
300.5151594111999
 20
656.0435799562623
 30
0.0
 11
290.5151540451993
 21
656.0435799562623
 31
0.0
  0
LINE
  5
17F0
330
A
100
AcDbEntity
  8
MODEL
100
AcDbLine
 10
290.5151540451993
 20
625.0435804622615
 30
0.0
 11
300.5151594111999
 21
625.0435804622615
 31
0.0
  0
LINE
  5
17F1
330
A
100
AcDbEntity
  8
MODEL
100
AcDbLine
 10
437.5151539271978
 20
654.5435806422614
 30
0.0
 11
410.5151513632013
 21
654.5435806422614
 31
0.0
  0
LINE
  5
17F2
330
A
100
AcDbEntity
  8
MODEL
100
AcDbLine
 10
410.5151513632013
 20
626.5435797762615
 30
0.0
 11
437.5151539271978
 21
626.5435797762615
 31
0.0
  0
LINE
  5
17F3
330
A
100
AcDbEntity
  8
MODEL
100
AcDbLine
 10
321.5151572651962
 20
652.7935798882612
 30
0.0
 11
300.5151594111999
 21
652.7935798882612
 31
0.0
  0
LINE
  5
17F4
330
A
100
AcDbEntity
  8
MODEL
100
AcDbLine
 10
300.5151594111999
 20
628.2935805302617
 30
0.0
 11
321.5151572651962
 21
628.2935805302617
 31
0.0
  0
ARC
  5
17F5
330
A
100
AcDbEntity
  8
MODEL
100
AcDbCircle
 10
559.7651527351959
 20
667.7935802082624
 30
0.0
 40
3.250000000000322
100
AcDbArc
 50
4.411731868317986
 51
90.0
  0
ARC
  5
17F6
330
A
100
AcDbEntity
  8
MODEL
100
AcDbCircle
 10
505.2651527351995
 20
667.7935802082624
 30
0.0
 40
3.249999999999886
100
AcDbArc
 50
90.0
 51
175.5882681316814
  0
LINE
  5
17F7
330
A
100
AcDbEntity
  8
MODEL
100
AcDbLine
 10
559.7651520791956
 20
671.0435805522615
 30
0.0
 11
505.2651533911999
 21
671.0435805522615
 31
0.0
  0
ARC
  5
17F8
330
A
100
AcDbEntity
  8
MODEL
100
AcDbCircle
 10
576.2651527351995
 20
613.2935812522613
 30
0.0
 40
0.250000000000342
100
AcDbArc
 50
270.0
 51
0.0
  0
ARC
  5
17F9
330
A
100
AcDbEntity
  8
MODEL
100
AcDbCircle
 10
488.7651527351995
 20
613.2935812522613
 30
0.0
 40
0.250000000000342
100
AcDbArc
 50
180.0
 51
270.0
  0
ARC
  5
17FA
330
A
100
AcDbEntity
  8
MODEL
100
AcDbCircle
 10
488.7651527351995
 20
667.7935798502609
 30
0.0
 40
0.249999999999772
100
AcDbArc
 50
90.0
 51
180.0
  0
ARC
  5
17FB
330
A
100
AcDbEntity
  8
MODEL
100
AcDbCircle
 10
576.2651527351995
 20
667.7935798502609
 30
0.0
 40
0.249999999999772
100
AcDbArc
 50
0.0
 51
90.0
  0
LINE
  5
17FC
330
A
100
AcDbEntity
  8
MODEL
100
AcDbLine
 10
576.5151527330163
 20
613.2935812522613
 30
0.0
 11
576.5151524950106
 21
667.7939263964639
 31
0.0
  0
LINE
  5
17FD
330
A
100
AcDbEntity
  8
MODEL
100
AcDbLine
 10
488.5151529731961
 20
623.093124632262
 30
0.0
 11
488.5151527351992
 21
613.2935812522613
 31
0.0
  0
LINE
  5
17FE
330
A
100
AcDbEntity
  8
MODEL
100
AcDbLine
 10
488.5151529731961
 20
667.7939248112966
 30
0.0
 11
488.5151529731961
 21
658.012358626262
 31
0.0
  0
SPLINE
  5
17FF
330
A
100
AcDbEntity
  8
MODEL
100
AcDbSpline
210
0.0
220
0.0
230
1.0
 70
     8
 71
     3
 72
    11
 73
     7
 74
     0
 42
0.000000001
 43
0.00000001
 40
0.0
 40
0.0
 40
0.0
 40
0.0
 40
0.0610005818628332
 40
0.4138743555583536
 40
0.780491908097325
 40
1.0
 40
1.0
 40
1.0
 40
1.0
 10
488.4354503872678
 20
657.7801836331813
 30
0.0
 10
488.4312749889582
 20
657.7710324831509
 30
0.0
 10
488.4029459102389
 20
657.7089441193096
 30
0.0
 10
488.2992268418097
 20
657.6243509536783
 30
0.0
 10
488.1588594154496
 20
657.5514339379137
 30
0.0
 10
488.0615004745055
 20
657.5505951860517
 30
0.0
 10
488.0250388803802
 20
657.5502810677011
 30
0.0
  0
SPLINE
  5
1800
330
A
100
AcDbEntity
  8
MODEL
100
AcDbSpline
210
0.0
220
0.0
230
1.0
 70
     8
 71
     3
 72
    10
 73
     6
 74
     0
 42
0.000000001
 43
0.00000001
 40
0.0
 40
0.0
 40
0.0
 40
0.0
 40
0.2987985024469955
 40
0.7078156145162242
 40
1.0
 40
1.0
 40
1.0
 40
1.0
 10
488.0266072275958
 20
623.5399638911216
 30
0.0
 10
488.0744165018336
 20
623.5368630324041
 30
0.0
 10
488.1876705862601
 20
623.5295174928491
 30
0.0
 10
488.3337617645016
 20
623.4468297149818
 30
0.0
 10
488.4024693941396
 20
623.3583104915164
 30
0.0
 10
488.4310992481992
 20
623.3214253236969
 30
0.0
  0
LINE
  5
1801
330
A
100
AcDbEntity
  8
MODEL
100
AcDbLine
 10
487.2651541652017
 20
623.5435792862612
 30
0.0
 11
488.0325714172
 21
623.5435792862612
 31
0.0
  0
LINE
  5
1802
330
A
100
AcDbEntity
  8
MODEL
100
AcDbLine
 10
488.027825397196
 20
657.5435811322617
 30
0.0
 11
487.2651541652017
 21
657.5435811322617
 31
0.0
  0
ARC
  5
1803
330
A
100
AcDbEntity
  8
MODEL
100
AcDbCircle
 10
487.2651527351959
 20
657.2935802082615
 30
0.0
 40
0.249999999999772
100
AcDbArc
 50
90.0
 51
180.0
  0
ARC
  5
1804
330
A
100
AcDbEntity
  8
MODEL
100
AcDbCircle
 10
487.2651527351959
 20
623.7935802082615
 30
0.0
 40
0.250000000000342
100
AcDbArc
 50
180.0
 51
270.0
  0
LINE
  5
1805
330
A
100
AcDbEntity
  8
MODEL
100
AcDbLine
 10
475.7651532112
 20
661.2935794202616
 30
0.0
 11
475.7651532112
 21
661.5435799262617
 31
0.0
  0
LINE
  5
1806
330
A
100
AcDbEntity
  8
MODEL
100
AcDbLine
 10
487.0151536591952
 20
661.2935794202616
 30
0.0
 11
475.7651532112
 21
661.2935794202616
 31
0.0
  0
LINE
  5
1807
330
A
100
AcDbEntity
  8
MODEL
100
AcDbLine
 10
487.0151536591952
 20
661.2935794202616
 30
0.0
 11
487.0151536591952
 21
661.1471699222624
 31
0.0
  0
LINE
  5
1808
330
A
100
AcDbEntity
  8
MODEL
100
AcDbLine
 10
487.0151536591952
 20
661.1471699222624
 30
0.0
 11
475.7651532112
 21
661.1471699222624
 31
0.0
  0
LINE
  5
1809
330
A
100
AcDbEntity
  8
MODEL
100
AcDbLine
 10
475.7651532112
 20
658.9372327222612
 30
0.0
 11
475.7651532112
 21
661.1471699222624
 31
0.0
  0
LINE
  5
180A
330
A
100
AcDbEntity
  8
MODEL
100
AcDbLine
 10
487.0151536591952
 20
658.9372327222612
 30
0.0
 11
475.7651532112
 21
658.9372327222612
 31
0.0
  0
LINE
  5
180B
330
A
100
AcDbEntity
  8
MODEL
100
AcDbLine
 10
487.0151536591952
 20
658.9372327222612
 30
0.0
 11
487.0151536591952
 21
658.5156639722612
 31
0.0
  0
LINE
  5
180C
330
A
100
AcDbEntity
  8
MODEL
100
AcDbLine
 10
487.0151536591952
 20
658.5156639722612
 30
0.0
 11
475.7651532112
 21
658.5156639722612
 31
0.0
  0
LINE
  5
180D
330
A
100
AcDbEntity
  8
MODEL
100
AcDbLine
 10
475.7651532112
 20
654.3623406122628
 30
0.0
 11
475.7651532112
 21
658.5156639722612
 31
0.0
  0
LINE
  5
180E
330
A
100
AcDbEntity
  8
MODEL
100
AcDbLine
 10
487.0151536591952
 20
654.3623406122628
 30
0.0
 11
475.7651532112
 21
654.3623406122628
 31
0.0
  0
LINE
  5
180F
330
A
100
AcDbEntity
  8
MODEL
100
AcDbLine
 10
487.0151536591952
 20
654.3623406122628
 30
0.0
 11
487.0151536591952
 21
653.7164590922615
 31
0.0
  0
LINE
  5
1810
330
A
100
AcDbEntity
  8
MODEL
100
AcDbLine
 10
487.0151536591952
 20
653.7164590922615
 30
0.0
 11
475.7651532112
 21
653.7164590922615
 31
0.0
  0
LINE
  5
1811
330
A
100
AcDbEntity
  8
MODEL
100
AcDbLine
 10
475.7651532112
 20
648.1207014662617
 30
0.0
 11
475.7651532112
 21
653.7164590922615
 31
0.0
  0
LINE
  5
1812
330
A
100
AcDbEntity
  8
MODEL
100
AcDbLine
 10
487.0151536591952
 20
648.1207014662617
 30
0.0
 11
475.7651532112
 21
648.1207014662617
 31
0.0
  0
LINE
  5
1813
330
A
100
AcDbEntity
  8
MODEL
100
AcDbLine
 10
487.0151536591952
 20
648.1207014662617
 30
0.0
 11
487.0151536591952
 21
647.3284099862616
 31
0.0
  0
LINE
  5
1814
330
A
100
AcDbEntity
  8
MODEL
100
AcDbLine
 10
487.0151536591952
 20
647.3284099862616
 30
0.0
 11
475.7651532112
 21
647.3284099862616
 31
0.0
  0
LINE
  5
1815
330
A
100
AcDbEntity
  8
MODEL
100
AcDbLine
 10
475.7651532112
 20
640.9651496882619
 30
0.0
 11
475.7651532112
 21
647.3284099862616
 31
0.0
  0
LINE
  5
1816
330
A
100
AcDbEntity
  8
MODEL
100
AcDbLine
 10
487.0151536591952
 20
640.9651496882619
 30
0.0
 11
475.7651532112
 21
640.9651496882619
 31
0.0
  0
LINE
  5
1817
330
A
100
AcDbEntity
  8
MODEL
100
AcDbLine
 10
487.0151536591952
 20
640.9651496882619
 30
0.0
 11
487.0151536591952
 21
640.1220107302619
 31
0.0
  0
LINE
  5
1818
330
A
100
AcDbEntity
  8
MODEL
100
AcDbLine
 10
487.0151536591952
 20
640.1220107302619
 30
0.0
 11
475.7651532112
 21
640.1220107302619
 31
0.0
  0
LINE
  5
1819
330
A
100
AcDbEntity
  8
MODEL
100
AcDbLine
 10
475.7651532112
 20
633.7587504322613
 30
0.0
 11
475.7651532112
 21
640.1220107302619
 31
0.0
  0
LINE
  5
181A
330
A
100
AcDbEntity
  8
MODEL
100
AcDbLine
 10
487.0151536591952
 20
633.7587504322613
 30
0.0
 11
475.7651532112
 21
633.7587504322613
 31
0.0
  0
LINE
  5
181B
330
A
100
AcDbEntity
  8
MODEL
100
AcDbLine
 10
487.0151536591952
 20
633.7587504322613
 30
0.0
 11
487.0151536591952
 21
632.9664589522621
 31
0.0
  0
LINE
  5
181C
330
A
100
AcDbEntity
  8
MODEL
100
AcDbLine
 10
487.0151536591952
 20
632.9664589522621
 30
0.0
 11
475.7651532112
 21
632.9664589522621
 31
0.0
  0
LINE
  5
181D
330
A
100
AcDbEntity
  8
MODEL
100
AcDbLine
 10
475.7651532112
 20
627.3707013262623
 30
0.0
 11
475.7651532112
 21
632.9664589522621
 31
0.0
  0
LINE
  5
181E
330
A
100
AcDbEntity
  8
MODEL
100
AcDbLine
 10
487.0151536591952
 20
627.3707013262623
 30
0.0
 11
475.7651532112
 21
627.3707013262623
 31
0.0
  0
LINE
  5
181F
330
A
100
AcDbEntity
  8
MODEL
100
AcDbLine
 10
487.0151536591952
 20
627.3707013262623
 30
0.0
 11
487.0151536591952
 21
626.724819806262
 31
0.0
  0
LINE
  5
1820
330
A
100
AcDbEntity
  8
MODEL
100
AcDbLine
 10
487.0151536591952
 20
626.724819806262
 30
0.0
 11
475.7651532112
 21
626.724819806262
 31
0.0
  0
LINE
  5
1821
330
A
100
AcDbEntity
  8
MODEL
100
AcDbLine
 10
475.7651532112
 20
622.5714964462617
 30
0.0
 11
475.7651532112
 21
626.724819806262
 31
0.0
  0
LINE
  5
1822
330
A
100
AcDbEntity
  8
MODEL
100
AcDbLine
 10
487.0151536591952
 20
622.5714964462617
 30
0.0
 11
475.7651532112
 21
622.5714964462617
 31
0.0
  0
LINE
  5
1823
330
A
100
AcDbEntity
  8
MODEL
100
AcDbLine
 10
487.0151536591952
 20
622.5714964462617
 30
0.0
 11
487.0151536591952
 21
622.1499276962608
 31
0.0
  0
LINE
  5
1824
330
A
100
AcDbEntity
  8
MODEL
100
AcDbLine
 10
487.0151536591952
 20
622.1499276962608
 30
0.0
 11
475.7651532112
 21
622.1499276962608
 31
0.0
  0
LINE
  5
1825
330
A
100
AcDbEntity
  8
MODEL
100
AcDbLine
 10
475.7651532112
 20
619.9399904962614
 30
0.0
 11
475.7651532112
 21
622.1499276962608
 31
0.0
  0
LINE
  5
1826
330
A
100
AcDbEntity
  8
MODEL
100
AcDbLine
 10
487.0151536591952
 20
619.9399904962614
 30
0.0
 11
475.7651532112
 21
619.9399904962614
 31
0.0
  0
LINE
  5
1827
330
A
100
AcDbEntity
  8
MODEL
100
AcDbLine
 10
487.0151536591952
 20
619.9399904962614
 30
0.0
 11
487.0151536591952
 21
619.7935809982613
 31
0.0
  0
LINE
  5
1828
330
A
100
AcDbEntity
  8
MODEL
100
AcDbLine
 10
487.0151536591952
 20
619.7935809982613
 30
0.0
 11
475.7651532112
 21
619.7935809982613
 31
0.0
  0
LINE
  5
1829
330
A
100
AcDbEntity
  8
MODEL
100
AcDbLine
 10
475.7651532112
 20
619.5435804922621
 30
0.0
 11
475.7651532112
 21
619.7935809982613
 31
0.0
  0
LINE
  5
182A
330
A
100
AcDbEntity
  8
MODEL
100
AcDbLine
 10
474.0151533911999
 20
640.5435802082615
 30
0.0
 11
474.0151533911999
 21
661.5435799262617
 31
0.0
  0
LINE
  5
182B
330
A
100
AcDbEntity
  8
MODEL
100
AcDbLine
 10
474.0151533911999
 20
619.5435804922621
 30
0.0
 11
474.0151533911999
 21
640.5435802082615
 31
0.0
  0
LINE
  5
182C
330
A
100
AcDbEntity
  8
MODEL
100
AcDbLine
 10
487.0151536591952
 20
647.3284099862616
 30
0.0
 11
487.0151536591952
 21
640.9651496882619
 31
0.0
  0
LINE
  5
182D
330
A
100
AcDbEntity
  8
MODEL
100
AcDbLine
 10
487.0151536591952
 20
640.1220107302619
 30
0.0
 11
487.0151536591952
 21
633.7587504322613
 31
0.0
  0
LINE
  5
182E
330
A
100
AcDbEntity
  8
MODEL
100
AcDbLine
 10
487.0151536591952
 20
653.7164590922615
 30
0.0
 11
487.0151536591952
 21
648.1207014662617
 31
0.0
  0
LINE
  5
182F
330
A
100
AcDbEntity
  8
MODEL
100
AcDbLine
 10
487.0151536591952
 20
632.9664589522621
 30
0.0
 11
487.0151536591952
 21
627.3707013262623
 31
0.0
  0
LINE
  5
1830
330
A
100
AcDbEntity
  8
MODEL
100
AcDbLine
 10
487.0151536591952
 20
658.5156639722612
 30
0.0
 11
487.0151536591952
 21
654.3623406122628
 31
0.0
  0
LINE
  5
1831
330
A
100
AcDbEntity
  8
MODEL
100
AcDbLine
 10
487.0151536591952
 20
626.724819806262
 30
0.0
 11
487.0151536591952
 21
622.5714964462617
 31
0.0
  0
LINE
  5
1832
330
A
100
AcDbEntity
  8
MODEL
100
AcDbLine
 10
487.0151536591952
 20
661.1471699222624
 30
0.0
 11
487.0151536591952
 21
658.9372327222612
 31
0.0
  0
LINE
  5
1833
330
A
100
AcDbEntity
  8
MODEL
100
AcDbLine
 10
487.0151536591952
 20
622.1499276962608
 30
0.0
 11
487.0151536591952
 21
619.9399904962614
 31
0.0
  0
LINE
  5
1834
330
A
100
AcDbEntity
  8
MODEL
100
AcDbLine
 10
437.5151539271978
 20
656.7935796122623
 30
0.0
 11
437.5151539271978
 21
624.2935808062615
 31
0.0
  0
LINE
  5
1835
330
A
100
AcDbEntity
  8
MODEL
100
AcDbLine
 10
439.5151505291983
 20
658.7935799402616
 30
0.0
 11
439.5151505291983
 21
622.2935804782622
 31
0.0
  0
LINE
  5
1836
330
A
100
AcDbEntity
  8
MODEL
100
AcDbLine
 10
321.5151572651962
 20
658.5435794342624
 30
0.0
 11
321.5151572651962
 21
622.5435809842614
 31
0.0
  0
LINE
  5
1837
330
A
100
AcDbEntity
  8
MODEL
100
AcDbLine
 10
323.5151464171945
 20
658.5435794342624
 30
0.0
 11
323.5151464171945
 21
622.5435809842614
 31
0.0
  0
LINE
  5
1838
330
A
100
AcDbEntity
  8
MODEL
100
AcDbLine
 10
325.5151504691971
 20
658.5435794342624
 30
0.0
 11
325.5151504691971
 21
622.5435809842614
 31
0.0
  0
LINE
  5
1839
330
A
100
AcDbEntity
  8
MODEL
100
AcDbLine
 10
327.515154523197
 20
658.5435794342624
 30
0.0
 11
327.515154523197
 21
622.5435809842614
 31
0.0
  0
LINE
  5
183A
330
A
100
AcDbEntity
  8
MODEL
100
AcDbLine
 10
329.515158575196
 20
658.5435794342624
 30
0.0
 11
329.515158575196
 21
622.5435809842614
 31
0.0
  0
LINE
  5
183B
330
A
100
AcDbEntity
  8
MODEL
100
AcDbLine
 10
331.5151477271979
 20
658.5435794342624
 30
0.0
 11
331.5151477271979
 21
622.5435809842614
 31
0.0
  0
LINE
  5
183C
330
A
100
AcDbEntity
  8
MODEL
100
AcDbLine
 10
333.5151517811978
 20
658.5435794342624
 30
0.0
 11
333.5151517811978
 21
622.5435809842614
 31
0.0
  0
LINE
  5
183D
330
A
100
AcDbEntity
  8
MODEL
100
AcDbLine
 10
335.5151558351977
 20
658.5435794342624
 30
0.0
 11
335.5151558351977
 21
622.5435809842614
 31
0.0
  0
LINE
  5
183E
330
A
100
AcDbEntity
  8
MODEL
100
AcDbLine
 10
337.5151598872003
 20
658.5435794342624
 30
0.0
 11
337.5151598872003
 21
622.5435809842614
 31
0.0
  0
LINE
  5
183F
330
A
100
AcDbEntity
  8
MODEL
100
AcDbLine
 10
339.515149039195
 20
658.5435794342624
 30
0.0
 11
339.515149039195
 21
622.5435809842614
 31
0.0
  0
LINE
  5
1840
330
A
100
AcDbEntity
  8
MODEL
100
AcDbLine
 10
341.5151530931985
 20
658.5435794342624
 30
0.0
 11
341.5151530931985
 21
622.5435809842614
 31
0.0
  0
LINE
  5
1841
330
A
100
AcDbEntity
  8
MODEL
100
AcDbLine
 10
343.5151571451938
 20
658.5435794342624
 30
0.0
 11
343.5151571451938
 21
622.5435809842614
 31
0.0
  0
LINE
  5
1842
330
A
100
AcDbEntity
  8
MODEL
100
AcDbLine
 10
345.5151462971958
 20
658.5435794342624
 30
0.0
 11
345.5151462971958
 21
622.5435809842614
 31
0.0
  0
LINE
  5
1843
330
A
100
AcDbEntity
  8
MODEL
100
AcDbLine
 10
347.5151503511993
 20
658.5435794342624
 30
0.0
 11
347.5151503511993
 21
622.5435809842614
 31
0.0
  0
LINE
  5
1844
330
A
100
AcDbEntity
  8
MODEL
100
AcDbLine
 10
349.5151544031983
 20
658.5435794342624
 30
0.0
 11
349.5151544031983
 21
622.5435809842614
 31
0.0
  0
LINE
  5
1845
330
A
100
AcDbEntity
  8
MODEL
100
AcDbLine
 10
351.5151584571981
 20
658.5435794342624
 30
0.0
 11
351.5151584571981
 21
622.5435809842614
 31
0.0
  0
LINE
  5
1846
330
A
100
AcDbEntity
  8
MODEL
100
AcDbLine
 10
353.5151476092001
 20
658.5435794342624
 30
0.0
 11
353.5151476092001
 21
622.5435809842614
 31
0.0
  0
LINE
  5
1847
330
A
100
AcDbEntity
  8
MODEL
100
AcDbLine
 10
355.5151516611991
 20
658.5435794342624
 30
0.0
 11
355.5151516611991
 21
622.5435809842614
 31
0.0
  0
LINE
  5
1848
330
A
100
AcDbEntity
  8
MODEL
100
AcDbLine
 10
357.5151557151989
 20
658.5435794342624
 30
0.0
 11
357.5151557151989
 21
622.5435809842614
 31
0.0
  0
LINE
  5
1849
330
A
100
AcDbEntity
  8
MODEL
100
AcDbLine
 10
359.5151597672016
 20
658.5435794342624
 30
0.0
 11
359.5151597672016
 21
622.5435809842614
 31
0.0
  0
LINE
  5
184A
330
A
100
AcDbEntity
  8
MODEL
100
AcDbLine
 10
361.5151489191999
 20
658.5435794342624
 30
0.0
 11
361.5151489191999
 21
622.5435809842614
 31
0.0
  0
LINE
  5
184B
330
A
100
AcDbEntity
  8
MODEL
100
AcDbLine
 10
363.5151529731961
 20
658.5435794342624
 30
0.0
 11
363.5151529731961
 21
622.5435809842614
 31
0.0
  0
LINE
  5
184C
330
A
100
AcDbEntity
  8
MODEL
100
AcDbLine
 10
365.515157027196
 20
658.5435794342624
 30
0.0
 11
365.515157027196
 21
622.5435809842614
 31
0.0
  0
LINE
  5
184D
330
A
100
AcDbEntity
  8
MODEL
100
AcDbLine
 10
367.5151461791979
 20
658.5435794342624
 30
0.0
 11
367.5151461791979
 21
622.5435809842614
 31
0.0
  0
LINE
  5
184E
330
A
100
AcDbEntity
  8
MODEL
100
AcDbLine
 10
369.5151502311969
 20
658.5435794342624
 30
0.0
 11
369.5151502311969
 21
622.5435809842614
 31
0.0
  0
LINE
  5
184F
330
A
100
AcDbEntity
  8
MODEL
100
AcDbLine
 10
371.5151542851968
 20
658.5435794342624
 30
0.0
 11
371.5151542851968
 21
622.5435809842614
 31
0.0
  0
LINE
  5
1850
330
A
100
AcDbEntity
  8
MODEL
100
AcDbLine
 10
373.5151583371994
 20
658.5435794342624
 30
0.0
 11
373.5151583371994
 21
622.5435809842614
 31
0.0
  0
LINE
  5
1851
330
A
100
AcDbEntity
  8
MODEL
100
AcDbLine
 10
375.5151474891977
 20
658.5435794342624
 30
0.0
 11
375.5151474891977
 21
622.5435809842614
 31
0.0
  0
LINE
  5
1852
330
A
100
AcDbEntity
  8
MODEL
100
AcDbLine
 10
377.515151543194
 20
658.5435794342624
 30
0.0
 11
377.515151543194
 21
622.5435809842614
 31
0.0
  0
LINE
  5
1853
330
A
100
AcDbEntity
  8
MODEL
100
AcDbLine
 10
379.5151555951966
 20
658.5435794342624
 30
0.0
 11
379.5151555951966
 21
622.5435809842614
 31
0.0
  0
LINE
  5
1854
330
A
100
AcDbEntity
  8
MODEL
100
AcDbLine
 10
381.5151596492001
 20
658.5435794342624
 30
0.0
 11
381.5151596492001
 21
622.5435809842614
 31
0.0
  0
LINE
  5
1855
330
A
100
AcDbEntity
  8
MODEL
100
AcDbLine
 10
383.5151488011984
 20
658.5435794342624
 30
0.0
 11
383.5151488011984
 21
622.5435809842614
 31
0.0
  0
LINE
  5
1856
330
A
100
AcDbEntity
  8
MODEL
100
AcDbLine
 10
385.5151528531974
 20
658.5435794342624
 30
0.0
 11
385.5151528531974
 21
622.5435809842614
 31
0.0
  0
LINE
  5
1857
330
A
100
AcDbEntity
  8
MODEL
100
AcDbLine
 10
387.5151569072009
 20
658.5435794342624
 30
0.0
 11
387.5151569072009
 21
622.5435809842614
 31
0.0
  0
LINE
  5
1858
330
A
100
AcDbEntity
  8
MODEL
100
AcDbLine
 10
389.5151460591956
 20
658.5435794342624
 30
0.0
 11
389.5151460591956
 21
622.5435809842614
 31
0.0
  0
LINE
  5
1859
330
A
100
AcDbEntity
  8
MODEL
100
AcDbLine
 10
391.5151501111982
 20
658.5435794342624
 30
0.0
 11
391.5151501111982
 21
622.5435809842614
 31
0.0
  0
LINE
  5
185A
330
A
100
AcDbEntity
  8
MODEL
100
AcDbLine
 10
393.5151541652017
 20
658.5435794342624
 30
0.0
 11
393.5151541652017
 21
622.5435809842614
 31
0.0
  0
LINE
  5
185B
330
A
100
AcDbEntity
  8
MODEL
100
AcDbLine
 10
395.5151582191979
 20
658.5435794342624
 30
0.0
 11
395.5151582191979
 21
622.5435809842614
 31
0.0
  0
LINE
  5
185C
330
A
100
AcDbEntity
  8
MODEL
100
AcDbLine
 10
397.5151473711962
 20
658.5435794342624
 30
0.0
 11
397.5151473711962
 21
622.5435809842614
 31
0.0
  0
LINE
  5
185D
330
A
100
AcDbEntity
  8
MODEL
100
AcDbLine
 10
399.5151514231989
 20
658.5435794342624
 30
0.0
 11
399.5151514231989
 21
622.5435809842614
 31
0.0
  0
LINE
  5
185E
330
A
100
AcDbEntity
  8
MODEL
100
AcDbLine
 10
401.5151554771987
 20
658.5435794342624
 30
0.0
 11
401.5151554771987
 21
622.5435809842614
 31
0.0
  0
LINE
  5
185F
330
A
100
AcDbEntity
  8
MODEL
100
AcDbLine
 10
403.5151595291977
 20
658.5435794342624
 30
0.0
 11
403.5151595291977
 21
622.5435809842614
 31
0.0
  0
LINE
  5
1860
330
A
100
AcDbEntity
  8
MODEL
100
AcDbLine
 10
405.5151486811997
 20
658.5435794342624
 30
0.0
 11
405.5151486811997
 21
622.5435809842614
 31
0.0
  0
LINE
  5
1861
330
A
100
AcDbEntity
  8
MODEL
100
AcDbLine
 10
410.5151513632013
 20
654.5435806422614
 30
0.0
 11
410.5151513632013
 21
626.5435797762615
 31
0.0
  0
LINE
  5
1862
330
A
100
AcDbEntity
  8
MODEL
100
AcDbLine
 10
407.5151527351995
 20
658.5435794342624
 30
0.0
 11
407.5151527351995
 21
622.5435809842614
 31
0.0
  0
LINE
  5
1863
330
A
100
AcDbEntity
  8
MODEL
100
AcDbLine
 10
274.5151663251968
 20
656.0435799562623
 30
0.0
 11
274.5151663251968
 21
625.0435804622615
 31
0.0
  0
LINE
  5
1864
330
A
100
AcDbEntity
  8
MODEL
100
AcDbLine
 10
276.5151405752008
 20
656.0435799562623
 30
0.0
 11
276.5151405752008
 21
625.0435804622615
 31
0.0
  0
LINE
  5
1865
330
A
100
AcDbEntity
  8
MODEL
100
AcDbLine
 10
288.5151499931967
 20
656.0435799562623
 30
0.0
 11
288.5151499931967
 21
625.0435804622615
 31
0.0
  0
LINE
  5
1866
330
A
100
AcDbEntity
  8
MODEL
100
AcDbLine
 10
290.5151540451993
 20
656.0435799562623
 30
0.0
 11
290.5151540451993
 21
625.0435804622615
 31
0.0
  0
LINE
  5
1867
330
A
100
AcDbEntity
  8
MODEL
100
AcDbLine
 10
225.5151415291989
 20
656.0435799562623
 30
0.0
 11
225.5151415291989
 21
625.0435804622615
 31
0.0
  0
LINE
  5
1868
330
A
100
AcDbEntity
  8
MODEL
100
AcDbLine
 10
300.5151594111999
 20
656.0435799562623
 30
0.0
 11
300.5151594111999
 21
625.0435804622615
 31
0.0
  0
LINE
  5
1869
330
A
100
AcDbEntity
  8
MODEL
100
AcDbLine
 10
576.2651519891992
 20
613.0435805522615
 30
0.0
 11
488.7651534791953
 21
613.0435805522615
 31
0.0
  0
LINE
  5
186A
330
A
100
AcDbEntity
  8
MODEL
100
AcDbLine
 10
488.7651534791953
 20
668.0435805522617
 30
0.0
 11
576.2651519891992
 21
668.0435805522617
 31
0.0
  0
SPLINE
  5
186B
330
A
100
AcDbEntity
  8
MODEL
100
AcDbSpline
210
0.0
220
0.0
230
1.0
 70
     8
 71
     3
 72
    19
 73
    15
 74
     0
 42
0.000000001
 43
0.00000001
 40
0.0
 40
0.0
 40
0.0
 40
0.0
 40
0.0269453047316585
 40
0.1342455371769482
 40
0.2451698833895053
 40
0.3516903740832943
 40
0.4612703866807588
 40
0.4650339346359108
 40
0.5670312329110352
 40
0.6716393970653426
 40
0.7691354589756025
 40
0.8692232801472534
 40
0.9694180668573235
 40
1.0
 40
1.0
 40
1.0
 40
1.0
 10
492.060321760448
 20
640.5435802092273
 30
0.0
 10
492.0589284758612
 20
640.2958266810423
 30
0.0
 10
492.0519869237219
 20
639.0614815581979
 30
0.0
 10
491.9263370323574
 20
636.8144432124476
 30
0.0
 10
491.5703802995636
 20
633.9632128866509
 30
0.0
 10
491.0645421691265
 20
631.30109041911
 30
0.0
 10
490.6678524509302
 20
629.6922479841327
 30
0.0
 10
490.2740281695119
 20
628.2328252868468
 30
0.0
 10
489.8837044753022
 20
626.9078978718056
 30
0.0
 10
489.3616707440165
 20
625.3336248570962
 30
0.0
 10
488.9294687439437
 20
624.1303301411448
 30
0.0
 10
488.6425967706095
 20
623.3712025095577
 30
0.0
 10
488.5049913768821
 20
623.017383163054
 30
0.0
 10
488.5288063715675
 20
623.0787695270232
 30
0.0
 10
488.5343754711434
 20
623.0931246330478
 30
0.0
  0
SPLINE
  5
186C
330
A
100
AcDbEntity
  8
MODEL
100
AcDbSpline
210
0.0
220
0.0
230
1.0
 70
     8
 71
     3
 72
    17
 73
    13
 74
     0
 42
0.000000001
 43
0.00000001
 40
0.0
 40
0.0
 40
0.0
 40
0.0
 40
0.0883056982597304
 40
0.1960396663878477
 40
0.3044492023970344
 40
0.416349276289386
 40
0.5202336978791732
 40
0.6268427037886705
 40
0.7246074036918396
 40
0.8247819654424356
 40
0.9114475119969789
 40
0.9999999999999999
 40
0.9999999999999999
 40
0.9999999999999999
 40
0.9999999999999999
 10
488.5272489908061
 20
658.0123586257436
 30
0.0
 10
488.5355360755752
 20
657.9912199613649
 30
0.0
 10
488.5539334991413
 20
657.9442918831741
 30
0.0
 10
488.8139255966821
 20
657.2675835199965
 30
0.0
 10
489.2400278230348
 20
656.1032346800552
 30
0.0
 10
489.7846490007146
 20
654.4937202672394
 30
0.0
 10
490.3792210396464
 20
652.517106256248
 30
0.0
 10
490.9422111970603
 20
650.3164435537313
 30
0.0
 10
491.4364577471028
 20
647.8941559474555
 30
0.0
 10
491.7929466111423
 20
645.4490475157521
 30
0.0
 10
492.0185838869152
 20
642.971130477002
 30
0.0
 10
492.0463096088611
 20
641.3585523064779
 30
0.0
 10
492.060321760448
 20
640.5435802092273
 30
0.0
  0
LINE
  5
186D
330
A
100
AcDbEntity
  8
MODEL
100
AcDbLine
 10
474.0151533911999
 20
1025.13811155801
 30
0.0
 11
487.0151536591952
 21
1025.13811155801
 31
0.0
  0
LINE
  5
186E
330
A
100
AcDbEntity
  8
MODEL
100
AcDbLine
 10
487.0151536591952
 20
1067.13811099201
 30
0.0
 11
474.0151533911999
 21
1067.13811099201
 31
0.0
  0
LINE
  5
186F
330
A
100
AcDbEntity
  8
MODEL
100
AcDbLine
 10
439.5151505291983
 20
1064.388111008011
 30
0.0
 11
437.5151539271978
 21
1062.38811068001
 31
0.0
  0
LINE
  5
1870
330
A
100
AcDbEntity
  8
MODEL
100
AcDbLine
 10
437.5151539271978
 20
1029.88811187201
 30
0.0
 11
439.5151505291983
 21
1027.888111544011
 31
0.0
  0
LINE
  5
1871
330
A
100
AcDbEntity
  8
MODEL
100
AcDbLine
 10
474.0151533911999
 20
1064.388111008011
 30
0.0
 11
439.5151505291983
 21
1064.388111008011
 31
0.0
  0
LINE
  5
1872
330
A
100
AcDbEntity
  8
MODEL
100
AcDbLine
 10
439.5151505291983
 20
1027.888111544011
 30
0.0
 11
474.0151533911999
 21
1027.888111544011
 31
0.0
  0
LINE
  5
1873
330
A
100
AcDbEntity
  8
MODEL
100
AcDbLine
 10
375.5151474891977
 20
1028.13811205001
 30
0.0
 11
377.515151543194
 21
1032.138110844011
 31
0.0
  0
LINE
  5
1874
330
A
100
AcDbEntity
  8
MODEL
100
AcDbLine
 10
377.515151543194
 20
1060.138111708011
 30
0.0
 11
375.5151474891977
 21
1064.138110500011
 31
0.0
  0
LINE
  5
1875
330
A
100
AcDbEntity
  8
MODEL
100
AcDbLine
 10
383.5151488011984
 20
1028.13811205001
 30
0.0
 11
385.5151528531974
 21
1032.138110844011
 31
0.0
  0
LINE
  5
1876
330
A
100
AcDbEntity
  8
MODEL
100
AcDbLine
 10
385.5151528531974
 20
1060.138111708011
 30
0.0
 11
383.5151488011984
 21
1064.138110500011
 31
0.0
  0
LINE
  5
1877
330
A
100
AcDbEntity
  8
MODEL
100
AcDbLine
 10
367.5151461791979
 20
1028.13811205001
 30
0.0
 11
369.5151502311969
 21
1032.138110844011
 31
0.0
  0
LINE
  5
1878
330
A
100
AcDbEntity
  8
MODEL
100
AcDbLine
 10
369.5151502311969
 20
1060.138111708011
 30
0.0
 11
367.5151461791979
 21
1064.138110500011
 31
0.0
  0
LINE
  5
1879
330
A
100
AcDbEntity
  8
MODEL
100
AcDbLine
 10
399.5151514231989
 20
1028.13811205001
 30
0.0
 11
401.5151554771987
 21
1032.138110844011
 31
0.0
  0
LINE
  5
187A
330
A
100
AcDbEntity
  8
MODEL
100
AcDbLine
 10
401.5151554771987
 20
1060.138111708011
 30
0.0
 11
399.5151514231989
 21
1064.138110500011
 31
0.0
  0
LINE
  5
187B
330
A
100
AcDbEntity
  8
MODEL
100
AcDbLine
 10
359.5151597672016
 20
1028.13811205001
 30
0.0
 11
361.5151489191999
 21
1032.138110844011
 31
0.0
  0
LINE
  5
187C
330
A
100
AcDbEntity
  8
MODEL
100
AcDbLine
 10
361.5151489191999
 20
1060.138111708011
 30
0.0
 11
359.5151597672016
 21
1064.138110500011
 31
0.0
  0
LINE
  5
187D
330
A
100
AcDbEntity
  8
MODEL
100
AcDbLine
 10
403.5151595291977
 20
1028.13811205001
 30
0.0
 11
405.5151486811997
 21
1032.138110844011
 31
0.0
  0
LINE
  5
187E
330
A
100
AcDbEntity
  8
MODEL
100
AcDbLine
 10
405.5151486811997
 20
1060.138111708011
 30
0.0
 11
403.5151595291977
 21
1064.138110500011
 31
0.0
  0
LINE
  5
187F
330
A
100
AcDbEntity
  8
MODEL
100
AcDbLine
 10
363.5151529731961
 20
1028.13811205001
 30
0.0
 11
365.515157027196
 21
1032.138110844011
 31
0.0
  0
LINE
  5
1880
330
A
100
AcDbEntity
  8
MODEL
100
AcDbLine
 10
365.515157027196
 20
1060.138111708011
 30
0.0
 11
363.5151529731961
 21
1064.138110500011
 31
0.0
  0
LINE
  5
1881
330
A
100
AcDbEntity
  8
MODEL
100
AcDbLine
 10
361.5151489191999
 20
1028.13811205001
 30
0.0
 11
363.5151529731961
 21
1032.138110844011
 31
0.0
  0
LINE
  5
1882
330
A
100
AcDbEntity
  8
MODEL
100
AcDbLine
 10
363.5151529731961
 20
1060.138111708011
 30
0.0
 11
361.5151489191999
 21
1064.138110500011
 31
0.0
  0
LINE
  5
1883
330
A
100
AcDbEntity
  8
MODEL
100
AcDbLine
 10
377.515151543194
 20
1028.13811205001
 30
0.0
 11
379.5151555951966
 21
1032.138110844011
 31
0.0
  0
LINE
  5
1884
330
A
100
AcDbEntity
  8
MODEL
100
AcDbLine
 10
379.5151555951966
 20
1060.138111708011
 30
0.0
 11
377.515151543194
 21
1064.138110500011
 31
0.0
  0
LINE
  5
1885
330
A
100
AcDbEntity
  8
MODEL
100
AcDbLine
 10
379.5151555951966
 20
1028.13811205001
 30
0.0
 11
381.5151596492001
 21
1032.138110844011
 31
0.0
  0
LINE
  5
1886
330
A
100
AcDbEntity
  8
MODEL
100
AcDbLine
 10
381.5151596492001
 20
1060.138111708011
 30
0.0
 11
379.5151555951966
 21
1064.138110500011
 31
0.0
  0
LINE
  5
1887
330
A
100
AcDbEntity
  8
MODEL
100
AcDbLine
 10
331.5151477271979
 20
1028.13811205001
 30
0.0
 11
333.5151517811978
 21
1032.138110844011
 31
0.0
  0
LINE
  5
1888
330
A
100
AcDbEntity
  8
MODEL
100
AcDbLine
 10
333.5151517811978
 20
1060.138111708011
 30
0.0
 11
331.5151477271979
 21
1064.138110500011
 31
0.0
  0
LINE
  5
1889
330
A
100
AcDbEntity
  8
MODEL
100
AcDbLine
 10
365.515157027196
 20
1028.13811205001
 30
0.0
 11
367.5151461791979
 21
1032.138110844011
 31
0.0
  0
LINE
  5
188A
330
A
100
AcDbEntity
  8
MODEL
100
AcDbLine
 10
367.5151461791979
 20
1060.138111708011
 30
0.0
 11
365.515157027196
 21
1064.138110500011
 31
0.0
  0
LINE
  5
188B
330
A
100
AcDbEntity
  8
MODEL
100
AcDbLine
 10
323.5151464171945
 20
1028.13811205001
 30
0.0
 11
325.5151504691971
 21
1032.138110844011
 31
0.0
  0
LINE
  5
188C
330
A
100
AcDbEntity
  8
MODEL
100
AcDbLine
 10
325.5151504691971
 20
1060.138111708011
 30
0.0
 11
323.5151464171945
 21
1064.138110500011
 31
0.0
  0
LINE
  5
188D
330
A
100
AcDbEntity
  8
MODEL
100
AcDbLine
 10
345.5151462971958
 20
1028.13811205001
 30
0.0
 11
347.5151503511993
 21
1032.138110844011
 31
0.0
  0
LINE
  5
188E
330
A
100
AcDbEntity
  8
MODEL
100
AcDbLine
 10
347.5151503511993
 20
1060.138111708011
 30
0.0
 11
345.5151462971958
 21
1064.138110500011
 31
0.0
  0
LINE
  5
188F
330
A
100
AcDbEntity
  8
MODEL
100
AcDbLine
 10
389.5151460591956
 20
1028.13811205001
 30
0.0
 11
391.5151501111982
 21
1032.138110844011
 31
0.0
  0
LINE
  5
1890
330
A
100
AcDbEntity
  8
MODEL
100
AcDbLine
 10
391.5151501111982
 20
1060.138111708011
 30
0.0
 11
389.5151460591956
 21
1064.138110500011
 31
0.0
  0
LINE
  5
1891
330
A
100
AcDbEntity
  8
MODEL
100
AcDbLine
 10
401.5151554771987
 20
1028.13811205001
 30
0.0
 11
403.5151595291977
 21
1032.138110844011
 31
0.0
  0
LINE
  5
1892
330
A
100
AcDbEntity
  8
MODEL
100
AcDbLine
 10
403.5151595291977
 20
1060.138111708011
 30
0.0
 11
401.5151554771987
 21
1064.138110500011
 31
0.0
  0
LINE
  5
1893
330
A
100
AcDbEntity
  8
MODEL
100
AcDbLine
 10
339.515149039195
 20
1028.13811205001
 30
0.0
 11
341.5151530931985
 21
1032.138110844011
 31
0.0
  0
LINE
  5
1894
330
A
100
AcDbEntity
  8
MODEL
100
AcDbLine
 10
341.5151530931985
 20
1060.138111708011
 30
0.0
 11
339.515149039195
 21
1064.138110500011
 31
0.0
  0
LINE
  5
1895
330
A
100
AcDbEntity
  8
MODEL
100
AcDbLine
 10
385.5151528531974
 20
1028.13811205001
 30
0.0
 11
387.5151569072009
 21
1032.138110844011
 31
0.0
  0
LINE
  5
1896
330
A
100
AcDbEntity
  8
MODEL
100
AcDbLine
 10
387.5151569072009
 20
1060.138111708011
 30
0.0
 11
385.5151528531974
 21
1064.138110500011
 31
0.0
  0
LINE
  5
1897
330
A
100
AcDbEntity
  8
MODEL
100
AcDbLine
 10
355.5151516611991
 20
1028.13811205001
 30
0.0
 11
357.5151557151989
 21
1032.138110844011
 31
0.0
  0
LINE
  5
1898
330
A
100
AcDbEntity
  8
MODEL
100
AcDbLine
 10
357.5151557151989
 20
1060.138111708011
 30
0.0
 11
355.5151516611991
 21
1064.138110500011
 31
0.0
  0
LINE
  5
1899
330
A
100
AcDbEntity
  8
MODEL
100
AcDbLine
 10
357.5151557151989
 20
1028.13811205001
 30
0.0
 11
359.5151597672016
 21
1032.138110844011
 31
0.0
  0
LINE
  5
189A
330
A
100
AcDbEntity
  8
MODEL
100
AcDbLine
 10
359.5151597672016
 20
1060.138111708011
 30
0.0
 11
357.5151557151989
 21
1064.138110500011
 31
0.0
  0
LINE
  5
189B
330
A
100
AcDbEntity
  8
MODEL
100
AcDbLine
 10
337.5151598872003
 20
1028.13811205001
 30
0.0
 11
339.515149039195
 21
1032.138110844011
 31
0.0
  0
LINE
  5
189C
330
A
100
AcDbEntity
  8
MODEL
100
AcDbLine
 10
339.515149039195
 20
1060.138111708011
 30
0.0
 11
337.5151598872003
 21
1064.138110500011
 31
0.0
  0
LINE
  5
189D
330
A
100
AcDbEntity
  8
MODEL
100
AcDbLine
 10
351.5151584571981
 20
1028.13811205001
 30
0.0
 11
353.5151476092001
 21
1032.138110844011
 31
0.0
  0
LINE
  5
189E
330
A
100
AcDbEntity
  8
MODEL
100
AcDbLine
 10
353.5151476092001
 20
1060.138111708011
 30
0.0
 11
351.5151584571981
 21
1064.138110500011
 31
0.0
  0
LINE
  5
189F
330
A
100
AcDbEntity
  8
MODEL
100
AcDbLine
 10
321.5151572651962
 20
1028.13811205001
 30
0.0
 11
323.5151464171945
 21
1032.138110844011
 31
0.0
  0
LINE
  5
18A0
330
A
100
AcDbEntity
  8
MODEL
100
AcDbLine
 10
323.5151464171945
 20
1060.138111708011
 30
0.0
 11
321.5151572651962
 21
1064.138110500011
 31
0.0
  0
LINE
  5
18A1
330
A
100
AcDbEntity
  8
MODEL
100
AcDbLine
 10
407.5151527351995
 20
1028.13811205001
 30
0.0
 11
410.5151513632013
 21
1032.138110844011
 31
0.0
  0
LINE
  5
18A2
330
A
100
AcDbEntity
  8
MODEL
100
AcDbLine
 10
410.5151513632013
 20
1060.138111708011
 30
0.0
 11
407.5151527351995
 21
1064.138110500011
 31
0.0
  0
LINE
  5
18A3
330
A
100
AcDbEntity
  8
MODEL
100
AcDbLine
 10
325.5151504691971
 20
1028.13811205001
 30
0.0
 11
327.515154523197
 21
1032.138110844011
 31
0.0
  0
LINE
  5
18A4
330
A
100
AcDbEntity
  8
MODEL
100
AcDbLine
 10
327.515154523197
 20
1060.138111708011
 30
0.0
 11
325.5151504691971
 21
1064.138110500011
 31
0.0
  0
LINE
  5
18A5
330
A
100
AcDbEntity
  8
MODEL
100
AcDbLine
 10
369.5151502311969
 20
1028.13811205001
 30
0.0
 11
371.5151542851968
 21
1032.138110844011
 31
0.0
  0
LINE
  5
18A6
330
A
100
AcDbEntity
  8
MODEL
100
AcDbLine
 10
371.5151542851968
 20
1060.138111708011
 30
0.0
 11
369.5151502311969
 21
1064.138110500011
 31
0.0
  0
LINE
  5
18A7
330
A
100
AcDbEntity
  8
MODEL
100
AcDbLine
 10
381.5151596492001
 20
1028.13811205001
 30
0.0
 11
383.5151488011984
 21
1032.138110844011
 31
0.0
  0
LINE
  5
18A8
330
A
100
AcDbEntity
  8
MODEL
100
AcDbLine
 10
383.5151488011984
 20
1060.138111708011
 30
0.0
 11
381.5151596492001
 21
1064.138110500011
 31
0.0
  0
LINE
  5
18A9
330
A
100
AcDbEntity
  8
MODEL
100
AcDbLine
 10
373.5151583371994
 20
1028.13811205001
 30
0.0
 11
375.5151474891977
 21
1032.138110844011
 31
0.0
  0
LINE
  5
18AA
330
A
100
AcDbEntity
  8
MODEL
100
AcDbLine
 10
375.5151474891977
 20
1060.138111708011
 30
0.0
 11
373.5151583371994
 21
1064.138110500011
 31
0.0
  0
LINE
  5
18AB
330
A
100
AcDbEntity
  8
MODEL
100
AcDbLine
 10
393.5151541652017
 20
1028.13811205001
 30
0.0
 11
395.5151582191979
 21
1032.138110844011
 31
0.0
  0
LINE
  5
18AC
330
A
100
AcDbEntity
  8
MODEL
100
AcDbLine
 10
395.5151582191979
 20
1060.138111708011
 30
0.0
 11
393.5151541652017
 21
1064.138110500011
 31
0.0
  0
LINE
  5
18AD
330
A
100
AcDbEntity
  8
MODEL
100
AcDbLine
 10
353.5151476092001
 20
1028.13811205001
 30
0.0
 11
355.5151516611991
 21
1032.138110844011
 31
0.0
  0
LINE
  5
18AE
330
A
100
AcDbEntity
  8
MODEL
100
AcDbLine
 10
355.5151516611991
 20
1060.138111708011
 30
0.0
 11
353.5151476092001
 21
1064.138110500011
 31
0.0
  0
LINE
  5
18AF
330
A
100
AcDbEntity
  8
MODEL
100
AcDbLine
 10
333.5151517811978
 20
1028.13811205001
 30
0.0
 11
335.5151558351977
 21
1032.138110844011
 31
0.0
  0
LINE
  5
18B0
330
A
100
AcDbEntity
  8
MODEL
100
AcDbLine
 10
335.5151558351977
 20
1060.138111708011
 30
0.0
 11
333.5151517811978
 21
1064.138110500011
 31
0.0
  0
LINE
  5
18B1
330
A
100
AcDbEntity
  8
MODEL
100
AcDbLine
 10
335.5151558351977
 20
1028.13811205001
 30
0.0
 11
337.5151598872003
 21
1032.138110844011
 31
0.0
  0
LINE
  5
18B2
330
A
100
AcDbEntity
  8
MODEL
100
AcDbLine
 10
337.5151598872003
 20
1060.138111708011
 30
0.0
 11
335.5151558351977
 21
1064.138110500011
 31
0.0
  0
LINE
  5
18B3
330
A
100
AcDbEntity
  8
MODEL
100
AcDbLine
 10
347.5151503511993
 20
1028.13811205001
 30
0.0
 11
349.5151544031983
 21
1032.138110844011
 31
0.0
  0
LINE
  5
18B4
330
A
100
AcDbEntity
  8
MODEL
100
AcDbLine
 10
349.5151544031983
 20
1060.138111708011
 30
0.0
 11
347.5151503511993
 21
1064.138110500011
 31
0.0
  0
LINE
  5
18B5
330
A
100
AcDbEntity
  8
MODEL
100
AcDbLine
 10
329.515158575196
 20
1028.13811205001
 30
0.0
 11
331.5151477271979
 21
1032.138110844011
 31
0.0
  0
LINE
  5
18B6
330
A
100
AcDbEntity
  8
MODEL
100
AcDbLine
 10
331.5151477271979
 20
1060.138111708011
 30
0.0
 11
329.515158575196
 21
1064.138110500011
 31
0.0
  0
LINE
  5
18B7
330
A
100
AcDbEntity
  8
MODEL
100
AcDbLine
 10
341.5151530931985
 20
1028.13811205001
 30
0.0
 11
343.5151571451938
 21
1032.138110844011
 31
0.0
  0
LINE
  5
18B8
330
A
100
AcDbEntity
  8
MODEL
100
AcDbLine
 10
343.5151571451938
 20
1060.138111708011
 30
0.0
 11
341.5151530931985
 21
1064.138110500011
 31
0.0
  0
LINE
  5
18B9
330
A
100
AcDbEntity
  8
MODEL
100
AcDbLine
 10
387.5151569072009
 20
1028.13811205001
 30
0.0
 11
389.5151460591956
 21
1032.138110844011
 31
0.0
  0
LINE
  5
18BA
330
A
100
AcDbEntity
  8
MODEL
100
AcDbLine
 10
389.5151460591956
 20
1060.138111708011
 30
0.0
 11
387.5151569072009
 21
1064.138110500011
 31
0.0
  0
LINE
  5
18BB
330
A
100
AcDbEntity
  8
MODEL
100
AcDbLine
 10
327.515154523197
 20
1028.13811205001
 30
0.0
 11
329.515158575196
 21
1032.138110844011
 31
0.0
  0
LINE
  5
18BC
330
A
100
AcDbEntity
  8
MODEL
100
AcDbLine
 10
329.515158575196
 20
1060.138111708011
 30
0.0
 11
327.515154523197
 21
1064.138110500011
 31
0.0
  0
LINE
  5
18BD
330
A
100
AcDbEntity
  8
MODEL
100
AcDbLine
 10
371.5151542851968
 20
1028.13811205001
 30
0.0
 11
373.5151583371994
 21
1032.138110844011
 31
0.0
  0
LINE
  5
18BE
330
A
100
AcDbEntity
  8
MODEL
100
AcDbLine
 10
373.5151583371994
 20
1060.138111708011
 30
0.0
 11
371.5151542851968
 21
1064.138110500011
 31
0.0
  0
LINE
  5
18BF
330
A
100
AcDbEntity
  8
MODEL
100
AcDbLine
 10
349.5151544031983
 20
1028.13811205001
 30
0.0
 11
351.5151584571981
 21
1032.138110844011
 31
0.0
  0
LINE
  5
18C0
330
A
100
AcDbEntity
  8
MODEL
100
AcDbLine
 10
351.5151584571981
 20
1060.138111708011
 30
0.0
 11
349.5151544031983
 21
1064.138110500011
 31
0.0
  0
LINE
  5
18C1
330
A
100
AcDbEntity
  8
MODEL
100
AcDbLine
 10
391.5151501111982
 20
1028.13811205001
 30
0.0
 11
393.5151541652017
 21
1032.138110844011
 31
0.0
  0
LINE
  5
18C2
330
A
100
AcDbEntity
  8
MODEL
100
AcDbLine
 10
393.5151541652017
 20
1060.138111708011
 30
0.0
 11
391.5151501111982
 21
1064.138110500011
 31
0.0
  0
LINE
  5
18C3
330
A
100
AcDbEntity
  8
MODEL
100
AcDbLine
 10
397.5151473711962
 20
1028.13811205001
 30
0.0
 11
399.5151514231989
 21
1032.138110844011
 31
0.0
  0
LINE
  5
18C4
330
A
100
AcDbEntity
  8
MODEL
100
AcDbLine
 10
399.5151514231989
 20
1060.138111708011
 30
0.0
 11
397.5151473711962
 21
1064.138110500011
 31
0.0
  0
LINE
  5
18C5
330
A
100
AcDbEntity
  8
MODEL
100
AcDbLine
 10
343.5151571451938
 20
1028.13811205001
 30
0.0
 11
345.5151462971958
 21
1032.138110844011
 31
0.0
  0
LINE
  5
18C6
330
A
100
AcDbEntity
  8
MODEL
100
AcDbLine
 10
345.5151462971958
 20
1060.138111708011
 30
0.0
 11
343.5151571451938
 21
1064.138110500011
 31
0.0
  0
LINE
  5
18C7
330
A
100
AcDbEntity
  8
MODEL
100
AcDbLine
 10
405.5151486811997
 20
1028.13811205001
 30
0.0
 11
407.5151527351995
 21
1032.138110844011
 31
0.0
  0
LINE
  5
18C8
330
A
100
AcDbEntity
  8
MODEL
100
AcDbLine
 10
407.5151527351995
 20
1060.138111708011
 30
0.0
 11
405.5151486811997
 21
1064.138110500011
 31
0.0
  0
LINE
  5
18C9
330
A
100
AcDbEntity
  8
MODEL
100
AcDbLine
 10
395.5151582191979
 20
1028.13811205001
 30
0.0
 11
397.5151473711962
 21
1032.138110844011
 31
0.0
  0
LINE
  5
18CA
330
A
100
AcDbEntity
  8
MODEL
100
AcDbLine
 10
397.5151473711962
 20
1060.138111708011
 30
0.0
 11
395.5151582191979
 21
1064.138110500011
 31
0.0
  0
ARC
  5
18CB
330
A
100
AcDbEntity
  8
MODEL
100
AcDbCircle
 10
289.5151527351959
 20
1061.638111276011
 30
0.0
 40
1.000000000000228
100
AcDbArc
 50
0.0
 51
180.0
  0
ARC
  5
18CC
330
A
100
AcDbEntity
  8
MODEL
100
AcDbCircle
 10
289.5151527351959
 20
1030.638111276011
 30
0.0
 40
1.000000000000228
100
AcDbArc
 50
180.0
 51
0.0
  0
ARC
  5
18CD
330
A
100
AcDbEntity
  8
MODEL
100
AcDbCircle
 10
275.5151527351995
 20
1061.638111276011
 30
0.0
 40
0.999999999999944
100
AcDbArc
 50
0.0
 51
180.0
  0
ARC
  5
18CE
330
A
100
AcDbEntity
  8
MODEL
100
AcDbCircle
 10
275.5151527351995
 20
1030.638111276011
 30
0.0
 40
0.999999999999944
100
AcDbArc
 50
180.0
 51
0.0
  0
LINE
  5
18CF
330
A
100
AcDbEntity
  8
MODEL
100
AcDbLine
 10
300.5151594111999
 20
1061.638111022011
 30
0.0
 11
290.5151540451993
 21
1061.638111022011
 31
0.0
  0
LINE
  5
18D0
330
A
100
AcDbEntity
  8
MODEL
100
AcDbLine
 10
290.5151540451993
 20
1030.63811152801
 30
0.0
 11
300.5151594111999
 21
1030.63811152801
 31
0.0
  0
LINE
  5
18D1
330
A
100
AcDbEntity
  8
MODEL
100
AcDbLine
 10
288.5151499931967
 20
1061.638111022011
 30
0.0
 11
276.5151405752008
 21
1061.638111022011
 31
0.0
  0
LINE
  5
18D2
330
A
100
AcDbEntity
  8
MODEL
100
AcDbLine
 10
276.5151405752008
 20
1030.63811152801
 30
0.0
 11
288.5151499931967
 21
1030.63811152801
 31
0.0
  0
LINE
  5
18D3
330
A
100
AcDbEntity
  8
MODEL
100
AcDbLine
 10
274.5151663251968
 20
1061.638111022011
 30
0.0
 11
225.5151415291989
 21
1061.638111022011
 31
0.0
  0
LINE
  5
18D4
330
A
100
AcDbEntity
  8
MODEL
100
AcDbLine
 10
225.5151415291989
 20
1030.63811152801
 30
0.0
 11
274.5151663251968
 21
1030.63811152801
 31
0.0
  0
LINE
  5
18D5
330
A
100
AcDbEntity
  8
MODEL
100
AcDbLine
 10
437.5151539271978
 20
1060.138111708011
 30
0.0
 11
410.5151513632013
 21
1060.138111708011
 31
0.0
  0
LINE
  5
18D6
330
A
100
AcDbEntity
  8
MODEL
100
AcDbLine
 10
410.5151513632013
 20
1032.138110844011
 30
0.0
 11
437.5151539271978
 21
1032.138110844011
 31
0.0
  0
LINE
  5
18D7
330
A
100
AcDbEntity
  8
MODEL
100
AcDbLine
 10
321.5151572651962
 20
1058.38811095401
 30
0.0
 11
300.5151594111999
 21
1058.38811095401
 31
0.0
  0
LINE
  5
18D8
330
A
100
AcDbEntity
  8
MODEL
100
AcDbLine
 10
300.5151594111999
 20
1033.888111596011
 30
0.0
 11
321.5151572651962
 21
1033.888111596011
 31
0.0
  0
CIRCLE
  5
18D9
330
A
100
AcDbEntity
  8
MODEL
100
AcDbCircle
 10
532.5151527351995
 20
1046.13811127601
 30
0.0
 40
23.99999999999978
  0
CIRCLE
  5
18DA
330
A
100
AcDbEntity
  8
MODEL
100
AcDbCircle
 10
532.5151527351995
 20
1046.13811127601
 30
0.0
 40
30.50000000000012
  0
SPLINE
  5
18DB
330
A
100
AcDbEntity
  8
MODEL
100
AcDbSpline
210
0.0
220
0.0
230
1.0
 70
     8
 71
     3
 72
    10
 73
     6
 74
     0
 42
0.000000001
 43
0.00000001
 40
0.0
 40
0.0
 40
0.0
 40
0.0
 40
0.3879558316259427
 40
0.9300652910523532
 40
1.0
 40
1.0
 40
1.0
 40
1.0
 10
491.8861085596368
 20
1063.2289552658
 30
0.0
 10
491.8519177109524
 20
1063.208183649017
 30
0.0
 10
491.7699503346635
 20
1063.158386846817
 30
0.0
 10
491.6637742158241
 20
1063.128223016189
 30
0.0
 10
491.601102610101
 20
1063.138619285409
 30
0.0
 10
491.593941492109
 20
1063.139807206314
 30
0.0
  0
SPLINE
  5
18DC
330
A
100
AcDbEntity
  8
MODEL
100
AcDbSpline
210
0.0
220
0.0
230
1.0
 70
     8
 71
     3
 72
    14
 73
    10
 74
     0
 42
0.000000001
 43
0.00000001
 40
0.0
 40
0.0
 40
0.0
 40
0.0
 40
0.1968694424058731
 40
0.4276513466570652
 40
0.5615039690729035
 40
0.6392642667005644
 40
0.7076400387605266
 40
0.8060676987235712
 40
1.0
 40
1.0
 40
1.0
 40
1.0
 10
491.9259952428661
 20
1029.015471932212
 30
0.0
 10
491.9412040636385
 20
1029.002401893403
 30
0.0
 10
491.9742415559344
 20
1028.974010388706
 30
0.0
 10
492.0087391316342
 20
1028.928467012008
 30
0.0
 10
492.0318574781927
 20
1028.891536540992
 30
0.0
 10
492.0418934974409
 20
1028.873111005257
 30
0.0
 10
492.0471918178123
 20
1028.862807671504
 30
0.0
 10
492.0514257940126
 20
1028.854137527432
 30
0.0
 10
492.0525859179438
 20
1028.85163667427
 30
0.0
 10
492.0533554675899
 20
1028.849977773348
 30
0.0
  0
SPLINE
  5
18DD
330
A
100
AcDbEntity
  8
MODEL
100
AcDbSpline
210
0.0
220
0.0
230
1.0
 70
     8
 71
     3
 72
    11
 73
     7
 74
     0
 42
0.000000001
 43
0.00000001
 40
0.0
 40
0.0
 40
0.0
 40
0.0
 40
0.1613047529464655
 40
0.5644050626388833
 40
0.9053113981621275
 40
1.0
 40
1.0
 40
1.0
 40
1.0
 10
491.6357392492578
 20
1029.131745693008
 30
0.0
 10
491.6530220725913
 20
1029.132101539014
 30
0.0
 10
491.7134946427182
 20
1029.133346643598
 30
0.0
 10
491.8055209553936
 20
1029.097041461552
 30
0.0
 10
491.8850746022731
 20
1029.054521772893
 30
0.0
 10
491.9186883627558
 20
1029.02244475815
 30
0.0
 10
491.9259952428661
 20
1029.015471932212
 30
0.0
  0
ARC
  5
18DE
330
A
100
AcDbEntity
  8
MODEL
100
AcDbCircle
 10
487.2651527351959
 20
1062.888111276011
 30
0.0
 40
0.250000000000342
100
AcDbArc
 50
90.0
 51
180.0
  0
ARC
  5
18DF
330
A
100
AcDbEntity
  8
MODEL
100
AcDbCircle
 10
487.2651527351959
 20
1029.388111276011
 30
0.0
 40
0.250000000000342
100
AcDbArc
 50
180.0
 51
270.0
  0
LINE
  5
18E0
330
A
100
AcDbEntity
  8
MODEL
100
AcDbLine
 10
487.2651541652017
 20
1029.13811035201
 30
0.0
 11
491.6006060371988
 21
1029.13811035201
 31
0.0
  0
LINE
  5
18E1
330
A
100
AcDbEntity
  8
MODEL
100
AcDbLine
 10
491.5902758071975
 20
1063.13811220001
 30
0.0
 11
487.2651541652017
 21
1063.13811220001
 31
0.0
  0
LINE
  5
18E2
330
A
100
AcDbEntity
  8
MODEL
100
AcDbLine
 10
487.0151536591952
 20
1066.011864466011
 30
0.0
 11
487.0151536591952
 21
1065.72349533201
 31
0.0
  0
LINE
  5
18E3
330
A
100
AcDbEntity
  8
MODEL
100
AcDbLine
 10
487.0151536591952
 20
1065.72349533201
 30
0.0
 11
475.7651532112
 21
1065.72349533201
 31
0.0
  0
LINE
  5
18E4
330
A
100
AcDbEntity
  8
MODEL
100
AcDbLine
 10
475.7651532112
 20
1062.49278202401
 30
0.0
 11
475.7651532112
 21
1065.72349533201
 31
0.0
  0
LINE
  5
18E5
330
A
100
AcDbEntity
  8
MODEL
100
AcDbLine
 10
487.0151536591952
 20
1062.49278202401
 30
0.0
 11
475.7651532112
 21
1062.49278202401
 31
0.0
  0
LINE
  5
18E6
330
A
100
AcDbEntity
  8
MODEL
100
AcDbLine
 10
487.0151536591952
 20
1062.49278202401
 30
0.0
 11
487.0151536591952
 21
1061.950823066011
 31
0.0
  0
LINE
  5
18E7
330
A
100
AcDbEntity
  8
MODEL
100
AcDbLine
 10
487.0151536591952
 20
1061.950823066011
 30
0.0
 11
475.7651532112
 21
1061.950823066011
 31
0.0
  0
LINE
  5
18E8
330
A
100
AcDbEntity
  8
MODEL
100
AcDbLine
 10
475.7651532112
 20
1057.00108479401
 30
0.0
 11
475.7651532112
 21
1061.950823066011
 31
0.0
  0
LINE
  5
18E9
330
A
100
AcDbEntity
  8
MODEL
100
AcDbLine
 10
487.0151536591952
 20
1057.00108479401
 30
0.0
 11
475.7651532112
 21
1057.00108479401
 31
0.0
  0
LINE
  5
18EA
330
A
100
AcDbEntity
  8
MODEL
100
AcDbLine
 10
487.0151536591952
 20
1057.00108479401
 30
0.0
 11
487.0151536591952
 21
1056.270905544011
 31
0.0
  0
LINE
  5
18EB
330
A
100
AcDbEntity
  8
MODEL
100
AcDbLine
 10
487.0151536591952
 20
1056.270905544011
 30
0.0
 11
475.7651532112
 21
1056.270905544011
 31
0.0
  0
LINE
  5
18EC
330
A
100
AcDbEntity
  8
MODEL
100
AcDbLine
 10
475.7651532112
 20
1050.199153140011
 30
0.0
 11
475.7651532112
 21
1056.270905544011
 31
0.0
  0
LINE
  5
18ED
330
A
100
AcDbEntity
  8
MODEL
100
AcDbLine
 10
487.0151536591952
 20
1050.199153140011
 30
0.0
 11
475.7651532112
 21
1050.199153140011
 31
0.0
  0
LINE
  5
18EE
330
A
100
AcDbEntity
  8
MODEL
100
AcDbLine
 10
487.0151536591952
 20
1050.199153140011
 30
0.0
 11
487.0151536591952
 21
1049.368823186009
 31
0.0
  0
LINE
  5
18EF
330
A
100
AcDbEntity
  8
MODEL
100
AcDbLine
 10
487.0151536591952
 20
1049.368823186009
 30
0.0
 11
475.7651532112
 21
1049.368823186009
 31
0.0
  0
LINE
  5
18F0
330
A
100
AcDbEntity
  8
MODEL
100
AcDbLine
 10
475.7651532112
 20
1042.907399364009
 30
0.0
 11
475.7651532112
 21
1049.368823186009
 31
0.0
  0
LINE
  5
18F1
330
A
100
AcDbEntity
  8
MODEL
100
AcDbLine
 10
487.0151536591952
 20
1042.907399364009
 30
0.0
 11
475.7651532112
 21
1042.907399364009
 31
0.0
  0
LINE
  5
18F2
330
A
100
AcDbEntity
  8
MODEL
100
AcDbLine
 10
487.0151536591952
 20
1042.907399364009
 30
0.0
 11
487.0151536591952
 21
1042.077069410011
 31
0.0
  0
LINE
  5
18F3
330
A
100
AcDbEntity
  8
MODEL
100
AcDbLine
 10
487.0151536591952
 20
1042.077069410011
 30
0.0
 11
475.7651532112
 21
1042.077069410011
 31
0.0
  0
LINE
  5
18F4
330
A
100
AcDbEntity
  8
MODEL
100
AcDbLine
 10
475.7651532112
 20
1036.005317006011
 30
0.0
 11
475.7651532112
 21
1042.077069410011
 31
0.0
  0
LINE
  5
18F5
330
A
100
AcDbEntity
  8
MODEL
100
AcDbLine
 10
487.0151536591952
 20
1036.005317006011
 30
0.0
 11
475.7651532112
 21
1036.005317006011
 31
0.0
  0
LINE
  5
18F6
330
A
100
AcDbEntity
  8
MODEL
100
AcDbLine
 10
487.0151536591952
 20
1036.005317006011
 30
0.0
 11
487.0151536591952
 21
1035.275137756011
 31
0.0
  0
LINE
  5
18F7
330
A
100
AcDbEntity
  8
MODEL
100
AcDbLine
 10
487.0151536591952
 20
1035.275137756011
 30
0.0
 11
475.7651532112
 21
1035.275137756011
 31
0.0
  0
LINE
  5
18F8
330
A
100
AcDbEntity
  8
MODEL
100
AcDbLine
 10
475.7651532112
 20
1030.325399486009
 30
0.0
 11
475.7651532112
 21
1035.275137756011
 31
0.0
  0
LINE
  5
18F9
330
A
100
AcDbEntity
  8
MODEL
100
AcDbLine
 10
487.0151536591952
 20
1030.325399486009
 30
0.0
 11
475.7651532112
 21
1030.325399486009
 31
0.0
  0
LINE
  5
18FA
330
A
100
AcDbEntity
  8
MODEL
100
AcDbLine
 10
487.0151536591952
 20
1030.325399486009
 30
0.0
 11
487.0151536591952
 21
1029.783440528011
 31
0.0
  0
LINE
  5
18FB
330
A
100
AcDbEntity
  8
MODEL
100
AcDbLine
 10
487.0151536591952
 20
1029.783440528011
 30
0.0
 11
475.7651532112
 21
1029.783440528011
 31
0.0
  0
LINE
  5
18FC
330
A
100
AcDbEntity
  8
MODEL
100
AcDbLine
 10
475.7651532112
 20
1026.55272722001
 30
0.0
 11
475.7651532112
 21
1029.783440528011
 31
0.0
  0
LINE
  5
18FD
330
A
100
AcDbEntity
  8
MODEL
100
AcDbLine
 10
487.0151536591952
 20
1026.55272722001
 30
0.0
 11
475.7651532112
 21
1026.55272722001
 31
0.0
  0
LINE
  5
18FE
330
A
100
AcDbEntity
  8
MODEL
100
AcDbLine
 10
487.0151536591952
 20
1026.55272722001
 30
0.0
 11
487.0151536591952
 21
1026.26435808601
 31
0.0
  0
LINE
  5
18FF
330
A
100
AcDbEntity
  8
MODEL
100
AcDbLine
 10
487.0151536591952
 20
1026.26435808601
 30
0.0
 11
475.7651532112
 21
1026.26435808601
 31
0.0
  0
LINE
  5
1900
330
A
100
AcDbEntity
  8
MODEL
100
AcDbLine
 10
475.7651532112
 20
1025.14234348801
 30
0.0
 11
475.7651532112
 21
1026.26435808601
 31
0.0
  0
LINE
  5
1901
330
A
100
AcDbEntity
  8
MODEL
100
AcDbLine
 10
487.0151536591952
 20
1025.14234348801
 30
0.0
 11
475.7651532112
 21
1025.14234348801
 31
0.0
  0
LINE
  5
1902
330
A
100
AcDbEntity
  8
MODEL
100
AcDbLine
 10
487.0151536591952
 20
1025.14234348801
 30
0.0
 11
487.0151536591952
 21
1025.13811155801
 31
0.0
  0
LINE
  5
1903
330
A
100
AcDbEntity
  8
MODEL
100
AcDbLine
 10
487.0151536591952
 20
1067.13811099201
 30
0.0
 11
487.0151536591952
 21
1067.133879062009
 31
0.0
  0
LINE
  5
1904
330
A
100
AcDbEntity
  8
MODEL
100
AcDbLine
 10
487.0151536591952
 20
1067.133879062009
 30
0.0
 11
475.7651532112
 21
1067.133879062009
 31
0.0
  0
LINE
  5
1905
330
A
100
AcDbEntity
  8
MODEL
100
AcDbLine
 10
475.7651532112
 20
1066.011864466011
 30
0.0
 11
475.7651532112
 21
1067.133879062009
 31
0.0
  0
LINE
  5
1906
330
A
100
AcDbEntity
  8
MODEL
100
AcDbLine
 10
487.0151536591952
 20
1066.011864466011
 30
0.0
 11
475.7651532112
 21
1066.011864466011
 31
0.0
  0
LINE
  5
1907
330
A
100
AcDbEntity
  8
MODEL
100
AcDbLine
 10
474.0151533911999
 20
1025.13811155801
 30
0.0
 11
474.0151533911999
 21
1067.13811099201
 31
0.0
  0
LINE
  5
1908
330
A
100
AcDbEntity
  8
MODEL
100
AcDbLine
 10
487.0151536591952
 20
1049.368823186009
 30
0.0
 11
487.0151536591952
 21
1042.907399364009
 31
0.0
  0
LINE
  5
1909
330
A
100
AcDbEntity
  8
MODEL
100
AcDbLine
 10
487.0151536591952
 20
1042.077069410011
 30
0.0
 11
487.0151536591952
 21
1036.005317006011
 31
0.0
  0
LINE
  5
190A
330
A
100
AcDbEntity
  8
MODEL
100
AcDbLine
 10
487.0151536591952
 20
1056.270905544011
 30
0.0
 11
487.0151536591952
 21
1050.199153140011
 31
0.0
  0
LINE
  5
190B
330
A
100
AcDbEntity
  8
MODEL
100
AcDbLine
 10
487.0151536591952
 20
1061.950823066011
 30
0.0
 11
487.0151536591952
 21
1057.00108479401
 31
0.0
  0
LINE
  5
190C
330
A
100
AcDbEntity
  8
MODEL
100
AcDbLine
 10
487.0151536591952
 20
1035.275137756011
 30
0.0
 11
487.0151536591952
 21
1030.325399486009
 31
0.0
  0
LINE
  5
190D
330
A
100
AcDbEntity
  8
MODEL
100
AcDbLine
 10
487.0151536591952
 20
1029.783440528011
 30
0.0
 11
487.0151536591952
 21
1026.55272722001
 31
0.0
  0
LINE
  5
190E
330
A
100
AcDbEntity
  8
MODEL
100
AcDbLine
 10
487.0151536591952
 20
1065.72349533201
 30
0.0
 11
487.0151536591952
 21
1062.49278202401
 31
0.0
  0
LINE
  5
190F
330
A
100
AcDbEntity
  8
MODEL
100
AcDbLine
 10
487.0151536591952
 20
1067.133879062009
 30
0.0
 11
487.0151536591952
 21
1066.011864466011
 31
0.0
  0
LINE
  5
1910
330
A
100
AcDbEntity
  8
MODEL
100
AcDbLine
 10
487.0151536591952
 20
1026.26435808601
 30
0.0
 11
487.0151536591952
 21
1025.14234348801
 31
0.0
  0
LINE
  5
1911
330
A
100
AcDbEntity
  8
MODEL
100
AcDbLine
 10
437.5151539271978
 20
1062.38811068001
 30
0.0
 11
437.5151539271978
 21
1029.88811187201
 31
0.0
  0
LINE
  5
1912
330
A
100
AcDbEntity
  8
MODEL
100
AcDbLine
 10
439.5151505291983
 20
1064.388111008011
 30
0.0
 11
439.5151505291983
 21
1027.888111544011
 31
0.0
  0
LINE
  5
1913
330
A
100
AcDbEntity
  8
MODEL
100
AcDbLine
 10
375.5151474891977
 20
1064.138110500011
 30
0.0
 11
375.5151474891977
 21
1028.13811205001
 31
0.0
  0
LINE
  5
1914
330
A
100
AcDbEntity
  8
MODEL
100
AcDbLine
 10
383.5151488011984
 20
1064.138110500011
 30
0.0
 11
383.5151488011984
 21
1028.13811205001
 31
0.0
  0
LINE
  5
1915
330
A
100
AcDbEntity
  8
MODEL
100
AcDbLine
 10
367.5151461791979
 20
1064.138110500011
 30
0.0
 11
367.5151461791979
 21
1028.13811205001
 31
0.0
  0
LINE
  5
1916
330
A
100
AcDbEntity
  8
MODEL
100
AcDbLine
 10
399.5151514231989
 20
1064.138110500011
 30
0.0
 11
399.5151514231989
 21
1028.13811205001
 31
0.0
  0
LINE
  5
1917
330
A
100
AcDbEntity
  8
MODEL
100
AcDbLine
 10
359.5151597672016
 20
1064.138110500011
 30
0.0
 11
359.5151597672016
 21
1028.13811205001
 31
0.0
  0
LINE
  5
1918
330
A
100
AcDbEntity
  8
MODEL
100
AcDbLine
 10
403.5151595291977
 20
1064.138110500011
 30
0.0
 11
403.5151595291977
 21
1028.13811205001
 31
0.0
  0
LINE
  5
1919
330
A
100
AcDbEntity
  8
MODEL
100
AcDbLine
 10
363.5151529731961
 20
1064.138110500011
 30
0.0
 11
363.5151529731961
 21
1028.13811205001
 31
0.0
  0
LINE
  5
191A
330
A
100
AcDbEntity
  8
MODEL
100
AcDbLine
 10
361.5151489191999
 20
1064.138110500011
 30
0.0
 11
361.5151489191999
 21
1028.13811205001
 31
0.0
  0
LINE
  5
191B
330
A
100
AcDbEntity
  8
MODEL
100
AcDbLine
 10
377.515151543194
 20
1064.138110500011
 30
0.0
 11
377.515151543194
 21
1028.13811205001
 31
0.0
  0
LINE
  5
191C
330
A
100
AcDbEntity
  8
MODEL
100
AcDbLine
 10
379.5151555951966
 20
1064.138110500011
 30
0.0
 11
379.5151555951966
 21
1028.13811205001
 31
0.0
  0
LINE
  5
191D
330
A
100
AcDbEntity
  8
MODEL
100
AcDbLine
 10
331.5151477271979
 20
1064.138110500011
 30
0.0
 11
331.5151477271979
 21
1028.13811205001
 31
0.0
  0
LINE
  5
191E
330
A
100
AcDbEntity
  8
MODEL
100
AcDbLine
 10
365.515157027196
 20
1064.138110500011
 30
0.0
 11
365.515157027196
 21
1028.13811205001
 31
0.0
  0
LINE
  5
191F
330
A
100
AcDbEntity
  8
MODEL
100
AcDbLine
 10
323.5151464171945
 20
1064.138110500011
 30
0.0
 11
323.5151464171945
 21
1028.13811205001
 31
0.0
  0
LINE
  5
1920
330
A
100
AcDbEntity
  8
MODEL
100
AcDbLine
 10
345.5151462971958
 20
1064.138110500011
 30
0.0
 11
345.5151462971958
 21
1028.13811205001
 31
0.0
  0
LINE
  5
1921
330
A
100
AcDbEntity
  8
MODEL
100
AcDbLine
 10
389.5151460591956
 20
1064.138110500011
 30
0.0
 11
389.5151460591956
 21
1028.13811205001
 31
0.0
  0
LINE
  5
1922
330
A
100
AcDbEntity
  8
MODEL
100
AcDbLine
 10
401.5151554771987
 20
1064.138110500011
 30
0.0
 11
401.5151554771987
 21
1028.13811205001
 31
0.0
  0
LINE
  5
1923
330
A
100
AcDbEntity
  8
MODEL
100
AcDbLine
 10
339.515149039195
 20
1064.138110500011
 30
0.0
 11
339.515149039195
 21
1028.13811205001
 31
0.0
  0
LINE
  5
1924
330
A
100
AcDbEntity
  8
MODEL
100
AcDbLine
 10
385.5151528531974
 20
1064.138110500011
 30
0.0
 11
385.5151528531974
 21
1028.13811205001
 31
0.0
  0
LINE
  5
1925
330
A
100
AcDbEntity
  8
MODEL
100
AcDbLine
 10
355.5151516611991
 20
1064.138110500011
 30
0.0
 11
355.5151516611991
 21
1028.13811205001
 31
0.0
  0
LINE
  5
1926
330
A
100
AcDbEntity
  8
MODEL
100
AcDbLine
 10
357.5151557151989
 20
1064.138110500011
 30
0.0
 11
357.5151557151989
 21
1028.13811205001
 31
0.0
  0
LINE
  5
1927
330
A
100
AcDbEntity
  8
MODEL
100
AcDbLine
 10
337.5151598872003
 20
1064.138110500011
 30
0.0
 11
337.5151598872003
 21
1028.13811205001
 31
0.0
  0
LINE
  5
1928
330
A
100
AcDbEntity
  8
MODEL
100
AcDbLine
 10
351.5151584571981
 20
1064.138110500011
 30
0.0
 11
351.5151584571981
 21
1028.13811205001
 31
0.0
  0
LINE
  5
1929
330
A
100
AcDbEntity
  8
MODEL
100
AcDbLine
 10
321.5151572651962
 20
1064.138110500011
 30
0.0
 11
321.5151572651962
 21
1028.13811205001
 31
0.0
  0
LINE
  5
192A
330
A
100
AcDbEntity
  8
MODEL
100
AcDbLine
 10
407.5151527351995
 20
1064.138110500011
 30
0.0
 11
407.5151527351995
 21
1028.13811205001
 31
0.0
  0
LINE
  5
192B
330
A
100
AcDbEntity
  8
MODEL
100
AcDbLine
 10
410.5151513632013
 20
1060.138111708011
 30
0.0
 11
410.5151513632013
 21
1032.138110844011
 31
0.0
  0
LINE
  5
192C
330
A
100
AcDbEntity
  8
MODEL
100
AcDbLine
 10
325.5151504691971
 20
1064.138110500011
 30
0.0
 11
325.5151504691971
 21
1028.13811205001
 31
0.0
  0
LINE
  5
192D
330
A
100
AcDbEntity
  8
MODEL
100
AcDbLine
 10
369.5151502311969
 20
1064.138110500011
 30
0.0
 11
369.5151502311969
 21
1028.13811205001
 31
0.0
  0
LINE
  5
192E
330
A
100
AcDbEntity
  8
MODEL
100
AcDbLine
 10
381.5151596492001
 20
1064.138110500011
 30
0.0
 11
381.5151596492001
 21
1028.13811205001
 31
0.0
  0
LINE
  5
192F
330
A
100
AcDbEntity
  8
MODEL
100
AcDbLine
 10
373.5151583371994
 20
1064.138110500011
 30
0.0
 11
373.5151583371994
 21
1028.13811205001
 31
0.0
  0
LINE
  5
1930
330
A
100
AcDbEntity
  8
MODEL
100
AcDbLine
 10
393.5151541652017
 20
1064.138110500011
 30
0.0
 11
393.5151541652017
 21
1028.13811205001
 31
0.0
  0
LINE
  5
1931
330
A
100
AcDbEntity
  8
MODEL
100
AcDbLine
 10
353.5151476092001
 20
1064.138110500011
 30
0.0
 11
353.5151476092001
 21
1028.13811205001
 31
0.0
  0
LINE
  5
1932
330
A
100
AcDbEntity
  8
MODEL
100
AcDbLine
 10
333.5151517811978
 20
1064.138110500011
 30
0.0
 11
333.5151517811978
 21
1028.13811205001
 31
0.0
  0
LINE
  5
1933
330
A
100
AcDbEntity
  8
MODEL
100
AcDbLine
 10
335.5151558351977
 20
1064.138110500011
 30
0.0
 11
335.5151558351977
 21
1028.13811205001
 31
0.0
  0
LINE
  5
1934
330
A
100
AcDbEntity
  8
MODEL
100
AcDbLine
 10
347.5151503511993
 20
1064.138110500011
 30
0.0
 11
347.5151503511993
 21
1028.13811205001
 31
0.0
  0
LINE
  5
1935
330
A
100
AcDbEntity
  8
MODEL
100
AcDbLine
 10
329.515158575196
 20
1064.138110500011
 30
0.0
 11
329.515158575196
 21
1028.13811205001
 31
0.0
  0
LINE
  5
1936
330
A
100
AcDbEntity
  8
MODEL
100
AcDbLine
 10
341.5151530931985
 20
1064.138110500011
 30
0.0
 11
341.5151530931985
 21
1028.13811205001
 31
0.0
  0
LINE
  5
1937
330
A
100
AcDbEntity
  8
MODEL
100
AcDbLine
 10
387.5151569072009
 20
1064.138110500011
 30
0.0
 11
387.5151569072009
 21
1028.13811205001
 31
0.0
  0
LINE
  5
1938
330
A
100
AcDbEntity
  8
MODEL
100
AcDbLine
 10
327.515154523197
 20
1064.138110500011
 30
0.0
 11
327.515154523197
 21
1028.13811205001
 31
0.0
  0
LINE
  5
1939
330
A
100
AcDbEntity
  8
MODEL
100
AcDbLine
 10
371.5151542851968
 20
1064.138110500011
 30
0.0
 11
371.5151542851968
 21
1028.13811205001
 31
0.0
  0
LINE
  5
193A
330
A
100
AcDbEntity
  8
MODEL
100
AcDbLine
 10
349.5151544031983
 20
1064.138110500011
 30
0.0
 11
349.5151544031983
 21
1028.13811205001
 31
0.0
  0
LINE
  5
193B
330
A
100
AcDbEntity
  8
MODEL
100
AcDbLine
 10
391.5151501111982
 20
1064.138110500011
 30
0.0
 11
391.5151501111982
 21
1028.13811205001
 31
0.0
  0
LINE
  5
193C
330
A
100
AcDbEntity
  8
MODEL
100
AcDbLine
 10
397.5151473711962
 20
1064.138110500011
 30
0.0
 11
397.5151473711962
 21
1028.13811205001
 31
0.0
  0
LINE
  5
193D
330
A
100
AcDbEntity
  8
MODEL
100
AcDbLine
 10
343.5151571451938
 20
1064.138110500011
 30
0.0
 11
343.5151571451938
 21
1028.13811205001
 31
0.0
  0
LINE
  5
193E
330
A
100
AcDbEntity
  8
MODEL
100
AcDbLine
 10
405.5151486811997
 20
1064.138110500011
 30
0.0
 11
405.5151486811997
 21
1028.13811205001
 31
0.0
  0
LINE
  5
193F
330
A
100
AcDbEntity
  8
MODEL
100
AcDbLine
 10
395.5151582191979
 20
1064.138110500011
 30
0.0
 11
395.5151582191979
 21
1028.13811205001
 31
0.0
  0
LINE
  5
1940
330
A
100
AcDbEntity
  8
MODEL
100
AcDbLine
 10
288.5151499931967
 20
1061.638111022011
 30
0.0
 11
288.5151499931967
 21
1030.63811152801
 31
0.0
  0
LINE
  5
1941
330
A
100
AcDbEntity
  8
MODEL
100
AcDbLine
 10
290.5151540451993
 20
1061.638111022011
 30
0.0
 11
290.5151540451993
 21
1030.63811152801
 31
0.0
  0
LINE
  5
1942
330
A
100
AcDbEntity
  8
MODEL
100
AcDbLine
 10
274.5151663251968
 20
1061.638111022011
 30
0.0
 11
274.5151663251968
 21
1030.63811152801
 31
0.0
  0
LINE
  5
1943
330
A
100
AcDbEntity
  8
MODEL
100
AcDbLine
 10
276.5151405752008
 20
1061.638111022011
 30
0.0
 11
276.5151405752008
 21
1030.63811152801
 31
0.0
  0
LINE
  5
1944
330
A
100
AcDbEntity
  8
MODEL
100
AcDbLine
 10
300.5151594111999
 20
1061.638111022011
 30
0.0
 11
300.5151594111999
 21
1030.63811152801
 31
0.0
  0
LINE
  5
1945
330
A
100
AcDbEntity
  8
MODEL
100
AcDbLine
 10
225.5151415291989
 20
1061.638111022011
 30
0.0
 11
225.5151415291989
 21
1030.63811152801
 31
0.0
  0
CIRCLE
  5
1946
330
A
100
AcDbEntity
  8
MODEL
100
AcDbCircle
 10
532.5151527351995
 20
1046.13811127601
 30
0.0
 40
16.00000000000023
  0
CIRCLE
  5
1947
330
A
100
AcDbEntity
  8
MODEL
100
AcDbCircle
 10
532.5151527351995
 20
1046.13811127601
 30
0.0
 40
19.00000000000006
  0
ARC
  5
1948
330
A
100
AcDbEntity
  8
MODEL
100
AcDbCircle
 10
532.5151527351995
 20
1046.13811127601
 30
0.0
 40
6.499999999999996
100
AcDbArc
 50
152.8556773829068
 51
179.4533435538961
  0
ARC
  5
1949
330
A
100
AcDbEntity
  8
MODEL
100
AcDbCircle
 10
532.5151527351995
 20
1046.13811127601
 30
0.0
 40
6.500000000000145
100
AcDbArc
 50
80.85567738292396
 51
135.144322617083
  0
ARC
  5
194A
330
A
100
AcDbEntity
  8
MODEL
100
AcDbCircle
 10
532.5151527351995
 20
1046.13811127601
 30
0.0
 40
6.500000000000013
100
AcDbArc
 50
8.855677382902707
 51
63.14432261710044
  0
ARC
  5
194B
330
A
100
AcDbEntity
  8
MODEL
100
AcDbCircle
 10
532.5151527351995
 20
1046.13811127601
 30
0.0
 40
6.500000000000102
100
AcDbArc
 50
296.855677382896
 51
351.1443226170974
  0
ARC
  5
194C
330
A
100
AcDbEntity
  8
MODEL
100
AcDbCircle
 10
532.5151527351995
 20
1046.13811127601
 30
0.0
 40
6.500000000000385
100
AcDbArc
 50
224.855677382856
 51
279.1443226170754
  0
ARC
  5
194D
330
A
100
AcDbEntity
  8
MODEL
100
AcDbCircle
 10
532.5151527351995
 20
1046.13811127601
 30
0.0
 40
6.499999999999996
100
AcDbArc
 50
179.4533435538961
 51
207.1443226170842
  0
SPLINE
  5
194E
330
A
100
AcDbEntity
  8
MODEL
100
AcDbSpline
210
0.0
220
0.0
230
1.0
 70
     8
 71
     3
 72
    13
 73
     9
 74
     0
 42
0.000000001
 43
0.00000001
 40
0.0
 40
0.0
 40
0.0
 40
0.0
 40
0.0352210737463576
 40
0.1763069426573339
 40
0.3916959866449027
 40
0.6070849804060741
 40
0.8035424755334686
 40
0.9999999999999999
 40
0.9999999999999999
 40
0.9999999999999999
 40
0.9999999999999999
 10
512.1646927717015
 20
1051.135191932986
 30
0.0
 10
512.212206628727
 20
1051.32167562312
 30
0.0
 10
512.4500478406776
 20
1052.255161339639
 30
0.0
 10
513.1363310994388
 20
1054.287270932452
 30
0.0
 10
514.5391496128946
 20
1057.09679537601
 30
0.0
 10
516.5735514006815
 20
1059.87124961866
 30
0.0
 10
518.9386602485542
 20
1062.234128141347
 30
0.0
 10
520.7231573346075
 20
1063.434875782174
 30
0.0
 10
521.6154059442601
 20
1064.035249647417
 30
0.0
  0
SPLINE
  5
194F
330
A
100
AcDbEntity
  8
MODEL
100
AcDbSpline
210
0.0
220
0.0
230
1.0
 70
     8
 71
     3
 72
    16
 73
    12
 74
     0
 42
0.000000001
 43
0.00000001
 40
0.0
 40
0.0
 40
0.0
 40
0.0
 40
0.1030206835989145
 40
0.2072674517671692
 40
0.3115214039366249
 40
0.4261838754298794
 40
0.5408463319164131
 40
0.6583655637656242
 40
0.77589974546434
 40
0.8879498824772606
 40
1.0
 40
1.0
 40
1.0
 40
1.0
 10
534.573888317766
 20
1065.735488903442
 30
0.0
 10
533.5761597285896
 20
1065.841167107272
 30
0.0
 10
531.5688282393207
 20
1066.05378122756
 30
0.0
 10
528.534935565142
 20
1065.78179798588
 30
0.0
 10
525.4673562040775
 20
1065.062561360487
 30
0.0
 10
522.4586136280564
 20
1063.811161559938
 30
0.0
 10
519.5804380470076
 20
1062.027973283978
 30
0.0
 10
517.0224797916676
 20
1059.762151530312
 30
0.0
 10
514.8975075890635
 20
1057.125128769027
 30
0.0
 10
513.2225357553111
 20
1054.233679768186
 30
0.0
 10
512.5173070791284
 20
1052.168021151502
 30
0.0
 10
512.1646927717015
 20
1051.135191932986
 30
0.0
  0
SPLINE
  5
1950
330
A
100
AcDbEntity
  8
MODEL
100
AcDbSpline
210
0.0
220
0.0
230
1.0
 70
     8
 71
     3
 72
    11
 73
     7
 74
     0
 42
0.000000001
 43
0.00000001
 40
0.0
 40
0.0
 40
0.0
 40
0.0
 40
0.0861629201912052
 40
0.4327309431738341
 40
0.7119210241560515
 40
1.0
 40
1.0
 40
1.0
 40
1.0
 10
545.4807108315513
 20
1060.671138350586
 30
0.0
 10
545.2196416350457
 20
1060.905171737616
 30
0.0
 10
543.9084892346114
 20
1062.08054378952
 30
0.0
 10
541.4599629601439
 20
1063.674298717184
 30
0.0
 10
538.0107246547127
 20
1065.128551984485
 30
0.0
 10
535.731405789335
 20
1065.531074139702
 30
0.0
 10
534.573888317766
 20
1065.735488903442
 30
0.0
  0
ARC
  5
1951
330
A
100
AcDbEntity
  8
MODEL
100
AcDbCircle
 10
532.5151527351995
 20
1046.13811127601
 30
0.0
 40
19.47600000000009
100
AcDbArc
 50
48.26243323550398
 51
138.0663835553068
  0
SPLINE
  5
1952
330
A
100
AcDbEntity
  8
MODEL
100
AcDbSpline
210
0.0
220
0.0
230
1.0
 70
     8
 71
     3
 72
    11
 73
     7
 74
     0
 42
0.000000001
 43
0.00000001
 40
0.0
 40
0.0
 40
0.0
 40
0.0
 40
0.0861784513033621
 40
0.4327861132716168
 40
0.7119376868717939
 40
1.0
 40
1.0
 40
1.0
 40
1.0
 10
512.9250953021333
 20
1048.26537613451
 30
0.0
 10
512.9751699978083
 20
1048.612396996847
 30
0.0
 10
513.2266439171949
 20
1050.355127435416
 30
0.0
 10
514.0797203800907
 20
1053.148333557076
 30
0.0
 10
515.7835033834604
 20
1056.480569390799
 30
0.0
 10
517.2710945368458
 20
1058.253121711552
 30
0.0
 10
518.026574892076
 20
1059.153320972542
 30
0.0
  0
SPLINE
  5
1953
330
A
100
AcDbEntity
  8
MODEL
100
AcDbSpline
210
0.0
220
0.0
230
1.0
 70
     8
 71
     3
 72
    39
 73
    35
 74
     0
 42
0.000000001
 43
0.00000001
 40
0.0
 40
0.0
 40
0.0
 40
0.0
 40
0.0275776271977731
 40
0.0554515795017092
 40
0.0833246619082768
 40
0.1155909157445109
 40
0.1478571727684898
 40
0.1795925234175809
 40
0.2115598531394285
 40
0.2435271912304927
 40
0.275496825246203
 40
0.3074649488272023
 40
0.3393549470865276
 40
0.3712449496725035
 40
0.4025339262778353
 40
0.4340487867519835
 40
0.4655636490644002
 40
0.4970792912338055
 40
0.5285941274441475
 40
0.5600838658960345
 40
0.5915736122575563
 40
0.6224165610202884
 40
0.6535790802879196
 40
0.6847405168937867
 40
0.7158543447461397
 40
0.7469681734585881
 40
0.7780381627596306
 40
0.8091077180780821
 40
0.8395215795143846
 40
0.8703348712443087
 40
0.9011465724686947
 40
0.9318603793724517
 40
0.9625741868526367
 40
1.0
 40
1.0
 40
1.0
 40
1.0
 10
521.6154059442601
 20
1064.035249647417
 30
0.0
 10
522.498899603394
 20
1064.511559938989
 30
0.0
 10
524.2753801732292
 20
1065.469298536697
 30
0.0
 10
527.1728469738669
 20
1066.400491629714
 30
0.0
 10
530.3291125791297
 20
1066.965782962227
 30
0.0
 10
533.7036112801547
 20
1067.014015816338
 30
0.0
 10
537.1769403189687
 20
1066.484407094606
 30
0.0
 10
540.5023984449804
 20
1065.381279764578
 30
0.0
 10
543.5840254379004
 20
1063.7387137683
 30
0.0
 10
546.359499849947
 20
1061.60454839186
 30
0.0
 10
548.7289715693882
 20
1059.027260763717
 30
0.0
 10
550.6396164899311
 20
1056.096742910097
 30
0.0
 10
552.0157811024042
 20
1052.883395645497
 30
0.0
 10
552.8342077491766
 20
1049.511048920637
 30
0.0
 10
553.0727019984338
 20
1046.062418231146
 30
0.0
 10
552.7298387816631
 20
1042.636821727966
 30
0.0
 10
551.8234984005398
 20
1039.306389834849
 30
0.0
 10
550.3609444005019
 20
1036.180316792
 30
0.0
 10
548.40431733778
 20
1033.338170777736
 30
0.0
 10
545.988226367896
 20
1030.875608200142
 30
0.0
 10
543.2169041665443
 20
1028.863339587386
 30
0.0
 10
540.1567257644278
 20
1027.351976701148
 30
0.0
 10
536.8981954120432
 20
1026.379107459383
 30
0.0
 10
533.5131457896537
 20
1025.957120561536
 30
0.0
 10
530.1080261888133
 20
1026.122930391126
 30
0.0
 10
526.7798743783428
 20
1026.846253483245
 30
0.0
 10
523.6267217691061
 20
1028.130272744538
 30
0.0
 10
520.7530845890583
 20
1029.906979505412
 30
0.0
 10
518.2272704823486
 20
1032.137070112552
 30
0.0
 10
516.1185384772912
 20
1034.751730396602
 30
0.0
 10
514.4630079230669
 20
1037.690074867719
 30
0.0
 10
513.3511510083304
 20
1040.864306385552
 30
0.0
 10
512.6913595309311
 20
1044.422608908696
 30
0.0
 10
512.8422296236026
 20
1046.903010793704
 30
0.0
 10
512.9250953021333
 20
1048.26537613451
 30
0.0
  0
CIRCLE
  5
1954
330
A
100
AcDbEntity
  8
MODEL
100
AcDbCircle
 10
532.5151527351995
 20
1046.13811127601
 30
0.0
 40
21.47599999999982
  0
SPLINE
  5
1955
330
A
100
AcDbEntity
  8
MODEL
100
AcDbSpline
210
0.0
220
0.0
230
1.0
 70
     8
 71
     3
 72
    29
 73
    25
 74
     0
 42
0.000000001
 43
0.00000001
 40
0.0
 40
0.0
 40
0.0
 40
0.0
 40
0.0315711996277264
 40
0.0627853906562366
 40
0.1097964167371886
 40
0.1569370389874171
 40
0.203397779785338
 40
0.2504372965726832
 40
0.2975587464124038
 40
0.3440124131409009
 40
0.3910783396284165
 40
0.4381785017511409
 40
0.4846292171186105
 40
0.5317194536251195
 40
0.5787962280557012
 40
0.6252481007895053
 40
0.6723605401823682
 40
0.7194118207957765
 40
0.7658689653070854
 40
0.8130015061617016
 40
0.8600251976773714
 40
0.9064917334140353
 40
0.9536422504624013
 40
1.0
 40
1.0
 40
1.0
 40
1.0
 10
534.573888317766
 20
1065.735488903442
 30
0.0
 10
535.5042892921124
 20
1065.598591798858
 30
0.0
 10
537.3545702231645
 20
1065.326345628536
 30
0.0
 10
540.462168335413
 20
1064.276605401436
 30
0.0
 10
543.7687416603044
 20
1062.499195021838
 30
0.0
 10
546.9650175520005
 20
1059.752504783192
 30
0.0
 10
549.5123839414741
 20
1056.397589158753
 30
0.0
 10
551.2964426218718
 20
1052.580564097664
 30
0.0
 10
552.2310991748604
 20
1048.472458530374
 30
0.0
 10
552.2795797642761
 20
1044.259840270156
 30
0.0
 10
551.440251036573
 20
1040.131090545431
 30
0.0
 10
549.7449241746185
 20
1036.274062487888
 30
0.0
 10
547.2756760865127
 20
1032.860680619924
 30
0.0
 10
544.1429379698207
 20
1030.043440506024
 30
0.0
 10
540.4842459523938
 20
1027.95418530609
 30
0.0
 10
536.468049416741
 20
1026.681985216986
 30
0.0
 10
532.2737157493725
 20
1026.28401457723
 30
0.0
 10
528.0903531517547
 20
1026.784055788534
 30
0.0
 10
524.1058846949968
 20
1028.153178965226
 30
0.0
 10
520.5002766610564
 20
1030.331021372352
 30
0.0
 10
517.4332693782785
 20
1033.223450421887
 30
0.0
 10
515.061365994407
 20
1036.696716350684
 30
0.0
 10
513.4155999971631
 20
1040.572290744464
 30
0.0
 10
513.0492830500884
 20
1043.339028642136
 30
0.0
 10
512.8676774027631
 20
1044.710669323536
 30
0.0
  0
SPLINE
  5
1956
330
A
100
AcDbEntity
  8
MODEL
100
AcDbSpline
210
0.0
220
0.0
230
1.0
 70
     8
 71
     3
 72
    13
 73
     9
 74
     0
 42
0.000000001
 43
0.00000001
 40
0.0
 40
0.0
 40
0.0
 40
0.0
 40
0.1617539876476858
 40
0.3455503990462773
 40
0.5318466519680289
 40
0.7165885301750364
 40
0.9005189995626843
 40
1.0
 40
1.0
 40
1.0
 40
1.0
 10
545.540426303713
 20
1060.859686468462
 30
0.0
 10
546.4251846398588
 20
1060.015207099116
 30
0.0
 10
548.3152684675338
 20
1058.211170071608
 30
0.0
 10
550.3979297935152
 20
1054.732129624017
 30
0.0
 10
551.8259914212836
 20
1050.775989228832
 30
0.0
 10
552.3552908010029
 20
1046.597686520726
 30
0.0
 10
552.0898030534704
 20
1043.045850520552
 30
0.0
 10
551.5227557860785
 20
1040.984978850434
 30
0.0
 10
551.3237150433383
 20
1040.261586901466
 30
0.0
  0
CIRCLE
  5
1957
330
A
100
AcDbEntity
  8
MODEL
100
AcDbCircle
 10
532.5151527351995
 20
1046.13811127601
 30
0.0
 40
44.00000000000006
  0
SPLINE
  5
1958
330
A
100
AcDbEntity
  8
MODEL
100
AcDbSpline
210
0.0
220
0.0
230
1.0
 70
     8
 71
     3
 72
    32
 73
    28
 74
     0
 42
0.000000001
 43
0.00000001
 40
0.0
 40
0.0
 40
0.0
 40
0.0
 40
0.0136756710050823
 40
0.0686836858313693
 40
0.1005726218865639
 40
0.1324615483221939
 40
0.1724747799761532
 40
0.2124880102015184
 40
0.2525012581996637
 40
0.292514512768529
 40
0.3345829681604844
 40
0.3772588653140241
 40
0.4199347592276574
 40
0.4626111296867659
 40
0.5052875018265703
 40
0.5479643647946035
 40
0.590641216170998
 40
0.6333176198857566
 40
0.6759940171901524
 40
0.7186707314069167
 40
0.761347441999415
 40
0.8040238714744419
 40
0.8467002922068553
 40
0.8887688729616121
 40
0.9314453152289998
 40
0.9741217598931354
 40
1.0
 40
1.0
 40
1.0
 40
1.0
 10
545.4807108315513
 20
1060.671138350586
 30
0.0
 10
545.738310880512
 20
1060.433379416514
 30
0.0
 10
547.032062450468
 20
1059.23927640502
 30
0.0
 10
548.6590107584857
 20
1057.204062310741
 30
0.0
 10
550.1424694489838
 20
1054.538885686606
 30
0.0
 10
551.1379223222398
 20
1052.063543776498
 30
0.0
 10
551.8181558323636
 20
1049.2641900241
 30
0.0
 10
552.0738582871277
 20
1046.184951143773
 30
0.0
 10
551.8329934606741
 20
1043.1043053637
 30
0.0
 10
551.1050143173384
 20
1040.04747119813
 30
0.0
 10
549.8625749142489
 20
1037.08410749766
 30
0.0
 10
548.1031872300887
 20
1034.31427140212
 30
0.0
 10
545.9000840487938
 20
1031.860633174786
 30
0.0
 10
543.309570783124
 20
1029.82064694144
 30
0.0
 10
540.4186899038255
 20
1028.234487344548
 30
0.0
 10
537.2987326970328
 20
1027.1671868751
 30
0.0
 10
534.045740060385
 20
1026.627525338722
 30
0.0
 10
530.7484360790445
 20
1026.653314058073
 30
0.0
 10
527.5002578402641
 20
1027.221020316167
 30
0.0
 10
524.3973245122766
 20
1028.336972057728
 30
0.0
 10
521.5204429796327
 20
1029.948079173228
 30
0.0
 10
518.9613039108849
 20
1032.028111805742
 30
0.0
 10
516.7928939422495
 20
1034.489845250282
 30
0.0
 10
515.0623162645502
 20
1037.281192947738
 30
0.0
 10
513.849325138312
 20
1040.323320355638
 30
0.0
 10
513.1652255244703
 20
1043.117278005925
 30
0.0
 10
513.1292162914401
 20
1044.877322174949
 30
0.0
 10
513.115623411803
 20
1045.541709236999
 30
0.0
  0
LINE
  5
1959
330
A
100
AcDbEntity
  8
MODEL
100
AcDbLine
 10
545.0446544271986
 20
1060.97921799601
 30
0.0
 11
546.4809484831972
 21
1059.65960748201
 31
0.0
  0
LINE
  5
195A
330
A
100
AcDbEntity
  8
MODEL
100
AcDbLine
 10
550.6338844131974
 20
1053.17797675401
 30
0.0
 11
550.9964203511959
 21
1052.28281138201
 31
0.0
  0
ARC
  5
195B
330
A
100
AcDbEntity
  8
MODEL
100
AcDbCircle
 10
532.5151527351995
 20
1046.13811127601
 30
0.0
 40
3.000000000000376
100
AcDbArc
 50
247.4999999999363
 51
202.4999999999984
  0
SPLINE
  5
195C
330
A
100
AcDbEntity
  8
MODEL
100
AcDbSpline
210
0.0
220
0.0
230
1.0
 70
     8
 71
     3
 72
    12
 73
     8
 74
     0
 42
0.000000001
 43
0.00000001
 40
0.0
 40
0.0
 40
0.0
 40
0.0
 40
0.230763741564806
 40
0.4644288486853669
 40
0.7112520779066908
 40
0.8824727148204716
 40
1.0
 40
1.0
 40
1.0
 40
1.0
 10
530.0445946912155
 20
1046.520659298836
 30
0.0
 10
529.9886053366322
 20
1046.240856199153
 30
0.0
 10
529.8759226798506
 20
1045.677732068115
 30
0.0
 10
530.0622465914498
 20
1044.801864568918
 30
0.0
 10
530.4715496111316
 20
1044.100876917234
 30
0.0
 10
530.9448745139675
 20
1043.633828589295
 30
0.0
 10
531.2449603476821
 20
1043.443813413396
 30
0.0
 10
531.3671024330802
 20
1043.366472708728
 30
0.0
  0
ARC
  5
195D
330
A
100
AcDbEntity
  8
MODEL
100
AcDbCircle
 10
532.5151527351995
 20
1046.13811127601
 30
0.0
 40
2.5000000000001
100
AcDbArc
 50
171.1980648482158
 51
278.8019351529229
  0
SPLINE
  5
195E
330
A
100
AcDbEntity
  8
MODEL
100
AcDbSpline
210
0.0
220
0.0
230
1.0
 70
     8
 71
     3
 72
    22
 73
    18
 74
     0
 42
0.000000001
 43
0.00000001
 40
0.0
 40
0.0
 40
0.0
 40
0.0
 40
0.0742687786845538
 40
0.1485807616015979
 40
0.2212085230329774
 40
0.2935355333141412
 40
0.3648156787977643
 40
0.4351690354868806
 40
0.505098162524337
 40
0.5734886753077765
 40
0.6419334394723735
 40
0.7084829069576404
 40
0.774939169619808
 40
0.8401358603361544
 40
0.9046150434666236
 40
0.9684574689539847
 40
1.0
 40
1.0
 40
1.0
 40
1.0
 10
529.7435141681603
 20
1044.990060973646
 30
0.0
 10
529.656188845293
 20
1045.317585822219
 30
0.0
 10
529.4814873999717
 20
1045.972826049758
 30
0.0
 10
529.652278144415
 20
1046.988476648536
 30
0.0
 10
530.127328277857
 20
1047.875797165756
 30
0.0
 10
530.8658326117552
 20
1048.547496085372
 30
0.0
 10
531.7767975287866
 20
1048.924551188466
 30
0.0
 10
532.7505042994894
 20
1048.97779000464
 30
0.0
 10
533.6724843098423
 20
1048.702115442641
 30
0.0
 10
534.4414854582287
 20
1048.13993743578
 30
0.0
 10
534.9695163841975
 20
1047.364492579596
 30
0.0
 10
535.2020397388992
 20
1046.46603667169
 30
0.0
 10
535.1248737588035
 20
1045.55556242624
 30
0.0
 10
534.7469475946023
 20
1044.733625634241
 30
0.0
 10
534.1268315996354
 20
1044.095729040866
 30
0.0
 10
533.4647227764403
 20
1043.761714588866
 30
0.0
 10
533.0386104221475
 20
1043.690953108248
 30
0.0
 10
532.8977007582657
 20
1043.667553231786
 30
0.0
  0
ARC
  5
195F
330
A
100
AcDbEntity
  8
MODEL
100
AcDbCircle
 10
532.5106497211968
 20
1046.15326029001
 30
0.0
 40
2.49327283808835
100
AcDbArc
 50
273.0366940616814
 51
171.5262592661191
  0
ARC
  5
1960
330
A
100
AcDbEntity
  8
MODEL
100
AcDbCircle
 10
521.5151527351995
 20
1046.13811127601
 30
0.0
 40
5.999999999999944
100
AcDbArc
 50
0.0
 51
138.5903778907133
  0
ARC
  5
1961
330
A
100
AcDbEntity
  8
MODEL
100
AcDbCircle
 10
521.5151527351995
 20
1046.13811127601
 30
0.0
 40
5.999999999999962
100
AcDbArc
 50
221.4096221092867
 51
0.0
  0
ARC
  5
1962
330
A
100
AcDbEntity
  8
MODEL
100
AcDbCircle
 10
529.1159657971989
 20
1056.59973295401
 30
0.0
 40
6.000000000000646
100
AcDbArc
 50
0.0
 51
66.59037789070102
  0
ARC
  5
1963
330
A
100
AcDbEntity
  8
MODEL
100
AcDbCircle
 10
529.1159657971989
 20
1056.59973295401
 30
0.0
 40
6.000000000000228
100
AcDbArc
 50
149.4096221092762
 51
0.0
  0
ARC
  5
1964
330
A
100
AcDbEntity
  8
MODEL
100
AcDbCircle
 10
541.4143396732002
 20
1052.60374905001
 30
0.0
 40
6.000000000000302
100
AcDbArc
 50
77.40962210931258
 51
354.5903778907045
  0
ARC
  5
1965
330
A
100
AcDbEntity
  8
MODEL
100
AcDbCircle
 10
541.4143396732002
 20
1039.67247350001
 30
0.0
 40
6.000000000000734
100
AcDbArc
 50
5.409622109303684
 51
282.5903778906908
  0
ARC
  5
1966
330
A
100
AcDbEntity
  8
MODEL
100
AcDbCircle
 10
529.1159657971989
 20
1035.67648959601
 30
0.0
 40
5.999999999999944
100
AcDbArc
 50
0.0
 51
210.5903778907152
  0
ARC
  5
1967
330
A
100
AcDbEntity
  8
MODEL
100
AcDbCircle
 10
529.1159657971989
 20
1035.67648959601
 30
0.0
 40
5.999999999999944
100
AcDbArc
 50
293.4096221093045
 51
0.0
  0
ARC
  5
1968
330
A
100
AcDbEntity
  8
MODEL
100
AcDbCircle
 10
532.5151527351995
 20
1046.13811127601
 30
0.0
 40
3.000000000000376
100
AcDbArc
 50
202.4999999999984
 51
247.4999999999363
  0
DIMENSION
  5
1989
330
A
100
AcDbEntity
  8
DIM
100
AcDbDimension
  2
*D39
 10
576.5034147757497
 20
1114.026404321501
 30
0.0
 11
532.5092837554748
 21
1114.026404321501
 31
0.0
 70
   160
 71
     5
 42
87.98826204055013
 73
     0
 74
     0
 75
     0
  3
tfrom線あり
100
AcDbAlignedDimension
 13
488.5151527351995
 23
1073.923999267578
 33
0.0
 14
576.5034147757497
 24
1074.940268253581
 34
0.0
 50
-0.000000000000014
100
AcDbRotatedDimension
1001
ACAD
1000
DSTYLE
1002
{
1070
     3
1000
ø<>
1002
}
  0
DIMENSION
  5
19D9
330
A
100
AcDbEntity
  8
DIM
100
AcDbDimension
  2
*D40
 10
623.2345151920742
 20
613.0435805522615
 30
0.0
 11
609.2345151920742
 21
640.5435805522615
 31
0.0
 70
    32
 71
     5
 42
55.0
 73
     0
 74
     0
 75
     0
  3
tfrom線あり
100
AcDbAlignedDimension
 13
576.2651519891992
 23
668.0435805522615
 33
0.0
 14
576.2651519891992
 24
613.0435805522615
 34
0.0
 50
90.0
100
AcDbRotatedDimension
  0
DIMENSION
  5
19FA
330
A
100
AcDbEntity
  8
DIM
100
AcDbDimension
  2
*D41
 10
654.0406055219287
 20
671.0435802082627
 30
0.0
 11
640.0406055219287
 21
642.043580380262
 31
0.0
 70
    32
 71
     5
 42
57.99999965600125
 73
     0
 74
     0
 75
     0
  3
tfrom線あり
100
AcDbAlignedDimension
 13
576.2651519891992
 23
613.0435805522615
 33
0.0
 14
559.7651527351959
 24
671.0435802082627
 34
0.0
 50
90.0
100
AcDbRotatedDimension
  0
DIMENSION
  5
1A11
330
A
100
AcDbEntity
  8
DIM
100
AcDbDimension
  2
*D42
 10
410.5151527341973
 20
970.6317572274986
 30
0.0
 11
471.5151527341973
 21
970.6317572274986
 31
0.0
 70
   160
 71
     5
 42
122.0
 73
     0
 74
     0
 75
     0
  3
tfrom線あり
100
AcDbAlignedDimension
 13
532.5151527341973
 23
1000.580683635601
 33
0.0
 14
410.5151527341973
 24
1029.562892619451
 34
0.0
100
AcDbRotatedDimension
  0
DIMENSION
  5
1A1E
330
A
100
AcDbEntity
  8
DIM
100
AcDbDimension
  2
*D43
 10
300.5151594111999
 20
547.9589582371254
 30
0.0
 11
416.5151560726986
 21
561.9589582371254
 31
0.0
 70
    32
  1
285～880
 71
     5
 42
231.9999933229974
 73
     0
 74
     0
 75
     0
  3
tfrom線あり
100
AcDbAlignedDimension
 13
532.5151527341973
 23
613.0435805522615
 33
0.0
 14
300.5151594111999
 24
619.9964320954749
 34
0.0
100
AcDbRotatedDimension
  0
DIMENSION
  5
1A2D
330
A
100
AcDbEntity
  8
DIM
100
AcDbDimension
  2
*D44
 10
225.5151415291989
 20
547.9589582371254
 30
0.0
 11
263.0151504701994
 21
561.9589582371254
 31
0.0
 70
    32
 71
     5
 42
75.00001788200098
 73
     0
 74
     0
 75
     0
  3
tfrom線あり
100
AcDbAlignedDimension
 13
300.5151594111999
 23
619.9964320954749
 33
0.0
 14
225.5151415291989
 24
619.9964320954749
 34
0.0
100
AcDbRotatedDimension
  0
DIMENSION
  5
1A48
102
{ACAD_REACTORS
330
1A4A
102
}
102
{ACAD_XDICTIONARY
360
1A49
102
}
330
A
100
AcDbEntity
  8
DIM
100
AcDbDimension
  2
*D45
 10
173.6918632809874
 20
656.0435799562623
 30
0.0
 11
173.6918632809874
 21
640.5435802092619
 31
0.0
 70
   160
 71
     5
 42
30.9999994940008
 73
     0
 74
     0
 75
     0
  3
tfrom線あり
100
AcDbAlignedDimension
 13
225.5151415291989
 23
625.0435804622615
 33
0.0
 14
225.5151415291989
 24
656.0435799562623
 34
0.0
 50
90.0
100
AcDbRotatedDimension
1001
ACAD
1000
DSTYLE
1002
{
1070
     3
1000
ø<>
1002
}
  0
MTEXT
  5
1AD9
330
A
100
AcDbEntity
  8
TEMPLATE
390
1D
100
AcDbMText
 10
507.3510176800695
 20
709.3573876411313
 30
0.0
 40
12.0
 41
0.0
 46
13.704
 71
     1
 72
     1
  1
{G1 1/4"}
  7
ＭＳ ゴシック
 73
     1
 44
0.7828267384257843
1001
ACAD
1000
ACAD_MTEXT_DEFINED_HEIGHT_BEGIN
1070
    46
1040
13.704
1000
ACAD_MTEXT_DEFINED_HEIGHT_END
  0
MTEXT
  5
1ADA
330
A
100
AcDbEntity
  8
TEMPLATE
390
1D
100
AcDbMText
 10
536.7772549033008
 20
676.2497757507173
 30
0.0
 40
10.0
 41
0.0
 46
3.0
 71
     1
 72
     1
  1
{▲}
  7
ＭＳ ゴシック
 11
-1.0
 21
1.224646799147353E-16
 31
0.0
 73
     1
 44
0.7828267384257843
1001
ACAD
1000
ACAD_MTEXT_DEFINED_HEIGHT_BEGIN
1070
    46
1040
3.0
1000
ACAD_MTEXT_DEFINED_HEIGHT_END
  0
VIEWPORT
  5
349
330
B
100
AcDbEntity
 67
     1
  8
0
100
AcDbViewport
 10
202.5
 20
128.5
 30
0.0
 40
486.0
 41
308.4
 68
     1
 69
     1
 12
202.5
 22
128.5
 13
0.0
 23
0.0
 14
0.5
 24
0.5
 15
0.0
 25
0.0
 16
0.0
 26
0.0
 36
1.0
 17
0.0
 27
0.0
 37
0.0
 42
50.0
 43
0.0
 44
0.0
 45
308.4
 50
0.0
 51
0.0
 72
   100
 90
   557152
  1

281
     0
 71
     1
 74
     0
110
0.0
120
0.0
130
0.0
111
1.0
121
0.0
131
0.0
112
0.0
122
1.0
132
0.0
 79
     0
146
0.0
170
     0
 61
     5
348
26C
292
     1
282
     1
141
0.0
142
0.0
 63
   256
  0
VIEWPORT
  5
34A
330
B
100
AcDbEntity
 67
     1
  8
0
100
AcDbViewport
 10
202.5
 20
128.5
 30
0.0
 40
324.0
 41
205.6
 68
     2
 69
     2
 12
986.6781359294573
 22
1427.077061889956
 13
0.0
 23
0.0
 14
0.5
 24
0.5
 15
0.0
 25
0.0
 16
0.0
 26
0.0
 36
1.0
 17
0.0
 27
0.0
 37
0.0
 42
50.0
 43
0.0
 44
0.0
 45
2890.021615685494
 50
0.0
 51
0.0
 72
   100
 90
   557152
  1

281
     0
 71
     1
 74
     0
110
0.0
120
0.0
130
0.0
111
1.0
121
0.0
131
0.0
112
0.0
122
1.0
132
0.0
 79
     0
146
0.0
170
     0
 61
     5
348
26C
292
     1
282
     1
141
0.0
142
0.0
 63
   256
  0
ENDSEC
  0
SECTION
  2
OBJECTS
  0
DICTIONARY
  5
19
330
0
100
AcDbDictionary
281
     1
  3
ACAD_COLOR
350
674
  3
ACAD_DETAILVIEWSTYLE
350
BBF
  3
ACAD_GROUP
350
1A
  3
ACAD_IMAGE_VARS
350
27B
  3
ACAD_LAYOUT
350
1E
  3
ACAD_MATERIAL
350
263
  3
ACAD_MLEADERSTYLE
350
336
  3
ACAD_MLINESTYLE
350
1B
  3
ACAD_PLOTSETTINGS
350
22
  3
ACAD_PLOTSTYLENAME
350
1F
  3
ACAD_SCALELIST
350
241
  3
ACAD_SECTIONVIEWSTYLE
350
BC0
  3
ACAD_TABLESTYLE
350
278
  3
ACAD_VISUALSTYLE
350
267
  3
ACDB_RECOMPOSE_DATA
350
1B5C
  3
AcDbVariableDictionary
350
330
  3
APPDATA
350
27A
  3
DimOffsetDictionary
350
EE7
  0
SUN
  5
904
330
15
100
AcDbSun
 90
        1
290
     0
 63
     7
421
 16777215
 40
1.0
291
     1
 91
  2455826
 92
 54000000
292
     0
 70
     2
 71
   256
280
     1
  0
DICTIONARY
  5
2E1
330
2
100
AcDbDictionary
280
     1
281
     1
  3
ACAD_LAYERSTATES
360
2E2
  3
ACLYDICTIONARY
360
D22
  0
DICTIONARY
  5
1A49
330
1A48
100
AcDbDictionary
280
     1
281
     1
  3
ACAD_DIMASSOC
360
1A4A
  0
DICTIONARY
  5
674
102
{ACAD_REACTORS
330
19
102
}
330
19
100
AcDbDictionary
281
     1
  0
DICTIONARY
  5
BBF
102
{ACAD_REACTORS
330
19
102
}
330
19
100
AcDbDictionary
281
     1
  0
DICTIONARY
  5
1A
102
{ACAD_REACTORS
330
19
102
}
330
19
100
AcDbDictionary
281
     1
  0
RASTERVARIABLES
  5
27B
102
{ACAD_REACTORS
330
19
102
}
330
19
100
AcDbRasterVariables
 90
        0
 70
     1
 71
     1
 72
     1
  0
DICTIONARY
  5
1E
102
{ACAD_REACTORS
330
19
102
}
330
19
100
AcDbDictionary
281
     1
  3
Layout1
350
21
  3
Model
350
20
  0
DICTIONARY
  5
263
102
{ACAD_REACTORS
330
19
102
}
330
19
100
AcDbDictionary
281
     1
  3
ByBlock
350
265
  3
ByLayer
350
264
  3
Global
350
266
  0
DICTIONARY
  5
336
102
{ACAD_REACTORS
330
19
102
}
330
19
100
AcDbDictionary
281
     1
  3
Standard
350
D59
  0
DICTIONARY
  5
1B
102
{ACAD_REACTORS
330
19
102
}
330
19
100
AcDbDictionary
281
     1
  3
Standard
350
1C
  0
DICTIONARY
  5
22
102
{ACAD_REACTORS
330
19
102
}
330
19
100
AcDbDictionary
281
     1
  0
ACDBDICTIONARYWDFLT
  5
1F
102
{ACAD_REACTORS
330
19
102
}
330
19
100
AcDbDictionary
281
     1
  3
Normal
350
1D
100
AcDbDictionaryWithDefault
340
1D
  0
DICTIONARY
  5
241
102
{ACAD_REACTORS
330
19
102
}
330
19
100
AcDbDictionary
281
     1
  3
*A1
350
D63
  3
A0
350
242
  3
A1
350
243
  3
A2
350
244
  3
A3
350
245
  3
A4
350
246
  3
A5
350
247
  3
A6
350
248
  3
A7
350
249
  3
A8
350
24A
  3
A9
350
24B
  3
B0
350
24C
  3
B1
350
24D
  3
B2
350
24E
  3
B3
350
24F
  3
B4
350
250
  3
B5
350
251
  3
B6
350
252
  3
B7
350
253
  3
B8
350
254
  3
B9
350
255
  3
C0
350
256
  3
C1
350
257
  3
C2
350
258
  3
C3
350
259
  3
C4
350
25A
  3
C5
350
25B
  3
C6
350
25C
  3
C7
350
25D
  3
C8
350
25E
  3
C9
350
25F
  3
D0
350
260
  3
D1
350
261
  3
D2
350
262
  0
DICTIONARY
  5
BC0
102
{ACAD_REACTORS
330
19
102
}
330
19
100
AcDbDictionary
281
     1
  0
DICTIONARY
  5
278
102
{ACAD_REACTORS
330
19
102
}
330
19
100
AcDbDictionary
281
     1
  3
Standard
350
279
  0
DICTIONARY
  5
267
102
{ACAD_REACTORS
330
19
102
}
330
19
100
AcDbDictionary
281
     1
  3
2dWireframe
350
26C
  3
3D Hidden
350
26E
  3
3dWireframe
350
26D
  3
Basic
350
26F
  3
Brighten
350
273
  3
ColorChange
350
277
  3
Conceptual
350
271
  3
Dim
350
272
  3
EdgeColorOff
350
8FE
  3
Facepattern
350
276
  3
Flat
350
268
  3
FlatWithEdges
350
269
  3
Gouraud
350
26A
  3
GouraudWithEdges
350
26B
  3
Hidden
350
8FB
  3
JitterOff
350
8FC
  3
Linepattern
350
275
  3
OverhangOff
350
8FD
  3
Realistic
350
270
  3
Shaded
350
903
  3
Shaded with edges
350
902
  3
Shades of Gray
350
8FF
  3
Sketchy
350
900
  3
Thicken
350
274
  3
Wireframe
350
8FA
  3
X-Ray
350
901
  0
XRECORD
  5
1B5C
102
{ACAD_REACTORS
330
19
102
}
330
19
100
AcDbXrecord
280
     1
 90
        1
330
279
  0
DICTIONARY
  5
330
102
{ACAD_REACTORS
330
19
102
}
330
19
100
AcDbDictionary
281
     1
  3
CANNOSCALE
350
331
  3
CMLEADERSTYLE
350
EA4
  3
CTABLESTYLE
350
335
  3
HPTRANSPARENCY
350
D52
  3
XCLIPFRAME
350
896
  0
DICTIONARY
  5
27A
102
{ACAD_REACTORS
330
19
102
}
330
19
100
AcDbDictionary
281
     1
  0
DICTIONARY
  5
EE7
102
{ACAD_REACTORS
330
19
102
}
330
19
100
AcDbDictionary
281
     1
  3
DIMRAILANGLE
350
10FD
  3
DIMRAILFIRSTOFFSET
350
10FB
  3
DIMRAILOFFSET
350
10FC
  3
DIMRAILSENABLED
350
10FE
  0
DICTIONARY
  5
2E2
102
{ACAD_REACTORS
330
2E1
102
}
330
2E1
100
AcDbDictionary
281
     1
  3
ARGON_LAYERP_9
350
7AA
  0
DICTIONARY
  5
D22
102
{ACAD_REACTORS
330
2E1
102
}
330
2E1
100
AcDbDictionary
281
     1
1001
ACAD
1000
<All
  0
DIMASSOC
  5
1A4A
102
{ACAD_REACTORS
330
1A49
102
}
330
1A49
100
AcDbDimAssoc
330
1A48
 90
        3
 70
     0
 71
     1
  1
AcDbOsnapPointRef
 72
    13
331
17EC
 73
     0
 91
        0
 40
0.0
 10
0.0
 20
0.0
 30
0.0
 75
     0
  1
AcDbOsnapPointRef
 72
     1
331
17EB
 73
     0
 91
        0
 40
0.0
 10
0.0
 20
0.0
 30
0.0
 75
     0
  0
LAYOUT
  5
21
102
{ACAD_REACTORS
330
1E
102
}
330
1E
100
AcDbPlotSettings
  1

  2
none_device
  4
ISO_A3_(420.00_x_297.00_MM)
  6

 40
7.5
 41
20.0
 42
7.5
 43
20.0
 44
420.0
 45
297.0
 46
0.0
 47
0.0
 48
0.0
 49
0.0
140
0.0
141
0.0
142
1.0
143
1.0
 70
     0
 72
     1
 73
     0
 74
     0
  7

 75
     0
 76
     0
 77
     2
 78
   300
147
1.0
148
0.0
149
0.0
100
AcDbLayout
  1
Layout1
 70
     0
 71
     0
 10
-7.5
 20
-20.0
 11
412.5
 21
277.0
 12
0.0
 22
0.0
 32
0.0
 14
0.0
 24
0.0
 34
0.0
 15
0.0
 25
0.0
 35
0.0
146
0.0
 13
0.0
 23
0.0
 33
0.0
 16
0.0
 26
0.0
 36
0.0
 17
0.0
 27
0.0
 37
0.0
 76
     0
330
B
331
349
  0
LAYOUT
  5
20
102
{ACAD_REACTORS
330
1E
102
}
330
1E
100
AcDbPlotSettings
  1

  2
none_device
  4
ISO_A3_(420.00_x_297.00_MM)
  6

 40
7.5
 41
20.0
 42
7.5
 43
20.0
 44
420.0
 45
297.0
 46
0.0
 47
0.0
 48
0.0
 49
0.0
140
0.0
141
0.0
142
1.0
143
1.0
 70
  1024
 72
     1
 73
     0
 74
     0
  7

 75
     0
 76
     0
 77
     2
 78
   300
147
1.0
148
0.0
149
0.0
100
AcDbLayout
  1
Model
 70
     0
 71
     1
 10
0.0
 20
0.0
 11
1050.0
 21
1485.0
 12
0.0
 22
0.0
 32
0.0
 14
36.10107227362437
 24
31.89607416228557
 34
-0.0000000000000071
 15
1011.101072273866
 25
1448.573336753213
 35
0.0000000000000142
146
0.0
 13
0.0
 23
0.0
 33
0.0
 16
0.0
 26
0.0
 36
0.0
 17
0.0
 27
0.0
 37
0.0
 76
     0
330
A
331
15
  0
MATERIAL
  5
265
102
{ACAD_REACTORS
330
263
102
}
330
263
100
AcDbMaterial
  1
ByBlock
 72
     1
 94
      127
  0
MATERIAL
  5
264
102
{ACAD_REACTORS
330
263
102
}
330
263
100
AcDbMaterial
  1
ByLayer
 72
     1
 94
      127
  0
MATERIAL
  5
266
102
{ACAD_REACTORS
330
263
102
}
330
263
100
AcDbMaterial
  1
Global
 72
     1
 94
      127
  0
MLEADERSTYLE
  5
D59
102
{ACAD_REACTORS
330
336
102
}
330
336
100
AcDbMLeaderStyle
170
     2
171
     1
172
     0
 90
        2
 40
0.0
 41
0.0
173
     1
 91
-1056964608
340
11
 92
       -2
290
     1
 42
2.0
291
     1
 43
8.0
  3
Standard
341
0
 44
4.0
300

342
17
174
     1
178
     6
175
     1
176
     0
 93
-1056964608
 45
4.0
292
     0
297
     0
 46
4.0
343
0
 94
-1056964608
 47
1.0
 49
1.0
140
1.0
293
     1
141
0.0
294
     1
177
     0
142
1.0
295
     0
296
     0
143
3.75
1001
ACAD_MLEADERVER
1070
     2
  0
MLINESTYLE
  5
1C
102
{ACAD_REACTORS
330
1B
102
}
330
1B
100
AcDbMlineStyle
  2
Standard
 70
     0
  3

 62
     0
 51
90.0
 52
90.0
 71
     2
 49
0.5
 62
   256
  6
BYLAYER
 49
-0.5
 62
   256
  6
BYLAYER
  0
ACDBPLACEHOLDER
  5
1D
102
{ACAD_REACTORS
330
1F
102
}
330
1F
  0
SCALE
  5
D63
102
{ACAD_REACTORS
330
241
102
}
330
241
100
AcDbScale
 70
     0
300
1:1_XREF_XREF
140
1.0
141
1.0
290
     0
  0
SCALE
  5
242
102
{ACAD_REACTORS
330
241
102
}
330
241
100
AcDbScale
 70
     0
300
1:1
140
1.0
141
1.0
290
     1
  0
SCALE
  5
243
102
{ACAD_REACTORS
330
241
102
}
330
241
100
AcDbScale
 70
     0
300
1:2
140
1.0
141
2.0
290
     0
  0
SCALE
  5
244
102
{ACAD_REACTORS
330
241
102
}
330
241
100
AcDbScale
 70
     0
300
1:4
140
1.0
141
4.0
290
     0
  0
SCALE
  5
245
102
{ACAD_REACTORS
330
241
102
}
330
241
100
AcDbScale
 70
     0
300
1:5
140
1.0
141
5.0
290
     0
  0
SCALE
  5
246
102
{ACAD_REACTORS
330
241
102
}
330
241
100
AcDbScale
 70
     0
300
1:8
140
1.0
141
8.0
290
     0
  0
SCALE
  5
247
102
{ACAD_REACTORS
330
241
102
}
330
241
100
AcDbScale
 70
     0
300
1:10
140
1.0
141
10.0
290
     0
  0
SCALE
  5
248
102
{ACAD_REACTORS
330
241
102
}
330
241
100
AcDbScale
 70
     0
300
1:16
140
1.0
141
16.0
290
     0
  0
SCALE
  5
249
102
{ACAD_REACTORS
330
241
102
}
330
241
100
AcDbScale
 70
     0
300
1:20
140
1.0
141
20.0
290
     0
  0
SCALE
  5
24A
102
{ACAD_REACTORS
330
241
102
}
330
241
100
AcDbScale
 70
     0
300
1:30
140
1.0
141
30.0
290
     0
  0
SCALE
  5
24B
102
{ACAD_REACTORS
330
241
102
}
330
241
100
AcDbScale
 70
     0
300
1:40
140
1.0
141
40.0
290
     0
  0
SCALE
  5
24C
102
{ACAD_REACTORS
330
241
102
}
330
241
100
AcDbScale
 70
     0
300
1:50
140
1.0
141
50.0
290
     0
  0
SCALE
  5
24D
102
{ACAD_REACTORS
330
241
102
}
330
241
100
AcDbScale
 70
     0
300
1:100
140
1.0
141
100.0
290
     0
  0
SCALE
  5
24E
102
{ACAD_REACTORS
330
241
102
}
330
241
100
AcDbScale
 70
     0
300
2:1
140
2.0
141
1.0
290
     0
  0
SCALE
  5
24F
102
{ACAD_REACTORS
330
241
102
}
330
241
100
AcDbScale
 70
     0
300
4:1
140
4.0
141
1.0
290
     0
  0
SCALE
  5
250
102
{ACAD_REACTORS
330
241
102
}
330
241
100
AcDbScale
 70
     0
300
8:1
140
8.0
141
1.0
290
     0
  0
SCALE
  5
251
102
{ACAD_REACTORS
330
241
102
}
330
241
100
AcDbScale
 70
     0
300
10:1
140
10.0
141
1.0
290
     0
  0
SCALE
  5
252
102
{ACAD_REACTORS
330
241
102
}
330
241
100
AcDbScale
 70
     0
300
100:1
140
100.0
141
1.0
290
     0
  0
SCALE
  5
253
102
{ACAD_REACTORS
330
241
102
}
330
241
100
AcDbScale
 70
     0
300
1/128" = 1'-0"
140
0.0078125
141
12.0
290
     0
  0
SCALE
  5
254
102
{ACAD_REACTORS
330
241
102
}
330
241
100
AcDbScale
 70
     0
300
1/64" = 1'-0"
140
0.015625
141
12.0
290
     0
  0
SCALE
  5
255
102
{ACAD_REACTORS
330
241
102
}
330
241
100
AcDbScale
 70
     0
300
1/32" = 1'-0"
140
0.03125
141
12.0
290
     0
  0
SCALE
  5
256
102
{ACAD_REACTORS
330
241
102
}
330
241
100
AcDbScale
 70
     0
300
1/16" = 1'-0"
140
0.0625
141
12.0
290
     0
  0
SCALE
  5
257
102
{ACAD_REACTORS
330
241
102
}
330
241
100
AcDbScale
 70
     0
300
3/32" = 1'-0"
140
0.09375
141
12.0
290
     0
  0
SCALE
  5
258
102
{ACAD_REACTORS
330
241
102
}
330
241
100
AcDbScale
 70
     0
300
1/8" = 1'-0"
140
0.125
141
12.0
290
     0
  0
SCALE
  5
259
102
{ACAD_REACTORS
330
241
102
}
330
241
100
AcDbScale
 70
     0
300
3/16" = 1'-0"
140
0.1875
141
12.0
290
     0
  0
SCALE
  5
25A
102
{ACAD_REACTORS
330
241
102
}
330
241
100
AcDbScale
 70
     0
300
1/4" = 1'-0"
140
0.25
141
12.0
290
     0
  0
SCALE
  5
25B
102
{ACAD_REACTORS
330
241
102
}
330
241
100
AcDbScale
 70
     0
300
3/8" = 1'-0"
140
0.375
141
12.0
290
     0
  0
SCALE
  5
25C
102
{ACAD_REACTORS
330
241
102
}
330
241
100
AcDbScale
 70
     0
300
1/2" = 1'-0"
140
0.5
141
12.0
290
     0
  0
SCALE
  5
25D
102
{ACAD_REACTORS
330
241
102
}
330
241
100
AcDbScale
 70
     0
300
3/4" = 1'-0"
140
0.75
141
12.0
290
     0
  0
SCALE
  5
25E
102
{ACAD_REACTORS
330
241
102
}
330
241
100
AcDbScale
 70
     0
300
1" = 1'-0"
140
1.0
141
12.0
290
     0
  0
SCALE
  5
25F
102
{ACAD_REACTORS
330
241
102
}
330
241
100
AcDbScale
 70
     0
300
1-1/2" = 1'-0"
140
1.5
141
12.0
290
     0
  0
SCALE
  5
260
102
{ACAD_REACTORS
330
241
102
}
330
241
100
AcDbScale
 70
     0
300
3" = 1'-0"
140
3.0
141
12.0
290
     0
  0
SCALE
  5
261
102
{ACAD_REACTORS
330
241
102
}
330
241
100
AcDbScale
 70
     0
300
6" = 1'-0"
140
6.0
141
12.0
290
     0
  0
SCALE
  5
262
102
{ACAD_REACTORS
330
241
102
}
330
241
100
AcDbScale
 70
     0
300
1'-0" = 1'-0"
140
12.0
141
12.0
290
     0
  0
TABLESTYLE
  5
279
102
{ACAD_REACTORS
330
278
102
}
102
{ACAD_XDICTIONARY
360
1B5A
102
}
330
278
100
AcDbTableStyle
  3
Standard
 70
     0
 71
     0
 40
0.06
 41
0.06
280
     0
281
     0
  7
Standard
140
4.5
170
     2
 62
     0
 63
   257
283
     0
 90
        4
 91
        0
  1

274
    -2
284
     1
 64
     0
275
    -2
285
     1
 65
     0
276
    -2
286
     1
 66
     0
277
    -2
287
     1
 67
     0
278
    -2
288
     1
 68
     0
279
    -2
289
     1
 69
     0
  7
Standard
140
6.0
170
     5
 62
     0
 63
   257
283
     0
 90
        4
 91
        0
  1

274
    -2
284
     1
 64
     0
275
    -2
285
     1
 65
     0
276
    -2
286
     1
 66
     0
277
    -2
287
     1
 67
     0
278
    -2
288
     1
 68
     0
279
    -2
289
     1
 69
     0
  7
Standard
140
4.5
170
     5
 62
     0
 63
   257
283
     0
 90
        4
 91
        0
  1

274
    -2
284
     1
 64
     0
275
    -2
285
     1
 65
     0
276
    -2
286
     1
 66
     0
277
    -2
287
     1
 67
     0
278
    -2
288
     1
 68
     0
279
    -2
289
     1
 69
     0
  0
VISUALSTYLE
  5
26C
102
{ACAD_REACTORS
330
267
102
}
330
267
100
AcDbVisualStyle
  2
2dWireframe
 70
     4
 71
     0
 72
     2
 73
     0
 90
        0
 40
-0.6
 41
-30.0
 62
     5
 63
     7
421
 16777215
 74
     1
 91
        4
 64
     7
 65
   257
 75
     1
175
     1
 42
1.0
 92
        0
 66
   257
 43
1.0
 76
     1
 77
     6
 78
     2
 67
     7
 79
     5
170
     0
171
     0
290
     0
174
     0
 93
        1
 44
0.0
173
     0
291
     0
 45
0.0
  0
VISUALSTYLE
  5
26E
102
{ACAD_REACTORS
330
267
102
}
330
267
100
AcDbVisualStyle
  2
3D Hidden
 70
     6
 71
     1
 72
     2
 73
     2
 90
        0
 40
-0.6
 41
-30.0
 62
     5
 63
     7
421
 16777215
 74
     2
 91
        2
 64
     7
 65
   257
 75
     2
175
     1
 42
40.0
 92
        0
 66
   257
 43
1.0
 76
     1
 77
     6
 78
     2
 67
     7
 79
     3
170
     0
171
     0
290
     0
174
     0
 93
        1
 44
0.0
173
     0
291
     0
 45
0.0
  0
VISUALSTYLE
  5
26D
102
{ACAD_REACTORS
330
267
102
}
330
267
100
AcDbVisualStyle
  2
3dWireframe
 70
     5
 71
     0
 72
     2
 73
     0
 90
        0
 40
-0.6
 41
-30.0
 62
     5
 63
     7
421
 16777215
 74
     1
 91
        4
 64
     7
 65
   257
 75
     1
175
     1
 42
1.0
 92
        0
 66
   257
 43
1.0
 76
     1
 77
     6
 78
     2
 67
     7
 79
     5
170
     0
171
     0
290
     0
174
     0
 93
        1
 44
0.0
173
     0
291
     0
 45
0.0
  0
VISUALSTYLE
  5
26F
102
{ACAD_REACTORS
330
267
102
}
330
267
100
AcDbVisualStyle
  2
Basic
 70
     7
 71
     1
 72
     0
 73
     1
 90
        0
 40
-0.6
 41
-30.0
 62
     5
 63
     7
421
 16777215
 74
     0
 91
        4
 64
     7
 65
   257
 75
     1
175
     1
 42
1.0
 92
        8
 66
     7
 43
1.0
 76
     1
 77
     6
 78
     2
 67
     7
 79
     5
170
     0
171
     0
290
     0
174
     0
 93
        1
 44
0.0
173
     0
291
     1
 45
0.0
  0
VISUALSTYLE
  5
273
102
{ACAD_REACTORS
330
267
102
}
330
267
100
AcDbVisualStyle
  2
Brighten
 70
    12
 71
     2
 72
     2
 73
     0
 90
        0
 40
-0.6
 41
-30.0
 62
     5
 63
     7
421
 16777215
 74
     1
 91
        4
 64
     7
 65
   257
 75
     1
175
     1
 42
1.0
 92
        8
 66
     7
 43
1.0
 76
     1
 77
     6
 78
     2
 67
     7
 79
     5
170
     0
171
     0
290
     0
174
     0
 93
        1
 44
50.0
173
     0
291
     1
 45
0.0
  0
VISUALSTYLE
  5
277
102
{ACAD_REACTORS
330
267
102
}
330
267
100
AcDbVisualStyle
  2
ColorChange
 70
    16
 71
     2
 72
     2
 73
     3
 90
        0
 40
-0.6
 41
-30.0
 62
     5
 63
     8
421
  8421504
 74
     1
 91
        4
 64
     7
 65
   257
 75
     1
175
     1
 42
1.0
 92
        8
 66
     8
424
  8421504
 43
1.0
 76
     1
 77
     6
 78
     2
 67
     7
 79
     5
170
     0
171
     0
290
     0
174
     0
 93
        1
 44
0.0
173
     0
291
     1
 45
0.0
  0
VISUALSTYLE
  5
271
102
{ACAD_REACTORS
330
267
102
}
330
267
100
AcDbVisualStyle
  2
Conceptual
 70
     9
 71
     3
 72
     2
 73
     0
 90
        0
 40
-0.6
 41
-30.0
 62
     5
 63
     7
421
 16777215
 74
     2
 91
        2
 64
     7
 65
   257
 75
     1
175
     1
 42
40.0
 92
        8
 66
     7
 43
1.0
 76
     1
 77
     6
 78
     2
 67
     7
 79
     3
170
     0
171
     0
290
     0
174
     0
 93
        1
 44
0.0
173
     0
291
     0
 45
0.0
  0
VISUALSTYLE
  5
272
102
{ACAD_REACTORS
330
267
102
}
330
267
100
AcDbVisualStyle
  2
Dim
 70
    11
 71
     2
 72
     2
 73
     0
 90
        0
 40
-0.6
 41
-30.0
 62
     5
 63
     7
421
 16777215
 74
     1
 91
        4
 64
     7
 65
   257
 75
     1
175
     1
 42
1.0
 92
        8
 66
     7
 43
1.0
 76
     1
 77
     6
 78
     2
 67
     7
 79
     5
170
     0
171
     0
290
     0
174
     0
 93
        1
 44
-50.0
173
     0
291
     1
 45
0.0
  0
VISUALSTYLE
  5
8FE
102
{ACAD_REACTORS
330
267
102
}
330
267
100
AcDbVisualStyle
  2
EdgeColorOff
 70
    22
 71
     2
 72
     2
 73
     0
 90
        0
 40
0.6
 41
30.0
 62
     5
 63
     7
421
 16777215
 74
     1
 91
        4
 64
     7
 65
   257
 75
     1
175
     1
 42
1.0
 92
        8
 66
     7
 43
1.0
 76
     1
 77
     6
 78
     2
 67
     7
 79
     5
170
     0
171
     0
290
     0
174
     0
 93
        1
 44
0.0
173
     0
291
     1
 45
0.0
  0
VISUALSTYLE
  5
276
102
{ACAD_REACTORS
330
267
102
}
330
267
100
AcDbVisualStyle
  2
Facepattern
 70
    15
 71
     2
 72
     2
 73
     0
 90
        0
 40
-0.6
 41
-30.0
 62
     5
 63
     7
421
 16777215
 74
     1
 91
        4
 64
     7
 65
   257
 75
     1
175
     1
 42
1.0
 92
        8
 66
     7
 43
1.0
 76
     1
 77
     6
 78
     2
 67
     7
 79
     5
170
     0
171
     0
290
     0
174
     0
 93
        1
 44
0.0
173
     0
291
     1
 45
0.0
  0
VISUALSTYLE
  5
268
102
{ACAD_REACTORS
330
267
102
}
330
267
100
AcDbVisualStyle
  2
Flat
 70
     0
 71
     2
 72
     1
 73
     1
 90
        2
 40
-0.6
 41
30.0
 62
     5
 63
     7
421
 16777215
 74
     0
 91
        4
 64
     7
 65
   257
 75
     1
175
     1
 42
1.0
 92
        8
 66
     7
 43
1.0
 76
     1
 77
     6
 78
     2
 67
     7
 79
     5
170
     0
171
     0
290
     0
174
     0
 93
       13
 44
0.0
173
     0
291
     1
 45
0.0
  0
VISUALSTYLE
  5
269
102
{ACAD_REACTORS
330
267
102
}
330
267
100
AcDbVisualStyle
  2
FlatWithEdges
 70
     1
 71
     2
 72
     1
 73
     1
 90
        2
 40
-0.6
 41
30.0
 62
     5
 63
     7
421
 16777215
 74
     1
 91
        4
 64
     7
 65
   257
 75
     1
175
     1
 42
1.0
 92
        0
 66
   257
 43
1.0
 76
     1
 77
     6
 78
     2
 67
     7
 79
     5
170
     0
171
     0
290
     0
174
     0
 93
       13
 44
0.0
173
     0
291
     1
 45
0.0
  0
VISUALSTYLE
  5
26A
102
{ACAD_REACTORS
330
267
102
}
330
267
100
AcDbVisualStyle
  2
Gouraud
 70
     2
 71
     2
 72
     2
 73
     1
 90
        2
 40
-0.6
 41
30.0
 62
     5
 63
     7
421
 16777215
 74
     0
 91
        4
 64
     7
 65
   257
 75
     1
175
     1
 42
1.0
 92
        0
 66
     7
 43
1.0
 76
     1
 77
     6
 78
     2
 67
     7
 79
     5
170
     0
171
     0
290
     0
174
     0
 93
       13
 44
0.0
173
     0
291
     1
 45
0.0
  0
VISUALSTYLE
  5
26B
102
{ACAD_REACTORS
330
267
102
}
330
267
100
AcDbVisualStyle
  2
GouraudWithEdges
 70
     3
 71
     2
 72
     2
 73
     1
 90
        2
 40
-0.6
 41
30.0
 62
     5
 63
     7
421
 16777215
 74
     1
 91
        4
 64
     7
 65
   257
 75
     1
175
     1
 42
1.0
 92
        0
 66
   257
 43
1.0
 76
     1
 77
     6
 78
     2
 67
     7
 79
     5
170
     0
171
     0
290
     0
174
     0
 93
       13
 44
0.0
173
     0
291
     1
 45
0.0
  0
VISUALSTYLE
  5
8FB
102
{ACAD_REACTORS
330
267
102
}
330
267
100
AcDbVisualStyle
  2
Hidden
 70
     6
 71
     1
 72
     2
 73
     2
 90
        0
 40
0.6
 41
30.0
 62
     5
 63
     7
421
 16777215
 74
     2
 91
        2
 64
     7
 65
   257
 75
     2
175
     1
 42
40.0
 92
        0
 66
   257
 43
1.0
 76
     1
 77
     6
 78
     2
 67
     7
 79
     3
170
     0
171
     0
290
     0
174
     0
 93
        1
 44
0.0
173
     0
291
     0
 45
0.0
  0
VISUALSTYLE
  5
8FC
102
{ACAD_REACTORS
330
267
102
}
330
267
100
AcDbVisualStyle
  2
JitterOff
 70
    20
 71
     2
 72
     2
 73
     0
 90
        0
 40
0.6
 41
30.0
 62
     5
 63
     7
421
 16777215
 74
     1
 91
        4
 64
     7
 65
   257
 75
     1
175
     1
 42
1.0
 92
       10
 66
     7
 43
1.0
 76
     1
 77
     6
 78
     2
 67
     7
 79
     5
170
     0
171
     0
290
     0
174
     0
 93
        1
 44
0.0
173
     0
291
     1
 45
0.0
  0
VISUALSTYLE
  5
275
102
{ACAD_REACTORS
330
267
102
}
330
267
100
AcDbVisualStyle
  2
Linepattern
 70
    14
 71
     2
 72
     2
 73
     0
 90
        0
 40
-0.6
 41
-30.0
 62
     5
 63
     7
421
 16777215
 74
     1
 91
        4
 64
     7
 65
   257
 75
     7
175
     7
 42
1.0
 92
        8
 66
     7
 43
1.0
 76
     1
 77
     6
 78
     2
 67
     7
 79
     5
170
     0
171
     0
290
     0
174
     0
 93
        1
 44
0.0
173
     0
291
     1
 45
0.0
  0
VISUALSTYLE
  5
8FD
102
{ACAD_REACTORS
330
267
102
}
330
267
100
AcDbVisualStyle
  2
OverhangOff
 70
    21
 71
     2
 72
     2
 73
     0
 90
        0
 40
0.6
 41
30.0
 62
     5
 63
     7
421
 16777215
 74
     1
 91
        4
 64
     7
 65
   257
 75
     1
175
     1
 42
1.0
 92
        9
 66
     7
 43
1.0
 76
     1
 77
     6
 78
     2
 67
     7
 79
     5
170
     0
171
     0
290
     0
174
     0
 93
        1
 44
0.0
173
     0
291
     1
 45
0.0
  0
VISUALSTYLE
  5
270
102
{ACAD_REACTORS
330
267
102
}
330
267
100
AcDbVisualStyle
  2
Realistic
 70
     8
 71
     2
 72
     2
 73
     0
 90
        0
 40
-0.6
 41
-30.0
 62
     5
 63
     7
421
 16777215
 74
     1
 91
        0
 64
     7
 65
   257
 75
     1
175
     1
 42
1.0
 92
        8
 66
     8
424
  7895160
 43
1.0
 76
     1
 77
     6
 78
     2
 67
     7
 79
     5
170
     0
171
     0
290
     0
174
     0
 93
       13
 44
0.0
173
     0
291
     0
 45
0.0
  0
VISUALSTYLE
  5
903
102
{ACAD_REACTORS
330
267
102
}
330
267
100
AcDbVisualStyle
  2
Shaded
 70
    27
 71
     2
 72
     2
 73
     1
 90
        2
 40
0.6
 41
30.0
 62
     5
 63
     7
421
 16777215
 74
     0
 91
        4
 64
     7
 65
   257
 75
     1
175
     1
 42
1.0
 92
        8
 66
   257
 43
1.0
 76
     1
 77
     6
 78
     2
 67
     8
425
  7895160
 79
     3
170
     0
171
     0
290
     0
174
     0
 93
        5
 44
0.0
173
     0
291
     0
 45
0.0
  0
VISUALSTYLE
  5
902
102
{ACAD_REACTORS
330
267
102
}
330
267
100
AcDbVisualStyle
  2
Shaded with edges
 70
    26
 71
     2
 72
     2
 73
     1
 90
        2
 40
0.6
 41
30.0
 62
     5
 63
     7
421
 16777215
 74
     1
 91
       10
 64
     7
 65
   257
 75
     2
175
     1
 42
1.0
 92
        8
 66
   257
 43
1.0
 76
     1
 77
     6
 78
     2
 67
     7
 79
     3
170
     0
171
     0
290
     0
174
     0
 93
        5
 44
0.0
173
     0
291
     0
 45
0.0
  0
VISUALSTYLE
  5
8FF
102
{ACAD_REACTORS
330
267
102
}
330
267
100
AcDbVisualStyle
  2
Shades of Gray
 70
    23
 71
     2
 72
     2
 73
     3
 90
        0
 40
0.6
 41
30.0
 62
     5
 63
     7
421
 16777215
 74
     2
 91
        2
 64
     7
 65
     7
 75
     1
175
     1
 42
40.0
 92
        8
 66
     7
 43
1.0
 76
     1
 77
     6
 78
     2
 67
     7
 79
     3
170
     0
171
     0
290
     0
174
     0
 93
        1
 44
0.0
173
     0
291
     0
 45
0.0
  0
VISUALSTYLE
  5
900
102
{ACAD_REACTORS
330
267
102
}
330
267
100
AcDbVisualStyle
  2
Sketchy
 70
    24
 71
     1
 72
     2
 73
     2
 90
        0
 40
0.6
 41
30.0
 62
     5
 63
     7
421
 16777215
 74
     2
 91
        2
 64
     7
 65
     7
 75
     1
175
     1
 42
40.0
 92
       11
 66
     7
 43
1.0
 76
     1
 77
     6
 78
     2
 67
     7
 79
     6
170
     0
171
     0
290
     0
174
     0
 93
        1
 44
0.0
173
     0
291
     0
 45
0.0
  0
VISUALSTYLE
  5
274
102
{ACAD_REACTORS
330
267
102
}
330
267
100
AcDbVisualStyle
  2
Thicken
 70
    13
 71
     2
 72
     2
 73
     0
 90
        0
 40
-0.6
 41
-30.0
 62
     5
 63
     7
421
 16777215
 74
     1
 91
        4
 64
     7
 65
   257
 75
     1
175
     1
 42
1.0
 92
       12
 66
     7
 43
1.0
 76
     1
 77
     6
 78
     2
 67
     7
 79
     5
170
     0
171
     0
290
     0
174
     0
 93
        1
 44
0.0
173
     0
291
     1
 45
0.0
  0
VISUALSTYLE
  5
8FA
102
{ACAD_REACTORS
330
267
102
}
330
267
100
AcDbVisualStyle
  2
Wireframe
 70
     5
 71
     0
 72
     2
 73
     0
 90
        0
 40
0.6
 41
30.0
 62
     5
 63
     7
421
 16777215
 74
     1
 91
        4
 64
     7
 65
   257
 75
     1
175
     1
 42
1.0
 92
        0
 66
   257
 43
1.0
 76
     1
 77
     6
 78
     2
 67
     7
 79
     3
170
     0
171
     0
290
     0
174
     0
 93
        1
 44
0.0
173
     0
291
     0
 45
0.0
  0
VISUALSTYLE
  5
901
102
{ACAD_REACTORS
330
267
102
}
330
267
100
AcDbVisualStyle
  2
X-Ray
 70
    25
 71
     2
 72
     2
 73
     1
 90
        1
 40
0.5
 41
30.0
 62
     5
 63
     7
421
 16777215
 74
     1
 91
        0
 64
     7
 65
   257
 75
     1
175
     1
 42
1.0
 92
        8
 66
     7
 43
1.0
 76
     1
 77
     6
 78
     2
 67
     7
 79
     3
170
     0
171
     0
290
     0
174
     0
 93
       13
 44
0.0
173
     0
291
     0
 45
0.0
  0
DICTIONARYVAR
  5
331
102
{ACAD_REACTORS
330
330
102
}
330
330
100
DictionaryVariables
280
     0
  1
1:1
  0
DICTIONARYVAR
  5
EA4
102
{ACAD_REACTORS
330
330
102
}
330
330
100
DictionaryVariables
280
     0
  1
Standard
  0
DICTIONARYVAR
  5
335
102
{ACAD_REACTORS
330
330
102
}
330
330
100
DictionaryVariables
280
     0
  1
Standard
  0
DICTIONARYVAR
  5
D52
102
{ACAD_REACTORS
330
330
102
}
330
330
100
DictionaryVariables
280
     0
  1
ByLayer
  0
DICTIONARYVAR
  5
896
102
{ACAD_REACTORS
330
330
102
}
330
330
100
DictionaryVariables
280
     0
  1
0
  0
DICTIONARYVAR
  5
10FD
102
{ACAD_REACTORS
330
EE7
102
}
330
EE7
100
DictionaryVariables
280
     0
  1
0.261799
  0
DICTIONARYVAR
  5
10FB
102
{ACAD_REACTORS
330
EE7
102
}
330
EE7
100
DictionaryVariables
280
     0
  1
0.400000
  0
DICTIONARYVAR
  5
10FC
102
{ACAD_REACTORS
330
EE7
102
}
330
EE7
100
DictionaryVariables
280
     0
  1
0.250000
  0
DICTIONARYVAR
  5
10FE
102
{ACAD_REACTORS
330
EE7
102
}
330
EE7
100
DictionaryVariables
280
     0
  1
1
  0
XRECORD
  5
7AA
102
{ACAD_REACTORS
330
2E2
102
}
330
2E2
100
AcDbXrecord
280
     1
 91
    34815
301

290
     0
302
MODEL
330
14
 90
        8
 62
     7
370
    -3
331
13
  1
Color_7
440
 33554687
330
4B
 90
        8
 62
     7
370
    20
331
13
  1
Color_7
440
 33554687
330
4C
 90
        8
 62
     7
370
    13
331
13
  1
Color_7
440
 33554687
330
4D
 90
        8
 62
     7
370
    20
331
13
  1
Color_7
440
 33554687
330
667
 90
        8
 62
     7
370
    -3
331
13
  1
Color_7
440
 33554687
330
88C
 90
        8
 62
     7
370
    20
331
45
  1
Color_7
440
 33554687
330
E85
 90
        0
 62
     7
370
    -3
331
13
  1
Color_7
440
 33554687
  0
DICTIONARY
  5
1B5A
330
279
100
AcDbDictionary
280
     1
281
     1
  3
ACAD_ROUNDTRIP_2008_TABLESTYLE_CELLSTYLEMAP
360
1B5B
  0
CELLSTYLEMAP
  5
1B5B
102
{ACAD_REACTORS
330
1B5A
102
}
330
1B5A
100
AcDbCellStyleMap
 90
        3
300
CELLSTYLE
  1
TABLEFORMAT_BEGIN
 90
        5
170
     1
 91
        0
 92
    32768
 62
   257
 93
        1
300
CONTENTFORMAT
  1
CONTENTFORMAT_BEGIN
 90
        0
 91
        0
 92
        4
 93
        0
300

 40
0.0
140
1.0
 94
        5
 62
     0
340
17
144
6.0
309
CONTENTFORMAT_END
171
     1
301
MARGIN
  1
CELLMARGIN_BEGIN
 40
0.06
 40
0.06
 40
0.06
 40
0.06
 40
0.18
 40
0.18
309
CELLMARGIN_END
 94
        6
 95
        1
302
GRIDFORMAT
  1
GRIDFORMAT_BEGIN
 90
        0
 91
        1
 62
     0
 92
       -2
340
0
 93
        0
 40
0.045
309
GRIDFORMAT_END
 95
        2
302
GRIDFORMAT
  1
GRIDFORMAT_BEGIN
 90
        0
 91
        1
 62
     0
 92
       -2
340
0
 93
        0
 40
0.045
309
GRIDFORMAT_END
 95
        4
302
GRIDFORMAT
  1
GRIDFORMAT_BEGIN
 90
        0
 91
        1
 62
     0
 92
       -2
340
0
 93
        0
 40
0.045
309
GRIDFORMAT_END
 95
        8
302
GRIDFORMAT
  1
GRIDFORMAT_BEGIN
 90
        0
 91
        1
 62
     0
 92
       -2
340
0
 93
        0
 40
0.045
309
GRIDFORMAT_END
 95
       16
302
GRIDFORMAT
  1
GRIDFORMAT_BEGIN
 90
        0
 91
        1
 62
     0
 92
       -2
340
0
 93
        0
 40
0.045
309
GRIDFORMAT_END
 95
       32
302
GRIDFORMAT
  1
GRIDFORMAT_BEGIN
 90
        0
 91
        1
 62
     0
 92
       -2
340
0
 93
        0
 40
0.045
309
GRIDFORMAT_END
309
TABLEFORMAT_END
  1
CELLSTYLE_BEGIN
 90
        1
 91
        1
300
_TITLE
309
CELLSTYLE_END
300
CELLSTYLE
  1
TABLEFORMAT_BEGIN
 90
        5
170
     1
 91
        0
 92
        0
 62
   257
 93
        1
300
CONTENTFORMAT
  1
CONTENTFORMAT_BEGIN
 90
        0
 91
        0
 92
        4
 93
        0
300

 40
0.0
140
1.0
 94
        5
 62
     0
340
17
144
4.5
309
CONTENTFORMAT_END
171
     1
301
MARGIN
  1
CELLMARGIN_BEGIN
 40
0.06
 40
0.06
 40
0.06
 40
0.06
 40
0.18
 40
0.18
309
CELLMARGIN_END
 94
        6
 95
        1
302
GRIDFORMAT
  1
GRIDFORMAT_BEGIN
 90
        0
 91
        1
 62
     0
 92
       -2
340
0
 93
        0
 40
0.045
309
GRIDFORMAT_END
 95
        2
302
GRIDFORMAT
  1
GRIDFORMAT_BEGIN
 90
        0
 91
        1
 62
     0
 92
       -2
340
0
 93
        0
 40
0.045
309
GRIDFORMAT_END
 95
        4
302
GRIDFORMAT
  1
GRIDFORMAT_BEGIN
 90
        0
 91
        1
 62
     0
 92
       -2
340
0
 93
        0
 40
0.045
309
GRIDFORMAT_END
 95
        8
302
GRIDFORMAT
  1
GRIDFORMAT_BEGIN
 90
        0
 91
        1
 62
     0
 92
       -2
340
0
 93
        0
 40
0.045
309
GRIDFORMAT_END
 95
       16
302
GRIDFORMAT
  1
GRIDFORMAT_BEGIN
 90
        0
 91
        1
 62
     0
 92
       -2
340
0
 93
        0
 40
0.045
309
GRIDFORMAT_END
 95
       32
302
GRIDFORMAT
  1
GRIDFORMAT_BEGIN
 90
        0
 91
        1
 62
     0
 92
       -2
340
0
 93
        0
 40
0.045
309
GRIDFORMAT_END
309
TABLEFORMAT_END
  1
CELLSTYLE_BEGIN
 90
        2
 91
        1
300
_HEADER
309
CELLSTYLE_END
300
CELLSTYLE
  1
TABLEFORMAT_BEGIN
 90
        5
170
     1
 91
        0
 92
        0
 62
   257
 93
        1
300
CONTENTFORMAT
  1
CONTENTFORMAT_BEGIN
 90
        0
 91
        0
 92
        4
 93
        0
300

 40
0.0
140
1.0
 94
        2
 62
     0
340
17
144
4.5
309
CONTENTFORMAT_END
171
     1
301
MARGIN
  1
CELLMARGIN_BEGIN
 40
0.06
 40
0.06
 40
0.06
 40
0.06
 40
0.18
 40
0.18
309
CELLMARGIN_END
 94
        6
 95
        1
302
GRIDFORMAT
  1
GRIDFORMAT_BEGIN
 90
        0
 91
        1
 62
     0
 92
       -2
340
0
 93
        0
 40
0.045
309
GRIDFORMAT_END
 95
        2
302
GRIDFORMAT
  1
GRIDFORMAT_BEGIN
 90
        0
 91
        1
 62
     0
 92
       -2
340
0
 93
        0
 40
0.045
309
GRIDFORMAT_END
 95
        4
302
GRIDFORMAT
  1
GRIDFORMAT_BEGIN
 90
        0
 91
        1
 62
     0
 92
       -2
340
0
 93
        0
 40
0.045
309
GRIDFORMAT_END
 95
        8
302
GRIDFORMAT
  1
GRIDFORMAT_BEGIN
 90
        0
 91
        1
 62
     0
 92
       -2
340
0
 93
        0
 40
0.045
309
GRIDFORMAT_END
 95
       16
302
GRIDFORMAT
  1
GRIDFORMAT_BEGIN
 90
        0
 91
        1
 62
     0
 92
       -2
340
0
 93
        0
 40
0.045
309
GRIDFORMAT_END
 95
       32
302
GRIDFORMAT
  1
GRIDFORMAT_BEGIN
 90
        0
 91
        1
 62
     0
 92
       -2
340
0
 93
        0
 40
0.045
309
GRIDFORMAT_END
309
TABLEFORMAT_END
  1
CELLSTYLE_BEGIN
 90
        3
 91
        2
300
_DATA
309
CELLSTYLE_END
  0
ENDSEC
  0
EOF
