  0
SECTION
  2
HEADER
  9
$ACADVER
  1
AC1021
  9
$ACADMAINTVER
 70
    25
  9
$DWGCODEPAGE
  3
ANSI_932
  9
$LASTSAVEDBY
  1
howeNelson
  9
$INSBASE
 10
0.0
 20
0.0
 30
0.0
  9
$EXTMIN
 10
0.0
 20
0.0
 30
-0.0000000000000071
  9
$EXTMAX
 10
630.0000000000002
 20
891.0
 30
0.0000000000000071
  9
$LIMMIN
 10
0.0
 20
0.0
  9
$LIMMAX
 10
630.0000000000001
 20
891.0
  9
$ORTHOMODE
 70
     0
  9
$REGENMODE
 70
     1
  9
$FILLMODE
 70
     1
  9
$QTEXTMODE
 70
     0
  9
$MIRRTEXT
 70
     1
  9
$LTSCALE
 40
50.8
  9
$ATTMODE
 70
     1
  9
$TEXTSIZE
 40
2.5
  9
$TRACEWID
 40
1.0
  9
$TEXTSTYLE
  7
ＭＳ ゴシック
  9
$CLAYER
  8
DIM
  9
$CELTYPE
  6
ByLayer
  9
$CECOLOR
 62
     2
  9
$CELTSCALE
 40
1.0
  9
$DISPSILH
 70
     0
  9
$DIMSCALE
 40
1.0
  9
$DIMASZ
 40
2.0
  9
$DIMEXO
 40
5.0
  9
$DIMDLI
 40
0.0
  9
$DIMRND
 40
0.0
  9
$DIMDLE
 40
0.0
  9
$DIMEXE
 40
0.0
  9
$DIMTP
 40
0.0
  9
$DIMTM
 40
0.0
  9
$DIMTXT
 40
7.0
  9
$DIMCEN
 40
0.0
  9
$DIMTSZ
 40
0.0
  9
$DIMTOL
 70
     0
  9
$DIMLIM
 70
     0
  9
$DIMTIH
 70
     0
  9
$DIMTOH
 70
     0
  9
$DIMSE1
 70
     0
  9
$DIMSE2
 70
     0
  9
$DIMTAD
 70
     1
  9
$DIMZIN
 70
    11
  9
$DIMBLK
  1
DOT
  9
$DIMASO
 70
     1
  9
$DIMSHO
 70
     1
  9
$DIMPOST
  1
<>
  9
$DIMAPOST
  1
[]
  9
$DIMALT
 70
     0
  9
$DIMALTD
 70
     1
  9
$DIMALTF
 40
1.0
  9
$DIMLFAC
 40
1.0
  9
$DIMTOFL
 70
     0
  9
$DIMTVP
 40
0.0
  9
$DIMTIX
 70
     1
  9
$DIMSOXD
 70
     0
  9
$DIMSAH
 70
     0
  9
$DIMBLK1
  1

  9
$DIMBLK2
  1

  9
$DIMSTYLE
  2
tfrom線あり
  9
$DIMCLRD
 70
     0
  9
$DIMCLRE
 70
     0
  9
$DIMCLRT
 70
     0
  9
$DIMTFAC
 40
1.0
  9
$DIMGAP
 40
10.0
  9
$DIMJUST
 70
     0
  9
$DIMSD1
 70
     0
  9
$DIMSD2
 70
     0
  9
$DIMTOLJ
 70
     1
  9
$DIMTZIN
 70
    11
  9
$DIMALTZ
 70
    11
  9
$DIMALTTZ
 70
    11
  9
$DIMUPT
 70
     0
  9
$DIMDEC
 70
     0
  9
$DIMTDEC
 70
     1
  9
$DIMALTU
 70
     2
  9
$DIMALTTD
 70
     2
  9
$DIMTXSTY
  7
ＭＳ ゴシック
  9
$DIMAUNIT
 70
     0
  9
$DIMADEC
 70
     2
  9
$DIMALTRND
 40
0.0
  9
$DIMAZIN
 70
     0
  9
$DIMDSEP
 70
    46
  9
$DIMATFIT
 70
     0
  9
$DIMFRAC
 70
     2
  9
$DIMLDRBLK
  1
DOT
  9
$DIMLUNIT
 70
     2
  9
$DIMLWD
 70
    -2
  9
$DIMLWE
 70
    -2
  9
$DIMTMOVE
 70
     0
  9
$DIMFXL
 40
1.0
  9
$DIMFXLON
 70
     0
  9
$DIMJOGANG
 40
0.7853981633974483
  9
$DIMTFILL
 70
     0
  9
$DIMTFILLCLR
 70
     0
  9
$DIMARCSYM
 70
     0
  9
$DIMLTYPE
  6

  9
$DIMLTEX1
  6

  9
$DIMLTEX2
  6

  9
$LUNITS
 70
     2
  9
$LUPREC
 70
     0
  9
$SKETCHINC
 40
0.1
  9
$FILLETRAD
 40
0.0
  9
$AUNITS
 70
     0
  9
$AUPREC
 70
     0
  9
$MENU
  1
acad
  9
$ELEVATION
 40
0.0
  9
$PELEVATION
 40
0.0
  9
$THICKNESS
 40
0.0
  9
$LIMCHECK
 70
     0
  9
$CHAMFERA
 40
0.0
  9
$CHAMFERB
 40
0.0
  9
$CHAMFERC
 40
0.0
  9
$CHAMFERD
 40
0.0
  9
$SKPOLY
 70
     0
  9
$TDCREATE
 40
2447893.375
  9
$TDUCREATE
 40
0.0
  9
$TDUPDATE
 40
2457498.616222106
  9
$TDUUPDATE
 40
2457498.241222106
  9
$TDINDWG
 40
0.2303982639
  9
$TDUSRTIMER
 40
2457498.235141759
  9
$USRTIMER
 70
     1
  9
$ANGBASE
 50
0.0
  9
$ANGDIR
 70
     0
  9
$PDMODE
 70
     1
  9
$PDSIZE
 40
-2.0
  9
$PLINEWID
 40
0.0
  9
$SPLFRAME
 70
     0
  9
$SPLINETYPE
 70
     6
  9
$SPLINESEGS
 70
     8
  9
$HANDSEED
  5
7282
  9
$SURFTAB1
 70
     6
  9
$SURFTAB2
 70
     6
  9
$SURFTYPE
 70
     6
  9
$SURFU
 70
     6
  9
$SURFV
 70
     6
  9
$UCSBASE
  2

  9
$UCSNAME
  2

  9
$UCSORG
 10
0.0
 20
0.0
 30
0.0
  9
$UCSXDIR
 10
1.0
 20
0.0
 30
0.0
  9
$UCSYDIR
 10
0.0
 20
1.0
 30
0.0
  9
$UCSORTHOREF
  2

  9
$UCSORTHOVIEW
 70
     0
  9
$UCSORGTOP
 10
0.0
 20
0.0
 30
0.0
  9
$UCSORGBOTTOM
 10
0.0
 20
0.0
 30
0.0
  9
$UCSORGLEFT
 10
0.0
 20
0.0
 30
0.0
  9
$UCSORGRIGHT
 10
0.0
 20
0.0
 30
0.0
  9
$UCSORGFRONT
 10
0.0
 20
0.0
 30
0.0
  9
$UCSORGBACK
 10
0.0
 20
0.0
 30
0.0
  9
$PUCSBASE
  2

  9
$PUCSNAME
  2

  9
$PUCSORG
 10
0.0
 20
0.0
 30
0.0
  9
$PUCSXDIR
 10
1.0
 20
0.0
 30
0.0
  9
$PUCSYDIR
 10
0.0
 20
1.0
 30
0.0
  9
$PUCSORTHOREF
  2

  9
$PUCSORTHOVIEW
 70
     0
  9
$PUCSORGTOP
 10
0.0
 20
0.0
 30
0.0
  9
$PUCSORGBOTTOM
 10
0.0
 20
0.0
 30
0.0
  9
$PUCSORGLEFT
 10
0.0
 20
0.0
 30
0.0
  9
$PUCSORGRIGHT
 10
0.0
 20
0.0
 30
0.0
  9
$PUCSORGFRONT
 10
0.0
 20
0.0
 30
0.0
  9
$PUCSORGBACK
 10
0.0
 20
0.0
 30
0.0
  9
$USERI1
 70
     0
  9
$USERI2
 70
     0
  9
$USERI3
 70
     0
  9
$USERI4
 70
     0
  9
$USERI5
 70
     0
  9
$USERR1
 40
0.0
  9
$USERR2
 40
0.0
  9
$USERR3
 40
0.0
  9
$USERR4
 40
0.0
  9
$USERR5
 40
0.0
  9
$WORLDVIEW
 70
     1
  9
$SHADEDGE
 70
     3
  9
$SHADEDIF
 70
    70
  9
$TILEMODE
 70
     1
  9
$MAXACTVP
 70
    64
  9
$PINSBASE
 10
0.0
 20
0.0
 30
0.0
  9
$PLIMCHECK
 70
     0
  9
$PEXTMIN
 10
0.0
 20
0.0
 30
0.0
  9
$PEXTMAX
 10
0.0
 20
0.0
 30
0.0
  9
$PLIMMIN
 10
-95.87226993865028
 20
-25.69999999999999
  9
$PLIMMAX
 10
201.1277300613497
 20
184.3
  9
$UNITMODE
 70
     0
  9
$VISRETAIN
 70
     0
  9
$PLINEGEN
 70
     1
  9
$PSLTSCALE
 70
     0
  9
$TREEDEPTH
 70
  3020
  9
$CMLSTYLE
  2
Standard
  9
$CMLJUST
 70
     0
  9
$CMLSCALE
 40
1.0
  9
$PROXYGRAPHICS
 70
     0
  9
$MEASUREMENT
 70
     1
  9
$CELWEIGHT
370
    -1
  9
$ENDCAPS
280
     0
  9
$JOINSTYLE
280
     0
  9
$LWDISPLAY
290
     1
  9
$INSUNITS
 70
     4
  9
$HYPERLINKBASE
  1

  9
$STYLESHEET
  1

  9
$XEDIT
290
     1
  9
$CEPSNTYPE
380
     0
  9
$PSTYLEMODE
290
     1
  9
$FINGERPRINTGUID
  2

  9
$VERSIONGUID
  2

  9
$EXTNAMES
290
     1
  9
$PSVPSCALE
 40
0.0
  9
$OLESTARTUP
290
     0
  9
$SORTENTS
280
   127
  9
$INDEXCTL
280
     0
  9
$HIDETEXT
280
     1
  9
$XCLIPFRAME
290
     0
  9
$HALOGAP
280
     0
  9
$OBSCOLOR
 70
   257
  9
$OBSLTYPE
280
     0
  9
$INTERSECTIONDISPLAY
280
     0
  9
$INTERSECTIONCOLOR
 70
   257
  9
$DIMASSOC
280
     2
  9
$PROJECTNAME
  1

  9
$CAMERADISPLAY
290
     0
  9
$LENSLENGTH
 40
50.0
  9
$CAMERAHEIGHT
 40
0.0
  9
$STEPSPERSEC
 40
2.0
  9
$STEPSIZE
 40
6.0
  9
$3DDWFPREC
 40
2.0
  9
$PSOLWIDTH
 40
0.25
  9
$PSOLHEIGHT
 40
4.0
  9
$LOFTANG1
 40
1.570796326794897
  9
$LOFTANG2
 40
1.570796326794897
  9
$LOFTMAG1
 40
0.0
  9
$LOFTMAG2
 40
0.0
  9
$LOFTPARAM
 70
     7
  9
$LOFTNORMALS
280
     1
  9
$LATITUDE
 40
37.795
  9
$LONGITUDE
 40
-122.394
  9
$NORTHDIRECTION
 40
0.0
  9
$TIMEZONE
 70
 -8000
  9
$LIGHTGLYPHDISPLAY
280
     1
  9
$TILEMODELIGHTSYNCH
280
     1
  9
$SOLIDHIST
280
     1
  9
$SHOWHIST
280
     1
  9
$DWFFRAME
280
     2
  9
$DGNFRAME
280
     2
  9
$REALWORLDSCALE
290
     1
  9
$INTERFERECOLOR
 62
   256
  9
$CSHADOW
280
     0
  9
$SHADOWPLANELOCATION
 40
0.0
  0
ENDSEC
  0
SECTION
  2
CLASSES
  0
CLASS
  1
LWPOLYLINE
  2
AcDbPolyline
  3
ObjectDBX Classes
 90
        0
 91
        1
280
     0
281
     1
  0
CLASS
  1
IMAGE
  2
AcDbRasterImage
  3
ISM
 90
      127
 91
        8
280
     0
281
     1
  0
CLASS
  1
OLE2FRAME
  2
AcDbOle2Frame
  3
ObjectDBX Classes
 90
        0
 91
        1
280
     0
281
     1
  0
CLASS
  1
HATCH
  2
AcDbHatch
  3
ObjectDBX Classes
 90
        0
 91
        1
280
     0
281
     1
  0
CLASS
  1
DICTIONARYVAR
  2
AcDbDictionaryVar
  3
ObjectDBX Classes
 90
        0
 91
        7
280
     0
281
     0
  0
CLASS
  1
RASTERVARIABLES
  2
AcDbRasterVariables
  3
ISM
 90
        0
 91
        7
280
     0
281
     0
  0
CLASS
  1
IMAGEDEF
  2
AcDbRasterImageDef
  3
ISM
 90
        0
 91
        7
280
     0
281
     0
  0
CLASS
  1
IMAGEDEF_REACTOR
  2
AcDbRasterImageDefReactor
  3
ISM
 90
        1
 91
        7
280
     0
281
     0
  0
CLASS
  1
IDBUFFER
  2
AcDbIdBuffer
  3
ObjectDBX Classes
 90
        0
 91
        7
280
     0
281
     0
  0
CLASS
  1
SPATIAL_FILTER
  2
AcDbSpatialFilter
  3
ObjectDBX Classes
 90
        0
 91
        7
280
     0
281
     0
  0
CLASS
  1
XRECORD
  2
AcDbXrecord
  3
ObjectDBX Classes
 90
        0
 91
        1
280
     0
281
     0
  0
CLASS
  1
SORTENTSTABLE
  2
AcDbSortentsTable
  3
ObjectDBX Classes
 90
        0
 91
        7
280
     0
281
     0
  0
CLASS
  1
LAYER_INDEX
  2
AcDbLayerIndex
  3
ObjectDBX Classes
 90
        0
 91
        7
280
     0
281
     0
  0
CLASS
  1
SPATIAL_INDEX
  2
AcDbSpatialIndex
  3
AutoCAD 2000
 90
        0
 91
        7
280
     0
281
     0
  0
CLASS
  1
OBJECT_PTR
  2
CAseDLPNTableRecord
  3
ASE-LPNTableRecord
 90
        1
 91
        7
280
     0
281
     0
  0
CLASS
  1
LAYOUT
  2
AcDbLayout
  3
ObjectDBX Classes
 90
        0
 91
        1
280
     0
281
     0
  0
CLASS
  1
PLOTSETTINGS
  2
AcDbPlotSettings
  3
ObjectDBX Classes
 90
        0
 91
        7
280
     0
281
     0
  0
CLASS
  1
ACDBDICTIONARYWDFLT
  2
AcDbDictionaryWithDefault
  3
ObjectDBX Classes
 90
        0
 91
        7
280
     0
281
     0
  0
CLASS
  1
ACDBPLACEHOLDER
  2
AcDbPlaceHolder
  3
ObjectDBX Classes
 90
        0
 91
        1
280
     0
281
     0
  0
CLASS
  1
SCALE
  2
AcDbScale
  3
ObjectDBX Classes
 90
     1153
 91
        7
280
     0
281
     0
  0
CLASS
  1
MATERIAL
  2
AcDbMaterial
  3
ObjectDBX Classes
 90
     1153
 91
        7
280
     0
281
     0
  0
CLASS
  1
VISUALSTYLE
  2
AcDbVisualStyle
  3
ObjectDBX Classes
 90
     4095
 91
        7
280
     0
281
     0
  0
CLASS
  1
TABLESTYLE
  2
AcDbTableStyle
  3
ObjectDBX Classes
 90
     4095
 91
        7
280
     0
281
     0
  0
CLASS
  1
DIMASSOC
  2
AcDbDimAssoc
  3
"AcDbDimAssoc|Product Desc:     AcDim ARX App For Dimension|Company:          Autodesk, Inc.|WEB Address:      www.autodesk.com"
 90
        0
 91
        7
280
     0
281
     0
  0
CLASS
  1
CELLSTYLEMAP
  2
AcDbCellStyleMap
  3
ObjectDBX Classes
 90
     1152
 91
        7
280
     0
281
     0
  0
CLASS
  1
SUN
  2
AcDbSun
  3
SCENEOE
 90
     1153
 91
        7
280
     0
281
     0
  0
CLASS
  1
MLEADERSTYLE
  2
AcDbMLeaderStyle
  3
ACDB_MLEADERSTYLE_CLASS
 90
     4095
 91
        7
280
     0
281
     0
  0
ENDSEC
  0
SECTION
  2
TABLES
  0
TABLE
  2
VPORT
  5
7
330
0
100
AcDbSymbolTable
 70
     1
  0
VPORT
  5
15
330
7
100
AcDbSymbolTableRecord
100
AcDbViewportTableRecord
  2
*ACTIVE
 70
     0
 10
0.0
 20
0.0
 11
1.0
 21
1.0
 12
406.0201356708981
 22
371.901285469834
 13
0.0
 23
0.0
 14
1.0
 24
1.0
 15
0.0
 25
0.0
 16
0.0
 26
0.0
 36
1.0
 17
-91.02013567089801
 27
73.59871453016603
 37
-46.86809886248109
 40
908.82
 41
2.0
 42
50.0
 43
0.0
 44
0.0
 50
0.0
 51
0.0
 71
    16
 72
  2000
 73
     1
 74
     1
 75
     0
 76
     0
 77
     0
 78
     0
281
     0
 65
     1
110
0.0
120
0.0
130
0.0
111
1.0
121
0.0
131
0.0
112
0.0
122
1.0
132
0.0
 79
     0
146
0.0
348
26C
 60
     3
 61
     5
292
     1
282
     1
141
0.0
142
0.0
 63
   256
361
904
  0
ENDTAB
  0
TABLE
  2
LTYPE
  5
4
330
0
100
AcDbSymbolTable
 70
     6
  0
LTYPE
  5
11
330
4
100
AcDbSymbolTableRecord
100
AcDbLinetypeTableRecord
  2
ByBlock
 70
     0
  3

 72
    65
 73
     0
 40
0.0
  0
LTYPE
  5
12
330
4
100
AcDbSymbolTableRecord
100
AcDbLinetypeTableRecord
  2
ByLayer
 70
     0
  3

 72
    65
 73
     0
 40
0.0
  0
LTYPE
  5
13
330
4
100
AcDbSymbolTableRecord
100
AcDbLinetypeTableRecord
  2
Continuous
 70
     0
  3
Solid line
 72
    65
 73
     0
 40
0.0
  0
LTYPE
  5
16E4
330
4
100
AcDbSymbolTableRecord
100
AcDbLinetypeTableRecord
  2
CENTER
 70
     0
  3
 Center _____  _  _____  _  _____  _  _____  _ 
 72
    65
 73
     4
 40
50.8
 49
31.75
 74
     0
 49
-6.35
 74
     0
 49
6.35
 74
     0
 49
-6.35
 74
     0
  0
LTYPE
  5
1AB3
330
4
100
AcDbSymbolTableRecord
100
AcDbLinetypeTableRecord
  2
BORDER
 70
     0
  3
Border __  __  . __  __  . __  __  . __  __  . 
 72
    65
 73
     6
 40
44.45
 49
12.7
 74
     0
 49
-6.35
 74
     0
 49
12.7
 74
     0
 49
-6.35
 74
     0
 49
0.0
 74
     0
 49
-6.35
 74
     0
  0
LTYPE
  5
1EC6
330
4
100
AcDbSymbolTableRecord
100
AcDbLinetypeTableRecord
  2
HIDDEN2
 70
     0
  3
Hidden (.5x) _ _ _ _ _ _ _ _ _ _ _ _ _ _ _ _ _ 
 72
    65
 73
     2
 40
4.7625
 49
3.175
 74
     4
 75
     0
340
0
 46
0.0
 50
0.0
 44
0.0
 45
0.0
 49
-1.5875
 74
     4
 75
     0
340
0
 46
0.0
 50
0.0
 44
0.0
 45
0.0
  0
LTYPE
  5
1EC7
330
4
100
AcDbSymbolTableRecord
100
AcDbLinetypeTableRecord
  2
CENTER2
 70
     0
  3
Center (.5x) ___ _ ___ _ ___ _ ___ _ ___ _ ___
 72
    65
 73
     4
 40
28.575
 49
19.05
 74
     4
 75
     0
340
0
 46
0.0
 50
0.0
 44
0.0
 45
0.0
 49
-3.175
 74
     4
 75
     0
340
0
 46
0.0
 50
0.0
 44
0.0
 45
0.0
 49
3.175
 74
     4
 75
     0
340
0
 46
0.0
 50
0.0
 44
0.0
 45
0.0
 49
-3.175
 74
     4
 75
     0
340
0
 46
0.0
 50
0.0
 44
0.0
 45
0.0
  0
LTYPE
  5
71E9
330
4
100
AcDbSymbolTableRecord
100
AcDbLinetypeTableRecord
  2
HIDDEN
 70
     0
  3
Hidden _ _ _ _ _ _ _ _ _ _ _ _ _ _ _ _ _ _ _ _ 
 72
    65
 73
     2
 40
9.524999999999999
 49
6.35
 74
     0
 49
-3.175
 74
     0
  0
ENDTAB
  0
TABLE
  2
LAYER
  5
2
102
{ACAD_XDICTIONARY
360
2E1
102
}
330
0
100
AcDbSymbolTable
 70
     8
  0
LAYER
  5
14
330
2
100
AcDbSymbolTableRecord
100
AcDbLayerTableRecord
  2
0
 70
     0
 62
     7
  6
Continuous
370
    -3
390
1D
347
266
  0
LAYER
  5
4B
330
2
100
AcDbSymbolTableRecord
100
AcDbLayerTableRecord
  2
TEMPLATE
 70
     0
 62
     7
  6
Continuous
370
    20
390
1D
347
266
  0
LAYER
  5
4C
330
2
100
AcDbSymbolTableRecord
100
AcDbLayerTableRecord
  2
DIM
 70
     0
 62
     7
  6
Continuous
370
    13
390
1D
347
266
  0
LAYER
  5
4D
330
2
100
AcDbSymbolTableRecord
100
AcDbLayerTableRecord
  2
MODEL
 70
     0
 62
     7
  6
Continuous
370
    20
390
1D
347
266
  0
LAYER
  5
667
330
2
100
AcDbSymbolTableRecord
100
AcDbLayerTableRecord
  2
LOGO
 70
     0
 62
     7
  6
Continuous
370
    -3
390
1D
347
266
  0
LAYER
  5
DDE
330
2
100
AcDbSymbolTableRecord
100
AcDbLayerTableRecord
  2
Defpoints
 70
     0
 62
     7
  6
Continuous
290
     0
370
    -3
390
1D
347
266
  0
LAYER
  5
E72
330
2
100
AcDbSymbolTableRecord
100
AcDbLayerTableRecord
  2
Standard
 70
     0
 62
     7
  6
Continuous
370
    -3
390
1D
347
266
  0
LAYER
  5
19F1
330
2
100
AcDbSymbolTableRecord
100
AcDbLayerTableRecord
  2
PRINT
 70
     0
 62
     4
  6
Continuous
290
     0
370
    20
390
1D
347
266
1001
AcAecLayerStandard
1000

1000

  0
ENDTAB
  0
TABLE
  2
STYLE
  5
3
330
0
100
AcDbSymbolTable
 70
     2
  0
STYLE
  5
17
330
3
100
AcDbSymbolTableRecord
100
AcDbTextStyleTableRecord
  2
Standard
 70
     0
 40
0.0
 41
1.0
 50
0.0
 71
     0
 42
2.5
  3
txt
  4
BIGFONT.SHX
  0
STYLE
  5
39
330
3
100
AcDbSymbolTableRecord
100
AcDbTextStyleTableRecord
  2
ＭＳ ゴシック
 70
     0
 40
0.0
 41
1.0
 50
0.0
 71
     0
 42
2.5
  3
msgothic.ttc
  4
ＭＳ ゴシック
1001
ACAD
1000
ＭＳ ゴシック
1071
        0
  0
ENDTAB
  0
TABLE
  2
VIEW
  5
5
330
0
100
AcDbSymbolTable
 70
     0
  0
ENDTAB
  0
TABLE
  2
UCS
  5
6
330
0
100
AcDbSymbolTable
 70
     0
  0
ENDTAB
  0
TABLE
  2
APPID
  5
8
330
0
100
AcDbSymbolTable
 70
     3
  0
APPID
  5
16
330
8
100
AcDbSymbolTableRecord
100
AcDbRegAppTableRecord
  2
ACAD
 70
     0
  0
APPID
  5
7AC
330
8
100
AcDbSymbolTableRecord
100
AcDbRegAppTableRecord
  2
AcAecLayerStandard
 70
     0
  0
APPID
  5
1AAF
330
8
100
AcDbSymbolTableRecord
100
AcDbRegAppTableRecord
  2
ACAD_MLEADERVER
 70
     0
  0
ENDTAB
  0
TABLE
  2
DIMSTYLE
  5
9
330
0
100
AcDbSymbolTable
 70
     3
100
AcDbDimStyleTable
  0
DIMSTYLE
105
18
330
9
100
AcDbSymbolTableRecord
100
AcDbDimStyleTableRecord
  2
Standard
 70
     0
178
     0
340
17
  0
DIMSTYLE
105
57
102
{ACAD_REACTORS
330
6D51
330
6D60
330
70F2
102
}
330
9
100
AcDbSymbolTableRecord
100
AcDbDimStyleTableRecord
  2
tfrom線あり
 70
     0
  3
<>
  4
[]
 41
2.0
 42
5.0
 43
0.0
 44
0.0
 73
     0
 74
     0
 77
     1
 78
    11
140
7.0
141
0.0
143
1.0
147
10.0
171
     1
174
     1
178
     0
179
     2
271
     0
272
     1
276
     2
284
    11
285
    11
286
    11
289
     0
340
39
341
4E
342
4E
  0
DIMSTYLE
105
68D8
330
9
100
AcDbSymbolTableRecord
100
AcDbDimStyleTableRecord
  2
ISO-25
 70
     0
 41
2.5
 42
0.625
 43
3.75
 44
1.25
 73
     0
 74
     0
 77
     1
 78
     8
140
2.5
141
2.5
143
0.03937007874016
147
0.625
171
     3
172
     1
178
     0
271
     2
272
     2
274
     3
278
    44
283
     0
284
     8
340
17
  0
ENDTAB
  0
TABLE
  2
BLOCK_RECORD
  5
1
330
0
100
AcDbSymbolTable
 70
    25
  0
BLOCK_RECORD
  5
A
330
1
100
AcDbSymbolTableRecord
100
AcDbBlockTableRecord
  2
*MODEL_SPACE
340
20
 70
     0
280
     1
281
     0
  0
BLOCK_RECORD
  5
B
330
1
100
AcDbSymbolTableRecord
100
AcDbBlockTableRecord
  2
*PAPER_SPACE
340
21
 70
     0
280
     1
281
     0
  0
BLOCK_RECORD
  5
4E
330
1
100
AcDbSymbolTableRecord
100
AcDbBlockTableRecord
  2
_DOT
340
0
102
{BLKREFS
331
175B
331
175C
331
176A
331
176B
331
1786
331
1787
331
17A6
331
17A7
331
17C3
331
17C4
331
5294
331
5295
331
52A2
331
52A3
331
52E3
331
52E4
331
5364
331
5365
331
6D40
331
6D41
331
6D5A
331
6D5B
331
6D67
331
6D68
331
6D75
331
6D76
331
70A2
331
70A3
331
70D9
331
70DA
331
70E6
331
70E7
331
70FB
331
70FC
102
}
 70
     0
280
     1
281
     0
  0
BLOCK_RECORD
  5
68A
330
1
100
AcDbSymbolTableRecord
100
AcDbBlockTableRecord
  2
名称未設定-1
340
0
102
{BLKREFS
331
6B5
102
}
 70
     1
280
     1
281
     0
  0
BLOCK_RECORD
  5
68D
330
1
100
AcDbSymbolTableRecord
100
AcDbBlockTableRecord
  2
block 2
340
0
102
{BLKREFS
331
68C
102
}
 70
     0
280
     1
281
     0
  0
BLOCK_RECORD
  5
690
330
1
100
AcDbSymbolTableRecord
100
AcDbBlockTableRecord
  2
block 3
340
0
102
{BLKREFS
331
68F
102
}
 70
     0
280
     1
281
     0
  0
BLOCK_RECORD
  5
693
330
1
100
AcDbSymbolTableRecord
100
AcDbBlockTableRecord
  2
block 4
340
0
102
{BLKREFS
331
692
102
}
 70
     0
280
     1
281
     0
  0
BLOCK_RECORD
  5
6A2
330
1
100
AcDbSymbolTableRecord
100
AcDbBlockTableRecord
  2
block 5
340
0
102
{BLKREFS
331
6A1
102
}
 70
     0
280
     1
281
     0
  0
BLOCK_RECORD
  5
1755
330
1
100
AcDbSymbolTableRecord
100
AcDbBlockTableRecord
  2
*D6
340
0
 70
     0
280
     1
281
     0
  0
BLOCK_RECORD
  5
1764
330
1
100
AcDbSymbolTableRecord
100
AcDbBlockTableRecord
  2
*D7
340
0
 70
     0
280
     1
281
     0
  0
BLOCK_RECORD
  5
1780
330
1
100
AcDbSymbolTableRecord
100
AcDbBlockTableRecord
  2
*D8
340
0
 70
     0
280
     1
281
     0
  0
BLOCK_RECORD
  5
17A0
330
1
100
AcDbSymbolTableRecord
100
AcDbBlockTableRecord
  2
*D9
340
0
 70
     0
280
     1
281
     0
  0
BLOCK_RECORD
  5
17BC
330
1
100
AcDbSymbolTableRecord
100
AcDbBlockTableRecord
  2
*D10
340
0
 70
     0
280
     1
281
     0
  0
BLOCK_RECORD
  5
528E
330
1
100
AcDbSymbolTableRecord
100
AcDbBlockTableRecord
  2
*D11
340
0
 70
     0
280
     1
281
     0
  0
BLOCK_RECORD
  5
529C
330
1
100
AcDbSymbolTableRecord
100
AcDbBlockTableRecord
  2
*D12
340
0
 70
     0
280
     1
281
     0
  0
BLOCK_RECORD
  5
52DD
330
1
100
AcDbSymbolTableRecord
100
AcDbBlockTableRecord
  2
*D13
340
0
 70
     0
280
     1
281
     0
  0
BLOCK_RECORD
  5
535E
330
1
100
AcDbSymbolTableRecord
100
AcDbBlockTableRecord
  2
*D14
340
0
 70
     0
280
     1
281
     0
  0
BLOCK_RECORD
  5
6D39
330
1
100
AcDbSymbolTableRecord
100
AcDbBlockTableRecord
  2
*D15
340
0
 70
     0
280
     1
281
     0
  0
BLOCK_RECORD
  5
6D54
330
1
100
AcDbSymbolTableRecord
100
AcDbBlockTableRecord
  2
*D16
340
0
 70
     0
280
     1
281
     0
  0
BLOCK_RECORD
  5
6D61
330
1
100
AcDbSymbolTableRecord
100
AcDbBlockTableRecord
  2
*D17
340
0
 70
     0
280
     1
281
     0
  0
BLOCK_RECORD
  5
6D6F
330
1
100
AcDbSymbolTableRecord
100
AcDbBlockTableRecord
  2
*D18
340
0
 70
     0
280
     1
281
     0
  0
BLOCK_RECORD
  5
709C
330
1
100
AcDbSymbolTableRecord
100
AcDbBlockTableRecord
  2
*D19
340
0
 70
     0
280
     1
281
     0
  0
BLOCK_RECORD
  5
70D3
330
1
100
AcDbSymbolTableRecord
100
AcDbBlockTableRecord
  2
*D20
340
0
 70
     0
280
     1
281
     0
  0
BLOCK_RECORD
  5
70E0
330
1
100
AcDbSymbolTableRecord
100
AcDbBlockTableRecord
  2
*D21
340
0
 70
     0
280
     1
281
     0
  0
BLOCK_RECORD
  5
70F5
330
1
100
AcDbSymbolTableRecord
100
AcDbBlockTableRecord
  2
*D22
340
0
 70
     0
280
     1
281
     0
  0
ENDTAB
  0
ENDSEC
  0
SECTION
  2
BLOCKS
  0
BLOCK
  5
D
330
A
100
AcDbEntity
  8
0
390
1D
100
AcDbBlockBegin
  2
*MODEL_SPACE
 70
     0
 10
0.0
 20
0.0
 30
0.0
  3
*MODEL_SPACE
  1
*MODEL_SPACE
  0
ENDBLK
  5
E
330
A
100
AcDbEntity
  8
0
390
1D
100
AcDbBlockEnd
  0
BLOCK
  5
F
330
B
100
AcDbEntity
 67
     1
  8
0
390
1D
100
AcDbBlockBegin
  2
*PAPER_SPACE
 70
     0
 10
0.0
 20
0.0
 30
0.0
  3
*PAPER_SPACE
  1
*PAPER_SPACE
  0
ENDBLK
  5
10
330
B
100
AcDbEntity
 67
     1
  8
0
390
1D
100
AcDbBlockEnd
  0
BLOCK
  5
716E
330
4E
100
AcDbEntity
  8
0
390
1D
100
AcDbBlockBegin
  2
_DOT
 70
     0
 10
0.0
 20
0.0
 30
0.0
  3
_DOT
  1
_DOT
  0
POLYLINE
  5
7170
330
4E
100
AcDbEntity
  8
0
  6
ByBlock
 62
     0
370
    -2
390
1D
100
AcDb2dPolyline
 66
     1
 10
0.0
 20
0.0
 30
0.0
 70
     1
 40
0.5
 41
0.5
  0
VERTEX
  5
7171
330
7170
100
AcDbEntity
  8
0
  6
ByBlock
 62
     0
370
    -2
390
1D
100
AcDbVertex
100
AcDb2dVertex
 10
-0.25
 20
0.0
 30
0.0
 42
1.0
  0
VERTEX
  5
7172
330
7170
100
AcDbEntity
  8
0
  6
ByBlock
 62
     0
370
    -2
390
1D
100
AcDbVertex
100
AcDb2dVertex
 10
0.25
 20
0.0
 30
0.0
 42
1.0
  0
SEQEND
  5
7173
330
7170
100
AcDbEntity
  8
0
390
1D
  0
LINE
  5
7174
330
4E
100
AcDbEntity
  8
0
  6
ByBlock
 62
     0
370
    -2
390
1D
100
AcDbLine
 10
-0.5
 20
0.0
 30
0.0
 11
-1.0
 21
0.0
 31
0.0
  0
ENDBLK
  5
7175
330
4E
100
AcDbEntity
  8
0
390
1D
100
AcDbBlockEnd
  0
BLOCK
  5
68B
330
68A
100
AcDbEntity
  8
0
100
AcDbBlockBegin
  2
名称未設定-1
 70
     0
 10
0.0
 20
0.0
 30
0.0
  3
名称未設定-1
  1
名称未設定-1
  0
INSERT
  5
68F
330
68A
100
AcDbEntity
  8
LOGO
100
AcDbBlockReference
  2
block 3
 10
0.0
 20
0.0
 30
0.0
  0
ENDBLK
  5
6B1
330
68A
100
AcDbEntity
  8
0
100
AcDbBlockEnd
  0
BLOCK
  5
68E
330
68D
100
AcDbEntity
  8
0
100
AcDbBlockBegin
  2
block 2
 70
     0
 10
0.0
 20
0.0
 30
0.0
  3
block 2
  1
block 2
  0
ENDBLK
  5
6B0
330
68D
100
AcDbEntity
  8
0
100
AcDbBlockEnd
  0
BLOCK
  5
691
330
690
100
AcDbEntity
  8
0
100
AcDbBlockBegin
  2
block 3
 70
     0
 10
0.0
 20
0.0
 30
0.0
  3
block 3
  1
block 3
  0
INSERT
  5
692
330
690
100
AcDbEntity
  8
LOGO
100
AcDbBlockReference
  2
block 4
 10
0.0
 20
0.0
 30
0.0
  0
INSERT
  5
6A1
330
690
100
AcDbEntity
  8
LOGO
100
AcDbBlockReference
  2
block 5
 10
0.0
 20
0.0
 30
0.0
  0
ENDBLK
  5
6AF
330
690
100
AcDbEntity
  8
0
100
AcDbBlockEnd
  0
BLOCK
  5
694
330
693
100
AcDbEntity
  8
0
100
AcDbBlockBegin
  2
block 4
 70
     0
 10
0.0
 20
0.0
 30
0.0
  3
block 4
  1
block 4
  0
POLYLINE
  5
695
330
693
100
AcDbEntity
  8
LOGO
370
     0
100
AcDb2dPolyline
 66
     1
 10
0.0
 20
0.0
 30
0.0
  0
VERTEX
  5
696
330
695
100
AcDbEntity
  8
LOGO
370
     0
100
AcDbVertex
100
AcDb2dVertex
 10
83.79545727667795
 20
167.6444858234922
 30
0.0
  0
VERTEX
  5
697
330
695
100
AcDbEntity
  8
LOGO
370
     0
100
AcDbVertex
100
AcDb2dVertex
 10
83.79545727667795
 20
159.7968976406313
 30
0.0
  0
VERTEX
  5
698
330
695
100
AcDbEntity
  8
LOGO
370
     0
100
AcDbVertex
100
AcDb2dVertex
 10
71.3631329975216
 20
159.7968976406313
 30
0.0
  0
VERTEX
  5
699
330
695
100
AcDbEntity
  8
LOGO
370
     0
100
AcDbVertex
100
AcDb2dVertex
 10
71.3631329975216
 20
127.8027915271048
 30
0.0
  0
VERTEX
  5
69A
330
695
100
AcDbEntity
  8
LOGO
370
     0
100
AcDbVertex
100
AcDb2dVertex
 10
60.43011526263018
 20
127.8027915271048
 30
0.0
  0
VERTEX
  5
69B
330
695
100
AcDbEntity
  8
LOGO
370
     0
100
AcDbVertex
100
AcDb2dVertex
 10
60.43011526263018
 20
159.7968976406313
 30
0.0
  0
VERTEX
  5
69C
330
695
100
AcDbEntity
  8
LOGO
370
     0
100
AcDbVertex
100
AcDb2dVertex
 10
48.21793273020759
 20
159.7968976406313
 30
0.0
  0
VERTEX
  5
69D
330
695
100
AcDbEntity
  8
LOGO
370
     0
100
AcDbVertex
100
AcDb2dVertex
 10
48.21793273020759
 20
167.6444858234922
 30
0.0
  0
VERTEX
  5
69E
330
695
100
AcDbEntity
  8
LOGO
370
     0
100
AcDbVertex
100
AcDb2dVertex
 10
83.79545727667795
 20
167.6444858234922
 30
0.0
  0
SEQEND
  5
69F
330
695
100
AcDbEntity
  8
LOGO
370
     0
  0
HATCH
  5
6A0
330
693
100
AcDbEntity
  8
LOGO
 62
   250
420
  2234388
100
AcDbHatch
 10
0.0
 20
0.0
 30
0.0
210
0.0
220
0.0
230
1.0
  2
SOLID
 70
     1
 71
     0
 91
        1
 92
        1
 93
        8
 72
     1
 10
83.79545727667795
 20
167.6444858234922
 11
83.79545727667795
 21
159.7968976406313
 72
     1
 10
83.79545727667795
 20
159.7968976406313
 11
71.3631329975216
 21
159.7968976406313
 72
     1
 10
71.3631329975216
 20
159.7968976406313
 11
71.3631329975216
 21
127.8027915271048
 72
     1
 10
71.3631329975216
 20
127.8027915271048
 11
60.43011526263018
 21
127.8027915271048
 72
     1
 10
60.43011526263018
 20
127.8027915271048
 11
60.43011526263018
 21
159.7968976406313
 72
     1
 10
60.43011526263018
 20
159.7968976406313
 11
48.21793273020759
 21
159.7968976406313
 72
     1
 10
48.21793273020759
 20
159.7968976406313
 11
48.21793273020759
 21
167.6444858234922
 72
     1
 10
48.21793273020759
 20
167.6444858234922
 11
83.79545727667795
 21
167.6444858234922
 97
        0
 75
     2
 76
     1
 98
        0
  0
ENDBLK
  5
6AE
330
693
100
AcDbEntity
  8
0
100
AcDbBlockEnd
  0
BLOCK
  5
6A3
330
6A2
100
AcDbEntity
  8
0
100
AcDbBlockBegin
  2
block 5
 70
     0
 10
0.0
 20
0.0
 30
0.0
  3
block 5
  1
block 5
  0
SPLINE
  5
6A4
330
6A2
100
AcDbEntity
  8
LOGO
370
     0
100
AcDbSpline
210
0.0
220
0.0
230
1.0
 70
    11
 71
     3
 72
    56
 73
    52
 74
     0
 42
0.000000001
 43
0.0000000001
 40
0.0
 40
0.0
 40
0.0
 40
0.0
 40
1.0
 40
1.0
 40
1.0
 40
2.0
 40
2.0
 40
2.0
 40
3.0
 40
3.0
 40
3.0
 40
4.0
 40
4.0
 40
4.0
 40
5.0
 40
5.0
 40
5.0
 40
6.0
 40
6.0
 40
6.0
 40
7.0
 40
7.0
 40
7.0
 40
8.0
 40
8.0
 40
8.0
 40
9.0
 40
9.0
 40
9.0
 40
10.0
 40
10.0
 40
10.0
 40
11.0
 40
11.0
 40
11.0
 40
12.0
 40
12.0
 40
12.0
 40
13.0
 40
13.0
 40
13.0
 40
14.0
 40
14.0
 40
14.0
 40
15.0
 40
15.0
 40
15.0
 40
16.0
 40
16.0
 40
16.0
 40
17.0
 40
17.0
 40
17.0
 40
17.0
 10
100.4504378777679
 20
166.69157178364
 30
0.0
 10
101.9848844191641
 20
167.1313385124438
 30
0.0
 10
103.9637485713373
 20
166.7649523658846
 30
0.0
 10
103.9637485713373
 20
166.7649523658846
 30
0.0
 10
103.9637485713373
 20
166.7649523658846
 30
0.0
 10
103.0132460999156
 20
163.911205638077
 30
0.0
 10
103.0132460999156
 20
163.911205638077
 30
0.0
 10
103.0132460999156
 20
163.911205638077
 30
0.0
 10
101.0674548862189
 20
164.3601018759394
 30
0.0
 10
99.57090442016032
 20
163.1805004036133
 30
0.0
 10
98.40508333886608
 20
162.258247733807
 30
0.0
 10
97.65301849830304
 20
159.804132345923
 30
0.0
 10
97.3598406791005
 20
158.8699940888517
 30
0.0
 10
97.3598406791005
 20
158.8699940888517
 30
0.0
 10
96.07137411762282
 20
154.9119212747295
 30
0.0
 10
96.07137411762282
 20
154.9119212747295
 30
0.0
 10
96.07137411762282
 20
154.9119212747295
 30
0.0
 10
100.3012651448482
 20
154.9119212747295
 30
0.0
 10
100.3012651448482
 20
154.9119212747295
 30
0.0
 10
100.3012651448482
 20
154.9119212747295
 30
0.0
 10
99.64152892419852
 20
152.4199098115079
 30
0.0
 10
99.64152892419852
 20
152.4199098115079
 30
0.0
 10
99.64152892419852
 20
152.4199098115079
 30
0.0
 10
95.38097652692731
 20
152.4199098115079
 30
0.0
 10
95.38097652692731
 20
152.4199098115079
 30
0.0
 10
95.38097652692731
 20
152.4199098115079
 30
0.0
 10
87.75353009080013
 20
127.8027915271048
 30
0.0
 10
87.75353009080013
 20
127.8027915271048
 30
0.0
 10
87.75353009080013
 20
127.8027915271048
 30
0.0
 10
85.36538832498108
 20
127.8027915271048
 30
0.0
 10
85.36538832498108
 20
127.8027915271048
 30
0.0
 10
85.36538832498108
 20
127.8027915271048
 30
0.0
 10
93.00006946639998
 20
152.4199098115079
 30
0.0
 10
93.00006946639998
 20
152.4199098115079
 30
0.0
 10
93.00006946639998
 20
152.4199098115079
 30
0.0
 10
89.85297266450198
 20
152.4199098115079
 30
0.0
 10
89.85297266450198
 20
152.4199098115079
 30
0.0
 10
89.85297266450198
 20
152.4199098115079
 30
0.0
 10
90.51270888515164
 20
154.9119212747295
 30
0.0
 10
90.51270888515164
 20
154.9119212747295
 30
0.0
 10
90.51270888515164
 20
154.9119212747295
 30
0.0
 10
93.6904670570955
 20
154.9119212747295
 30
0.0
 10
93.6904670570955
 20
154.9119212747295
 30
0.0
 10
93.6904670570955
 20
154.9119212747295
 30
0.0
 10
94.81598049462158
 20
158.3616699146644
 30
0.0
 10
94.81598049462158
 20
158.3616699146644
 30
0.0
 10
95.7237637538445
 20
161.2605474231013
 30
0.0
 10
96.4968436907311
 20
162.8139420021662
 30
0.0
 10
97.15657991138076
 20
163.9844139654337
 30
0.0
 10
97.81183750494507
 20
165.1523021053827
 30
0.0
 10
99.1047826935081
 20
166.3084769129547
 30
0.0
 10
100.4504378777679
 20
166.69157178364
 30
0.0
  0
HATCH
  5
6A5
330
6A2
100
AcDbEntity
  8
LOGO
 62
   250
420
  2234388
100
AcDbHatch
 10
0.0
 20
0.0
 30
0.0
210
0.0
220
0.0
230
1.0
  2
SOLID
 70
     1
 71
     0
 91
        1
 92
        1
 93
        1
 72
     4
 94
        3
 73
     0
 74
     1
 95
       56
 96
       52
 40
0.0
 40
0.0
 40
0.0
 40
0.0
 40
1.0
 40
1.0
 40
1.0
 40
2.0
 40
2.0
 40
2.0
 40
3.0
 40
3.0
 40
3.0
 40
4.0
 40
4.0
 40
4.0
 40
5.0
 40
5.0
 40
5.0
 40
6.0
 40
6.0
 40
6.0
 40
7.0
 40
7.0
 40
7.0
 40
8.0
 40
8.0
 40
8.0
 40
9.0
 40
9.0
 40
9.0
 40
10.0
 40
10.0
 40
10.0
 40
11.0
 40
11.0
 40
11.0
 40
12.0
 40
12.0
 40
12.0
 40
13.0
 40
13.0
 40
13.0
 40
14.0
 40
14.0
 40
14.0
 40
15.0
 40
15.0
 40
15.0
 40
16.0
 40
16.0
 40
16.0
 40
17.0
 40
17.0
 40
17.0
 40
17.0
 10
100.4504378777679
 20
166.69157178364
 10
101.9848844191641
 20
167.1313385124438
 10
103.9637485713373
 20
166.7649523658846
 10
103.9637485713373
 20
166.7649523658846
 10
103.9637485713373
 20
166.7649523658846
 10
103.0132460999156
 20
163.911205638077
 10
103.0132460999156
 20
163.911205638077
 10
103.0132460999156
 20
163.911205638077
 10
101.0674548862189
 20
164.3601018759394
 10
99.57090442016032
 20
163.1805004036133
 10
98.40508333886608
 20
162.258247733807
 10
97.65301849830304
 20
159.804132345923
 10
97.3598406791005
 20
158.8699940888517
 10
97.3598406791005
 20
158.8699940888517
 10
96.07137411762282
 20
154.9119212747295
 10
96.07137411762282
 20
154.9119212747295
 10
96.07137411762282
 20
154.9119212747295
 10
100.3012651448482
 20
154.9119212747295
 10
100.3012651448482
 20
154.9119212747295
 10
100.3012651448482
 20
154.9119212747295
 10
99.64152892419852
 20
152.4199098115079
 10
99.64152892419852
 20
152.4199098115079
 10
99.64152892419852
 20
152.4199098115079
 10
95.38097652692731
 20
152.4199098115079
 10
95.38097652692731
 20
152.4199098115079
 10
95.38097652692731
 20
152.4199098115079
 10
87.75353009080013
 20
127.8027915271048
 10
87.75353009080013
 20
127.8027915271048
 10
87.75353009080013
 20
127.8027915271048
 10
85.36538832498108
 20
127.8027915271048
 10
85.36538832498108
 20
127.8027915271048
 10
85.36538832498108
 20
127.8027915271048
 10
93.00006946639998
 20
152.4199098115079
 10
93.00006946639998
 20
152.4199098115079
 10
93.00006946639998
 20
152.4199098115079
 10
89.85297266450198
 20
152.4199098115079
 10
89.85297266450198
 20
152.4199098115079
 10
89.85297266450198
 20
152.4199098115079
 10
90.51270888515164
 20
154.9119212747295
 10
90.51270888515164
 20
154.9119212747295
 10
90.51270888515164
 20
154.9119212747295
 10
93.6904670570955
 20
154.9119212747295
 10
93.6904670570955
 20
154.9119212747295
 10
93.6904670570955
 20
154.9119212747295
 10
94.81598049462158
 20
158.3616699146644
 10
94.81598049462158
 20
158.3616699146644
 10
95.7237637538445
 20
161.2605474231013
 10
96.4968436907311
 20
162.8139420021662
 10
97.15657991138076
 20
163.9844139654337
 10
97.81183750494507
 20
165.1523021053827
 10
99.1047826935081
 20
166.3084769129547
 10
100.4504378777679
 20
166.69157178364
 97
        0
 75
     2
 76
     1
 98
        0
  0
SPLINE
  5
6A6
330
6A2
100
AcDbEntity
  8
LOGO
370
     0
100
AcDbSpline
210
0.0
220
0.0
230
1.0
 70
    11
 71
     3
 72
    38
 73
    34
 74
     0
 42
0.000000001
 43
0.0000000001
 40
0.0
 40
0.0
 40
0.0
 40
0.0
 40
1.0
 40
1.0
 40
1.0
 40
2.0
 40
2.0
 40
2.0
 40
3.0
 40
3.0
 40
3.0
 40
4.0
 40
4.0
 40
4.0
 40
5.0
 40
5.0
 40
5.0
 40
6.0
 40
6.0
 40
6.0
 40
7.0
 40
7.0
 40
7.0
 40
8.0
 40
8.0
 40
8.0
 40
9.0
 40
9.0
 40
9.0
 40
10.0
 40
10.0
 40
10.0
 40
11.0
 40
11.0
 40
11.0
 40
11.0
 10
126.377554584636
 20
154.8151140277308
 30
0.0
 10
126.377554584636
 20
154.8151140277308
 30
0.0
 10
128.8311532078563
 20
154.8151140277308
 30
0.0
 10
128.8311532078563
 20
154.8151140277308
 30
0.0
 10
128.8311532078563
 20
154.8151140277308
 30
0.0
 10
127.7345785914971
 20
151.3062819612468
 30
0.0
 10
127.7345785914971
 20
151.3062819612468
 30
0.0
 10
128.571392836906
 20
152.2922689395754
 30
0.0
 10
129.8860421413442
 20
153.604506675583
 30
0.0
 10
131.0163787157314
 20
154.2664822097754
 30
0.0
 10
132.7044766171327
 20
155.2500576196734
 30
0.0
 10
133.6642808525008
 20
155.3847609420097
 30
0.0
 10
134.7284715499351
 20
155.3565111403944
 30
0.0
 10
134.7284715499351
 20
155.3565111403944
 30
0.0
 10
133.6877075172549
 20
152.0345756272799
 30
0.0
 10
133.6877075172549
 20
152.0345756272799
 30
0.0
 10
133.011434827367
 20
152.3184516825359
 30
0.0
 10
130.930940291334
 20
151.7768823149844
 30
0.0
 10
129.739280976855
 20
150.9162968950455
 30
0.0
 10
128.66613302525
 20
150.1454562717016
 30
0.0
 10
127.9192358313239
 20
149.4857200510519
 30
0.0
 10
127.0393578639405
 20
147.8282835196966
 30
0.0
 10
126.164647543194
 20
146.1699857139017
 30
0.0
 10
125.4742499524985
 20
143.5262176944419
 30
0.0
 10
124.2822461282437
 20
139.6959580071401
 30
0.0
 10
124.2822461282437
 20
139.6959580071401
 30
0.0
 10
120.5753209406769
 20
127.8027915271048
 30
0.0
 10
120.5753209406769
 20
127.8027915271048
 30
0.0
 10
120.5753209406769
 20
127.8027915271048
 30
0.0
 10
118.1964809388044
 20
127.8027915271048
 30
0.0
 10
118.1964809388044
 20
127.8027915271048
 30
0.0
 10
118.1964809388044
 20
127.8027915271048
 30
0.0
 10
126.377554584636
 20
154.8151140277308
 30
0.0
 10
126.377554584636
 20
154.8151140277308
 30
0.0
  0
HATCH
  5
6A7
330
6A2
100
AcDbEntity
  8
LOGO
 62
   250
420
  2234388
100
AcDbHatch
 10
0.0
 20
0.0
 30
0.0
210
0.0
220
0.0
230
1.0
  2
SOLID
 70
     1
 71
     0
 91
        1
 92
        1
 93
        1
 72
     4
 94
        3
 73
     0
 74
     1
 95
       38
 96
       34
 40
0.0
 40
0.0
 40
0.0
 40
0.0
 40
1.0
 40
1.0
 40
1.0
 40
2.0
 40
2.0
 40
2.0
 40
3.0
 40
3.0
 40
3.0
 40
4.0
 40
4.0
 40
4.0
 40
5.0
 40
5.0
 40
5.0
 40
6.0
 40
6.0
 40
6.0
 40
7.0
 40
7.0
 40
7.0
 40
8.0
 40
8.0
 40
8.0
 40
9.0
 40
9.0
 40
9.0
 40
10.0
 40
10.0
 40
10.0
 40
11.0
 40
11.0
 40
11.0
 40
11.0
 10
126.377554584636
 20
154.8151140277308
 10
126.377554584636
 20
154.8151140277308
 10
128.8311532078563
 20
154.8151140277308
 10
128.8311532078563
 20
154.8151140277308
 10
128.8311532078563
 20
154.8151140277308
 10
127.7345785914971
 20
151.3062819612468
 10
127.7345785914971
 20
151.3062819612468
 10
128.571392836906
 20
152.2922689395754
 10
129.8860421413442
 20
153.604506675583
 10
131.0163787157314
 20
154.2664822097754
 10
132.7044766171327
 20
155.2500576196734
 10
133.6642808525008
 20
155.3847609420097
 10
134.7284715499351
 20
155.3565111403944
 10
134.7284715499351
 20
155.3565111403944
 10
133.6877075172549
 20
152.0345756272799
 10
133.6877075172549
 20
152.0345756272799
 10
133.011434827367
 20
152.3184516825359
 10
130.930940291334
 20
151.7768823149844
 10
129.739280976855
 20
150.9162968950455
 10
128.66613302525
 20
150.1454562717016
 10
127.9192358313239
 20
149.4857200510519
 10
127.0393578639405
 20
147.8282835196966
 10
126.164647543194
 20
146.1699857139017
 10
125.4742499524985
 20
143.5262176944419
 10
124.2822461282437
 20
139.6959580071401
 10
124.2822461282437
 20
139.6959580071401
 10
120.5753209406769
 20
127.8027915271048
 10
120.5753209406769
 20
127.8027915271048
 10
120.5753209406769
 20
127.8027915271048
 10
118.1964809388044
 20
127.8027915271048
 10
118.1964809388044
 20
127.8027915271048
 10
118.1964809388044
 20
127.8027915271048
 10
126.377554584636
 20
154.8151140277308
 10
126.377554584636
 20
154.8151140277308
 97
        0
 75
     2
 76
     1
 98
        0
  0
SPLINE
  5
6A8
330
6A2
100
AcDbEntity
  8
LOGO
370
     0
100
AcDbSpline
210
0.0
220
0.0
230
1.0
 70
    11
 71
     3
 72
   104
 73
   100
 74
     0
 42
0.000000001
 43
0.0000000001
 40
0.0
 40
0.0
 40
0.0
 40
0.0
 40
1.0
 40
1.0
 40
1.0
 40
2.0
 40
2.0
 40
2.0
 40
3.0
 40
3.0
 40
3.0
 40
4.0
 40
4.0
 40
4.0
 40
5.0
 40
5.0
 40
5.0
 40
6.0
 40
6.0
 40
6.0
 40
7.0
 40
7.0
 40
7.0
 40
8.0
 40
8.0
 40
8.0
 40
9.0
 40
9.0
 40
9.0
 40
10.0
 40
10.0
 40
10.0
 40
11.0
 40
11.0
 40
11.0
 40
12.0
 40
12.0
 40
12.0
 40
13.0
 40
13.0
 40
13.0
 40
14.0
 40
14.0
 40
14.0
 40
15.0
 40
15.0
 40
15.0
 40
16.0
 40
16.0
 40
16.0
 40
17.0
 40
17.0
 40
17.0
 40
18.0
 40
18.0
 40
18.0
 40
19.0
 40
19.0
 40
19.0
 40
20.0
 40
20.0
 40
20.0
 40
21.0
 40
21.0
 40
21.0
 40
22.0
 40
22.0
 40
22.0
 40
23.0
 40
23.0
 40
23.0
 40
24.0
 40
24.0
 40
24.0
 40
25.0
 40
25.0
 40
25.0
 40
26.0
 40
26.0
 40
26.0
 40
27.0
 40
27.0
 40
27.0
 40
28.0
 40
28.0
 40
28.0
 40
29.0
 40
29.0
 40
29.0
 40
30.0
 40
30.0
 40
30.0
 40
31.0
 40
31.0
 40
31.0
 40
32.0
 40
32.0
 40
32.0
 40
33.0
 40
33.0
 40
33.0
 40
33.0
 10
139.8926730891197
 20
154.8294111834263
 30
0.0
 10
139.8926730891197
 20
154.8294111834263
 30
0.0
 10
142.0344903652445
 20
154.8294111834263
 30
0.0
 10
142.0344903652445
 20
154.8294111834263
 30
0.0
 10
142.0344903652445
 20
154.8294111834263
 30
0.0
 10
140.9516961399171
 20
151.3157559800812
 30
0.0
 10
140.9516961399171
 20
151.3157559800812
 30
0.0
 10
141.8928968473923
 20
152.7887075264977
 30
0.0
 10
142.7341897198865
 20
153.4484437471474
 30
0.0
 10
143.8552245303272
 20
154.2926649527359
 30
0.0
 10
144.9803934580775
 20
155.1296514530327
 30
0.0
 10
146.3139908001845
 20
155.3044901642492
 30
0.0
 10
147.241066606852
 20
155.3044901642492
 30
0.0
 10
148.3855280820469
 20
155.3044901642492
 30
0.0
 10
149.4969166187653
 20
155.0752189084569
 30
0.0
 10
150.0784491203092
 20
153.8172414621372
 30
0.0
 10
150.5228667310863
 20
152.833838307127
 30
0.0
 10
150.5414702589793
 20
152.7201500811143
 30
0.0
 10
150.4140016419347
 20
150.7765981809602
 30
0.0
 10
151.5818897818837
 20
152.7699317437168
 30
0.0
 10
152.4424752018226
 20
153.6256940267945
 30
0.0
 10
153.9038856707499
 20
154.4507949398263
 30
0.0
 10
155.4455669174378
 20
155.3044901642492
 30
0.0
 10
156.339225275853
 20
155.3659851592288
 30
0.0
 10
157.3748216618963
 20
155.2147453676543
 30
0.0
 10
158.911679771723
 20
154.9877134254046
 30
0.0
 10
159.8859534176746
 20
154.4390816074493
 30
0.0
 10
160.3965169054045
 20
152.7816450760939
 30
0.0
 10
160.9070803931344
 20
151.1219692311958
 30
0.0
 10
160.6328506116007
 20
150.2303779314354
 30
0.0
 10
159.9992971339115
 20
147.597634224801
 30
0.0
 10
159.7105979417943
 20
146.4014962832367
 30
0.0
 10
159.2947746424084
 20
144.9400858143094
 30
0.0
 10
158.7463150793409
 20
143.2092687007094
 30
0.0
 10
158.7463150793409
 20
143.2092687007094
 30
0.0
 10
153.9038856707499
 20
127.8027915271048
 30
0.0
 10
153.9038856707499
 20
127.8027915271048
 30
0.0
 10
153.9038856707499
 20
127.8027915271048
 30
0.0
 10
151.3882752878863
 20
127.8027915271048
 30
0.0
 10
151.3882752878863
 20
127.8027915271048
 30
0.0
 10
151.3882752878863
 20
127.8027915271048
 30
0.0
 10
155.6250565106276
 20
141.2751908193897
 30
0.0
 10
155.6250565106276
 20
141.2751908193897
 30
0.0
 10
156.5094131050963
 20
144.0936252951782
 30
0.0
 10
157.109893644309
 20
146.1506931664571
 30
0.0
 10
157.4220195011804
 20
147.4415712963654
 30
0.0
 10
157.8095929989511
 20
149.0530157726519
 30
0.0
 10
157.9656559273867
 20
149.5826995529385
 30
0.0
 10
157.7816877071116
 20
150.7529992613181
 30
0.0
 10
157.6111553680925
 20
151.8430281919372
 30
0.0
 10
157.0582171779396
 20
152.5547853887321
 30
0.0
 10
156.1170164704645
 20
152.5547853887321
 30
0.0
 10
155.1096698860365
 20
152.5547853887321
 30
0.0
 10
154.2962823053817
 20
152.4412694176073
 30
0.0
 10
153.156643967048
 20
151.2945686288697
 30
0.0
 10
152.0170056287143
 20
150.1476955852443
 30
0.0
 10
151.076149431015
 20
148.7930831468137
 30
0.0
 10
150.3337308641742
 20
147.2290087646991
 30
0.0
 10
149.5957909244188
 20
145.6683794803425
 30
0.0
 10
148.8530278478023
 20
143.6822806228776
 30
0.0
 10
148.0964843801539
 20
141.2751908193897
 30
0.0
 10
148.0964843801539
 20
141.2751908193897
 30
0.0
 10
143.8552245303272
 20
127.8027915271048
 30
0.0
 10
143.8552245303272
 20
127.8027915271048
 30
0.0
 10
143.8552245303272
 20
127.8027915271048
 30
0.0
 10
141.486030802177
 20
127.8027915271048
 30
0.0
 10
141.486030802177
 20
127.8027915271048
 30
0.0
 10
141.486030802177
 20
127.8027915271048
 30
0.0
 10
146.3329388378533
 20
143.2092687007094
 30
0.0
 10
146.3329388378533
 20
143.2092687007094
 30
0.0
 10
146.8483254624444
 20
144.8408669988801
 30
0.0
 10
147.2314203331297
 20
146.1837661049335
 30
0.0
 10
147.4867020769946
 20
147.224185627838
 30
0.0
 10
147.9169947869641
 20
149.0197705792876
 30
0.0
 10
148.0306830129768
 20
150.2400242051577
 30
0.0
 10
147.709255392159
 20
151.3157559800812
 30
0.0
 10
147.3874832615654
 20
152.3916600098926
 30
0.0
 10
146.8245542879144
 20
152.6683013598569
 30
0.0
 10
145.8840425999909
 20
152.6683013598569
 30
0.0
 10
145.0989048209514
 20
152.6683013598569
 30
0.0
 10
144.3282364524954
 20
152.3275811915945
 30
0.0
 10
143.4531816219731
 20
151.6538923250251
 30
0.0
 10
142.34627171234
 20
150.8074318058939
 30
0.0
 10
141.901854101563
 20
150.1097995099067
 30
0.0
 10
141.3578731655808
 20
149.289521733736
 30
0.0
 10
140.6299240093235
 20
148.192602607601
 30
0.0
 10
140.2850697237515
 20
147.455696197173
 30
0.0
 10
139.6652966370942
 20
145.8385673095858
 30
0.0
 10
139.0506911970739
 20
144.2214384219986
 30
0.0
 10
138.463991048893
 20
142.3252566160164
 30
0.0
 10
138.0571250036777
 20
141.0154304484394
 30
0.0
 10
138.0571250036777
 20
141.0154304484394
 30
0.0
 10
133.9009590684727
 20
127.8027915271048
 30
0.0
 10
133.9009590684727
 20
127.8027915271048
 30
0.0
 10
133.9009590684727
 20
127.8027915271048
 30
0.0
 10
131.4180771143097
 20
127.8027915271048
 30
0.0
 10
131.4180771143097
 20
127.8027915271048
 30
0.0
 10
131.4180771143097
 20
127.8027915271048
 30
0.0
 10
139.8926730891197
 20
154.8294111834263
 30
0.0
 10
139.8926730891197
 20
154.8294111834263
 30
0.0
  0
HATCH
  5
6A9
330
6A2
100
AcDbEntity
  8
LOGO
 62
   250
420
  2234388
100
AcDbHatch
 10
0.0
 20
0.0
 30
0.0
210
0.0
220
0.0
230
1.0
  2
SOLID
 70
     1
 71
     0
 91
        1
 92
        1
 93
        1
 72
     4
 94
        3
 73
     0
 74
     1
 95
      104
 96
      100
 40
0.0
 40
0.0
 40
0.0
 40
0.0
 40
1.0
 40
1.0
 40
1.0
 40
2.0
 40
2.0
 40
2.0
 40
3.0
 40
3.0
 40
3.0
 40
4.0
 40
4.0
 40
4.0
 40
5.0
 40
5.0
 40
5.0
 40
6.0
 40
6.0
 40
6.0
 40
7.0
 40
7.0
 40
7.0
 40
8.0
 40
8.0
 40
8.0
 40
9.0
 40
9.0
 40
9.0
 40
10.0
 40
10.0
 40
10.0
 40
11.0
 40
11.0
 40
11.0
 40
12.0
 40
12.0
 40
12.0
 40
13.0
 40
13.0
 40
13.0
 40
14.0
 40
14.0
 40
14.0
 40
15.0
 40
15.0
 40
15.0
 40
16.0
 40
16.0
 40
16.0
 40
17.0
 40
17.0
 40
17.0
 40
18.0
 40
18.0
 40
18.0
 40
19.0
 40
19.0
 40
19.0
 40
20.0
 40
20.0
 40
20.0
 40
21.0
 40
21.0
 40
21.0
 40
22.0
 40
22.0
 40
22.0
 40
23.0
 40
23.0
 40
23.0
 40
24.0
 40
24.0
 40
24.0
 40
25.0
 40
25.0
 40
25.0
 40
26.0
 40
26.0
 40
26.0
 40
27.0
 40
27.0
 40
27.0
 40
28.0
 40
28.0
 40
28.0
 40
29.0
 40
29.0
 40
29.0
 40
30.0
 40
30.0
 40
30.0
 40
31.0
 40
31.0
 40
31.0
 40
32.0
 40
32.0
 40
32.0
 40
33.0
 40
33.0
 40
33.0
 40
33.0
 10
139.8926730891197
 20
154.8294111834263
 10
139.8926730891197
 20
154.8294111834263
 10
142.0344903652445
 20
154.8294111834263
 10
142.0344903652445
 20
154.8294111834263
 10
142.0344903652445
 20
154.8294111834263
 10
140.9516961399171
 20
151.3157559800812
 10
140.9516961399171
 20
151.3157559800812
 10
141.8928968473923
 20
152.7887075264977
 10
142.7341897198865
 20
153.4484437471474
 10
143.8552245303272
 20
154.2926649527359
 10
144.9803934580775
 20
155.1296514530327
 10
146.3139908001845
 20
155.3044901642492
 10
147.241066606852
 20
155.3044901642492
 10
148.3855280820469
 20
155.3044901642492
 10
149.4969166187653
 20
155.0752189084569
 10
150.0784491203092
 20
153.8172414621372
 10
150.5228667310863
 20
152.833838307127
 10
150.5414702589793
 20
152.7201500811143
 10
150.4140016419347
 20
150.7765981809602
 10
151.5818897818837
 20
152.7699317437168
 10
152.4424752018226
 20
153.6256940267945
 10
153.9038856707499
 20
154.4507949398263
 10
155.4455669174378
 20
155.3044901642492
 10
156.339225275853
 20
155.3659851592288
 10
157.3748216618963
 20
155.2147453676543
 10
158.911679771723
 20
154.9877134254046
 10
159.8859534176746
 20
154.4390816074493
 10
160.3965169054045
 20
152.7816450760939
 10
160.9070803931344
 20
151.1219692311958
 10
160.6328506116007
 20
150.2303779314354
 10
159.9992971339115
 20
147.597634224801
 10
159.7105979417943
 20
146.4014962832367
 10
159.2947746424084
 20
144.9400858143094
 10
158.7463150793409
 20
143.2092687007094
 10
158.7463150793409
 20
143.2092687007094
 10
153.9038856707499
 20
127.8027915271048
 10
153.9038856707499
 20
127.8027915271048
 10
153.9038856707499
 20
127.8027915271048
 10
151.3882752878863
 20
127.8027915271048
 10
151.3882752878863
 20
127.8027915271048
 10
151.3882752878863
 20
127.8027915271048
 10
155.6250565106276
 20
141.2751908193897
 10
155.6250565106276
 20
141.2751908193897
 10
156.5094131050963
 20
144.0936252951782
 10
157.109893644309
 20
146.1506931664571
 10
157.4220195011804
 20
147.4415712963654
 10
157.8095929989511
 20
149.0530157726519
 10
157.9656559273867
 20
149.5826995529385
 10
157.7816877071116
 20
150.7529992613181
 10
157.6111553680925
 20
151.8430281919372
 10
157.0582171779396
 20
152.5547853887321
 10
156.1170164704645
 20
152.5547853887321
 10
155.1096698860365
 20
152.5547853887321
 10
154.2962823053817
 20
152.4412694176073
 10
153.156643967048
 20
151.2945686288697
 10
152.0170056287143
 20
150.1476955852443
 10
151.076149431015
 20
148.7930831468137
 10
150.3337308641742
 20
147.2290087646991
 10
149.5957909244188
 20
145.6683794803425
 10
148.8530278478023
 20
143.6822806228776
 10
148.0964843801539
 20
141.2751908193897
 10
148.0964843801539
 20
141.2751908193897
 10
143.8552245303272
 20
127.8027915271048
 10
143.8552245303272
 20
127.8027915271048
 10
143.8552245303272
 20
127.8027915271048
 10
141.486030802177
 20
127.8027915271048
 10
141.486030802177
 20
127.8027915271048
 10
141.486030802177
 20
127.8027915271048
 10
146.3329388378533
 20
143.2092687007094
 10
146.3329388378533
 20
143.2092687007094
 10
146.8483254624444
 20
144.8408669988801
 10
147.2314203331297
 20
146.1837661049335
 10
147.4867020769946
 20
147.224185627838
 10
147.9169947869641
 20
149.0197705792876
 10
148.0306830129768
 20
150.2400242051577
 10
147.709255392159
 20
151.3157559800812
 10
147.3874832615654
 20
152.3916600098926
 10
146.8245542879144
 20
152.6683013598569
 10
145.8840425999909
 20
152.6683013598569
 10
145.0989048209514
 20
152.6683013598569
 10
144.3282364524954
 20
152.3275811915945
 10
143.4531816219731
 20
151.6538923250251
 10
142.34627171234
 20
150.8074318058939
 10
141.901854101563
 20
150.1097995099067
 10
141.3578731655808
 20
149.289521733736
 10
140.6299240093235
 20
148.192602607601
 10
140.2850697237515
 20
147.455696197173
 10
139.6652966370942
 20
145.8385673095858
 10
139.0506911970739
 20
144.2214384219986
 10
138.463991048893
 20
142.3252566160164
 10
138.0571250036777
 20
141.0154304484394
 10
138.0571250036777
 20
141.0154304484394
 10
133.9009590684727
 20
127.8027915271048
 10
133.9009590684727
 20
127.8027915271048
 10
133.9009590684727
 20
127.8027915271048
 10
131.4180771143097
 20
127.8027915271048
 10
131.4180771143097
 20
127.8027915271048
 10
131.4180771143097
 20
127.8027915271048
 10
139.8926730891197
 20
154.8294111834263
 10
139.8926730891197
 20
154.8294111834263
 97
        0
 75
     2
 76
     1
 98
        0
  0
SPLINE
  5
6AA
330
6A2
100
AcDbEntity
  8
LOGO
370
     0
100
AcDbSpline
210
0.0
220
0.0
230
1.0
 70
    11
 71
     3
 72
    29
 73
    25
 74
     0
 42
0.000000001
 43
0.0000000001
 40
0.0
 40
0.0
 40
0.0
 40
0.0
 40
1.0
 40
1.0
 40
1.0
 40
2.0
 40
2.0
 40
2.0
 40
3.0
 40
3.0
 40
3.0
 40
4.0
 40
4.0
 40
4.0
 40
5.0
 40
5.0
 40
5.0
 40
6.0
 40
6.0
 40
6.0
 40
7.0
 40
7.0
 40
7.0
 40
8.0
 40
8.0
 40
8.0
 40
8.0
 10
101.6420971922469
 20
132.8388354296931
 30
0.0
 10
101.630039350094
 20
134.7164137077823
 30
0.0
 10
102.2236296937908
 20
138.0598810818841
 30
0.0
 10
103.7487744712405
 20
142.5378191476827
 30
0.0
 10
105.819967243327
 20
148.5896501242061
 30
0.0
 10
107.0602024361932
 20
150.8074318058939
 30
0.0
 10
108.1522984254671
 20
151.8833358357054
 30
0.0
 10
109.741177511439
 20
153.4532668840085
 30
0.0
 10
111.8740375333931
 20
153.5290590346837
 30
0.0
 10
112.5075910110823
 20
153.4532668840085
 30
0.0
 10
113.4012493694975
 20
153.3490526768302
 30
0.0
 10
114.6683563248758
 20
152.7580461564518
 30
0.0
 10
114.7493161221879
 20
150.7838328862519
 30
0.0
 10
114.8106388622796
 20
149.0909118479895
 30
0.0
 10
114.3186789024427
 20
145.9191825971221
 30
0.0
 10
112.6164561002338
 20
140.9489400617108
 30
0.0
 10
110.6444821435766
 20
135.1746117095912
 30
0.0
 10
109.4669477299053
 20
132.8960240524753
 30
0.0
 10
108.5212683953448
 20
131.9072809959403
 30
0.0
 10
106.7346406980658
 20
130.0538184021569
 30
0.0
 10
104.8222669326213
 20
130.2336525051225
 30
0.0
 10
104.5408024457958
 20
130.2336525051225
 30
0.0
 10
104.1721769856939
 20
130.2336525051225
 30
0.0
 10
101.6465758193322
 20
130.6305277668397
 30
0.0
 10
101.6420971922469
 20
132.8388354296931
 30
0.0
  0
SPLINE
  5
6AB
330
6A2
100
AcDbEntity
  8
LOGO
370
     0
100
AcDbSpline
210
0.0
220
0.0
230
1.0
 70
    11
 71
     3
 72
    32
 73
    28
 74
     0
 42
0.000000001
 43
0.0000000001
 40
0.0
 40
0.0
 40
0.0
 40
0.0
 40
1.0
 40
1.0
 40
1.0
 40
2.0
 40
2.0
 40
2.0
 40
3.0
 40
3.0
 40
3.0
 40
4.0
 40
4.0
 40
4.0
 40
5.0
 40
5.0
 40
5.0
 40
6.0
 40
6.0
 40
6.0
 40
7.0
 40
7.0
 40
7.0
 40
8.0
 40
8.0
 40
8.0
 40
9.0
 40
9.0
 40
9.0
 40
9.0
 10
106.2595617172429
 20
153.4105476718098
 30
0.0
 10
104.8222669326213
 20
151.5474388043041
 30
0.0
 10
103.7177685914188
 20
149.8758773721411
 30
0.0
 10
101.9232171692965
 20
144.6141795664062
 30
0.0
 10
100.2754269116635
 20
139.7999999594306
 30
0.0
 10
99.22777268346732
 20
136.3052927937542
 30
0.0
 10
99.06964269637689
 20
132.039572749846
 30
0.0
 10
98.94665270641765
 20
128.8673267343149
 30
0.0
 10
100.8807305877373
 20
127.8027915271048
 30
0.0
 10
103.7129454545577
 20
127.8027915271048
 30
0.0
 10
104.9352661390825
 20
127.8027915271048
 30
0.0
 10
108.0151835347002
 20
127.8827177950895
 30
0.0
 10
110.2045431598849
 20
130.5926316915021
 30
0.0
 10
111.7417457794874
 20
132.4984597712065
 30
0.0
 10
113.155269389579
 20
134.475256864725
 30
0.0
 10
115.0562743324223
 20
140.9489400617108
 30
0.0
 10
116.6361961642235
 20
146.3680788349845
 30
0.0
 10
117.7282921534974
 20
149.8639917848761
 30
0.0
 10
117.6480213757369
 20
151.8595646611754
 30
0.0
 10
117.6480213757369
 20
151.8595646611754
 30
0.0
 10
117.6480213757369
 20
151.8595646611754
 30
0.0
 10
117.6480213757369
 20
151.8595646611754
 30
0.0
 10
117.13229024137
 20
155.18150017429
 30
0.0
 10
114.7162431837115
 20
155.886194920681
 30
0.0
 10
113.3351034925446
 20
155.886194920681
 30
0.0
 10
111.9829026225447
 20
155.886194920681
 30
0.0
 10
108.3414342923792
 20
156.1251124501957
 30
0.0
 10
106.2595617172429
 20
153.4105476718098
 30
0.0
  0
HATCH
  5
6AC
330
6A2
100
AcDbEntity
  8
LOGO
 62
   250
420
  2234388
100
AcDbHatch
 10
0.0
 20
0.0
 30
0.0
210
0.0
220
0.0
230
1.0
  2
SOLID
 70
     1
 71
     0
 91
        2
 92
        1
 93
        1
 72
     4
 94
        3
 73
     0
 74
     1
 95
       29
 96
       25
 40
0.0
 40
0.0
 40
0.0
 40
0.0
 40
1.0
 40
1.0
 40
1.0
 40
2.0
 40
2.0
 40
2.0
 40
3.0
 40
3.0
 40
3.0
 40
4.0
 40
4.0
 40
4.0
 40
5.0
 40
5.0
 40
5.0
 40
6.0
 40
6.0
 40
6.0
 40
7.0
 40
7.0
 40
7.0
 40
8.0
 40
8.0
 40
8.0
 40
8.0
 10
101.6420971922469
 20
132.8388354296931
 10
101.630039350094
 20
134.7164137077823
 10
102.2236296937908
 20
138.0598810818841
 10
103.7487744712405
 20
142.5378191476827
 10
105.819967243327
 20
148.5896501242061
 10
107.0602024361932
 20
150.8074318058939
 10
108.1522984254671
 20
151.8833358357054
 10
109.741177511439
 20
153.4532668840085
 10
111.8740375333931
 20
153.5290590346837
 10
112.5075910110823
 20
153.4532668840085
 10
113.4012493694975
 20
153.3490526768302
 10
114.6683563248758
 20
152.7580461564518
 10
114.7493161221879
 20
150.7838328862519
 10
114.8106388622796
 20
149.0909118479895
 10
114.3186789024427
 20
145.9191825971221
 10
112.6164561002338
 20
140.9489400617108
 10
110.6444821435766
 20
135.1746117095912
 10
109.4669477299053
 20
132.8960240524753
 10
108.5212683953448
 20
131.9072809959403
 10
106.7346406980658
 20
130.0538184021569
 10
104.8222669326213
 20
130.2336525051225
 10
104.5408024457958
 20
130.2336525051225
 10
104.1721769856939
 20
130.2336525051225
 10
101.6465758193322
 20
130.6305277668397
 10
101.6420971922469
 20
132.8388354296931
 97
        0
 92
        1
 93
        1
 72
     4
 94
        3
 73
     0
 74
     1
 95
       32
 96
       28
 40
0.0
 40
0.0
 40
0.0
 40
0.0
 40
1.0
 40
1.0
 40
1.0
 40
2.0
 40
2.0
 40
2.0
 40
3.0
 40
3.0
 40
3.0
 40
4.0
 40
4.0
 40
4.0
 40
5.0
 40
5.0
 40
5.0
 40
6.0
 40
6.0
 40
6.0
 40
7.0
 40
7.0
 40
7.0
 40
8.0
 40
8.0
 40
8.0
 40
9.0
 40
9.0
 40
9.0
 40
9.0
 10
106.2595617172429
 20
153.4105476718098
 10
104.8222669326213
 20
151.5474388043041
 10
103.7177685914188
 20
149.8758773721411
 10
101.9232171692965
 20
144.6141795664062
 10
100.2754269116635
 20
139.7999999594306
 10
99.22777268346732
 20
136.3052927937542
 10
99.06964269637689
 20
132.039572749846
 10
98.94665270641765
 20
128.8673267343149
 10
100.8807305877373
 20
127.8027915271048
 10
103.7129454545577
 20
127.8027915271048
 10
104.9352661390825
 20
127.8027915271048
 10
108.0151835347002
 20
127.8827177950895
 10
110.2045431598849
 20
130.5926316915021
 10
111.7417457794874
 20
132.4984597712065
 10
113.155269389579
 20
134.475256864725
 10
115.0562743324223
 20
140.9489400617108
 10
116.6361961642235
 20
146.3680788349845
 10
117.7282921534974
 20
149.8639917848761
 10
117.6480213757369
 20
151.8595646611754
 10
117.6480213757369
 20
151.8595646611754
 10
117.6480213757369
 20
151.8595646611754
 10
117.6480213757369
 20
151.8595646611754
 10
117.13229024137
 20
155.18150017429
 10
114.7162431837115
 20
155.886194920681
 10
113.3351034925446
 20
155.886194920681
 10
111.9829026225447
 20
155.886194920681
 10
108.3414342923792
 20
156.1251124501957
 10
106.2595617172429
 20
153.4105476718098
 97
        0
 75
     2
 76
     1
 98
        0
  0
ENDBLK
  5
6AD
330
6A2
100
AcDbEntity
  8
0
100
AcDbBlockEnd
  0
BLOCK
  5
1756
330
1755
100
AcDbEntity
  8
0
100
AcDbBlockBegin
  2
*D6
 70
     1
 10
0.0
 20
0.0
 30
0.0
  3
*D6
  1
*D47
  0
LINE
  5
1758
330
1755
100
AcDbEntity
  8
DIM
 62
     0
370
    -2
100
AcDbLine
 10
-295.5188489193064
 20
775.2981836049703
 30
0.0
 11
-295.5188489193064
 21
815.6652411493675
 31
0.0
  0
LINE
  5
1759
330
1755
100
AcDbEntity
  8
DIM
 62
     0
370
    -2
100
AcDbLine
 10
-205.4284433023048
 20
706.1451893518793
 30
0.0
 11
-205.4284433023048
 21
815.6652411493675
 31
0.0
  0
LINE
  5
175A
330
1755
100
AcDbEntity
  8
DIM
 62
     0
370
    -2
100
AcDbLine
 10
-293.5188489193064
 20
815.6652411493675
 30
0.0
 11
-207.4284433023048
 21
815.6652411493675
 31
0.0
  0
INSERT
  5
175B
330
1755
100
AcDbEntity
  8
DIM
 62
     0
370
    -2
100
AcDbBlockReference
  2
_DOT
 10
-295.5188489193064
 20
815.6652411493675
 30
0.0
 41
2.0
 42
2.0
 43
2.0
 50
180.0
  0
INSERT
  5
175C
330
1755
100
AcDbEntity
  8
DIM
 62
     0
370
    -2
100
AcDbBlockReference
  2
_DOT
 10
-205.4284433023048
 20
815.6652411493675
 30
0.0
 41
2.0
 42
2.0
 43
2.0
  0
MTEXT
  5
175D
330
1755
100
AcDbEntity
  8
DIM
 62
     0
100
AcDbMText
 10
-250.4736461108056
 20
831.6652411493675
 30
0.0
 40
12.0
 41
0.0
 46
0.0
 71
     5
 72
     1
  1
\A1;90
  7
ＭＳ ゴシック
 73
     1
 44
1.0
  0
POINT
  5
175E
330
1755
100
AcDbEntity
  8
Defpoints
 62
     0
100
AcDbPoint
 10
-295.5188489193064
 20
770.2981836049703
 30
0.0
  0
POINT
  5
175F
330
1755
100
AcDbEntity
  8
Defpoints
 62
     0
100
AcDbPoint
 10
-205.4284433023048
 20
701.1451893518793
 30
0.0
  0
POINT
  5
1760
330
1755
100
AcDbEntity
  8
Defpoints
 62
     0
100
AcDbPoint
 10
-205.4284433023048
 20
815.6652411493675
 30
0.0
  0
ENDBLK
  5
1757
330
1755
100
AcDbEntity
  8
0
100
AcDbBlockEnd
  0
BLOCK
  5
1765
330
1764
100
AcDbEntity
  8
0
100
AcDbBlockBegin
  2
*D7
 70
     1
 10
0.0
 20
0.0
 30
0.0
  3
*D7
  1
*D48
  0
LINE
  5
1767
330
1764
100
AcDbEntity
  8
DIM
 62
     0
370
    -2
100
AcDbLine
 10
-200.4284433023048
 20
671.8525143521373
 30
0.0
 11
-150.0688743412373
 21
671.8525143521373
 31
0.0
  0
LINE
  5
1768
330
1764
100
AcDbEntity
  8
DIM
 62
     0
370
    -2
100
AcDbLine
 10
-233.0005079817896
 20
584.7930199689371
 30
0.0
 11
-150.0688743412373
 21
584.7930199689371
 31
0.0
  0
LINE
  5
1769
330
1764
100
AcDbEntity
  8
DIM
 62
     0
370
    -2
100
AcDbLine
 10
-150.0688743412373
 20
669.8525143521373
 30
0.0
 11
-150.0688743412373
 21
586.7930199689371
 31
0.0
  0
INSERT
  5
176A
330
1764
100
AcDbEntity
  8
DIM
 62
     0
370
    -2
100
AcDbBlockReference
  2
_DOT
 10
-150.0688743412373
 20
671.8525143521373
 30
0.0
 41
2.0
 42
2.0
 43
2.0
 50
90.0
  0
INSERT
  5
176B
330
1764
100
AcDbEntity
  8
DIM
 62
     0
370
    -2
100
AcDbBlockReference
  2
_DOT
 10
-150.0688743412373
 20
584.7930199689371
 30
0.0
 41
2.0
 42
2.0
 43
2.0
 50
270.0
  0
MTEXT
  5
176C
330
1764
100
AcDbEntity
  8
DIM
 62
     0
100
AcDbMText
 10
-166.0688743412373
 20
628.3227671605372
 30
0.0
 40
12.0
 41
0.0
 46
0.0
 71
     5
 72
     1
  1
\A1;87
  7
ＭＳ ゴシック
 11
0.0
 21
1.0
 31
0.0
 73
     1
 44
1.0
  0
POINT
  5
176D
330
1764
100
AcDbEntity
  8
Defpoints
 62
     0
100
AcDbPoint
 10
-205.4284433023048
 20
671.8525143521373
 30
0.0
  0
POINT
  5
176E
330
1764
100
AcDbEntity
  8
Defpoints
 62
     0
100
AcDbPoint
 10
-238.0005079817896
 20
584.7930199689371
 30
0.0
  0
POINT
  5
176F
330
1764
100
AcDbEntity
  8
Defpoints
 62
     0
100
AcDbPoint
 10
-150.0688743412373
 20
584.7930199689371
 30
0.0
  0
ENDBLK
  5
1766
330
1764
100
AcDbEntity
  8
0
100
AcDbBlockEnd
  0
BLOCK
  5
1781
330
1780
100
AcDbEntity
  8
0
100
AcDbBlockBegin
  2
*D8
 70
     1
 10
0.0
 20
0.0
 30
0.0
  3
*D8
  1
*D50
  0
LINE
  5
1783
330
1780
100
AcDbEntity
  8
DIM
 62
     0
370
    -2
100
AcDbLine
 10
-329.1967209567216
 20
584.7930199689371
 30
0.0
 11
-425.0716077610881
 21
584.7930199689371
 31
0.0
  0
LINE
  5
1784
330
1780
100
AcDbEntity
  8
DIM
 62
     0
370
    -2
100
AcDbLine
 10
-258.6313006938241
 20
766.9407353208452
 30
0.0
 11
-425.0716077610881
 21
766.9407353208452
 31
0.0
  0
LINE
  5
1785
330
1780
100
AcDbEntity
  8
DIM
 62
     0
370
    -2
100
AcDbLine
 10
-425.0716077610881
 20
586.7930199689371
 30
0.0
 11
-425.0716077610881
 21
764.9407353208452
 31
0.0
  0
INSERT
  5
1786
330
1780
100
AcDbEntity
  8
DIM
 62
     0
370
    -2
100
AcDbBlockReference
  2
_DOT
 10
-425.0716077610881
 20
584.7930199689371
 30
0.0
 41
2.0
 42
2.0
 43
2.0
 50
270.0
  0
INSERT
  5
1787
330
1780
100
AcDbEntity
  8
DIM
 62
     0
370
    -2
100
AcDbBlockReference
  2
_DOT
 10
-425.0716077610881
 20
766.9407353208452
 30
0.0
 41
2.0
 42
2.0
 43
2.0
 50
90.0
  0
MTEXT
  5
1788
330
1780
100
AcDbEntity
  8
DIM
 62
     0
100
AcDbMText
 10
-441.0716077610881
 20
675.8668776448911
 30
0.0
 40
12.0
 41
0.0
 46
0.0
 71
     5
 72
     1
  1
\A1;182
  7
ＭＳ ゴシック
 11
0.0
 21
1.0
 31
0.0
 73
     1
 44
1.0
  0
POINT
  5
1789
330
1780
100
AcDbEntity
  8
Defpoints
 62
     0
100
AcDbPoint
 10
-324.1967209567216
 20
584.7930199689371
 30
0.0
  0
POINT
  5
178A
330
1780
100
AcDbEntity
  8
Defpoints
 62
     0
100
AcDbPoint
 10
-253.6313006938241
 20
766.9407353208452
 30
0.0
  0
POINT
  5
178B
330
1780
100
AcDbEntity
  8
Defpoints
 62
     0
100
AcDbPoint
 10
-425.0716077610881
 20
766.9407353208452
 30
0.0
  0
ENDBLK
  5
1782
330
1780
100
AcDbEntity
  8
0
100
AcDbBlockEnd
  0
BLOCK
  5
17A1
330
17A0
100
AcDbEntity
  8
0
100
AcDbBlockBegin
  2
*D9
 70
     1
 10
0.0
 20
0.0
 30
0.0
  3
*D9
  1
*D52
  0
LINE
  5
17A3
330
17A0
100
AcDbEntity
  8
DIM
 62
     0
370
    -2
100
AcDbLine
 10
-329.1967209567216
 20
584.7930199689371
 30
0.0
 11
-425.0716077610881
 21
584.7930199689371
 31
0.0
  0
LINE
  5
17A4
330
17A0
100
AcDbEntity
  8
DIM
 62
     0
370
    -2
100
AcDbLine
 10
-322.3302740070764
 20
253.4654709517774
 30
0.0
 11
-425.0716077610881
 21
253.4654709517774
 31
0.0
  0
LINE
  5
17A5
330
17A0
100
AcDbEntity
  8
DIM
 62
     0
370
    -2
100
AcDbLine
 10
-425.0716077610881
 20
582.7930199689371
 30
0.0
 11
-425.0716077610881
 21
255.4654709517774
 31
0.0
  0
INSERT
  5
17A6
330
17A0
100
AcDbEntity
  8
DIM
 62
     0
370
    -2
100
AcDbBlockReference
  2
_DOT
 10
-425.0716077610881
 20
584.7930199689371
 30
0.0
 41
2.0
 42
2.0
 43
2.0
 50
90.0
  0
INSERT
  5
17A7
330
17A0
100
AcDbEntity
  8
DIM
 62
     0
370
    -2
100
AcDbBlockReference
  2
_DOT
 10
-425.0716077610881
 20
253.4654709517774
 30
0.0
 41
2.0
 42
2.0
 43
2.0
 50
270.0
  0
MTEXT
  5
17A8
330
17A0
100
AcDbEntity
  8
DIM
 62
     0
100
AcDbMText
 10
-441.0716077610881
 20
419.1292454603572
 30
0.0
 40
12.0
 41
0.0
 46
0.0
 71
     5
 72
     1
  1
\A1;445
  7
ＭＳ ゴシック
 11
0.0
 21
1.0
 31
0.0
 73
     1
 44
1.0
  0
POINT
  5
17A9
330
17A0
100
AcDbEntity
  8
Defpoints
 62
     0
100
AcDbPoint
 10
-324.1967209567216
 20
584.7930199689371
 30
0.0
  0
POINT
  5
17AA
330
17A0
100
AcDbEntity
  8
Defpoints
 62
     0
100
AcDbPoint
 10
-317.3302740070764
 20
253.4654709517774
 30
0.0
  0
POINT
  5
17AB
330
17A0
100
AcDbEntity
  8
Defpoints
 62
     0
100
AcDbPoint
 10
-425.0716077610881
 20
253.4654709517774
 30
0.0
  0
ENDBLK
  5
17A2
330
17A0
100
AcDbEntity
  8
0
100
AcDbBlockEnd
  0
BLOCK
  5
17BD
330
17BC
100
AcDbEntity
  8
0
100
AcDbBlockBegin
  2
*D10
 70
     1
 10
0.0
 20
0.0
 30
0.0
  3
*D10
  1
*D54
  0
LINE
  5
17BF
330
17BC
100
AcDbEntity
  8
DIM
 62
     0
370
    -2
100
AcDbLine
 10
-266.9479771814878
 20
584.7930199689371
 30
0.0
 11
-238.0005079817896
 21
584.7930199689371
 31
0.0
  0
LINE
  5
17C0
330
17BC
100
AcDbEntity
  8
DIM
 62
     0
370
    -2
100
AcDbLine
 10
-263.1570615189634
 20
554.8854335595191
 30
0.0
 11
-238.0005079817896
 21
554.8854335595191
 31
0.0
  0
LINE
  5
17C1
330
17BC
100
AcDbEntity
  8
DIM
 62
     0
370
    -2
100
AcDbLine
 10
-238.0005079817896
 20
554.8854335595191
 30
0.0
 11
-238.0005079817896
 21
473.1374335595191
 31
0.0
  0
LINE
  5
17C2
330
17BC
100
AcDbEntity
  8
DIM
 62
     0
370
    -2
100
AcDbLine
 10
-238.0005079817896
 20
582.7930199689371
 30
0.0
 11
-238.0005079817896
 21
556.8854335595191
 31
0.0
  0
INSERT
  5
17C3
330
17BC
100
AcDbEntity
  8
DIM
 62
     0
370
    -2
100
AcDbBlockReference
  2
_DOT
 10
-238.0005079817896
 20
584.7930199689371
 30
0.0
 41
2.0
 42
2.0
 43
2.0
 50
90.0
  0
INSERT
  5
17C4
330
17BC
100
AcDbEntity
  8
DIM
 62
     0
370
    -2
100
AcDbBlockReference
  2
_DOT
 10
-238.0005079817896
 20
554.8854335595191
 30
0.0
 41
2.0
 42
2.0
 43
2.0
 50
270.0
  0
MTEXT
  5
17C5
330
17BC
100
AcDbEntity
  8
DIM
 62
     0
100
AcDbMText
 10
-254.0005079817896
 20
510.0114335595191
 30
0.0
 40
12.0
 41
0.0
 46
0.0
 71
     5
 72
     1
  1
\A1;max. 30
  7
ＭＳ ゴシック
 11
0.0
 21
1.0
 31
0.0
 73
     1
 44
1.0
  0
POINT
  5
17C6
330
17BC
100
AcDbEntity
  8
Defpoints
 62
     0
100
AcDbPoint
 10
-271.9479771814878
 20
584.7930199689371
 30
0.0
  0
POINT
  5
17C7
330
17BC
100
AcDbEntity
  8
Defpoints
 62
     0
100
AcDbPoint
 10
-268.1570615189634
 20
554.8854335595191
 30
0.0
  0
POINT
  5
17CA
330
17BC
100
AcDbEntity
  8
Defpoints
 62
     0
100
AcDbPoint
 10
-238.0005079817896
 20
554.8854335595191
 30
0.0
  0
ENDBLK
  5
17BE
330
17BC
100
AcDbEntity
  8
0
100
AcDbBlockEnd
  0
BLOCK
  5
528F
330
528E
100
AcDbEntity
  8
0
100
AcDbBlockBegin
  2
*D11
 70
     1
 10
0.0
 20
0.0
 30
0.0
  3
*D11
  1
*D180
  0
LINE
  5
5291
330
528E
100
AcDbEntity
  8
DIM
  6
Continuous
 62
     0
370
    -2
100
AcDbLine
 10
-207.5753895233053
 20
977.2721363221665
 30
0.0
 11
-163.6424299452556
 21
977.2721363221665
 31
0.0
  0
LINE
  5
5292
330
528E
100
AcDbEntity
  8
DIM
  6
Continuous
 62
     0
370
    -2
100
AcDbLine
 10
-239.0090207202426
 20
1044.68174079606
 30
0.0
 11
-210.7694720948707
 21
1078.336351635498
 31
0.0
  0
ARC
  5
5293
330
528E
100
AcDbEntity
  8
DIM
  6
Continuous
 62
     0
370
    -2
100
AcDbCircle
 10
-295.5723490689053
 20
977.2721363221665
 30
0.0
 40
131.9299191236497
100
AcDbArc
 50
0.8685873309782567
 51
49.13143556460852
  0
INSERT
  5
5294
330
528E
100
AcDbEntity
  8
DIM
 62
     0
370
    -2
100
AcDbBlockReference
  2
_DOT
 10
-163.6424299452556
 20
977.2721363221665
 30
0.0
 41
2.0
 42
2.0
 43
2.0
 50
270.4342936654891
  0
INSERT
  5
5295
330
528E
100
AcDbEntity
  8
DIM
 62
     0
370
    -2
100
AcDbBlockReference
  2
_DOT
 10
-210.7694720948707
 20
1078.336351635498
 30
0.0
 41
2.0
 42
2.0
 43
2.0
 50
139.5657292300976
  0
MTEXT
  5
5296
330
528E
100
AcDbEntity
  8
DIM
 62
     0
100
AcDbMText
 10
-161.3119993050034
 20
1039.878798261901
 30
0.0
 40
12.0
 41
0.0
 46
0.0
 71
     5
 72
     1
  1
\A1;\A1;50%%d
  7
ＭＳ ゴシック
 11
0.4226184428214646
 21
-0.9063077025972804
 31
0.0
 73
     1
 44
1.0
  0
POINT
  5
5297
330
528E
100
AcDbEntity
  8
Defpoints
 62
     0
100
AcDbPoint
 10
-185.3465289936827
 20
1049.768840721176
 30
0.0
  0
POINT
  5
5298
330
528E
100
AcDbEntity
  8
Defpoints
 62
     0
100
AcDbPoint
 10
-295.5723490689053
 20
977.2721363221665
 30
0.0
  0
POINT
  5
5299
330
528E
100
AcDbEntity
  8
Defpoints
 62
     0
100
AcDbPoint
 10
-295.5723490689053
 20
977.2721363221665
 30
0.0
  0
POINT
  5
529A
330
528E
100
AcDbEntity
  8
Defpoints
 62
     0
100
AcDbPoint
 10
-242.2229572381053
 20
1040.851517296165
 30
0.0
  0
POINT
  5
529B
330
528E
100
AcDbEntity
  8
Defpoints
 62
     0
100
AcDbPoint
 10
-212.5753895233053
 20
977.2721363221665
 30
0.0
  0
ENDBLK
  5
5290
330
528E
100
AcDbEntity
  8
0
100
AcDbBlockEnd
  0
BLOCK
  5
529D
330
529C
100
AcDbEntity
  8
0
100
AcDbBlockBegin
  2
*D12
 70
     1
 10
0.0
 20
0.0
 30
0.0
  3
*D12
  1
*D181
  0
LINE
  5
529F
330
529C
100
AcDbEntity
  8
DIM
  6
Continuous
 62
     0
370
    -2
100
AcDbLine
 10
-239.0090207202426
 20
909.8625318482716
 30
0.0
 11
-210.7884466621311
 21
876.2305340358844
 31
0.0
  0
LINE
  5
52A0
330
529C
100
AcDbEntity
  8
DIM
  6
Continuous
 62
     0
370
    -2
100
AcDbLine
 10
-207.5753895233053
 20
977.2721363221665
 30
0.0
 11
-163.6719491457033
 21
977.2721363221665
 31
0.0
  0
ARC
  5
52A1
330
529C
100
AcDbEntity
  8
DIM
  6
Continuous
 62
     0
370
    -2
100
AcDbCircle
 10
-295.5723490689053
 20
977.2721363221665
 30
0.0
 40
131.900399923202
100
AcDbArc
 50
310.8687588282413
 51
359.1312182761714
  0
INSERT
  5
52A2
330
529C
100
AcDbEntity
  8
DIM
 62
     0
370
    -2
100
AcDbBlockReference
  2
_DOT
 10
-210.7884466621311
 20
876.2305340358844
 30
0.0
 41
2.0
 42
2.0
 43
2.0
 50
220.434367966327
  0
INSERT
  5
52A3
330
529C
100
AcDbEntity
  8
DIM
 62
     0
370
    -2
100
AcDbBlockReference
  2
_DOT
 10
-163.6719491457033
 20
977.2721363221665
 30
0.0
 41
2.0
 42
2.0
 43
2.0
 50
89.56560913808569
  0
MTEXT
  5
52A4
330
529C
100
AcDbEntity
  8
DIM
 62
     0
100
AcDbMText
 10
-190.7212485019999
 20
928.3792396571181
 30
0.0
 40
12.0
 41
0.0
 46
0.0
 71
     5
 72
     1
  1
\A1;\A1;50%%d
  7
ＭＳ ゴシック
 11
0.4226184428224356
 21
0.9063077025968275
 31
0.0
 73
     1
 44
1.0
  0
POINT
  5
52A5
330
529C
100
AcDbEntity
  8
Defpoints
 62
     0
100
AcDbPoint
 10
-185.3711919215385
 20
904.7916529953976
 30
0.0
  0
POINT
  5
52A6
330
529C
100
AcDbEntity
  8
Defpoints
 62
     0
100
AcDbPoint
 10
-295.5723490689053
 20
977.2721363221665
 30
0.0
  0
POINT
  5
52A7
330
529C
100
AcDbEntity
  8
Defpoints
 62
     0
100
AcDbPoint
 10
-295.5723490689053
 20
977.2721363221665
 30
0.0
  0
POINT
  5
52A8
330
529C
100
AcDbEntity
  8
Defpoints
 62
     0
100
AcDbPoint
 10
-242.2229572381053
 20
913.6927553481667
 30
0.0
  0
POINT
  5
52A9
330
529C
100
AcDbEntity
  8
Defpoints
 62
     0
100
AcDbPoint
 10
-212.5753895233053
 20
977.2721363221665
 30
0.0
  0
ENDBLK
  5
529E
330
529C
100
AcDbEntity
  8
0
100
AcDbBlockEnd
  0
BLOCK
  5
52DE
330
52DD
100
AcDbEntity
  8
0
100
AcDbBlockBegin
  2
*D13
 70
     1
 10
0.0
 20
0.0
 30
0.0
  3
*D13
  1
*D186
  0
LINE
  5
52E0
330
52DD
100
AcDbEntity
  8
DIM
  6
Continuous
 62
     0
370
    -2
100
AcDbLine
 10
-205.4284433023048
 20
665.739013240537
 30
0.0
 11
-205.4284433023048
 21
644.9255475526911
 31
0.0
  0
LINE
  5
52E1
330
52DD
100
AcDbEntity
  8
DIM
  6
Continuous
 62
     0
370
    -2
100
AcDbLine
 10
-203.4848498383751
 20
666.20790906948
 30
0.0
 11
-196.6618804203525
 21
646.3925670573126
 31
0.0
  0
ARC
  5
52E2
330
52DD
100
AcDbEntity
  8
DIM
  6
Continuous
 62
     0
370
    -2
100
AcDbCircle
 10
-205.4284433023048
 20
671.8525143521373
 30
0.0
 40
26.9269667994462
100
AcDbArc
 50
274.256621879935
 51
284.7433781109
  0
INSERT
  5
52E3
330
52DD
100
AcDbEntity
  8
DIM
 62
     0
370
    -2
100
AcDbBlockReference
  2
_DOT
 10
-205.4284433023048
 20
644.9255475526911
 30
0.0
 41
2.0
 42
2.0
 43
2.0
 50
182.1283109399675
  0
INSERT
  5
52E4
330
52DD
100
AcDbEntity
  8
DIM
 62
     0
370
    -2
100
AcDbBlockReference
  2
_DOT
 10
-196.6618804203525
 20
646.3925670573126
 30
0.0
 41
2.0
 42
2.0
 43
2.0
 50
16.87168905086749
  0
MTEXT
  5
52E5
330
52DD
100
AcDbEntity
  8
DIM
 62
     0
100
AcDbMText
 10
-195.1420403270876
 20
629.9599396104486
 30
0.0
 40
12.0
 41
0.0
 46
0.0
 71
     5
 72
     1
  1
\A1;\A1;19%%d
  7
ＭＳ ゴシック
 11
0.9711525369054564
 21
0.238459116122861
 31
0.0
 73
     1
 44
1.0
  0
POINT
  5
52E6
330
52DD
100
AcDbEntity
  8
Defpoints
 62
     0
100
AcDbPoint
 10
-202.4580607833727
 20
645.0898842738043
 30
0.0
  0
POINT
  5
52E7
330
52DD
100
AcDbEntity
  8
Defpoints
 62
     0
100
AcDbPoint
 10
-205.4284433023048
 20
671.8525143521373
 30
0.0
  0
POINT
  5
52E8
330
52DD
100
AcDbEntity
  8
Defpoints
 62
     0
100
AcDbPoint
 10
-205.4284433023048
 20
671.8525143521373
 30
0.0
  0
POINT
  5
52E9
330
52DD
100
AcDbEntity
  8
Defpoints
 62
     0
100
AcDbPoint
 10
-205.4284433023048
 20
670.739013240537
 30
0.0
  0
POINT
  5
52EA
330
52DD
100
AcDbEntity
  8
Defpoints
 62
     0
100
AcDbPoint
 10
-205.1126906099047
 20
670.935501947737
 30
0.0
  0
ENDBLK
  5
52DF
330
52DD
100
AcDbEntity
  8
0
100
AcDbBlockEnd
  0
BLOCK
  5
535F
330
535E
100
AcDbEntity
  8
0
100
AcDbBlockBegin
  2
*D14
 70
     1
 10
0.0
 20
0.0
 30
0.0
  3
*D14
  1
*D195
  0
LINE
  5
5361
330
535E
100
AcDbEntity
  8
DIM
 62
     0
370
    -2
100
AcDbLine
 10
-665.2773563670436
 20
584.7930199689371
 30
0.0
 11
-617.0190628856021
 21
584.7930199689371
 31
0.0
  0
LINE
  5
5362
330
535E
100
AcDbEntity
  8
DIM
 62
     0
370
    -2
100
AcDbLine
 10
-665.2773563670436
 20
731.7930199689371
 30
0.0
 11
-617.0190628856021
 21
731.7930199689371
 31
0.0
  0
LINE
  5
5363
330
535E
100
AcDbEntity
  8
DIM
 62
     0
370
    -2
100
AcDbLine
 10
-617.0190628856021
 20
586.7930199689371
 30
0.0
 11
-617.0190628856021
 21
729.7930199689371
 31
0.0
  0
INSERT
  5
5364
330
535E
100
AcDbEntity
  8
DIM
 62
     0
370
    -2
100
AcDbBlockReference
  2
_DOT
 10
-617.0190628856021
 20
584.7930199689371
 30
0.0
 41
2.0
 42
2.0
 43
2.0
 50
270.0
  0
INSERT
  5
5365
330
535E
100
AcDbEntity
  8
DIM
 62
     0
370
    -2
100
AcDbBlockReference
  2
_DOT
 10
-617.0190628856021
 20
731.7930199689371
 30
0.0
 41
2.0
 42
2.0
 43
2.0
 50
90.0
  0
MTEXT
  5
5366
330
535E
100
AcDbEntity
  8
DIM
 62
     0
100
AcDbMText
 10
-633.0190628856021
 20
658.2930199689371
 30
0.0
 40
12.0
 41
0.0
 46
0.0
 71
     5
 72
     1
  1
\A1;147
  7
ＭＳ ゴシック
 11
0.0
 21
1.0
 31
0.0
 73
     1
 44
1.0
  0
POINT
  5
5367
330
535E
100
AcDbEntity
  8
Defpoints
 62
     0
100
AcDbPoint
 10
-670.2773563670436
 20
584.7930199689371
 30
0.0
  0
POINT
  5
5368
330
535E
100
AcDbEntity
  8
Defpoints
 62
     0
100
AcDbPoint
 10
-670.2773563670436
 20
731.7930199689371
 30
0.0
  0
POINT
  5
5369
330
535E
100
AcDbEntity
  8
Defpoints
 62
     0
100
AcDbPoint
 10
-617.0190628856021
 20
731.7930199689371
 30
0.0
  0
ENDBLK
  5
5360
330
535E
100
AcDbEntity
  8
0
100
AcDbBlockEnd
  0
BLOCK
  5
6D3A
330
6D39
100
AcDbEntity
  8
0
100
AcDbBlockBegin
  2
*D15
 70
     1
 10
0.0
 20
0.0
 30
0.0
  3
*D15
  1
*D16
  0
LINE
  5
6D3C
330
6D39
100
AcDbEntity
  8
DIM
 62
     0
370
    -2
100
AcDbLine
 10
562.9716035188872
 20
759.0014491832753
 30
0.0
 11
555.7692641093848
 21
759.0014491832753
 31
0.0
  0
LINE
  5
6D3D
330
6D39
100
AcDbEntity
  8
DIM
 62
     0
370
    -2
100
AcDbLine
 10
562.9716035188872
 20
739.0014496303102
 30
0.0
 11
555.7692641093848
 21
739.0014496303102
 31
0.0
  0
LINE
  5
6D3E
330
6D39
100
AcDbEntity
  8
DIM
 62
     0
370
    -2
100
AcDbLine
 10
555.7692641093848
 20
761.0014491832753
 30
0.0
 11
555.7692641093848
 21
763.0014491832753
 31
0.0
  0
LINE
  5
6D3F
330
6D39
100
AcDbEntity
  8
DIM
 62
     0
370
    -2
100
AcDbLine
 10
555.7692641093848
 20
737.0014496303102
 30
0.0
 11
555.7692641093848
 21
735.0014496303102
 31
0.0
  0
INSERT
  5
6D40
330
6D39
100
AcDbEntity
  8
DIM
 62
     0
370
    -2
100
AcDbBlockReference
  2
_DOT
 10
555.7692641093848
 20
759.0014491832753
 30
0.0
 41
2.0
 42
2.0
 43
2.0
 50
270.0
  0
INSERT
  5
6D41
330
6D39
100
AcDbEntity
  8
DIM
 62
     0
370
    -2
100
AcDbBlockReference
  2
_DOT
 10
555.7692641093848
 20
739.0014496303102
 30
0.0
 41
2.0
 42
2.0
 43
2.0
 50
90.0
  0
MTEXT
  5
6D42
330
6D39
100
AcDbEntity
  8
DIM
 62
     0
100
AcDbMText
 10
539.7692641093848
 20
749.0014494067927
 30
0.0
 40
12.0
 41
0.0
 46
0.0
 71
     5
 72
     1
  1
\A1;20
  7
ＭＳ ゴシック
 11
0.0
 21
1.0
 31
0.0
 73
     1
 44
1.0
  0
POINT
  5
6D43
330
6D39
100
AcDbEntity
  8
Defpoints
 62
     0
100
AcDbPoint
 10
567.9716035188872
 20
759.0014491832753
 30
0.0
  0
POINT
  5
6D44
330
6D39
100
AcDbEntity
  8
Defpoints
 62
     0
100
AcDbPoint
 10
567.9716035188872
 20
739.0014496303102
 30
0.0
  0
POINT
  5
6D45
330
6D39
100
AcDbEntity
  8
Defpoints
 62
     0
100
AcDbPoint
 10
555.7692641093848
 20
739.0014496303102
 30
0.0
  0
ENDBLK
  5
6D3B
330
6D39
100
AcDbEntity
  8
0
100
AcDbBlockEnd
  0
BLOCK
  5
6D55
330
6D54
100
AcDbEntity
  8
0
100
AcDbBlockBegin
  2
*D16
 70
     1
 10
0.0
 20
0.0
 30
0.0
  3
*D16
  1
*D17
  0
LINE
  5
6D57
330
6D54
100
AcDbEntity
  8
DIM
 62
     0
370
    -2
100
AcDbLine
 10
495.7676281599477
 20
309.5754420530043
 30
0.0
 11
495.7676281599477
 21
256.8033659867495
 31
0.0
  0
LINE
  5
6D58
330
6D54
100
AcDbEntity
  8
DIM
 62
     0
370
    -2
100
AcDbLine
 10
336.0743125347569
 20
285.0246469796245
 30
0.0
 11
336.0743125347569
 21
256.8033659867495
 31
0.0
  0
LINE
  5
6D59
330
6D54
100
AcDbEntity
  8
DIM
 62
     0
370
    -2
100
AcDbLine
 10
493.7676281599477
 20
256.8033659867495
 30
0.0
 11
338.0743125347569
 21
256.8033659867495
 31
0.0
  0
INSERT
  5
6D5A
330
6D54
100
AcDbEntity
  8
DIM
 62
     0
370
    -2
100
AcDbBlockReference
  2
_DOT
 10
495.7676281599477
 20
256.8033659867495
 30
0.0
 41
2.0
 42
2.0
 43
2.0
  0
INSERT
  5
6D5B
330
6D54
100
AcDbEntity
  8
DIM
 62
     0
370
    -2
100
AcDbBlockReference
  2
_DOT
 10
336.0743125347569
 20
256.8033659867495
 30
0.0
 41
2.0
 42
2.0
 43
2.0
 50
180.0
  0
MTEXT
  5
6D5C
330
6D54
100
AcDbEntity
  8
DIM
 62
     0
100
AcDbMText
 10
415.9209703473523
 20
270.3033659867495
 30
0.0
 40
7.0
 41
0.0
 46
0.0
 71
     5
 72
     1
  1
\A1;160
  7
ＭＳ ゴシック
 73
     1
 44
1.0
  0
POINT
  5
6D5D
330
6D54
100
AcDbEntity
  8
Defpoints
 62
     0
100
AcDbPoint
 10
495.7676281599477
 20
314.5754420530043
 30
0.0
  0
POINT
  5
6D5E
330
6D54
100
AcDbEntity
  8
Defpoints
 62
     0
100
AcDbPoint
 10
336.0743125347569
 20
290.0246469796245
 30
0.0
  0
POINT
  5
6D5F
330
6D54
100
AcDbEntity
  8
Defpoints
 62
     0
100
AcDbPoint
 10
336.0743125347569
 20
256.8033659867495
 30
0.0
  0
ENDBLK
  5
6D56
330
6D54
100
AcDbEntity
  8
0
100
AcDbBlockEnd
  0
BLOCK
  5
6D62
330
6D61
100
AcDbEntity
  8
0
100
AcDbBlockBegin
  2
*D17
 70
     1
 10
0.0
 20
0.0
 30
0.0
  3
*D17
  1
*D18
  0
LINE
  5
6D64
330
6D61
100
AcDbEntity
  8
DIM
 62
     0
370
    -2
100
AcDbLine
 10
336.0743125347569
 20
285.0246469796245
 30
0.0
 11
336.0743125347569
 21
256.8033659867495
 31
0.0
  0
LINE
  5
6D65
330
6D61
100
AcDbEntity
  8
DIM
 62
     0
370
    -2
100
AcDbLine
 10
316.0743125347569
 20
353.4980563592158
 30
0.0
 11
316.0743125347569
 21
256.8033659867495
 31
0.0
  0
LINE
  5
6D66
330
6D61
100
AcDbEntity
  8
DIM
 62
     0
370
    -2
100
AcDbLine
 10
334.0743125347569
 20
256.8033659867495
 30
0.0
 11
318.0743125347569
 21
256.8033659867495
 31
0.0
  0
INSERT
  5
6D67
330
6D61
100
AcDbEntity
  8
DIM
 62
     0
370
    -2
100
AcDbBlockReference
  2
_DOT
 10
336.0743125347569
 20
256.8033659867495
 30
0.0
 41
2.0
 42
2.0
 43
2.0
  0
INSERT
  5
6D68
330
6D61
100
AcDbEntity
  8
DIM
 62
     0
370
    -2
100
AcDbBlockReference
  2
_DOT
 10
316.0743125347569
 20
256.8033659867495
 30
0.0
 41
2.0
 42
2.0
 43
2.0
 50
180.0
  0
MTEXT
  5
6D69
330
6D61
100
AcDbEntity
  8
DIM
 62
     0
100
AcDbMText
 10
325.5743125347569
 20
270.3033659867495
 30
0.0
 40
7.0
 41
0.0
 46
0.0
 71
     5
 72
     1
  1
\A1;20
  7
ＭＳ ゴシック
 73
     1
 44
1.0
  0
POINT
  5
6D6A
330
6D61
100
AcDbEntity
  8
Defpoints
 62
     0
100
AcDbPoint
 10
336.0743125347569
 20
290.0246469796245
 30
0.0
  0
POINT
  5
6D6B
330
6D61
100
AcDbEntity
  8
Defpoints
 62
     0
100
AcDbPoint
 10
316.0743125347569
 20
358.4980563592158
 30
0.0
  0
POINT
  5
6D6C
330
6D61
100
AcDbEntity
  8
Defpoints
 62
     0
100
AcDbPoint
 10
316.0743125347569
 20
256.8033659867495
 30
0.0
  0
ENDBLK
  5
6D63
330
6D61
100
AcDbEntity
  8
0
100
AcDbBlockEnd
  0
BLOCK
  5
6D70
330
6D6F
100
AcDbEntity
  8
0
100
AcDbBlockBegin
  2
*D18
 70
     1
 10
0.0
 20
0.0
 30
0.0
  3
*D18
  1
*D19
  0
LINE
  5
6D72
330
6D6F
100
AcDbEntity
  8
DIM
 62
     0
370
    -2
100
AcDbLine
 10
467.7564224872594
 20
556.3060297558618
 30
0.0
 11
467.7564224872594
 21
576.4934079428253
 31
0.0
  0
LINE
  5
6D73
330
6D6F
100
AcDbEntity
  8
DIM
 62
     0
370
    -2
100
AcDbLine
 10
447.7564224872594
 20
556.3060297558618
 30
0.0
 11
447.7564224872594
 21
576.4934079428253
 31
0.0
  0
LINE
  5
6D74
330
6D6F
100
AcDbEntity
  8
DIM
 62
     0
370
    -2
100
AcDbLine
 10
465.7564224872594
 20
576.4934079428253
 30
0.0
 11
449.7564224872594
 21
576.4934079428253
 31
0.0
  0
INSERT
  5
6D75
330
6D6F
100
AcDbEntity
  8
DIM
 62
     0
370
    -2
100
AcDbBlockReference
  2
_DOT
 10
467.7564224872594
 20
576.4934079428253
 30
0.0
 41
2.0
 42
2.0
 43
2.0
  0
INSERT
  5
6D76
330
6D6F
100
AcDbEntity
  8
DIM
 62
     0
370
    -2
100
AcDbBlockReference
  2
_DOT
 10
447.7564224872594
 20
576.4934079428253
 30
0.0
 41
2.0
 42
2.0
 43
2.0
 50
180.0
  0
MTEXT
  5
6D77
330
6D6F
100
AcDbEntity
  8
DIM
 62
     0
100
AcDbMText
 10
457.7564224872594
 20
592.4934079428253
 30
0.0
 40
12.0
 41
0.0
 46
0.0
 71
     5
 72
     1
  1
\A1;20
  7
ＭＳ ゴシック
 73
     1
 44
1.0
  0
POINT
  5
6D78
330
6D6F
100
AcDbEntity
  8
Defpoints
 62
     0
100
AcDbPoint
 10
467.7564224872594
 20
551.3060297558618
 30
0.0
  0
POINT
  5
6D79
330
6D6F
100
AcDbEntity
  8
Defpoints
 62
     0
100
AcDbPoint
 10
447.7564224872594
 20
551.3060297558618
 30
0.0
  0
POINT
  5
6D7A
330
6D6F
100
AcDbEntity
  8
Defpoints
 62
     0
100
AcDbPoint
 10
447.7564224872594
 20
576.4934079428253
 30
0.0
  0
ENDBLK
  5
6D71
330
6D6F
100
AcDbEntity
  8
0
100
AcDbBlockEnd
  0
BLOCK
  5
709D
330
709C
100
AcDbEntity
  8
0
100
AcDbBlockBegin
  2
*D19
 70
     1
 10
0.0
 20
0.0
 30
0.0
  3
*D19
  1
*D23
  0
LINE
  5
709F
330
709C
100
AcDbEntity
  8
DIM
 62
     0
370
    -2
100
AcDbLine
 10
328.92380611569
 20
528.5334565678319
 30
0.0
 11
328.92380611569
 21
567.5741791948802
 31
0.0
  0
LINE
  5
70A0
330
709C
100
AcDbEntity
  8
DIM
 62
     0
370
    -2
100
AcDbLine
 10
280.9238061156892
 20
528.5334565678319
 30
0.0
 11
280.9238061156892
 21
567.5741791948802
 31
0.0
  0
LINE
  5
70A1
330
709C
100
AcDbEntity
  8
DIM
 62
     0
370
    -2
100
AcDbLine
 10
326.92380611569
 20
567.5741791948802
 30
0.0
 11
282.9238061156892
 21
567.5741791948802
 31
0.0
  0
INSERT
  5
70A2
330
709C
100
AcDbEntity
  8
DIM
 62
     0
370
    -2
100
AcDbBlockReference
  2
_DOT
 10
328.92380611569
 20
567.5741791948802
 30
0.0
 41
2.0
 42
2.0
 43
2.0
  0
INSERT
  5
70A3
330
709C
100
AcDbEntity
  8
DIM
 62
     0
370
    -2
100
AcDbBlockReference
  2
_DOT
 10
280.9238061156892
 20
567.5741791948802
 30
0.0
 41
2.0
 42
2.0
 43
2.0
 50
180.0
  0
MTEXT
  5
70A4
330
709C
100
AcDbEntity
  8
DIM
 62
     0
100
AcDbMText
 10
304.9238061156896
 20
583.5741791948802
 30
0.0
 40
12.0
 41
0.0
 46
0.0
 71
     5
 72
     1
  1
\A1;48
  7
ＭＳ ゴシック
 73
     1
 44
1.0
  0
POINT
  5
70A5
330
709C
100
AcDbEntity
  8
Defpoints
 62
     0
100
AcDbPoint
 10
328.92380611569
 20
523.5334565678319
 30
0.0
  0
POINT
  5
70A6
330
709C
100
AcDbEntity
  8
Defpoints
 62
     0
100
AcDbPoint
 10
280.9238061156892
 20
523.5334565678319
 30
0.0
  0
POINT
  5
70A7
330
709C
100
AcDbEntity
  8
Defpoints
 62
     0
100
AcDbPoint
 10
280.9238061156892
 20
567.5741791948802
 30
0.0
  0
ENDBLK
  5
709E
330
709C
100
AcDbEntity
  8
0
100
AcDbBlockEnd
  0
BLOCK
  5
70D4
330
70D3
100
AcDbEntity
  8
0
100
AcDbBlockBegin
  2
*D20
 70
     1
 10
0.0
 20
0.0
 30
0.0
  3
*D20
  1
*D24
  0
LINE
  5
70D6
330
70D3
100
AcDbEntity
  8
DIM
 62
     0
370
    -2
100
AcDbLine
 10
309.9238061156896
 20
547.5334565678322
 30
0.0
 11
369.6526534180869
 21
547.5334565678322
 31
0.0
  0
LINE
  5
70D7
330
70D3
100
AcDbEntity
  8
DIM
 62
     0
370
    -2
100
AcDbLine
 10
310.2201393965472
 20
452.3947542348584
 30
0.0
 11
369.6526534180869
 21
452.3947542348584
 31
0.0
  0
LINE
  5
70D8
330
70D3
100
AcDbEntity
  8
DIM
 62
     0
370
    -2
100
AcDbLine
 10
369.6526534180869
 20
545.5334565678322
 30
0.0
 11
369.6526534180869
 21
454.3947542348584
 31
0.0
  0
INSERT
  5
70D9
330
70D3
100
AcDbEntity
  8
DIM
 62
     0
370
    -2
100
AcDbBlockReference
  2
_DOT
 10
369.6526534180869
 20
547.5334565678322
 30
0.0
 41
2.0
 42
2.0
 43
2.0
 50
90.0
  0
INSERT
  5
70DA
330
70D3
100
AcDbEntity
  8
DIM
 62
     0
370
    -2
100
AcDbBlockReference
  2
_DOT
 10
369.6526534180869
 20
452.3947542348584
 30
0.0
 41
2.0
 42
2.0
 43
2.0
 50
270.0
  0
MTEXT
  5
70DB
330
70D3
100
AcDbEntity
  8
DIM
 62
     0
100
AcDbMText
 10
353.6526534180869
 20
499.9641054013453
 30
0.0
 40
12.0
 41
0.0
 46
0.0
 71
     5
 72
     1
  1
\A1;95
  7
ＭＳ ゴシック
 11
0.0
 21
1.0
 31
0.0
 73
     1
 44
1.0
  0
POINT
  5
70DC
330
70D3
100
AcDbEntity
  8
Defpoints
 62
     0
100
AcDbPoint
 10
304.9238061156896
 20
547.5334565678322
 30
0.0
  0
POINT
  5
70DD
330
70D3
100
AcDbEntity
  8
Defpoints
 62
     0
100
AcDbPoint
 10
305.2201393965472
 20
452.3947542348584
 30
0.0
  0
POINT
  5
70DE
330
70D3
100
AcDbEntity
  8
Defpoints
 62
     0
100
AcDbPoint
 10
369.6526534180869
 20
452.3947542348584
 30
0.0
  0
ENDBLK
  5
70D5
330
70D3
100
AcDbEntity
  8
0
100
AcDbBlockEnd
  0
BLOCK
  5
70E1
330
70E0
100
AcDbEntity
  8
0
100
AcDbBlockBegin
  2
*D21
 70
     1
 10
0.0
 20
0.0
 30
0.0
  3
*D21
  1
*D25
  0
LINE
  5
70E3
330
70E0
100
AcDbEntity
  8
DIM
 62
     0
370
    -2
100
AcDbLine
 10
442.7564224872594
 20
523.5334565678319
 30
0.0
 11
365.5038358061061
 21
523.5334565678319
 31
0.0
  0
LINE
  5
70E4
330
70E0
100
AcDbEntity
  8
DIM
 62
     0
370
    -2
100
AcDbLine
 10
443.7564225347569
 20
398.3387659867494
 30
0.0
 11
365.5038358061061
 21
398.3387659867494
 31
0.0
  0
LINE
  5
70E5
330
70E0
100
AcDbEntity
  8
DIM
 62
     0
370
    -2
100
AcDbLine
 10
365.5038358061061
 20
521.5334565678319
 30
0.0
 11
365.5038358061061
 21
400.3387659867494
 31
0.0
  0
INSERT
  5
70E6
330
70E0
100
AcDbEntity
  8
DIM
 62
     0
370
    -2
100
AcDbBlockReference
  2
_DOT
 10
365.5038358061061
 20
523.5334565678319
 30
0.0
 41
2.0
 42
2.0
 43
2.0
 50
90.0
  0
INSERT
  5
70E7
330
70E0
100
AcDbEntity
  8
DIM
 62
     0
370
    -2
100
AcDbBlockReference
  2
_DOT
 10
365.5038358061061
 20
398.3387659867494
 30
0.0
 41
2.0
 42
2.0
 43
2.0
 50
270.0
  0
MTEXT
  5
70E8
330
70E0
100
AcDbEntity
  8
DIM
 62
     0
100
AcDbMText
 10
349.5038358061061
 20
460.9361112772906
 30
0.0
 40
12.0
 41
0.0
 46
0.0
 71
     5
 72
     1
  1
\A1;125
  7
ＭＳ ゴシック
 11
0.0
 21
1.0
 31
0.0
 73
     1
 44
1.0
  0
POINT
  5
70E9
330
70E0
100
AcDbEntity
  8
Defpoints
 62
     0
100
AcDbPoint
 10
447.7564224872594
 20
523.5334565678319
 30
0.0
  0
POINT
  5
70EA
330
70E0
100
AcDbEntity
  8
Defpoints
 62
     0
100
AcDbPoint
 10
448.7564225347569
 20
398.3387659867494
 30
0.0
  0
POINT
  5
70EB
330
70E0
100
AcDbEntity
  8
Defpoints
 62
     0
100
AcDbPoint
 10
365.5038358061061
 20
398.3387659867494
 30
0.0
  0
ENDBLK
  5
70E2
330
70E0
100
AcDbEntity
  8
0
100
AcDbBlockEnd
  0
BLOCK
  5
70F6
330
70F5
100
AcDbEntity
  8
0
100
AcDbBlockBegin
  2
*D22
 70
     1
 10
0.0
 20
0.0
 30
0.0
  3
*D22
  1
*D26
  0
LINE
  5
70F8
330
70F5
100
AcDbEntity
  8
DIM
 62
     0
370
    -2
100
AcDbLine
 10
510.5561270629876
 20
314.5754420530043
 30
0.0
 11
560.7246892433557
 21
314.5754420530043
 31
0.0
  0
LINE
  5
70F9
330
70F5
100
AcDbEntity
  8
DIM
 62
     0
370
    -2
100
AcDbLine
 10
487.1901415554096
 20
382.498056567832
 30
0.0
 11
560.7246892433557
 21
382.498056567832
 31
0.0
  0
LINE
  5
70FA
330
70F5
100
AcDbEntity
  8
DIM
 62
     0
370
    -2
100
AcDbLine
 10
560.7246892433557
 20
316.5754420530043
 30
0.0
 11
560.7246892433557
 21
380.498056567832
 31
0.0
  0
INSERT
  5
70FB
330
70F5
100
AcDbEntity
  8
DIM
 62
     0
370
    -2
100
AcDbBlockReference
  2
_DOT
 10
560.7246892433557
 20
314.5754420530043
 30
0.0
 41
2.0
 42
2.0
 43
2.0
 50
270.0
  0
INSERT
  5
70FC
330
70F5
100
AcDbEntity
  8
DIM
 62
     0
370
    -2
100
AcDbBlockReference
  2
_DOT
 10
560.7246892433557
 20
382.498056567832
 30
0.0
 41
2.0
 42
2.0
 43
2.0
 50
90.0
  0
MTEXT
  5
70FD
330
70F5
100
AcDbEntity
  8
DIM
 62
     0
100
AcDbMText
 10
547.2246892433557
 20
348.5367493104181
 30
0.0
 40
7.0
 41
0.0
 46
0.0
 71
     5
 72
     1
  1
\A1;68
  7
ＭＳ ゴシック
 11
0.0
 21
1.0
 31
0.0
 73
     1
 44
1.0
  0
POINT
  5
70FE
330
70F5
100
AcDbEntity
  8
Defpoints
 62
     0
100
AcDbPoint
 10
505.5561270629876
 20
314.5754420530043
 30
0.0
  0
POINT
  5
70FF
330
70F5
100
AcDbEntity
  8
Defpoints
 62
     0
100
AcDbPoint
 10
482.1901415554096
 20
382.498056567832
 30
0.0
  0
POINT
  5
7100
330
70F5
100
AcDbEntity
  8
Defpoints
 62
     0
100
AcDbPoint
 10
560.7246892433557
 20
382.498056567832
 30
0.0
  0
ENDBLK
  5
70F7
330
70F5
100
AcDbEntity
  8
0
100
AcDbBlockEnd
  0
ENDSEC
  0
SECTION
  2
ENTITIES
  0
MTEXT
  5
177
330
A
100
AcDbEntity
  8
MODEL
390
1D
100
AcDbMText
 10
23.76064336431923
 20
103.1195254894285
 30
0.0
 40
4.886523437499999
 41
0.0
 46
0.0
 71
     1
 72
     1
  1
品名
  7
ＭＳ ゴシック
 73
     1
 44
0.7828267384257843
  0
MTEXT
  5
178
330
A
100
AcDbEntity
  8
MODEL
390
1D
100
AcDbMText
 10
23.76064336431923
 20
77.6195254894284
 30
0.0
 40
4.886523437499999
 41
0.0
 46
0.0
 71
     1
 72
     1
  1
仕様
  7
ＭＳ ゴシック
 73
     1
 44
0.7828267384257843
  0
LINE
  5
179
330
A
100
AcDbEntity
  8
MODEL
390
1D
100
AcDbLine
 10
606.6606433641747
 20
80.14400205192854
 30
0.0
 11
21.66064336417462
 21
80.14400205192854
 31
0.0
  0
LWPOLYLINE
  5
17A
330
A
100
AcDbEntity
  8
MODEL
390
1D
100
AcDbPolyline
 90
        5
 70
   128
 43
0.0
 10
606.6606433641747
 20
869.1440020519283
 10
21.66064336417462
 20
869.1440020519283
 10
21.66064336417462
 20
29.14400205192847
 10
606.6606433641747
 20
29.14400205192847
 10
606.6606433641747
 20
869.1440020519283
  0
LINE
  5
17B
330
A
100
AcDbEntity
  8
MODEL
390
1D
100
AcDbLine
 10
606.6606433641747
 20
105.6440020519285
 30
0.0
 11
21.66064336417462
 21
105.6440020519285
 31
0.0
  0
LINE
  5
17C
330
A
100
AcDbEntity
  8
MODEL
390
1D
100
AcDbLine
 10
606.6606433643193
 20
54.64400205192846
 30
0.0
 11
380.760643364319
 21
54.64400205192846
 31
0.0
  0
MTEXT
  5
17D
330
A
100
AcDbEntity
  8
MODEL
390
1D
100
AcDbMText
 10
21.66064336438035
 20
25.58785543487134
 30
0.0
 40
6.515364583333332
 41
0.0
 46
8.687152777777776
 71
     1
 72
     1
  1
{160419N}
  7
ＭＳ ゴシック
 73
     1
 44
0.7828267384257843
1001
ACAD
1000
ACAD_MTEXT_DEFINED_HEIGHT_BEGIN
1070
    46
1040
8.687152777777776
1000
ACAD_MTEXT_DEFINED_HEIGHT_END
  0
MTEXT
  5
17E
330
A
100
AcDbEntity
  8
MODEL
390
1D
100
AcDbMText
 10
389.7220652399973
 20
45.67088370993604
 30
0.0
 40
7.329785156250001
 41
0.0
 46
0.0
 71
     1
 72
     1
  1
大洋金物株式会社 ティーフォルム事業部
  7
ＭＳ ゴシック
 73
     1
 44
0.7828267384257843
  0
MTEXT
  5
180
330
A
100
AcDbEntity
  8
MODEL
390
1D
100
AcDbMText
 10
549.360643364397
 20
69.04478720817843
 30
0.0
 40
7.329785156250001
 41
0.0
 46
7.329785156250001
 71
     1
 72
     1
  1
{1:3}
  7
ＭＳ ゴシック
 73
     1
 44
0.7828267384257843
1001
ACAD
1000
ACAD_MTEXT_DEFINED_HEIGHT_BEGIN
1070
    46
1040
7.329785156250001
1000
ACAD_MTEXT_DEFINED_HEIGHT_END
  0
MTEXT
  5
181
330
A
100
AcDbEntity
  8
MODEL
390
1D
100
AcDbMText
 10
533.4606433643969
 20
77.6195254894284
 30
0.0
 40
4.886523437499999
 41
0.0
 46
0.0
 71
     1
 72
     1
  1
縮尺
  7
ＭＳ ゴシック
 73
     1
 44
0.7828267384257843
  0
LINE
  5
182
330
A
100
AcDbEntity
  8
MODEL
390
1D
100
AcDbLine
 10
531.360643364397
 20
54.64400205192846
 30
0.0
 11
531.360643364397
 21
80.14400205192854
 31
0.0
  0
MTEXT
  5
183
330
A
100
AcDbEntity
  8
MODEL
390
1D
100
AcDbMText
 10
458.1606433643969
 20
77.6195254894284
 30
0.0
 40
4.886523437499999
 41
0.0
 46
0.0
 71
     1
 72
     1
  1
容量
  7
ＭＳ ゴシック
 73
     1
 44
0.7828267384257843
  0
LINE
  5
184
330
A
100
AcDbEntity
  8
MODEL
390
1D
100
AcDbLine
 10
456.060643364397
 20
54.64400205192846
 30
0.0
 11
456.060643364397
 21
80.14400205192854
 31
0.0
  0
MTEXT
  5
185
330
A
100
AcDbEntity
  8
MODEL
390
1D
100
AcDbMText
 10
382.860643364397
 20
103.1195254894285
 30
0.0
 40
4.886523437499999
 41
0.0
 46
0.0
 71
     1
 72
     1
  1
品番
  7
ＭＳ ゴシック
 73
     1
 44
0.7828267384257843
  0
MTEXT
  5
186
330
A
100
AcDbEntity
  8
MODEL
390
1D
100
AcDbMText
 10
382.860643364397
 20
77.6195254894284
 30
0.0
 40
4.886523437499999
 41
0.0
 46
0.0
 71
     1
 72
     1
  1
重量
  7
ＭＳ ゴシック
 73
     1
 44
0.7828267384257843
  0
MTEXT
  5
187
330
A
100
AcDbEntity
  8
MODEL
390
1D
100
AcDbMText
 10
398.760643364397
 20
94.54478720817848
 30
0.0
 40
7.329785156250001
 41
0.0
 46
9.773046875
 71
     1
 72
     1
  1
{BRS73-0602-020}
  7
ＭＳ ゴシック
 73
     1
 44
0.7828267384257843
1001
ACAD
1000
ACAD_MTEXT_DEFINED_HEIGHT_BEGIN
1070
    46
1040
9.773046875
1000
ACAD_MTEXT_DEFINED_HEIGHT_END
  0
LINE
  5
188
330
A
100
AcDbEntity
  8
MODEL
390
1D
100
AcDbLine
 10
380.760643364397
 20
29.14400205192847
 30
0.0
 11
380.760643364397
 21
105.6440020519285
 31
0.0
  0
MTEXT
  5
189
330
A
100
AcDbEntity
  8
MODEL
390
1D
100
AcDbMText
 10
39.66064336431921
 20
94.54478720817848
 30
0.0
 40
7.329785156250001
 41
0.0
 46
11.014223828125
 71
     1
 72
     1
  1
{単水栓　- CLOU,Kaldur -}
  7
ＭＳ ゴシック
 73
     1
 44
0.7828267384257843
1001
ACAD
1000
ACAD_MTEXT_DEFINED_HEIGHT_BEGIN
1070
    46
1040
11.014223828125
1000
ACAD_MTEXT_DEFINED_HEIGHT_END
  0
INSERT
  5
6B5
330
A
100
AcDbEntity
  8
MODEL
100
AcDbBlockReference
  2
名称未設定-1
 10
561.225224426535
 20
7.78402972699614
 30
0.0
 41
0.2286
 42
0.2286
 43
0.2286
  0
INSERT
  5
68C
330
A
100
AcDbEntity
  8
TEMPLATE
100
AcDbBlockReference
  2
block 2
 10
3677.09720708103
 20
33.49230605734548
 30
0.0
 41
1.524
 42
1.524
 43
1.524
  0
LWPOLYLINE
  5
19EF
330
A
100
AcDbEntity
  8
PRINT
  6
BORDER
 48
0.05
100
AcDbPolyline
 90
        4
 70
     1
 43
0.0
 10
0.0
 20
0.0
 10
0.0
 20
891.0
 10
630.0000000000001
 20
891.0
 10
630.0000000000001
 20
0.0
  0
MTEXT
  5
1A9D
330
A
100
AcDbEntity
  8
MODEL
390
1D
100
AcDbMText
 10
39.37431581412056
 20
69.77579348349306
 30
0.0
 40
7.329785156250001
 41
0.0
 46
9.919642578125
 71
     1
 72
     1
  1
{クローム}
  7
ＭＳ ゴシック
 73
     1
 44
0.7828267384257843
1001
ACAD
1000
ACAD_MTEXT_DEFINED_HEIGHT_BEGIN
1070
    46
1040
9.919642578125
1000
ACAD_MTEXT_DEFINED_HEIGHT_END
  0
LINE
  5
6B19
330
A
100
AcDbEntity
  8
MODEL
  6
Continuous
100
AcDbLine
 10
153.3892414921721
 20
348.7009601067743
 30
0.0
 11
153.3892414921721
 21
359.4687608402214
 31
0.0
  0
LINE
  5
6B1A
330
A
100
AcDbEntity
  8
MODEL
  6
Continuous
100
AcDbLine
 10
133.3892419392069
 20
359.4687608402214
 30
0.0
 11
133.3892419392069
 21
348.7009601067743
 31
0.0
  0
LINE
  5
6B1B
330
A
100
AcDbEntity
  8
MODEL
  6
Continuous
100
AcDbLine
 10
133.3892419392069
 20
382.498056567832
 30
0.0
 11
133.3892419392069
 21
359.4687608402214
 31
0.0
  0
LINE
  5
6B1C
330
A
100
AcDbEntity
  8
MODEL
  6
Continuous
100
AcDbLine
 10
153.3892414921721
 20
359.4687608402214
 30
0.0
 11
153.3892414921721
 21
382.498056567832
 31
0.0
  0
LINE
  5
6B1D
330
A
100
AcDbEntity
  8
MODEL
  6
Continuous
100
AcDbLine
 10
136.889241581579
 20
315.6666540872297
 30
0.0
 11
136.889241581579
 21
315.2479016553602
 31
0.0
  0
LINE
  5
6B1E
330
A
100
AcDbEntity
  8
MODEL
  6
Continuous
100
AcDbLine
 10
149.8892418497999
 20
315.2479016553602
 30
0.0
 11
149.8892418497999
 21
315.6666540872297
 31
0.0
  0
LINE
  5
6B1F
330
A
100
AcDbEntity
  8
MODEL
  6
Continuous
100
AcDbLine
 10
133.3892419392069
 20
324.6633232902727
 30
0.0
 11
133.3892419392069
 21
314.778053141757
 31
0.0
  0
LINE
  5
6B20
330
A
100
AcDbEntity
  8
MODEL
  6
Continuous
100
AcDbLine
 10
133.3892419392069
 20
348.4190524887285
 30
0.0
 11
133.3892419392069
 21
338.0287074815474
 31
0.0
  0
LINE
  5
6B21
330
A
100
AcDbEntity
  8
MODEL
  6
Continuous
100
AcDbLine
 10
153.3892414921721
 20
314.778053141757
 30
0.0
 11
153.3892414921721
 21
348.4190524887285
 31
0.0
  0
LINE
  5
6B22
330
A
100
AcDbEntity
  8
MODEL
  6
Continuous
100
AcDbLine
 10
124.3892423266371
 20
324.2287085723124
 30
0.0
 11
133.3892419392069
 21
324.2287085723124
 31
0.0
  0
LINE
  5
6B23
330
A
100
AcDbEntity
  8
MODEL
  6
Continuous
100
AcDbLine
 10
133.678485585173
 20
338.0287074815474
 30
0.0
 11
124.3892423266371
 21
338.0287074815474
 31
0.0
  0
LWPOLYLINE
  5
6B24
330
A
100
AcDbEntity
  8
MODEL
  6
Continuous
100
AcDbPolyline
 90
       29
 70
   128
 43
0.0
 10
153.3807459676464
 20
348.5600062977514
 10
153.3892414921721
 20
348.7009601067743
 10
153.3190523663362
 20
349.1054782044134
 10
153.109471259435
 20
349.5043189596377
 10
152.7634383568366
 20
349.8918795358381
 10
152.2858123684128
 20
350.2627247344694
 10
151.6832988167008
 20
350.611642874404
 10
150.964354110678
 20
350.9337426494799
 10
150.1390719244083
 20
351.2244978319845
 10
149.2190365137358
 20
351.4798292290411
 10
148.2171639257868
 20
351.6961493860922
 10
147.1475175970991
 20
351.8704259168348
 10
146.025113474374
 20
352.0002075802527
 10
144.8657073236828
 20
352.08367643468
 10
143.6855749965471
 20
352.1196590136728
 10
142.501282742509
 20
352.1076505403958
 10
141.3294556008478
 20
352.0478205155573
 10
140.1865432893683
 20
351.9410071294747
 10
139.0885896438559
 20
351.7887098114929
 10
138.0510078200896
 20
351.5930687408886
 10
137.088363470306
 20
351.3568275939665
 10
136.21416915374
 20
351.0833056043825
 10
135.4406969079574
 20
350.776337958499
 10
134.7788059541782
 20
350.4402385424814
 10
134.2377857694228
 20
350.0797235738478
 10
133.82523222061
 20
349.6998519968233
 10
133.5469362715085
 20
349.3059621524058
 10
133.406804820319
 20
348.9035749208174
 10
133.3977374637325
 20
348.5600062977514
  0
ARC
  5
6B25
330
A
100
AcDbEntity
  8
MODEL
  6
Continuous
100
AcDbCircle
 10
143.3892417156895
 20
382.498056567832
 30
0.0
 40
10.0
100
AcDbArc
 50
0.0
 51
180.0
  0
LINE
  5
6B26
330
A
100
AcDbEntity
  8
MODEL
  6
Continuous
100
AcDbLine
 10
138.0904032306572
 20
313.6678421270094
 30
0.0
 11
138.0904032306572
 21
312.7281525503836
 31
0.0
  0
ARC
  5
6B27
330
A
100
AcDbEntity
  8
MODEL
  6
Continuous
100
AcDbCircle
 10
142.540090748772
 20
328.0059587053288
 30
0.0
 40
15.91260757754557
100
AcDbArc
 50
253.7617078082661
 51
263.915711278632
  0
ARC
  5
6B28
330
A
100
AcDbEntity
  8
MODEL
  6
Continuous
100
AcDbCircle
 10
143.3826928070512
 20
335.7721868613094
 30
0.0
 40
22.79087592786319
100
AcDbArc
 50
264.4297223347153
 51
271.251469271537
  0
ARC
  5
6B29
330
A
100
AcDbEntity
  8
MODEL
  6
Continuous
100
AcDbCircle
 10
143.4965056325046
 20
333.1571496615556
 30
0.0
 40
21.11358331881537
100
AcDbArc
 50
271.0419847179438
 51
279.4452702555114
  0
LINE
  5
6B2A
330
A
100
AcDbEntity
  8
MODEL
  6
Continuous
100
AcDbLine
 10
146.9613590201189
 20
313.2694968353949
 30
0.0
 11
146.9613590201189
 21
312.3298072587691
 31
0.0
  0
ARC
  5
6B2B
330
A
100
AcDbEntity
  8
MODEL
  6
Continuous
100
AcDbCircle
 10
144.6193079383748
 20
327.3724757993436
 30
0.0
 40
14.29612601116411
100
AcDbArc
 50
279.4289353514475
 51
286.3075957675874
  0
ARC
  5
6B2C
330
A
100
AcDbEntity
  8
MODEL
  6
Continuous
100
AcDbCircle
 10
147.9137967858251
 20
317.2601914448001
 30
0.0
 40
4.538737975288139
100
AcDbArc
 50
288.8838673648577
 51
312.441911333434
  0
LINE
  5
6B2D
330
A
100
AcDbEntity
  8
MODEL
  6
Continuous
100
AcDbLine
 10
150.9767295250495
 20
314.8504727851591
 30
0.0
 11
150.9767295250495
 21
313.9107757579527
 31
0.0
  0
LINE
  5
6B2E
330
A
100
AcDbEntity
  8
MODEL
  6
Continuous
100
AcDbLine
 10
150.9767295250495
 20
314.8504727851591
 30
0.0
 11
151.058749707212
 21
314.9394252669058
 31
0.0
  0
LINE
  5
6B2F
330
A
100
AcDbEntity
  8
MODEL
  6
Continuous
100
AcDbLine
 10
151.3741462880571
 20
315.5528092157087
 30
0.0
 11
151.3741462880571
 21
314.9460637342177
 31
0.0
  0
ARC
  5
6B30
330
A
100
AcDbEntity
  8
MODEL
  6
Continuous
100
AcDbCircle
 10
149.6754148403143
 20
314.4644896722252
 30
0.0
 40
1.765673273495638
100
AcDbArc
 50
15.82752424384427
 51
60.40382809684414
  0
LINE
  5
6B31
330
A
100
AcDbEntity
  8
MODEL
  6
Continuous
100
AcDbLine
 10
150.5474522167643
 20
316.214949763938
 30
0.0
 11
150.5474522167643
 21
315.99979189746
 31
0.0
  0
LINE
  5
6B32
330
A
100
AcDbEntity
  8
MODEL
  6
Continuous
100
AcDbLine
 10
148.6880802007218
 20
316.9630327593527
 30
0.0
 11
148.6880802007218
 21
316.8279611837111
 31
0.0
  0
ARC
  5
6B33
330
A
100
AcDbEntity
  8
MODEL
  6
Continuous
100
AcDbCircle
 10
144.2383926825942
 20
301.5501550286804
 30
0.0
 40
15.91260757763248
100
AcDbArc
 50
73.76170780830951
 51
83.91571127861924
  0
LINE
  5
6B34
330
A
100
AcDbEntity
  8
MODEL
  6
Continuous
100
AcDbLine
 10
145.9249923394819
 20
317.4810939799986
 30
0.0
 11
145.9249923394819
 21
317.3731276165686
 31
0.0
  0
LINE
  5
6B35
330
A
100
AcDbEntity
  8
MODEL
  6
Continuous
100
AcDbLine
 10
142.8980259846722
 20
317.611844218894
 30
0.0
 11
142.8980259846722
 21
317.5090560089789
 31
0.0
  0
ARC
  5
6B36
330
A
100
AcDbEntity
  8
MODEL
  6
Continuous
100
AcDbCircle
 10
143.281977798898
 20
296.3989640722825
 30
0.0
 40
21.11358331907322
100
AcDbArc
 50
91.04198471799528
 51
99.44527025545942
  0
LINE
  5
6B37
330
A
100
AcDbEntity
  8
MODEL
  6
Continuous
100
AcDbLine
 10
139.8171244112601
 20
317.3404717218123
 30
0.0
 11
139.8171244112601
 21
317.2263064753256
 31
0.0
  0
LINE
  5
6B38
330
A
100
AcDbEntity
  8
MODEL
  6
Continuous
100
AcDbLine
 10
137.3957194777032
 20
316.7418473731718
 30
0.0
 11
137.3957194777032
 21
316.5903696190558
 31
0.0
  0
ARC
  5
6B39
330
A
100
AcDbEntity
  8
MODEL
  6
Continuous
100
AcDbCircle
 10
138.8647380939938
 20
312.2958355122641
 30
0.0
 40
4.538836733063328
100
AcDbArc
 50
108.884127330079
 51
132.4416513682683
  0
LINE
  5
6B3A
330
A
100
AcDbEntity
  8
MODEL
  6
Continuous
100
AcDbLine
 10
135.8017539063295
 20
315.9287953149519
 30
0.0
 11
135.8017539063295
 21
315.6453379761419
 31
0.0
  0
LINE
  5
6B3B
330
A
100
AcDbEntity
  8
MODEL
  6
Continuous
100
AcDbLine
 10
135.4043371433218
 20
315.5497470270834
 30
0.0
 11
135.4043371433218
 21
314.610049999877
 31
0.0
  0
ARC
  5
6B3C
330
A
100
AcDbEntity
  8
MODEL
  6
Continuous
100
AcDbCircle
 10
137.1030685910637
 20
315.0916240618694
 30
0.0
 40
1.765673273494739
100
AcDbArc
 50
195.8275242438447
 51
240.4038280968681
  0
ARC
  5
6B3D
330
A
100
AcDbEntity
  8
MODEL
  6
Continuous
100
AcDbCircle
 10
140.6811154405851
 20
322.3666227975041
 30
0.0
 40
9.07637454648346
100
AcDbArc
 50
246.9390505769159
 51
253.4151657960047
  0
LINE
  5
6B3E
330
A
100
AcDbEntity
  8
MODEL
  6
Continuous
100
AcDbLine
 10
136.889241581579
 20
315.2989977370939
 30
0.0
 11
136.6426743956109
 21
315.5492105852804
 31
0.0
  0
LWPOLYLINE
  5
6B3F
330
A
100
AcDbEntity
  8
MODEL
  6
Continuous
100
AcDbPolyline
 90
        3
 70
   128
 43
0.0
 10
150.0790770554741
 20
315.4828259121618
 10
150.0282934324642
 20
315.4287272464476
 10
149.8892418497999
 20
315.2989977370939
  0
LINE
  5
6B40
330
A
100
AcDbEntity
  8
MODEL
  6
Continuous
100
AcDbLine
 10
136.4024499820371
 20
315.5707427632055
 30
0.0
 11
136.4024499820371
 21
314.6310531865797
 31
0.0
  0
ARC
  5
6B41
330
A
100
AcDbEntity
  8
MODEL
  6
Continuous
100
AcDbCircle
 10
139.4301821742484
 20
312.6063107085588
 30
0.0
 40
3.97125366992369
100
AcDbArc
 50
108.8834413887838
 51
132.442339407527
  0
LINE
  5
6B42
330
A
100
AcDbEntity
  8
MODEL
  6
Continuous
100
AcDbLine
 10
138.1449098156591
 20
316.9783660542212
 30
0.0
 11
138.1449098156591
 21
316.3638272654257
 31
0.0
  0
ARC
  5
6B43
330
A
100
AcDbEntity
  8
MODEL
  6
Continuous
100
AcDbCircle
 10
143.2952484456919
 20
298.6977042606882
 30
0.0
 40
18.47302628289055
100
AcDbArc
 50
91.04163538213541
 51
99.44554034418559
  0
LINE
  5
6B44
330
A
100
AcDbEntity
  8
MODEL
  6
Continuous
100
AcDbLine
 10
142.9594279364974
 20
317.6130139600477
 30
0.0
 11
142.9594279364974
 21
317.1676778566084
 31
0.0
  0
LINE
  5
6B45
330
A
100
AcDbEntity
  8
MODEL
  6
Continuous
100
AcDbLine
 10
145.6080236861308
 20
317.5135114561758
 30
0.0
 11
145.6080236861308
 21
317.0487442385397
 31
0.0
  0
ARC
  5
6B46
330
A
100
AcDbEntity
  8
MODEL
  6
Continuous
100
AcDbCircle
 10
144.1321851966478
 20
303.203399166428
 30
0.0
 40
13.92378107458329
100
AcDbArc
 50
73.761733864596
 51
83.91555671106325
  0
LINE
  5
6B47
330
A
100
AcDbEntity
  8
MODEL
  6
Continuous
100
AcDbLine
 10
149.6526756712993
 20
316.6407131921492
 30
0.0
 11
149.6526756712993
 21
315.8470773469649
 31
0.0
  0
ARC
  5
6B48
330
A
100
AcDbEntity
  8
MODEL
  6
Continuous
100
AcDbCircle
 10
148.8896256644348
 20
314.5036757028715
 30
0.0
 40
1.544983265388492
100
AcDbArc
 50
15.82761355937122
 51
60.40349354983849
  0
ARC
  5
6B49
330
A
100
AcDbEntity
  8
MODEL
  6
Continuous
100
AcDbCircle
 10
148.974862742859
 20
316.010288019324
 30
0.0
 40
1.488347306745333
100
AcDbArc
 50
315.0550245308388
 51
329.1870583599184
  0
LINE
  5
6B4A
330
A
100
AcDbEntity
  8
MODEL
  6
Continuous
100
AcDbLine
 10
150.0282934324642
 20
314.9588787328444
 30
0.0
 11
150.0282934324642
 21
314.0191891562185
 31
0.0
  0
ARC
  5
6B4B
330
A
100
AcDbEntity
  8
MODEL
  6
Continuous
100
AcDbCircle
 10
147.3483012571388
 20
316.9498030255213
 30
0.0
 40
3.97125366990714
100
AcDbArc
 50
288.8834413887408
 51
312.442339407577
  0
LINE
  5
6B4C
330
A
100
AcDbEntity
  8
MODEL
  6
Continuous
100
AcDbLine
 10
148.6335736157199
 20
313.9344835054121
 30
0.0
 11
148.6335736157199
 21
313.192286468669
 31
0.0
  0
LINE
  5
6B4D
330
A
100
AcDbEntity
  8
MODEL
  6
Continuous
100
AcDbLine
 10
146.514844560792
 20
313.2986733090124
 30
0.0
 11
146.514844560792
 21
312.6358324062071
 31
0.0
  0
ARC
  5
6B4E
330
A
100
AcDbEntity
  8
MODEL
  6
Continuous
100
AcDbCircle
 10
143.4831302246631
 20
330.8600998058369
 30
0.0
 40
18.4747182405875
100
AcDbArc
 50
271.0418649260749
 51
279.4449967389511
  0
LINE
  5
6B4F
330
A
100
AcDbEntity
  8
MODEL
  6
Continuous
100
AcDbLine
 10
143.8190554948815
 20
313.0296402942381
 30
0.0
 11
143.8190554948815
 21
312.3884358774862
 31
0.0
  0
LINE
  5
6B50
330
A
100
AcDbEntity
  8
MODEL
  6
Continuous
100
AcDbLine
 10
141.1704597452481
 20
313.1583043705664
 30
0.0
 11
141.1704597452481
 21
312.5073694955549
 31
0.0
  0
ARC
  5
6B51
330
A
100
AcDbEntity
  8
MODEL
  6
Continuous
100
AcDbCircle
 10
142.6462982347203
 20
326.3527145676103
 30
0.0
 40
13.92378107452332
100
AcDbArc
 50
253.7617338645728
 51
263.915556711083
  0
LINE
  5
6B52
330
A
100
AcDbEntity
  8
MODEL
  6
Continuous
100
AcDbLine
 10
138.7527579830785
 20
313.6898138891897
 30
0.0
 11
138.7527579830785
 21
312.984392918273
 31
0.0
  0
LINE
  5
6B53
330
A
100
AcDbEntity
  8
MODEL
  6
Continuous
100
AcDbLine
 10
137.1258077600797
 20
314.6487334143362
 30
0.0
 11
137.1258077600797
 21
313.7090363871298
 31
0.0
  0
ARC
  5
6B54
330
A
100
AcDbEntity
  8
MODEL
  6
Continuous
100
AcDbCircle
 10
137.888857766945
 20
315.0524380312231
 30
0.0
 40
1.544983265387717
100
AcDbArc
 50
195.8276135593749
 51
240.4034935498124
  0
LINE
  5
6B55
330
A
100
AcDbEntity
  8
MODEL
  6
Continuous
100
AcDbLine
 10
140.2636388705869
 20
316.920273877307
 30
0.0
 11
139.8171244112601
 21
317.2263064753256
 31
0.0
  0
LINE
  5
6B56
330
A
100
AcDbEntity
  8
MODEL
  6
Continuous
100
AcDbLine
 10
142.8980259846722
 20
317.5090560089789
 30
0.0
 11
142.9594279364974
 21
317.1676778566084
 31
0.0
  0
LWPOLYLINE
  5
6B57
330
A
100
AcDbEntity
  8
MODEL
  6
Continuous
100
AcDbPolyline
 90
       12
 70
   128
 43
0.0
 10
141.3289443047543
 20
313.139402247592
 10
140.453293166851
 20
313.2644751440725
 10
139.6402166614135
 20
313.4318151842795
 10
138.9070441404183
 20
313.637868441268
 10
138.2694015668531
 20
313.8782316219053
 10
137.7408801967104
 20
314.1477861773214
 10
137.3327434452077
 20
314.4407877098761
 10
137.053690330853
 20
314.7510000836096
 10
136.9096682796081
 20
315.0717922817907
 10
136.90374739634
 20
315.3963470231733
 10
137.0360538752576
 20
315.7177278172217
 10
137.1348555588921
 20
315.8532538782797
  0
ARC
  5
6B58
330
A
100
AcDbEntity
  8
MODEL
  6
Continuous
100
AcDbCircle
 10
141.5681636449272
 20
308.9074962292502
 30
0.0
 40
8.384490569676695
100
AcDbArc
 50
101.1206653355491
 51
114.097087463274
  0
ARC
  5
6B59
330
A
100
AcDbEntity
  8
MODEL
  6
Continuous
100
AcDbCircle
 10
143.3953417281901
 20
299.1141362687117
 30
0.0
 40
18.35721057381107
100
AcDbArc
 50
83.07703394789516
 51
91.36068430677548
  0
LWPOLYLINE
  5
6B5A
330
A
100
AcDbEntity
  8
MODEL
  6
Continuous
100
AcDbPolyline
 90
       19
 70
   128
 43
0.0
 10
148.3338465371926
 20
316.6909226547918
 10
148.7877442890604
 20
316.4860987436018
 10
149.257325978746
 20
316.2040644656859
 10
149.6018403598865
 20
315.9016528498373
 10
149.8139434883197
 20
315.5853086482725
 10
149.8891151899298
 20
315.2617746364317
 10
149.8257535898884
 20
314.937942601367
 10
149.6252086402674
 20
314.6207192312918
 10
149.2917551116844
 20
314.3168547522268
 10
148.8324999267061
 20
314.0328460704527
 10
148.2572308199306
 20
313.7747281562529
 10
147.5782091187139
 20
313.5480069886885
 10
146.8099068773736
 20
313.3575179945669
 10
145.968699075078
 20
313.2073142897329
 10
145.0725144862955
 20
313.1006070744238
 10
144.1404539549549
 20
313.0396687757216
 10
143.1923826643325
 20
313.0257883440695
 10
142.2485070692201
 20
313.0592787038527
 10
141.3289443047543
 20
313.139402247592
  0
LWPOLYLINE
  5
6B5B
330
A
100
AcDbEntity
  8
MODEL
  6
Continuous
100
AcDbPolyline
 90
       16
 70
   128
 43
0.0
 10
141.4874286314299
 20
313.301601387187
 10
140.641048729216
 20
313.4237015020094
 10
139.8590839857061
 20
313.5885604988775
 10
139.1598632948299
 20
313.7923115264616
 10
138.5597753727635
 20
314.0301862131796
 10
138.0728864500125
 20
314.2965966235838
 10
137.7106080220838
 20
314.5853066217146
 10
137.481432353874
 20
314.88955108039
 10
137.3907303826709
 20
315.2021923433981
 10
137.4406287835737
 20
315.5159064900122
 10
137.6299573497673
 20
315.8233323466025
 10
137.9542787948449
 20
316.1172801028929
 10
138.4059907326301
 20
316.3908430706701
 10
138.9745063537558
 20
316.6376212012015
 10
139.6464995963325
 20
316.851825393363
 10
140.1753397116263
 20
316.9807949434958
  0
ARC
  5
6B5C
330
A
100
AcDbEntity
  8
MODEL
  6
Continuous
100
AcDbCircle
 10
143.397151798431
 20
300.4656322470487
 30
0.0
 40
16.83473126416059
100
AcDbArc
 50
82.45365987920032
 51
91.30244308016296
  0
LWPOLYLINE
  5
6B5D
330
A
100
AcDbEntity
  8
MODEL
  6
Continuous
100
AcDbPolyline
 90
       19
 70
   128
 43
0.0
 10
147.8209513628681
 20
316.6312882076941
 10
147.9319934191008
 20
316.5884920727453
 10
148.4770811552008
 20
316.3356044661246
 10
148.9029144326051
 20
316.0572284232817
 10
149.1995118016203
 20
315.7598757516585
 10
149.3599214048882
 20
315.4505276452742
 10
149.3803830275138
 20
315.1364335190497
 10
149.2604175040324
 20
314.8249470960341
 10
149.0028369629582
 20
314.5233699452124
 10
148.6136782372196
 20
314.2387801181517
 10
148.1020631657739
 20
313.9778458844862
 10
147.4799834580918
 20
313.7466767203055
 10
146.7620203660627
 20
313.550696648284
 10
145.965002190118
 20
313.3945026766501
 10
145.1076104461973
 20
313.2817455898962
 10
144.2099414456462
 20
313.2150703441343
 10
143.2930359991443
 20
313.1960490118704
 10
142.3783854737704
 20
313.225113726779
 10
141.4874286314299
 20
313.301601387187
  0
LINE
  5
6B5E
330
A
100
AcDbEntity
  8
MODEL
  6
Continuous
100
AcDbLine
 10
145.6080236861308
 20
317.0487442385397
 30
0.0
 11
145.9249923394819
 21
317.3731276165686
 31
0.0
  0
LINE
  5
6B5F
330
A
100
AcDbEntity
  8
MODEL
  6
Continuous
100
AcDbLine
 10
148.6880802007218
 20
316.8279611837111
 30
0.0
 11
148.0257254483004
 21
316.5717208158217
 31
0.0
  0
LINE
  5
6B60
330
A
100
AcDbEntity
  8
MODEL
  6
Continuous
100
AcDbLine
 10
137.6894856260915
 20
315.5127921473227
 30
0.0
 11
137.6894856260915
 21
315.0767245661459
 31
0.0
  0
ARC
  5
6B61
330
A
100
AcDbEntity
  8
MODEL
  6
Continuous
100
AcDbCircle
 10
139.0565102282754
 20
316.4011239914557
 30
0.0
 40
1.903362840011515
100
AcDbArc
 50
224.0926592944559
 51
231.6645353419627
  0
LINE
  5
6B62
330
A
100
AcDbEntity
  8
MODEL
  6
Continuous
100
AcDbLine
 10
137.8759215043684
 20
315.0189751159392
 30
0.0
 11
137.8759215043684
 21
314.9081402789793
 31
0.0
  0
LINE
  5
6B63
330
A
100
AcDbEntity
  8
MODEL
  6
Continuous
100
AcDbLine
 10
138.1082091869612
 20
315.0893160473547
 30
0.0
 11
138.1082091869612
 21
314.7436985146246
 31
0.0
  0
ARC
  5
6B64
330
A
100
AcDbEntity
  8
MODEL
  6
Continuous
100
AcDbCircle
 10
139.9687300980923
 20
317.6853124468812
 30
0.0
 40
3.480607789913632
100
AcDbArc
 50
237.6873411542254
 51
241.316292743942
  0
ARC
  5
6B65
330
A
100
AcDbEntity
  8
MODEL
  6
Continuous
100
AcDbCircle
 10
141.1700281244412
 20
320.2211959272258
 30
0.0
 40
6.288942918197336
100
AcDbArc
 50
246.4276201275212
 51
251.328555997707
  0
ARC
  5
6B66
330
A
100
AcDbEntity
  8
MODEL
  6
Continuous
100
AcDbCircle
 10
142.2232270942014
 20
323.5592019256324
 30
0.0
 40
9.790531948614024
100
AcDbArc
 50
254.584702177893
 51
256.4081418329167
  0
LINE
  5
6B67
330
A
100
AcDbEntity
  8
MODEL
  6
Continuous
100
AcDbLine
 10
139.9224129894574
 20
314.2682546149931
 30
0.0
 11
139.9224129894574
 21
314.042859650775
 31
0.0
  0
LINE
  5
6B68
330
A
100
AcDbEntity
  8
MODEL
  6
Continuous
100
AcDbLine
 10
140.371523510461
 20
314.3948399793348
 30
0.0
 11
140.371523510461
 21
313.9440724026404
 31
0.0
  0
ARC
  5
6B69
330
A
100
AcDbEntity
  8
MODEL
  6
Continuous
100
AcDbCircle
 10
142.8586011377948
 20
326.4645675186907
 30
0.0
 40
12.76512252488937
100
AcDbArc
 50
258.764983817558
 51
260.8931648854446
  0
ARC
  5
6B6A
330
A
100
AcDbEntity
  8
MODEL
  6
Continuous
100
AcDbCircle
 10
143.3659317839075
 20
330.5750947803822
 30
0.0
 40
16.90899683548812
100
AcDbArc
 50
265.9187609908283
 51
267.6838326532961
  0
LINE
  5
6B6B
330
A
100
AcDbEntity
  8
MODEL
  6
Continuous
100
AcDbLine
 10
142.6825760321518
 20
314.0762457024298
 30
0.0
 11
142.6825760321518
 21
313.6799120675764
 31
0.0
  0
LINE
  5
6B6C
330
A
100
AcDbEntity
  8
MODEL
  6
Continuous
100
AcDbLine
 10
143.2151032244147
 20
314.069808400794
 30
0.0
 11
143.2151032244147
 21
313.6664935719214
 31
0.0
  0
ARC
  5
6B6D
330
A
100
AcDbEntity
  8
MODEL
  6
Continuous
100
AcDbCircle
 10
143.3893264045246
 20
331.2318770841425
 30
0.0
 40
17.56624751185905
100
AcDbArc
 50
269.4317274324026
 51
270.6653422686322
  0
ARC
  5
6B6E
330
A
100
AcDbEntity
  8
MODEL
  6
Continuous
100
AcDbCircle
 10
143.4306581495285
 20
330.2719307964594
 30
0.0
 40
16.60530869681103
100
AcDbArc
 50
272.7052252444422
 51
275.2702121500906
  0
ARC
  5
6B6F
330
A
100
AcDbEntity
  8
MODEL
  6
Continuous
100
AcDbCircle
 10
143.7025416246234
 20
327.8122529705938
 30
0.0
 40
14.13022736652257
100
AcDbArc
 50
277.5060788890996
 51
278.9335023212676
  0
LINE
  5
6B70
330
A
100
AcDbEntity
  8
MODEL
  6
Continuous
100
AcDbLine
 10
145.8967970141967
 20
314.3042036663733
 30
0.0
 11
145.8967970141967
 21
313.8534360896788
 31
0.0
  0
LINE
  5
6B71
330
A
100
AcDbEntity
  8
MODEL
  6
Continuous
100
AcDbLine
 10
146.3714886380185
 20
314.2499485384665
 30
0.0
 11
146.3714886380185
 21
313.9370688568793
 31
0.0
  0
ARC
  5
6B72
330
A
100
AcDbEntity
  8
MODEL
  6
Continuous
100
AcDbCircle
 10
144.1996448925102
 20
325.0506556375253
 30
0.0
 40
11.32381191939674
100
AcDbArc
 50
281.057522052708
 51
283.3630546389224
  0
LINE
  5
6B73
330
A
100
AcDbEntity
  8
MODEL
  6
Continuous
100
AcDbLine
 10
146.8168110044499
 20
314.3003219138823
 30
0.0
 11
146.8168110044499
 21
314.0334346663199
 31
0.0
  0
ARC
  5
6B74
330
A
100
AcDbEntity
  8
MODEL
  6
Continuous
100
AcDbCircle
 10
145.845553722139
 20
319.6418208961927
 30
0.0
 40
5.663070818550104
100
AcDbArc
 50
290.8618222101393
 51
294.5211861628404
  0
LINE
  5
6B75
330
A
100
AcDbEntity
  8
MODEL
  6
Continuous
100
AcDbLine
 10
148.1958962434729
 20
314.8527899157248
 30
0.0
 11
148.1958962434729
 21
314.48951450698
 31
0.0
  0
ARC
  5
6B76
330
A
100
AcDbEntity
  8
MODEL
  6
Continuous
100
AcDbCircle
 10
147.8067859860531
 20
316.1929316866513
 30
0.0
 40
1.698567136542215
100
AcDbArc
 50
293.9439073179158
 51
335.2877284900325
  0
LINE
  5
6B77
330
A
100
AcDbEntity
  8
MODEL
  6
Continuous
100
AcDbLine
 10
138.6550343053241
 20
314.4570299755774
 30
0.0
 11
138.5693349333306
 21
314.6008410822592
 31
0.0
  0
LINE
  5
6B78
330
A
100
AcDbEntity
  8
MODEL
  6
Continuous
100
AcDbLine
 10
138.5693349333306
 20
314.6008410822592
 30
0.0
 11
138.2981286773284
 21
314.6318354975424
 31
0.0
  0
LINE
  5
6B79
330
A
100
AcDbEntity
  8
MODEL
  6
Continuous
100
AcDbLine
 10
138.1082091869612
 20
314.7436985146246
 30
0.0
 11
138.648576980253
 21
314.6819332014761
 31
0.0
  0
LINE
  5
6B7A
330
A
100
AcDbEntity
  8
MODEL
  6
Continuous
100
AcDbLine
 10
138.648576980253
 20
314.6819332014761
 30
0.0
 11
139.1889200934966
 21
314.8455554019652
 31
0.0
  0
LINE
  5
6B7B
330
A
100
AcDbEntity
  8
MODEL
  6
Continuous
100
AcDbLine
 10
139.1889200934966
 20
314.8455554019652
 30
0.0
 11
139.0447881461878
 21
315.0874161493025
 31
0.0
  0
LINE
  5
6B7C
330
A
100
AcDbEntity
  8
MODEL
  6
Continuous
100
AcDbLine
 10
139.0447881461878
 20
315.0874161493025
 30
0.0
 11
138.3603135512968
 21
315.1656546961508
 31
0.0
  0
LINE
  5
6B7D
330
A
100
AcDbEntity
  8
MODEL
  6
Continuous
100
AcDbLine
 10
138.3603135512968
 20
315.1656546961508
 30
0.0
 11
137.8199704380532
 21
315.0020324956618
 31
0.0
  0
LINE
  5
6B7E
330
A
100
AcDbEntity
  8
MODEL
  6
Continuous
100
AcDbLine
 10
137.8199704380532
 20
315.0020324956618
 30
0.0
 11
137.8759215043684
 21
314.9081402789793
 31
0.0
  0
LINE
  5
6B7F
330
A
100
AcDbEntity
  8
MODEL
  6
Continuous
100
AcDbLine
 10
137.6894856260915
 20
315.0767245661459
 30
0.0
 11
138.1945921497245
 21
315.2296700846396
 31
0.0
  0
LINE
  5
6B80
330
A
100
AcDbEntity
  8
MODEL
  6
Continuous
100
AcDbLine
 10
138.1945921497245
 20
315.2296700846396
 30
0.0
 11
138.0504602024158
 21
315.4715308319769
 31
0.0
  0
LINE
  5
6B81
330
A
100
AcDbEntity
  8
MODEL
  6
Continuous
100
AcDbLine
 10
138.0504602024158
 20
315.4715308319769
 30
0.0
 11
137.4503853188654
 21
315.5401208769522
 31
0.0
  0
LINE
  5
6B82
330
A
100
AcDbEntity
  8
MODEL
  6
Continuous
100
AcDbLine
 10
137.4917160177429
 20
315.6255492340765
 30
0.0
 11
138.1297027149995
 21
315.5526304017744
 31
0.0
  0
LINE
  5
6B83
330
A
100
AcDbEntity
  8
MODEL
  6
Continuous
100
AcDbLine
 10
138.1297027149995
 20
315.5526304017744
 30
0.0
 11
138.6700453625818
 21
315.7162451516829
 31
0.0
  0
LINE
  5
6B84
330
A
100
AcDbEntity
  8
MODEL
  6
Continuous
100
AcDbLine
 10
138.6700453625818
 20
315.7162451516829
 30
0.0
 11
138.525913415273
 21
315.9581058990202
 31
0.0
  0
LINE
  5
6B85
330
A
100
AcDbEntity
  8
MODEL
  6
Continuous
100
AcDbLine
 10
138.525913415273
 20
315.9581058990202
 30
0.0
 11
137.8487478399475
 21
316.0355099808417
 31
0.0
  0
LINE
  5
6B86
330
A
100
AcDbEntity
  8
MODEL
  6
Continuous
100
AcDbLine
 10
138.7770794721146
 20
316.5604778897009
 30
0.0
 11
139.080609140714
 21
316.525780535861
 31
0.0
  0
LINE
  5
6B87
330
A
100
AcDbEntity
  8
MODEL
  6
Continuous
100
AcDbLine
 10
139.080609140714
 20
316.525780535861
 30
0.0
 11
139.6209517882963
 21
316.6894027363501
 31
0.0
  0
LINE
  5
6B88
330
A
100
AcDbEntity
  8
MODEL
  6
Continuous
100
AcDbLine
 10
139.6209517882963
 20
316.6894027363501
 30
0.0
 11
139.5416184717615
 21
316.8225222598753
 31
0.0
  0
LINE
  5
6B89
330
A
100
AcDbEntity
  8
MODEL
  6
Continuous
100
AcDbLine
 10
147.7714254909952
 20
316.6450121771536
 30
0.0
 11
147.5895633378823
 21
316.5899449359617
 31
0.0
  0
LINE
  5
6B8A
330
A
100
AcDbEntity
  8
MODEL
  6
Continuous
100
AcDbLine
 10
147.5895633378823
 20
316.5899449359617
 30
0.0
 11
147.7336952851911
 21
316.3480841886244
 31
0.0
  0
LINE
  5
6B8B
330
A
100
AcDbEntity
  8
MODEL
  6
Continuous
100
AcDbLine
 10
147.7336952851911
 20
316.3480841886244
 30
0.0
 11
148.4181698800822
 21
316.2698456417761
 31
0.0
  0
LINE
  5
6B8C
330
A
100
AcDbEntity
  8
MODEL
  6
Continuous
100
AcDbLine
 10
148.4181698800822
 20
316.2698456417761
 30
0.0
 11
148.5327435115178
 21
316.304542995616
 31
0.0
  0
LINE
  5
6B8D
330
A
100
AcDbEntity
  8
MODEL
  6
Continuous
100
AcDbLine
 10
148.6595351638098
 20
316.2287333380423
 30
0.0
 11
148.5838912816544
 21
316.2058228027067
 31
0.0
  0
LINE
  5
6B8E
330
A
100
AcDbEntity
  8
MODEL
  6
Continuous
100
AcDbLine
 10
148.5838912816544
 20
316.2058228027067
 30
0.0
 11
148.7280232289632
 21
315.96396950595
 31
0.0
  0
LINE
  5
6B8F
330
A
100
AcDbEntity
  8
MODEL
  6
Continuous
100
AcDbLine
 10
148.7280232289632
 20
315.96396950595
 30
0.0
 11
149.0511516498228
 21
315.9270295273504
 31
0.0
  0
LINE
  5
6B90
330
A
100
AcDbEntity
  8
MODEL
  6
Continuous
100
AcDbLine
 10
149.1462354937394
 20
315.8260071050368
 30
0.0
 11
148.6487807163795
 21
315.8828699361525
 31
0.0
  0
LINE
  5
6B91
330
A
100
AcDbEntity
  8
MODEL
  6
Continuous
100
AcDbLine
 10
148.6487807163795
 20
315.8828699361525
 30
0.0
 11
148.1084380687972
 21
315.7192477356634
 31
0.0
  0
LINE
  5
6B92
330
A
100
AcDbEntity
  8
MODEL
  6
Continuous
100
AcDbLine
 10
148.1084380687972
 20
315.7192477356634
 30
0.0
 11
148.2525700161059
 21
315.4773944389067
 31
0.0
  0
LINE
  5
6B93
330
A
100
AcDbEntity
  8
MODEL
  6
Continuous
100
AcDbLine
 10
148.2525700161059
 20
315.4773944389067
 30
0.0
 11
148.937044610997
 21
315.3991558920584
 31
0.0
  0
LINE
  5
6B94
330
A
100
AcDbEntity
  8
MODEL
  6
Continuous
100
AcDbLine
 10
148.937044610997
 20
315.3991558920584
 30
0.0
 11
149.3362509103318
 21
315.5200341116629
 31
0.0
  0
LINE
  5
6B95
330
A
100
AcDbEntity
  8
MODEL
  6
Continuous
100
AcDbLine
 10
148.4961360150774
 20
314.6405377756796
 30
0.0
 11
148.382348885556
 21
314.8314812552176
 31
0.0
  0
LINE
  5
6B96
330
A
100
AcDbEntity
  8
MODEL
  6
Continuous
100
AcDbLine
 10
148.382348885556
 20
314.8314812552176
 30
0.0
 11
147.697874290665
 21
314.9097198020659
 31
0.0
  0
LINE
  5
6B97
330
A
100
AcDbEntity
  8
MODEL
  6
Continuous
100
AcDbLine
 10
147.697874290665
 20
314.9097198020659
 30
0.0
 11
147.1575316430827
 21
314.7460976015768
 31
0.0
  0
LINE
  5
6B98
330
A
100
AcDbEntity
  8
MODEL
  6
Continuous
100
AcDbLine
 10
147.1575316430827
 20
314.7460976015768
 30
0.0
 11
147.3016631247302
 21
314.5042368542395
 31
0.0
  0
LINE
  5
6B99
330
A
100
AcDbEntity
  8
MODEL
  6
Continuous
100
AcDbLine
 10
147.3016631247302
 20
314.5042368542395
 30
0.0
 11
147.9861381852825
 21
314.4259983073912
 31
0.0
  0
LINE
  5
6B9A
330
A
100
AcDbEntity
  8
MODEL
  6
Continuous
100
AcDbLine
 10
147.9861381852825
 20
314.4259983073912
 30
0.0
 11
148.1958962434729
 21
314.48951450698
 31
0.0
  0
LINE
  5
6B9B
330
A
100
AcDbEntity
  8
MODEL
  6
Continuous
100
AcDbLine
 10
147.8622606413265
 20
314.3500098358832
 30
0.0
 11
147.2224210778077
 21
314.4231447350226
 31
0.0
  0
LINE
  5
6B9C
330
A
100
AcDbEntity
  8
MODEL
  6
Continuous
100
AcDbLine
 10
147.2224210778077
 20
314.4231447350226
 30
0.0
 11
146.6820781973948
 21
314.2595225345335
 31
0.0
  0
LINE
  5
6B9D
330
A
100
AcDbEntity
  8
MODEL
  6
Continuous
100
AcDbLine
 10
146.6820781973948
 20
314.2595225345335
 30
0.0
 11
146.8168110044499
 21
314.0334346663199
 31
0.0
  0
LINE
  5
6B9E
330
A
100
AcDbEntity
  8
MODEL
  6
Continuous
100
AcDbLine
 10
146.3714886380185
 20
313.9370688568793
 30
0.0
 11
146.5812464633782
 21
314.000585056468
 31
0.0
  0
LINE
  5
6B9F
330
A
100
AcDbEntity
  8
MODEL
  6
Continuous
100
AcDbLine
 10
146.5812464633782
 20
314.000585056468
 30
0.0
 11
146.4371147489001
 21
314.2424458038054
 31
0.0
  0
LINE
  5
6BA0
330
A
100
AcDbEntity
  8
MODEL
  6
Continuous
100
AcDbLine
 10
146.4371147489001
 20
314.2424458038054
 30
0.0
 11
145.752640154009
 21
314.3206843506537
 31
0.0
  0
LINE
  5
6BA1
330
A
100
AcDbEntity
  8
MODEL
  6
Continuous
100
AcDbLine
 10
145.752640154009
 20
314.3206843506537
 30
0.0
 11
145.2122971571808
 21
314.1570621501646
 31
0.0
  0
LINE
  5
6BA2
330
A
100
AcDbEntity
  8
MODEL
  6
Continuous
100
AcDbLine
 10
145.2122971571808
 20
314.1570621501646
 30
0.0
 11
145.3564289880742
 21
313.9152014028273
 31
0.0
  0
LINE
  5
6BA3
330
A
100
AcDbEntity
  8
MODEL
  6
Continuous
100
AcDbLine
 10
145.3564289880742
 20
313.9152014028273
 30
0.0
 11
145.8967970141967
 21
313.8534360896788
 31
0.0
  0
LINE
  5
6BA4
330
A
100
AcDbEntity
  8
MODEL
  6
Continuous
100
AcDbLine
 10
145.5483927314927
 20
313.8031074177466
 30
0.0
 11
145.2771868247365
 21
313.8341092836104
 31
0.0
  0
LINE
  5
6BA5
330
A
100
AcDbEntity
  8
MODEL
  6
Continuous
100
AcDbLine
 10
145.2771868247365
 20
313.8341092836104
 30
0.0
 11
144.9559039359738
 21
313.7368196021757
 31
0.0
  0
LINE
  5
6BA6
330
A
100
AcDbEntity
  8
MODEL
  6
Continuous
100
AcDbLine
 10
144.214387987071
 20
313.6851274739943
 30
0.0
 11
143.8074057263148
 21
313.7316488992415
 31
0.0
  0
LINE
  5
6BA7
330
A
100
AcDbEntity
  8
MODEL
  6
Continuous
100
AcDbLine
 10
143.8074057263148
 20
313.7316488992415
 30
0.0
 11
143.593308345211
 21
313.666813946887
 31
0.0
  0
LINE
  5
6BA8
330
A
100
AcDbEntity
  8
MODEL
  6
Continuous
100
AcDbLine
 10
143.2151032244147
 20
313.6664935719214
 30
0.0
 11
143.6416844411579
 21
313.7956642877302
 31
0.0
  0
LINE
  5
6BA9
330
A
100
AcDbEntity
  8
MODEL
  6
Continuous
100
AcDbLine
 10
143.6416844411579
 20
313.7956642877302
 30
0.0
 11
143.4975526102644
 21
314.0375250350676
 31
0.0
  0
LINE
  5
6BAA
330
A
100
AcDbEntity
  8
MODEL
  6
Continuous
100
AcDbLine
 10
143.4975526102644
 20
314.0375250350676
 30
0.0
 11
142.8130778989581
 21
314.1157635819159
 31
0.0
  0
LINE
  5
6BAB
330
A
100
AcDbEntity
  8
MODEL
  6
Continuous
100
AcDbLine
 10
142.8130778989581
 20
314.1157635819159
 30
0.0
 11
142.2727350767528
 21
313.9521413814268
 31
0.0
  0
LINE
  5
6BAC
330
A
100
AcDbEntity
  8
MODEL
  6
Continuous
100
AcDbLine
 10
142.2727350767528
 20
313.9521413814268
 30
0.0
 11
142.4168668494386
 21
313.7102806340895
 31
0.0
  0
LINE
  5
6BAD
330
A
100
AcDbEntity
  8
MODEL
  6
Continuous
100
AcDbLine
 10
142.4168668494386
 20
313.7102806340895
 30
0.0
 11
142.6825760321518
 21
313.6799120675764
 31
0.0
  0
LINE
  5
6BAE
330
A
100
AcDbEntity
  8
MODEL
  6
Continuous
100
AcDbLine
 10
142.1625043188979
 20
313.708976782485
 30
0.0
 11
142.0277715118428
 21
313.9350646506987
 31
0.0
  0
LINE
  5
6BAF
330
A
100
AcDbEntity
  8
MODEL
  6
Continuous
100
AcDbLine
 10
142.0277715118428
 20
313.9350646506987
 30
0.0
 11
141.3432969169517
 21
314.013303197547
 31
0.0
  0
LINE
  5
6BB0
330
A
100
AcDbEntity
  8
MODEL
  6
Continuous
100
AcDbLine
 10
141.3432969169517
 20
314.013303197547
 30
0.0
 11
140.8381903933187
 21
313.8603502284727
 31
0.0
  0
LINE
  5
6BB1
330
A
100
AcDbEntity
  8
MODEL
  6
Continuous
100
AcDbLine
 10
140.371523510461
 20
313.9440724026404
 30
0.0
 11
140.6372326349666
 21
313.9137038361273
 31
0.0
  0
LINE
  5
6BB2
330
A
100
AcDbEntity
  8
MODEL
  6
Continuous
100
AcDbLine
 10
140.6372326349666
 20
313.9137038361273
 30
0.0
 11
141.1775755153795
 21
314.0773260366163
 31
0.0
  0
LINE
  5
6BB3
330
A
100
AcDbEntity
  8
MODEL
  6
Continuous
100
AcDbLine
 10
141.1775755153795
 20
314.0773260366163
 30
0.0
 11
141.0334438009014
 21
314.3191793333731
 31
0.0
  0
LINE
  5
6BB4
330
A
100
AcDbEntity
  8
MODEL
  6
Continuous
100
AcDbLine
 10
141.0334438009014
 20
314.3191793333731
 30
0.0
 11
140.3489689731796
 21
314.3974178802214
 31
0.0
  0
LINE
  5
6BB5
330
A
100
AcDbEntity
  8
MODEL
  6
Continuous
100
AcDbLine
 10
140.3489689731796
 20
314.3974178802214
 30
0.0
 11
139.8086260927667
 21
314.2337956797323
 31
0.0
  0
LINE
  5
6BB6
330
A
100
AcDbEntity
  8
MODEL
  6
Continuous
100
AcDbLine
 10
139.8086260927667
 20
314.2337956797323
 30
0.0
 11
139.9224129894574
 21
314.042859650775
 31
0.0
  0
LINE
  5
6BB7
330
A
100
AcDbEntity
  8
MODEL
  6
Continuous
100
AcDbLine
 10
139.6207713445474
 20
314.1208895813666
 30
0.0
 11
139.563662644272
 21
314.2167189490042
 31
0.0
  0
LINE
  5
6BB8
330
A
100
AcDbEntity
  8
MODEL
  6
Continuous
100
AcDbLine
 10
139.563662644272
 20
314.2167189490042
 30
0.0
 11
139.1566804999312
 21
314.2632403742514
 31
0.0
  0
LINE
  5
6BB9
330
A
100
AcDbEntity
  8
MODEL
  6
Continuous
100
AcDbLine
 10
142.4598034976808
 20
315.7789119850836
 30
0.0
 11
141.775328844582
 21
315.8571505319319
 31
0.0
  0
LINE
  5
6BBA
330
A
100
AcDbEntity
  8
MODEL
  6
Continuous
100
AcDbLine
 10
141.775328844582
 20
315.8571505319319
 30
0.0
 11
141.2349859641691
 21
315.6935283314428
 31
0.0
  0
LINE
  5
6BBB
330
A
100
AcDbEntity
  8
MODEL
  6
Continuous
100
AcDbLine
 10
141.2349859641691
 20
315.6935283314428
 30
0.0
 11
141.3791176786472
 21
315.4516675841055
 31
0.0
  0
LINE
  5
6BBC
330
A
100
AcDbEntity
  8
MODEL
  6
Continuous
100
AcDbLine
 10
141.3791176786472
 20
315.4516675841055
 30
0.0
 11
142.0635925063689
 21
315.3734290372572
 31
0.0
  0
LINE
  5
6BBD
330
A
100
AcDbEntity
  8
MODEL
  6
Continuous
100
AcDbLine
 10
142.0635925063689
 20
315.3734290372572
 30
0.0
 11
142.6039353285742
 21
315.5370512377463
 31
0.0
  0
LINE
  5
6BBE
330
A
100
AcDbEntity
  8
MODEL
  6
Continuous
100
AcDbLine
 10
142.6039353285742
 20
315.5370512377463
 30
0.0
 11
142.4598034976808
 21
315.7789119850836
 31
0.0
  0
LINE
  5
6BBF
330
A
100
AcDbEntity
  8
MODEL
  6
Continuous
100
AcDbLine
 10
141.4654757285317
 20
316.163026667758
 30
0.0
 11
140.7810009008099
 21
316.2412652146063
 31
0.0
  0
LINE
  5
6BC0
330
A
100
AcDbEntity
  8
MODEL
  6
Continuous
100
AcDbLine
 10
140.7810009008099
 20
316.2412652146063
 30
0.0
 11
140.2406582532277
 21
316.0776430141173
 31
0.0
  0
LINE
  5
6BC1
330
A
100
AcDbEntity
  8
MODEL
  6
Continuous
100
AcDbLine
 10
140.2406582532277
 20
316.0776430141173
 30
0.0
 11
140.3847899677058
 21
315.8357822667799
 31
0.0
  0
LINE
  5
6BC2
330
A
100
AcDbEntity
  8
MODEL
  6
Continuous
100
AcDbLine
 10
140.3847899677058
 20
315.8357822667799
 30
0.0
 11
141.0692645625969
 21
315.7575437199316
 31
0.0
  0
LINE
  5
6BC3
330
A
100
AcDbEntity
  8
MODEL
  6
Continuous
100
AcDbLine
 10
141.0692645625969
 20
315.7575437199316
 30
0.0
 11
141.6096075594251
 21
315.9211659204207
 31
0.0
  0
LINE
  5
6BC4
330
A
100
AcDbEntity
  8
MODEL
  6
Continuous
100
AcDbLine
 10
141.6096075594251
 20
315.9211659204207
 30
0.0
 11
141.4654757285317
 21
316.163026667758
 31
0.0
  0
LINE
  5
6BC5
330
A
100
AcDbEntity
  8
MODEL
  6
Continuous
100
AcDbLine
 10
139.9956945719023
 20
316.0605662833891
 30
0.0
 11
139.3112199770113
 21
316.1388048302374
 31
0.0
  0
LINE
  5
6BC6
330
A
100
AcDbEntity
  8
MODEL
  6
Continuous
100
AcDbLine
 10
139.3112199770113
 20
316.1388048302374
 30
0.0
 11
138.7708768637677
 21
315.9751826297484
 31
0.0
  0
LINE
  5
6BC7
330
A
100
AcDbEntity
  8
MODEL
  6
Continuous
100
AcDbLine
 10
138.7708768637677
 20
315.9751826297484
 30
0.0
 11
138.9150088110765
 21
315.733321882411
 31
0.0
  0
LINE
  5
6BC8
330
A
100
AcDbEntity
  8
MODEL
  6
Continuous
100
AcDbLine
 10
138.9150088110765
 20
315.733321882411
 30
0.0
 11
139.5994836387982
 21
315.6550833355627
 31
0.0
  0
LINE
  5
6BC9
330
A
100
AcDbEntity
  8
MODEL
  6
Continuous
100
AcDbLine
 10
139.5994836387982
 20
315.6550833355627
 30
0.0
 11
140.1398265192111
 21
315.8187055360518
 31
0.0
  0
LINE
  5
6BCA
330
A
100
AcDbEntity
  8
MODEL
  6
Continuous
100
AcDbLine
 10
140.1398265192111
 20
315.8187055360518
 30
0.0
 11
139.9956945719023
 21
316.0605662833891
 31
0.0
  0
LINE
  5
6BCB
330
A
100
AcDbEntity
  8
MODEL
  6
Continuous
100
AcDbLine
 10
139.0013666281303
 20
316.4446809660635
 30
0.0
 11
138.6114754171868
 21
316.4892503391943
 31
0.0
  0
LINE
  5
6BCC
330
A
100
AcDbEntity
  8
MODEL
  6
Continuous
100
AcDbLine
 10
137.9499383659859
 20
316.114098704978
 30
0.0
 11
138.6051559278567
 21
316.0392054688177
 31
0.0
  0
LINE
  5
6BCD
330
A
100
AcDbEntity
  8
MODEL
  6
Continuous
100
AcDbLine
 10
138.6051559278567
 20
316.0392054688177
 30
0.0
 11
139.145498575439
 21
316.2028276693068
 31
0.0
  0
LINE
  5
6BCE
330
A
100
AcDbEntity
  8
MODEL
  6
Continuous
100
AcDbLine
 10
139.145498575439
 20
316.2028276693068
 30
0.0
 11
139.0013666281303
 21
316.4446809660635
 31
0.0
  0
LINE
  5
6BCF
330
A
100
AcDbEntity
  8
MODEL
  6
Continuous
100
AcDbLine
 10
144.9239124234592
 20
315.4972502361975
 30
0.0
 11
144.2394377121528
 21
315.5754887830458
 31
0.0
  0
LINE
  5
6BD0
330
A
100
AcDbEntity
  8
MODEL
  6
Continuous
100
AcDbLine
 10
144.2394377121528
 20
315.5754887830458
 30
0.0
 11
143.6990948317398
 21
315.4118740331373
 31
0.0
  0
LINE
  5
6BD1
330
A
100
AcDbEntity
  8
MODEL
  6
Continuous
100
AcDbLine
 10
143.6990948317398
 20
315.4118740331373
 30
0.0
 11
143.8432266626333
 21
315.1700132858
 31
0.0
  0
LINE
  5
6BD2
330
A
100
AcDbEntity
  8
MODEL
  6
Continuous
100
AcDbLine
 10
143.8432266626333
 20
315.1700132858
 30
0.0
 11
144.5277013739397
 21
315.0917747389517
 31
0.0
  0
LINE
  5
6BD3
330
A
100
AcDbEntity
  8
MODEL
  6
Continuous
100
AcDbLine
 10
144.5277013739397
 20
315.0917747389517
 30
0.0
 11
145.0680442543526
 21
315.2553969394407
 31
0.0
  0
LINE
  5
6BD4
330
A
100
AcDbEntity
  8
MODEL
  6
Continuous
100
AcDbLine
 10
145.0680442543526
 20
315.2553969394407
 30
0.0
 11
144.9239124234592
 21
315.4972502361975
 31
0.0
  0
LINE
  5
6BD5
330
A
100
AcDbEntity
  8
MODEL
  6
Continuous
100
AcDbLine
 10
146.3936934636732
 20
315.5997106205664
 30
0.0
 11
145.7092188687821
 21
315.6779491674147
 31
0.0
  0
LINE
  5
6BD6
330
A
100
AcDbEntity
  8
MODEL
  6
Continuous
100
AcDbLine
 10
145.7092188687821
 20
315.6779491674147
 30
0.0
 11
145.1688758719538
 21
315.5143269669256
 31
0.0
  0
LINE
  5
6BD7
330
A
100
AcDbEntity
  8
MODEL
  6
Continuous
100
AcDbLine
 10
145.1688758719538
 20
315.5143269669256
 30
0.0
 11
145.3130077028473
 21
315.2724736701689
 31
0.0
  0
LINE
  5
6BD8
330
A
100
AcDbEntity
  8
MODEL
  6
Continuous
100
AcDbLine
 10
145.3130077028473
 20
315.2724736701689
 30
0.0
 11
145.997482530569
 21
315.1942351233206
 31
0.0
  0
LINE
  5
6BD9
330
A
100
AcDbEntity
  8
MODEL
  6
Continuous
100
AcDbLine
 10
145.997482530569
 20
315.1942351233206
 30
0.0
 11
146.5378251781513
 21
315.3578573238096
 31
0.0
  0
LINE
  5
6BDA
330
A
100
AcDbEntity
  8
MODEL
  6
Continuous
100
AcDbLine
 10
146.5378251781513
 20
315.3578573238096
 30
0.0
 11
146.3936934636732
 21
315.5997106205664
 31
0.0
  0
LINE
  5
6BDB
330
A
100
AcDbEntity
  8
MODEL
  6
Continuous
100
AcDbLine
 10
147.3880214074453
 20
315.215595937892
 30
0.0
 11
146.7035465797235
 21
315.2938344847403
 31
0.0
  0
LINE
  5
6BDC
330
A
100
AcDbEntity
  8
MODEL
  6
Continuous
100
AcDbLine
 10
146.7035465797235
 20
315.2938344847403
 30
0.0
 11
146.1632036993106
 21
315.1302122842512
 31
0.0
  0
LINE
  5
6BDD
330
A
100
AcDbEntity
  8
MODEL
  6
Continuous
100
AcDbLine
 10
146.1632036993106
 20
315.1302122842512
 30
0.0
 11
146.3073356466194
 21
314.8883515369139
 31
0.0
  0
LINE
  5
6BDE
330
A
100
AcDbEntity
  8
MODEL
  6
Continuous
100
AcDbLine
 10
146.3073356466194
 20
314.8883515369139
 30
0.0
 11
146.9918102415104
 21
314.8101204406462
 31
0.0
  0
LINE
  5
6BDF
330
A
100
AcDbEntity
  8
MODEL
  6
Continuous
100
AcDbLine
 10
146.9918102415104
 20
314.8101204406462
 30
0.0
 11
147.5321528890927
 21
314.9737351905546
 31
0.0
  0
LINE
  5
6BE0
330
A
100
AcDbEntity
  8
MODEL
  6
Continuous
100
AcDbLine
 10
147.5321528890927
 20
314.9737351905546
 30
0.0
 11
147.3880214074453
 21
315.215595937892
 31
0.0
  0
LINE
  5
6BE1
330
A
100
AcDbEntity
  8
MODEL
  6
Continuous
100
AcDbLine
 10
148.8578025640746
 20
315.3180563222609
 30
0.0
 11
148.1733275035222
 21
315.3962948691092
 31
0.0
  0
LINE
  5
6BE2
330
A
100
AcDbEntity
  8
MODEL
  6
Continuous
100
AcDbLine
 10
148.1733275035222
 20
315.3962948691092
 30
0.0
 11
147.6329848559399
 21
315.2326726686201
 31
0.0
  0
LINE
  5
6BE3
330
A
100
AcDbEntity
  8
MODEL
  6
Continuous
100
AcDbLine
 10
147.6329848559399
 20
315.2326726686201
 30
0.0
 11
147.7771168032487
 21
314.9908119212828
 31
0.0
  0
LINE
  5
6BE4
330
A
100
AcDbEntity
  8
MODEL
  6
Continuous
100
AcDbLine
 10
147.7771168032487
 20
314.9908119212828
 30
0.0
 11
148.4615913981398
 21
314.9125733744345
 31
0.0
  0
LINE
  5
6BE5
330
A
100
AcDbEntity
  8
MODEL
  6
Continuous
100
AcDbLine
 10
148.4615913981398
 20
314.9125733744345
 30
0.0
 11
149.0019340457221
 21
315.0761955749235
 31
0.0
  0
LINE
  5
6BE6
330
A
100
AcDbEntity
  8
MODEL
  6
Continuous
100
AcDbLine
 10
149.0019340457221
 20
315.0761955749235
 30
0.0
 11
148.8578025640746
 21
315.3180563222609
 31
0.0
  0
LINE
  5
6BE7
330
A
100
AcDbEntity
  8
MODEL
  6
Continuous
100
AcDbLine
 10
144.4050378089597
 20
316.3679474364958
 30
0.0
 11
143.7205631558609
 21
316.4461859833441
 31
0.0
  0
LINE
  5
6BE8
330
A
100
AcDbEntity
  8
MODEL
  6
Continuous
100
AcDbLine
 10
143.7205631558609
 20
316.4461859833441
 30
0.0
 11
143.1802202899999
 21
316.282563782855
 31
0.0
  0
LINE
  5
6BE9
330
A
100
AcDbEntity
  8
MODEL
  6
Continuous
100
AcDbLine
 10
143.1802202899999
 20
316.282563782855
 30
0.0
 11
143.3243521063415
 21
316.0407030355177
 31
0.0
  0
LINE
  5
6BEA
330
A
100
AcDbEntity
  8
MODEL
  6
Continuous
100
AcDbLine
 10
143.3243521063415
 20
316.0407030355177
 30
0.0
 11
144.0088268176478
 21
315.9624644886694
 31
0.0
  0
LINE
  5
6BEB
330
A
100
AcDbEntity
  8
MODEL
  6
Continuous
100
AcDbLine
 10
144.0088268176478
 20
315.9624644886694
 30
0.0
 11
144.5491696398531
 21
316.1260866891585
 31
0.0
  0
LINE
  5
6BEC
330
A
100
AcDbEntity
  8
MODEL
  6
Continuous
100
AcDbLine
 10
144.5491696398531
 20
316.1260866891585
 30
0.0
 11
144.4050378089597
 21
316.3679474364958
 31
0.0
  0
LINE
  5
6BED
330
A
100
AcDbEntity
  8
MODEL
  6
Continuous
100
AcDbLine
 10
142.9352567687457
 20
316.2654870521269
 30
0.0
 11
142.2507820574393
 21
316.3437255989752
 31
0.0
  0
LINE
  5
6BEE
330
A
100
AcDbEntity
  8
MODEL
  6
Continuous
100
AcDbLine
 10
142.2507820574393
 20
316.3437255989752
 30
0.0
 11
141.7104391770263
 21
316.1801033984862
 31
0.0
  0
LINE
  5
6BEF
330
A
100
AcDbEntity
  8
MODEL
  6
Continuous
100
AcDbLine
 10
141.7104391770263
 20
316.1801033984862
 30
0.0
 11
141.8545710079198
 21
315.9382426511488
 31
0.0
  0
LINE
  5
6BF0
330
A
100
AcDbEntity
  8
MODEL
  6
Continuous
100
AcDbLine
 10
141.8545710079198
 20
315.9382426511488
 30
0.0
 11
142.5390457192262
 21
315.8600041043005
 31
0.0
  0
LINE
  5
6BF1
330
A
100
AcDbEntity
  8
MODEL
  6
Continuous
100
AcDbLine
 10
142.5390457192262
 20
315.8600041043005
 30
0.0
 11
143.0793885996391
 21
316.0236263047896
 31
0.0
  0
LINE
  5
6BF2
330
A
100
AcDbEntity
  8
MODEL
  6
Continuous
100
AcDbLine
 10
143.0793885996391
 20
316.0236263047896
 30
0.0
 11
142.9352567687457
 21
316.2654870521269
 31
0.0
  0
LINE
  5
6BF3
330
A
100
AcDbEntity
  8
MODEL
  6
Continuous
100
AcDbLine
 10
141.9409289413889
 20
316.6496017348013
 30
0.0
 11
141.2564543464978
 21
316.7278402816496
 31
0.0
  0
LINE
  5
6BF4
330
A
100
AcDbEntity
  8
MODEL
  6
Continuous
100
AcDbLine
 10
141.2564543464978
 20
316.7278402816496
 30
0.0
 11
140.7161114660849
 21
316.5642180811606
 31
0.0
  0
LINE
  5
6BF5
330
A
100
AcDbEntity
  8
MODEL
  6
Continuous
100
AcDbLine
 10
140.7161114660849
 20
316.5642180811606
 30
0.0
 11
140.860243180563
 21
316.3223647844038
 31
0.0
  0
LINE
  5
6BF6
330
A
100
AcDbEntity
  8
MODEL
  6
Continuous
100
AcDbLine
 10
140.860243180563
 20
316.3223647844038
 30
0.0
 11
141.5447178918694
 21
316.2441262375555
 31
0.0
  0
LINE
  5
6BF7
330
A
100
AcDbEntity
  8
MODEL
  6
Continuous
100
AcDbLine
 10
141.5447178918694
 20
316.2441262375555
 30
0.0
 11
142.0850607722824
 21
316.407740987464
 31
0.0
  0
LINE
  5
6BF8
330
A
100
AcDbEntity
  8
MODEL
  6
Continuous
100
AcDbLine
 10
142.0850607722824
 20
316.407740987464
 30
0.0
 11
141.9409289413889
 21
316.6496017348013
 31
0.0
  0
LINE
  5
6BF9
330
A
100
AcDbEntity
  8
MODEL
  6
Continuous
100
AcDbLine
 10
145.3993657527317
 20
315.9838327538214
 30
0.0
 11
144.71489092501
 21
316.0620713006697
 31
0.0
  0
LINE
  5
6BFA
330
A
100
AcDbEntity
  8
MODEL
  6
Continuous
100
AcDbLine
 10
144.71489092501
 20
316.0620713006697
 30
0.0
 11
144.1745481028047
 21
315.8984491001806
 31
0.0
  0
LINE
  5
6BFB
330
A
100
AcDbEntity
  8
MODEL
  6
Continuous
100
AcDbLine
 10
144.1745481028047
 20
315.8984491001806
 30
0.0
 11
144.3186799336982
 21
315.6565883528433
 31
0.0
  0
LINE
  5
6BFC
330
A
100
AcDbEntity
  8
MODEL
  6
Continuous
100
AcDbLine
 10
144.3186799336982
 20
315.6565883528433
 30
0.0
 11
145.0031545867969
 21
315.578349805995
 31
0.0
  0
LINE
  5
6BFD
330
A
100
AcDbEntity
  8
MODEL
  6
Continuous
100
AcDbLine
 10
145.0031545867969
 20
315.578349805995
 30
0.0
 11
145.5434974672099
 21
315.741972006484
 31
0.0
  0
LINE
  5
6BFE
330
A
100
AcDbEntity
  8
MODEL
  6
Continuous
100
AcDbLine
 10
145.5434974672099
 20
315.741972006484
 30
0.0
 11
145.3993657527317
 21
315.9838327538214
 31
0.0
  0
LINE
  5
6BFF
330
A
100
AcDbEntity
  8
MODEL
  6
Continuous
100
AcDbLine
 10
146.8691466765304
 20
316.0862931381903
 30
0.0
 11
146.1846720816393
 21
316.164524234458
 31
0.0
  0
LINE
  5
6C00
330
A
100
AcDbEntity
  8
MODEL
  6
Continuous
100
AcDbLine
 10
146.1846720816393
 20
316.164524234458
 30
0.0
 11
145.6443292012264
 21
316.0009094845495
 31
0.0
  0
LINE
  5
6C01
330
A
100
AcDbEntity
  8
MODEL
  6
Continuous
100
AcDbLine
 10
145.6443292012264
 20
316.0009094845495
 30
0.0
 11
145.7884609157045
 21
315.7590487372122
 31
0.0
  0
LINE
  5
6C02
330
A
100
AcDbEntity
  8
MODEL
  6
Continuous
100
AcDbLine
 10
145.7884609157045
 20
315.7590487372122
 30
0.0
 11
146.4729357434263
 21
315.6808101903639
 31
0.0
  0
LINE
  5
6C03
330
A
100
AcDbEntity
  8
MODEL
  6
Continuous
100
AcDbLine
 10
146.4729357434263
 20
315.6808101903639
 30
0.0
 11
147.0132786238392
 21
315.8444323908529
 31
0.0
  0
LINE
  5
6C04
330
A
100
AcDbEntity
  8
MODEL
  6
Continuous
100
AcDbLine
 10
147.0132786238392
 20
315.8444323908529
 30
0.0
 11
146.8691466765304
 21
316.0862931381903
 31
0.0
  0
LINE
  5
6C05
330
A
100
AcDbEntity
  8
MODEL
  6
Continuous
100
AcDbLine
 10
147.8634746203025
 20
315.7021710049353
 30
0.0
 11
147.1789997925808
 21
315.7804095517836
 31
0.0
  0
LINE
  5
6C06
330
A
100
AcDbEntity
  8
MODEL
  6
Continuous
100
AcDbLine
 10
147.1789997925808
 20
315.7804095517836
 30
0.0
 11
146.6386569121678
 21
315.6167873512945
 31
0.0
  0
LINE
  5
6C07
330
A
100
AcDbEntity
  8
MODEL
  6
Continuous
100
AcDbLine
 10
146.6386569121678
 20
315.6167873512945
 30
0.0
 11
146.7827888594766
 21
315.3749340545378
 31
0.0
  0
LINE
  5
6C08
330
A
100
AcDbEntity
  8
MODEL
  6
Continuous
100
AcDbLine
 10
146.7827888594766
 20
315.3749340545378
 30
0.0
 11
147.4672634543677
 21
315.2966955076895
 31
0.0
  0
LINE
  5
6C09
330
A
100
AcDbEntity
  8
MODEL
  6
Continuous
100
AcDbLine
 10
147.4672634543677
 20
315.2966955076895
 30
0.0
 11
148.0076065676113
 21
315.4603177081785
 31
0.0
  0
LINE
  5
6C0A
330
A
100
AcDbEntity
  8
MODEL
  6
Continuous
100
AcDbLine
 10
148.0076065676113
 20
315.4603177081785
 30
0.0
 11
147.8634746203025
 21
315.7021710049353
 31
0.0
  0
LINE
  5
6C0B
330
A
100
AcDbEntity
  8
MODEL
  6
Continuous
100
AcDbLine
 10
144.8804911382322
 20
316.8545225035391
 30
0.0
 11
144.1960164269258
 21
316.9327610503874
 31
0.0
  0
LINE
  5
6C0C
330
A
100
AcDbEntity
  8
MODEL
  6
Continuous
100
AcDbLine
 10
144.1960164269258
 20
316.9327610503874
 30
0.0
 11
143.6556735465129
 21
316.7691388498984
 31
0.0
  0
LINE
  5
6C0D
330
A
100
AcDbEntity
  8
MODEL
  6
Continuous
100
AcDbLine
 10
143.6556735465129
 20
316.7691388498984
 30
0.0
 11
143.7998053774064
 21
316.527278102561
 31
0.0
  0
LINE
  5
6C0E
330
A
100
AcDbEntity
  8
MODEL
  6
Continuous
100
AcDbLine
 10
143.7998053774064
 20
316.527278102561
 30
0.0
 11
144.4842800887128
 21
316.4490395557127
 31
0.0
  0
LINE
  5
6C0F
330
A
100
AcDbEntity
  8
MODEL
  6
Continuous
100
AcDbLine
 10
144.4842800887128
 20
316.4490395557127
 30
0.0
 11
145.0246229691257
 21
316.6126617562018
 31
0.0
  0
LINE
  5
6C10
330
A
100
AcDbEntity
  8
MODEL
  6
Continuous
100
AcDbLine
 10
145.0246229691257
 20
316.6126617562018
 30
0.0
 11
144.8804911382322
 21
316.8545225035391
 31
0.0
  0
LINE
  5
6C11
330
A
100
AcDbEntity
  8
MODEL
  6
Continuous
100
AcDbLine
 10
143.4107100361726
 20
316.7520621191702
 30
0.0
 11
142.7262353285042
 21
316.8303006660185
 31
0.0
  0
LINE
  5
6C12
330
A
100
AcDbEntity
  8
MODEL
  6
Continuous
100
AcDbLine
 10
142.7262353285042
 20
316.8303006660185
 30
0.0
 11
142.1858925062989
 21
316.6666784655295
 31
0.0
  0
LINE
  5
6C13
330
A
100
AcDbEntity
  8
MODEL
  6
Continuous
100
AcDbLine
 10
142.1858925062989
 20
316.6666784655295
 30
0.0
 11
142.3300243371924
 21
316.4248177181921
 31
0.0
  0
LINE
  5
6C14
330
A
100
AcDbEntity
  8
MODEL
  6
Continuous
100
AcDbLine
 10
142.3300243371924
 20
316.4248177181921
 30
0.0
 11
143.0144989902911
 21
316.3465791713438
 31
0.0
  0
LINE
  5
6C15
330
A
100
AcDbEntity
  8
MODEL
  6
Continuous
100
AcDbLine
 10
143.0144989902911
 20
316.3465791713438
 30
0.0
 11
143.5548418561521
 21
316.5102013718329
 31
0.0
  0
LINE
  5
6C16
330
A
100
AcDbEntity
  8
MODEL
  6
Continuous
100
AcDbLine
 10
143.5548418561521
 20
316.5102013718329
 30
0.0
 11
143.4107100361726
 21
316.7520621191702
 31
0.0
  0
LINE
  5
6C17
330
A
100
AcDbEntity
  8
MODEL
  6
Continuous
100
AcDbLine
 10
142.4163822124538
 20
317.1361768018446
 30
0.0
 11
142.3385609563266
 21
317.1450727950773
 31
0.0
  0
LINE
  5
6C18
330
A
100
AcDbEntity
  8
MODEL
  6
Continuous
100
AcDbLine
 10
141.1934042738577
 20
317.0513519417486
 30
0.0
 11
141.1915646789421
 21
317.0507931482039
 31
0.0
  0
LINE
  5
6C19
330
A
100
AcDbEntity
  8
MODEL
  6
Continuous
100
AcDbLine
 10
141.1915646789421
 20
317.0507931482039
 30
0.0
 11
141.3356963934203
 21
316.8089398514471
 31
0.0
  0
LINE
  5
6C1A
330
A
100
AcDbEntity
  8
MODEL
  6
Continuous
100
AcDbLine
 10
141.3356963934203
 20
316.8089398514471
 30
0.0
 11
142.020171221142
 21
316.7307013045988
 31
0.0
  0
LINE
  5
6C1B
330
A
100
AcDbEntity
  8
MODEL
  6
Continuous
100
AcDbLine
 10
142.020171221142
 20
316.7307013045988
 30
0.0
 11
142.5605140433473
 21
316.8943235050879
 31
0.0
  0
LINE
  5
6C1C
330
A
100
AcDbEntity
  8
MODEL
  6
Continuous
100
AcDbLine
 10
142.5605140433473
 20
316.8943235050879
 30
0.0
 11
142.4163822124538
 21
317.1361768018446
 31
0.0
  0
LINE
  5
6C1D
330
A
100
AcDbEntity
  8
MODEL
  6
Continuous
100
AcDbLine
 10
139.7611132746388
 20
316.882342971488
 30
0.0
 11
139.8659154696216
 21
316.7064794670782
 31
0.0
  0
LINE
  5
6C1E
330
A
100
AcDbEntity
  8
MODEL
  6
Continuous
100
AcDbLine
 10
139.8659154696216
 20
316.7064794670782
 30
0.0
 11
140.5503900645127
 21
316.6282409202299
 31
0.0
  0
LINE
  5
6C1F
330
A
100
AcDbEntity
  8
MODEL
  6
Continuous
100
AcDbLine
 10
140.5503900645127
 20
316.6282409202299
 30
0.0
 11
141.0907329449256
 21
316.791863120719
 31
0.0
  0
LINE
  5
6C20
330
A
100
AcDbEntity
  8
MODEL
  6
Continuous
100
AcDbLine
 10
141.0907329449256
 20
316.791863120719
 30
0.0
 11
140.953256228735
 21
317.0225554477415
 31
0.0
  0
LINE
  5
6C21
330
A
100
AcDbEntity
  8
MODEL
  6
Continuous
100
AcDbLine
 10
145.874818965589
 20
316.4704078208647
 30
0.0
 11
145.1903442542826
 21
316.548646367713
 31
0.0
  0
LINE
  5
6C22
330
A
100
AcDbEntity
  8
MODEL
  6
Continuous
100
AcDbLine
 10
145.1903442542826
 20
316.548646367713
 30
0.0
 11
144.6500013738697
 21
316.3850241672239
 31
0.0
  0
LINE
  5
6C23
330
A
100
AcDbEntity
  8
MODEL
  6
Continuous
100
AcDbLine
 10
144.6500013738697
 20
316.3850241672239
 30
0.0
 11
144.7941332047631
 21
316.1431634198866
 31
0.0
  0
LINE
  5
6C24
330
A
100
AcDbEntity
  8
MODEL
  6
Continuous
100
AcDbLine
 10
144.7941332047631
 20
316.1431634198866
 30
0.0
 11
145.4786077996542
 21
316.0649248730383
 31
0.0
  0
LINE
  5
6C25
330
A
100
AcDbEntity
  8
MODEL
  6
Continuous
100
AcDbLine
 10
145.4786077996542
 20
316.0649248730383
 30
0.0
 11
146.0189506800671
 21
316.2285470735274
 31
0.0
  0
LINE
  5
6C26
330
A
100
AcDbEntity
  8
MODEL
  6
Continuous
100
AcDbLine
 10
146.0189506800671
 20
316.2285470735274
 30
0.0
 11
145.874818965589
 21
316.4704078208647
 31
0.0
  0
LINE
  5
6C27
330
A
100
AcDbEntity
  8
MODEL
  6
Continuous
100
AcDbLine
 10
148.3389278331597
 20
316.1887460719786
 30
0.0
 11
147.6544532382687
 21
316.2669846188269
 31
0.0
  0
LINE
  5
6C28
330
A
100
AcDbEntity
  8
MODEL
  6
Continuous
100
AcDbLine
 10
147.6544532382687
 20
316.2669846188269
 30
0.0
 11
147.1141103578557
 21
316.1033698689184
 31
0.0
  0
LINE
  5
6C29
330
A
100
AcDbEntity
  8
MODEL
  6
Continuous
100
AcDbLine
 10
147.1141103578557
 20
316.1033698689184
 30
0.0
 11
147.2582420723339
 21
315.8615091215811
 31
0.0
  0
LINE
  5
6C2A
330
A
100
AcDbEntity
  8
MODEL
  6
Continuous
100
AcDbLine
 10
147.2582420723339
 20
315.8615091215811
 30
0.0
 11
147.9427166672249
 21
315.7832705747328
 31
0.0
  0
LINE
  5
6C2B
330
A
100
AcDbEntity
  8
MODEL
  6
Continuous
100
AcDbLine
 10
147.9427166672249
 20
315.7832705747328
 30
0.0
 11
148.4830597804685
 21
315.9468927752218
 31
0.0
  0
LINE
  5
6C2C
330
A
100
AcDbEntity
  8
MODEL
  6
Continuous
100
AcDbLine
 10
148.4830597804685
 20
315.9468927752218
 30
0.0
 11
148.3389278331597
 21
316.1887460719786
 31
0.0
  0
LINE
  5
6C2D
330
A
100
AcDbEntity
  8
MODEL
  6
Continuous
100
AcDbLine
 10
144.2132371051994
 20
317.2805765043936
 30
0.0
 11
144.1311268175778
 21
317.2557139169417
 31
0.0
  0
LINE
  5
6C2E
330
A
100
AcDbEntity
  8
MODEL
  6
Continuous
100
AcDbLine
 10
144.1311268175778
 20
317.2557139169417
 30
0.0
 11
144.2752586484713
 21
317.0138606201849
 31
0.0
  0
LINE
  5
6C2F
330
A
100
AcDbEntity
  8
MODEL
  6
Continuous
100
AcDbLine
 10
144.2752586484713
 20
317.0138606201849
 30
0.0
 11
144.95973330157
 21
316.9356220733366
 31
0.0
  0
LINE
  5
6C30
330
A
100
AcDbEntity
  8
MODEL
  6
Continuous
100
AcDbLine
 10
144.95973330157
 20
316.9356220733366
 30
0.0
 11
145.5000761819829
 21
317.0992368232451
 31
0.0
  0
LINE
  5
6C31
330
A
100
AcDbEntity
  8
MODEL
  6
Continuous
100
AcDbLine
 10
145.5000761819829
 20
317.0992368232451
 30
0.0
 11
145.4552048275073
 21
317.1745323907576
 31
0.0
  0
LINE
  5
6C32
330
A
100
AcDbEntity
  8
MODEL
  6
Continuous
100
AcDbLine
 10
143.8861633108755
 20
317.2386371862135
 30
0.0
 11
143.3495284258098
 21
317.299977816268
 31
0.0
  0
LINE
  5
6C33
330
A
100
AcDbEntity
  8
MODEL
  6
Continuous
100
AcDbLine
 10
143.1401902267535
 20
317.2982567321501
 30
0.0
 11
142.9594279364974
 21
317.2435173165045
 31
0.0
  0
LINE
  5
6C34
330
A
100
AcDbEntity
  8
MODEL
  6
Continuous
100
AcDbLine
 10
142.6836259819393
 20
317.1600037585936
 30
0.0
 11
142.6613457191561
 21
317.1532535325728
 31
0.0
  0
LINE
  5
6C35
330
A
100
AcDbEntity
  8
MODEL
  6
Continuous
100
AcDbLine
 10
142.6613457191561
 20
317.1532535325728
 30
0.0
 11
142.8054775500496
 21
316.911400235816
 31
0.0
  0
LINE
  5
6C36
330
A
100
AcDbEntity
  8
MODEL
  6
Continuous
100
AcDbLine
 10
142.8054775500496
 20
316.911400235816
 30
0.0
 11
143.4899522468041
 21
316.8331616889677
 31
0.0
  0
LINE
  5
6C37
330
A
100
AcDbEntity
  8
MODEL
  6
Continuous
100
AcDbLine
 10
143.4899522468041
 20
316.8331616889677
 30
0.0
 11
144.0302951417689
 21
316.9967838894568
 31
0.0
  0
LINE
  5
6C38
330
A
100
AcDbEntity
  8
MODEL
  6
Continuous
100
AcDbLine
 10
144.0302951417689
 20
316.9967838894568
 30
0.0
 11
143.8861633108755
 21
317.2386371862135
 31
0.0
  0
LINE
  5
6C39
330
A
100
AcDbEntity
  8
MODEL
  6
Continuous
100
AcDbLine
 10
146.0932467056264
 20
316.9863605272017
 30
0.0
 11
145.6657975835552
 21
317.0352214347563
 31
0.0
  0
LINE
  5
6C3A
330
A
100
AcDbEntity
  8
MODEL
  6
Continuous
100
AcDbLine
 10
145.6657975835552
 20
317.0352214347563
 30
0.0
 11
145.1254545867269
 21
316.8715992342673
 31
0.0
  0
LINE
  5
6C3B
330
A
100
AcDbEntity
  8
MODEL
  6
Continuous
100
AcDbLine
 10
145.1254545867269
 20
316.8715992342673
 30
0.0
 11
145.2695864176204
 21
316.6297384869299
 31
0.0
  0
LINE
  5
6C3C
330
A
100
AcDbEntity
  8
MODEL
  6
Continuous
100
AcDbLine
 10
145.2695864176204
 20
316.6297384869299
 30
0.0
 11
145.9540612453421
 21
316.5514999400816
 31
0.0
  0
LINE
  5
6C3D
330
A
100
AcDbEntity
  8
MODEL
  6
Continuous
100
AcDbLine
 10
145.9540612453421
 20
316.5514999400816
 30
0.0
 11
146.4944038929244
 21
316.7151221405707
 31
0.0
  0
LINE
  5
6C3E
330
A
100
AcDbEntity
  8
MODEL
  6
Continuous
100
AcDbLine
 10
146.4944038929244
 20
316.7151221405707
 30
0.0
 11
146.3565485941072
 21
316.9464477669439
 31
0.0
  0
LINE
  5
6C3F
330
A
100
AcDbEntity
  8
MODEL
  6
Continuous
100
AcDbLine
 10
146.6403779962857
 20
316.8983095657072
 30
0.0
 11
146.7393675742497
 21
316.7321988712988
 31
0.0
  0
LINE
  5
6C40
330
A
100
AcDbEntity
  8
MODEL
  6
Continuous
100
AcDbLine
 10
146.7393675742497
 20
316.7321988712988
 30
0.0
 11
147.4238424019714
 21
316.6539603244505
 31
0.0
  0
LINE
  5
6C41
330
A
100
AcDbEntity
  8
MODEL
  6
Continuous
100
AcDbLine
 10
147.4238424019714
 20
316.6539603244505
 30
0.0
 11
147.5701205821534
 21
316.6982540260992
 31
0.0
  0
LINE
  5
6C42
330
A
100
AcDbEntity
  8
MODEL
  6
Continuous
100
AcDbLine
 10
143.4541313250375
 20
315.3947973024092
 30
0.0
 11
142.7696566137311
 21
315.4730283986769
 31
0.0
  0
LINE
  5
6C43
330
A
100
AcDbEntity
  8
MODEL
  6
Continuous
100
AcDbLine
 10
142.7696566137311
 20
315.4730283986769
 30
0.0
 11
142.2293137915258
 21
315.3094136487684
 31
0.0
  0
LINE
  5
6C44
330
A
100
AcDbEntity
  8
MODEL
  6
Continuous
100
AcDbLine
 10
142.2293137915258
 20
315.3094136487684
 30
0.0
 11
142.3734456224193
 21
315.0675529014311
 31
0.0
  0
LINE
  5
6C45
330
A
100
AcDbEntity
  8
MODEL
  6
Continuous
100
AcDbLine
 10
142.3734456224193
 20
315.0675529014311
 30
0.0
 11
143.057920275518
 21
314.9893143545828
 31
0.0
  0
LINE
  5
6C46
330
A
100
AcDbEntity
  8
MODEL
  6
Continuous
100
AcDbLine
 10
143.057920275518
 20
314.9893143545828
 30
0.0
 11
143.5982631413791
 21
315.1529365550718
 31
0.0
  0
LINE
  5
6C47
330
A
100
AcDbEntity
  8
MODEL
  6
Continuous
100
AcDbLine
 10
143.5982631413791
 20
315.1529365550718
 30
0.0
 11
143.4541313250375
 21
315.3947973024092
 31
0.0
  0
LINE
  5
6C48
330
A
100
AcDbEntity
  8
MODEL
  6
Continuous
100
AcDbLine
 10
141.9843502266158
 20
315.2923369180403
 30
0.0
 11
141.2998756317248
 21
315.3705754648886
 31
0.0
  0
LINE
  5
6C49
330
A
100
AcDbEntity
  8
MODEL
  6
Continuous
100
AcDbLine
 10
141.2998756317248
 20
315.3705754648886
 30
0.0
 11
140.7595327513118
 21
315.2069532643995
 31
0.0
  0
LINE
  5
6C4A
330
A
100
AcDbEntity
  8
MODEL
  6
Continuous
100
AcDbLine
 10
140.7595327513118
 20
315.2069532643995
 30
0.0
 11
140.90366446579
 21
314.9650925170622
 31
0.0
  0
LINE
  5
6C4B
330
A
100
AcDbEntity
  8
MODEL
  6
Continuous
100
AcDbLine
 10
140.90366446579
 20
314.9650925170622
 30
0.0
 11
141.5881391770964
 21
314.8868539702139
 31
0.0
  0
LINE
  5
6C4C
330
A
100
AcDbEntity
  8
MODEL
  6
Continuous
100
AcDbLine
 10
141.5881391770964
 20
314.8868539702139
 30
0.0
 11
142.1284820575093
 21
315.050476170703
 31
0.0
  0
LINE
  5
6C4D
330
A
100
AcDbEntity
  8
MODEL
  6
Continuous
100
AcDbLine
 10
142.1284820575093
 20
315.050476170703
 30
0.0
 11
141.9843502266158
 21
315.2923369180403
 31
0.0
  0
LINE
  5
6C4E
330
A
100
AcDbEntity
  8
MODEL
  6
Continuous
100
AcDbLine
 10
140.9900225156744
 20
315.6764516007147
 30
0.0
 11
140.3055476879527
 21
315.754690147563
 31
0.0
  0
LINE
  5
6C4F
330
A
100
AcDbEntity
  8
MODEL
  6
Continuous
100
AcDbLine
 10
140.3055476879527
 20
315.754690147563
 30
0.0
 11
139.7652048075398
 21
315.591067947074
 31
0.0
  0
LINE
  5
6C50
330
A
100
AcDbEntity
  8
MODEL
  6
Continuous
100
AcDbLine
 10
139.7652048075398
 20
315.591067947074
 30
0.0
 11
139.9093367548485
 21
315.3492071997366
 31
0.0
  0
LINE
  5
6C51
330
A
100
AcDbEntity
  8
MODEL
  6
Continuous
100
AcDbLine
 10
139.9093367548485
 20
315.3492071997366
 30
0.0
 11
140.5938113497396
 21
315.2709686528883
 31
0.0
  0
LINE
  5
6C52
330
A
100
AcDbEntity
  8
MODEL
  6
Continuous
100
AcDbLine
 10
140.5938113497396
 20
315.2709686528883
 30
0.0
 11
141.1341542301525
 21
315.4345908533774
 31
0.0
  0
LINE
  5
6C53
330
A
100
AcDbEntity
  8
MODEL
  6
Continuous
100
AcDbLine
 10
141.1341542301525
 20
315.4345908533774
 30
0.0
 11
140.9900225156744
 21
315.6764516007147
 31
0.0
  0
LINE
  5
6C54
330
A
100
AcDbEntity
  8
MODEL
  6
Continuous
100
AcDbLine
 10
139.5202413590451
 20
315.5739912163458
 30
0.0
 11
138.835766764154
 21
315.6522297631941
 31
0.0
  0
LINE
  5
6C55
330
A
100
AcDbEntity
  8
MODEL
  6
Continuous
100
AcDbLine
 10
138.835766764154
 20
315.6522297631941
 30
0.0
 11
138.2954236509104
 21
315.4886075627051
 31
0.0
  0
LINE
  5
6C56
330
A
100
AcDbEntity
  8
MODEL
  6
Continuous
100
AcDbLine
 10
138.2954236509104
 20
315.4886075627051
 30
0.0
 11
138.4395555982192
 21
315.2467468153677
 31
0.0
  0
LINE
  5
6C57
330
A
100
AcDbEntity
  8
MODEL
  6
Continuous
100
AcDbLine
 10
138.4395555982192
 20
315.2467468153677
 30
0.0
 11
139.1240301931103
 21
315.1685082685194
 31
0.0
  0
LINE
  5
6C58
330
A
100
AcDbEntity
  8
MODEL
  6
Continuous
100
AcDbLine
 10
139.1240301931103
 20
315.1685082685194
 30
0.0
 11
139.6643730735232
 21
315.3321304690085
 31
0.0
  0
LINE
  5
6C59
330
A
100
AcDbEntity
  8
MODEL
  6
Continuous
100
AcDbLine
 10
139.6643730735232
 20
315.3321304690085
 30
0.0
 11
139.5202413590451
 21
315.5739912163458
 31
0.0
  0
LINE
  5
6C5A
330
A
100
AcDbEntity
  8
MODEL
  6
Continuous
100
AcDbLine
 10
144.4484590941866
 20
315.0106751691542
 30
0.0
 11
143.7639844410879
 21
315.0889137160025
 31
0.0
  0
LINE
  5
6C5B
330
A
100
AcDbEntity
  8
MODEL
  6
Continuous
100
AcDbLine
 10
143.7639844410879
 20
315.0889137160025
 30
0.0
 11
143.2236415752268
 21
314.9252915155134
 31
0.0
  0
LINE
  5
6C5C
330
A
100
AcDbEntity
  8
MODEL
  6
Continuous
100
AcDbLine
 10
143.2236415752268
 20
314.9252915155134
 30
0.0
 11
143.3677733952064
 21
314.6834382187567
 31
0.0
  0
LINE
  5
6C5D
330
A
100
AcDbEntity
  8
MODEL
  6
Continuous
100
AcDbLine
 10
143.3677733952064
 20
314.6834382187567
 30
0.0
 11
144.0522481028748
 21
314.6051996719084
 31
0.0
  0
LINE
  5
6C5E
330
A
100
AcDbEntity
  8
MODEL
  6
Continuous
100
AcDbLine
 10
144.0522481028748
 20
314.6051996719084
 30
0.0
 11
144.5925909250801
 21
314.7688218723974
 31
0.0
  0
LINE
  5
6C5F
330
A
100
AcDbEntity
  8
MODEL
  6
Continuous
100
AcDbLine
 10
144.5925909250801
 20
314.7688218723974
 30
0.0
 11
144.4484590941866
 21
315.0106751691542
 31
0.0
  0
LINE
  5
6C60
330
A
100
AcDbEntity
  8
MODEL
  6
Continuous
100
AcDbLine
 10
145.9182402508159
 20
315.1131355535231
 30
0.0
 11
145.2337655395095
 21
315.1913741003714
 31
0.0
  0
LINE
  5
6C61
330
A
100
AcDbEntity
  8
MODEL
  6
Continuous
100
AcDbLine
 10
145.2337655395095
 20
315.1913741003714
 30
0.0
 11
144.6934226590966
 21
315.0277518998823
 31
0.0
  0
LINE
  5
6C62
330
A
100
AcDbEntity
  8
MODEL
  6
Continuous
100
AcDbLine
 10
144.6934226590966
 20
315.0277518998823
 30
0.0
 11
144.8375544899901
 21
314.7858986031256
 31
0.0
  0
LINE
  5
6C63
330
A
100
AcDbEntity
  8
MODEL
  6
Continuous
100
AcDbLine
 10
144.8375544899901
 20
314.7858986031256
 30
0.0
 11
145.5220290848811
 21
314.7076600562773
 31
0.0
  0
LINE
  5
6C64
330
A
100
AcDbEntity
  8
MODEL
  6
Continuous
100
AcDbLine
 10
145.5220290848811
 20
314.7076600562773
 30
0.0
 11
146.0623719652941
 21
314.8712748061857
 31
0.0
  0
LINE
  5
6C65
330
A
100
AcDbEntity
  8
MODEL
  6
Continuous
100
AcDbLine
 10
146.0623719652941
 20
314.8712748061857
 30
0.0
 11
145.9182402508159
 21
315.1131355535231
 31
0.0
  0
LINE
  5
6C66
330
A
100
AcDbEntity
  8
MODEL
  6
Continuous
100
AcDbLine
 10
146.9125679617574
 20
314.7290208708487
 30
0.0
 11
146.2280933668663
 21
314.807259417697
 31
0.0
  0
LINE
  5
6C67
330
A
100
AcDbEntity
  8
MODEL
  6
Continuous
100
AcDbLine
 10
146.2280933668663
 20
314.807259417697
 30
0.0
 11
145.6877504864534
 21
314.6436372172079
 31
0.0
  0
LINE
  5
6C68
330
A
100
AcDbEntity
  8
MODEL
  6
Continuous
100
AcDbLine
 10
145.6877504864534
 20
314.6436372172079
 30
0.0
 11
145.8318822009315
 21
314.4017764698706
 31
0.0
  0
LINE
  5
6C69
330
A
100
AcDbEntity
  8
MODEL
  6
Continuous
100
AcDbLine
 10
145.8318822009315
 20
314.4017764698706
 30
0.0
 11
146.5163570286532
 21
314.3235379230223
 31
0.0
  0
LINE
  5
6C6A
330
A
100
AcDbEntity
  8
MODEL
  6
Continuous
100
AcDbLine
 10
146.5163570286532
 20
314.3235379230223
 30
0.0
 11
147.0566999090661
 21
314.4871601235113
 31
0.0
  0
LINE
  5
6C6B
330
A
100
AcDbEntity
  8
MODEL
  6
Continuous
100
AcDbLine
 10
147.0566999090661
 20
314.4871601235113
 30
0.0
 11
146.9125679617574
 21
314.7290208708487
 31
0.0
  0
LINE
  5
6C6C
330
A
100
AcDbEntity
  8
MODEL
  6
Continuous
100
AcDbLine
 10
142.9786780539726
 20
314.9082147847853
 30
0.0
 11
142.2942033426662
 21
314.9864533316336
 31
0.0
  0
LINE
  5
6C6D
330
A
100
AcDbEntity
  8
MODEL
  6
Continuous
100
AcDbLine
 10
142.2942033426662
 20
314.9864533316336
 30
0.0
 11
141.7538604622533
 21
314.8228311311445
 31
0.0
  0
LINE
  5
6C6E
330
A
100
AcDbEntity
  8
MODEL
  6
Continuous
100
AcDbLine
 10
141.7538604622533
 20
314.8228311311445
 30
0.0
 11
141.8979922931467
 21
314.5809778343878
 31
0.0
  0
LINE
  5
6C6F
330
A
100
AcDbEntity
  8
MODEL
  6
Continuous
100
AcDbLine
 10
141.8979922931467
 20
314.5809778343878
 30
0.0
 11
142.5824670044531
 21
314.5027392875395
 31
0.0
  0
LINE
  5
6C70
330
A
100
AcDbEntity
  8
MODEL
  6
Continuous
100
AcDbLine
 10
142.5824670044531
 20
314.5027392875395
 30
0.0
 11
143.1228098848661
 21
314.6663614880285
 31
0.0
  0
LINE
  5
6C71
330
A
100
AcDbEntity
  8
MODEL
  6
Continuous
100
AcDbLine
 10
143.1228098848661
 20
314.6663614880285
 30
0.0
 11
142.9786780539726
 21
314.9082147847853
 31
0.0
  0
LINE
  5
6C72
330
A
100
AcDbEntity
  8
MODEL
  6
Continuous
100
AcDbLine
 10
141.5088970137586
 20
314.8057544004164
 30
0.0
 11
140.8244221860369
 21
314.8839929472647
 31
0.0
  0
LINE
  5
6C73
330
A
100
AcDbEntity
  8
MODEL
  6
Continuous
100
AcDbLine
 10
140.8244221860369
 20
314.8839929472647
 30
0.0
 11
140.2840795384546
 21
314.7203781973562
 31
0.0
  0
LINE
  5
6C74
330
A
100
AcDbEntity
  8
MODEL
  6
Continuous
100
AcDbLine
 10
140.2840795384546
 20
314.7203781973562
 30
0.0
 11
140.4282112529327
 21
314.4785174500189
 31
0.0
  0
LINE
  5
6C75
330
A
100
AcDbEntity
  8
MODEL
  6
Continuous
100
AcDbLine
 10
140.4282112529327
 20
314.4785174500189
 30
0.0
 11
141.1126858478238
 21
314.4002789031706
 31
0.0
  0
LINE
  5
6C76
330
A
100
AcDbEntity
  8
MODEL
  6
Continuous
100
AcDbLine
 10
141.1126858478238
 20
314.4002789031706
 30
0.0
 11
141.6530288446521
 21
314.5639011036596
 31
0.0
  0
LINE
  5
6C77
330
A
100
AcDbEntity
  8
MODEL
  6
Continuous
100
AcDbLine
 10
141.6530288446521
 20
314.5639011036596
 30
0.0
 11
141.5088970137586
 21
314.8057544004164
 31
0.0
  0
LINE
  5
6C78
330
A
100
AcDbEntity
  8
MODEL
  6
Continuous
100
AcDbLine
 10
140.5145690699865
 20
315.1898765336714
 30
0.0
 11
139.8300944750954
 21
315.2681150805197
 31
0.0
  0
LINE
  5
6C79
330
A
100
AcDbEntity
  8
MODEL
  6
Continuous
100
AcDbLine
 10
139.8300944750954
 20
315.2681150805197
 30
0.0
 11
139.2897515946825
 21
315.1044928800306
 31
0.0
  0
LINE
  5
6C7A
330
A
100
AcDbEntity
  8
MODEL
  6
Continuous
100
AcDbLine
 10
139.2897515946825
 20
315.1044928800306
 30
0.0
 11
139.4338835419913
 21
314.8626321326933
 31
0.0
  0
LINE
  5
6C7B
330
A
100
AcDbEntity
  8
MODEL
  6
Continuous
100
AcDbLine
 10
139.4338835419913
 20
314.8626321326933
 30
0.0
 11
140.1183581368824
 21
314.784393585845
 31
0.0
  0
LINE
  5
6C7C
330
A
100
AcDbEntity
  8
MODEL
  6
Continuous
100
AcDbLine
 10
140.1183581368824
 20
314.784393585845
 30
0.0
 11
140.6587010172953
 21
314.9480157863341
 31
0.0
  0
LINE
  5
6C7D
330
A
100
AcDbEntity
  8
MODEL
  6
Continuous
100
AcDbLine
 10
140.6587010172953
 20
314.9480157863341
 30
0.0
 11
140.5145690699865
 21
315.1898765336714
 31
0.0
  0
LINE
  5
6C7E
330
A
100
AcDbEntity
  8
MODEL
  6
Continuous
100
AcDbLine
 10
145.4427870379587
 20
314.6265604864798
 30
0.0
 11
144.758312210237
 21
314.7047990333281
 31
0.0
  0
LINE
  5
6C7F
330
A
100
AcDbEntity
  8
MODEL
  6
Continuous
100
AcDbLine
 10
144.758312210237
 20
314.7047990333281
 30
0.0
 11
144.2179693880317
 21
314.541176832839
 31
0.0
  0
LINE
  5
6C80
330
A
100
AcDbEntity
  8
MODEL
  6
Continuous
100
AcDbLine
 10
144.2179693880317
 20
314.541176832839
 30
0.0
 11
144.3621012189251
 21
314.2993160855017
 31
0.0
  0
LINE
  5
6C81
330
A
100
AcDbEntity
  8
MODEL
  6
Continuous
100
AcDbLine
 10
144.3621012189251
 20
314.2993160855017
 30
0.0
 11
145.0465758720239
 21
314.2210775386534
 31
0.0
  0
LINE
  5
6C82
330
A
100
AcDbEntity
  8
MODEL
  6
Continuous
100
AcDbLine
 10
145.0465758720239
 20
314.2210775386534
 30
0.0
 11
145.5869187524368
 21
314.3846997391424
 31
0.0
  0
LINE
  5
6C83
330
A
100
AcDbEntity
  8
MODEL
  6
Continuous
100
AcDbLine
 10
145.5869187524368
 20
314.3846997391424
 30
0.0
 11
145.4427870379587
 21
314.6265604864798
 31
0.0
  0
LINE
  5
6C84
330
A
100
AcDbEntity
  8
MODEL
  6
Continuous
100
AcDbLine
 10
142.5032247829077
 20
314.421639717742
 30
0.0
 11
141.818750129809
 21
314.4998782645903
 31
0.0
  0
LINE
  5
6C85
330
A
100
AcDbEntity
  8
MODEL
  6
Continuous
100
AcDbLine
 10
141.818750129809
 20
314.4998782645903
 30
0.0
 11
141.278407249396
 21
314.3362560641012
 31
0.0
  0
LINE
  5
6C86
330
A
100
AcDbEntity
  8
MODEL
  6
Continuous
100
AcDbLine
 10
141.278407249396
 20
314.3362560641012
 30
0.0
 11
141.4225389638742
 21
314.0944027673445
 31
0.0
  0
LINE
  5
6C87
330
A
100
AcDbEntity
  8
MODEL
  6
Continuous
100
AcDbLine
 10
141.4225389638742
 20
314.0944027673445
 30
0.0
 11
142.1070137915959
 21
314.0161642204962
 31
0.0
  0
LINE
  5
6C88
330
A
100
AcDbEntity
  8
MODEL
  6
Continuous
100
AcDbLine
 10
142.1070137915959
 20
314.0161642204962
 30
0.0
 11
142.6473566138012
 21
314.1797789704046
 31
0.0
  0
LINE
  5
6C89
330
A
100
AcDbEntity
  8
MODEL
  6
Continuous
100
AcDbLine
 10
142.6473566138012
 20
314.1797789704046
 30
0.0
 11
142.5032247829077
 21
314.421639717742
 31
0.0
  0
LINE
  5
6C8A
330
A
100
AcDbEntity
  8
MODEL
  6
Continuous
100
AcDbLine
 10
140.0391158571293
 20
314.7033014666281
 30
0.0
 11
139.3546410294076
 21
314.7815325628958
 31
0.0
  0
LINE
  5
6C8B
330
A
100
AcDbEntity
  8
MODEL
  6
Continuous
100
AcDbLine
 10
139.3546410294076
 20
314.7815325628958
 30
0.0
 11
138.8142983818253
 21
314.6179178129873
 31
0.0
  0
LINE
  5
6C8C
330
A
100
AcDbEntity
  8
MODEL
  6
Continuous
100
AcDbLine
 10
138.8142983818253
 20
314.6179178129873
 30
0.0
 11
138.958430329134
 21
314.37605706565
 31
0.0
  0
LINE
  5
6C8D
330
A
100
AcDbEntity
  8
MODEL
  6
Continuous
100
AcDbLine
 10
138.958430329134
 20
314.37605706565
 30
0.0
 11
139.6429049240251
 21
314.2978185188017
 31
0.0
  0
LINE
  5
6C8E
330
A
100
AcDbEntity
  8
MODEL
  6
Continuous
100
AcDbLine
 10
139.6429049240251
 20
314.2978185188017
 30
0.0
 11
140.1832478044381
 21
314.4614407192907
 31
0.0
  0
LINE
  5
6C8F
330
A
100
AcDbEntity
  8
MODEL
  6
Continuous
100
AcDbLine
 10
140.1832478044381
 20
314.4614407192907
 30
0.0
 11
140.0391158571293
 21
314.7033014666281
 31
0.0
  0
LINE
  5
6C90
330
A
100
AcDbEntity
  8
MODEL
  6
Continuous
100
AcDbLine
 10
144.9673337086861
 20
314.1399854194365
 30
0.0
 11
144.2828589973797
 21
314.2182239662848
 31
0.0
  0
LINE
  5
6C91
330
A
100
AcDbEntity
  8
MODEL
  6
Continuous
100
AcDbLine
 10
144.2828589973797
 20
314.2182239662848
 30
0.0
 11
143.7425161169668
 21
314.0546017657957
 31
0.0
  0
LINE
  5
6C92
330
A
100
AcDbEntity
  8
MODEL
  6
Continuous
100
AcDbLine
 10
143.7425161169668
 20
314.0546017657957
 30
0.0
 11
143.8866479478602
 21
313.8127410184584
 31
0.0
  0
LINE
  5
6C93
330
A
100
AcDbEntity
  8
MODEL
  6
Continuous
100
AcDbLine
 10
143.8866479478602
 20
313.8127410184584
 30
0.0
 11
144.5711226591666
 21
313.7345024716101
 31
0.0
  0
LINE
  5
6C94
330
A
100
AcDbEntity
  8
MODEL
  6
Continuous
100
AcDbLine
 10
144.5711226591666
 20
313.7345024716101
 30
0.0
 11
145.1114655395796
 21
313.8981246720991
 31
0.0
  0
LINE
  5
6C95
330
A
100
AcDbEntity
  8
MODEL
  6
Continuous
100
AcDbLine
 10
145.1114655395796
 20
313.8981246720991
 30
0.0
 11
144.9673337086861
 21
314.1399854194365
 31
0.0
  0
LINE
  5
6C96
330
A
100
AcDbEntity
  8
MODEL
  6
Continuous
100
AcDbLine
 10
136.7501899989148
 20
315.5369245778761
 30
0.0
 11
135.8017539063295
 21
315.6453379761419
 31
0.0
  0
LINE
  5
6C97
330
A
100
AcDbEntity
  8
MODEL
  6
Continuous
100
AcDbLine
 10
137.3957194777032
 20
316.5903696190558
 30
0.0
 11
138.1449098156591
 21
316.3638272654257
 31
0.0
  0
LINE
  5
6C98
330
A
100
AcDbEntity
  8
MODEL
  6
Continuous
100
AcDbLine
 10
144.2752586484713
 20
317.2775292169295
 30
0.0
 11
144.2752586484713
 21
317.0138606201849
 31
0.0
  0
LINE
  5
6C99
330
A
100
AcDbEntity
  8
MODEL
  6
Continuous
100
AcDbLine
 10
142.8054775500496
 20
317.1638557087622
 30
0.0
 11
142.8054775500496
 21
316.911400235816
 31
0.0
  0
LINE
  5
6C9A
330
A
100
AcDbEntity
  8
MODEL
  6
Continuous
100
AcDbLine
 10
149.6526756712993
 20
315.8470773469649
 30
0.0
 11
150.5474522167643
 21
315.99979189746
 31
0.0
  0
LINE
  5
6C9B
330
A
100
AcDbEntity
  8
MODEL
  6
Continuous
100
AcDbLine
 10
151.3741462880571
 20
314.9460637342177
 30
0.0
 11
150.3760334493418
 21
314.9250605475149
 31
0.0
  0
LINE
  5
6C9C
330
A
100
AcDbEntity
  8
MODEL
  6
Continuous
100
AcDbLine
 10
144.95973330157
 20
317.2284820448599
 30
0.0
 11
144.95973330157
 21
316.9356220733366
 31
0.0
  0
LINE
  5
6C9D
330
A
100
AcDbEntity
  8
MODEL
  6
Continuous
100
AcDbLine
 10
141.3356963934203
 20
317.0668565999708
 30
0.0
 11
141.3356963934203
 21
316.8089398514471
 31
0.0
  0
LINE
  5
6C9E
330
A
100
AcDbEntity
  8
MODEL
  6
Continuous
100
AcDbLine
 10
143.4899522468041
 20
317.2839292656622
 30
0.0
 11
143.4899522468041
 21
316.8331616889677
 31
0.0
  0
LINE
  5
6C9F
330
A
100
AcDbEntity
  8
MODEL
  6
Continuous
100
AcDbLine
 10
146.7393675742497
 20
316.8802046548567
 30
0.0
 11
146.7393675742497
 21
316.7321988712988
 31
0.0
  0
LINE
  5
6CA0
330
A
100
AcDbEntity
  8
MODEL
  6
Continuous
100
AcDbLine
 10
139.8659154696216
 20
316.908941544219
 30
0.0
 11
139.8659154696216
 21
316.7064794670782
 31
0.0
  0
LINE
  5
6CA1
330
A
100
AcDbEntity
  8
MODEL
  6
Continuous
100
AcDbLine
 10
142.020171221142
 20
317.1259620558462
 30
0.0
 11
142.020171221142
 21
316.7307013045988
 31
0.0
  0
LINE
  5
6CA2
330
A
100
AcDbEntity
  8
MODEL
  6
Continuous
100
AcDbLine
 10
145.2695864176204
 20
316.915244735404
 30
0.0
 11
145.2695864176204
 21
316.6297384869299
 31
0.0
  0
LINE
  5
6CA3
330
A
100
AcDbEntity
  8
MODEL
  6
Continuous
100
AcDbLine
 10
147.4238424019714
 20
316.7345160018644
 30
0.0
 11
147.4238424019714
 21
316.6539603244505
 31
0.0
  0
LINE
  5
6CA4
330
A
100
AcDbEntity
  8
MODEL
  6
Continuous
100
AcDbLine
 10
140.5503900645127
 20
316.9664749275885
 30
0.0
 11
140.5503900645127
 21
316.6282409202299
 31
0.0
  0
LINE
  5
6CA5
330
A
100
AcDbEntity
  8
MODEL
  6
Continuous
100
AcDbLine
 10
143.7998053774064
 20
316.8127843510351
 30
0.0
 11
143.7998053774064
 21
316.527278102561
 31
0.0
  0
LINE
  5
6CA6
330
A
100
AcDbEntity
  8
MODEL
  6
Continuous
100
AcDbLine
 10
145.9540612453421
 20
317.0022675167761
 30
0.0
 11
145.9540612453421
 21
316.5514999400816
 31
0.0
  0
LINE
  5
6CA7
330
A
100
AcDbEntity
  8
MODEL
  6
Continuous
100
AcDbLine
 10
139.080609140714
 20
316.6760438453398
 30
0.0
 11
139.080609140714
 21
316.525780535861
 31
0.0
  0
LINE
  5
6CA8
330
A
100
AcDbEntity
  8
MODEL
  6
Continuous
100
AcDbLine
 10
142.3300243371924
 20
316.7103239666662
 30
0.0
 11
142.3300243371924
 21
316.4248177181921
 31
0.0
  0
LINE
  5
6CA9
330
A
100
AcDbEntity
  8
MODEL
  6
Continuous
100
AcDbLine
 10
144.4842800887128
 20
316.8998145829878
 30
0.0
 11
144.4842800887128
 21
316.4490395557127
 31
0.0
  0
LINE
  5
6CAA
330
A
100
AcDbEntity
  8
MODEL
  6
Continuous
100
AcDbLine
 10
147.7336952851911
 20
316.6335904370985
 30
0.0
 11
147.7336952851911
 21
316.3480841886244
 31
0.0
  0
LINE
  5
6CAB
330
A
100
AcDbEntity
  8
MODEL
  6
Continuous
100
AcDbLine
 10
135.4043371433218
 20
315.5497470270834
 30
0.0
 11
136.4024499820371
 21
315.5707427632055
 31
0.0
  0
LINE
  5
6CAC
330
A
100
AcDbEntity
  8
MODEL
  6
Continuous
100
AcDbLine
 10
140.860243180563
 20
316.6078635822973
 30
0.0
 11
140.860243180563
 21
316.3223647844038
 31
0.0
  0
LINE
  5
6CAD
330
A
100
AcDbEntity
  8
MODEL
  6
Continuous
100
AcDbLine
 10
143.0144989902911
 20
316.7973541986189
 30
0.0
 11
143.0144989902911
 21
316.3465791713438
 31
0.0
  0
LINE
  5
6CAE
330
A
100
AcDbEntity
  8
MODEL
  6
Continuous
100
AcDbLine
 10
148.4181698800822
 20
316.3671949278555
 30
0.0
 11
148.4181698800822
 21
316.2698456417761
 31
0.0
  0
LINE
  5
6CAF
330
A
100
AcDbEntity
  8
MODEL
  6
Continuous
100
AcDbLine
 10
141.5447178918694
 20
316.69489381425
 30
0.0
 11
141.5447178918694
 21
316.2441262375555
 31
0.0
  0
LINE
  5
6CB0
330
A
100
AcDbEntity
  8
MODEL
  6
Continuous
100
AcDbLine
 10
144.7941332047631
 20
316.4286696683607
 30
0.0
 11
144.7941332047631
 21
316.1431634198866
 31
0.0
  0
LINE
  5
6CB1
330
A
100
AcDbEntity
  8
MODEL
  6
Continuous
100
AcDbLine
 10
143.3243521063415
 20
316.3262092839918
 30
0.0
 11
143.3243521063415
 21
316.0407030355177
 31
0.0
  0
LINE
  5
6CB2
330
A
100
AcDbEntity
  8
MODEL
  6
Continuous
100
AcDbLine
 10
145.4786077996542
 20
316.5156924497328
 30
0.0
 11
145.4786077996542
 21
316.0649248730383
 31
0.0
  0
LINE
  5
6CB3
330
A
100
AcDbEntity
  8
MODEL
  6
Continuous
100
AcDbLine
 10
138.6051559278567
 20
316.4863967668257
 30
0.0
 11
138.6051559278567
 21
316.0392054688177
 31
0.0
  0
LINE
  5
6CB4
330
A
100
AcDbEntity
  8
MODEL
  6
Continuous
100
AcDbLine
 10
148.7280232289632
 20
316.1844023834906
 30
0.0
 11
148.7280232289632
 21
315.96396950595
 31
0.0
  0
LINE
  5
6CB5
330
A
100
AcDbEntity
  8
MODEL
  6
Continuous
100
AcDbLine
 10
141.8545710079198
 20
316.2237488996229
 30
0.0
 11
141.8545710079198
 21
315.9382426511488
 31
0.0
  0
LINE
  5
6CB6
330
A
100
AcDbEntity
  8
MODEL
  6
Continuous
100
AcDbLine
 10
144.0088268176478
 20
316.4132320653639
 30
0.0
 11
144.0088268176478
 21
315.9624644886694
 31
0.0
  0
LINE
  5
6CB7
330
A
100
AcDbEntity
  8
MODEL
  6
Continuous
100
AcDbLine
 10
147.2582420723339
 20
316.1470079194746
 30
0.0
 11
147.2582420723339
 21
315.8615091215811
 31
0.0
  0
LINE
  5
6CB8
330
A
100
AcDbEntity
  8
MODEL
  6
Continuous
100
AcDbLine
 10
140.3847899677058
 20
316.121288515254
 30
0.0
 11
140.3847899677058
 21
315.8357822667799
 31
0.0
  0
LINE
  5
6CB9
330
A
100
AcDbEntity
  8
MODEL
  6
Continuous
100
AcDbLine
 10
142.5390457192262
 20
316.310771680995
 30
0.0
 11
142.5390457192262
 21
315.8600041043005
 31
0.0
  0
LINE
  5
6CBA
330
A
100
AcDbEntity
  8
MODEL
  6
Continuous
100
AcDbLine
 10
145.7884609157045
 20
316.0445549856863
 30
0.0
 11
145.7884609157045
 21
315.7590487372122
 31
0.0
  0
LINE
  5
6CBB
330
A
100
AcDbEntity
  8
MODEL
  6
Continuous
100
AcDbLine
 10
150.0282934324642
 20
314.9588787328444
 30
0.0
 11
150.9767295250495
 21
314.8504727851591
 31
0.0
  0
LINE
  5
6CBC
330
A
100
AcDbEntity
  8
MODEL
  6
Continuous
100
AcDbLine
 10
147.9427166672249
 20
316.2340381514273
 30
0.0
 11
147.9427166672249
 21
315.7832705747328
 31
0.0
  0
LINE
  5
6CBD
330
A
100
AcDbEntity
  8
MODEL
  6
Continuous
100
AcDbLine
 10
138.9150088110765
 20
316.0188281308851
 30
0.0
 11
138.9150088110765
 21
315.733321882411
 31
0.0
  0
LINE
  5
6CBE
330
A
100
AcDbEntity
  8
MODEL
  6
Continuous
100
AcDbLine
 10
141.0692645625969
 20
316.2083187472067
 30
0.0
 11
141.0692645625969
 21
315.7575437199316
 31
0.0
  0
LINE
  5
6CBF
330
A
100
AcDbEntity
  8
MODEL
  6
Continuous
100
AcDbLine
 10
144.3186799336982
 20
315.9420946013174
 30
0.0
 11
144.3186799336982
 21
315.6565883528433
 31
0.0
  0
LINE
  5
6CC0
330
A
100
AcDbEntity
  8
MODEL
  6
Continuous
100
AcDbLine
 10
146.4729357434263
 20
316.1315777670584
 30
0.0
 11
146.4729357434263
 21
315.6808101903639
 31
0.0
  0
LINE
  5
6CC1
330
A
100
AcDbEntity
  8
MODEL
  6
Continuous
100
AcDbLine
 10
139.5994836387982
 20
316.1058583628378
 30
0.0
 11
139.5994836387982
 21
315.6550833355627
 31
0.0
  0
LINE
  5
6CC2
330
A
100
AcDbEntity
  8
MODEL
  6
Continuous
100
AcDbLine
 10
135.4043371433218
 20
314.610049999877
 30
0.0
 11
136.4024499820371
 21
314.6310531865797
 31
0.0
  0
LINE
  5
6CC3
330
A
100
AcDbEntity
  8
MODEL
  6
Continuous
100
AcDbLine
 10
137.1258077600797
 20
313.7090363871298
 30
0.0
 11
136.2310312146147
 21
313.5563218366347
 31
0.0
  0
LINE
  5
6CC4
330
A
100
AcDbEntity
  8
MODEL
  6
Continuous
100
AcDbLine
 10
145.0031545867969
 20
316.0291173826895
 30
0.0
 11
145.0031545867969
 21
315.578349805995
 31
0.0
  0
LINE
  5
6CC5
330
A
100
AcDbEntity
  8
MODEL
  6
Continuous
100
AcDbLine
 10
138.1297027149995
 20
316.0033979784689
 30
0.0
 11
138.1297027149995
 21
315.5526304017744
 31
0.0
  0
LINE
  5
6CC6
330
A
100
AcDbEntity
  8
MODEL
  6
Continuous
100
AcDbLine
 10
148.2525700161059
 20
315.7628932368002
 30
0.0
 11
148.2525700161059
 21
315.4773944389067
 31
0.0
  0
LINE
  5
6CC7
330
A
100
AcDbEntity
  8
MODEL
  6
Continuous
100
AcDbLine
 10
141.3791176786472
 20
315.7371738325796
 30
0.0
 11
141.3791176786472
 21
315.4516675841055
 31
0.0
  0
LINE
  5
6CC8
330
A
100
AcDbEntity
  8
MODEL
  6
Continuous
100
AcDbLine
 10
146.7827888594766
 20
315.6604328524313
 30
0.0
 11
146.7827888594766
 21
315.3749340545378
 31
0.0
  0
LINE
  5
6CC9
330
A
100
AcDbEntity
  8
MODEL
  6
Continuous
100
AcDbLine
 10
139.9093367548485
 20
315.6347134482107
 30
0.0
 11
139.9093367548485
 21
315.3492071997366
 31
0.0
  0
LINE
  5
6CCA
330
A
100
AcDbEntity
  8
MODEL
  6
Continuous
100
AcDbLine
 10
142.0635925063689
 20
315.8241966139517
 30
0.0
 11
142.0635925063689
 21
315.3734290372572
 31
0.0
  0
LINE
  5
6CCB
330
A
100
AcDbEntity
  8
MODEL
  6
Continuous
100
AcDbLine
 10
148.937044610997
 20
315.8499234687529
 30
0.0
 11
148.937044610997
 21
315.3991558920584
 31
0.0
  0
LINE
  5
6CCC
330
A
100
AcDbEntity
  8
MODEL
  6
Continuous
100
AcDbLine
 10
145.3130077028473
 20
315.5579724680624
 30
0.0
 11
145.3130077028473
 21
315.2724736701689
 31
0.0
  0
LINE
  5
6CCD
330
A
100
AcDbEntity
  8
MODEL
  6
Continuous
100
AcDbLine
 10
147.4672634543677
 20
315.747463084384
 30
0.0
 11
147.4672634543677
 21
315.2966955076895
 31
0.0
  0
LINE
  5
6CCE
330
A
100
AcDbEntity
  8
MODEL
  6
Continuous
100
AcDbLine
 10
138.4395555982192
 20
315.5322530638418
 30
0.0
 11
138.4395555982192
 21
315.2467468153677
 31
0.0
  0
LINE
  5
6CCF
330
A
100
AcDbEntity
  8
MODEL
  6
Continuous
100
AcDbLine
 10
140.5938113497396
 20
315.7217362295828
 30
0.0
 11
140.5938113497396
 21
315.2709686528883
 31
0.0
  0
LINE
  5
6CD0
330
A
100
AcDbEntity
  8
MODEL
  6
Continuous
100
AcDbLine
 10
143.8432266626333
 20
315.4555120836935
 30
0.0
 11
143.8432266626333
 21
315.1700132858
 31
0.0
  0
LINE
  5
6CD1
330
A
100
AcDbEntity
  8
MODEL
  6
Continuous
100
AcDbLine
 10
145.997482530569
 20
315.6450027000151
 30
0.0
 11
145.997482530569
 21
315.1942351233206
 31
0.0
  0
LINE
  5
6CD2
330
A
100
AcDbEntity
  8
MODEL
  6
Continuous
100
AcDbLine
 10
139.1240301931103
 20
315.6192758452139
 30
0.0
 11
139.1240301931103
 21
315.1685082685194
 31
0.0
  0
LINE
  5
6CD3
330
A
100
AcDbEntity
  8
MODEL
  6
Continuous
100
AcDbLine
 10
142.3734456224193
 20
315.3530516993246
 30
0.0
 11
142.3734456224193
 21
315.0675529014311
 31
0.0
  0
LINE
  5
6CD4
330
A
100
AcDbEntity
  8
MODEL
  6
Continuous
100
AcDbLine
 10
144.5277013739397
 20
315.5425423156462
 30
0.0
 11
144.5277013739397
 21
315.0917747389517
 31
0.0
  0
LINE
  5
6CD5
330
A
100
AcDbEntity
  8
MODEL
  6
Continuous
100
AcDbLine
 10
147.7771168032487
 20
315.2763181697569
 30
0.0
 11
147.7771168032487
 21
314.9908119212828
 31
0.0
  0
LINE
  5
6CD6
330
A
100
AcDbEntity
  8
MODEL
  6
Continuous
100
AcDbLine
 10
140.90366446579
 20
315.2505987655363
 30
0.0
 11
140.90366446579
 21
314.9650925170622
 31
0.0
  0
LINE
  5
6CD7
330
A
100
AcDbEntity
  8
MODEL
  6
Continuous
100
AcDbLine
 10
143.057920275518
 20
315.4400819312773
 30
0.0
 11
143.057920275518
 21
314.9893143545828
 31
0.0
  0
LINE
  5
6CD8
330
A
100
AcDbEntity
  8
MODEL
  6
Continuous
100
AcDbLine
 10
150.0282934324642
 20
314.0191891562185
 30
0.0
 11
150.9767295250495
 21
313.9107757579527
 31
0.0
  0
LINE
  5
6CD9
330
A
100
AcDbEntity
  8
MODEL
  6
Continuous
100
AcDbLine
 10
149.3827639536758
 20
312.9657441150389
 30
0.0
 11
148.6335736157199
 21
313.192286468669
 31
0.0
  0
LINE
  5
6CDA
330
A
100
AcDbEntity
  8
MODEL
  6
Continuous
100
AcDbLine
 10
146.3073356466194
 20
315.173857785388
 30
0.0
 11
146.3073356466194
 21
314.8883515369139
 31
0.0
  0
LINE
  5
6CDB
330
A
100
AcDbEntity
  8
MODEL
  6
Continuous
100
AcDbLine
 10
148.4615913981398
 20
315.3633484017096
 30
0.0
 11
148.4615913981398
 21
314.9125733744345
 31
0.0
  0
LINE
  5
6CDC
330
A
100
AcDbEntity
  8
MODEL
  6
Continuous
100
AcDbLine
 10
139.4338835419913
 20
315.1481383811674
 30
0.0
 11
139.4338835419913
 21
314.8626321326933
 31
0.0
  0
LINE
  5
6CDD
330
A
100
AcDbEntity
  8
MODEL
  6
Continuous
100
AcDbLine
 10
141.5881391770964
 20
315.3376215469084
 30
0.0
 11
141.5881391770964
 21
314.8868539702139
 31
0.0
  0
LINE
  5
6CDE
330
A
100
AcDbEntity
  8
MODEL
  6
Continuous
100
AcDbLine
 10
144.8375544899901
 20
315.0713974010191
 30
0.0
 11
144.8375544899901
 21
314.7858986031256
 31
0.0
  0
LINE
  5
6CDF
330
A
100
AcDbEntity
  8
MODEL
  6
Continuous
100
AcDbLine
 10
146.9918102415104
 20
315.2608880173407
 30
0.0
 11
146.9918102415104
 21
314.8101204406462
 31
0.0
  0
LINE
  5
6CE0
330
A
100
AcDbEntity
  8
MODEL
  6
Continuous
100
AcDbLine
 10
140.1183581368824
 20
315.2351611625395
 30
0.0
 11
140.1183581368824
 21
314.784393585845
 31
0.0
  0
LINE
  5
6CE1
330
A
100
AcDbEntity
  8
MODEL
  6
Continuous
100
AcDbLine
 10
143.3677733952064
 20
314.9689370166502
 30
0.0
 11
143.3677733952064
 21
314.6834382187567
 31
0.0
  0
LINE
  5
6CE2
330
A
100
AcDbEntity
  8
MODEL
  6
Continuous
100
AcDbLine
 10
145.5220290848811
 20
315.1584276329718
 30
0.0
 11
145.5220290848811
 21
314.7076600562773
 31
0.0
  0
LINE
  5
6CE3
330
A
100
AcDbEntity
  8
MODEL
  6
Continuous
100
AcDbLine
 10
138.648576980253
 20
315.1327007781706
 30
0.0
 11
138.648576980253
 21
314.6819332014761
 31
0.0
  0
LINE
  5
6CE4
330
A
100
AcDbEntity
  8
MODEL
  6
Continuous
100
AcDbLine
 10
141.8979922931467
 20
314.8664766322813
 30
0.0
 11
141.8979922931467
 21
314.5809778343878
 31
0.0
  0
LINE
  5
6CE5
330
A
100
AcDbEntity
  8
MODEL
  6
Continuous
100
AcDbLine
 10
144.0522481028748
 20
315.0559672486029
 30
0.0
 11
144.0522481028748
 21
314.6051996719084
 31
0.0
  0
LINE
  5
6CE6
330
A
100
AcDbEntity
  8
MODEL
  6
Continuous
100
AcDbLine
 10
147.3016631247302
 20
314.7897431027136
 30
0.0
 11
147.3016631247302
 21
314.5042368542395
 31
0.0
  0
LINE
  5
6CE7
330
A
100
AcDbEntity
  8
MODEL
  6
Continuous
100
AcDbLine
 10
138.0904032306572
 20
313.6678421270094
 30
0.0
 11
138.4446368941863
 21
313.8048806559286
 31
0.0
  0
LINE
  5
6CE8
330
A
100
AcDbEntity
  8
MODEL
  6
Continuous
100
AcDbLine
 10
140.4282112529327
 20
314.7640162479124
 30
0.0
 11
140.4282112529327
 21
314.4785174500189
 31
0.0
  0
LINE
  5
6CE9
330
A
100
AcDbEntity
  8
MODEL
  6
Continuous
100
AcDbLine
 10
142.5824670044531
 20
314.953506864234
 30
0.0
 11
142.5824670044531
 21
314.5027392875395
 31
0.0
  0
LINE
  5
6CEA
330
A
100
AcDbEntity
  8
MODEL
  6
Continuous
100
AcDbLine
 10
145.8318822009315
 20
314.6872827183447
 30
0.0
 11
145.8318822009315
 21
314.4017764698706
 31
0.0
  0
LINE
  5
6CEB
330
A
100
AcDbEntity
  8
MODEL
  6
Continuous
100
AcDbLine
 10
138.958430329134
 20
314.6615558635435
 30
0.0
 11
138.958430329134
 21
314.37605706565
 31
0.0
  0
LINE
  5
6CEC
330
A
100
AcDbEntity
  8
MODEL
  6
Continuous
100
AcDbLine
 10
141.1126858478238
 20
314.8510464798651
 30
0.0
 11
141.1126858478238
 21
314.4002789031706
 31
0.0
  0
LINE
  5
6CED
330
A
100
AcDbEntity
  8
MODEL
  6
Continuous
100
AcDbLine
 10
144.3621012189251
 20
314.5848223339758
 30
0.0
 11
144.3621012189251
 21
314.2993160855017
 31
0.0
  0
LINE
  5
6CEE
330
A
100
AcDbEntity
  8
MODEL
  6
Continuous
100
AcDbLine
 10
146.5163570286532
 20
314.7743054997168
 30
0.0
 11
146.5163570286532
 21
314.3235379230223
 31
0.0
  0
LINE
  5
6CEF
330
A
100
AcDbEntity
  8
MODEL
  6
Continuous
100
AcDbLine
 10
147.9861381852825
 20
314.8767658840857
 30
0.0
 11
147.9861381852825
 21
314.4259983073912
 31
0.0
  0
LINE
  5
6CF0
330
A
100
AcDbEntity
  8
MODEL
  6
Continuous
100
AcDbLine
 10
139.6429049240251
 20
314.7485860954962
 30
0.0
 11
139.6429049240251
 21
314.2978185188017
 31
0.0
  0
LINE
  5
6CF1
330
A
100
AcDbEntity
  8
MODEL
  6
Continuous
100
AcDbLine
 10
145.0465758720239
 20
314.6718525659285
 30
0.0
 11
145.0465758720239
 21
314.2210775386534
 31
0.0
  0
LINE
  5
6CF2
330
A
100
AcDbEntity
  8
MODEL
  6
Continuous
100
AcDbLine
 10
141.4225389638742
 20
314.379901565238
 30
0.0
 11
141.4225389638742
 21
314.0944027673445
 31
0.0
  0
LINE
  5
6CF3
330
A
100
AcDbEntity
  8
MODEL
  6
Continuous
100
AcDbLine
 10
146.8274858238001
 20
313.361250735446
 30
0.0
 11
146.9613590201189
 21
313.2694968353949
 31
0.0
  0
LINE
  5
6CF4
330
A
100
AcDbEntity
  8
MODEL
  6
Continuous
100
AcDbLine
 10
142.1070137915959
 20
314.4669317971907
 30
0.0
 11
142.1070137915959
 21
314.0161642204962
 31
0.0
  0
LINE
  5
6CF5
330
A
100
AcDbEntity
  8
MODEL
  6
Continuous
100
AcDbLine
 10
145.3564289880742
 20
314.2007076513014
 30
0.0
 11
145.3564289880742
 21
313.9152014028273
 31
0.0
  0
LINE
  5
6CF6
330
A
100
AcDbEntity
  8
MODEL
  6
Continuous
100
AcDbLine
 10
140.6372326349666
 20
314.3644714128218
 30
0.0
 11
140.6372326349666
 21
313.9137038361273
 31
0.0
  0
LINE
  5
6CF7
330
A
100
AcDbEntity
  8
MODEL
  6
Continuous
100
AcDbLine
 10
138.0904032306572
 20
312.7281525503836
 30
0.0
 11
138.7527579830785
 21
312.984392918273
 31
0.0
  0
LINE
  5
6CF8
330
A
100
AcDbEntity
  8
MODEL
  6
Continuous
100
AcDbLine
 10
141.1704597452481
 20
312.5073694955549
 30
0.0
 11
140.8534910918971
 21
312.1829861175261
 31
0.0
  0
LINE
  5
6CF9
330
A
100
AcDbEntity
  8
MODEL
  6
Continuous
100
AcDbLine
 10
143.8866479478602
 20
314.0982472669325
 30
0.0
 11
143.8866479478602
 21
313.8127410184584
 31
0.0
  0
LINE
  5
6CFA
330
A
100
AcDbEntity
  8
MODEL
  6
Continuous
100
AcDbLine
 10
146.514844560792
 20
312.6358324062071
 30
0.0
 11
146.9613590201189
 21
312.3298072587691
 31
0.0
  0
LINE
  5
6CFB
330
A
100
AcDbEntity
  8
MODEL
  6
Continuous
100
AcDbLine
 10
143.8804574467068
 20
312.0470577251158
 30
0.0
 11
143.8190554948815
 21
312.3884358774862
 31
0.0
  0
LINE
  5
6CFC
330
A
100
AcDbEntity
  8
MODEL
  6
Continuous
100
AcDbLine
 10
142.4168668494386
 20
313.9957868825636
 30
0.0
 11
142.4168668494386
 21
313.7102806340895
 31
0.0
  0
LINE
  5
6CFD
330
A
100
AcDbEntity
  8
MODEL
  6
Continuous
100
AcDbLine
 10
144.5711226591666
 20
314.1852700483046
 30
0.0
 11
144.5711226591666
 21
313.7345024716101
 31
0.0
  0
LWPOLYLINE
  5
6CFE
330
A
100
AcDbEntity
  8
MODEL
  6
Continuous
100
AcDbPolyline
 90
       49
 70
   128
 43
0.0
 10
151.6892415860494
 20
314.778053141757
 10
151.6182338276704
 20
314.4075208675108
 10
151.4064259284933
 20
314.0433290373526
 10
151.057441664656
 20
313.6917063366614
 10
150.5772526765068
 20
313.3586728345595
 10
149.9740746261378
 20
313.0499282252035
 10
149.2582279646595
 20
312.7707475196562
 10
148.4419614465733
 20
312.5259139906607
 10
147.5392416508694
 20
312.3196148645125
 10
146.5655140967866
 20
312.1553742658339
 10
145.5374396795233
 20
312.0360159646712
 10
144.4726091034536
 20
311.9635739695273
 10
143.3892417156895
 20
311.9392925273619
 10
142.3058743279253
 20
311.9635739695273
 10
141.2410437518557
 20
312.0360159646712
 10
140.2129693345924
 20
312.1553742658339
 10
139.2392417805095
 20
312.3196148645125
 10
138.3365219848056
 20
312.5259139906607
 10
137.5202554667194
 20
312.7707475196562
 10
136.8044088052412
 20
313.0499282252035
 10
136.2012307548721
 20
313.3586728345595
 10
135.721041766723
 20
313.6917063366614
 10
135.3720575028856
 20
314.0433290373526
 10
135.1602496037086
 20
314.4075208675108
 10
135.0892418453296
 20
314.778053141757
 10
135.1602496037086
 20
315.1485928665838
 10
135.3720575028856
 20
315.5127846967421
 10
135.721041766723
 20
315.8644073974333
 10
136.2012307548721
 20
316.1974408995352
 10
136.8044088052412
 20
316.5061855088911
 10
137.5202554667194
 20
316.7853662144385
 10
138.3365219848056
 20
317.030199743434
 10
139.2392417805095
 20
317.2364988695822
 10
140.2129693345924
 20
317.4007320176802
 10
141.2410437518557
 20
317.5200977694235
 10
142.3058743279253
 20
317.5925397645674
 10
143.3892417156895
 20
317.6168212067328
 10
144.4726091034536
 20
317.5925397645674
 10
145.5374396795233
 20
317.5200977694235
 10
146.5655140967866
 20
317.4007320176802
 10
147.5392416508694
 20
317.2364988695822
 10
148.4419614465733
 20
317.030199743434
 10
149.2582279646595
 20
316.7853662144385
 10
149.9740746261378
 20
316.5061855088911
 10
150.5772526765068
 20
316.1974408995352
 10
151.057441664656
 20
315.8644073974333
 10
151.4064259284933
 20
315.5127846967421
 10
151.6182338276704
 20
315.1485928665838
 10
151.6892415860494
 20
314.778053141757
  0
LWPOLYLINE
  5
6CFF
330
A
100
AcDbEntity
  8
MODEL
  6
Continuous
100
AcDbPolyline
 90
       54
 70
   128
 43
0.0
 10
153.3892414921721
 20
314.778053141757
 10
153.3190523663362
 20
314.3735387694082
 10
153.109471259435
 20
313.9747017394743
 10
152.7634383568366
 20
313.5871374379835
 10
152.2858123684128
 20
313.2162922393522
 10
151.6832988167008
 20
312.8673740994177
 10
150.964354110678
 20
312.5452705990515
 10
150.1390719244083
 20
312.2545191418371
 10
149.2190365137358
 20
311.9991877447806
 10
148.2171639257868
 20
311.7828675877295
 10
147.1475175970991
 20
311.6085910569868
 10
146.025113474374
 20
311.478809393569
 10
144.8657073236828
 20
311.3953405391417
 10
143.6855749965471
 20
311.3593542348585
 10
142.501282742509
 20
311.3713645707808
 10
141.3294556008478
 20
311.4311927329741
 10
140.1865432893683
 20
311.5380117069922
 10
139.0885896438559
 20
311.6903090249739
 10
138.0510078200896
 20
311.8859463702879
 10
137.088363470306
 20
312.1221893798552
 10
136.21416915374
 20
312.3957150947294
 10
135.4406969079574
 20
312.7026790153227
 10
134.7788059541782
 20
313.0387747060499
 10
134.2377857694228
 20
313.3992933999739
 10
133.82523222061
 20
313.779161251708
 10
133.5469362715085
 20
314.1730585467062
 10
133.406804820319
 20
314.5754420530043
 10
133.406804820319
 20
314.9806716810904
 10
133.5469362715085
 20
315.3830551873884
 10
133.82523222061
 20
315.7769524823866
 10
134.2377857694228
 20
316.1568203341208
 10
134.7788059541782
 20
316.5173390280447
 10
135.4406969079574
 20
316.853434718772
 10
136.21416915374
 20
317.1603986393652
 10
137.088363470306
 20
317.4339243542395
 10
138.0510078200896
 20
317.6701673638067
 10
139.0885896438559
 20
317.8658047091208
 10
140.1865432893683
 20
318.0181020271025
 10
141.3294556008478
 20
318.12491355054
 10
142.501282742509
 20
318.1847491633139
 10
143.6855749965471
 20
318.1967594992361
 10
144.8657073236828
 20
318.160773194953
 10
146.025113474374
 20
318.0773043405256
 10
147.1475175970991
 20
317.9475226771078
 10
148.2171639257868
 20
317.7732461463652
 10
149.2190365137358
 20
317.5569259893141
 10
150.1390719244083
 20
317.3015945922575
 10
150.964354110678
 20
317.0108431350432
 10
151.6832988167008
 20
316.6887396346769
 10
152.2858123684128
 20
316.3398214947424
 10
152.7634383568366
 20
315.9689762961111
 10
153.109471259435
 20
315.5814119946203
 10
153.3190523663362
 20
315.1825749646864
 10
153.3892414921721
 20
314.778053141757
  0
LWPOLYLINE
  5
6D00
330
A
100
AcDbEntity
  8
MODEL
  6
Continuous
100
AcDbPolyline
 90
       28
 70
   128
 43
0.0
 10
133.3892419392069
 20
348.4190524887285
 10
133.406804820319
 20
348.6216673027716
 10
133.5469362715085
 20
349.0240545343599
 10
133.82523222061
 20
349.4179443787775
 10
134.2377857694228
 20
349.797815955802
 10
134.7788059541782
 20
350.1583309244356
 10
135.4406969079574
 20
350.4944303404532
 10
136.21416915374
 20
350.8013979863367
 10
137.088363470306
 20
351.0749199759207
 10
138.0510078200896
 20
351.3111611228428
 10
139.0885896438559
 20
351.5068021934471
 10
140.1865432893683
 20
351.6590995114288
 10
141.3294556008478
 20
351.7659128975115
 10
142.501282742509
 20
351.8257429223499
 10
143.6855749965471
 20
351.837751395627
 10
144.8657073236828
 20
351.8017688166342
 10
146.025113474374
 20
351.7182999622069
 10
147.1475175970991
 20
351.588518298789
 10
148.2171639257868
 20
351.4142417680464
 10
149.2190365137358
 20
351.1979216109953
 10
150.1390719244083
 20
350.9425902139387
 10
150.964354110678
 20
350.6518350314341
 10
151.6832988167008
 20
350.3297352563582
 10
152.2858123684128
 20
349.9808171164236
 10
152.7634383568366
 20
349.6099719177923
 10
153.109471259435
 20
349.2224113415919
 10
153.3190523663362
 20
348.8235705863676
 10
153.3892414921721
 20
348.4190524887285
  0
SPLINE
  5
6D01
330
A
100
AcDbEntity
  8
MODEL
  6
Continuous
100
AcDbSpline
210
0.0
220
0.0
230
1.0
 70
     8
 71
     3
 72
    15
 73
    11
 74
     0
 42
0.000000001
 43
0.00000001
 40
0.0
 40
0.0
 40
0.0
 40
0.0
 40
0.1111478578031413
 40
0.2264505489457197
 40
0.3374046536840988
 40
0.4507596859222429
 40
0.5805637682371112
 40
0.7131535404121196
 40
0.8625064757477892
 40
1.0
 40
1.0
 40
1.0
 40
1.0
 10
136.1511479520996
 20
333.488647766038
 30
0.0
 10
136.1380777200439
 20
333.7914567194325
 30
0.0
 10
136.1114486757934
 20
334.4083939692987
 30
0.0
 10
135.9095744482402
 20
335.2318355542752
 30
0.0
 10
135.624638326327
 20
335.9635099923303
 30
0.0
 10
135.265979045199
 20
336.6167206082769
 30
0.0
 10
134.8536532300678
 20
337.1858552033132
 30
0.0
 10
134.4070690168911
 20
337.6518839549876
 30
0.0
 10
133.9818918120555
 20
337.9713203639017
 30
0.0
 10
133.7767944719217
 20
338.0016341731803
 30
0.0
 10
133.678485585173
 20
338.0161644291125
 30
0.0
  0
SPLINE
  5
6D02
330
A
100
AcDbEntity
  8
MODEL
  6
Continuous
100
AcDbSpline
210
0.0
220
0.0
230
1.0
 70
     8
 71
     3
 72
    17
 73
    13
 74
     0
 42
0.000000001
 43
0.00000001
 40
0.0
 40
0.0
 40
0.0
 40
0.0
 40
0.0604146707217625
 40
0.1451848558001784
 40
0.2322387375669275
 40
0.3208708440071204
 40
0.4114408679724171
 40
0.5141190434292269
 40
0.6190810453568262
 40
0.7357594815432835
 40
0.8567028627789893
 40
1.0
 40
1.0
 40
1.0
 40
1.0
 10
133.4028075838287
 20
324.6632562350474
 30
0.0
 10
133.4018469663852
 20
324.7395472359472
 30
0.0
 10
133.3995384690725
 20
324.9228851211369
 30
0.0
 10
133.5102228311562
 20
325.3668984648953
 30
0.0
 10
133.7026827013534
 20
325.9479753406881
 30
0.0
 10
133.9758713922884
 20
326.6372112168497
 30
0.0
 10
134.3216800926103
 20
327.4423755140847
 30
0.0
 10
134.728832139409
 20
328.3651068252361
 30
0.0
 10
135.1863659835072
 20
329.4344645326396
 30
0.0
 10
135.6354018339126
 20
330.6247868497444
 30
0.0
 10
136.0488196782163
 20
332.0128448885093
 30
0.0
 10
136.1151675991196
 20
332.9697304966608
 30
0.0
 10
136.1511479520996
 20
333.488647766038
 30
0.0
  0
LINE
  5
6D03
330
A
100
AcDbEntity
  8
MODEL
  6
Continuous
100
AcDbLine
 10
124.3892423266371
 20
333.488647766038
 30
0.0
 11
124.3892423266371
 21
338.0287074815474
 31
0.0
  0
LINE
  5
6D04
330
A
100
AcDbEntity
  8
MODEL
  6
Continuous
100
AcDbLine
 10
124.3892423266371
 20
324.2287085723124
 30
0.0
 11
124.3892423266371
 21
333.488647766038
 31
0.0
  0
ARC
  5
6D05
330
A
100
AcDbEntity
  8
MODEL
  6
Continuous
100
AcDbCircle
 10
143.3892417156895
 20
382.498056567832
 30
0.0
 40
10.49999999999993
100
AcDbArc
 50
342.2472098380525
 51
0.0
  0
ARC
  5
6D06
330
A
100
AcDbEntity
  8
MODEL
  6
Continuous
100
AcDbCircle
 10
143.3892417156895
 20
382.498056567832
 30
0.0
 40
10.49999999999993
100
AcDbArc
 50
0.0
 51
197.7527901619471
  0
ARC
  5
6D07
330
A
100
AcDbEntity
  8
MODEL
  6
Continuous
100
AcDbCircle
 10
143.3892417156895
 20
382.498056567832
 30
0.0
 40
24.00000000000039
100
AcDbArc
 50
294.6243183521636
 51
0.0
  0
ARC
  5
6D08
330
A
100
AcDbEntity
  8
MODEL
  6
Continuous
100
AcDbCircle
 10
143.3892417156895
 20
382.498056567832
 30
0.0
 40
24.00000000000039
100
AcDbArc
 50
0.0
 51
245.3756816478357
  0
ARC
  5
6D09
330
A
100
AcDbEntity
  8
MODEL
  6
Continuous
100
AcDbCircle
 10
447.1689844329101
 20
347.498056567832
 30
0.0
 40
25.0
100
AcDbArc
 50
19.99999999999896
 51
90.0
  0
ARC
  5
6D0A
330
A
100
AcDbEntity
  8
MODEL
  6
Continuous
100
AcDbCircle
 10
447.1689844329101
 20
347.498056567832
 30
0.0
 40
45.0
100
AcDbArc
 50
19.99999999999948
 51
90.0
  0
LINE
  5
6D0B
330
A
100
AcDbEntity
  8
MODEL
  6
Continuous
100
AcDbLine
 10
341.0743124229982
 20
372.4980567913494
 30
0.0
 11
447.1689810423329
 21
372.4980567913494
 31
0.0
  0
LINE
  5
6D0C
330
A
100
AcDbEntity
  8
MODEL
  6
Continuous
100
AcDbLine
 10
447.1689810423329
 20
392.4980563443146
 30
0.0
 11
341.0743124229982
 21
392.4980563443146
 31
0.0
  0
LINE
  5
6D0D
330
A
100
AcDbEntity
  8
MODEL
  6
Continuous
100
AcDbLine
 10
493.3743079571202
 20
352.1211621683083
 30
0.0
 11
489.4551535515263
 21
362.8889629017553
 31
0.0
  0
LINE
  5
6D0E
330
A
100
AcDbEntity
  8
MODEL
  6
Continuous
100
AcDbLine
 10
470.6613024143651
 20
356.0485606413326
 30
0.0
 11
474.580456819959
 21
345.2807599078856
 31
0.0
  0
LINE
  5
6D0F
330
A
100
AcDbEntity
  8
MODEL
  6
Continuous
100
AcDbLine
 10
492.2788043884709
 20
351.40317765586
 30
0.0
 11
492.1762098936513
 21
351.6850852739058
 31
0.0
  0
LINE
  5
6D10
330
A
100
AcDbEntity
  8
MODEL
  6
Continuous
100
AcDbLine
 10
475.7785697845891
 20
345.7168349396429
 30
0.0
 11
475.8811791805699
 21
345.4349273215971
 31
0.0
  0
LINE
  5
6D11
330
A
100
AcDbEntity
  8
MODEL
  6
Continuous
100
AcDbLine
 10
474.6830662159398
 20
344.9988522898398
 30
0.0
 11
486.9273801712468
 21
311.3578566681585
 31
0.0
  0
LINE
  5
6D12
330
A
100
AcDbEntity
  8
MODEL
  6
Continuous
100
AcDbLine
 10
505.7212313084081
 20
318.1982570659361
 30
0.0
 11
493.476917353101
 21
351.8392545502625
 31
0.0
  0
LINE
  5
6D13
330
A
100
AcDbEntity
  8
MODEL
  6
Continuous
100
AcDbLine
 10
336.0743125347569
 20
358.4980563592158
 30
0.0
 11
341.0743124229982
 21
358.4980563592158
 31
0.0
  0
LINE
  5
6D14
330
A
100
AcDbEntity
  8
MODEL
  6
Continuous
100
AcDbLine
 10
341.0743124229982
 20
406.4980567764483
 30
0.0
 11
336.0743125347569
 21
406.4980567764483
 31
0.0
  0
LINE
  5
6D15
330
A
100
AcDbEntity
  8
MODEL
  6
Continuous
100
AcDbLine
 10
335.0743124872595
 20
368.1480567302547
 30
0.0
 11
336.0743125347569
 21
368.1480567302547
 31
0.0
  0
LINE
  5
6D16
330
A
100
AcDbEntity
  8
MODEL
  6
Continuous
100
AcDbLine
 10
336.0743125347569
 20
396.8480564054094
 30
0.0
 11
335.0743124872595
 21
396.8480564054094
 31
0.0
  0
LWPOLYLINE
  5
6D17
330
A
100
AcDbEntity
  8
MODEL
  6
Continuous
100
AcDbPolyline
 90
       28
 70
   128
 43
0.0
 10
493.3743079571202
 20
352.1211621683083
 10
493.3371891645863
 20
352.1076505403958
 10
493.172814455457
 20
352.0478205155573
 10
492.8793360857442
 20
351.9410071294747
 10
492.4609114794209
 20
351.7887098114929
 10
491.9233818916753
 20
351.5930687408886
 10
491.2743171123936
 20
351.3568275939665
 10
490.5228217510655
 20
351.0833056043825
 10
489.6794458298161
 20
350.776337958499
 10
488.7560208706334
 20
350.4402385424814
 10
487.765510883756
 20
350.0797235738478
 10
486.7218186525777
 20
349.6998519968233
 10
485.6396069197133
 20
349.3059621524058
 10
484.5340599684193
 20
348.9035749208174
 10
483.4207048086598
 20
348.4983452927313
 10
482.3151578573659
 20
348.0959580611429
 10
481.2329461245015
 20
347.7020682167254
 10
480.1892687944844
 20
347.3221966397009
 10
479.198758807607
 20
346.9616816710673
 10
478.2753338484242
 20
346.6255822550497
 10
477.4319430260136
 20
346.3186146091662
 10
476.6804476646855
 20
346.0450926195822
 10
476.0313828854039
 20
345.8088533353052
 10
475.4938681988194
 20
345.6132085394106
 10
475.075428691335
 20
345.4609149467192
 10
474.7819652227834
 20
345.3540996979914
 10
474.6175756124928
 20
345.2942678105078
 10
474.580456819959
 20
345.2807599078856
  0
CIRCLE
  5
6D18
330
A
100
AcDbEntity
  8
MODEL
  6
Continuous
100
AcDbCircle
 10
490.3731620408905
 20
331.1287081695059
 30
0.0
 40
6.899999999999789
  0
LWPOLYLINE
  5
6D19
102
{ACAD_REACTORS
330
6D53
102
}
330
A
100
AcDbEntity
  8
MODEL
  6
Continuous
100
AcDbPolyline
 90
       28
 70
   128
 43
0.0
 10
486.9273801712468
 20
311.3578566681585
 10
486.9644989637807
 20
311.3713645707808
 10
487.1288885740712
 20
311.4311927329741
 10
487.4223520426228
 20
311.5380117069922
 10
487.8407915501073
 20
311.6903090249739
 10
488.3783062366917
 20
311.8859463702879
 10
489.0273710159734
 20
312.1221893798552
 10
489.7788812784627
 20
312.3957150947294
 10
490.6222571997121
 20
312.7026790153227
 10
491.5456821588948
 20
313.0387747060499
 10
492.5361921457722
 20
313.3992933999739
 10
493.5798694757893
 20
313.779161251708
 10
494.6620812086537
 20
314.1730585467062
 10
495.7676281599477
 20
314.5754420530043
 10
496.8809982208684
 20
314.9806716810904
 10
497.9865302710011
 20
315.3830551873884
 10
499.0687420038655
 20
315.7769524823866
 10
500.1124342350438
 20
316.1568203341208
 10
501.1029442219212
 20
316.5173390280447
 10
502.026369181104
 20
316.853434718772
 10
502.8697451023534
 20
317.1603986393652
 10
503.6212553648427
 20
317.4339243542395
 10
504.2703201441243
 20
317.6701673638067
 10
504.8078348307088
 20
317.8658047091208
 10
505.2262743381932
 20
318.0181020271025
 10
505.5197378067448
 20
318.12491355054
 10
505.6841125158742
 20
318.1847491633139
 10
505.7212313084081
 20
318.1982570659361
  0
LWPOLYLINE
  5
6D1A
330
A
100
AcDbEntity
  8
MODEL
  6
Continuous
100
AcDbPolyline
 90
       28
 70
   128
 43
0.0
 10
474.6830662159398
 20
344.9988522898398
 10
474.7201850084737
 20
345.012360192462
 10
474.8845746187642
 20
345.0721920799456
 10
475.1780380873158
 20
345.1790036033831
 10
475.5964626936391
 20
345.3313009213648
 10
476.1339922813847
 20
345.5269419919691
 10
476.7830570606664
 20
345.7631850015364
 10
477.5345524219945
 20
346.0367069911204
 10
478.3779283432439
 20
346.3436746370039
 10
479.3013682035878
 20
346.6797740530214
 10
480.291863289304
 20
347.0402890216551
 10
481.3355555204823
 20
347.4201605986796
 10
482.4177672533467
 20
347.8140504430971
 10
483.5233142046407
 20
348.2164376746855
 10
484.6366693644002
 20
348.6216673027716
 10
485.7422163156941
 20
349.0240545343599
 10
486.8244280485585
 20
349.4179443787775
 10
487.8681053785756
 20
349.797815955802
 10
488.858615365453
 20
350.1583309244356
 10
489.7820403246358
 20
350.4944303404532
 10
490.6254311470464
 20
350.8013979863367
 10
491.3769265083745
 20
351.0749199759207
 10
492.0259912876561
 20
351.3111611228428
 10
492.5635208754018
 20
351.5068021934471
 10
492.981945481725
 20
351.6590995114288
 10
493.2754089502766
 20
351.7659128975115
 10
493.4397985605672
 20
351.8257429223499
 10
493.476917353101
 20
351.8392545502625
  0
LINE
  5
6D1B
330
A
100
AcDbEntity
  8
MODEL
  6
Continuous
100
AcDbLine
 10
336.0743125347569
 20
358.4980563592158
 30
0.0
 11
336.0743125347569
 21
406.4980567764483
 31
0.0
  0
LINE
  5
6D1C
330
A
100
AcDbEntity
  8
MODEL
  6
Continuous
100
AcDbLine
 10
341.0743124229982
 20
358.4980563592158
 30
0.0
 11
341.0743124229982
 21
406.4980567764483
 31
0.0
  0
LINE
  5
6D1D
330
A
100
AcDbEntity
  8
MODEL
  6
Continuous
100
AcDbLine
 10
335.0743124872595
 20
368.1480567302547
 30
0.0
 11
335.0743124872595
 21
396.8480564054094
 31
0.0
  0
LINE
  5
6D1E
330
A
100
AcDbEntity
  8
MODEL
  6
Continuous
100
AcDbLine
 10
133.3892419392069
 20
721.8268242293346
 30
0.0
 11
133.3892419392069
 21
615.7321556100001
 31
0.0
  0
LINE
  5
6D1F
330
A
100
AcDbEntity
  8
MODEL
  6
Continuous
100
AcDbLine
 10
153.3892414921721
 20
615.7321556100001
 30
0.0
 11
153.3892414921721
 21
721.8268242293346
 31
0.0
  0
LINE
  5
6D20
330
A
100
AcDbEntity
  8
MODEL
  6
Continuous
100
AcDbLine
 10
133.3892419392069
 20
615.7321556100001
 30
0.0
 11
133.3892419392069
 21
582.8429086693873
 31
0.0
  0
LINE
  5
6D21
330
A
100
AcDbEntity
  8
MODEL
  6
Continuous
100
AcDbLine
 10
153.3892414921721
 20
582.8429086693873
 30
0.0
 11
153.3892414921721
 21
615.7321556100001
 31
0.0
  0
LINE
  5
6D22
330
A
100
AcDbEntity
  8
MODEL
  6
Continuous
100
AcDbLine
 10
153.3892414921721
 20
578.9237542637934
 30
0.0
 11
153.3892414921721
 21
582.8429086693873
 31
0.0
  0
LINE
  5
6D23
330
A
100
AcDbEntity
  8
MODEL
  6
Continuous
100
AcDbLine
 10
133.3892419392069
 20
582.8429086693873
 30
0.0
 11
133.3892419392069
 21
578.9237542637934
 31
0.0
  0
LINE
  5
6D24
330
A
100
AcDbEntity
  8
MODEL
  6
Continuous
100
AcDbLine
 10
133.3892419392069
 20
578.8211448678126
 30
0.0
 11
133.3892419392069
 21
574.8828871735682
 31
0.0
  0
LINE
  5
6D25
330
A
100
AcDbEntity
  8
MODEL
  6
Continuous
100
AcDbLine
 10
153.3892414921721
 20
566.5768309125056
 30
0.0
 11
153.3892414921721
 21
578.8211448678126
 31
0.0
  0
LINE
  5
6D26
330
A
100
AcDbEntity
  8
MODEL
  6
Continuous
100
AcDbLine
 10
124.3892423266371
 20
565.6279696711649
 30
0.0
 11
135.7571370357473
 21
565.6279696711649
 31
0.0
  0
LINE
  5
6D27
330
A
100
AcDbEntity
  8
MODEL
  6
Continuous
100
AcDbLine
 10
133.3892419392069
 20
579.4279797562708
 30
0.0
 11
124.3892423266371
 21
579.4279797562708
 31
0.0
  0
LINE
  5
6D28
330
A
100
AcDbEntity
  8
MODEL
  6
Continuous
100
AcDbLine
 10
119.3892415070732
 20
726.8268241175759
 30
0.0
 11
119.3892415070732
 21
721.8268242293346
 31
0.0
  0
LINE
  5
6D29
330
A
100
AcDbEntity
  8
MODEL
  6
Continuous
100
AcDbLine
 10
167.3892419243057
 20
721.8268242293346
 30
0.0
 11
167.3892419243057
 21
726.8268241175759
 31
0.0
  0
LINE
  5
6D2A
330
A
100
AcDbEntity
  8
MODEL
  6
Continuous
100
AcDbLine
 10
129.0392418781121
 20
727.8268241650734
 30
0.0
 11
129.0392418781121
 21
726.8268241175759
 31
0.0
  0
LINE
  5
6D2B
330
A
100
AcDbEntity
  8
MODEL
  6
Continuous
100
AcDbLine
 10
157.7392415532668
 20
726.8268241175759
 30
0.0
 11
157.7392415532668
 21
727.8268241650734
 31
0.0
  0
LWPOLYLINE
  5
6D2C
330
A
100
AcDbEntity
  8
MODEL
  6
Continuous
100
AcDbPolyline
 90
       28
 70
   128
 43
0.0
 10
153.3892414921721
 20
578.9237542637934
 10
153.3190523663362
 20
577.8123511561503
 10
153.109471259435
 20
576.7165495642771
 10
152.7634383568366
 20
575.6517274865259
 10
152.2858123684128
 20
574.6328456887354
 10
151.6832988167008
 20
573.6741943844904
 10
150.964354110678
 20
572.789229322349
 10
150.1390719244083
 20
571.990392971908
 10
149.2190365137358
 20
571.2888761052241
 10
148.2171639257868
 20
570.6945283898463
 10
147.1475175970991
 20
570.2157242783655
 10
146.025113474374
 20
569.8591394909968
 10
144.8657073236828
 20
569.6298106202235
 10
143.6855749965471
 20
569.5309563168635
 10
142.501282742509
 20
569.5639474877466
 10
141.3294556008478
 20
569.728322196876
 10
140.1865432893683
 20
570.0218005665888
 10
139.0885896438559
 20
570.440225172912
 10
138.0510078200896
 20
570.9777547606577
 10
137.088363470306
 20
571.6268195399393
 10
136.21416915374
 20
572.3783149012675
 10
135.4406969079574
 20
573.2216908225168
 10
134.7788059541782
 20
574.1451157816996
 10
134.2377857694228
 20
575.135625768577
 10
133.82523222061
 20
576.1793179997553
 10
133.5469362715085
 20
577.2615297326197
 10
133.406804820319
 20
578.3670766839136
 10
133.3892419392069
 20
578.9237542637934
  0
LWPOLYLINE
  5
6D2D
330
A
100
AcDbEntity
  8
MODEL
  6
Continuous
100
AcDbPolyline
 90
       27
 70
   128
 43
0.0
 10
133.4403519907792
 20
565.6279696711649
 10
133.5469362715085
 20
564.9146063813319
 10
133.82523222061
 20
563.8323946484675
 10
134.2377857694228
 20
562.7887024172892
 10
134.7788059541782
 20
561.7981924304117
 10
135.4406969079574
 20
560.874767471229
 10
136.21416915374
 20
560.0313915499796
 10
137.088363470306
 20
559.2798812874903
 10
138.0510078200896
 20
558.6308165082087
 10
139.0885896438559
 20
558.0933018216242
 10
140.1865432893683
 20
557.6748623141398
 10
141.3294556008478
 20
557.3813988455881
 10
142.501282742509
 20
557.2170241364588
 10
143.6855749965471
 20
557.1840180644144
 10
144.8657073236828
 20
557.2828872689356
 10
146.025113474374
 20
557.5122161397089
 10
147.1475175970991
 20
557.8687860259165
 10
148.2171639257868
 20
558.3476050385584
 10
149.2190365137358
 20
558.941937852775
 10
150.1390719244083
 20
559.643454719459
 10
150.964354110678
 20
560.4423059710612
 10
151.6832988167008
 20
561.3272561320414
 10
152.2858123684128
 20
562.2859074362864
 10
152.7634383568366
 20
563.3048041352381
 10
153.109471259435
 20
564.3696113118281
 10
153.3190523663362
 20
565.4654129037012
 10
153.3892414921721
 20
566.5768309125056
  0
LWPOLYLINE
  5
6D2E
330
A
100
AcDbEntity
  8
MODEL
  6
Continuous
100
AcDbPolyline
 90
       28
 70
   128
 43
0.0
 10
133.3892419392069
 20
578.8211448678126
 10
133.406804820319
 20
578.2644672879328
 10
133.5469362715085
 20
577.1589203366389
 10
133.82523222061
 20
576.0767086037745
 10
134.2377857694228
 20
575.0330312737574
 10
134.7788059541782
 20
574.04252128688
 10
135.4406969079574
 20
573.1190963276972
 10
136.21416915374
 20
572.2757055052866
 10
137.088363470306
 20
571.5242101439585
 10
138.0510078200896
 20
570.8751453646769
 10
139.0885896438559
 20
570.3376157769312
 10
140.1865432893683
 20
569.919191170608
 10
141.3294556008478
 20
569.6257277020563
 10
142.501282742509
 20
569.4613380917658
 10
143.6855749965471
 20
569.4283469208826
 10
144.8657073236828
 20
569.5272012242426
 10
146.025113474374
 20
569.7565300950159
 10
147.1475175970991
 20
570.1131148823847
 10
148.2171639257868
 20
570.5919338950266
 10
149.2190365137358
 20
571.1862667092432
 10
150.1390719244083
 20
571.8877835759272
 10
150.964354110678
 20
572.6866199263682
 10
151.6832988167008
 20
573.5715849885096
 10
152.2858123684128
 20
574.5302362927546
 10
152.7634383568366
 20
575.5491180905451
 10
153.109471259435
 20
576.6139401682963
 10
153.3190523663362
 20
577.7097417601694
 10
153.3892414921721
 20
578.8211448678126
  0
SPLINE
  5
6D2F
330
A
100
AcDbEntity
  8
MODEL
  6
Continuous
100
AcDbSpline
210
0.0
220
0.0
230
1.0
 70
     8
 71
     3
 72
    18
 73
    14
 74
     0
 42
0.000000001
 43
0.00000001
 40
0.0
 40
0.0
 40
0.0
 40
0.0
 40
0.0871449794810992
 40
0.1775475374101242
 40
0.2645406056696594
 40
0.3534161103687092
 40
0.4551884190165905
 40
0.559144835307217
 40
0.6762443345015328
 40
0.7976454695234454
 40
0.8842117708795012
 40
0.9732231656530335
 40
1.0
 40
1.0
 40
1.0
 40
1.0
 10
136.1511479520996
 20
566.0440994986643
 30
0.0
 10
136.1380783172272
 20
566.1687656226663
 30
0.0
 10
136.1114504896642
 20
566.4227580321735
 30
0.0
 10
135.9095669946619
 20
566.9543132938529
 30
0.0
 10
135.6246653144872
 20
567.5746805285057
 30
0.0
 10
135.2658693859649
 20
568.306218126067
 30
0.0
 10
134.854133183897
 20
569.1639540405272
 30
0.0
 10
134.4051455388608
 20
570.1900348867043
 30
0.0
 10
133.9726239312441
 20
571.3639304489539
 30
0.0
 10
133.6470998314263
 20
572.5462672619656
 30
0.0
 10
133.4610906676763
 20
573.6400613109186
 30
0.0
 10
133.3840834081121
 20
574.3881717230947
 30
0.0
 10
133.3965011718347
 20
574.7898235723446
 30
0.0
 10
133.3993728661736
 20
574.8827083596339
 30
0.0
  0
SPLINE
  5
6D30
330
A
100
AcDbEntity
  8
MODEL
  6
Continuous
100
AcDbSpline
210
0.0
220
0.0
230
1.0
 70
     8
 71
     3
 72
     9
 73
     5
 74
     0
 42
0.000000001
 43
0.00000001
 40
0.0
 40
0.0
 40
0.0
 40
0.0
 40
0.3406157366529429
 40
1.0
 40
1.0
 40
1.0
 40
1.0
 10
135.7571370357473
 20
565.6575931796183
 30
0.0
 10
135.8383777360169
 20
565.6534212952688
 30
0.0
 10
136.076889030499
 20
565.6411732283109
 30
0.0
 10
136.1216399198757
 20
565.8839899641648
 30
0.0
 10
136.1511479520996
 20
566.0440994986643
 30
0.0
  0
LINE
  5
6D31
330
A
100
AcDbEntity
  8
MODEL
  6
Continuous
100
AcDbLine
 10
124.3892423266371
 20
566.0440994986643
 30
0.0
 11
124.3892423266371
 21
579.4279797562708
 31
0.0
  0
LINE
  5
6D32
330
A
100
AcDbEntity
  8
MODEL
  6
Continuous
100
AcDbLine
 10
124.3892423266371
 20
565.6279696711649
 30
0.0
 11
124.3892423266371
 21
566.0440994986643
 31
0.0
  0
LINE
  5
6D33
330
A
100
AcDbEntity
  8
MODEL
  6
Continuous
100
AcDbLine
 10
119.3892415070732
 20
721.8268242293346
 30
0.0
 11
167.3892419243057
 21
721.8268242293346
 31
0.0
  0
LINE
  5
6D34
330
A
100
AcDbEntity
  8
MODEL
  6
Continuous
100
AcDbLine
 10
119.3892415070732
 20
726.8268241175759
 30
0.0
 11
167.3892419243057
 21
726.8268241175759
 31
0.0
  0
LINE
  5
6D35
330
A
100
AcDbEntity
  8
MODEL
  6
Continuous
100
AcDbLine
 10
129.0392418781121
 20
727.8268241650734
 30
0.0
 11
157.7392415532668
 21
727.8268241650734
 31
0.0
  0
LINE
  5
6D4F
330
A
100
AcDbEntity
  8
DIM
100
AcDbLine
 10
408.6113161945675
 20
392.4980563443146
 30
0.0
 11
427.6774715219151
 21
415.8865994993034
 31
0.0
  0
LINE
  5
6D50
330
A
100
AcDbEntity
  8
DIM
100
AcDbLine
 10
427.6774715219151
 20
415.8865994993034
 30
0.0
 11
454.3209420641278
 21
415.8865994993034
 31
0.0
  0
DIMENSION
  5
6D51
102
{ACAD_REACTORS
330
6D53
102
}
102
{ACAD_XDICTIONARY
360
6D52
102
}
330
A
100
AcDbEntity
  8
DIM
100
AcDbDimension
  2
*D16
 10
336.0743125347569
 20
256.8033659867495
 30
0.0
 11
415.9209703473523
 21
270.3033659867495
 31
0.0
 70
    32
 71
     5
 42
159.6933156251907
 73
     0
 74
     0
 75
     0
  3
tfrom線あり
100
AcDbAlignedDimension
 13
495.7676281599477
 23
314.5754420530043
 33
0.0
 14
336.0743125347569
 24
290.0246469796245
 34
0.0
100
AcDbRotatedDimension
  0
DIMENSION
  5
6D60
330
A
100
AcDbEntity
  8
DIM
100
AcDbDimension
  2
*D17
 10
316.0743125347569
 20
256.8033659867495
 30
0.0
 11
325.5743125347569
 21
256.8033659867495
 31
0.0
 70
   160
 71
     5
 42
20.0
 73
     0
 74
     0
 75
     0
  3
tfrom線あり
100
AcDbAlignedDimension
 13
336.0743125347569
 23
290.0246469796245
 33
0.0
 14
316.0743125347569
 24
358.4980563592158
 34
0.0
100
AcDbRotatedDimension
  0
LINE
  5
6D7C
330
A
100
AcDbEntity
  8
MODEL
100
AcDbLine
 10
315.0743124872595
 20
392.4980563443146
 30
0.0
 11
315.0743124872595
 21
372.4980567913494
 31
0.0
  0
LINE
  5
6D7F
330
A
100
AcDbEntity
  8
MODEL
100
AcDbLine
 10
316.1303064144138
 20
391.415957684267
 30
0.0
 11
317.468340771037
 21
373.5686402788078
 31
0.0
  0
LINE
  5
6E4C
330
A
100
AcDbEntity
  8
MODEL
100
AcDbLine
 10
315.0665180432986
 20
392.4980563443146
 30
0.0
 11
316.5659415099383
 21
372.4980567913494
 31
0.0
  0
LINE
  5
6E4D
330
A
100
AcDbEntity
  8
MODEL
100
AcDbLine
 10
315.0665180432986
 20
392.4980563443146
 30
0.0
 11
316.1303064144138
 21
391.415957684267
 31
0.0
  0
LINE
  5
6E4E
330
A
100
AcDbEntity
  8
MODEL
100
AcDbLine
 10
316.1303064144138
 20
391.415957684267
 30
0.0
 11
317.0318423694928
 21
392.4980563443146
 31
0.0
  0
LINE
  5
6E51
330
A
100
AcDbEntity
  8
MODEL
100
AcDbLine
 10
317.468340771037
 20
373.5686402788078
 30
0.0
 11
318.5234713921716
 21
372.4980567913494
 31
0.0
  0
LINE
  5
6E52
330
A
100
AcDbEntity
  8
MODEL
100
AcDbLine
 10
316.5581470659779
 20
372.4980567913494
 30
0.0
 11
317.468340771037
 21
373.5686402788078
 31
0.0
  0
LINE
  5
6E53
330
A
100
AcDbEntity
  8
MODEL
100
AcDbLine
 10
316.5737359538987
 20
372.4980567913494
 30
0.0
 11
315.66354224884
 21
373.5686402788078
 31
0.0
  0
LINE
  5
6E54
330
A
100
AcDbEntity
  8
MODEL
100
AcDbLine
 10
315.0743124872595
 20
372.4980567913494
 30
0.0
 11
315.66354224884
 21
373.5686402788078
 31
0.0
  0
LINE
  5
6EFD
330
A
100
AcDbEntity
  8
MODEL
100
AcDbLine
 10
317.0665180432986
 20
392.4980563443146
 30
0.0
 11
318.5659415099383
 21
372.4980567913494
 31
0.0
  0
LINE
  5
6EFE
330
A
100
AcDbEntity
  8
MODEL
100
AcDbLine
 10
317.0665180432986
 20
392.4980563443146
 30
0.0
 11
318.1303064144138
 21
391.415957684267
 31
0.0
  0
LINE
  5
6EFF
330
A
100
AcDbEntity
  8
MODEL
100
AcDbLine
 10
318.1303064144138
 20
391.415957684267
 30
0.0
 11
319.0318423694928
 21
392.4980563443146
 31
0.0
  0
LINE
  5
6F00
330
A
100
AcDbEntity
  8
MODEL
100
AcDbLine
 10
319.468340771037
 20
373.5686402788078
 30
0.0
 11
320.5234713921716
 21
372.4980567913494
 31
0.0
  0
LINE
  5
6F01
330
A
100
AcDbEntity
  8
MODEL
100
AcDbLine
 10
318.5581470659779
 20
372.4980567913494
 30
0.0
 11
319.468340771037
 21
373.5686402788078
 31
0.0
  0
LINE
  5
6F02
330
A
100
AcDbEntity
  8
MODEL
100
AcDbLine
 10
318.1303064144138
 20
391.415957684267
 30
0.0
 11
319.468340771037
 21
373.5686402788078
 31
0.0
  0
LINE
  5
6F03
330
A
100
AcDbEntity
  8
MODEL
100
AcDbLine
 10
319.0665180432986
 20
392.4980563443146
 30
0.0
 11
320.5659415099383
 21
372.4980567913494
 31
0.0
  0
LINE
  5
6F04
330
A
100
AcDbEntity
  8
MODEL
100
AcDbLine
 10
319.0665180432986
 20
392.4980563443146
 30
0.0
 11
320.1303064144138
 21
391.415957684267
 31
0.0
  0
LINE
  5
6F05
330
A
100
AcDbEntity
  8
MODEL
100
AcDbLine
 10
320.1303064144138
 20
391.415957684267
 30
0.0
 11
321.0318423694928
 21
392.4980563443146
 31
0.0
  0
LINE
  5
6F06
330
A
100
AcDbEntity
  8
MODEL
100
AcDbLine
 10
321.468340771037
 20
373.5686402788078
 30
0.0
 11
322.5234713921716
 21
372.4980567913494
 31
0.0
  0
LINE
  5
6F07
330
A
100
AcDbEntity
  8
MODEL
100
AcDbLine
 10
320.5581470659779
 20
372.4980567913494
 30
0.0
 11
321.468340771037
 21
373.5686402788078
 31
0.0
  0
LINE
  5
6F08
330
A
100
AcDbEntity
  8
MODEL
100
AcDbLine
 10
320.1303064144138
 20
391.415957684267
 30
0.0
 11
321.468340771037
 21
373.5686402788078
 31
0.0
  0
LINE
  5
6F09
330
A
100
AcDbEntity
  8
MODEL
100
AcDbLine
 10
321.0665180432986
 20
392.4980563443146
 30
0.0
 11
322.5659415099383
 21
372.4980567913494
 31
0.0
  0
LINE
  5
6F0A
330
A
100
AcDbEntity
  8
MODEL
100
AcDbLine
 10
321.0665180432986
 20
392.4980563443146
 30
0.0
 11
322.1303064144138
 21
391.415957684267
 31
0.0
  0
LINE
  5
6F0B
330
A
100
AcDbEntity
  8
MODEL
100
AcDbLine
 10
322.1303064144138
 20
391.415957684267
 30
0.0
 11
323.0318423694928
 21
392.4980563443146
 31
0.0
  0
LINE
  5
6F0C
330
A
100
AcDbEntity
  8
MODEL
100
AcDbLine
 10
323.468340771037
 20
373.5686402788078
 30
0.0
 11
324.5234713921716
 21
372.4980567913494
 31
0.0
  0
LINE
  5
6F0D
330
A
100
AcDbEntity
  8
MODEL
100
AcDbLine
 10
322.5581470659779
 20
372.4980567913494
 30
0.0
 11
323.468340771037
 21
373.5686402788078
 31
0.0
  0
LINE
  5
6F0E
330
A
100
AcDbEntity
  8
MODEL
100
AcDbLine
 10
322.1303064144138
 20
391.415957684267
 30
0.0
 11
323.468340771037
 21
373.5686402788078
 31
0.0
  0
LINE
  5
6F0F
330
A
100
AcDbEntity
  8
MODEL
100
AcDbLine
 10
323.0665180432986
 20
392.4980563443146
 30
0.0
 11
324.5659415099383
 21
372.4980567913494
 31
0.0
  0
LINE
  5
6F10
330
A
100
AcDbEntity
  8
MODEL
100
AcDbLine
 10
323.0665180432986
 20
392.4980563443146
 30
0.0
 11
324.1303064144138
 21
391.415957684267
 31
0.0
  0
LINE
  5
6F11
330
A
100
AcDbEntity
  8
MODEL
100
AcDbLine
 10
324.1303064144138
 20
391.415957684267
 30
0.0
 11
325.0318423694928
 21
392.4980563443146
 31
0.0
  0
LINE
  5
6F12
330
A
100
AcDbEntity
  8
MODEL
100
AcDbLine
 10
325.468340771037
 20
373.5686402788078
 30
0.0
 11
326.5234713921716
 21
372.4980567913494
 31
0.0
  0
LINE
  5
6F13
330
A
100
AcDbEntity
  8
MODEL
100
AcDbLine
 10
324.5581470659779
 20
372.4980567913494
 30
0.0
 11
325.468340771037
 21
373.5686402788078
 31
0.0
  0
LINE
  5
6F14
330
A
100
AcDbEntity
  8
MODEL
100
AcDbLine
 10
324.1303064144138
 20
391.415957684267
 30
0.0
 11
325.468340771037
 21
373.5686402788078
 31
0.0
  0
LINE
  5
6F15
330
A
100
AcDbEntity
  8
MODEL
100
AcDbLine
 10
325.0665180432986
 20
392.4980563443146
 30
0.0
 11
326.5659415099383
 21
372.4980567913494
 31
0.0
  0
LINE
  5
6F16
330
A
100
AcDbEntity
  8
MODEL
100
AcDbLine
 10
325.0665180432986
 20
392.4980563443146
 30
0.0
 11
326.1303064144138
 21
391.415957684267
 31
0.0
  0
LINE
  5
6F17
330
A
100
AcDbEntity
  8
MODEL
100
AcDbLine
 10
326.1303064144138
 20
391.415957684267
 30
0.0
 11
327.0318423694928
 21
392.4980563443146
 31
0.0
  0
LINE
  5
6F18
330
A
100
AcDbEntity
  8
MODEL
100
AcDbLine
 10
327.468340771037
 20
373.5686402788078
 30
0.0
 11
328.5234713921716
 21
372.4980567913494
 31
0.0
  0
LINE
  5
6F19
330
A
100
AcDbEntity
  8
MODEL
100
AcDbLine
 10
326.5581470659779
 20
372.4980567913494
 30
0.0
 11
327.468340771037
 21
373.5686402788078
 31
0.0
  0
LINE
  5
6F1A
330
A
100
AcDbEntity
  8
MODEL
100
AcDbLine
 10
326.1303064144138
 20
391.415957684267
 30
0.0
 11
327.468340771037
 21
373.5686402788078
 31
0.0
  0
LINE
  5
6F1B
330
A
100
AcDbEntity
  8
MODEL
100
AcDbLine
 10
327.0665180432986
 20
392.4980563443146
 30
0.0
 11
328.5659415099383
 21
372.4980567913494
 31
0.0
  0
LINE
  5
6F1C
330
A
100
AcDbEntity
  8
MODEL
100
AcDbLine
 10
327.0665180432986
 20
392.4980563443146
 30
0.0
 11
328.1303064144138
 21
391.415957684267
 31
0.0
  0
LINE
  5
6F1D
330
A
100
AcDbEntity
  8
MODEL
100
AcDbLine
 10
328.1303064144138
 20
391.415957684267
 30
0.0
 11
329.0318423694928
 21
392.4980563443146
 31
0.0
  0
LINE
  5
6F1E
330
A
100
AcDbEntity
  8
MODEL
100
AcDbLine
 10
329.468340771037
 20
373.5686402788078
 30
0.0
 11
330.5234713921716
 21
372.4980567913494
 31
0.0
  0
LINE
  5
6F1F
330
A
100
AcDbEntity
  8
MODEL
100
AcDbLine
 10
328.5581470659779
 20
372.4980567913494
 30
0.0
 11
329.468340771037
 21
373.5686402788078
 31
0.0
  0
LINE
  5
6F20
330
A
100
AcDbEntity
  8
MODEL
100
AcDbLine
 10
328.1303064144138
 20
391.415957684267
 30
0.0
 11
329.468340771037
 21
373.5686402788078
 31
0.0
  0
LINE
  5
6F21
330
A
100
AcDbEntity
  8
MODEL
100
AcDbLine
 10
329.0665180432986
 20
392.4980563443146
 30
0.0
 11
330.5659415099383
 21
372.4980567913494
 31
0.0
  0
LINE
  5
6F22
330
A
100
AcDbEntity
  8
MODEL
100
AcDbLine
 10
329.0665180432986
 20
392.4980563443146
 30
0.0
 11
330.1303064144138
 21
391.415957684267
 31
0.0
  0
LINE
  5
6F23
330
A
100
AcDbEntity
  8
MODEL
100
AcDbLine
 10
330.1303064144138
 20
391.415957684267
 30
0.0
 11
331.0318423694928
 21
392.4980563443146
 31
0.0
  0
LINE
  5
6F24
330
A
100
AcDbEntity
  8
MODEL
100
AcDbLine
 10
331.468340771037
 20
373.5686402788078
 30
0.0
 11
332.5234713921716
 21
372.4980567913494
 31
0.0
  0
LINE
  5
6F25
330
A
100
AcDbEntity
  8
MODEL
100
AcDbLine
 10
330.5581470659779
 20
372.4980567913494
 30
0.0
 11
331.468340771037
 21
373.5686402788078
 31
0.0
  0
LINE
  5
6F26
330
A
100
AcDbEntity
  8
MODEL
100
AcDbLine
 10
330.1303064144138
 20
391.415957684267
 30
0.0
 11
331.468340771037
 21
373.5686402788078
 31
0.0
  0
LINE
  5
6F27
330
A
100
AcDbEntity
  8
MODEL
100
AcDbLine
 10
331.0665180432986
 20
392.4980563443146
 30
0.0
 11
332.5659415099383
 21
372.4980567913494
 31
0.0
  0
LINE
  5
6F28
330
A
100
AcDbEntity
  8
MODEL
100
AcDbLine
 10
331.0665180432986
 20
392.4980563443146
 30
0.0
 11
332.1303064144138
 21
391.415957684267
 31
0.0
  0
LINE
  5
6F29
330
A
100
AcDbEntity
  8
MODEL
100
AcDbLine
 10
332.1303064144138
 20
391.415957684267
 30
0.0
 11
333.0318423694928
 21
392.4980563443146
 31
0.0
  0
LINE
  5
6F2A
330
A
100
AcDbEntity
  8
MODEL
100
AcDbLine
 10
333.468340771037
 20
373.5686402788078
 30
0.0
 11
334.5234713921716
 21
372.4980567913494
 31
0.0
  0
LINE
  5
6F2B
330
A
100
AcDbEntity
  8
MODEL
100
AcDbLine
 10
332.5581470659779
 20
372.4980567913494
 30
0.0
 11
333.468340771037
 21
373.5686402788078
 31
0.0
  0
LINE
  5
6F2C
330
A
100
AcDbEntity
  8
MODEL
100
AcDbLine
 10
332.1303064144138
 20
391.415957684267
 30
0.0
 11
333.468340771037
 21
373.5686402788078
 31
0.0
  0
LINE
  5
6F2D
330
A
100
AcDbEntity
  8
MODEL
100
AcDbLine
 10
333.0665180432986
 20
392.4980563443146
 30
0.0
 11
334.5659415099383
 21
372.4980567913494
 31
0.0
  0
LINE
  5
6F2E
330
A
100
AcDbEntity
  8
MODEL
100
AcDbLine
 10
333.0665180432986
 20
392.4980563443146
 30
0.0
 11
334.1303064144138
 21
391.415957684267
 31
0.0
  0
LINE
  5
6F2F
330
A
100
AcDbEntity
  8
MODEL
100
AcDbLine
 10
334.1303064144138
 20
391.415957684267
 30
0.0
 11
335.0318423694928
 21
392.4980563443146
 31
0.0
  0
LINE
  5
6F31
330
A
100
AcDbEntity
  8
MODEL
100
AcDbLine
 10
334.5581470659779
 20
372.4980567913494
 30
0.0
 11
335.0743124872595
 21
373.1051783015835
 31
0.0
  0
LINE
  5
6F32
330
A
100
AcDbEntity
  8
MODEL
100
AcDbLine
 10
334.1303064144138
 20
391.415957684267
 30
0.0
 11
335.0743124872595
 21
378.8243706810182
 31
0.0
  0
LINE
  5
6F33
330
A
100
AcDbEntity
  8
MODEL
100
AcDbLine
 10
315.0743124872595
 20
381.4280577351848
 30
0.0
 11
315.66354224884
 21
373.5686402788078
 31
0.0
  0
MTEXT
  5
6F37
330
A
100
AcDbEntity
  8
DIM
390
1D
100
AcDbMText
 10
433.2017220996777
 20
426.6228466388858
 30
0.0
 40
7.0
 41
0.0
 46
13.944
 71
     1
 72
     1
  1
{\fＭＳ ゴシック|b0|i0|c1|p0;φ20}
  7
ＭＳ ゴシック
 73
     1
 44
0.7828267384257843
1001
ACAD
1000
ACAD_MTEXT_DEFINED_HEIGHT_BEGIN
1070
    46
1040
13.944
1000
ACAD_MTEXT_DEFINED_HEIGHT_END
  0
LINE
  5
6FB7
330
A
100
AcDbEntity
  8
MODEL
100
AcDbLine
 10
153.3892414921721
 20
747.8268241650734
 30
0.0
 11
133.3892419392069
 21
747.8268241650734
 31
0.0
  0
LINE
  5
6FB8
330
A
100
AcDbEntity
  8
MODEL
100
AcDbLine
 10
153.3892414921721
 20
747.8346186090338
 30
0.0
 11
133.3892419392069
 21
746.3351951423941
 31
0.0
  0
LINE
  5
6FB9
330
A
100
AcDbEntity
  8
MODEL
100
AcDbLine
 10
153.3892414921721
 20
747.8346186090338
 30
0.0
 11
152.3071428321246
 21
746.7708302379189
 31
0.0
  0
LINE
  5
6FBA
330
A
100
AcDbEntity
  8
MODEL
100
AcDbLine
 10
152.3071428321246
 20
746.7708302379189
 30
0.0
 11
153.3892414921721
 21
745.8692942828399
 31
0.0
  0
LINE
  5
6FBB
330
A
100
AcDbEntity
  8
MODEL
100
AcDbLine
 10
134.4598254266653
 20
745.4327958812959
 30
0.0
 11
133.3892419392069
 21
744.3776652601608
 31
0.0
  0
LINE
  5
6FBC
330
A
100
AcDbEntity
  8
MODEL
100
AcDbLine
 10
133.3892419392069
 20
746.3429895863547
 30
0.0
 11
134.4598254266653
 21
745.4327958812959
 31
0.0
  0
LINE
  5
6FBD
330
A
100
AcDbEntity
  8
MODEL
100
AcDbLine
 10
152.3071428321246
 20
746.7708302379189
 30
0.0
 11
134.4598254266653
 21
745.4327958812959
 31
0.0
  0
LINE
  5
6FBE
330
A
100
AcDbEntity
  8
MODEL
100
AcDbLine
 10
133.3892419392069
 20
746.3274006984337
 30
0.0
 11
134.4598254266653
 21
747.2375944034926
 31
0.0
  0
LINE
  5
6FBF
330
A
100
AcDbEntity
  8
MODEL
100
AcDbLine
 10
133.3892419392069
 20
747.8268241650734
 30
0.0
 11
134.4598254266653
 21
747.2375944034926
 31
0.0
  0
LINE
  5
6FC0
330
A
100
AcDbEntity
  8
MODEL
100
AcDbLine
 10
153.3892414921721
 20
745.8346186090338
 30
0.0
 11
133.3892419392069
 21
744.3351951423941
 31
0.0
  0
LINE
  5
6FC1
330
A
100
AcDbEntity
  8
MODEL
100
AcDbLine
 10
153.3892414921721
 20
745.8346186090338
 30
0.0
 11
152.3071428321246
 21
744.7708302379189
 31
0.0
  0
LINE
  5
6FC2
330
A
100
AcDbEntity
  8
MODEL
100
AcDbLine
 10
152.3071428321246
 20
744.7708302379189
 30
0.0
 11
153.3892414921721
 21
743.8692942828399
 31
0.0
  0
LINE
  5
6FC3
330
A
100
AcDbEntity
  8
MODEL
100
AcDbLine
 10
134.4598254266653
 20
743.4327958812959
 30
0.0
 11
133.3892419392069
 21
742.3776652601608
 31
0.0
  0
LINE
  5
6FC4
330
A
100
AcDbEntity
  8
MODEL
100
AcDbLine
 10
133.3892419392069
 20
744.3429895863547
 30
0.0
 11
134.4598254266653
 21
743.4327958812959
 31
0.0
  0
LINE
  5
6FC5
330
A
100
AcDbEntity
  8
MODEL
100
AcDbLine
 10
152.3071428321246
 20
744.7708302379189
 30
0.0
 11
134.4598254266653
 21
743.4327958812959
 31
0.0
  0
LINE
  5
6FC6
330
A
100
AcDbEntity
  8
MODEL
100
AcDbLine
 10
153.3892414921721
 20
743.8346186090338
 30
0.0
 11
133.3892419392069
 21
742.3351951423941
 31
0.0
  0
LINE
  5
6FC7
330
A
100
AcDbEntity
  8
MODEL
100
AcDbLine
 10
153.3892414921721
 20
743.8346186090338
 30
0.0
 11
152.3071428321246
 21
742.7708302379189
 31
0.0
  0
LINE
  5
6FC8
330
A
100
AcDbEntity
  8
MODEL
100
AcDbLine
 10
152.3071428321246
 20
742.7708302379189
 30
0.0
 11
153.3892414921721
 21
741.8692942828399
 31
0.0
  0
LINE
  5
6FC9
330
A
100
AcDbEntity
  8
MODEL
100
AcDbLine
 10
134.4598254266653
 20
741.4327958812959
 30
0.0
 11
133.3892419392069
 21
740.3776652601608
 31
0.0
  0
LINE
  5
6FCA
330
A
100
AcDbEntity
  8
MODEL
100
AcDbLine
 10
133.3892419392069
 20
742.3429895863547
 30
0.0
 11
134.4598254266653
 21
741.4327958812959
 31
0.0
  0
LINE
  5
6FCB
330
A
100
AcDbEntity
  8
MODEL
100
AcDbLine
 10
152.3071428321246
 20
742.7708302379189
 30
0.0
 11
134.4598254266653
 21
741.4327958812959
 31
0.0
  0
LINE
  5
6FCC
330
A
100
AcDbEntity
  8
MODEL
100
AcDbLine
 10
153.3892414921721
 20
741.8346186090338
 30
0.0
 11
133.3892419392069
 21
740.3351951423941
 31
0.0
  0
LINE
  5
6FCD
330
A
100
AcDbEntity
  8
MODEL
100
AcDbLine
 10
153.3892414921721
 20
741.8346186090338
 30
0.0
 11
152.3071428321246
 21
740.7708302379189
 31
0.0
  0
LINE
  5
6FCE
330
A
100
AcDbEntity
  8
MODEL
100
AcDbLine
 10
152.3071428321246
 20
740.7708302379189
 30
0.0
 11
153.3892414921721
 21
739.8692942828399
 31
0.0
  0
LINE
  5
6FCF
330
A
100
AcDbEntity
  8
MODEL
100
AcDbLine
 10
134.4598254266653
 20
739.4327958812959
 30
0.0
 11
133.3892419392069
 21
738.3776652601608
 31
0.0
  0
LINE
  5
6FD0
330
A
100
AcDbEntity
  8
MODEL
100
AcDbLine
 10
133.3892419392069
 20
740.3429895863547
 30
0.0
 11
134.4598254266653
 21
739.4327958812959
 31
0.0
  0
LINE
  5
6FD1
330
A
100
AcDbEntity
  8
MODEL
100
AcDbLine
 10
152.3071428321246
 20
740.7708302379189
 30
0.0
 11
134.4598254266653
 21
739.4327958812959
 31
0.0
  0
LINE
  5
6FD2
330
A
100
AcDbEntity
  8
MODEL
100
AcDbLine
 10
153.3892414921721
 20
739.8346186090338
 30
0.0
 11
133.3892419392069
 21
738.3351951423941
 31
0.0
  0
LINE
  5
6FD3
330
A
100
AcDbEntity
  8
MODEL
100
AcDbLine
 10
153.3892414921721
 20
739.8346186090338
 30
0.0
 11
152.3071428321246
 21
738.7708302379189
 31
0.0
  0
LINE
  5
6FD4
330
A
100
AcDbEntity
  8
MODEL
100
AcDbLine
 10
152.3071428321246
 20
738.7708302379189
 30
0.0
 11
153.3892414921721
 21
737.8692942828399
 31
0.0
  0
LINE
  5
6FD5
330
A
100
AcDbEntity
  8
MODEL
100
AcDbLine
 10
134.4598254266653
 20
737.4327958812959
 30
0.0
 11
133.3892419392069
 21
736.3776652601608
 31
0.0
  0
LINE
  5
6FD6
330
A
100
AcDbEntity
  8
MODEL
100
AcDbLine
 10
133.3892419392069
 20
738.3429895863547
 30
0.0
 11
134.4598254266653
 21
737.4327958812959
 31
0.0
  0
LINE
  5
6FD7
330
A
100
AcDbEntity
  8
MODEL
100
AcDbLine
 10
152.3071428321246
 20
738.7708302379189
 30
0.0
 11
134.4598254266653
 21
737.4327958812959
 31
0.0
  0
LINE
  5
6FD8
330
A
100
AcDbEntity
  8
MODEL
100
AcDbLine
 10
153.3892414921721
 20
737.8346186090338
 30
0.0
 11
133.3892419392069
 21
736.3351951423941
 31
0.0
  0
LINE
  5
6FD9
330
A
100
AcDbEntity
  8
MODEL
100
AcDbLine
 10
153.3892414921721
 20
737.8346186090338
 30
0.0
 11
152.3071428321246
 21
736.7708302379189
 31
0.0
  0
LINE
  5
6FDA
330
A
100
AcDbEntity
  8
MODEL
100
AcDbLine
 10
152.3071428321246
 20
736.7708302379189
 30
0.0
 11
153.3892414921721
 21
735.8692942828399
 31
0.0
  0
LINE
  5
6FDB
330
A
100
AcDbEntity
  8
MODEL
100
AcDbLine
 10
134.4598254266653
 20
735.4327958812959
 30
0.0
 11
133.3892419392069
 21
734.3776652601608
 31
0.0
  0
LINE
  5
6FDC
330
A
100
AcDbEntity
  8
MODEL
100
AcDbLine
 10
133.3892419392069
 20
736.3429895863547
 30
0.0
 11
134.4598254266653
 21
735.4327958812959
 31
0.0
  0
LINE
  5
6FDD
330
A
100
AcDbEntity
  8
MODEL
100
AcDbLine
 10
152.3071428321246
 20
736.7708302379189
 30
0.0
 11
134.4598254266653
 21
735.4327958812959
 31
0.0
  0
LINE
  5
6FDE
330
A
100
AcDbEntity
  8
MODEL
100
AcDbLine
 10
153.3892414921721
 20
735.8346186090338
 30
0.0
 11
133.3892419392069
 21
734.3351951423941
 31
0.0
  0
LINE
  5
6FDF
330
A
100
AcDbEntity
  8
MODEL
100
AcDbLine
 10
153.3892414921721
 20
735.8346186090338
 30
0.0
 11
152.3071428321246
 21
734.7708302379189
 31
0.0
  0
LINE
  5
6FE0
330
A
100
AcDbEntity
  8
MODEL
100
AcDbLine
 10
152.3071428321246
 20
734.7708302379189
 30
0.0
 11
153.3892414921721
 21
733.8692942828399
 31
0.0
  0
LINE
  5
6FE1
330
A
100
AcDbEntity
  8
MODEL
100
AcDbLine
 10
134.4598254266653
 20
733.4327958812959
 30
0.0
 11
133.3892419392069
 21
732.3776652601608
 31
0.0
  0
LINE
  5
6FE2
330
A
100
AcDbEntity
  8
MODEL
100
AcDbLine
 10
133.3892419392069
 20
734.3429895863547
 30
0.0
 11
134.4598254266653
 21
733.4327958812959
 31
0.0
  0
LINE
  5
6FE3
330
A
100
AcDbEntity
  8
MODEL
100
AcDbLine
 10
152.3071428321246
 20
734.7708302379189
 30
0.0
 11
134.4598254266653
 21
733.4327958812959
 31
0.0
  0
LINE
  5
6FE4
330
A
100
AcDbEntity
  8
MODEL
100
AcDbLine
 10
153.3892414921721
 20
733.8346186090338
 30
0.0
 11
133.3892419392069
 21
732.3351951423941
 31
0.0
  0
LINE
  5
6FE5
330
A
100
AcDbEntity
  8
MODEL
100
AcDbLine
 10
153.3892414921721
 20
733.8346186090338
 30
0.0
 11
152.3071428321246
 21
732.7708302379189
 31
0.0
  0
LINE
  5
6FE6
330
A
100
AcDbEntity
  8
MODEL
100
AcDbLine
 10
152.3071428321246
 20
732.7708302379189
 30
0.0
 11
153.3892414921721
 21
731.8692942828399
 31
0.0
  0
LINE
  5
6FE7
330
A
100
AcDbEntity
  8
MODEL
100
AcDbLine
 10
134.4598254266653
 20
731.4327958812959
 30
0.0
 11
133.3892419392069
 21
730.3776652601608
 31
0.0
  0
LINE
  5
6FE8
330
A
100
AcDbEntity
  8
MODEL
100
AcDbLine
 10
133.3892419392069
 20
732.3429895863547
 30
0.0
 11
134.4598254266653
 21
731.4327958812959
 31
0.0
  0
LINE
  5
6FE9
330
A
100
AcDbEntity
  8
MODEL
100
AcDbLine
 10
152.3071428321246
 20
732.7708302379189
 30
0.0
 11
134.4598254266653
 21
731.4327958812959
 31
0.0
  0
LINE
  5
6FEA
330
A
100
AcDbEntity
  8
MODEL
100
AcDbLine
 10
153.3892414921721
 20
731.8346186090338
 30
0.0
 11
133.3892419392069
 21
730.3351951423941
 31
0.0
  0
LINE
  5
6FEB
330
A
100
AcDbEntity
  8
MODEL
100
AcDbLine
 10
153.3892414921721
 20
731.8346186090338
 30
0.0
 11
152.3071428321246
 21
730.7708302379189
 31
0.0
  0
LINE
  5
6FEC
330
A
100
AcDbEntity
  8
MODEL
100
AcDbLine
 10
152.3071428321246
 20
730.7708302379189
 30
0.0
 11
153.3892414921721
 21
729.8692942828399
 31
0.0
  0
LINE
  5
6FED
330
A
100
AcDbEntity
  8
MODEL
100
AcDbLine
 10
134.4598254266653
 20
729.4327958812959
 30
0.0
 11
133.3892419392069
 21
728.3776652601608
 31
0.0
  0
LINE
  5
6FEE
330
A
100
AcDbEntity
  8
MODEL
100
AcDbLine
 10
133.3892419392069
 20
730.3429895863547
 30
0.0
 11
134.4598254266653
 21
729.4327958812959
 31
0.0
  0
LINE
  5
6FEF
330
A
100
AcDbEntity
  8
MODEL
100
AcDbLine
 10
152.3071428321246
 20
730.7708302379189
 30
0.0
 11
134.4598254266653
 21
729.4327958812959
 31
0.0
  0
LINE
  5
6FF0
330
A
100
AcDbEntity
  8
MODEL
100
AcDbLine
 10
153.3892414921721
 20
729.8346186090338
 30
0.0
 11
133.3892419392069
 21
728.3351951423941
 31
0.0
  0
LINE
  5
6FF1
330
A
100
AcDbEntity
  8
MODEL
100
AcDbLine
 10
153.3892414921721
 20
729.8346186090338
 30
0.0
 11
152.3071428321246
 21
728.7708302379189
 31
0.0
  0
LINE
  5
6FF2
330
A
100
AcDbEntity
  8
MODEL
100
AcDbLine
 10
152.3071428321246
 20
728.7708302379189
 30
0.0
 11
153.3892414921721
 21
727.8692942828399
 31
0.0
  0
LINE
  5
6FF3
330
A
100
AcDbEntity
  8
MODEL
100
AcDbLine
 10
142.3192428830421
 20
747.8268241650734
 30
0.0
 11
134.4598254266653
 21
747.2375944034926
 31
0.0
  0
LINE
  5
6FF4
330
A
100
AcDbEntity
  8
MODEL
100
AcDbLine
 10
152.3071428321246
 20
728.7708302379189
 30
0.0
 11
139.7155558288756
 21
727.8268241650734
 31
0.0
  0
LINE
  5
6FF5
330
A
100
AcDbEntity
  8
MODEL
100
AcDbLine
 10
133.3892419392069
 20
728.3429895863547
 30
0.0
 11
133.9963634494409
 21
727.8268241650734
 31
0.0
  0
MTEXT
  5
702A
330
A
100
AcDbEntity
  8
DIM
390
1D
100
AcDbMText
 10
275.4368428442428
 20
386.3200148420699
 30
0.0
 40
7.0
 41
0.0
 46
13.704
 71
     1
 72
     1
  1
{\fＭＳ ゴシック|b0|i0|c1|p0;G1/2”}
  7
ＭＳ ゴシック
 73
     1
 44
0.7828267384257843
1001
ACAD
1000
ACAD_MTEXT_DEFINED_HEIGHT_BEGIN
1070
    46
1040
13.704
1000
ACAD_MTEXT_DEFINED_HEIGHT_END
  0
MTEXT
  5
702E
330
A
100
AcDbEntity
  8
DIM
390
1D
100
AcDbMText
 10
304.7062014349056
 20
388.9217677320397
 30
0.0
 40
12.0
 41
0.0
 46
12.0
 71
     1
 72
     1
  1
{\fＭＳ ゴシック|b0|i0|c1|p0;▶}
  7
ＭＳ ゴシック
 73
     1
 44
0.7828267384257843
1001
ACAD
1000
ACAD_MTEXT_DEFINED_HEIGHT_BEGIN
1070
    46
1040
12.0
1000
ACAD_MTEXT_DEFINED_HEIGHT_END
  0
LINE
  5
7038
330
A
100
AcDbEntity
  8
MODEL
100
AcDbLine
 10
336.0743125347569
 20
363.3356848100879
 30
0.0
 11
336.0743125347569
 21
288.7069644349846
 31
0.0
  0
LINE
  5
703B
330
A
100
AcDbEntity
  8
MODEL
100
AcDbLine
 10
325.4035840361455
 20
363.3356848100879
 30
0.0
 11
336.0743125347569
 21
363.3356848100879
 31
0.0
  0
LINE
  5
703D
330
A
100
AcDbEntity
  8
MODEL
100
AcDbLine
 10
336.0743125347569
 20
401.6604283255762
 30
0.0
 11
336.0743125347569
 21
476.2891487006794
 31
0.0
  0
LINE
  5
703E
330
A
100
AcDbEntity
  8
MODEL
100
AcDbLine
 10
325.4035840361455
 20
401.6604283255762
 30
0.0
 11
336.0743125347569
 21
401.6604283255762
 31
0.0
  0
HATCH
  5
7042
330
A
100
AcDbEntity
  8
MODEL
100
AcDbHatch
 10
0.0
 20
0.0
 30
0.0
210
0.0
220
0.0
230
1.0
  2
ANSI31
 70
     0
 71
     0
 91
        2
 92
        1
 93
        4
 72
     1
 10
336.0743125347569
 20
401.6604283255762
 11
336.0743125347569
 21
476.2891487006794
 72
     1
 10
336.0743125347569
 20
476.2891487006794
 11
325.4035840361456
 21
476.2891487006794
 72
     1
 10
325.4035840361455
 20
476.2891487006794
 11
325.4035840361455
 21
401.6604283255762
 72
     1
 10
325.4035840361455
 20
401.6604283255762
 11
336.0743125347568
 21
401.6604283255762
 97
        0
 92
        1
 93
        4
 72
     1
 10
336.0743125347569
 20
363.3356848100879
 11
336.0743125347569
 21
288.7069644349846
 72
     1
 10
325.4035840361455
 20
363.3356848100879
 11
336.0743125347568
 21
363.3356848100879
 72
     1
 10
325.4035840361455
 20
288.7069644349846
 11
325.4035840361455
 21
363.3356848100879
 72
     1
 10
336.0743125347569
 20
288.7069644349846
 11
325.4035840361456
 21
288.7069644349846
 97
        0
 75
     0
 76
     1
 52
0.0
 41
1.0
 77
     0
 78
     1
 53
45.0
 43
-132.6821100000002
 44
-141.0353999999999
 45
-2.245064030267288
 46
2.245064030267288
 79
     0
 98
        1
 10
-132.6821100000002
 20
-141.0353999999999
1001
ACAD
1010
0.0
1020
0.0
1030
0.0
  0
LINE
  5
7093
330
A
100
AcDbEntity
  8
DIM
100
AcDbLine
 10
156.1661683331448
 20
402.8143098201466
 30
0.0
 11
175.2323236604921
 21
426.2028529751354
 31
0.0
  0
LINE
  5
7094
330
A
100
AcDbEntity
  8
DIM
100
AcDbLine
 10
175.2323236604921
 20
426.2028529751354
 30
0.0
 11
201.6682556543998
 21
426.2028529751354
 31
0.0
  0
MTEXT
  5
7095
330
A
100
AcDbEntity
  8
DIM
390
1D
100
AcDbMText
 10
181.8860164193747
 20
437.4905855547179
 30
0.0
 40
7.0
 41
0.0
 46
13.944
 71
     1
 72
     1
  1
{\fＭＳ ゴシック|b0|i0|c1|p0;φ45}
  7
ＭＳ ゴシック
 73
     1
 44
0.7828267384257843
1001
ACAD
1000
ACAD_MTEXT_DEFINED_HEIGHT_BEGIN
1070
    46
1040
13.944
1000
ACAD_MTEXT_DEFINED_HEIGHT_END
  0
MTEXT
  5
70B1
330
A
100
AcDbEntity
  8
DIM
390
1D
100
AcDbMText
 10
114.0577111461441
 20
309.9557387958635
 30
0.0
 40
7.0
 41
0.0
 46
12.0
 71
     1
 72
     1
  1
{\fＭＳ ゴシック|b0|i0|c1|p0;90°}
  7
ＭＳ ゴシック
 73
     1
 44
0.7828267384257843
1001
ACAD
1000
ACAD_MTEXT_DEFINED_HEIGHT_BEGIN
1070
    46
1040
12.0
1000
ACAD_MTEXT_DEFINED_HEIGHT_END
  0
ARC
  5
70B8
330
A
100
AcDbEntity
  8
DIM
100
AcDbCircle
 10
140.2218583403547
 20
311.3064714302187
 30
0.0
 40
12.16516439829591
100
AcDbArc
 50
72.70616739701484
 51
166.0093396885674
  0
LINE
  5
70B9
330
A
100
AcDbEntity
  8
DIM
100
AcDbLine
 10
143.8382223149516
 20
322.9216828549328
 30
0.0
 11
140.9633053582959
 21
325.3968870635482
 31
0.0
  0
LINE
  5
70BA
330
A
100
AcDbEntity
  8
DIM
100
AcDbLine
 10
143.8382223149516
 20
322.9216828549328
 30
0.0
 11
140.1738591540232
 21
321.9397327508819
 31
0.0
  0
DIMENSION
  5
70F2
330
A
100
AcDbEntity
  8
DIM
100
AcDbDimension
  2
*D22
 10
560.7246892433557
 20
382.498056567832
 30
0.0
 11
547.2246892433557
 21
348.5367493104181
 31
0.0
 70
    32
 71
     5
 42
67.92261451482773
 73
     0
 74
     0
 75
     0
  3
tfrom線あり
100
AcDbAlignedDimension
 13
505.5561270629876
 23
314.5754420530043
 33
0.0
 14
482.1901415554096
 24
382.498056567832
 34
0.0
 50
90.0
100
AcDbRotatedDimension
  0
LINE
  5
710E
330
A
100
AcDbEntity
  8
MODEL
  6
CENTER2
 48
0.02
100
AcDbLine
 10
336.9778662796527
 20
382.498056567832
 30
0.0
 11
447.1689844329101
 21
382.498056567832
 31
0.0
  0
ARC
  5
7115
330
A
100
AcDbEntity
  8
MODEL
  6
CENTER2
 48
0.02
100
AcDbCircle
 10
447.1689844329101
 20
347.498056567832
 30
0.0
 40
35.0
100
AcDbArc
 50
19.99999999999963
 51
90.0
  0
ARC
  5
7116
330
A
100
AcDbEntity
  8
MODEL
  6
Continuous
100
AcDbCircle
 10
447.1689844329101
 20
347.498056567832
 30
0.0
 40
25.0
100
AcDbArc
 50
19.99999999999949
 51
90.0
  0
LINE
  5
7117
330
A
100
AcDbEntity
  8
MODEL
  6
CENTER2
 48
0.02
100
AcDbLine
 10
480.0582261604166
 20
359.46876158423
 30
0.0
 11
499.9674595500398
 21
302.5734337920716
 31
0.0
  0
LINE
  5
71D9
330
A
100
AcDbEntity
  8
MODEL
  6
HIDDEN
 48
0.009
100
AcDbLine
 10
136.5775050402444
 20
553.4397069575575
 30
0.0
 11
136.5775050402444
 21
563.6236541183976
 31
0.0
  0
LINE
  5
71DA
330
A
100
AcDbEntity
  8
MODEL
  6
HIDDEN
 48
0.009
100
AcDbLine
 10
150.3775151253503
 20
563.6236541183976
 30
0.0
 11
150.3775151253503
 21
553.4397069575575
 31
0.0
  0
LINE
  5
71DB
330
A
100
AcDbEntity
  8
MODEL
  6
HIDDEN
 48
0.009
100
AcDbLine
 10
136.9936348677438
 20
553.4397069575575
 30
0.0
 11
150.3775151253503
 21
553.4397069575575
 31
0.0
  0
LINE
  5
71DC
330
A
100
AcDbEntity
  8
MODEL
  6
HIDDEN
 48
0.009
100
AcDbLine
 10
136.5775050402444
 20
553.4397069575575
 30
0.0
 11
136.9936348677438
 21
553.4397069575575
 31
0.0
  0
ARC
  5
7224
330
A
100
AcDbEntity
  8
DIM
100
AcDbCircle
 10
132.5600571905873
 20
562.0123680135985
 30
0.0
 40
12.16516439829591
100
AcDbArc
 50
179.2050538054972
 51
272.5082260970507
  0
LINE
  5
7225
330
A
100
AcDbEntity
  8
DIM
100
AcDbLine
 10
133.0924391238044
 20
549.8588584663627
 30
0.0
 11
129.6810385507795
 21
548.1993014434255
 31
0.0
  0
LINE
  5
7226
330
A
100
AcDbEntity
  8
DIM
100
AcDbLine
 10
133.0924391238044
 20
549.8588584663627
 30
0.0
 11
129.8000085647165
 21
551.7434497736754
 31
0.0
  0
MTEXT
  5
7265
330
A
100
AcDbEntity
  8
DIM
390
1D
100
AcDbMText
 10
108.3236398398144
 20
575.6719046132425
 30
0.0
 40
7.0
 41
0.0
 46
7.784
 71
     1
 72
     1
  1
{\fＭＳ ゴシック|b0|i0|c1|p0;閉}
  7
ＭＳ ゴシック
 73
     1
 44
0.7828267384257843
1001
ACAD
1000
ACAD_MTEXT_DEFINED_HEIGHT_BEGIN
1070
    46
1040
7.784
1000
ACAD_MTEXT_DEFINED_HEIGHT_END
  0
MTEXT
  5
7266
330
A
100
AcDbEntity
  8
DIM
390
1D
100
AcDbMText
 10
139.3832998206143
 20
543.2004419060427
 30
0.0
 40
7.0
 41
0.0
 46
7.784
 71
     1
 72
     1
  1
{\fＭＳ ゴシック|b0|i0|c1|p0;開}
  7
ＭＳ ゴシック
 73
     1
 44
0.7828267384257843
1001
ACAD
1000
ACAD_MTEXT_DEFINED_HEIGHT_BEGIN
1070
    46
1040
7.784
1000
ACAD_MTEXT_DEFINED_HEIGHT_END
  0
VIEWPORT
  5
349
330
B
100
AcDbEntity
 67
     1
  8
0
100
AcDbViewport
 10
202.5
 20
128.5
 30
0.0
 40
486.0
 41
308.4
 68
     1
 69
     1
 12
202.5
 22
128.5
 13
0.0
 23
0.0
 14
0.5
 24
0.5
 15
0.0
 25
0.0
 16
0.0
 26
0.0
 36
1.0
 17
0.0
 27
0.0
 37
0.0
 42
50.0
 43
0.0
 44
0.0
 45
308.4
 50
0.0
 51
0.0
 72
   100
 90
   557152
  1

281
     0
 71
     1
 74
     0
110
0.0
120
0.0
130
0.0
111
1.0
121
0.0
131
0.0
112
0.0
122
1.0
132
0.0
 79
     0
146
0.0
170
     0
 61
     5
348
26C
292
     1
282
     1
141
0.0
142
0.0
 63
   256
  0
VIEWPORT
  5
34A
330
B
100
AcDbEntity
 67
     1
  8
0
100
AcDbViewport
 10
202.5
 20
128.5
 30
0.0
 40
324.0
 41
205.6
 68
     2
 69
     2
 12
986.6781359294573
 22
1427.077061889956
 13
0.0
 23
0.0
 14
0.5
 24
0.5
 15
0.0
 25
0.0
 16
0.0
 26
0.0
 36
1.0
 17
0.0
 27
0.0
 37
0.0
 42
50.0
 43
0.0
 44
0.0
 45
2890.021615685494
 50
0.0
 51
0.0
 72
   100
 90
   557152
  1

281
     0
 71
     1
 74
     0
110
0.0
120
0.0
130
0.0
111
1.0
121
0.0
131
0.0
112
0.0
122
1.0
132
0.0
 79
     0
146
0.0
170
     0
 61
     5
348
26C
292
     1
282
     1
141
0.0
142
0.0
 63
   256
  0
ENDSEC
  0
SECTION
  2
OBJECTS
  0
DICTIONARY
  5
19
330
0
100
AcDbDictionary
281
     1
  3
ACAD_COLOR
350
674
  3
ACAD_DETAILVIEWSTYLE
350
BBF
  3
ACAD_GROUP
350
1A
  3
ACAD_IMAGE_VARS
350
27B
  3
ACAD_LAYOUT
350
1E
  3
ACAD_MATERIAL
350
263
  3
ACAD_MLEADERSTYLE
350
336
  3
ACAD_MLINESTYLE
350
1B
  3
ACAD_PLOTSETTINGS
350
22
  3
ACAD_PLOTSTYLENAME
350
1F
  3
ACAD_SCALELIST
350
241
  3
ACAD_SECTIONVIEWSTYLE
350
BC0
  3
ACAD_TABLESTYLE
350
278
  3
ACAD_VISUALSTYLE
350
267
  3
AcadDim
350
186B
  3
ACDB_RECOMPOSE_DATA
350
7281
  3
AcDbVariableDictionary
350
330
  3
APPDATA
350
27A
  3
DimOffsetDictionary
350
7176
  0
SUN
  5
904
330
15
100
AcDbSun
 90
        1
290
     0
 63
     7
421
 16777215
 40
1.0
291
     1
 91
  2455826
 92
 54000000
292
     0
 70
     2
 71
   256
280
     1
  0
DICTIONARY
  5
2E1
330
2
100
AcDbDictionary
280
     1
281
     1
  3
ACAD_LAYERSTATES
360
2E2
  3
ACLYDICTIONARY
360
4923
  0
DICTIONARY
  5
6D52
330
6D51
100
AcDbDictionary
280
     1
281
     1
  3
ACAD_DIMASSOC
360
6D53
  0
DICTIONARY
  5
674
102
{ACAD_REACTORS
330
19
102
}
330
19
100
AcDbDictionary
281
     1
  0
DICTIONARY
  5
BBF
102
{ACAD_REACTORS
330
19
102
}
330
19
100
AcDbDictionary
281
     1
  0
DICTIONARY
  5
1A
102
{ACAD_REACTORS
330
19
102
}
330
19
100
AcDbDictionary
281
     1
  0
RASTERVARIABLES
  5
27B
102
{ACAD_REACTORS
330
19
102
}
330
19
100
AcDbRasterVariables
 90
        0
 70
     1
 71
     1
 72
     1
  0
DICTIONARY
  5
1E
102
{ACAD_REACTORS
330
19
102
}
330
19
100
AcDbDictionary
281
     1
  3
Layout1
350
21
  3
Model
350
20
  0
DICTIONARY
  5
263
102
{ACAD_REACTORS
330
19
102
}
330
19
100
AcDbDictionary
281
     1
  3
ByBlock
350
68D3
  3
ByLayer
350
264
  3
Global
350
266
  0
DICTIONARY
  5
336
102
{ACAD_REACTORS
330
19
102
}
330
19
100
AcDbDictionary
281
     1
  3
Standard
350
1A6C
  0
DICTIONARY
  5
1B
102
{ACAD_REACTORS
330
19
102
}
330
19
100
AcDbDictionary
281
     1
  3
Standard
350
1C
  0
DICTIONARY
  5
22
102
{ACAD_REACTORS
330
19
102
}
330
19
100
AcDbDictionary
281
     1
  0
ACDBDICTIONARYWDFLT
  5
1F
102
{ACAD_REACTORS
330
19
102
}
330
19
100
AcDbDictionary
281
     1
  3
Normal
350
1D
100
AcDbDictionaryWithDefault
340
1D
  0
DICTIONARY
  5
241
102
{ACAD_REACTORS
330
19
102
}
330
19
100
AcDbDictionary
281
     1
  3
A0
350
242
  3
A1
350
243
  3
A2
350
244
  3
A3
350
245
  3
A4
350
246
  3
A5
350
247
  3
A6
350
248
  3
A7
350
249
  3
A8
350
24A
  3
A9
350
24B
  3
B0
350
24C
  3
B1
350
24D
  3
B2
350
24E
  3
B3
350
24F
  3
B4
350
250
  3
B5
350
251
  3
B6
350
252
  3
B7
350
253
  3
B8
350
254
  3
B9
350
255
  3
C0
350
256
  3
C1
350
257
  3
C2
350
258
  3
C3
350
259
  3
C4
350
25A
  3
C5
350
25B
  3
C6
350
25C
  3
C7
350
25D
  3
C8
350
25E
  3
C9
350
25F
  3
D0
350
260
  3
D1
350
261
  3
D2
350
262
  0
DICTIONARY
  5
BC0
102
{ACAD_REACTORS
330
19
102
}
330
19
100
AcDbDictionary
281
     1
  0
DICTIONARY
  5
278
102
{ACAD_REACTORS
330
19
102
}
330
19
100
AcDbDictionary
281
     1
  3
Standard
350
279
  0
DICTIONARY
  5
267
102
{ACAD_REACTORS
330
19
102
}
330
19
100
AcDbDictionary
281
     1
  3
2dWireframe
350
26C
  3
3D Hidden
350
26E
  3
3dWireframe
350
26D
  3
Basic
350
26F
  3
Brighten
350
273
  3
ColorChange
350
277
  3
Conceptual
350
271
  3
Dim
350
272
  3
EdgeColorOff
350
8FE
  3
Facepattern
350
276
  3
Flat
350
268
  3
FlatWithEdges
350
269
  3
Gouraud
350
26A
  3
GouraudWithEdges
350
26B
  3
Hidden
350
8FB
  3
JitterOff
350
8FC
  3
Linepattern
350
275
  3
OverhangOff
350
8FD
  3
Realistic
350
270
  3
Shaded
350
903
  3
Shaded with edges
350
902
  3
Shades of Gray
350
8FF
  3
Sketchy
350
900
  3
Thicken
350
274
  3
Wireframe
350
8FA
  3
X-Ray
350
901
  0
XRECORD
  5
186B
102
{ACAD_REACTORS
330
19
102
}
330
19
100
AcDbXrecord
280
     1
340
0
 72
     0
 71
     0
 70
     0
 69
     0
 68
     1
 67
     3
 66
     0
 65
     0
 64
     0
 63
     3
 62
     1
 61
     0
 60
     0
 40
0.0
  0
XRECORD
  5
7281
102
{ACAD_REACTORS
330
19
102
}
330
19
100
AcDbXrecord
280
     1
 90
        1
330
279
  0
DICTIONARY
  5
330
102
{ACAD_REACTORS
330
19
102
}
330
19
100
AcDbDictionary
281
     1
  3
CANNOSCALE
350
331
  3
CMLEADERSTYLE
350
1AA2
  3
CTABLESTYLE
350
335
  3
HPTRANSPARENCY
350
D6B
  3
XCLIPFRAME
350
896
  0
DICTIONARY
  5
27A
102
{ACAD_REACTORS
330
19
102
}
330
19
100
AcDbDictionary
281
     1
  0
DICTIONARY
  5
7176
102
{ACAD_REACTORS
330
19
102
}
330
19
100
AcDbDictionary
281
     1
  3
DIMRAILANGLE
350
7179
  3
DIMRAILFIRSTOFFSET
350
7177
  3
DIMRAILOFFSET
350
7178
  3
DIMRAILSENABLED
350
717A
  0
DICTIONARY
  5
2E2
102
{ACAD_REACTORS
330
2E1
102
}
330
2E1
100
AcDbDictionary
281
     1
  3
ARGON_LAYERP_9
350
7AA
  0
DICTIONARY
  5
4923
102
{ACAD_REACTORS
330
2E1
102
}
330
2E1
100
AcDbDictionary
281
     1
1001
ACAD
1000
<All
  0
DIMASSOC
  5
6D53
102
{ACAD_REACTORS
330
6D52
102
}
330
6D52
100
AcDbDimAssoc
330
6D51
 90
        1
 70
     0
 71
     1
  1
AcDbOsnapPointRef
 72
     1
331
6D19
 73
     2
 91
       13
 40
1.0
 10
0.0
 20
0.0
 30
0.0
 75
     0
  0
LAYOUT
  5
21
102
{ACAD_REACTORS
330
1E
102
}
330
1E
100
AcDbPlotSettings
  1

  2
none_device
  4
ISO_A3_(420.00_x_297.00_MM)
  6

 40
7.5
 41
20.0
 42
7.5
 43
20.0
 44
420.0
 45
297.0
 46
0.0
 47
0.0
 48
0.0
 49
0.0
140
0.0
141
0.0
142
1.0
143
1.0
 70
     0
 72
     1
 73
     0
 74
     0
  7

 75
     0
 76
     0
 77
     2
 78
   300
147
1.0
148
0.0
149
0.0
100
AcDbLayout
  1
Layout1
 70
     0
 71
     0
 10
-7.5
 20
-20.0
 11
412.5
 21
277.0
 12
0.0
 22
0.0
 32
0.0
 14
0.0
 24
0.0
 34
0.0
 15
0.0
 25
0.0
 35
0.0
146
0.0
 13
0.0
 23
0.0
 33
0.0
 16
0.0
 26
0.0
 36
0.0
 17
0.0
 27
0.0
 37
0.0
 76
     0
330
B
331
349
  0
LAYOUT
  5
20
102
{ACAD_REACTORS
330
1E
102
}
330
1E
100
AcDbPlotSettings
  1

  2
none_device
  4
ISO_A3_(420.00_x_297.00_MM)
  6

 40
7.5
 41
20.0
 42
7.5
 43
20.0
 44
420.0
 45
297.0
 46
0.0
 47
0.0
 48
0.0
 49
0.0
140
0.0
141
0.0
142
1.0
143
1.0
 70
  1024
 72
     1
 73
     0
 74
     0
  7

 75
     0
 76
     0
 77
     2
 78
   300
147
1.0
148
0.0
149
0.0
100
AcDbLayout
  1
Model
 70
     0
 71
     1
 10
0.0
 20
0.0
 11
630.0000000000001
 21
891.0
 12
0.0
 22
0.0
 32
0.0
 14
0.0
 24
0.0
 34
-0.0000000000000071
 15
630.0000000000002
 25
891.0
 35
0.0000000000000071
146
0.0
 13
0.0
 23
0.0
 33
0.0
 16
0.0
 26
0.0
 36
0.0
 17
0.0
 27
0.0
 37
0.0
 76
     0
330
A
331
15
  0
MATERIAL
  5
68D3
102
{ACAD_REACTORS
330
263
102
}
330
263
100
AcDbMaterial
  1
ByBlock
 72
     1
 94
      127
  0
MATERIAL
  5
264
102
{ACAD_REACTORS
330
263
102
}
330
263
100
AcDbMaterial
  1
ByLayer
 72
     1
 94
      127
  0
MATERIAL
  5
266
102
{ACAD_REACTORS
330
263
102
}
330
263
100
AcDbMaterial
  1
Global
 72
     1
 94
      127
  0
MLEADERSTYLE
  5
1A6C
102
{ACAD_REACTORS
330
336
102
}
330
336
100
AcDbMLeaderStyle
170
     2
171
     1
172
     0
 90
        2
 40
0.0
 41
0.0
173
     1
 91
-1056964608
340
11
 92
       -2
290
     1
 42
2.0
291
     1
 43
8.0
  3
Standard
341
0
 44
4.0
300

342
17
174
     1
178
     6
175
     1
176
     0
 93
-1056964608
 45
4.0
292
     0
297
     0
 46
4.0
343
0
 94
-1056964608
 47
1.0
 49
1.0
140
1.0
293
     1
141
0.0
294
     1
177
     0
142
1.0
295
     0
296
     0
143
3.75
1001
ACAD_MLEADERVER
1070
     2
  0
MLINESTYLE
  5
1C
102
{ACAD_REACTORS
330
1B
102
}
330
1B
100
AcDbMlineStyle
  2
Standard
 70
     0
  3

 62
     0
 51
90.0
 52
90.0
 71
     2
 49
0.5
 62
   256
  6
BYLAYER
 49
-0.5
 62
   256
  6
BYLAYER
  0
ACDBPLACEHOLDER
  5
1D
102
{ACAD_REACTORS
330
1F
102
}
330
1F
  0
SCALE
  5
242
102
{ACAD_REACTORS
330
241
102
}
330
241
100
AcDbScale
 70
     0
300
1:1
140
1.0
141
1.0
290
     1
  0
SCALE
  5
243
102
{ACAD_REACTORS
330
241
102
}
330
241
100
AcDbScale
 70
     0
300
1:2
140
1.0
141
2.0
290
     0
  0
SCALE
  5
244
102
{ACAD_REACTORS
330
241
102
}
330
241
100
AcDbScale
 70
     0
300
1:4
140
1.0
141
4.0
290
     0
  0
SCALE
  5
245
102
{ACAD_REACTORS
330
241
102
}
330
241
100
AcDbScale
 70
     0
300
1:5
140
1.0
141
5.0
290
     0
  0
SCALE
  5
246
102
{ACAD_REACTORS
330
241
102
}
330
241
100
AcDbScale
 70
     0
300
1:8
140
1.0
141
8.0
290
     0
  0
SCALE
  5
247
102
{ACAD_REACTORS
330
241
102
}
330
241
100
AcDbScale
 70
     0
300
1:10
140
1.0
141
10.0
290
     0
  0
SCALE
  5
248
102
{ACAD_REACTORS
330
241
102
}
330
241
100
AcDbScale
 70
     0
300
1:16
140
1.0
141
16.0
290
     0
  0
SCALE
  5
249
102
{ACAD_REACTORS
330
241
102
}
330
241
100
AcDbScale
 70
     0
300
1:20
140
1.0
141
20.0
290
     0
  0
SCALE
  5
24A
102
{ACAD_REACTORS
330
241
102
}
330
241
100
AcDbScale
 70
     0
300
1:30
140
1.0
141
30.0
290
     0
  0
SCALE
  5
24B
102
{ACAD_REACTORS
330
241
102
}
330
241
100
AcDbScale
 70
     0
300
1:40
140
1.0
141
40.0
290
     0
  0
SCALE
  5
24C
102
{ACAD_REACTORS
330
241
102
}
330
241
100
AcDbScale
 70
     0
300
1:50
140
1.0
141
50.0
290
     0
  0
SCALE
  5
24D
102
{ACAD_REACTORS
330
241
102
}
330
241
100
AcDbScale
 70
     0
300
1:100
140
1.0
141
100.0
290
     0
  0
SCALE
  5
24E
102
{ACAD_REACTORS
330
241
102
}
330
241
100
AcDbScale
 70
     0
300
2:1
140
2.0
141
1.0
290
     0
  0
SCALE
  5
24F
102
{ACAD_REACTORS
330
241
102
}
330
241
100
AcDbScale
 70
     0
300
4:1
140
4.0
141
1.0
290
     0
  0
SCALE
  5
250
102
{ACAD_REACTORS
330
241
102
}
330
241
100
AcDbScale
 70
     0
300
8:1
140
8.0
141
1.0
290
     0
  0
SCALE
  5
251
102
{ACAD_REACTORS
330
241
102
}
330
241
100
AcDbScale
 70
     0
300
10:1
140
10.0
141
1.0
290
     0
  0
SCALE
  5
252
102
{ACAD_REACTORS
330
241
102
}
330
241
100
AcDbScale
 70
     0
300
100:1
140
100.0
141
1.0
290
     0
  0
SCALE
  5
253
102
{ACAD_REACTORS
330
241
102
}
330
241
100
AcDbScale
 70
     0
300
1/128" = 1'-0"
140
0.0078125
141
12.0
290
     0
  0
SCALE
  5
254
102
{ACAD_REACTORS
330
241
102
}
330
241
100
AcDbScale
 70
     0
300
1/64" = 1'-0"
140
0.015625
141
12.0
290
     0
  0
SCALE
  5
255
102
{ACAD_REACTORS
330
241
102
}
330
241
100
AcDbScale
 70
     0
300
1/32" = 1'-0"
140
0.03125
141
12.0
290
     0
  0
SCALE
  5
256
102
{ACAD_REACTORS
330
241
102
}
330
241
100
AcDbScale
 70
     0
300
1/16" = 1'-0"
140
0.0625
141
12.0
290
     0
  0
SCALE
  5
257
102
{ACAD_REACTORS
330
241
102
}
330
241
100
AcDbScale
 70
     0
300
3/32" = 1'-0"
140
0.09375
141
12.0
290
     0
  0
SCALE
  5
258
102
{ACAD_REACTORS
330
241
102
}
330
241
100
AcDbScale
 70
     0
300
1/8" = 1'-0"
140
0.125
141
12.0
290
     0
  0
SCALE
  5
259
102
{ACAD_REACTORS
330
241
102
}
330
241
100
AcDbScale
 70
     0
300
3/16" = 1'-0"
140
0.1875
141
12.0
290
     0
  0
SCALE
  5
25A
102
{ACAD_REACTORS
330
241
102
}
330
241
100
AcDbScale
 70
     0
300
1/4" = 1'-0"
140
0.25
141
12.0
290
     0
  0
SCALE
  5
25B
102
{ACAD_REACTORS
330
241
102
}
330
241
100
AcDbScale
 70
     0
300
3/8" = 1'-0"
140
0.375
141
12.0
290
     0
  0
SCALE
  5
25C
102
{ACAD_REACTORS
330
241
102
}
330
241
100
AcDbScale
 70
     0
300
1/2" = 1'-0"
140
0.5
141
12.0
290
     0
  0
SCALE
  5
25D
102
{ACAD_REACTORS
330
241
102
}
330
241
100
AcDbScale
 70
     0
300
3/4" = 1'-0"
140
0.75
141
12.0
290
     0
  0
SCALE
  5
25E
102
{ACAD_REACTORS
330
241
102
}
330
241
100
AcDbScale
 70
     0
300
1" = 1'-0"
140
1.0
141
12.0
290
     0
  0
SCALE
  5
25F
102
{ACAD_REACTORS
330
241
102
}
330
241
100
AcDbScale
 70
     0
300
1-1/2" = 1'-0"
140
1.5
141
12.0
290
     0
  0
SCALE
  5
260
102
{ACAD_REACTORS
330
241
102
}
330
241
100
AcDbScale
 70
     0
300
3" = 1'-0"
140
3.0
141
12.0
290
     0
  0
SCALE
  5
261
102
{ACAD_REACTORS
330
241
102
}
330
241
100
AcDbScale
 70
     0
300
6" = 1'-0"
140
6.0
141
12.0
290
     0
  0
SCALE
  5
262
102
{ACAD_REACTORS
330
241
102
}
330
241
100
AcDbScale
 70
     0
300
1'-0" = 1'-0"
140
12.0
141
12.0
290
     0
  0
TABLESTYLE
  5
279
102
{ACAD_REACTORS
330
278
102
}
102
{ACAD_XDICTIONARY
360
727F
102
}
330
278
100
AcDbTableStyle
  3
Standard
 70
     0
 71
     0
 40
0.06
 41
0.06
280
     0
281
     0
  7
Standard
140
4.5
170
     2
 62
     0
 63
   257
283
     0
 90
        4
 91
        0
  1

274
    -2
284
     1
 64
     0
275
    -2
285
     1
 65
     0
276
    -2
286
     1
 66
     0
277
    -2
287
     1
 67
     0
278
    -2
288
     1
 68
     0
279
    -2
289
     1
 69
     0
  7
Standard
140
6.0
170
     5
 62
     0
 63
   257
283
     0
 90
        4
 91
        0
  1

274
    -2
284
     1
 64
     0
275
    -2
285
     1
 65
     0
276
    -2
286
     1
 66
     0
277
    -2
287
     1
 67
     0
278
    -2
288
     1
 68
     0
279
    -2
289
     1
 69
     0
  7
Standard
140
4.5
170
     5
 62
     0
 63
   257
283
     0
 90
        4
 91
        0
  1

274
    -2
284
     1
 64
     0
275
    -2
285
     1
 65
     0
276
    -2
286
     1
 66
     0
277
    -2
287
     1
 67
     0
278
    -2
288
     1
 68
     0
279
    -2
289
     1
 69
     0
  0
VISUALSTYLE
  5
26C
102
{ACAD_REACTORS
330
267
102
}
330
267
100
AcDbVisualStyle
  2
2dWireframe
 70
     4
 71
     0
 72
     2
 73
     0
 90
        0
 40
-0.6
 41
-30.0
 62
     5
 63
     7
421
 16777215
 74
     1
 91
        4
 64
     7
 65
   257
 75
     1
175
     1
 42
1.0
 92
        0
 66
   257
 43
1.0
 76
     1
 77
     6
 78
     2
 67
     7
 79
     5
170
     0
171
     0
290
     0
174
     0
 93
        1
 44
0.0
173
     0
291
     0
 45
0.0
  0
VISUALSTYLE
  5
26E
102
{ACAD_REACTORS
330
267
102
}
330
267
100
AcDbVisualStyle
  2
3D Hidden
 70
     6
 71
     1
 72
     2
 73
     2
 90
        0
 40
-0.6
 41
-30.0
 62
     5
 63
     7
421
 16777215
 74
     2
 91
        2
 64
     7
 65
   257
 75
     2
175
     1
 42
40.0
 92
        0
 66
   257
 43
1.0
 76
     1
 77
     6
 78
     2
 67
     7
 79
     3
170
     0
171
     0
290
     0
174
     0
 93
        1
 44
0.0
173
     0
291
     0
 45
0.0
  0
VISUALSTYLE
  5
26D
102
{ACAD_REACTORS
330
267
102
}
330
267
100
AcDbVisualStyle
  2
3dWireframe
 70
     5
 71
     0
 72
     2
 73
     0
 90
        0
 40
-0.6
 41
-30.0
 62
     5
 63
     7
421
 16777215
 74
     1
 91
        4
 64
     7
 65
   257
 75
     1
175
     1
 42
1.0
 92
        0
 66
   257
 43
1.0
 76
     1
 77
     6
 78
     2
 67
     7
 79
     5
170
     0
171
     0
290
     0
174
     0
 93
        1
 44
0.0
173
     0
291
     0
 45
0.0
  0
VISUALSTYLE
  5
26F
102
{ACAD_REACTORS
330
267
102
}
330
267
100
AcDbVisualStyle
  2
Basic
 70
     7
 71
     1
 72
     0
 73
     1
 90
        0
 40
-0.6
 41
-30.0
 62
     5
 63
     7
421
 16777215
 74
     0
 91
        4
 64
     7
 65
   257
 75
     1
175
     1
 42
1.0
 92
        8
 66
     7
 43
1.0
 76
     1
 77
     6
 78
     2
 67
     7
 79
     5
170
     0
171
     0
290
     0
174
     0
 93
        1
 44
0.0
173
     0
291
     1
 45
0.0
  0
VISUALSTYLE
  5
273
102
{ACAD_REACTORS
330
267
102
}
330
267
100
AcDbVisualStyle
  2
Brighten
 70
    12
 71
     2
 72
     2
 73
     0
 90
        0
 40
-0.6
 41
-30.0
 62
     5
 63
     7
421
 16777215
 74
     1
 91
        4
 64
     7
 65
   257
 75
     1
175
     1
 42
1.0
 92
        8
 66
     7
 43
1.0
 76
     1
 77
     6
 78
     2
 67
     7
 79
     5
170
     0
171
     0
290
     0
174
     0
 93
        1
 44
50.0
173
     0
291
     1
 45
0.0
  0
VISUALSTYLE
  5
277
102
{ACAD_REACTORS
330
267
102
}
330
267
100
AcDbVisualStyle
  2
ColorChange
 70
    16
 71
     2
 72
     2
 73
     3
 90
        0
 40
-0.6
 41
-30.0
 62
     5
 63
     8
421
  8421504
 74
     1
 91
        4
 64
     7
 65
   257
 75
     1
175
     1
 42
1.0
 92
        8
 66
     8
424
  8421504
 43
1.0
 76
     1
 77
     6
 78
     2
 67
     7
 79
     5
170
     0
171
     0
290
     0
174
     0
 93
        1
 44
0.0
173
     0
291
     1
 45
0.0
  0
VISUALSTYLE
  5
271
102
{ACAD_REACTORS
330
267
102
}
330
267
100
AcDbVisualStyle
  2
Conceptual
 70
     9
 71
     3
 72
     2
 73
     0
 90
        0
 40
-0.6
 41
-30.0
 62
     5
 63
     7
421
 16777215
 74
     2
 91
        2
 64
     7
 65
   257
 75
     1
175
     1
 42
40.0
 92
        8
 66
     7
 43
1.0
 76
     1
 77
     6
 78
     2
 67
     7
 79
     3
170
     0
171
     0
290
     0
174
     0
 93
        1
 44
0.0
173
     0
291
     0
 45
0.0
  0
VISUALSTYLE
  5
272
102
{ACAD_REACTORS
330
267
102
}
330
267
100
AcDbVisualStyle
  2
Dim
 70
    11
 71
     2
 72
     2
 73
     0
 90
        0
 40
-0.6
 41
-30.0
 62
     5
 63
     7
421
 16777215
 74
     1
 91
        4
 64
     7
 65
   257
 75
     1
175
     1
 42
1.0
 92
        8
 66
     7
 43
1.0
 76
     1
 77
     6
 78
     2
 67
     7
 79
     5
170
     0
171
     0
290
     0
174
     0
 93
        1
 44
-50.0
173
     0
291
     1
 45
0.0
  0
VISUALSTYLE
  5
8FE
102
{ACAD_REACTORS
330
267
102
}
330
267
100
AcDbVisualStyle
  2
EdgeColorOff
 70
    22
 71
     2
 72
     2
 73
     0
 90
        0
 40
0.6
 41
30.0
 62
     5
 63
     7
421
 16777215
 74
     1
 91
        4
 64
     7
 65
   257
 75
     1
175
     1
 42
1.0
 92
        8
 66
     7
 43
1.0
 76
     1
 77
     6
 78
     2
 67
     7
 79
     5
170
     0
171
     0
290
     0
174
     0
 93
        1
 44
0.0
173
     0
291
     1
 45
0.0
  0
VISUALSTYLE
  5
276
102
{ACAD_REACTORS
330
267
102
}
330
267
100
AcDbVisualStyle
  2
Facepattern
 70
    15
 71
     2
 72
     2
 73
     0
 90
        0
 40
-0.6
 41
-30.0
 62
     5
 63
     7
421
 16777215
 74
     1
 91
        4
 64
     7
 65
   257
 75
     1
175
     1
 42
1.0
 92
        8
 66
     7
 43
1.0
 76
     1
 77
     6
 78
     2
 67
     7
 79
     5
170
     0
171
     0
290
     0
174
     0
 93
        1
 44
0.0
173
     0
291
     1
 45
0.0
  0
VISUALSTYLE
  5
268
102
{ACAD_REACTORS
330
267
102
}
330
267
100
AcDbVisualStyle
  2
Flat
 70
     0
 71
     2
 72
     1
 73
     1
 90
        2
 40
-0.6
 41
30.0
 62
     5
 63
     7
421
 16777215
 74
     0
 91
        4
 64
     7
 65
   257
 75
     1
175
     1
 42
1.0
 92
        8
 66
     7
 43
1.0
 76
     1
 77
     6
 78
     2
 67
     7
 79
     5
170
     0
171
     0
290
     0
174
     0
 93
       13
 44
0.0
173
     0
291
     1
 45
0.0
  0
VISUALSTYLE
  5
269
102
{ACAD_REACTORS
330
267
102
}
330
267
100
AcDbVisualStyle
  2
FlatWithEdges
 70
     1
 71
     2
 72
     1
 73
     1
 90
        2
 40
-0.6
 41
30.0
 62
     5
 63
     7
421
 16777215
 74
     1
 91
        4
 64
     7
 65
   257
 75
     1
175
     1
 42
1.0
 92
        0
 66
   257
 43
1.0
 76
     1
 77
     6
 78
     2
 67
     7
 79
     5
170
     0
171
     0
290
     0
174
     0
 93
       13
 44
0.0
173
     0
291
     1
 45
0.0
  0
VISUALSTYLE
  5
26A
102
{ACAD_REACTORS
330
267
102
}
330
267
100
AcDbVisualStyle
  2
Gouraud
 70
     2
 71
     2
 72
     2
 73
     1
 90
        2
 40
-0.6
 41
30.0
 62
     5
 63
     7
421
 16777215
 74
     0
 91
        4
 64
     7
 65
   257
 75
     1
175
     1
 42
1.0
 92
        0
 66
     7
 43
1.0
 76
     1
 77
     6
 78
     2
 67
     7
 79
     5
170
     0
171
     0
290
     0
174
     0
 93
       13
 44
0.0
173
     0
291
     1
 45
0.0
  0
VISUALSTYLE
  5
26B
102
{ACAD_REACTORS
330
267
102
}
330
267
100
AcDbVisualStyle
  2
GouraudWithEdges
 70
     3
 71
     2
 72
     2
 73
     1
 90
        2
 40
-0.6
 41
30.0
 62
     5
 63
     7
421
 16777215
 74
     1
 91
        4
 64
     7
 65
   257
 75
     1
175
     1
 42
1.0
 92
        0
 66
   257
 43
1.0
 76
     1
 77
     6
 78
     2
 67
     7
 79
     5
170
     0
171
     0
290
     0
174
     0
 93
       13
 44
0.0
173
     0
291
     1
 45
0.0
  0
VISUALSTYLE
  5
8FB
102
{ACAD_REACTORS
330
267
102
}
330
267
100
AcDbVisualStyle
  2
Hidden
 70
     6
 71
     1
 72
     2
 73
     2
 90
        0
 40
0.6
 41
30.0
 62
     5
 63
     7
421
 16777215
 74
     2
 91
        2
 64
     7
 65
   257
 75
     2
175
     1
 42
40.0
 92
        0
 66
   257
 43
1.0
 76
     1
 77
     6
 78
     2
 67
     7
 79
     3
170
     0
171
     0
290
     0
174
     0
 93
        1
 44
0.0
173
     0
291
     0
 45
0.0
  0
VISUALSTYLE
  5
8FC
102
{ACAD_REACTORS
330
267
102
}
330
267
100
AcDbVisualStyle
  2
JitterOff
 70
    20
 71
     2
 72
     2
 73
     0
 90
        0
 40
0.6
 41
30.0
 62
     5
 63
     7
421
 16777215
 74
     1
 91
        4
 64
     7
 65
   257
 75
     1
175
     1
 42
1.0
 92
       10
 66
     7
 43
1.0
 76
     1
 77
     6
 78
     2
 67
     7
 79
     5
170
     0
171
     0
290
     0
174
     0
 93
        1
 44
0.0
173
     0
291
     1
 45
0.0
  0
VISUALSTYLE
  5
275
102
{ACAD_REACTORS
330
267
102
}
330
267
100
AcDbVisualStyle
  2
Linepattern
 70
    14
 71
     2
 72
     2
 73
     0
 90
        0
 40
-0.6
 41
-30.0
 62
     5
 63
     7
421
 16777215
 74
     1
 91
        4
 64
     7
 65
   257
 75
     7
175
     7
 42
1.0
 92
        8
 66
     7
 43
1.0
 76
     1
 77
     6
 78
     2
 67
     7
 79
     5
170
     0
171
     0
290
     0
174
     0
 93
        1
 44
0.0
173
     0
291
     1
 45
0.0
  0
VISUALSTYLE
  5
8FD
102
{ACAD_REACTORS
330
267
102
}
330
267
100
AcDbVisualStyle
  2
OverhangOff
 70
    21
 71
     2
 72
     2
 73
     0
 90
        0
 40
0.6
 41
30.0
 62
     5
 63
     7
421
 16777215
 74
     1
 91
        4
 64
     7
 65
   257
 75
     1
175
     1
 42
1.0
 92
        9
 66
     7
 43
1.0
 76
     1
 77
     6
 78
     2
 67
     7
 79
     5
170
     0
171
     0
290
     0
174
     0
 93
        1
 44
0.0
173
     0
291
     1
 45
0.0
  0
VISUALSTYLE
  5
270
102
{ACAD_REACTORS
330
267
102
}
330
267
100
AcDbVisualStyle
  2
Realistic
 70
     8
 71
     2
 72
     2
 73
     0
 90
        0
 40
-0.6
 41
-30.0
 62
     5
 63
     7
421
 16777215
 74
     1
 91
        0
 64
     7
 65
   257
 75
     1
175
     1
 42
1.0
 92
        8
 66
     8
424
  7895160
 43
1.0
 76
     1
 77
     6
 78
     2
 67
     7
 79
     5
170
     0
171
     0
290
     0
174
     0
 93
       13
 44
0.0
173
     0
291
     0
 45
0.0
  0
VISUALSTYLE
  5
903
102
{ACAD_REACTORS
330
267
102
}
330
267
100
AcDbVisualStyle
  2
Shaded
 70
    27
 71
     2
 72
     2
 73
     1
 90
        2
 40
0.6
 41
30.0
 62
     5
 63
     7
421
 16777215
 74
     0
 91
        4
 64
     7
 65
   257
 75
     1
175
     1
 42
1.0
 92
        8
 66
   257
 43
1.0
 76
     1
 77
     6
 78
     2
 67
     8
425
  7895160
 79
     3
170
     0
171
     0
290
     0
174
     0
 93
        5
 44
0.0
173
     0
291
     0
 45
0.0
  0
VISUALSTYLE
  5
902
102
{ACAD_REACTORS
330
267
102
}
330
267
100
AcDbVisualStyle
  2
Shaded with edges
 70
    26
 71
     2
 72
     2
 73
     1
 90
        2
 40
0.6
 41
30.0
 62
     5
 63
     7
421
 16777215
 74
     1
 91
       10
 64
     7
 65
   257
 75
     2
175
     1
 42
1.0
 92
        8
 66
   257
 43
1.0
 76
     1
 77
     6
 78
     2
 67
     7
 79
     3
170
     0
171
     0
290
     0
174
     0
 93
        5
 44
0.0
173
     0
291
     0
 45
0.0
  0
VISUALSTYLE
  5
8FF
102
{ACAD_REACTORS
330
267
102
}
330
267
100
AcDbVisualStyle
  2
Shades of Gray
 70
    23
 71
     2
 72
     2
 73
     3
 90
        0
 40
0.6
 41
30.0
 62
     5
 63
     7
421
 16777215
 74
     2
 91
        2
 64
     7
 65
     7
 75
     1
175
     1
 42
40.0
 92
        8
 66
     7
 43
1.0
 76
     1
 77
     6
 78
     2
 67
     7
 79
     3
170
     0
171
     0
290
     0
174
     0
 93
        1
 44
0.0
173
     0
291
     0
 45
0.0
  0
VISUALSTYLE
  5
900
102
{ACAD_REACTORS
330
267
102
}
330
267
100
AcDbVisualStyle
  2
Sketchy
 70
    24
 71
     1
 72
     2
 73
     2
 90
        0
 40
0.6
 41
30.0
 62
     5
 63
     7
421
 16777215
 74
     2
 91
        2
 64
     7
 65
     7
 75
     1
175
     1
 42
40.0
 92
       11
 66
     7
 43
1.0
 76
     1
 77
     6
 78
     2
 67
     7
 79
     6
170
     0
171
     0
290
     0
174
     0
 93
        1
 44
0.0
173
     0
291
     0
 45
0.0
  0
VISUALSTYLE
  5
274
102
{ACAD_REACTORS
330
267
102
}
330
267
100
AcDbVisualStyle
  2
Thicken
 70
    13
 71
     2
 72
     2
 73
     0
 90
        0
 40
-0.6
 41
-30.0
 62
     5
 63
     7
421
 16777215
 74
     1
 91
        4
 64
     7
 65
   257
 75
     1
175
     1
 42
1.0
 92
       12
 66
     7
 43
1.0
 76
     1
 77
     6
 78
     2
 67
     7
 79
     5
170
     0
171
     0
290
     0
174
     0
 93
        1
 44
0.0
173
     0
291
     1
 45
0.0
  0
VISUALSTYLE
  5
8FA
102
{ACAD_REACTORS
330
267
102
}
330
267
100
AcDbVisualStyle
  2
Wireframe
 70
     5
 71
     0
 72
     2
 73
     0
 90
        0
 40
0.6
 41
30.0
 62
     5
 63
     7
421
 16777215
 74
     1
 91
        4
 64
     7
 65
   257
 75
     1
175
     1
 42
1.0
 92
        0
 66
   257
 43
1.0
 76
     1
 77
     6
 78
     2
 67
     7
 79
     3
170
     0
171
     0
290
     0
174
     0
 93
        1
 44
0.0
173
     0
291
     0
 45
0.0
  0
VISUALSTYLE
  5
901
102
{ACAD_REACTORS
330
267
102
}
330
267
100
AcDbVisualStyle
  2
X-Ray
 70
    25
 71
     2
 72
     2
 73
     1
 90
        1
 40
0.5
 41
30.0
 62
     5
 63
     7
421
 16777215
 74
     1
 91
        0
 64
     7
 65
   257
 75
     1
175
     1
 42
1.0
 92
        8
 66
     7
 43
1.0
 76
     1
 77
     6
 78
     2
 67
     7
 79
     3
170
     0
171
     0
290
     0
174
     0
 93
       13
 44
0.0
173
     0
291
     0
 45
0.0
  0
DICTIONARYVAR
  5
331
102
{ACAD_REACTORS
330
330
102
}
330
330
100
DictionaryVariables
280
     0
  1
1:1
  0
DICTIONARYVAR
  5
1AA2
102
{ACAD_REACTORS
330
330
102
}
330
330
100
DictionaryVariables
280
     0
  1
Standard
  0
DICTIONARYVAR
  5
335
102
{ACAD_REACTORS
330
330
102
}
330
330
100
DictionaryVariables
280
     0
  1
Standard
  0
DICTIONARYVAR
  5
D6B
102
{ACAD_REACTORS
330
330
102
}
330
330
100
DictionaryVariables
280
     0
  1
ByLayer
  0
DICTIONARYVAR
  5
896
102
{ACAD_REACTORS
330
330
102
}
330
330
100
DictionaryVariables
280
     0
  1
0
  0
DICTIONARYVAR
  5
7179
102
{ACAD_REACTORS
330
7176
102
}
330
7176
100
DictionaryVariables
280
     0
  1
0.261799
  0
DICTIONARYVAR
  5
7177
102
{ACAD_REACTORS
330
7176
102
}
330
7176
100
DictionaryVariables
280
     0
  1
0.400000
  0
DICTIONARYVAR
  5
7178
102
{ACAD_REACTORS
330
7176
102
}
330
7176
100
DictionaryVariables
280
     0
  1
0.250000
  0
DICTIONARYVAR
  5
717A
102
{ACAD_REACTORS
330
7176
102
}
330
7176
100
DictionaryVariables
280
     0
  1
1
  0
XRECORD
  5
7AA
102
{ACAD_REACTORS
330
2E2
102
}
330
2E2
100
AcDbXrecord
280
     1
 91
     1023
301

290
     0
302
DIM
330
14
 90
        8
 62
     7
370
    -3
331
13
  1
Color_7
330
4B
 90
        8
 62
     7
370
    20
331
13
  1
Color_7
330
4C
 90
        8
 62
     7
370
    13
331
13
  1
Color_7
330
4D
 90
        8
 62
     7
370
    20
331
13
  1
Color_7
330
667
 90
        8
 62
     7
370
    -3
331
13
  1
Color_7
330
0
 90
        8
 62
     7
370
    20
331
0
  1
Color_7
330
DDE
 90
        0
 62
     7
370
    -3
331
13
  1
Color_7
330
E72
 90
        8
 62
     7
370
    -3
331
13
  1
Color_7
  0
DICTIONARY
  5
727F
330
279
100
AcDbDictionary
280
     1
281
     1
  3
ACAD_ROUNDTRIP_2008_TABLESTYLE_CELLSTYLEMAP
360
7280
  0
CELLSTYLEMAP
  5
7280
102
{ACAD_REACTORS
330
727F
102
}
330
727F
100
AcDbCellStyleMap
 90
        3
300
CELLSTYLE
  1
TABLEFORMAT_BEGIN
 90
        5
170
     1
 91
        0
 92
    32768
 62
   257
 93
        1
300
CONTENTFORMAT
  1
CONTENTFORMAT_BEGIN
 90
        0
 91
        0
 92
        4
 93
        0
300

 40
0.0
140
1.0
 94
        5
 62
     0
340
17
144
6.0
309
CONTENTFORMAT_END
171
     1
301
MARGIN
  1
CELLMARGIN_BEGIN
 40
0.06
 40
0.06
 40
0.06
 40
0.06
 40
0.18
 40
0.18
309
CELLMARGIN_END
 94
        6
 95
        1
302
GRIDFORMAT
  1
GRIDFORMAT_BEGIN
 90
        0
 91
        1
 62
     0
 92
       -2
340
0
 93
        0
 40
0.045
309
GRIDFORMAT_END
 95
        2
302
GRIDFORMAT
  1
GRIDFORMAT_BEGIN
 90
        0
 91
        1
 62
     0
 92
       -2
340
0
 93
        0
 40
0.045
309
GRIDFORMAT_END
 95
        4
302
GRIDFORMAT
  1
GRIDFORMAT_BEGIN
 90
        0
 91
        1
 62
     0
 92
       -2
340
0
 93
        0
 40
0.045
309
GRIDFORMAT_END
 95
        8
302
GRIDFORMAT
  1
GRIDFORMAT_BEGIN
 90
        0
 91
        1
 62
     0
 92
       -2
340
0
 93
        0
 40
0.045
309
GRIDFORMAT_END
 95
       16
302
GRIDFORMAT
  1
GRIDFORMAT_BEGIN
 90
        0
 91
        1
 62
     0
 92
       -2
340
0
 93
        0
 40
0.045
309
GRIDFORMAT_END
 95
       32
302
GRIDFORMAT
  1
GRIDFORMAT_BEGIN
 90
        0
 91
        1
 62
     0
 92
       -2
340
0
 93
        0
 40
0.045
309
GRIDFORMAT_END
309
TABLEFORMAT_END
  1
CELLSTYLE_BEGIN
 90
        1
 91
        1
300
_TITLE
309
CELLSTYLE_END
300
CELLSTYLE
  1
TABLEFORMAT_BEGIN
 90
        5
170
     1
 91
        0
 92
        0
 62
   257
 93
        1
300
CONTENTFORMAT
  1
CONTENTFORMAT_BEGIN
 90
        0
 91
        0
 92
        4
 93
        0
300

 40
0.0
140
1.0
 94
        5
 62
     0
340
17
144
4.5
309
CONTENTFORMAT_END
171
     1
301
MARGIN
  1
CELLMARGIN_BEGIN
 40
0.06
 40
0.06
 40
0.06
 40
0.06
 40
0.18
 40
0.18
309
CELLMARGIN_END
 94
        6
 95
        1
302
GRIDFORMAT
  1
GRIDFORMAT_BEGIN
 90
        0
 91
        1
 62
     0
 92
       -2
340
0
 93
        0
 40
0.045
309
GRIDFORMAT_END
 95
        2
302
GRIDFORMAT
  1
GRIDFORMAT_BEGIN
 90
        0
 91
        1
 62
     0
 92
       -2
340
0
 93
        0
 40
0.045
309
GRIDFORMAT_END
 95
        4
302
GRIDFORMAT
  1
GRIDFORMAT_BEGIN
 90
        0
 91
        1
 62
     0
 92
       -2
340
0
 93
        0
 40
0.045
309
GRIDFORMAT_END
 95
        8
302
GRIDFORMAT
  1
GRIDFORMAT_BEGIN
 90
        0
 91
        1
 62
     0
 92
       -2
340
0
 93
        0
 40
0.045
309
GRIDFORMAT_END
 95
       16
302
GRIDFORMAT
  1
GRIDFORMAT_BEGIN
 90
        0
 91
        1
 62
     0
 92
       -2
340
0
 93
        0
 40
0.045
309
GRIDFORMAT_END
 95
       32
302
GRIDFORMAT
  1
GRIDFORMAT_BEGIN
 90
        0
 91
        1
 62
     0
 92
       -2
340
0
 93
        0
 40
0.045
309
GRIDFORMAT_END
309
TABLEFORMAT_END
  1
CELLSTYLE_BEGIN
 90
        2
 91
        1
300
_HEADER
309
CELLSTYLE_END
300
CELLSTYLE
  1
TABLEFORMAT_BEGIN
 90
        5
170
     1
 91
        0
 92
        0
 62
   257
 93
        1
300
CONTENTFORMAT
  1
CONTENTFORMAT_BEGIN
 90
        0
 91
        0
 92
        4
 93
        0
300

 40
0.0
140
1.0
 94
        2
 62
     0
340
17
144
4.5
309
CONTENTFORMAT_END
171
     1
301
MARGIN
  1
CELLMARGIN_BEGIN
 40
0.06
 40
0.06
 40
0.06
 40
0.06
 40
0.18
 40
0.18
309
CELLMARGIN_END
 94
        6
 95
        1
302
GRIDFORMAT
  1
GRIDFORMAT_BEGIN
 90
        0
 91
        1
 62
     0
 92
       -2
340
0
 93
        0
 40
0.045
309
GRIDFORMAT_END
 95
        2
302
GRIDFORMAT
  1
GRIDFORMAT_BEGIN
 90
        0
 91
        1
 62
     0
 92
       -2
340
0
 93
        0
 40
0.045
309
GRIDFORMAT_END
 95
        4
302
GRIDFORMAT
  1
GRIDFORMAT_BEGIN
 90
        0
 91
        1
 62
     0
 92
       -2
340
0
 93
        0
 40
0.045
309
GRIDFORMAT_END
 95
        8
302
GRIDFORMAT
  1
GRIDFORMAT_BEGIN
 90
        0
 91
        1
 62
     0
 92
       -2
340
0
 93
        0
 40
0.045
309
GRIDFORMAT_END
 95
       16
302
GRIDFORMAT
  1
GRIDFORMAT_BEGIN
 90
        0
 91
        1
 62
     0
 92
       -2
340
0
 93
        0
 40
0.045
309
GRIDFORMAT_END
 95
       32
302
GRIDFORMAT
  1
GRIDFORMAT_BEGIN
 90
        0
 91
        1
 62
     0
 92
       -2
340
0
 93
        0
 40
0.045
309
GRIDFORMAT_END
309
TABLEFORMAT_END
  1
CELLSTYLE_BEGIN
 90
        3
 91
        2
300
_DATA
309
CELLSTYLE_END
  0
ENDSEC
  0
EOF
