  0
SECTION
  2
HEADER
  9
$ACADVER
  1
AC1021
  9
$ACADMAINTVER
 70
    25
  9
$DWGCODEPAGE
  3
ANSI_932
  9
$LASTSAVEDBY
  1
howeNelson
  9
$INSBASE
 10
0.0
 20
0.0
 30
0.0
  9
$EXTMIN
 10
0.0
 20
0.0
 30
-0.0000000000000142
  9
$EXTMAX
 10
630.0000000000001
 20
891.0
 30
0.0000000000000071
  9
$LIMMIN
 10
0.0
 20
0.0
  9
$LIMMAX
 10
630.0000000000001
 20
891.0
  9
$ORTHOMODE
 70
     0
  9
$REGENMODE
 70
     1
  9
$FILLMODE
 70
     1
  9
$QTEXTMODE
 70
     0
  9
$MIRRTEXT
 70
     1
  9
$LTSCALE
 40
50.8
  9
$ATTMODE
 70
     1
  9
$TEXTSIZE
 40
2.5
  9
$TRACEWID
 40
1.0
  9
$TEXTSTYLE
  7
ＭＳ ゴシック
  9
$CLAYER
  8
DIM
  9
$CELTYPE
  6
ByLayer
  9
$CECOLOR
 62
     2
  9
$CELTSCALE
 40
1.0
  9
$DISPSILH
 70
     0
  9
$DIMSCALE
 40
1.0
  9
$DIMASZ
 40
2.0
  9
$DIMEXO
 40
5.0
  9
$DIMDLI
 40
0.0
  9
$DIMRND
 40
0.0
  9
$DIMDLE
 40
0.0
  9
$DIMEXE
 40
0.0
  9
$DIMTP
 40
0.0
  9
$DIMTM
 40
0.0
  9
$DIMTXT
 40
7.0
  9
$DIMCEN
 40
0.0
  9
$DIMTSZ
 40
0.0
  9
$DIMTOL
 70
     0
  9
$DIMLIM
 70
     0
  9
$DIMTIH
 70
     0
  9
$DIMTOH
 70
     0
  9
$DIMSE1
 70
     0
  9
$DIMSE2
 70
     0
  9
$DIMTAD
 70
     1
  9
$DIMZIN
 70
    11
  9
$DIMBLK
  1
DOT
  9
$DIMASO
 70
     1
  9
$DIMSHO
 70
     1
  9
$DIMPOST
  1
<>
  9
$DIMAPOST
  1
[]
  9
$DIMALT
 70
     0
  9
$DIMALTD
 70
     1
  9
$DIMALTF
 40
1.0
  9
$DIMLFAC
 40
1.0
  9
$DIMTOFL
 70
     0
  9
$DIMTVP
 40
0.0
  9
$DIMTIX
 70
     1
  9
$DIMSOXD
 70
     0
  9
$DIMSAH
 70
     0
  9
$DIMBLK1
  1

  9
$DIMBLK2
  1

  9
$DIMSTYLE
  2
tfrom線あり
  9
$DIMCLRD
 70
     0
  9
$DIMCLRE
 70
     0
  9
$DIMCLRT
 70
     0
  9
$DIMTFAC
 40
1.0
  9
$DIMGAP
 40
10.0
  9
$DIMJUST
 70
     0
  9
$DIMSD1
 70
     0
  9
$DIMSD2
 70
     0
  9
$DIMTOLJ
 70
     1
  9
$DIMTZIN
 70
    11
  9
$DIMALTZ
 70
    11
  9
$DIMALTTZ
 70
    11
  9
$DIMUPT
 70
     0
  9
$DIMDEC
 70
     0
  9
$DIMTDEC
 70
     1
  9
$DIMALTU
 70
     2
  9
$DIMALTTD
 70
     2
  9
$DIMTXSTY
  7
ＭＳ ゴシック
  9
$DIMAUNIT
 70
     0
  9
$DIMADEC
 70
     2
  9
$DIMALTRND
 40
0.0
  9
$DIMAZIN
 70
     0
  9
$DIMDSEP
 70
    46
  9
$DIMATFIT
 70
     0
  9
$DIMFRAC
 70
     2
  9
$DIMLDRBLK
  1
DOT
  9
$DIMLUNIT
 70
     2
  9
$DIMLWD
 70
    -2
  9
$DIMLWE
 70
    -2
  9
$DIMTMOVE
 70
     0
  9
$DIMFXL
 40
1.0
  9
$DIMFXLON
 70
     0
  9
$DIMJOGANG
 40
0.7853981633974483
  9
$DIMTFILL
 70
     0
  9
$DIMTFILLCLR
 70
     0
  9
$DIMARCSYM
 70
     0
  9
$DIMLTYPE
  6

  9
$DIMLTEX1
  6

  9
$DIMLTEX2
  6

  9
$LUNITS
 70
     2
  9
$LUPREC
 70
     0
  9
$SKETCHINC
 40
0.1
  9
$FILLETRAD
 40
0.0
  9
$AUNITS
 70
     0
  9
$AUPREC
 70
     0
  9
$MENU
  1
acad
  9
$ELEVATION
 40
0.0
  9
$PELEVATION
 40
0.0
  9
$THICKNESS
 40
0.0
  9
$LIMCHECK
 70
     0
  9
$CHAMFERA
 40
0.0
  9
$CHAMFERB
 40
0.0
  9
$CHAMFERC
 40
0.0
  9
$CHAMFERD
 40
0.0
  9
$SKPOLY
 70
     0
  9
$TDCREATE
 40
2447893.375
  9
$TDUCREATE
 40
0.0
  9
$TDUPDATE
 40
2458866.600436875
  9
$TDUUPDATE
 40
2458866.225436875
  9
$TDINDWG
 40
0.3386260648
  9
$TDUSRTIMER
 40
0.0025019444
  9
$USRTIMER
 70
     1
  9
$ANGBASE
 50
0.0
  9
$ANGDIR
 70
     0
  9
$PDMODE
 70
     1
  9
$PDSIZE
 40
-2.0
  9
$PLINEWID
 40
0.0
  9
$SPLFRAME
 70
     0
  9
$SPLINETYPE
 70
     6
  9
$SPLINESEGS
 70
     8
  9
$HANDSEED
  5
8F92
  9
$SURFTAB1
 70
     6
  9
$SURFTAB2
 70
     6
  9
$SURFTYPE
 70
     6
  9
$SURFU
 70
     6
  9
$SURFV
 70
     6
  9
$UCSBASE
  2

  9
$UCSNAME
  2

  9
$UCSORG
 10
0.0
 20
0.0
 30
0.0
  9
$UCSXDIR
 10
1.0
 20
0.0
 30
0.0
  9
$UCSYDIR
 10
0.0
 20
1.0
 30
0.0
  9
$UCSORTHOREF
  2

  9
$UCSORTHOVIEW
 70
     0
  9
$UCSORGTOP
 10
0.0
 20
0.0
 30
0.0
  9
$UCSORGBOTTOM
 10
0.0
 20
0.0
 30
0.0
  9
$UCSORGLEFT
 10
0.0
 20
0.0
 30
0.0
  9
$UCSORGRIGHT
 10
0.0
 20
0.0
 30
0.0
  9
$UCSORGFRONT
 10
0.0
 20
0.0
 30
0.0
  9
$UCSORGBACK
 10
0.0
 20
0.0
 30
0.0
  9
$PUCSBASE
  2

  9
$PUCSNAME
  2

  9
$PUCSORG
 10
0.0
 20
0.0
 30
0.0
  9
$PUCSXDIR
 10
1.0
 20
0.0
 30
0.0
  9
$PUCSYDIR
 10
0.0
 20
1.0
 30
0.0
  9
$PUCSORTHOREF
  2

  9
$PUCSORTHOVIEW
 70
     0
  9
$PUCSORGTOP
 10
0.0
 20
0.0
 30
0.0
  9
$PUCSORGBOTTOM
 10
0.0
 20
0.0
 30
0.0
  9
$PUCSORGLEFT
 10
0.0
 20
0.0
 30
0.0
  9
$PUCSORGRIGHT
 10
0.0
 20
0.0
 30
0.0
  9
$PUCSORGFRONT
 10
0.0
 20
0.0
 30
0.0
  9
$PUCSORGBACK
 10
0.0
 20
0.0
 30
0.0
  9
$USERI1
 70
     0
  9
$USERI2
 70
     0
  9
$USERI3
 70
     0
  9
$USERI4
 70
     0
  9
$USERI5
 70
     0
  9
$USERR1
 40
0.0
  9
$USERR2
 40
0.0
  9
$USERR3
 40
0.0
  9
$USERR4
 40
0.0
  9
$USERR5
 40
0.0
  9
$WORLDVIEW
 70
     1
  9
$SHADEDGE
 70
     3
  9
$SHADEDIF
 70
    70
  9
$TILEMODE
 70
     1
  9
$MAXACTVP
 70
    64
  9
$PINSBASE
 10
0.0
 20
0.0
 30
0.0
  9
$PLIMCHECK
 70
     0
  9
$PEXTMIN
 10
0.0
 20
0.0
 30
0.0
  9
$PEXTMAX
 10
0.0
 20
0.0
 30
0.0
  9
$PLIMMIN
 10
-7.5
 20
-20.0
  9
$PLIMMAX
 10
412.5
 20
277.0
  9
$UNITMODE
 70
     0
  9
$VISRETAIN
 70
     0
  9
$PLINEGEN
 70
     1
  9
$PSLTSCALE
 70
     0
  9
$TREEDEPTH
 70
  3020
  9
$CMLSTYLE
  2
Standard
  9
$CMLJUST
 70
     0
  9
$CMLSCALE
 40
1.0
  9
$PROXYGRAPHICS
 70
     0
  9
$MEASUREMENT
 70
     1
  9
$CELWEIGHT
370
    -1
  9
$ENDCAPS
280
     0
  9
$JOINSTYLE
280
     0
  9
$LWDISPLAY
290
     1
  9
$INSUNITS
 70
     4
  9
$HYPERLINKBASE
  1

  9
$STYLESHEET
  1

  9
$XEDIT
290
     1
  9
$CEPSNTYPE
380
     0
  9
$PSTYLEMODE
290
     1
  9
$FINGERPRINTGUID
  2

  9
$VERSIONGUID
  2

  9
$EXTNAMES
290
     1
  9
$PSVPSCALE
 40
0.0
  9
$OLESTARTUP
290
     0
  9
$SORTENTS
280
   127
  9
$INDEXCTL
280
     0
  9
$HIDETEXT
280
     1
  9
$XCLIPFRAME
290
     0
  9
$HALOGAP
280
     0
  9
$OBSCOLOR
 70
   257
  9
$OBSLTYPE
280
     0
  9
$INTERSECTIONDISPLAY
280
     0
  9
$INTERSECTIONCOLOR
 70
   257
  9
$DIMASSOC
280
     2
  9
$PROJECTNAME
  1

  9
$CAMERADISPLAY
290
     0
  9
$LENSLENGTH
 40
50.0
  9
$CAMERAHEIGHT
 40
0.0
  9
$STEPSPERSEC
 40
2.0
  9
$STEPSIZE
 40
6.0
  9
$3DDWFPREC
 40
2.0
  9
$PSOLWIDTH
 40
0.25
  9
$PSOLHEIGHT
 40
4.0
  9
$LOFTANG1
 40
1.570796326794897
  9
$LOFTANG2
 40
1.570796326794897
  9
$LOFTMAG1
 40
0.0
  9
$LOFTMAG2
 40
0.0
  9
$LOFTPARAM
 70
     7
  9
$LOFTNORMALS
280
     1
  9
$LATITUDE
 40
37.795
  9
$LONGITUDE
 40
-122.394
  9
$NORTHDIRECTION
 40
0.0
  9
$TIMEZONE
 70
 -8000
  9
$LIGHTGLYPHDISPLAY
280
     1
  9
$TILEMODELIGHTSYNCH
280
     1
  9
$SOLIDHIST
280
     1
  9
$SHOWHIST
280
     1
  9
$DWFFRAME
280
     2
  9
$DGNFRAME
280
     2
  9
$REALWORLDSCALE
290
     1
  9
$INTERFERECOLOR
 62
   256
  9
$CSHADOW
280
     0
  9
$SHADOWPLANELOCATION
 40
0.0
  0
ENDSEC
  0
SECTION
  2
CLASSES
  0
CLASS
  1
LWPOLYLINE
  2
AcDbPolyline
  3
ObjectDBX Classes
 90
        0
 91
        1
280
     0
281
     1
  0
CLASS
  1
IMAGE
  2
AcDbRasterImage
  3
ISM
 90
      127
 91
        6
280
     0
281
     1
  0
CLASS
  1
OLE2FRAME
  2
AcDbOle2Frame
  3
ObjectDBX Classes
 90
        0
 91
        1
280
     0
281
     1
  0
CLASS
  1
HATCH
  2
AcDbHatch
  3
ObjectDBX Classes
 90
        0
 91
        1
280
     0
281
     1
  0
CLASS
  1
DICTIONARYVAR
  2
AcDbDictionaryVar
  3
ObjectDBX Classes
 90
        0
 91
        5
280
     0
281
     0
  0
CLASS
  1
RASTERVARIABLES
  2
AcDbRasterVariables
  3
ISM
 90
        0
 91
        5
280
     0
281
     0
  0
CLASS
  1
IMAGEDEF
  2
AcDbRasterImageDef
  3
ISM
 90
        0
 91
        5
280
     0
281
     0
  0
CLASS
  1
IMAGEDEF_REACTOR
  2
AcDbRasterImageDefReactor
  3
ISM
 90
        1
 91
        5
280
     0
281
     0
  0
CLASS
  1
IDBUFFER
  2
AcDbIdBuffer
  3
ObjectDBX Classes
 90
        0
 91
        5
280
     0
281
     0
  0
CLASS
  1
SPATIAL_FILTER
  2
AcDbSpatialFilter
  3
ObjectDBX Classes
 90
        0
 91
        5
280
     0
281
     0
  0
CLASS
  1
XRECORD
  2
AcDbXrecord
  3
ObjectDBX Classes
 90
        0
 91
        1
280
     0
281
     0
  0
CLASS
  1
SORTENTSTABLE
  2
AcDbSortentsTable
  3
ObjectDBX Classes
 90
        0
 91
        5
280
     0
281
     0
  0
CLASS
  1
LAYER_INDEX
  2
AcDbLayerIndex
  3
ObjectDBX Classes
 90
        0
 91
        5
280
     0
281
     0
  0
CLASS
  1
SPATIAL_INDEX
  2
AcDbSpatialIndex
  3
AutoCAD 2000
 90
        0
 91
        5
280
     0
281
     0
  0
CLASS
  1
OBJECT_PTR
  2
CAseDLPNTableRecord
  3
ASE-LPNTableRecord
 90
        1
 91
        5
280
     0
281
     0
  0
CLASS
  1
LAYOUT
  2
AcDbLayout
  3
ObjectDBX Classes
 90
        0
 91
        1
280
     0
281
     0
  0
CLASS
  1
PLOTSETTINGS
  2
AcDbPlotSettings
  3
ObjectDBX Classes
 90
        0
 91
        5
280
     0
281
     0
  0
CLASS
  1
ACDBDICTIONARYWDFLT
  2
AcDbDictionaryWithDefault
  3
ObjectDBX Classes
 90
        0
 91
        5
280
     0
281
     0
  0
CLASS
  1
ACDBPLACEHOLDER
  2
AcDbPlaceHolder
  3
ObjectDBX Classes
 90
        0
 91
        1
280
     0
281
     0
  0
CLASS
  1
SCALE
  2
AcDbScale
  3
ObjectDBX Classes
 90
     1153
 91
        5
280
     0
281
     0
  0
CLASS
  1
MATERIAL
  2
AcDbMaterial
  3
ObjectDBX Classes
 90
     1153
 91
        5
280
     0
281
     0
  0
CLASS
  1
VISUALSTYLE
  2
AcDbVisualStyle
  3
ObjectDBX Classes
 90
     4095
 91
        5
280
     0
281
     0
  0
CLASS
  1
TABLESTYLE
  2
AcDbTableStyle
  3
ObjectDBX Classes
 90
     4095
 91
        5
280
     0
281
     0
  0
CLASS
  1
DIMASSOC
  2
AcDbDimAssoc
  3
"AcDbDimAssoc|Product Desc:     AcDim ARX App For Dimension|Company:          Autodesk, Inc.|WEB Address:      www.autodesk.com"
 90
        0
 91
        5
280
     0
281
     0
  0
CLASS
  1
CELLSTYLEMAP
  2
AcDbCellStyleMap
  3
ObjectDBX Classes
 90
     1152
 91
        5
280
     0
281
     0
  0
CLASS
  1
SUN
  2
AcDbSun
  3
SCENEOE
 90
     1153
 91
        5
280
     0
281
     0
  0
CLASS
  1
MLEADERSTYLE
  2
AcDbMLeaderStyle
  3
ACDB_MLEADERSTYLE_CLASS
 90
     4095
 91
        5
280
     0
281
     0
  0
ENDSEC
  0
SECTION
  2
TABLES
  0
TABLE
  2
VPORT
  5
7
330
0
100
AcDbSymbolTable
 70
     1
  0
VPORT
  5
15
330
7
100
AcDbSymbolTableRecord
100
AcDbViewportTableRecord
  2
*ACTIVE
 70
     0
 10
0.0
 20
0.0
 11
1.0
 21
1.0
 12
406.0201356708989
 22
371.901285469834
 13
0.0
 23
0.0
 14
1.0
 24
1.0
 15
0.0
 25
0.0
 16
0.0
 26
0.0
 36
1.0
 17
-91.02013567089887
 27
73.59871453016603
 37
-46.86809886248109
 40
908.82
 41
2.311764705882353
 42
50.0
 43
0.0
 44
0.0
 50
0.0
 51
0.0
 71
    16
 72
  2000
 73
     1
 74
     1
 75
     0
 76
     0
 77
     0
 78
     0
281
     0
 65
     1
110
0.0
120
0.0
130
0.0
111
1.0
121
0.0
131
0.0
112
0.0
122
1.0
132
0.0
 79
     0
146
0.0
348
26C
 60
     3
 61
     5
292
     1
282
     1
141
0.0
142
0.0
 63
   256
361
904
  0
ENDTAB
  0
TABLE
  2
LTYPE
  5
4
330
0
100
AcDbSymbolTable
 70
     6
  0
LTYPE
  5
11
330
4
100
AcDbSymbolTableRecord
100
AcDbLinetypeTableRecord
  2
ByBlock
 70
     0
  3

 72
    65
 73
     0
 40
0.0
  0
LTYPE
  5
12
330
4
100
AcDbSymbolTableRecord
100
AcDbLinetypeTableRecord
  2
ByLayer
 70
     0
  3

 72
    65
 73
     0
 40
0.0
  0
LTYPE
  5
13
330
4
100
AcDbSymbolTableRecord
100
AcDbLinetypeTableRecord
  2
Continuous
 70
     0
  3
Solid line
 72
    65
 73
     0
 40
0.0
  0
LTYPE
  5
16E4
330
4
100
AcDbSymbolTableRecord
100
AcDbLinetypeTableRecord
  2
CENTER
 70
     0
  3
 Center _____  _  _____  _  _____  _  _____  _ 
 72
    65
 73
     4
 40
50.8
 49
31.75
 74
     0
 49
-6.35
 74
     0
 49
6.35
 74
     0
 49
-6.35
 74
     0
  0
LTYPE
  5
1AB3
330
4
100
AcDbSymbolTableRecord
100
AcDbLinetypeTableRecord
  2
BORDER
 70
     0
  3
Border __  __  . __  __  . __  __  . __  __  . 
 72
    65
 73
     6
 40
44.45
 49
12.7
 74
     0
 49
-6.35
 74
     0
 49
12.7
 74
     0
 49
-6.35
 74
     0
 49
0.0
 74
     0
 49
-6.35
 74
     0
  0
LTYPE
  5
1EC6
330
4
100
AcDbSymbolTableRecord
100
AcDbLinetypeTableRecord
  2
HIDDEN2
 70
     0
  3
Hidden (.5x) _ _ _ _ _ _ _ _ _ _ _ _ _ _ _ _ _ 
 72
    65
 73
     2
 40
4.7625
 49
3.175
 74
     4
 75
     0
340
0
 46
0.0
 50
0.0
 44
0.0
 45
0.0
 49
-1.5875
 74
     4
 75
     0
340
0
 46
0.0
 50
0.0
 44
0.0
 45
0.0
  0
LTYPE
  5
1EC7
330
4
100
AcDbSymbolTableRecord
100
AcDbLinetypeTableRecord
  2
CENTER2
 70
     0
  3
Center (.5x) ___ _ ___ _ ___ _ ___ _ ___ _ ___
 72
    65
 73
     4
 40
28.575
 49
19.05
 74
     4
 75
     0
340
0
 46
0.0
 50
0.0
 44
0.0
 45
0.0
 49
-3.175
 74
     4
 75
     0
340
0
 46
0.0
 50
0.0
 44
0.0
 45
0.0
 49
3.175
 74
     4
 75
     0
340
0
 46
0.0
 50
0.0
 44
0.0
 45
0.0
 49
-3.175
 74
     4
 75
     0
340
0
 46
0.0
 50
0.0
 44
0.0
 45
0.0
  0
LTYPE
  5
71E9
330
4
100
AcDbSymbolTableRecord
100
AcDbLinetypeTableRecord
  2
HIDDEN
 70
     0
  3
Hidden _ _ _ _ _ _ _ _ _ _ _ _ _ _ _ _ _ _ _ _ 
 72
    65
 73
     2
 40
9.524999999999999
 49
6.35
 74
     0
 49
-3.175
 74
     0
  0
ENDTAB
  0
TABLE
  2
LAYER
  5
2
102
{ACAD_XDICTIONARY
360
2E1
102
}
330
0
100
AcDbSymbolTable
 70
     8
  0
LAYER
  5
14
330
2
100
AcDbSymbolTableRecord
100
AcDbLayerTableRecord
  2
0
 70
     0
 62
     7
  6
Continuous
370
    -3
390
1D
347
266
  0
LAYER
  5
4B
330
2
100
AcDbSymbolTableRecord
100
AcDbLayerTableRecord
  2
TEMPLATE
 70
     0
 62
     7
  6
Continuous
370
    20
390
1D
347
266
  0
LAYER
  5
4C
330
2
100
AcDbSymbolTableRecord
100
AcDbLayerTableRecord
  2
DIM
 70
     0
 62
     3
  6
Continuous
370
    13
390
1D
347
266
  0
LAYER
  5
4D
330
2
100
AcDbSymbolTableRecord
100
AcDbLayerTableRecord
  2
MODEL
 70
     0
 62
     7
  6
Continuous
370
    20
390
1D
347
266
  0
LAYER
  5
667
330
2
100
AcDbSymbolTableRecord
100
AcDbLayerTableRecord
  2
LOGO
 70
     0
 62
     7
  6
Continuous
370
    -3
390
1D
347
266
  0
LAYER
  5
DDE
330
2
100
AcDbSymbolTableRecord
100
AcDbLayerTableRecord
  2
Defpoints
 70
     0
 62
     7
  6
Continuous
290
     0
370
    -3
390
1D
347
266
  0
LAYER
  5
E72
330
2
100
AcDbSymbolTableRecord
100
AcDbLayerTableRecord
  2
Standard
 70
     0
 62
     7
  6
Continuous
370
    -3
390
1D
347
266
  0
LAYER
  5
19F1
330
2
100
AcDbSymbolTableRecord
100
AcDbLayerTableRecord
  2
PRINT
 70
     0
 62
     4
  6
Continuous
290
     0
370
    20
390
1D
347
266
1001
AcAecLayerStandard
1000

1000

  0
ENDTAB
  0
TABLE
  2
STYLE
  5
3
330
0
100
AcDbSymbolTable
 70
     2
  0
STYLE
  5
17
330
3
100
AcDbSymbolTableRecord
100
AcDbTextStyleTableRecord
  2
Standard
 70
     0
 40
0.0
 41
1.0
 50
0.0
 71
     0
 42
2.5
  3
txt
  4
BIGFONT.SHX
  0
STYLE
  5
39
330
3
100
AcDbSymbolTableRecord
100
AcDbTextStyleTableRecord
  2
ＭＳ ゴシック
 70
     0
 40
0.0
 41
1.0
 50
0.0
 71
     0
 42
2.5
  3
msgothic.ttc
  4
ＭＳ ゴシック
1001
ACAD
1000
ＭＳ ゴシック
1071
        0
  0
ENDTAB
  0
TABLE
  2
VIEW
  5
5
330
0
100
AcDbSymbolTable
 70
     0
  0
ENDTAB
  0
TABLE
  2
UCS
  5
6
330
0
100
AcDbSymbolTable
 70
     0
  0
ENDTAB
  0
TABLE
  2
APPID
  5
8
330
0
100
AcDbSymbolTable
 70
     3
  0
APPID
  5
16
330
8
100
AcDbSymbolTableRecord
100
AcDbRegAppTableRecord
  2
ACAD
 70
     0
  0
APPID
  5
7AC
330
8
100
AcDbSymbolTableRecord
100
AcDbRegAppTableRecord
  2
AcAecLayerStandard
 70
     0
  0
APPID
  5
1AAF
330
8
100
AcDbSymbolTableRecord
100
AcDbRegAppTableRecord
  2
ACAD_MLEADERVER
 70
     0
  0
ENDTAB
  0
TABLE
  2
DIMSTYLE
  5
9
330
0
100
AcDbSymbolTable
 70
     3
100
AcDbDimStyleTable
  0
DIMSTYLE
105
18
330
9
100
AcDbSymbolTableRecord
100
AcDbDimStyleTableRecord
  2
Standard
 70
     0
178
     0
340
17
  0
DIMSTYLE
105
57
102
{ACAD_REACTORS
330
8E30
330
8E3F
330
8E5A
330
8EA1
102
}
330
9
100
AcDbSymbolTableRecord
100
AcDbDimStyleTableRecord
  2
tfrom線あり
 70
     0
  3
<>
  4
[]
 41
2.0
 42
5.0
 43
0.0
 44
0.0
 73
     0
 74
     0
 77
     1
 78
    11
140
7.0
141
0.0
143
1.0
147
10.0
171
     1
174
     1
178
     0
179
     2
271
     0
272
     1
276
     2
284
    11
285
    11
286
    11
289
     0
340
39
341
4E
342
4E
  0
DIMSTYLE
105
68D8
330
9
100
AcDbSymbolTableRecord
100
AcDbDimStyleTableRecord
  2
ISO-25
 70
     0
 41
2.5
 42
0.625
 43
3.75
 44
1.25
 73
     0
 74
     0
 77
     1
 78
     8
140
2.5
141
2.5
143
0.03937007874016
147
0.625
171
     3
172
     1
178
     0
271
     2
272
     2
274
     3
278
    44
283
     0
284
     8
340
17
  0
ENDTAB
  0
TABLE
  2
BLOCK_RECORD
  5
1
330
0
100
AcDbSymbolTable
 70
    45
  0
BLOCK_RECORD
  5
A
330
1
100
AcDbSymbolTableRecord
100
AcDbBlockTableRecord
  2
*MODEL_SPACE
340
20
 70
     0
280
     1
281
     0
  0
BLOCK_RECORD
  5
B
330
1
100
AcDbSymbolTableRecord
100
AcDbBlockTableRecord
  2
*PAPER_SPACE
340
21
 70
     0
280
     1
281
     0
  0
BLOCK_RECORD
  5
4E
330
1
100
AcDbSymbolTableRecord
100
AcDbBlockTableRecord
  2
_DOT
340
0
102
{BLKREFS
331
175B
331
175C
331
176A
331
176B
331
1786
331
1787
331
17A6
331
17A7
331
17C3
331
17C4
331
5294
331
5295
331
52A2
331
52A3
331
52E3
331
52E4
331
5364
331
5365
331
6D40
331
6D41
331
6D5A
331
6D5B
331
6D67
331
6D68
331
6D75
331
6D76
331
70A2
331
70A3
331
70D9
331
70DA
331
70E6
331
70E7
331
70FB
331
70FC
331
8328
331
8329
331
8335
331
8336
331
8344
331
8345
331
8366
331
8367
331
8844
331
8845
331
8852
331
8853
331
8861
331
8862
331
886E
331
886F
331
887D
331
887E
331
888D
331
888E
331
88AC
331
88AD
331
8DE1
331
8DE2
331
8DEE
331
8DEF
331
8DFA
331
8DFB
331
8E06
331
8E07
331
8E12
331
8E13
331
8E1E
331
8E1F
331
8E2A
331
8E2B
331
8E39
331
8E3A
331
8E48
331
8E49
331
8E63
331
8E64
331
8EBD
331
8EBE
102
}
 70
     0
280
     1
281
     0
  0
BLOCK_RECORD
  5
68A
330
1
100
AcDbSymbolTableRecord
100
AcDbBlockTableRecord
  2
名称未設定-1
340
0
102
{BLKREFS
331
6B5
102
}
 70
     1
280
     1
281
     0
  0
BLOCK_RECORD
  5
68D
330
1
100
AcDbSymbolTableRecord
100
AcDbBlockTableRecord
  2
block 2
340
0
102
{BLKREFS
331
68C
102
}
 70
     0
280
     1
281
     0
  0
BLOCK_RECORD
  5
690
330
1
100
AcDbSymbolTableRecord
100
AcDbBlockTableRecord
  2
block 3
340
0
102
{BLKREFS
331
68F
102
}
 70
     0
280
     1
281
     0
  0
BLOCK_RECORD
  5
693
330
1
100
AcDbSymbolTableRecord
100
AcDbBlockTableRecord
  2
block 4
340
0
102
{BLKREFS
331
692
102
}
 70
     0
280
     1
281
     0
  0
BLOCK_RECORD
  5
6A2
330
1
100
AcDbSymbolTableRecord
100
AcDbBlockTableRecord
  2
block 5
340
0
102
{BLKREFS
331
6A1
102
}
 70
     0
280
     1
281
     0
  0
BLOCK_RECORD
  5
1755
330
1
100
AcDbSymbolTableRecord
100
AcDbBlockTableRecord
  2
*D6
340
0
 70
     0
280
     1
281
     0
  0
BLOCK_RECORD
  5
1764
330
1
100
AcDbSymbolTableRecord
100
AcDbBlockTableRecord
  2
*D7
340
0
 70
     0
280
     1
281
     0
  0
BLOCK_RECORD
  5
1780
330
1
100
AcDbSymbolTableRecord
100
AcDbBlockTableRecord
  2
*D8
340
0
 70
     0
280
     1
281
     0
  0
BLOCK_RECORD
  5
17A0
330
1
100
AcDbSymbolTableRecord
100
AcDbBlockTableRecord
  2
*D9
340
0
 70
     0
280
     1
281
     0
  0
BLOCK_RECORD
  5
17BC
330
1
100
AcDbSymbolTableRecord
100
AcDbBlockTableRecord
  2
*D10
340
0
 70
     0
280
     1
281
     0
  0
BLOCK_RECORD
  5
528E
330
1
100
AcDbSymbolTableRecord
100
AcDbBlockTableRecord
  2
*D11
340
0
 70
     0
280
     1
281
     0
  0
BLOCK_RECORD
  5
529C
330
1
100
AcDbSymbolTableRecord
100
AcDbBlockTableRecord
  2
*D12
340
0
 70
     0
280
     1
281
     0
  0
BLOCK_RECORD
  5
52DD
330
1
100
AcDbSymbolTableRecord
100
AcDbBlockTableRecord
  2
*D13
340
0
 70
     0
280
     1
281
     0
  0
BLOCK_RECORD
  5
535E
330
1
100
AcDbSymbolTableRecord
100
AcDbBlockTableRecord
  2
*D14
340
0
 70
     0
280
     1
281
     0
  0
BLOCK_RECORD
  5
6D39
330
1
100
AcDbSymbolTableRecord
100
AcDbBlockTableRecord
  2
*D15
340
0
 70
     0
280
     1
281
     0
  0
BLOCK_RECORD
  5
6D54
330
1
100
AcDbSymbolTableRecord
100
AcDbBlockTableRecord
  2
*D16
340
0
 70
     0
280
     1
281
     0
  0
BLOCK_RECORD
  5
6D61
330
1
100
AcDbSymbolTableRecord
100
AcDbBlockTableRecord
  2
*D17
340
0
 70
     0
280
     1
281
     0
  0
BLOCK_RECORD
  5
6D6F
330
1
100
AcDbSymbolTableRecord
100
AcDbBlockTableRecord
  2
*D18
340
0
 70
     0
280
     1
281
     0
  0
BLOCK_RECORD
  5
709C
330
1
100
AcDbSymbolTableRecord
100
AcDbBlockTableRecord
  2
*D19
340
0
 70
     0
280
     1
281
     0
  0
BLOCK_RECORD
  5
70D3
330
1
100
AcDbSymbolTableRecord
100
AcDbBlockTableRecord
  2
*D20
340
0
 70
     0
280
     1
281
     0
  0
BLOCK_RECORD
  5
70E0
330
1
100
AcDbSymbolTableRecord
100
AcDbBlockTableRecord
  2
*D21
340
0
 70
     0
280
     1
281
     0
  0
BLOCK_RECORD
  5
70F5
330
1
100
AcDbSymbolTableRecord
100
AcDbBlockTableRecord
  2
*D22
340
0
 70
     0
280
     1
281
     0
  0
BLOCK_RECORD
  5
8322
330
1
100
AcDbSymbolTableRecord
100
AcDbBlockTableRecord
  2
*D23
340
0
 70
     0
280
     1
281
     0
  0
BLOCK_RECORD
  5
832F
330
1
100
AcDbSymbolTableRecord
100
AcDbBlockTableRecord
  2
*D24
340
0
 70
     0
280
     1
281
     0
  0
BLOCK_RECORD
  5
833E
330
1
100
AcDbSymbolTableRecord
100
AcDbBlockTableRecord
  2
*D25
340
0
 70
     0
280
     1
281
     0
  0
BLOCK_RECORD
  5
8360
330
1
100
AcDbSymbolTableRecord
100
AcDbBlockTableRecord
  2
*D26
340
0
 70
     0
280
     1
281
     0
  0
BLOCK_RECORD
  5
883F
330
1
100
AcDbSymbolTableRecord
100
AcDbBlockTableRecord
  2
*D27
340
0
 70
     0
280
     1
281
     0
  0
BLOCK_RECORD
  5
884C
330
1
100
AcDbSymbolTableRecord
100
AcDbBlockTableRecord
  2
*D28
340
0
 70
     0
280
     1
281
     0
  0
BLOCK_RECORD
  5
885C
330
1
100
AcDbSymbolTableRecord
100
AcDbBlockTableRecord
  2
*D29
340
0
 70
     0
280
     1
281
     0
  0
BLOCK_RECORD
  5
8869
330
1
100
AcDbSymbolTableRecord
100
AcDbBlockTableRecord
  2
*D30
340
0
 70
     0
280
     1
281
     0
  0
BLOCK_RECORD
  5
8878
330
1
100
AcDbSymbolTableRecord
100
AcDbBlockTableRecord
  2
*D31
340
0
 70
     0
280
     1
281
     0
  0
BLOCK_RECORD
  5
8888
330
1
100
AcDbSymbolTableRecord
100
AcDbBlockTableRecord
  2
*D32
340
0
 70
     0
280
     1
281
     0
  0
BLOCK_RECORD
  5
88A7
330
1
100
AcDbSymbolTableRecord
100
AcDbBlockTableRecord
  2
*D33
340
0
 70
     0
280
     1
281
     0
  0
BLOCK_RECORD
  5
8DDB
330
1
100
AcDbSymbolTableRecord
100
AcDbBlockTableRecord
  2
*D34
340
0
 70
     0
280
     1
281
     0
  0
BLOCK_RECORD
  5
8DE7
330
1
100
AcDbSymbolTableRecord
100
AcDbBlockTableRecord
  2
*D35
340
0
 70
     0
280
     1
281
     0
  0
BLOCK_RECORD
  5
8DF4
330
1
100
AcDbSymbolTableRecord
100
AcDbBlockTableRecord
  2
*D36
340
0
 70
     0
280
     1
281
     0
  0
BLOCK_RECORD
  5
8E00
330
1
100
AcDbSymbolTableRecord
100
AcDbBlockTableRecord
  2
*D37
340
0
 70
     0
280
     1
281
     0
  0
BLOCK_RECORD
  5
8E0C
330
1
100
AcDbSymbolTableRecord
100
AcDbBlockTableRecord
  2
*D38
340
0
 70
     0
280
     1
281
     0
  0
BLOCK_RECORD
  5
8E18
330
1
100
AcDbSymbolTableRecord
100
AcDbBlockTableRecord
  2
*D39
340
0
 70
     0
280
     1
281
     0
  0
BLOCK_RECORD
  5
8E24
330
1
100
AcDbSymbolTableRecord
100
AcDbBlockTableRecord
  2
*D40
340
0
 70
     0
280
     1
281
     0
  0
BLOCK_RECORD
  5
8E33
330
1
100
AcDbSymbolTableRecord
100
AcDbBlockTableRecord
  2
*D41
340
0
 70
     0
280
     1
281
     0
  0
BLOCK_RECORD
  5
8E42
330
1
100
AcDbSymbolTableRecord
100
AcDbBlockTableRecord
  2
*D42
340
0
 70
     0
280
     1
281
     0
  0
BLOCK_RECORD
  5
8E5D
330
1
100
AcDbSymbolTableRecord
100
AcDbBlockTableRecord
  2
*D43
340
0
 70
     0
280
     1
281
     0
  0
BLOCK_RECORD
  5
8EB8
330
1
100
AcDbSymbolTableRecord
100
AcDbBlockTableRecord
  2
*D44
340
0
 70
     0
280
     1
281
     0
  0
ENDTAB
  0
ENDSEC
  0
SECTION
  2
BLOCKS
  0
BLOCK
  5
D
330
A
100
AcDbEntity
  8
0
390
1D
100
AcDbBlockBegin
  2
*MODEL_SPACE
 70
     0
 10
0.0
 20
0.0
 30
0.0
  3
*MODEL_SPACE
  1
*MODEL_SPACE
  0
ENDBLK
  5
E
330
A
100
AcDbEntity
  8
0
390
1D
100
AcDbBlockEnd
  0
BLOCK
  5
F
330
B
100
AcDbEntity
 67
     1
  8
0
390
1D
100
AcDbBlockBegin
  2
*PAPER_SPACE
 70
     0
 10
0.0
 20
0.0
 30
0.0
  3
*PAPER_SPACE
  1
*PAPER_SPACE
  0
ENDBLK
  5
10
330
B
100
AcDbEntity
 67
     1
  8
0
390
1D
100
AcDbBlockEnd
  0
BLOCK
  5
716E
330
4E
100
AcDbEntity
  8
0
390
1D
100
AcDbBlockBegin
  2
_DOT
 70
     0
 10
0.0
 20
0.0
 30
0.0
  3
_DOT
  1
_DOT
  0
POLYLINE
  5
7170
330
4E
100
AcDbEntity
  8
0
  6
ByBlock
 62
     0
370
    -2
390
1D
100
AcDb2dPolyline
 66
     1
 10
0.0
 20
0.0
 30
0.0
 70
     1
 40
0.5
 41
0.5
  0
VERTEX
  5
7171
330
7170
100
AcDbEntity
  8
0
  6
ByBlock
 62
     0
370
    -2
390
1D
100
AcDbVertex
100
AcDb2dVertex
 10
-0.25
 20
0.0
 30
0.0
 42
1.0
  0
VERTEX
  5
7172
330
7170
100
AcDbEntity
  8
0
  6
ByBlock
 62
     0
370
    -2
390
1D
100
AcDbVertex
100
AcDb2dVertex
 10
0.25
 20
0.0
 30
0.0
 42
1.0
  0
SEQEND
  5
7173
330
7170
100
AcDbEntity
  8
0
390
1D
  0
LINE
  5
7174
330
4E
100
AcDbEntity
  8
0
  6
ByBlock
 62
     0
370
    -2
390
1D
100
AcDbLine
 10
-0.5
 20
0.0
 30
0.0
 11
-1.0
 21
0.0
 31
0.0
  0
ENDBLK
  5
7175
330
4E
100
AcDbEntity
  8
0
390
1D
100
AcDbBlockEnd
  0
BLOCK
  5
68B
330
68A
100
AcDbEntity
  8
0
100
AcDbBlockBegin
  2
名称未設定-1
 70
     0
 10
0.0
 20
0.0
 30
0.0
  3
名称未設定-1
  1
名称未設定-1
  0
INSERT
  5
68F
330
68A
100
AcDbEntity
  8
LOGO
100
AcDbBlockReference
  2
block 3
 10
0.0
 20
0.0
 30
0.0
  0
ENDBLK
  5
6B1
330
68A
100
AcDbEntity
  8
0
100
AcDbBlockEnd
  0
BLOCK
  5
68E
330
68D
100
AcDbEntity
  8
0
100
AcDbBlockBegin
  2
block 2
 70
     0
 10
0.0
 20
0.0
 30
0.0
  3
block 2
  1
block 2
  0
ENDBLK
  5
6B0
330
68D
100
AcDbEntity
  8
0
100
AcDbBlockEnd
  0
BLOCK
  5
691
330
690
100
AcDbEntity
  8
0
100
AcDbBlockBegin
  2
block 3
 70
     0
 10
0.0
 20
0.0
 30
0.0
  3
block 3
  1
block 3
  0
INSERT
  5
692
330
690
100
AcDbEntity
  8
LOGO
100
AcDbBlockReference
  2
block 4
 10
0.0
 20
0.0
 30
0.0
  0
INSERT
  5
6A1
330
690
100
AcDbEntity
  8
LOGO
100
AcDbBlockReference
  2
block 5
 10
0.0
 20
0.0
 30
0.0
  0
ENDBLK
  5
6AF
330
690
100
AcDbEntity
  8
0
100
AcDbBlockEnd
  0
BLOCK
  5
694
330
693
100
AcDbEntity
  8
0
100
AcDbBlockBegin
  2
block 4
 70
     0
 10
0.0
 20
0.0
 30
0.0
  3
block 4
  1
block 4
  0
POLYLINE
  5
695
330
693
100
AcDbEntity
  8
LOGO
370
     0
100
AcDb2dPolyline
 66
     1
 10
0.0
 20
0.0
 30
0.0
  0
VERTEX
  5
696
330
695
100
AcDbEntity
  8
LOGO
370
     0
100
AcDbVertex
100
AcDb2dVertex
 10
83.79545727667795
 20
167.6444858234922
 30
0.0
  0
VERTEX
  5
697
330
695
100
AcDbEntity
  8
LOGO
370
     0
100
AcDbVertex
100
AcDb2dVertex
 10
83.79545727667795
 20
159.7968976406313
 30
0.0
  0
VERTEX
  5
698
330
695
100
AcDbEntity
  8
LOGO
370
     0
100
AcDbVertex
100
AcDb2dVertex
 10
71.3631329975216
 20
159.7968976406313
 30
0.0
  0
VERTEX
  5
699
330
695
100
AcDbEntity
  8
LOGO
370
     0
100
AcDbVertex
100
AcDb2dVertex
 10
71.3631329975216
 20
127.8027915271048
 30
0.0
  0
VERTEX
  5
69A
330
695
100
AcDbEntity
  8
LOGO
370
     0
100
AcDbVertex
100
AcDb2dVertex
 10
60.43011526263018
 20
127.8027915271048
 30
0.0
  0
VERTEX
  5
69B
330
695
100
AcDbEntity
  8
LOGO
370
     0
100
AcDbVertex
100
AcDb2dVertex
 10
60.43011526263018
 20
159.7968976406313
 30
0.0
  0
VERTEX
  5
69C
330
695
100
AcDbEntity
  8
LOGO
370
     0
100
AcDbVertex
100
AcDb2dVertex
 10
48.21793273020759
 20
159.7968976406313
 30
0.0
  0
VERTEX
  5
69D
330
695
100
AcDbEntity
  8
LOGO
370
     0
100
AcDbVertex
100
AcDb2dVertex
 10
48.21793273020759
 20
167.6444858234922
 30
0.0
  0
VERTEX
  5
69E
330
695
100
AcDbEntity
  8
LOGO
370
     0
100
AcDbVertex
100
AcDb2dVertex
 10
83.79545727667795
 20
167.6444858234922
 30
0.0
  0
SEQEND
  5
69F
330
695
100
AcDbEntity
  8
LOGO
370
     0
  0
HATCH
  5
6A0
330
693
100
AcDbEntity
  8
LOGO
 62
   250
420
  2234388
100
AcDbHatch
 10
0.0
 20
0.0
 30
0.0
210
0.0
220
0.0
230
1.0
  2
SOLID
 70
     1
 71
     0
 91
        1
 92
        1
 93
        8
 72
     1
 10
83.79545727667795
 20
167.6444858234922
 11
83.79545727667795
 21
159.7968976406313
 72
     1
 10
83.79545727667795
 20
159.7968976406313
 11
71.3631329975216
 21
159.7968976406313
 72
     1
 10
71.3631329975216
 20
159.7968976406313
 11
71.3631329975216
 21
127.8027915271048
 72
     1
 10
71.3631329975216
 20
127.8027915271048
 11
60.43011526263018
 21
127.8027915271048
 72
     1
 10
60.43011526263018
 20
127.8027915271048
 11
60.43011526263018
 21
159.7968976406313
 72
     1
 10
60.43011526263018
 20
159.7968976406313
 11
48.21793273020759
 21
159.7968976406313
 72
     1
 10
48.21793273020759
 20
159.7968976406313
 11
48.21793273020759
 21
167.6444858234922
 72
     1
 10
48.21793273020759
 20
167.6444858234922
 11
83.79545727667795
 21
167.6444858234922
 97
        0
 75
     2
 76
     1
 98
        0
  0
ENDBLK
  5
6AE
330
693
100
AcDbEntity
  8
0
100
AcDbBlockEnd
  0
BLOCK
  5
6A3
330
6A2
100
AcDbEntity
  8
0
100
AcDbBlockBegin
  2
block 5
 70
     0
 10
0.0
 20
0.0
 30
0.0
  3
block 5
  1
block 5
  0
SPLINE
  5
6A4
330
6A2
100
AcDbEntity
  8
LOGO
370
     0
100
AcDbSpline
210
0.0
220
0.0
230
1.0
 70
    11
 71
     3
 72
    56
 73
    52
 74
     0
 42
0.000000001
 43
0.0000000001
 40
0.0
 40
0.0
 40
0.0
 40
0.0
 40
1.0
 40
1.0
 40
1.0
 40
2.0
 40
2.0
 40
2.0
 40
3.0
 40
3.0
 40
3.0
 40
4.0
 40
4.0
 40
4.0
 40
5.0
 40
5.0
 40
5.0
 40
6.0
 40
6.0
 40
6.0
 40
7.0
 40
7.0
 40
7.0
 40
8.0
 40
8.0
 40
8.0
 40
9.0
 40
9.0
 40
9.0
 40
10.0
 40
10.0
 40
10.0
 40
11.0
 40
11.0
 40
11.0
 40
12.0
 40
12.0
 40
12.0
 40
13.0
 40
13.0
 40
13.0
 40
14.0
 40
14.0
 40
14.0
 40
15.0
 40
15.0
 40
15.0
 40
16.0
 40
16.0
 40
16.0
 40
17.0
 40
17.0
 40
17.0
 40
17.0
 10
100.4504378777679
 20
166.69157178364
 30
0.0
 10
101.9848844191641
 20
167.1313385124438
 30
0.0
 10
103.9637485713373
 20
166.7649523658846
 30
0.0
 10
103.9637485713373
 20
166.7649523658846
 30
0.0
 10
103.9637485713373
 20
166.7649523658846
 30
0.0
 10
103.0132460999156
 20
163.911205638077
 30
0.0
 10
103.0132460999156
 20
163.911205638077
 30
0.0
 10
103.0132460999156
 20
163.911205638077
 30
0.0
 10
101.0674548862189
 20
164.3601018759394
 30
0.0
 10
99.57090442016032
 20
163.1805004036133
 30
0.0
 10
98.40508333886608
 20
162.258247733807
 30
0.0
 10
97.65301849830304
 20
159.804132345923
 30
0.0
 10
97.3598406791005
 20
158.8699940888517
 30
0.0
 10
97.3598406791005
 20
158.8699940888517
 30
0.0
 10
96.07137411762282
 20
154.9119212747295
 30
0.0
 10
96.07137411762282
 20
154.9119212747295
 30
0.0
 10
96.07137411762282
 20
154.9119212747295
 30
0.0
 10
100.3012651448482
 20
154.9119212747295
 30
0.0
 10
100.3012651448482
 20
154.9119212747295
 30
0.0
 10
100.3012651448482
 20
154.9119212747295
 30
0.0
 10
99.64152892419852
 20
152.4199098115079
 30
0.0
 10
99.64152892419852
 20
152.4199098115079
 30
0.0
 10
99.64152892419852
 20
152.4199098115079
 30
0.0
 10
95.38097652692731
 20
152.4199098115079
 30
0.0
 10
95.38097652692731
 20
152.4199098115079
 30
0.0
 10
95.38097652692731
 20
152.4199098115079
 30
0.0
 10
87.75353009080013
 20
127.8027915271048
 30
0.0
 10
87.75353009080013
 20
127.8027915271048
 30
0.0
 10
87.75353009080013
 20
127.8027915271048
 30
0.0
 10
85.36538832498108
 20
127.8027915271048
 30
0.0
 10
85.36538832498108
 20
127.8027915271048
 30
0.0
 10
85.36538832498108
 20
127.8027915271048
 30
0.0
 10
93.00006946639998
 20
152.4199098115079
 30
0.0
 10
93.00006946639998
 20
152.4199098115079
 30
0.0
 10
93.00006946639998
 20
152.4199098115079
 30
0.0
 10
89.85297266450198
 20
152.4199098115079
 30
0.0
 10
89.85297266450198
 20
152.4199098115079
 30
0.0
 10
89.85297266450198
 20
152.4199098115079
 30
0.0
 10
90.51270888515164
 20
154.9119212747295
 30
0.0
 10
90.51270888515164
 20
154.9119212747295
 30
0.0
 10
90.51270888515164
 20
154.9119212747295
 30
0.0
 10
93.6904670570955
 20
154.9119212747295
 30
0.0
 10
93.6904670570955
 20
154.9119212747295
 30
0.0
 10
93.6904670570955
 20
154.9119212747295
 30
0.0
 10
94.81598049462158
 20
158.3616699146644
 30
0.0
 10
94.81598049462158
 20
158.3616699146644
 30
0.0
 10
95.7237637538445
 20
161.2605474231013
 30
0.0
 10
96.4968436907311
 20
162.8139420021662
 30
0.0
 10
97.15657991138076
 20
163.9844139654337
 30
0.0
 10
97.81183750494507
 20
165.1523021053827
 30
0.0
 10
99.1047826935081
 20
166.3084769129547
 30
0.0
 10
100.4504378777679
 20
166.69157178364
 30
0.0
  0
HATCH
  5
6A5
330
6A2
100
AcDbEntity
  8
LOGO
 62
   250
420
  2234388
100
AcDbHatch
 10
0.0
 20
0.0
 30
0.0
210
0.0
220
0.0
230
1.0
  2
SOLID
 70
     1
 71
     0
 91
        1
 92
        1
 93
        1
 72
     4
 94
        3
 73
     0
 74
     1
 95
       56
 96
       52
 40
0.0
 40
0.0
 40
0.0
 40
0.0
 40
1.0
 40
1.0
 40
1.0
 40
2.0
 40
2.0
 40
2.0
 40
3.0
 40
3.0
 40
3.0
 40
4.0
 40
4.0
 40
4.0
 40
5.0
 40
5.0
 40
5.0
 40
6.0
 40
6.0
 40
6.0
 40
7.0
 40
7.0
 40
7.0
 40
8.0
 40
8.0
 40
8.0
 40
9.0
 40
9.0
 40
9.0
 40
10.0
 40
10.0
 40
10.0
 40
11.0
 40
11.0
 40
11.0
 40
12.0
 40
12.0
 40
12.0
 40
13.0
 40
13.0
 40
13.0
 40
14.0
 40
14.0
 40
14.0
 40
15.0
 40
15.0
 40
15.0
 40
16.0
 40
16.0
 40
16.0
 40
17.0
 40
17.0
 40
17.0
 40
17.0
 10
100.4504378777679
 20
166.69157178364
 10
101.9848844191641
 20
167.1313385124438
 10
103.9637485713373
 20
166.7649523658846
 10
103.9637485713373
 20
166.7649523658846
 10
103.9637485713373
 20
166.7649523658846
 10
103.0132460999156
 20
163.911205638077
 10
103.0132460999156
 20
163.911205638077
 10
103.0132460999156
 20
163.911205638077
 10
101.0674548862189
 20
164.3601018759394
 10
99.57090442016032
 20
163.1805004036133
 10
98.40508333886608
 20
162.258247733807
 10
97.65301849830304
 20
159.804132345923
 10
97.3598406791005
 20
158.8699940888517
 10
97.3598406791005
 20
158.8699940888517
 10
96.07137411762282
 20
154.9119212747295
 10
96.07137411762282
 20
154.9119212747295
 10
96.07137411762282
 20
154.9119212747295
 10
100.3012651448482
 20
154.9119212747295
 10
100.3012651448482
 20
154.9119212747295
 10
100.3012651448482
 20
154.9119212747295
 10
99.64152892419852
 20
152.4199098115079
 10
99.64152892419852
 20
152.4199098115079
 10
99.64152892419852
 20
152.4199098115079
 10
95.38097652692731
 20
152.4199098115079
 10
95.38097652692731
 20
152.4199098115079
 10
95.38097652692731
 20
152.4199098115079
 10
87.75353009080013
 20
127.8027915271048
 10
87.75353009080013
 20
127.8027915271048
 10
87.75353009080013
 20
127.8027915271048
 10
85.36538832498108
 20
127.8027915271048
 10
85.36538832498108
 20
127.8027915271048
 10
85.36538832498108
 20
127.8027915271048
 10
93.00006946639998
 20
152.4199098115079
 10
93.00006946639998
 20
152.4199098115079
 10
93.00006946639998
 20
152.4199098115079
 10
89.85297266450198
 20
152.4199098115079
 10
89.85297266450198
 20
152.4199098115079
 10
89.85297266450198
 20
152.4199098115079
 10
90.51270888515164
 20
154.9119212747295
 10
90.51270888515164
 20
154.9119212747295
 10
90.51270888515164
 20
154.9119212747295
 10
93.6904670570955
 20
154.9119212747295
 10
93.6904670570955
 20
154.9119212747295
 10
93.6904670570955
 20
154.9119212747295
 10
94.81598049462158
 20
158.3616699146644
 10
94.81598049462158
 20
158.3616699146644
 10
95.7237637538445
 20
161.2605474231013
 10
96.4968436907311
 20
162.8139420021662
 10
97.15657991138076
 20
163.9844139654337
 10
97.81183750494507
 20
165.1523021053827
 10
99.1047826935081
 20
166.3084769129547
 10
100.4504378777679
 20
166.69157178364
 97
        0
 75
     2
 76
     1
 98
        0
  0
SPLINE
  5
6A6
330
6A2
100
AcDbEntity
  8
LOGO
370
     0
100
AcDbSpline
210
0.0
220
0.0
230
1.0
 70
    11
 71
     3
 72
    38
 73
    34
 74
     0
 42
0.000000001
 43
0.0000000001
 40
0.0
 40
0.0
 40
0.0
 40
0.0
 40
1.0
 40
1.0
 40
1.0
 40
2.0
 40
2.0
 40
2.0
 40
3.0
 40
3.0
 40
3.0
 40
4.0
 40
4.0
 40
4.0
 40
5.0
 40
5.0
 40
5.0
 40
6.0
 40
6.0
 40
6.0
 40
7.0
 40
7.0
 40
7.0
 40
8.0
 40
8.0
 40
8.0
 40
9.0
 40
9.0
 40
9.0
 40
10.0
 40
10.0
 40
10.0
 40
11.0
 40
11.0
 40
11.0
 40
11.0
 10
126.377554584636
 20
154.8151140277308
 30
0.0
 10
126.377554584636
 20
154.8151140277308
 30
0.0
 10
128.8311532078563
 20
154.8151140277308
 30
0.0
 10
128.8311532078563
 20
154.8151140277308
 30
0.0
 10
128.8311532078563
 20
154.8151140277308
 30
0.0
 10
127.7345785914971
 20
151.3062819612468
 30
0.0
 10
127.7345785914971
 20
151.3062819612468
 30
0.0
 10
128.571392836906
 20
152.2922689395754
 30
0.0
 10
129.8860421413442
 20
153.604506675583
 30
0.0
 10
131.0163787157314
 20
154.2664822097754
 30
0.0
 10
132.7044766171327
 20
155.2500576196734
 30
0.0
 10
133.6642808525008
 20
155.3847609420097
 30
0.0
 10
134.7284715499351
 20
155.3565111403944
 30
0.0
 10
134.7284715499351
 20
155.3565111403944
 30
0.0
 10
133.6877075172549
 20
152.0345756272799
 30
0.0
 10
133.6877075172549
 20
152.0345756272799
 30
0.0
 10
133.011434827367
 20
152.3184516825359
 30
0.0
 10
130.930940291334
 20
151.7768823149844
 30
0.0
 10
129.739280976855
 20
150.9162968950455
 30
0.0
 10
128.66613302525
 20
150.1454562717016
 30
0.0
 10
127.9192358313239
 20
149.4857200510519
 30
0.0
 10
127.0393578639405
 20
147.8282835196966
 30
0.0
 10
126.164647543194
 20
146.1699857139017
 30
0.0
 10
125.4742499524985
 20
143.5262176944419
 30
0.0
 10
124.2822461282437
 20
139.6959580071401
 30
0.0
 10
124.2822461282437
 20
139.6959580071401
 30
0.0
 10
120.5753209406769
 20
127.8027915271048
 30
0.0
 10
120.5753209406769
 20
127.8027915271048
 30
0.0
 10
120.5753209406769
 20
127.8027915271048
 30
0.0
 10
118.1964809388044
 20
127.8027915271048
 30
0.0
 10
118.1964809388044
 20
127.8027915271048
 30
0.0
 10
118.1964809388044
 20
127.8027915271048
 30
0.0
 10
126.377554584636
 20
154.8151140277308
 30
0.0
 10
126.377554584636
 20
154.8151140277308
 30
0.0
  0
HATCH
  5
6A7
330
6A2
100
AcDbEntity
  8
LOGO
 62
   250
420
  2234388
100
AcDbHatch
 10
0.0
 20
0.0
 30
0.0
210
0.0
220
0.0
230
1.0
  2
SOLID
 70
     1
 71
     0
 91
        1
 92
        1
 93
        1
 72
     4
 94
        3
 73
     0
 74
     1
 95
       38
 96
       34
 40
0.0
 40
0.0
 40
0.0
 40
0.0
 40
1.0
 40
1.0
 40
1.0
 40
2.0
 40
2.0
 40
2.0
 40
3.0
 40
3.0
 40
3.0
 40
4.0
 40
4.0
 40
4.0
 40
5.0
 40
5.0
 40
5.0
 40
6.0
 40
6.0
 40
6.0
 40
7.0
 40
7.0
 40
7.0
 40
8.0
 40
8.0
 40
8.0
 40
9.0
 40
9.0
 40
9.0
 40
10.0
 40
10.0
 40
10.0
 40
11.0
 40
11.0
 40
11.0
 40
11.0
 10
126.377554584636
 20
154.8151140277308
 10
126.377554584636
 20
154.8151140277308
 10
128.8311532078563
 20
154.8151140277308
 10
128.8311532078563
 20
154.8151140277308
 10
128.8311532078563
 20
154.8151140277308
 10
127.7345785914971
 20
151.3062819612468
 10
127.7345785914971
 20
151.3062819612468
 10
128.571392836906
 20
152.2922689395754
 10
129.8860421413442
 20
153.604506675583
 10
131.0163787157314
 20
154.2664822097754
 10
132.7044766171327
 20
155.2500576196734
 10
133.6642808525008
 20
155.3847609420097
 10
134.7284715499351
 20
155.3565111403944
 10
134.7284715499351
 20
155.3565111403944
 10
133.6877075172549
 20
152.0345756272799
 10
133.6877075172549
 20
152.0345756272799
 10
133.011434827367
 20
152.3184516825359
 10
130.930940291334
 20
151.7768823149844
 10
129.739280976855
 20
150.9162968950455
 10
128.66613302525
 20
150.1454562717016
 10
127.9192358313239
 20
149.4857200510519
 10
127.0393578639405
 20
147.8282835196966
 10
126.164647543194
 20
146.1699857139017
 10
125.4742499524985
 20
143.5262176944419
 10
124.2822461282437
 20
139.6959580071401
 10
124.2822461282437
 20
139.6959580071401
 10
120.5753209406769
 20
127.8027915271048
 10
120.5753209406769
 20
127.8027915271048
 10
120.5753209406769
 20
127.8027915271048
 10
118.1964809388044
 20
127.8027915271048
 10
118.1964809388044
 20
127.8027915271048
 10
118.1964809388044
 20
127.8027915271048
 10
126.377554584636
 20
154.8151140277308
 10
126.377554584636
 20
154.8151140277308
 97
        0
 75
     2
 76
     1
 98
        0
  0
SPLINE
  5
6A8
330
6A2
100
AcDbEntity
  8
LOGO
370
     0
100
AcDbSpline
210
0.0
220
0.0
230
1.0
 70
    11
 71
     3
 72
   104
 73
   100
 74
     0
 42
0.000000001
 43
0.0000000001
 40
0.0
 40
0.0
 40
0.0
 40
0.0
 40
1.0
 40
1.0
 40
1.0
 40
2.0
 40
2.0
 40
2.0
 40
3.0
 40
3.0
 40
3.0
 40
4.0
 40
4.0
 40
4.0
 40
5.0
 40
5.0
 40
5.0
 40
6.0
 40
6.0
 40
6.0
 40
7.0
 40
7.0
 40
7.0
 40
8.0
 40
8.0
 40
8.0
 40
9.0
 40
9.0
 40
9.0
 40
10.0
 40
10.0
 40
10.0
 40
11.0
 40
11.0
 40
11.0
 40
12.0
 40
12.0
 40
12.0
 40
13.0
 40
13.0
 40
13.0
 40
14.0
 40
14.0
 40
14.0
 40
15.0
 40
15.0
 40
15.0
 40
16.0
 40
16.0
 40
16.0
 40
17.0
 40
17.0
 40
17.0
 40
18.0
 40
18.0
 40
18.0
 40
19.0
 40
19.0
 40
19.0
 40
20.0
 40
20.0
 40
20.0
 40
21.0
 40
21.0
 40
21.0
 40
22.0
 40
22.0
 40
22.0
 40
23.0
 40
23.0
 40
23.0
 40
24.0
 40
24.0
 40
24.0
 40
25.0
 40
25.0
 40
25.0
 40
26.0
 40
26.0
 40
26.0
 40
27.0
 40
27.0
 40
27.0
 40
28.0
 40
28.0
 40
28.0
 40
29.0
 40
29.0
 40
29.0
 40
30.0
 40
30.0
 40
30.0
 40
31.0
 40
31.0
 40
31.0
 40
32.0
 40
32.0
 40
32.0
 40
33.0
 40
33.0
 40
33.0
 40
33.0
 10
139.8926730891197
 20
154.8294111834263
 30
0.0
 10
139.8926730891197
 20
154.8294111834263
 30
0.0
 10
142.0344903652445
 20
154.8294111834263
 30
0.0
 10
142.0344903652445
 20
154.8294111834263
 30
0.0
 10
142.0344903652445
 20
154.8294111834263
 30
0.0
 10
140.9516961399171
 20
151.3157559800812
 30
0.0
 10
140.9516961399171
 20
151.3157559800812
 30
0.0
 10
141.8928968473923
 20
152.7887075264977
 30
0.0
 10
142.7341897198865
 20
153.4484437471474
 30
0.0
 10
143.8552245303272
 20
154.2926649527359
 30
0.0
 10
144.9803934580775
 20
155.1296514530327
 30
0.0
 10
146.3139908001845
 20
155.3044901642492
 30
0.0
 10
147.241066606852
 20
155.3044901642492
 30
0.0
 10
148.3855280820469
 20
155.3044901642492
 30
0.0
 10
149.4969166187653
 20
155.0752189084569
 30
0.0
 10
150.0784491203092
 20
153.8172414621372
 30
0.0
 10
150.5228667310863
 20
152.833838307127
 30
0.0
 10
150.5414702589793
 20
152.7201500811143
 30
0.0
 10
150.4140016419347
 20
150.7765981809602
 30
0.0
 10
151.5818897818837
 20
152.7699317437168
 30
0.0
 10
152.4424752018226
 20
153.6256940267945
 30
0.0
 10
153.9038856707499
 20
154.4507949398263
 30
0.0
 10
155.4455669174378
 20
155.3044901642492
 30
0.0
 10
156.339225275853
 20
155.3659851592288
 30
0.0
 10
157.3748216618963
 20
155.2147453676543
 30
0.0
 10
158.911679771723
 20
154.9877134254046
 30
0.0
 10
159.8859534176746
 20
154.4390816074493
 30
0.0
 10
160.3965169054045
 20
152.7816450760939
 30
0.0
 10
160.9070803931344
 20
151.1219692311958
 30
0.0
 10
160.6328506116007
 20
150.2303779314354
 30
0.0
 10
159.9992971339115
 20
147.597634224801
 30
0.0
 10
159.7105979417943
 20
146.4014962832367
 30
0.0
 10
159.2947746424084
 20
144.9400858143094
 30
0.0
 10
158.7463150793409
 20
143.2092687007094
 30
0.0
 10
158.7463150793409
 20
143.2092687007094
 30
0.0
 10
153.9038856707499
 20
127.8027915271048
 30
0.0
 10
153.9038856707499
 20
127.8027915271048
 30
0.0
 10
153.9038856707499
 20
127.8027915271048
 30
0.0
 10
151.3882752878863
 20
127.8027915271048
 30
0.0
 10
151.3882752878863
 20
127.8027915271048
 30
0.0
 10
151.3882752878863
 20
127.8027915271048
 30
0.0
 10
155.6250565106276
 20
141.2751908193897
 30
0.0
 10
155.6250565106276
 20
141.2751908193897
 30
0.0
 10
156.5094131050963
 20
144.0936252951782
 30
0.0
 10
157.109893644309
 20
146.1506931664571
 30
0.0
 10
157.4220195011804
 20
147.4415712963654
 30
0.0
 10
157.8095929989511
 20
149.0530157726519
 30
0.0
 10
157.9656559273867
 20
149.5826995529385
 30
0.0
 10
157.7816877071116
 20
150.7529992613181
 30
0.0
 10
157.6111553680925
 20
151.8430281919372
 30
0.0
 10
157.0582171779396
 20
152.5547853887321
 30
0.0
 10
156.1170164704645
 20
152.5547853887321
 30
0.0
 10
155.1096698860365
 20
152.5547853887321
 30
0.0
 10
154.2962823053817
 20
152.4412694176073
 30
0.0
 10
153.156643967048
 20
151.2945686288697
 30
0.0
 10
152.0170056287143
 20
150.1476955852443
 30
0.0
 10
151.076149431015
 20
148.7930831468137
 30
0.0
 10
150.3337308641742
 20
147.2290087646991
 30
0.0
 10
149.5957909244188
 20
145.6683794803425
 30
0.0
 10
148.8530278478023
 20
143.6822806228776
 30
0.0
 10
148.0964843801539
 20
141.2751908193897
 30
0.0
 10
148.0964843801539
 20
141.2751908193897
 30
0.0
 10
143.8552245303272
 20
127.8027915271048
 30
0.0
 10
143.8552245303272
 20
127.8027915271048
 30
0.0
 10
143.8552245303272
 20
127.8027915271048
 30
0.0
 10
141.486030802177
 20
127.8027915271048
 30
0.0
 10
141.486030802177
 20
127.8027915271048
 30
0.0
 10
141.486030802177
 20
127.8027915271048
 30
0.0
 10
146.3329388378533
 20
143.2092687007094
 30
0.0
 10
146.3329388378533
 20
143.2092687007094
 30
0.0
 10
146.8483254624444
 20
144.8408669988801
 30
0.0
 10
147.2314203331297
 20
146.1837661049335
 30
0.0
 10
147.4867020769946
 20
147.224185627838
 30
0.0
 10
147.9169947869641
 20
149.0197705792876
 30
0.0
 10
148.0306830129768
 20
150.2400242051577
 30
0.0
 10
147.709255392159
 20
151.3157559800812
 30
0.0
 10
147.3874832615654
 20
152.3916600098926
 30
0.0
 10
146.8245542879144
 20
152.6683013598569
 30
0.0
 10
145.8840425999909
 20
152.6683013598569
 30
0.0
 10
145.0989048209514
 20
152.6683013598569
 30
0.0
 10
144.3282364524954
 20
152.3275811915945
 30
0.0
 10
143.4531816219731
 20
151.6538923250251
 30
0.0
 10
142.34627171234
 20
150.8074318058939
 30
0.0
 10
141.901854101563
 20
150.1097995099067
 30
0.0
 10
141.3578731655808
 20
149.289521733736
 30
0.0
 10
140.6299240093235
 20
148.192602607601
 30
0.0
 10
140.2850697237515
 20
147.455696197173
 30
0.0
 10
139.6652966370942
 20
145.8385673095858
 30
0.0
 10
139.0506911970739
 20
144.2214384219986
 30
0.0
 10
138.463991048893
 20
142.3252566160164
 30
0.0
 10
138.0571250036777
 20
141.0154304484394
 30
0.0
 10
138.0571250036777
 20
141.0154304484394
 30
0.0
 10
133.9009590684727
 20
127.8027915271048
 30
0.0
 10
133.9009590684727
 20
127.8027915271048
 30
0.0
 10
133.9009590684727
 20
127.8027915271048
 30
0.0
 10
131.4180771143097
 20
127.8027915271048
 30
0.0
 10
131.4180771143097
 20
127.8027915271048
 30
0.0
 10
131.4180771143097
 20
127.8027915271048
 30
0.0
 10
139.8926730891197
 20
154.8294111834263
 30
0.0
 10
139.8926730891197
 20
154.8294111834263
 30
0.0
  0
HATCH
  5
6A9
330
6A2
100
AcDbEntity
  8
LOGO
 62
   250
420
  2234388
100
AcDbHatch
 10
0.0
 20
0.0
 30
0.0
210
0.0
220
0.0
230
1.0
  2
SOLID
 70
     1
 71
     0
 91
        1
 92
        1
 93
        1
 72
     4
 94
        3
 73
     0
 74
     1
 95
      104
 96
      100
 40
0.0
 40
0.0
 40
0.0
 40
0.0
 40
1.0
 40
1.0
 40
1.0
 40
2.0
 40
2.0
 40
2.0
 40
3.0
 40
3.0
 40
3.0
 40
4.0
 40
4.0
 40
4.0
 40
5.0
 40
5.0
 40
5.0
 40
6.0
 40
6.0
 40
6.0
 40
7.0
 40
7.0
 40
7.0
 40
8.0
 40
8.0
 40
8.0
 40
9.0
 40
9.0
 40
9.0
 40
10.0
 40
10.0
 40
10.0
 40
11.0
 40
11.0
 40
11.0
 40
12.0
 40
12.0
 40
12.0
 40
13.0
 40
13.0
 40
13.0
 40
14.0
 40
14.0
 40
14.0
 40
15.0
 40
15.0
 40
15.0
 40
16.0
 40
16.0
 40
16.0
 40
17.0
 40
17.0
 40
17.0
 40
18.0
 40
18.0
 40
18.0
 40
19.0
 40
19.0
 40
19.0
 40
20.0
 40
20.0
 40
20.0
 40
21.0
 40
21.0
 40
21.0
 40
22.0
 40
22.0
 40
22.0
 40
23.0
 40
23.0
 40
23.0
 40
24.0
 40
24.0
 40
24.0
 40
25.0
 40
25.0
 40
25.0
 40
26.0
 40
26.0
 40
26.0
 40
27.0
 40
27.0
 40
27.0
 40
28.0
 40
28.0
 40
28.0
 40
29.0
 40
29.0
 40
29.0
 40
30.0
 40
30.0
 40
30.0
 40
31.0
 40
31.0
 40
31.0
 40
32.0
 40
32.0
 40
32.0
 40
33.0
 40
33.0
 40
33.0
 40
33.0
 10
139.8926730891197
 20
154.8294111834263
 10
139.8926730891197
 20
154.8294111834263
 10
142.0344903652445
 20
154.8294111834263
 10
142.0344903652445
 20
154.8294111834263
 10
142.0344903652445
 20
154.8294111834263
 10
140.9516961399171
 20
151.3157559800812
 10
140.9516961399171
 20
151.3157559800812
 10
141.8928968473923
 20
152.7887075264977
 10
142.7341897198865
 20
153.4484437471474
 10
143.8552245303272
 20
154.2926649527359
 10
144.9803934580775
 20
155.1296514530327
 10
146.3139908001845
 20
155.3044901642492
 10
147.241066606852
 20
155.3044901642492
 10
148.3855280820469
 20
155.3044901642492
 10
149.4969166187653
 20
155.0752189084569
 10
150.0784491203092
 20
153.8172414621372
 10
150.5228667310863
 20
152.833838307127
 10
150.5414702589793
 20
152.7201500811143
 10
150.4140016419347
 20
150.7765981809602
 10
151.5818897818837
 20
152.7699317437168
 10
152.4424752018226
 20
153.6256940267945
 10
153.9038856707499
 20
154.4507949398263
 10
155.4455669174378
 20
155.3044901642492
 10
156.339225275853
 20
155.3659851592288
 10
157.3748216618963
 20
155.2147453676543
 10
158.911679771723
 20
154.9877134254046
 10
159.8859534176746
 20
154.4390816074493
 10
160.3965169054045
 20
152.7816450760939
 10
160.9070803931344
 20
151.1219692311958
 10
160.6328506116007
 20
150.2303779314354
 10
159.9992971339115
 20
147.597634224801
 10
159.7105979417943
 20
146.4014962832367
 10
159.2947746424084
 20
144.9400858143094
 10
158.7463150793409
 20
143.2092687007094
 10
158.7463150793409
 20
143.2092687007094
 10
153.9038856707499
 20
127.8027915271048
 10
153.9038856707499
 20
127.8027915271048
 10
153.9038856707499
 20
127.8027915271048
 10
151.3882752878863
 20
127.8027915271048
 10
151.3882752878863
 20
127.8027915271048
 10
151.3882752878863
 20
127.8027915271048
 10
155.6250565106276
 20
141.2751908193897
 10
155.6250565106276
 20
141.2751908193897
 10
156.5094131050963
 20
144.0936252951782
 10
157.109893644309
 20
146.1506931664571
 10
157.4220195011804
 20
147.4415712963654
 10
157.8095929989511
 20
149.0530157726519
 10
157.9656559273867
 20
149.5826995529385
 10
157.7816877071116
 20
150.7529992613181
 10
157.6111553680925
 20
151.8430281919372
 10
157.0582171779396
 20
152.5547853887321
 10
156.1170164704645
 20
152.5547853887321
 10
155.1096698860365
 20
152.5547853887321
 10
154.2962823053817
 20
152.4412694176073
 10
153.156643967048
 20
151.2945686288697
 10
152.0170056287143
 20
150.1476955852443
 10
151.076149431015
 20
148.7930831468137
 10
150.3337308641742
 20
147.2290087646991
 10
149.5957909244188
 20
145.6683794803425
 10
148.8530278478023
 20
143.6822806228776
 10
148.0964843801539
 20
141.2751908193897
 10
148.0964843801539
 20
141.2751908193897
 10
143.8552245303272
 20
127.8027915271048
 10
143.8552245303272
 20
127.8027915271048
 10
143.8552245303272
 20
127.8027915271048
 10
141.486030802177
 20
127.8027915271048
 10
141.486030802177
 20
127.8027915271048
 10
141.486030802177
 20
127.8027915271048
 10
146.3329388378533
 20
143.2092687007094
 10
146.3329388378533
 20
143.2092687007094
 10
146.8483254624444
 20
144.8408669988801
 10
147.2314203331297
 20
146.1837661049335
 10
147.4867020769946
 20
147.224185627838
 10
147.9169947869641
 20
149.0197705792876
 10
148.0306830129768
 20
150.2400242051577
 10
147.709255392159
 20
151.3157559800812
 10
147.3874832615654
 20
152.3916600098926
 10
146.8245542879144
 20
152.6683013598569
 10
145.8840425999909
 20
152.6683013598569
 10
145.0989048209514
 20
152.6683013598569
 10
144.3282364524954
 20
152.3275811915945
 10
143.4531816219731
 20
151.6538923250251
 10
142.34627171234
 20
150.8074318058939
 10
141.901854101563
 20
150.1097995099067
 10
141.3578731655808
 20
149.289521733736
 10
140.6299240093235
 20
148.192602607601
 10
140.2850697237515
 20
147.455696197173
 10
139.6652966370942
 20
145.8385673095858
 10
139.0506911970739
 20
144.2214384219986
 10
138.463991048893
 20
142.3252566160164
 10
138.0571250036777
 20
141.0154304484394
 10
138.0571250036777
 20
141.0154304484394
 10
133.9009590684727
 20
127.8027915271048
 10
133.9009590684727
 20
127.8027915271048
 10
133.9009590684727
 20
127.8027915271048
 10
131.4180771143097
 20
127.8027915271048
 10
131.4180771143097
 20
127.8027915271048
 10
131.4180771143097
 20
127.8027915271048
 10
139.8926730891197
 20
154.8294111834263
 10
139.8926730891197
 20
154.8294111834263
 97
        0
 75
     2
 76
     1
 98
        0
  0
SPLINE
  5
6AA
330
6A2
100
AcDbEntity
  8
LOGO
370
     0
100
AcDbSpline
210
0.0
220
0.0
230
1.0
 70
    11
 71
     3
 72
    29
 73
    25
 74
     0
 42
0.000000001
 43
0.0000000001
 40
0.0
 40
0.0
 40
0.0
 40
0.0
 40
1.0
 40
1.0
 40
1.0
 40
2.0
 40
2.0
 40
2.0
 40
3.0
 40
3.0
 40
3.0
 40
4.0
 40
4.0
 40
4.0
 40
5.0
 40
5.0
 40
5.0
 40
6.0
 40
6.0
 40
6.0
 40
7.0
 40
7.0
 40
7.0
 40
8.0
 40
8.0
 40
8.0
 40
8.0
 10
101.6420971922469
 20
132.8388354296931
 30
0.0
 10
101.630039350094
 20
134.7164137077823
 30
0.0
 10
102.2236296937908
 20
138.0598810818841
 30
0.0
 10
103.7487744712405
 20
142.5378191476827
 30
0.0
 10
105.819967243327
 20
148.5896501242061
 30
0.0
 10
107.0602024361932
 20
150.8074318058939
 30
0.0
 10
108.1522984254671
 20
151.8833358357054
 30
0.0
 10
109.741177511439
 20
153.4532668840085
 30
0.0
 10
111.8740375333931
 20
153.5290590346837
 30
0.0
 10
112.5075910110823
 20
153.4532668840085
 30
0.0
 10
113.4012493694975
 20
153.3490526768302
 30
0.0
 10
114.6683563248758
 20
152.7580461564518
 30
0.0
 10
114.7493161221879
 20
150.7838328862519
 30
0.0
 10
114.8106388622796
 20
149.0909118479895
 30
0.0
 10
114.3186789024427
 20
145.9191825971221
 30
0.0
 10
112.6164561002338
 20
140.9489400617108
 30
0.0
 10
110.6444821435766
 20
135.1746117095912
 30
0.0
 10
109.4669477299053
 20
132.8960240524753
 30
0.0
 10
108.5212683953448
 20
131.9072809959403
 30
0.0
 10
106.7346406980658
 20
130.0538184021569
 30
0.0
 10
104.8222669326213
 20
130.2336525051225
 30
0.0
 10
104.5408024457958
 20
130.2336525051225
 30
0.0
 10
104.1721769856939
 20
130.2336525051225
 30
0.0
 10
101.6465758193322
 20
130.6305277668397
 30
0.0
 10
101.6420971922469
 20
132.8388354296931
 30
0.0
  0
SPLINE
  5
6AB
330
6A2
100
AcDbEntity
  8
LOGO
370
     0
100
AcDbSpline
210
0.0
220
0.0
230
1.0
 70
    11
 71
     3
 72
    32
 73
    28
 74
     0
 42
0.000000001
 43
0.0000000001
 40
0.0
 40
0.0
 40
0.0
 40
0.0
 40
1.0
 40
1.0
 40
1.0
 40
2.0
 40
2.0
 40
2.0
 40
3.0
 40
3.0
 40
3.0
 40
4.0
 40
4.0
 40
4.0
 40
5.0
 40
5.0
 40
5.0
 40
6.0
 40
6.0
 40
6.0
 40
7.0
 40
7.0
 40
7.0
 40
8.0
 40
8.0
 40
8.0
 40
9.0
 40
9.0
 40
9.0
 40
9.0
 10
106.2595617172429
 20
153.4105476718098
 30
0.0
 10
104.8222669326213
 20
151.5474388043041
 30
0.0
 10
103.7177685914188
 20
149.8758773721411
 30
0.0
 10
101.9232171692965
 20
144.6141795664062
 30
0.0
 10
100.2754269116635
 20
139.7999999594306
 30
0.0
 10
99.22777268346732
 20
136.3052927937542
 30
0.0
 10
99.06964269637689
 20
132.039572749846
 30
0.0
 10
98.94665270641765
 20
128.8673267343149
 30
0.0
 10
100.8807305877373
 20
127.8027915271048
 30
0.0
 10
103.7129454545577
 20
127.8027915271048
 30
0.0
 10
104.9352661390825
 20
127.8027915271048
 30
0.0
 10
108.0151835347002
 20
127.8827177950895
 30
0.0
 10
110.2045431598849
 20
130.5926316915021
 30
0.0
 10
111.7417457794874
 20
132.4984597712065
 30
0.0
 10
113.155269389579
 20
134.475256864725
 30
0.0
 10
115.0562743324223
 20
140.9489400617108
 30
0.0
 10
116.6361961642235
 20
146.3680788349845
 30
0.0
 10
117.7282921534974
 20
149.8639917848761
 30
0.0
 10
117.6480213757369
 20
151.8595646611754
 30
0.0
 10
117.6480213757369
 20
151.8595646611754
 30
0.0
 10
117.6480213757369
 20
151.8595646611754
 30
0.0
 10
117.6480213757369
 20
151.8595646611754
 30
0.0
 10
117.13229024137
 20
155.18150017429
 30
0.0
 10
114.7162431837115
 20
155.886194920681
 30
0.0
 10
113.3351034925446
 20
155.886194920681
 30
0.0
 10
111.9829026225447
 20
155.886194920681
 30
0.0
 10
108.3414342923792
 20
156.1251124501957
 30
0.0
 10
106.2595617172429
 20
153.4105476718098
 30
0.0
  0
HATCH
  5
6AC
330
6A2
100
AcDbEntity
  8
LOGO
 62
   250
420
  2234388
100
AcDbHatch
 10
0.0
 20
0.0
 30
0.0
210
0.0
220
0.0
230
1.0
  2
SOLID
 70
     1
 71
     0
 91
        2
 92
        1
 93
        1
 72
     4
 94
        3
 73
     0
 74
     1
 95
       29
 96
       25
 40
0.0
 40
0.0
 40
0.0
 40
0.0
 40
1.0
 40
1.0
 40
1.0
 40
2.0
 40
2.0
 40
2.0
 40
3.0
 40
3.0
 40
3.0
 40
4.0
 40
4.0
 40
4.0
 40
5.0
 40
5.0
 40
5.0
 40
6.0
 40
6.0
 40
6.0
 40
7.0
 40
7.0
 40
7.0
 40
8.0
 40
8.0
 40
8.0
 40
8.0
 10
101.6420971922469
 20
132.8388354296931
 10
101.630039350094
 20
134.7164137077823
 10
102.2236296937908
 20
138.0598810818841
 10
103.7487744712405
 20
142.5378191476827
 10
105.819967243327
 20
148.5896501242061
 10
107.0602024361932
 20
150.8074318058939
 10
108.1522984254671
 20
151.8833358357054
 10
109.741177511439
 20
153.4532668840085
 10
111.8740375333931
 20
153.5290590346837
 10
112.5075910110823
 20
153.4532668840085
 10
113.4012493694975
 20
153.3490526768302
 10
114.6683563248758
 20
152.7580461564518
 10
114.7493161221879
 20
150.7838328862519
 10
114.8106388622796
 20
149.0909118479895
 10
114.3186789024427
 20
145.9191825971221
 10
112.6164561002338
 20
140.9489400617108
 10
110.6444821435766
 20
135.1746117095912
 10
109.4669477299053
 20
132.8960240524753
 10
108.5212683953448
 20
131.9072809959403
 10
106.7346406980658
 20
130.0538184021569
 10
104.8222669326213
 20
130.2336525051225
 10
104.5408024457958
 20
130.2336525051225
 10
104.1721769856939
 20
130.2336525051225
 10
101.6465758193322
 20
130.6305277668397
 10
101.6420971922469
 20
132.8388354296931
 97
        0
 92
        1
 93
        1
 72
     4
 94
        3
 73
     0
 74
     1
 95
       32
 96
       28
 40
0.0
 40
0.0
 40
0.0
 40
0.0
 40
1.0
 40
1.0
 40
1.0
 40
2.0
 40
2.0
 40
2.0
 40
3.0
 40
3.0
 40
3.0
 40
4.0
 40
4.0
 40
4.0
 40
5.0
 40
5.0
 40
5.0
 40
6.0
 40
6.0
 40
6.0
 40
7.0
 40
7.0
 40
7.0
 40
8.0
 40
8.0
 40
8.0
 40
9.0
 40
9.0
 40
9.0
 40
9.0
 10
106.2595617172429
 20
153.4105476718098
 10
104.8222669326213
 20
151.5474388043041
 10
103.7177685914188
 20
149.8758773721411
 10
101.9232171692965
 20
144.6141795664062
 10
100.2754269116635
 20
139.7999999594306
 10
99.22777268346732
 20
136.3052927937542
 10
99.06964269637689
 20
132.039572749846
 10
98.94665270641765
 20
128.8673267343149
 10
100.8807305877373
 20
127.8027915271048
 10
103.7129454545577
 20
127.8027915271048
 10
104.9352661390825
 20
127.8027915271048
 10
108.0151835347002
 20
127.8827177950895
 10
110.2045431598849
 20
130.5926316915021
 10
111.7417457794874
 20
132.4984597712065
 10
113.155269389579
 20
134.475256864725
 10
115.0562743324223
 20
140.9489400617108
 10
116.6361961642235
 20
146.3680788349845
 10
117.7282921534974
 20
149.8639917848761
 10
117.6480213757369
 20
151.8595646611754
 10
117.6480213757369
 20
151.8595646611754
 10
117.6480213757369
 20
151.8595646611754
 10
117.6480213757369
 20
151.8595646611754
 10
117.13229024137
 20
155.18150017429
 10
114.7162431837115
 20
155.886194920681
 10
113.3351034925446
 20
155.886194920681
 10
111.9829026225447
 20
155.886194920681
 10
108.3414342923792
 20
156.1251124501957
 10
106.2595617172429
 20
153.4105476718098
 97
        0
 75
     2
 76
     1
 98
        0
  0
ENDBLK
  5
6AD
330
6A2
100
AcDbEntity
  8
0
100
AcDbBlockEnd
  0
BLOCK
  5
1756
330
1755
100
AcDbEntity
  8
0
100
AcDbBlockBegin
  2
*D6
 70
     1
 10
0.0
 20
0.0
 30
0.0
  3
*D6
  1
*D47
  0
LINE
  5
1758
330
1755
100
AcDbEntity
  8
DIM
 62
     0
370
    -2
100
AcDbLine
 10
-295.5188489193064
 20
775.2981836049703
 30
0.0
 11
-295.5188489193064
 21
815.6652411493675
 31
0.0
  0
LINE
  5
1759
330
1755
100
AcDbEntity
  8
DIM
 62
     0
370
    -2
100
AcDbLine
 10
-205.4284433023048
 20
706.1451893518793
 30
0.0
 11
-205.4284433023048
 21
815.6652411493675
 31
0.0
  0
LINE
  5
175A
330
1755
100
AcDbEntity
  8
DIM
 62
     0
370
    -2
100
AcDbLine
 10
-293.5188489193064
 20
815.6652411493675
 30
0.0
 11
-207.4284433023048
 21
815.6652411493675
 31
0.0
  0
INSERT
  5
175B
330
1755
100
AcDbEntity
  8
DIM
 62
     0
370
    -2
100
AcDbBlockReference
  2
_DOT
 10
-295.5188489193064
 20
815.6652411493675
 30
0.0
 41
2.0
 42
2.0
 43
2.0
 50
180.0
  0
INSERT
  5
175C
330
1755
100
AcDbEntity
  8
DIM
 62
     0
370
    -2
100
AcDbBlockReference
  2
_DOT
 10
-205.4284433023048
 20
815.6652411493675
 30
0.0
 41
2.0
 42
2.0
 43
2.0
  0
MTEXT
  5
175D
330
1755
100
AcDbEntity
  8
DIM
 62
     0
100
AcDbMText
 10
-250.4736461108056
 20
831.6652411493675
 30
0.0
 40
12.0
 41
0.0
 46
0.0
 71
     5
 72
     1
  1
\A1;90
  7
ＭＳ ゴシック
 73
     1
 44
1.0
  0
POINT
  5
175E
330
1755
100
AcDbEntity
  8
Defpoints
 62
     0
100
AcDbPoint
 10
-295.5188489193064
 20
770.2981836049703
 30
0.0
  0
POINT
  5
175F
330
1755
100
AcDbEntity
  8
Defpoints
 62
     0
100
AcDbPoint
 10
-205.4284433023048
 20
701.1451893518793
 30
0.0
  0
POINT
  5
1760
330
1755
100
AcDbEntity
  8
Defpoints
 62
     0
100
AcDbPoint
 10
-205.4284433023048
 20
815.6652411493675
 30
0.0
  0
ENDBLK
  5
1757
330
1755
100
AcDbEntity
  8
0
100
AcDbBlockEnd
  0
BLOCK
  5
1765
330
1764
100
AcDbEntity
  8
0
100
AcDbBlockBegin
  2
*D7
 70
     1
 10
0.0
 20
0.0
 30
0.0
  3
*D7
  1
*D48
  0
LINE
  5
1767
330
1764
100
AcDbEntity
  8
DIM
 62
     0
370
    -2
100
AcDbLine
 10
-200.4284433023048
 20
671.8525143521373
 30
0.0
 11
-150.0688743412373
 21
671.8525143521373
 31
0.0
  0
LINE
  5
1768
330
1764
100
AcDbEntity
  8
DIM
 62
     0
370
    -2
100
AcDbLine
 10
-233.0005079817896
 20
584.7930199689371
 30
0.0
 11
-150.0688743412373
 21
584.7930199689371
 31
0.0
  0
LINE
  5
1769
330
1764
100
AcDbEntity
  8
DIM
 62
     0
370
    -2
100
AcDbLine
 10
-150.0688743412373
 20
669.8525143521373
 30
0.0
 11
-150.0688743412373
 21
586.7930199689371
 31
0.0
  0
INSERT
  5
176A
330
1764
100
AcDbEntity
  8
DIM
 62
     0
370
    -2
100
AcDbBlockReference
  2
_DOT
 10
-150.0688743412373
 20
671.8525143521373
 30
0.0
 41
2.0
 42
2.0
 43
2.0
 50
90.0
  0
INSERT
  5
176B
330
1764
100
AcDbEntity
  8
DIM
 62
     0
370
    -2
100
AcDbBlockReference
  2
_DOT
 10
-150.0688743412373
 20
584.7930199689371
 30
0.0
 41
2.0
 42
2.0
 43
2.0
 50
270.0
  0
MTEXT
  5
176C
330
1764
100
AcDbEntity
  8
DIM
 62
     0
100
AcDbMText
 10
-166.0688743412373
 20
628.3227671605372
 30
0.0
 40
12.0
 41
0.0
 46
0.0
 71
     5
 72
     1
  1
\A1;87
  7
ＭＳ ゴシック
 11
0.0
 21
1.0
 31
0.0
 73
     1
 44
1.0
  0
POINT
  5
176D
330
1764
100
AcDbEntity
  8
Defpoints
 62
     0
100
AcDbPoint
 10
-205.4284433023048
 20
671.8525143521373
 30
0.0
  0
POINT
  5
176E
330
1764
100
AcDbEntity
  8
Defpoints
 62
     0
100
AcDbPoint
 10
-238.0005079817896
 20
584.7930199689371
 30
0.0
  0
POINT
  5
176F
330
1764
100
AcDbEntity
  8
Defpoints
 62
     0
100
AcDbPoint
 10
-150.0688743412373
 20
584.7930199689371
 30
0.0
  0
ENDBLK
  5
1766
330
1764
100
AcDbEntity
  8
0
100
AcDbBlockEnd
  0
BLOCK
  5
1781
330
1780
100
AcDbEntity
  8
0
100
AcDbBlockBegin
  2
*D8
 70
     1
 10
0.0
 20
0.0
 30
0.0
  3
*D8
  1
*D50
  0
LINE
  5
1783
330
1780
100
AcDbEntity
  8
DIM
 62
     0
370
    -2
100
AcDbLine
 10
-329.1967209567216
 20
584.7930199689371
 30
0.0
 11
-425.0716077610881
 21
584.7930199689371
 31
0.0
  0
LINE
  5
1784
330
1780
100
AcDbEntity
  8
DIM
 62
     0
370
    -2
100
AcDbLine
 10
-258.6313006938241
 20
766.9407353208452
 30
0.0
 11
-425.0716077610881
 21
766.9407353208452
 31
0.0
  0
LINE
  5
1785
330
1780
100
AcDbEntity
  8
DIM
 62
     0
370
    -2
100
AcDbLine
 10
-425.0716077610881
 20
586.7930199689371
 30
0.0
 11
-425.0716077610881
 21
764.9407353208452
 31
0.0
  0
INSERT
  5
1786
330
1780
100
AcDbEntity
  8
DIM
 62
     0
370
    -2
100
AcDbBlockReference
  2
_DOT
 10
-425.0716077610881
 20
584.7930199689371
 30
0.0
 41
2.0
 42
2.0
 43
2.0
 50
270.0
  0
INSERT
  5
1787
330
1780
100
AcDbEntity
  8
DIM
 62
     0
370
    -2
100
AcDbBlockReference
  2
_DOT
 10
-425.0716077610881
 20
766.9407353208452
 30
0.0
 41
2.0
 42
2.0
 43
2.0
 50
90.0
  0
MTEXT
  5
1788
330
1780
100
AcDbEntity
  8
DIM
 62
     0
100
AcDbMText
 10
-441.0716077610881
 20
675.8668776448911
 30
0.0
 40
12.0
 41
0.0
 46
0.0
 71
     5
 72
     1
  1
\A1;182
  7
ＭＳ ゴシック
 11
0.0
 21
1.0
 31
0.0
 73
     1
 44
1.0
  0
POINT
  5
1789
330
1780
100
AcDbEntity
  8
Defpoints
 62
     0
100
AcDbPoint
 10
-324.1967209567216
 20
584.7930199689371
 30
0.0
  0
POINT
  5
178A
330
1780
100
AcDbEntity
  8
Defpoints
 62
     0
100
AcDbPoint
 10
-253.6313006938241
 20
766.9407353208452
 30
0.0
  0
POINT
  5
178B
330
1780
100
AcDbEntity
  8
Defpoints
 62
     0
100
AcDbPoint
 10
-425.0716077610881
 20
766.9407353208452
 30
0.0
  0
ENDBLK
  5
1782
330
1780
100
AcDbEntity
  8
0
100
AcDbBlockEnd
  0
BLOCK
  5
17A1
330
17A0
100
AcDbEntity
  8
0
100
AcDbBlockBegin
  2
*D9
 70
     1
 10
0.0
 20
0.0
 30
0.0
  3
*D9
  1
*D52
  0
LINE
  5
17A3
330
17A0
100
AcDbEntity
  8
DIM
 62
     0
370
    -2
100
AcDbLine
 10
-329.1967209567216
 20
584.7930199689371
 30
0.0
 11
-425.0716077610881
 21
584.7930199689371
 31
0.0
  0
LINE
  5
17A4
330
17A0
100
AcDbEntity
  8
DIM
 62
     0
370
    -2
100
AcDbLine
 10
-322.3302740070764
 20
253.4654709517774
 30
0.0
 11
-425.0716077610881
 21
253.4654709517774
 31
0.0
  0
LINE
  5
17A5
330
17A0
100
AcDbEntity
  8
DIM
 62
     0
370
    -2
100
AcDbLine
 10
-425.0716077610881
 20
582.7930199689371
 30
0.0
 11
-425.0716077610881
 21
255.4654709517774
 31
0.0
  0
INSERT
  5
17A6
330
17A0
100
AcDbEntity
  8
DIM
 62
     0
370
    -2
100
AcDbBlockReference
  2
_DOT
 10
-425.0716077610881
 20
584.7930199689371
 30
0.0
 41
2.0
 42
2.0
 43
2.0
 50
90.0
  0
INSERT
  5
17A7
330
17A0
100
AcDbEntity
  8
DIM
 62
     0
370
    -2
100
AcDbBlockReference
  2
_DOT
 10
-425.0716077610881
 20
253.4654709517774
 30
0.0
 41
2.0
 42
2.0
 43
2.0
 50
270.0
  0
MTEXT
  5
17A8
330
17A0
100
AcDbEntity
  8
DIM
 62
     0
100
AcDbMText
 10
-441.0716077610881
 20
419.1292454603572
 30
0.0
 40
12.0
 41
0.0
 46
0.0
 71
     5
 72
     1
  1
\A1;445
  7
ＭＳ ゴシック
 11
0.0
 21
1.0
 31
0.0
 73
     1
 44
1.0
  0
POINT
  5
17A9
330
17A0
100
AcDbEntity
  8
Defpoints
 62
     0
100
AcDbPoint
 10
-324.1967209567216
 20
584.7930199689371
 30
0.0
  0
POINT
  5
17AA
330
17A0
100
AcDbEntity
  8
Defpoints
 62
     0
100
AcDbPoint
 10
-317.3302740070764
 20
253.4654709517774
 30
0.0
  0
POINT
  5
17AB
330
17A0
100
AcDbEntity
  8
Defpoints
 62
     0
100
AcDbPoint
 10
-425.0716077610881
 20
253.4654709517774
 30
0.0
  0
ENDBLK
  5
17A2
330
17A0
100
AcDbEntity
  8
0
100
AcDbBlockEnd
  0
BLOCK
  5
17BD
330
17BC
100
AcDbEntity
  8
0
100
AcDbBlockBegin
  2
*D10
 70
     1
 10
0.0
 20
0.0
 30
0.0
  3
*D10
  1
*D54
  0
LINE
  5
17BF
330
17BC
100
AcDbEntity
  8
DIM
 62
     0
370
    -2
100
AcDbLine
 10
-266.9479771814878
 20
584.7930199689371
 30
0.0
 11
-238.0005079817896
 21
584.7930199689371
 31
0.0
  0
LINE
  5
17C0
330
17BC
100
AcDbEntity
  8
DIM
 62
     0
370
    -2
100
AcDbLine
 10
-263.1570615189634
 20
554.8854335595191
 30
0.0
 11
-238.0005079817896
 21
554.8854335595191
 31
0.0
  0
LINE
  5
17C1
330
17BC
100
AcDbEntity
  8
DIM
 62
     0
370
    -2
100
AcDbLine
 10
-238.0005079817896
 20
554.8854335595191
 30
0.0
 11
-238.0005079817896
 21
473.1374335595191
 31
0.0
  0
LINE
  5
17C2
330
17BC
100
AcDbEntity
  8
DIM
 62
     0
370
    -2
100
AcDbLine
 10
-238.0005079817896
 20
582.7930199689371
 30
0.0
 11
-238.0005079817896
 21
556.8854335595191
 31
0.0
  0
INSERT
  5
17C3
330
17BC
100
AcDbEntity
  8
DIM
 62
     0
370
    -2
100
AcDbBlockReference
  2
_DOT
 10
-238.0005079817896
 20
584.7930199689371
 30
0.0
 41
2.0
 42
2.0
 43
2.0
 50
90.0
  0
INSERT
  5
17C4
330
17BC
100
AcDbEntity
  8
DIM
 62
     0
370
    -2
100
AcDbBlockReference
  2
_DOT
 10
-238.0005079817896
 20
554.8854335595191
 30
0.0
 41
2.0
 42
2.0
 43
2.0
 50
270.0
  0
MTEXT
  5
17C5
330
17BC
100
AcDbEntity
  8
DIM
 62
     0
100
AcDbMText
 10
-254.0005079817896
 20
510.0114335595191
 30
0.0
 40
12.0
 41
0.0
 46
0.0
 71
     5
 72
     1
  1
\A1;max. 30
  7
ＭＳ ゴシック
 11
0.0
 21
1.0
 31
0.0
 73
     1
 44
1.0
  0
POINT
  5
17C6
330
17BC
100
AcDbEntity
  8
Defpoints
 62
     0
100
AcDbPoint
 10
-271.9479771814878
 20
584.7930199689371
 30
0.0
  0
POINT
  5
17C7
330
17BC
100
AcDbEntity
  8
Defpoints
 62
     0
100
AcDbPoint
 10
-268.1570615189634
 20
554.8854335595191
 30
0.0
  0
POINT
  5
17CA
330
17BC
100
AcDbEntity
  8
Defpoints
 62
     0
100
AcDbPoint
 10
-238.0005079817896
 20
554.8854335595191
 30
0.0
  0
ENDBLK
  5
17BE
330
17BC
100
AcDbEntity
  8
0
100
AcDbBlockEnd
  0
BLOCK
  5
528F
330
528E
100
AcDbEntity
  8
0
100
AcDbBlockBegin
  2
*D11
 70
     1
 10
0.0
 20
0.0
 30
0.0
  3
*D11
  1
*D180
  0
LINE
  5
5291
330
528E
100
AcDbEntity
  8
DIM
  6
Continuous
 62
     0
370
    -2
100
AcDbLine
 10
-207.5753895233053
 20
977.2721363221665
 30
0.0
 11
-163.6424299452556
 21
977.2721363221665
 31
0.0
  0
LINE
  5
5292
330
528E
100
AcDbEntity
  8
DIM
  6
Continuous
 62
     0
370
    -2
100
AcDbLine
 10
-239.0090207202426
 20
1044.68174079606
 30
0.0
 11
-210.7694720948707
 21
1078.336351635498
 31
0.0
  0
ARC
  5
5293
330
528E
100
AcDbEntity
  8
DIM
  6
Continuous
 62
     0
370
    -2
100
AcDbCircle
 10
-295.5723490689053
 20
977.2721363221665
 30
0.0
 40
131.9299191236497
100
AcDbArc
 50
0.8685873309782567
 51
49.13143556460852
  0
INSERT
  5
5294
330
528E
100
AcDbEntity
  8
DIM
 62
     0
370
    -2
100
AcDbBlockReference
  2
_DOT
 10
-163.6424299452556
 20
977.2721363221665
 30
0.0
 41
2.0
 42
2.0
 43
2.0
 50
270.4342936654891
  0
INSERT
  5
5295
330
528E
100
AcDbEntity
  8
DIM
 62
     0
370
    -2
100
AcDbBlockReference
  2
_DOT
 10
-210.7694720948707
 20
1078.336351635498
 30
0.0
 41
2.0
 42
2.0
 43
2.0
 50
139.5657292300976
  0
MTEXT
  5
5296
330
528E
100
AcDbEntity
  8
DIM
 62
     0
100
AcDbMText
 10
-161.3119993050034
 20
1039.878798261901
 30
0.0
 40
12.0
 41
0.0
 46
0.0
 71
     5
 72
     1
  1
\A1;\A1;50%%d
  7
ＭＳ ゴシック
 11
0.4226184428214646
 21
-0.9063077025972804
 31
0.0
 73
     1
 44
1.0
  0
POINT
  5
5297
330
528E
100
AcDbEntity
  8
Defpoints
 62
     0
100
AcDbPoint
 10
-185.3465289936827
 20
1049.768840721176
 30
0.0
  0
POINT
  5
5298
330
528E
100
AcDbEntity
  8
Defpoints
 62
     0
100
AcDbPoint
 10
-295.5723490689053
 20
977.2721363221665
 30
0.0
  0
POINT
  5
5299
330
528E
100
AcDbEntity
  8
Defpoints
 62
     0
100
AcDbPoint
 10
-295.5723490689053
 20
977.2721363221665
 30
0.0
  0
POINT
  5
529A
330
528E
100
AcDbEntity
  8
Defpoints
 62
     0
100
AcDbPoint
 10
-242.2229572381053
 20
1040.851517296165
 30
0.0
  0
POINT
  5
529B
330
528E
100
AcDbEntity
  8
Defpoints
 62
     0
100
AcDbPoint
 10
-212.5753895233053
 20
977.2721363221665
 30
0.0
  0
ENDBLK
  5
5290
330
528E
100
AcDbEntity
  8
0
100
AcDbBlockEnd
  0
BLOCK
  5
529D
330
529C
100
AcDbEntity
  8
0
100
AcDbBlockBegin
  2
*D12
 70
     1
 10
0.0
 20
0.0
 30
0.0
  3
*D12
  1
*D181
  0
LINE
  5
529F
330
529C
100
AcDbEntity
  8
DIM
  6
Continuous
 62
     0
370
    -2
100
AcDbLine
 10
-239.0090207202426
 20
909.8625318482716
 30
0.0
 11
-210.7884466621311
 21
876.2305340358844
 31
0.0
  0
LINE
  5
52A0
330
529C
100
AcDbEntity
  8
DIM
  6
Continuous
 62
     0
370
    -2
100
AcDbLine
 10
-207.5753895233053
 20
977.2721363221665
 30
0.0
 11
-163.6719491457033
 21
977.2721363221665
 31
0.0
  0
ARC
  5
52A1
330
529C
100
AcDbEntity
  8
DIM
  6
Continuous
 62
     0
370
    -2
100
AcDbCircle
 10
-295.5723490689053
 20
977.2721363221665
 30
0.0
 40
131.900399923202
100
AcDbArc
 50
310.8687588282413
 51
359.1312182761714
  0
INSERT
  5
52A2
330
529C
100
AcDbEntity
  8
DIM
 62
     0
370
    -2
100
AcDbBlockReference
  2
_DOT
 10
-210.7884466621311
 20
876.2305340358844
 30
0.0
 41
2.0
 42
2.0
 43
2.0
 50
220.434367966327
  0
INSERT
  5
52A3
330
529C
100
AcDbEntity
  8
DIM
 62
     0
370
    -2
100
AcDbBlockReference
  2
_DOT
 10
-163.6719491457033
 20
977.2721363221665
 30
0.0
 41
2.0
 42
2.0
 43
2.0
 50
89.56560913808569
  0
MTEXT
  5
52A4
330
529C
100
AcDbEntity
  8
DIM
 62
     0
100
AcDbMText
 10
-190.7212485019999
 20
928.3792396571181
 30
0.0
 40
12.0
 41
0.0
 46
0.0
 71
     5
 72
     1
  1
\A1;\A1;50%%d
  7
ＭＳ ゴシック
 11
0.4226184428224356
 21
0.9063077025968275
 31
0.0
 73
     1
 44
1.0
  0
POINT
  5
52A5
330
529C
100
AcDbEntity
  8
Defpoints
 62
     0
100
AcDbPoint
 10
-185.3711919215385
 20
904.7916529953976
 30
0.0
  0
POINT
  5
52A6
330
529C
100
AcDbEntity
  8
Defpoints
 62
     0
100
AcDbPoint
 10
-295.5723490689053
 20
977.2721363221665
 30
0.0
  0
POINT
  5
52A7
330
529C
100
AcDbEntity
  8
Defpoints
 62
     0
100
AcDbPoint
 10
-295.5723490689053
 20
977.2721363221665
 30
0.0
  0
POINT
  5
52A8
330
529C
100
AcDbEntity
  8
Defpoints
 62
     0
100
AcDbPoint
 10
-242.2229572381053
 20
913.6927553481667
 30
0.0
  0
POINT
  5
52A9
330
529C
100
AcDbEntity
  8
Defpoints
 62
     0
100
AcDbPoint
 10
-212.5753895233053
 20
977.2721363221665
 30
0.0
  0
ENDBLK
  5
529E
330
529C
100
AcDbEntity
  8
0
100
AcDbBlockEnd
  0
BLOCK
  5
52DE
330
52DD
100
AcDbEntity
  8
0
100
AcDbBlockBegin
  2
*D13
 70
     1
 10
0.0
 20
0.0
 30
0.0
  3
*D13
  1
*D186
  0
LINE
  5
52E0
330
52DD
100
AcDbEntity
  8
DIM
  6
Continuous
 62
     0
370
    -2
100
AcDbLine
 10
-205.4284433023048
 20
665.739013240537
 30
0.0
 11
-205.4284433023048
 21
644.9255475526911
 31
0.0
  0
LINE
  5
52E1
330
52DD
100
AcDbEntity
  8
DIM
  6
Continuous
 62
     0
370
    -2
100
AcDbLine
 10
-203.4848498383751
 20
666.20790906948
 30
0.0
 11
-196.6618804203525
 21
646.3925670573126
 31
0.0
  0
ARC
  5
52E2
330
52DD
100
AcDbEntity
  8
DIM
  6
Continuous
 62
     0
370
    -2
100
AcDbCircle
 10
-205.4284433023048
 20
671.8525143521373
 30
0.0
 40
26.9269667994462
100
AcDbArc
 50
274.256621879935
 51
284.7433781109
  0
INSERT
  5
52E3
330
52DD
100
AcDbEntity
  8
DIM
 62
     0
370
    -2
100
AcDbBlockReference
  2
_DOT
 10
-205.4284433023048
 20
644.9255475526911
 30
0.0
 41
2.0
 42
2.0
 43
2.0
 50
182.1283109399675
  0
INSERT
  5
52E4
330
52DD
100
AcDbEntity
  8
DIM
 62
     0
370
    -2
100
AcDbBlockReference
  2
_DOT
 10
-196.6618804203525
 20
646.3925670573126
 30
0.0
 41
2.0
 42
2.0
 43
2.0
 50
16.87168905086749
  0
MTEXT
  5
52E5
330
52DD
100
AcDbEntity
  8
DIM
 62
     0
100
AcDbMText
 10
-195.1420403270876
 20
629.9599396104486
 30
0.0
 40
12.0
 41
0.0
 46
0.0
 71
     5
 72
     1
  1
\A1;\A1;19%%d
  7
ＭＳ ゴシック
 11
0.9711525369054564
 21
0.238459116122861
 31
0.0
 73
     1
 44
1.0
  0
POINT
  5
52E6
330
52DD
100
AcDbEntity
  8
Defpoints
 62
     0
100
AcDbPoint
 10
-202.4580607833727
 20
645.0898842738043
 30
0.0
  0
POINT
  5
52E7
330
52DD
100
AcDbEntity
  8
Defpoints
 62
     0
100
AcDbPoint
 10
-205.4284433023048
 20
671.8525143521373
 30
0.0
  0
POINT
  5
52E8
330
52DD
100
AcDbEntity
  8
Defpoints
 62
     0
100
AcDbPoint
 10
-205.4284433023048
 20
671.8525143521373
 30
0.0
  0
POINT
  5
52E9
330
52DD
100
AcDbEntity
  8
Defpoints
 62
     0
100
AcDbPoint
 10
-205.4284433023048
 20
670.739013240537
 30
0.0
  0
POINT
  5
52EA
330
52DD
100
AcDbEntity
  8
Defpoints
 62
     0
100
AcDbPoint
 10
-205.1126906099047
 20
670.935501947737
 30
0.0
  0
ENDBLK
  5
52DF
330
52DD
100
AcDbEntity
  8
0
100
AcDbBlockEnd
  0
BLOCK
  5
535F
330
535E
100
AcDbEntity
  8
0
100
AcDbBlockBegin
  2
*D14
 70
     1
 10
0.0
 20
0.0
 30
0.0
  3
*D14
  1
*D195
  0
LINE
  5
5361
330
535E
100
AcDbEntity
  8
DIM
 62
     0
370
    -2
100
AcDbLine
 10
-665.2773563670436
 20
584.7930199689371
 30
0.0
 11
-617.0190628856021
 21
584.7930199689371
 31
0.0
  0
LINE
  5
5362
330
535E
100
AcDbEntity
  8
DIM
 62
     0
370
    -2
100
AcDbLine
 10
-665.2773563670436
 20
731.7930199689371
 30
0.0
 11
-617.0190628856021
 21
731.7930199689371
 31
0.0
  0
LINE
  5
5363
330
535E
100
AcDbEntity
  8
DIM
 62
     0
370
    -2
100
AcDbLine
 10
-617.0190628856021
 20
586.7930199689371
 30
0.0
 11
-617.0190628856021
 21
729.7930199689371
 31
0.0
  0
INSERT
  5
5364
330
535E
100
AcDbEntity
  8
DIM
 62
     0
370
    -2
100
AcDbBlockReference
  2
_DOT
 10
-617.0190628856021
 20
584.7930199689371
 30
0.0
 41
2.0
 42
2.0
 43
2.0
 50
270.0
  0
INSERT
  5
5365
330
535E
100
AcDbEntity
  8
DIM
 62
     0
370
    -2
100
AcDbBlockReference
  2
_DOT
 10
-617.0190628856021
 20
731.7930199689371
 30
0.0
 41
2.0
 42
2.0
 43
2.0
 50
90.0
  0
MTEXT
  5
5366
330
535E
100
AcDbEntity
  8
DIM
 62
     0
100
AcDbMText
 10
-633.0190628856021
 20
658.2930199689371
 30
0.0
 40
12.0
 41
0.0
 46
0.0
 71
     5
 72
     1
  1
\A1;147
  7
ＭＳ ゴシック
 11
0.0
 21
1.0
 31
0.0
 73
     1
 44
1.0
  0
POINT
  5
5367
330
535E
100
AcDbEntity
  8
Defpoints
 62
     0
100
AcDbPoint
 10
-670.2773563670436
 20
584.7930199689371
 30
0.0
  0
POINT
  5
5368
330
535E
100
AcDbEntity
  8
Defpoints
 62
     0
100
AcDbPoint
 10
-670.2773563670436
 20
731.7930199689371
 30
0.0
  0
POINT
  5
5369
330
535E
100
AcDbEntity
  8
Defpoints
 62
     0
100
AcDbPoint
 10
-617.0190628856021
 20
731.7930199689371
 30
0.0
  0
ENDBLK
  5
5360
330
535E
100
AcDbEntity
  8
0
100
AcDbBlockEnd
  0
BLOCK
  5
6D3A
330
6D39
100
AcDbEntity
  8
0
100
AcDbBlockBegin
  2
*D15
 70
     1
 10
0.0
 20
0.0
 30
0.0
  3
*D15
  1
*D16
  0
LINE
  5
6D3C
330
6D39
100
AcDbEntity
  8
DIM
 62
     0
370
    -2
100
AcDbLine
 10
562.9716035188872
 20
759.0014491832753
 30
0.0
 11
555.7692641093848
 21
759.0014491832753
 31
0.0
  0
LINE
  5
6D3D
330
6D39
100
AcDbEntity
  8
DIM
 62
     0
370
    -2
100
AcDbLine
 10
562.9716035188872
 20
739.0014496303102
 30
0.0
 11
555.7692641093848
 21
739.0014496303102
 31
0.0
  0
LINE
  5
6D3E
330
6D39
100
AcDbEntity
  8
DIM
 62
     0
370
    -2
100
AcDbLine
 10
555.7692641093848
 20
761.0014491832753
 30
0.0
 11
555.7692641093848
 21
763.0014491832753
 31
0.0
  0
LINE
  5
6D3F
330
6D39
100
AcDbEntity
  8
DIM
 62
     0
370
    -2
100
AcDbLine
 10
555.7692641093848
 20
737.0014496303102
 30
0.0
 11
555.7692641093848
 21
735.0014496303102
 31
0.0
  0
INSERT
  5
6D40
330
6D39
100
AcDbEntity
  8
DIM
 62
     0
370
    -2
100
AcDbBlockReference
  2
_DOT
 10
555.7692641093848
 20
759.0014491832753
 30
0.0
 41
2.0
 42
2.0
 43
2.0
 50
270.0
  0
INSERT
  5
6D41
330
6D39
100
AcDbEntity
  8
DIM
 62
     0
370
    -2
100
AcDbBlockReference
  2
_DOT
 10
555.7692641093848
 20
739.0014496303102
 30
0.0
 41
2.0
 42
2.0
 43
2.0
 50
90.0
  0
MTEXT
  5
6D42
330
6D39
100
AcDbEntity
  8
DIM
 62
     0
100
AcDbMText
 10
539.7692641093848
 20
749.0014494067927
 30
0.0
 40
12.0
 41
0.0
 46
0.0
 71
     5
 72
     1
  1
\A1;20
  7
ＭＳ ゴシック
 11
0.0
 21
1.0
 31
0.0
 73
     1
 44
1.0
  0
POINT
  5
6D43
330
6D39
100
AcDbEntity
  8
Defpoints
 62
     0
100
AcDbPoint
 10
567.9716035188872
 20
759.0014491832753
 30
0.0
  0
POINT
  5
6D44
330
6D39
100
AcDbEntity
  8
Defpoints
 62
     0
100
AcDbPoint
 10
567.9716035188872
 20
739.0014496303102
 30
0.0
  0
POINT
  5
6D45
330
6D39
100
AcDbEntity
  8
Defpoints
 62
     0
100
AcDbPoint
 10
555.7692641093848
 20
739.0014496303102
 30
0.0
  0
ENDBLK
  5
6D3B
330
6D39
100
AcDbEntity
  8
0
100
AcDbBlockEnd
  0
BLOCK
  5
6D55
330
6D54
100
AcDbEntity
  8
0
100
AcDbBlockBegin
  2
*D16
 70
     1
 10
0.0
 20
0.0
 30
0.0
  3
*D16
  1
*D17
  0
LINE
  5
6D57
330
6D54
100
AcDbEntity
  8
DIM
 62
     0
370
    -2
100
AcDbLine
 10
1040.607984815593
 20
322.6995756019876
 30
0.0
 11
1040.607984815593
 21
269.9274995357328
 31
0.0
  0
LINE
  5
6D58
330
6D54
100
AcDbEntity
  8
DIM
 62
     0
370
    -2
100
AcDbLine
 10
966.9146646604497
 20
298.1487805286078
 30
0.0
 11
966.9146646604497
 21
269.9274995357328
 31
0.0
  0
LINE
  5
6D59
330
6D54
100
AcDbEntity
  8
DIM
 62
     0
370
    -2
100
AcDbLine
 10
1038.607984815593
 20
269.9274995357328
 30
0.0
 11
968.9146646604497
 21
269.9274995357328
 31
0.0
  0
INSERT
  5
6D5A
330
6D54
100
AcDbEntity
  8
DIM
 62
     0
370
    -2
100
AcDbBlockReference
  2
_DOT
 10
1040.607984815593
 20
269.9274995357328
 30
0.0
 41
2.0
 42
2.0
 43
2.0
  0
INSERT
  5
6D5B
330
6D54
100
AcDbEntity
  8
DIM
 62
     0
370
    -2
100
AcDbBlockReference
  2
_DOT
 10
966.9146646604497
 20
269.9274995357328
 30
0.0
 41
2.0
 42
2.0
 43
2.0
 50
180.0
  0
MTEXT
  5
6D5C
330
6D54
100
AcDbEntity
  8
DIM
 62
     0
100
AcDbMText
 10
1003.761324738022
 20
283.4274995357328
 30
0.0
 40
7.0
 41
0.0
 46
0.0
 71
     5
 72
     1
  1
\A1;74
  7
ＭＳ ゴシック
 73
     1
 44
1.0
  0
POINT
  5
6D5D
330
6D54
100
AcDbEntity
  8
Defpoints
 62
     0
100
AcDbPoint
 10
1040.607984815593
 20
327.6995756019876
 30
0.0
  0
POINT
  5
6D5E
330
6D54
100
AcDbEntity
  8
Defpoints
 62
     0
100
AcDbPoint
 10
966.9146646604497
 20
303.1487805286078
 30
0.0
  0
POINT
  5
6D5F
330
6D54
100
AcDbEntity
  8
Defpoints
 62
     0
100
AcDbPoint
 10
966.9146646604497
 20
269.9274995357328
 30
0.0
  0
ENDBLK
  5
6D56
330
6D54
100
AcDbEntity
  8
0
100
AcDbBlockEnd
  0
BLOCK
  5
6D62
330
6D61
100
AcDbEntity
  8
0
100
AcDbBlockBegin
  2
*D17
 70
     1
 10
0.0
 20
0.0
 30
0.0
  3
*D17
  1
*D18
  0
LINE
  5
6D64
330
6D61
100
AcDbEntity
  8
DIM
 62
     0
370
    -2
100
AcDbLine
 10
966.9146646604497
 20
298.1487805286078
 30
0.0
 11
966.9146646604497
 21
269.9274995357328
 31
0.0
  0
LINE
  5
6D65
330
6D61
100
AcDbEntity
  8
DIM
 62
     0
370
    -2
100
AcDbLine
 10
946.9146646604497
 20
366.6221899081991
 30
0.0
 11
946.9146646604497
 21
269.9274995357328
 31
0.0
  0
LINE
  5
6D66
330
6D61
100
AcDbEntity
  8
DIM
 62
     0
370
    -2
100
AcDbLine
 10
964.9146646604497
 20
269.9274995357328
 30
0.0
 11
948.9146646604497
 21
269.9274995357328
 31
0.0
  0
INSERT
  5
6D67
330
6D61
100
AcDbEntity
  8
DIM
 62
     0
370
    -2
100
AcDbBlockReference
  2
_DOT
 10
966.9146646604497
 20
269.9274995357328
 30
0.0
 41
2.0
 42
2.0
 43
2.0
  0
INSERT
  5
6D68
330
6D61
100
AcDbEntity
  8
DIM
 62
     0
370
    -2
100
AcDbBlockReference
  2
_DOT
 10
946.9146646604497
 20
269.9274995357328
 30
0.0
 41
2.0
 42
2.0
 43
2.0
 50
180.0
  0
MTEXT
  5
6D69
330
6D61
100
AcDbEntity
  8
DIM
 62
     0
100
AcDbMText
 10
956.4146646604497
 20
283.4274995357328
 30
0.0
 40
7.0
 41
0.0
 46
0.0
 71
     5
 72
     1
  1
\A1;20
  7
ＭＳ ゴシック
 73
     1
 44
1.0
  0
POINT
  5
6D6A
330
6D61
100
AcDbEntity
  8
Defpoints
 62
     0
100
AcDbPoint
 10
966.9146646604497
 20
303.1487805286078
 30
0.0
  0
POINT
  5
6D6B
330
6D61
100
AcDbEntity
  8
Defpoints
 62
     0
100
AcDbPoint
 10
946.9146646604497
 20
371.6221899081991
 30
0.0
  0
POINT
  5
6D6C
330
6D61
100
AcDbEntity
  8
Defpoints
 62
     0
100
AcDbPoint
 10
946.9146646604497
 20
269.9274995357328
 30
0.0
  0
ENDBLK
  5
6D63
330
6D61
100
AcDbEntity
  8
0
100
AcDbBlockEnd
  0
BLOCK
  5
6D70
330
6D6F
100
AcDbEntity
  8
0
100
AcDbBlockBegin
  2
*D18
 70
     1
 10
0.0
 20
0.0
 30
0.0
  3
*D18
  1
*D19
  0
LINE
  5
6D72
330
6D6F
100
AcDbEntity
  8
DIM
 62
     0
370
    -2
100
AcDbLine
 10
467.7564224872594
 20
556.3060297558618
 30
0.0
 11
467.7564224872594
 21
576.4934079428253
 31
0.0
  0
LINE
  5
6D73
330
6D6F
100
AcDbEntity
  8
DIM
 62
     0
370
    -2
100
AcDbLine
 10
447.7564224872594
 20
556.3060297558618
 30
0.0
 11
447.7564224872594
 21
576.4934079428253
 31
0.0
  0
LINE
  5
6D74
330
6D6F
100
AcDbEntity
  8
DIM
 62
     0
370
    -2
100
AcDbLine
 10
465.7564224872594
 20
576.4934079428253
 30
0.0
 11
449.7564224872594
 21
576.4934079428253
 31
0.0
  0
INSERT
  5
6D75
330
6D6F
100
AcDbEntity
  8
DIM
 62
     0
370
    -2
100
AcDbBlockReference
  2
_DOT
 10
467.7564224872594
 20
576.4934079428253
 30
0.0
 41
2.0
 42
2.0
 43
2.0
  0
INSERT
  5
6D76
330
6D6F
100
AcDbEntity
  8
DIM
 62
     0
370
    -2
100
AcDbBlockReference
  2
_DOT
 10
447.7564224872594
 20
576.4934079428253
 30
0.0
 41
2.0
 42
2.0
 43
2.0
 50
180.0
  0
MTEXT
  5
6D77
330
6D6F
100
AcDbEntity
  8
DIM
 62
     0
100
AcDbMText
 10
457.7564224872594
 20
592.4934079428253
 30
0.0
 40
12.0
 41
0.0
 46
0.0
 71
     5
 72
     1
  1
\A1;20
  7
ＭＳ ゴシック
 73
     1
 44
1.0
  0
POINT
  5
6D78
330
6D6F
100
AcDbEntity
  8
Defpoints
 62
     0
100
AcDbPoint
 10
467.7564224872594
 20
551.3060297558618
 30
0.0
  0
POINT
  5
6D79
330
6D6F
100
AcDbEntity
  8
Defpoints
 62
     0
100
AcDbPoint
 10
447.7564224872594
 20
551.3060297558618
 30
0.0
  0
POINT
  5
6D7A
330
6D6F
100
AcDbEntity
  8
Defpoints
 62
     0
100
AcDbPoint
 10
447.7564224872594
 20
576.4934079428253
 30
0.0
  0
ENDBLK
  5
6D71
330
6D6F
100
AcDbEntity
  8
0
100
AcDbBlockEnd
  0
BLOCK
  5
709D
330
709C
100
AcDbEntity
  8
0
100
AcDbBlockBegin
  2
*D19
 70
     1
 10
0.0
 20
0.0
 30
0.0
  3
*D19
  1
*D23
  0
LINE
  5
709F
330
709C
100
AcDbEntity
  8
DIM
 62
     0
370
    -2
100
AcDbLine
 10
328.92380611569
 20
528.5334565678319
 30
0.0
 11
328.92380611569
 21
567.5741791948802
 31
0.0
  0
LINE
  5
70A0
330
709C
100
AcDbEntity
  8
DIM
 62
     0
370
    -2
100
AcDbLine
 10
280.9238061156892
 20
528.5334565678319
 30
0.0
 11
280.9238061156892
 21
567.5741791948802
 31
0.0
  0
LINE
  5
70A1
330
709C
100
AcDbEntity
  8
DIM
 62
     0
370
    -2
100
AcDbLine
 10
326.92380611569
 20
567.5741791948802
 30
0.0
 11
282.9238061156892
 21
567.5741791948802
 31
0.0
  0
INSERT
  5
70A2
330
709C
100
AcDbEntity
  8
DIM
 62
     0
370
    -2
100
AcDbBlockReference
  2
_DOT
 10
328.92380611569
 20
567.5741791948802
 30
0.0
 41
2.0
 42
2.0
 43
2.0
  0
INSERT
  5
70A3
330
709C
100
AcDbEntity
  8
DIM
 62
     0
370
    -2
100
AcDbBlockReference
  2
_DOT
 10
280.9238061156892
 20
567.5741791948802
 30
0.0
 41
2.0
 42
2.0
 43
2.0
 50
180.0
  0
MTEXT
  5
70A4
330
709C
100
AcDbEntity
  8
DIM
 62
     0
100
AcDbMText
 10
304.9238061156896
 20
583.5741791948802
 30
0.0
 40
12.0
 41
0.0
 46
0.0
 71
     5
 72
     1
  1
\A1;48
  7
ＭＳ ゴシック
 73
     1
 44
1.0
  0
POINT
  5
70A5
330
709C
100
AcDbEntity
  8
Defpoints
 62
     0
100
AcDbPoint
 10
328.92380611569
 20
523.5334565678319
 30
0.0
  0
POINT
  5
70A6
330
709C
100
AcDbEntity
  8
Defpoints
 62
     0
100
AcDbPoint
 10
280.9238061156892
 20
523.5334565678319
 30
0.0
  0
POINT
  5
70A7
330
709C
100
AcDbEntity
  8
Defpoints
 62
     0
100
AcDbPoint
 10
280.9238061156892
 20
567.5741791948802
 30
0.0
  0
ENDBLK
  5
709E
330
709C
100
AcDbEntity
  8
0
100
AcDbBlockEnd
  0
BLOCK
  5
70D4
330
70D3
100
AcDbEntity
  8
0
100
AcDbBlockBegin
  2
*D20
 70
     1
 10
0.0
 20
0.0
 30
0.0
  3
*D20
  1
*D24
  0
LINE
  5
70D6
330
70D3
100
AcDbEntity
  8
DIM
 62
     0
370
    -2
100
AcDbLine
 10
309.9238061156896
 20
547.5334565678322
 30
0.0
 11
369.6526534180869
 21
547.5334565678322
 31
0.0
  0
LINE
  5
70D7
330
70D3
100
AcDbEntity
  8
DIM
 62
     0
370
    -2
100
AcDbLine
 10
310.2201393965472
 20
452.3947542348584
 30
0.0
 11
369.6526534180869
 21
452.3947542348584
 31
0.0
  0
LINE
  5
70D8
330
70D3
100
AcDbEntity
  8
DIM
 62
     0
370
    -2
100
AcDbLine
 10
369.6526534180869
 20
545.5334565678322
 30
0.0
 11
369.6526534180869
 21
454.3947542348584
 31
0.0
  0
INSERT
  5
70D9
330
70D3
100
AcDbEntity
  8
DIM
 62
     0
370
    -2
100
AcDbBlockReference
  2
_DOT
 10
369.6526534180869
 20
547.5334565678322
 30
0.0
 41
2.0
 42
2.0
 43
2.0
 50
90.0
  0
INSERT
  5
70DA
330
70D3
100
AcDbEntity
  8
DIM
 62
     0
370
    -2
100
AcDbBlockReference
  2
_DOT
 10
369.6526534180869
 20
452.3947542348584
 30
0.0
 41
2.0
 42
2.0
 43
2.0
 50
270.0
  0
MTEXT
  5
70DB
330
70D3
100
AcDbEntity
  8
DIM
 62
     0
100
AcDbMText
 10
353.6526534180869
 20
499.9641054013453
 30
0.0
 40
12.0
 41
0.0
 46
0.0
 71
     5
 72
     1
  1
\A1;95
  7
ＭＳ ゴシック
 11
0.0
 21
1.0
 31
0.0
 73
     1
 44
1.0
  0
POINT
  5
70DC
330
70D3
100
AcDbEntity
  8
Defpoints
 62
     0
100
AcDbPoint
 10
304.9238061156896
 20
547.5334565678322
 30
0.0
  0
POINT
  5
70DD
330
70D3
100
AcDbEntity
  8
Defpoints
 62
     0
100
AcDbPoint
 10
305.2201393965472
 20
452.3947542348584
 30
0.0
  0
POINT
  5
70DE
330
70D3
100
AcDbEntity
  8
Defpoints
 62
     0
100
AcDbPoint
 10
369.6526534180869
 20
452.3947542348584
 30
0.0
  0
ENDBLK
  5
70D5
330
70D3
100
AcDbEntity
  8
0
100
AcDbBlockEnd
  0
BLOCK
  5
70E1
330
70E0
100
AcDbEntity
  8
0
100
AcDbBlockBegin
  2
*D21
 70
     1
 10
0.0
 20
0.0
 30
0.0
  3
*D21
  1
*D25
  0
LINE
  5
70E3
330
70E0
100
AcDbEntity
  8
DIM
 62
     0
370
    -2
100
AcDbLine
 10
442.7564224872594
 20
523.5334565678319
 30
0.0
 11
365.5038358061061
 21
523.5334565678319
 31
0.0
  0
LINE
  5
70E4
330
70E0
100
AcDbEntity
  8
DIM
 62
     0
370
    -2
100
AcDbLine
 10
443.7564225347569
 20
398.3387659867494
 30
0.0
 11
365.5038358061061
 21
398.3387659867494
 31
0.0
  0
LINE
  5
70E5
330
70E0
100
AcDbEntity
  8
DIM
 62
     0
370
    -2
100
AcDbLine
 10
365.5038358061061
 20
521.5334565678319
 30
0.0
 11
365.5038358061061
 21
400.3387659867494
 31
0.0
  0
INSERT
  5
70E6
330
70E0
100
AcDbEntity
  8
DIM
 62
     0
370
    -2
100
AcDbBlockReference
  2
_DOT
 10
365.5038358061061
 20
523.5334565678319
 30
0.0
 41
2.0
 42
2.0
 43
2.0
 50
90.0
  0
INSERT
  5
70E7
330
70E0
100
AcDbEntity
  8
DIM
 62
     0
370
    -2
100
AcDbBlockReference
  2
_DOT
 10
365.5038358061061
 20
398.3387659867494
 30
0.0
 41
2.0
 42
2.0
 43
2.0
 50
270.0
  0
MTEXT
  5
70E8
330
70E0
100
AcDbEntity
  8
DIM
 62
     0
100
AcDbMText
 10
349.5038358061061
 20
460.9361112772906
 30
0.0
 40
12.0
 41
0.0
 46
0.0
 71
     5
 72
     1
  1
\A1;125
  7
ＭＳ ゴシック
 11
0.0
 21
1.0
 31
0.0
 73
     1
 44
1.0
  0
POINT
  5
70E9
330
70E0
100
AcDbEntity
  8
Defpoints
 62
     0
100
AcDbPoint
 10
447.7564224872594
 20
523.5334565678319
 30
0.0
  0
POINT
  5
70EA
330
70E0
100
AcDbEntity
  8
Defpoints
 62
     0
100
AcDbPoint
 10
448.7564225347569
 20
398.3387659867494
 30
0.0
  0
POINT
  5
70EB
330
70E0
100
AcDbEntity
  8
Defpoints
 62
     0
100
AcDbPoint
 10
365.5038358061061
 20
398.3387659867494
 30
0.0
  0
ENDBLK
  5
70E2
330
70E0
100
AcDbEntity
  8
0
100
AcDbBlockEnd
  0
BLOCK
  5
70F6
330
70F5
100
AcDbEntity
  8
0
100
AcDbBlockBegin
  2
*D22
 70
     1
 10
0.0
 20
0.0
 30
0.0
  3
*D22
  1
*D26
  0
LINE
  5
70F8
330
70F5
100
AcDbEntity
  8
DIM
 62
     0
370
    -2
100
AcDbLine
 10
1055.396483718633
 20
327.6995756019876
 30
0.0
 11
1105.565045899001
 21
327.6995756019876
 31
0.0
  0
LINE
  5
70F9
330
70F5
100
AcDbEntity
  8
DIM
 62
     0
370
    -2
100
AcDbLine
 10
1032.030498211055
 20
395.6221901168153
 30
0.0
 11
1105.565045899001
 21
395.6221901168153
 31
0.0
  0
LINE
  5
70FA
330
70F5
100
AcDbEntity
  8
DIM
 62
     0
370
    -2
100
AcDbLine
 10
1105.565045899001
 20
329.6995756019876
 30
0.0
 11
1105.565045899001
 21
393.6221901168153
 31
0.0
  0
INSERT
  5
70FB
330
70F5
100
AcDbEntity
  8
DIM
 62
     0
370
    -2
100
AcDbBlockReference
  2
_DOT
 10
1105.565045899001
 20
327.6995756019876
 30
0.0
 41
2.0
 42
2.0
 43
2.0
 50
270.0
  0
INSERT
  5
70FC
330
70F5
100
AcDbEntity
  8
DIM
 62
     0
370
    -2
100
AcDbBlockReference
  2
_DOT
 10
1105.565045899001
 20
395.6221901168153
 30
0.0
 41
2.0
 42
2.0
 43
2.0
 50
90.0
  0
MTEXT
  5
70FD
330
70F5
100
AcDbEntity
  8
DIM
 62
     0
100
AcDbMText
 10
1092.065045899001
 20
361.6608828594015
 30
0.0
 40
7.0
 41
0.0
 46
0.0
 71
     5
 72
     1
  1
\A1;68
  7
ＭＳ ゴシック
 11
0.0
 21
1.0
 31
0.0
 73
     1
 44
1.0
  0
POINT
  5
70FE
330
70F5
100
AcDbEntity
  8
Defpoints
 62
     0
100
AcDbPoint
 10
1050.396483718633
 20
327.6995756019876
 30
0.0
  0
POINT
  5
70FF
330
70F5
100
AcDbEntity
  8
Defpoints
 62
     0
100
AcDbPoint
 10
1027.030498211055
 20
395.6221901168153
 30
0.0
  0
POINT
  5
7100
330
70F5
100
AcDbEntity
  8
Defpoints
 62
     0
100
AcDbPoint
 10
1105.565045899001
 20
395.6221901168153
 30
0.0
  0
ENDBLK
  5
70F7
330
70F5
100
AcDbEntity
  8
0
100
AcDbBlockEnd
  0
BLOCK
  5
8323
330
8322
100
AcDbEntity
  8
0
100
AcDbBlockBegin
  2
*D23
 70
     1
 10
0.0
 20
0.0
 30
0.0
  3
*D23
  1
*D28
  0
LINE
  5
8325
330
8322
100
AcDbEntity
  8
DIM
 62
     0
370
    -2
100
AcDbLine
 10
211.2001074174883
 20
426.9809203452304
 30
0.0
 11
150.3671055825809
 21
426.9809203452304
 31
0.0
  0
LINE
  5
8326
330
8322
100
AcDbEntity
  8
DIM
 62
     0
370
    -2
100
AcDbLine
 10
187.2001072088721
 20
272.9809203452313
 30
0.0
 11
150.3671055825809
 21
272.9809203452313
 31
0.0
  0
LINE
  5
8327
330
8322
100
AcDbEntity
  8
DIM
 62
     0
370
    -2
100
AcDbLine
 10
150.3671055825809
 20
424.9809203452304
 30
0.0
 11
150.3671055825809
 21
274.9809203452313
 31
0.0
  0
INSERT
  5
8328
330
8322
100
AcDbEntity
  8
DIM
 62
     0
370
    -2
100
AcDbBlockReference
  2
_DOT
 10
150.3671055825809
 20
426.9809203452304
 30
0.0
 41
2.0
 42
2.0
 43
2.0
 50
90.0
  0
INSERT
  5
8329
330
8322
100
AcDbEntity
  8
DIM
 62
     0
370
    -2
100
AcDbBlockReference
  2
_DOT
 10
150.3671055825809
 20
272.9809203452313
 30
0.0
 41
2.0
 42
2.0
 43
2.0
 50
270.0
  0
MTEXT
  5
832A
330
8322
100
AcDbEntity
  8
DIM
 62
     0
100
AcDbMText
 10
136.8671055825809
 20
349.9809203452309
 30
0.0
 40
7.0
 41
0.0
 46
0.0
 71
     5
 72
     1
  1
\A1;154
  7
ＭＳ ゴシック
 11
0.0
 21
1.0
 31
0.0
 73
     1
 44
1.0
  0
POINT
  5
832B
330
8322
100
AcDbEntity
  8
Defpoints
 62
     0
100
AcDbPoint
 10
216.2001074174883
 20
426.9809203452304
 30
0.0
  0
POINT
  5
832C
330
8322
100
AcDbEntity
  8
Defpoints
 62
     0
100
AcDbPoint
 10
192.2001072088721
 20
272.9809203452313
 30
0.0
  0
POINT
  5
832D
330
8322
100
AcDbEntity
  8
Defpoints
 62
     0
100
AcDbPoint
 10
150.3671055825809
 20
272.9809203452313
 30
0.0
  0
ENDBLK
  5
8324
330
8322
100
AcDbEntity
  8
0
100
AcDbBlockEnd
  0
BLOCK
  5
8330
330
832F
100
AcDbEntity
  8
0
100
AcDbBlockBegin
  2
*D24
 70
     1
 10
0.0
 20
0.0
 30
0.0
  3
*D24
  1
*D29
  0
LINE
  5
8332
330
832F
100
AcDbEntity
  8
DIM
 62
     0
370
    -2
100
AcDbLine
 10
435.9336692359512
 20
426.9809195107663
 30
0.0
 11
474.6186556313967
 21
426.9809195107663
 31
0.0
  0
LINE
  5
8333
330
832F
100
AcDbEntity
  8
DIM
 62
     0
370
    -2
100
AcDbLine
 10
435.9336692359512
 20
267.9809195107663
 30
0.0
 11
474.6186556313967
 21
267.9809195107663
 31
0.0
  0
LINE
  5
8334
330
832F
100
AcDbEntity
  8
DIM
 62
     0
370
    -2
100
AcDbLine
 10
474.6186556313967
 20
424.9809195107663
 30
0.0
 11
474.6186556313967
 21
269.9809195107663
 31
0.0
  0
INSERT
  5
8335
330
832F
100
AcDbEntity
  8
DIM
 62
     0
370
    -2
100
AcDbBlockReference
  2
_DOT
 10
474.6186556313967
 20
426.9809195107663
 30
0.0
 41
2.0
 42
2.0
 43
2.0
 50
90.0
  0
INSERT
  5
8336
330
832F
100
AcDbEntity
  8
DIM
 62
     0
370
    -2
100
AcDbBlockReference
  2
_DOT
 10
474.6186556313967
 20
267.9809195107663
 30
0.0
 41
2.0
 42
2.0
 43
2.0
 50
270.0
  0
MTEXT
  5
8337
330
832F
100
AcDbEntity
  8
DIM
 62
     0
100
AcDbMText
 10
461.1186556313967
 20
347.4809195107663
 30
0.0
 40
7.0
 41
0.0
 46
0.0
 71
     5
 72
     1
  1
\A1;159
  7
ＭＳ ゴシック
 11
0.0
 21
1.0
 31
0.0
 73
     1
 44
1.0
  0
POINT
  5
8338
330
832F
100
AcDbEntity
  8
Defpoints
 62
     0
100
AcDbPoint
 10
430.9336692359512
 20
426.9809195107663
 30
0.0
  0
POINT
  5
8339
330
832F
100
AcDbEntity
  8
Defpoints
 62
     0
100
AcDbPoint
 10
430.9336692359512
 20
267.9809195107663
 30
0.0
  0
POINT
  5
833A
330
832F
100
AcDbEntity
  8
Defpoints
 62
     0
100
AcDbPoint
 10
474.6186556313967
 20
267.9809195107663
 30
0.0
  0
ENDBLK
  5
8331
330
832F
100
AcDbEntity
  8
0
100
AcDbBlockEnd
  0
BLOCK
  5
833F
330
833E
100
AcDbEntity
  8
0
100
AcDbBlockBegin
  2
*D25
 70
     1
 10
0.0
 20
0.0
 30
0.0
  3
*D25
  1
*D30
  0
LINE
  5
8341
330
833E
100
AcDbEntity
  8
DIM
 62
     0
370
    -2
100
AcDbLine
 10
211.2001074174883
 20
426.9809203452304
 30
0.0
 11
159.0732849551168
 21
426.9809203452304
 31
0.0
  0
LINE
  5
8342
330
833E
100
AcDbEntity
  8
DIM
 62
     0
370
    -2
100
AcDbLine
 10
187.2001072088721
 20
267.9809204569896
 30
0.0
 11
159.0732849551168
 21
267.9809204569896
 31
0.0
  0
LINE
  5
8343
330
833E
100
AcDbEntity
  8
DIM
 62
     0
370
    -2
100
AcDbLine
 10
159.0732849551168
 20
424.9809203452304
 30
0.0
 11
159.0732849551168
 21
269.9809204569896
 31
0.0
  0
INSERT
  5
8344
330
833E
100
AcDbEntity
  8
DIM
 62
     0
370
    -2
100
AcDbBlockReference
  2
_DOT
 10
159.0732849551168
 20
426.9809203452304
 30
0.0
 41
2.0
 42
2.0
 43
2.0
 50
90.0
  0
INSERT
  5
8345
330
833E
100
AcDbEntity
  8
DIM
 62
     0
370
    -2
100
AcDbBlockReference
  2
_DOT
 10
159.0732849551168
 20
267.9809204569896
 30
0.0
 41
2.0
 42
2.0
 43
2.0
 50
270.0
  0
MTEXT
  5
8346
330
833E
100
AcDbEntity
  8
DIM
 62
     0
100
AcDbMText
 10
145.5732849551168
 20
347.48092040111
 30
0.0
 40
7.0
 41
0.0
 46
0.0
 71
     5
 72
     1
  1
\A1;159
  7
ＭＳ ゴシック
 11
0.0
 21
1.0
 31
0.0
 73
     1
 44
1.0
  0
POINT
  5
8347
330
833E
100
AcDbEntity
  8
Defpoints
 62
     0
100
AcDbPoint
 10
216.2001074174883
 20
426.9809203452304
 30
0.0
  0
POINT
  5
8348
330
833E
100
AcDbEntity
  8
Defpoints
 62
     0
100
AcDbPoint
 10
192.2001072088721
 20
267.9809204569896
 30
0.0
  0
POINT
  5
8349
330
833E
100
AcDbEntity
  8
Defpoints
 62
     0
100
AcDbPoint
 10
159.0732849551168
 20
267.9809204569896
 30
0.0
  0
ENDBLK
  5
8340
330
833E
100
AcDbEntity
  8
0
100
AcDbBlockEnd
  0
BLOCK
  5
8361
330
8360
100
AcDbEntity
  8
0
100
AcDbBlockBegin
  2
*D26
 70
     1
 10
0.0
 20
0.0
 30
0.0
  3
*D26
  1
*D31
  0
LINE
  5
8363
330
8360
100
AcDbEntity
  8
DIM
 62
     0
370
    -2
100
AcDbLine
 10
380.4169002286862
 20
211.9213934665038
 30
0.0
 11
380.4169002286862
 21
180.3704471880566
 31
0.0
  0
LINE
  5
8364
330
8360
100
AcDbEntity
  8
DIM
 62
     0
370
    -2
100
AcDbLine
 10
486.2669038884115
 20
317.610876681291
 30
0.0
 11
486.2669038884115
 21
180.3704471880566
 31
0.0
  0
LINE
  5
8365
330
8360
100
AcDbEntity
  8
DIM
 62
     0
370
    -2
100
AcDbLine
 10
382.4169002286862
 20
180.3704471880566
 30
0.0
 11
484.2669038884115
 21
180.3704471880566
 31
0.0
  0
INSERT
  5
8366
330
8360
100
AcDbEntity
  8
DIM
 62
     0
370
    -2
100
AcDbBlockReference
  2
_DOT
 10
380.4169002286862
 20
180.3704471880566
 30
0.0
 41
2.0
 42
2.0
 43
2.0
 50
180.0
  0
INSERT
  5
8367
330
8360
100
AcDbEntity
  8
DIM
 62
     0
370
    -2
100
AcDbBlockReference
  2
_DOT
 10
486.2669038884115
 20
180.3704471880566
 30
0.0
 41
2.0
 42
2.0
 43
2.0
  0
MTEXT
  5
8368
330
8360
100
AcDbEntity
  8
DIM
 62
     0
100
AcDbMText
 10
433.3419020585489
 20
193.8704471880566
 30
0.0
 40
7.0
 41
0.0
 46
0.0
 71
     5
 72
     1
  1
\A1;106
  7
ＭＳ ゴシック
 73
     1
 44
1.0
  0
POINT
  5
8369
330
8360
100
AcDbEntity
  8
Defpoints
 62
     0
100
AcDbPoint
 10
380.4169002286862
 20
216.9213934665038
 30
0.0
  0
POINT
  5
836A
330
8360
100
AcDbEntity
  8
Defpoints
 62
     0
100
AcDbPoint
 10
486.2669038884115
 20
322.610876681291
 30
0.0
  0
POINT
  5
836B
330
8360
100
AcDbEntity
  8
Defpoints
 62
     0
100
AcDbPoint
 10
486.2669038884115
 20
180.3704471880566
 30
0.0
  0
ENDBLK
  5
8362
330
8360
100
AcDbEntity
  8
0
100
AcDbBlockEnd
  0
BLOCK
  5
8840
330
883F
100
AcDbEntity
  8
0
100
AcDbBlockBegin
  2
*D27
 70
     1
 10
0.0
 20
0.0
 30
0.0
  3
*D27
  1
*D32
  0
LINE
  5
8841
330
883F
100
AcDbEntity
  8
DIM
 62
     0
370
    -2
100
AcDbLine
 10
67.2851387525167
 20
217.7741052212614
 30
0.0
 11
108.8326184186027
 21
217.7741052212614
 31
0.0
  0
LINE
  5
8842
330
883F
100
AcDbEntity
  8
DIM
 62
     0
370
    -2
100
AcDbLine
 10
76.2851392964086
 20
72.774101943006
 30
0.0
 11
108.8326184186027
 21
72.774101943006
 31
0.0
  0
LINE
  5
8843
330
883F
100
AcDbEntity
  8
DIM
 62
     0
370
    -2
100
AcDbLine
 10
108.8326184186027
 20
215.7741052212614
 30
0.0
 11
108.8326184186027
 21
74.774101943006
 31
0.0
  0
INSERT
  5
8844
330
883F
100
AcDbEntity
  8
DIM
 62
     0
370
    -2
100
AcDbBlockReference
  2
_DOT
 10
108.8326184186027
 20
217.7741052212614
 30
0.0
 41
2.0
 42
2.0
 43
2.0
 50
90.0
  0
INSERT
  5
8845
330
883F
100
AcDbEntity
  8
DIM
 62
     0
370
    -2
100
AcDbBlockReference
  2
_DOT
 10
108.8326184186027
 20
72.774101943006
 30
0.0
 41
2.0
 42
2.0
 43
2.0
 50
270.0
  0
MTEXT
  5
8846
330
883F
100
AcDbEntity
  8
DIM
 62
     0
100
AcDbMText
 10
95.33261841860272
 20
145.2741035821337
 30
0.0
 40
7.0
 41
0.0
 46
0.0
 71
     5
 72
     1
  1
\A1;145
  7
ＭＳ ゴシック
 11
9.800589237181836E-17
 21
1.0
 31
0.0
 73
     1
 44
1.0
  0
POINT
  5
8847
330
883F
100
AcDbEntity
  8
Defpoints
 62
     0
100
AcDbPoint
 10
62.2851387525167
 20
217.7741052212614
 30
0.0
  0
POINT
  5
8848
330
883F
100
AcDbEntity
  8
Defpoints
 62
     0
100
AcDbPoint
 10
71.2851392964086
 20
72.774101943006
 30
0.0
  0
POINT
  5
8849
330
883F
100
AcDbEntity
  8
Defpoints
 62
     0
100
AcDbPoint
 10
108.8326184186027
 20
72.774101943006
 30
0.0
  0
ENDBLK
  5
884A
330
883F
100
AcDbEntity
  8
0
100
AcDbBlockEnd
  0
BLOCK
  5
884D
330
884C
100
AcDbEntity
  8
0
100
AcDbBlockBegin
  2
*D28
 70
     1
 10
0.0
 20
0.0
 30
0.0
  3
*D28
  1
*D33
  0
LINE
  5
884E
330
884C
100
AcDbEntity
  8
DIM
 62
     0
370
    -2
100
AcDbLine
 10
301.0808500943133
 20
72.774101943006
 30
0.0
 11
331.743114393964
 21
72.774101943006
 31
0.0
  0
LINE
  5
884F
330
884C
100
AcDbEntity
  8
DIM
 62
     0
370
    -2
100
AcDbLine
 10
301.351156259918
 20
57.774101943006
 30
0.0
 11
331.743114393964
 21
57.774101943006
 31
0.0
  0
LINE
  5
8850
330
884C
100
AcDbEntity
  8
DIM
 62
     0
370
    -2
100
AcDbLine
 10
331.743114393964
 20
57.774101943006
 30
0.0
 11
331.743114393964
 21
7.370101943005977
 31
0.0
  0
LINE
  5
8851
330
884C
100
AcDbEntity
  8
DIM
 62
     0
370
    -2
100
AcDbLine
 10
331.743114393964
 20
70.774101943006
 30
0.0
 11
331.743114393964
 21
59.774101943006
 31
0.0
  0
INSERT
  5
8852
330
884C
100
AcDbEntity
  8
DIM
 62
     0
370
    -2
100
AcDbBlockReference
  2
_DOT
 10
331.743114393964
 20
72.774101943006
 30
0.0
 41
2.0
 42
2.0
 43
2.0
 50
90.0
  0
INSERT
  5
8853
330
884C
100
AcDbEntity
  8
DIM
 62
     0
370
    -2
100
AcDbBlockReference
  2
_DOT
 10
331.743114393964
 20
57.774101943006
 30
0.0
 41
2.0
 42
2.0
 43
2.0
 50
270.0
  0
MTEXT
  5
8854
330
884C
100
AcDbEntity
  8
DIM
 62
     0
100
AcDbMText
 10
318.243114393964
 20
30.57210194300598
 30
0.0
 40
7.0
 41
0.0
 46
0.0
 71
     5
 72
     1
  1
\A1;MAX 15
  7
ＭＳ ゴシック
 11
0.0
 21
1.0
 31
0.0
 73
     1
 44
1.0
  0
POINT
  5
8855
330
884C
100
AcDbEntity
  8
Defpoints
 62
     0
100
AcDbPoint
 10
296.0808500943133
 20
72.774101943006
 30
0.0
  0
POINT
  5
8856
330
884C
100
AcDbEntity
  8
Defpoints
 62
     0
100
AcDbPoint
 10
296.351156259918
 20
57.774101943006
 30
0.0
  0
POINT
  5
8857
330
884C
100
AcDbEntity
  8
Defpoints
 62
     0
100
AcDbPoint
 10
331.743114393964
 20
57.774101943006
 30
0.0
  0
ENDBLK
  5
8858
330
884C
100
AcDbEntity
  8
0
100
AcDbBlockEnd
  0
BLOCK
  5
885D
330
885C
100
AcDbEntity
  8
0
100
AcDbBlockBegin
  2
*D29
 70
     1
 10
0.0
 20
0.0
 30
0.0
  3
*D29
  1
*D34
  0
LINE
  5
885E
330
885C
100
AcDbEntity
  8
DIM
 62
     0
370
    -2
100
AcDbLine
 10
301.0808500943133
 20
72.774101943006
 30
0.0
 11
405.3771854370942
 21
72.774101943006
 31
0.0
  0
LINE
  5
885F
330
885C
100
AcDbEntity
  8
DIM
 62
     0
370
    -2
100
AcDbLine
 10
366.6312947419831
 20
125.0089979360301
 30
0.0
 11
405.3771854370942
 21
125.0089979360301
 31
0.0
  0
LINE
  5
8860
330
885C
100
AcDbEntity
  8
DIM
 62
     0
370
    -2
100
AcDbLine
 10
405.3771854370942
 20
74.774101943006
 30
0.0
 11
405.3771854370942
 21
123.0089979360301
 31
0.0
  0
INSERT
  5
8861
330
885C
100
AcDbEntity
  8
DIM
 62
     0
370
    -2
100
AcDbBlockReference
  2
_DOT
 10
405.3771854370942
 20
72.774101943006
 30
0.0
 41
2.0
 42
2.0
 43
2.0
 50
270.0
  0
INSERT
  5
8862
330
885C
100
AcDbEntity
  8
DIM
 62
     0
370
    -2
100
AcDbBlockReference
  2
_DOT
 10
405.3771854370942
 20
125.0089979360301
 30
0.0
 41
2.0
 42
2.0
 43
2.0
 50
90.0
  0
MTEXT
  5
8863
330
885C
100
AcDbEntity
  8
DIM
 62
     0
100
AcDbMText
 10
391.8771854370942
 20
98.89154993951803
 30
0.0
 40
7.0
 41
0.0
 46
0.0
 71
     5
 72
     1
  1
\A1;52
  7
ＭＳ ゴシック
 11
0.0
 21
1.0
 31
0.0
 73
     1
 44
1.0
  0
POINT
  5
8864
330
885C
100
AcDbEntity
  8
Defpoints
 62
     0
100
AcDbPoint
 10
296.0808500943133
 20
72.774101943006
 30
0.0
  0
POINT
  5
8865
330
885C
100
AcDbEntity
  8
Defpoints
 62
     0
100
AcDbPoint
 10
361.6312947419831
 20
125.0089979360301
 30
0.0
  0
POINT
  5
8866
330
885C
100
AcDbEntity
  8
Defpoints
 62
     0
100
AcDbPoint
 10
405.3771854370942
 20
125.0089979360301
 30
0.0
  0
ENDBLK
  5
8867
330
885C
100
AcDbEntity
  8
0
100
AcDbBlockEnd
  0
BLOCK
  5
886A
330
8869
100
AcDbEntity
  8
0
100
AcDbBlockBegin
  2
*D30
 70
     1
 10
0.0
 20
0.0
 30
0.0
  3
*D30
  1
*D36
  0
LINE
  5
886B
330
8869
100
AcDbEntity
  8
DIM
 62
     0
370
    -2
100
AcDbLine
 10
287.0808504817435
 20
222.7741052212614
 30
0.0
 11
287.0808504817435
 21
232.2079371825386
 31
0.0
  0
LINE
  5
886C
330
8869
100
AcDbEntity
  8
DIM
 62
     0
370
    -2
100
AcDbLine
 10
320.0808503029296
 20
223.2757686612803
 30
0.0
 11
320.0808503029296
 21
232.2079371825386
 31
0.0
  0
LINE
  5
886D
330
8869
100
AcDbEntity
  8
DIM
 62
     0
370
    -2
100
AcDbLine
 10
289.0808504817435
 20
232.2079371825386
 30
0.0
 11
318.0808503029296
 21
232.2079371825386
 31
0.0
  0
INSERT
  5
886E
330
8869
100
AcDbEntity
  8
DIM
 62
     0
370
    -2
100
AcDbBlockReference
  2
_DOT
 10
287.0808504817435
 20
232.2079371825386
 30
0.0
 41
2.0
 42
2.0
 43
2.0
 50
180.0
  0
INSERT
  5
886F
330
8869
100
AcDbEntity
  8
DIM
 62
     0
370
    -2
100
AcDbBlockReference
  2
_DOT
 10
320.0808503029296
 20
232.2079371825386
 30
0.0
 41
2.0
 42
2.0
 43
2.0
  0
MTEXT
  5
8870
330
8869
100
AcDbEntity
  8
DIM
 62
     0
100
AcDbMText
 10
303.5808503923366
 20
245.7079371825386
 30
0.0
 40
7.0
 41
0.0
 46
0.0
 71
     5
 72
     1
  1
\A1;35
  7
ＭＳ ゴシック
 73
     1
 44
1.0
  0
POINT
  5
8871
330
8869
100
AcDbEntity
  8
Defpoints
 62
     0
100
AcDbPoint
 10
287.0808504817435
 20
217.7741052212614
 30
0.0
  0
POINT
  5
8872
330
8869
100
AcDbEntity
  8
Defpoints
 62
     0
100
AcDbPoint
 10
320.0808503029296
 20
218.2757686612803
 30
0.0
  0
POINT
  5
8873
330
8869
100
AcDbEntity
  8
Defpoints
 62
     0
100
AcDbPoint
 10
320.0808503029296
 20
232.2079371825386
 30
0.0
  0
ENDBLK
  5
8874
330
8869
100
AcDbEntity
  8
0
100
AcDbBlockEnd
  0
BLOCK
  5
8879
330
8878
100
AcDbEntity
  8
0
100
AcDbBlockBegin
  2
*D31
 70
     1
 10
0.0
 20
0.0
 30
0.0
  3
*D31
  1
*D37
  0
LINE
  5
887A
330
8878
100
AcDbEntity
  8
DIM
 62
     0
370
    -2
100
AcDbLine
 10
252.0808511522958
 20
217.7741052212614
 30
0.0
 11
234.0960924181025
 21
217.7741052212614
 31
0.0
  0
LINE
  5
887B
330
8878
100
AcDbEntity
  8
DIM
 62
     0
370
    -2
100
AcDbLine
 10
252.0808511522958
 20
182.7741013469595
 30
0.0
 11
234.0960924181025
 21
182.7741013469595
 31
0.0
  0
LINE
  5
887C
330
8878
100
AcDbEntity
  8
DIM
 62
     0
370
    -2
100
AcDbLine
 10
234.0960924181025
 20
215.7741052212614
 30
0.0
 11
234.0960924181025
 21
184.7741013469595
 31
0.0
  0
INSERT
  5
887D
330
8878
100
AcDbEntity
  8
DIM
 62
     0
370
    -2
100
AcDbBlockReference
  2
_DOT
 10
234.0960924181025
 20
217.7741052212614
 30
0.0
 41
2.0
 42
2.0
 43
2.0
 50
90.0
  0
INSERT
  5
887E
330
8878
100
AcDbEntity
  8
DIM
 62
     0
370
    -2
100
AcDbBlockReference
  2
_DOT
 10
234.0960924181025
 20
182.7741013469595
 30
0.0
 41
2.0
 42
2.0
 43
2.0
 50
270.0
  0
MTEXT
  5
887F
330
8878
100
AcDbEntity
  8
DIM
 62
     0
100
AcDbMText
 10
220.5960924181025
 20
200.2741032841104
 30
0.0
 40
7.0
 41
0.0
 46
0.0
 71
     5
 72
     1
  1
\A1;35
  7
ＭＳ ゴシック
 11
0.0
 21
1.0
 31
0.0
 73
     1
 44
1.0
  0
POINT
  5
8880
330
8878
100
AcDbEntity
  8
Defpoints
 62
     0
100
AcDbPoint
 10
257.0808511522958
 20
217.7741052212614
 30
0.0
  0
POINT
  5
8881
330
8878
100
AcDbEntity
  8
Defpoints
 62
     0
100
AcDbPoint
 10
257.0808511522958
 20
182.7741013469595
 30
0.0
  0
POINT
  5
8882
330
8878
100
AcDbEntity
  8
Defpoints
 62
     0
100
AcDbPoint
 10
234.0960924181025
 20
182.7741013469595
 30
0.0
  0
ENDBLK
  5
8883
330
8878
100
AcDbEntity
  8
0
100
AcDbBlockEnd
  0
BLOCK
  5
8889
330
8888
100
AcDbEntity
  8
0
100
AcDbBlockBegin
  2
*D32
 70
     1
 10
0.0
 20
0.0
 30
0.0
  3
*D32
  1
*D40
  0
LINE
  5
888A
330
8888
100
AcDbEntity
  8
DIM
 62
     0
370
    -2
100
AcDbLine
 10
258.9062996972063
 20
31.77410081051767
 30
0.0
 11
234.0960924181025
 21
31.77410081051767
 31
0.0
  0
LINE
  5
888B
330
8888
100
AcDbEntity
  8
DIM
 62
     0
370
    -2
100
AcDbLine
 10
243.080851539726
 20
72.774101943006
 30
0.0
 11
234.0960924181025
 21
72.774101943006
 31
0.0
  0
LINE
  5
888C
330
8888
100
AcDbEntity
  8
DIM
 62
     0
370
    -2
100
AcDbLine
 10
234.0960924181025
 20
33.77410081051767
 30
0.0
 11
234.0960924181025
 21
70.774101943006
 31
0.0
  0
INSERT
  5
888D
330
8888
100
AcDbEntity
  8
DIM
 62
     0
370
    -2
100
AcDbBlockReference
  2
_DOT
 10
234.0960924181025
 20
31.77410081051767
 30
0.0
 41
2.0
 42
2.0
 43
2.0
 50
270.0
  0
INSERT
  5
888E
330
8888
100
AcDbEntity
  8
DIM
 62
     0
370
    -2
100
AcDbBlockReference
  2
_DOT
 10
234.0960924181025
 20
72.774101943006
 30
0.0
 41
2.0
 42
2.0
 43
2.0
 50
90.0
  0
MTEXT
  5
888F
330
8888
100
AcDbEntity
  8
DIM
 62
     0
100
AcDbMText
 10
220.5960924181025
 20
52.27410137676183
 30
0.0
 40
7.0
 41
0.0
 46
0.0
 71
     5
 72
     1
  1
\A1;41
  7
ＭＳ ゴシック
 11
0.0
 21
1.0
 31
0.0
 73
     1
 44
1.0
  0
POINT
  5
8890
330
8888
100
AcDbEntity
  8
Defpoints
 62
     0
100
AcDbPoint
 10
263.9062996972063
 20
31.77410081051767
 30
0.0
  0
POINT
  5
8891
330
8888
100
AcDbEntity
  8
Defpoints
 62
     0
100
AcDbPoint
 10
248.080851539726
 20
72.774101943006
 30
0.0
  0
POINT
  5
8892
330
8888
100
AcDbEntity
  8
Defpoints
 62
     0
100
AcDbPoint
 10
234.0960924181025
 20
72.774101943006
 30
0.0
  0
ENDBLK
  5
8893
330
8888
100
AcDbEntity
  8
0
100
AcDbBlockEnd
  0
BLOCK
  5
88A8
330
88A7
100
AcDbEntity
  8
0
100
AcDbBlockBegin
  2
*D33
 70
     1
 10
0.0
 20
0.0
 30
0.0
  3
*D33
  1
*D46
  0
LINE
  5
88A9
330
88A7
100
AcDbEntity
  8
DIM
 62
     0
370
    -2
100
AcDbLine
 10
272.0808508170197
 20
222.7741052212614
 30
0.0
 11
272.0808508170197
 21
260.5934126579116
 31
0.0
  0
LINE
  5
88AA
330
88A7
100
AcDbEntity
  8
DIM
 62
     0
370
    -2
100
AcDbLine
 10
361.6312947419831
 20
130.0089979360301
 30
0.0
 11
361.6312947419831
 21
260.5934126579116
 31
0.0
  0
LINE
  5
88AB
330
88A7
100
AcDbEntity
  8
DIM
 62
     0
370
    -2
100
AcDbLine
 10
274.0808508170197
 20
260.5934126579116
 30
0.0
 11
359.6312947419831
 21
260.5934126579116
 31
0.0
  0
INSERT
  5
88AC
330
88A7
100
AcDbEntity
  8
DIM
 62
     0
370
    -2
100
AcDbBlockReference
  2
_DOT
 10
272.0808508170197
 20
260.5934126579116
 30
0.0
 41
2.0
 42
2.0
 43
2.0
 50
180.0
  0
INSERT
  5
88AD
330
88A7
100
AcDbEntity
  8
DIM
 62
     0
370
    -2
100
AcDbBlockReference
  2
_DOT
 10
361.6312947419831
 20
260.5934126579116
 30
0.0
 41
2.0
 42
2.0
 43
2.0
  0
MTEXT
  5
88AE
330
88A7
100
AcDbEntity
  8
DIM
 62
     0
100
AcDbMText
 10
316.8560727795015
 20
274.0934126579116
 30
0.0
 40
7.0
 41
0.0
 46
0.0
 71
     5
 72
     1
  1
\A1;90
  7
ＭＳ ゴシック
 73
     1
 44
1.0
  0
POINT
  5
88AF
330
88A7
100
AcDbEntity
  8
Defpoints
 62
     0
100
AcDbPoint
 10
272.0808508170197
 20
217.7741052212614
 30
0.0
  0
POINT
  5
88B0
330
88A7
100
AcDbEntity
  8
Defpoints
 62
     0
100
AcDbPoint
 10
361.6312947419831
 20
125.0089979360301
 30
0.0
  0
POINT
  5
88B1
330
88A7
100
AcDbEntity
  8
Defpoints
 62
     0
100
AcDbPoint
 10
361.6312947419831
 20
260.5934126579116
 30
0.0
  0
ENDBLK
  5
88B2
330
88A7
100
AcDbEntity
  8
0
100
AcDbBlockEnd
  0
BLOCK
  5
8DDC
330
8DDB
100
AcDbEntity
  8
0
100
AcDbBlockBegin
  2
*D34
 70
     1
 10
0.0
 20
0.0
 30
0.0
  3
*D34
  1
*D40
  0
LINE
  5
8DDE
330
8DDB
100
AcDbEntity
  8
DIM
 62
     0
370
    -2
100
AcDbLine
 10
755.8399156176283
 20
447.2512854388189
 30
0.0
 11
797.3873952837143
 21
447.2512854388189
 31
0.0
  0
LINE
  5
8DDF
330
8DDB
100
AcDbEntity
  8
DIM
 62
     0
370
    -2
100
AcDbLine
 10
764.8399161615203
 20
302.2512821605635
 30
0.0
 11
797.3873952837143
 21
302.2512821605635
 31
0.0
  0
LINE
  5
8DE0
330
8DDB
100
AcDbEntity
  8
DIM
 62
     0
370
    -2
100
AcDbLine
 10
797.3873952837143
 20
445.2512854388189
 30
0.0
 11
797.3873952837143
 21
304.2512821605635
 31
0.0
  0
INSERT
  5
8DE1
330
8DDB
100
AcDbEntity
  8
DIM
 62
     0
370
    -2
100
AcDbBlockReference
  2
_DOT
 10
797.3873952837143
 20
447.2512854388189
 30
0.0
 41
2.0
 42
2.0
 43
2.0
 50
90.0
  0
INSERT
  5
8DE2
330
8DDB
100
AcDbEntity
  8
DIM
 62
     0
370
    -2
100
AcDbBlockReference
  2
_DOT
 10
797.3873952837143
 20
302.2512821605635
 30
0.0
 41
2.0
 42
2.0
 43
2.0
 50
270.0
  0
MTEXT
  5
8DE3
330
8DDB
100
AcDbEntity
  8
DIM
 62
     0
100
AcDbMText
 10
783.8873952837143
 20
374.7512837996912
 30
0.0
 40
7.0
 41
0.0
 46
0.0
 71
     5
 72
     1
  1
\A1;145
  7
ＭＳ ゴシック
 11
0.0
 21
1.0
 31
0.0
 73
     1
 44
1.0
  0
POINT
  5
8DE4
330
8DDB
100
AcDbEntity
  8
Defpoints
 62
     0
100
AcDbPoint
 10
750.8399156176283
 20
447.2512854388189
 30
0.0
  0
POINT
  5
8DE5
330
8DDB
100
AcDbEntity
  8
Defpoints
 62
     0
100
AcDbPoint
 10
759.8399161615203
 20
302.2512821605635
 30
0.0
  0
POINT
  5
8DE6
330
8DDB
100
AcDbEntity
  8
Defpoints
 62
     0
100
AcDbPoint
 10
797.3873952837143
 20
302.2512821605635
 30
0.0
  0
ENDBLK
  5
8DDD
330
8DDB
100
AcDbEntity
  8
0
100
AcDbBlockEnd
  0
BLOCK
  5
8DE8
330
8DE7
100
AcDbEntity
  8
0
100
AcDbBlockBegin
  2
*D35
 70
     1
 10
0.0
 20
0.0
 30
0.0
  3
*D35
  1
*D41
  0
LINE
  5
8DEA
330
8DE7
100
AcDbEntity
  8
DIM
 62
     0
370
    -2
100
AcDbLine
 10
989.6356269594249
 20
302.2512821605635
 30
0.0
 11
1020.297891259076
 21
302.2512821605635
 31
0.0
  0
LINE
  5
8DEB
330
8DE7
100
AcDbEntity
  8
DIM
 62
     0
370
    -2
100
AcDbLine
 10
989.9059331250296
 20
287.2512821605635
 30
0.0
 11
1020.297891259076
 21
287.2512821605635
 31
0.0
  0
LINE
  5
8DEC
330
8DE7
100
AcDbEntity
  8
DIM
 62
     0
370
    -2
100
AcDbLine
 10
1020.297891259076
 20
287.2512821605635
 30
0.0
 11
1020.297891259076
 21
236.8472821605635
 31
0.0
  0
LINE
  5
8DED
330
8DE7
100
AcDbEntity
  8
DIM
 62
     0
370
    -2
100
AcDbLine
 10
1020.297891259076
 20
300.2512821605635
 30
0.0
 11
1020.297891259076
 21
289.2512821605635
 31
0.0
  0
INSERT
  5
8DEE
330
8DE7
100
AcDbEntity
  8
DIM
 62
     0
370
    -2
100
AcDbBlockReference
  2
_DOT
 10
1020.297891259076
 20
302.2512821605635
 30
0.0
 41
2.0
 42
2.0
 43
2.0
 50
90.0
  0
INSERT
  5
8DEF
330
8DE7
100
AcDbEntity
  8
DIM
 62
     0
370
    -2
100
AcDbBlockReference
  2
_DOT
 10
1020.297891259076
 20
287.2512821605635
 30
0.0
 41
2.0
 42
2.0
 43
2.0
 50
270.0
  0
MTEXT
  5
8DF0
330
8DE7
100
AcDbEntity
  8
DIM
 62
     0
100
AcDbMText
 10
1006.797891259076
 20
260.0492821605635
 30
0.0
 40
7.0
 41
0.0
 46
0.0
 71
     5
 72
     1
  1
\A1;MAX 15
  7
ＭＳ ゴシック
 11
0.0
 21
1.0
 31
0.0
 73
     1
 44
1.0
  0
POINT
  5
8DF1
330
8DE7
100
AcDbEntity
  8
Defpoints
 62
     0
100
AcDbPoint
 10
984.6356269594249
 20
302.2512821605635
 30
0.0
  0
POINT
  5
8DF2
330
8DE7
100
AcDbEntity
  8
Defpoints
 62
     0
100
AcDbPoint
 10
984.9059331250296
 20
287.2512821605635
 30
0.0
  0
POINT
  5
8DF3
330
8DE7
100
AcDbEntity
  8
Defpoints
 62
     0
100
AcDbPoint
 10
1020.297891259076
 20
287.2512821605635
 30
0.0
  0
ENDBLK
  5
8DE9
330
8DE7
100
AcDbEntity
  8
0
100
AcDbBlockEnd
  0
BLOCK
  5
8DF5
330
8DF4
100
AcDbEntity
  8
0
100
AcDbBlockBegin
  2
*D36
 70
     1
 10
0.0
 20
0.0
 30
0.0
  3
*D36
  1
*D42
  0
LINE
  5
8DF7
330
8DF4
100
AcDbEntity
  8
DIM
 62
     0
370
    -2
100
AcDbLine
 10
989.6356269594249
 20
302.2512821605635
 30
0.0
 11
1093.931962302206
 21
302.2512821605635
 31
0.0
  0
LINE
  5
8DF8
330
8DF4
100
AcDbEntity
  8
DIM
 62
     0
370
    -2
100
AcDbLine
 10
1055.186071607095
 20
354.4861781535875
 30
0.0
 11
1093.931962302206
 21
354.4861781535875
 31
0.0
  0
LINE
  5
8DF9
330
8DF4
100
AcDbEntity
  8
DIM
 62
     0
370
    -2
100
AcDbLine
 10
1093.931962302206
 20
304.2512821605635
 30
0.0
 11
1093.931962302206
 21
352.4861781535875
 31
0.0
  0
INSERT
  5
8DFA
330
8DF4
100
AcDbEntity
  8
DIM
 62
     0
370
    -2
100
AcDbBlockReference
  2
_DOT
 10
1093.931962302206
 20
302.2512821605635
 30
0.0
 41
2.0
 42
2.0
 43
2.0
 50
270.0
  0
INSERT
  5
8DFB
330
8DF4
100
AcDbEntity
  8
DIM
 62
     0
370
    -2
100
AcDbBlockReference
  2
_DOT
 10
1093.931962302206
 20
354.4861781535875
 30
0.0
 41
2.0
 42
2.0
 43
2.0
 50
90.0
  0
MTEXT
  5
8DFC
330
8DF4
100
AcDbEntity
  8
DIM
 62
     0
100
AcDbMText
 10
1080.431962302206
 20
328.3687301570755
 30
0.0
 40
7.0
 41
0.0
 46
0.0
 71
     5
 72
     1
  1
\A1;52
  7
ＭＳ ゴシック
 11
0.0
 21
1.0
 31
0.0
 73
     1
 44
1.0
  0
POINT
  5
8DFD
330
8DF4
100
AcDbEntity
  8
Defpoints
 62
     0
100
AcDbPoint
 10
984.6356269594249
 20
302.2512821605635
 30
0.0
  0
POINT
  5
8DFE
330
8DF4
100
AcDbEntity
  8
Defpoints
 62
     0
100
AcDbPoint
 10
1050.186071607095
 20
354.4861781535875
 30
0.0
  0
POINT
  5
8DFF
330
8DF4
100
AcDbEntity
  8
Defpoints
 62
     0
100
AcDbPoint
 10
1093.931962302206
 20
354.4861781535875
 30
0.0
  0
ENDBLK
  5
8DF6
330
8DF4
100
AcDbEntity
  8
0
100
AcDbBlockEnd
  0
BLOCK
  5
8E01
330
8E00
100
AcDbEntity
  8
0
100
AcDbBlockBegin
  2
*D37
 70
     1
 10
0.0
 20
0.0
 30
0.0
  3
*D37
  1
*D43
  0
LINE
  5
8E03
330
8E00
100
AcDbEntity
  8
DIM
 62
     0
370
    -2
100
AcDbLine
 10
975.6356273468552
 20
452.2512854388189
 30
0.0
 11
975.6356273468552
 21
461.685117400096
 31
0.0
  0
LINE
  5
8E04
330
8E00
100
AcDbEntity
  8
DIM
 62
     0
370
    -2
100
AcDbLine
 10
1008.635627168041
 20
452.7529488788377
 30
0.0
 11
1008.635627168041
 21
461.685117400096
 31
0.0
  0
LINE
  5
8E05
330
8E00
100
AcDbEntity
  8
DIM
 62
     0
370
    -2
100
AcDbLine
 10
977.6356273468552
 20
461.685117400096
 30
0.0
 11
1006.635627168041
 21
461.685117400096
 31
0.0
  0
INSERT
  5
8E06
330
8E00
100
AcDbEntity
  8
DIM
 62
     0
370
    -2
100
AcDbBlockReference
  2
_DOT
 10
975.6356273468552
 20
461.685117400096
 30
0.0
 41
2.0
 42
2.0
 43
2.0
 50
180.0
  0
INSERT
  5
8E07
330
8E00
100
AcDbEntity
  8
DIM
 62
     0
370
    -2
100
AcDbBlockReference
  2
_DOT
 10
1008.635627168041
 20
461.685117400096
 30
0.0
 41
2.0
 42
2.0
 43
2.0
  0
MTEXT
  5
8E08
330
8E00
100
AcDbEntity
  8
DIM
 62
     0
100
AcDbMText
 10
992.1356272574483
 20
475.185117400096
 30
0.0
 40
7.0
 41
0.0
 46
0.0
 71
     5
 72
     1
  1
\A1;35
  7
ＭＳ ゴシック
 73
     1
 44
1.0
  0
POINT
  5
8E09
330
8E00
100
AcDbEntity
  8
Defpoints
 62
     0
100
AcDbPoint
 10
975.6356273468552
 20
447.2512854388189
 30
0.0
  0
POINT
  5
8E0A
330
8E00
100
AcDbEntity
  8
Defpoints
 62
     0
100
AcDbPoint
 10
1008.635627168041
 20
447.7529488788377
 30
0.0
  0
POINT
  5
8E0B
330
8E00
100
AcDbEntity
  8
Defpoints
 62
     0
100
AcDbPoint
 10
1008.635627168041
 20
461.685117400096
 30
0.0
  0
ENDBLK
  5
8E02
330
8E00
100
AcDbEntity
  8
0
100
AcDbBlockEnd
  0
BLOCK
  5
8E0D
330
8E0C
100
AcDbEntity
  8
0
100
AcDbBlockBegin
  2
*D38
 70
     1
 10
0.0
 20
0.0
 30
0.0
  3
*D38
  1
*D44
  0
LINE
  5
8E0F
330
8E0C
100
AcDbEntity
  8
DIM
 62
     0
370
    -2
100
AcDbLine
 10
940.6356280174075
 20
447.2512854388189
 30
0.0
 11
922.6508692832142
 21
447.2512854388189
 31
0.0
  0
LINE
  5
8E10
330
8E0C
100
AcDbEntity
  8
DIM
 62
     0
370
    -2
100
AcDbLine
 10
940.6356280174075
 20
412.2512815645169
 30
0.0
 11
922.6508692832142
 21
412.2512815645169
 31
0.0
  0
LINE
  5
8E11
330
8E0C
100
AcDbEntity
  8
DIM
 62
     0
370
    -2
100
AcDbLine
 10
922.6508692832142
 20
445.2512854388189
 30
0.0
 11
922.6508692832142
 21
414.2512815645169
 31
0.0
  0
INSERT
  5
8E12
330
8E0C
100
AcDbEntity
  8
DIM
 62
     0
370
    -2
100
AcDbBlockReference
  2
_DOT
 10
922.6508692832142
 20
447.2512854388189
 30
0.0
 41
2.0
 42
2.0
 43
2.0
 50
90.0
  0
INSERT
  5
8E13
330
8E0C
100
AcDbEntity
  8
DIM
 62
     0
370
    -2
100
AcDbBlockReference
  2
_DOT
 10
922.6508692832142
 20
412.2512815645169
 30
0.0
 41
2.0
 42
2.0
 43
2.0
 50
270.0
  0
MTEXT
  5
8E14
330
8E0C
100
AcDbEntity
  8
DIM
 62
     0
100
AcDbMText
 10
909.1508692832142
 20
429.7512835016679
 30
0.0
 40
7.0
 41
0.0
 46
0.0
 71
     5
 72
     1
  1
\A1;35
  7
ＭＳ ゴシック
 11
0.0
 21
1.0
 31
0.0
 73
     1
 44
1.0
  0
POINT
  5
8E15
330
8E0C
100
AcDbEntity
  8
Defpoints
 62
     0
100
AcDbPoint
 10
945.6356280174075
 20
447.2512854388189
 30
0.0
  0
POINT
  5
8E16
330
8E0C
100
AcDbEntity
  8
Defpoints
 62
     0
100
AcDbPoint
 10
945.6356280174075
 20
412.2512815645169
 30
0.0
  0
POINT
  5
8E17
330
8E0C
100
AcDbEntity
  8
Defpoints
 62
     0
100
AcDbPoint
 10
922.6508692832142
 20
412.2512815645169
 30
0.0
  0
ENDBLK
  5
8E0E
330
8E0C
100
AcDbEntity
  8
0
100
AcDbBlockEnd
  0
BLOCK
  5
8E19
330
8E18
100
AcDbEntity
  8
0
100
AcDbBlockBegin
  2
*D39
 70
     1
 10
0.0
 20
0.0
 30
0.0
  3
*D39
  1
*D45
  0
LINE
  5
8E1B
330
8E18
100
AcDbEntity
  8
DIM
 62
     0
370
    -2
100
AcDbLine
 10
947.4610765623179
 20
261.2512810280751
 30
0.0
 11
922.6508692832142
 21
261.2512810280751
 31
0.0
  0
LINE
  5
8E1C
330
8E18
100
AcDbEntity
  8
DIM
 62
     0
370
    -2
100
AcDbLine
 10
931.6356284048377
 20
302.2512821605635
 30
0.0
 11
922.6508692832142
 21
302.2512821605635
 31
0.0
  0
LINE
  5
8E1D
330
8E18
100
AcDbEntity
  8
DIM
 62
     0
370
    -2
100
AcDbLine
 10
922.6508692832142
 20
263.2512810280751
 30
0.0
 11
922.6508692832142
 21
300.2512821605635
 31
0.0
  0
INSERT
  5
8E1E
330
8E18
100
AcDbEntity
  8
DIM
 62
     0
370
    -2
100
AcDbBlockReference
  2
_DOT
 10
922.6508692832142
 20
261.2512810280751
 30
0.0
 41
2.0
 42
2.0
 43
2.0
 50
270.0
  0
INSERT
  5
8E1F
330
8E18
100
AcDbEntity
  8
DIM
 62
     0
370
    -2
100
AcDbBlockReference
  2
_DOT
 10
922.6508692832142
 20
302.2512821605635
 30
0.0
 41
2.0
 42
2.0
 43
2.0
 50
90.0
  0
MTEXT
  5
8E20
330
8E18
100
AcDbEntity
  8
DIM
 62
     0
100
AcDbMText
 10
909.1508692832142
 20
281.7512815943193
 30
0.0
 40
7.0
 41
0.0
 46
0.0
 71
     5
 72
     1
  1
\A1;41
  7
ＭＳ ゴシック
 11
0.0
 21
1.0
 31
0.0
 73
     1
 44
1.0
  0
POINT
  5
8E21
330
8E18
100
AcDbEntity
  8
Defpoints
 62
     0
100
AcDbPoint
 10
952.4610765623179
 20
261.2512810280751
 30
0.0
  0
POINT
  5
8E22
330
8E18
100
AcDbEntity
  8
Defpoints
 62
     0
100
AcDbPoint
 10
936.6356284048377
 20
302.2512821605635
 30
0.0
  0
POINT
  5
8E23
330
8E18
100
AcDbEntity
  8
Defpoints
 62
     0
100
AcDbPoint
 10
922.6508692832142
 20
302.2512821605635
 30
0.0
  0
ENDBLK
  5
8E1A
330
8E18
100
AcDbEntity
  8
0
100
AcDbBlockEnd
  0
BLOCK
  5
8E25
330
8E24
100
AcDbEntity
  8
0
100
AcDbBlockBegin
  2
*D40
 70
     1
 10
0.0
 20
0.0
 30
0.0
  3
*D40
  1
*D46
  0
LINE
  5
8E27
330
8E24
100
AcDbEntity
  8
DIM
 62
     0
370
    -2
100
AcDbLine
 10
960.6356276821314
 20
452.2512854388189
 30
0.0
 11
960.6356276821314
 21
490.0705928754691
 31
0.0
  0
LINE
  5
8E28
330
8E24
100
AcDbEntity
  8
DIM
 62
     0
370
    -2
100
AcDbLine
 10
1050.186071607095
 20
359.4861781535875
 30
0.0
 11
1050.186071607095
 21
490.0705928754691
 31
0.0
  0
LINE
  5
8E29
330
8E24
100
AcDbEntity
  8
DIM
 62
     0
370
    -2
100
AcDbLine
 10
962.6356276821314
 20
490.0705928754691
 30
0.0
 11
1048.186071607095
 21
490.0705928754691
 31
0.0
  0
INSERT
  5
8E2A
330
8E24
100
AcDbEntity
  8
DIM
 62
     0
370
    -2
100
AcDbBlockReference
  2
_DOT
 10
960.6356276821314
 20
490.0705928754691
 30
0.0
 41
2.0
 42
2.0
 43
2.0
 50
180.0
  0
INSERT
  5
8E2B
330
8E24
100
AcDbEntity
  8
DIM
 62
     0
370
    -2
100
AcDbBlockReference
  2
_DOT
 10
1050.186071607095
 20
490.0705928754691
 30
0.0
 41
2.0
 42
2.0
 43
2.0
  0
MTEXT
  5
8E2C
330
8E24
100
AcDbEntity
  8
DIM
 62
     0
100
AcDbMText
 10
1005.410849644613
 20
503.5705928754691
 30
0.0
 40
7.0
 41
0.0
 46
0.0
 71
     5
 72
     1
  1
\A1;90
  7
ＭＳ ゴシック
 73
     1
 44
1.0
  0
POINT
  5
8E2D
330
8E24
100
AcDbEntity
  8
Defpoints
 62
     0
100
AcDbPoint
 10
960.6356276821314
 20
447.2512854388189
 30
0.0
  0
POINT
  5
8E2E
330
8E24
100
AcDbEntity
  8
Defpoints
 62
     0
100
AcDbPoint
 10
1050.186071607095
 20
354.4861781535875
 30
0.0
  0
POINT
  5
8E2F
330
8E24
100
AcDbEntity
  8
Defpoints
 62
     0
100
AcDbPoint
 10
1050.186071607095
 20
490.0705928754691
 30
0.0
  0
ENDBLK
  5
8E26
330
8E24
100
AcDbEntity
  8
0
100
AcDbBlockEnd
  0
BLOCK
  5
8E34
330
8E33
100
AcDbEntity
  8
0
100
AcDbBlockBegin
  2
*D41
 70
     1
 10
0.0
 20
0.0
 30
0.0
  3
*D41
  1
*D47
  0
LINE
  5
8E36
330
8E33
100
AcDbEntity
  8
DIM
 62
     0
370
    -2
100
AcDbLine
 10
463.4317558641483
 20
267.9809204569896
 30
0.0
 11
545.9453630920993
 21
267.9809204569896
 31
0.0
  0
LINE
  5
8E37
330
8E33
100
AcDbEntity
  8
DIM
 62
     0
370
    -2
100
AcDbLine
 10
491.2669038884115
 20
349.2209234542096
 30
0.0
 11
545.9453630920993
 21
349.2209234542096
 31
0.0
  0
LINE
  5
8E38
330
8E33
100
AcDbEntity
  8
DIM
 62
     0
370
    -2
100
AcDbLine
 10
545.9453630920993
 20
269.9809204569896
 30
0.0
 11
545.9453630920993
 21
347.2209234542096
 31
0.0
  0
INSERT
  5
8E39
330
8E33
100
AcDbEntity
  8
DIM
 62
     0
370
    -2
100
AcDbBlockReference
  2
_DOT
 10
545.9453630920993
 20
267.9809204569896
 30
0.0
 41
2.0
 42
2.0
 43
2.0
 50
270.0
  0
INSERT
  5
8E3A
330
8E33
100
AcDbEntity
  8
DIM
 62
     0
370
    -2
100
AcDbBlockReference
  2
_DOT
 10
545.9453630920993
 20
349.2209234542096
 30
0.0
 41
2.0
 42
2.0
 43
2.0
 50
90.0
  0
MTEXT
  5
8E3B
330
8E33
100
AcDbEntity
  8
DIM
 62
     0
100
AcDbMText
 10
532.4453630920993
 20
308.6009219555996
 30
0.0
 40
7.0
 41
0.0
 46
0.0
 71
     5
 72
     1
  1
\A1;81
  7
ＭＳ ゴシック
 11
0.0
 21
1.0
 31
0.0
 73
     1
 44
1.0
  0
POINT
  5
8E3C
330
8E33
100
AcDbEntity
  8
Defpoints
 62
     0
100
AcDbPoint
 10
458.4317558641483
 20
267.9809204569896
 30
0.0
  0
POINT
  5
8E3D
330
8E33
100
AcDbEntity
  8
Defpoints
 62
     0
100
AcDbPoint
 10
486.2669038884115
 20
349.2209234542096
 30
0.0
  0
POINT
  5
8E3E
330
8E33
100
AcDbEntity
  8
Defpoints
 62
     0
100
AcDbPoint
 10
545.9453630920993
 20
349.2209234542096
 30
0.0
  0
ENDBLK
  5
8E35
330
8E33
100
AcDbEntity
  8
0
100
AcDbBlockEnd
  0
BLOCK
  5
8E43
330
8E42
100
AcDbEntity
  8
0
100
AcDbBlockBegin
  2
*D42
 70
     1
 10
0.0
 20
0.0
 30
0.0
  3
*D42
  1
*D48
  0
LINE
  5
8E45
330
8E42
100
AcDbEntity
  8
DIM
 62
     0
370
    -2
100
AcDbLine
 10
486.2669038884115
 20
354.2209234542096
 30
0.0
 11
486.2669038884115
 21
459.1186590630099
 31
0.0
  0
LINE
  5
8E46
330
8E42
100
AcDbEntity
  8
DIM
 62
     0
370
    -2
100
AcDbLine
 10
380.4169002286862
 20
426.9622001203113
 30
0.0
 11
380.4169002286862
 21
459.1186590630099
 31
0.0
  0
LINE
  5
8E47
330
8E42
100
AcDbEntity
  8
DIM
 62
     0
370
    -2
100
AcDbLine
 10
484.2669038884115
 20
459.1186590630099
 30
0.0
 11
382.4169002286862
 21
459.1186590630099
 31
0.0
  0
INSERT
  5
8E48
330
8E42
100
AcDbEntity
  8
DIM
 62
     0
370
    -2
100
AcDbBlockReference
  2
_DOT
 10
486.2669038884115
 20
459.1186590630099
 30
0.0
 41
2.0
 42
2.0
 43
2.0
  0
INSERT
  5
8E49
330
8E42
100
AcDbEntity
  8
DIM
 62
     0
370
    -2
100
AcDbBlockReference
  2
_DOT
 10
380.4169002286862
 20
459.1186590630099
 30
0.0
 41
2.0
 42
2.0
 43
2.0
 50
180.0
  0
MTEXT
  5
8E4A
330
8E42
100
AcDbEntity
  8
DIM
 62
     0
100
AcDbMText
 10
433.3419020585488
 20
472.6186590630099
 30
0.0
 40
7.0
 41
0.0
 46
0.0
 71
     5
 72
     1
  1
\A1;106
  7
ＭＳ ゴシック
 73
     1
 44
1.0
  0
POINT
  5
8E4B
330
8E42
100
AcDbEntity
  8
Defpoints
 62
     0
100
AcDbPoint
 10
486.2669038884115
 20
349.2209234542096
 30
0.0
  0
POINT
  5
8E4C
330
8E42
100
AcDbEntity
  8
Defpoints
 62
     0
100
AcDbPoint
 10
380.4169002286862
 20
421.9622001203113
 30
0.0
  0
POINT
  5
8E4D
330
8E42
100
AcDbEntity
  8
Defpoints
 62
     0
100
AcDbPoint
 10
380.4169002286862
 20
459.1186590630099
 30
0.0
  0
ENDBLK
  5
8E44
330
8E42
100
AcDbEntity
  8
0
100
AcDbBlockEnd
  0
BLOCK
  5
8E5E
330
8E5D
100
AcDbEntity
  8
0
100
AcDbBlockBegin
  2
*D43
 70
     1
 10
0.0
 20
0.0
 30
0.0
  3
*D43
  1
*D49
  0
LINE
  5
8E60
330
8E5D
100
AcDbEntity
  8
DIM
 62
     0
370
    -2
100
AcDbLine
 10
199.8431020808181
 20
267.9809204569896
 30
0.0
 11
237.4562457223154
 21
267.9809204569896
 31
0.0
  0
LINE
  5
8E61
330
8E5D
100
AcDbEntity
  8
DIM
 62
     0
370
    -2
100
AcDbLine
 10
186.2185110490045
 20
426.9809203452304
 30
0.0
 11
237.4562457223154
 21
426.9809203452304
 31
0.0
  0
LINE
  5
8E62
330
8E5D
100
AcDbEntity
  8
DIM
 62
     0
370
    -2
100
AcDbLine
 10
237.4562457223154
 20
269.9809204569896
 30
0.0
 11
237.4562457223154
 21
424.9809203452304
 31
0.0
  0
INSERT
  5
8E63
330
8E5D
100
AcDbEntity
  8
DIM
 62
     0
370
    -2
100
AcDbBlockReference
  2
_DOT
 10
237.4562457223154
 20
267.9809204569896
 30
0.0
 41
2.0
 42
2.0
 43
2.0
 50
270.0
  0
INSERT
  5
8E64
330
8E5D
100
AcDbEntity
  8
DIM
 62
     0
370
    -2
100
AcDbBlockReference
  2
_DOT
 10
237.4562457223154
 20
426.9809203452304
 30
0.0
 41
2.0
 42
2.0
 43
2.0
 50
90.0
  0
MTEXT
  5
8E65
330
8E5D
100
AcDbEntity
  8
DIM
 62
     0
100
AcDbMText
 10
223.9562457223154
 20
347.48092040111
 30
0.0
 40
7.0
 41
0.0
 46
0.0
 71
     5
 72
     1
  1
\A1;159
  7
ＭＳ ゴシック
 11
0.0
 21
1.0
 31
0.0
 73
     1
 44
1.0
  0
POINT
  5
8E66
330
8E5D
100
AcDbEntity
  8
Defpoints
 62
     0
100
AcDbPoint
 10
194.8431020808181
 20
267.9809204569896
 30
0.0
  0
POINT
  5
8E67
330
8E5D
100
AcDbEntity
  8
Defpoints
 62
     0
100
AcDbPoint
 10
181.2185110490045
 20
426.9809203452304
 30
0.0
  0
POINT
  5
8E68
330
8E5D
100
AcDbEntity
  8
Defpoints
 62
     0
100
AcDbPoint
 10
237.4562457223154
 20
426.9809203452304
 30
0.0
  0
ENDBLK
  5
8E5F
330
8E5D
100
AcDbEntity
  8
0
100
AcDbBlockEnd
  0
BLOCK
  5
8EB9
330
8EB8
100
AcDbEntity
  8
0
100
AcDbBlockBegin
  2
*D44
 70
     1
 10
0.0
 20
0.0
 30
0.0
  3
*D44
  1
*D50
  0
LINE
  5
8EBB
330
8EB8
100
AcDbEntity
  8
DIM
 62
     0
370
    -2
100
AcDbLine
 10
440.0791647369532
 20
252.4622435237287
 30
0.0
 11
440.0791647369532
 21
202.0582435237287
 31
0.0
  0
LINE
  5
8EBC
330
8EB8
100
AcDbEntity
  8
DIM
 62
     0
370
    -2
100
AcDbLine
 10
440.0791647369532
 20
265.9809204569896
 30
0.0
 11
440.0791647369532
 21
254.4622435237287
 31
0.0
  0
INSERT
  5
8EBD
330
8EB8
100
AcDbEntity
  8
DIM
 62
     0
370
    -2
100
AcDbBlockReference
  2
_DOT
 10
440.0791647369532
 20
267.9809204569896
 30
0.0
 41
2.0
 42
2.0
 43
2.0
 50
90.0
  0
INSERT
  5
8EBE
330
8EB8
100
AcDbEntity
  8
DIM
 62
     0
370
    -2
100
AcDbBlockReference
  2
_DOT
 10
440.0791647369532
 20
252.4622435237287
 30
0.0
 41
2.0
 42
2.0
 43
2.0
 50
270.0
  0
MTEXT
  5
8EBF
330
8EB8
100
AcDbEntity
  8
DIM
 62
     0
100
AcDbMText
 10
426.5791647369532
 20
225.2602435237287
 30
0.0
 40
7.0
 41
0.0
 46
0.0
 71
     5
 72
     1
  1
\A1;MAX 15
  7
ＭＳ ゴシック
 11
0.0
 21
1.0
 31
0.0
 73
     1
 44
1.0
  0
POINT
  5
8EC0
330
8EB8
100
AcDbEntity
  8
Defpoints
 62
     0
100
AcDbPoint
 10
404.4169004373025
 20
267.9809204569896
 30
0.0
  0
POINT
  5
8EC1
330
8EB8
100
AcDbEntity
  8
Defpoints
 62
     0
100
AcDbPoint
 10
404.6872066029072
 20
252.4622435237287
 30
0.0
  0
POINT
  5
8EC2
330
8EB8
100
AcDbEntity
  8
Defpoints
 62
     0
100
AcDbPoint
 10
440.0791647369532
 20
252.4622435237287
 30
0.0
  0
ENDBLK
  5
8EBA
330
8EB8
100
AcDbEntity
  8
0
100
AcDbBlockEnd
  0
ENDSEC
  0
SECTION
  2
ENTITIES
  0
MTEXT
  5
177
330
A
100
AcDbEntity
  8
MODEL
390
1D
100
AcDbMText
 10
23.76064336431923
 20
103.1195254894285
 30
0.0
 40
4.886523437499999
 41
0.0
 46
0.0
 71
     1
 72
     1
  1
品名
  7
ＭＳ ゴシック
 73
     1
 44
0.7828267384257843
  0
MTEXT
  5
178
330
A
100
AcDbEntity
  8
MODEL
390
1D
100
AcDbMText
 10
23.76064336431923
 20
77.6195254894284
 30
0.0
 40
4.886523437499999
 41
0.0
 46
0.0
 71
     1
 72
     1
  1
仕様
  7
ＭＳ ゴシック
 73
     1
 44
0.7828267384257843
  0
LINE
  5
179
330
A
100
AcDbEntity
  8
MODEL
390
1D
100
AcDbLine
 10
606.6606433641747
 20
80.14400205192854
 30
0.0
 11
21.66064336417462
 21
80.14400205192854
 31
0.0
  0
LWPOLYLINE
  5
17A
330
A
100
AcDbEntity
  8
MODEL
390
1D
100
AcDbPolyline
 90
        5
 70
   128
 43
0.0
 10
606.6606433641747
 20
869.1440020519283
 10
21.66064336417462
 20
869.1440020519283
 10
21.66064336417462
 20
29.14400205192847
 10
606.6606433641747
 20
29.14400205192847
 10
606.6606433641747
 20
869.1440020519283
  0
LINE
  5
17B
330
A
100
AcDbEntity
  8
MODEL
390
1D
100
AcDbLine
 10
606.6606433641747
 20
105.6440020519285
 30
0.0
 11
21.66064336417462
 21
105.6440020519285
 31
0.0
  0
LINE
  5
17C
330
A
100
AcDbEntity
  8
MODEL
390
1D
100
AcDbLine
 10
606.6606433643193
 20
54.64400205192846
 30
0.0
 11
380.760643364319
 21
54.64400205192846
 31
0.0
  0
MTEXT
  5
17D
330
A
100
AcDbEntity
  8
MODEL
390
1D
100
AcDbMText
 10
21.66064336438035
 20
25.58785543487134
 30
0.0
 40
6.515364583333332
 41
0.0
 46
6.515364583333332
 71
     1
 72
     1
  1
{200117N}
  7
ＭＳ ゴシック
 73
     1
 44
0.7828267384257843
1001
ACAD
1000
ACAD_MTEXT_DEFINED_HEIGHT_BEGIN
1070
    46
1040
6.515364583333332
1000
ACAD_MTEXT_DEFINED_HEIGHT_END
  0
MTEXT
  5
17E
330
A
100
AcDbEntity
  8
MODEL
390
1D
100
AcDbMText
 10
389.7220652399973
 20
45.67088370993604
 30
0.0
 40
7.329785156250001
 41
0.0
 46
0.0
 71
     1
 72
     1
  1
大洋金物株式会社 ティーフォルム事業部
  7
ＭＳ ゴシック
 73
     1
 44
0.7828267384257843
  0
MTEXT
  5
180
330
A
100
AcDbEntity
  8
MODEL
390
1D
100
AcDbMText
 10
549.360643364397
 20
69.04478720817843
 30
0.0
 40
7.329785156250001
 41
0.0
 46
7.329785156250001
 71
     1
 72
     1
  1
{1:3}
  7
ＭＳ ゴシック
 73
     1
 44
0.7828267384257843
1001
ACAD
1000
ACAD_MTEXT_DEFINED_HEIGHT_BEGIN
1070
    46
1040
7.329785156250001
1000
ACAD_MTEXT_DEFINED_HEIGHT_END
  0
MTEXT
  5
181
330
A
100
AcDbEntity
  8
MODEL
390
1D
100
AcDbMText
 10
533.4606433643969
 20
77.6195254894284
 30
0.0
 40
4.886523437499999
 41
0.0
 46
0.0
 71
     1
 72
     1
  1
縮尺
  7
ＭＳ ゴシック
 73
     1
 44
0.7828267384257843
  0
LINE
  5
182
330
A
100
AcDbEntity
  8
MODEL
390
1D
100
AcDbLine
 10
531.360643364397
 20
54.64400205192846
 30
0.0
 11
531.360643364397
 21
80.14400205192854
 31
0.0
  0
MTEXT
  5
183
330
A
100
AcDbEntity
  8
MODEL
390
1D
100
AcDbMText
 10
458.1606433643969
 20
77.6195254894284
 30
0.0
 40
4.886523437499999
 41
0.0
 46
0.0
 71
     1
 72
     1
  1
容量
  7
ＭＳ ゴシック
 73
     1
 44
0.7828267384257843
  0
LINE
  5
184
330
A
100
AcDbEntity
  8
MODEL
390
1D
100
AcDbLine
 10
456.060643364397
 20
54.64400205192846
 30
0.0
 11
456.060643364397
 21
80.14400205192854
 31
0.0
  0
MTEXT
  5
185
330
A
100
AcDbEntity
  8
MODEL
390
1D
100
AcDbMText
 10
382.860643364397
 20
103.1195254894285
 30
0.0
 40
4.886523437499999
 41
0.0
 46
0.0
 71
     1
 72
     1
  1
品番
  7
ＭＳ ゴシック
 73
     1
 44
0.7828267384257843
  0
MTEXT
  5
186
330
A
100
AcDbEntity
  8
MODEL
390
1D
100
AcDbMText
 10
382.860643364397
 20
77.6195254894284
 30
0.0
 40
4.886523437499999
 41
0.0
 46
0.0
 71
     1
 72
     1
  1
重量
  7
ＭＳ ゴシック
 73
     1
 44
0.7828267384257843
  0
MTEXT
  5
187
330
A
100
AcDbEntity
  8
MODEL
390
1D
100
AcDbMText
 10
398.760643364397
 20
94.54478720817848
 30
0.0
 40
7.329785156250001
 41
0.0
 46
7.329785156250001
 71
     1
 72
     1
  1
{BRS73-0603}
  7
ＭＳ ゴシック
 73
     1
 44
0.7828267384257843
1001
ACAD
1000
ACAD_MTEXT_DEFINED_HEIGHT_BEGIN
1070
    46
1040
7.329785156250001
1000
ACAD_MTEXT_DEFINED_HEIGHT_END
  0
LINE
  5
188
330
A
100
AcDbEntity
  8
MODEL
390
1D
100
AcDbLine
 10
380.760643364397
 20
29.14400205192847
 30
0.0
 11
380.760643364397
 21
105.6440020519285
 31
0.0
  0
MTEXT
  5
189
330
A
100
AcDbEntity
  8
MODEL
390
1D
100
AcDbMText
 10
39.66064336431921
 20
94.54478720817848
 30
0.0
 40
7.329785156250001
 41
0.0
 46
11.014223828125
 71
     1
 72
     1
  1
{単水栓　- CLOU,Kaldur -}
  7
ＭＳ ゴシック
 73
     1
 44
0.7828267384257843
1001
ACAD
1000
ACAD_MTEXT_DEFINED_HEIGHT_BEGIN
1070
    46
1040
11.014223828125
1000
ACAD_MTEXT_DEFINED_HEIGHT_END
  0
INSERT
  5
6B5
330
A
100
AcDbEntity
  8
MODEL
100
AcDbBlockReference
  2
名称未設定-1
 10
561.225224426535
 20
7.78402972699614
 30
0.0
 41
0.2286
 42
0.2286
 43
0.2286
  0
INSERT
  5
68C
330
A
100
AcDbEntity
  8
TEMPLATE
100
AcDbBlockReference
  2
block 2
 10
3677.09720708103
 20
33.49230605734548
 30
0.0
 41
1.524
 42
1.524
 43
1.524
  0
LWPOLYLINE
  5
19EF
330
A
100
AcDbEntity
  8
PRINT
  6
BORDER
 48
0.05
100
AcDbPolyline
 90
        4
 70
     1
 43
0.0
 10
0.0
 20
0.0
 10
0.0
 20
891.0
 10
630.0000000000001
 20
891.0
 10
630.0000000000001
 20
0.0
  0
LINE
  5
7CCD
330
A
100
AcDbEntity
  8
MODEL
  6
Continuous
100
AcDbLine
 10
180.8431016486844
 20
383.1438266939366
 30
0.0
 11
180.8431016486844
 21
393.9516240066727
 31
0.0
  0
LINE
  5
7CCE
330
A
100
AcDbEntity
  8
MODEL
  6
Continuous
100
AcDbLine
 10
160.8431020957192
 20
393.9516240066727
 30
0.0
 11
160.8431020957192
 21
383.1438266939366
 31
0.0
  0
LINE
  5
7CCF
330
A
100
AcDbEntity
  8
MODEL
  6
Continuous
100
AcDbLine
 10
160.8431020957192
 20
416.9809141463478
 30
0.0
 11
160.8431020957192
 21
393.9516240066727
 31
0.0
  0
LINE
  5
7CD0
330
A
100
AcDbEntity
  8
MODEL
  6
Continuous
100
AcDbLine
 10
180.8431016486844
 20
393.9516240066727
 30
0.0
 11
180.8431016486844
 21
416.9809141463478
 31
0.0
  0
LINE
  5
7CD1
330
A
100
AcDbEntity
  8
MODEL
  6
Continuous
100
AcDbLine
 10
160.8431020957192
 20
383.1438266939366
 30
0.0
 11
160.8431020957192
 21
382.8619190758903
 31
0.0
  0
LINE
  5
7CD2
330
A
100
AcDbEntity
  8
MODEL
  6
Continuous
100
AcDbLine
 10
180.8431016486844
 20
382.8619190758903
 30
0.0
 11
180.8431016486844
 21
383.1438266939366
 31
0.0
  0
LINE
  5
7CD3
330
A
100
AcDbEntity
  8
MODEL
  6
Continuous
100
AcDbLine
 10
180.8431016486844
 20
272.9809203452313
 30
0.0
 11
180.8431016486844
 21
349.2209234542096
 31
0.0
  0
LINE
  5
7CD4
330
A
100
AcDbEntity
  8
MODEL
  6
Continuous
100
AcDbLine
 10
160.8431020957192
 20
349.2209234542096
 30
0.0
 11
160.8431020957192
 21
272.9809203452313
 31
0.0
  0
ARC
  5
7CD5
330
A
100
AcDbEntity
  8
MODEL
  6
Continuous
100
AcDbCircle
 10
191.3431018722
 20
268.4809203452309
 30
0.0
 40
1.500000000000341
100
AcDbArc
 50
270.0
 51
340.5287793655461
  0
ARC
  5
7CD6
330
A
100
AcDbEntity
  8
MODEL
  6
Continuous
100
AcDbCircle
 10
150.3431018722018
 20
268.4809203452309
 30
0.0
 40
1.500000000000341
100
AcDbArc
 50
199.4712206344721
 51
270.0
  0
LINE
  5
7CD7
330
A
100
AcDbEntity
  8
MODEL
  6
Continuous
100
AcDbLine
 10
150.3431013059577
 20
266.9809202930768
 30
0.0
 11
191.343102438446
 21
266.9809202930768
 31
0.0
  0
LINE
  5
7CD8
330
A
100
AcDbEntity
  8
MODEL
  6
Continuous
100
AcDbLine
 10
194.8431020808181
 20
267.9809204569896
 30
0.0
 11
194.8431020808181
 21
272.9809203452313
 31
0.0
  0
LINE
  5
7CD9
330
A
100
AcDbEntity
  8
MODEL
  6
Continuous
100
AcDbLine
 10
146.8431016635856
 20
272.9809203452313
 30
0.0
 11
146.8431016635856
 21
267.9809204569896
 31
0.0
  0
LINE
  5
7DE4
330
A
100
AcDbEntity
  8
MODEL
  6
Continuous
100
AcDbLine
 10
164.3431017380914
 20
350.1095169491017
 30
0.0
 11
164.3431017380914
 21
349.6907645172317
 31
0.0
  0
LINE
  5
7DE5
330
A
100
AcDbEntity
  8
MODEL
  6
Continuous
100
AcDbLine
 10
177.3431020063123
 20
349.6907645172317
 30
0.0
 11
177.3431020063123
 21
350.1191207474907
 31
0.0
  0
LINE
  5
7DE6
330
A
100
AcDbEntity
  8
MODEL
  6
Continuous
100
AcDbLine
 10
160.8431020957192
 20
382.8619190758903
 30
0.0
 11
160.8431020957192
 21
349.2209234542096
 31
0.0
  0
LINE
  5
7DE7
330
A
100
AcDbEntity
  8
MODEL
  6
Continuous
100
AcDbLine
 10
180.8431016486844
 20
372.4715703434189
 30
0.0
 11
180.8431016486844
 21
382.8619190758903
 31
0.0
  0
LINE
  5
7DE8
330
A
100
AcDbEntity
  8
MODEL
  6
Continuous
100
AcDbLine
 10
180.8431016486844
 20
349.2209234542096
 30
0.0
 11
180.8431016486844
 21
359.1061824268539
 31
0.0
  0
LINE
  5
7DE9
330
A
100
AcDbEntity
  8
MODEL
  6
Continuous
100
AcDbLine
 10
189.8431012612542
 20
372.4715703434189
 30
0.0
 11
180.5262088981232
 21
372.4715703434189
 31
0.0
  0
LINE
  5
7DEA
330
A
100
AcDbEntity
  8
MODEL
  6
Continuous
100
AcDbLine
 10
180.8431016486844
 20
358.6715751594746
 30
0.0
 11
189.8431012612542
 21
358.6715751594746
 31
0.0
  0
LINE
  5
7DEB
330
A
100
AcDbEntity
  8
MODEL
  6
Continuous
100
AcDbLine
 10
160.8431020957192
 20
383.1438266939366
 30
0.0
 11
160.8515976202449
 21
383.0028691596229
 31
0.0
  0
LWPOLYLINE
  5
7DEC
330
A
100
AcDbEntity
  8
MODEL
  6
Continuous
100
AcDbPolyline
 90
       26
 70
   128
 43
0.0
 10
180.8346061241588
 20
383.0028691596229
 10
180.8207703959903
 20
383.3722689456184
 10
180.6427192148527
 20
383.8250779813965
 10
180.289792662557
 20
384.2657351202214
 10
179.7682902049979
 20
384.6863725489815
 10
179.0875176173409
 20
385.0794800824364
 10
178.2596230712494
 20
385.4380392736633
 10
177.2993806023857
 20
385.7556649750912
 10
176.2239256148001
 20
386.0266872948845
 10
175.0524494071266
 20
386.2462559050758
 10
173.8058576100281
 20
386.410466701432
 10
172.5063954452759
 20
386.5163841551979
 10
171.1772516517209
 20
386.5621158189023
 10
169.8421450071743
 20
386.5468495792587
 10
168.5249002855977
 20
386.4708536571701
 10
167.2490242142936
 20
386.3354915088852
 10
166.0372841377517
 20
386.1431696719372
 10
164.911304434832
 20
385.8973228639801
 10
163.8911774587592
 20
385.6023469275673
 10
162.9951082375607
 20
385.2634945220192
 10
162.2390857171973
 20
384.886815518781
 10
161.6366028991303
 20
384.4790303415497
 10
161.1984100398382
 20
384.0474256581505
 10
160.9323274549803
 20
383.5996904677594
 10
160.8431020957192
 20
383.1438266939366
 10
160.8431020957192
 20
383.1438266939366
  0
ARC
  5
7DED
330
A
100
AcDbEntity
  8
MODEL
  6
Continuous
100
AcDbCircle
 10
170.8431018722018
 20
416.9809203452304
 30
0.0
 40
10.0
100
AcDbArc
 50
0.0
 51
180.0
  0
LINE
  5
7DEE
330
A
100
AcDbEntity
  8
MODEL
  6
Continuous
100
AcDbLine
 10
194.8431020808181
 20
272.9809203452313
 30
0.0
 11
146.8431016635856
 21
272.9809203452313
 31
0.0
  0
LINE
  5
7DEF
102
{ACAD_REACTORS
330
8E5C
102
}
330
A
100
AcDbEntity
  8
MODEL
  6
Continuous
100
AcDbLine
 10
194.8431020808181
 20
267.9809204569896
 30
0.0
 11
146.8431016635856
 21
267.9809204569896
 31
0.0
  0
SPLINE
  5
7E14
330
A
100
AcDbEntity
  8
MODEL
  6
Continuous
100
AcDbSpline
210
0.0
220
0.0
230
1.0
 70
     8
 71
     3
 72
     9
 73
     5
 74
     0
 42
0.000000001
 43
0.00000001
 40
0.0
 40
0.0
 40
0.0
 40
0.0
 40
0.6420981788043204
 40
1.0
 40
1.0
 40
1.0
 40
1.0
 10
162.5607216936311
 20
266.9663045822521
 30
0.0
 10
162.5512994800735
 20
266.9693399107254
 30
0.0
 10
162.5366253790286
 20
266.9740671137814
 30
0.0
 10
162.5860138864897
 20
266.9791140024362
 30
0.0
 10
162.6036901232561
 20
266.9809202930768
 30
0.0
  0
LINE
  5
7E7E
330
A
100
AcDbEntity
  8
MODEL
  6
Continuous
100
AcDbLine
 10
167.7172529251089
 20
347.6419666117866
 30
0.0
 11
167.7172529251089
 21
346.7022695845802
 31
0.0
  0
ARC
  5
7E7F
330
A
100
AcDbEntity
  8
MODEL
  6
Continuous
100
AcDbCircle
 10
170.7991753456787
 20
368.4228961013067
 30
0.0
 40
21.93818274346219
100
AcDbArc
 50
261.9242545951425
 51
270.1147226408671
  0
ARC
  5
7E80
330
A
100
AcDbEntity
  8
MODEL
  6
Continuous
100
AcDbCircle
 10
170.8740400188432
 20
369.7084078143283
 30
0.0
 40
22.2839749291185
100
AcDbArc
 50
269.9204528903119
 51
276.6777885147125
  0
ARC
  5
7E81
330
A
100
AcDbEntity
  8
MODEL
  6
Continuous
100
AcDbCircle
 10
171.9941318069447
 20
361.013814261012
 30
0.0
 40
14.44821202528253
100
AcDbArc
 50
277.3398479250694
 51
288.1713790386013
  0
LINE
  5
7E82
330
A
100
AcDbEntity
  8
MODEL
  6
Continuous
100
AcDbLine
 10
176.4999561217388
 20
348.2258537120064
 30
0.0
 11
176.4999561217388
 21
347.2861641353805
 31
0.0
  0
ARC
  5
7E83
330
A
100
AcDbEntity
  8
MODEL
  6
Continuous
100
AcDbCircle
 10
173.9715386203694
 20
355.7233955188921
 30
0.0
 40
7.912397121431146
100
AcDbArc
 50
288.635797052947
 51
294.7698975539023
  0
ARC
  5
7E84
330
A
100
AcDbEntity
  8
MODEL
  6
Continuous
100
AcDbCircle
 10
177.4101572419328
 20
349.3496107491663
 30
0.0
 40
1.438711862143379
100
AcDbArc
 50
303.6388561270049
 51
354.8682523672833
  0
LINE
  5
7E85
330
A
100
AcDbEntity
  8
MODEL
  6
Continuous
100
AcDbLine
 10
178.8431022521814
 20
349.9772393411835
 30
0.0
 11
178.8431022521814
 21
349.2209234542096
 31
0.0
  0
LINE
  5
7E86
330
A
100
AcDbEntity
  8
MODEL
  6
Continuous
100
AcDbLine
 10
178.2605725546142
 20
350.4947417682846
 30
0.0
 11
178.2605725546142
 21
350.2459072775085
 31
0.0
  0
ARC
  5
7E87
330
A
100
AcDbEntity
  8
MODEL
  6
Continuous
100
AcDbCircle
 10
174.8763107585252
 20
345.8550486472608
 30
0.0
 40
5.543723244832012
100
AcDbArc
 50
52.37670007358548
 51
72.969546911335
  0
LINE
  5
7E88
330
A
100
AcDbEntity
  8
MODEL
  6
Continuous
100
AcDbLine
 10
176.4999561217388
 20
351.2982496327598
 30
0.0
 11
176.4999561217388
 21
351.1556753224571
 31
0.0
  0
LINE
  5
7E89
330
A
100
AcDbEntity
  8
MODEL
  6
Continuous
100
AcDbLine
 10
173.9689508192947
 20
351.8506729311188
 30
0.0
 11
173.9689508192947
 21
351.7395698732574
 31
0.0
  0
ARC
  5
7E8A
330
A
100
AcDbEntity
  8
MODEL
  6
Continuous
100
AcDbCircle
 10
170.887028398725
 20
330.018943356535
 30
0.0
 40
21.93818274345764
100
AcDbArc
 50
81.92425459514085
 51
90.1147226408672
  0
LINE
  5
7E8B
330
A
100
AcDbEntity
  8
MODEL
  6
Continuous
100
AcDbLine
 10
170.8431018722018
 20
352.0596840686043
 30
0.0
 11
170.8431018722018
 21
351.957082123204
 31
0.0
  0
LINE
  5
7E8C
330
A
100
AcDbEntity
  8
MODEL
  6
Continuous
100
AcDbLine
 10
167.8462490179351
 20
351.8681817955215
 30
0.0
 11
167.8462490179351
 21
351.7578461474621
 31
0.0
  0
ARC
  5
7E8D
330
A
100
AcDbEntity
  8
MODEL
  6
Continuous
100
AcDbCircle
 10
169.6917517321141
 20
337.4294396570252
 30
0.0
 40
14.44676824840931
100
AcDbArc
 50
97.33930506794432
 51
108.1719218957287
  0
LINE
  5
7E8E
330
A
100
AcDbEntity
  8
MODEL
  6
Continuous
100
AcDbLine
 10
165.1862476226648
 20
351.2982496327598
 30
0.0
 11
165.1862476226648
 21
351.1556753224571
 31
0.0
  0
LINE
  5
7E8F
330
A
100
AcDbEntity
  8
MODEL
  6
Continuous
100
AcDbLine
 10
163.4790630285403
 20
350.5305045551498
 30
0.0
 11
163.4790630285403
 21
350.2900221652229
 31
0.0
  0
ARC
  5
7E90
330
A
100
AcDbEntity
  8
MODEL
  6
Continuous
100
AcDbCircle
 10
164.2760492170415
 20
349.0922261970339
 30
0.0
 40
1.438715456952404
100
AcDbArc
 50
123.6388907210049
 51
174.8678668891573
  0
LINE
  5
7E91
330
A
100
AcDbEntity
  8
MODEL
  6
Continuous
100
AcDbLine
 10
162.8431014922222
 20
349.9772393411835
 30
0.0
 11
162.8431014922222
 21
349.2209234542096
 31
0.0
  0
LINE
  5
7E92
330
A
100
AcDbEntity
  8
MODEL
  6
Continuous
100
AcDbLine
 10
163.3296891321203
 20
349.2209234542096
 30
0.0
 11
163.4256311897894
 21
349.1356292075355
 31
0.0
  0
LINE
  5
7E93
330
A
100
AcDbEntity
  8
MODEL
  6
Continuous
100
AcDbLine
 10
163.4256311897894
 20
349.1356292075355
 30
0.0
 11
163.4256311897894
 21
348.1959396309097
 31
0.0
  0
ARC
  5
7E94
330
A
100
AcDbEntity
  8
MODEL
  6
Continuous
100
AcDbCircle
 10
166.809862087133
 20
352.5866950559051
 30
0.0
 40
5.543622639454586
100
AcDbArc
 50
232.3763018455146
 51
252.9695624061087
  0
ARC
  5
7E95
330
A
100
AcDbEntity
  8
MODEL
  6
Continuous
100
AcDbCircle
 10
169.9055962526305
 20
363.1473813514361
 30
0.0
 40
15.6590782860189
100
AcDbArc
 50
255.1538360429762
 51
261.9666674432814
  0
LINE
  5
7E96
330
A
100
AcDbEntity
  8
MODEL
  6
Continuous
100
AcDbLine
 10
173.9689508192947
 20
351.7395698732574
 30
0.0
 11
173.5782197882196
 21
351.4247381395538
 31
0.0
  0
ARC
  5
7E97
330
A
100
AcDbEntity
  8
MODEL
  6
Continuous
100
AcDbCircle
 10
170.8815920465837
 20
332.4201592485791
 30
0.0
 40
19.19494256308766
100
AcDbArc
 50
81.92400883368167
 51
90.11489099357638
  0
LINE
  5
7E98
330
A
100
AcDbEntity
  8
MODEL
  6
Continuous
100
AcDbLine
 10
170.8431018722018
 20
351.6150632209022
 30
0.0
 11
170.8431018722018
 21
351.957082123204
 31
0.0
  0
LINE
  5
7E99
330
A
100
AcDbEntity
  8
MODEL
  6
Continuous
100
AcDbLine
 10
168.2208558284452
 20
351.9142934388359
 30
0.0
 11
168.2208558284452
 21
351.4407270855148
 31
0.0
  0
LINE
  5
7E9A
330
A
100
AcDbEntity
  8
MODEL
  6
Continuous
100
AcDbLine
 10
167.8462490179351
 20
351.7578461474621
 30
0.0
 11
168.2208558284452
 21
351.4407270855148
 31
0.0
  0
LINE
  5
7E9B
330
A
100
AcDbEntity
  8
MODEL
  6
Continuous
100
AcDbLine
 10
165.8933542874416
 20
350.9138369268616
 30
0.0
 11
165.1862476226648
 21
351.1556753224571
 31
0.0
  0
ARC
  5
7E9C
330
A
100
AcDbEntity
  8
MODEL
  6
Continuous
100
AcDbCircle
 10
169.8358676840613
 20
338.9022865670839
 30
0.0
 40
12.64202333204686
100
AcDbArc
 50
97.33956242276105
 51
108.1712249744094
  0
LINE
  5
7E9D
330
A
100
AcDbEntity
  8
MODEL
  6
Continuous
100
AcDbLine
 10
164.3431017380914
 20
349.7418680495465
 30
0.0
 11
164.1532665324172
 21
349.9256887740333
 31
0.0
  0
LWPOLYLINE
  5
7E9E
330
A
100
AcDbEntity
  8
MODEL
  6
Continuous
100
AcDbPolyline
 90
        3
 70
   128
 43
0.0
 10
177.7125152964851
 20
350.1701721257408
 10
177.5667288546225
 20
349.964364737912
 10
177.3431020063123
 20
349.7418680495465
  0
LINE
  5
7E9F
330
A
100
AcDbEntity
  8
MODEL
  6
Continuous
100
AcDbLine
 10
164.3528149668833
 20
349.2637493914802
 30
0.0
 11
164.3528149668833
 21
348.3240598148549
 31
0.0
  0
ARC
  5
7EA0
330
A
100
AcDbEntity
  8
MODEL
  6
Continuous
100
AcDbCircle
 10
165.4183784364519
 20
350.5729379140188
 30
0.0
 40
1.688016615803092
100
AcDbArc
 50
211.5074500464972
 51
230.8574639490539
  0
ARC
  5
7EA1
330
A
100
AcDbEntity
  8
MODEL
  6
Continuous
100
AcDbCircle
 10
165.0969513804645
 20
349.1083054843097
 30
0.0
 40
1.258897111899087
100
AcDbArc
 50
123.6393804510424
 51
174.8675934645515
  0
LINE
  5
7EA2
330
A
100
AcDbEntity
  8
MODEL
  6
Continuous
100
AcDbLine
 10
164.3995678257903
 20
351.0102697915275
 30
0.0
 11
164.3995678257903
 21
350.1563885516365
 31
0.0
  0
LINE
  5
7EA3
330
A
100
AcDbEntity
  8
MODEL
  6
Continuous
100
AcDbLine
 10
175.792849456962
 20
351.4996611780365
 30
0.0
 11
175.792849456962
 21
350.9138369268616
 31
0.0
  0
ARC
  5
7EA4
330
A
100
AcDbEntity
  8
MODEL
  6
Continuous
100
AcDbCircle
 10
174.3721350618576
 20
346.275790441497
 30
0.0
 40
4.850763300023454
100
AcDbArc
 50
52.37638227048964
 51
72.96926151108094
  0
LINE
  5
7EA5
330
A
100
AcDbEntity
  8
MODEL
  6
Continuous
100
AcDbLine
 10
177.8431020882687
 20
350.160613030835
 30
0.0
 11
177.8431020882687
 21
349.2209234542096
 31
0.0
  0
ARC
  5
7EA6
330
A
100
AcDbEntity
  8
MODEL
  6
Continuous
100
AcDbCircle
 10
176.5892831878606
 20
349.3335230883398
 30
0.0
 40
1.258864771381196
100
AcDbArc
 50
303.6386747672328
 51
354.8682991485845
  0
LINE
  5
7EA7
330
A
100
AcDbEntity
  8
MODEL
  6
Continuous
100
AcDbLine
 10
177.2866359186133
 20
349.2251479334076
 30
0.0
 11
177.2866359186133
 21
348.2854583567818
 31
0.0
  0
LWPOLYLINE
  5
7EA8
330
A
100
AcDbEntity
  8
MODEL
  6
Continuous
100
AcDbPolyline
 90
        3
 70
   128
 43
0.0
 10
177.2866359186133
 20
349.2251479334076
 10
177.147989461269
 20
349.120489627763
 10
177.0974880289992
 20
349.0854122943123
  0
LINE
  5
7EA9
330
A
100
AcDbEntity
  8
MODEL
  6
Continuous
100
AcDbLine
 10
175.792849456962
 20
348.2498073286255
 30
0.0
 11
175.792849456962
 21
347.5280099815567
 31
0.0
  0
ARC
  5
7EAA
330
A
100
AcDbEntity
  8
MODEL
  6
Continuous
100
AcDbCircle
 10
171.8505196827988
 20
359.5385719135342
 30
0.0
 40
12.64102693494967
100
AcDbArc
 50
277.3393049815813
 51
288.1718313534736
  0
LINE
  5
7EAB
330
A
100
AcDbEntity
  8
MODEL
  6
Continuous
100
AcDbLine
 10
173.4653479159584
 20
347.6565697497566
 30
0.0
 11
173.4653479159584
 21
347.0011123723228
 31
0.0
  0
LINE
  5
7EAC
330
A
100
AcDbEntity
  8
MODEL
  6
Continuous
100
AcDbLine
 10
170.8431018722018
 20
347.4676379269798
 30
0.0
 11
170.8431018722018
 21
346.8267762369354
 31
0.0
  0
ARC
  5
7EAD
330
A
100
AcDbEntity
  8
MODEL
  6
Continuous
100
AcDbCircle
 10
170.804611697829
 20
366.0216802094213
 30
0.0
 40
19.19494256325022
100
AcDbArc
 50
261.9240088337231
 51
270.1148909935483
  0
LINE
  5
7EAE
330
A
100
AcDbEntity
  8
MODEL
  6
Continuous
100
AcDbLine
 10
168.1079839561841
 20
347.6740339106763
 30
0.0
 11
168.1079839561841
 21
347.0171013182838
 31
0.0
  0
LINE
  5
7EAF
330
A
100
AcDbEntity
  8
MODEL
  6
Continuous
100
AcDbLine
 10
165.8933542874416
 20
348.2498073286255
 30
0.0
 11
165.8933542874416
 21
347.5280099815567
 31
0.0
  0
ARC
  5
7EB0
330
A
100
AcDbEntity
  8
MODEL
  6
Continuous
100
AcDbCircle
 10
167.3139319072831
 20
352.1658277342652
 30
0.0
 40
4.850504538843045
100
AcDbArc
 50
232.3760662287811
 51
252.9700149615668
  0
LINE
  5
7EB1
330
A
100
AcDbEntity
  8
MODEL
  6
Continuous
100
AcDbLine
 10
164.3995678257903
 20
350.9228521293838
 30
0.0
 11
164.4495337475797
 21
351.0311165160382
 31
0.0
  0
LWPOLYLINE
  5
7EB2
330
A
100
AcDbEntity
  8
MODEL
  6
Continuous
100
AcDbPolyline
 90
       15
 70
   128
 43
0.0
 10
170.8431018722018
 20
347.6386436528409
 10
169.8012127979433
 20
347.669824332639
 10
168.7909810078105
 20
347.7624052471359
 10
167.8431018461248
 20
347.9135775274475
 10
166.9863761142602
 20
348.1187516159256
 10
166.2468354423305
 20
348.3716913766106
 10
165.6469496172627
 20
348.6647078103264
 10
165.2049462516567
 20
348.9888974732597
 10
164.9342554826995
 20
349.3344181484421
 10
164.8431018200478
 20
349.6907645172317
 10
164.9342554826995
 20
350.0471108860214
 10
165.2049462516567
 20
350.3926315612038
 10
165.6469496172627
 20
350.7168286747177
 10
166.2468354423305
 20
351.009845108434
 10
166.4113922250232
 20
351.0741510695656
  0
ARC
  5
7EB3
330
A
100
AcDbEntity
  8
MODEL
  6
Continuous
100
AcDbCircle
 10
170.7867971172287
 20
335.694452702271
 30
0.0
 40
16.04853144961094
100
AcDbArc
 50
89.79898276332739
 51
99.20030025667467
  0
LWPOLYLINE
  5
7EB4
330
A
100
AcDbEntity
  8
MODEL
  6
Continuous
100
AcDbPolyline
 90
       17
 70
   128
 43
0.0
 10
173.6110239960959
 20
351.5114777988632
 10
173.8431018982789
 20
351.4679589575966
 10
174.6998276301434
 20
351.2627848691185
 10
175.4393683020731
 20
351.009845108434
 10
176.0392541271409
 20
350.7168286747177
 10
176.481257492747
 20
350.3926315612038
 10
176.7519482617041
 20
350.0471108860214
 10
176.8431019243559
 20
349.6907645172317
 10
176.7519482617041
 20
349.3344181484421
 10
176.481257492747
 20
348.9888974732597
 10
176.0392541271409
 20
348.6647078103264
 10
175.4393683020731
 20
348.3716913766106
 10
174.6998276301434
 20
348.1187516159256
 10
173.8431018982789
 20
347.9135775274475
 10
172.8952227365932
 20
347.7624052471359
 10
171.8849909464603
 20
347.669824332639
 10
170.8431018722018
 20
347.6386436528409
  0
LWPOLYLINE
  5
7EB5
330
A
100
AcDbEntity
  8
MODEL
  6
Continuous
100
AcDbPolyline
 90
       14
 70
   128
 43
0.0
 10
170.8431018722018
 20
347.4676379269798
 10
169.7445965344792
 20
347.4996158189023
 10
168.6776933000198
 20
347.5946256226738
 10
167.6730847191772
 20
347.7499404257973
 10
166.7596719433328
 20
347.9610898799141
 10
165.9637320060989
 20
348.2220017618378
 10
165.3081624042949
 20
348.5251658863266
 10
164.8118233513793
 20
348.8618576235016
 10
164.4889929537436
 20
349.2223986691673
 10
164.3489583601018
 20
349.5964178151329
 10
164.3957489375731
 20
349.9731415218552
 10
164.6280179937145
 20
350.3417515463078
 10
165.0390837547144
 20
350.6916308111394
 10
165.6116520260235
 20
351.0101803845608
  0
ARC
  5
7EB6
330
A
100
AcDbEntity
  8
MODEL
  6
Continuous
100
AcDbCircle
 10
170.8121763390387
 20
334.0518534441079
 30
0.0
 40
17.86207188546867
100
AcDbArc
 50
89.9008007902982
 51
98.3415588560878
  0
ARC
  5
7EB7
330
A
100
AcDbEntity
  8
MODEL
  6
Continuous
100
AcDbCircle
 10
172.2195569582924
 20
341.8548757336783
 30
0.0
 40
9.941241897881687
100
AcDbArc
 50
68.93411423404172
 51
80.45361542017724
  0
LWPOLYLINE
  5
7EB8
330
A
100
AcDbEntity
  8
MODEL
  6
Continuous
100
AcDbPolyline
 90
       12
 70
   128
 43
0.0
 10
177.0974880289992
 20
350.2961167401517
 10
177.2904548068306
 20
349.9731415218552
 10
177.3372453843018
 20
349.5964178151329
 10
177.1972107906601
 20
349.2223986691673
 10
176.8743803930244
 20
348.8618576235016
 10
176.3780413401088
 20
348.5251658863266
 10
175.7224717383048
 20
348.2220017618378
 10
174.9265318010708
 20
347.9610898799141
 10
174.0131190252265
 20
347.7499404257973
 10
173.0085104443839
 20
347.5946256226738
 10
171.9416072099244
 20
347.4996158189023
 10
170.8431018722018
 20
347.4676379269798
  0
ARC
  5
7EB9
330
A
100
AcDbEntity
  8
MODEL
  6
Continuous
100
AcDbCircle
 10
165.7552625331115
 20
350.2232772771171
 30
0.0
 40
0.9220577030372514
100
AcDbArc
 50
198.8289460110778
 51
215.1379344815928
  0
LINE
  5
7EBA
330
A
100
AcDbEntity
  8
MODEL
  6
Continuous
100
AcDbLine
 10
165.1460279916188
 20
349.7783609933098
 30
0.0
 11
165.1460279916188
 21
349.5168009108742
 31
0.0
  0
ARC
  5
7EBB
330
A
100
AcDbEntity
  8
MODEL
  6
Continuous
100
AcDbCircle
 10
166.5182580003362
 20
350.8527689775523
 30
0.0
 40
1.915156879216695
100
AcDbArc
 50
224.2328729184831
 51
231.7717690497145
  0
LINE
  5
7EBC
330
A
100
AcDbEntity
  8
MODEL
  6
Continuous
100
AcDbLine
 10
166.0313246045968
 20
349.3343734449585
 30
0.0
 11
166.0313246045968
 21
348.9347317523201
 31
0.0
  0
ARC
  5
7EBD
330
A
100
AcDbEntity
  8
MODEL
  6
Continuous
100
AcDbCircle
 10
168.3782265676797
 20
354.0639228654139
 30
0.0
 40
5.640616127601758
100
AcDbArc
 50
245.4131616681255
 51
249.082305601826
  0
LINE
  5
7EBE
330
A
100
AcDbEntity
  8
MODEL
  6
Continuous
100
AcDbLine
 10
166.3643771988114
 20
348.961017400666
 30
0.0
 11
166.3643771988114
 21
348.7950557178696
 31
0.0
  0
LINE
  5
7EBF
330
A
100
AcDbEntity
  8
MODEL
  6
Continuous
100
AcDbLine
 10
166.737085042592
 20
349.0917974418838
 30
0.0
 11
166.737085042592
 21
348.6642756766518
 31
0.0
  0
ARC
  5
7EC0
330
A
100
AcDbEntity
  8
MODEL
  6
Continuous
100
AcDbCircle
 10
169.3063104217778
 20
356.6781548480061
 30
0.0
 40
8.415650802054532
100
AcDbArc
 50
252.2243070357772
 51
254.2423481133815
  0
ARC
  5
7EC1
330
A
100
AcDbEntity
  8
MODEL
  6
Continuous
100
AcDbCircle
 10
170.1837475683293
 20
360.2106017829077
 30
0.0
 40
12.05656432016902
100
AcDbArc
 50
257.2426475951819
 51
260.4176941859582
  0
ARC
  5
7EC2
330
A
100
AcDbEntity
  8
MODEL
  6
Continuous
100
AcDbCircle
 10
170.666854855224
 20
363.3042004682155
 30
0.0
 40
15.18823426109814
100
AcDbArc
 50
262.7451689161505
 51
264.106187241396
  0
LINE
  5
7EC3
330
A
100
AcDbEntity
  8
MODEL
  6
Continuous
100
AcDbLine
 10
169.1072491901701
 20
348.5337638563354
 30
0.0
 11
169.1072491901701
 21
348.1962525552948
 31
0.0
  0
LINE
  5
7EC4
330
A
100
AcDbEntity
  8
MODEL
  6
Continuous
100
AcDbLine
 10
169.6247525485938
 20
348.5787728137215
 30
0.0
 11
169.6247525485938
 21
348.1512435979092
 31
0.0
  0
ARC
  5
7EC5
330
A
100
AcDbEntity
  8
MODEL
  6
Continuous
100
AcDbCircle
 10
170.8221578717472
 20
365.0600442440985
 30
0.0
 40
16.95114505868216
100
AcDbArc
 50
265.9493323280747
 51
267.7103751678577
  0
ARC
  5
7EC6
330
A
100
AcDbEntity
  8
MODEL
  6
Continuous
100
AcDbCircle
 10
170.8640458726492
 20
365.0600442441686
 30
0.0
 40
16.95114505875276
100
AcDbArc
 50
272.2896248321574
 51
274.050667671933
  0
LINE
  5
7EC7
330
A
100
AcDbEntity
  8
MODEL
  6
Continuous
100
AcDbLine
 10
172.0614511958098
 20
348.5787728137215
 30
0.0
 11
172.0614511958098
 21
348.1512435979092
 31
0.0
  0
LINE
  5
7EC8
330
A
100
AcDbEntity
  8
MODEL
  6
Continuous
100
AcDbLine
 10
172.5789545542335
 20
348.5337638563354
 30
0.0
 11
172.5789545542335
 21
348.1962525552948
 31
0.0
  0
ARC
  5
7EC9
330
A
100
AcDbEntity
  8
MODEL
  6
Continuous
100
AcDbCircle
 10
171.0193488891179
 20
363.3042004687389
 30
0.0
 40
15.18823426162535
100
AcDbArc
 50
275.8938127586332
 51
277.2548310838315
  0
ARC
  5
7ECA
330
A
100
AcDbEntity
  8
MODEL
  6
Continuous
100
AcDbCircle
 10
171.5024561760471
 20
360.2106017830323
 30
0.0
 40
12.05656432029645
100
AcDbArc
 50
279.582305814071
 51
282.7573524048139
  0
ARC
  5
7ECB
330
A
100
AcDbEntity
  8
MODEL
  6
Continuous
100
AcDbCircle
 10
172.3798933225677
 20
356.6781548482107
 30
0.0
 40
8.415650802266754
100
AcDbArc
 50
285.7576518866209
 51
287.7756929641749
  0
LINE
  5
7ECC
330
A
100
AcDbEntity
  8
MODEL
  6
Continuous
100
AcDbLine
 10
174.9491187018117
 20
349.0917974418838
 30
0.0
 11
174.9491187018117
 21
348.6642756766518
 31
0.0
  0
LINE
  5
7ECD
330
A
100
AcDbEntity
  8
MODEL
  6
Continuous
100
AcDbLine
 10
175.3218265455922
 20
348.961017400666
 30
0.0
 11
175.3218265455922
 21
348.7950557178696
 31
0.0
  0
ARC
  5
7ECE
330
A
100
AcDbEntity
  8
MODEL
  6
Continuous
100
AcDbCircle
 10
173.3079771767985
 20
354.0639228652348
 30
0.0
 40
5.640616127407931
100
AcDbArc
 50
290.9176943981169
 51
294.5868383319437
  0
LINE
  5
7ECF
330
A
100
AcDbEntity
  8
MODEL
  6
Continuous
100
AcDbLine
 10
175.6548791398069
 20
349.3343734449585
 30
0.0
 11
175.6548791398069
 21
348.9347317523201
 31
0.0
  0
ARC
  5
7ED0
330
A
100
AcDbEntity
  8
MODEL
  6
Continuous
100
AcDbCircle
 10
175.1679457440347
 20
350.8527689775846
 30
0.0
 40
1.915156879261317
100
AcDbArc
 50
308.2282309504501
 51
315.7671270815002
  0
LINE
  5
7ED1
330
A
100
AcDbEntity
  8
MODEL
  6
Continuous
100
AcDbLine
 10
176.5401757527849
 20
349.7783609933098
 30
0.0
 11
176.5401757527849
 21
349.5168009108742
 31
0.0
  0
ARC
  5
7ED2
330
A
100
AcDbEntity
  8
MODEL
  6
Continuous
100
AcDbCircle
 10
175.9309412112794
 20
350.2232772771221
 30
0.0
 40
0.9220577030494927
100
AcDbArc
 50
324.8620655186057
 51
341.1710539889347
  0
LINE
  5
7ED3
330
A
100
AcDbEntity
  8
MODEL
  6
Continuous
100
AcDbLine
 10
175.792849456962
 20
350.9138369268616
 30
0.0
 11
176.4999561217388
 21
351.1556753224571
 31
0.0
  0
LINE
  5
7ED4
330
A
100
AcDbEntity
  8
MODEL
  6
Continuous
100
AcDbLine
 10
178.2605725546142
 20
350.2459072775085
 30
0.0
 11
177.3333887775203
 21
350.1177796429832
 31
0.0
  0
LINE
  5
7ED5
330
A
100
AcDbEntity
  8
MODEL
  6
Continuous
100
AcDbLine
 10
167.5213857759496
 20
348.4516659087379
 30
0.0
 11
167.3068314065
 21
348.5787728137215
 31
0.0
  0
LINE
  5
7ED6
330
A
100
AcDbEntity
  8
MODEL
  6
Continuous
100
AcDbLine
 10
167.3068314065
 20
348.5787728137215
 30
0.0
 11
167.0208806843272
 21
348.5787728137215
 31
0.0
  0
LINE
  5
7ED7
330
A
100
AcDbEntity
  8
MODEL
  6
Continuous
100
AcDbLine
 10
166.737085042592
 20
348.6642756766518
 30
0.0
 11
167.3068314065
 21
348.6642756766518
 31
0.0
  0
LINE
  5
7ED8
330
A
100
AcDbEntity
  8
MODEL
  6
Continuous
100
AcDbLine
 10
167.3068314065
 20
348.6642756766518
 30
0.0
 11
167.6676753648331
 21
348.8780402845581
 31
0.0
  0
LINE
  5
7ED9
330
A
100
AcDbEntity
  8
MODEL
  6
Continuous
100
AcDbLine
 10
167.6676753648331
 20
348.8780402845581
 30
0.0
 11
167.3068314065
 21
349.0917974418838
 31
0.0
  0
LINE
  5
7EDA
330
A
100
AcDbEntity
  8
MODEL
  6
Continuous
100
AcDbLine
 10
167.3068314065
 20
349.0917974418838
 30
0.0
 11
166.5851434898337
 21
349.0917974418838
 31
0.0
  0
LINE
  5
7EDB
330
A
100
AcDbEntity
  8
MODEL
  6
Continuous
100
AcDbLine
 10
166.5851434898337
 20
349.0917974418838
 30
0.0
 11
166.2242997643312
 21
348.8780402845581
 31
0.0
  0
LINE
  5
7EDC
330
A
100
AcDbEntity
  8
MODEL
  6
Continuous
100
AcDbLine
 10
166.2242997643312
 20
348.8780402845581
 30
0.0
 11
166.3643771988114
 21
348.7950557178696
 31
0.0
  0
LINE
  5
7EDD
330
A
100
AcDbEntity
  8
MODEL
  6
Continuous
100
AcDbLine
 10
166.0313246045968
 20
348.9347317523201
 30
0.0
 11
166.3686370682677
 21
349.134548873349
 31
0.0
  0
LINE
  5
7EDE
330
A
100
AcDbEntity
  8
MODEL
  6
Continuous
100
AcDbLine
 10
166.3686370682677
 20
349.134548873349
 30
0.0
 11
166.0077933427652
 21
349.3483134812553
 31
0.0
  0
LINE
  5
7EDF
330
A
100
AcDbEntity
  8
MODEL
  6
Continuous
100
AcDbLine
 10
166.0077933427652
 20
349.3483134812553
 30
0.0
 11
165.3331674841007
 21
349.3483134812553
 31
0.0
  0
LINE
  5
7EE0
330
A
100
AcDbEntity
  8
MODEL
  6
Continuous
100
AcDbLine
 10
165.1460279916188
 20
349.5168009108742
 30
0.0
 11
165.286105426099
 21
349.4338237947667
 31
0.0
  0
LINE
  5
7EE1
330
A
100
AcDbEntity
  8
MODEL
  6
Continuous
100
AcDbLine
 10
165.286105426099
 20
349.4338237947667
 30
0.0
 11
166.0077933427652
 21
349.4338237947667
 31
0.0
  0
LINE
  5
7EE2
330
A
100
AcDbEntity
  8
MODEL
  6
Continuous
100
AcDbLine
 10
166.0077933427652
 20
349.4338237947667
 30
0.0
 11
166.3686370682677
 21
349.6475809520924
 31
0.0
  0
LINE
  5
7EE3
330
A
100
AcDbEntity
  8
MODEL
  6
Continuous
100
AcDbLine
 10
166.3686370682677
 20
349.6475809520924
 30
0.0
 11
166.0077933427652
 21
349.8613455599983
 31
0.0
  0
LINE
  5
7EE4
330
A
100
AcDbEntity
  8
MODEL
  6
Continuous
100
AcDbLine
 10
166.0077933427652
 20
349.8613455599983
 30
0.0
 11
165.286105426099
 21
349.8613455599983
 31
0.0
  0
LINE
  5
7EE5
330
A
100
AcDbEntity
  8
MODEL
  6
Continuous
100
AcDbLine
 10
165.286105426099
 20
349.8613455599983
 30
0.0
 11
165.0012324769756
 21
349.692589909478
 31
0.0
  0
LINE
  5
7EE6
330
A
100
AcDbEntity
  8
MODEL
  6
Continuous
100
AcDbLine
 10
165.2827768792173
 20
350.4618549055302
 30
0.0
 11
165.286105426099
 21
350.459880501672
 31
0.0
  0
LINE
  5
7EE7
330
A
100
AcDbEntity
  8
MODEL
  6
Continuous
100
AcDbLine
 10
165.286105426099
 20
350.459880501672
 30
0.0
 11
166.0077933427652
 21
350.459880501672
 31
0.0
  0
LINE
  5
7EE8
330
A
100
AcDbEntity
  8
MODEL
  6
Continuous
100
AcDbLine
 10
166.0077933427652
 20
350.459880501672
 30
0.0
 11
166.3686370682677
 21
350.6736451095779
 31
0.0
  0
LINE
  5
7EE9
330
A
100
AcDbEntity
  8
MODEL
  6
Continuous
100
AcDbLine
 10
166.3686370682677
 20
350.6736451095779
 30
0.0
 11
166.0077933427652
 21
350.8874022669037
 31
0.0
  0
LINE
  5
7EEA
330
A
100
AcDbEntity
  8
MODEL
  6
Continuous
100
AcDbLine
 10
166.0077933427652
 20
350.8874022669037
 30
0.0
 11
165.9687993322274
 21
350.8874022669037
 31
0.0
  0
LINE
  5
7EEB
330
A
100
AcDbEntity
  8
MODEL
  6
Continuous
100
AcDbLine
 10
167.0333762393108
 20
351.2294286197861
 30
0.0
 11
167.3068314065
 21
351.2294286197861
 31
0.0
  0
LINE
  5
7EEC
330
A
100
AcDbEntity
  8
MODEL
  6
Continuous
100
AcDbLine
 10
167.3068314065
 20
351.2294286197861
 30
0.0
 11
167.4518665038755
 21
351.3153412646492
 31
0.0
  0
LINE
  5
7EED
330
A
100
AcDbEntity
  8
MODEL
  6
Continuous
100
AcDbLine
 10
174.0483206902405
 20
351.4255428022583
 30
0.0
 11
174.3793723379036
 21
351.2294286197861
 31
0.0
  0
LINE
  5
7EEE
330
A
100
AcDbEntity
  8
MODEL
  6
Continuous
100
AcDbLine
 10
174.3793723379036
 20
351.2294286197861
 30
0.0
 11
174.8131586444339
 21
351.2294286197861
 31
0.0
  0
LINE
  5
7EEF
330
A
100
AcDbEntity
  8
MODEL
  6
Continuous
100
AcDbLine
 10
175.7174044121763
 20
350.8874022669037
 30
0.0
 11
175.6784104016384
 21
350.8874022669037
 31
0.0
  0
LINE
  5
7EF0
330
A
100
AcDbEntity
  8
MODEL
  6
Continuous
100
AcDbLine
 10
175.6784104016384
 20
350.8874022669037
 30
0.0
 11
175.3175666761359
 21
350.6736451095779
 31
0.0
  0
LINE
  5
7EF1
330
A
100
AcDbEntity
  8
MODEL
  6
Continuous
100
AcDbLine
 10
175.3175666761359
 20
350.6736451095779
 30
0.0
 11
175.6784104016384
 21
350.459880501672
 31
0.0
  0
LINE
  5
7EF2
330
A
100
AcDbEntity
  8
MODEL
  6
Continuous
100
AcDbLine
 10
175.6784104016384
 20
350.459880501672
 30
0.0
 11
176.4000983183047
 21
350.459880501672
 31
0.0
  0
LINE
  5
7EF3
330
A
100
AcDbEntity
  8
MODEL
  6
Continuous
100
AcDbLine
 10
176.4000983183047
 20
350.459880501672
 30
0.0
 11
176.4034268651864
 21
350.4618549055302
 31
0.0
  0
LINE
  5
7EF4
330
A
100
AcDbEntity
  8
MODEL
  6
Continuous
100
AcDbLine
 10
176.6849712674281
 20
349.692589909478
 30
0.0
 11
176.4000983183047
 21
349.8613455599983
 31
0.0
  0
LINE
  5
7EF5
330
A
100
AcDbEntity
  8
MODEL
  6
Continuous
100
AcDbLine
 10
176.4000983183047
 20
349.8613455599983
 30
0.0
 11
175.6784104016384
 21
349.8613455599983
 31
0.0
  0
LINE
  5
7EF6
330
A
100
AcDbEntity
  8
MODEL
  6
Continuous
100
AcDbLine
 10
175.6784104016384
 20
349.8613455599983
 30
0.0
 11
175.3175666761359
 21
349.6475809520924
 31
0.0
  0
LINE
  5
7EF7
330
A
100
AcDbEntity
  8
MODEL
  6
Continuous
100
AcDbLine
 10
175.3175666761359
 20
349.6475809520924
 30
0.0
 11
175.6784104016384
 21
349.4338237947667
 31
0.0
  0
LINE
  5
7EF8
330
A
100
AcDbEntity
  8
MODEL
  6
Continuous
100
AcDbLine
 10
175.6784104016384
 20
349.4338237947667
 30
0.0
 11
176.4000983183047
 21
349.4338237947667
 31
0.0
  0
LINE
  5
7EF9
330
A
100
AcDbEntity
  8
MODEL
  6
Continuous
100
AcDbLine
 10
176.4000983183047
 20
349.4338237947667
 30
0.0
 11
176.5401757527849
 21
349.5168009108742
 31
0.0
  0
LINE
  5
7EFA
330
A
100
AcDbEntity
  8
MODEL
  6
Continuous
100
AcDbLine
 10
176.3530362603029
 20
349.3483134812553
 30
0.0
 11
175.6784104016384
 21
349.3483134812553
 31
0.0
  0
LINE
  5
7EFB
330
A
100
AcDbEntity
  8
MODEL
  6
Continuous
100
AcDbLine
 10
175.6784104016384
 20
349.3483134812553
 30
0.0
 11
175.3175666761359
 21
349.134548873349
 31
0.0
  0
LINE
  5
7EFC
330
A
100
AcDbEntity
  8
MODEL
  6
Continuous
100
AcDbLine
 10
175.3175666761359
 20
349.134548873349
 30
0.0
 11
175.6548791398069
 21
348.9347317523201
 31
0.0
  0
LINE
  5
7EFD
330
A
100
AcDbEntity
  8
MODEL
  6
Continuous
100
AcDbLine
 10
175.3218265455922
 20
348.7950557178696
 30
0.0
 11
175.4619039800724
 21
348.8780402845581
 31
0.0
  0
LINE
  5
7EFE
330
A
100
AcDbEntity
  8
MODEL
  6
Continuous
100
AcDbLine
 10
175.4619039800724
 20
348.8780402845581
 30
0.0
 11
175.1010602545699
 21
349.0917974418838
 31
0.0
  0
LINE
  5
7EFF
330
A
100
AcDbEntity
  8
MODEL
  6
Continuous
100
AcDbLine
 10
175.1010602545699
 20
349.0917974418838
 30
0.0
 11
174.3793723379036
 21
349.0917974418838
 31
0.0
  0
LINE
  5
7F00
330
A
100
AcDbEntity
  8
MODEL
  6
Continuous
100
AcDbLine
 10
174.3793723379036
 20
349.0917974418838
 30
0.0
 11
174.0185283795705
 21
348.8780402845581
 31
0.0
  0
LINE
  5
7F01
330
A
100
AcDbEntity
  8
MODEL
  6
Continuous
100
AcDbLine
 10
174.0185283795705
 20
348.8780402845581
 30
0.0
 11
174.3793723379036
 21
348.6642756766518
 31
0.0
  0
LINE
  5
7F02
330
A
100
AcDbEntity
  8
MODEL
  6
Continuous
100
AcDbLine
 10
174.3793723379036
 20
348.6642756766518
 30
0.0
 11
174.9491187018117
 21
348.6642756766518
 31
0.0
  0
LINE
  5
7F03
330
A
100
AcDbEntity
  8
MODEL
  6
Continuous
100
AcDbLine
 10
174.6653230600765
 20
348.5787728137215
 30
0.0
 11
174.3793723379036
 21
348.5787728137215
 31
0.0
  0
LINE
  5
7F04
330
A
100
AcDbEntity
  8
MODEL
  6
Continuous
100
AcDbLine
 10
174.3793723379036
 20
348.5787728137215
 30
0.0
 11
174.164817968454
 21
348.4516659087379
 31
0.0
  0
LINE
  5
7F05
330
A
100
AcDbEntity
  8
MODEL
  6
Continuous
100
AcDbLine
 10
173.5094430130681
 20
348.32225677435
 30
0.0
 11
173.0803342741689
 21
348.32225677435
 31
0.0
  0
LINE
  5
7F06
330
A
100
AcDbEntity
  8
MODEL
  6
Continuous
100
AcDbLine
 10
173.0803342741689
 20
348.32225677435
 30
0.0
 11
172.9373587966671
 21
348.2375585741246
 31
0.0
  0
LINE
  5
7F07
330
A
100
AcDbEntity
  8
MODEL
  6
Continuous
100
AcDbLine
 10
172.5789545542335
 20
348.1962525552948
 30
0.0
 11
172.8638278526029
 21
348.3650082058151
 31
0.0
  0
LINE
  5
7F08
330
A
100
AcDbEntity
  8
MODEL
  6
Continuous
100
AcDbLine
 10
172.8638278526029
 20
348.3650082058151
 30
0.0
 11
172.5029838942697
 21
348.5787728137215
 31
0.0
  0
LINE
  5
7F09
330
A
100
AcDbEntity
  8
MODEL
  6
Continuous
100
AcDbLine
 10
172.5029838942697
 20
348.5787728137215
 30
0.0
 11
171.7812960358111
 21
348.5787728137215
 31
0.0
  0
LINE
  5
7F0A
330
A
100
AcDbEntity
  8
MODEL
  6
Continuous
100
AcDbLine
 10
171.7812960358111
 20
348.5787728137215
 30
0.0
 11
171.4204521356857
 21
348.3650082058151
 31
0.0
  0
LINE
  5
7F0B
330
A
100
AcDbEntity
  8
MODEL
  6
Continuous
100
AcDbLine
 10
171.4204521356857
 20
348.3650082058151
 30
0.0
 11
171.7812960358111
 21
348.1512435979092
 31
0.0
  0
LINE
  5
7F0C
330
A
100
AcDbEntity
  8
MODEL
  6
Continuous
100
AcDbLine
 10
171.7812960358111
 20
348.1512435979092
 30
0.0
 11
172.0614511958098
 21
348.1512435979092
 31
0.0
  0
LINE
  5
7F0D
330
A
100
AcDbEntity
  8
MODEL
  6
Continuous
100
AcDbLine
 10
171.5412586434519
 20
348.1224322027405
 30
0.0
 11
171.2039458014311
 21
348.32225677435
 31
0.0
  0
LINE
  5
7F0E
330
A
100
AcDbEntity
  8
MODEL
  6
Continuous
100
AcDbLine
 10
171.2039458014311
 20
348.32225677435
 30
0.0
 11
170.4822579429725
 21
348.32225677435
 31
0.0
  0
LINE
  5
7F0F
330
A
100
AcDbEntity
  8
MODEL
  6
Continuous
100
AcDbLine
 10
170.4822579429725
 20
348.32225677435
 30
0.0
 11
170.1449451009518
 21
348.1224322027405
 31
0.0
  0
LINE
  5
7F10
330
A
100
AcDbEntity
  8
MODEL
  6
Continuous
100
AcDbLine
 10
169.6247525485938
 20
348.1512435979092
 30
0.0
 11
169.9049077085925
 21
348.1512435979092
 31
0.0
  0
LINE
  5
7F11
330
A
100
AcDbEntity
  8
MODEL
  6
Continuous
100
AcDbLine
 10
169.9049077085925
 20
348.1512435979092
 30
0.0
 11
170.265751608718
 21
348.3650082058151
 31
0.0
  0
LINE
  5
7F12
330
A
100
AcDbEntity
  8
MODEL
  6
Continuous
100
AcDbLine
 10
170.265751608718
 20
348.3650082058151
 30
0.0
 11
169.9049077085925
 21
348.5787728137215
 31
0.0
  0
LINE
  5
7F13
330
A
100
AcDbEntity
  8
MODEL
  6
Continuous
100
AcDbLine
 10
169.9049077085925
 20
348.5787728137215
 30
0.0
 11
169.1832198501339
 21
348.5787728137215
 31
0.0
  0
LINE
  5
7F14
330
A
100
AcDbEntity
  8
MODEL
  6
Continuous
100
AcDbLine
 10
169.1832198501339
 20
348.5787728137215
 30
0.0
 11
168.8223758918008
 21
348.3650082058151
 31
0.0
  0
LINE
  5
7F15
330
A
100
AcDbEntity
  8
MODEL
  6
Continuous
100
AcDbLine
 10
168.8223758918008
 20
348.3650082058151
 30
0.0
 11
169.1072491901701
 21
348.1962525552948
 31
0.0
  0
LINE
  5
7F16
330
A
100
AcDbEntity
  8
MODEL
  6
Continuous
100
AcDbLine
 10
168.7488449477365
 20
348.2375585741246
 30
0.0
 11
168.6058694702348
 21
348.32225677435
 31
0.0
  0
LINE
  5
7F17
330
A
100
AcDbEntity
  8
MODEL
  6
Continuous
100
AcDbLine
 10
168.6058694702348
 20
348.32225677435
 30
0.0
 11
168.1767607313355
 21
348.32225677435
 31
0.0
  0
LINE
  5
7F18
330
A
100
AcDbEntity
  8
MODEL
  6
Continuous
100
AcDbLine
 10
169.9049077085925
 20
350.1178615993703
 30
0.0
 11
169.1832198501339
 21
350.1178615993703
 31
0.0
  0
LINE
  5
7F19
330
A
100
AcDbEntity
  8
MODEL
  6
Continuous
100
AcDbLine
 10
169.1832198501339
 20
350.1178615993703
 30
0.0
 11
168.8223758918008
 21
349.9040969914635
 31
0.0
  0
LINE
  5
7F1A
330
A
100
AcDbEntity
  8
MODEL
  6
Continuous
100
AcDbLine
 10
168.8223758918008
 20
349.9040969914635
 30
0.0
 11
169.1832198501339
 21
349.6903323835571
 31
0.0
  0
LINE
  5
7F1B
330
A
100
AcDbEntity
  8
MODEL
  6
Continuous
100
AcDbLine
 10
169.1832198501339
 20
349.6903323835571
 30
0.0
 11
169.9049077085925
 21
349.6903323835571
 31
0.0
  0
LINE
  5
7F1C
330
A
100
AcDbEntity
  8
MODEL
  6
Continuous
100
AcDbLine
 10
169.9049077085925
 20
349.6903323835571
 30
0.0
 11
170.265751608718
 21
349.9040969914635
 31
0.0
  0
LINE
  5
7F1D
330
A
100
AcDbEntity
  8
MODEL
  6
Continuous
100
AcDbLine
 10
170.265751608718
 20
349.9040969914635
 30
0.0
 11
169.9049077085925
 21
350.1178615993703
 31
0.0
  0
LINE
  5
7F1E
330
A
100
AcDbEntity
  8
MODEL
  6
Continuous
100
AcDbLine
 10
168.6058694702348
 20
350.3743776387413
 30
0.0
 11
167.8841817863992
 21
350.3743776387413
 31
0.0
  0
LINE
  5
7F1F
330
A
100
AcDbEntity
  8
MODEL
  6
Continuous
100
AcDbLine
 10
167.8841817863992
 20
350.3743776387413
 30
0.0
 11
167.523337828066
 21
350.160613030835
 31
0.0
  0
LINE
  5
7F20
330
A
100
AcDbEntity
  8
MODEL
  6
Continuous
100
AcDbLine
 10
167.523337828066
 20
350.160613030835
 30
0.0
 11
167.8841817863992
 21
349.9468484229286
 31
0.0
  0
LINE
  5
7F21
330
A
100
AcDbEntity
  8
MODEL
  6
Continuous
100
AcDbLine
 10
167.8841817863992
 20
349.9468484229286
 30
0.0
 11
168.6058694702348
 21
349.9468484229286
 31
0.0
  0
LINE
  5
7F22
330
A
100
AcDbEntity
  8
MODEL
  6
Continuous
100
AcDbLine
 10
168.6058694702348
 20
349.9468484229286
 30
0.0
 11
168.9667135449832
 21
350.160613030835
 31
0.0
  0
LINE
  5
7F23
330
A
100
AcDbEntity
  8
MODEL
  6
Continuous
100
AcDbLine
 10
168.9667135449832
 20
350.160613030835
 30
0.0
 11
168.6058694702348
 21
350.3743776387413
 31
0.0
  0
LINE
  5
7F24
330
A
100
AcDbEntity
  8
MODEL
  6
Continuous
100
AcDbLine
 10
167.3068314065
 20
350.1178615993703
 30
0.0
 11
166.5851434898337
 21
350.1178615993703
 31
0.0
  0
LINE
  5
7F25
330
A
100
AcDbEntity
  8
MODEL
  6
Continuous
100
AcDbLine
 10
166.5851434898337
 20
350.1178615993703
 30
0.0
 11
166.2242997643312
 21
349.9040969914635
 31
0.0
  0
LINE
  5
7F26
330
A
100
AcDbEntity
  8
MODEL
  6
Continuous
100
AcDbLine
 10
166.2242997643312
 20
349.9040969914635
 30
0.0
 11
166.5851434898337
 21
349.6903323835571
 31
0.0
  0
LINE
  5
7F27
330
A
100
AcDbEntity
  8
MODEL
  6
Continuous
100
AcDbLine
 10
166.5851434898337
 20
349.6903323835571
 30
0.0
 11
167.3068314065
 21
349.6903323835571
 31
0.0
  0
LINE
  5
7F28
330
A
100
AcDbEntity
  8
MODEL
  6
Continuous
100
AcDbLine
 10
167.3068314065
 20
349.6903323835571
 30
0.0
 11
167.6676753648331
 21
349.9040969914635
 31
0.0
  0
LINE
  5
7F29
330
A
100
AcDbEntity
  8
MODEL
  6
Continuous
100
AcDbLine
 10
167.6676753648331
 20
349.9040969914635
 30
0.0
 11
167.3068314065
 21
350.1178615993703
 31
0.0
  0
LINE
  5
7F2A
330
A
100
AcDbEntity
  8
MODEL
  6
Continuous
100
AcDbLine
 10
166.0077933427652
 20
350.3743776387413
 30
0.0
 11
165.286105426099
 21
350.3743776387413
 31
0.0
  0
LINE
  5
7F2B
330
A
100
AcDbEntity
  8
MODEL
  6
Continuous
100
AcDbLine
 10
165.286105426099
 20
350.3743776387413
 30
0.0
 11
165.0645274874529
 21
350.2431133097847
 31
0.0
  0
LINE
  5
7F2C
330
A
100
AcDbEntity
  8
MODEL
  6
Continuous
100
AcDbLine
 10
164.9807196316084
 20
350.1277634209831
 30
0.0
 11
165.286105426099
 21
349.9468484229286
 31
0.0
  0
LINE
  5
7F2D
330
A
100
AcDbEntity
  8
MODEL
  6
Continuous
100
AcDbLine
 10
165.286105426099
 20
349.9468484229286
 30
0.0
 11
166.0077933427652
 21
349.9468484229286
 31
0.0
  0
LINE
  5
7F2E
330
A
100
AcDbEntity
  8
MODEL
  6
Continuous
100
AcDbLine
 10
166.0077933427652
 20
349.9468484229286
 30
0.0
 11
166.3686370682677
 21
350.160613030835
 31
0.0
  0
LINE
  5
7F2F
330
A
100
AcDbEntity
  8
MODEL
  6
Continuous
100
AcDbLine
 10
166.3686370682677
 20
350.160613030835
 30
0.0
 11
166.0077933427652
 21
350.3743776387413
 31
0.0
  0
LINE
  5
7F30
330
A
100
AcDbEntity
  8
MODEL
  6
Continuous
100
AcDbLine
 10
172.5029838942697
 20
350.1178615993703
 30
0.0
 11
171.7812960358111
 21
350.1178615993703
 31
0.0
  0
LINE
  5
7F31
330
A
100
AcDbEntity
  8
MODEL
  6
Continuous
100
AcDbLine
 10
171.7812960358111
 20
350.1178615993703
 30
0.0
 11
171.4204521356857
 21
349.9040969914635
 31
0.0
  0
LINE
  5
7F32
330
A
100
AcDbEntity
  8
MODEL
  6
Continuous
100
AcDbLine
 10
171.4204521356857
 20
349.9040969914635
 30
0.0
 11
171.7812960358111
 21
349.6903323835571
 31
0.0
  0
LINE
  5
7F33
330
A
100
AcDbEntity
  8
MODEL
  6
Continuous
100
AcDbLine
 10
171.7812960358111
 20
349.6903323835571
 30
0.0
 11
172.5029838942697
 21
349.6903323835571
 31
0.0
  0
LINE
  5
7F34
330
A
100
AcDbEntity
  8
MODEL
  6
Continuous
100
AcDbLine
 10
172.5029838942697
 20
349.6903323835571
 30
0.0
 11
172.8638278526029
 21
349.9040969914635
 31
0.0
  0
LINE
  5
7F35
330
A
100
AcDbEntity
  8
MODEL
  6
Continuous
100
AcDbLine
 10
172.8638278526029
 20
349.9040969914635
 30
0.0
 11
172.5029838942697
 21
350.1178615993703
 31
0.0
  0
LINE
  5
7F36
330
A
100
AcDbEntity
  8
MODEL
  6
Continuous
100
AcDbLine
 10
173.8020219580045
 20
350.3743776387413
 30
0.0
 11
173.0803342741689
 21
350.3743776387413
 31
0.0
  0
LINE
  5
7F37
330
A
100
AcDbEntity
  8
MODEL
  6
Continuous
100
AcDbLine
 10
173.0803342741689
 20
350.3743776387413
 30
0.0
 11
172.7194901994204
 21
350.160613030835
 31
0.0
  0
LINE
  5
7F38
330
A
100
AcDbEntity
  8
MODEL
  6
Continuous
100
AcDbLine
 10
172.7194901994204
 20
350.160613030835
 30
0.0
 11
173.0803342741689
 21
349.9468484229286
 31
0.0
  0
LINE
  5
7F39
330
A
100
AcDbEntity
  8
MODEL
  6
Continuous
100
AcDbLine
 10
173.0803342741689
 20
349.9468484229286
 30
0.0
 11
173.8020219580045
 21
349.9468484229286
 31
0.0
  0
LINE
  5
7F3A
330
A
100
AcDbEntity
  8
MODEL
  6
Continuous
100
AcDbLine
 10
173.8020219580045
 20
349.9468484229286
 30
0.0
 11
174.1628659163376
 21
350.160613030835
 31
0.0
  0
LINE
  5
7F3B
330
A
100
AcDbEntity
  8
MODEL
  6
Continuous
100
AcDbLine
 10
174.1628659163376
 20
350.160613030835
 30
0.0
 11
173.8020219580045
 21
350.3743776387413
 31
0.0
  0
LINE
  5
7F3C
330
A
100
AcDbEntity
  8
MODEL
  6
Continuous
100
AcDbLine
 10
175.1010602545699
 20
350.1178615993703
 30
0.0
 11
174.3793723379036
 21
350.1178615993703
 31
0.0
  0
LINE
  5
7F3D
330
A
100
AcDbEntity
  8
MODEL
  6
Continuous
100
AcDbLine
 10
174.3793723379036
 20
350.1178615993703
 30
0.0
 11
174.0185283795705
 21
349.9040969914635
 31
0.0
  0
LINE
  5
7F3E
330
A
100
AcDbEntity
  8
MODEL
  6
Continuous
100
AcDbLine
 10
174.0185283795705
 20
349.9040969914635
 30
0.0
 11
174.3793723379036
 21
349.6903323835571
 31
0.0
  0
LINE
  5
7F3F
330
A
100
AcDbEntity
  8
MODEL
  6
Continuous
100
AcDbLine
 10
174.3793723379036
 20
349.6903323835571
 30
0.0
 11
175.1010602545699
 21
349.6903323835571
 31
0.0
  0
LINE
  5
7F40
330
A
100
AcDbEntity
  8
MODEL
  6
Continuous
100
AcDbLine
 10
175.1010602545699
 20
349.6903323835571
 30
0.0
 11
175.4619039800724
 21
349.9040969914635
 31
0.0
  0
LINE
  5
7F41
330
A
100
AcDbEntity
  8
MODEL
  6
Continuous
100
AcDbLine
 10
175.4619039800724
 20
349.9040969914635
 30
0.0
 11
175.1010602545699
 21
350.1178615993703
 31
0.0
  0
LINE
  5
7F42
330
A
100
AcDbEntity
  8
MODEL
  6
Continuous
100
AcDbLine
 10
176.4000983183047
 20
350.3743776387413
 30
0.0
 11
175.6784104016384
 21
350.3743776387413
 31
0.0
  0
LINE
  5
7F43
330
A
100
AcDbEntity
  8
MODEL
  6
Continuous
100
AcDbLine
 10
175.6784104016384
 20
350.3743776387413
 30
0.0
 11
175.3175666761359
 21
350.160613030835
 31
0.0
  0
LINE
  5
7F44
330
A
100
AcDbEntity
  8
MODEL
  6
Continuous
100
AcDbLine
 10
175.3175666761359
 20
350.160613030835
 30
0.0
 11
175.6784104016384
 21
349.9468484229286
 31
0.0
  0
LINE
  5
7F45
330
A
100
AcDbEntity
  8
MODEL
  6
Continuous
100
AcDbLine
 10
175.6784104016384
 20
349.9468484229286
 30
0.0
 11
176.4000983183047
 21
349.9468484229286
 31
0.0
  0
LINE
  5
7F46
330
A
100
AcDbEntity
  8
MODEL
  6
Continuous
100
AcDbLine
 10
176.4000983183047
 20
349.9468484229286
 30
0.0
 11
176.7054841127953
 21
350.1277634209831
 31
0.0
  0
LINE
  5
7F47
330
A
100
AcDbEntity
  8
MODEL
  6
Continuous
100
AcDbLine
 10
176.6216762569508
 20
350.2431133097847
 30
0.0
 11
176.4000983183047
 21
350.3743776387413
 31
0.0
  0
LINE
  5
7F48
330
A
100
AcDbEntity
  8
MODEL
  6
Continuous
100
AcDbLine
 10
171.2039458014311
 20
350.8874022669037
 30
0.0
 11
170.4822579429725
 21
350.8874022669037
 31
0.0
  0
LINE
  5
7F49
330
A
100
AcDbEntity
  8
MODEL
  6
Continuous
100
AcDbLine
 10
170.4822579429725
 20
350.8874022669037
 30
0.0
 11
170.1214140137432
 21
350.6736451095779
 31
0.0
  0
LINE
  5
7F4A
330
A
100
AcDbEntity
  8
MODEL
  6
Continuous
100
AcDbLine
 10
170.1214140137432
 20
350.6736451095779
 30
0.0
 11
170.4822579429725
 21
350.459880501672
 31
0.0
  0
LINE
  5
7F4B
330
A
100
AcDbEntity
  8
MODEL
  6
Continuous
100
AcDbLine
 10
170.4822579429725
 20
350.459880501672
 30
0.0
 11
171.2039458014311
 21
350.459880501672
 31
0.0
  0
LINE
  5
7F4C
330
A
100
AcDbEntity
  8
MODEL
  6
Continuous
100
AcDbLine
 10
171.2039458014311
 20
350.459880501672
 30
0.0
 11
171.5647897306604
 21
350.6736451095779
 31
0.0
  0
LINE
  5
7F4D
330
A
100
AcDbEntity
  8
MODEL
  6
Continuous
100
AcDbLine
 10
171.5647897306604
 20
350.6736451095779
 30
0.0
 11
171.2039458014311
 21
350.8874022669037
 31
0.0
  0
LINE
  5
7F4E
330
A
100
AcDbEntity
  8
MODEL
  6
Continuous
100
AcDbLine
 10
169.9049077085925
 20
350.6308936781128
 30
0.0
 11
169.1832198501339
 21
350.6308936781128
 31
0.0
  0
LINE
  5
7F4F
330
A
100
AcDbEntity
  8
MODEL
  6
Continuous
100
AcDbLine
 10
169.1832198501339
 20
350.6308936781128
 30
0.0
 11
168.8223758918008
 21
350.4171290702064
 31
0.0
  0
LINE
  5
7F50
330
A
100
AcDbEntity
  8
MODEL
  6
Continuous
100
AcDbLine
 10
168.8223758918008
 20
350.4171290702064
 30
0.0
 11
169.1832198501339
 21
350.2033644623001
 31
0.0
  0
LINE
  5
7F51
330
A
100
AcDbEntity
  8
MODEL
  6
Continuous
100
AcDbLine
 10
169.1832198501339
 20
350.2033644623001
 30
0.0
 11
169.9049077085925
 21
350.2033644623001
 31
0.0
  0
LINE
  5
7F52
330
A
100
AcDbEntity
  8
MODEL
  6
Continuous
100
AcDbLine
 10
169.9049077085925
 20
350.2033644623001
 30
0.0
 11
170.265751608718
 21
350.4171290702064
 31
0.0
  0
LINE
  5
7F53
330
A
100
AcDbEntity
  8
MODEL
  6
Continuous
100
AcDbLine
 10
170.265751608718
 20
350.4171290702064
 30
0.0
 11
169.9049077085925
 21
350.6308936781128
 31
0.0
  0
LINE
  5
7F54
330
A
100
AcDbEntity
  8
MODEL
  6
Continuous
100
AcDbLine
 10
168.6058694702348
 20
350.8874022669037
 30
0.0
 11
167.8841817863992
 21
350.8874022669037
 31
0.0
  0
LINE
  5
7F55
330
A
100
AcDbEntity
  8
MODEL
  6
Continuous
100
AcDbLine
 10
167.8841817863992
 20
350.8874022669037
 30
0.0
 11
167.523337828066
 21
350.6736451095779
 31
0.0
  0
LINE
  5
7F56
330
A
100
AcDbEntity
  8
MODEL
  6
Continuous
100
AcDbLine
 10
167.523337828066
 20
350.6736451095779
 30
0.0
 11
167.8841817863992
 21
350.459880501672
 31
0.0
  0
LINE
  5
7F57
330
A
100
AcDbEntity
  8
MODEL
  6
Continuous
100
AcDbLine
 10
167.8841817863992
 20
350.459880501672
 30
0.0
 11
168.6058694702348
 21
350.459880501672
 31
0.0
  0
LINE
  5
7F58
330
A
100
AcDbEntity
  8
MODEL
  6
Continuous
100
AcDbLine
 10
168.6058694702348
 20
350.459880501672
 30
0.0
 11
168.9667135449832
 21
350.6736451095779
 31
0.0
  0
LINE
  5
7F59
330
A
100
AcDbEntity
  8
MODEL
  6
Continuous
100
AcDbLine
 10
168.9667135449832
 20
350.6736451095779
 30
0.0
 11
168.6058694702348
 21
350.8874022669037
 31
0.0
  0
LINE
  5
7F5A
330
A
100
AcDbEntity
  8
MODEL
  6
Continuous
100
AcDbLine
 10
172.5029838942697
 20
350.6308936781128
 30
0.0
 11
171.7812960358111
 21
350.6308936781128
 31
0.0
  0
LINE
  5
7F5B
330
A
100
AcDbEntity
  8
MODEL
  6
Continuous
100
AcDbLine
 10
171.7812960358111
 20
350.6308936781128
 30
0.0
 11
171.4204521356857
 21
350.4171290702064
 31
0.0
  0
LINE
  5
7F5C
330
A
100
AcDbEntity
  8
MODEL
  6
Continuous
100
AcDbLine
 10
171.4204521356857
 20
350.4171290702064
 30
0.0
 11
171.7812960358111
 21
350.2033644623001
 31
0.0
  0
LINE
  5
7F5D
330
A
100
AcDbEntity
  8
MODEL
  6
Continuous
100
AcDbLine
 10
171.7812960358111
 20
350.2033644623001
 30
0.0
 11
172.5029838942697
 21
350.2033644623001
 31
0.0
  0
LINE
  5
7F5E
330
A
100
AcDbEntity
  8
MODEL
  6
Continuous
100
AcDbLine
 10
172.5029838942697
 20
350.2033644623001
 30
0.0
 11
172.8638278526029
 21
350.4171290702064
 31
0.0
  0
LINE
  5
7F5F
330
A
100
AcDbEntity
  8
MODEL
  6
Continuous
100
AcDbLine
 10
172.8638278526029
 20
350.4171290702064
 30
0.0
 11
172.5029838942697
 21
350.6308936781128
 31
0.0
  0
LINE
  5
7F60
330
A
100
AcDbEntity
  8
MODEL
  6
Continuous
100
AcDbLine
 10
173.8020219580045
 20
350.8874022669037
 30
0.0
 11
173.0803342741689
 21
350.8874022669037
 31
0.0
  0
LINE
  5
7F61
330
A
100
AcDbEntity
  8
MODEL
  6
Continuous
100
AcDbLine
 10
173.0803342741689
 20
350.8874022669037
 30
0.0
 11
172.7194901994204
 21
350.6736451095779
 31
0.0
  0
LINE
  5
7F62
330
A
100
AcDbEntity
  8
MODEL
  6
Continuous
100
AcDbLine
 10
172.7194901994204
 20
350.6736451095779
 30
0.0
 11
173.0803342741689
 21
350.459880501672
 31
0.0
  0
LINE
  5
7F63
330
A
100
AcDbEntity
  8
MODEL
  6
Continuous
100
AcDbLine
 10
173.0803342741689
 20
350.459880501672
 30
0.0
 11
173.8020219580045
 21
350.459880501672
 31
0.0
  0
LINE
  5
7F64
330
A
100
AcDbEntity
  8
MODEL
  6
Continuous
100
AcDbLine
 10
173.8020219580045
 20
350.459880501672
 30
0.0
 11
174.1628659163376
 21
350.6736451095779
 31
0.0
  0
LINE
  5
7F65
330
A
100
AcDbEntity
  8
MODEL
  6
Continuous
100
AcDbLine
 10
174.1628659163376
 20
350.6736451095779
 30
0.0
 11
173.8020219580045
 21
350.8874022669037
 31
0.0
  0
LINE
  5
7F66
330
A
100
AcDbEntity
  8
MODEL
  6
Continuous
100
AcDbLine
 10
175.1010602545699
 20
350.6308936781128
 30
0.0
 11
174.3793723379036
 21
350.6308936781128
 31
0.0
  0
LINE
  5
7F67
330
A
100
AcDbEntity
  8
MODEL
  6
Continuous
100
AcDbLine
 10
174.3793723379036
 20
350.6308936781128
 30
0.0
 11
174.0185283795705
 21
350.4171290702064
 31
0.0
  0
LINE
  5
7F68
330
A
100
AcDbEntity
  8
MODEL
  6
Continuous
100
AcDbLine
 10
174.0185283795705
 20
350.4171290702064
 30
0.0
 11
174.3793723379036
 21
350.2033644623001
 31
0.0
  0
LINE
  5
7F69
330
A
100
AcDbEntity
  8
MODEL
  6
Continuous
100
AcDbLine
 10
174.3793723379036
 20
350.2033644623001
 30
0.0
 11
175.1010602545699
 21
350.2033644623001
 31
0.0
  0
LINE
  5
7F6A
330
A
100
AcDbEntity
  8
MODEL
  6
Continuous
100
AcDbLine
 10
175.1010602545699
 20
350.2033644623001
 30
0.0
 11
175.4619039800724
 21
350.4171290702064
 31
0.0
  0
LINE
  5
7F6B
330
A
100
AcDbEntity
  8
MODEL
  6
Continuous
100
AcDbLine
 10
175.4619039800724
 20
350.4171290702064
 30
0.0
 11
175.1010602545699
 21
350.6308936781128
 31
0.0
  0
LINE
  5
7F6C
330
A
100
AcDbEntity
  8
MODEL
  6
Continuous
100
AcDbLine
 10
171.2039458014311
 20
351.4004343456467
 30
0.0
 11
170.4822579429725
 21
351.4004343456467
 31
0.0
  0
LINE
  5
7F6D
330
A
100
AcDbEntity
  8
MODEL
  6
Continuous
100
AcDbLine
 10
170.4822579429725
 20
351.4004343456467
 30
0.0
 11
170.1214140137432
 21
351.1866697377403
 31
0.0
  0
LINE
  5
7F6E
330
A
100
AcDbEntity
  8
MODEL
  6
Continuous
100
AcDbLine
 10
170.1214140137432
 20
351.1866697377403
 30
0.0
 11
170.4822579429725
 21
350.9729125804146
 31
0.0
  0
LINE
  5
7F6F
330
A
100
AcDbEntity
  8
MODEL
  6
Continuous
100
AcDbLine
 10
170.4822579429725
 20
350.9729125804146
 30
0.0
 11
171.2039458014311
 21
350.9729125804146
 31
0.0
  0
LINE
  5
7F70
330
A
100
AcDbEntity
  8
MODEL
  6
Continuous
100
AcDbLine
 10
171.2039458014311
 20
350.9729125804146
 30
0.0
 11
171.5647897306604
 21
351.1866697377403
 31
0.0
  0
LINE
  5
7F71
330
A
100
AcDbEntity
  8
MODEL
  6
Continuous
100
AcDbLine
 10
171.5647897306604
 20
351.1866697377403
 30
0.0
 11
171.2039458014311
 21
351.4004343456467
 31
0.0
  0
LINE
  5
7F72
330
A
100
AcDbEntity
  8
MODEL
  6
Continuous
100
AcDbLine
 10
169.9049077085925
 20
351.1439183062756
 30
0.0
 11
169.1832198501339
 21
351.1439183062756
 31
0.0
  0
LINE
  5
7F73
330
A
100
AcDbEntity
  8
MODEL
  6
Continuous
100
AcDbLine
 10
169.1832198501339
 20
351.1439183062756
 30
0.0
 11
168.8223758918008
 21
350.9301611489499
 31
0.0
  0
LINE
  5
7F74
330
A
100
AcDbEntity
  8
MODEL
  6
Continuous
100
AcDbLine
 10
168.8223758918008
 20
350.9301611489499
 30
0.0
 11
169.1832198501339
 21
350.7163965410431
 31
0.0
  0
LINE
  5
7F75
330
A
100
AcDbEntity
  8
MODEL
  6
Continuous
100
AcDbLine
 10
169.1832198501339
 20
350.7163965410431
 30
0.0
 11
169.9049077085925
 21
350.7163965410431
 31
0.0
  0
LINE
  5
7F76
330
A
100
AcDbEntity
  8
MODEL
  6
Continuous
100
AcDbLine
 10
169.9049077085925
 20
350.7163965410431
 30
0.0
 11
170.265751608718
 21
350.9301611489499
 31
0.0
  0
LINE
  5
7F77
330
A
100
AcDbEntity
  8
MODEL
  6
Continuous
100
AcDbLine
 10
170.265751608718
 20
350.9301611489499
 30
0.0
 11
169.9049077085925
 21
351.1439183062756
 31
0.0
  0
LINE
  5
7F78
330
A
100
AcDbEntity
  8
MODEL
  6
Continuous
100
AcDbLine
 10
168.6058694702348
 20
351.4004343456467
 30
0.0
 11
167.9462877307793
 21
351.4004343456467
 31
0.0
  0
LINE
  5
7F79
330
A
100
AcDbEntity
  8
MODEL
  6
Continuous
100
AcDbLine
 10
167.8615459912231
 20
351.3870233005722
 30
0.0
 11
167.523337828066
 21
351.1866697377403
 31
0.0
  0
LINE
  5
7F7A
330
A
100
AcDbEntity
  8
MODEL
  6
Continuous
100
AcDbLine
 10
167.523337828066
 20
351.1866697377403
 30
0.0
 11
167.8841817863992
 21
350.9729125804146
 31
0.0
  0
LINE
  5
7F7B
330
A
100
AcDbEntity
  8
MODEL
  6
Continuous
100
AcDbLine
 10
167.8841817863992
 20
350.9729125804146
 30
0.0
 11
168.6058694702348
 21
350.9729125804146
 31
0.0
  0
LINE
  5
7F7C
330
A
100
AcDbEntity
  8
MODEL
  6
Continuous
100
AcDbLine
 10
168.6058694702348
 20
350.9729125804146
 30
0.0
 11
168.9667135449832
 21
351.1866697377403
 31
0.0
  0
LINE
  5
7F7D
330
A
100
AcDbEntity
  8
MODEL
  6
Continuous
100
AcDbLine
 10
168.9667135449832
 20
351.1866697377403
 30
0.0
 11
168.6058694702348
 21
351.4004343456467
 31
0.0
  0
LINE
  5
7F7E
330
A
100
AcDbEntity
  8
MODEL
  6
Continuous
100
AcDbLine
 10
167.3068314065
 20
351.1439183062756
 30
0.0
 11
166.6732400861343
 21
351.1439183062756
 31
0.0
  0
LINE
  5
7F7F
330
A
100
AcDbEntity
  8
MODEL
  6
Continuous
100
AcDbLine
 10
166.5156440083643
 20
351.1027463978966
 30
0.0
 11
166.2242997643312
 21
350.9301611489499
 31
0.0
  0
LINE
  5
7F80
330
A
100
AcDbEntity
  8
MODEL
  6
Continuous
100
AcDbLine
 10
166.2242997643312
 20
350.9301611489499
 30
0.0
 11
166.5851434898337
 21
350.7163965410431
 31
0.0
  0
LINE
  5
7F81
330
A
100
AcDbEntity
  8
MODEL
  6
Continuous
100
AcDbLine
 10
166.5851434898337
 20
350.7163965410431
 30
0.0
 11
167.3068314065
 21
350.7163965410431
 31
0.0
  0
LINE
  5
7F82
330
A
100
AcDbEntity
  8
MODEL
  6
Continuous
100
AcDbLine
 10
167.3068314065
 20
350.7163965410431
 30
0.0
 11
167.6676753648331
 21
350.9301611489499
 31
0.0
  0
LINE
  5
7F83
330
A
100
AcDbEntity
  8
MODEL
  6
Continuous
100
AcDbLine
 10
167.6676753648331
 20
350.9301611489499
 30
0.0
 11
167.3068314065
 21
351.1439183062756
 31
0.0
  0
LINE
  5
7F84
330
A
100
AcDbEntity
  8
MODEL
  6
Continuous
100
AcDbLine
 10
172.5029838942697
 20
351.1439183062756
 30
0.0
 11
171.7812960358111
 21
351.1439183062756
 31
0.0
  0
LINE
  5
7F85
330
A
100
AcDbEntity
  8
MODEL
  6
Continuous
100
AcDbLine
 10
171.7812960358111
 20
351.1439183062756
 30
0.0
 11
171.4204521356857
 21
350.9301611489499
 31
0.0
  0
LINE
  5
7F86
330
A
100
AcDbEntity
  8
MODEL
  6
Continuous
100
AcDbLine
 10
171.4204521356857
 20
350.9301611489499
 30
0.0
 11
171.7812960358111
 21
350.7163965410431
 31
0.0
  0
LINE
  5
7F87
330
A
100
AcDbEntity
  8
MODEL
  6
Continuous
100
AcDbLine
 10
171.7812960358111
 20
350.7163965410431
 30
0.0
 11
172.5029838942697
 21
350.7163965410431
 31
0.0
  0
LINE
  5
7F88
330
A
100
AcDbEntity
  8
MODEL
  6
Continuous
100
AcDbLine
 10
172.5029838942697
 20
350.7163965410431
 30
0.0
 11
172.8638278526029
 21
350.9301611489499
 31
0.0
  0
LINE
  5
7F89
330
A
100
AcDbEntity
  8
MODEL
  6
Continuous
100
AcDbLine
 10
172.8638278526029
 20
350.9301611489499
 30
0.0
 11
172.5029838942697
 21
351.1439183062756
 31
0.0
  0
LINE
  5
7F8A
330
A
100
AcDbEntity
  8
MODEL
  6
Continuous
100
AcDbLine
 10
175.0796356444022
 20
351.1439183062756
 30
0.0
 11
174.3793723379036
 21
351.1439183062756
 31
0.0
  0
LINE
  5
7F8B
330
A
100
AcDbEntity
  8
MODEL
  6
Continuous
100
AcDbLine
 10
174.3793723379036
 20
351.1439183062756
 30
0.0
 11
174.0185283795705
 21
350.9301611489499
 31
0.0
  0
LINE
  5
7F8C
330
A
100
AcDbEntity
  8
MODEL
  6
Continuous
100
AcDbLine
 10
174.0185283795705
 20
350.9301611489499
 30
0.0
 11
174.3793723379036
 21
350.7163965410431
 31
0.0
  0
LINE
  5
7F8D
330
A
100
AcDbEntity
  8
MODEL
  6
Continuous
100
AcDbLine
 10
174.3793723379036
 20
350.7163965410431
 30
0.0
 11
175.1010602545699
 21
350.7163965410431
 31
0.0
  0
LINE
  5
7F8E
330
A
100
AcDbEntity
  8
MODEL
  6
Continuous
100
AcDbLine
 10
175.1010602545699
 20
350.7163965410431
 30
0.0
 11
175.4619039800724
 21
350.9301611489499
 31
0.0
  0
LINE
  5
7F8F
330
A
100
AcDbEntity
  8
MODEL
  6
Continuous
100
AcDbLine
 10
175.4619039800724
 20
350.9301611489499
 30
0.0
 11
175.1309803892633
 21
351.1261933750351
 31
0.0
  0
LINE
  5
7F90
330
A
100
AcDbEntity
  8
MODEL
  6
Continuous
100
AcDbLine
 10
170.1726138797363
 20
351.7300331300934
 30
0.0
 11
170.1214140137432
 21
351.6997018164833
 31
0.0
  0
LINE
  5
7F91
330
A
100
AcDbEntity
  8
MODEL
  6
Continuous
100
AcDbLine
 10
170.1214140137432
 20
351.6997018164833
 30
0.0
 11
170.4822579429725
 21
351.4859446591576
 31
0.0
  0
LINE
  5
7F92
330
A
100
AcDbEntity
  8
MODEL
  6
Continuous
100
AcDbLine
 10
170.4822579429725
 20
351.4859446591576
 30
0.0
 11
171.2039458014311
 21
351.4859446591576
 31
0.0
  0
LINE
  5
7F93
330
A
100
AcDbEntity
  8
MODEL
  6
Continuous
100
AcDbLine
 10
171.2039458014311
 20
351.4859446591576
 30
0.0
 11
171.4086947120501
 21
351.6072326606953
 31
0.0
  0
LINE
  5
7F94
330
A
100
AcDbEntity
  8
MODEL
  6
Continuous
100
AcDbLine
 10
169.9049077085925
 20
351.6569503850181
 30
0.0
 11
169.1832198501339
 21
351.6569503850181
 31
0.0
  0
LINE
  5
7F95
330
A
100
AcDbEntity
  8
MODEL
  6
Continuous
100
AcDbLine
 10
169.1832198501339
 20
351.6569503850181
 30
0.0
 11
168.8223758918008
 21
351.4431857771118
 31
0.0
  0
LINE
  5
7F96
330
A
100
AcDbEntity
  8
MODEL
  6
Continuous
100
AcDbLine
 10
168.8223758918008
 20
351.4431857771118
 30
0.0
 11
169.1832198501339
 21
351.2294286197861
 31
0.0
  0
LINE
  5
7F97
330
A
100
AcDbEntity
  8
MODEL
  6
Continuous
100
AcDbLine
 10
169.1832198501339
 20
351.2294286197861
 30
0.0
 11
169.9049077085925
 21
351.2294286197861
 31
0.0
  0
LINE
  5
7F98
330
A
100
AcDbEntity
  8
MODEL
  6
Continuous
100
AcDbLine
 10
169.9049077085925
 20
351.2294286197861
 30
0.0
 11
170.265751608718
 21
351.4431857771118
 31
0.0
  0
LINE
  5
7F99
330
A
100
AcDbEntity
  8
MODEL
  6
Continuous
100
AcDbLine
 10
170.265751608718
 20
351.4431857771118
 30
0.0
 11
169.9049077085925
 21
351.6569503850181
 31
0.0
  0
LINE
  5
7F9A
330
A
100
AcDbEntity
  8
MODEL
  6
Continuous
100
AcDbLine
 10
168.2208558284452
 20
351.4859446591576
 30
0.0
 11
168.6058694702348
 21
351.4859446591576
 31
0.0
  0
LINE
  5
7F9B
330
A
100
AcDbEntity
  8
MODEL
  6
Continuous
100
AcDbLine
 10
168.6058694702348
 20
351.4859446591576
 30
0.0
 11
168.8410829026958
 21
351.6252779669006
 31
0.0
  0
LINE
  5
7F9C
330
A
100
AcDbEntity
  8
MODEL
  6
Continuous
100
AcDbLine
 10
171.681491958048
 20
351.5978300279816
 30
0.0
 11
171.4204521356857
 21
351.4431857771118
 31
0.0
  0
LINE
  5
7F9D
330
A
100
AcDbEntity
  8
MODEL
  6
Continuous
100
AcDbLine
 10
171.4204521356857
 20
351.4431857771118
 30
0.0
 11
171.7812960358111
 21
351.2294286197861
 31
0.0
  0
LINE
  5
7F9E
330
A
100
AcDbEntity
  8
MODEL
  6
Continuous
100
AcDbLine
 10
171.7812960358111
 20
351.2294286197861
 30
0.0
 11
172.5029838942697
 21
351.2294286197861
 31
0.0
  0
LINE
  5
7F9F
330
A
100
AcDbEntity
  8
MODEL
  6
Continuous
100
AcDbLine
 10
172.5029838942697
 20
351.2294286197861
 30
0.0
 11
172.8638278526029
 21
351.4431857771118
 31
0.0
  0
LINE
  5
7FA0
330
A
100
AcDbEntity
  8
MODEL
  6
Continuous
100
AcDbLine
 10
172.8638278526029
 20
351.4431857771118
 30
0.0
 11
172.722003373388
 21
351.5272059745033
 31
0.0
  0
LINE
  5
7FA1
330
A
100
AcDbEntity
  8
MODEL
  6
Continuous
100
AcDbLine
 10
173.0728955679348
 20
351.4903479522903
 30
0.0
 11
173.0803342741689
 21
351.4859446591576
 31
0.0
  0
LINE
  5
7FA2
330
A
100
AcDbEntity
  8
MODEL
  6
Continuous
100
AcDbLine
 10
173.0803342741689
 20
351.4859446591576
 30
0.0
 11
173.1108744368663
 21
351.4859446591576
 31
0.0
  0
LINE
  5
7FA3
330
A
100
AcDbEntity
  8
MODEL
  6
Continuous
100
AcDbLine
 10
173.6541768275907
 20
351.4859446591576
 30
0.0
 11
173.7501179539373
 21
351.4859446591576
 31
0.0
  0
LINE
  5
7FA4
330
A
100
AcDbEntity
  8
MODEL
  6
Continuous
100
AcDbLine
 10
171.2039458014311
 20
349.8613455599983
 30
0.0
 11
170.4822579429725
 21
349.8613455599983
 31
0.0
  0
LINE
  5
7FA5
330
A
100
AcDbEntity
  8
MODEL
  6
Continuous
100
AcDbLine
 10
170.4822579429725
 20
349.8613455599983
 30
0.0
 11
170.1214140137432
 21
349.6475809520924
 31
0.0
  0
LINE
  5
7FA6
330
A
100
AcDbEntity
  8
MODEL
  6
Continuous
100
AcDbLine
 10
170.1214140137432
 20
349.6475809520924
 30
0.0
 11
170.4822579429725
 21
349.4338237947667
 31
0.0
  0
LINE
  5
7FA7
330
A
100
AcDbEntity
  8
MODEL
  6
Continuous
100
AcDbLine
 10
170.4822579429725
 20
349.4338237947667
 30
0.0
 11
171.2039458014311
 21
349.4338237947667
 31
0.0
  0
LINE
  5
7FA8
330
A
100
AcDbEntity
  8
MODEL
  6
Continuous
100
AcDbLine
 10
171.2039458014311
 20
349.4338237947667
 30
0.0
 11
171.5647897306604
 21
349.6475809520924
 31
0.0
  0
LINE
  5
7FA9
330
A
100
AcDbEntity
  8
MODEL
  6
Continuous
100
AcDbLine
 10
171.5647897306604
 20
349.6475809520924
 30
0.0
 11
171.2039458014311
 21
349.8613455599983
 31
0.0
  0
LINE
  5
7FAA
330
A
100
AcDbEntity
  8
MODEL
  6
Continuous
100
AcDbLine
 10
169.9049077085925
 20
349.6048295206268
 30
0.0
 11
169.1832198501339
 21
349.6048295206268
 31
0.0
  0
LINE
  5
7FAB
330
A
100
AcDbEntity
  8
MODEL
  6
Continuous
100
AcDbLine
 10
169.1832198501339
 20
349.6048295206268
 30
0.0
 11
168.8223758918008
 21
349.3910649127205
 31
0.0
  0
LINE
  5
7FAC
330
A
100
AcDbEntity
  8
MODEL
  6
Continuous
100
AcDbLine
 10
168.8223758918008
 20
349.3910649127205
 30
0.0
 11
169.1832198501339
 21
349.1773077553947
 31
0.0
  0
LINE
  5
7FAD
330
A
100
AcDbEntity
  8
MODEL
  6
Continuous
100
AcDbLine
 10
169.1832198501339
 20
349.1773077553947
 30
0.0
 11
169.9049077085925
 21
349.1773077553947
 31
0.0
  0
LINE
  5
7FAE
330
A
100
AcDbEntity
  8
MODEL
  6
Continuous
100
AcDbLine
 10
169.9049077085925
 20
349.1773077553947
 30
0.0
 11
170.265751608718
 21
349.3910649127205
 31
0.0
  0
LINE
  5
7FAF
330
A
100
AcDbEntity
  8
MODEL
  6
Continuous
100
AcDbLine
 10
170.265751608718
 20
349.3910649127205
 30
0.0
 11
169.9049077085925
 21
349.6048295206268
 31
0.0
  0
LINE
  5
7FB0
330
A
100
AcDbEntity
  8
MODEL
  6
Continuous
100
AcDbLine
 10
168.6058694702348
 20
349.8613455599983
 30
0.0
 11
167.8841817863992
 21
349.8613455599983
 31
0.0
  0
LINE
  5
7FB1
330
A
100
AcDbEntity
  8
MODEL
  6
Continuous
100
AcDbLine
 10
167.8841817863992
 20
349.8613455599983
 30
0.0
 11
167.523337828066
 21
349.6475809520924
 31
0.0
  0
LINE
  5
7FB2
330
A
100
AcDbEntity
  8
MODEL
  6
Continuous
100
AcDbLine
 10
167.523337828066
 20
349.6475809520924
 30
0.0
 11
167.8841817863992
 21
349.4338237947667
 31
0.0
  0
LINE
  5
7FB3
330
A
100
AcDbEntity
  8
MODEL
  6
Continuous
100
AcDbLine
 10
167.8841817863992
 20
349.4338237947667
 30
0.0
 11
168.6058694702348
 21
349.4338237947667
 31
0.0
  0
LINE
  5
7FB4
330
A
100
AcDbEntity
  8
MODEL
  6
Continuous
100
AcDbLine
 10
168.6058694702348
 20
349.4338237947667
 30
0.0
 11
168.9667135449832
 21
349.6475809520924
 31
0.0
  0
LINE
  5
7FB5
330
A
100
AcDbEntity
  8
MODEL
  6
Continuous
100
AcDbLine
 10
168.9667135449832
 20
349.6475809520924
 30
0.0
 11
168.6058694702348
 21
349.8613455599983
 31
0.0
  0
LINE
  5
7FB6
330
A
100
AcDbEntity
  8
MODEL
  6
Continuous
100
AcDbLine
 10
167.3068314065
 20
349.6048295206268
 30
0.0
 11
166.5851434898337
 21
349.6048295206268
 31
0.0
  0
LINE
  5
7FB7
330
A
100
AcDbEntity
  8
MODEL
  6
Continuous
100
AcDbLine
 10
166.5851434898337
 20
349.6048295206268
 30
0.0
 11
166.2242997643312
 21
349.3910649127205
 31
0.0
  0
LINE
  5
7FB8
330
A
100
AcDbEntity
  8
MODEL
  6
Continuous
100
AcDbLine
 10
166.2242997643312
 20
349.3910649127205
 30
0.0
 11
166.5851434898337
 21
349.1773077553947
 31
0.0
  0
LINE
  5
7FB9
330
A
100
AcDbEntity
  8
MODEL
  6
Continuous
100
AcDbLine
 10
166.5851434898337
 20
349.1773077553947
 30
0.0
 11
167.3068314065
 21
349.1773077553947
 31
0.0
  0
LINE
  5
7FBA
330
A
100
AcDbEntity
  8
MODEL
  6
Continuous
100
AcDbLine
 10
167.3068314065
 20
349.1773077553947
 30
0.0
 11
167.6676753648331
 21
349.3910649127205
 31
0.0
  0
LINE
  5
7FBB
330
A
100
AcDbEntity
  8
MODEL
  6
Continuous
100
AcDbLine
 10
167.6676753648331
 20
349.3910649127205
 30
0.0
 11
167.3068314065
 21
349.6048295206268
 31
0.0
  0
LINE
  5
7FBC
330
A
100
AcDbEntity
  8
MODEL
  6
Continuous
100
AcDbLine
 10
172.5029838942697
 20
349.6048295206268
 30
0.0
 11
171.7812960358111
 21
349.6048295206268
 31
0.0
  0
LINE
  5
7FBD
330
A
100
AcDbEntity
  8
MODEL
  6
Continuous
100
AcDbLine
 10
171.7812960358111
 20
349.6048295206268
 30
0.0
 11
171.4204521356857
 21
349.3910649127205
 31
0.0
  0
LINE
  5
7FBE
330
A
100
AcDbEntity
  8
MODEL
  6
Continuous
100
AcDbLine
 10
171.4204521356857
 20
349.3910649127205
 30
0.0
 11
171.7812960358111
 21
349.1773077553947
 31
0.0
  0
LINE
  5
7FBF
330
A
100
AcDbEntity
  8
MODEL
  6
Continuous
100
AcDbLine
 10
171.7812960358111
 20
349.1773077553947
 30
0.0
 11
172.5029838942697
 21
349.1773077553947
 31
0.0
  0
LINE
  5
7FC0
330
A
100
AcDbEntity
  8
MODEL
  6
Continuous
100
AcDbLine
 10
172.5029838942697
 20
349.1773077553947
 30
0.0
 11
172.8638278526029
 21
349.3910649127205
 31
0.0
  0
LINE
  5
7FC1
330
A
100
AcDbEntity
  8
MODEL
  6
Continuous
100
AcDbLine
 10
172.8638278526029
 20
349.3910649127205
 30
0.0
 11
172.5029838942697
 21
349.6048295206268
 31
0.0
  0
LINE
  5
7FC2
330
A
100
AcDbEntity
  8
MODEL
  6
Continuous
100
AcDbLine
 10
173.8020219580045
 20
349.8613455599983
 30
0.0
 11
173.0803342741689
 21
349.8613455599983
 31
0.0
  0
LINE
  5
7FC3
330
A
100
AcDbEntity
  8
MODEL
  6
Continuous
100
AcDbLine
 10
173.0803342741689
 20
349.8613455599983
 30
0.0
 11
172.7194901994204
 21
349.6475809520924
 31
0.0
  0
LINE
  5
7FC4
330
A
100
AcDbEntity
  8
MODEL
  6
Continuous
100
AcDbLine
 10
172.7194901994204
 20
349.6475809520924
 30
0.0
 11
173.0803342741689
 21
349.4338237947667
 31
0.0
  0
LINE
  5
7FC5
330
A
100
AcDbEntity
  8
MODEL
  6
Continuous
100
AcDbLine
 10
173.0803342741689
 20
349.4338237947667
 30
0.0
 11
173.8020219580045
 21
349.4338237947667
 31
0.0
  0
LINE
  5
7FC6
330
A
100
AcDbEntity
  8
MODEL
  6
Continuous
100
AcDbLine
 10
173.8020219580045
 20
349.4338237947667
 30
0.0
 11
174.1628659163376
 21
349.6475809520924
 31
0.0
  0
LINE
  5
7FC7
330
A
100
AcDbEntity
  8
MODEL
  6
Continuous
100
AcDbLine
 10
174.1628659163376
 20
349.6475809520924
 30
0.0
 11
173.8020219580045
 21
349.8613455599983
 31
0.0
  0
LINE
  5
7FC8
330
A
100
AcDbEntity
  8
MODEL
  6
Continuous
100
AcDbLine
 10
175.1010602545699
 20
349.6048295206268
 30
0.0
 11
174.3793723379036
 21
349.6048295206268
 31
0.0
  0
LINE
  5
7FC9
330
A
100
AcDbEntity
  8
MODEL
  6
Continuous
100
AcDbLine
 10
174.3793723379036
 20
349.6048295206268
 30
0.0
 11
174.0185283795705
 21
349.3910649127205
 31
0.0
  0
LINE
  5
7FCA
330
A
100
AcDbEntity
  8
MODEL
  6
Continuous
100
AcDbLine
 10
174.0185283795705
 20
349.3910649127205
 30
0.0
 11
174.3793723379036
 21
349.1773077553947
 31
0.0
  0
LINE
  5
7FCB
330
A
100
AcDbEntity
  8
MODEL
  6
Continuous
100
AcDbLine
 10
174.3793723379036
 20
349.1773077553947
 30
0.0
 11
175.1010602545699
 21
349.1773077553947
 31
0.0
  0
LINE
  5
7FCC
330
A
100
AcDbEntity
  8
MODEL
  6
Continuous
100
AcDbLine
 10
175.1010602545699
 20
349.1773077553947
 30
0.0
 11
175.4619039800724
 21
349.3910649127205
 31
0.0
  0
LINE
  5
7FCD
330
A
100
AcDbEntity
  8
MODEL
  6
Continuous
100
AcDbLine
 10
175.4619039800724
 20
349.3910649127205
 30
0.0
 11
175.1010602545699
 21
349.6048295206268
 31
0.0
  0
LINE
  5
7FCE
330
A
100
AcDbEntity
  8
MODEL
  6
Continuous
100
AcDbLine
 10
171.2039458014311
 20
349.3483134812553
 30
0.0
 11
170.4822579429725
 21
349.3483134812553
 31
0.0
  0
LINE
  5
7FCF
330
A
100
AcDbEntity
  8
MODEL
  6
Continuous
100
AcDbLine
 10
170.4822579429725
 20
349.3483134812553
 30
0.0
 11
170.1214140137432
 21
349.134548873349
 31
0.0
  0
LINE
  5
7FD0
330
A
100
AcDbEntity
  8
MODEL
  6
Continuous
100
AcDbLine
 10
170.1214140137432
 20
349.134548873349
 30
0.0
 11
170.4822579429725
 21
348.9207917160232
 31
0.0
  0
LINE
  5
7FD1
330
A
100
AcDbEntity
  8
MODEL
  6
Continuous
100
AcDbLine
 10
170.4822579429725
 20
348.9207917160232
 30
0.0
 11
171.2039458014311
 21
348.9207917160232
 31
0.0
  0
LINE
  5
7FD2
330
A
100
AcDbEntity
  8
MODEL
  6
Continuous
100
AcDbLine
 10
171.2039458014311
 20
348.9207917160232
 30
0.0
 11
171.5647897306604
 21
349.134548873349
 31
0.0
  0
LINE
  5
7FD3
330
A
100
AcDbEntity
  8
MODEL
  6
Continuous
100
AcDbLine
 10
171.5647897306604
 20
349.134548873349
 30
0.0
 11
171.2039458014311
 21
349.3483134812553
 31
0.0
  0
LINE
  5
7FD4
330
A
100
AcDbEntity
  8
MODEL
  6
Continuous
100
AcDbLine
 10
169.9049077085925
 20
349.0917974418838
 30
0.0
 11
169.1832198501339
 21
349.0917974418838
 31
0.0
  0
LINE
  5
7FD5
330
A
100
AcDbEntity
  8
MODEL
  6
Continuous
100
AcDbLine
 10
169.1832198501339
 20
349.0917974418838
 30
0.0
 11
168.8223758918008
 21
348.8780402845581
 31
0.0
  0
LINE
  5
7FD6
330
A
100
AcDbEntity
  8
MODEL
  6
Continuous
100
AcDbLine
 10
168.8223758918008
 20
348.8780402845581
 30
0.0
 11
169.1832198501339
 21
348.6642756766518
 31
0.0
  0
LINE
  5
7FD7
330
A
100
AcDbEntity
  8
MODEL
  6
Continuous
100
AcDbLine
 10
169.1832198501339
 20
348.6642756766518
 30
0.0
 11
169.9049077085925
 21
348.6642756766518
 31
0.0
  0
LINE
  5
7FD8
330
A
100
AcDbEntity
  8
MODEL
  6
Continuous
100
AcDbLine
 10
169.9049077085925
 20
348.6642756766518
 30
0.0
 11
170.265751608718
 21
348.8780402845581
 31
0.0
  0
LINE
  5
7FD9
330
A
100
AcDbEntity
  8
MODEL
  6
Continuous
100
AcDbLine
 10
170.265751608718
 20
348.8780402845581
 30
0.0
 11
169.9049077085925
 21
349.0917974418838
 31
0.0
  0
LINE
  5
7FDA
330
A
100
AcDbEntity
  8
MODEL
  6
Continuous
100
AcDbLine
 10
168.6058694702348
 20
349.3483134812553
 30
0.0
 11
167.8841817863992
 21
349.3483134812553
 31
0.0
  0
LINE
  5
7FDB
330
A
100
AcDbEntity
  8
MODEL
  6
Continuous
100
AcDbLine
 10
167.8841817863992
 20
349.3483134812553
 30
0.0
 11
167.523337828066
 21
349.134548873349
 31
0.0
  0
LINE
  5
7FDC
330
A
100
AcDbEntity
  8
MODEL
  6
Continuous
100
AcDbLine
 10
167.523337828066
 20
349.134548873349
 30
0.0
 11
167.8841817863992
 21
348.9207917160232
 31
0.0
  0
LINE
  5
7FDD
330
A
100
AcDbEntity
  8
MODEL
  6
Continuous
100
AcDbLine
 10
167.8841817863992
 20
348.9207917160232
 30
0.0
 11
168.6058694702348
 21
348.9207917160232
 31
0.0
  0
LINE
  5
7FDE
330
A
100
AcDbEntity
  8
MODEL
  6
Continuous
100
AcDbLine
 10
168.6058694702348
 20
348.9207917160232
 30
0.0
 11
168.9667135449832
 21
349.134548873349
 31
0.0
  0
LINE
  5
7FDF
330
A
100
AcDbEntity
  8
MODEL
  6
Continuous
100
AcDbLine
 10
168.9667135449832
 20
349.134548873349
 30
0.0
 11
168.6058694702348
 21
349.3483134812553
 31
0.0
  0
LINE
  5
7FE0
330
A
100
AcDbEntity
  8
MODEL
  6
Continuous
100
AcDbLine
 10
173.8020219580045
 20
349.3483134812553
 30
0.0
 11
173.0803342741689
 21
349.3483134812553
 31
0.0
  0
LINE
  5
7FE1
330
A
100
AcDbEntity
  8
MODEL
  6
Continuous
100
AcDbLine
 10
173.0803342741689
 20
349.3483134812553
 30
0.0
 11
172.7194901994204
 21
349.134548873349
 31
0.0
  0
LINE
  5
7FE2
330
A
100
AcDbEntity
  8
MODEL
  6
Continuous
100
AcDbLine
 10
172.7194901994204
 20
349.134548873349
 30
0.0
 11
173.0803342741689
 21
348.9207917160232
 31
0.0
  0
LINE
  5
7FE3
330
A
100
AcDbEntity
  8
MODEL
  6
Continuous
100
AcDbLine
 10
173.0803342741689
 20
348.9207917160232
 30
0.0
 11
173.8020219580045
 21
348.9207917160232
 31
0.0
  0
LINE
  5
7FE4
330
A
100
AcDbEntity
  8
MODEL
  6
Continuous
100
AcDbLine
 10
173.8020219580045
 20
348.9207917160232
 30
0.0
 11
174.1628659163376
 21
349.134548873349
 31
0.0
  0
LINE
  5
7FE5
330
A
100
AcDbEntity
  8
MODEL
  6
Continuous
100
AcDbLine
 10
174.1628659163376
 20
349.134548873349
 30
0.0
 11
173.8020219580045
 21
349.3483134812553
 31
0.0
  0
LINE
  5
7FE6
330
A
100
AcDbEntity
  8
MODEL
  6
Continuous
100
AcDbLine
 10
171.2039458014311
 20
348.8352814025128
 30
0.0
 11
170.4822579429725
 21
348.8352814025128
 31
0.0
  0
LINE
  5
7FE7
330
A
100
AcDbEntity
  8
MODEL
  6
Continuous
100
AcDbLine
 10
170.4822579429725
 20
348.8352814025128
 30
0.0
 11
170.1214140137432
 21
348.6215242451871
 31
0.0
  0
LINE
  5
7FE8
330
A
100
AcDbEntity
  8
MODEL
  6
Continuous
100
AcDbLine
 10
170.1214140137432
 20
348.6215242451871
 30
0.0
 11
170.4822579429725
 21
348.4077596372803
 31
0.0
  0
LINE
  5
7FE9
330
A
100
AcDbEntity
  8
MODEL
  6
Continuous
100
AcDbLine
 10
170.4822579429725
 20
348.4077596372803
 30
0.0
 11
171.2039458014311
 21
348.4077596372803
 31
0.0
  0
LINE
  5
7FEA
330
A
100
AcDbEntity
  8
MODEL
  6
Continuous
100
AcDbLine
 10
171.2039458014311
 20
348.4077596372803
 30
0.0
 11
171.5647897306604
 21
348.6215242451871
 31
0.0
  0
LINE
  5
7FEB
330
A
100
AcDbEntity
  8
MODEL
  6
Continuous
100
AcDbLine
 10
171.5647897306604
 20
348.6215242451871
 30
0.0
 11
171.2039458014311
 21
348.8352814025128
 31
0.0
  0
LINE
  5
7FEC
330
A
100
AcDbEntity
  8
MODEL
  6
Continuous
100
AcDbLine
 10
168.6058694702348
 20
348.8352814025128
 30
0.0
 11
167.8841817863992
 21
348.8352814025128
 31
0.0
  0
LINE
  5
7FED
330
A
100
AcDbEntity
  8
MODEL
  6
Continuous
100
AcDbLine
 10
167.8841817863992
 20
348.8352814025128
 30
0.0
 11
167.523337828066
 21
348.6215242451871
 31
0.0
  0
LINE
  5
7FEE
330
A
100
AcDbEntity
  8
MODEL
  6
Continuous
100
AcDbLine
 10
167.523337828066
 20
348.6215242451871
 30
0.0
 11
167.8841817863992
 21
348.4077596372803
 31
0.0
  0
LINE
  5
7FEF
330
A
100
AcDbEntity
  8
MODEL
  6
Continuous
100
AcDbLine
 10
167.8841817863992
 20
348.4077596372803
 30
0.0
 11
168.6058694702348
 21
348.4077596372803
 31
0.0
  0
LINE
  5
7FF0
330
A
100
AcDbEntity
  8
MODEL
  6
Continuous
100
AcDbLine
 10
168.6058694702348
 20
348.4077596372803
 30
0.0
 11
168.9667135449832
 21
348.6215242451871
 31
0.0
  0
LINE
  5
7FF1
330
A
100
AcDbEntity
  8
MODEL
  6
Continuous
100
AcDbLine
 10
168.9667135449832
 20
348.6215242451871
 30
0.0
 11
168.6058694702348
 21
348.8352814025128
 31
0.0
  0
LINE
  5
7FF2
330
A
100
AcDbEntity
  8
MODEL
  6
Continuous
100
AcDbLine
 10
173.8020219580045
 20
348.8352814025128
 30
0.0
 11
173.0803342741689
 21
348.8352814025128
 31
0.0
  0
LINE
  5
7FF3
330
A
100
AcDbEntity
  8
MODEL
  6
Continuous
100
AcDbLine
 10
173.0803342741689
 20
348.8352814025128
 30
0.0
 11
172.7194901994204
 21
348.6215242451871
 31
0.0
  0
LINE
  5
7FF4
330
A
100
AcDbEntity
  8
MODEL
  6
Continuous
100
AcDbLine
 10
172.7194901994204
 20
348.6215242451871
 30
0.0
 11
173.0803342741689
 21
348.4077596372803
 31
0.0
  0
LINE
  5
7FF5
330
A
100
AcDbEntity
  8
MODEL
  6
Continuous
100
AcDbLine
 10
173.0803342741689
 20
348.4077596372803
 30
0.0
 11
173.8020219580045
 21
348.4077596372803
 31
0.0
  0
LINE
  5
7FF6
330
A
100
AcDbEntity
  8
MODEL
  6
Continuous
100
AcDbLine
 10
173.8020219580045
 20
348.4077596372803
 30
0.0
 11
174.1628659163376
 21
348.6215242451871
 31
0.0
  0
LINE
  5
7FF7
330
A
100
AcDbEntity
  8
MODEL
  6
Continuous
100
AcDbLine
 10
174.1628659163376
 20
348.6215242451871
 30
0.0
 11
173.8020219580045
 21
348.8352814025128
 31
0.0
  0
LINE
  5
7FF8
330
A
100
AcDbEntity
  8
MODEL
  6
Continuous
100
AcDbLine
 10
171.2039458014311
 20
351.6118818229874
 30
0.0
 11
171.2039458014311
 21
351.4859446591576
 31
0.0
  0
LINE
  5
7FF9
330
A
100
AcDbEntity
  8
MODEL
  6
Continuous
100
AcDbLine
 10
173.0803342741689
 20
351.4894911355217
 30
0.0
 11
173.0803342741689
 21
351.4859446591576
 31
0.0
  0
LINE
  5
7FFA
330
A
100
AcDbEntity
  8
MODEL
  6
Continuous
100
AcDbLine
 10
170.4822579429725
 20
351.7391749924858
 30
0.0
 11
170.4822579429725
 21
351.4859446591576
 31
0.0
  0
LINE
  5
7FFB
330
A
100
AcDbEntity
  8
MODEL
  6
Continuous
100
AcDbLine
 10
168.6058694702348
 20
351.5948944992264
 30
0.0
 11
168.6058694702348
 21
351.4859446591576
 31
0.0
  0
LINE
  5
7FFC
330
A
100
AcDbEntity
  8
MODEL
  6
Continuous
100
AcDbLine
 10
174.3793723379036
 20
351.3485857552731
 30
0.0
 11
174.3793723379036
 21
351.2294286197861
 31
0.0
  0
LINE
  5
7FFD
330
A
100
AcDbEntity
  8
MODEL
  6
Continuous
100
AcDbLine
 10
169.1832198501339
 20
351.6569503850181
 30
0.0
 11
169.1832198501339
 21
351.2294286197861
 31
0.0
  0
LINE
  5
7FFE
330
A
100
AcDbEntity
  8
MODEL
  6
Continuous
100
AcDbLine
 10
169.9049077085925
 20
351.6569503850181
 30
0.0
 11
169.9049077085925
 21
351.2294286197861
 31
0.0
  0
LINE
  5
7FFF
330
A
100
AcDbEntity
  8
MODEL
  6
Continuous
100
AcDbLine
 10
171.7812960358111
 20
351.5934639877518
 30
0.0
 11
171.7812960358111
 21
351.2294286197861
 31
0.0
  0
LINE
  5
8000
330
A
100
AcDbEntity
  8
MODEL
  6
Continuous
100
AcDbLine
 10
172.5029838942697
 20
351.5467786497314
 30
0.0
 11
172.5029838942697
 21
351.2294286197861
 31
0.0
  0
LINE
  5
8001
330
A
100
AcDbEntity
  8
MODEL
  6
Continuous
100
AcDbLine
 10
167.3068314065
 20
351.2870961136063
 30
0.0
 11
167.3068314065
 21
351.2294286197861
 31
0.0
  0
LINE
  5
8002
330
A
100
AcDbEntity
  8
MODEL
  6
Continuous
100
AcDbLine
 10
163.4790630285403
 20
350.2900221652229
 30
0.0
 11
164.3995678257903
 21
350.1563885516365
 31
0.0
  0
LINE
  5
8003
330
A
100
AcDbEntity
  8
MODEL
  6
Continuous
100
AcDbLine
 10
163.843101656135
 20
349.2209234542096
 30
0.0
 11
162.8431014922222
 21
349.2209234542096
 31
0.0
  0
LINE
  5
8004
330
A
100
AcDbEntity
  8
MODEL
  6
Continuous
100
AcDbLine
 10
167.8841817863992
 20
351.3906517333229
 30
0.0
 11
167.8841817863992
 21
350.9729125804146
 31
0.0
  0
LINE
  5
8005
330
A
100
AcDbEntity
  8
MODEL
  6
Continuous
100
AcDbLine
 10
168.6058694702348
 20
351.4004343456467
 30
0.0
 11
168.6058694702348
 21
350.9729125804146
 31
0.0
  0
LINE
  5
8006
330
A
100
AcDbEntity
  8
MODEL
  6
Continuous
100
AcDbLine
 10
170.4822579429725
 20
351.4004343456467
 30
0.0
 11
170.4822579429725
 21
350.9729125804146
 31
0.0
  0
LINE
  5
8007
330
A
100
AcDbEntity
  8
MODEL
  6
Continuous
100
AcDbLine
 10
171.2039458014311
 20
351.4004343456467
 30
0.0
 11
171.2039458014311
 21
350.9729125804146
 31
0.0
  0
LINE
  5
8008
330
A
100
AcDbEntity
  8
MODEL
  6
Continuous
100
AcDbLine
 10
177.8431020882687
 20
350.160613030835
 30
0.0
 11
178.6751745474299
 21
350.160613030835
 31
0.0
  0
LINE
  5
8009
330
A
100
AcDbEntity
  8
MODEL
  6
Continuous
100
AcDbLine
 10
174.3793723379036
 20
351.1439183062756
 30
0.0
 11
174.3793723379036
 21
350.7163965410431
 31
0.0
  0
LINE
  5
800A
330
A
100
AcDbEntity
  8
MODEL
  6
Continuous
100
AcDbLine
 10
166.5851434898337
 20
351.1212014860351
 30
0.0
 11
166.5851434898337
 21
350.7163965410431
 31
0.0
  0
LINE
  5
800B
330
A
100
AcDbEntity
  8
MODEL
  6
Continuous
100
AcDbLine
 10
169.9049077085925
 20
351.1439183062756
 30
0.0
 11
169.9049077085925
 21
350.7163965410431
 31
0.0
  0
LINE
  5
800C
330
A
100
AcDbEntity
  8
MODEL
  6
Continuous
100
AcDbLine
 10
169.1832198501339
 20
351.1439183062756
 30
0.0
 11
169.1832198501339
 21
350.7163965410431
 31
0.0
  0
LINE
  5
800D
330
A
100
AcDbEntity
  8
MODEL
  6
Continuous
100
AcDbLine
 10
171.7812960358111
 20
351.1439183062756
 30
0.0
 11
171.7812960358111
 21
350.7163965410431
 31
0.0
  0
LINE
  5
800E
330
A
100
AcDbEntity
  8
MODEL
  6
Continuous
100
AcDbLine
 10
172.5029838942697
 20
351.1439183062756
 30
0.0
 11
172.5029838942697
 21
350.7163965410431
 31
0.0
  0
LINE
  5
800F
330
A
100
AcDbEntity
  8
MODEL
  6
Continuous
100
AcDbLine
 10
167.3068314065
 20
351.1439183062756
 30
0.0
 11
167.3068314065
 21
350.7163965410431
 31
0.0
  0
LINE
  5
8010
330
A
100
AcDbEntity
  8
MODEL
  6
Continuous
100
AcDbLine
 10
175.1010602545699
 20
351.1365794843877
 30
0.0
 11
175.1010602545699
 21
350.7163965410431
 31
0.0
  0
LINE
  5
8011
330
A
100
AcDbEntity
  8
MODEL
  6
Continuous
100
AcDbLine
 10
170.4822579429725
 20
350.8874022669037
 30
0.0
 11
170.4822579429725
 21
350.459880501672
 31
0.0
  0
LINE
  5
8012
330
A
100
AcDbEntity
  8
MODEL
  6
Continuous
100
AcDbLine
 10
175.6784104016384
 20
350.8874022669037
 30
0.0
 11
175.6784104016384
 21
350.459880501672
 31
0.0
  0
LINE
  5
8013
330
A
100
AcDbEntity
  8
MODEL
  6
Continuous
100
AcDbLine
 10
171.2039458014311
 20
350.8874022669037
 30
0.0
 11
171.2039458014311
 21
350.459880501672
 31
0.0
  0
LINE
  5
8014
330
A
100
AcDbEntity
  8
MODEL
  6
Continuous
100
AcDbLine
 10
173.8020219580045
 20
350.8874022669037
 30
0.0
 11
173.8020219580045
 21
350.459880501672
 31
0.0
  0
LINE
  5
8015
330
A
100
AcDbEntity
  8
MODEL
  6
Continuous
100
AcDbLine
 10
168.6058694702348
 20
350.8874022669037
 30
0.0
 11
168.6058694702348
 21
350.459880501672
 31
0.0
  0
LINE
  5
8016
330
A
100
AcDbEntity
  8
MODEL
  6
Continuous
100
AcDbLine
 10
166.0077933427652
 20
350.8874022669037
 30
0.0
 11
166.0077933427652
 21
350.459880501672
 31
0.0
  0
LINE
  5
8017
330
A
100
AcDbEntity
  8
MODEL
  6
Continuous
100
AcDbLine
 10
167.8841817863992
 20
350.8874022669037
 30
0.0
 11
167.8841817863992
 21
350.459880501672
 31
0.0
  0
LINE
  5
8018
330
A
100
AcDbEntity
  8
MODEL
  6
Continuous
100
AcDbLine
 10
173.0803342741689
 20
350.8874022669037
 30
0.0
 11
173.0803342741689
 21
350.459880501672
 31
0.0
  0
LINE
  5
8019
330
A
100
AcDbEntity
  8
MODEL
  6
Continuous
100
AcDbLine
 10
165.286105426099
 20
350.4646563238342
 30
0.0
 11
165.286105426099
 21
350.459880501672
 31
0.0
  0
LINE
  5
801A
330
A
100
AcDbEntity
  8
MODEL
  6
Continuous
100
AcDbLine
 10
176.4000983183047
 20
350.4646563238342
 30
0.0
 11
176.4000983183047
 21
350.459880501672
 31
0.0
  0
LINE
  5
801B
330
A
100
AcDbEntity
  8
MODEL
  6
Continuous
100
AcDbLine
 10
174.3793723379036
 20
350.6308936781128
 30
0.0
 11
174.3793723379036
 21
350.2033644623001
 31
0.0
  0
LINE
  5
801C
330
A
100
AcDbEntity
  8
MODEL
  6
Continuous
100
AcDbLine
 10
171.7812960358111
 20
350.6308936781128
 30
0.0
 11
171.7812960358111
 21
350.2033644623001
 31
0.0
  0
LINE
  5
801D
330
A
100
AcDbEntity
  8
MODEL
  6
Continuous
100
AcDbLine
 10
169.1832198501339
 20
350.6308936781128
 30
0.0
 11
169.1832198501339
 21
350.2033644623001
 31
0.0
  0
LINE
  5
801E
330
A
100
AcDbEntity
  8
MODEL
  6
Continuous
100
AcDbLine
 10
169.9049077085925
 20
350.6308936781128
 30
0.0
 11
169.9049077085925
 21
350.2033644623001
 31
0.0
  0
LINE
  5
801F
330
A
100
AcDbEntity
  8
MODEL
  6
Continuous
100
AcDbLine
 10
172.5029838942697
 20
350.6308936781128
 30
0.0
 11
172.5029838942697
 21
350.2033644623001
 31
0.0
  0
LINE
  5
8020
330
A
100
AcDbEntity
  8
MODEL
  6
Continuous
100
AcDbLine
 10
175.1010602545699
 20
350.6308936781128
 30
0.0
 11
175.1010602545699
 21
350.2033644623001
 31
0.0
  0
LINE
  5
8021
330
A
100
AcDbEntity
  8
MODEL
  6
Continuous
100
AcDbLine
 10
177.8431020882687
 20
349.2209234542096
 30
0.0
 11
178.8431022521814
 21
349.2209234542096
 31
0.0
  0
LINE
  5
8022
330
A
100
AcDbEntity
  8
MODEL
  6
Continuous
100
AcDbLine
 10
178.2071407158634
 20
348.1518172926147
 30
0.0
 11
177.2866359186133
 21
348.2854583567818
 31
0.0
  0
LINE
  5
8023
330
A
100
AcDbEntity
  8
MODEL
  6
Continuous
100
AcDbLine
 10
166.0077933427652
 20
350.3743776387413
 30
0.0
 11
166.0077933427652
 21
349.9468484229286
 31
0.0
  0
LINE
  5
8024
330
A
100
AcDbEntity
  8
MODEL
  6
Continuous
100
AcDbLine
 10
175.6784104016384
 20
350.3743776387413
 30
0.0
 11
175.6784104016384
 21
349.9468484229286
 31
0.0
  0
LINE
  5
8025
330
A
100
AcDbEntity
  8
MODEL
  6
Continuous
100
AcDbLine
 10
173.0803342741689
 20
350.3743776387413
 30
0.0
 11
173.0803342741689
 21
349.9468484229286
 31
0.0
  0
LINE
  5
8026
330
A
100
AcDbEntity
  8
MODEL
  6
Continuous
100
AcDbLine
 10
165.286105426099
 20
350.3743776387413
 30
0.0
 11
165.286105426099
 21
349.9468484229286
 31
0.0
  0
LINE
  5
8027
330
A
100
AcDbEntity
  8
MODEL
  6
Continuous
100
AcDbLine
 10
168.6058694702348
 20
350.3743776387413
 30
0.0
 11
168.6058694702348
 21
349.9468484229286
 31
0.0
  0
LINE
  5
8028
330
A
100
AcDbEntity
  8
MODEL
  6
Continuous
100
AcDbLine
 10
173.8020219580045
 20
350.3743776387413
 30
0.0
 11
173.8020219580045
 21
349.9468484229286
 31
0.0
  0
LINE
  5
8029
330
A
100
AcDbEntity
  8
MODEL
  6
Continuous
100
AcDbLine
 10
176.4000983183047
 20
350.3743776387413
 30
0.0
 11
176.4000983183047
 21
349.9468484229286
 31
0.0
  0
LINE
  5
802A
330
A
100
AcDbEntity
  8
MODEL
  6
Continuous
100
AcDbLine
 10
167.8841817863992
 20
350.3743776387413
 30
0.0
 11
167.8841817863992
 21
349.9468484229286
 31
0.0
  0
LINE
  5
802B
330
A
100
AcDbEntity
  8
MODEL
  6
Continuous
100
AcDbLine
 10
163.4256311897894
 20
349.1356292075355
 30
0.0
 11
164.3528149668833
 21
349.2637493914802
 31
0.0
  0
LINE
  5
802C
330
A
100
AcDbEntity
  8
MODEL
  6
Continuous
100
AcDbLine
 10
174.3793723379036
 20
350.1178615993703
 30
0.0
 11
174.3793723379036
 21
349.6903323835571
 31
0.0
  0
LINE
  5
802D
330
A
100
AcDbEntity
  8
MODEL
  6
Continuous
100
AcDbLine
 10
169.1832198501339
 20
350.1178615993703
 30
0.0
 11
169.1832198501339
 21
349.6903323835571
 31
0.0
  0
LINE
  5
802E
330
A
100
AcDbEntity
  8
MODEL
  6
Continuous
100
AcDbLine
 10
172.5029838942697
 20
350.1178615993703
 30
0.0
 11
172.5029838942697
 21
349.6903323835571
 31
0.0
  0
LINE
  5
802F
330
A
100
AcDbEntity
  8
MODEL
  6
Continuous
100
AcDbLine
 10
166.5851434898337
 20
350.1178615993703
 30
0.0
 11
166.5851434898337
 21
349.6903323835571
 31
0.0
  0
LINE
  5
8030
330
A
100
AcDbEntity
  8
MODEL
  6
Continuous
100
AcDbLine
 10
171.7812960358111
 20
350.1178615993703
 30
0.0
 11
171.7812960358111
 21
349.6903323835571
 31
0.0
  0
LINE
  5
8031
330
A
100
AcDbEntity
  8
MODEL
  6
Continuous
100
AcDbLine
 10
169.9049077085925
 20
350.1178615993703
 30
0.0
 11
169.9049077085925
 21
349.6903323835571
 31
0.0
  0
LINE
  5
8032
330
A
100
AcDbEntity
  8
MODEL
  6
Continuous
100
AcDbLine
 10
167.3068314065
 20
350.1178615993703
 30
0.0
 11
167.3068314065
 21
349.6903323835571
 31
0.0
  0
LINE
  5
8033
330
A
100
AcDbEntity
  8
MODEL
  6
Continuous
100
AcDbLine
 10
175.1010602545699
 20
350.1178615993703
 30
0.0
 11
175.1010602545699
 21
349.6903323835571
 31
0.0
  0
LINE
  5
8034
330
A
100
AcDbEntity
  8
MODEL
  6
Continuous
100
AcDbLine
 10
173.8020219580045
 20
349.8613455599983
 30
0.0
 11
173.8020219580045
 21
349.4338237947667
 31
0.0
  0
LINE
  5
8035
330
A
100
AcDbEntity
  8
MODEL
  6
Continuous
100
AcDbLine
 10
173.0803342741689
 20
349.8613455599983
 30
0.0
 11
173.0803342741689
 21
349.4338237947667
 31
0.0
  0
LINE
  5
8036
330
A
100
AcDbEntity
  8
MODEL
  6
Continuous
100
AcDbLine
 10
170.4822579429725
 20
349.8613455599983
 30
0.0
 11
170.4822579429725
 21
349.4338237947667
 31
0.0
  0
LINE
  5
8037
330
A
100
AcDbEntity
  8
MODEL
  6
Continuous
100
AcDbLine
 10
175.6784104016384
 20
349.8613455599983
 30
0.0
 11
175.6784104016384
 21
349.4338237947667
 31
0.0
  0
LINE
  5
8038
330
A
100
AcDbEntity
  8
MODEL
  6
Continuous
100
AcDbLine
 10
171.2039458014311
 20
349.8613455599983
 30
0.0
 11
171.2039458014311
 21
349.4338237947667
 31
0.0
  0
LINE
  5
8039
330
A
100
AcDbEntity
  8
MODEL
  6
Continuous
100
AcDbLine
 10
168.6058694702348
 20
349.8613455599983
 30
0.0
 11
168.6058694702348
 21
349.4338237947667
 31
0.0
  0
LINE
  5
803A
330
A
100
AcDbEntity
  8
MODEL
  6
Continuous
100
AcDbLine
 10
166.0077933427652
 20
349.8613455599983
 30
0.0
 11
166.0077933427652
 21
349.4338237947667
 31
0.0
  0
LINE
  5
803B
330
A
100
AcDbEntity
  8
MODEL
  6
Continuous
100
AcDbLine
 10
167.8841817863992
 20
349.8613455599983
 30
0.0
 11
167.8841817863992
 21
349.4338237947667
 31
0.0
  0
LINE
  5
803C
330
A
100
AcDbEntity
  8
MODEL
  6
Continuous
100
AcDbLine
 10
165.286105426099
 20
349.8613455599983
 30
0.0
 11
165.286105426099
 21
349.4338237947667
 31
0.0
  0
LINE
  5
803D
330
A
100
AcDbEntity
  8
MODEL
  6
Continuous
100
AcDbLine
 10
176.4000983183047
 20
349.8613455599983
 30
0.0
 11
176.4000983183047
 21
349.4338237947667
 31
0.0
  0
LINE
  5
803E
330
A
100
AcDbEntity
  8
MODEL
  6
Continuous
100
AcDbLine
 10
174.3793723379036
 20
349.6048295206268
 30
0.0
 11
174.3793723379036
 21
349.1773077553947
 31
0.0
  0
LINE
  5
803F
330
A
100
AcDbEntity
  8
MODEL
  6
Continuous
100
AcDbLine
 10
169.9049077085925
 20
349.6048295206268
 30
0.0
 11
169.9049077085925
 21
349.1773077553947
 31
0.0
  0
LINE
  5
8040
330
A
100
AcDbEntity
  8
MODEL
  6
Continuous
100
AcDbLine
 10
166.5851434898337
 20
349.6048295206268
 30
0.0
 11
166.5851434898337
 21
349.1773077553947
 31
0.0
  0
LINE
  5
8041
330
A
100
AcDbEntity
  8
MODEL
  6
Continuous
100
AcDbLine
 10
169.1832198501339
 20
349.6048295206268
 30
0.0
 11
169.1832198501339
 21
349.1773077553947
 31
0.0
  0
LINE
  5
8042
330
A
100
AcDbEntity
  8
MODEL
  6
Continuous
100
AcDbLine
 10
172.5029838942697
 20
349.6048295206268
 30
0.0
 11
172.5029838942697
 21
349.1773077553947
 31
0.0
  0
LINE
  5
8043
330
A
100
AcDbEntity
  8
MODEL
  6
Continuous
100
AcDbLine
 10
167.3068314065
 20
349.6048295206268
 30
0.0
 11
167.3068314065
 21
349.1773077553947
 31
0.0
  0
LINE
  5
8044
330
A
100
AcDbEntity
  8
MODEL
  6
Continuous
100
AcDbLine
 10
171.7812960358111
 20
349.6048295206268
 30
0.0
 11
171.7812960358111
 21
349.1773077553947
 31
0.0
  0
LINE
  5
8045
330
A
100
AcDbEntity
  8
MODEL
  6
Continuous
100
AcDbLine
 10
175.1010602545699
 20
349.6048295206268
 30
0.0
 11
175.1010602545699
 21
349.1773077553947
 31
0.0
  0
LINE
  5
8046
330
A
100
AcDbEntity
  8
MODEL
  6
Continuous
100
AcDbLine
 10
163.4256311897894
 20
348.1959396309097
 30
0.0
 11
164.3528149668833
 21
348.3240598148549
 31
0.0
  0
LINE
  5
8047
330
A
100
AcDbEntity
  8
MODEL
  6
Continuous
100
AcDbLine
 10
165.8933542874416
 20
347.5280099815567
 30
0.0
 11
165.1862476226648
 21
347.2861641353805
 31
0.0
  0
LINE
  5
8048
330
A
100
AcDbEntity
  8
MODEL
  6
Continuous
100
AcDbLine
 10
176.0745517183801
 20
348.3713486499031
 30
0.0
 11
176.4999561217388
 21
348.2258537120064
 31
0.0
  0
LINE
  5
8049
330
A
100
AcDbEntity
  8
MODEL
  6
Continuous
100
AcDbLine
 10
170.4822579429725
 20
349.3483134812553
 30
0.0
 11
170.4822579429725
 21
348.9207917160232
 31
0.0
  0
LINE
  5
804A
330
A
100
AcDbEntity
  8
MODEL
  6
Continuous
100
AcDbLine
 10
171.2039458014311
 20
349.3483134812553
 30
0.0
 11
171.2039458014311
 21
348.9207917160232
 31
0.0
  0
LINE
  5
804B
330
A
100
AcDbEntity
  8
MODEL
  6
Continuous
100
AcDbLine
 10
173.0803342741689
 20
349.3483134812553
 30
0.0
 11
173.0803342741689
 21
348.9207917160232
 31
0.0
  0
LINE
  5
804C
330
A
100
AcDbEntity
  8
MODEL
  6
Continuous
100
AcDbLine
 10
173.8020219580045
 20
349.3483134812553
 30
0.0
 11
173.8020219580045
 21
348.9207917160232
 31
0.0
  0
LINE
  5
804D
330
A
100
AcDbEntity
  8
MODEL
  6
Continuous
100
AcDbLine
 10
167.8841817863992
 20
349.3483134812553
 30
0.0
 11
167.8841817863992
 21
348.9207917160232
 31
0.0
  0
LINE
  5
804E
330
A
100
AcDbEntity
  8
MODEL
  6
Continuous
100
AcDbLine
 10
168.6058694702348
 20
349.3483134812553
 30
0.0
 11
168.6058694702348
 21
348.9207917160232
 31
0.0
  0
LINE
  5
804F
330
A
100
AcDbEntity
  8
MODEL
  6
Continuous
100
AcDbLine
 10
174.3793723379036
 20
349.0917974418838
 30
0.0
 11
174.3793723379036
 21
348.6642756766518
 31
0.0
  0
LINE
  5
8050
330
A
100
AcDbEntity
  8
MODEL
  6
Continuous
100
AcDbLine
 10
167.3068314065
 20
349.0917974418838
 30
0.0
 11
167.3068314065
 21
348.6642756766518
 31
0.0
  0
LINE
  5
8051
330
A
100
AcDbEntity
  8
MODEL
  6
Continuous
100
AcDbLine
 10
169.9049077085925
 20
349.0917974418838
 30
0.0
 11
169.9049077085925
 21
348.6642756766518
 31
0.0
  0
LINE
  5
8052
330
A
100
AcDbEntity
  8
MODEL
  6
Continuous
100
AcDbLine
 10
169.1832198501339
 20
349.0917974418838
 30
0.0
 11
169.1832198501339
 21
348.6642756766518
 31
0.0
  0
LINE
  5
8053
330
A
100
AcDbEntity
  8
MODEL
  6
Continuous
100
AcDbLine
 10
167.8841817863992
 20
348.8352814025128
 30
0.0
 11
167.8841817863992
 21
348.4077596372803
 31
0.0
  0
LINE
  5
8054
330
A
100
AcDbEntity
  8
MODEL
  6
Continuous
100
AcDbLine
 10
173.0803342741689
 20
348.8352814025128
 30
0.0
 11
173.0803342741689
 21
348.4077596372803
 31
0.0
  0
LINE
  5
8055
330
A
100
AcDbEntity
  8
MODEL
  6
Continuous
100
AcDbLine
 10
170.4822579429725
 20
348.8352814025128
 30
0.0
 11
170.4822579429725
 21
348.4077596372803
 31
0.0
  0
LINE
  5
8056
330
A
100
AcDbEntity
  8
MODEL
  6
Continuous
100
AcDbLine
 10
168.6058694702348
 20
348.8352814025128
 30
0.0
 11
168.6058694702348
 21
348.4077596372803
 31
0.0
  0
LINE
  5
8057
330
A
100
AcDbEntity
  8
MODEL
  6
Continuous
100
AcDbLine
 10
173.8020219580045
 20
348.8352814025128
 30
0.0
 11
173.8020219580045
 21
348.4077596372803
 31
0.0
  0
LINE
  5
8058
330
A
100
AcDbEntity
  8
MODEL
  6
Continuous
100
AcDbLine
 10
171.2039458014311
 20
348.8352814025128
 30
0.0
 11
171.2039458014311
 21
348.4077596372803
 31
0.0
  0
LINE
  5
8059
330
A
100
AcDbEntity
  8
MODEL
  6
Continuous
100
AcDbLine
 10
175.792849456962
 20
347.5280099815567
 30
0.0
 11
176.4999561217388
 21
347.2861641353805
 31
0.0
  0
LINE
  5
805A
330
A
100
AcDbEntity
  8
MODEL
  6
Continuous
100
AcDbLine
 10
173.8399547264686
 20
346.683993310376
 30
0.0
 11
173.4653479159584
 21
347.0011123723228
 31
0.0
  0
LINE
  5
805B
330
A
100
AcDbEntity
  8
MODEL
  6
Continuous
100
AcDbLine
 10
167.7172529251089
 20
347.6419666117866
 30
0.0
 11
167.817931456562
 21
347.7230885333259
 31
0.0
  0
LINE
  5
805C
330
A
100
AcDbEntity
  8
MODEL
  6
Continuous
100
AcDbLine
 10
169.9049077085925
 20
348.5787728137215
 30
0.0
 11
169.9049077085925
 21
348.1512435979092
 31
0.0
  0
LINE
  5
805D
330
A
100
AcDbEntity
  8
MODEL
  6
Continuous
100
AcDbLine
 10
171.7812960358111
 20
348.5787728137215
 30
0.0
 11
171.7812960358111
 21
348.1512435979092
 31
0.0
  0
LINE
  5
805E
330
A
100
AcDbEntity
  8
MODEL
  6
Continuous
100
AcDbLine
 10
167.7172529251089
 20
346.7022695845802
 30
0.0
 11
168.1079839561841
 21
347.0171013182838
 31
0.0
  0
LINE
  5
805F
330
A
100
AcDbEntity
  8
MODEL
  6
Continuous
100
AcDbLine
 10
170.8431018722018
 20
346.8267762369354
 30
0.0
 11
170.8431018722018
 21
346.4847573346336
 31
0.0
  0
LWPOLYLINE
  5
8060
330
A
100
AcDbEntity
  8
MODEL
  6
Continuous
100
AcDbPolyline
 90
       43
 70
   128
 43
0.0
 10
162.5431020018419
 20
349.2209234542096
 10
162.6358058509192
 20
349.6440195745666
 10
162.91184799939
 20
350.0576609081471
 10
163.3650602978429
 20
350.45261618559
 10
163.9853202012142
 20
350.8200564688881
 10
164.7587714922389
 20
351.1517712182243
 10
165.668136740174
 20
351.440354556485
 10
166.6931019370219
 20
351.6793617314537
 10
167.8107714486083
 20
351.8634506768425
 10
168.9961781465223
 20
351.9885161227429
 10
170.2228420852458
 20
352.0517492002685
 10
171.4633616591578
 20
352.0517492002685
 10
172.6900255978813
 20
351.9885161227429
 10
173.8754322957953
 20
351.8634506768425
 10
174.9931018073818
 20
351.6793617314537
 10
176.0180670042297
 20
351.440354556485
 10
176.9274322521647
 20
351.1517712182243
 10
177.7008835431894
 20
350.8200564688881
 10
178.3211434465608
 20
350.45261618559
 10
178.7743557450136
 20
350.0576609081471
 10
179.0503978934845
 20
349.6440195745666
 10
179.1431017425617
 20
349.2209234542096
 10
179.0503978934845
 20
348.7978273338516
 10
178.7743557450136
 20
348.384178549691
 10
178.3211434465608
 20
347.9892232722481
 10
177.7008835431894
 20
347.6217829889496
 10
176.9274322521647
 20
347.2900682396138
 10
176.0180670042297
 20
347.0014849013527
 10
174.9931018073818
 20
346.762477726384
 10
173.8754322957953
 20
346.5783887809956
 10
172.6900255978813
 20
346.4533233350952
 10
171.4633616591578
 20
346.3900902575691
 10
170.2228420852458
 20
346.3900902575691
 10
168.9961781465223
 20
346.4533233350952
 10
167.8107714486083
 20
346.5783887809956
 10
166.6931019370219
 20
346.762477726384
 10
165.668136740174
 20
347.0014849013527
 10
164.7587714922389
 20
347.2900682396138
 10
163.9853202012142
 20
347.6217829889496
 10
163.3650602978429
 20
347.9892232722481
 10
162.91184799939
 20
348.384178549691
 10
162.6358058509192
 20
348.7978273338516
 10
162.5431020018419
 20
349.2209234542096
  0
LWPOLYLINE
  5
8061
330
A
100
AcDbEntity
  8
MODEL
  6
Continuous
100
AcDbPolyline
 90
       48
 70
   128
 43
0.0
 10
160.8431020957192
 20
349.2209234542096
 10
160.9323274549803
 20
349.6767872280324
 10
161.1984100398382
 20
350.1245224184235
 10
161.6366028991303
 20
350.5561271018227
 10
162.2390857171973
 20
350.9639122790539
 10
162.9951082375607
 20
351.3405912822922
 10
163.8911774587592
 20
351.6794436878403
 10
164.911304434832
 20
351.9744196242531
 10
166.0372841377517
 20
352.2202664322102
 10
167.2490242142936
 20
352.4125882691582
 10
168.5249002855977
 20
352.5479504174431
 10
169.8421450071743
 20
352.6239463395317
 10
171.1772516517209
 20
352.6392125791753
 10
172.5063954452759
 20
352.5934809154709
 10
173.8058576100281
 20
352.487563461705
 10
175.0524494071266
 20
352.3233526653488
 10
176.2239256148001
 20
352.1037840551575
 10
177.2993806023857
 20
351.8327617353642
 10
178.2596230712494
 20
351.5151360339363
 10
179.0875176173409
 20
351.1565768427093
 10
179.7682902049979
 20
350.7634693092544
 10
180.289792662557
 20
350.3428318804944
 10
180.6427192148527
 20
349.9021747416695
 10
180.8207703959903
 20
349.4493657058914
 10
180.8207703959903
 20
348.9924737519462
 10
180.6427192148527
 20
348.5396647161682
 10
180.289792662557
 20
348.0990075773437
 10
179.7682902049979
 20
347.6783775991638
 10
179.0875176173409
 20
347.2852700657089
 10
178.2596230712494
 20
346.9267034239018
 10
177.2993806023857
 20
346.6090777224739
 10
176.2239256148001
 20
346.3380554026802
 10
175.0524494071266
 20
346.1184867924889
 10
173.8058576100281
 20
345.9542759961327
 10
172.5063954452759
 20
345.8483585423668
 10
171.1772516517209
 20
345.8026268786629
 10
169.8421450071743
 20
345.817893118306
 10
168.5249002855977
 20
345.8938890403946
 10
167.2490242142936
 20
346.0292511886795
 10
166.0372841377517
 20
346.2215730256279
 10
164.911304434832
 20
346.4674198335846
 10
163.8911774587592
 20
346.7623957699974
 10
162.9951082375607
 20
347.1012481755455
 10
162.2390857171973
 20
347.4779271787842
 10
161.6366028991303
 20
347.885712356015
 10
161.1984100398382
 20
348.3173170394147
 10
160.9323274549803
 20
348.7650522298057
 10
160.8431020957192
 20
349.2209234542096
  0
LWPOLYLINE
  5
8062
330
A
100
AcDbEntity
  8
MODEL
  6
Continuous
100
AcDbPolyline
 90
       25
 70
   128
 43
0.0
 10
160.8431020957192
 20
382.8619190758903
 10
160.9323274549803
 20
383.3177828497131
 10
161.1984100398382
 20
383.7655180401047
 10
161.6366028991303
 20
384.1971227235039
 10
162.2390857171973
 20
384.6049079007347
 10
162.9951082375607
 20
384.9815869039738
 10
163.8911774587592
 20
385.3204393095219
 10
164.911304434832
 20
385.6154152459343
 10
166.0372841377517
 20
385.861262053891
 10
167.2490242142936
 20
386.0535838908394
 10
168.5249002855977
 20
386.1889460391243
 10
169.8421450071743
 20
386.2649419612129
 10
171.1772516517209
 20
386.280208200856
 10
172.5063954452759
 20
386.2344765371525
 10
173.8058576100281
 20
386.1285590833862
 10
175.0524494071266
 20
385.96434828703
 10
176.2239256148001
 20
385.7447796768387
 10
177.2993806023857
 20
385.473757357045
 10
178.2596230712494
 20
385.1561316556175
 10
179.0875176173409
 20
384.7975724643906
 10
179.7682902049979
 20
384.4044649309361
 10
180.289792662557
 20
383.9838275021751
 10
180.6427192148527
 20
383.5431703633507
 10
180.8207703959903
 20
383.0903613275726
 10
180.8431016486844
 20
382.8619190758903
  0
SPLINE
  5
8063
330
A
100
AcDbEntity
  8
MODEL
  6
Continuous
100
AcDbSpline
210
0.0
220
0.0
230
1.0
 70
     8
 71
     3
 72
    24
 73
    20
 74
     0
 42
0.000000001
 43
0.00000001
 40
0.0
 40
0.0
 40
0.0
 40
0.0
 40
0.0586700066174747
 40
0.1659869456940227
 40
0.2283487755435616
 40
0.2923665335957116
 40
0.3400685820362589
 40
0.388974511134923
 40
0.436759590248002
 40
0.4863704832405429
 40
0.5712741960880426
 40
0.6327626206899751
 40
0.6960073274261708
 40
0.7585422316039487
 40
0.8228153669947915
 40
0.8747460433814267
 40
0.9280948814367023
 40
0.9800787598294642
 40
1.0
 40
1.0
 40
1.0
 40
1.0
 10
180.5262088981232
 20
372.4104979342659
 30
0.0
 10
180.4409206674696
 20
372.4152152225619
 30
0.0
 10
180.1996264572623
 20
372.4285611947438
 30
0.0
 10
179.6180843939161
 20
371.918706547607
 30
0.0
 10
179.0369943808488
 20
371.1779723559274
 30
0.0
 10
178.62714969511
 20
370.457910209588
 30
0.0
 10
178.3207625309402
 20
369.6703156165912
 30
0.0
 10
178.1314456475153
 20
368.8673003386861
 30
0.0
 10
178.0589533293147
 20
367.9740670502578
 30
0.0
 10
178.1358183367935
 20
366.7994979039344
 30
0.0
 10
178.4463650640115
 20
365.5100093251284
 30
0.0
 10
178.9187910176385
 20
364.1945103696102
 30
0.0
 10
179.3862951161842
 20
363.0744768087701
 30
0.0
 10
179.8566292657321
 20
362.008645911595
 30
0.0
 10
180.2536790854662
 20
361.0904097635497
 30
0.0
 10
180.5590013000343
 20
360.3139545437633
 30
0.0
 10
180.7516905293102
 20
359.7064352078941
 30
0.0
 10
180.8460274365458
 20
359.2937238520689
 30
0.0
 10
180.8331137326328
 20
359.1469210496106
 30
0.0
 10
180.8295360040626
 20
359.1062494820793
 30
0.0
  0
LINE
  5
8064
330
A
100
AcDbEntity
  8
MODEL
  6
Continuous
100
AcDbLine
 10
189.8431012612542
 20
372.4715703434189
 30
0.0
 11
189.8431012612542
 21
358.6715751594746
 31
0.0
  0
LINE
  5
8065
330
A
100
AcDbEntity
  8
MODEL
  6
Continuous
100
AcDbLine
 10
483.3168986551237
 20
386.5640231675346
 30
0.0
 11
479.3831783644629
 21
397.3718279308522
 31
0.0
  0
LINE
  5
8066
330
A
100
AcDbEntity
  8
MODEL
  6
Continuous
100
AcDbLine
 10
460.5893272273016
 20
390.5314275330742
 30
0.0
 11
464.5230475179625
 21
379.7236227697571
 31
0.0
  0
ARC
  5
8067
330
A
100
AcDbEntity
  8
MODEL
  6
Continuous
100
AcDbCircle
 10
437.0970133174678
 20
381.9809203452304
 30
0.0
 40
25.00000000000043
100
AcDbArc
 50
20.00000000000149
 51
90.0
  0
ARC
  5
8068
330
A
100
AcDbEntity
  8
MODEL
  6
Continuous
100
AcDbCircle
 10
437.0970133174678
 20
381.9809203452304
 30
0.0
 40
45.00000000000038
100
AcDbArc
 50
19.99999999999901
 51
90.0
  0
LINE
  5
8069
330
A
100
AcDbEntity
  8
MODEL
  6
Continuous
100
AcDbLine
 10
390.4169000051688
 20
272.9809203452313
 30
0.0
 11
390.4169000051688
 21
381.9809177226265
 31
0.0
  0
LINE
  5
806A
330
A
100
AcDbEntity
  8
MODEL
  6
Continuous
100
AcDbLine
 10
370.4169004522037
 20
381.9809177226265
 30
0.0
 11
370.4169004522037
 21
272.9809203452313
 31
0.0
  0
ARC
  5
806B
330
A
100
AcDbEntity
  8
MODEL
  6
Continuous
100
AcDbCircle
 10
415.4169002286862
 20
381.9809203452304
 30
0.0
 40
25.0
100
AcDbArc
 50
90.0
 51
180.0
  0
ARC
  5
806C
330
A
100
AcDbEntity
  8
MODEL
  6
Continuous
100
AcDbCircle
 10
415.4169002286862
 20
381.9809203452304
 30
0.0
 40
45.0
100
AcDbArc
 50
90.0
 51
180.0
  0
LINE
  5
806D
330
A
100
AcDbEntity
  8
MODEL
  6
Continuous
100
AcDbLine
 10
437.0970133058499
 20
426.9809195107663
 30
0.0
 11
415.4169003776979
 21
426.9809195107663
 31
0.0
  0
LINE
  5
806E
330
A
100
AcDbEntity
  8
MODEL
  6
Continuous
100
AcDbLine
 10
415.4169003776979
 20
406.980923683091
 30
0.0
 11
437.0970133058499
 21
406.980923683091
 31
0.0
  0
ARC
  5
806F
330
A
100
AcDbEntity
  8
MODEL
  6
Continuous
100
AcDbCircle
 10
400.9169002286844
 20
268.4809203452309
 30
0.0
 40
1.500000000000341
100
AcDbArc
 50
270.0
 51
340.5287793655461
  0
ARC
  5
8070
330
A
100
AcDbEntity
  8
MODEL
  6
Continuous
100
AcDbCircle
 10
359.9169002286862
 20
268.4809203452309
 30
0.0
 40
1.500000000000341
100
AcDbArc
 50
199.4712206344725
 51
270.0
  0
LINE
  5
8071
330
A
100
AcDbEntity
  8
MODEL
  6
Continuous
100
AcDbLine
 10
359.9168996624421
 20
266.9809202930768
 30
0.0
 11
400.9169007949304
 21
266.9809202930768
 31
0.0
  0
LINE
  5
8072
330
A
100
AcDbEntity
  8
MODEL
  6
Continuous
100
AcDbLine
 10
404.4169004373025
 20
267.9809204569896
 30
0.0
 11
404.4169004373025
 21
272.9809203452313
 31
0.0
  0
LINE
  5
8073
330
A
100
AcDbEntity
  8
MODEL
  6
Continuous
100
AcDbLine
 10
356.41690002007
 20
272.9809203452313
 30
0.0
 11
356.41690002007
 21
267.9809204569896
 31
0.0
  0
LINE
  5
817C
330
A
100
AcDbEntity
  8
MODEL
  6
Continuous
100
AcDbLine
 10
482.2213950864744
 20
385.8460405177319
 30
0.0
 11
482.1187931410742
 21
386.1279481357773
 31
0.0
  0
LINE
  5
817D
330
A
100
AcDbEntity
  8
MODEL
  6
Continuous
100
AcDbLine
 10
465.721153032012
 20
380.1596978015144
 30
0.0
 11
465.8237624279928
 21
379.8777901834691
 31
0.0
  0
LINE
  5
817E
330
A
100
AcDbEntity
  8
MODEL
  6
Continuous
100
AcDbLine
 10
464.6256494633627
 20
379.4417151517113
 30
0.0
 11
476.8699708692503
 21
345.8007195300301
 31
0.0
  0
LINE
  5
817F
330
A
100
AcDbEntity
  8
MODEL
  6
Continuous
100
AcDbLine
 10
495.6638294569922
 20
352.6411199278076
 30
0.0
 11
483.4195080511046
 21
386.2821155494888
 31
0.0
  0
LWPOLYLINE
  5
8180
330
A
100
AcDbEntity
  8
MODEL
  6
Continuous
100
AcDbPolyline
 90
       13
 70
   128
 43
0.0
 10
473.9199730865431
 20
383.1438266939366
 10
472.6674857847166
 20
382.6879554695328
 10
471.4373502246809
 20
382.2402202791417
 10
470.2515158168745
 20
381.808615595742
 10
469.1311422101927
 20
381.4008304185112
 10
468.0962267629576
 20
381.0241514152725
 10
467.165239464469
 20
380.6852990097244
 10
466.3547876588774
 20
380.3903230733116
 10
465.6793403737021
 20
380.1444762653549
 10
465.1509451977682
 20
379.9521618789871
 10
464.7790345661116
 20
379.8167922801216
 10
464.5702394954634
 20
379.740796358033
 10
464.5230475179625
 20
379.7236227697571
  0
LWPOLYLINE
  5
8181
330
A
100
AcDbEntity
  8
MODEL
  6
Continuous
100
AcDbPolyline
 90
       13
 70
   128
 43
0.0
 10
483.3168986551237
 20
386.5640231675346
 10
483.2697066776228
 20
386.5468495792587
 10
483.0609116069746
 20
386.4708536571701
 10
482.689000975318
 20
386.3354915088852
 10
482.1606057993841
 20
386.1431696719372
 10
481.4851585142088
 20
385.8973228639801
 10
480.6747067086172
 20
385.6023469275673
 10
479.7437194101286
 20
385.2634945220192
 10
478.7088039628935
 20
384.886815518781
 10
477.5884303562117
 20
384.4790303415497
 10
476.4025959484053
 20
384.0474256581505
 10
475.1724603883696
 20
383.5996904677594
 10
473.9199730865431
 20
383.1438266939366
  0
LINE
  5
8182
330
A
100
AcDbEntity
  8
MODEL
  6
Continuous
100
AcDbLine
 10
404.4169004373025
 20
272.9809203452313
 30
0.0
 11
356.41690002007
 21
272.9809203452313
 31
0.0
  0
LINE
  5
8184
330
A
100
AcDbEntity
  8
MODEL
  6
Continuous
100
AcDbLine
 10
367.2902410216402
 20
267.9809204569896
 30
0.0
 11
356.41690002007
 21
267.9809204569896
 31
0.0
  0
LINE
  5
8185
330
A
100
AcDbEntity
  8
MODEL
  6
Continuous
100
AcDbLine
 10
404.4169004373025
 20
267.9809204569896
 30
0.0
 11
367.2902410216402
 21
267.9809204569896
 31
0.0
  0
LWPOLYLINE
  5
8219
330
A
100
AcDbEntity
  8
MODEL
  6
Continuous
100
AcDbPolyline
 90
       13
 70
   128
 43
0.0
 10
486.2669038884115
 20
349.2209234542096
 10
487.519391190238
 20
349.6767872280324
 10
488.7495267502737
 20
350.1245224184235
 10
489.9353611580801
 20
350.5561271018227
 10
491.0557273141814
 20
350.9639122790539
 10
492.0906427614165
 20
351.3405912822922
 10
493.0216300599051
 20
351.6794436878403
 10
493.8320818654967
 20
351.9744196242531
 10
494.5075366012526
 20
352.2202664322102
 10
495.0359317771864
 20
352.4125882691582
 10
495.4078424088431
 20
352.5479504174431
 10
495.6166300289107
 20
352.6239463395317
 10
495.6638294569922
 20
352.6411199278076
  0
LWPOLYLINE
  5
821A
102
{ACAD_REACTORS
330
8E32
330
8E41
102
}
330
A
100
AcDbEntity
  8
MODEL
  6
Continuous
100
AcDbPolyline
 90
       13
 70
   128
 43
0.0
 10
476.8699708692503
 20
345.8007195300301
 10
476.9171702973318
 20
345.817893118306
 10
477.1259579173994
 20
345.8938890403946
 10
477.4978685490561
 20
346.0292511886795
 10
478.0262637249899
 20
346.2215730256279
 10
478.7017184607458
 20
346.4674198335846
 10
479.5121702663374
 20
346.7623957699974
 10
480.443157564826
 20
347.1012481755455
 10
481.4780730120611
 20
347.4779271787842
 10
482.5984391681624
 20
347.885712356015
 10
483.7842735759688
 20
348.3173170394147
 10
485.0144091360045
 20
348.7650522298057
 10
486.2669038884115
 20
349.2209234542096
  0
LWPOLYLINE
  5
821B
330
A
100
AcDbEntity
  8
MODEL
  6
Continuous
100
AcDbPolyline
 90
       13
 70
   128
 43
0.0
 10
474.0225824825239
 20
382.8619190758903
 10
475.2750697843504
 20
383.3177828497131
 10
476.5052053443861
 20
383.7655180401047
 10
477.6910397521925
 20
384.1971227235039
 10
478.8114059082938
 20
384.6049079007347
 10
479.8463213555289
 20
384.9815869039738
 10
480.7773086540175
 20
385.3204393095219
 10
481.5877604596091
 20
385.6154152459343
 10
482.263215195365
 20
385.861262053891
 10
482.7916103712988
 20
386.0535838908394
 10
483.1635210029555
 20
386.1889460391243
 10
483.3723086230231
 20
386.2649419612129
 10
483.4195080511046
 20
386.2821155494888
  0
LWPOLYLINE
  5
821C
330
A
100
AcDbEntity
  8
MODEL
  6
Continuous
100
AcDbPolyline
 90
       13
 70
   128
 43
0.0
 10
464.6256494633627
 20
379.4417151517113
 10
464.6728488914442
 20
379.4588887399872
 10
464.8816365115118
 20
379.5348846620758
 10
465.2535471431685
 20
379.6702468103607
 10
465.7819423191023
 20
379.8625686473091
 10
466.4573970548582
 20
380.1084154552658
 10
467.2678488604498
 20
380.4033913916791
 10
468.1988361589384
 20
380.7422437972272
 10
469.2337516061735
 20
381.1189228004654
 10
470.3541177622748
 20
381.5267079776962
 10
471.5399521700812
 20
381.9583126610954
 10
472.7700877301169
 20
382.406047851487
 10
474.0225824825239
 20
382.8619190758903
  0
LINE
  5
821D
330
A
100
AcDbEntity
  8
MODEL
  6
Continuous
100
AcDbLine
 10
160.8431020957192
 20
648.2638983804459
 30
0.0
 11
160.8431020957192
 21
613.2638982314343
 31
0.0
  0
LINE
  5
821E
330
A
100
AcDbEntity
  8
MODEL
  6
Continuous
100
AcDbLine
 10
180.8431016486844
 20
613.2638982314343
 30
0.0
 11
180.8431016486844
 21
648.2638983804459
 31
0.0
  0
LINE
  5
821F
330
A
100
AcDbEntity
  8
MODEL
  6
Continuous
100
AcDbLine
 10
180.8431016486844
 20
591.5837853032822
 30
0.0
 11
180.8431016486844
 21
613.2638982314343
 31
0.0
  0
LINE
  5
8220
330
A
100
AcDbEntity
  8
MODEL
  6
Continuous
100
AcDbLine
 10
160.8431020957192
 20
613.2638982314343
 30
0.0
 11
160.8431020957192
 21
591.5837853032822
 31
0.0
  0
LINE
  5
8221
330
A
100
AcDbEntity
  8
MODEL
  6
Continuous
100
AcDbLine
 10
160.8431020957192
 20
591.5837853032822
 30
0.0
 11
160.8431020957192
 21
558.69454581325
 31
0.0
  0
LINE
  5
8222
330
A
100
AcDbEntity
  8
MODEL
  6
Continuous
100
AcDbLine
 10
180.8431016486844
 20
558.69454581325
 30
0.0
 11
180.8431016486844
 21
591.5837853032822
 31
0.0
  0
LINE
  5
8223
330
A
100
AcDbEntity
  8
MODEL
  6
Continuous
100
AcDbLine
 10
180.8431016486844
 20
554.7608255225891
 30
0.0
 11
180.8431016486844
 21
558.69454581325
 31
0.0
  0
LINE
  5
8224
330
A
100
AcDbEntity
  8
MODEL
  6
Continuous
100
AcDbLine
 10
160.8431020957192
 20
558.69454581325
 30
0.0
 11
160.8431020957192
 21
554.7608255225891
 31
0.0
  0
LINE
  5
8225
330
A
100
AcDbEntity
  8
MODEL
  6
Continuous
100
AcDbLine
 10
160.8431020957192
 20
554.6582161266083
 30
0.0
 11
160.8431020957192
 21
542.4138947207207
 31
0.0
  0
LINE
  5
8226
330
A
100
AcDbEntity
  8
MODEL
  6
Continuous
100
AcDbLine
 10
180.8431016486844
 20
550.7125376540894
 30
0.0
 11
180.8431016486844
 21
554.6582161266083
 31
0.0
  0
LINE
  5
8227
330
A
100
AcDbEntity
  8
MODEL
  6
Continuous
100
AcDbLine
 10
189.8431012612542
 20
555.2650510150665
 30
0.0
 11
180.8431016486844
 21
555.2650510150665
 31
0.0
  0
LINE
  5
8228
330
A
100
AcDbEntity
  8
MODEL
  6
Continuous
100
AcDbLine
 10
178.4714440089425
 20
541.4650483805412
 30
0.0
 11
189.8431012612542
 21
541.4650483805412
 31
0.0
  0
ARC
  5
8229
330
A
100
AcDbEntity
  8
MODEL
  6
Continuous
 62
     7
100
AcDbCircle
 10
170.8431018722018
 20
648.2638983804459
 30
0.0
 40
10.0
100
AcDbArc
 50
0.0
 51
180.0
  0
LWPOLYLINE
  5
822A
330
A
100
AcDbEntity
  8
MODEL
  6
Continuous
 62
     7
100
AcDbPolyline
 90
       25
 70
   128
 43
0.0
 10
180.8431016486844
 20
554.7608255225891
 10
180.8207703959903
 20
554.1331811625237
 10
180.6427192148527
 20
552.8890906650299
 10
180.289792662557
 20
551.6784011203522
 10
179.7682902049979
 20
550.5227192122215
 10
179.0875176173409
 20
549.4426606971497
 10
178.2596230712494
 20
548.4575076777214
 10
177.2993806023857
 20
547.5848435241455
 10
176.2239256148001
 20
546.840232499289
 10
175.0524494071266
 20
546.236958988356
 10
173.8058576100281
 20
545.7857965308899
 10
172.5063954452759
 20
545.4947992045159
 10
171.1772516517209
 20
545.3691451627487
 10
169.8421450071743
 20
545.4110919315094
 10
168.5249002855977
 20
545.6198870021576
 10
167.2490242142936
 20
545.9917976338143
 10
166.0372841377517
 20
546.5201928097481
 10
164.911304434832
 20
547.1956400949234
 10
163.8911774587592
 20
548.006091900515
 10
162.9951082375607
 20
548.9370791990036
 10
162.2390857171973
 20
549.9719946462387
 10
161.6366028991303
 20
551.0923682529206
 10
161.1984100398382
 20
552.278202660727
 10
160.9323274549803
 20
553.5083382207627
 10
160.8431020957192
 20
554.7608255225891
  0
ARC
  5
822B
330
A
100
AcDbEntity
  8
MODEL
  6
Continuous
 62
     7
100
AcDbCircle
 10
170.8431018722018
 20
648.2638983804459
 30
0.0
 40
23.99999999999988
100
AcDbArc
 50
294.6243183521642
 51
146.8423803590757
  0
ARC
  5
822C
330
A
100
AcDbEntity
  8
MODEL
  6
Continuous
 62
     7
100
AcDbCircle
 10
170.8431018722018
 20
648.2638983804459
 30
0.0
 40
23.99999999999988
100
AcDbArc
 50
146.8423803590757
 51
245.3756816478358
  0
LWPOLYLINE
  5
822D
330
A
100
AcDbEntity
  8
MODEL
  6
Continuous
 62
     7
100
AcDbPolyline
 90
       25
 70
   128
 43
0.0
 10
160.8431020957192
 20
554.6582161266083
 10
160.9323274549803
 20
553.4057288247818
 10
161.1984100398382
 20
552.1755932647461
 10
161.6366028991303
 20
550.9897588569397
 10
162.2390857171973
 20
549.8693927008385
 10
162.9951082375607
 20
548.8344772536034
 10
163.8911774587592
 20
547.9034899551148
 10
164.911304434832
 20
547.0930381495232
 10
166.0372841377517
 20
546.4175834137673
 10
167.2490242142936
 20
545.8891882378334
 10
168.5249002855977
 20
545.5172776061768
 10
169.8421450071743
 20
545.3084899861092
 10
171.1772516517209
 20
545.2665432173485
 10
172.5063954452759
 20
545.392189808535
 10
173.8058576100281
 20
545.6831945854897
 10
175.0524494071266
 20
546.1343495923752
 10
176.2239256148001
 20
546.7376231033081
 10
177.2993806023857
 20
547.4822341281647
 10
178.2596230712494
 20
548.3549057323212
 10
179.0875176173409
 20
549.3400587517494
 10
179.7682902049979
 20
550.4201098162407
 10
180.289792662557
 20
551.5757917243714
 10
180.6427192148527
 20
552.7864812690491
 10
180.8207703959903
 20
554.0305717665428
 10
180.8431016486844
 20
554.6582161266083
  0
LWPOLYLINE
  5
822E
330
A
100
AcDbEntity
  8
MODEL
  6
Continuous
 62
     7
100
AcDbPolyline
 90
       24
 70
   128
 43
0.0
 10
160.8431020957192
 20
542.4138947207207
 10
160.9323274549803
 20
541.1614074188942
 10
161.1984100398382
 20
539.9312718588585
 10
161.6366028991303
 20
538.7454374510521
 10
162.2390857171973
 20
537.6250712949509
 10
162.9951082375607
 20
536.5901558477158
 10
163.8911774587592
 20
535.6591685492272
 10
164.911304434832
 20
534.8487167436356
 10
166.0372841377517
 20
534.1732620078797
 10
167.2490242142936
 20
533.6448668319458
 10
168.5249002855977
 20
533.2729562002892
 10
169.8421450071743
 20
533.0641685802216
 10
171.1772516517209
 20
533.0222218114609
 10
172.5063954452759
 20
533.1478684026474
 10
173.8058576100281
 20
533.4388731796021
 10
175.0524494071266
 20
533.8900356370682
 10
176.2239256148001
 20
534.4933016974205
 10
177.2993806023857
 20
535.2379127222771
 10
178.2596230712494
 20
536.1105843264336
 10
179.0875176173409
 20
537.0957373458618
 10
179.7682902049979
 20
538.1757884103531
 10
180.289792662557
 20
539.3314703184838
 10
180.6427192148527
 20
540.5421598631615
 10
180.7919915971121
 20
541.4650483805412
  0
SPLINE
  5
822F
330
A
100
AcDbEntity
  8
MODEL
  6
Continuous
 62
     7
100
AcDbSpline
210
0.0
220
0.0
230
1.0
 70
     8
 71
     3
 72
    17
 73
    13
 74
     0
 42
0.000000001
 43
0.00000001
 40
0.0
 40
0.0
 40
0.0
 40
0.0
 40
0.1220583645316664
 40
0.2633583397748502
 40
0.4207110182349553
 40
0.5121485959830395
 40
0.6060141663691976
 40
0.6759569466492036
 40
0.7476649081553147
 40
0.8177294315527599
 40
0.8904710412217214
 40
1.0
 40
1.0
 40
1.0
 40
1.0
 10
180.818145928975
 20
550.7141320783371
 30
0.0
 10
180.8004256203436
 20
550.1787813758369
 30
0.0
 10
180.7621915257001
 20
549.0236858381522
 30
0.0
 10
180.2563469613575
 20
547.1242286750835
 30
0.0
 10
179.624108008367
 20
545.526056315502
 30
0.0
 10
179.035718507757
 20
544.2827586646636
 30
0.0
 10
178.6273615140068
 20
543.4546536987314
 30
0.0
 10
178.320809023982
 20
542.7878695605959
 30
0.0
 10
178.131050907608
 20
542.2767678842906
 30
0.0
 10
178.0604664430517
 20
541.8745981405627
 30
0.0
 10
178.1243412552536
 20
541.5365833553751
 30
0.0
 10
178.3411566038809
 20
541.505116754377
 30
0.0
 10
178.4714440089425
 20
541.4862080294365
 30
0.0
  0
LINE
  5
8230
330
A
100
AcDbEntity
  8
MODEL
  6
Continuous
100
AcDbLine
 10
189.8431012612542
 20
555.2650510150665
 30
0.0
 11
189.8431012612542
 21
541.4650483805412
 31
0.0
  0
MTEXT
  5
8265
330
A
100
AcDbEntity
  8
DIM
390
1D
100
AcDbMText
 10
147.7926653147166
 20
798.6579985572231
 30
0.0
 40
7.329785156250001
 41
0.0
 46
8.15072109375
 71
     1
 72
     1
  1
{水栓取付穴}
  7
ＭＳ ゴシック
 73
     1
 44
0.7828267384257843
1001
ACAD
1000
ACAD_MTEXT_DEFINED_HEIGHT_BEGIN
1070
    46
1040
8.15072109375
1000
ACAD_MTEXT_DEFINED_HEIGHT_END
  0
CIRCLE
  5
8266
330
A
100
AcDbEntity
  8
DIM
100
AcDbCircle
 10
170.8431018722018
 20
751.0436592490421
 30
0.0
 40
15.0
  0
LINE
  5
8267
330
A
100
AcDbEntity
  8
DIM
100
AcDbLine
 10
181.8707004532603
 20
740.6561190058936
 30
0.0
 11
199.1517148929175
 21
721.3296869579679
 31
0.0
  0
LINE
  5
8268
330
A
100
AcDbEntity
  8
DIM
100
AcDbLine
 10
199.1517148929175
 20
721.3296869579679
 30
0.0
 11
217.4392369889874
 21
721.3296869579679
 31
0.0
  0
MTEXT
  5
8269
330
A
100
AcDbEntity
  8
DIM
390
1D
100
AcDbMText
 10
200.1477005045445
 20
734.5792885018184
 30
0.0
 40
7.329785156250001
 41
0.0
 46
8.5172103515625
 71
     1
 72
     1
  1
{φ30}
  7
ＭＳ ゴシック
 73
     1
 44
0.7828267384257843
1001
ACAD
1000
ACAD_MTEXT_DEFINED_HEIGHT_BEGIN
1070
    46
1040
8.5172103515625
1000
ACAD_MTEXT_DEFINED_HEIGHT_END
  0
LINE
  5
82CE
330
A
100
AcDbEntity
  8
MODEL
  6
HIDDEN
 48
0.009
100
AcDbLine
 10
177.654838547647
 20
529.0687170278939
 30
0.0
 11
177.654838547647
 21
539.2526641887339
 31
0.0
  0
LINE
  5
82CF
330
A
100
AcDbEntity
  8
MODEL
  6
HIDDEN
 48
0.009
100
AcDbLine
 10
163.8548284625411
 20
539.2526641887339
 30
0.0
 11
163.8548284625411
 21
529.0687170278939
 31
0.0
  0
LINE
  5
82D0
330
A
100
AcDbEntity
  8
MODEL
  6
HIDDEN
 48
0.009
100
AcDbLine
 10
177.2387087201477
 20
529.0687170278939
 30
0.0
 11
163.8548284625411
 21
529.0687170278939
 31
0.0
  0
LINE
  5
82D1
330
A
100
AcDbEntity
  8
MODEL
  6
HIDDEN
 48
0.009
100
AcDbLine
 10
177.654838547647
 20
529.0687170278939
 30
0.0
 11
177.2387087201477
 21
529.0687170278939
 31
0.0
  0
ARC
  5
82D2
330
A
100
AcDbEntity
  8
DIM
100
AcDbCircle
 10
181.672286397304
 20
537.6413780839348
 30
0.0
 40
12.16516439829591
100
AcDbArc
 50
267.4917739029495
 51
0.794946194502773
  0
LINE
  5
82D3
330
A
100
AcDbEntity
  8
DIM
100
AcDbLine
 10
181.139904464087
 20
525.487868536699
 30
0.0
 11
184.5513050371118
 21
523.8283115137618
 31
0.0
  0
LINE
  5
82D4
330
A
100
AcDbEntity
  8
DIM
100
AcDbLine
 10
181.139904464087
 20
525.487868536699
 30
0.0
 11
184.4323350231749
 21
527.3724598440117
 31
0.0
  0
MTEXT
  5
82D5
330
A
100
AcDbEntity
  8
DIM
390
1D
100
AcDbMText
 10
200.1204519217771
 20
551.3009146835789
 30
0.0
 40
7.0
 41
0.0
 46
7.784
 71
     1
 72
     1
  1
{\fＭＳ ゴシック|b0|i0|c1|p0;閉}
  7
ＭＳ ゴシック
 73
     1
 44
0.7828267384257843
1001
ACAD
1000
ACAD_MTEXT_DEFINED_HEIGHT_BEGIN
1070
    46
1040
7.784
1000
ACAD_MTEXT_DEFINED_HEIGHT_END
  0
MTEXT
  5
82D6
330
A
100
AcDbEntity
  8
DIM
390
1D
100
AcDbMText
 10
166.2444934154117
 20
518.829451976379
 30
0.0
 40
7.0
 41
0.0
 46
7.784
 71
     1
 72
     1
  1
{\fＭＳ ゴシック|b0|i0|c1|p0;開}
  7
ＭＳ ゴシック
 73
     1
 44
0.7828267384257843
1001
ACAD
1000
ACAD_MTEXT_DEFINED_HEIGHT_BEGIN
1070
    46
1040
7.784
1000
ACAD_MTEXT_DEFINED_HEIGHT_END
  0
ARC
  5
82D7
330
A
100
AcDbEntity
  8
DIM
100
AcDbCircle
 10
173.9726687488752
 20
345.7497440740231
 30
0.0
 40
12.16516439829591
100
AcDbArc
 50
13.99066031143262
 51
107.2938326029852
  0
LINE
  5
82D8
330
A
100
AcDbEntity
  8
DIM
100
AcDbLine
 10
170.3563047742783
 20
357.3649554987372
 30
0.0
 11
173.231221730934
 21
359.8401597073526
 31
0.0
  0
LINE
  5
82D9
330
A
100
AcDbEntity
  8
DIM
100
AcDbLine
 10
170.3563047742783
 20
357.3649554987372
 30
0.0
 11
174.0206679352067
 21
356.3830053946863
 31
0.0
  0
MTEXT
  5
82DA
330
A
100
AcDbEntity
  8
DIM
390
1D
100
AcDbMText
 10
183.847006670113
 20
344.3990114396679
 30
0.0
 40
7.0
 41
0.0
 46
12.0
 71
     1
 72
     1
  1
{\fＭＳ ゴシック|b0|i0|c1|p0;90°}
  7
ＭＳ ゴシック
 73
     1
 44
0.7828267384257843
1001
ACAD
1000
ACAD_MTEXT_DEFINED_HEIGHT_BEGIN
1070
    46
1040
12.0
1000
ACAD_MTEXT_DEFINED_HEIGHT_END
  0
LINE
  5
82DF
330
A
100
AcDbEntity
  8
DIM
100
AcDbLine
 10
120.7083397669111
 20
338.4485766598383
 30
0.0
 11
141.2956719094898
 21
338.4485766598383
 31
0.0
  0
MTEXT
  5
82E0
330
A
100
AcDbEntity
  8
DIM
390
1D
100
AcDbMText
 10
121.5134326744646
 20
349.7363092394208
 30
0.0
 40
7.0
 41
0.0
 46
8.134
 71
     1
 72
     1
  1
{\fMS Gothic|b0|i0|c1|p0;φ20}
  7
ＭＳ ゴシック
 73
     1
 44
0.7828267384257843
1001
ACAD
1000
ACAD_MTEXT_DEFINED_HEIGHT_BEGIN
1070
    46
1040
8.134
1000
ACAD_MTEXT_DEFINED_HEIGHT_END
  0
DIMENSION
  5
8E30
102
{ACAD_REACTORS
330
8E32
102
}
102
{ACAD_XDICTIONARY
360
8E31
102
}
330
A
100
AcDbEntity
  8
DIM
100
AcDbDimension
  2
*D41
 10
545.9453630920993
 20
349.2209234542096
 30
0.0
 11
532.4453630920993
 21
308.6009219555996
 31
0.0
 70
    32
 71
     5
 42
81.24000299721996
 73
     0
 74
     0
 75
     0
  3
tfrom線あり
100
AcDbAlignedDimension
 13
458.4317558641483
 23
267.9809204569896
 33
0.0
 14
486.2669038884115
 24
349.2209234542096
 34
0.0
 50
90.0
100
AcDbRotatedDimension
  0
DIMENSION
  5
8E3F
102
{ACAD_REACTORS
330
8E41
102
}
102
{ACAD_XDICTIONARY
360
8E40
102
}
330
A
100
AcDbEntity
  8
DIM
100
AcDbDimension
  2
*D42
 10
380.4169002286862
 20
459.1186590630099
 30
0.0
 11
433.3419020585488
 21
472.6186590630099
 31
0.0
 70
    32
 71
     5
 42
105.8500036597253
 73
     0
 74
     0
 75
     0
  3
tfrom線あり
100
AcDbAlignedDimension
 13
486.2669038884115
 23
349.2209234542096
 33
0.0
 14
380.4169002286862
 24
421.9622001203113
 34
0.0
100
AcDbRotatedDimension
  0
DIMENSION
  5
8E5A
102
{ACAD_REACTORS
330
8E5C
102
}
102
{ACAD_XDICTIONARY
360
8E5B
102
}
330
A
100
AcDbEntity
  8
DIM
100
AcDbDimension
  2
*D43
 10
237.4562457223154
 20
426.9809203452304
 30
0.0
 11
223.9562457223154
 21
347.48092040111
 31
0.0
 70
    32
 71
     5
 42
158.9999998882408
 73
     0
 74
     0
 75
     0
  3
tfrom線あり
100
AcDbAlignedDimension
 13
194.8431020808181
 23
267.9809204569896
 33
0.0
 14
181.2185110490045
 24
426.9809203452304
 34
0.0
 50
90.0
100
AcDbRotatedDimension
  0
LINE
  5
8E69
330
A
100
AcDbEntity
  8
DIM
100
AcDbLine
 10
160.3618272368371
 20
315.0600335048495
 30
0.0
 11
141.2956719094898
 21
338.4485766598383
 31
0.0
  0
LINE
  5
8E73
330
A
100
AcDbEntity
  8
DIM
100
AcDbLine
 10
434.4603131829066
 20
288.6520602872993
 30
0.0
 11
417.2375529363082
 21
288.6520602872993
 31
0.0
  0
MTEXT
  5
8E74
330
A
100
AcDbEntity
  8
DIM
390
1D
100
AcDbMText
 10
417.0735233455254
 20
300.7434273055181
 30
0.0
 40
7.329785156250001
 41
0.0
 46
8.5172103515625
 71
     1
 72
     1
  1
{φ48}
  7
ＭＳ ゴシック
 73
     1
 44
0.7828267384257843
1001
ACAD
1000
ACAD_MTEXT_DEFINED_HEIGHT_BEGIN
1070
    46
1040
8.5172103515625
1000
ACAD_MTEXT_DEFINED_HEIGHT_END
  0
LINE
  5
8E75
330
A
100
AcDbEntity
  8
DIM
100
AcDbLine
 10
401.5496370135074
 20
272.9842247844363
 30
0.0
 11
417.2375529363082
 21
288.6520602872993
 31
0.0
  0
MTEXT
  5
8E7E
330
A
100
AcDbEntity
  8
DIM
390
1D
100
AcDbMText
 10
160.71479187271
 20
203.6978185139835
 30
0.0
 40
7.0
 41
0.0
 46
7.994
 71
     1
 72
     1
  1
{\fＭＳ ゴシック|b0|i0|c1|p0;G3/8”}
  7
ＭＳ ゴシック
 73
     1
 44
0.7828267384257843
1001
ACAD
1000
ACAD_MTEXT_DEFINED_HEIGHT_BEGIN
1070
    46
1040
7.994
1000
ACAD_MTEXT_DEFINED_HEIGHT_END
  0
MTEXT
  5
8E7F
330
A
100
AcDbEntity
  8
DIM
390
1D
100
AcDbMText
 10
164.3257486004868
 20
209.2176105201923
 30
0.0
 40
12.0
 41
0.0
 46
12.0
 71
     1
 72
     1
  1
{\fＭＳ ゴシック|b0|i0|c1|p0;▶}
  7
ＭＳ ゴシック
 11
6.123233995736766E-17
 21
1.0
 31
0.0
 73
     1
 44
0.7828267384257843
1001
ACAD
1000
ACAD_MTEXT_DEFINED_HEIGHT_BEGIN
1070
    46
1040
12.0
1000
ACAD_MTEXT_DEFINED_HEIGHT_END
  0
LINE
  5
8E80
330
A
100
AcDbEntity
  8
MODEL
100
AcDbLine
 10
153.77753575449
 20
252.4622435237286
 30
0.0
 11
170.8431028035243
 21
252.4622435237286
 31
0.0
  0
LINE
  5
8E81
330
A
100
AcDbEntity
  8
MODEL
100
AcDbLine
 10
153.77753575449
 20
249.5220165074444
 30
0.0
 11
170.8431028035243
 21
249.5220165074444
 31
0.0
  0
LINE
  5
8E82
330
A
100
AcDbEntity
  8
MODEL
100
AcDbLine
 10
162.3103192790072
 20
249.5220165074444
 30
0.0
 11
162.3103192790072
 21
241.2948637364508
 31
0.0
  0
LINE
  5
8E83
330
A
100
AcDbEntity
  8
MODEL
100
AcDbLine
 10
153.77753575449
 20
252.4622435237286
 30
0.0
 11
153.77753575449
 21
249.5220165074444
 31
0.0
  0
LINE
  5
8E84
330
A
100
AcDbEntity
  8
MODEL
100
AcDbLine
 10
187.9086698525585
 20
252.4622435237286
 30
0.0
 11
170.8431028035243
 21
252.4622435237286
 31
0.0
  0
LINE
  5
8E85
330
A
100
AcDbEntity
  8
MODEL
100
AcDbLine
 10
187.9086698525585
 20
249.5220165074444
 30
0.0
 11
170.8431028035243
 21
249.5220165074444
 31
0.0
  0
LINE
  5
8E86
330
A
100
AcDbEntity
  8
MODEL
100
AcDbLine
 10
185.7545109204366
 20
249.5220165074444
 30
0.0
 11
185.7545109204366
 21
241.2948637364508
 31
0.0
  0
LINE
  5
8E87
330
A
100
AcDbEntity
  8
MODEL
100
AcDbLine
 10
179.3758863280415
 20
249.5220165074444
 30
0.0
 11
179.3758863280415
 21
241.2948637364508
 31
0.0
  0
LINE
  5
8E88
330
A
100
AcDbEntity
  8
MODEL
100
AcDbLine
 10
187.9086698525585
 20
252.4622435237286
 30
0.0
 11
187.9086698525585
 21
249.5220165074444
 31
0.0
  0
LINE
  5
8E89
330
A
100
AcDbEntity
  8
MODEL
100
AcDbLine
 10
185.7545109204366
 20
241.2948637364508
 30
0.0
 11
170.8431028035243
 21
241.2948637364508
 31
0.0
  0
LINE
  5
8E8A
330
A
100
AcDbEntity
  8
MODEL
100
AcDbLine
 10
155.931694686612
 20
249.5220165074444
 30
0.0
 11
155.931694686612
 21
241.2948637364508
 31
0.0
  0
LINE
  5
8E8B
330
A
100
AcDbEntity
  8
MODEL
100
AcDbLine
 10
155.931694686612
 20
241.2948637364508
 30
0.0
 11
170.8431028035243
 21
241.2948637364508
 31
0.0
  0
LINE
  5
8E8C
330
A
100
AcDbEntity
  8
MODEL
100
AcDbLine
 10
162.5966842567665
 20
252.4622435237286
 30
0.0
 11
162.5966842567665
 21
266.9809202930768
 31
0.0
  0
LINE
  5
8E8D
330
A
100
AcDbEntity
  8
MODEL
100
AcDbLine
 10
162.5966842567665
 20
226.9809193245012
 30
0.0
 11
179.0895213502822
 21
226.9809193245012
 31
0.0
  0
LINE
  5
8E8E
330
A
100
AcDbEntity
  8
MODEL
100
AcDbLine
 10
179.0895213502822
 20
241.2948637364508
 30
0.0
 11
162.5966842567665
 21
241.2948637364508
 31
0.0
  0
LINE
  5
8E8F
330
A
100
AcDbEntity
  8
MODEL
100
AcDbLine
 10
162.5966842567665
 20
241.2948637364508
 30
0.0
 11
162.5966842567665
 21
226.9809193245012
 31
0.0
  0
LINE
  5
8E90
330
A
100
AcDbEntity
  8
MODEL
100
AcDbLine
 10
179.0895213502822
 20
252.4622435237286
 30
0.0
 11
179.0895213502822
 21
266.9809202930768
 31
0.0
  0
LINE
  5
8E91
330
A
100
AcDbEntity
  8
MODEL
100
AcDbLine
 10
179.0895213502822
 20
241.2948637364508
 30
0.0
 11
179.0895213502822
 21
226.9809193245012
 31
0.0
  0
LINE
  5
8E92
330
A
100
AcDbEntity
  8
MODEL
100
AcDbLine
 10
179.0895213502822
 20
252.4622435237286
 30
0.0
 11
162.5966842567665
 21
252.4622435237286
 31
0.0
  0
LINE
  5
8E94
330
A
100
AcDbEntity
  8
MODEL
100
AcDbLine
 10
179.0895213502822
 20
229.2846575649958
 30
0.0
 11
166.0243725498071
 21
226.9809193245012
 31
0.0
1001
ACAD
1010
0.0
1020
0.0
1030
0.0
  0
LINE
  5
8E95
330
A
100
AcDbEntity
  8
MODEL
100
AcDbLine
 10
179.0895213502822
 20
232.508637057733
 30
0.0
 11
162.5966842567665
 21
229.6005048897168
 31
0.0
1001
ACAD
1010
0.0
1020
0.0
1030
0.0
  0
LINE
  5
8E96
330
A
100
AcDbEntity
  8
MODEL
100
AcDbLine
 10
179.0895213502822
 20
235.7326165504703
 30
0.0
 11
162.5966842567665
 21
232.8244843824541
 31
0.0
1001
ACAD
1010
0.0
1020
0.0
1030
0.0
  0
LINE
  5
8E97
330
A
100
AcDbEntity
  8
MODEL
100
AcDbLine
 10
179.0895213502822
 20
238.9565960432075
 30
0.0
 11
162.5966842567665
 21
236.0484638751913
 31
0.0
1001
ACAD
1010
0.0
1020
0.0
1030
0.0
  0
LINE
  5
8E98
330
A
100
AcDbEntity
  8
MODEL
100
AcDbLine
 10
174.0664001243913
 20
241.2948637364508
 30
0.0
 11
162.5966842567665
 21
239.2724433679286
 31
0.0
1001
ACAD
1010
0.0
1020
0.0
1030
0.0
  0
LINE
  5
8E99
330
A
100
AcDbEntity
  8
MODEL
100
AcDbLine
 10
179.0895213502822
 20
255.0764935068937
 30
0.0
 11
164.263372948822
 21
252.4622435237286
 31
0.0
1001
ACAD
1010
0.0
1020
0.0
1030
0.0
  0
LINE
  5
8E9A
330
A
100
AcDbEntity
  8
MODEL
100
AcDbLine
 10
179.0895213502822
 20
258.3004729996309
 30
0.0
 11
162.5966842567665
 21
255.3923408316147
 31
0.0
1001
ACAD
1010
0.0
1020
0.0
1030
0.0
  0
LINE
  5
8E9B
330
A
100
AcDbEntity
  8
MODEL
100
AcDbLine
 10
179.0895213502822
 20
261.5244524923681
 30
0.0
 11
162.5966842567665
 21
258.616320324352
 31
0.0
1001
ACAD
1010
0.0
1020
0.0
1030
0.0
  0
LINE
  5
8E9C
330
A
100
AcDbEntity
  8
MODEL
100
AcDbLine
 10
179.0895213502822
 20
264.7484319851054
 30
0.0
 11
162.5966842567665
 21
261.8402998170892
 31
0.0
1001
ACAD
1010
0.0
1020
0.0
1030
0.0
  0
LINE
  5
8E9D
330
A
100
AcDbEntity
  8
MODEL
100
AcDbLine
 10
173.4664954198084
 20
266.9809202930768
 30
0.0
 11
162.5966842567665
 21
265.0642793098265
 31
0.0
1001
ACAD
1010
0.0
1020
0.0
1030
0.0
  0
DIMENSION
  5
8EA1
330
A
100
AcDbEntity
  8
DIM
100
AcDbDimension
  2
*D44
 10
440.0791647369532
 20
252.4622435237287
 30
0.0
 11
440.0791647369532
 21
225.2602435237287
 31
0.0
 70
   160
  1
MAX 15
 71
     5
 42
15.51867693326088
 73
     0
 74
     1
 75
     1
  3
tfrom線あり
100
AcDbAlignedDimension
 13
404.4169004373025
 23
267.9809204569896
 33
0.0
 14
404.6872066029072
 24
252.4622435237287
 34
0.0
 50
90.0
100
AcDbRotatedDimension
1001
ACAD
1000
DSTYLE
1002
{
1070
    75
1070
     1
1070
    76
1070
     1
1070
   172
1070
     1
1002
}
  0
LINE
  5
8EA2
102
{ACAD_REACTORS
330
8EB7
102
}
330
A
100
AcDbEntity
  8
MODEL
100
AcDbLine
 10
363.3513341109746
 20
252.4622435237286
 30
0.0
 11
380.4169011600089
 21
252.4622435237286
 31
0.0
  0
LINE
  5
8EA3
102
{ACAD_REACTORS
330
8EB7
102
}
330
A
100
AcDbEntity
  8
MODEL
100
AcDbLine
 10
363.3513341109746
 20
249.5220165074444
 30
0.0
 11
380.4169011600089
 21
249.5220165074444
 31
0.0
  0
LINE
  5
8EA4
102
{ACAD_REACTORS
330
8EB7
102
}
330
A
100
AcDbEntity
  8
MODEL
100
AcDbLine
 10
371.8841176354917
 20
249.5220165074444
 30
0.0
 11
371.8841176354917
 21
241.2948637364508
 31
0.0
  0
LINE
  5
8EA5
330
A
100
AcDbEntity
  8
MODEL
100
AcDbLine
 10
363.3513341109746
 20
252.4622435237286
 30
0.0
 11
363.3513341109746
 21
249.5220165074444
 31
0.0
  0
LINE
  5
8EA6
102
{ACAD_REACTORS
330
8EB7
102
}
330
A
100
AcDbEntity
  8
MODEL
100
AcDbLine
 10
397.4824682090431
 20
252.4622435237286
 30
0.0
 11
380.4169011600089
 21
252.4622435237286
 31
0.0
  0
LINE
  5
8EA7
102
{ACAD_REACTORS
330
8EB7
102
}
330
A
100
AcDbEntity
  8
MODEL
100
AcDbLine
 10
397.4824682090431
 20
249.5220165074444
 30
0.0
 11
380.4169011600089
 21
249.5220165074444
 31
0.0
  0
LINE
  5
8EA8
102
{ACAD_REACTORS
330
8EB7
102
}
330
A
100
AcDbEntity
  8
MODEL
100
AcDbLine
 10
395.3283092769212
 20
249.5220165074444
 30
0.0
 11
395.3283092769212
 21
241.2948637364508
 31
0.0
  0
LINE
  5
8EA9
102
{ACAD_REACTORS
330
8EB7
102
}
330
A
100
AcDbEntity
  8
MODEL
100
AcDbLine
 10
395.3283092769212
 20
241.2948637364508
 30
0.0
 11
380.4169011600089
 21
241.2948637364508
 31
0.0
  0
LINE
  5
8EAA
102
{ACAD_REACTORS
330
8EB7
102
}
330
A
100
AcDbEntity
  8
MODEL
100
AcDbLine
 10
388.949684684526
 20
249.5220165074444
 30
0.0
 11
388.949684684526
 21
241.2948637364508
 31
0.0
  0
LINE
  5
8EAB
102
{ACAD_REACTORS
330
8EB7
102
}
330
A
100
AcDbEntity
  8
MODEL
100
AcDbLine
 10
397.4824682090431
 20
252.4622435237286
 30
0.0
 11
397.4824682090431
 21
249.5220165074444
 31
0.0
  0
LINE
  5
8EAC
102
{ACAD_REACTORS
330
8EB7
102
}
330
A
100
AcDbEntity
  8
MODEL
100
AcDbLine
 10
365.5054930430966
 20
249.5220165074444
 30
0.0
 11
365.5054930430966
 21
241.2948637364508
 31
0.0
  0
LINE
  5
8EAD
102
{ACAD_REACTORS
330
8EB7
102
}
330
A
100
AcDbEntity
  8
MODEL
100
AcDbLine
 10
365.5054930430966
 20
241.2948637364508
 30
0.0
 11
380.4169011600089
 21
241.2948637364508
 31
0.0
  0
LINE
  5
8EAE
330
A
100
AcDbEntity
  8
MODEL
100
AcDbLine
 10
372.1704826132509
 20
252.4622435237286
 30
0.0
 11
372.1704826132509
 21
266.9809202930768
 31
0.0
  0
LINE
  5
8EAF
330
A
100
AcDbEntity
  8
MODEL
100
AcDbLine
 10
372.1704826132509
 20
226.9809193245012
 30
0.0
 11
388.6633197067669
 21
226.9809193245012
 31
0.0
  0
LINE
  5
8EB0
330
A
100
AcDbEntity
  8
MODEL
100
AcDbLine
 10
388.6633197067669
 20
241.2948637364508
 30
0.0
 11
372.1704826132509
 21
241.2948637364508
 31
0.0
  0
LINE
  5
8EB1
330
A
100
AcDbEntity
  8
MODEL
100
AcDbLine
 10
372.1704826132509
 20
241.2948637364508
 30
0.0
 11
372.1704826132509
 21
226.9809193245012
 31
0.0
  0
LINE
  5
8EB2
330
A
100
AcDbEntity
  8
MODEL
100
AcDbLine
 10
388.6633197067669
 20
252.4622435237286
 30
0.0
 11
388.6633197067669
 21
266.9809202930768
 31
0.0
  0
LINE
  5
8EB3
330
A
100
AcDbEntity
  8
MODEL
100
AcDbLine
 10
388.6633197067669
 20
241.2948637364508
 30
0.0
 11
388.6633197067669
 21
226.9809193245012
 31
0.0
  0
LINE
  5
8EB4
330
A
100
AcDbEntity
  8
MODEL
100
AcDbLine
 10
388.6633197067669
 20
252.4622435237286
 30
0.0
 11
372.1704826132509
 21
252.4622435237286
 31
0.0
  0
LINE
  5
8EC5
330
A
100
AcDbEntity
  8
MODEL
100
AcDbLine
 10
388.6633197067669
 20
229.2846575649958
 30
0.0
 11
375.5981709062916
 21
226.9809193245012
 31
0.0
1001
ACAD
1010
0.0
1020
0.0
1030
0.0
  0
LINE
  5
8EC6
330
A
100
AcDbEntity
  8
MODEL
100
AcDbLine
 10
388.6633197067669
 20
232.508637057733
 30
0.0
 11
372.1704826132509
 21
229.6005048897168
 31
0.0
1001
ACAD
1010
0.0
1020
0.0
1030
0.0
  0
LINE
  5
8EC7
330
A
100
AcDbEntity
  8
MODEL
100
AcDbLine
 10
388.6633197067669
 20
235.7326165504703
 30
0.0
 11
372.1704826132509
 21
232.824484382454
 31
0.0
1001
ACAD
1010
0.0
1020
0.0
1030
0.0
  0
LINE
  5
8EC8
330
A
100
AcDbEntity
  8
MODEL
100
AcDbLine
 10
388.6633197067669
 20
238.9565960432075
 30
0.0
 11
372.1704826132509
 21
236.0484638751913
 31
0.0
1001
ACAD
1010
0.0
1020
0.0
1030
0.0
  0
LINE
  5
8EC9
330
A
100
AcDbEntity
  8
MODEL
100
AcDbLine
 10
383.6401984808758
 20
241.2948637364508
 30
0.0
 11
372.1704826132509
 21
239.2724433679285
 31
0.0
1001
ACAD
1010
0.0
1020
0.0
1030
0.0
  0
LINE
  5
8ECA
330
A
100
AcDbEntity
  8
MODEL
100
AcDbLine
 10
388.6633197067669
 20
255.0764935068937
 30
0.0
 11
373.8371713053065
 21
252.4622435237286
 31
0.0
1001
ACAD
1010
0.0
1020
0.0
1030
0.0
  0
LINE
  5
8ECB
330
A
100
AcDbEntity
  8
MODEL
100
AcDbLine
 10
388.6633197067669
 20
258.3004729996309
 30
0.0
 11
372.1704826132509
 21
255.3923408316147
 31
0.0
1001
ACAD
1010
0.0
1020
0.0
1030
0.0
  0
LINE
  5
8ECC
330
A
100
AcDbEntity
  8
MODEL
100
AcDbLine
 10
388.6633197067669
 20
261.5244524923682
 30
0.0
 11
372.1704826132509
 21
258.616320324352
 31
0.0
1001
ACAD
1010
0.0
1020
0.0
1030
0.0
  0
LINE
  5
8ECD
330
A
100
AcDbEntity
  8
MODEL
100
AcDbLine
 10
388.6633197067669
 20
264.7484319851054
 30
0.0
 11
372.1704826132509
 21
261.8402998170892
 31
0.0
1001
ACAD
1010
0.0
1020
0.0
1030
0.0
  0
LINE
  5
8ECE
330
A
100
AcDbEntity
  8
MODEL
100
AcDbLine
 10
383.0402937762927
 20
266.9809202930768
 30
0.0
 11
372.1704826132509
 21
265.0642793098265
 31
0.0
1001
ACAD
1010
0.0
1020
0.0
1030
0.0
  0
LINE
  5
8F38
330
A
100
AcDbEntity
  8
MODEL
  6
HIDDEN
 48
0.05
100
AcDbLine
 10
363.3513341109746
 20
252.4622435237286
 30
0.0
 11
302.4020445932242
 21
252.4622435237286
 31
0.0
  0
LINE
  5
8F39
330
A
100
AcDbEntity
  8
MODEL
  6
HIDDEN
 48
0.05
100
AcDbLine
 10
363.3513341109746
 20
267.9809204569895
 30
0.0
 11
302.4020445932242
 21
267.9809204569895
 31
0.0
  0
LINE
  5
8F3A
330
A
100
AcDbEntity
  8
MODEL
  6
HIDDEN
 48
0.05
100
AcDbLine
 10
458.4317558641483
 20
252.4622435237287
 30
0.0
 11
397.4824663463979
 21
252.4622435237287
 31
0.0
  0
LINE
  5
8F3B
330
A
100
AcDbEntity
  8
MODEL
  6
HIDDEN
 48
0.05
100
AcDbLine
 10
458.4317558641483
 20
267.9809204569896
 30
0.0
 11
397.4824663463979
 21
267.9809204569896
 31
0.0
  0
MTEXT
  5
8F67
330
A
100
AcDbEntity
  8
DIM
390
1D
100
AcDbMText
 10
104.9681167370267
 20
707.4831531982703
 30
0.0
 40
7.329785156250001
 41
0.0
 46
8.15072109375
 71
     1
 72
     1
  1
{※φ35の水栓取付穴にも適合します。}
  7
ＭＳ ゴシック
 73
     1
 44
0.7828267384257843
1001
ACAD
1000
ACAD_MTEXT_DEFINED_HEIGHT_BEGIN
1070
    46
1040
8.15072109375
1000
ACAD_MTEXT_DEFINED_HEIGHT_END
  0
MTEXT
  5
8F71
330
A
100
AcDbEntity
  8
MODEL
390
1D
100
AcDbMText
 10
398.760643364397
 20
119.0696691281785
 30
0.0
 40
7.329785156250001
 41
0.0
 46
8.18737001953125
 71
     1
 72
     1
  1
{BRS73-0603-008 (マットブラック)}
  7
ＭＳ ゴシック
 73
     1
 44
0.7828267384257843
1001
ACAD
1000
ACAD_MTEXT_DEFINED_HEIGHT_BEGIN
1070
    46
1040
8.18737001953125
1000
ACAD_MTEXT_DEFINED_HEIGHT_END
  0
MTEXT
  5
8F72
330
A
100
AcDbEntity
  8
MODEL
390
1D
100
AcDbMText
 10
398.760643364397
 20
132.6459430481785
 30
0.0
 40
7.329785156250001
 41
0.0
 46
8.18737001953125
 71
     1
 72
     1
  1
{BRS73-0603-020 (クローム)}
  7
ＭＳ ゴシック
 73
     1
 44
0.7828267384257843
1001
ACAD
1000
ACAD_MTEXT_DEFINED_HEIGHT_BEGIN
1070
    46
1040
8.18737001953125
1000
ACAD_MTEXT_DEFINED_HEIGHT_END
  0
VIEWPORT
  5
349
330
B
100
AcDbEntity
 67
     1
  8
0
100
AcDbViewport
 10
202.5
 20
128.5
 30
0.0
 40
486.0
 41
308.4
 68
     1
 69
     1
 12
202.5
 22
128.5
 13
0.0
 23
0.0
 14
0.5
 24
0.5
 15
0.0
 25
0.0
 16
0.0
 26
0.0
 36
1.0
 17
0.0
 27
0.0
 37
0.0
 42
50.0
 43
0.0
 44
0.0
 45
308.4
 50
0.0
 51
0.0
 72
   100
 90
   557152
  1

281
     0
 71
     1
 74
     0
110
0.0
120
0.0
130
0.0
111
1.0
121
0.0
131
0.0
112
0.0
122
1.0
132
0.0
 79
     0
146
0.0
170
     0
 61
     5
348
26C
292
     1
282
     1
141
0.0
142
0.0
 63
   256
  0
VIEWPORT
  5
34A
330
B
100
AcDbEntity
 67
     1
  8
0
100
AcDbViewport
 10
202.5
 20
128.5
 30
0.0
 40
324.0
 41
205.6
 68
     2
 69
     2
 12
986.6781359294573
 22
1427.077061889956
 13
0.0
 23
0.0
 14
0.5
 24
0.5
 15
0.0
 25
0.0
 16
0.0
 26
0.0
 36
1.0
 17
0.0
 27
0.0
 37
0.0
 42
50.0
 43
0.0
 44
0.0
 45
2890.021615685494
 50
0.0
 51
0.0
 72
   100
 90
   557152
  1

281
     0
 71
     1
 74
     0
110
0.0
120
0.0
130
0.0
111
1.0
121
0.0
131
0.0
112
0.0
122
1.0
132
0.0
 79
     0
146
0.0
170
     0
 61
     5
348
26C
292
     1
282
     1
141
0.0
142
0.0
 63
   256
  0
ENDSEC
  0
SECTION
  2
OBJECTS
  0
DICTIONARY
  5
19
330
0
100
AcDbDictionary
281
     1
  3
ACAD_COLOR
350
674
  3
ACAD_DETAILVIEWSTYLE
350
BBF
  3
ACAD_GROUP
350
1A
  3
ACAD_IMAGE_VARS
350
27B
  3
ACAD_LAYOUT
350
1E
  3
ACAD_MATERIAL
350
263
  3
ACAD_MLEADERSTYLE
350
336
  3
ACAD_MLINESTYLE
350
1B
  3
ACAD_PLOTSETTINGS
350
22
  3
ACAD_PLOTSTYLENAME
350
1F
  3
ACAD_SCALELIST
350
241
  3
ACAD_SECTIONVIEWSTYLE
350
BC0
  3
ACAD_TABLESTYLE
350
278
  3
ACAD_VISUALSTYLE
350
267
  3
AcadDim
350
186B
  3
ACDB_RECOMPOSE_DATA
350
8F91
  3
AcDbVariableDictionary
350
330
  3
APPDATA
350
27A
  3
DimOffsetDictionary
350
7176
  0
SUN
  5
904
330
15
100
AcDbSun
 90
        1
290
     0
 63
     7
421
 16777215
 40
1.0
291
     1
 91
  2455826
 92
 54000000
292
     0
 70
     2
 71
   256
280
     1
  0
DICTIONARY
  5
2E1
330
2
100
AcDbDictionary
280
     1
281
     1
  3
ACAD_LAYERSTATES
360
2E2
  3
ACLYDICTIONARY
360
8F85
  0
DICTIONARY
  5
8E31
330
8E30
100
AcDbDictionary
280
     1
281
     1
  3
ACAD_DIMASSOC
360
8E32
  0
DICTIONARY
  5
8E40
330
8E3F
100
AcDbDictionary
280
     1
281
     1
  3
ACAD_DIMASSOC
360
8E41
  0
DICTIONARY
  5
8E5B
330
8E5A
100
AcDbDictionary
280
     1
281
     1
  3
ACAD_DIMASSOC
360
8E5C
  0
DICTIONARY
  5
674
102
{ACAD_REACTORS
330
19
102
}
330
19
100
AcDbDictionary
281
     1
  0
DICTIONARY
  5
BBF
102
{ACAD_REACTORS
330
19
102
}
330
19
100
AcDbDictionary
281
     1
  0
DICTIONARY
  5
1A
102
{ACAD_REACTORS
330
19
102
}
330
19
100
AcDbDictionary
281
     1
  3
*A1
350
8EB7
  0
RASTERVARIABLES
  5
27B
102
{ACAD_REACTORS
330
19
102
}
330
19
100
AcDbRasterVariables
 90
        0
 70
     1
 71
     1
 72
     1
  0
DICTIONARY
  5
1E
102
{ACAD_REACTORS
330
19
102
}
330
19
100
AcDbDictionary
281
     1
  3
Layout1
350
21
  3
Model
350
20
  0
DICTIONARY
  5
263
102
{ACAD_REACTORS
330
19
102
}
330
19
100
AcDbDictionary
281
     1
  3
ByBlock
350
68D3
  3
ByLayer
350
264
  3
Global
350
266
  0
DICTIONARY
  5
336
102
{ACAD_REACTORS
330
19
102
}
330
19
100
AcDbDictionary
281
     1
  3
Standard
350
1A6C
  0
DICTIONARY
  5
1B
102
{ACAD_REACTORS
330
19
102
}
330
19
100
AcDbDictionary
281
     1
  3
Standard
350
1C
  0
DICTIONARY
  5
22
102
{ACAD_REACTORS
330
19
102
}
330
19
100
AcDbDictionary
281
     1
  0
ACDBDICTIONARYWDFLT
  5
1F
102
{ACAD_REACTORS
330
19
102
}
330
19
100
AcDbDictionary
281
     1
  3
Normal
350
1D
100
AcDbDictionaryWithDefault
340
1D
  0
DICTIONARY
  5
241
102
{ACAD_REACTORS
330
19
102
}
330
19
100
AcDbDictionary
281
     1
  3
*A1
350
728B
  3
A0
350
242
  3
A1
350
243
  3
A2
350
244
  3
A3
350
245
  3
A4
350
246
  3
A5
350
247
  3
A6
350
248
  3
A7
350
249
  3
A8
350
24A
  3
A9
350
24B
  3
B0
350
24C
  3
B1
350
24D
  3
B2
350
24E
  3
B3
350
24F
  3
B4
350
250
  3
B5
350
251
  3
B6
350
252
  3
B7
350
253
  3
B8
350
254
  3
B9
350
255
  3
C0
350
256
  3
C1
350
257
  3
C2
350
258
  3
C3
350
259
  3
C4
350
25A
  3
C5
350
25B
  3
C6
350
25C
  3
C7
350
25D
  3
C8
350
25E
  3
C9
350
25F
  3
D0
350
260
  3
D1
350
261
  3
D2
350
262
  0
DICTIONARY
  5
BC0
102
{ACAD_REACTORS
330
19
102
}
330
19
100
AcDbDictionary
281
     1
  0
DICTIONARY
  5
278
102
{ACAD_REACTORS
330
19
102
}
330
19
100
AcDbDictionary
281
     1
  3
Standard
350
279
  0
DICTIONARY
  5
267
102
{ACAD_REACTORS
330
19
102
}
330
19
100
AcDbDictionary
281
     1
  3
2dWireframe
350
26C
  3
3D Hidden
350
26E
  3
3dWireframe
350
26D
  3
Basic
350
26F
  3
Brighten
350
273
  3
ColorChange
350
277
  3
Conceptual
350
271
  3
Dim
350
272
  3
EdgeColorOff
350
8FE
  3
Facepattern
350
276
  3
Flat
350
268
  3
FlatWithEdges
350
269
  3
Gouraud
350
26A
  3
GouraudWithEdges
350
26B
  3
Hidden
350
8FB
  3
JitterOff
350
8FC
  3
Linepattern
350
275
  3
OverhangOff
350
8FD
  3
Realistic
350
270
  3
Shaded
350
903
  3
Shaded with edges
350
902
  3
Shades of Gray
350
8FF
  3
Sketchy
350
900
  3
Thicken
350
274
  3
Wireframe
350
8FA
  3
X-Ray
350
901
  0
XRECORD
  5
186B
102
{ACAD_REACTORS
330
19
102
}
330
19
100
AcDbXrecord
280
     1
340
0
 72
     0
 71
     0
 70
     0
 69
     0
 68
     1
 67
     3
 66
     0
 65
     0
 64
     0
 63
     3
 62
     1
 61
     0
 60
     0
 40
0.0
  0
XRECORD
  5
8F91
102
{ACAD_REACTORS
330
19
102
}
330
19
100
AcDbXrecord
280
     1
 90
        1
330
279
  0
DICTIONARY
  5
330
102
{ACAD_REACTORS
330
19
102
}
330
19
100
AcDbDictionary
281
     1
  3
CANNOSCALE
350
331
  3
CMLEADERSTYLE
350
1AA2
  3
CTABLESTYLE
350
335
  3
HPTRANSPARENCY
350
D6B
  3
XCLIPFRAME
350
896
  0
DICTIONARY
  5
27A
102
{ACAD_REACTORS
330
19
102
}
330
19
100
AcDbDictionary
281
     1
  0
DICTIONARY
  5
7176
102
{ACAD_REACTORS
330
19
102
}
330
19
100
AcDbDictionary
281
     1
  3
DIMRAILANGLE
350
7179
  3
DIMRAILFIRSTOFFSET
350
7177
  3
DIMRAILOFFSET
350
7178
  3
DIMRAILSENABLED
350
717A
  0
DICTIONARY
  5
2E2
102
{ACAD_REACTORS
330
2E1
102
}
330
2E1
100
AcDbDictionary
281
     1
  0
DICTIONARY
  5
8F85
102
{ACAD_REACTORS
330
2E1
102
}
330
2E1
100
AcDbDictionary
281
     1
1001
ACAD
1000
<All
  0
DIMASSOC
  5
8E32
102
{ACAD_REACTORS
330
8E31
102
}
330
8E31
100
AcDbDimAssoc
330
8E30
 90
        2
 70
     0
 71
     1
  1
AcDbOsnapPointRef
 72
     1
331
821A
 73
     2
 91
       12
 40
1.0
 10
0.0
 20
0.0
 30
0.0
 75
     0
  0
DIMASSOC
  5
8E41
102
{ACAD_REACTORS
330
8E40
102
}
330
8E40
100
AcDbDimAssoc
330
8E3F
 90
        1
 70
     0
 71
     1
  1
AcDbOsnapPointRef
 72
     1
331
821A
 73
     2
 91
       12
 40
1.0
 10
0.0
 20
0.0
 30
0.0
 75
     0
  0
DIMASSOC
  5
8E5C
102
{ACAD_REACTORS
330
8E5B
102
}
330
8E5B
100
AcDbDimAssoc
330
8E5A
 90
        1
 70
     0
 71
     1
  1
AcDbOsnapPointRef
 72
    13
331
7DEF
 73
     0
 91
        0
 40
0.0
 10
0.0
 20
0.0
 30
0.0
 75
     0
  0
GROUP
  5
8EB7
102
{ACAD_REACTORS
330
1A
102
}
330
1A
100
AcDbGroup
300

 70
     1
 71
     1
340
8EA2
340
8EA3
340
8EA4
340
8EA6
340
8EA7
340
8EA8
340
8EA9
340
8EAA
340
8EAB
340
8EAC
340
8EAD
  0
LAYOUT
  5
21
102
{ACAD_REACTORS
330
1E
102
}
330
1E
100
AcDbPlotSettings
  1

  2
none_device
  4
ISO_A3_(420.00_x_297.00_MM)
  6

 40
7.5
 41
20.0
 42
7.5
 43
20.0
 44
420.0
 45
297.0
 46
0.0
 47
0.0
 48
0.0
 49
0.0
140
0.0
141
0.0
142
1.0
143
1.0
 70
     0
 72
     1
 73
     0
 74
     0
  7

 75
     0
 76
     0
 77
     2
 78
   300
147
1.0
148
0.0
149
0.0
100
AcDbLayout
  1
Layout1
 70
     0
 71
     0
 10
-7.5
 20
-20.0
 11
412.5
 21
277.0
 12
0.0
 22
0.0
 32
0.0
 14
0.0
 24
0.0
 34
0.0
 15
0.0
 25
0.0
 35
0.0
146
0.0
 13
0.0
 23
0.0
 33
0.0
 16
0.0
 26
0.0
 36
0.0
 17
0.0
 27
0.0
 37
0.0
 76
     0
330
B
331
349
  0
LAYOUT
  5
20
102
{ACAD_REACTORS
330
1E
102
}
330
1E
100
AcDbPlotSettings
  1

  2
none_device
  4
ISO_A3_(420.00_x_297.00_MM)
  6

 40
7.5
 41
20.0
 42
7.5
 43
20.0
 44
420.0
 45
297.0
 46
0.0
 47
0.0
 48
0.0
 49
0.0
140
0.0
141
0.0
142
1.0
143
1.0
 70
  1024
 72
     1
 73
     0
 74
     0
  7

 75
     0
 76
     0
 77
     2
 78
   300
147
1.0
148
0.0
149
0.0
100
AcDbLayout
  1
Model
 70
     0
 71
     1
 10
0.0
 20
0.0
 11
630.0000000000001
 21
891.0
 12
0.0
 22
0.0
 32
0.0
 14
0.0
 24
0.0
 34
-0.0000000000000142
 15
630.0000000000001
 25
891.0
 35
0.0000000000000071
146
0.0
 13
0.0
 23
0.0
 33
0.0
 16
0.0
 26
0.0
 36
0.0
 17
0.0
 27
0.0
 37
0.0
 76
     0
330
A
331
15
  0
MATERIAL
  5
68D3
102
{ACAD_REACTORS
330
263
102
}
330
263
100
AcDbMaterial
  1
ByBlock
 72
     1
 94
      127
  0
MATERIAL
  5
264
102
{ACAD_REACTORS
330
263
102
}
330
263
100
AcDbMaterial
  1
ByLayer
 72
     1
 94
      127
  0
MATERIAL
  5
266
102
{ACAD_REACTORS
330
263
102
}
330
263
100
AcDbMaterial
  1
Global
 72
     1
 94
      127
  0
MLEADERSTYLE
  5
1A6C
102
{ACAD_REACTORS
330
336
102
}
330
336
100
AcDbMLeaderStyle
170
     2
171
     1
172
     0
 90
        2
 40
0.0
 41
0.0
173
     1
 91
-1056964608
340
11
 92
       -2
290
     1
 42
2.0
291
     1
 43
8.0
  3
Standard
341
0
 44
4.0
300

342
17
174
     1
178
     6
175
     1
176
     0
 93
-1056964608
 45
4.0
292
     0
297
     0
 46
4.0
343
0
 94
-1056964608
 47
1.0
 49
1.0
140
1.0
293
     1
141
0.0
294
     1
177
     0
142
1.0
295
     0
296
     0
143
3.75
1001
ACAD_MLEADERVER
1070
     2
  0
MLINESTYLE
  5
1C
102
{ACAD_REACTORS
330
1B
102
}
330
1B
100
AcDbMlineStyle
  2
Standard
 70
     0
  3

 62
     0
 51
90.0
 52
90.0
 71
     2
 49
0.5
 62
   256
  6
BYLAYER
 49
-0.5
 62
   256
  6
BYLAYER
  0
ACDBPLACEHOLDER
  5
1D
102
{ACAD_REACTORS
330
1F
102
}
330
1F
  0
SCALE
  5
728B
102
{ACAD_REACTORS
330
241
102
}
330
241
100
AcDbScale
 70
     0
300
1:1_XREF_XREF
140
1.0
141
1.0
290
     1
  0
SCALE
  5
242
102
{ACAD_REACTORS
330
241
102
}
330
241
100
AcDbScale
 70
     0
300
1:1
140
1.0
141
1.0
290
     0
  0
SCALE
  5
243
102
{ACAD_REACTORS
330
241
102
}
330
241
100
AcDbScale
 70
     0
300
1:2
140
1.0
141
2.0
290
     0
  0
SCALE
  5
244
102
{ACAD_REACTORS
330
241
102
}
330
241
100
AcDbScale
 70
     0
300
1:4
140
1.0
141
4.0
290
     0
  0
SCALE
  5
245
102
{ACAD_REACTORS
330
241
102
}
330
241
100
AcDbScale
 70
     0
300
1:5
140
1.0
141
5.0
290
     0
  0
SCALE
  5
246
102
{ACAD_REACTORS
330
241
102
}
330
241
100
AcDbScale
 70
     0
300
1:8
140
1.0
141
8.0
290
     0
  0
SCALE
  5
247
102
{ACAD_REACTORS
330
241
102
}
330
241
100
AcDbScale
 70
     0
300
1:10
140
1.0
141
10.0
290
     0
  0
SCALE
  5
248
102
{ACAD_REACTORS
330
241
102
}
330
241
100
AcDbScale
 70
     0
300
1:16
140
1.0
141
16.0
290
     0
  0
SCALE
  5
249
102
{ACAD_REACTORS
330
241
102
}
330
241
100
AcDbScale
 70
     0
300
1:20
140
1.0
141
20.0
290
     0
  0
SCALE
  5
24A
102
{ACAD_REACTORS
330
241
102
}
330
241
100
AcDbScale
 70
     0
300
1:30
140
1.0
141
30.0
290
     0
  0
SCALE
  5
24B
102
{ACAD_REACTORS
330
241
102
}
330
241
100
AcDbScale
 70
     0
300
1:40
140
1.0
141
40.0
290
     0
  0
SCALE
  5
24C
102
{ACAD_REACTORS
330
241
102
}
330
241
100
AcDbScale
 70
     0
300
1:50
140
1.0
141
50.0
290
     0
  0
SCALE
  5
24D
102
{ACAD_REACTORS
330
241
102
}
330
241
100
AcDbScale
 70
     0
300
1:100
140
1.0
141
100.0
290
     0
  0
SCALE
  5
24E
102
{ACAD_REACTORS
330
241
102
}
330
241
100
AcDbScale
 70
     0
300
2:1
140
2.0
141
1.0
290
     0
  0
SCALE
  5
24F
102
{ACAD_REACTORS
330
241
102
}
330
241
100
AcDbScale
 70
     0
300
4:1
140
4.0
141
1.0
290
     0
  0
SCALE
  5
250
102
{ACAD_REACTORS
330
241
102
}
330
241
100
AcDbScale
 70
     0
300
8:1
140
8.0
141
1.0
290
     0
  0
SCALE
  5
251
102
{ACAD_REACTORS
330
241
102
}
330
241
100
AcDbScale
 70
     0
300
10:1
140
10.0
141
1.0
290
     0
  0
SCALE
  5
252
102
{ACAD_REACTORS
330
241
102
}
330
241
100
AcDbScale
 70
     0
300
100:1
140
100.0
141
1.0
290
     0
  0
SCALE
  5
253
102
{ACAD_REACTORS
330
241
102
}
330
241
100
AcDbScale
 70
     0
300
1/128" = 1'-0"
140
0.0078125
141
12.0
290
     0
  0
SCALE
  5
254
102
{ACAD_REACTORS
330
241
102
}
330
241
100
AcDbScale
 70
     0
300
1/64" = 1'-0"
140
0.015625
141
12.0
290
     0
  0
SCALE
  5
255
102
{ACAD_REACTORS
330
241
102
}
330
241
100
AcDbScale
 70
     0
300
1/32" = 1'-0"
140
0.03125
141
12.0
290
     0
  0
SCALE
  5
256
102
{ACAD_REACTORS
330
241
102
}
330
241
100
AcDbScale
 70
     0
300
1/16" = 1'-0"
140
0.0625
141
12.0
290
     0
  0
SCALE
  5
257
102
{ACAD_REACTORS
330
241
102
}
330
241
100
AcDbScale
 70
     0
300
3/32" = 1'-0"
140
0.09375
141
12.0
290
     0
  0
SCALE
  5
258
102
{ACAD_REACTORS
330
241
102
}
330
241
100
AcDbScale
 70
     0
300
1/8" = 1'-0"
140
0.125
141
12.0
290
     0
  0
SCALE
  5
259
102
{ACAD_REACTORS
330
241
102
}
330
241
100
AcDbScale
 70
     0
300
3/16" = 1'-0"
140
0.1875
141
12.0
290
     0
  0
SCALE
  5
25A
102
{ACAD_REACTORS
330
241
102
}
330
241
100
AcDbScale
 70
     0
300
1/4" = 1'-0"
140
0.25
141
12.0
290
     0
  0
SCALE
  5
25B
102
{ACAD_REACTORS
330
241
102
}
330
241
100
AcDbScale
 70
     0
300
3/8" = 1'-0"
140
0.375
141
12.0
290
     0
  0
SCALE
  5
25C
102
{ACAD_REACTORS
330
241
102
}
330
241
100
AcDbScale
 70
     0
300
1/2" = 1'-0"
140
0.5
141
12.0
290
     0
  0
SCALE
  5
25D
102
{ACAD_REACTORS
330
241
102
}
330
241
100
AcDbScale
 70
     0
300
3/4" = 1'-0"
140
0.75
141
12.0
290
     0
  0
SCALE
  5
25E
102
{ACAD_REACTORS
330
241
102
}
330
241
100
AcDbScale
 70
     0
300
1" = 1'-0"
140
1.0
141
12.0
290
     0
  0
SCALE
  5
25F
102
{ACAD_REACTORS
330
241
102
}
330
241
100
AcDbScale
 70
     0
300
1-1/2" = 1'-0"
140
1.5
141
12.0
290
     0
  0
SCALE
  5
260
102
{ACAD_REACTORS
330
241
102
}
330
241
100
AcDbScale
 70
     0
300
3" = 1'-0"
140
3.0
141
12.0
290
     0
  0
SCALE
  5
261
102
{ACAD_REACTORS
330
241
102
}
330
241
100
AcDbScale
 70
     0
300
6" = 1'-0"
140
6.0
141
12.0
290
     0
  0
SCALE
  5
262
102
{ACAD_REACTORS
330
241
102
}
330
241
100
AcDbScale
 70
     0
300
1'-0" = 1'-0"
140
12.0
141
12.0
290
     0
  0
TABLESTYLE
  5
279
102
{ACAD_REACTORS
330
278
102
}
102
{ACAD_XDICTIONARY
360
8F8F
102
}
330
278
100
AcDbTableStyle
  3
Standard
 70
     0
 71
     0
 40
0.06
 41
0.06
280
     0
281
     0
  7
Standard
140
4.5
170
     2
 62
     0
 63
   257
283
     0
 90
        4
 91
        0
  1

274
    -2
284
     1
 64
     0
275
    -2
285
     1
 65
     0
276
    -2
286
     1
 66
     0
277
    -2
287
     1
 67
     0
278
    -2
288
     1
 68
     0
279
    -2
289
     1
 69
     0
  7
Standard
140
6.0
170
     5
 62
     0
 63
   257
283
     0
 90
        4
 91
        0
  1

274
    -2
284
     1
 64
     0
275
    -2
285
     1
 65
     0
276
    -2
286
     1
 66
     0
277
    -2
287
     1
 67
     0
278
    -2
288
     1
 68
     0
279
    -2
289
     1
 69
     0
  7
Standard
140
4.5
170
     5
 62
     0
 63
   257
283
     0
 90
        4
 91
        0
  1

274
    -2
284
     1
 64
     0
275
    -2
285
     1
 65
     0
276
    -2
286
     1
 66
     0
277
    -2
287
     1
 67
     0
278
    -2
288
     1
 68
     0
279
    -2
289
     1
 69
     0
  0
VISUALSTYLE
  5
26C
102
{ACAD_REACTORS
330
267
102
}
330
267
100
AcDbVisualStyle
  2
2dWireframe
 70
     4
 71
     0
 72
     2
 73
     0
 90
        0
 40
-0.6
 41
-30.0
 62
     5
 63
     7
421
 16777215
 74
     1
 91
        4
 64
     7
 65
   257
 75
     1
175
     1
 42
1.0
 92
        0
 66
   257
 43
1.0
 76
     1
 77
     6
 78
     2
 67
     7
 79
     5
170
     0
171
     0
290
     0
174
     0
 93
        1
 44
0.0
173
     0
291
     0
 45
0.0
  0
VISUALSTYLE
  5
26E
102
{ACAD_REACTORS
330
267
102
}
330
267
100
AcDbVisualStyle
  2
3D Hidden
 70
     6
 71
     1
 72
     2
 73
     2
 90
        0
 40
-0.6
 41
-30.0
 62
     5
 63
     7
421
 16777215
 74
     2
 91
        2
 64
     7
 65
   257
 75
     2
175
     1
 42
40.0
 92
        0
 66
   257
 43
1.0
 76
     1
 77
     6
 78
     2
 67
     7
 79
     3
170
     0
171
     0
290
     0
174
     0
 93
        1
 44
0.0
173
     0
291
     0
 45
0.0
  0
VISUALSTYLE
  5
26D
102
{ACAD_REACTORS
330
267
102
}
330
267
100
AcDbVisualStyle
  2
3dWireframe
 70
     5
 71
     0
 72
     2
 73
     0
 90
        0
 40
-0.6
 41
-30.0
 62
     5
 63
     7
421
 16777215
 74
     1
 91
        4
 64
     7
 65
   257
 75
     1
175
     1
 42
1.0
 92
        0
 66
   257
 43
1.0
 76
     1
 77
     6
 78
     2
 67
     7
 79
     5
170
     0
171
     0
290
     0
174
     0
 93
        1
 44
0.0
173
     0
291
     0
 45
0.0
  0
VISUALSTYLE
  5
26F
102
{ACAD_REACTORS
330
267
102
}
330
267
100
AcDbVisualStyle
  2
Basic
 70
     7
 71
     1
 72
     0
 73
     1
 90
        0
 40
-0.6
 41
-30.0
 62
     5
 63
     7
421
 16777215
 74
     0
 91
        4
 64
     7
 65
   257
 75
     1
175
     1
 42
1.0
 92
        8
 66
     7
 43
1.0
 76
     1
 77
     6
 78
     2
 67
     7
 79
     5
170
     0
171
     0
290
     0
174
     0
 93
        1
 44
0.0
173
     0
291
     1
 45
0.0
  0
VISUALSTYLE
  5
273
102
{ACAD_REACTORS
330
267
102
}
330
267
100
AcDbVisualStyle
  2
Brighten
 70
    12
 71
     2
 72
     2
 73
     0
 90
        0
 40
-0.6
 41
-30.0
 62
     5
 63
     7
421
 16777215
 74
     1
 91
        4
 64
     7
 65
   257
 75
     1
175
     1
 42
1.0
 92
        8
 66
     7
 43
1.0
 76
     1
 77
     6
 78
     2
 67
     7
 79
     5
170
     0
171
     0
290
     0
174
     0
 93
        1
 44
50.0
173
     0
291
     1
 45
0.0
  0
VISUALSTYLE
  5
277
102
{ACAD_REACTORS
330
267
102
}
330
267
100
AcDbVisualStyle
  2
ColorChange
 70
    16
 71
     2
 72
     2
 73
     3
 90
        0
 40
-0.6
 41
-30.0
 62
     5
 63
     8
421
  8421504
 74
     1
 91
        4
 64
     7
 65
   257
 75
     1
175
     1
 42
1.0
 92
        8
 66
     8
424
  8421504
 43
1.0
 76
     1
 77
     6
 78
     2
 67
     7
 79
     5
170
     0
171
     0
290
     0
174
     0
 93
        1
 44
0.0
173
     0
291
     1
 45
0.0
  0
VISUALSTYLE
  5
271
102
{ACAD_REACTORS
330
267
102
}
330
267
100
AcDbVisualStyle
  2
Conceptual
 70
     9
 71
     3
 72
     2
 73
     0
 90
        0
 40
-0.6
 41
-30.0
 62
     5
 63
     7
421
 16777215
 74
     2
 91
        2
 64
     7
 65
   257
 75
     1
175
     1
 42
40.0
 92
        8
 66
     7
 43
1.0
 76
     1
 77
     6
 78
     2
 67
     7
 79
     3
170
     0
171
     0
290
     0
174
     0
 93
        1
 44
0.0
173
     0
291
     0
 45
0.0
  0
VISUALSTYLE
  5
272
102
{ACAD_REACTORS
330
267
102
}
330
267
100
AcDbVisualStyle
  2
Dim
 70
    11
 71
     2
 72
     2
 73
     0
 90
        0
 40
-0.6
 41
-30.0
 62
     5
 63
     7
421
 16777215
 74
     1
 91
        4
 64
     7
 65
   257
 75
     1
175
     1
 42
1.0
 92
        8
 66
     7
 43
1.0
 76
     1
 77
     6
 78
     2
 67
     7
 79
     5
170
     0
171
     0
290
     0
174
     0
 93
        1
 44
-50.0
173
     0
291
     1
 45
0.0
  0
VISUALSTYLE
  5
8FE
102
{ACAD_REACTORS
330
267
102
}
330
267
100
AcDbVisualStyle
  2
EdgeColorOff
 70
    22
 71
     2
 72
     2
 73
     0
 90
        0
 40
0.6
 41
30.0
 62
     5
 63
     7
421
 16777215
 74
     1
 91
        4
 64
     7
 65
   257
 75
     1
175
     1
 42
1.0
 92
        8
 66
     7
 43
1.0
 76
     1
 77
     6
 78
     2
 67
     7
 79
     5
170
     0
171
     0
290
     0
174
     0
 93
        1
 44
0.0
173
     0
291
     1
 45
0.0
  0
VISUALSTYLE
  5
276
102
{ACAD_REACTORS
330
267
102
}
330
267
100
AcDbVisualStyle
  2
Facepattern
 70
    15
 71
     2
 72
     2
 73
     0
 90
        0
 40
-0.6
 41
-30.0
 62
     5
 63
     7
421
 16777215
 74
     1
 91
        4
 64
     7
 65
   257
 75
     1
175
     1
 42
1.0
 92
        8
 66
     7
 43
1.0
 76
     1
 77
     6
 78
     2
 67
     7
 79
     5
170
     0
171
     0
290
     0
174
     0
 93
        1
 44
0.0
173
     0
291
     1
 45
0.0
  0
VISUALSTYLE
  5
268
102
{ACAD_REACTORS
330
267
102
}
330
267
100
AcDbVisualStyle
  2
Flat
 70
     0
 71
     2
 72
     1
 73
     1
 90
        2
 40
-0.6
 41
30.0
 62
     5
 63
     7
421
 16777215
 74
     0
 91
        4
 64
     7
 65
   257
 75
     1
175
     1
 42
1.0
 92
        8
 66
     7
 43
1.0
 76
     1
 77
     6
 78
     2
 67
     7
 79
     5
170
     0
171
     0
290
     0
174
     0
 93
       13
 44
0.0
173
     0
291
     1
 45
0.0
  0
VISUALSTYLE
  5
269
102
{ACAD_REACTORS
330
267
102
}
330
267
100
AcDbVisualStyle
  2
FlatWithEdges
 70
     1
 71
     2
 72
     1
 73
     1
 90
        2
 40
-0.6
 41
30.0
 62
     5
 63
     7
421
 16777215
 74
     1
 91
        4
 64
     7
 65
   257
 75
     1
175
     1
 42
1.0
 92
        0
 66
   257
 43
1.0
 76
     1
 77
     6
 78
     2
 67
     7
 79
     5
170
     0
171
     0
290
     0
174
     0
 93
       13
 44
0.0
173
     0
291
     1
 45
0.0
  0
VISUALSTYLE
  5
26A
102
{ACAD_REACTORS
330
267
102
}
330
267
100
AcDbVisualStyle
  2
Gouraud
 70
     2
 71
     2
 72
     2
 73
     1
 90
        2
 40
-0.6
 41
30.0
 62
     5
 63
     7
421
 16777215
 74
     0
 91
        4
 64
     7
 65
   257
 75
     1
175
     1
 42
1.0
 92
        0
 66
     7
 43
1.0
 76
     1
 77
     6
 78
     2
 67
     7
 79
     5
170
     0
171
     0
290
     0
174
     0
 93
       13
 44
0.0
173
     0
291
     1
 45
0.0
  0
VISUALSTYLE
  5
26B
102
{ACAD_REACTORS
330
267
102
}
330
267
100
AcDbVisualStyle
  2
GouraudWithEdges
 70
     3
 71
     2
 72
     2
 73
     1
 90
        2
 40
-0.6
 41
30.0
 62
     5
 63
     7
421
 16777215
 74
     1
 91
        4
 64
     7
 65
   257
 75
     1
175
     1
 42
1.0
 92
        0
 66
   257
 43
1.0
 76
     1
 77
     6
 78
     2
 67
     7
 79
     5
170
     0
171
     0
290
     0
174
     0
 93
       13
 44
0.0
173
     0
291
     1
 45
0.0
  0
VISUALSTYLE
  5
8FB
102
{ACAD_REACTORS
330
267
102
}
330
267
100
AcDbVisualStyle
  2
Hidden
 70
     6
 71
     1
 72
     2
 73
     2
 90
        0
 40
0.6
 41
30.0
 62
     5
 63
     7
421
 16777215
 74
     2
 91
        2
 64
     7
 65
   257
 75
     2
175
     1
 42
40.0
 92
        0
 66
   257
 43
1.0
 76
     1
 77
     6
 78
     2
 67
     7
 79
     3
170
     0
171
     0
290
     0
174
     0
 93
        1
 44
0.0
173
     0
291
     0
 45
0.0
  0
VISUALSTYLE
  5
8FC
102
{ACAD_REACTORS
330
267
102
}
330
267
100
AcDbVisualStyle
  2
JitterOff
 70
    20
 71
     2
 72
     2
 73
     0
 90
        0
 40
0.6
 41
30.0
 62
     5
 63
     7
421
 16777215
 74
     1
 91
        4
 64
     7
 65
   257
 75
     1
175
     1
 42
1.0
 92
       10
 66
     7
 43
1.0
 76
     1
 77
     6
 78
     2
 67
     7
 79
     5
170
     0
171
     0
290
     0
174
     0
 93
        1
 44
0.0
173
     0
291
     1
 45
0.0
  0
VISUALSTYLE
  5
275
102
{ACAD_REACTORS
330
267
102
}
330
267
100
AcDbVisualStyle
  2
Linepattern
 70
    14
 71
     2
 72
     2
 73
     0
 90
        0
 40
-0.6
 41
-30.0
 62
     5
 63
     7
421
 16777215
 74
     1
 91
        4
 64
     7
 65
   257
 75
     7
175
     7
 42
1.0
 92
        8
 66
     7
 43
1.0
 76
     1
 77
     6
 78
     2
 67
     7
 79
     5
170
     0
171
     0
290
     0
174
     0
 93
        1
 44
0.0
173
     0
291
     1
 45
0.0
  0
VISUALSTYLE
  5
8FD
102
{ACAD_REACTORS
330
267
102
}
330
267
100
AcDbVisualStyle
  2
OverhangOff
 70
    21
 71
     2
 72
     2
 73
     0
 90
        0
 40
0.6
 41
30.0
 62
     5
 63
     7
421
 16777215
 74
     1
 91
        4
 64
     7
 65
   257
 75
     1
175
     1
 42
1.0
 92
        9
 66
     7
 43
1.0
 76
     1
 77
     6
 78
     2
 67
     7
 79
     5
170
     0
171
     0
290
     0
174
     0
 93
        1
 44
0.0
173
     0
291
     1
 45
0.0
  0
VISUALSTYLE
  5
270
102
{ACAD_REACTORS
330
267
102
}
330
267
100
AcDbVisualStyle
  2
Realistic
 70
     8
 71
     2
 72
     2
 73
     0
 90
        0
 40
-0.6
 41
-30.0
 62
     5
 63
     7
421
 16777215
 74
     1
 91
        0
 64
     7
 65
   257
 75
     1
175
     1
 42
1.0
 92
        8
 66
     8
424
  7895160
 43
1.0
 76
     1
 77
     6
 78
     2
 67
     7
 79
     5
170
     0
171
     0
290
     0
174
     0
 93
       13
 44
0.0
173
     0
291
     0
 45
0.0
  0
VISUALSTYLE
  5
903
102
{ACAD_REACTORS
330
267
102
}
330
267
100
AcDbVisualStyle
  2
Shaded
 70
    27
 71
     2
 72
     2
 73
     1
 90
        2
 40
0.6
 41
30.0
 62
     5
 63
     7
421
 16777215
 74
     0
 91
        4
 64
     7
 65
   257
 75
     1
175
     1
 42
1.0
 92
        8
 66
   257
 43
1.0
 76
     1
 77
     6
 78
     2
 67
     8
425
  7895160
 79
     3
170
     0
171
     0
290
     0
174
     0
 93
        5
 44
0.0
173
     0
291
     0
 45
0.0
  0
VISUALSTYLE
  5
902
102
{ACAD_REACTORS
330
267
102
}
330
267
100
AcDbVisualStyle
  2
Shaded with edges
 70
    26
 71
     2
 72
     2
 73
     1
 90
        2
 40
0.6
 41
30.0
 62
     5
 63
     7
421
 16777215
 74
     1
 91
       10
 64
     7
 65
   257
 75
     2
175
     1
 42
1.0
 92
        8
 66
   257
 43
1.0
 76
     1
 77
     6
 78
     2
 67
     7
 79
     3
170
     0
171
     0
290
     0
174
     0
 93
        5
 44
0.0
173
     0
291
     0
 45
0.0
  0
VISUALSTYLE
  5
8FF
102
{ACAD_REACTORS
330
267
102
}
330
267
100
AcDbVisualStyle
  2
Shades of Gray
 70
    23
 71
     2
 72
     2
 73
     3
 90
        0
 40
0.6
 41
30.0
 62
     5
 63
     7
421
 16777215
 74
     2
 91
        2
 64
     7
 65
     7
 75
     1
175
     1
 42
40.0
 92
        8
 66
     7
 43
1.0
 76
     1
 77
     6
 78
     2
 67
     7
 79
     3
170
     0
171
     0
290
     0
174
     0
 93
        1
 44
0.0
173
     0
291
     0
 45
0.0
  0
VISUALSTYLE
  5
900
102
{ACAD_REACTORS
330
267
102
}
330
267
100
AcDbVisualStyle
  2
Sketchy
 70
    24
 71
     1
 72
     2
 73
     2
 90
        0
 40
0.6
 41
30.0
 62
     5
 63
     7
421
 16777215
 74
     2
 91
        2
 64
     7
 65
     7
 75
     1
175
     1
 42
40.0
 92
       11
 66
     7
 43
1.0
 76
     1
 77
     6
 78
     2
 67
     7
 79
     6
170
     0
171
     0
290
     0
174
     0
 93
        1
 44
0.0
173
     0
291
     0
 45
0.0
  0
VISUALSTYLE
  5
274
102
{ACAD_REACTORS
330
267
102
}
330
267
100
AcDbVisualStyle
  2
Thicken
 70
    13
 71
     2
 72
     2
 73
     0
 90
        0
 40
-0.6
 41
-30.0
 62
     5
 63
     7
421
 16777215
 74
     1
 91
        4
 64
     7
 65
   257
 75
     1
175
     1
 42
1.0
 92
       12
 66
     7
 43
1.0
 76
     1
 77
     6
 78
     2
 67
     7
 79
     5
170
     0
171
     0
290
     0
174
     0
 93
        1
 44
0.0
173
     0
291
     1
 45
0.0
  0
VISUALSTYLE
  5
8FA
102
{ACAD_REACTORS
330
267
102
}
330
267
100
AcDbVisualStyle
  2
Wireframe
 70
     5
 71
     0
 72
     2
 73
     0
 90
        0
 40
0.6
 41
30.0
 62
     5
 63
     7
421
 16777215
 74
     1
 91
        4
 64
     7
 65
   257
 75
     1
175
     1
 42
1.0
 92
        0
 66
   257
 43
1.0
 76
     1
 77
     6
 78
     2
 67
     7
 79
     3
170
     0
171
     0
290
     0
174
     0
 93
        1
 44
0.0
173
     0
291
     0
 45
0.0
  0
VISUALSTYLE
  5
901
102
{ACAD_REACTORS
330
267
102
}
330
267
100
AcDbVisualStyle
  2
X-Ray
 70
    25
 71
     2
 72
     2
 73
     1
 90
        1
 40
0.5
 41
30.0
 62
     5
 63
     7
421
 16777215
 74
     1
 91
        0
 64
     7
 65
   257
 75
     1
175
     1
 42
1.0
 92
        8
 66
     7
 43
1.0
 76
     1
 77
     6
 78
     2
 67
     7
 79
     3
170
     0
171
     0
290
     0
174
     0
 93
       13
 44
0.0
173
     0
291
     0
 45
0.0
  0
DICTIONARYVAR
  5
331
102
{ACAD_REACTORS
330
330
102
}
330
330
100
DictionaryVariables
280
     0
  1
1:1
  0
DICTIONARYVAR
  5
1AA2
102
{ACAD_REACTORS
330
330
102
}
330
330
100
DictionaryVariables
280
     0
  1
Standard
  0
DICTIONARYVAR
  5
335
102
{ACAD_REACTORS
330
330
102
}
330
330
100
DictionaryVariables
280
     0
  1
Standard
  0
DICTIONARYVAR
  5
D6B
102
{ACAD_REACTORS
330
330
102
}
330
330
100
DictionaryVariables
280
     0
  1
ByLayer
  0
DICTIONARYVAR
  5
896
102
{ACAD_REACTORS
330
330
102
}
330
330
100
DictionaryVariables
280
     0
  1
0
  0
DICTIONARYVAR
  5
7179
102
{ACAD_REACTORS
330
7176
102
}
330
7176
100
DictionaryVariables
280
     0
  1
0.261799
  0
DICTIONARYVAR
  5
7177
102
{ACAD_REACTORS
330
7176
102
}
330
7176
100
DictionaryVariables
280
     0
  1
0.400000
  0
DICTIONARYVAR
  5
7178
102
{ACAD_REACTORS
330
7176
102
}
330
7176
100
DictionaryVariables
280
     0
  1
0.250000
  0
DICTIONARYVAR
  5
717A
102
{ACAD_REACTORS
330
7176
102
}
330
7176
100
DictionaryVariables
280
     0
  1
1
  0
DICTIONARY
  5
8F8F
330
279
100
AcDbDictionary
280
     1
281
     1
  3
ACAD_ROUNDTRIP_2008_TABLESTYLE_CELLSTYLEMAP
360
8F90
  0
CELLSTYLEMAP
  5
8F90
102
{ACAD_REACTORS
330
8F8F
102
}
330
8F8F
100
AcDbCellStyleMap
 90
        3
300
CELLSTYLE
  1
TABLEFORMAT_BEGIN
 90
        5
170
     1
 91
        0
 92
    32768
 62
   257
 93
        1
300
CONTENTFORMAT
  1
CONTENTFORMAT_BEGIN
 90
        0
 91
        0
 92
        4
 93
        0
300

 40
0.0
140
1.0
 94
        5
 62
     0
340
17
144
6.0
309
CONTENTFORMAT_END
171
     1
301
MARGIN
  1
CELLMARGIN_BEGIN
 40
0.06
 40
0.06
 40
0.06
 40
0.06
 40
0.18
 40
0.18
309
CELLMARGIN_END
 94
        6
 95
        1
302
GRIDFORMAT
  1
GRIDFORMAT_BEGIN
 90
        0
 91
        1
 62
     0
 92
       -2
340
0
 93
        0
 40
0.045
309
GRIDFORMAT_END
 95
        2
302
GRIDFORMAT
  1
GRIDFORMAT_BEGIN
 90
        0
 91
        1
 62
     0
 92
       -2
340
0
 93
        0
 40
0.045
309
GRIDFORMAT_END
 95
        4
302
GRIDFORMAT
  1
GRIDFORMAT_BEGIN
 90
        0
 91
        1
 62
     0
 92
       -2
340
0
 93
        0
 40
0.045
309
GRIDFORMAT_END
 95
        8
302
GRIDFORMAT
  1
GRIDFORMAT_BEGIN
 90
        0
 91
        1
 62
     0
 92
       -2
340
0
 93
        0
 40
0.045
309
GRIDFORMAT_END
 95
       16
302
GRIDFORMAT
  1
GRIDFORMAT_BEGIN
 90
        0
 91
        1
 62
     0
 92
       -2
340
0
 93
        0
 40
0.045
309
GRIDFORMAT_END
 95
       32
302
GRIDFORMAT
  1
GRIDFORMAT_BEGIN
 90
        0
 91
        1
 62
     0
 92
       -2
340
0
 93
        0
 40
0.045
309
GRIDFORMAT_END
309
TABLEFORMAT_END
  1
CELLSTYLE_BEGIN
 90
        1
 91
        1
300
_TITLE
309
CELLSTYLE_END
300
CELLSTYLE
  1
TABLEFORMAT_BEGIN
 90
        5
170
     1
 91
        0
 92
        0
 62
   257
 93
        1
300
CONTENTFORMAT
  1
CONTENTFORMAT_BEGIN
 90
        0
 91
        0
 92
        4
 93
        0
300

 40
0.0
140
1.0
 94
        5
 62
     0
340
17
144
4.5
309
CONTENTFORMAT_END
171
     1
301
MARGIN
  1
CELLMARGIN_BEGIN
 40
0.06
 40
0.06
 40
0.06
 40
0.06
 40
0.18
 40
0.18
309
CELLMARGIN_END
 94
        6
 95
        1
302
GRIDFORMAT
  1
GRIDFORMAT_BEGIN
 90
        0
 91
        1
 62
     0
 92
       -2
340
0
 93
        0
 40
0.045
309
GRIDFORMAT_END
 95
        2
302
GRIDFORMAT
  1
GRIDFORMAT_BEGIN
 90
        0
 91
        1
 62
     0
 92
       -2
340
0
 93
        0
 40
0.045
309
GRIDFORMAT_END
 95
        4
302
GRIDFORMAT
  1
GRIDFORMAT_BEGIN
 90
        0
 91
        1
 62
     0
 92
       -2
340
0
 93
        0
 40
0.045
309
GRIDFORMAT_END
 95
        8
302
GRIDFORMAT
  1
GRIDFORMAT_BEGIN
 90
        0
 91
        1
 62
     0
 92
       -2
340
0
 93
        0
 40
0.045
309
GRIDFORMAT_END
 95
       16
302
GRIDFORMAT
  1
GRIDFORMAT_BEGIN
 90
        0
 91
        1
 62
     0
 92
       -2
340
0
 93
        0
 40
0.045
309
GRIDFORMAT_END
 95
       32
302
GRIDFORMAT
  1
GRIDFORMAT_BEGIN
 90
        0
 91
        1
 62
     0
 92
       -2
340
0
 93
        0
 40
0.045
309
GRIDFORMAT_END
309
TABLEFORMAT_END
  1
CELLSTYLE_BEGIN
 90
        2
 91
        1
300
_HEADER
309
CELLSTYLE_END
300
CELLSTYLE
  1
TABLEFORMAT_BEGIN
 90
        5
170
     1
 91
        0
 92
        0
 62
   257
 93
        1
300
CONTENTFORMAT
  1
CONTENTFORMAT_BEGIN
 90
        0
 91
        0
 92
        4
 93
        0
300

 40
0.0
140
1.0
 94
        2
 62
     0
340
17
144
4.5
309
CONTENTFORMAT_END
171
     1
301
MARGIN
  1
CELLMARGIN_BEGIN
 40
0.06
 40
0.06
 40
0.06
 40
0.06
 40
0.18
 40
0.18
309
CELLMARGIN_END
 94
        6
 95
        1
302
GRIDFORMAT
  1
GRIDFORMAT_BEGIN
 90
        0
 91
        1
 62
     0
 92
       -2
340
0
 93
        0
 40
0.045
309
GRIDFORMAT_END
 95
        2
302
GRIDFORMAT
  1
GRIDFORMAT_BEGIN
 90
        0
 91
        1
 62
     0
 92
       -2
340
0
 93
        0
 40
0.045
309
GRIDFORMAT_END
 95
        4
302
GRIDFORMAT
  1
GRIDFORMAT_BEGIN
 90
        0
 91
        1
 62
     0
 92
       -2
340
0
 93
        0
 40
0.045
309
GRIDFORMAT_END
 95
        8
302
GRIDFORMAT
  1
GRIDFORMAT_BEGIN
 90
        0
 91
        1
 62
     0
 92
       -2
340
0
 93
        0
 40
0.045
309
GRIDFORMAT_END
 95
       16
302
GRIDFORMAT
  1
GRIDFORMAT_BEGIN
 90
        0
 91
        1
 62
     0
 92
       -2
340
0
 93
        0
 40
0.045
309
GRIDFORMAT_END
 95
       32
302
GRIDFORMAT
  1
GRIDFORMAT_BEGIN
 90
        0
 91
        1
 62
     0
 92
       -2
340
0
 93
        0
 40
0.045
309
GRIDFORMAT_END
309
TABLEFORMAT_END
  1
CELLSTYLE_BEGIN
 90
        3
 91
        2
300
_DATA
309
CELLSTYLE_END
  0
ENDSEC
  0
EOF
