  0
SECTION
  2
HEADER
  9
$ACADVER
  1
AC1021
  9
$ACADMAINTVER
 70
    25
  9
$DWGCODEPAGE
  3
ANSI_932
  9
$LASTSAVEDBY
  1
tform
  9
$INSBASE
 10
0.0
 20
0.0
 30
0.0
  9
$EXTMIN
 10
0.0
 20
0.0
 30
-0.0000000000000142
  9
$EXTMAX
 10
420.0
 20
594.0
 30
0.0000000000000142
  9
$LIMMIN
 10
0.0
 20
0.0
  9
$LIMMAX
 10
420.0
 20
594.0
  9
$ORTHOMODE
 70
     0
  9
$REGENMODE
 70
     1
  9
$FILLMODE
 70
     1
  9
$QTEXTMODE
 70
     0
  9
$MIRRTEXT
 70
     1
  9
$LTSCALE
 40
1.0
  9
$ATTMODE
 70
     1
  9
$TEXTSIZE
 40
2.5
  9
$TRACEWID
 40
1.0
  9
$TEXTSTYLE
  7
ＭＳ ゴシック
  9
$CLAYER
  8
DIM
  9
$CELTYPE
  6
ByLayer
  9
$CECOLOR
 62
   256
  9
$CELTSCALE
 40
0.05
  9
$DISPSILH
 70
     0
  9
$DIMSCALE
 40
1.0
  9
$DIMASZ
 40
2.0
  9
$DIMEXO
 40
5.0
  9
$DIMDLI
 40
0.9999999999999999
  9
$DIMRND
 40
0.0
  9
$DIMDLE
 40
0.0
  9
$DIMEXE
 40
0.0
  9
$DIMTP
 40
0.0
  9
$DIMTM
 40
0.0
  9
$DIMTXT
 40
5.0
  9
$DIMCEN
 40
0.0
  9
$DIMTSZ
 40
0.0
  9
$DIMTOL
 70
     0
  9
$DIMLIM
 70
     0
  9
$DIMTIH
 70
     0
  9
$DIMTOH
 70
     0
  9
$DIMSE1
 70
     0
  9
$DIMSE2
 70
     0
  9
$DIMTAD
 70
     1
  9
$DIMZIN
 70
    11
  9
$DIMBLK
  1
DOT
  9
$DIMASO
 70
     1
  9
$DIMSHO
 70
     1
  9
$DIMPOST
  1
<>
  9
$DIMAPOST
  1
[]
  9
$DIMALT
 70
     0
  9
$DIMALTD
 70
     1
  9
$DIMALTF
 40
1.0
  9
$DIMLFAC
 40
1.0
  9
$DIMTOFL
 70
     0
  9
$DIMTVP
 40
0.0
  9
$DIMTIX
 70
     1
  9
$DIMSOXD
 70
     0
  9
$DIMSAH
 70
     0
  9
$DIMBLK1
  1

  9
$DIMBLK2
  1

  9
$DIMSTYLE
  2
tfrom線あり
  9
$DIMCLRD
 70
     0
  9
$DIMCLRE
 70
     0
  9
$DIMCLRT
 70
     0
  9
$DIMTFAC
 40
1.0
  9
$DIMGAP
 40
3.0
  9
$DIMJUST
 70
     0
  9
$DIMSD1
 70
     0
  9
$DIMSD2
 70
     0
  9
$DIMTOLJ
 70
     1
  9
$DIMTZIN
 70
    11
  9
$DIMALTZ
 70
    11
  9
$DIMALTTZ
 70
    11
  9
$DIMUPT
 70
     0
  9
$DIMDEC
 70
     0
  9
$DIMTDEC
 70
     1
  9
$DIMALTU
 70
     2
  9
$DIMALTTD
 70
     2
  9
$DIMTXSTY
  7
ＭＳ ゴシック
  9
$DIMAUNIT
 70
     0
  9
$DIMADEC
 70
     2
  9
$DIMALTRND
 40
0.0
  9
$DIMAZIN
 70
     0
  9
$DIMDSEP
 70
    46
  9
$DIMATFIT
 70
     0
  9
$DIMFRAC
 70
     2
  9
$DIMLDRBLK
  1
DOT
  9
$DIMLUNIT
 70
     2
  9
$DIMLWD
 70
    -2
  9
$DIMLWE
 70
    -2
  9
$DIMTMOVE
 70
     0
  9
$DIMFXL
 40
1.0
  9
$DIMFXLON
 70
     0
  9
$DIMJOGANG
 40
0.7853981633974483
  9
$DIMTFILL
 70
     0
  9
$DIMTFILLCLR
 70
     0
  9
$DIMARCSYM
 70
     0
  9
$DIMLTYPE
  6

  9
$DIMLTEX1
  6

  9
$DIMLTEX2
  6

  9
$LUNITS
 70
     2
  9
$LUPREC
 70
     0
  9
$SKETCHINC
 40
0.1
  9
$FILLETRAD
 40
0.0
  9
$AUNITS
 70
     0
  9
$AUPREC
 70
     0
  9
$MENU
  1
acad
  9
$ELEVATION
 40
0.0
  9
$PELEVATION
 40
0.0
  9
$THICKNESS
 40
0.0
  9
$LIMCHECK
 70
     0
  9
$CHAMFERA
 40
0.0
  9
$CHAMFERB
 40
0.0
  9
$CHAMFERC
 40
0.0
  9
$CHAMFERD
 40
0.0
  9
$SKPOLY
 70
     0
  9
$TDCREATE
 40
2447893.375
  9
$TDUCREATE
 40
0.0
  9
$TDUPDATE
 40
2460208.398595254
  9
$TDUUPDATE
 40
2460208.023595254
  9
$TDINDWG
 40
0.1798271065
  9
$TDUSRTIMER
 40
0.0036315278
  9
$USRTIMER
 70
     1
  9
$ANGBASE
 50
0.0
  9
$ANGDIR
 70
     0
  9
$PDMODE
 70
     1
  9
$PDSIZE
 40
-2.0
  9
$PLINEWID
 40
0.0
  9
$SPLFRAME
 70
     0
  9
$SPLINETYPE
 70
     6
  9
$SPLINESEGS
 70
     8
  9
$HANDSEED
  5
445B
  9
$SURFTAB1
 70
     6
  9
$SURFTAB2
 70
     6
  9
$SURFTYPE
 70
     6
  9
$SURFU
 70
     6
  9
$SURFV
 70
     6
  9
$UCSBASE
  2

  9
$UCSNAME
  2

  9
$UCSORG
 10
0.0
 20
0.0
 30
0.0
  9
$UCSXDIR
 10
1.0
 20
0.0
 30
0.0
  9
$UCSYDIR
 10
0.0
 20
1.0
 30
0.0
  9
$UCSORTHOREF
  2

  9
$UCSORTHOVIEW
 70
     0
  9
$UCSORGTOP
 10
0.0
 20
0.0
 30
0.0
  9
$UCSORGBOTTOM
 10
0.0
 20
0.0
 30
0.0
  9
$UCSORGLEFT
 10
0.0
 20
0.0
 30
0.0
  9
$UCSORGRIGHT
 10
0.0
 20
0.0
 30
0.0
  9
$UCSORGFRONT
 10
0.0
 20
0.0
 30
0.0
  9
$UCSORGBACK
 10
0.0
 20
0.0
 30
0.0
  9
$PUCSBASE
  2

  9
$PUCSNAME
  2

  9
$PUCSORG
 10
0.0
 20
0.0
 30
0.0
  9
$PUCSXDIR
 10
1.0
 20
0.0
 30
0.0
  9
$PUCSYDIR
 10
0.0
 20
1.0
 30
0.0
  9
$PUCSORTHOREF
  2

  9
$PUCSORTHOVIEW
 70
     0
  9
$PUCSORGTOP
 10
0.0
 20
0.0
 30
0.0
  9
$PUCSORGBOTTOM
 10
0.0
 20
0.0
 30
0.0
  9
$PUCSORGLEFT
 10
0.0
 20
0.0
 30
0.0
  9
$PUCSORGRIGHT
 10
0.0
 20
0.0
 30
0.0
  9
$PUCSORGFRONT
 10
0.0
 20
0.0
 30
0.0
  9
$PUCSORGBACK
 10
0.0
 20
0.0
 30
0.0
  9
$USERI1
 70
     0
  9
$USERI2
 70
     0
  9
$USERI3
 70
     0
  9
$USERI4
 70
     0
  9
$USERI5
 70
     0
  9
$USERR1
 40
0.0
  9
$USERR2
 40
0.0
  9
$USERR3
 40
0.0
  9
$USERR4
 40
0.0
  9
$USERR5
 40
0.0
  9
$WORLDVIEW
 70
     1
  9
$SHADEDGE
 70
     3
  9
$SHADEDIF
 70
    70
  9
$TILEMODE
 70
     1
  9
$MAXACTVP
 70
    64
  9
$PINSBASE
 10
0.0
 20
0.0
 30
0.0
  9
$PLIMCHECK
 70
     0
  9
$PEXTMIN
 10
0.0
 20
0.0
 30
0.0
  9
$PEXTMAX
 10
0.0
 20
0.0
 30
0.0
  9
$PLIMMIN
 10
-7.5
 20
-20.0
  9
$PLIMMAX
 10
412.5
 20
277.0
  9
$UNITMODE
 70
     0
  9
$VISRETAIN
 70
     0
  9
$PLINEGEN
 70
     1
  9
$PSLTSCALE
 70
     0
  9
$TREEDEPTH
 70
  3020
  9
$CMLSTYLE
  2
Standard
  9
$CMLJUST
 70
     0
  9
$CMLSCALE
 40
1.0
  9
$PROXYGRAPHICS
 70
     0
  9
$MEASUREMENT
 70
     1
  9
$CELWEIGHT
370
    -1
  9
$ENDCAPS
280
     0
  9
$JOINSTYLE
280
     0
  9
$LWDISPLAY
290
     1
  9
$INSUNITS
 70
     4
  9
$HYPERLINKBASE
  1

  9
$STYLESHEET
  1

  9
$XEDIT
290
     1
  9
$CEPSNTYPE
380
     0
  9
$PSTYLEMODE
290
     1
  9
$FINGERPRINTGUID
  2

  9
$VERSIONGUID
  2

  9
$EXTNAMES
290
     1
  9
$PSVPSCALE
 40
0.0
  9
$OLESTARTUP
290
     0
  9
$SORTENTS
280
   127
  9
$INDEXCTL
280
     0
  9
$HIDETEXT
280
     1
  9
$XCLIPFRAME
290
     0
  9
$HALOGAP
280
     0
  9
$OBSCOLOR
 70
   257
  9
$OBSLTYPE
280
     0
  9
$INTERSECTIONDISPLAY
280
     0
  9
$INTERSECTIONCOLOR
 70
   257
  9
$DIMASSOC
280
     2
  9
$PROJECTNAME
  1

  9
$CAMERADISPLAY
290
     0
  9
$LENSLENGTH
 40
50.0
  9
$CAMERAHEIGHT
 40
0.0
  9
$STEPSPERSEC
 40
2.0
  9
$STEPSIZE
 40
6.0
  9
$3DDWFPREC
 40
2.0
  9
$PSOLWIDTH
 40
0.25
  9
$PSOLHEIGHT
 40
4.0
  9
$LOFTANG1
 40
1.570796326794897
  9
$LOFTANG2
 40
1.570796326794897
  9
$LOFTMAG1
 40
0.0
  9
$LOFTMAG2
 40
0.0
  9
$LOFTPARAM
 70
     7
  9
$LOFTNORMALS
280
     1
  9
$LATITUDE
 40
37.795
  9
$LONGITUDE
 40
-122.394
  9
$NORTHDIRECTION
 40
0.0
  9
$TIMEZONE
 70
 -8000
  9
$LIGHTGLYPHDISPLAY
280
     1
  9
$TILEMODELIGHTSYNCH
280
     1
  9
$SOLIDHIST
280
     1
  9
$SHOWHIST
280
     1
  9
$DWFFRAME
280
     2
  9
$DGNFRAME
280
     2
  9
$REALWORLDSCALE
290
     1
  9
$INTERFERECOLOR
 62
   256
  9
$CSHADOW
280
     0
  9
$SHADOWPLANELOCATION
 40
0.0
  0
ENDSEC
  0
SECTION
  2
CLASSES
  0
CLASS
  1
LWPOLYLINE
  2
AcDbPolyline
  3
ObjectDBX Classes
 90
        0
 91
        1
280
     0
281
     1
  0
CLASS
  1
IMAGE
  2
AcDbRasterImage
  3
ISM
 90
      127
 91
        4
280
     0
281
     1
  0
CLASS
  1
OLE2FRAME
  2
AcDbOle2Frame
  3
ObjectDBX Classes
 90
        0
 91
        1
280
     0
281
     1
  0
CLASS
  1
HATCH
  2
AcDbHatch
  3
ObjectDBX Classes
 90
        0
 91
        1
280
     0
281
     1
  0
CLASS
  1
DICTIONARYVAR
  2
AcDbDictionaryVar
  3
ObjectDBX Classes
 90
        0
 91
        3
280
     0
281
     0
  0
CLASS
  1
RASTERVARIABLES
  2
AcDbRasterVariables
  3
ISM
 90
        0
 91
        3
280
     0
281
     0
  0
CLASS
  1
IMAGEDEF
  2
AcDbRasterImageDef
  3
ISM
 90
        0
 91
        3
280
     0
281
     0
  0
CLASS
  1
IMAGEDEF_REACTOR
  2
AcDbRasterImageDefReactor
  3
ISM
 90
        1
 91
        3
280
     0
281
     0
  0
CLASS
  1
IDBUFFER
  2
AcDbIdBuffer
  3
ObjectDBX Classes
 90
        0
 91
        3
280
     0
281
     0
  0
CLASS
  1
SPATIAL_FILTER
  2
AcDbSpatialFilter
  3
ObjectDBX Classes
 90
        0
 91
        3
280
     0
281
     0
  0
CLASS
  1
XRECORD
  2
AcDbXrecord
  3
ObjectDBX Classes
 90
        0
 91
        1
280
     0
281
     0
  0
CLASS
  1
SORTENTSTABLE
  2
AcDbSortentsTable
  3
ObjectDBX Classes
 90
        0
 91
        3
280
     0
281
     0
  0
CLASS
  1
LAYER_INDEX
  2
AcDbLayerIndex
  3
ObjectDBX Classes
 90
        0
 91
        3
280
     0
281
     0
  0
CLASS
  1
SPATIAL_INDEX
  2
AcDbSpatialIndex
  3
AutoCAD 2000
 90
        0
 91
        3
280
     0
281
     0
  0
CLASS
  1
OBJECT_PTR
  2
CAseDLPNTableRecord
  3
ASE-LPNTableRecord
 90
        1
 91
        3
280
     0
281
     0
  0
CLASS
  1
LAYOUT
  2
AcDbLayout
  3
ObjectDBX Classes
 90
        0
 91
        1
280
     0
281
     0
  0
CLASS
  1
PLOTSETTINGS
  2
AcDbPlotSettings
  3
ObjectDBX Classes
 90
        0
 91
        3
280
     0
281
     0
  0
CLASS
  1
ACDBDICTIONARYWDFLT
  2
AcDbDictionaryWithDefault
  3
ObjectDBX Classes
 90
        0
 91
        3
280
     0
281
     0
  0
CLASS
  1
ACDBPLACEHOLDER
  2
AcDbPlaceHolder
  3
ObjectDBX Classes
 90
        0
 91
        1
280
     0
281
     0
  0
CLASS
  1
SCALE
  2
AcDbScale
  3
ObjectDBX Classes
 90
     1153
 91
        3
280
     0
281
     0
  0
CLASS
  1
MATERIAL
  2
AcDbMaterial
  3
ObjectDBX Classes
 90
     1153
 91
        3
280
     0
281
     0
  0
CLASS
  1
VISUALSTYLE
  2
AcDbVisualStyle
  3
ObjectDBX Classes
 90
     4095
 91
        3
280
     0
281
     0
  0
CLASS
  1
TABLESTYLE
  2
AcDbTableStyle
  3
ObjectDBX Classes
 90
     4095
 91
        3
280
     0
281
     0
  0
CLASS
  1
DIMASSOC
  2
AcDbDimAssoc
  3
"AcDbDimAssoc|Product Desc:     AcDim ARX App For Dimension|Company:          Autodesk, Inc.|WEB Address:      www.autodesk.com"
 90
        0
 91
        3
280
     0
281
     0
  0
CLASS
  1
CELLSTYLEMAP
  2
AcDbCellStyleMap
  3
ObjectDBX Classes
 90
     1152
 91
        3
280
     0
281
     0
  0
CLASS
  1
SUN
  2
AcDbSun
  3
SCENEOE
 90
     1153
 91
        3
280
     0
281
     0
  0
CLASS
  1
MLEADERSTYLE
  2
AcDbMLeaderStyle
  3
ACDB_MLEADERSTYLE_CLASS
 90
     4095
 91
        3
280
     0
281
     0
  0
CLASS
  1
FIELD
  2
AcDbField
  3
ObjectDBX Classes
 90
     1152
 91
        3
280
     0
281
     0
  0
CLASS
  1
FIELDLIST
  2
AcDbFieldList
  3
ObjectDBX Classes
 90
     1152
 91
        3
280
     0
281
     0
  0
ENDSEC
  0
SECTION
  2
TABLES
  0
TABLE
  2
VPORT
  5
7
330
0
100
AcDbSymbolTable
 70
     1
  0
VPORT
  5
15
330
7
100
AcDbSymbolTableRecord
100
AcDbViewportTableRecord
  2
*ACTIVE
 70
     0
 10
0.0
 20
0.0
 11
1.0
 21
1.0
 12
301.0201356709005
 22
223.401285469834
 13
0.0
 23
0.0
 14
1.0
 24
1.0
 15
0.0
 25
0.0
 16
0.0
 26
0.0
 36
1.0
 17
-91.02013567090052
 27
73.59871453016603
 37
-46.86809886248109
 40
605.88
 41
2.189300411522634
 42
50.0
 43
0.0
 44
0.0
 50
0.0
 51
0.0
 71
    16
 72
  2000
 73
     1
 74
     1
 75
     0
 76
     0
 77
     0
 78
     0
281
     0
 65
     1
110
0.0
120
0.0
130
0.0
111
1.0
121
0.0
131
0.0
112
0.0
122
1.0
132
0.0
 79
     0
146
0.0
348
26C
 60
     3
 61
     5
292
     1
282
     1
141
0.0
142
0.0
 63
   256
361
904
  0
ENDTAB
  0
TABLE
  2
LTYPE
  5
4
330
0
100
AcDbSymbolTable
 70
     3
  0
LTYPE
  5
11
330
4
100
AcDbSymbolTableRecord
100
AcDbLinetypeTableRecord
  2
ByBlock
 70
     0
  3

 72
    65
 73
     0
 40
0.0
  0
LTYPE
  5
12
330
4
100
AcDbSymbolTableRecord
100
AcDbLinetypeTableRecord
  2
ByLayer
 70
     0
  3

 72
    65
 73
     0
 40
0.0
  0
LTYPE
  5
13
330
4
100
AcDbSymbolTableRecord
100
AcDbLinetypeTableRecord
  2
Continuous
 70
     0
  3
Solid line
 72
    65
 73
     0
 40
0.0
  0
LTYPE
  5
D6C
330
4
100
AcDbSymbolTableRecord
100
AcDbLinetypeTableRecord
  2
BORDER
 70
     0
  3
Border __  __  . __  __  . __  __  . __  __  . 
 72
    65
 73
     6
 40
44.45
 49
12.7
 74
     0
 49
-6.35
 74
     0
 49
12.7
 74
     0
 49
-6.35
 74
     0
 49
0.0
 74
     0
 49
-6.35
 74
     0
  0
LTYPE
  5
43C7
330
4
100
AcDbSymbolTableRecord
100
AcDbLinetypeTableRecord
  2
HIDDEN
 70
     0
  3
Hidden _ _ _ _ _ _ _ _ _ _ _ _ _ _ _ _ _ _ _ _ 
 72
    65
 73
     2
 40
9.524999999999999
 49
6.35
 74
     0
 49
-3.175
 74
     0
  0
ENDTAB
  0
TABLE
  2
LAYER
  5
2
102
{ACAD_XDICTIONARY
360
2E1
102
}
330
0
100
AcDbSymbolTable
 70
     9
  0
LAYER
  5
14
330
2
100
AcDbSymbolTableRecord
100
AcDbLayerTableRecord
  2
0
 70
     0
 62
     7
  6
Continuous
370
    -3
390
1D
347
266
  0
LAYER
  5
4B
330
2
100
AcDbSymbolTableRecord
100
AcDbLayerTableRecord
  2
TEMPLATE
 70
     0
 62
     7
  6
Continuous
370
    20
390
1D
347
266
  0
LAYER
  5
4C
330
2
100
AcDbSymbolTableRecord
100
AcDbLayerTableRecord
  2
DIM
 70
     0
 62
     3
  6
Continuous
370
    13
390
1D
347
266
  0
LAYER
  5
4D
330
2
100
AcDbSymbolTableRecord
100
AcDbLayerTableRecord
  2
MODEL
 70
     0
 62
     7
  6
Continuous
370
    20
390
1D
347
266
  0
LAYER
  5
667
330
2
100
AcDbSymbolTableRecord
100
AcDbLayerTableRecord
  2
LOGO
 70
     0
 62
     7
  6
Continuous
370
    -3
390
1D
347
266
  0
LAYER
  5
D6B
330
2
100
AcDbSymbolTableRecord
100
AcDbLayerTableRecord
  2
BORDER
 70
     0
 62
     4
  6
BORDER
290
     0
370
    20
390
1D
347
266
1001
AcAecLayerStandard
1000

1000

  0
LAYER
  5
D8C
330
2
100
AcDbSymbolTableRecord
100
AcDbLayerTableRecord
  2
Defpoints
 70
     0
 62
     7
  6
Continuous
290
     0
370
    -3
390
1D
347
266
  0
LAYER
  5
3653
330
2
100
AcDbSymbolTableRecord
100
AcDbLayerTableRecord
  2
Standard
 70
     0
 62
     7
  6
Continuous
370
    -3
390
1D
347
266
  0
LAYER
  5
404E
330
2
100
AcDbSymbolTableRecord
100
AcDbLayerTableRecord
  2
main
 70
     0
 62
     7
  6
Continuous
370
    -3
390
1D
347
266
  0
ENDTAB
  0
TABLE
  2
STYLE
  5
3
330
0
100
AcDbSymbolTable
 70
     2
  0
STYLE
  5
17
330
3
100
AcDbSymbolTableRecord
100
AcDbTextStyleTableRecord
  2
Standard
 70
     0
 40
0.0
 41
1.0
 50
0.0
 71
     0
 42
2.5
  3
txt
  4
BIGFONT.SHX
  0
STYLE
  5
39
330
3
100
AcDbSymbolTableRecord
100
AcDbTextStyleTableRecord
  2
ＭＳ ゴシック
 70
     0
 40
0.0
 41
1.0
 50
0.0
 71
     0
 42
2.5
  3
msgothic.ttc
  4
ＭＳ ゴシック
1001
ACAD
1000
ＭＳ ゴシック
1071
        0
  0
ENDTAB
  0
TABLE
  2
VIEW
  5
5
330
0
100
AcDbSymbolTable
 70
     0
  0
ENDTAB
  0
TABLE
  2
UCS
  5
6
330
0
100
AcDbSymbolTable
 70
     0
  0
ENDTAB
  0
TABLE
  2
APPID
  5
8
330
0
100
AcDbSymbolTable
 70
     4
  0
APPID
  5
16
330
8
100
AcDbSymbolTableRecord
100
AcDbRegAppTableRecord
  2
ACAD
 70
     0
  0
APPID
  5
7AC
330
8
100
AcDbSymbolTableRecord
100
AcDbRegAppTableRecord
  2
AcAecLayerStandard
 70
     0
  0
APPID
  5
E29
330
8
100
AcDbSymbolTableRecord
100
AcDbRegAppTableRecord
  2
ACAD_MLEADERVER
 70
     0
  0
APPID
  5
4457
330
8
100
AcDbSymbolTableRecord
100
AcDbRegAppTableRecord
  2
PLOTTRANSPARENCY
 70
     0
  0
ENDTAB
  0
TABLE
  2
DIMSTYLE
  5
9
330
0
100
AcDbSymbolTable
 70
     2
100
AcDbDimStyleTable
  0
DIMSTYLE
105
18
330
9
100
AcDbSymbolTableRecord
100
AcDbDimStyleTableRecord
  2
Standard
 70
     0
178
     0
340
17
  0
DIMSTYLE
105
57
102
{ACAD_REACTORS
330
4411
330
4423
330
4432
102
}
330
9
100
AcDbSymbolTableRecord
100
AcDbDimStyleTableRecord
  2
tfrom線あり
 70
     0
  3
<>
  4
[]
 41
2.0
 42
5.0
 43
0.9999999999999999
 44
0.0
 73
     0
 74
     0
 77
     1
 78
    11
140
5.0
141
0.0
143
1.0
147
3.0
171
     1
174
     1
178
     0
179
     2
271
     0
272
     1
276
     2
284
    11
285
    11
286
    11
289
     0
340
39
341
4E
342
4E
  0
ENDTAB
  0
TABLE
  2
BLOCK_RECORD
  5
1
330
0
100
AcDbSymbolTable
 70
    37
  0
BLOCK_RECORD
  5
A
330
1
100
AcDbSymbolTableRecord
100
AcDbBlockTableRecord
  2
*MODEL_SPACE
340
20
 70
     0
280
     1
281
     0
  0
BLOCK_RECORD
  5
B
330
1
100
AcDbSymbolTableRecord
100
AcDbBlockTableRecord
  2
*PAPER_SPACE
340
21
 70
     0
280
     1
281
     0
  0
BLOCK_RECORD
  5
4E
330
1
100
AcDbSymbolTableRecord
100
AcDbBlockTableRecord
  2
_DOT
340
0
102
{BLKREFS
331
3EEE
331
3EEF
331
3F00
331
3F01
331
3F0F
331
3F10
331
3F2B
331
3F2C
331
3F71
331
3F72
331
3F81
331
3F82
331
3FAE
331
3FAF
331
3FDE
331
3FDF
331
3FF4
331
3FF5
331
42FE
331
42FF
331
430D
331
430E
331
431C
331
431D
331
432E
331
432F
331
433D
331
433E
331
4352
331
4353
331
4394
331
4395
331
43A3
331
43A4
331
43B2
331
43B3
331
43C1
331
43C2
331
43EE
331
43EF
331
441A
331
441B
331
442C
331
442D
331
443B
331
443C
102
}
 70
     0
280
     1
281
     0
  0
BLOCK_RECORD
  5
68A
330
1
100
AcDbSymbolTableRecord
100
AcDbBlockTableRecord
  2
名称未設定-1
340
0
102
{BLKREFS
331
6B5
102
}
 70
     1
280
     1
281
     0
  0
BLOCK_RECORD
  5
68D
330
1
100
AcDbSymbolTableRecord
100
AcDbBlockTableRecord
  2
block 2
340
0
102
{BLKREFS
331
68C
331
1343
331
41A7
102
}
 70
     0
280
     1
281
     0
  0
BLOCK_RECORD
  5
690
330
1
100
AcDbSymbolTableRecord
100
AcDbBlockTableRecord
  2
block 3
340
0
102
{BLKREFS
331
68F
102
}
 70
     0
280
     1
281
     0
  0
BLOCK_RECORD
  5
693
330
1
100
AcDbSymbolTableRecord
100
AcDbBlockTableRecord
  2
block 4
340
0
102
{BLKREFS
331
692
102
}
 70
     0
280
     1
281
     0
  0
BLOCK_RECORD
  5
6A2
330
1
100
AcDbSymbolTableRecord
100
AcDbBlockTableRecord
  2
block 5
340
0
102
{BLKREFS
331
6A1
102
}
 70
     0
280
     1
281
     0
  0
BLOCK_RECORD
  5
3EE8
330
1
100
AcDbSymbolTableRecord
100
AcDbBlockTableRecord
  2
*D6
340
0
 70
     0
280
     1
281
     0
  0
BLOCK_RECORD
  5
3EFA
330
1
100
AcDbSymbolTableRecord
100
AcDbBlockTableRecord
  2
*D7
340
0
 70
     0
280
     1
281
     0
  0
BLOCK_RECORD
  5
3F09
330
1
100
AcDbSymbolTableRecord
100
AcDbBlockTableRecord
  2
*D8
340
0
 70
     0
280
     1
281
     0
  0
BLOCK_RECORD
  5
3F25
330
1
100
AcDbSymbolTableRecord
100
AcDbBlockTableRecord
  2
*D9
340
0
 70
     0
280
     1
281
     0
  0
BLOCK_RECORD
  5
3F6B
330
1
100
AcDbSymbolTableRecord
100
AcDbBlockTableRecord
  2
*D10
340
0
 70
     0
280
     1
281
     0
  0
BLOCK_RECORD
  5
3F7B
330
1
100
AcDbSymbolTableRecord
100
AcDbBlockTableRecord
  2
*D11
340
0
 70
     0
280
     1
281
     0
  0
BLOCK_RECORD
  5
3FA8
330
1
100
AcDbSymbolTableRecord
100
AcDbBlockTableRecord
  2
*D12
340
0
 70
     0
280
     1
281
     0
  0
BLOCK_RECORD
  5
3FD8
330
1
100
AcDbSymbolTableRecord
100
AcDbBlockTableRecord
  2
*D13
340
0
 70
     0
280
     1
281
     0
  0
BLOCK_RECORD
  5
3FEC
330
1
100
AcDbSymbolTableRecord
100
AcDbBlockTableRecord
  2
*D14
340
0
 70
     0
280
     1
281
     0
  0
BLOCK_RECORD
  5
40AF
330
1
100
AcDbSymbolTableRecord
100
AcDbBlockTableRecord
  2
block 6
340
0
 70
     0
280
     1
281
     0
  0
BLOCK_RECORD
  5
40C7
330
1
100
AcDbSymbolTableRecord
100
AcDbBlockTableRecord
  2
block 7
340
0
 70
     0
280
     1
281
     0
  0
BLOCK_RECORD
  5
40D3
330
1
100
AcDbSymbolTableRecord
100
AcDbBlockTableRecord
  2
block 8
340
0
 70
     0
280
     1
281
     0
  0
BLOCK_RECORD
  5
4106
330
1
100
AcDbSymbolTableRecord
100
AcDbBlockTableRecord
  2
block 9
340
0
 70
     0
280
     1
281
     0
  0
BLOCK_RECORD
  5
4112
330
1
100
AcDbSymbolTableRecord
100
AcDbBlockTableRecord
  2
block 10
340
0
 70
     0
280
     1
281
     0
  0
BLOCK_RECORD
  5
4163
330
1
100
AcDbSymbolTableRecord
100
AcDbBlockTableRecord
  2
block 11
340
0
 70
     0
280
     1
281
     0
  0
BLOCK_RECORD
  5
4179
330
1
100
AcDbSymbolTableRecord
100
AcDbBlockTableRecord
  2
block 12
340
0
 70
     0
280
     1
281
     0
  0
BLOCK_RECORD
  5
4190
330
1
100
AcDbSymbolTableRecord
100
AcDbBlockTableRecord
  2
block 13
340
0
 70
     0
280
     1
281
     0
  0
BLOCK_RECORD
  5
42F8
330
1
100
AcDbSymbolTableRecord
100
AcDbBlockTableRecord
  2
*D23
340
0
 70
     0
280
     1
281
     0
  0
BLOCK_RECORD
  5
4307
330
1
100
AcDbSymbolTableRecord
100
AcDbBlockTableRecord
  2
*D24
340
0
 70
     0
280
     1
281
     0
  0
BLOCK_RECORD
  5
4316
330
1
100
AcDbSymbolTableRecord
100
AcDbBlockTableRecord
  2
*D25
340
0
 70
     0
280
     1
281
     0
  0
BLOCK_RECORD
  5
4328
330
1
100
AcDbSymbolTableRecord
100
AcDbBlockTableRecord
  2
*D26
340
0
 70
     0
280
     1
281
     0
  0
BLOCK_RECORD
  5
4337
330
1
100
AcDbSymbolTableRecord
100
AcDbBlockTableRecord
  2
*D27
340
0
 70
     0
280
     1
281
     0
  0
BLOCK_RECORD
  5
434C
330
1
100
AcDbSymbolTableRecord
100
AcDbBlockTableRecord
  2
*D28
340
0
 70
     0
280
     1
281
     0
  0
BLOCK_RECORD
  5
438E
330
1
100
AcDbSymbolTableRecord
100
AcDbBlockTableRecord
  2
*D29
340
0
 70
     0
280
     1
281
     0
  0
BLOCK_RECORD
  5
439D
330
1
100
AcDbSymbolTableRecord
100
AcDbBlockTableRecord
  2
*D30
340
0
 70
     0
280
     1
281
     0
  0
BLOCK_RECORD
  5
43AC
330
1
100
AcDbSymbolTableRecord
100
AcDbBlockTableRecord
  2
*D31
340
0
 70
     0
280
     1
281
     0
  0
BLOCK_RECORD
  5
43BB
330
1
100
AcDbSymbolTableRecord
100
AcDbBlockTableRecord
  2
*D32
340
0
 70
     0
280
     1
281
     0
  0
BLOCK_RECORD
  5
43E8
330
1
100
AcDbSymbolTableRecord
100
AcDbBlockTableRecord
  2
*D33
340
0
 70
     0
280
     1
281
     0
  0
BLOCK_RECORD
  5
4414
330
1
100
AcDbSymbolTableRecord
100
AcDbBlockTableRecord
  2
*D34
340
0
 70
     0
280
     1
281
     0
  0
BLOCK_RECORD
  5
4426
330
1
100
AcDbSymbolTableRecord
100
AcDbBlockTableRecord
  2
*D35
340
0
 70
     0
280
     1
281
     0
  0
BLOCK_RECORD
  5
4435
330
1
100
AcDbSymbolTableRecord
100
AcDbBlockTableRecord
  2
*D36
340
0
 70
     0
280
     1
281
     0
  0
ENDTAB
  0
ENDSEC
  0
SECTION
  2
BLOCKS
  0
BLOCK
  5
D
330
A
100
AcDbEntity
  8
0
390
1D
100
AcDbBlockBegin
  2
*MODEL_SPACE
 70
     0
 10
0.0
 20
0.0
 30
0.0
  3
*MODEL_SPACE
  1
*MODEL_SPACE
  0
ENDBLK
  5
E
330
A
100
AcDbEntity
  8
0
390
1D
100
AcDbBlockEnd
  0
BLOCK
  5
F
330
B
100
AcDbEntity
 67
     1
  8
0
390
1D
100
AcDbBlockBegin
  2
*PAPER_SPACE
 70
     0
 10
0.0
 20
0.0
 30
0.0
  3
*PAPER_SPACE
  1
*PAPER_SPACE
  0
ENDBLK
  5
10
330
B
100
AcDbEntity
 67
     1
  8
0
390
1D
100
AcDbBlockEnd
  0
BLOCK
  5
2462
330
4E
100
AcDbEntity
  8
0
390
1D
100
AcDbBlockBegin
  2
_DOT
 70
     0
 10
0.0
 20
0.0
 30
0.0
  3
_DOT
  1
_DOT
  0
POLYLINE
  5
2464
330
4E
100
AcDbEntity
  8
0
  6
ByBlock
 62
     0
370
    -2
390
1D
100
AcDb2dPolyline
 66
     1
 10
0.0
 20
0.0
 30
0.0
 70
     1
 40
0.5
 41
0.5
  0
VERTEX
  5
2465
330
2464
100
AcDbEntity
  8
0
  6
ByBlock
 62
     0
370
    -2
390
1D
100
AcDbVertex
100
AcDb2dVertex
 10
-0.25
 20
0.0
 30
0.0
 42
1.0
  0
VERTEX
  5
2466
330
2464
100
AcDbEntity
  8
0
  6
ByBlock
 62
     0
370
    -2
390
1D
100
AcDbVertex
100
AcDb2dVertex
 10
0.25
 20
0.0
 30
0.0
 42
1.0
  0
SEQEND
  5
2467
330
2464
100
AcDbEntity
  8
0
390
1D
  0
LINE
  5
2468
330
4E
100
AcDbEntity
  8
0
  6
ByBlock
 62
     0
370
    -2
390
1D
100
AcDbLine
 10
-0.5
 20
0.0
 30
0.0
 11
-1.0
 21
0.0
 31
0.0
  0
ENDBLK
  5
2469
330
4E
100
AcDbEntity
  8
0
390
1D
100
AcDbBlockEnd
  0
BLOCK
  5
68B
330
68A
100
AcDbEntity
  8
0
100
AcDbBlockBegin
  2
名称未設定-1
 70
     0
 10
0.0
 20
0.0
 30
0.0
  3
名称未設定-1
  1
名称未設定-1
  0
INSERT
  5
68F
330
68A
100
AcDbEntity
  8
LOGO
100
AcDbBlockReference
  2
block 3
 10
0.0
 20
0.0
 30
0.0
  0
ENDBLK
  5
6B1
330
68A
100
AcDbEntity
  8
0
100
AcDbBlockEnd
  0
BLOCK
  5
68E
330
68D
100
AcDbEntity
  8
0
100
AcDbBlockBegin
  2
block 2
 70
     0
 10
0.0
 20
0.0
 30
0.0
  3
block 2
  1
block 2
  0
ENDBLK
  5
6B0
330
68D
100
AcDbEntity
  8
0
100
AcDbBlockEnd
  0
BLOCK
  5
691
330
690
100
AcDbEntity
  8
0
100
AcDbBlockBegin
  2
block 3
 70
     0
 10
0.0
 20
0.0
 30
0.0
  3
block 3
  1
block 3
  0
INSERT
  5
692
330
690
100
AcDbEntity
  8
LOGO
100
AcDbBlockReference
  2
block 4
 10
0.0
 20
0.0
 30
0.0
  0
INSERT
  5
6A1
330
690
100
AcDbEntity
  8
LOGO
100
AcDbBlockReference
  2
block 5
 10
0.0
 20
0.0
 30
0.0
  0
ENDBLK
  5
6AF
330
690
100
AcDbEntity
  8
0
100
AcDbBlockEnd
  0
BLOCK
  5
694
330
693
100
AcDbEntity
  8
0
100
AcDbBlockBegin
  2
block 4
 70
     0
 10
0.0
 20
0.0
 30
0.0
  3
block 4
  1
block 4
  0
POLYLINE
  5
695
330
693
100
AcDbEntity
  8
LOGO
370
     0
100
AcDb2dPolyline
 66
     1
 10
0.0
 20
0.0
 30
0.0
  0
VERTEX
  5
696
330
695
100
AcDbEntity
  8
LOGO
370
     0
100
AcDbVertex
100
AcDb2dVertex
 10
83.79545727667795
 20
167.6444858234922
 30
0.0
  0
VERTEX
  5
697
330
695
100
AcDbEntity
  8
LOGO
370
     0
100
AcDbVertex
100
AcDb2dVertex
 10
83.79545727667795
 20
159.7968976406313
 30
0.0
  0
VERTEX
  5
698
330
695
100
AcDbEntity
  8
LOGO
370
     0
100
AcDbVertex
100
AcDb2dVertex
 10
71.3631329975216
 20
159.7968976406313
 30
0.0
  0
VERTEX
  5
699
330
695
100
AcDbEntity
  8
LOGO
370
     0
100
AcDbVertex
100
AcDb2dVertex
 10
71.3631329975216
 20
127.8027915271048
 30
0.0
  0
VERTEX
  5
69A
330
695
100
AcDbEntity
  8
LOGO
370
     0
100
AcDbVertex
100
AcDb2dVertex
 10
60.43011526263018
 20
127.8027915271048
 30
0.0
  0
VERTEX
  5
69B
330
695
100
AcDbEntity
  8
LOGO
370
     0
100
AcDbVertex
100
AcDb2dVertex
 10
60.43011526263018
 20
159.7968976406313
 30
0.0
  0
VERTEX
  5
69C
330
695
100
AcDbEntity
  8
LOGO
370
     0
100
AcDbVertex
100
AcDb2dVertex
 10
48.21793273020759
 20
159.7968976406313
 30
0.0
  0
VERTEX
  5
69D
330
695
100
AcDbEntity
  8
LOGO
370
     0
100
AcDbVertex
100
AcDb2dVertex
 10
48.21793273020759
 20
167.6444858234922
 30
0.0
  0
VERTEX
  5
69E
330
695
100
AcDbEntity
  8
LOGO
370
     0
100
AcDbVertex
100
AcDb2dVertex
 10
83.79545727667795
 20
167.6444858234922
 30
0.0
  0
SEQEND
  5
69F
330
695
100
AcDbEntity
  8
LOGO
370
     0
  0
HATCH
  5
6A0
330
693
100
AcDbEntity
  8
LOGO
 62
   250
420
  2234388
100
AcDbHatch
 10
0.0
 20
0.0
 30
0.0
210
0.0
220
0.0
230
1.0
  2
SOLID
 70
     1
 71
     0
 91
        1
 92
        1
 93
        8
 72
     1
 10
83.79545727667795
 20
167.6444858234922
 11
83.79545727667795
 21
159.7968976406313
 72
     1
 10
83.79545727667795
 20
159.7968976406313
 11
71.3631329975216
 21
159.7968976406313
 72
     1
 10
71.3631329975216
 20
159.7968976406313
 11
71.3631329975216
 21
127.8027915271048
 72
     1
 10
71.3631329975216
 20
127.8027915271048
 11
60.43011526263018
 21
127.8027915271048
 72
     1
 10
60.43011526263018
 20
127.8027915271048
 11
60.43011526263018
 21
159.7968976406313
 72
     1
 10
60.43011526263018
 20
159.7968976406313
 11
48.21793273020759
 21
159.7968976406313
 72
     1
 10
48.21793273020759
 20
159.7968976406313
 11
48.21793273020759
 21
167.6444858234922
 72
     1
 10
48.21793273020759
 20
167.6444858234922
 11
83.79545727667795
 21
167.6444858234922
 97
        0
 75
     2
 76
     1
 98
        0
  0
ENDBLK
  5
6AE
330
693
100
AcDbEntity
  8
0
100
AcDbBlockEnd
  0
BLOCK
  5
6A3
330
6A2
100
AcDbEntity
  8
0
100
AcDbBlockBegin
  2
block 5
 70
     0
 10
0.0
 20
0.0
 30
0.0
  3
block 5
  1
block 5
  0
SPLINE
  5
6A4
330
6A2
100
AcDbEntity
  8
LOGO
370
     0
100
AcDbSpline
210
0.0
220
0.0
230
1.0
 70
    11
 71
     3
 72
    56
 73
    52
 74
     0
 42
0.000000001
 43
0.0000000001
 40
0.0
 40
0.0
 40
0.0
 40
0.0
 40
1.0
 40
1.0
 40
1.0
 40
2.0
 40
2.0
 40
2.0
 40
3.0
 40
3.0
 40
3.0
 40
4.0
 40
4.0
 40
4.0
 40
5.0
 40
5.0
 40
5.0
 40
6.0
 40
6.0
 40
6.0
 40
7.0
 40
7.0
 40
7.0
 40
8.0
 40
8.0
 40
8.0
 40
9.0
 40
9.0
 40
9.0
 40
10.0
 40
10.0
 40
10.0
 40
11.0
 40
11.0
 40
11.0
 40
12.0
 40
12.0
 40
12.0
 40
13.0
 40
13.0
 40
13.0
 40
14.0
 40
14.0
 40
14.0
 40
15.0
 40
15.0
 40
15.0
 40
16.0
 40
16.0
 40
16.0
 40
17.0
 40
17.0
 40
17.0
 40
17.0
 10
100.4504378777679
 20
166.69157178364
 30
0.0
 10
101.9848844191641
 20
167.1313385124438
 30
0.0
 10
103.9637485713373
 20
166.7649523658846
 30
0.0
 10
103.9637485713373
 20
166.7649523658846
 30
0.0
 10
103.9637485713373
 20
166.7649523658846
 30
0.0
 10
103.0132460999156
 20
163.911205638077
 30
0.0
 10
103.0132460999156
 20
163.911205638077
 30
0.0
 10
103.0132460999156
 20
163.911205638077
 30
0.0
 10
101.0674548862189
 20
164.3601018759394
 30
0.0
 10
99.57090442016032
 20
163.1805004036133
 30
0.0
 10
98.40508333886608
 20
162.258247733807
 30
0.0
 10
97.65301849830304
 20
159.804132345923
 30
0.0
 10
97.3598406791005
 20
158.8699940888517
 30
0.0
 10
97.3598406791005
 20
158.8699940888517
 30
0.0
 10
96.07137411762282
 20
154.9119212747295
 30
0.0
 10
96.07137411762282
 20
154.9119212747295
 30
0.0
 10
96.07137411762282
 20
154.9119212747295
 30
0.0
 10
100.3012651448482
 20
154.9119212747295
 30
0.0
 10
100.3012651448482
 20
154.9119212747295
 30
0.0
 10
100.3012651448482
 20
154.9119212747295
 30
0.0
 10
99.64152892419852
 20
152.4199098115079
 30
0.0
 10
99.64152892419852
 20
152.4199098115079
 30
0.0
 10
99.64152892419852
 20
152.4199098115079
 30
0.0
 10
95.38097652692731
 20
152.4199098115079
 30
0.0
 10
95.38097652692731
 20
152.4199098115079
 30
0.0
 10
95.38097652692731
 20
152.4199098115079
 30
0.0
 10
87.75353009080013
 20
127.8027915271048
 30
0.0
 10
87.75353009080013
 20
127.8027915271048
 30
0.0
 10
87.75353009080013
 20
127.8027915271048
 30
0.0
 10
85.36538832498108
 20
127.8027915271048
 30
0.0
 10
85.36538832498108
 20
127.8027915271048
 30
0.0
 10
85.36538832498108
 20
127.8027915271048
 30
0.0
 10
93.00006946639998
 20
152.4199098115079
 30
0.0
 10
93.00006946639998
 20
152.4199098115079
 30
0.0
 10
93.00006946639998
 20
152.4199098115079
 30
0.0
 10
89.85297266450198
 20
152.4199098115079
 30
0.0
 10
89.85297266450198
 20
152.4199098115079
 30
0.0
 10
89.85297266450198
 20
152.4199098115079
 30
0.0
 10
90.51270888515164
 20
154.9119212747295
 30
0.0
 10
90.51270888515164
 20
154.9119212747295
 30
0.0
 10
90.51270888515164
 20
154.9119212747295
 30
0.0
 10
93.6904670570955
 20
154.9119212747295
 30
0.0
 10
93.6904670570955
 20
154.9119212747295
 30
0.0
 10
93.6904670570955
 20
154.9119212747295
 30
0.0
 10
94.81598049462158
 20
158.3616699146644
 30
0.0
 10
94.81598049462158
 20
158.3616699146644
 30
0.0
 10
95.7237637538445
 20
161.2605474231013
 30
0.0
 10
96.4968436907311
 20
162.8139420021662
 30
0.0
 10
97.15657991138076
 20
163.9844139654337
 30
0.0
 10
97.81183750494507
 20
165.1523021053827
 30
0.0
 10
99.1047826935081
 20
166.3084769129547
 30
0.0
 10
100.4504378777679
 20
166.69157178364
 30
0.0
  0
HATCH
  5
6A5
330
6A2
100
AcDbEntity
  8
LOGO
 62
   250
420
  2234388
100
AcDbHatch
 10
0.0
 20
0.0
 30
0.0
210
0.0
220
0.0
230
1.0
  2
SOLID
 70
     1
 71
     0
 91
        1
 92
        1
 93
        1
 72
     4
 94
        3
 73
     0
 74
     1
 95
       56
 96
       52
 40
0.0
 40
0.0
 40
0.0
 40
0.0
 40
1.0
 40
1.0
 40
1.0
 40
2.0
 40
2.0
 40
2.0
 40
3.0
 40
3.0
 40
3.0
 40
4.0
 40
4.0
 40
4.0
 40
5.0
 40
5.0
 40
5.0
 40
6.0
 40
6.0
 40
6.0
 40
7.0
 40
7.0
 40
7.0
 40
8.0
 40
8.0
 40
8.0
 40
9.0
 40
9.0
 40
9.0
 40
10.0
 40
10.0
 40
10.0
 40
11.0
 40
11.0
 40
11.0
 40
12.0
 40
12.0
 40
12.0
 40
13.0
 40
13.0
 40
13.0
 40
14.0
 40
14.0
 40
14.0
 40
15.0
 40
15.0
 40
15.0
 40
16.0
 40
16.0
 40
16.0
 40
17.0
 40
17.0
 40
17.0
 40
17.0
 10
100.4504378777679
 20
166.69157178364
 10
101.9848844191641
 20
167.1313385124438
 10
103.9637485713373
 20
166.7649523658846
 10
103.9637485713373
 20
166.7649523658846
 10
103.9637485713373
 20
166.7649523658846
 10
103.0132460999156
 20
163.911205638077
 10
103.0132460999156
 20
163.911205638077
 10
103.0132460999156
 20
163.911205638077
 10
101.0674548862189
 20
164.3601018759394
 10
99.57090442016032
 20
163.1805004036133
 10
98.40508333886608
 20
162.258247733807
 10
97.65301849830304
 20
159.804132345923
 10
97.3598406791005
 20
158.8699940888517
 10
97.3598406791005
 20
158.8699940888517
 10
96.07137411762282
 20
154.9119212747295
 10
96.07137411762282
 20
154.9119212747295
 10
96.07137411762282
 20
154.9119212747295
 10
100.3012651448482
 20
154.9119212747295
 10
100.3012651448482
 20
154.9119212747295
 10
100.3012651448482
 20
154.9119212747295
 10
99.64152892419852
 20
152.4199098115079
 10
99.64152892419852
 20
152.4199098115079
 10
99.64152892419852
 20
152.4199098115079
 10
95.38097652692731
 20
152.4199098115079
 10
95.38097652692731
 20
152.4199098115079
 10
95.38097652692731
 20
152.4199098115079
 10
87.75353009080013
 20
127.8027915271048
 10
87.75353009080013
 20
127.8027915271048
 10
87.75353009080013
 20
127.8027915271048
 10
85.36538832498108
 20
127.8027915271048
 10
85.36538832498108
 20
127.8027915271048
 10
85.36538832498108
 20
127.8027915271048
 10
93.00006946639998
 20
152.4199098115079
 10
93.00006946639998
 20
152.4199098115079
 10
93.00006946639998
 20
152.4199098115079
 10
89.85297266450198
 20
152.4199098115079
 10
89.85297266450198
 20
152.4199098115079
 10
89.85297266450198
 20
152.4199098115079
 10
90.51270888515164
 20
154.9119212747295
 10
90.51270888515164
 20
154.9119212747295
 10
90.51270888515164
 20
154.9119212747295
 10
93.6904670570955
 20
154.9119212747295
 10
93.6904670570955
 20
154.9119212747295
 10
93.6904670570955
 20
154.9119212747295
 10
94.81598049462158
 20
158.3616699146644
 10
94.81598049462158
 20
158.3616699146644
 10
95.7237637538445
 20
161.2605474231013
 10
96.4968436907311
 20
162.8139420021662
 10
97.15657991138076
 20
163.9844139654337
 10
97.81183750494507
 20
165.1523021053827
 10
99.1047826935081
 20
166.3084769129547
 10
100.4504378777679
 20
166.69157178364
 97
        0
 75
     2
 76
     1
 98
        0
  0
SPLINE
  5
6A6
330
6A2
100
AcDbEntity
  8
LOGO
370
     0
100
AcDbSpline
210
0.0
220
0.0
230
1.0
 70
    11
 71
     3
 72
    38
 73
    34
 74
     0
 42
0.000000001
 43
0.0000000001
 40
0.0
 40
0.0
 40
0.0
 40
0.0
 40
1.0
 40
1.0
 40
1.0
 40
2.0
 40
2.0
 40
2.0
 40
3.0
 40
3.0
 40
3.0
 40
4.0
 40
4.0
 40
4.0
 40
5.0
 40
5.0
 40
5.0
 40
6.0
 40
6.0
 40
6.0
 40
7.0
 40
7.0
 40
7.0
 40
8.0
 40
8.0
 40
8.0
 40
9.0
 40
9.0
 40
9.0
 40
10.0
 40
10.0
 40
10.0
 40
11.0
 40
11.0
 40
11.0
 40
11.0
 10
126.377554584636
 20
154.8151140277308
 30
0.0
 10
126.377554584636
 20
154.8151140277308
 30
0.0
 10
128.8311532078563
 20
154.8151140277308
 30
0.0
 10
128.8311532078563
 20
154.8151140277308
 30
0.0
 10
128.8311532078563
 20
154.8151140277308
 30
0.0
 10
127.7345785914971
 20
151.3062819612468
 30
0.0
 10
127.7345785914971
 20
151.3062819612468
 30
0.0
 10
128.571392836906
 20
152.2922689395754
 30
0.0
 10
129.8860421413442
 20
153.604506675583
 30
0.0
 10
131.0163787157314
 20
154.2664822097754
 30
0.0
 10
132.7044766171327
 20
155.2500576196734
 30
0.0
 10
133.6642808525008
 20
155.3847609420097
 30
0.0
 10
134.7284715499351
 20
155.3565111403944
 30
0.0
 10
134.7284715499351
 20
155.3565111403944
 30
0.0
 10
133.6877075172549
 20
152.0345756272799
 30
0.0
 10
133.6877075172549
 20
152.0345756272799
 30
0.0
 10
133.011434827367
 20
152.3184516825359
 30
0.0
 10
130.930940291334
 20
151.7768823149844
 30
0.0
 10
129.739280976855
 20
150.9162968950455
 30
0.0
 10
128.66613302525
 20
150.1454562717016
 30
0.0
 10
127.9192358313239
 20
149.4857200510519
 30
0.0
 10
127.0393578639405
 20
147.8282835196966
 30
0.0
 10
126.164647543194
 20
146.1699857139017
 30
0.0
 10
125.4742499524985
 20
143.5262176944419
 30
0.0
 10
124.2822461282437
 20
139.6959580071401
 30
0.0
 10
124.2822461282437
 20
139.6959580071401
 30
0.0
 10
120.5753209406769
 20
127.8027915271048
 30
0.0
 10
120.5753209406769
 20
127.8027915271048
 30
0.0
 10
120.5753209406769
 20
127.8027915271048
 30
0.0
 10
118.1964809388044
 20
127.8027915271048
 30
0.0
 10
118.1964809388044
 20
127.8027915271048
 30
0.0
 10
118.1964809388044
 20
127.8027915271048
 30
0.0
 10
126.377554584636
 20
154.8151140277308
 30
0.0
 10
126.377554584636
 20
154.8151140277308
 30
0.0
  0
HATCH
  5
6A7
330
6A2
100
AcDbEntity
  8
LOGO
 62
   250
420
  2234388
100
AcDbHatch
 10
0.0
 20
0.0
 30
0.0
210
0.0
220
0.0
230
1.0
  2
SOLID
 70
     1
 71
     0
 91
        1
 92
        1
 93
        1
 72
     4
 94
        3
 73
     0
 74
     1
 95
       38
 96
       34
 40
0.0
 40
0.0
 40
0.0
 40
0.0
 40
1.0
 40
1.0
 40
1.0
 40
2.0
 40
2.0
 40
2.0
 40
3.0
 40
3.0
 40
3.0
 40
4.0
 40
4.0
 40
4.0
 40
5.0
 40
5.0
 40
5.0
 40
6.0
 40
6.0
 40
6.0
 40
7.0
 40
7.0
 40
7.0
 40
8.0
 40
8.0
 40
8.0
 40
9.0
 40
9.0
 40
9.0
 40
10.0
 40
10.0
 40
10.0
 40
11.0
 40
11.0
 40
11.0
 40
11.0
 10
126.377554584636
 20
154.8151140277308
 10
126.377554584636
 20
154.8151140277308
 10
128.8311532078563
 20
154.8151140277308
 10
128.8311532078563
 20
154.8151140277308
 10
128.8311532078563
 20
154.8151140277308
 10
127.7345785914971
 20
151.3062819612468
 10
127.7345785914971
 20
151.3062819612468
 10
128.571392836906
 20
152.2922689395754
 10
129.8860421413442
 20
153.604506675583
 10
131.0163787157314
 20
154.2664822097754
 10
132.7044766171327
 20
155.2500576196734
 10
133.6642808525008
 20
155.3847609420097
 10
134.7284715499351
 20
155.3565111403944
 10
134.7284715499351
 20
155.3565111403944
 10
133.6877075172549
 20
152.0345756272799
 10
133.6877075172549
 20
152.0345756272799
 10
133.011434827367
 20
152.3184516825359
 10
130.930940291334
 20
151.7768823149844
 10
129.739280976855
 20
150.9162968950455
 10
128.66613302525
 20
150.1454562717016
 10
127.9192358313239
 20
149.4857200510519
 10
127.0393578639405
 20
147.8282835196966
 10
126.164647543194
 20
146.1699857139017
 10
125.4742499524985
 20
143.5262176944419
 10
124.2822461282437
 20
139.6959580071401
 10
124.2822461282437
 20
139.6959580071401
 10
120.5753209406769
 20
127.8027915271048
 10
120.5753209406769
 20
127.8027915271048
 10
120.5753209406769
 20
127.8027915271048
 10
118.1964809388044
 20
127.8027915271048
 10
118.1964809388044
 20
127.8027915271048
 10
118.1964809388044
 20
127.8027915271048
 10
126.377554584636
 20
154.8151140277308
 10
126.377554584636
 20
154.8151140277308
 97
        0
 75
     2
 76
     1
 98
        0
  0
SPLINE
  5
6A8
330
6A2
100
AcDbEntity
  8
LOGO
370
     0
100
AcDbSpline
210
0.0
220
0.0
230
1.0
 70
    11
 71
     3
 72
   104
 73
   100
 74
     0
 42
0.000000001
 43
0.0000000001
 40
0.0
 40
0.0
 40
0.0
 40
0.0
 40
1.0
 40
1.0
 40
1.0
 40
2.0
 40
2.0
 40
2.0
 40
3.0
 40
3.0
 40
3.0
 40
4.0
 40
4.0
 40
4.0
 40
5.0
 40
5.0
 40
5.0
 40
6.0
 40
6.0
 40
6.0
 40
7.0
 40
7.0
 40
7.0
 40
8.0
 40
8.0
 40
8.0
 40
9.0
 40
9.0
 40
9.0
 40
10.0
 40
10.0
 40
10.0
 40
11.0
 40
11.0
 40
11.0
 40
12.0
 40
12.0
 40
12.0
 40
13.0
 40
13.0
 40
13.0
 40
14.0
 40
14.0
 40
14.0
 40
15.0
 40
15.0
 40
15.0
 40
16.0
 40
16.0
 40
16.0
 40
17.0
 40
17.0
 40
17.0
 40
18.0
 40
18.0
 40
18.0
 40
19.0
 40
19.0
 40
19.0
 40
20.0
 40
20.0
 40
20.0
 40
21.0
 40
21.0
 40
21.0
 40
22.0
 40
22.0
 40
22.0
 40
23.0
 40
23.0
 40
23.0
 40
24.0
 40
24.0
 40
24.0
 40
25.0
 40
25.0
 40
25.0
 40
26.0
 40
26.0
 40
26.0
 40
27.0
 40
27.0
 40
27.0
 40
28.0
 40
28.0
 40
28.0
 40
29.0
 40
29.0
 40
29.0
 40
30.0
 40
30.0
 40
30.0
 40
31.0
 40
31.0
 40
31.0
 40
32.0
 40
32.0
 40
32.0
 40
33.0
 40
33.0
 40
33.0
 40
33.0
 10
139.8926730891197
 20
154.8294111834263
 30
0.0
 10
139.8926730891197
 20
154.8294111834263
 30
0.0
 10
142.0344903652445
 20
154.8294111834263
 30
0.0
 10
142.0344903652445
 20
154.8294111834263
 30
0.0
 10
142.0344903652445
 20
154.8294111834263
 30
0.0
 10
140.9516961399171
 20
151.3157559800812
 30
0.0
 10
140.9516961399171
 20
151.3157559800812
 30
0.0
 10
141.8928968473923
 20
152.7887075264977
 30
0.0
 10
142.7341897198865
 20
153.4484437471474
 30
0.0
 10
143.8552245303272
 20
154.2926649527359
 30
0.0
 10
144.9803934580775
 20
155.1296514530327
 30
0.0
 10
146.3139908001845
 20
155.3044901642492
 30
0.0
 10
147.241066606852
 20
155.3044901642492
 30
0.0
 10
148.3855280820469
 20
155.3044901642492
 30
0.0
 10
149.4969166187653
 20
155.0752189084569
 30
0.0
 10
150.0784491203092
 20
153.8172414621372
 30
0.0
 10
150.5228667310863
 20
152.833838307127
 30
0.0
 10
150.5414702589793
 20
152.7201500811143
 30
0.0
 10
150.4140016419347
 20
150.7765981809602
 30
0.0
 10
151.5818897818837
 20
152.7699317437168
 30
0.0
 10
152.4424752018226
 20
153.6256940267945
 30
0.0
 10
153.9038856707499
 20
154.4507949398263
 30
0.0
 10
155.4455669174378
 20
155.3044901642492
 30
0.0
 10
156.339225275853
 20
155.3659851592288
 30
0.0
 10
157.3748216618963
 20
155.2147453676543
 30
0.0
 10
158.911679771723
 20
154.9877134254046
 30
0.0
 10
159.8859534176746
 20
154.4390816074493
 30
0.0
 10
160.3965169054045
 20
152.7816450760939
 30
0.0
 10
160.9070803931344
 20
151.1219692311958
 30
0.0
 10
160.6328506116007
 20
150.2303779314354
 30
0.0
 10
159.9992971339115
 20
147.597634224801
 30
0.0
 10
159.7105979417943
 20
146.4014962832367
 30
0.0
 10
159.2947746424084
 20
144.9400858143094
 30
0.0
 10
158.7463150793409
 20
143.2092687007094
 30
0.0
 10
158.7463150793409
 20
143.2092687007094
 30
0.0
 10
153.9038856707499
 20
127.8027915271048
 30
0.0
 10
153.9038856707499
 20
127.8027915271048
 30
0.0
 10
153.9038856707499
 20
127.8027915271048
 30
0.0
 10
151.3882752878863
 20
127.8027915271048
 30
0.0
 10
151.3882752878863
 20
127.8027915271048
 30
0.0
 10
151.3882752878863
 20
127.8027915271048
 30
0.0
 10
155.6250565106276
 20
141.2751908193897
 30
0.0
 10
155.6250565106276
 20
141.2751908193897
 30
0.0
 10
156.5094131050963
 20
144.0936252951782
 30
0.0
 10
157.109893644309
 20
146.1506931664571
 30
0.0
 10
157.4220195011804
 20
147.4415712963654
 30
0.0
 10
157.8095929989511
 20
149.0530157726519
 30
0.0
 10
157.9656559273867
 20
149.5826995529385
 30
0.0
 10
157.7816877071116
 20
150.7529992613181
 30
0.0
 10
157.6111553680925
 20
151.8430281919372
 30
0.0
 10
157.0582171779396
 20
152.5547853887321
 30
0.0
 10
156.1170164704645
 20
152.5547853887321
 30
0.0
 10
155.1096698860365
 20
152.5547853887321
 30
0.0
 10
154.2962823053817
 20
152.4412694176073
 30
0.0
 10
153.156643967048
 20
151.2945686288697
 30
0.0
 10
152.0170056287143
 20
150.1476955852443
 30
0.0
 10
151.076149431015
 20
148.7930831468137
 30
0.0
 10
150.3337308641742
 20
147.2290087646991
 30
0.0
 10
149.5957909244188
 20
145.6683794803425
 30
0.0
 10
148.8530278478023
 20
143.6822806228776
 30
0.0
 10
148.0964843801539
 20
141.2751908193897
 30
0.0
 10
148.0964843801539
 20
141.2751908193897
 30
0.0
 10
143.8552245303272
 20
127.8027915271048
 30
0.0
 10
143.8552245303272
 20
127.8027915271048
 30
0.0
 10
143.8552245303272
 20
127.8027915271048
 30
0.0
 10
141.486030802177
 20
127.8027915271048
 30
0.0
 10
141.486030802177
 20
127.8027915271048
 30
0.0
 10
141.486030802177
 20
127.8027915271048
 30
0.0
 10
146.3329388378533
 20
143.2092687007094
 30
0.0
 10
146.3329388378533
 20
143.2092687007094
 30
0.0
 10
146.8483254624444
 20
144.8408669988801
 30
0.0
 10
147.2314203331297
 20
146.1837661049335
 30
0.0
 10
147.4867020769946
 20
147.224185627838
 30
0.0
 10
147.9169947869641
 20
149.0197705792876
 30
0.0
 10
148.0306830129768
 20
150.2400242051577
 30
0.0
 10
147.709255392159
 20
151.3157559800812
 30
0.0
 10
147.3874832615654
 20
152.3916600098926
 30
0.0
 10
146.8245542879144
 20
152.6683013598569
 30
0.0
 10
145.8840425999909
 20
152.6683013598569
 30
0.0
 10
145.0989048209514
 20
152.6683013598569
 30
0.0
 10
144.3282364524954
 20
152.3275811915945
 30
0.0
 10
143.4531816219731
 20
151.6538923250251
 30
0.0
 10
142.34627171234
 20
150.8074318058939
 30
0.0
 10
141.901854101563
 20
150.1097995099067
 30
0.0
 10
141.3578731655808
 20
149.289521733736
 30
0.0
 10
140.6299240093235
 20
148.192602607601
 30
0.0
 10
140.2850697237515
 20
147.455696197173
 30
0.0
 10
139.6652966370942
 20
145.8385673095858
 30
0.0
 10
139.0506911970739
 20
144.2214384219986
 30
0.0
 10
138.463991048893
 20
142.3252566160164
 30
0.0
 10
138.0571250036777
 20
141.0154304484394
 30
0.0
 10
138.0571250036777
 20
141.0154304484394
 30
0.0
 10
133.9009590684727
 20
127.8027915271048
 30
0.0
 10
133.9009590684727
 20
127.8027915271048
 30
0.0
 10
133.9009590684727
 20
127.8027915271048
 30
0.0
 10
131.4180771143097
 20
127.8027915271048
 30
0.0
 10
131.4180771143097
 20
127.8027915271048
 30
0.0
 10
131.4180771143097
 20
127.8027915271048
 30
0.0
 10
139.8926730891197
 20
154.8294111834263
 30
0.0
 10
139.8926730891197
 20
154.8294111834263
 30
0.0
  0
HATCH
  5
6A9
330
6A2
100
AcDbEntity
  8
LOGO
 62
   250
420
  2234388
100
AcDbHatch
 10
0.0
 20
0.0
 30
0.0
210
0.0
220
0.0
230
1.0
  2
SOLID
 70
     1
 71
     0
 91
        1
 92
        1
 93
        1
 72
     4
 94
        3
 73
     0
 74
     1
 95
      104
 96
      100
 40
0.0
 40
0.0
 40
0.0
 40
0.0
 40
1.0
 40
1.0
 40
1.0
 40
2.0
 40
2.0
 40
2.0
 40
3.0
 40
3.0
 40
3.0
 40
4.0
 40
4.0
 40
4.0
 40
5.0
 40
5.0
 40
5.0
 40
6.0
 40
6.0
 40
6.0
 40
7.0
 40
7.0
 40
7.0
 40
8.0
 40
8.0
 40
8.0
 40
9.0
 40
9.0
 40
9.0
 40
10.0
 40
10.0
 40
10.0
 40
11.0
 40
11.0
 40
11.0
 40
12.0
 40
12.0
 40
12.0
 40
13.0
 40
13.0
 40
13.0
 40
14.0
 40
14.0
 40
14.0
 40
15.0
 40
15.0
 40
15.0
 40
16.0
 40
16.0
 40
16.0
 40
17.0
 40
17.0
 40
17.0
 40
18.0
 40
18.0
 40
18.0
 40
19.0
 40
19.0
 40
19.0
 40
20.0
 40
20.0
 40
20.0
 40
21.0
 40
21.0
 40
21.0
 40
22.0
 40
22.0
 40
22.0
 40
23.0
 40
23.0
 40
23.0
 40
24.0
 40
24.0
 40
24.0
 40
25.0
 40
25.0
 40
25.0
 40
26.0
 40
26.0
 40
26.0
 40
27.0
 40
27.0
 40
27.0
 40
28.0
 40
28.0
 40
28.0
 40
29.0
 40
29.0
 40
29.0
 40
30.0
 40
30.0
 40
30.0
 40
31.0
 40
31.0
 40
31.0
 40
32.0
 40
32.0
 40
32.0
 40
33.0
 40
33.0
 40
33.0
 40
33.0
 10
139.8926730891197
 20
154.8294111834263
 10
139.8926730891197
 20
154.8294111834263
 10
142.0344903652445
 20
154.8294111834263
 10
142.0344903652445
 20
154.8294111834263
 10
142.0344903652445
 20
154.8294111834263
 10
140.9516961399171
 20
151.3157559800812
 10
140.9516961399171
 20
151.3157559800812
 10
141.8928968473923
 20
152.7887075264977
 10
142.7341897198865
 20
153.4484437471474
 10
143.8552245303272
 20
154.2926649527359
 10
144.9803934580775
 20
155.1296514530327
 10
146.3139908001845
 20
155.3044901642492
 10
147.241066606852
 20
155.3044901642492
 10
148.3855280820469
 20
155.3044901642492
 10
149.4969166187653
 20
155.0752189084569
 10
150.0784491203092
 20
153.8172414621372
 10
150.5228667310863
 20
152.833838307127
 10
150.5414702589793
 20
152.7201500811143
 10
150.4140016419347
 20
150.7765981809602
 10
151.5818897818837
 20
152.7699317437168
 10
152.4424752018226
 20
153.6256940267945
 10
153.9038856707499
 20
154.4507949398263
 10
155.4455669174378
 20
155.3044901642492
 10
156.339225275853
 20
155.3659851592288
 10
157.3748216618963
 20
155.2147453676543
 10
158.911679771723
 20
154.9877134254046
 10
159.8859534176746
 20
154.4390816074493
 10
160.3965169054045
 20
152.7816450760939
 10
160.9070803931344
 20
151.1219692311958
 10
160.6328506116007
 20
150.2303779314354
 10
159.9992971339115
 20
147.597634224801
 10
159.7105979417943
 20
146.4014962832367
 10
159.2947746424084
 20
144.9400858143094
 10
158.7463150793409
 20
143.2092687007094
 10
158.7463150793409
 20
143.2092687007094
 10
153.9038856707499
 20
127.8027915271048
 10
153.9038856707499
 20
127.8027915271048
 10
153.9038856707499
 20
127.8027915271048
 10
151.3882752878863
 20
127.8027915271048
 10
151.3882752878863
 20
127.8027915271048
 10
151.3882752878863
 20
127.8027915271048
 10
155.6250565106276
 20
141.2751908193897
 10
155.6250565106276
 20
141.2751908193897
 10
156.5094131050963
 20
144.0936252951782
 10
157.109893644309
 20
146.1506931664571
 10
157.4220195011804
 20
147.4415712963654
 10
157.8095929989511
 20
149.0530157726519
 10
157.9656559273867
 20
149.5826995529385
 10
157.7816877071116
 20
150.7529992613181
 10
157.6111553680925
 20
151.8430281919372
 10
157.0582171779396
 20
152.5547853887321
 10
156.1170164704645
 20
152.5547853887321
 10
155.1096698860365
 20
152.5547853887321
 10
154.2962823053817
 20
152.4412694176073
 10
153.156643967048
 20
151.2945686288697
 10
152.0170056287143
 20
150.1476955852443
 10
151.076149431015
 20
148.7930831468137
 10
150.3337308641742
 20
147.2290087646991
 10
149.5957909244188
 20
145.6683794803425
 10
148.8530278478023
 20
143.6822806228776
 10
148.0964843801539
 20
141.2751908193897
 10
148.0964843801539
 20
141.2751908193897
 10
143.8552245303272
 20
127.8027915271048
 10
143.8552245303272
 20
127.8027915271048
 10
143.8552245303272
 20
127.8027915271048
 10
141.486030802177
 20
127.8027915271048
 10
141.486030802177
 20
127.8027915271048
 10
141.486030802177
 20
127.8027915271048
 10
146.3329388378533
 20
143.2092687007094
 10
146.3329388378533
 20
143.2092687007094
 10
146.8483254624444
 20
144.8408669988801
 10
147.2314203331297
 20
146.1837661049335
 10
147.4867020769946
 20
147.224185627838
 10
147.9169947869641
 20
149.0197705792876
 10
148.0306830129768
 20
150.2400242051577
 10
147.709255392159
 20
151.3157559800812
 10
147.3874832615654
 20
152.3916600098926
 10
146.8245542879144
 20
152.6683013598569
 10
145.8840425999909
 20
152.6683013598569
 10
145.0989048209514
 20
152.6683013598569
 10
144.3282364524954
 20
152.3275811915945
 10
143.4531816219731
 20
151.6538923250251
 10
142.34627171234
 20
150.8074318058939
 10
141.901854101563
 20
150.1097995099067
 10
141.3578731655808
 20
149.289521733736
 10
140.6299240093235
 20
148.192602607601
 10
140.2850697237515
 20
147.455696197173
 10
139.6652966370942
 20
145.8385673095858
 10
139.0506911970739
 20
144.2214384219986
 10
138.463991048893
 20
142.3252566160164
 10
138.0571250036777
 20
141.0154304484394
 10
138.0571250036777
 20
141.0154304484394
 10
133.9009590684727
 20
127.8027915271048
 10
133.9009590684727
 20
127.8027915271048
 10
133.9009590684727
 20
127.8027915271048
 10
131.4180771143097
 20
127.8027915271048
 10
131.4180771143097
 20
127.8027915271048
 10
131.4180771143097
 20
127.8027915271048
 10
139.8926730891197
 20
154.8294111834263
 10
139.8926730891197
 20
154.8294111834263
 97
        0
 75
     2
 76
     1
 98
        0
  0
SPLINE
  5
6AA
330
6A2
100
AcDbEntity
  8
LOGO
370
     0
100
AcDbSpline
210
0.0
220
0.0
230
1.0
 70
    11
 71
     3
 72
    29
 73
    25
 74
     0
 42
0.000000001
 43
0.0000000001
 40
0.0
 40
0.0
 40
0.0
 40
0.0
 40
1.0
 40
1.0
 40
1.0
 40
2.0
 40
2.0
 40
2.0
 40
3.0
 40
3.0
 40
3.0
 40
4.0
 40
4.0
 40
4.0
 40
5.0
 40
5.0
 40
5.0
 40
6.0
 40
6.0
 40
6.0
 40
7.0
 40
7.0
 40
7.0
 40
8.0
 40
8.0
 40
8.0
 40
8.0
 10
101.6420971922469
 20
132.8388354296931
 30
0.0
 10
101.630039350094
 20
134.7164137077823
 30
0.0
 10
102.2236296937908
 20
138.0598810818841
 30
0.0
 10
103.7487744712405
 20
142.5378191476827
 30
0.0
 10
105.819967243327
 20
148.5896501242061
 30
0.0
 10
107.0602024361932
 20
150.8074318058939
 30
0.0
 10
108.1522984254671
 20
151.8833358357054
 30
0.0
 10
109.741177511439
 20
153.4532668840085
 30
0.0
 10
111.8740375333931
 20
153.5290590346837
 30
0.0
 10
112.5075910110823
 20
153.4532668840085
 30
0.0
 10
113.4012493694975
 20
153.3490526768302
 30
0.0
 10
114.6683563248758
 20
152.7580461564518
 30
0.0
 10
114.7493161221879
 20
150.7838328862519
 30
0.0
 10
114.8106388622796
 20
149.0909118479895
 30
0.0
 10
114.3186789024427
 20
145.9191825971221
 30
0.0
 10
112.6164561002338
 20
140.9489400617108
 30
0.0
 10
110.6444821435766
 20
135.1746117095912
 30
0.0
 10
109.4669477299053
 20
132.8960240524753
 30
0.0
 10
108.5212683953448
 20
131.9072809959403
 30
0.0
 10
106.7346406980658
 20
130.0538184021569
 30
0.0
 10
104.8222669326213
 20
130.2336525051225
 30
0.0
 10
104.5408024457958
 20
130.2336525051225
 30
0.0
 10
104.1721769856939
 20
130.2336525051225
 30
0.0
 10
101.6465758193322
 20
130.6305277668397
 30
0.0
 10
101.6420971922469
 20
132.8388354296931
 30
0.0
  0
SPLINE
  5
6AB
330
6A2
100
AcDbEntity
  8
LOGO
370
     0
100
AcDbSpline
210
0.0
220
0.0
230
1.0
 70
    11
 71
     3
 72
    32
 73
    28
 74
     0
 42
0.000000001
 43
0.0000000001
 40
0.0
 40
0.0
 40
0.0
 40
0.0
 40
1.0
 40
1.0
 40
1.0
 40
2.0
 40
2.0
 40
2.0
 40
3.0
 40
3.0
 40
3.0
 40
4.0
 40
4.0
 40
4.0
 40
5.0
 40
5.0
 40
5.0
 40
6.0
 40
6.0
 40
6.0
 40
7.0
 40
7.0
 40
7.0
 40
8.0
 40
8.0
 40
8.0
 40
9.0
 40
9.0
 40
9.0
 40
9.0
 10
106.2595617172429
 20
153.4105476718098
 30
0.0
 10
104.8222669326213
 20
151.5474388043041
 30
0.0
 10
103.7177685914188
 20
149.8758773721411
 30
0.0
 10
101.9232171692965
 20
144.6141795664062
 30
0.0
 10
100.2754269116635
 20
139.7999999594306
 30
0.0
 10
99.22777268346732
 20
136.3052927937542
 30
0.0
 10
99.06964269637689
 20
132.039572749846
 30
0.0
 10
98.94665270641765
 20
128.8673267343149
 30
0.0
 10
100.8807305877373
 20
127.8027915271048
 30
0.0
 10
103.7129454545577
 20
127.8027915271048
 30
0.0
 10
104.9352661390825
 20
127.8027915271048
 30
0.0
 10
108.0151835347002
 20
127.8827177950895
 30
0.0
 10
110.2045431598849
 20
130.5926316915021
 30
0.0
 10
111.7417457794874
 20
132.4984597712065
 30
0.0
 10
113.155269389579
 20
134.475256864725
 30
0.0
 10
115.0562743324223
 20
140.9489400617108
 30
0.0
 10
116.6361961642235
 20
146.3680788349845
 30
0.0
 10
117.7282921534974
 20
149.8639917848761
 30
0.0
 10
117.6480213757369
 20
151.8595646611754
 30
0.0
 10
117.6480213757369
 20
151.8595646611754
 30
0.0
 10
117.6480213757369
 20
151.8595646611754
 30
0.0
 10
117.6480213757369
 20
151.8595646611754
 30
0.0
 10
117.13229024137
 20
155.18150017429
 30
0.0
 10
114.7162431837115
 20
155.886194920681
 30
0.0
 10
113.3351034925446
 20
155.886194920681
 30
0.0
 10
111.9829026225447
 20
155.886194920681
 30
0.0
 10
108.3414342923792
 20
156.1251124501957
 30
0.0
 10
106.2595617172429
 20
153.4105476718098
 30
0.0
  0
HATCH
  5
6AC
330
6A2
100
AcDbEntity
  8
LOGO
 62
   250
420
  2234388
100
AcDbHatch
 10
0.0
 20
0.0
 30
0.0
210
0.0
220
0.0
230
1.0
  2
SOLID
 70
     1
 71
     0
 91
        2
 92
        1
 93
        1
 72
     4
 94
        3
 73
     0
 74
     1
 95
       29
 96
       25
 40
0.0
 40
0.0
 40
0.0
 40
0.0
 40
1.0
 40
1.0
 40
1.0
 40
2.0
 40
2.0
 40
2.0
 40
3.0
 40
3.0
 40
3.0
 40
4.0
 40
4.0
 40
4.0
 40
5.0
 40
5.0
 40
5.0
 40
6.0
 40
6.0
 40
6.0
 40
7.0
 40
7.0
 40
7.0
 40
8.0
 40
8.0
 40
8.0
 40
8.0
 10
101.6420971922469
 20
132.8388354296931
 10
101.630039350094
 20
134.7164137077823
 10
102.2236296937908
 20
138.0598810818841
 10
103.7487744712405
 20
142.5378191476827
 10
105.819967243327
 20
148.5896501242061
 10
107.0602024361932
 20
150.8074318058939
 10
108.1522984254671
 20
151.8833358357054
 10
109.741177511439
 20
153.4532668840085
 10
111.8740375333931
 20
153.5290590346837
 10
112.5075910110823
 20
153.4532668840085
 10
113.4012493694975
 20
153.3490526768302
 10
114.6683563248758
 20
152.7580461564518
 10
114.7493161221879
 20
150.7838328862519
 10
114.8106388622796
 20
149.0909118479895
 10
114.3186789024427
 20
145.9191825971221
 10
112.6164561002338
 20
140.9489400617108
 10
110.6444821435766
 20
135.1746117095912
 10
109.4669477299053
 20
132.8960240524753
 10
108.5212683953448
 20
131.9072809959403
 10
106.7346406980658
 20
130.0538184021569
 10
104.8222669326213
 20
130.2336525051225
 10
104.5408024457958
 20
130.2336525051225
 10
104.1721769856939
 20
130.2336525051225
 10
101.6465758193322
 20
130.6305277668397
 10
101.6420971922469
 20
132.8388354296931
 97
        0
 92
        1
 93
        1
 72
     4
 94
        3
 73
     0
 74
     1
 95
       32
 96
       28
 40
0.0
 40
0.0
 40
0.0
 40
0.0
 40
1.0
 40
1.0
 40
1.0
 40
2.0
 40
2.0
 40
2.0
 40
3.0
 40
3.0
 40
3.0
 40
4.0
 40
4.0
 40
4.0
 40
5.0
 40
5.0
 40
5.0
 40
6.0
 40
6.0
 40
6.0
 40
7.0
 40
7.0
 40
7.0
 40
8.0
 40
8.0
 40
8.0
 40
9.0
 40
9.0
 40
9.0
 40
9.0
 10
106.2595617172429
 20
153.4105476718098
 10
104.8222669326213
 20
151.5474388043041
 10
103.7177685914188
 20
149.8758773721411
 10
101.9232171692965
 20
144.6141795664062
 10
100.2754269116635
 20
139.7999999594306
 10
99.22777268346732
 20
136.3052927937542
 10
99.06964269637689
 20
132.039572749846
 10
98.94665270641765
 20
128.8673267343149
 10
100.8807305877373
 20
127.8027915271048
 10
103.7129454545577
 20
127.8027915271048
 10
104.9352661390825
 20
127.8027915271048
 10
108.0151835347002
 20
127.8827177950895
 10
110.2045431598849
 20
130.5926316915021
 10
111.7417457794874
 20
132.4984597712065
 10
113.155269389579
 20
134.475256864725
 10
115.0562743324223
 20
140.9489400617108
 10
116.6361961642235
 20
146.3680788349845
 10
117.7282921534974
 20
149.8639917848761
 10
117.6480213757369
 20
151.8595646611754
 10
117.6480213757369
 20
151.8595646611754
 10
117.6480213757369
 20
151.8595646611754
 10
117.6480213757369
 20
151.8595646611754
 10
117.13229024137
 20
155.18150017429
 10
114.7162431837115
 20
155.886194920681
 10
113.3351034925446
 20
155.886194920681
 10
111.9829026225447
 20
155.886194920681
 10
108.3414342923792
 20
156.1251124501957
 10
106.2595617172429
 20
153.4105476718098
 97
        0
 75
     2
 76
     1
 98
        0
  0
ENDBLK
  5
6AD
330
6A2
100
AcDbEntity
  8
0
100
AcDbBlockEnd
  0
BLOCK
  5
3EE9
330
3EE8
100
AcDbEntity
  8
0
100
AcDbBlockBegin
  2
*D6
 70
     1
 10
0.0
 20
0.0
 30
0.0
  3
*D6
  1

  0
LINE
  5
3EEB
330
3EE8
100
AcDbEntity
  8
DIM
 62
     0
 48
0.05
370
    -2
100
AcDbLine
 10
72.21706076504972
 20
362.6512843432146
 30
0.0
 11
52.63261807021571
 21
362.6512843432146
 31
0.0
  0
LINE
  5
3EEC
330
3EE8
100
AcDbEntity
  8
DIM
 62
     0
 48
0.05
370
    -2
100
AcDbLine
 10
72.21706076504972
 20
251.5668113983852
 30
0.0
 11
52.6326180702157
 21
251.5668113983852
 31
0.0
  0
LINE
  5
3EED
330
3EE8
100
AcDbEntity
  8
DIM
 62
     0
 48
0.05
370
    -2
100
AcDbLine
 10
52.63261807021571
 20
360.6512843432146
 30
0.0
 11
52.6326180702157
 21
253.5668113983852
 31
0.0
  0
INSERT
  5
3EEE
330
3EE8
100
AcDbEntity
  8
DIM
 62
     0
370
    -2
100
AcDbBlockReference
  2
_DOT
 10
52.63261807021571
 20
362.6512843432146
 30
0.0
 41
2.0
 42
2.0
 43
2.0
 50
90.0
  0
INSERT
  5
3EEF
330
3EE8
100
AcDbEntity
  8
DIM
 62
     0
370
    -2
100
AcDbBlockReference
  2
_DOT
 10
52.6326180702157
 20
251.5668113983852
 30
0.0
 41
2.0
 42
2.0
 43
2.0
 50
270.0
  0
MTEXT
  5
3EF0
330
3EE8
100
AcDbEntity
  8
DIM
 62
     0
 48
0.05
100
AcDbMText
 10
47.1326180702157
 20
298.0916889483284
 30
0.0
 40
5.0
 41
0.0
 46
0.0
 71
     5
 72
     1
  1
\A1;111
  7
ＭＳ ゴシック
 11
6.396418121486651E-17
 21
1.0
 31
0.0
 73
     1
 44
1.0
  0
POINT
  5
3EF1
330
3EE8
100
AcDbEntity
  8
Defpoints
 62
     0
100
AcDbPoint
 10
77.21706076504972
 20
362.6512843432146
 30
0.0
  0
POINT
  5
3EF2
330
3EE8
100
AcDbEntity
  8
Defpoints
 62
     0
100
AcDbPoint
 10
77.21706076504972
 20
251.5668113983852
 30
0.0
  0
POINT
  5
3EF3
330
3EE8
100
AcDbEntity
  8
Defpoints
 62
     0
100
AcDbPoint
 10
52.6326180702157
 20
251.5668113983852
 30
0.0
  0
ENDBLK
  5
3EEA
330
3EE8
100
AcDbEntity
  8
0
100
AcDbBlockEnd
  0
BLOCK
  5
3EFB
330
3EFA
100
AcDbEntity
  8
0
100
AcDbBlockBegin
  2
*D7
 70
     1
 10
0.0
 20
0.0
 30
0.0
  3
*D7
  1

  0
LINE
  5
3EFD
330
3EFA
100
AcDbEntity
  8
DIM
 62
     0
 48
0.05
370
    -2
100
AcDbLine
 10
79.27645198689231
 20
371.1061736073155
 30
0.0
 11
79.27645198689231
 21
385.8575048417203
 31
0.0
  0
LINE
  5
3EFE
330
3EFA
100
AcDbEntity
  8
DIM
 62
     0
 48
0.05
370
    -2
100
AcDbLine
 10
144.2764519828647
 20
371.1061736073155
 30
0.0
 11
144.2764519828647
 21
385.8575048417203
 31
0.0
  0
LINE
  5
3EFF
330
3EFA
100
AcDbEntity
  8
DIM
 62
     0
 48
0.05
370
    -2
100
AcDbLine
 10
81.27645198689231
 20
385.8575048417203
 30
0.0
 11
142.2764519828647
 21
385.8575048417203
 31
0.0
  0
INSERT
  5
3F00
330
3EFA
100
AcDbEntity
  8
DIM
 62
     0
370
    -2
100
AcDbBlockReference
  2
_DOT
 10
79.27645198689231
 20
385.8575048417203
 30
0.0
 41
2.0
 42
2.0
 43
2.0
 50
180.0
  0
INSERT
  5
3F01
330
3EFA
100
AcDbEntity
  8
DIM
 62
     0
370
    -2
100
AcDbBlockReference
  2
_DOT
 10
144.2764519828647
 20
385.8575048417203
 30
0.0
 41
2.0
 42
2.0
 43
2.0
  0
MTEXT
  5
3F02
330
3EFA
100
AcDbEntity
  8
DIM
 62
     0
 48
0.05
100
AcDbMText
 10
111.7764519848785
 20
391.3575048417203
 30
0.0
 40
5.0
 41
0.0
 46
0.0
 71
     5
 72
     1
  1
\A1;65
  7
ＭＳ ゴシック
 73
     1
 44
1.0
  0
POINT
  5
3F03
330
3EFA
100
AcDbEntity
  8
Defpoints
 62
     0
100
AcDbPoint
 10
79.27645198689231
 20
366.1061736073155
 30
0.0
  0
POINT
  5
3F04
330
3EFA
100
AcDbEntity
  8
Defpoints
 62
     0
100
AcDbPoint
 10
144.2764519828647
 20
366.1061736073155
 30
0.0
  0
POINT
  5
3F05
330
3EFA
100
AcDbEntity
  8
Defpoints
 62
     0
100
AcDbPoint
 10
144.2764519828647
 20
385.8575048417203
 30
0.0
  0
ENDBLK
  5
3EFC
330
3EFA
100
AcDbEntity
  8
0
100
AcDbBlockEnd
  0
BLOCK
  5
3F0A
330
3F09
100
AcDbEntity
  8
0
100
AcDbBlockBegin
  2
*D8
 70
     1
 10
0.0
 20
0.0
 30
0.0
  3
*D8
  1

  0
LINE
  5
3F0C
330
3F09
100
AcDbEntity
  8
DIM
 62
     0
 48
0.05
370
    -2
100
AcDbLine
 10
79.27566534765731
 20
238.2488881264814
 30
0.0
 11
79.27566534765731
 21
226.7192378794117
 31
0.0
  0
LINE
  5
3F0D
330
3F09
100
AcDbEntity
  8
DIM
 62
     0
 48
0.05
370
    -2
100
AcDbLine
 10
224.2166976513956
 20
238.2488881264814
 30
0.0
 11
224.2166976513956
 21
226.7192378794117
 31
0.0
  0
LINE
  5
3F0E
330
3F09
100
AcDbEntity
  8
DIM
 62
     0
 48
0.05
370
    -2
100
AcDbLine
 10
81.27566534765731
 20
226.7192378794117
 30
0.0
 11
222.2166976513956
 21
226.7192378794117
 31
0.0
  0
INSERT
  5
3F0F
330
3F09
100
AcDbEntity
  8
DIM
 62
     0
370
    -2
100
AcDbBlockReference
  2
_DOT
 10
79.27566534765731
 20
226.7192378794117
 30
0.0
 41
2.0
 42
2.0
 43
2.0
 50
180.0
  0
INSERT
  5
3F10
330
3F09
100
AcDbEntity
  8
DIM
 62
     0
370
    -2
100
AcDbBlockReference
  2
_DOT
 10
224.2166976513956
 20
226.7192378794117
 30
0.0
 41
2.0
 42
2.0
 43
2.0
  0
MTEXT
  5
3F11
330
3F09
100
AcDbEntity
  8
DIM
 62
     0
 48
0.05
100
AcDbMText
 10
151.7461814995265
 20
232.2192378794117
 30
0.0
 40
5.0
 41
0.0
 46
0.0
 71
     5
 72
     1
  1
\A1;145
  7
ＭＳ ゴシック
 73
     1
 44
1.0
  0
POINT
  5
3F12
330
3F09
100
AcDbEntity
  8
Defpoints
 62
     0
100
AcDbPoint
 10
79.27566534765731
 20
243.2488881264814
 30
0.0
  0
POINT
  5
3F13
330
3F09
100
AcDbEntity
  8
Defpoints
 62
     0
100
AcDbPoint
 10
224.2166976513956
 20
243.2488881264814
 30
0.0
  0
POINT
  5
3F14
330
3F09
100
AcDbEntity
  8
Defpoints
 62
     0
100
AcDbPoint
 10
224.2166976513956
 20
226.7192378794117
 30
0.0
  0
ENDBLK
  5
3F0B
330
3F09
100
AcDbEntity
  8
0
100
AcDbBlockEnd
  0
BLOCK
  5
3F26
330
3F25
100
AcDbEntity
  8
0
100
AcDbBlockBegin
  2
*D9
 70
     1
 10
0.0
 20
0.0
 30
0.0
  3
*D9
  1

  0
LINE
  5
3F28
330
3F25
100
AcDbEntity
  8
DIM
 62
     0
 48
0.05
370
    -2
100
AcDbLine
 10
300.8038935803304
 20
246.1955334292336
 30
0.0
 11
300.8038935803304
 21
226.7192378794117
 31
0.0
  0
LINE
  5
3F29
330
3F25
100
AcDbEntity
  8
DIM
 62
     0
 48
0.05
370
    -2
100
AcDbLine
 10
314.8038935803304
 20
246.1955334292336
 30
0.0
 11
314.8038935803304
 21
226.7192378794117
 31
0.0
  0
LINE
  5
3F2A
330
3F25
100
AcDbEntity
  8
DIM
 62
     0
 48
0.05
370
    -2
100
AcDbLine
 10
302.8038935803304
 20
226.7192378794117
 30
0.0
 11
312.8038935803304
 21
226.7192378794117
 31
0.0
  0
INSERT
  5
3F2B
330
3F25
100
AcDbEntity
  8
DIM
 62
     0
370
    -2
100
AcDbBlockReference
  2
_DOT
 10
300.8038935803304
 20
226.7192378794117
 30
0.0
 41
2.0
 42
2.0
 43
2.0
 50
180.0
  0
INSERT
  5
3F2C
330
3F25
100
AcDbEntity
  8
DIM
 62
     0
370
    -2
100
AcDbBlockReference
  2
_DOT
 10
314.8038935803304
 20
226.7192378794117
 30
0.0
 41
2.0
 42
2.0
 43
2.0
  0
MTEXT
  5
3F2D
330
3F25
100
AcDbEntity
  8
DIM
 62
     0
 48
0.05
100
AcDbMText
 10
307.8038935803305
 20
232.2192378794117
 30
0.0
 40
5.0
 41
0.0
 46
0.0
 71
     5
 72
     1
  1
\A1;%%c14
  7
ＭＳ ゴシック
 73
     1
 44
1.0
  0
POINT
  5
3F2E
330
3F25
100
AcDbEntity
  8
Defpoints
 62
     0
100
AcDbPoint
 10
300.8038935803304
 20
251.1955334292336
 30
0.0
  0
POINT
  5
3F2F
330
3F25
100
AcDbEntity
  8
Defpoints
 62
     0
100
AcDbPoint
 10
314.8038935803304
 20
251.1955334292336
 30
0.0
  0
POINT
  5
3F30
330
3F25
100
AcDbEntity
  8
Defpoints
 62
     0
100
AcDbPoint
 10
314.8038935803304
 20
226.7192378794117
 30
0.0
  0
ENDBLK
  5
3F27
330
3F25
100
AcDbEntity
  8
0
100
AcDbBlockEnd
  0
BLOCK
  5
3F6C
330
3F6B
100
AcDbEntity
  8
0
100
AcDbBlockBegin
  2
*D10
 70
     1
 10
0.0
 20
0.0
 30
0.0
  3
*D10
  1

  0
LINE
  5
3F6E
330
3F6B
100
AcDbEntity
  8
DIM
 62
     0
 48
0.05
370
    -2
100
AcDbLine
 10
292.2742433324552
 20
362.6512843432146
 30
0.0
 11
271.4784115137055
 21
362.6512843432146
 31
0.0
  0
LINE
  5
3F6F
330
3F6B
100
AcDbEntity
  8
DIM
 62
     0
 48
0.05
370
    -2
100
AcDbLine
 10
292.2742433324552
 20
327.6512843432145
 30
0.0
 11
271.4784115137055
 21
327.6512843432145
 31
0.0
  0
LINE
  5
3F70
330
3F6B
100
AcDbEntity
  8
DIM
 62
     0
 48
0.05
370
    -2
100
AcDbLine
 10
271.4784115137055
 20
360.6512843432146
 30
0.0
 11
271.4784115137055
 21
329.6512843432145
 31
0.0
  0
INSERT
  5
3F71
330
3F6B
100
AcDbEntity
  8
DIM
 62
     0
370
    -2
100
AcDbBlockReference
  2
_DOT
 10
271.4784115137055
 20
362.6512843432146
 30
0.0
 41
2.0
 42
2.0
 43
2.0
 50
90.0
  0
INSERT
  5
3F72
330
3F6B
100
AcDbEntity
  8
DIM
 62
     0
370
    -2
100
AcDbBlockReference
  2
_DOT
 10
271.4784115137055
 20
327.6512843432145
 30
0.0
 41
2.0
 42
2.0
 43
2.0
 50
270.0
  0
MTEXT
  5
3F73
330
3F6B
100
AcDbEntity
  8
DIM
 62
     0
 48
0.05
100
AcDbMText
 10
265.9784115137055
 20
345.1512843432146
 30
0.0
 40
5.0
 41
0.0
 46
0.0
 71
     5
 72
     1
  1
\A1;%%c35
  7
ＭＳ ゴシック
 11
0.0
 21
1.0
 31
0.0
 73
     1
 44
1.0
  0
POINT
  5
3F74
330
3F6B
100
AcDbEntity
  8
Defpoints
 62
     0
100
AcDbPoint
 10
297.2742433324552
 20
362.6512843432146
 30
0.0
  0
POINT
  5
3F75
330
3F6B
100
AcDbEntity
  8
Defpoints
 62
     0
100
AcDbPoint
 10
297.2742433324552
 20
327.6512843432145
 30
0.0
  0
POINT
  5
3F76
330
3F6B
100
AcDbEntity
  8
Defpoints
 62
     0
100
AcDbPoint
 10
271.4784115137055
 20
327.6512843432145
 30
0.0
  0
ENDBLK
  5
3F6D
330
3F6B
100
AcDbEntity
  8
0
100
AcDbBlockEnd
  0
BLOCK
  5
3F7C
330
3F7B
100
AcDbEntity
  8
0
100
AcDbBlockBegin
  2
*D11
 70
     1
 10
0.0
 20
0.0
 30
0.0
  3
*D11
  1

  0
LINE
  5
3F7E
330
3F7B
100
AcDbEntity
  8
DIM
 62
     0
 48
0.05
370
    -2
100
AcDbLine
 10
297.2734566932201
 20
371.1069602465505
 30
0.0
 11
297.2734566932201
 21
385.8575048417203
 31
0.0
  0
LINE
  5
3F7F
330
3F7B
100
AcDbEntity
  8
DIM
 62
     0
 48
0.05
370
    -2
100
AcDbLine
 10
337.2734566932201
 20
371.1069602465505
 30
0.0
 11
337.2734566932201
 21
385.8575048417203
 31
0.0
  0
LINE
  5
3F80
330
3F7B
100
AcDbEntity
  8
DIM
 62
     0
 48
0.05
370
    -2
100
AcDbLine
 10
299.2734566932201
 20
385.8575048417203
 30
0.0
 11
335.2734566932201
 21
385.8575048417203
 31
0.0
  0
INSERT
  5
3F81
330
3F7B
100
AcDbEntity
  8
DIM
 62
     0
370
    -2
100
AcDbBlockReference
  2
_DOT
 10
297.2734566932201
 20
385.8575048417203
 30
0.0
 41
2.0
 42
2.0
 43
2.0
 50
180.0
  0
INSERT
  5
3F82
330
3F7B
100
AcDbEntity
  8
DIM
 62
     0
370
    -2
100
AcDbBlockReference
  2
_DOT
 10
337.2734566932201
 20
385.8575048417203
 30
0.0
 41
2.0
 42
2.0
 43
2.0
  0
MTEXT
  5
3F83
330
3F7B
100
AcDbEntity
  8
DIM
 62
     0
 48
0.05
100
AcDbMText
 10
317.2734566932201
 20
391.3575048417203
 30
0.0
 40
5.0
 41
0.0
 46
0.0
 71
     5
 72
     1
  1
\A1;40
  7
ＭＳ ゴシック
 73
     1
 44
1.0
  0
POINT
  5
3F84
330
3F7B
100
AcDbEntity
  8
Defpoints
 62
     0
100
AcDbPoint
 10
297.2734566932201
 20
366.1069602465505
 30
0.0
  0
POINT
  5
3F85
330
3F7B
100
AcDbEntity
  8
Defpoints
 62
     0
100
AcDbPoint
 10
337.2734566932201
 20
366.1069602465505
 30
0.0
  0
POINT
  5
3F86
330
3F7B
100
AcDbEntity
  8
Defpoints
 62
     0
100
AcDbPoint
 10
337.2734566932201
 20
385.8575048417203
 30
0.0
  0
ENDBLK
  5
3F7D
330
3F7B
100
AcDbEntity
  8
0
100
AcDbBlockEnd
  0
BLOCK
  5
3FA9
330
3FA8
100
AcDbEntity
  8
0
100
AcDbBlockBegin
  2
*D12
 70
     1
 10
0.0
 20
0.0
 30
0.0
  3
*D12
  1

  0
LINE
  5
3FAB
330
3FA8
100
AcDbEntity
  8
DIM
 62
     0
 48
0.05
370
    -2
100
AcDbLine
 10
149.2764519828648
 20
362.6512843432146
 30
0.0
 11
178.9049424694555
 21
362.6512843432146
 31
0.0
  0
LINE
  5
3FAC
330
3FA8
100
AcDbEntity
  8
DIM
 62
     0
 48
0.05
370
    -2
100
AcDbLine
 10
166.7764519828648
 20
345.1512843432146
 30
0.0
 11
178.9049424694555
 21
345.1512843432146
 31
0.0
  0
LINE
  5
3FAD
330
3FA8
100
AcDbEntity
  8
DIM
 62
     0
 48
0.05
370
    -2
100
AcDbLine
 10
178.9049424694555
 20
360.6512843432146
 30
0.0
 11
178.9049424694555
 21
347.1512843432146
 31
0.0
  0
INSERT
  5
3FAE
330
3FA8
100
AcDbEntity
  8
DIM
 62
     0
370
    -2
100
AcDbBlockReference
  2
_DOT
 10
178.9049424694555
 20
362.6512843432146
 30
0.0
 41
2.0
 42
2.0
 43
2.0
 50
90.0
  0
INSERT
  5
3FAF
330
3FA8
100
AcDbEntity
  8
DIM
 62
     0
370
    -2
100
AcDbBlockReference
  2
_DOT
 10
178.9049424694555
 20
345.1512843432146
 30
0.0
 41
2.0
 42
2.0
 43
2.0
 50
270.0
  0
MTEXT
  5
3FB0
330
3FA8
100
AcDbEntity
  8
DIM
 62
     0
 48
0.05
100
AcDbMText
 10
173.4049424694555
 20
353.9012843432145
 30
0.0
 40
5.0
 41
0.0
 46
0.0
 71
     5
 72
     1
  1
\A1;17.5
  7
ＭＳ ゴシック
 11
0.0
 21
1.0
 31
0.0
 73
     1
 44
1.0
  0
POINT
  5
3FB1
330
3FA8
100
AcDbEntity
  8
Defpoints
 62
     0
100
AcDbPoint
 10
144.2764519828648
 20
362.6512843432146
 30
0.0
  0
POINT
  5
3FB2
330
3FA8
100
AcDbEntity
  8
Defpoints
 62
     0
100
AcDbPoint
 10
161.7764519828648
 20
345.1512843432146
 30
0.0
  0
POINT
  5
3FB3
330
3FA8
100
AcDbEntity
  8
Defpoints
 62
     0
100
AcDbPoint
 10
178.9049424694555
 20
345.1512843432146
 30
0.0
  0
ENDBLK
  5
3FAA
330
3FA8
100
AcDbEntity
  8
0
100
AcDbBlockEnd
  0
BLOCK
  5
3FD9
330
3FD8
100
AcDbEntity
  8
0
100
AcDbBlockBegin
  2
*D13
 70
     1
 10
0.0
 20
0.0
 30
0.0
  3
*D13
  1

  0
LINE
  5
3FDB
330
3FD8
100
AcDbEntity
  8
DIM
 62
     0
 48
0.05
370
    -2
100
AcDbLine
 10
153.2764519828648
 20
324.8521322895326
 30
0.0
 11
153.2764519828648
 21
312.4727978156116
 31
0.0
  0
LINE
  5
3FDC
330
3FD8
100
AcDbEntity
  8
DIM
 62
     0
 48
0.05
370
    -2
100
AcDbLine
 10
135.2764519828648
 20
324.8521322895326
 30
0.0
 11
135.2764519828648
 21
312.4727978156116
 31
0.0
  0
LINE
  5
3FDD
330
3FD8
100
AcDbEntity
  8
DIM
 62
     0
 48
0.05
370
    -2
100
AcDbLine
 10
151.2764519828648
 20
312.4727978156116
 30
0.0
 11
137.2764519828648
 21
312.4727978156116
 31
0.0
  0
INSERT
  5
3FDE
330
3FD8
100
AcDbEntity
  8
DIM
 62
     0
370
    -2
100
AcDbBlockReference
  2
_DOT
 10
153.2764519828648
 20
312.4727978156116
 30
0.0
 41
2.0
 42
2.0
 43
2.0
  0
INSERT
  5
3FDF
330
3FD8
100
AcDbEntity
  8
DIM
 62
     0
370
    -2
100
AcDbBlockReference
  2
_DOT
 10
135.2764519828648
 20
312.4727978156116
 30
0.0
 41
2.0
 42
2.0
 43
2.0
 50
180.0
  0
MTEXT
  5
3FE0
330
3FD8
100
AcDbEntity
  8
DIM
 62
     0
 48
0.05
100
AcDbMText
 10
144.2764519828648
 20
317.9727978156116
 30
0.0
 40
5.0
 41
0.0
 46
0.0
 71
     5
 72
     1
  1
\A1;18
  7
ＭＳ ゴシック
 73
     1
 44
1.0
  0
POINT
  5
3FE1
330
3FD8
100
AcDbEntity
  8
Defpoints
 62
     0
100
AcDbPoint
 10
153.2764519828648
 20
329.8521322895326
 30
0.0
  0
POINT
  5
3FE2
330
3FD8
100
AcDbEntity
  8
Defpoints
 62
     0
100
AcDbPoint
 10
135.2764519828648
 20
329.8521322895326
 30
0.0
  0
POINT
  5
3FE3
330
3FD8
100
AcDbEntity
  8
Defpoints
 62
     0
100
AcDbPoint
 10
135.2764519828648
 20
312.4727978156116
 30
0.0
  0
ENDBLK
  5
3FDA
330
3FD8
100
AcDbEntity
  8
0
100
AcDbBlockEnd
  0
BLOCK
  5
3FED
330
3FEC
100
AcDbEntity
  8
0
100
AcDbBlockBegin
  2
*D14
 70
     1
 10
0.0
 20
0.0
 30
0.0
  3
*D14
  1

  0
LINE
  5
3FEF
330
3FEC
100
AcDbEntity
  8
DIM
 62
     0
 48
0.05
370
    -2
100
AcDbLine
 10
153.2764519828648
 20
324.8521322895326
 30
0.0
 11
153.2764519828648
 21
312.4727978156116
 31
0.0
  0
LINE
  5
3FF0
330
3FEC
100
AcDbEntity
  8
DIM
 62
     0
 48
0.05
370
    -2
100
AcDbLine
 10
161.7620917199077
 20
336.4090035072573
 30
0.0
 11
161.7620917199077
 21
312.4727978156116
 31
0.0
  0
LINE
  5
3FF1
330
3FEC
100
AcDbEntity
  8
DIM
 62
     0
 48
0.05
370
    -2
100
AcDbLine
 10
161.7620917199077
 20
312.4727978156116
 30
0.0
 11
180.8470917199078
 21
312.4727978156116
 31
0.0
  0
LINE
  5
3FF2
330
3FEC
100
AcDbEntity
  8
DIM
 62
     0
 48
0.05
370
    -2
100
AcDbLine
 10
155.2764519828648
 20
312.4727978156116
 30
0.0
 11
159.7620917199077
 21
312.4727978156116
 31
0.0
  0
LINE
  5
3FF3
330
3FEC
100
AcDbEntity
  8
DIM
 62
     0
 48
0.05
370
    -2
100
AcDbLine
 10
159.7620917199077
 20
312.4727978156116
 30
0.0
 11
157.7620917199077
 21
312.4727978156116
 31
0.0
  0
INSERT
  5
3FF4
330
3FEC
100
AcDbEntity
  8
DIM
 62
     0
370
    -2
100
AcDbBlockReference
  2
_DOT
 10
153.2764519828648
 20
312.4727978156116
 30
0.0
 41
2.0
 42
2.0
 43
2.0
 50
180.0
  0
INSERT
  5
3FF5
330
3FEC
100
AcDbEntity
  8
DIM
 62
     0
370
    -2
100
AcDbBlockReference
  2
_DOT
 10
161.7620917199077
 20
312.4727978156116
 30
0.0
 41
2.0
 42
2.0
 43
2.0
  0
MTEXT
  5
3FF6
330
3FEC
100
AcDbEntity
  8
DIM
 62
     0
 48
0.05
100
AcDbMText
 10
173.3045917199078
 20
317.9727978156116
 30
0.0
 40
5.0
 41
0.0
 46
0.0
 71
     5
 72
     1
  1
\A1;8.5
  7
ＭＳ ゴシック
 73
     1
 44
1.0
  0
POINT
  5
3FF7
330
3FEC
100
AcDbEntity
  8
Defpoints
 62
     0
100
AcDbPoint
 10
153.2764519828648
 20
329.8521322895326
 30
0.0
  0
POINT
  5
3FF8
330
3FEC
100
AcDbEntity
  8
Defpoints
 62
     0
100
AcDbPoint
 10
161.7620917199077
 20
341.4090035072573
 30
0.0
  0
POINT
  5
3FF9
330
3FEC
100
AcDbEntity
  8
Defpoints
 62
     0
100
AcDbPoint
 10
161.7620917199077
 20
312.4727978156116
 30
0.0
  0
ENDBLK
  5
3FEE
330
3FEC
100
AcDbEntity
  8
0
100
AcDbBlockEnd
  0
BLOCK
  5
40B0
330
40AF
100
AcDbEntity
  8
0
100
AcDbBlockBegin
  2
block 6
 70
     0
 10
0.0
 20
0.0
 30
0.0
  3
block 6
  1

  0
SPLINE
  5
40B1
330
40AF
100
AcDbEntity
  8
main
370
     0
100
AcDbSpline
210
0.0
220
0.0
230
1.0
 70
    11
 71
     3
 72
    56
 73
    52
 74
     0
 42
0.000000001
 43
0.0000000001
 40
0.0
 40
0.0
 40
0.0
 40
0.0
 40
1.0
 40
1.0
 40
1.0
 40
2.0
 40
2.0
 40
2.0
 40
3.0
 40
3.0
 40
3.0
 40
4.0
 40
4.0
 40
4.0
 40
5.0
 40
5.0
 40
5.0
 40
6.0
 40
6.0
 40
6.0
 40
7.0
 40
7.0
 40
7.0
 40
8.0
 40
8.0
 40
8.0
 40
9.0
 40
9.0
 40
9.0
 40
10.0
 40
10.0
 40
10.0
 40
11.0
 40
11.0
 40
11.0
 40
12.0
 40
12.0
 40
12.0
 40
13.0
 40
13.0
 40
13.0
 40
14.0
 40
14.0
 40
14.0
 40
15.0
 40
15.0
 40
15.0
 40
16.0
 40
16.0
 40
16.0
 40
17.0
 40
17.0
 40
17.0
 40
17.0
 10
194.9532589861908
 20
16.44414061830273
 30
0.0
 10
195.0703923099615
 20
16.47824708610655
 30
0.0
 10
195.2212875917602
 20
16.44965277471547
 30
0.0
 10
195.2212875917602
 20
16.44965277471547
 30
0.0
 10
195.2212875917602
 20
16.44965277471547
 30
0.0
 10
195.1485960290672
 20
16.23226710618809
 30
0.0
 10
195.1485960290672
 20
16.23226710618809
 30
0.0
 10
195.1485960290672
 20
16.23226710618809
 30
0.0
 10
195.0001123156991
 20
16.2667180837677
 30
0.0
 10
194.8860795799106
 20
16.17645652250911
 30
0.0
 10
194.7968515479793
 20
16.10617652824669
 30
0.0
 10
194.7396629251972
 20
15.91876321021357
 30
0.0
 10
194.7169252799946
 20
15.84744968662377
 30
0.0
 10
194.7169252799946
 20
15.84744968662377
 30
0.0
 10
194.6187399938927
 20
15.54565912302632
 30
0.0
 10
194.6187399938927
 20
15.54565912302632
 30
0.0
 10
194.6187399938927
 20
15.54565912302632
 30
0.0
 10
194.9418901635895
 20
15.54565912302632
 30
0.0
 10
194.9418901635895
 20
15.54565912302632
 30
0.0
 10
194.9418901635895
 20
15.54565912302632
 30
0.0
 10
194.8912472265475
 20
15.35480070723525
 30
0.0
 10
194.8912472265475
 20
15.35480070723525
 30
0.0
 10
194.8912472265475
 20
15.35480070723525
 30
0.0
 10
194.5660299981959
 20
15.35480070723525
 30
0.0
 10
194.5660299981959
 20
15.35480070723525
 30
0.0
 10
194.5660299981959
 20
15.35480070723525
 30
0.0
 10
193.9838084771004
 20
13.47618889981874
 30
0.0
 10
193.9838084771004
 20
13.47618889981874
 30
0.0
 10
193.9838084771004
 20
13.47618889981874
 30
0.0
 10
193.8012182959284
 20
13.47618889981874
 30
0.0
 10
193.8012182959284
 20
13.47618889981874
 30
0.0
 10
193.8012182959284
 20
13.47618889981874
 30
0.0
 10
194.3841288365755
 20
15.35480070723525
 30
0.0
 10
194.3841288365755
 20
15.35480070723525
 30
0.0
 10
194.3841288365755
 20
15.35480070723525
 30
0.0
 10
194.1443500326214
 20
15.35480070723525
 30
0.0
 10
194.1443500326214
 20
15.35480070723525
 30
0.0
 10
194.1443500326214
 20
15.35480070723525
 30
0.0
 10
194.1943039501118
 20
15.54565912302632
 30
0.0
 10
194.1943039501118
 20
15.54565912302632
 30
0.0
 10
194.1943039501118
 20
15.54565912302632
 30
0.0
 10
194.4371833420481
 20
15.54565912302632
 30
0.0
 10
194.4371833420481
 20
15.54565912302632
 30
0.0
 10
194.4371833420481
 20
15.54565912302632
 30
0.0
 10
194.5233107859972
 20
15.8088645917346
 30
0.0
 10
194.5233107859972
 20
15.8088645917346
 30
0.0
 10
194.5922127411564
 20
16.02969535801994
 30
0.0
 10
194.6514684225934
 20
16.14820672089382
 30
0.0
 10
194.7017668498596
 20
16.23777926260083
 30
0.0
 10
194.75172076735
 20
16.32735180430783
 30
0.0
 10
194.8502505632277
 20
16.41520179713585
 30
0.0
 10
194.9532589861908
 20
16.44414061830273
 30
0.0
  0
HATCH
  5
40B2
330
40AF
100
AcDbEntity
  8
main
 62
    29
100
AcDbHatch
 10
0.0
 20
0.0
 30
0.0
210
0.0
220
0.0
230
1.0
  2
SOLID
 70
     1
 71
     0
 91
        1
 92
        1
 93
        1
 72
     4
 94
        3
 73
     0
 74
     1
 95
       56
 96
       52
 40
0.0
 40
0.0
 40
0.0
 40
0.0
 40
1.0
 40
1.0
 40
1.0
 40
2.0
 40
2.0
 40
2.0
 40
3.0
 40
3.0
 40
3.0
 40
4.0
 40
4.0
 40
4.0
 40
5.0
 40
5.0
 40
5.0
 40
6.0
 40
6.0
 40
6.0
 40
7.0
 40
7.0
 40
7.0
 40
8.0
 40
8.0
 40
8.0
 40
9.0
 40
9.0
 40
9.0
 40
10.0
 40
10.0
 40
10.0
 40
11.0
 40
11.0
 40
11.0
 40
12.0
 40
12.0
 40
12.0
 40
13.0
 40
13.0
 40
13.0
 40
14.0
 40
14.0
 40
14.0
 40
15.0
 40
15.0
 40
15.0
 40
16.0
 40
16.0
 40
16.0
 40
17.0
 40
17.0
 40
17.0
 40
17.0
 10
194.9532589861908
 20
16.44414061830273
 10
195.0703923099615
 20
16.47824708610655
 10
195.2212875917602
 20
16.44965277471547
 10
195.2212875917602
 20
16.44965277471547
 10
195.2212875917602
 20
16.44965277471547
 10
195.1485960290672
 20
16.23226710618809
 10
195.1485960290672
 20
16.23226710618809
 10
195.1485960290672
 20
16.23226710618809
 10
195.0001123156991
 20
16.2667180837677
 10
194.8860795799106
 20
16.17645652250911
 10
194.7968515479793
 20
16.10617652824669
 10
194.7396629251972
 20
15.91876321021357
 10
194.7169252799946
 20
15.84744968662377
 10
194.7169252799946
 20
15.84744968662377
 10
194.6187399938927
 20
15.54565912302632
 10
194.6187399938927
 20
15.54565912302632
 10
194.6187399938927
 20
15.54565912302632
 10
194.9418901635895
 20
15.54565912302632
 10
194.9418901635895
 20
15.54565912302632
 10
194.9418901635895
 20
15.54565912302632
 10
194.8912472265475
 20
15.35480070723525
 10
194.8912472265475
 20
15.35480070723525
 10
194.8912472265475
 20
15.35480070723525
 10
194.5660299981959
 20
15.35480070723525
 10
194.5660299981959
 20
15.35480070723525
 10
194.5660299981959
 20
15.35480070723525
 10
193.9838084771004
 20
13.47618889981874
 10
193.9838084771004
 20
13.47618889981874
 10
193.9838084771004
 20
13.47618889981874
 10
193.8012182959284
 20
13.47618889981874
 10
193.8012182959284
 20
13.47618889981874
 10
193.8012182959284
 20
13.47618889981874
 10
194.3841288365755
 20
15.35480070723525
 10
194.3841288365755
 20
15.35480070723525
 10
194.3841288365755
 20
15.35480070723525
 10
194.1443500326214
 20
15.35480070723525
 10
194.1443500326214
 20
15.35480070723525
 10
194.1443500326214
 20
15.35480070723525
 10
194.1943039501118
 20
15.54565912302632
 10
194.1943039501118
 20
15.54565912302632
 10
194.1943039501118
 20
15.54565912302632
 10
194.4371833420481
 20
15.54565912302632
 10
194.4371833420481
 20
15.54565912302632
 10
194.4371833420481
 20
15.54565912302632
 10
194.5233107859972
 20
15.8088645917346
 10
194.5233107859972
 20
15.8088645917346
 10
194.5922127411564
 20
16.02969535801994
 10
194.6514684225934
 20
16.14820672089382
 10
194.7017668498596
 20
16.23777926260083
 10
194.75172076735
 20
16.32735180430783
 10
194.8502505632277
 20
16.41520179713585
 10
194.9532589861908
 20
16.44414061830273
 97
        0
 75
     2
 76
     1
 98
        0
  0
SPLINE
  5
40B3
330
40AF
100
AcDbEntity
  8
main
370
     0
100
AcDbSpline
210
0.0
220
0.0
230
1.0
 70
    11
 71
     3
 72
    38
 73
    34
 74
     0
 42
0.000000001
 43
0.0000000001
 40
0.0
 40
0.0
 40
0.0
 40
0.0
 40
1.0
 40
1.0
 40
1.0
 40
2.0
 40
2.0
 40
2.0
 40
3.0
 40
3.0
 40
3.0
 40
4.0
 40
4.0
 40
4.0
 40
5.0
 40
5.0
 40
5.0
 40
6.0
 40
6.0
 40
6.0
 40
7.0
 40
7.0
 40
7.0
 40
8.0
 40
8.0
 40
8.0
 40
9.0
 40
9.0
 40
9.0
 40
10.0
 40
10.0
 40
10.0
 40
11.0
 40
11.0
 40
11.0
 40
11.0
 10
196.932123138364
 20
15.53807990795881
 30
0.0
 10
196.932123138364
 20
15.53807990795881
 30
0.0
 10
197.1195364563971
 20
15.53807990795881
 30
0.0
 10
197.1195364563971
 20
15.53807990795881
 30
0.0
 10
197.1195364563971
 20
15.53807990795881
 30
0.0
 10
197.0354760711028
 20
15.27039581216518
 30
0.0
 10
197.0354760711028
 20
15.27039581216518
 30
0.0
 10
197.0992103796251
 20
15.34515443351295
 30
0.0
 10
197.2001517439334
 20
15.44540677826964
 30
0.0
 10
197.2859346781067
 20
15.49570520553588
 30
0.0
 10
197.4151258440302
 20
15.57115284643524
 30
0.0
 10
197.488161916499
 20
15.58148813970912
 30
0.0
 10
197.5691217138111
 20
15.57942108105435
 30
0.0
 10
197.5691217138111
 20
15.57942108105435
 30
0.0
 10
197.489884465378
 20
15.32586188606837
 30
0.0
 10
197.489884465378
 20
15.32586188606837
 30
0.0
 10
197.4382079990086
 20
15.34722149216773
 30
0.0
 10
197.2797335021423
 20
15.30622482884799
 30
0.0
 10
197.1884384115563
 20
15.24007895189512
 30
0.0
 10
197.1071341044685
 20
15.18151229000977
 30
0.0
 10
197.0496009719105
 20
15.13121386274353
 30
0.0
 10
196.982766075406
 20
15.00512328480213
 30
0.0
 10
196.9155866691258
 20
14.87834368730914
 30
0.0
 10
196.862876673429
 20
14.67611644891679
 30
0.0
 10
196.7719260926188
 20
14.38397215904164
 30
0.0
 10
196.7719260926188
 20
14.38397215904164
 30
0.0
 10
196.4894280764659
 20
13.47618889981874
 30
0.0
 10
196.4894280764659
 20
13.47618889981874
 30
0.0
 10
196.4894280764659
 20
13.47618889981874
 30
0.0
 10
196.3071824050697
 20
13.47618889981874
 30
0.0
 10
196.3071824050697
 20
13.47618889981874
 30
0.0
 10
196.3071824050697
 20
13.47618889981874
 30
0.0
 10
196.932123138364
 20
15.53807990795881
 30
0.0
 10
196.932123138364
 20
15.53807990795881
 30
0.0
  0
HATCH
  5
40B4
330
40AF
100
AcDbEntity
  8
main
 62
    29
100
AcDbHatch
 10
0.0
 20
0.0
 30
0.0
210
0.0
220
0.0
230
1.0
  2
SOLID
 70
     1
 71
     0
 91
        1
 92
        1
 93
        1
 72
     4
 94
        3
 73
     0
 74
     1
 95
       38
 96
       34
 40
0.0
 40
0.0
 40
0.0
 40
0.0
 40
1.0
 40
1.0
 40
1.0
 40
2.0
 40
2.0
 40
2.0
 40
3.0
 40
3.0
 40
3.0
 40
4.0
 40
4.0
 40
4.0
 40
5.0
 40
5.0
 40
5.0
 40
6.0
 40
6.0
 40
6.0
 40
7.0
 40
7.0
 40
7.0
 40
8.0
 40
8.0
 40
8.0
 40
9.0
 40
9.0
 40
9.0
 40
10.0
 40
10.0
 40
10.0
 40
11.0
 40
11.0
 40
11.0
 40
11.0
 10
196.932123138364
 20
15.53807990795881
 10
196.932123138364
 20
15.53807990795881
 10
197.1195364563971
 20
15.53807990795881
 10
197.1195364563971
 20
15.53807990795881
 10
197.1195364563971
 20
15.53807990795881
 10
197.0354760711028
 20
15.27039581216518
 10
197.0354760711028
 20
15.27039581216518
 10
197.0992103796251
 20
15.34515443351295
 10
197.2001517439334
 20
15.44540677826964
 10
197.2859346781067
 20
15.49570520553588
 10
197.4151258440302
 20
15.57115284643524
 10
197.488161916499
 20
15.58148813970912
 10
197.5691217138111
 20
15.57942108105435
 10
197.5691217138111
 20
15.57942108105435
 10
197.489884465378
 20
15.32586188606837
 10
197.489884465378
 20
15.32586188606837
 10
197.4382079990086
 20
15.34722149216773
 10
197.2797335021423
 20
15.30622482884799
 10
197.1884384115563
 20
15.24007895189512
 10
197.1071341044685
 20
15.18151229000977
 10
197.0496009719105
 20
15.13121386274353
 10
196.982766075406
 20
15.00512328480213
 10
196.9155866691258
 20
14.87834368730914
 10
196.862876673429
 20
14.67611644891679
 10
196.7719260926188
 20
14.38397215904164
 10
196.7719260926188
 20
14.38397215904164
 10
196.4894280764659
 20
13.47618889981874
 10
196.4894280764659
 20
13.47618889981874
 10
196.4894280764659
 20
13.47618889981874
 10
196.3071824050697
 20
13.47618889981874
 10
196.3071824050697
 20
13.47618889981874
 10
196.3071824050697
 20
13.47618889981874
 10
196.932123138364
 20
15.53807990795881
 10
196.932123138364
 20
15.53807990795881
 97
        0
 75
     2
 76
     1
 98
        0
  0
SPLINE
  5
40B5
330
40AF
100
AcDbEntity
  8
main
370
     0
100
AcDbSpline
210
0.0
220
0.0
230
1.0
 70
    11
 71
     3
 72
   104
 73
   100
 74
     0
 42
0.000000001
 43
0.0000000001
 40
0.0
 40
0.0
 40
0.0
 40
0.0
 40
1.0
 40
1.0
 40
1.0
 40
2.0
 40
2.0
 40
2.0
 40
3.0
 40
3.0
 40
3.0
 40
4.0
 40
4.0
 40
4.0
 40
5.0
 40
5.0
 40
5.0
 40
6.0
 40
6.0
 40
6.0
 40
7.0
 40
7.0
 40
7.0
 40
8.0
 40
8.0
 40
8.0
 40
9.0
 40
9.0
 40
9.0
 40
10.0
 40
10.0
 40
10.0
 40
11.0
 40
11.0
 40
11.0
 40
12.0
 40
12.0
 40
12.0
 40
13.0
 40
13.0
 40
13.0
 40
14.0
 40
14.0
 40
14.0
 40
15.0
 40
15.0
 40
15.0
 40
16.0
 40
16.0
 40
16.0
 40
17.0
 40
17.0
 40
17.0
 40
18.0
 40
18.0
 40
18.0
 40
19.0
 40
19.0
 40
19.0
 40
20.0
 40
20.0
 40
20.0
 40
21.0
 40
21.0
 40
21.0
 40
22.0
 40
22.0
 40
22.0
 40
23.0
 40
23.0
 40
23.0
 40
24.0
 40
24.0
 40
24.0
 40
25.0
 40
25.0
 40
25.0
 40
26.0
 40
26.0
 40
26.0
 40
27.0
 40
27.0
 40
27.0
 40
28.0
 40
28.0
 40
28.0
 40
29.0
 40
29.0
 40
29.0
 40
30.0
 40
30.0
 40
30.0
 40
31.0
 40
31.0
 40
31.0
 40
32.0
 40
32.0
 40
32.0
 40
33.0
 40
33.0
 40
33.0
 40
33.0
 10
197.9635854070977
 20
15.53945794706199
 30
0.0
 10
197.9635854070977
 20
15.53945794706199
 30
0.0
 10
198.1268830408251
 20
15.53945794706199
 30
0.0
 10
198.1268830408251
 20
15.53945794706199
 30
0.0
 10
198.1268830408251
 20
15.53945794706199
 30
0.0
 10
198.0445452044098
 20
15.27108483171678
 30
0.0
 10
198.0445452044098
 20
15.27108483171678
 30
0.0
 10
198.1158587279996
 20
15.38339501862633
 30
0.0
 10
198.1809710756251
 20
15.43369344589257
 30
0.0
 10
198.265720480471
 20
15.49777226419066
 30
0.0
 10
198.35184792442
 20
15.56219559226454
 30
0.0
 10
198.4538228180557
 20
15.57528696374479
 30
0.0
 10
198.5241028123181
 20
15.57528696374479
 30
0.0
 10
198.6119528051461
 20
15.57528696374479
 30
0.0
 10
198.696702209992
 20
15.55806147495499
 30
0.0
 10
198.7411439710697
 20
15.46194324750785
 30
0.0
 10
198.7749059290977
 20
15.38649560660849
 30
0.0
 10
198.7762839682009
 20
15.37822737198939
 30
0.0
 10
198.7666376944786
 20
15.22939914884544
 30
0.0
 10
198.8558657264098
 20
15.38201697952314
 30
0.0
 10
198.9213225838111
 20
15.44747383692441
 30
0.0
 10
199.032943751169
 20
15.50983010634352
 30
0.0
 10
199.1507660944913
 20
15.57528696374479
 30
0.0
 10
199.218979030099
 20
15.58011010060594
 30
0.0
 10
199.2978717687563
 20
15.56874127800467
 30
0.0
 10
199.415005092527
 20
15.55117127943906
 30
0.0
 10
199.4901082236505
 20
15.50914108679193
 30
0.0
 10
199.5286933185397
 20
15.38270599907474
 30
0.0
 10
199.5676229232047
 20
15.25627091135754
 30
0.0
 10
199.5466078268811
 20
15.1877134659741
 30
0.0
 10
199.4987209680455
 20
14.98720877646073
 30
0.0
 10
199.4759833228429
 20
14.89591368587475
 30
0.0
 10
199.4442884234697
 20
14.78429251851679
 30
0.0
 10
199.4026027405983
 20
14.65200076461106
 30
0.0
 10
199.4026027405983
 20
14.65200076461106
 30
0.0
 10
199.032943751169
 20
13.47618889981874
 30
0.0
 10
199.032943751169
 20
13.47618889981874
 30
0.0
 10
199.032943751169
 20
13.47618889981874
 30
0.0
 10
198.8410518060506
 20
13.47618889981874
 30
0.0
 10
198.8410518060506
 20
13.47618889981874
 30
0.0
 10
198.8410518060506
 20
13.47618889981874
 30
0.0
 10
199.1642019757474
 20
14.5045505805703
 30
0.0
 10
199.1642019757474
 20
14.5045505805703
 30
0.0
 10
199.2320704015792
 20
14.71952468066711
 30
0.0
 10
199.2775456919843
 20
14.87696564820596
 30
0.0
 10
199.30166137629
 20
14.97480642453207
 30
0.0
 10
199.3309447072327
 20
15.0977964144913
 30
0.0
 10
199.3430025493856
 20
15.13879307781105
 30
0.0
 10
199.328877648578
 20
15.22767659996646
 30
0.0
 10
199.3157862770977
 20
15.31104796570913
 30
0.0
 10
199.2737560844506
 20
15.36548051028493
 30
0.0
 10
199.2017535413092
 20
15.36548051028493
 30
0.0
 10
199.1252723710824
 20
15.36548051028493
 30
0.0
 10
199.0629161016633
 20
15.35652325611423
 30
0.0
 10
198.9760996381627
 20
15.2693622828378
 30
0.0
 10
198.889283174662
 20
15.18151229000977
 30
0.0
 10
198.8172806315206
 20
15.07815935727092
 30
0.0
 10
198.7604365185143
 20
14.95895897484545
 30
0.0
 10
198.7046259348353
 20
14.83941408264418
 30
0.0
 10
198.6474373120531
 20
14.68817429106966
 30
0.0
 10
198.5899041794952
 20
14.5045505805703
 30
0.0
 10
198.5899041794952
 20
14.5045505805703
 30
0.0
 10
198.265720480471
 20
13.47618889981874
 30
0.0
 10
198.265720480471
 20
13.47618889981874
 30
0.0
 10
198.265720480471
 20
13.47618889981874
 30
0.0
 10
198.0851973579538
 20
13.47618889981874
 30
0.0
 10
198.0851973579538
 20
13.47618889981874
 30
0.0
 10
198.0851973579538
 20
13.47618889981874
 30
0.0
 10
198.4552008571589
 20
14.65200076461106
 30
0.0
 10
198.4552008571589
 20
14.65200076461106
 30
0.0
 10
198.4944749715996
 20
14.77671330344927
 30
0.0
 10
198.5237583025423
 20
14.87937721663653
 30
0.0
 10
198.5430508499869
 20
14.95826995529385
 30
0.0
 10
198.5761237884633
 20
15.09538484606073
 30
0.0
 10
198.585081042634
 20
15.18874699530149
 30
0.0
 10
198.5606208485525
 20
15.27108483171678
 30
0.0
 10
198.5354716349194
 20
15.35273364858047
 30
0.0
 10
198.4927524227207
 20
15.37374874490403
 30
0.0
 10
198.4207498795792
 20
15.37374874490403
 30
0.0
 10
198.3608051785907
 20
15.37374874490403
 30
0.0
 10
198.3025830264812
 20
15.34791051171932
 30
0.0
 10
198.2350591104251
 20
15.29657855512569
 30
0.0
 10
198.1509987251308
 20
15.23181071727601
 30
0.0
 10
198.116892257327
 20
15.1791007215792
 30
0.0
 10
198.0755510842315
 20
15.1160554326085
 30
0.0
 10
198.0197405005525
 20
15.03233955709003
 30
0.0
 10
197.993557757592
 20
14.97618446363526
 30
0.0
 10
197.9460154085321
 20
14.85284996390023
 30
0.0
 10
197.8995065887997
 20
14.7291709543894
 30
0.0
 10
197.8543758081703
 20
14.58447684855501
 30
0.0
 10
197.8233699283487
 20
14.48491352334992
 30
0.0
 10
197.8233699283487
 20
14.48491352334992
 30
0.0
 10
197.5064209346162
 20
13.47618889981874
 30
0.0
 10
197.5064209346162
 20
13.47618889981874
 30
0.0
 10
197.5064209346162
 20
13.47618889981874
 30
0.0
 10
197.3165960481525
 20
13.47618889981874
 30
0.0
 10
197.3165960481525
 20
13.47618889981874
 30
0.0
 10
197.3165960481525
 20
13.47618889981874
 30
0.0
 10
197.9635854070977
 20
15.53945794706199
 30
0.0
 10
197.9635854070977
 20
15.53945794706199
 30
0.0
  0
HATCH
  5
40B6
330
40AF
100
AcDbEntity
  8
main
 62
    29
100
AcDbHatch
 10
0.0
 20
0.0
 30
0.0
210
0.0
220
0.0
230
1.0
  2
SOLID
 70
     1
 71
     0
 91
        1
 92
        1
 93
        1
 72
     4
 94
        3
 73
     0
 74
     1
 95
      104
 96
      100
 40
0.0
 40
0.0
 40
0.0
 40
0.0
 40
1.0
 40
1.0
 40
1.0
 40
2.0
 40
2.0
 40
2.0
 40
3.0
 40
3.0
 40
3.0
 40
4.0
 40
4.0
 40
4.0
 40
5.0
 40
5.0
 40
5.0
 40
6.0
 40
6.0
 40
6.0
 40
7.0
 40
7.0
 40
7.0
 40
8.0
 40
8.0
 40
8.0
 40
9.0
 40
9.0
 40
9.0
 40
10.0
 40
10.0
 40
10.0
 40
11.0
 40
11.0
 40
11.0
 40
12.0
 40
12.0
 40
12.0
 40
13.0
 40
13.0
 40
13.0
 40
14.0
 40
14.0
 40
14.0
 40
15.0
 40
15.0
 40
15.0
 40
16.0
 40
16.0
 40
16.0
 40
17.0
 40
17.0
 40
17.0
 40
18.0
 40
18.0
 40
18.0
 40
19.0
 40
19.0
 40
19.0
 40
20.0
 40
20.0
 40
20.0
 40
21.0
 40
21.0
 40
21.0
 40
22.0
 40
22.0
 40
22.0
 40
23.0
 40
23.0
 40
23.0
 40
24.0
 40
24.0
 40
24.0
 40
25.0
 40
25.0
 40
25.0
 40
26.0
 40
26.0
 40
26.0
 40
27.0
 40
27.0
 40
27.0
 40
28.0
 40
28.0
 40
28.0
 40
29.0
 40
29.0
 40
29.0
 40
30.0
 40
30.0
 40
30.0
 40
31.0
 40
31.0
 40
31.0
 40
32.0
 40
32.0
 40
32.0
 40
33.0
 40
33.0
 40
33.0
 40
33.0
 10
197.9635854070977
 20
15.53945794706199
 10
197.9635854070977
 20
15.53945794706199
 10
198.1268830408251
 20
15.53945794706199
 10
198.1268830408251
 20
15.53945794706199
 10
198.1268830408251
 20
15.53945794706199
 10
198.0445452044098
 20
15.27108483171678
 10
198.0445452044098
 20
15.27108483171678
 10
198.1158587279996
 20
15.38339501862633
 10
198.1809710756251
 20
15.43369344589257
 10
198.265720480471
 20
15.49777226419066
 10
198.35184792442
 20
15.56219559226454
 10
198.4538228180557
 20
15.57528696374479
 10
198.5241028123181
 20
15.57528696374479
 10
198.6119528051461
 20
15.57528696374479
 10
198.696702209992
 20
15.55806147495499
 10
198.7411439710697
 20
15.46194324750785
 10
198.7749059290977
 20
15.38649560660849
 10
198.7762839682009
 20
15.37822737198939
 10
198.7666376944786
 20
15.22939914884544
 10
198.8558657264098
 20
15.38201697952314
 10
198.9213225838111
 20
15.44747383692441
 10
199.032943751169
 20
15.50983010634352
 10
199.1507660944913
 20
15.57528696374479
 10
199.218979030099
 20
15.58011010060594
 10
199.2978717687563
 20
15.56874127800467
 10
199.415005092527
 20
15.55117127943906
 10
199.4901082236505
 20
15.50914108679193
 10
199.5286933185397
 20
15.38270599907474
 10
199.5676229232047
 20
15.25627091135754
 10
199.5466078268811
 20
15.1877134659741
 10
199.4987209680455
 20
14.98720877646073
 10
199.4759833228429
 20
14.89591368587475
 10
199.4442884234697
 20
14.78429251851679
 10
199.4026027405983
 20
14.65200076461106
 10
199.4026027405983
 20
14.65200076461106
 10
199.032943751169
 20
13.47618889981874
 10
199.032943751169
 20
13.47618889981874
 10
199.032943751169
 20
13.47618889981874
 10
198.8410518060506
 20
13.47618889981874
 10
198.8410518060506
 20
13.47618889981874
 10
198.8410518060506
 20
13.47618889981874
 10
199.1642019757474
 20
14.5045505805703
 10
199.1642019757474
 20
14.5045505805703
 10
199.2320704015792
 20
14.71952468066711
 10
199.2775456919843
 20
14.87696564820596
 10
199.30166137629
 20
14.97480642453207
 10
199.3309447072327
 20
15.0977964144913
 10
199.3430025493856
 20
15.13879307781105
 10
199.328877648578
 20
15.22767659996646
 10
199.3157862770977
 20
15.31104796570913
 10
199.2737560844506
 20
15.36548051028493
 10
199.2017535413092
 20
15.36548051028493
 10
199.1252723710824
 20
15.36548051028493
 10
199.0629161016633
 20
15.35652325611423
 10
198.9760996381627
 20
15.2693622828378
 10
198.889283174662
 20
15.18151229000977
 10
198.8172806315206
 20
15.07815935727092
 10
198.7604365185143
 20
14.95895897484545
 10
198.7046259348353
 20
14.83941408264418
 10
198.6474373120531
 20
14.68817429106966
 10
198.5899041794952
 20
14.5045505805703
 10
198.5899041794952
 20
14.5045505805703
 10
198.265720480471
 20
13.47618889981874
 10
198.265720480471
 20
13.47618889981874
 10
198.265720480471
 20
13.47618889981874
 10
198.0851973579538
 20
13.47618889981874
 10
198.0851973579538
 20
13.47618889981874
 10
198.0851973579538
 20
13.47618889981874
 10
198.4552008571589
 20
14.65200076461106
 10
198.4552008571589
 20
14.65200076461106
 10
198.4944749715996
 20
14.77671330344927
 10
198.5237583025423
 20
14.87937721663653
 10
198.5430508499869
 20
14.95826995529385
 10
198.5761237884633
 20
15.09538484606073
 10
198.585081042634
 20
15.18874699530149
 10
198.5606208485525
 20
15.27108483171678
 10
198.5354716349194
 20
15.35273364858047
 10
198.4927524227207
 20
15.37374874490403
 10
198.4207498795792
 20
15.37374874490403
 10
198.3608051785907
 20
15.37374874490403
 10
198.3025830264812
 20
15.34791051171932
 10
198.2350591104251
 20
15.29657855512569
 10
198.1509987251308
 20
15.23181071727601
 10
198.116892257327
 20
15.1791007215792
 10
198.0755510842315
 20
15.1160554326085
 10
198.0197405005525
 20
15.03233955709003
 10
197.993557757592
 20
14.97618446363526
 10
197.9460154085321
 20
14.85284996390023
 10
197.8995065887997
 20
14.7291709543894
 10
197.8543758081703
 20
14.58447684855501
 10
197.8233699283487
 20
14.48491352334992
 10
197.8233699283487
 20
14.48491352334992
 10
197.5064209346162
 20
13.47618889981874
 10
197.5064209346162
 20
13.47618889981874
 10
197.5064209346162
 20
13.47618889981874
 10
197.3165960481525
 20
13.47618889981874
 10
197.3165960481525
 20
13.47618889981874
 10
197.3165960481525
 20
13.47618889981874
 10
197.9635854070977
 20
15.53945794706199
 10
197.9635854070977
 20
15.53945794706199
 97
        0
 75
     2
 76
     1
 98
        0
  0
SPLINE
  5
40B7
330
40AF
100
AcDbEntity
  8
main
370
     0
100
AcDbSpline
210
0.0
220
0.0
230
1.0
 70
    11
 71
     3
 72
    29
 73
    25
 74
     0
 42
0.000000001
 43
0.0000000001
 40
0.0
 40
0.0
 40
0.0
 40
0.0
 40
1.0
 40
1.0
 40
1.0
 40
2.0
 40
2.0
 40
2.0
 40
3.0
 40
3.0
 40
3.0
 40
4.0
 40
4.0
 40
4.0
 40
5.0
 40
5.0
 40
5.0
 40
6.0
 40
6.0
 40
6.0
 40
7.0
 40
7.0
 40
7.0
 40
8.0
 40
8.0
 40
8.0
 40
8.0
 10
195.0438650572252
 20
13.86066180960726
 30
0.0
 10
195.0431760376736
 20
14.00363336656267
 30
0.0
 10
195.0883068183029
 20
14.25891511042763
 30
0.0
 10
195.204751122522
 20
14.60066880801743
 30
0.0
 10
195.3628811096125
 20
15.06265641736009
 30
0.0
 10
195.4576212979564
 20
15.23181071727601
 30
0.0
 10
195.5409926636991
 20
15.3141485536913
 30
0.0
 10
195.6622601047793
 20
15.43403795566836
 30
0.0
 10
195.8252132287309
 20
15.4398946218569
 30
0.0
 10
195.8734445973424
 20
15.43403795566836
 30
0.0
 10
195.94165753295
 20
15.42645874060085
 30
0.0
 10
196.038120270173
 20
15.38098345019575
 30
0.0
 10
196.0443214461373
 20
15.23008816839703
 30
0.0
 10
196.0494890927742
 20
15.10089700247347
 30
0.0
 10
196.0115930174366
 20
14.85870663008876
 30
0.0
 10
195.8817128319615
 20
14.47974587671298
 30
0.0
 10
195.7311620599386
 20
14.03911787346968
 30
0.0
 10
195.6412450084557
 20
13.86514043669261
 30
0.0
 10
195.5692424653143
 20
13.78969279579325
 30
0.0
 10
195.4328165940991
 20
13.64809927794103
 30
0.0
 10
195.2867444491615
 20
13.66187966897287
 30
0.0
 10
195.2653848430621
 20
13.66187966897287
 30
0.0
 10
195.2371350414468
 20
13.66187966897287
 30
0.0
 10
195.044209567001
 20
13.69219652924293
 30
0.0
 10
195.0438650572252
 20
13.86066180960726
 30
0.0
  0
SPLINE
  5
40B8
330
40AF
100
AcDbEntity
  8
main
370
     0
100
AcDbSpline
210
0.0
220
0.0
230
1.0
 70
    11
 71
     3
 72
    32
 73
    28
 74
     0
 42
0.000000001
 43
0.0000000001
 40
0.0
 40
0.0
 40
0.0
 40
0.0
 40
1.0
 40
1.0
 40
1.0
 40
2.0
 40
2.0
 40
2.0
 40
3.0
 40
3.0
 40
3.0
 40
4.0
 40
4.0
 40
4.0
 40
5.0
 40
5.0
 40
5.0
 40
6.0
 40
6.0
 40
6.0
 40
7.0
 40
7.0
 40
7.0
 40
8.0
 40
8.0
 40
8.0
 40
9.0
 40
9.0
 40
9.0
 40
9.0
 10
195.3966430676405
 20
15.4305928579104
 30
0.0
 10
195.2867444491615
 20
15.28865483028238
 30
0.0
 10
195.2026840638672
 20
15.160841703462
 30
0.0
 10
195.0655691731004
 20
14.75948781465947
 30
0.0
 10
194.9398231049348
 20
14.39189588388495
 30
0.0
 10
194.85989683695
 20
14.12490080764292
 30
0.0
 10
194.8474944850214
 20
13.79968357929134
 30
0.0
 10
194.8381927210749
 20
13.55749320690663
 30
0.0
 10
194.9856429051156
 20
13.47618889981874
 30
0.0
 10
195.2023395540914
 20
13.47618889981874
 30
0.0
 10
195.2953571935564
 20
13.47618889981874
 30
0.0
 10
195.5306573704252
 20
13.48204556600727
 30
0.0
 10
195.6974001019105
 20
13.68909594126077
 30
0.0
 10
195.814877935457
 20
13.83482357642255
 30
0.0
 10
195.923054005057
 20
13.98537434844547
 30
0.0
 10
196.0680926206672
 20
14.47974587671298
 30
0.0
 10
196.1886710421959
 20
14.89350211744418
 30
0.0
 10
196.2716978981628
 20
15.16015268391041
 30
0.0
 10
196.2658412319742
 20
15.31242600481232
 30
0.0
 10
196.2658412319742
 20
15.31242600481232
 30
0.0
 10
196.2658412319742
 20
15.31242600481232
 30
0.0
 10
196.2658412319742
 20
15.31242600481232
 30
0.0
 10
196.2262226077576
 20
15.5659851997983
 30
0.0
 10
196.0419098777067
 20
15.6193842150467
 30
0.0
 10
195.9364898863131
 20
15.6193842150467
 30
0.0
 10
195.83348146335
 20
15.6193842150467
 30
0.0
 10
195.5551175645067
 20
15.6376432331639
 30
0.0
 10
195.3966430676405
 20
15.4305928579104
 30
0.0
  0
HATCH
  5
40B9
330
40AF
100
AcDbEntity
  8
main
 62
    29
100
AcDbHatch
 10
0.0
 20
0.0
 30
0.0
210
0.0
220
0.0
230
1.0
  2
SOLID
 70
     1
 71
     0
 91
        2
 92
        1
 93
        1
 72
     4
 94
        3
 73
     0
 74
     1
 95
       29
 96
       25
 40
0.0
 40
0.0
 40
0.0
 40
0.0
 40
1.0
 40
1.0
 40
1.0
 40
2.0
 40
2.0
 40
2.0
 40
3.0
 40
3.0
 40
3.0
 40
4.0
 40
4.0
 40
4.0
 40
5.0
 40
5.0
 40
5.0
 40
6.0
 40
6.0
 40
6.0
 40
7.0
 40
7.0
 40
7.0
 40
8.0
 40
8.0
 40
8.0
 40
8.0
 10
195.0438650572252
 20
13.86066180960726
 10
195.0431760376736
 20
14.00363336656267
 10
195.0883068183029
 20
14.25891511042763
 10
195.204751122522
 20
14.60066880801743
 10
195.3628811096125
 20
15.06265641736009
 10
195.4576212979564
 20
15.23181071727601
 10
195.5409926636991
 20
15.3141485536913
 10
195.6622601047793
 20
15.43403795566836
 10
195.8252132287309
 20
15.4398946218569
 10
195.8734445973424
 20
15.43403795566836
 10
195.94165753295
 20
15.42645874060085
 10
196.038120270173
 20
15.38098345019575
 10
196.0443214461373
 20
15.23008816839703
 10
196.0494890927742
 20
15.10089700247347
 10
196.0115930174366
 20
14.85870663008876
 10
195.8817128319615
 20
14.47974587671298
 10
195.7311620599386
 20
14.03911787346968
 10
195.6412450084557
 20
13.86514043669261
 10
195.5692424653143
 20
13.78969279579325
 10
195.4328165940991
 20
13.64809927794103
 10
195.2867444491615
 20
13.66187966897287
 10
195.2653848430621
 20
13.66187966897287
 10
195.2371350414468
 20
13.66187966897287
 10
195.044209567001
 20
13.69219652924293
 10
195.0438650572252
 20
13.86066180960726
 97
        0
 92
        1
 93
        1
 72
     4
 94
        3
 73
     0
 74
     1
 95
       32
 96
       28
 40
0.0
 40
0.0
 40
0.0
 40
0.0
 40
1.0
 40
1.0
 40
1.0
 40
2.0
 40
2.0
 40
2.0
 40
3.0
 40
3.0
 40
3.0
 40
4.0
 40
4.0
 40
4.0
 40
5.0
 40
5.0
 40
5.0
 40
6.0
 40
6.0
 40
6.0
 40
7.0
 40
7.0
 40
7.0
 40
8.0
 40
8.0
 40
8.0
 40
9.0
 40
9.0
 40
9.0
 40
9.0
 10
195.3966430676405
 20
15.4305928579104
 10
195.2867444491615
 20
15.28865483028238
 10
195.2026840638672
 20
15.160841703462
 10
195.0655691731004
 20
14.75948781465947
 10
194.9398231049348
 20
14.39189588388495
 10
194.85989683695
 20
14.12490080764292
 10
194.8474944850214
 20
13.79968357929134
 10
194.8381927210749
 20
13.55749320690663
 10
194.9856429051156
 20
13.47618889981874
 10
195.2023395540914
 20
13.47618889981874
 10
195.2953571935564
 20
13.47618889981874
 10
195.5306573704252
 20
13.48204556600727
 10
195.6974001019105
 20
13.68909594126077
 10
195.814877935457
 20
13.83482357642255
 10
195.923054005057
 20
13.98537434844547
 10
196.0680926206672
 20
14.47974587671298
 10
196.1886710421959
 20
14.89350211744418
 10
196.2716978981628
 20
15.16015268391041
 10
196.2658412319742
 20
15.31242600481232
 10
196.2658412319742
 20
15.31242600481232
 10
196.2658412319742
 20
15.31242600481232
 10
196.2658412319742
 20
15.31242600481232
 10
196.2262226077576
 20
15.5659851997983
 10
196.0419098777067
 20
15.6193842150467
 10
195.9364898863131
 20
15.6193842150467
 10
195.83348146335
 20
15.6193842150467
 10
195.5551175645067
 20
15.6376432331639
 10
195.3966430676405
 20
15.4305928579104
 97
        0
 75
     2
 76
     1
 98
        0
  0
ENDBLK
  5
40BA
330
40AF
100
AcDbEntity
  8
0
100
AcDbBlockEnd
  0
BLOCK
  5
40C8
330
40C7
100
AcDbEntity
  8
0
100
AcDbBlockBegin
  2
block 7
 70
     0
 10
0.0
 20
0.0
 30
0.0
  3
block 7
  1

  0
POLYLINE
  5
40C9
330
40C7
100
AcDbEntity
  8
main
 62
    29
370
     9
100
AcDb2dPolyline
 66
     1
 10
0.0
 20
0.0
 30
0.0
  0
VERTEX
  5
40CA
330
40C9
100
AcDbEntity
  8
main
 62
    29
370
     9
100
AcDbVertex
100
AcDb2dVertex
 10
201.3666529724123
 20
181.5027360646689
 30
0.0
  0
VERTEX
  5
40CB
330
40C9
100
AcDbEntity
  8
main
 62
    29
370
     9
100
AcDbVertex
100
AcDb2dVertex
 10
188.2263611039948
 20
181.5027360646689
 30
0.0
  0
SEQEND
  5
40CC
330
40C9
100
AcDbEntity
  8
main
370
     9
  0
POLYLINE
  5
40CD
330
40C7
100
AcDbEntity
  8
main
 62
    29
370
     9
100
AcDb2dPolyline
 66
     1
 10
0.0
 20
0.0
 30
0.0
  0
VERTEX
  5
40CE
330
40CD
100
AcDbEntity
  8
main
 62
    29
370
     9
100
AcDbVertex
100
AcDb2dVertex
 10
188.2263611039948
 20
181.5027360646689
 30
0.0
  0
VERTEX
  5
40CF
330
40CD
100
AcDbEntity
  8
main
 62
    29
370
     9
100
AcDbVertex
100
AcDb2dVertex
 10
184.7833304046879
 20
189.0602470163094
 30
0.0
  0
SEQEND
  5
40D0
330
40CD
100
AcDbEntity
  8
main
370
     9
  0
ENDBLK
  5
40D1
330
40C7
100
AcDbEntity
  8
0
100
AcDbBlockEnd
  0
BLOCK
  5
40D4
330
40D3
100
AcDbEntity
  8
0
100
AcDbBlockBegin
  2
block 8
 70
     0
 10
0.0
 20
0.0
 30
0.0
  3
block 8
  1

  0
POLYLINE
  5
40D5
330
40D3
100
AcDbEntity
  8
main
 62
    29
370
    18
100
AcDb2dPolyline
 66
     1
 10
0.0
 20
0.0
 30
0.0
  0
VERTEX
  5
40D6
330
40D5
100
AcDbEntity
  8
main
 62
    29
370
    18
100
AcDbVertex
100
AcDb2dVertex
 10
182.9050631070472
 20
189.0893580923642
 30
0.0
  0
VERTEX
  5
40D7
330
40D5
100
AcDbEntity
  8
main
 62
    29
370
    18
100
AcDbVertex
100
AcDb2dVertex
 10
190.8639279474903
 20
189.0294133913757
 30
0.0
  0
VERTEX
  5
40D8
330
40D5
100
AcDbEntity
  8
main
 62
    29
370
    18
100
AcDbVertex
100
AcDb2dVertex
 10
191.1123194958393
 20
189.3258640534483
 30
0.0
  0
VERTEX
  5
40D9
330
40D5
100
AcDbEntity
  8
main
 62
    29
370
    18
100
AcDbVertex
100
AcDb2dVertex
 10
190.8684065745756
 20
189.6250707937272
 30
0.0
  0
VERTEX
  5
40DA
330
40D5
100
AcDbEntity
  8
main
 62
    29
370
    18
100
AcDbVertex
100
AcDb2dVertex
 10
182.9095417341325
 20
189.68467098494
 30
0.0
  0
SEQEND
  5
40DB
330
40D5
100
AcDbEntity
  8
main
370
    18
  0
POLYLINE
  5
40DC
330
40D3
100
AcDbEntity
  8
main
 62
    29
370
    18
100
AcDb2dPolyline
 66
     1
 10
0.0
 20
0.0
 30
0.0
  0
VERTEX
  5
40DD
330
40DC
100
AcDbEntity
  8
main
 62
    29
370
    18
100
AcDbVertex
100
AcDb2dVertex
 10
190.5941767930419
 20
189.8548588141833
 30
0.0
  0
VERTEX
  5
40DE
330
40DC
100
AcDbEntity
  8
main
 62
    29
370
    18
100
AcDbVertex
100
AcDb2dVertex
 10
190.1583719266597
 20
188.859914581684
 30
0.0
  0
SEQEND
  5
40DF
330
40DC
100
AcDbEntity
  8
main
370
    18
  0
POLYLINE
  5
40E0
330
40D3
100
AcDbEntity
  8
main
 62
    29
370
    18
100
AcDb2dPolyline
 66
     1
 10
0.0
 20
0.0
 30
0.0
  0
VERTEX
  5
40E1
330
40E0
100
AcDbEntity
  8
main
 62
    29
370
    18
100
AcDbVertex
100
AcDb2dVertex
 10
189.8610599901476
 20
189.8603709705961
 30
0.0
  0
VERTEX
  5
40E2
330
40E0
100
AcDbEntity
  8
main
 62
    29
370
    18
100
AcDbVertex
100
AcDb2dVertex
 10
189.4249106139897
 20
188.8654267380967
 30
0.0
  0
SEQEND
  5
40E3
330
40E0
100
AcDbEntity
  8
main
370
    18
  0
POLYLINE
  5
40E4
330
40D3
100
AcDbEntity
  8
main
 62
    29
370
    18
100
AcDb2dPolyline
 66
     1
 10
0.0
 20
0.0
 30
0.0
  0
VERTEX
  5
40E5
330
40E4
100
AcDbEntity
  8
main
 62
    29
370
    18
100
AcDbVertex
100
AcDb2dVertex
 10
189.1275986774776
 20
189.8658831270088
 30
0.0
  0
VERTEX
  5
40E6
330
40E4
100
AcDbEntity
  8
main
 62
    29
370
    18
100
AcDbVertex
100
AcDb2dVertex
 10
188.6917938110954
 20
188.8709388945094
 30
0.0
  0
SEQEND
  5
40E7
330
40E4
100
AcDbEntity
  8
main
370
    18
  0
POLYLINE
  5
40E8
330
40D3
100
AcDbEntity
  8
main
 62
    29
370
    18
100
AcDb2dPolyline
 66
     1
 10
0.0
 20
0.0
 30
0.0
  0
VERTEX
  5
40E9
330
40E8
100
AcDbEntity
  8
main
 62
    29
370
    18
100
AcDbVertex
100
AcDb2dVertex
 10
188.3941373648075
 20
189.8713952834215
 30
0.0
  0
VERTEX
  5
40EA
330
40E8
100
AcDbEntity
  8
main
 62
    29
370
    18
100
AcDbVertex
100
AcDb2dVertex
 10
187.9583324984254
 20
188.8764510509222
 30
0.0
  0
SEQEND
  5
40EB
330
40E8
100
AcDbEntity
  8
main
370
    18
  0
POLYLINE
  5
40EC
330
40D3
100
AcDbEntity
  8
main
 62
    29
370
    18
100
AcDb2dPolyline
 66
     1
 10
0.0
 20
0.0
 30
0.0
  0
VERTEX
  5
40ED
330
40EC
100
AcDbEntity
  8
main
 62
    29
370
    18
100
AcDbVertex
100
AcDb2dVertex
 10
187.6610205619133
 20
189.8770796947221
 30
0.0
  0
VERTEX
  5
40EE
330
40EC
100
AcDbEntity
  8
main
 62
    29
370
    18
100
AcDbVertex
100
AcDb2dVertex
 10
187.2252156955311
 20
188.8819632073349
 30
0.0
  0
SEQEND
  5
40EF
330
40EC
100
AcDbEntity
  8
main
370
    18
  0
POLYLINE
  5
40F0
330
40D3
100
AcDbEntity
  8
main
 62
    29
370
    18
100
AcDb2dPolyline
 66
     1
 10
0.0
 20
0.0
 30
0.0
  0
VERTEX
  5
40F1
330
40F0
100
AcDbEntity
  8
main
 62
    29
370
    18
100
AcDbVertex
100
AcDb2dVertex
 10
186.9275592492432
 20
189.8825918511349
 30
0.0
  0
VERTEX
  5
40F2
330
40F0
100
AcDbEntity
  8
main
 62
    29
370
    18
100
AcDbVertex
100
AcDb2dVertex
 10
186.4917543828611
 20
188.8874753637477
 30
0.0
  0
SEQEND
  5
40F3
330
40F0
100
AcDbEntity
  8
main
370
    18
  0
POLYLINE
  5
40F4
330
40D3
100
AcDbEntity
  8
main
 62
    29
370
    18
100
AcDb2dPolyline
 66
     1
 10
0.0
 20
0.0
 30
0.0
  0
VERTEX
  5
40F5
330
40F4
100
AcDbEntity
  8
main
 62
    29
370
    18
100
AcDbVertex
100
AcDb2dVertex
 10
186.194442446349
 20
189.8881040075476
 30
0.0
  0
VERTEX
  5
40F6
330
40F4
100
AcDbEntity
  8
main
 62
    29
370
    18
100
AcDbVertex
100
AcDb2dVertex
 10
185.7586375799669
 20
188.8928152652725
 30
0.0
  0
SEQEND
  5
40F7
330
40F4
100
AcDbEntity
  8
main
370
    18
  0
POLYLINE
  5
40F8
330
40D3
100
AcDbEntity
  8
main
 62
    29
370
    18
100
AcDb2dPolyline
 66
     1
 10
0.0
 20
0.0
 30
0.0
  0
VERTEX
  5
40F9
330
40F8
100
AcDbEntity
  8
main
 62
    29
370
    18
100
AcDbVertex
100
AcDb2dVertex
 10
185.4613256434548
 20
189.8936161639604
 30
0.0
  0
VERTEX
  5
40FA
330
40F8
100
AcDbEntity
  8
main
 62
    29
370
    18
100
AcDbVertex
100
AcDb2dVertex
 10
185.0255207770726
 20
188.8983274216853
 30
0.0
  0
SEQEND
  5
40FB
330
40F8
100
AcDbEntity
  8
main
370
    18
  0
POLYLINE
  5
40FC
330
40D3
100
AcDbEntity
  8
main
 62
    29
370
    18
100
AcDb2dPolyline
 66
     1
 10
0.0
 20
0.0
 30
0.0
  0
VERTEX
  5
40FD
330
40FC
100
AcDbEntity
  8
main
 62
    29
370
    18
100
AcDbVertex
100
AcDb2dVertex
 10
184.7282088405605
 20
189.8991283203731
 30
0.0
  0
VERTEX
  5
40FE
330
40FC
100
AcDbEntity
  8
main
 62
    29
370
    18
100
AcDbVertex
100
AcDb2dVertex
 10
184.2924039741784
 20
188.9040118329859
 30
0.0
  0
SEQEND
  5
40FF
330
40FC
100
AcDbEntity
  8
main
370
    18
  0
POLYLINE
  5
4100
330
40D3
100
AcDbEntity
  8
main
 62
    29
370
    18
100
AcDb2dPolyline
 66
     1
 10
0.0
 20
0.0
 30
0.0
  0
VERTEX
  5
4101
330
4100
100
AcDbEntity
  8
main
 62
    29
370
    18
100
AcDbVertex
100
AcDb2dVertex
 10
183.9947475278905
 20
189.9046404767859
 30
0.0
  0
VERTEX
  5
4102
330
4100
100
AcDbEntity
  8
main
 62
    29
370
    18
100
AcDbVertex
100
AcDb2dVertex
 10
183.5589426615083
 20
188.9095239893986
 30
0.0
  0
SEQEND
  5
4103
330
4100
100
AcDbEntity
  8
main
370
    18
  0
ENDBLK
  5
4104
330
40D3
100
AcDbEntity
  8
0
100
AcDbBlockEnd
  0
BLOCK
  5
4107
330
4106
100
AcDbEntity
  8
0
100
AcDbBlockBegin
  2
block 9
 70
     0
 10
0.0
 20
0.0
 30
0.0
  3
block 9
  1

  0
POLYLINE
  5
4108
330
4106
100
AcDbEntity
  8
main
 62
    29
370
    18
100
AcDb2dPolyline
 66
     1
 10
0.0
 20
0.0
 30
0.0
  0
VERTEX
  5
4109
330
4108
100
AcDbEntity
  8
main
 62
    29
370
    18
100
AcDbVertex
100
AcDb2dVertex
 10
15.11657219727219
 20
188.298708156912
 30
0.0
  0
VERTEX
  5
410A
330
4108
100
AcDbEntity
  8
main
 62
    29
370
    18
100
AcDbVertex
100
AcDb2dVertex
 10
15.11657219727219
 20
190.4701532737553
 30
0.0
  0
SEQEND
  5
410B
330
4108
100
AcDbEntity
  8
main
370
    18
  0
POLYLINE
  5
410C
330
4106
100
AcDbEntity
  8
main
 62
    29
370
    18
100
AcDb2dPolyline
 66
     1
 10
0.0
 20
0.0
 30
0.0
  0
VERTEX
  5
410D
330
410C
100
AcDbEntity
  8
main
 62
    29
370
    18
100
AcDbVertex
100
AcDb2dVertex
 10
14.03084963885057
 20
189.3846029702215
 30
0.0
  0
VERTEX
  5
410E
330
410C
100
AcDbEntity
  8
main
 62
    29
370
    18
100
AcDbVertex
100
AcDb2dVertex
 10
16.20212250080592
 20
189.3846029702215
 30
0.0
  0
SEQEND
  5
410F
330
410C
100
AcDbEntity
  8
main
370
    18
  0
ENDBLK
  5
4110
330
4106
100
AcDbEntity
  8
0
100
AcDbBlockEnd
  0
BLOCK
  5
4113
330
4112
100
AcDbEntity
  8
0
100
AcDbBlockBegin
  2
block 10
 70
     0
 10
0.0
 20
0.0
 30
0.0
  3
block 10
  1

  0
POLYLINE
  5
4114
330
4112
100
AcDbEntity
  8
main
 62
    29
370
    18
100
AcDb2dPolyline
 66
     1
 10
0.0
 20
0.0
 30
0.0
  0
VERTEX
  5
4115
330
4114
100
AcDbEntity
  8
main
 62
    29
370
    18
100
AcDbVertex
100
AcDb2dVertex
 10
150.7774594553997
 20
188.298708156912
 30
0.0
  0
VERTEX
  5
4116
330
4114
100
AcDbEntity
  8
main
 62
    29
370
    18
100
AcDbVertex
100
AcDb2dVertex
 10
150.7774594553997
 20
190.4701532737553
 30
0.0
  0
SEQEND
  5
4117
330
4114
100
AcDbEntity
  8
main
370
    18
  0
POLYLINE
  5
4118
330
4112
100
AcDbEntity
  8
main
 62
    29
370
    18
100
AcDb2dPolyline
 66
     1
 10
0.0
 20
0.0
 30
0.0
  0
VERTEX
  5
4119
330
4118
100
AcDbEntity
  8
main
 62
    29
370
    18
100
AcDbVertex
100
AcDb2dVertex
 10
149.6919091518659
 20
189.3846029702215
 30
0.0
  0
VERTEX
  5
411A
330
4118
100
AcDbEntity
  8
main
 62
    29
370
    18
100
AcDbVertex
100
AcDb2dVertex
 10
151.8630097589334
 20
189.3846029702215
 30
0.0
  0
SEQEND
  5
411B
330
4118
100
AcDbEntity
  8
main
370
    18
  0
ENDBLK
  5
411C
330
4112
100
AcDbEntity
  8
0
100
AcDbBlockEnd
  0
BLOCK
  5
4164
330
4163
100
AcDbEntity
  8
0
100
AcDbBlockBegin
  2
block 11
 70
     0
 10
0.0
 20
0.0
 30
0.0
  3
block 11
  1

  0
MTEXT
  5
4165
330
4163
100
AcDbEntity
  8
main
 62
    29
100
AcDbMText
 10
83.8722829566805
 20
147.0181687819119
 30
0.0
 40
2.159001423741495
 41
0.0
 46
0.0
 71
     7
 72
     1
  1
\fMS Gothic|b0|i0|c0|p34;\W1;φ14
 73
     1
 44
1.0
  0
POLYLINE
  5
4166
330
4163
100
AcDbEntity
  8
main
 62
    29
370
    18
100
AcDb2dPolyline
 66
     1
 10
0.0
 20
0.0
 30
0.0
  0
VERTEX
  5
4167
330
4166
100
AcDbEntity
  8
main
 62
    29
370
    18
100
AcDbVertex
100
AcDb2dVertex
 10
77.38464711377493
 20
143.4865990702253
 30
0.0
  0
VERTEX
  5
4168
330
4166
100
AcDbEntity
  8
main
 62
    29
370
    18
100
AcDbVertex
100
AcDb2dVertex
 10
82.17057691913531
 20
148.272012110922
 30
0.0
  0
SEQEND
  5
4169
330
4166
100
AcDbEntity
  8
main
370
    18
  0
POLYLINE
  5
416A
330
4163
100
AcDbEntity
  8
main
 62
    29
370
    18
100
AcDb2dPolyline
 66
     1
 10
0.0
 20
0.0
 30
0.0
  0
VERTEX
  5
416B
330
416A
100
AcDbEntity
  8
main
 62
    29
370
    18
100
AcDbVertex
100
AcDb2dVertex
 10
82.17057691913531
 20
148.272012110922
 30
0.0
  0
VERTEX
  5
416C
330
416A
100
AcDbEntity
  8
main
 62
    29
370
    18
100
AcDbVertex
100
AcDb2dVertex
 10
83.8721107017926
 20
148.272012110922
 30
0.0
  0
SEQEND
  5
416D
330
416A
100
AcDbEntity
  8
main
370
    18
  0
ENDBLK
  5
416E
330
4163
100
AcDbEntity
  8
0
100
AcDbBlockEnd
  0
BLOCK
  5
417A
330
4179
100
AcDbEntity
  8
0
100
AcDbBlockBegin
  2
block 12
 70
     0
 10
0.0
 20
0.0
 30
0.0
  3
block 12
  1

  0
POLYLINE
  5
417B
330
4179
100
AcDbEntity
  8
main
 62
    29
370
    18
100
AcDb2dPolyline
 66
     1
 10
0.0
 20
0.0
 30
0.0
  0
VERTEX
  5
417C
330
417B
100
AcDbEntity
  8
main
 62
    29
370
    18
100
AcDbVertex
100
AcDb2dVertex
 10
153.5710892273308
 20
156.3287177276912
 30
0.0
  0
VERTEX
  5
417D
330
417B
100
AcDbEntity
  8
main
 62
    29
370
    18
100
AcDbVertex
100
AcDb2dVertex
 10
148.0678900687628
 20
156.3287177276912
 30
0.0
  0
VERTEX
  5
417E
330
417B
100
AcDbEntity
  8
main
 62
    29
370
    18
100
AcDbVertex
100
AcDb2dVertex
 10
148.0678900687628
 20
155.8510549235498
 30
0.0
  0
VERTEX
  5
417F
330
417B
100
AcDbEntity
  8
main
 62
    29
370
    18
100
AcDbVertex
100
AcDb2dVertex
 10
153.5710892273308
 20
155.8510549235498
 30
0.0
  0
VERTEX
  5
4180
330
417B
100
AcDbEntity
  8
main
 62
    29
370
    18
100
AcDbVertex
100
AcDb2dVertex
 10
153.5710892273308
 20
156.3287177276912
 30
0.0
  0
VERTEX
  5
4181
330
417B
100
AcDbEntity
  8
main
 62
    29
370
    18
100
AcDbVertex
100
AcDb2dVertex
 10
153.5710892273308
 20
156.3287177276912
 30
0.0
  0
SEQEND
  5
4182
330
417B
100
AcDbEntity
  8
main
370
    18
  0
POLYLINE
  5
4183
330
4179
100
AcDbEntity
  8
main
 62
    29
370
    18
100
AcDb2dPolyline
 66
     1
 10
0.0
 20
0.0
 30
0.0
  0
VERTEX
  5
4184
330
4183
100
AcDbEntity
  8
main
 62
    29
370
    18
100
AcDbVertex
100
AcDb2dVertex
 10
147.6575789257896
 20
143.713631012475
 30
0.0
  0
VERTEX
  5
4185
330
4183
100
AcDbEntity
  8
main
 62
    29
370
    18
100
AcDbVertex
100
AcDb2dVertex
 10
147.6575789257896
 20
155.8510549235498
 30
0.0
  0
VERTEX
  5
4186
330
4183
100
AcDbEntity
  8
main
 62
    29
370
    18
100
AcDbVertex
100
AcDb2dVertex
 10
147.6575789257896
 20
155.8510549235498
 30
0.0
  0
VERTEX
  5
4187
330
4183
100
AcDbEntity
  8
main
 62
    29
370
    18
100
AcDbVertex
100
AcDb2dVertex
 10
153.9803668409766
 20
155.8510549235498
 30
0.0
  0
VERTEX
  5
4188
330
4183
100
AcDbEntity
  8
main
 62
    29
370
    18
100
AcDbVertex
100
AcDb2dVertex
 10
153.9803668409766
 20
140.0704401334305
 30
0.0
  0
VERTEX
  5
4189
330
4183
100
AcDbEntity
  8
main
 62
    29
370
    18
100
AcDbVertex
100
AcDb2dVertex
 10
147.6575789257896
 20
140.0704401334305
 30
0.0
  0
VERTEX
  5
418A
330
4183
100
AcDbEntity
  8
main
 62
    29
370
    18
100
AcDbVertex
100
AcDb2dVertex
 10
147.6575789257896
 20
141.1849292581311
 30
0.0
  0
SEQEND
  5
418B
330
4183
100
AcDbEntity
  8
main
370
    18
  0
ENDBLK
  5
418C
330
4179
100
AcDbEntity
  8
0
100
AcDbBlockEnd
  0
BLOCK
  5
4191
330
4190
100
AcDbEntity
  8
0
100
AcDbBlockBegin
  2
block 13
 70
     0
 10
0.0
 20
0.0
 30
0.0
  3
block 13
  1

  0
POLYLINE
  5
4192
330
4190
100
AcDbEntity
  8
main
 62
    29
370
    18
100
AcDb2dPolyline
 66
     1
 10
0.0
 20
0.0
 30
0.0
  0
VERTEX
  5
4193
330
4192
100
AcDbEntity
  8
main
 62
    29
370
    18
100
AcDbVertex
100
AcDb2dVertex
 10
12.28160125224552
 20
156.3287177276912
 30
0.0
  0
VERTEX
  5
4194
330
4192
100
AcDbEntity
  8
main
 62
    29
370
    18
100
AcDbVertex
100
AcDb2dVertex
 10
17.78462815592562
 20
156.3287177276912
 30
0.0
  0
VERTEX
  5
4195
330
4192
100
AcDbEntity
  8
main
 62
    29
370
    18
100
AcDbVertex
100
AcDb2dVertex
 10
17.78462815592562
 20
155.8510549235498
 30
0.0
  0
VERTEX
  5
4196
330
4192
100
AcDbEntity
  8
main
 62
    29
370
    18
100
AcDbVertex
100
AcDb2dVertex
 10
12.28160125224552
 20
155.8510549235498
 30
0.0
  0
VERTEX
  5
4197
330
4192
100
AcDbEntity
  8
main
 62
    29
370
    18
100
AcDbVertex
100
AcDb2dVertex
 10
12.28160125224552
 20
156.3287177276912
 30
0.0
  0
VERTEX
  5
4198
330
4192
100
AcDbEntity
  8
main
 62
    29
370
    18
100
AcDbVertex
100
AcDb2dVertex
 10
12.28160125224552
 20
156.3287177276912
 30
0.0
  0
SEQEND
  5
4199
330
4192
100
AcDbEntity
  8
main
370
    18
  0
POLYLINE
  5
419A
330
4190
100
AcDbEntity
  8
main
 62
    29
370
    18
100
AcDb2dPolyline
 66
     1
 10
0.0
 20
0.0
 30
0.0
  0
VERTEX
  5
419B
330
419A
100
AcDbEntity
  8
main
 62
    29
370
    18
100
AcDbVertex
100
AcDb2dVertex
 10
18.19511155378676
 20
143.713631012475
 30
0.0
  0
VERTEX
  5
419C
330
419A
100
AcDbEntity
  8
main
 62
    29
370
    18
100
AcDbVertex
100
AcDb2dVertex
 10
18.19511155378676
 20
155.8510549235498
 30
0.0
  0
VERTEX
  5
419D
330
419A
100
AcDbEntity
  8
main
 62
    29
370
    18
100
AcDbVertex
100
AcDb2dVertex
 10
18.19511155378676
 20
155.8510549235498
 30
0.0
  0
VERTEX
  5
419E
330
419A
100
AcDbEntity
  8
main
 62
    29
370
    18
100
AcDbVertex
100
AcDb2dVertex
 10
11.87232363859967
 20
155.8510549235498
 30
0.0
  0
VERTEX
  5
419F
330
419A
100
AcDbEntity
  8
main
 62
    29
370
    18
100
AcDbVertex
100
AcDb2dVertex
 10
11.87232363859967
 20
140.0704401334305
 30
0.0
  0
VERTEX
  5
41A0
330
419A
100
AcDbEntity
  8
main
 62
    29
370
    18
100
AcDbVertex
100
AcDb2dVertex
 10
18.19511155378676
 20
140.0704401334305
 30
0.0
  0
VERTEX
  5
41A1
330
419A
100
AcDbEntity
  8
main
 62
    29
370
    18
100
AcDbVertex
100
AcDb2dVertex
 10
18.19511155378676
 20
141.1849292581311
 30
0.0
  0
SEQEND
  5
41A2
330
419A
100
AcDbEntity
  8
main
370
    18
  0
ENDBLK
  5
41A3
330
4190
100
AcDbEntity
  8
0
100
AcDbBlockEnd
  0
BLOCK
  5
42F9
330
42F8
100
AcDbEntity
  8
0
100
AcDbBlockBegin
  2
*D23
 70
     1
 10
0.0
 20
0.0
 30
0.0
  3
*D23
  1

  0
LINE
  5
42FB
330
42F8
100
AcDbEntity
  8
MODEL
 62
     0
 48
0.05
370
    -2
100
AcDbLine
 10
905.4770790949024
 20
381.4081344581648
 30
0.0
 11
905.4770790949024
 21
579.0135459610324
 31
0.0
  0
LINE
  5
42FC
330
42F8
100
AcDbEntity
  8
MODEL
 62
     0
 48
0.05
370
    -2
100
AcDbLine
 10
1505.477079086621
 20
381.4081344581648
 30
0.0
 11
1505.477079086621
 21
579.0135459610324
 31
0.0
  0
LINE
  5
42FD
330
42F8
100
AcDbEntity
  8
MODEL
 62
     0
 48
0.05
370
    -2
100
AcDbLine
 10
907.4770790949024
 20
579.0135459610324
 30
0.0
 11
1503.477079086621
 21
579.0135459610324
 31
0.0
  0
INSERT
  5
42FE
330
42F8
100
AcDbEntity
  8
MODEL
 62
     0
370
    -2
100
AcDbBlockReference
  2
_DOT
 10
905.4770790949024
 20
579.0135459610324
 30
0.0
 41
2.0
 42
2.0
 43
2.0
 50
180.0
  0
INSERT
  5
42FF
330
42F8
100
AcDbEntity
  8
MODEL
 62
     0
370
    -2
100
AcDbBlockReference
  2
_DOT
 10
1505.477079086621
 20
579.0135459610324
 30
0.0
 41
2.0
 42
2.0
 43
2.0
  0
MTEXT
  5
4300
330
42F8
100
AcDbEntity
  8
MODEL
 62
     0
 48
0.05
100
AcDbMText
 10
1205.477079090761
 20
584.5135459610324
 30
0.0
 40
5.0
 41
0.0
 46
0.0
 71
     5
 72
     1
  1
\A1;599.99999999
  7
ＭＳ ゴシック
 73
     1
 44
1.0
  0
POINT
  5
4301
330
42F8
100
AcDbEntity
  8
Defpoints
 62
     0
100
AcDbPoint
 10
905.4770790949024
 20
376.4081344581648
 30
0.0
  0
POINT
  5
4302
330
42F8
100
AcDbEntity
  8
Defpoints
 62
     0
100
AcDbPoint
 10
1505.477079086621
 20
376.4081344581648
 30
0.0
  0
POINT
  5
4303
330
42F8
100
AcDbEntity
  8
Defpoints
 62
     0
100
AcDbPoint
 10
1505.477079086621
 20
579.0135459610324
 30
0.0
  0
ENDBLK
  5
42FA
330
42F8
100
AcDbEntity
  8
0
100
AcDbBlockEnd
  0
BLOCK
  5
4308
330
4307
100
AcDbEntity
  8
0
100
AcDbBlockBegin
  2
*D24
 70
     1
 10
0.0
 20
0.0
 30
0.0
  3
*D24
  1

  0
LINE
  5
430A
330
4307
100
AcDbEntity
  8
DIM
 62
     0
 48
0.05
370
    -2
100
AcDbLine
 10
1516.976408025626
 20
311.2370234692152
 30
0.0
 11
1516.976408025626
 21
247.8682277998751
 31
0.0
  0
LINE
  5
430B
330
4307
100
AcDbEntity
  8
DIM
 62
     0
 48
0.05
370
    -2
100
AcDbLine
 10
1493.977750147613
 20
315.2821214412126
 30
0.0
 11
1493.977750147613
 21
247.8682277998751
 31
0.0
  0
LINE
  5
430C
330
4307
100
AcDbEntity
  8
DIM
 62
     0
 48
0.05
370
    -2
100
AcDbLine
 10
1514.976408025626
 20
247.8682277998751
 30
0.0
 11
1495.977750147613
 21
247.8682277998751
 31
0.0
  0
INSERT
  5
430D
330
4307
100
AcDbEntity
  8
DIM
 62
     0
370
    -2
100
AcDbBlockReference
  2
_DOT
 10
1516.976408025626
 20
247.8682277998751
 30
0.0
 41
2.0
 42
2.0
 43
2.0
  0
INSERT
  5
430E
330
4307
100
AcDbEntity
  8
DIM
 62
     0
370
    -2
100
AcDbBlockReference
  2
_DOT
 10
1493.977750147613
 20
247.8682277998751
 30
0.0
 41
2.0
 42
2.0
 43
2.0
 50
180.0
  0
MTEXT
  5
430F
330
4307
100
AcDbEntity
  8
DIM
 62
     0
 48
0.05
100
AcDbMText
 10
1505.47707908662
 20
253.3682277998751
 30
0.0
 40
5.0
 41
0.0
 46
0.0
 71
     5
 72
     1
  1
\A1;23
  7
ＭＳ ゴシック
 73
     1
 44
1.0
  0
POINT
  5
4310
330
4307
100
AcDbEntity
  8
Defpoints
 62
     0
100
AcDbPoint
 10
1516.976408025626
 20
316.2370234692152
 30
0.0
  0
POINT
  5
4311
330
4307
100
AcDbEntity
  8
Defpoints
 62
     0
100
AcDbPoint
 10
1493.977750147613
 20
320.2821214412126
 30
0.0
  0
POINT
  5
4312
330
4307
100
AcDbEntity
  8
Defpoints
 62
     0
100
AcDbPoint
 10
1493.977750147613
 20
247.8682277998751
 30
0.0
  0
ENDBLK
  5
4309
330
4307
100
AcDbEntity
  8
0
100
AcDbBlockEnd
  0
BLOCK
  5
4317
330
4316
100
AcDbEntity
  8
0
100
AcDbBlockBegin
  2
*D25
 70
     1
 10
0.0
 20
0.0
 30
0.0
  3
*D25
  1

  0
LINE
  5
4319
330
4316
100
AcDbEntity
  8
DIM
 62
     0
 48
0.05
370
    -2
100
AcDbLine
 10
1249.580159362601
 20
339.3789150604407
 30
0.0
 11
1249.580159362601
 21
305.0044707903965
 31
0.0
  0
LINE
  5
431A
330
4316
100
AcDbEntity
  8
DIM
 62
     0
 48
0.05
370
    -2
100
AcDbLine
 10
1277.546064138873
 20
339.3789150604407
 30
0.0
 11
1277.546064138873
 21
305.0044707903965
 31
0.0
  0
LINE
  5
431B
330
4316
100
AcDbEntity
  8
DIM
 62
     0
 48
0.05
370
    -2
100
AcDbLine
 10
1251.580159362601
 20
305.0044707903965
 30
0.0
 11
1275.546064138873
 21
305.0044707903965
 31
0.0
  0
INSERT
  5
431C
330
4316
100
AcDbEntity
  8
DIM
 62
     0
370
    -2
100
AcDbBlockReference
  2
_DOT
 10
1249.580159362601
 20
305.0044707903965
 30
0.0
 41
2.0
 42
2.0
 43
2.0
 50
180.0
  0
INSERT
  5
431D
330
4316
100
AcDbEntity
  8
DIM
 62
     0
370
    -2
100
AcDbBlockReference
  2
_DOT
 10
1277.546064138873
 20
305.0044707903965
 30
0.0
 41
2.0
 42
2.0
 43
2.0
  0
MTEXT
  5
431E
330
4316
100
AcDbEntity
  8
DIM
 62
     0
 48
0.05
100
AcDbMText
 10
1263.563111750737
 20
310.5044707903965
 30
0.0
 40
5.0
 41
0.0
 46
0.0
 71
     5
 72
     1
  1
\A1;%%c28
  7
ＭＳ ゴシック
 73
     1
 44
1.0
  0
POINT
  5
431F
330
4316
100
AcDbEntity
  8
Defpoints
 62
     0
100
AcDbPoint
 10
1249.580159362601
 20
344.3789150604407
 30
0.0
  0
POINT
  5
4320
330
4316
100
AcDbEntity
  8
Defpoints
 62
     0
100
AcDbPoint
 10
1277.546064138873
 20
344.3789150604407
 30
0.0
  0
POINT
  5
4321
330
4316
100
AcDbEntity
  8
Defpoints
 62
     0
100
AcDbPoint
 10
1277.546064138873
 20
305.0044707903965
 30
0.0
  0
ENDBLK
  5
4318
330
4316
100
AcDbEntity
  8
0
100
AcDbBlockEnd
  0
BLOCK
  5
4329
330
4328
100
AcDbEntity
  8
0
100
AcDbBlockBegin
  2
*D26
 70
     1
 10
0.0
 20
0.0
 30
0.0
  3
*D26
  1

  0
LINE
  5
432B
330
4328
100
AcDbEntity
  8
DIM
 62
     0
 48
0.05
370
    -2
100
AcDbLine
 10
1239.803326351184
 20
142.3856675731995
 30
0.0
 11
1282.777530888571
 21
142.3856675731995
 31
0.0
  0
LINE
  5
432C
330
4328
100
AcDbEntity
  8
DIM
 62
     0
 48
0.05
370
    -2
100
AcDbLine
 10
1241.311949075165
 20
131.2672624760844
 30
0.0
 11
1282.777530888571
 21
131.2672624760844
 31
0.0
  0
LINE
  5
432D
330
4328
100
AcDbEntity
  8
DIM
 62
     0
 48
0.05
370
    -2
100
AcDbLine
 10
1282.777530888571
 20
140.3856675731995
 30
0.0
 11
1282.777530888571
 21
133.2672624760844
 31
0.0
  0
INSERT
  5
432E
330
4328
100
AcDbEntity
  8
DIM
 62
     0
370
    -2
100
AcDbBlockReference
  2
_DOT
 10
1282.777530888571
 20
142.3856675731995
 30
0.0
 41
2.0
 42
2.0
 43
2.0
 50
90.0
  0
INSERT
  5
432F
330
4328
100
AcDbEntity
  8
DIM
 62
     0
370
    -2
100
AcDbBlockReference
  2
_DOT
 10
1282.777530888571
 20
131.2672624760844
 30
0.0
 41
2.0
 42
2.0
 43
2.0
 50
270.0
  0
MTEXT
  5
4330
330
4328
100
AcDbEntity
  8
DIM
 62
     0
 48
0.05
100
AcDbMText
 10
1277.277530888571
 20
136.8264650246419
 30
0.0
 40
5.0
 41
0.0
 46
0.0
 71
     5
 72
     1
  1
\A1;11
  7
ＭＳ ゴシック
 11
0.0
 21
1.0
 31
0.0
 73
     1
 44
1.0
  0
POINT
  5
4331
330
4328
100
AcDbEntity
  8
Defpoints
 62
     0
100
AcDbPoint
 10
1234.803326351184
 20
142.3856675731995
 30
0.0
  0
POINT
  5
4332
330
4328
100
AcDbEntity
  8
Defpoints
 62
     0
100
AcDbPoint
 10
1236.311949075165
 20
131.2672624760844
 30
0.0
  0
POINT
  5
4333
330
4328
100
AcDbEntity
  8
Defpoints
 62
     0
100
AcDbPoint
 10
1282.777530888571
 20
131.2672624760844
 30
0.0
  0
ENDBLK
  5
432A
330
4328
100
AcDbEntity
  8
0
100
AcDbBlockEnd
  0
BLOCK
  5
4338
330
4337
100
AcDbEntity
  8
0
100
AcDbBlockBegin
  2
*D27
 70
     1
 10
0.0
 20
0.0
 30
0.0
  3
*D27
  1

  0
LINE
  5
433A
330
4337
100
AcDbEntity
  8
DIM
 62
     0
 48
0.05
370
    -2
100
AcDbLine
 10
264.1717218979073
 20
357.5046717181518
 30
0.0
 11
237.8118974934736
 21
357.5046717181518
 31
0.0
  0
LINE
  5
433B
330
4337
100
AcDbEntity
  8
DIM
 62
     0
 48
0.05
370
    -2
100
AcDbLine
 10
260.3480083730045
 20
160.9107642036648
 30
0.0
 11
237.8118974934736
 21
160.9107642036648
 31
0.0
  0
LINE
  5
433C
330
4337
100
AcDbEntity
  8
DIM
 62
     0
 48
0.05
370
    -2
100
AcDbLine
 10
237.8118974934736
 20
355.5046717181518
 30
0.0
 11
237.8118974934736
 21
162.9107642036648
 31
0.0
  0
INSERT
  5
433D
330
4337
100
AcDbEntity
  8
DIM
 62
     0
370
    -2
100
AcDbBlockReference
  2
_DOT
 10
237.8118974934736
 20
357.5046717181518
 30
0.0
 41
2.0
 42
2.0
 43
2.0
 50
90.0
  0
INSERT
  5
433E
330
4337
100
AcDbEntity
  8
DIM
 62
     0
370
    -2
100
AcDbBlockReference
  2
_DOT
 10
237.8118974934736
 20
160.9107642036648
 30
0.0
 41
2.0
 42
2.0
 43
2.0
 50
270.0
  0
MTEXT
  5
433F
330
4337
100
AcDbEntity
  8
DIM
 62
     0
 48
0.05
100
AcDbMText
 10
232.3118974934736
 20
259.2077179609083
 30
0.0
 40
5.0
 41
0.0
 46
0.0
 71
     5
 72
     1
  1
\A1;600
  7
ＭＳ ゴシック
 11
0.0
 21
1.0
 31
0.0
 73
     1
 44
1.0
  0
POINT
  5
4340
330
4337
100
AcDbEntity
  8
Defpoints
 62
     0
100
AcDbPoint
 10
269.1717218979073
 20
357.5046717181518
 30
0.0
  0
POINT
  5
4341
330
4337
100
AcDbEntity
  8
Defpoints
 62
     0
100
AcDbPoint
 10
265.3480083730045
 20
160.9107642036648
 30
0.0
  0
POINT
  5
4342
330
4337
100
AcDbEntity
  8
Defpoints
 62
     0
100
AcDbPoint
 10
237.8118974934736
 20
160.9107642036648
 30
0.0
  0
ENDBLK
  5
4339
330
4337
100
AcDbEntity
  8
0
100
AcDbBlockEnd
  0
BLOCK
  5
434D
330
434C
100
AcDbEntity
  8
0
100
AcDbBlockBegin
  2
*D28
 70
     1
 10
0.0
 20
0.0
 30
0.0
  3
*D28
  1

  0
LINE
  5
434F
330
434C
100
AcDbEntity
  8
DIM
 62
     0
 48
0.05
370
    -2
100
AcDbLine
 10
65.45616684671461
 20
385.2694599461334
 30
0.0
 11
65.45616684671461
 21
402.1745162362236
 31
0.0
  0
LINE
  5
4350
330
434C
100
AcDbEntity
  8
DIM
 62
     0
 48
0.05
370
    -2
100
AcDbLine
 10
137.3631604804849
 20
385.2694599461334
 30
0.0
 11
137.3631604804849
 21
402.1745162362236
 31
0.0
  0
LINE
  5
4351
330
434C
100
AcDbEntity
  8
DIM
 62
     0
 48
0.05
370
    -2
100
AcDbLine
 10
67.45616684671461
 20
402.1745162362236
 30
0.0
 11
135.3631604804849
 21
402.1745162362236
 31
0.0
  0
INSERT
  5
4352
330
434C
100
AcDbEntity
  8
DIM
 62
     0
370
    -2
100
AcDbBlockReference
  2
_DOT
 10
65.45616684671461
 20
402.1745162362236
 30
0.0
 41
2.0
 42
2.0
 43
2.0
 50
180.0
  0
INSERT
  5
4353
330
434C
100
AcDbEntity
  8
DIM
 62
     0
370
    -2
100
AcDbBlockReference
  2
_DOT
 10
137.3631604804849
 20
402.1745162362236
 30
0.0
 41
2.0
 42
2.0
 43
2.0
  0
MTEXT
  5
4354
330
434C
100
AcDbEntity
  8
DIM
 62
     0
 48
0.05
100
AcDbMText
 10
101.4096636635998
 20
407.6745162362236
 30
0.0
 40
5.0
 41
0.0
 46
0.0
 71
     5
 72
     1
  1
\A1;72
  7
ＭＳ ゴシック
 73
     1
 44
1.0
  0
POINT
  5
4355
330
434C
100
AcDbEntity
  8
Defpoints
 62
     0
100
AcDbPoint
 10
65.45616684671461
 20
380.2694599461334
 30
0.0
  0
POINT
  5
4356
330
434C
100
AcDbEntity
  8
Defpoints
 62
     0
100
AcDbPoint
 10
137.3631604804849
 20
380.2694599461334
 30
0.0
  0
POINT
  5
4357
330
434C
100
AcDbEntity
  8
Defpoints
 62
     0
100
AcDbPoint
 10
137.3631604804849
 20
402.1745162362236
 30
0.0
  0
ENDBLK
  5
434E
330
434C
100
AcDbEntity
  8
0
100
AcDbBlockEnd
  0
BLOCK
  5
438F
330
438E
100
AcDbEntity
  8
0
100
AcDbBlockBegin
  2
*D29
 70
     1
 10
0.0
 20
0.0
 30
0.0
  3
*D29
  1

  0
LINE
  5
4391
330
438E
100
AcDbEntity
  8
DIM
 62
     0
 48
0.05
370
    -2
100
AcDbLine
 10
288.1531505906761
 20
343.5217193300155
 30
0.0
 11
322.5275948607203
 21
343.5217193300155
 31
0.0
  0
LINE
  5
4392
330
438E
100
AcDbEntity
  8
DIM
 62
     0
 48
0.05
370
    -2
100
AcDbLine
 10
288.1531505906761
 20
371.4876241062871
 30
0.0
 11
322.5275948607203
 21
371.4876241062871
 31
0.0
  0
LINE
  5
4393
330
438E
100
AcDbEntity
  8
DIM
 62
     0
 48
0.05
370
    -2
100
AcDbLine
 10
322.5275948607203
 20
345.5217193300155
 30
0.0
 11
322.5275948607203
 21
369.4876241062871
 31
0.0
  0
INSERT
  5
4394
330
438E
100
AcDbEntity
  8
DIM
 62
     0
370
    -2
100
AcDbBlockReference
  2
_DOT
 10
322.5275948607203
 20
343.5217193300155
 30
0.0
 41
2.0
 42
2.0
 43
2.0
 50
270.0
  0
INSERT
  5
4395
330
438E
100
AcDbEntity
  8
DIM
 62
     0
370
    -2
100
AcDbBlockReference
  2
_DOT
 10
322.5275948607203
 20
371.4876241062871
 30
0.0
 41
2.0
 42
2.0
 43
2.0
 50
90.0
  0
MTEXT
  5
4396
330
438E
100
AcDbEntity
  8
DIM
 62
     0
 48
0.05
100
AcDbMText
 10
317.0275948607203
 20
357.5046717181513
 30
0.0
 40
5.0
 41
0.0
 46
0.0
 71
     5
 72
     1
  1
\A1;%%c28
  7
ＭＳ ゴシック
 11
0.0
 21
1.0
 31
0.0
 73
     1
 44
1.0
  0
POINT
  5
4397
330
438E
100
AcDbEntity
  8
Defpoints
 62
     0
100
AcDbPoint
 10
283.1531505906761
 20
343.5217193300155
 30
0.0
  0
POINT
  5
4398
330
438E
100
AcDbEntity
  8
Defpoints
 62
     0
100
AcDbPoint
 10
283.1531505906761
 20
371.4876241062871
 30
0.0
  0
POINT
  5
4399
330
438E
100
AcDbEntity
  8
Defpoints
 62
     0
100
AcDbPoint
 10
322.5275948607203
 20
371.4876241062871
 30
0.0
  0
ENDBLK
  5
4390
330
438E
100
AcDbEntity
  8
0
100
AcDbBlockEnd
  0
BLOCK
  5
439E
330
439D
100
AcDbEntity
  8
0
100
AcDbBlockBegin
  2
*D30
 70
     1
 10
0.0
 20
0.0
 30
0.0
  3
*D30
  1

  0
LINE
  5
43A0
330
439D
100
AcDbEntity
  8
DIM
 62
     0
 48
0.05
370
    -2
100
AcDbLine
 10
1172.076520241402
 20
291.4028792648573
 30
0.0
 11
1172.076520241402
 21
257.0284349948131
 31
0.0
  0
LINE
  5
43A1
330
439D
100
AcDbEntity
  8
DIM
 62
     0
 48
0.05
370
    -2
100
AcDbLine
 10
1200.042425017674
 20
291.4028792648573
 30
0.0
 11
1200.042425017674
 21
257.0284349948131
 31
0.0
  0
LINE
  5
43A2
330
439D
100
AcDbEntity
  8
DIM
 62
     0
 48
0.05
370
    -2
100
AcDbLine
 10
1174.076520241402
 20
257.0284349948131
 30
0.0
 11
1198.042425017674
 21
257.0284349948131
 31
0.0
  0
INSERT
  5
43A3
330
439D
100
AcDbEntity
  8
DIM
 62
     0
370
    -2
100
AcDbBlockReference
  2
_DOT
 10
1172.076520241402
 20
257.0284349948131
 30
0.0
 41
2.0
 42
2.0
 43
2.0
 50
180.0
  0
INSERT
  5
43A4
330
439D
100
AcDbEntity
  8
DIM
 62
     0
370
    -2
100
AcDbBlockReference
  2
_DOT
 10
1200.042425017674
 20
257.0284349948131
 30
0.0
 41
2.0
 42
2.0
 43
2.0
  0
MTEXT
  5
43A5
330
439D
100
AcDbEntity
  8
DIM
 62
     0
 48
0.05
100
AcDbMText
 10
1186.059472629538
 20
262.5284349948131
 30
0.0
 40
5.0
 41
0.0
 46
0.0
 71
     5
 72
     1
  1
\A1;%%c28
  7
ＭＳ ゴシック
 73
     1
 44
1.0
  0
POINT
  5
43A6
330
439D
100
AcDbEntity
  8
Defpoints
 62
     0
100
AcDbPoint
 10
1172.076520241402
 20
296.4028792648573
 30
0.0
  0
POINT
  5
43A7
330
439D
100
AcDbEntity
  8
Defpoints
 62
     0
100
AcDbPoint
 10
1200.042425017674
 20
296.4028792648573
 30
0.0
  0
POINT
  5
43A8
330
439D
100
AcDbEntity
  8
Defpoints
 62
     0
100
AcDbPoint
 10
1200.042425017674
 20
257.0284349948131
 30
0.0
  0
ENDBLK
  5
439F
330
439D
100
AcDbEntity
  8
0
100
AcDbBlockEnd
  0
BLOCK
  5
43AD
330
43AC
100
AcDbEntity
  8
0
100
AcDbBlockBegin
  2
*D31
 70
     1
 10
0.0
 20
0.0
 30
0.0
  3
*D31
  1

  0
LINE
  5
43AF
330
43AC
100
AcDbEntity
  8
DIM
 62
     0
 48
0.05
370
    -2
100
AcDbLine
 10
1172.076520241402
 20
291.4028792648573
 30
0.0
 11
1172.076520241402
 21
257.0284349948131
 31
0.0
  0
LINE
  5
43B0
330
43AC
100
AcDbEntity
  8
DIM
 62
     0
 48
0.05
370
    -2
100
AcDbLine
 10
1200.042425017674
 20
291.4028792648573
 30
0.0
 11
1200.042425017674
 21
257.0284349948131
 31
0.0
  0
LINE
  5
43B1
330
43AC
100
AcDbEntity
  8
DIM
 62
     0
 48
0.05
370
    -2
100
AcDbLine
 10
1174.076520241402
 20
257.0284349948131
 30
0.0
 11
1198.042425017674
 21
257.0284349948131
 31
0.0
  0
INSERT
  5
43B2
330
43AC
100
AcDbEntity
  8
DIM
 62
     0
370
    -2
100
AcDbBlockReference
  2
_DOT
 10
1172.076520241402
 20
257.0284349948131
 30
0.0
 41
2.0
 42
2.0
 43
2.0
 50
180.0
  0
INSERT
  5
43B3
330
43AC
100
AcDbEntity
  8
DIM
 62
     0
370
    -2
100
AcDbBlockReference
  2
_DOT
 10
1200.042425017674
 20
257.0284349948131
 30
0.0
 41
2.0
 42
2.0
 43
2.0
  0
MTEXT
  5
43B4
330
43AC
100
AcDbEntity
  8
DIM
 62
     0
 48
0.05
100
AcDbMText
 10
1186.059472629538
 20
262.5284349948131
 30
0.0
 40
5.0
 41
0.0
 46
0.0
 71
     5
 72
     1
  1
\A1;%%c28
  7
ＭＳ ゴシック
 73
     1
 44
1.0
  0
POINT
  5
43B5
330
43AC
100
AcDbEntity
  8
Defpoints
 62
     0
100
AcDbPoint
 10
1172.076520241402
 20
296.4028792648573
 30
0.0
  0
POINT
  5
43B6
330
43AC
100
AcDbEntity
  8
Defpoints
 62
     0
100
AcDbPoint
 10
1200.042425017674
 20
296.4028792648573
 30
0.0
  0
POINT
  5
43B7
330
43AC
100
AcDbEntity
  8
Defpoints
 62
     0
100
AcDbPoint
 10
1200.042425017674
 20
257.0284349948131
 30
0.0
  0
ENDBLK
  5
43AE
330
43AC
100
AcDbEntity
  8
0
100
AcDbBlockEnd
  0
BLOCK
  5
43BC
330
43BB
100
AcDbEntity
  8
0
100
AcDbBlockBegin
  2
*D32
 70
     1
 10
0.0
 20
0.0
 30
0.0
  3
*D32
  1

  0
LINE
  5
43BE
330
43BB
100
AcDbEntity
  8
DIM
 62
     0
 48
0.05
370
    -2
100
AcDbLine
 10
1269.901278904016
 20
239.5439710581704
 30
0.0
 11
1269.901278904016
 21
205.1695267881262
 31
0.0
  0
LINE
  5
43BF
330
43BB
100
AcDbEntity
  8
DIM
 62
     0
 48
0.05
370
    -2
100
AcDbLine
 10
1297.867183680288
 20
239.5439710581704
 30
0.0
 11
1297.867183680288
 21
205.1695267881262
 31
0.0
  0
LINE
  5
43C0
330
43BB
100
AcDbEntity
  8
DIM
 62
     0
 48
0.05
370
    -2
100
AcDbLine
 10
1271.901278904016
 20
205.1695267881262
 30
0.0
 11
1295.867183680288
 21
205.1695267881262
 31
0.0
  0
INSERT
  5
43C1
330
43BB
100
AcDbEntity
  8
DIM
 62
     0
370
    -2
100
AcDbBlockReference
  2
_DOT
 10
1269.901278904016
 20
205.1695267881262
 30
0.0
 41
2.0
 42
2.0
 43
2.0
 50
180.0
  0
INSERT
  5
43C2
330
43BB
100
AcDbEntity
  8
DIM
 62
     0
370
    -2
100
AcDbBlockReference
  2
_DOT
 10
1297.867183680288
 20
205.1695267881262
 30
0.0
 41
2.0
 42
2.0
 43
2.0
  0
MTEXT
  5
43C3
330
43BB
100
AcDbEntity
  8
DIM
 62
     0
 48
0.05
100
AcDbMText
 10
1283.884231292152
 20
210.6695267881262
 30
0.0
 40
5.0
 41
0.0
 46
0.0
 71
     5
 72
     1
  1
\A1;%%c28
  7
ＭＳ ゴシック
 73
     1
 44
1.0
  0
POINT
  5
43C4
330
43BB
100
AcDbEntity
  8
Defpoints
 62
     0
100
AcDbPoint
 10
1269.901278904016
 20
244.5439710581704
 30
0.0
  0
POINT
  5
43C5
330
43BB
100
AcDbEntity
  8
Defpoints
 62
     0
100
AcDbPoint
 10
1297.867183680288
 20
244.5439710581704
 30
0.0
  0
POINT
  5
43C6
330
43BB
100
AcDbEntity
  8
Defpoints
 62
     0
100
AcDbPoint
 10
1297.867183680288
 20
205.1695267881262
 30
0.0
  0
ENDBLK
  5
43BD
330
43BB
100
AcDbEntity
  8
0
100
AcDbBlockEnd
  0
BLOCK
  5
43E9
330
43E8
100
AcDbEntity
  8
0
100
AcDbBlockBegin
  2
*D33
 70
     1
 10
0.0
 20
0.0
 30
0.0
  3
*D33
  1

  0
LINE
  5
43EB
330
43E8
100
AcDbEntity
  8
DIM
 62
     0
 48
0.05
370
    -2
100
AcDbLine
 10
142.3631604804847
 20
146.5621249273132
 30
0.0
 11
167.4582899122998
 21
146.5621249273132
 31
0.0
  0
LINE
  5
43EC
330
43E8
100
AcDbEntity
  8
DIM
 62
     0
 48
0.05
370
    -2
100
AcDbLine
 10
142.3631604804847
 20
174.526506008217
 30
0.0
 11
167.4582899122998
 21
174.526506008217
 31
0.0
  0
LINE
  5
43ED
330
43E8
100
AcDbEntity
  8
DIM
 62
     0
 48
0.05
370
    -2
100
AcDbLine
 10
167.4582899122998
 20
148.5621249273132
 30
0.0
 11
167.4582899122998
 21
172.526506008217
 31
0.0
  0
INSERT
  5
43EE
330
43E8
100
AcDbEntity
  8
DIM
 62
     0
370
    -2
100
AcDbBlockReference
  2
_DOT
 10
167.4582899122998
 20
146.5621249273132
 30
0.0
 41
2.0
 42
2.0
 43
2.0
 50
270.0
  0
INSERT
  5
43EF
330
43E8
100
AcDbEntity
  8
DIM
 62
     0
370
    -2
100
AcDbBlockReference
  2
_DOT
 10
167.4582899122998
 20
174.526506008217
 30
0.0
 41
2.0
 42
2.0
 43
2.0
 50
90.0
  0
MTEXT
  5
43F0
330
43E8
100
AcDbEntity
  8
DIM
 62
     0
 48
0.05
100
AcDbMText
 10
161.9582899122998
 20
160.5443154677651
 30
0.0
 40
5.0
 41
0.0
 46
0.0
 71
     5
 72
     1
  1
\A1;28
  7
ＭＳ ゴシック
 11
0.0
 21
1.0
 31
0.0
 73
     1
 44
1.0
  0
POINT
  5
43F1
330
43E8
100
AcDbEntity
  8
Defpoints
 62
     0
100
AcDbPoint
 10
137.3631604804847
 20
146.5621249273132
 30
0.0
  0
POINT
  5
43F2
330
43E8
100
AcDbEntity
  8
Defpoints
 62
     0
100
AcDbPoint
 10
137.3631604804847
 20
174.526506008217
 30
0.0
  0
POINT
  5
43F3
330
43E8
100
AcDbEntity
  8
Defpoints
 62
     0
100
AcDbPoint
 10
167.4582899122998
 20
174.526506008217
 30
0.0
  0
ENDBLK
  5
43EA
330
43E8
100
AcDbEntity
  8
0
100
AcDbBlockEnd
  0
BLOCK
  5
4415
330
4414
100
AcDbEntity
  8
0
100
AcDbBlockBegin
  2
*D34
 70
     1
 10
0.0
 20
0.0
 30
0.0
  3
*D34
  1

  0
LINE
  5
4417
330
4414
100
AcDbEntity
  8
DIM
 62
     0
 48
0.05
370
    -2
100
AcDbLine
 10
148.6873290607628
 20
311.7216132512136
 30
0.0
 11
148.6873290607628
 21
293.5467102766757
 31
0.0
  0
LINE
  5
4418
330
4414
100
AcDbEntity
  8
DIM
 62
     0
 48
0.05
370
    -2
100
AcDbLine
 10
173.6873290607628
 20
311.7216132512136
 30
0.0
 11
173.6873290607628
 21
293.5467102766757
 31
0.0
  0
LINE
  5
4419
330
4414
100
AcDbEntity
  8
DIM
 62
     0
 48
0.05
370
    -2
100
AcDbLine
 10
150.6873290607628
 20
293.5467102766757
 30
0.0
 11
171.6873290607628
 21
293.5467102766757
 31
0.0
  0
INSERT
  5
441A
330
4414
100
AcDbEntity
  8
DIM
 62
     0
370
    -2
100
AcDbBlockReference
  2
_DOT
 10
148.6873290607628
 20
293.5467102766757
 30
0.0
 41
2.0
 42
2.0
 43
2.0
 50
180.0
  0
INSERT
  5
441B
330
4414
100
AcDbEntity
  8
DIM
 62
     0
370
    -2
100
AcDbBlockReference
  2
_DOT
 10
173.6873290607628
 20
293.5467102766757
 30
0.0
 41
2.0
 42
2.0
 43
2.0
  0
MTEXT
  5
441C
330
4414
100
AcDbEntity
  8
DIM
 62
     0
 48
0.05
100
AcDbMText
 10
161.1873290607628
 20
299.0467102766757
 30
0.0
 40
5.0
 41
0.0
 46
0.0
 71
     5
 72
     1
  1
\A1;%%c25
  7
ＭＳ ゴシック
 73
     1
 44
1.0
  0
POINT
  5
441D
330
4414
100
AcDbEntity
  8
Defpoints
 62
     0
100
AcDbPoint
 10
148.6873290607628
 20
316.7216132512136
 30
0.0
  0
POINT
  5
441E
330
4414
100
AcDbEntity
  8
Defpoints
 62
     0
100
AcDbPoint
 10
173.6873290607628
 20
316.7216132512136
 30
0.0
  0
POINT
  5
441F
330
4414
100
AcDbEntity
  8
Defpoints
 62
     0
100
AcDbPoint
 10
173.6873290607628
 20
293.5467102766757
 30
0.0
  0
ENDBLK
  5
4416
330
4414
100
AcDbEntity
  8
0
100
AcDbBlockEnd
  0
BLOCK
  5
4427
330
4426
100
AcDbEntity
  8
0
100
AcDbBlockBegin
  2
*D35
 70
     1
 10
0.0
 20
0.0
 30
0.0
  3
*D35
  1

  0
LINE
  5
4429
330
4426
100
AcDbEntity
  8
DIM
 62
     0
 48
0.05
370
    -2
100
AcDbLine
 10
221.5001484598696
 20
305.7906578929409
 30
0.0
 11
221.5001484598696
 21
293.5467102766757
 31
0.0
  0
LINE
  5
442A
330
4426
100
AcDbEntity
  8
DIM
 62
     0
 48
0.05
370
    -2
100
AcDbLine
 10
271.5001484598696
 20
304.6594139043871
 30
0.0
 11
271.5001484598696
 21
293.5467102766757
 31
0.0
  0
LINE
  5
442B
330
4426
100
AcDbEntity
  8
DIM
 62
     0
 48
0.05
370
    -2
100
AcDbLine
 10
223.5001484598696
 20
293.5467102766757
 30
0.0
 11
269.5001484598696
 21
293.5467102766757
 31
0.0
  0
INSERT
  5
442C
330
4426
100
AcDbEntity
  8
DIM
 62
     0
370
    -2
100
AcDbBlockReference
  2
_DOT
 10
221.5001484598696
 20
293.5467102766757
 30
0.0
 41
2.0
 42
2.0
 43
2.0
 50
180.0
  0
INSERT
  5
442D
330
4426
100
AcDbEntity
  8
DIM
 62
     0
370
    -2
100
AcDbBlockReference
  2
_DOT
 10
271.5001484598696
 20
293.5467102766757
 30
0.0
 41
2.0
 42
2.0
 43
2.0
  0
MTEXT
  5
442E
330
4426
100
AcDbEntity
  8
DIM
 62
     0
 48
0.05
100
AcDbMText
 10
246.5001484598696
 20
299.0467102766757
 30
0.0
 40
5.0
 41
0.0
 46
0.0
 71
     5
 72
     1
  1
\A1;50
  7
ＭＳ ゴシック
 73
     1
 44
1.0
  0
POINT
  5
442F
330
4426
100
AcDbEntity
  8
Defpoints
 62
     0
100
AcDbPoint
 10
221.5001484598696
 20
310.7906578929409
 30
0.0
  0
POINT
  5
4430
330
4426
100
AcDbEntity
  8
Defpoints
 62
     0
100
AcDbPoint
 10
271.5001484598696
 20
309.6594139043871
 30
0.0
  0
POINT
  5
4431
330
4426
100
AcDbEntity
  8
Defpoints
 62
     0
100
AcDbPoint
 10
271.5001484598696
 20
293.5467102766757
 30
0.0
  0
ENDBLK
  5
4428
330
4426
100
AcDbEntity
  8
0
100
AcDbBlockEnd
  0
BLOCK
  5
4436
330
4435
100
AcDbEntity
  8
0
100
AcDbBlockBegin
  2
*D36
 70
     1
 10
0.0
 20
0.0
 30
0.0
  3
*D36
  1

  0
LINE
  5
4438
330
4435
100
AcDbEntity
  8
DIM
 62
     0
 48
0.05
370
    -2
100
AcDbLine
 10
276.5001484598696
 20
340.6594139043871
 30
0.0
 11
290.9487073898846
 21
340.6594139043871
 31
0.0
  0
LINE
  5
4439
330
4435
100
AcDbEntity
  8
DIM
 62
     0
 48
0.05
370
    -2
100
AcDbLine
 10
276.5001484598696
 20
309.6594139043871
 30
0.0
 11
290.9487073898846
 21
309.6594139043871
 31
0.0
  0
LINE
  5
443A
330
4435
100
AcDbEntity
  8
DIM
 62
     0
 48
0.05
370
    -2
100
AcDbLine
 10
290.9487073898846
 20
338.6594139043871
 30
0.0
 11
290.9487073898846
 21
311.6594139043871
 31
0.0
  0
INSERT
  5
443B
330
4435
100
AcDbEntity
  8
DIM
 62
     0
370
    -2
100
AcDbBlockReference
  2
_DOT
 10
290.9487073898846
 20
340.6594139043871
 30
0.0
 41
2.0
 42
2.0
 43
2.0
 50
90.0
  0
INSERT
  5
443C
330
4435
100
AcDbEntity
  8
DIM
 62
     0
370
    -2
100
AcDbBlockReference
  2
_DOT
 10
290.9487073898846
 20
309.6594139043871
 30
0.0
 41
2.0
 42
2.0
 43
2.0
 50
270.0
  0
MTEXT
  5
443D
330
4435
100
AcDbEntity
  8
DIM
 62
     0
 48
0.05
100
AcDbMText
 10
285.4487073898846
 20
325.1594139043871
 30
0.0
 40
5.0
 41
0.0
 46
0.0
 71
     5
 72
     1
  1
\A1;31
  7
ＭＳ ゴシック
 11
0.0
 21
1.0
 31
0.0
 73
     1
 44
1.0
  0
POINT
  5
443E
330
4435
100
AcDbEntity
  8
Defpoints
 62
     0
100
AcDbPoint
 10
271.5001484598696
 20
340.6594139043871
 30
0.0
  0
POINT
  5
443F
330
4435
100
AcDbEntity
  8
Defpoints
 62
     0
100
AcDbPoint
 10
271.5001484598696
 20
309.6594139043871
 30
0.0
  0
POINT
  5
4440
330
4435
100
AcDbEntity
  8
Defpoints
 62
     0
100
AcDbPoint
 10
290.9487073898846
 20
309.6594139043871
 30
0.0
  0
ENDBLK
  5
4437
330
4435
100
AcDbEntity
  8
0
100
AcDbBlockEnd
  0
ENDSEC
  0
SECTION
  2
ENTITIES
  0
MTEXT
  5
177
330
A
100
AcDbEntity
  8
TEMPLATE
390
1D
100
AcDbMText
 10
15.84042890954615
 20
68.74635032628565
 30
0.0
 40
3.257682291666665
 41
0.0
 46
0.0
 71
     1
 72
     1
  1
品名
  7
ＭＳ ゴシック
 73
     1
 44
0.7828267384257843
  0
MTEXT
  5
178
330
A
100
AcDbEntity
  8
TEMPLATE
390
1D
100
AcDbMText
 10
15.84042890954615
 20
51.7463503262856
 30
0.0
 40
3.257682291666665
 41
0.0
 46
0.0
 71
     1
 72
     1
  1
仕様
  7
ＭＳ ゴシック
 73
     1
 44
0.7828267384257843
  0
LINE
  5
179
330
A
100
AcDbEntity
  8
TEMPLATE
390
1D
100
AcDbLine
 10
404.4404289094496
 20
53.42933470128568
 30
0.0
 11
14.44042890944975
 21
53.42933470128568
 31
0.0
  0
LWPOLYLINE
  5
17A
330
A
100
AcDbEntity
  8
TEMPLATE
390
1D
100
AcDbPolyline
 90
        5
 70
   128
 43
0.0
 10
404.4404289094496
 20
579.4293347012853
 10
14.44042890944975
 20
579.4293347012853
 10
14.44042890944975
 20
19.42933470128565
 10
404.4404289094496
 20
19.42933470128565
 10
404.4404289094496
 20
579.4293347012853
  0
LINE
  5
17B
330
A
100
AcDbEntity
  8
TEMPLATE
390
1D
100
AcDbLine
 10
404.4404289094496
 20
70.42933470128564
 30
0.0
 11
14.44042890944975
 21
70.42933470128564
 31
0.0
  0
LINE
  5
17C
330
A
100
AcDbEntity
  8
TEMPLATE
390
1D
100
AcDbLine
 10
404.4404289095464
 20
36.42933470128565
 30
0.0
 11
253.840428909546
 21
36.42933470128565
 31
0.0
  0
MTEXT
  5
17E
330
A
100
AcDbEntity
  8
TEMPLATE
390
1D
100
AcDbMText
 10
259.8147101599982
 20
30.44725580662403
 30
0.0
 40
4.8865234375
 41
0.0
 46
0.0
 71
     1
 72
     1
  1
大洋金物株式会社 ティーフォルム事業部
  7
ＭＳ ゴシック
 73
     1
 44
0.7828267384257843
  0
MTEXT
  5
180
330
A
100
AcDbEntity
  8
TEMPLATE
390
1D
100
AcDbMText
 10
366.240428909598
 20
46.02985813878564
 30
0.0
 40
4.8865234375
 41
0.0
 46
4.8865234375
 71
     1
 72
     1
  1
{1:2}
  7
ＭＳ ゴシック
 73
     1
 44
0.7828267384257843
1001
ACAD
1000
ACAD_MTEXT_DEFINED_HEIGHT_BEGIN
1070
    46
1040
4.8865234375
1000
ACAD_MTEXT_DEFINED_HEIGHT_END
  0
MTEXT
  5
181
330
A
100
AcDbEntity
  8
TEMPLATE
390
1D
100
AcDbMText
 10
355.640428909598
 20
51.7463503262856
 30
0.0
 40
3.257682291666665
 41
0.0
 46
0.0
 71
     1
 72
     1
  1
縮尺
  7
ＭＳ ゴシック
 73
     1
 44
0.7828267384257843
  0
LINE
  5
182
330
A
100
AcDbEntity
  8
TEMPLATE
390
1D
100
AcDbLine
 10
354.240428909598
 20
36.42933470128565
 30
0.0
 11
354.240428909598
 21
53.42933470128568
 31
0.0
  0
MTEXT
  5
183
330
A
100
AcDbEntity
  8
TEMPLATE
390
1D
100
AcDbMText
 10
305.440428909598
 20
51.7463503262856
 30
0.0
 40
3.257682291666665
 41
0.0
 46
0.0
 71
     1
 72
     1
  1
容量
  7
ＭＳ ゴシック
 73
     1
 44
0.7828267384257843
  0
LINE
  5
184
330
A
100
AcDbEntity
  8
TEMPLATE
390
1D
100
AcDbLine
 10
304.040428909598
 20
36.42933470128565
 30
0.0
 11
304.040428909598
 21
53.42933470128568
 31
0.0
  0
MTEXT
  5
185
330
A
100
AcDbEntity
  8
TEMPLATE
390
1D
100
AcDbMText
 10
255.240428909598
 20
68.74635032628565
 30
0.0
 40
3.257682291666665
 41
0.0
 46
0.0
 71
     1
 72
     1
  1
品番
  7
ＭＳ ゴシック
 73
     1
 44
0.7828267384257843
  0
MTEXT
  5
186
330
A
100
AcDbEntity
  8
TEMPLATE
390
1D
100
AcDbMText
 10
255.240428909598
 20
51.7463503262856
 30
0.0
 40
3.257682291666665
 41
0.0
 46
0.0
 71
     1
 72
     1
  1
重量
  7
ＭＳ ゴシック
 73
     1
 44
0.7828267384257843
  0
MTEXT
  5
187
330
A
100
AcDbEntity
  8
TEMPLATE
390
1D
100
AcDbMText
 10
265.840428909598
 20
63.02985813878564
 30
0.0
 40
4.8865234375
 41
0.0
 46
4.8865234375
 71
     1
 72
     1
  1
{\pxsm1;BST74-0202}
  7
ＭＳ ゴシック
 73
     1
 44
0.7828267384257843
1001
ACAD
1000
ACAD_MTEXT_DEFINED_HEIGHT_BEGIN
1070
    46
1040
4.8865234375
1000
ACAD_MTEXT_DEFINED_HEIGHT_END
  0
LINE
  5
188
330
A
100
AcDbEntity
  8
TEMPLATE
390
1D
100
AcDbLine
 10
253.840428909598
 20
19.42933470128565
 30
0.0
 11
253.840428909598
 21
70.42933470128564
 31
0.0
  0
MTEXT
  5
189
330
A
100
AcDbEntity
  8
TEMPLATE
390
1D
100
AcDbMText
 10
26.44042890954615
 20
63.02985813878564
 30
0.0
 40
5.0
 41
0.0
 46
5.48
 71
     1
 72
     1
  1
{フック - FROST -}
  7
ＭＳ ゴシック
 73
     1
 44
0.7828267384257843
1001
ACAD
1000
ACAD_MTEXT_DEFINED_HEIGHT_BEGIN
1070
    46
1040
5.48
1000
ACAD_MTEXT_DEFINED_HEIGHT_END
  0
INSERT
  5
6B5
330
A
100
AcDbEntity
  8
TEMPLATE
100
AcDbBlockReference
  2
名称未設定-1
 10
374.15014961769
 20
5.189353151330764
 30
0.0
 41
0.1524
 42
0.1524
 43
0.1524
  0
INSERT
  5
68C
330
A
100
AcDbEntity
  8
TEMPLATE
100
AcDbBlockReference
  2
block 2
 10
367.7097207081031
 20
3.349230605734547
 30
0.0
 41
0.1524
 42
0.1524
 43
0.1524
  0
LWPOLYLINE
  5
D69
330
A
100
AcDbEntity
  8
BORDER
 48
0.5
100
AcDbPolyline
 90
        4
 70
     1
 43
0.0
 10
0.0
 20
0.0
 10
0.0
 20
594.0
 10
420.0
 20
594.0
 10
420.0
 20
0.0
  0
INSERT
  5
1343
330
A
100
AcDbEntity
  8
TEMPLATE
100
AcDbBlockReference
  2
block 2
 10
838.6973883465873
 20
9.774128564918277
 30
0.0
 41
0.1524
 42
0.1524
 43
0.1524
  0
MTEXT
  5
3BDA
330
A
100
AcDbEntity
  8
TEMPLATE
390
1D
100
AcDbMText
 10
265.8404289095978
 20
97.45555595170507
 30
0.0
 40
4.8865234375
 41
0.0
 46
18.38635885416667
 71
     1
 72
     1
  1
{\pxsm1;BST74-0202-003 ステンレス\PBST74-0202-00C コッパ―\PBST74-0202-00G ゴールド}
  7
ＭＳ ゴシック
 73
     1
 44
0.7828267384257843
1001
ACAD
1000
ACAD_MTEXT_DEFINED_HEIGHT_BEGIN
1070
    46
1040
18.38635885416667
1000
ACAD_MTEXT_DEFINED_HEIGHT_END
  0
MTEXT
  5
3DE1
102
{ACAD_XDICTIONARY
360
3DE3
102
}
330
A
100
AcDbEntity
  8
TEMPLATE
 48
0.05
100
AcDbMText
 10
15.18467714602272
 20
17.47120757736302
 30
0.0
 40
4.0
 41
0.0
 46
4.0
 71
     1
 72
     1
  1
{20230920M}
  7
ＭＳ ゴシック
 73
     1
 44
1.0
1001
ACAD
1000
ACAD_MTEXT_DEFINED_HEIGHT_BEGIN
1070
    46
1040
4.0
1000
ACAD_MTEXT_DEFINED_HEIGHT_END
  0
INSERT
  5
41A7
330
A
100
AcDbEntity
  8
0
100
AcDbBlockReference
  2
block 2
 10
604.0138463493729
 20
124.0135485958783
 30
0.0
  0
MTEXT
  5
43CF
330
A
100
AcDbEntity
  8
TEMPLATE
390
1D
100
AcDbMText
 10
26.44042890954614
 20
46.37466260127802
 30
0.0
 40
5.0
 41
0.0
 46
5.583734525447043
 71
     1
 72
     1
  1
{\fＭＳ ゴシック|b0|i0|c1|p0;固定ビス付属}
  7
ＭＳ ゴシック
 73
     1
 44
0.7828267384257843
1001
ACAD
1000
ACAD_MTEXT_DEFINED_HEIGHT_BEGIN
1070
    46
1040
5.583734525447043
1000
ACAD_MTEXT_DEFINED_HEIGHT_END
  0
ARC
  5
43F7
330
A
100
AcDbEntity
  8
MODEL
 48
0.05
100
AcDbCircle
 10
161.1873290607628
 20
322.1594139043871
 30
0.0
 40
12.5
100
AcDbArc
 50
103.886540362629
 51
76.11345963737104
  0
ARC
  5
43F9
330
A
100
AcDbEntity
  8
MODEL
 48
0.05
100
AcDbCircle
 10
161.1873290607628
 20
322.1594139043871
 30
0.0
 40
3.0
100
AcDbArc
 50
180.0
 51
0.0
  0
LINE
  5
43FD
330
A
100
AcDbEntity
  8
MODEL
 48
0.05
100
AcDbLine
 10
164.1873290607628
 20
322.1594139043871
 30
0.0
 11
164.1873290607628
 21
340.6594139043871
 31
0.0
  0
LINE
  5
43FE
330
A
100
AcDbEntity
  8
MODEL
 48
0.05
100
AcDbLine
 10
158.1873290607628
 20
322.1594139043871
 30
0.0
 11
158.1873290607628
 21
340.6594139043871
 31
0.0
  0
LINE
  5
43FF
330
A
100
AcDbEntity
  8
MODEL
 48
0.05
100
AcDbLine
 10
158.1873290607628
 20
340.6594139043871
 30
0.0
 11
164.1873290607628
 21
340.6594139043871
 31
0.0
  0
LINE
  5
4400
102
{ACAD_REACTORS
330
4425
330
4434
102
}
330
A
100
AcDbEntity
  8
MODEL
 48
0.05
100
AcDbLine
 10
222.4888394877193
 20
309.6594139043871
 30
0.0
 11
271.5001484598696
 21
309.6594139043871
 31
0.0
  0
LINE
  5
4404
102
{ACAD_REACTORS
330
4425
102
}
330
A
100
AcDbEntity
  8
MODEL
 48
0.05
100
AcDbLine
 10
221.5001484598696
 20
310.7906578929409
 30
0.0
 11
221.5001484598696
 21
333.5281699158334
 31
0.0
  0
LINE
  5
4406
330
A
100
AcDbEntity
  8
MODEL
 48
0.05
100
AcDbLine
 10
222.4888394877193
 20
334.6594139043871
 30
0.0
 11
271.5001484598696
 21
334.6594139043871
 31
0.0
  0
LINE
  5
4407
102
{ACAD_REACTORS
330
4434
102
}
330
A
100
AcDbEntity
  8
MODEL
 48
0.05
100
AcDbLine
 10
271.5001484598696
 20
340.6594139043871
 30
0.0
 11
271.5001484598696
 21
309.6594139043871
 31
0.0
  0
LINE
  5
4408
330
A
100
AcDbEntity
  8
MODEL
 48
0.05
100
AcDbLine
 10
265.5001484598696
 20
340.6594139043871
 30
0.0
 11
271.5001484598695
 21
340.6594139043871
 31
0.0
  0
LINE
  5
440A
330
A
100
AcDbEntity
  8
MODEL
 48
0.05
100
AcDbLine
 10
265.5001484598696
 20
340.6594139043871
 30
0.0
 11
265.5001484598696
 21
334.6594139043871
 31
0.0
  0
LINE
  5
440B
330
A
100
AcDbEntity
  8
MODEL
 48
0.05
100
AcDbLine
 10
222.4888394877193
 20
334.6594139043871
 30
0.0
 11
222.4888394877193
 21
309.6594139043871
 31
0.0
  0
LINE
  5
440C
330
A
100
AcDbEntity
  8
MODEL
 48
0.05
100
AcDbLine
 10
221.5001484598696
 20
310.7906578929409
 30
0.0
 11
222.4888394877193
 21
310.7906578929409
 31
0.0
  0
LINE
  5
440D
330
A
100
AcDbEntity
  8
MODEL
 48
0.05
100
AcDbLine
 10
221.5001484598696
 20
333.5281699158334
 30
0.0
 11
222.4888394877193
 21
333.5281699158334
 31
0.0
  0
DIMENSION
  5
4411
330
A
100
AcDbEntity
  8
DIM
 48
0.05
100
AcDbDimension
  2
*D34
 10
173.6873290607628
 20
293.5467102766757
 30
0.0
 11
161.1873290607628
 21
299.0467102766757
 31
0.0
 70
    32
 71
     5
 42
25.0
 73
     0
 74
     0
 75
     0
  3
tfrom線あり
100
AcDbAlignedDimension
 13
148.6873290607628
 23
316.7216132512136
 33
0.0
 14
173.6873290607628
 24
316.7216132512136
 34
0.0
100
AcDbRotatedDimension
1001
ACAD
1000
DSTYLE
1002
{
1070
     3
1000
%%c<>
1070
   144
1040
1.0
1002
}
  0
DIMENSION
  5
4423
102
{ACAD_REACTORS
330
4425
102
}
102
{ACAD_XDICTIONARY
360
4424
102
}
330
A
100
AcDbEntity
  8
DIM
 48
0.05
100
AcDbDimension
  2
*D35
 10
271.5001484598696
 20
293.5467102766757
 30
0.0
 11
246.5001484598696
 21
299.0467102766757
 31
0.0
 70
    32
 71
     5
 42
50.0
 73
     0
 74
     0
 75
     0
  3
tfrom線あり
100
AcDbAlignedDimension
 13
221.5001484598696
 23
310.7906578929409
 33
0.0
 14
271.5001484598696
 24
309.6594139043871
 34
0.0
100
AcDbRotatedDimension
1001
ACAD
1000
DSTYLE
1002
{
1070
   144
1040
1.0
1002
}
  0
DIMENSION
  5
4432
102
{ACAD_REACTORS
330
4434
102
}
102
{ACAD_XDICTIONARY
360
4433
102
}
330
A
100
AcDbEntity
  8
DIM
 48
0.05
100
AcDbDimension
  2
*D36
 10
290.9487073898846
 20
309.6594139043871
 30
0.0
 11
285.4487073898846
 21
325.1594139043871
 31
0.0
 70
    32
 71
     5
 42
31.0
 73
     0
 74
     0
 75
     0
  3
tfrom線あり
100
AcDbAlignedDimension
 13
271.5001484598696
 23
340.6594139043871
 33
0.0
 14
271.5001484598696
 24
309.6594139043871
 34
0.0
 50
90.0
100
AcDbRotatedDimension
1001
ACAD
1000
DSTYLE
1002
{
1070
   144
1040
1.0
1002
}
  0
MTEXT
  5
4452
330
A
100
AcDbEntity
  8
TEMPLATE
390
1D
100
AcDbMText
 10
26.44042890954613
 20
39.33365551711666
 30
0.0
 40
5.0
 41
0.0
 46
5.812179567337751
 71
     1
 72
     1
  1
{\fＭＳ ゴシック|b0|i0|c1|p0;耐荷重:3kgf}
  7
ＭＳ ゴシック
 73
     1
 44
0.7828267384257843
1001
ACAD
1000
ACAD_MTEXT_DEFINED_HEIGHT_BEGIN
1070
    46
1040
5.812179567337751
1000
ACAD_MTEXT_DEFINED_HEIGHT_END
  0
MTEXT
  5
4453
330
A
100
AcDbEntity
  8
TEMPLATE
390
1D
100
AcDbMText
 10
26.44042890954613
 20
32.27343518854314
 30
0.0
 40
5.0
 41
0.0
 46
5.23
 71
     1
 72
     1
  1
{\fＭＳ ゴシック|b0|i0|c1|p0;2個セット}
  7
ＭＳ ゴシック
 73
     1
 44
0.7828267384257843
1001
ACAD
1000
ACAD_MTEXT_DEFINED_HEIGHT_BEGIN
1070
    46
1040
5.23
1000
ACAD_MTEXT_DEFINED_HEIGHT_END
  0
VIEWPORT
  5
349
330
B
100
AcDbEntity
 67
     1
  8
0
100
AcDbViewport
 10
202.5
 20
128.5
 30
0.0
 40
486.0
 41
308.4
 68
     1
 69
     1
 12
202.5
 22
128.5
 13
0.0
 23
0.0
 14
0.5
 24
0.5
 15
0.0
 25
0.0
 16
0.0
 26
0.0
 36
1.0
 17
0.0
 27
0.0
 37
0.0
 42
50.0
 43
0.0
 44
0.0
 45
308.4
 50
0.0
 51
0.0
 72
   100
 90
   557152
  1

281
     0
 71
     1
 74
     0
110
0.0
120
0.0
130
0.0
111
1.0
121
0.0
131
0.0
112
0.0
122
1.0
132
0.0
 79
     0
146
0.0
170
     0
 61
     5
348
26C
292
     1
282
     1
141
0.0
142
0.0
 63
   256
  0
VIEWPORT
  5
34A
330
B
100
AcDbEntity
 67
     1
  8
0
100
AcDbViewport
 10
202.5
 20
128.5
 30
0.0
 40
324.0
 41
205.6
 68
     2
 69
     2
 12
986.6781359294573
 22
1427.077061889956
 13
0.0
 23
0.0
 14
0.5
 24
0.5
 15
0.0
 25
0.0
 16
0.0
 26
0.0
 36
1.0
 17
0.0
 27
0.0
 37
0.0
 42
50.0
 43
0.0
 44
0.0
 45
2890.021615685494
 50
0.0
 51
0.0
 72
   100
 90
   557152
  1

281
     0
 71
     1
 74
     0
110
0.0
120
0.0
130
0.0
111
1.0
121
0.0
131
0.0
112
0.0
122
1.0
132
0.0
 79
     0
146
0.0
170
     0
 61
     5
348
26C
292
     1
282
     1
141
0.0
142
0.0
 63
   256
  0
ENDSEC
  0
SECTION
  2
OBJECTS
  0
DICTIONARY
  5
19
330
0
100
AcDbDictionary
281
     1
  3
ACAD_COLOR
350
674
  3
ACAD_DETAILVIEWSTYLE
350
BBF
  3
ACAD_FIELDLIST
350
3DE5
  3
ACAD_GROUP
350
1A
  3
ACAD_IMAGE_VARS
350
27B
  3
ACAD_LAYOUT
350
1E
  3
ACAD_MATERIAL
350
263
  3
ACAD_MLEADERSTYLE
350
336
  3
ACAD_MLINESTYLE
350
1B
  3
ACAD_PLOTSETTINGS
350
22
  3
ACAD_PLOTSTYLENAME
350
1F
  3
ACAD_SCALELIST
350
241
  3
ACAD_SECTIONVIEWSTYLE
350
BC0
  3
ACAD_TABLESTYLE
350
278
  3
ACAD_VISUALSTYLE
350
267
  3
ACDB_RECOMPOSE_DATA
350
445A
  3
AcDbVariableDictionary
350
330
  3
APPDATA
350
27A
  3
DimOffsetDictionary
350
E38
  0
SUN
  5
904
330
15
100
AcDbSun
 90
        1
290
     0
 63
     7
421
 16777215
 40
1.0
291
     1
 91
  2455826
 92
 54000000
292
     0
 70
     2
 71
   256
280
     1
  0
DICTIONARY
  5
2E1
330
2
100
AcDbDictionary
280
     1
281
     1
  3
ACAD_LAYERSTATES
360
2E2
  3
ACLYDICTIONARY
360
DDE
  0
DICTIONARY
  5
3DE3
330
3DE1
100
AcDbDictionary
280
     1
281
     1
  0
DICTIONARY
  5
4424
330
4423
100
AcDbDictionary
280
     1
281
     1
  3
ACAD_DIMASSOC
360
4425
  0
DICTIONARY
  5
4433
330
4432
100
AcDbDictionary
280
     1
281
     1
  3
ACAD_DIMASSOC
360
4434
  0
DICTIONARY
  5
674
102
{ACAD_REACTORS
330
19
102
}
330
19
100
AcDbDictionary
281
     1
  0
DICTIONARY
  5
BBF
102
{ACAD_REACTORS
330
19
102
}
330
19
100
AcDbDictionary
281
     1
  0
FIELDLIST
  5
3DE5
102
{ACAD_REACTORS
330
19
102
}
330
19
100
AcDbIdSet
 90
        1
330
3DE6
100
AcDbFieldList
  0
DICTIONARY
  5
1A
102
{ACAD_REACTORS
330
19
102
}
330
19
100
AcDbDictionary
281
     1
  0
RASTERVARIABLES
  5
27B
102
{ACAD_REACTORS
330
19
102
}
330
19
100
AcDbRasterVariables
 90
        0
 70
     1
 71
     1
 72
     1
  0
DICTIONARY
  5
1E
102
{ACAD_REACTORS
330
19
102
}
330
19
100
AcDbDictionary
281
     1
  3
Layout1
350
21
  3
Model
350
20
  0
DICTIONARY
  5
263
102
{ACAD_REACTORS
330
19
102
}
330
19
100
AcDbDictionary
281
     1
  3
ByBlock
350
265
  3
ByLayer
350
264
  3
Global
350
266
  0
DICTIONARY
  5
336
102
{ACAD_REACTORS
330
19
102
}
330
19
100
AcDbDictionary
281
     1
  3
Standard
350
D59
  0
DICTIONARY
  5
1B
102
{ACAD_REACTORS
330
19
102
}
330
19
100
AcDbDictionary
281
     1
  3
Standard
350
1C
  0
DICTIONARY
  5
22
102
{ACAD_REACTORS
330
19
102
}
330
19
100
AcDbDictionary
281
     1
  0
ACDBDICTIONARYWDFLT
  5
1F
102
{ACAD_REACTORS
330
19
102
}
330
19
100
AcDbDictionary
281
     1
  3
Normal
350
1D
100
AcDbDictionaryWithDefault
340
1D
  0
DICTIONARY
  5
241
102
{ACAD_REACTORS
330
19
102
}
330
19
100
AcDbDictionary
281
     1
  3
A0
350
242
  3
A1
350
243
  3
A2
350
244
  3
A3
350
245
  3
A4
350
246
  3
A5
350
247
  3
A6
350
248
  3
A7
350
249
  3
A8
350
24A
  3
A9
350
24B
  3
B0
350
24C
  3
B1
350
24D
  3
B2
350
24E
  3
B3
350
24F
  3
B4
350
250
  3
B5
350
251
  3
B6
350
252
  3
B7
350
253
  3
B8
350
254
  3
B9
350
255
  3
C0
350
256
  3
C1
350
257
  3
C2
350
258
  3
C3
350
259
  3
C4
350
25A
  3
C5
350
25B
  3
C6
350
25C
  3
C7
350
25D
  3
C8
350
25E
  3
C9
350
25F
  3
D0
350
260
  3
D1
350
261
  3
D2
350
262
  0
DICTIONARY
  5
BC0
102
{ACAD_REACTORS
330
19
102
}
330
19
100
AcDbDictionary
281
     1
  0
DICTIONARY
  5
278
102
{ACAD_REACTORS
330
19
102
}
330
19
100
AcDbDictionary
281
     1
  3
Standard
350
279
  0
DICTIONARY
  5
267
102
{ACAD_REACTORS
330
19
102
}
330
19
100
AcDbDictionary
281
     1
  3
2dWireframe
350
26C
  3
3D Hidden
350
26E
  3
3dWireframe
350
26D
  3
Basic
350
26F
  3
Brighten
350
273
  3
ColorChange
350
277
  3
Conceptual
350
271
  3
Dim
350
272
  3
EdgeColorOff
350
8FE
  3
Facepattern
350
276
  3
Flat
350
268
  3
FlatWithEdges
350
269
  3
Gouraud
350
26A
  3
GouraudWithEdges
350
26B
  3
Hidden
350
8FB
  3
JitterOff
350
8FC
  3
Linepattern
350
275
  3
OverhangOff
350
8FD
  3
Realistic
350
270
  3
Shaded
350
903
  3
Shaded with edges
350
902
  3
Shades of Gray
350
8FF
  3
Sketchy
350
900
  3
Thicken
350
274
  3
Wireframe
350
8FA
  3
X-Ray
350
901
  0
XRECORD
  5
445A
102
{ACAD_REACTORS
330
19
102
}
330
19
100
AcDbXrecord
280
     1
 90
        1
330
279
  0
DICTIONARY
  5
330
102
{ACAD_REACTORS
330
19
102
}
330
19
100
AcDbDictionary
281
     1
  3
CANNOSCALE
350
331
  3
CMLEADERSTYLE
350
D5E
  3
CTABLESTYLE
350
335
  3
HPTRANSPARENCY
350
D52
  3
XCLIPFRAME
350
896
  0
DICTIONARY
  5
27A
102
{ACAD_REACTORS
330
19
102
}
330
19
100
AcDbDictionary
281
     1
  0
DICTIONARY
  5
E38
102
{ACAD_REACTORS
330
19
102
}
330
19
100
AcDbDictionary
281
     1
  3
DIMRAILANGLE
350
246C
  3
DIMRAILFIRSTOFFSET
350
246A
  3
DIMRAILOFFSET
350
246B
  3
DIMRAILSENABLED
350
246D
  0
DICTIONARY
  5
2E2
102
{ACAD_REACTORS
330
2E1
102
}
330
2E1
100
AcDbDictionary
281
     1
  0
DICTIONARY
  5
DDE
102
{ACAD_REACTORS
330
2E1
102
}
330
2E1
100
AcDbDictionary
281
     1
1001
ACAD
1000
<All
  0
DIMASSOC
  5
4425
102
{ACAD_REACTORS
330
4424
102
}
330
4424
100
AcDbDimAssoc
330
4423
 90
        3
 70
     0
 71
     1
  1
AcDbOsnapPointRef
 72
    13
331
4404
 73
     0
 91
        0
 40
0.0
 10
0.0
 20
0.0
 30
0.0
 75
     0
  1
AcDbOsnapPointRef
 72
     1
331
4400
 73
     0
 91
        0
 40
0.0
 10
0.0
 20
0.0
 30
0.0
 75
     0
  0
DIMASSOC
  5
4434
102
{ACAD_REACTORS
330
4433
102
}
330
4433
100
AcDbDimAssoc
330
4432
 90
        3
 70
     0
 71
     1
  1
AcDbOsnapPointRef
 72
    13
331
4407
 73
     0
 91
        0
 40
0.0
 10
0.0
 20
0.0
 30
0.0
 75
     0
  1
AcDbOsnapPointRef
 72
     1
331
4400
 73
     0
 91
        0
 40
0.0
 10
0.0
 20
0.0
 30
0.0
 75
     0
  0
LAYOUT
  5
21
102
{ACAD_REACTORS
330
1E
102
}
330
1E
100
AcDbPlotSettings
  1

  2
none_device
  4
ISO_A3_(420.00_x_297.00_MM)
  6

 40
7.5
 41
20.0
 42
7.5
 43
20.0
 44
420.0
 45
297.0
 46
0.0
 47
0.0
 48
0.0
 49
0.0
140
0.0
141
0.0
142
1.0
143
1.0
 70
     0
 72
     1
 73
     0
 74
     0
  7

 75
     0
 76
     0
 77
     2
 78
   300
147
1.0
148
0.0
149
0.0
100
AcDbLayout
  1
Layout1
 70
     0
 71
     0
 10
-7.5
 20
-20.0
 11
412.5
 21
277.0
 12
0.0
 22
0.0
 32
0.0
 14
0.0
 24
0.0
 34
0.0
 15
0.0
 25
0.0
 35
0.0
146
0.0
 13
0.0
 23
0.0
 33
0.0
 16
0.0
 26
0.0
 36
0.0
 17
0.0
 27
0.0
 37
0.0
 76
     0
330
B
331
349
  0
LAYOUT
  5
20
102
{ACAD_REACTORS
330
1E
102
}
330
1E
100
AcDbPlotSettings
  1

  2
Adobe PDF
  4
A4
  6

 40
0.0600000000000023
 41
0.0000000000000205
 42
0.0
 43
0.04
 44
210.0
 45
297.0
 46
0.0
 47
0.0
 48
0.0
 49
0.0
140
0.0
141
0.0
142
1.0
143
2.000571591883395
 70
  1584
 72
     1
 73
     0
 74
     1
  7
monochrome.ctb
 75
     0
 76
   112
 77
     2
 78
   300
147
0.4998571428571429
148
-91.02013567090052
149
73.59871453016603
100
AcDbLayout
  1
Model
 70
     0
 71
     1
 10
0.0
 20
0.0
 11
420.0
 21
594.0
 12
0.0
 22
0.0
 32
0.0
 14
0.0
 24
0.0
 34
-0.0000000000000142
 15
420.0
 25
594.0
 35
0.0000000000000142
146
0.0
 13
0.0
 23
0.0
 33
0.0
 16
0.0
 26
0.0
 36
0.0
 17
0.0
 27
0.0
 37
0.0
 76
     0
330
A
331
15
1001
PLOTTRANSPARENCY
1071
        0
  0
MATERIAL
  5
265
102
{ACAD_REACTORS
330
263
102
}
330
263
100
AcDbMaterial
  1
ByBlock
 72
     1
 94
      127
  0
MATERIAL
  5
264
102
{ACAD_REACTORS
330
263
102
}
330
263
100
AcDbMaterial
  1
ByLayer
 72
     1
 94
      127
  0
MATERIAL
  5
266
102
{ACAD_REACTORS
330
263
102
}
330
263
100
AcDbMaterial
  1
Global
 72
     1
 94
      127
  0
MLEADERSTYLE
  5
D59
102
{ACAD_REACTORS
330
336
102
}
330
336
100
AcDbMLeaderStyle
170
     2
171
     1
172
     0
 90
        2
 40
0.0
 41
0.0
173
     1
 91
-1056964608
340
11
 92
       -2
290
     1
 42
2.0
291
     1
 43
8.0
  3
Standard
341
0
 44
4.0
300

342
17
174
     1
178
     6
175
     1
176
     0
 93
-1056964608
 45
4.0
292
     0
297
     0
 46
4.0
343
0
 94
-1056964608
 47
1.0
 49
1.0
140
1.0
293
     1
141
0.0
294
     1
177
     0
142
1.0
295
     0
296
     0
143
3.75
1001
ACAD_MLEADERVER
1070
     2
  0
MLINESTYLE
  5
1C
102
{ACAD_REACTORS
330
1B
102
}
330
1B
100
AcDbMlineStyle
  2
Standard
 70
     0
  3

 62
     0
 51
90.0
 52
90.0
 71
     2
 49
0.5
 62
   256
  6
BYLAYER
 49
-0.5
 62
   256
  6
BYLAYER
  0
ACDBPLACEHOLDER
  5
1D
102
{ACAD_REACTORS
330
1F
102
}
330
1F
  0
SCALE
  5
242
102
{ACAD_REACTORS
330
241
102
}
330
241
100
AcDbScale
 70
     0
300
1:1
140
1.0
141
1.0
290
     1
  0
SCALE
  5
243
102
{ACAD_REACTORS
330
241
102
}
330
241
100
AcDbScale
 70
     0
300
1:2
140
1.0
141
2.0
290
     0
  0
SCALE
  5
244
102
{ACAD_REACTORS
330
241
102
}
330
241
100
AcDbScale
 70
     0
300
1:4
140
1.0
141
4.0
290
     0
  0
SCALE
  5
245
102
{ACAD_REACTORS
330
241
102
}
330
241
100
AcDbScale
 70
     0
300
1:5
140
1.0
141
5.0
290
     0
  0
SCALE
  5
246
102
{ACAD_REACTORS
330
241
102
}
330
241
100
AcDbScale
 70
     0
300
1:8
140
1.0
141
8.0
290
     0
  0
SCALE
  5
247
102
{ACAD_REACTORS
330
241
102
}
330
241
100
AcDbScale
 70
     0
300
1:10
140
1.0
141
10.0
290
     0
  0
SCALE
  5
248
102
{ACAD_REACTORS
330
241
102
}
330
241
100
AcDbScale
 70
     0
300
1:16
140
1.0
141
16.0
290
     0
  0
SCALE
  5
249
102
{ACAD_REACTORS
330
241
102
}
330
241
100
AcDbScale
 70
     0
300
1:20
140
1.0
141
20.0
290
     0
  0
SCALE
  5
24A
102
{ACAD_REACTORS
330
241
102
}
330
241
100
AcDbScale
 70
     0
300
1:30
140
1.0
141
30.0
290
     0
  0
SCALE
  5
24B
102
{ACAD_REACTORS
330
241
102
}
330
241
100
AcDbScale
 70
     0
300
1:40
140
1.0
141
40.0
290
     0
  0
SCALE
  5
24C
102
{ACAD_REACTORS
330
241
102
}
330
241
100
AcDbScale
 70
     0
300
1:50
140
1.0
141
50.0
290
     0
  0
SCALE
  5
24D
102
{ACAD_REACTORS
330
241
102
}
330
241
100
AcDbScale
 70
     0
300
1:100
140
1.0
141
100.0
290
     0
  0
SCALE
  5
24E
102
{ACAD_REACTORS
330
241
102
}
330
241
100
AcDbScale
 70
     0
300
2:1
140
2.0
141
1.0
290
     0
  0
SCALE
  5
24F
102
{ACAD_REACTORS
330
241
102
}
330
241
100
AcDbScale
 70
     0
300
4:1
140
4.0
141
1.0
290
     0
  0
SCALE
  5
250
102
{ACAD_REACTORS
330
241
102
}
330
241
100
AcDbScale
 70
     0
300
8:1
140
8.0
141
1.0
290
     0
  0
SCALE
  5
251
102
{ACAD_REACTORS
330
241
102
}
330
241
100
AcDbScale
 70
     0
300
10:1
140
10.0
141
1.0
290
     0
  0
SCALE
  5
252
102
{ACAD_REACTORS
330
241
102
}
330
241
100
AcDbScale
 70
     0
300
100:1
140
100.0
141
1.0
290
     0
  0
SCALE
  5
253
102
{ACAD_REACTORS
330
241
102
}
330
241
100
AcDbScale
 70
     0
300
1/128" = 1'-0"
140
0.0078125
141
12.0
290
     0
  0
SCALE
  5
254
102
{ACAD_REACTORS
330
241
102
}
330
241
100
AcDbScale
 70
     0
300
1/64" = 1'-0"
140
0.015625
141
12.0
290
     0
  0
SCALE
  5
255
102
{ACAD_REACTORS
330
241
102
}
330
241
100
AcDbScale
 70
     0
300
1/32" = 1'-0"
140
0.03125
141
12.0
290
     0
  0
SCALE
  5
256
102
{ACAD_REACTORS
330
241
102
}
330
241
100
AcDbScale
 70
     0
300
1/16" = 1'-0"
140
0.0625
141
12.0
290
     0
  0
SCALE
  5
257
102
{ACAD_REACTORS
330
241
102
}
330
241
100
AcDbScale
 70
     0
300
3/32" = 1'-0"
140
0.09375
141
12.0
290
     0
  0
SCALE
  5
258
102
{ACAD_REACTORS
330
241
102
}
330
241
100
AcDbScale
 70
     0
300
1/8" = 1'-0"
140
0.125
141
12.0
290
     0
  0
SCALE
  5
259
102
{ACAD_REACTORS
330
241
102
}
330
241
100
AcDbScale
 70
     0
300
3/16" = 1'-0"
140
0.1875
141
12.0
290
     0
  0
SCALE
  5
25A
102
{ACAD_REACTORS
330
241
102
}
330
241
100
AcDbScale
 70
     0
300
1/4" = 1'-0"
140
0.25
141
12.0
290
     0
  0
SCALE
  5
25B
102
{ACAD_REACTORS
330
241
102
}
330
241
100
AcDbScale
 70
     0
300
3/8" = 1'-0"
140
0.375
141
12.0
290
     0
  0
SCALE
  5
25C
102
{ACAD_REACTORS
330
241
102
}
330
241
100
AcDbScale
 70
     0
300
1/2" = 1'-0"
140
0.5
141
12.0
290
     0
  0
SCALE
  5
25D
102
{ACAD_REACTORS
330
241
102
}
330
241
100
AcDbScale
 70
     0
300
3/4" = 1'-0"
140
0.75
141
12.0
290
     0
  0
SCALE
  5
25E
102
{ACAD_REACTORS
330
241
102
}
330
241
100
AcDbScale
 70
     0
300
1" = 1'-0"
140
1.0
141
12.0
290
     0
  0
SCALE
  5
25F
102
{ACAD_REACTORS
330
241
102
}
330
241
100
AcDbScale
 70
     0
300
1-1/2" = 1'-0"
140
1.5
141
12.0
290
     0
  0
SCALE
  5
260
102
{ACAD_REACTORS
330
241
102
}
330
241
100
AcDbScale
 70
     0
300
3" = 1'-0"
140
3.0
141
12.0
290
     0
  0
SCALE
  5
261
102
{ACAD_REACTORS
330
241
102
}
330
241
100
AcDbScale
 70
     0
300
6" = 1'-0"
140
6.0
141
12.0
290
     0
  0
SCALE
  5
262
102
{ACAD_REACTORS
330
241
102
}
330
241
100
AcDbScale
 70
     0
300
1'-0" = 1'-0"
140
12.0
141
12.0
290
     0
  0
TABLESTYLE
  5
279
102
{ACAD_REACTORS
330
278
102
}
102
{ACAD_XDICTIONARY
360
4458
102
}
330
278
100
AcDbTableStyle
  3
Standard
 70
     0
 71
     0
 40
0.06
 41
0.06
280
     0
281
     0
  7
Standard
140
4.5
170
     2
 62
     0
 63
   257
283
     0
 90
        4
 91
        0
  1

274
    -2
284
     1
 64
     0
275
    -2
285
     1
 65
     0
276
    -2
286
     1
 66
     0
277
    -2
287
     1
 67
     0
278
    -2
288
     1
 68
     0
279
    -2
289
     1
 69
     0
  7
Standard
140
6.0
170
     5
 62
     0
 63
   257
283
     0
 90
        4
 91
        0
  1

274
    -2
284
     1
 64
     0
275
    -2
285
     1
 65
     0
276
    -2
286
     1
 66
     0
277
    -2
287
     1
 67
     0
278
    -2
288
     1
 68
     0
279
    -2
289
     1
 69
     0
  7
Standard
140
4.5
170
     5
 62
     0
 63
   257
283
     0
 90
        4
 91
        0
  1

274
    -2
284
     1
 64
     0
275
    -2
285
     1
 65
     0
276
    -2
286
     1
 66
     0
277
    -2
287
     1
 67
     0
278
    -2
288
     1
 68
     0
279
    -2
289
     1
 69
     0
  0
VISUALSTYLE
  5
26C
102
{ACAD_REACTORS
330
267
102
}
330
267
100
AcDbVisualStyle
  2
2dWireframe
 70
     4
 71
     0
 72
     2
 73
     0
 90
        0
 40
-0.6
 41
-30.0
 62
     5
 63
     7
421
 16777215
 74
     1
 91
        4
 64
     7
 65
   257
 75
     1
175
     1
 42
1.0
 92
        0
 66
   257
 43
1.0
 76
     1
 77
     6
 78
     2
 67
     7
 79
     5
170
     0
171
     0
290
     0
174
     0
 93
        1
 44
0.0
173
     0
291
     0
 45
0.0
  0
VISUALSTYLE
  5
26E
102
{ACAD_REACTORS
330
267
102
}
330
267
100
AcDbVisualStyle
  2
3D Hidden
 70
     6
 71
     1
 72
     2
 73
     2
 90
        0
 40
-0.6
 41
-30.0
 62
     5
 63
     7
421
 16777215
 74
     2
 91
        2
 64
     7
 65
   257
 75
     2
175
     1
 42
40.0
 92
        0
 66
   257
 43
1.0
 76
     1
 77
     6
 78
     2
 67
     7
 79
     3
170
     0
171
     0
290
     0
174
     0
 93
        1
 44
0.0
173
     0
291
     0
 45
0.0
  0
VISUALSTYLE
  5
26D
102
{ACAD_REACTORS
330
267
102
}
330
267
100
AcDbVisualStyle
  2
3dWireframe
 70
     5
 71
     0
 72
     2
 73
     0
 90
        0
 40
-0.6
 41
-30.0
 62
     5
 63
     7
421
 16777215
 74
     1
 91
        4
 64
     7
 65
   257
 75
     1
175
     1
 42
1.0
 92
        0
 66
   257
 43
1.0
 76
     1
 77
     6
 78
     2
 67
     7
 79
     5
170
     0
171
     0
290
     0
174
     0
 93
        1
 44
0.0
173
     0
291
     0
 45
0.0
  0
VISUALSTYLE
  5
26F
102
{ACAD_REACTORS
330
267
102
}
330
267
100
AcDbVisualStyle
  2
Basic
 70
     7
 71
     1
 72
     0
 73
     1
 90
        0
 40
-0.6
 41
-30.0
 62
     5
 63
     7
421
 16777215
 74
     0
 91
        4
 64
     7
 65
   257
 75
     1
175
     1
 42
1.0
 92
        8
 66
     7
 43
1.0
 76
     1
 77
     6
 78
     2
 67
     7
 79
     5
170
     0
171
     0
290
     0
174
     0
 93
        1
 44
0.0
173
     0
291
     1
 45
0.0
  0
VISUALSTYLE
  5
273
102
{ACAD_REACTORS
330
267
102
}
330
267
100
AcDbVisualStyle
  2
Brighten
 70
    12
 71
     2
 72
     2
 73
     0
 90
        0
 40
-0.6
 41
-30.0
 62
     5
 63
     7
421
 16777215
 74
     1
 91
        4
 64
     7
 65
   257
 75
     1
175
     1
 42
1.0
 92
        8
 66
     7
 43
1.0
 76
     1
 77
     6
 78
     2
 67
     7
 79
     5
170
     0
171
     0
290
     0
174
     0
 93
        1
 44
50.0
173
     0
291
     1
 45
0.0
  0
VISUALSTYLE
  5
277
102
{ACAD_REACTORS
330
267
102
}
330
267
100
AcDbVisualStyle
  2
ColorChange
 70
    16
 71
     2
 72
     2
 73
     3
 90
        0
 40
-0.6
 41
-30.0
 62
     5
 63
     8
421
  8421504
 74
     1
 91
        4
 64
     7
 65
   257
 75
     1
175
     1
 42
1.0
 92
        8
 66
     8
424
  8421504
 43
1.0
 76
     1
 77
     6
 78
     2
 67
     7
 79
     5
170
     0
171
     0
290
     0
174
     0
 93
        1
 44
0.0
173
     0
291
     1
 45
0.0
  0
VISUALSTYLE
  5
271
102
{ACAD_REACTORS
330
267
102
}
330
267
100
AcDbVisualStyle
  2
Conceptual
 70
     9
 71
     3
 72
     2
 73
     0
 90
        0
 40
-0.6
 41
-30.0
 62
     5
 63
     7
421
 16777215
 74
     2
 91
        2
 64
     7
 65
   257
 75
     1
175
     1
 42
40.0
 92
        8
 66
     7
 43
1.0
 76
     1
 77
     6
 78
     2
 67
     7
 79
     3
170
     0
171
     0
290
     0
174
     0
 93
        1
 44
0.0
173
     0
291
     0
 45
0.0
  0
VISUALSTYLE
  5
272
102
{ACAD_REACTORS
330
267
102
}
330
267
100
AcDbVisualStyle
  2
Dim
 70
    11
 71
     2
 72
     2
 73
     0
 90
        0
 40
-0.6
 41
-30.0
 62
     5
 63
     7
421
 16777215
 74
     1
 91
        4
 64
     7
 65
   257
 75
     1
175
     1
 42
1.0
 92
        8
 66
     7
 43
1.0
 76
     1
 77
     6
 78
     2
 67
     7
 79
     5
170
     0
171
     0
290
     0
174
     0
 93
        1
 44
-50.0
173
     0
291
     1
 45
0.0
  0
VISUALSTYLE
  5
8FE
102
{ACAD_REACTORS
330
267
102
}
330
267
100
AcDbVisualStyle
  2
EdgeColorOff
 70
    22
 71
     2
 72
     2
 73
     0
 90
        0
 40
0.6
 41
30.0
 62
     5
 63
     7
421
 16777215
 74
     1
 91
        4
 64
     7
 65
   257
 75
     1
175
     1
 42
1.0
 92
        8
 66
     7
 43
1.0
 76
     1
 77
     6
 78
     2
 67
     7
 79
     5
170
     0
171
     0
290
     0
174
     0
 93
        1
 44
0.0
173
     0
291
     1
 45
0.0
  0
VISUALSTYLE
  5
276
102
{ACAD_REACTORS
330
267
102
}
330
267
100
AcDbVisualStyle
  2
Facepattern
 70
    15
 71
     2
 72
     2
 73
     0
 90
        0
 40
-0.6
 41
-30.0
 62
     5
 63
     7
421
 16777215
 74
     1
 91
        4
 64
     7
 65
   257
 75
     1
175
     1
 42
1.0
 92
        8
 66
     7
 43
1.0
 76
     1
 77
     6
 78
     2
 67
     7
 79
     5
170
     0
171
     0
290
     0
174
     0
 93
        1
 44
0.0
173
     0
291
     1
 45
0.0
  0
VISUALSTYLE
  5
268
102
{ACAD_REACTORS
330
267
102
}
330
267
100
AcDbVisualStyle
  2
Flat
 70
     0
 71
     2
 72
     1
 73
     1
 90
        2
 40
-0.6
 41
30.0
 62
     5
 63
     7
421
 16777215
 74
     0
 91
        4
 64
     7
 65
   257
 75
     1
175
     1
 42
1.0
 92
        8
 66
     7
 43
1.0
 76
     1
 77
     6
 78
     2
 67
     7
 79
     5
170
     0
171
     0
290
     0
174
     0
 93
       13
 44
0.0
173
     0
291
     1
 45
0.0
  0
VISUALSTYLE
  5
269
102
{ACAD_REACTORS
330
267
102
}
330
267
100
AcDbVisualStyle
  2
FlatWithEdges
 70
     1
 71
     2
 72
     1
 73
     1
 90
        2
 40
-0.6
 41
30.0
 62
     5
 63
     7
421
 16777215
 74
     1
 91
        4
 64
     7
 65
   257
 75
     1
175
     1
 42
1.0
 92
        0
 66
   257
 43
1.0
 76
     1
 77
     6
 78
     2
 67
     7
 79
     5
170
     0
171
     0
290
     0
174
     0
 93
       13
 44
0.0
173
     0
291
     1
 45
0.0
  0
VISUALSTYLE
  5
26A
102
{ACAD_REACTORS
330
267
102
}
330
267
100
AcDbVisualStyle
  2
Gouraud
 70
     2
 71
     2
 72
     2
 73
     1
 90
        2
 40
-0.6
 41
30.0
 62
     5
 63
     7
421
 16777215
 74
     0
 91
        4
 64
     7
 65
   257
 75
     1
175
     1
 42
1.0
 92
        0
 66
     7
 43
1.0
 76
     1
 77
     6
 78
     2
 67
     7
 79
     5
170
     0
171
     0
290
     0
174
     0
 93
       13
 44
0.0
173
     0
291
     1
 45
0.0
  0
VISUALSTYLE
  5
26B
102
{ACAD_REACTORS
330
267
102
}
330
267
100
AcDbVisualStyle
  2
GouraudWithEdges
 70
     3
 71
     2
 72
     2
 73
     1
 90
        2
 40
-0.6
 41
30.0
 62
     5
 63
     7
421
 16777215
 74
     1
 91
        4
 64
     7
 65
   257
 75
     1
175
     1
 42
1.0
 92
        0
 66
   257
 43
1.0
 76
     1
 77
     6
 78
     2
 67
     7
 79
     5
170
     0
171
     0
290
     0
174
     0
 93
       13
 44
0.0
173
     0
291
     1
 45
0.0
  0
VISUALSTYLE
  5
8FB
102
{ACAD_REACTORS
330
267
102
}
330
267
100
AcDbVisualStyle
  2
Hidden
 70
     6
 71
     1
 72
     2
 73
     2
 90
        0
 40
0.6
 41
30.0
 62
     5
 63
     7
421
 16777215
 74
     2
 91
        2
 64
     7
 65
   257
 75
     2
175
     1
 42
40.0
 92
        0
 66
   257
 43
1.0
 76
     1
 77
     6
 78
     2
 67
     7
 79
     3
170
     0
171
     0
290
     0
174
     0
 93
        1
 44
0.0
173
     0
291
     0
 45
0.0
  0
VISUALSTYLE
  5
8FC
102
{ACAD_REACTORS
330
267
102
}
330
267
100
AcDbVisualStyle
  2
JitterOff
 70
    20
 71
     2
 72
     2
 73
     0
 90
        0
 40
0.6
 41
30.0
 62
     5
 63
     7
421
 16777215
 74
     1
 91
        4
 64
     7
 65
   257
 75
     1
175
     1
 42
1.0
 92
       10
 66
     7
 43
1.0
 76
     1
 77
     6
 78
     2
 67
     7
 79
     5
170
     0
171
     0
290
     0
174
     0
 93
        1
 44
0.0
173
     0
291
     1
 45
0.0
  0
VISUALSTYLE
  5
275
102
{ACAD_REACTORS
330
267
102
}
330
267
100
AcDbVisualStyle
  2
Linepattern
 70
    14
 71
     2
 72
     2
 73
     0
 90
        0
 40
-0.6
 41
-30.0
 62
     5
 63
     7
421
 16777215
 74
     1
 91
        4
 64
     7
 65
   257
 75
     7
175
     7
 42
1.0
 92
        8
 66
     7
 43
1.0
 76
     1
 77
     6
 78
     2
 67
     7
 79
     5
170
     0
171
     0
290
     0
174
     0
 93
        1
 44
0.0
173
     0
291
     1
 45
0.0
  0
VISUALSTYLE
  5
8FD
102
{ACAD_REACTORS
330
267
102
}
330
267
100
AcDbVisualStyle
  2
OverhangOff
 70
    21
 71
     2
 72
     2
 73
     0
 90
        0
 40
0.6
 41
30.0
 62
     5
 63
     7
421
 16777215
 74
     1
 91
        4
 64
     7
 65
   257
 75
     1
175
     1
 42
1.0
 92
        9
 66
     7
 43
1.0
 76
     1
 77
     6
 78
     2
 67
     7
 79
     5
170
     0
171
     0
290
     0
174
     0
 93
        1
 44
0.0
173
     0
291
     1
 45
0.0
  0
VISUALSTYLE
  5
270
102
{ACAD_REACTORS
330
267
102
}
330
267
100
AcDbVisualStyle
  2
Realistic
 70
     8
 71
     2
 72
     2
 73
     0
 90
        0
 40
-0.6
 41
-30.0
 62
     5
 63
     7
421
 16777215
 74
     1
 91
        0
 64
     7
 65
   257
 75
     1
175
     1
 42
1.0
 92
        8
 66
     8
424
  7895160
 43
1.0
 76
     1
 77
     6
 78
     2
 67
     7
 79
     5
170
     0
171
     0
290
     0
174
     0
 93
       13
 44
0.0
173
     0
291
     0
 45
0.0
  0
VISUALSTYLE
  5
903
102
{ACAD_REACTORS
330
267
102
}
330
267
100
AcDbVisualStyle
  2
Shaded
 70
    27
 71
     2
 72
     2
 73
     1
 90
        2
 40
0.6
 41
30.0
 62
     5
 63
     7
421
 16777215
 74
     0
 91
        4
 64
     7
 65
   257
 75
     1
175
     1
 42
1.0
 92
        8
 66
   257
 43
1.0
 76
     1
 77
     6
 78
     2
 67
     8
425
  7895160
 79
     3
170
     0
171
     0
290
     0
174
     0
 93
        5
 44
0.0
173
     0
291
     0
 45
0.0
  0
VISUALSTYLE
  5
902
102
{ACAD_REACTORS
330
267
102
}
330
267
100
AcDbVisualStyle
  2
Shaded with edges
 70
    26
 71
     2
 72
     2
 73
     1
 90
        2
 40
0.6
 41
30.0
 62
     5
 63
     7
421
 16777215
 74
     1
 91
       10
 64
     7
 65
   257
 75
     2
175
     1
 42
1.0
 92
        8
 66
   257
 43
1.0
 76
     1
 77
     6
 78
     2
 67
     7
 79
     3
170
     0
171
     0
290
     0
174
     0
 93
        5
 44
0.0
173
     0
291
     0
 45
0.0
  0
VISUALSTYLE
  5
8FF
102
{ACAD_REACTORS
330
267
102
}
330
267
100
AcDbVisualStyle
  2
Shades of Gray
 70
    23
 71
     2
 72
     2
 73
     3
 90
        0
 40
0.6
 41
30.0
 62
     5
 63
     7
421
 16777215
 74
     2
 91
        2
 64
     7
 65
     7
 75
     1
175
     1
 42
40.0
 92
        8
 66
     7
 43
1.0
 76
     1
 77
     6
 78
     2
 67
     7
 79
     3
170
     0
171
     0
290
     0
174
     0
 93
        1
 44
0.0
173
     0
291
     0
 45
0.0
  0
VISUALSTYLE
  5
900
102
{ACAD_REACTORS
330
267
102
}
330
267
100
AcDbVisualStyle
  2
Sketchy
 70
    24
 71
     1
 72
     2
 73
     2
 90
        0
 40
0.6
 41
30.0
 62
     5
 63
     7
421
 16777215
 74
     2
 91
        2
 64
     7
 65
     7
 75
     1
175
     1
 42
40.0
 92
       11
 66
     7
 43
1.0
 76
     1
 77
     6
 78
     2
 67
     7
 79
     6
170
     0
171
     0
290
     0
174
     0
 93
        1
 44
0.0
173
     0
291
     0
 45
0.0
  0
VISUALSTYLE
  5
274
102
{ACAD_REACTORS
330
267
102
}
330
267
100
AcDbVisualStyle
  2
Thicken
 70
    13
 71
     2
 72
     2
 73
     0
 90
        0
 40
-0.6
 41
-30.0
 62
     5
 63
     7
421
 16777215
 74
     1
 91
        4
 64
     7
 65
   257
 75
     1
175
     1
 42
1.0
 92
       12
 66
     7
 43
1.0
 76
     1
 77
     6
 78
     2
 67
     7
 79
     5
170
     0
171
     0
290
     0
174
     0
 93
        1
 44
0.0
173
     0
291
     1
 45
0.0
  0
VISUALSTYLE
  5
8FA
102
{ACAD_REACTORS
330
267
102
}
330
267
100
AcDbVisualStyle
  2
Wireframe
 70
     5
 71
     0
 72
     2
 73
     0
 90
        0
 40
0.6
 41
30.0
 62
     5
 63
     7
421
 16777215
 74
     1
 91
        4
 64
     7
 65
   257
 75
     1
175
     1
 42
1.0
 92
        0
 66
   257
 43
1.0
 76
     1
 77
     6
 78
     2
 67
     7
 79
     3
170
     0
171
     0
290
     0
174
     0
 93
        1
 44
0.0
173
     0
291
     0
 45
0.0
  0
VISUALSTYLE
  5
901
102
{ACAD_REACTORS
330
267
102
}
330
267
100
AcDbVisualStyle
  2
X-Ray
 70
    25
 71
     2
 72
     2
 73
     1
 90
        1
 40
0.5
 41
30.0
 62
     5
 63
     7
421
 16777215
 74
     1
 91
        0
 64
     7
 65
   257
 75
     1
175
     1
 42
1.0
 92
        8
 66
     7
 43
1.0
 76
     1
 77
     6
 78
     2
 67
     7
 79
     3
170
     0
171
     0
290
     0
174
     0
 93
       13
 44
0.0
173
     0
291
     0
 45
0.0
  0
DICTIONARYVAR
  5
331
102
{ACAD_REACTORS
330
330
102
}
330
330
100
DictionaryVariables
280
     0
  1
1:1
  0
DICTIONARYVAR
  5
D5E
102
{ACAD_REACTORS
330
330
102
}
330
330
100
DictionaryVariables
280
     0
  1
Standard
  0
DICTIONARYVAR
  5
335
102
{ACAD_REACTORS
330
330
102
}
330
330
100
DictionaryVariables
280
     0
  1
Standard
  0
DICTIONARYVAR
  5
D52
102
{ACAD_REACTORS
330
330
102
}
330
330
100
DictionaryVariables
280
     0
  1
ByLayer
  0
DICTIONARYVAR
  5
896
102
{ACAD_REACTORS
330
330
102
}
330
330
100
DictionaryVariables
280
     0
  1
0
  0
DICTIONARYVAR
  5
246C
102
{ACAD_REACTORS
330
E38
102
}
330
E38
100
DictionaryVariables
280
     0
  1
0.261799
  0
DICTIONARYVAR
  5
246A
102
{ACAD_REACTORS
330
E38
102
}
330
E38
100
DictionaryVariables
280
     0
  1
0.400000
  0
DICTIONARYVAR
  5
246B
102
{ACAD_REACTORS
330
E38
102
}
330
E38
100
DictionaryVariables
280
     0
  1
0.250000
  0
DICTIONARYVAR
  5
246D
102
{ACAD_REACTORS
330
E38
102
}
330
E38
100
DictionaryVariables
280
     0
  1
1
  0
DICTIONARY
  5
4458
330
279
100
AcDbDictionary
280
     1
281
     1
  3
ACAD_ROUNDTRIP_2008_TABLESTYLE_CELLSTYLEMAP
360
4459
  0
CELLSTYLEMAP
  5
4459
102
{ACAD_REACTORS
330
4458
102
}
330
4458
100
AcDbCellStyleMap
 90
        3
300
CELLSTYLE
  1
TABLEFORMAT_BEGIN
 90
        5
170
     1
 91
        0
 92
    32768
 62
   257
 93
        1
300
CONTENTFORMAT
  1
CONTENTFORMAT_BEGIN
 90
        0
 91
        0
 92
        4
 93
        0
300

 40
0.0
140
1.0
 94
        5
 62
     0
340
17
144
6.0
309
CONTENTFORMAT_END
171
     1
301
MARGIN
  1
CELLMARGIN_BEGIN
 40
0.06
 40
0.06
 40
0.06
 40
0.06
 40
0.18
 40
0.18
309
CELLMARGIN_END
 94
        6
 95
        1
302
GRIDFORMAT
  1
GRIDFORMAT_BEGIN
 90
        0
 91
        1
 62
     0
 92
       -2
340
0
 93
        0
 40
0.045
309
GRIDFORMAT_END
 95
        2
302
GRIDFORMAT
  1
GRIDFORMAT_BEGIN
 90
        0
 91
        1
 62
     0
 92
       -2
340
0
 93
        0
 40
0.045
309
GRIDFORMAT_END
 95
        4
302
GRIDFORMAT
  1
GRIDFORMAT_BEGIN
 90
        0
 91
        1
 62
     0
 92
       -2
340
0
 93
        0
 40
0.045
309
GRIDFORMAT_END
 95
        8
302
GRIDFORMAT
  1
GRIDFORMAT_BEGIN
 90
        0
 91
        1
 62
     0
 92
       -2
340
0
 93
        0
 40
0.045
309
GRIDFORMAT_END
 95
       16
302
GRIDFORMAT
  1
GRIDFORMAT_BEGIN
 90
        0
 91
        1
 62
     0
 92
       -2
340
0
 93
        0
 40
0.045
309
GRIDFORMAT_END
 95
       32
302
GRIDFORMAT
  1
GRIDFORMAT_BEGIN
 90
        0
 91
        1
 62
     0
 92
       -2
340
0
 93
        0
 40
0.045
309
GRIDFORMAT_END
309
TABLEFORMAT_END
  1
CELLSTYLE_BEGIN
 90
        1
 91
        1
300
_TITLE
309
CELLSTYLE_END
300
CELLSTYLE
  1
TABLEFORMAT_BEGIN
 90
        5
170
     1
 91
        0
 92
        0
 62
   257
 93
        1
300
CONTENTFORMAT
  1
CONTENTFORMAT_BEGIN
 90
        0
 91
        0
 92
        4
 93
        0
300

 40
0.0
140
1.0
 94
        5
 62
     0
340
17
144
4.5
309
CONTENTFORMAT_END
171
     1
301
MARGIN
  1
CELLMARGIN_BEGIN
 40
0.06
 40
0.06
 40
0.06
 40
0.06
 40
0.18
 40
0.18
309
CELLMARGIN_END
 94
        6
 95
        1
302
GRIDFORMAT
  1
GRIDFORMAT_BEGIN
 90
        0
 91
        1
 62
     0
 92
       -2
340
0
 93
        0
 40
0.045
309
GRIDFORMAT_END
 95
        2
302
GRIDFORMAT
  1
GRIDFORMAT_BEGIN
 90
        0
 91
        1
 62
     0
 92
       -2
340
0
 93
        0
 40
0.045
309
GRIDFORMAT_END
 95
        4
302
GRIDFORMAT
  1
GRIDFORMAT_BEGIN
 90
        0
 91
        1
 62
     0
 92
       -2
340
0
 93
        0
 40
0.045
309
GRIDFORMAT_END
 95
        8
302
GRIDFORMAT
  1
GRIDFORMAT_BEGIN
 90
        0
 91
        1
 62
     0
 92
       -2
340
0
 93
        0
 40
0.045
309
GRIDFORMAT_END
 95
       16
302
GRIDFORMAT
  1
GRIDFORMAT_BEGIN
 90
        0
 91
        1
 62
     0
 92
       -2
340
0
 93
        0
 40
0.045
309
GRIDFORMAT_END
 95
       32
302
GRIDFORMAT
  1
GRIDFORMAT_BEGIN
 90
        0
 91
        1
 62
     0
 92
       -2
340
0
 93
        0
 40
0.045
309
GRIDFORMAT_END
309
TABLEFORMAT_END
  1
CELLSTYLE_BEGIN
 90
        2
 91
        1
300
_HEADER
309
CELLSTYLE_END
300
CELLSTYLE
  1
TABLEFORMAT_BEGIN
 90
        5
170
     1
 91
        0
 92
        0
 62
   257
 93
        1
300
CONTENTFORMAT
  1
CONTENTFORMAT_BEGIN
 90
        0
 91
        0
 92
        4
 93
        0
300

 40
0.0
140
1.0
 94
        2
 62
     0
340
17
144
4.5
309
CONTENTFORMAT_END
171
     1
301
MARGIN
  1
CELLMARGIN_BEGIN
 40
0.06
 40
0.06
 40
0.06
 40
0.06
 40
0.18
 40
0.18
309
CELLMARGIN_END
 94
        6
 95
        1
302
GRIDFORMAT
  1
GRIDFORMAT_BEGIN
 90
        0
 91
        1
 62
     0
 92
       -2
340
0
 93
        0
 40
0.045
309
GRIDFORMAT_END
 95
        2
302
GRIDFORMAT
  1
GRIDFORMAT_BEGIN
 90
        0
 91
        1
 62
     0
 92
       -2
340
0
 93
        0
 40
0.045
309
GRIDFORMAT_END
 95
        4
302
GRIDFORMAT
  1
GRIDFORMAT_BEGIN
 90
        0
 91
        1
 62
     0
 92
       -2
340
0
 93
        0
 40
0.045
309
GRIDFORMAT_END
 95
        8
302
GRIDFORMAT
  1
GRIDFORMAT_BEGIN
 90
        0
 91
        1
 62
     0
 92
       -2
340
0
 93
        0
 40
0.045
309
GRIDFORMAT_END
 95
       16
302
GRIDFORMAT
  1
GRIDFORMAT_BEGIN
 90
        0
 91
        1
 62
     0
 92
       -2
340
0
 93
        0
 40
0.045
309
GRIDFORMAT_END
 95
       32
302
GRIDFORMAT
  1
GRIDFORMAT_BEGIN
 90
        0
 91
        1
 62
     0
 92
       -2
340
0
 93
        0
 40
0.045
309
GRIDFORMAT_END
309
TABLEFORMAT_END
  1
CELLSTYLE_BEGIN
 90
        3
 91
        2
300
_DATA
309
CELLSTYLE_END
  0
ENDSEC
  0
EOF
