  0
SECTION
  2
HEADER
  9
$ACADVER
  1
AC1021
  9
$ACADMAINTVER
 70
    25
  9
$DWGCODEPAGE
  3
ANSI_932
  9
$LASTSAVEDBY
  1
howeNelson
  9
$INSBASE
 10
0.0
 20
0.0
 30
0.0
  9
$EXTMIN
 10
164.4325323874079
 20
62.66992519713494
 30
0.0
  9
$EXTMAX
 10
2114.43253238789
 20
2896.024450378993
 30
0.0
  9
$LIMMIN
 10
87.0
 20
0.0000000000000568
  9
$LIMMAX
 10
2186.999999999999
 20
2970.0
  9
$ORTHOMODE
 70
     0
  9
$REGENMODE
 70
     1
  9
$FILLMODE
 70
     1
  9
$QTEXTMODE
 70
     0
  9
$MIRRTEXT
 70
     1
  9
$LTSCALE
 40
12.7
  9
$ATTMODE
 70
     1
  9
$TEXTSIZE
 40
2.5
  9
$TRACEWID
 40
1.0
  9
$TEXTSTYLE
  7
Standard
  9
$CLAYER
  8
FAA70-0506
  9
$CELTYPE
  6
Continuous
  9
$CECOLOR
 62
   256
  9
$CELTSCALE
 40
1.0
  9
$DISPSILH
 70
     0
  9
$DIMSCALE
 40
1.0
  9
$DIMASZ
 40
31.75
  9
$DIMEXO
 40
0.0
  9
$DIMDLI
 40
6.99999999999994
  9
$DIMRND
 40
0.0
  9
$DIMDLE
 40
0.0
  9
$DIMEXE
 40
19.9999999999962
  9
$DIMTP
 40
0.0
  9
$DIMTM
 40
0.0
  9
$DIMTXT
 40
24.4326171875
  9
$DIMCEN
 40
0.0
  9
$DIMTSZ
 40
0.0
  9
$DIMTOL
 70
     0
  9
$DIMLIM
 70
     0
  9
$DIMTIH
 70
     0
  9
$DIMTOH
 70
     0
  9
$DIMSE1
 70
     0
  9
$DIMSE2
 70
     0
  9
$DIMTAD
 70
     1
  9
$DIMZIN
 70
    11
  9
$DIMBLK
  1
VW_FILLEDARROW
  9
$DIMASO
 70
     1
  9
$DIMSHO
 70
     1
  9
$DIMPOST
  1
<>
  9
$DIMAPOST
  1
[]
  9
$DIMALT
 70
     0
  9
$DIMALTD
 70
     1
  9
$DIMALTF
 40
1.0
  9
$DIMLFAC
 40
1.0
  9
$DIMTOFL
 70
     0
  9
$DIMTVP
 40
0.0
  9
$DIMTIX
 70
     1
  9
$DIMSOXD
 70
     0
  9
$DIMSAH
 70
     0
  9
$DIMBLK1
  1

  9
$DIMBLK2
  1

  9
$DIMSTYLE
  2
JIS
  9
$DIMCLRD
 70
     0
  9
$DIMCLRE
 70
     0
  9
$DIMCLRT
 70
     0
  9
$DIMTFAC
 40
1.0
  9
$DIMGAP
 40
1.00000000000108
  9
$DIMJUST
 70
     0
  9
$DIMSD1
 70
     0
  9
$DIMSD2
 70
     0
  9
$DIMTOLJ
 70
     1
  9
$DIMTZIN
 70
    11
  9
$DIMALTZ
 70
    11
  9
$DIMALTTZ
 70
    11
  9
$DIMUPT
 70
     0
  9
$DIMDEC
 70
     1
  9
$DIMTDEC
 70
     1
  9
$DIMALTU
 70
     2
  9
$DIMALTTD
 70
     2
  9
$DIMTXSTY
  7
ＭＳ ゴシック
  9
$DIMAUNIT
 70
     0
  9
$DIMADEC
 70
     2
  9
$DIMALTRND
 40
0.0
  9
$DIMAZIN
 70
     0
  9
$DIMDSEP
 70
    46
  9
$DIMATFIT
 70
     0
  9
$DIMFRAC
 70
     2
  9
$DIMLDRBLK
  1

  9
$DIMLUNIT
 70
     2
  9
$DIMLWD
 70
    -2
  9
$DIMLWE
 70
    -2
  9
$DIMTMOVE
 70
     0
  9
$DIMFXL
 40
1.0
  9
$DIMFXLON
 70
     0
  9
$DIMJOGANG
 40
0.7853981633974483
  9
$DIMTFILL
 70
     0
  9
$DIMTFILLCLR
 70
     0
  9
$DIMARCSYM
 70
     0
  9
$DIMLTYPE
  6

  9
$DIMLTEX1
  6

  9
$DIMLTEX2
  6

  9
$LUNITS
 70
     2
  9
$LUPREC
 70
     4
  9
$SKETCHINC
 40
0.1
  9
$FILLETRAD
 40
0.0
  9
$AUNITS
 70
     0
  9
$AUPREC
 70
     0
  9
$MENU
  1
acad
  9
$ELEVATION
 40
0.0
  9
$PELEVATION
 40
0.0
  9
$THICKNESS
 40
0.0
  9
$LIMCHECK
 70
     0
  9
$CHAMFERA
 40
0.0
  9
$CHAMFERB
 40
0.0
  9
$CHAMFERC
 40
0.0
  9
$CHAMFERD
 40
0.0
  9
$SKPOLY
 70
     0
  9
$TDCREATE
 40
2447893.375
  9
$TDUCREATE
 40
0.0
  9
$TDUPDATE
 40
2458333.738594004
  9
$TDUUPDATE
 40
2458333.363594004
  9
$TDINDWG
 40
0.0074347454
  9
$TDUSRTIMER
 40
0.0006710648
  9
$USRTIMER
 70
     1
  9
$ANGBASE
 50
0.0
  9
$ANGDIR
 70
     0
  9
$PDMODE
 70
     1
  9
$PDSIZE
 40
-2.0
  9
$PLINEWID
 40
0.0
  9
$SPLFRAME
 70
     0
  9
$SPLINETYPE
 70
     6
  9
$SPLINESEGS
 70
     8
  9
$HANDSEED
  5
372
  9
$SURFTAB1
 70
     6
  9
$SURFTAB2
 70
     6
  9
$SURFTYPE
 70
     6
  9
$SURFU
 70
     6
  9
$SURFV
 70
     6
  9
$UCSBASE
  2

  9
$UCSNAME
  2

  9
$UCSORG
 10
0.0
 20
0.0
 30
0.0
  9
$UCSXDIR
 10
1.0
 20
0.0
 30
0.0
  9
$UCSYDIR
 10
0.0
 20
1.0
 30
0.0
  9
$UCSORTHOREF
  2

  9
$UCSORTHOVIEW
 70
     0
  9
$UCSORGTOP
 10
0.0
 20
0.0
 30
0.0
  9
$UCSORGBOTTOM
 10
0.0
 20
0.0
 30
0.0
  9
$UCSORGLEFT
 10
0.0
 20
0.0
 30
0.0
  9
$UCSORGRIGHT
 10
0.0
 20
0.0
 30
0.0
  9
$UCSORGFRONT
 10
0.0
 20
0.0
 30
0.0
  9
$UCSORGBACK
 10
0.0
 20
0.0
 30
0.0
  9
$PUCSBASE
  2

  9
$PUCSNAME
  2

  9
$PUCSORG
 10
0.0
 20
0.0
 30
0.0
  9
$PUCSXDIR
 10
1.0
 20
0.0
 30
0.0
  9
$PUCSYDIR
 10
0.0
 20
1.0
 30
0.0
  9
$PUCSORTHOREF
  2

  9
$PUCSORTHOVIEW
 70
     0
  9
$PUCSORGTOP
 10
0.0
 20
0.0
 30
0.0
  9
$PUCSORGBOTTOM
 10
0.0
 20
0.0
 30
0.0
  9
$PUCSORGLEFT
 10
0.0
 20
0.0
 30
0.0
  9
$PUCSORGRIGHT
 10
0.0
 20
0.0
 30
0.0
  9
$PUCSORGFRONT
 10
0.0
 20
0.0
 30
0.0
  9
$PUCSORGBACK
 10
0.0
 20
0.0
 30
0.0
  9
$USERI1
 70
     0
  9
$USERI2
 70
     0
  9
$USERI3
 70
     0
  9
$USERI4
 70
     0
  9
$USERI5
 70
     0
  9
$USERR1
 40
0.0
  9
$USERR2
 40
0.0
  9
$USERR3
 40
0.0
  9
$USERR4
 40
0.0
  9
$USERR5
 40
0.0
  9
$WORLDVIEW
 70
     1
  9
$SHADEDGE
 70
     3
  9
$SHADEDIF
 70
    70
  9
$TILEMODE
 70
     1
  9
$MAXACTVP
 70
    64
  9
$PINSBASE
 10
0.0
 20
0.0
 30
0.0
  9
$PLIMCHECK
 70
     0
  9
$PEXTMIN
 10
1.000000000000000E+20
 20
1.000000000000000E+20
 30
1.000000000000000E+20
  9
$PEXTMAX
 10
-1.000000000000000E+20
 20
-1.000000000000000E+20
 30
-1.000000000000000E+20
  9
$PLIMMIN
 10
0.0
 20
0.0
  9
$PLIMMAX
 10
0.0
 20
0.0
  9
$UNITMODE
 70
     0
  9
$VISRETAIN
 70
     0
  9
$PLINEGEN
 70
     1
  9
$PSLTSCALE
 70
     0
  9
$TREEDEPTH
 70
  3020
  9
$CMLSTYLE
  2
Standard
  9
$CMLJUST
 70
     0
  9
$CMLSCALE
 40
1.0
  9
$PROXYGRAPHICS
 70
     0
  9
$MEASUREMENT
 70
     1
  9
$CELWEIGHT
370
     0
  9
$ENDCAPS
280
     0
  9
$JOINSTYLE
280
     0
  9
$LWDISPLAY
290
     1
  9
$INSUNITS
 70
     4
  9
$HYPERLINKBASE
  1

  9
$STYLESHEET
  1

  9
$XEDIT
290
     1
  9
$CEPSNTYPE
380
     0
  9
$PSTYLEMODE
290
     1
  9
$FINGERPRINTGUID
  2

  9
$VERSIONGUID
  2

  9
$EXTNAMES
290
     1
  9
$PSVPSCALE
 40
0.0
  9
$OLESTARTUP
290
     0
  9
$SORTENTS
280
   127
  9
$INDEXCTL
280
     0
  9
$HIDETEXT
280
     1
  9
$XCLIPFRAME
290
     0
  9
$HALOGAP
280
     0
  9
$OBSCOLOR
 70
   257
  9
$OBSLTYPE
280
     0
  9
$INTERSECTIONDISPLAY
280
     0
  9
$INTERSECTIONCOLOR
 70
   257
  9
$DIMASSOC
280
     2
  9
$PROJECTNAME
  1

  9
$CAMERADISPLAY
290
     0
  9
$LENSLENGTH
 40
50.0
  9
$CAMERAHEIGHT
 40
0.0
  9
$STEPSPERSEC
 40
2.0
  9
$STEPSIZE
 40
6.0
  9
$3DDWFPREC
 40
2.0
  9
$PSOLWIDTH
 40
0.25
  9
$PSOLHEIGHT
 40
4.0
  9
$LOFTANG1
 40
1.570796326794897
  9
$LOFTANG2
 40
1.570796326794897
  9
$LOFTMAG1
 40
0.0
  9
$LOFTMAG2
 40
0.0
  9
$LOFTPARAM
 70
     7
  9
$LOFTNORMALS
280
     1
  9
$LATITUDE
 40
37.795
  9
$LONGITUDE
 40
-122.394
  9
$NORTHDIRECTION
 40
0.0
  9
$TIMEZONE
 70
 -8000
  9
$LIGHTGLYPHDISPLAY
280
     1
  9
$TILEMODELIGHTSYNCH
280
     1
  9
$SOLIDHIST
280
     0
  9
$SHOWHIST
280
     1
  9
$DWFFRAME
280
     2
  9
$DGNFRAME
280
     2
  9
$REALWORLDSCALE
290
     1
  9
$INTERFERECOLOR
 62
   256
  9
$CSHADOW
280
     0
  9
$SHADOWPLANELOCATION
 40
0.0
  0
ENDSEC
  0
SECTION
  2
CLASSES
  0
CLASS
  1
LWPOLYLINE
  2
AcDbPolyline
  3
ObjectDBX Classes
 90
        0
 91
        1
280
     0
281
     1
  0
CLASS
  1
IMAGE
  2
AcDbRasterImage
  3
ISM
 90
      127
 91
        5
280
     0
281
     1
  0
CLASS
  1
OLE2FRAME
  2
AcDbOle2Frame
  3
ObjectDBX Classes
 90
        0
 91
        1
280
     0
281
     1
  0
CLASS
  1
HATCH
  2
AcDbHatch
  3
ObjectDBX Classes
 90
        0
 91
        1
280
     0
281
     1
  0
CLASS
  1
DICTIONARYVAR
  2
AcDbDictionaryVar
  3
ObjectDBX Classes
 90
        0
 91
        4
280
     0
281
     0
  0
CLASS
  1
RASTERVARIABLES
  2
AcDbRasterVariables
  3
ISM
 90
        0
 91
        4
280
     0
281
     0
  0
CLASS
  1
IMAGEDEF
  2
AcDbRasterImageDef
  3
ISM
 90
        0
 91
        4
280
     0
281
     0
  0
CLASS
  1
IMAGEDEF_REACTOR
  2
AcDbRasterImageDefReactor
  3
ISM
 90
        1
 91
        4
280
     0
281
     0
  0
CLASS
  1
IDBUFFER
  2
AcDbIdBuffer
  3
ObjectDBX Classes
 90
        0
 91
        4
280
     0
281
     0
  0
CLASS
  1
SPATIAL_FILTER
  2
AcDbSpatialFilter
  3
ObjectDBX Classes
 90
        0
 91
        4
280
     0
281
     0
  0
CLASS
  1
XRECORD
  2
AcDbXrecord
  3
ObjectDBX Classes
 90
        0
 91
        1
280
     0
281
     0
  0
CLASS
  1
SORTENTSTABLE
  2
AcDbSortentsTable
  3
ObjectDBX Classes
 90
        0
 91
        4
280
     0
281
     0
  0
CLASS
  1
LAYER_INDEX
  2
AcDbLayerIndex
  3
ObjectDBX Classes
 90
        0
 91
        4
280
     0
281
     0
  0
CLASS
  1
SPATIAL_INDEX
  2
AcDbSpatialIndex
  3
AutoCAD 2000
 90
        0
 91
        4
280
     0
281
     0
  0
CLASS
  1
OBJECT_PTR
  2
CAseDLPNTableRecord
  3
ASE-LPNTableRecord
 90
        1
 91
        4
280
     0
281
     0
  0
CLASS
  1
LAYOUT
  2
AcDbLayout
  3
ObjectDBX Classes
 90
        0
 91
        1
280
     0
281
     0
  0
CLASS
  1
PLOTSETTINGS
  2
AcDbPlotSettings
  3
ObjectDBX Classes
 90
        0
 91
        4
280
     0
281
     0
  0
CLASS
  1
ACDBDICTIONARYWDFLT
  2
AcDbDictionaryWithDefault
  3
ObjectDBX Classes
 90
        0
 91
        4
280
     0
281
     0
  0
CLASS
  1
ACDBPLACEHOLDER
  2
AcDbPlaceHolder
  3
ObjectDBX Classes
 90
        0
 91
        1
280
     0
281
     0
  0
CLASS
  1
SCALE
  2
AcDbScale
  3
ObjectDBX Classes
 90
     1153
 91
        4
280
     0
281
     0
  0
CLASS
  1
VISUALSTYLE
  2
AcDbVisualStyle
  3
ObjectDBX Classes
 90
     4095
 91
        4
280
     0
281
     0
  0
CLASS
  1
MATERIAL
  2
AcDbMaterial
  3
ObjectDBX Classes
 90
     1153
 91
        4
280
     0
281
     0
  0
CLASS
  1
TABLESTYLE
  2
AcDbTableStyle
  3
ObjectDBX Classes
 90
     4095
 91
        4
280
     0
281
     0
  0
CLASS
  1
MLEADERSTYLE
  2
AcDbMLeaderStyle
  3
ACDB_MLEADERSTYLE_CLASS
 90
     4095
 91
        4
280
     0
281
     0
  0
CLASS
  1
SUN
  2
AcDbSun
  3
SCENEOE
 90
     1153
 91
        4
280
     0
281
     0
  0
CLASS
  1
CELLSTYLEMAP
  2
AcDbCellStyleMap
  3
ObjectDBX Classes
 90
     1152
 91
        4
280
     0
281
     0
  0
ENDSEC
  0
SECTION
  2
TABLES
  0
TABLE
  2
VPORT
  5
7
330
0
100
AcDbSymbolTable
 70
     1
  0
VPORT
  5
15
330
7
100
AcDbSymbolTableRecord
100
AcDbViewportTableRecord
  2
*ACTIVE
 70
     0
 10
0.0
 20
0.0
 11
1.0
 21
1.0
 12
1139.432532387649
 22
1479.347187788064
 13
0.0
 23
0.0
 14
1.0
 24
1.0
 15
0.0
 25
0.0
 16
0.0
 26
0.0
 36
1.0
 17
0.0
 27
0.0
 37
0.0
 40
2890.021615685495
 41
1.769526248399488
 42
50.0
 43
0.0
 44
0.0
 50
0.0
 51
0.0
 71
    16
 72
  2000
 73
     1
 74
     1
 75
     0
 76
     0
 77
     0
 78
     0
281
     0
 65
     1
110
0.0
120
0.0
130
0.0
111
1.0
121
0.0
131
0.0
112
0.0
122
1.0
132
0.0
 79
     0
146
0.0
348
289
 60
     3
 61
     5
292
     1
282
     1
141
0.0
142
0.0
 63
   250
361
2A6
  0
ENDTAB
  0
TABLE
  2
LTYPE
  5
4
330
0
100
AcDbSymbolTable
 70
    26
  0
LTYPE
  5
11
330
4
100
AcDbSymbolTableRecord
100
AcDbLinetypeTableRecord
  2
ByBlock
 70
     0
  3

 72
    65
 73
     0
 40
0.0
  0
LTYPE
  5
12
330
4
100
AcDbSymbolTableRecord
100
AcDbLinetypeTableRecord
  2
ByLayer
 70
     0
  3

 72
    65
 73
     0
 40
0.0
  0
LTYPE
  5
13
330
4
100
AcDbSymbolTableRecord
100
AcDbLinetypeTableRecord
  2
Continuous
 70
     0
  3
Solid line
 72
    65
 73
     0
 40
0.0
  0
LTYPE
  5
40
330
4
100
AcDbSymbolTableRecord
100
AcDbLinetypeTableRecord
  2
STYLE_01
 70
     0
  3

 72
    65
 73
     2
 40
0.157472
 49
0.078736
 74
     0
 49
-0.078736
 74
     0
  0
LTYPE
  5
41
330
4
100
AcDbSymbolTableRecord
100
AcDbLinetypeTableRecord
  2
STYLE_02
 70
     0
  3

 72
    65
 73
     2
 40
0.236206
 49
0.15747
 74
     0
 49
-0.078736
 74
     0
  0
LTYPE
  5
42
330
4
100
AcDbSymbolTableRecord
100
AcDbLinetypeTableRecord
  2
STYLE_03
 70
     0
  3

 72
    65
 73
     2
 40
0.314942
 49
0.236206
 74
     0
 49
-0.078736
 74
     0
  0
LTYPE
  5
43
330
4
100
AcDbSymbolTableRecord
100
AcDbLinetypeTableRecord
  2
STYLE_04
 70
     0
  3

 72
    65
 73
     2
 40
0.4724119999999999
 49
0.393676
 74
     0
 49
-0.0787359999999999
 74
     0
  0
LTYPE
  5
44
330
4
100
AcDbSymbolTableRecord
100
AcDbLinetypeTableRecord
  2
STYLE_05
 70
     0
  3

 72
    65
 73
     4
 40
0.4214800000000001
 49
0.236206
 74
     0
 49
-0.078736
 74
     0
 49
0.027802
 74
     0
 49
-0.0787360000000001
 74
     0
  0
LTYPE
  5
45
330
4
100
AcDbSymbolTableRecord
100
AcDbLinetypeTableRecord
  2
STYLE_06
 70
     0
  3

 72
    65
 73
     6
 40
0.736422
 49
0.236206
 74
     0
 49
-0.078736
 74
     0
 49
0.2362059999999999
 74
     0
 49
-0.0787360000000001
 74
     0
 49
0.027802
 74
     0
 49
-0.0787360000000001
 74
     0
  0
LTYPE
  5
46
330
4
100
AcDbSymbolTableRecord
100
AcDbLinetypeTableRecord
  2
STYLE_07
 70
     0
  3

 72
    65
 73
     6
 40
0.528018
 49
0.236206
 74
     0
 49
-0.078736
 74
     0
 49
0.027802
 74
     0
 49
-0.0787360000000001
 74
     0
 49
0.027802
 74
     0
 49
-0.0787359999999999
 74
     0
  0
LTYPE
  5
47
330
4
100
AcDbSymbolTableRecord
100
AcDbLinetypeTableRecord
  2
STYLE_08
 70
     0
  3

 72
    65
 73
     4
 40
1.023562
 49
0.7873539999999996
 74
     0
 49
-0.0787360000000001
 74
     0
 49
0.0787360000000001
 74
     0
 49
-0.0787360000000001
 74
     0
  0
LTYPE
  5
48
330
4
100
AcDbSymbolTableRecord
100
AcDbLinetypeTableRecord
  2
STYLE_09
 70
     0
  3

 72
    65
 73
     6
 40
1.181034
 49
0.7873539999999996
 74
     0
 49
-0.0787360000000001
 74
     0
 49
0.0787360000000001
 74
     0
 49
-0.0787360000000001
 74
     0
 49
0.0787359999999999
 74
     0
 49
-0.0787359999999999
 74
     0
  0
LTYPE
  5
49
330
4
100
AcDbSymbolTableRecord
100
AcDbLinetypeTableRecord
  2
STYLE_10
 70
     0
  3

 72
    65
 73
     4
 40
1.082677165354331
 49
0.7677165354330708
 74
     0
 49
-0.1181102362204725
 74
     0
 49
0.078740157480315
 74
     0
 49
-0.1181102362204724
 74
     0
  0
LTYPE
  5
4A
330
4
100
AcDbSymbolTableRecord
100
AcDbLinetypeTableRecord
  2
STYLE_11
 70
     0
  3

 72
    65
 73
     2
 40
0.4921259842519685
 49
0.374015748031496
 74
     0
 49
-0.1181102362204724
 74
     0
  0
LTYPE
  5
4B
330
4
100
AcDbSymbolTableRecord
100
AcDbLinetypeTableRecord
  2
STYLE_12
 70
     0
  3

 72
    65
 73
     2
 40
3.809999999999999
 49
2.54
 74
     0
 49
-1.27
 74
     0
  0
LTYPE
  5
4C
330
4
100
AcDbSymbolTableRecord
100
AcDbLinetypeTableRecord
  2
STYLE_13
 70
     0
  3

 72
    65
 73
     6
 40
12.7
 49
6.35
 74
     0
 49
-1.27
 74
     0
 49
1.27
 74
     0
 49
-1.27
 74
     0
 49
1.27
 74
     0
 49
-1.27
 74
     0
  0
LTYPE
  5
4D
330
4
100
AcDbSymbolTableRecord
100
AcDbLinetypeTableRecord
  2
STYLE_14
 70
     0
  3

 72
    65
 73
     4
 40
20.32
 49
12.7
 74
     0
 49
-2.54
 74
     0
 49
2.54
 74
     0
 49
-2.54
 74
     0
  0
LTYPE
  5
4E
330
4
100
AcDbSymbolTableRecord
100
AcDbLinetypeTableRecord
  2
STYLE_15
 70
     0
  3

 72
    65
 73
     2
 40
1.202
 49
1.2
 74
     0
 49
-0.0020000000000001
 74
     0
  0
LTYPE
  5
4F
330
4
100
AcDbSymbolTableRecord
100
AcDbLinetypeTableRecord
  2
STYLE_16
 70
     0
  3

 72
    65
 73
     2
 40
0.3
 49
0.2
 74
     0
 49
-0.1
 74
     0
  0
LTYPE
  5
50
330
4
100
AcDbSymbolTableRecord
100
AcDbLinetypeTableRecord
  2
STYLE_17
 70
     0
  3

 72
    65
 73
     2
 40
3.0
 49
2.4
 74
     0
 49
-0.6
 74
     0
  0
LTYPE
  5
51
330
4
100
AcDbSymbolTableRecord
100
AcDbLinetypeTableRecord
  2
STYLE_18
 70
     0
  3

 72
    65
 73
     4
 40
7.199999999999999
 49
4.8
 74
     0
 49
-0.6000000000000005
 74
     0
 49
1.2
 74
     0
 49
-0.5999999999999994
 74
     0
  0
LTYPE
  5
52
330
4
100
AcDbSymbolTableRecord
100
AcDbLinetypeTableRecord
  2
STYLE_19
 70
     0
  3

 72
    65
 73
     6
 40
9.0
 49
4.8
 74
     0
 49
-0.6000000000000005
 74
     0
 49
1.2
 74
     0
 49
-0.5999999999999994
 74
     0
 49
1.2
 74
     0
 49
-0.5999999999999994
 74
     0
  0
LTYPE
  5
53
330
4
100
AcDbSymbolTableRecord
100
AcDbLinetypeTableRecord
  2
STYLE_20
 70
     0
  3

 72
    65
 73
     4
 40
3.6
 49
2.4
 74
     0
 49
-0.3000000000000003
 74
     0
 49
0.6
 74
     0
 49
-0.2999999999999997
 74
     0
  0
LTYPE
  5
54
330
4
100
AcDbSymbolTableRecord
100
AcDbLinetypeTableRecord
  2
STYLE_21
 70
     0
  3

 72
    65
 73
     2
 40
1.5
 49
1.2
 74
     0
 49
-0.3
 74
     0
  0
LTYPE
  5
55
330
4
100
AcDbSymbolTableRecord
100
AcDbLinetypeTableRecord
  2
STYLE_22
 70
     0
  3

 72
    65
 73
     2
 40
4.40004
 49
0.002
 74
     0
 49
-4.39804
 74
     0
  0
LTYPE
  5
56
330
4
100
AcDbSymbolTableRecord
100
AcDbLinetypeTableRecord
  2
STYLE_23
 70
     0
  3

 72
    65
 73
     2
 40
2.5
 49
1.9
 74
     0
 49
-0.6
 74
     0
  0
LTYPE
  5
57
330
4
100
AcDbSymbolTableRecord
100
AcDbLinetypeTableRecord
  2
STYLE_24
 70
     0
  3

 72
    65
 73
     4
 40
5.5
 49
3.900000000000001
 74
     0
 49
-0.6
 74
     0
 49
0.3999999999999998
 74
     0
 49
-0.6
 74
     0
  0
LTYPE
  5
58
330
4
100
AcDbSymbolTableRecord
100
AcDbLinetypeTableRecord
  2
STYLE_25
 70
     0
  3

 72
    65
 73
     2
 40
1.574803149606299
 49
0.7874015748031495
 74
     0
 49
-0.7874015748031495
 74
     0
  0
ENDTAB
  0
TABLE
  2
LAYER
  5
2
330
0
100
AcDbSymbolTable
 70
     5
  0
LAYER
  5
14
330
2
100
AcDbSymbolTableRecord
100
AcDbLayerTableRecord
  2
0
 70
     0
 62
     7
  6
Continuous
370
    -3
390
1D
347
2A0
  0
LAYER
  5
59
330
2
100
AcDbSymbolTableRecord
100
AcDbLayerTableRecord
  2
Defpoints
 70
     0
 62
     7
  6
Continuous
290
     0
370
    -3
390
1D
347
2A0
  0
LAYER
  5
5A
330
2
100
AcDbSymbolTableRecord
100
AcDbLayerTableRecord
  2
template
 70
     0
 62
     7
  6
Continuous
370
    -3
390
1D
347
2A0
  0
LAYER
  5
5B
330
2
100
AcDbSymbolTableRecord
100
AcDbLayerTableRecord
  2
notes
 70
     0
 62
     7
  6
Continuous
370
    -3
390
1D
347
2A0
  0
LAYER
  5
5C
330
2
100
AcDbSymbolTableRecord
100
AcDbLayerTableRecord
  2
FAA70-0506
 70
     0
 62
     7
  6
Continuous
370
    -3
390
1D
347
2A0
  0
ENDTAB
  0
TABLE
  2
STYLE
  5
3
330
0
100
AcDbSymbolTable
 70
     2
  0
STYLE
  5
17
330
3
100
AcDbSymbolTableRecord
100
AcDbTextStyleTableRecord
  2
Standard
 70
     0
 40
0.0
 41
1.0
 50
0.0
 71
     0
 42
2.5
  3
txt
  4
BIGFONT.SHX
  0
STYLE
  5
3F
330
3
100
AcDbSymbolTableRecord
100
AcDbTextStyleTableRecord
  2
ＭＳ ゴシック
 70
     0
 40
0.0
 41
1.0
 50
0.0
 71
     0
 42
0.0
  3
msgothic.ttc
  4
ＭＳ ゴシック
1001
ACAD
1000
ＭＳ ゴシック
1071
        0
  0
ENDTAB
  0
TABLE
  2
VIEW
  5
5
330
0
100
AcDbSymbolTable
 70
     0
  0
ENDTAB
  0
TABLE
  2
UCS
  5
6
330
0
100
AcDbSymbolTable
 70
     0
  0
ENDTAB
  0
TABLE
  2
APPID
  5
8
330
0
100
AcDbSymbolTable
 70
     2
  0
APPID
  5
16
330
8
100
AcDbSymbolTableRecord
100
AcDbRegAppTableRecord
  2
ACAD
 70
     0
  0
APPID
  5
2C1
330
8
100
AcDbSymbolTableRecord
100
AcDbRegAppTableRecord
  2
ACAD_MLEADERVER
 70
     0
  0
ENDTAB
  0
TABLE
  2
DIMSTYLE
  5
9
330
0
100
AcDbSymbolTable
 70
     3
100
AcDbDimStyleTable
  0
DIMSTYLE
105
18
330
9
100
AcDbSymbolTableRecord
100
AcDbDimStyleTableRecord
  2
Standard
 70
     0
178
     0
340
17
  0
DIMSTYLE
105
65
330
9
100
AcDbSymbolTableRecord
100
AcDbDimStyleTableRecord
  2
tform線あり
 70
     0
  3
<>
  4
[]
 41
3.999755859375
 42
25.0
 43
0.9999999999999999
 44
0.0
 73
     0
 74
     0
 77
     1
 78
    11
140
24.4326171875
141
0.0
143
1.0
147
0.4999999999999999
171
     1
174
     1
178
     0
179
     2
271
     1
272
     1
276
     2
284
    11
285
    11
286
    11
289
     0
340
3F
341
5D
342
5D
  0
DIMSTYLE
105
6A
330
9
100
AcDbSymbolTableRecord
100
AcDbDimStyleTableRecord
  2
JIS
 70
     0
  3
<>
  4
[]
 41
31.75
 42
0.0
 43
6.99999999999994
 44
19.9999999999962
 73
     0
 74
     0
 77
     1
 78
    11
140
24.4326171875
141
0.0
143
1.0
147
1.00000000000108
171
     1
174
     1
178
     0
179
     2
271
     1
272
     1
276
     2
284
    11
285
    11
286
    11
289
     0
340
3F
341
66
342
66
  0
ENDTAB
  0
TABLE
  2
BLOCK_RECORD
  5
1
330
0
100
AcDbSymbolTable
 70
    39
  0
BLOCK_RECORD
  5
A
330
1
100
AcDbSymbolTableRecord
100
AcDbBlockTableRecord
  2
*MODEL_SPACE
340
20
 70
     0
280
     1
281
     0
  0
BLOCK_RECORD
  5
B
330
1
100
AcDbSymbolTableRecord
100
AcDbBlockTableRecord
  2
*PAPER_SPACE
340
21
 70
     0
280
     1
281
     0
  0
BLOCK_RECORD
  5
5D
330
1
100
AcDbSymbolTableRecord
100
AcDbBlockTableRecord
  2
_DOT
340
0
102
{BLKREFS
331
77
331
78
331
84
331
85
331
91
331
92
331
9E
331
9F
331
AB
331
AC
331
B8
331
B9
331
C5
331
C6
331
D2
331
D3
331
E8
331
E9
331
F5
331
F6
331
110
331
111
331
11D
331
11E
331
178
331
179
331
185
331
186
331
192
331
193
331
19F
331
1A0
331
1BA
331
1BB
331
1C7
331
1C8
331
300
331
309
331
30A
331
316
331
317
331
323
331
324
331
330
331
331
331
33D
331
33E
331
34A
331
34B
331
357
331
358
331
363
331
364
102
}
 70
     0
280
     1
281
     0
  0
BLOCK_RECORD
  5
66
330
1
100
AcDbSymbolTableRecord
100
AcDbBlockTableRecord
  2
VW_FILLEDARROW
340
0
 70
     0
280
     1
281
     0
  0
BLOCK_RECORD
  5
23
330
1
100
AcDbSymbolTableRecord
100
AcDbBlockTableRecord
  2
グループ
340
0
102
{BLKREFS
331
1D7
102
}
 70
     0
280
     1
281
     0
  0
BLOCK_RECORD
  5
24
330
1
100
AcDbSymbolTableRecord
100
AcDbBlockTableRecord
  2
*D3
340
0
 70
     0
280
     1
281
     0
  0
BLOCK_RECORD
  5
25
330
1
100
AcDbSymbolTableRecord
100
AcDbBlockTableRecord
  2
*D4
340
0
 70
     0
280
     1
281
     0
  0
BLOCK_RECORD
  5
26
330
1
100
AcDbSymbolTableRecord
100
AcDbBlockTableRecord
  2
*D5
340
0
 70
     0
280
     1
281
     0
  0
BLOCK_RECORD
  5
27
330
1
100
AcDbSymbolTableRecord
100
AcDbBlockTableRecord
  2
*D6
340
0
 70
     0
280
     1
281
     0
  0
BLOCK_RECORD
  5
28
330
1
100
AcDbSymbolTableRecord
100
AcDbBlockTableRecord
  2
*D7
340
0
 70
     0
280
     1
281
     0
  0
BLOCK_RECORD
  5
29
330
1
100
AcDbSymbolTableRecord
100
AcDbBlockTableRecord
  2
*D8
340
0
 70
     0
280
     1
281
     0
  0
BLOCK_RECORD
  5
2A
330
1
100
AcDbSymbolTableRecord
100
AcDbBlockTableRecord
  2
*D9
340
0
 70
     0
280
     1
281
     0
  0
BLOCK_RECORD
  5
2B
330
1
100
AcDbSymbolTableRecord
100
AcDbBlockTableRecord
  2
*D10
340
0
 70
     0
280
     1
281
     0
  0
BLOCK_RECORD
  5
2C
330
1
100
AcDbSymbolTableRecord
100
AcDbBlockTableRecord
  2
*D11
340
0
 70
     0
280
     1
281
     0
  0
BLOCK_RECORD
  5
2D
330
1
100
AcDbSymbolTableRecord
100
AcDbBlockTableRecord
  2
*D12
340
0
 70
     0
280
     1
281
     0
  0
BLOCK_RECORD
  5
2E
330
1
100
AcDbSymbolTableRecord
100
AcDbBlockTableRecord
  2
*D13
340
0
 70
     0
280
     1
281
     0
  0
BLOCK_RECORD
  5
2F
330
1
100
AcDbSymbolTableRecord
100
AcDbBlockTableRecord
  2
*D14
340
0
 70
     0
280
     1
281
     0
  0
BLOCK_RECORD
  5
30
330
1
100
AcDbSymbolTableRecord
100
AcDbBlockTableRecord
  2
*D15
340
0
 70
     0
280
     1
281
     0
  0
BLOCK_RECORD
  5
31
330
1
100
AcDbSymbolTableRecord
100
AcDbBlockTableRecord
  2
*D16
340
0
 70
     0
280
     1
281
     0
  0
BLOCK_RECORD
  5
32
330
1
100
AcDbSymbolTableRecord
100
AcDbBlockTableRecord
  2
*D17
340
0
 70
     0
280
     1
281
     0
  0
BLOCK_RECORD
  5
33
330
1
100
AcDbSymbolTableRecord
100
AcDbBlockTableRecord
  2
*D18
340
0
 70
     0
280
     1
281
     0
  0
BLOCK_RECORD
  5
34
330
1
100
AcDbSymbolTableRecord
100
AcDbBlockTableRecord
  2
*D19
340
0
 70
     0
280
     1
281
     0
  0
BLOCK_RECORD
  5
35
330
1
100
AcDbSymbolTableRecord
100
AcDbBlockTableRecord
  2
*D20
340
0
 70
     0
280
     1
281
     0
  0
BLOCK_RECORD
  5
36
330
1
100
AcDbSymbolTableRecord
100
AcDbBlockTableRecord
  2
*D21
340
0
 70
     0
280
     1
281
     0
  0
BLOCK_RECORD
  5
37
330
1
100
AcDbSymbolTableRecord
100
AcDbBlockTableRecord
  2
*D22
340
0
 70
     0
280
     1
281
     0
  0
BLOCK_RECORD
  5
38
330
1
100
AcDbSymbolTableRecord
100
AcDbBlockTableRecord
  2
*D23
340
0
 70
     0
280
     1
281
     0
  0
BLOCK_RECORD
  5
39
330
1
100
AcDbSymbolTableRecord
100
AcDbBlockTableRecord
  2
*D24
340
0
 70
     0
280
     1
281
     0
  0
BLOCK_RECORD
  5
3A
330
1
100
AcDbSymbolTableRecord
100
AcDbBlockTableRecord
  2
*D25
340
0
 70
     0
280
     1
281
     0
  0
BLOCK_RECORD
  5
3B
330
1
100
AcDbSymbolTableRecord
100
AcDbBlockTableRecord
  2
*D26
340
0
 70
     0
280
     1
281
     0
  0
BLOCK_RECORD
  5
3C
330
1
100
AcDbSymbolTableRecord
100
AcDbBlockTableRecord
  2
*D27
340
0
 70
     0
280
     1
281
     0
  0
BLOCK_RECORD
  5
3D
330
1
100
AcDbSymbolTableRecord
100
AcDbBlockTableRecord
  2
*D28
340
0
 70
     0
280
     1
281
     0
  0
BLOCK_RECORD
  5
3E
330
1
100
AcDbSymbolTableRecord
100
AcDbBlockTableRecord
  2
*D29
340
0
 70
     0
280
     1
281
     0
  0
BLOCK_RECORD
  5
2FB
330
1
100
AcDbSymbolTableRecord
100
AcDbBlockTableRecord
  2
*D30
340
0
 70
     0
280
     1
281
     0
  0
BLOCK_RECORD
  5
303
330
1
100
AcDbSymbolTableRecord
100
AcDbBlockTableRecord
  2
*D31
340
0
 70
     0
280
     1
281
     0
  0
BLOCK_RECORD
  5
30F
330
1
100
AcDbSymbolTableRecord
100
AcDbBlockTableRecord
  2
*D32
340
0
 70
     0
280
     1
281
     0
  0
BLOCK_RECORD
  5
31C
330
1
100
AcDbSymbolTableRecord
100
AcDbBlockTableRecord
  2
*D33
340
0
 70
     0
280
     1
281
     0
  0
BLOCK_RECORD
  5
329
330
1
100
AcDbSymbolTableRecord
100
AcDbBlockTableRecord
  2
*D34
340
0
 70
     0
280
     1
281
     0
  0
BLOCK_RECORD
  5
336
330
1
100
AcDbSymbolTableRecord
100
AcDbBlockTableRecord
  2
*D35
340
0
 70
     0
280
     1
281
     0
  0
BLOCK_RECORD
  5
343
330
1
100
AcDbSymbolTableRecord
100
AcDbBlockTableRecord
  2
*D36
340
0
 70
     0
280
     1
281
     0
  0
BLOCK_RECORD
  5
350
330
1
100
AcDbSymbolTableRecord
100
AcDbBlockTableRecord
  2
*D37
340
0
 70
     0
280
     1
281
     0
  0
BLOCK_RECORD
  5
35D
330
1
100
AcDbSymbolTableRecord
100
AcDbBlockTableRecord
  2
*D38
340
0
 70
     0
280
     1
281
     0
  0
ENDTAB
  0
ENDSEC
  0
SECTION
  2
BLOCKS
  0
BLOCK
  5
D
330
A
100
AcDbEntity
  8
0
390
1D
100
AcDbBlockBegin
  2
*MODEL_SPACE
 70
     0
 10
0.0
 20
0.0
 30
0.0
  3
*MODEL_SPACE
  1

  0
ENDBLK
  5
E
330
A
100
AcDbEntity
  8
0
390
1D
100
AcDbBlockEnd
  0
BLOCK
  5
F
330
B
100
AcDbEntity
 67
     1
  8
0
390
1D
100
AcDbBlockBegin
  2
*PAPER_SPACE
 70
     0
 10
0.0
 20
0.0
 30
0.0
  3
*PAPER_SPACE
  1

  0
ENDBLK
  5
10
330
B
100
AcDbEntity
 67
     1
  8
0
390
1D
100
AcDbBlockEnd
  0
BLOCK
  5
5E
330
5D
100
AcDbEntity
  8
0
390
1D
100
AcDbBlockBegin
  2
_DOT
 70
     0
 10
0.0
 20
0.0
 30
0.0
  3
_DOT
  1

  0
POLYLINE
  5
5F
330
5D
100
AcDbEntity
  8
0
  6
ByBlock
 62
     0
370
    -2
390
1D
100
AcDb2dPolyline
 66
     1
 10
0.0
 20
0.0
 30
0.0
 70
     1
 40
0.5
 41
0.5
  0
VERTEX
  5
60
330
5F
100
AcDbEntity
  8
0
  6
ByBlock
 62
     0
370
    -2
390
1D
100
AcDbVertex
100
AcDb2dVertex
 10
-0.25
 20
0.0
 30
0.0
 42
1.0
  0
VERTEX
  5
61
330
5F
100
AcDbEntity
  8
0
  6
ByBlock
 62
     0
370
    -2
390
1D
100
AcDbVertex
100
AcDb2dVertex
 10
0.25
 20
0.0
 30
0.0
 42
1.0
  0
SEQEND
  5
62
330
5F
100
AcDbEntity
  8
0
390
1D
  0
LINE
  5
63
330
5D
100
AcDbEntity
  8
0
  6
ByBlock
 62
     0
370
    -2
390
1D
100
AcDbLine
 10
-0.5
 20
0.0
 30
0.0
 11
-1.0
 21
0.0
 31
0.0
  0
ENDBLK
  5
64
330
5D
100
AcDbEntity
  8
0
390
1D
100
AcDbBlockEnd
  0
BLOCK
  5
67
330
66
100
AcDbEntity
  8
0
  6
ByBlock
 62
     0
370
    -2
390
1D
100
AcDbBlockBegin
  2
VW_FILLEDARROW
 70
     0
 10
0.0
 20
0.0
 30
0.0
  3
VW_FILLEDARROW
  1

  0
SOLID
  5
68
330
66
100
AcDbEntity
  8
0
 62
     0
370
    -2
390
1D
100
AcDbTrace
 10
0.0
 20
0.0
 30
0.0
 11
-0.9921874999999999
 21
-0.2658558393652545
 31
0.0
 12
-0.9921874999999999
 22
0.2658558393652548
 32
0.0
 13
-0.9921874999999999
 23
0.2658558393652548
 33
0.0
  0
ENDBLK
  5
69
330
66
100
AcDbEntity
  8
0
390
1D
100
AcDbBlockEnd
  0
BLOCK
  5
6B
330
23
100
AcDbEntity
  8
template
390
1D
100
AcDbBlockBegin
  2
グループ
 70
     0
 10
0.0
 20
0.0
 30
0.0
  3
グループ
  1

  0
LWPOLYLINE
  5
6C
330
23
100
AcDbEntity
  8
0
  6
Continuous
 62
     7
370
    15
390
1D
100
AcDbPolyline
 90
        8
 70
   129
 43
0.0
 10
887.4285078030749
 20
-1099.489721023686
 10
887.4285078030749
 20
-1105.487109717262
 10
877.9273108850716
 20
-1105.487109717262
 10
877.9273108850716
 20
-1129.938072980771
 10
869.5719336232888
 20
-1129.938072980771
 10
869.5719336232888
 20
-1105.487109717262
 10
860.2389766769794
 20
-1105.487109717262
 10
860.2389766769794
 20
-1099.489721023686
  0
LWPOLYLINE
  5
6D
330
23
100
AcDbEntity
  8
0
  6
Continuous
 62
     7
370
    15
390
1D
100
AcDbPolyline
 90
      101
 70
   128
 43
0.0
 10
900.1567996336319
 20
-1100.217969516622
 10
900.1721496624154
 20
-1100.213608759938
 42
-0.0222221607813685
 10
900.462154239088
 20
-1100.144984294693
 10
900.4779480030759
 20
-1100.141980871597
 42
-0.0146883565591227
 10
900.7406507083058
 20
-1100.099977684646
 42
-0.0127458844184121
 10
901.0052896754586
 20
-1100.072440716574
 10
901.0677447537715
 20
-1100.067547293986
 42
-0.0198099018564624
 10
901.4585938632473
 20
-1100.052462136589
 10
901.5104053326922
 20
-1100.052515912254
 42
-0.0147617382763468
 10
902.0050287936602
 20
-1100.067635937499
 10
902.077720248544
 20
-1100.072008544387
 42
-0.0162624549001743
 10
902.4678738780059
 20
-1100.108241419659
 10
902.5894062692681
 20
-1100.123527978656
 42
-0.0080020874672954
 10
902.7349853003566
 20
-1100.144210825924
 10
902.7733047709526
 20
-1100.150282103735
 42
-0.0053821929679981
 10
902.8417888762665
 20
-1100.161889627557
 10
902.1153831770679
 20
-1102.34281808327
 42
0.0108667757392925
 10
902.0480661069387
 20
-1102.329630968051
 10
902.0105980837475
 20
-1102.323133225456
 42
0.0170663203307597
 10
901.8673812968317
 20
-1102.303303628164
 10
901.799505964149
 20
-1102.296256457577
 42
0.0220162375273929
 10
901.5191265562949
 20
-1102.279574096807
 10
901.4412709892412
 20
-1102.27837472954
 42
0.0282606915787785
 10
901.1056346656637
 20
-1102.292178006509
 10
901.0617213918878
 20
-1102.296477996513
 42
0.0169677213689527
 10
900.8157968969324
 20
-1102.329015046065
 42
0.0190576269865305
 10
900.5728889343524
 20
-1102.379161918171
 10
900.5666297462416
 20
-1102.380704892281
 42
0.0213685642850924
 10
900.3162452617621
 20
-1102.453905177386
 10
900.3107553668476
 20
-1102.455768173445
 42
0.023759529759952
 10
900.05726048195
 20
-1102.55545269534
 10
900.0521584079193
 20
-1102.557744470818
 42
0.0261857468820106
 10
899.7999876316885
 20
-1102.687280808193
 10
899.7895614426017
 20
-1102.693346282662
 42
0.0272553062022574
 10
899.5531316673639
 20
-1102.848718488605
 10
899.5183686538551
 20
-1102.874379636697
 42
0.0325996893174297
 10
899.3682133102029
 20
-1103.001127509669
 10
899.3445038810781
 20
-1103.023945538183
 42
0.013805096063676
 10
899.2526207248696
 20
-1103.117395199733
 42
0.0125280103794452
 10
899.1657781920396
 20
-1103.215558526329
 10
899.1420977471278
 20
-1103.243717024521
 42
0.020521802473991
 10
899.0169976716155
 20
-1103.405510338748
 10
898.994531331127
 20
-1103.437170068577
 42
0.0163110129583004
 10
898.8388209518752
 20
-1103.672500503648
 10
898.8360970558247
 20
-1103.676924265632
 42
0.0131897341897346
 10
898.6892965349159
 20
-1103.930056358002
 10
898.6875964395523
 20
-1103.933174597133
 42
0.0107895576060997
 10
898.5498197373432
 20
-1104.199389806764
 10
898.5490868478164
 20
-1104.200884039414
 42
0.0091371507215342
 10
898.420606899168
 20
-1104.475409237171
 10
898.3908612677578
 20
-1104.542115744332
 42
0.0135418326355113
 10
898.2191473286852
 20
-1104.957053529604
 10
898.1855425202511
 20
-1105.044919671884
 42
0.0092834542412412
 10
898.0143134603309
 20
-1105.518818170188
 10
897.988696332614
 20
-1105.594059239979
 42
0.0054261043585904
 10
897.8810581843204
 20
-1105.921823213047
 10
897.863532198133
 20
-1105.977211375308
 42
0.0008225090823932
 10
897.7948621463129
 20
-1106.195480133426
 10
896.8101730143794
 20
-1109.220371426682
 10
900.0427968544533
 20
-1109.220371426682
 10
899.5386044245998
 20
-1111.124849725035
 10
896.2825481426165
 20
-1111.124849725035
 10
890.4533991102627
 20
-1129.93807279104
 10
888.6283014999524
 20
-1129.93807279104
 10
894.4629795354533
 20
-1111.124849725035
 10
892.057863166413
 20
-1111.124849725035
 10
892.5620555962664
 20
-1109.220371426682
 10
894.9906044072164
 20
-1109.220371426682
 10
895.8507593254051
 20
-1106.583958425983
 42
-0.0005863560643162
 10
895.8874940035656
 20
-1106.467132005828
 10
895.963581837269
 20
-1106.226139706306
 42
-0.0087522378928636
 10
896.1630499807258
 20
-1105.63086361916
 10
896.2553142561375
 20
-1105.370723450652
 42
-0.0077400953830975
 10
896.5132479152704
 20
-1104.677718773099
 10
896.5290128868492
 20
-1104.637287889713
 42
-0.0082369946330568
 10
896.7760973574613
 20
-1104.033208823517
 42
-0.0085725238364966
 10
897.0433434534633
 20
-1103.437782784231
 10
897.14497305447
 20
-1103.221361682248
 42
-0.0168109410594986
 10
897.4319174832015
 20
-1102.66015415614
 10
897.5577608736868
 20
-1102.433190123095
 42
-0.0007817726862376
 10
897.6120452237171
 20
-1102.335645878112
 10
897.6121735297395
 20
-1102.335416169366
 42
-0.0036626142160704
 10
897.6670613937557
 20
-1102.238818289407
 42
-0.0080221150669876
 10
897.7241856491647
 20
-1102.14353905465
 10
897.7548856005236
 20
-1102.094148105532
 42
-0.0202139325560692
 10
897.8825413403317
 20
-1101.906166504848
 10
897.936608805518
 20
-1101.833087640609
 42
-0.0249323791799981
 10
898.1957715992341
 20
-1101.517042398458
 10
898.2199114133641
 20
-1101.490428125543
 42
-0.0242132121537703
 10
898.559592154907
 20
-1101.150544639338
 10
898.6075037276594
 20
-1101.10703550315
 42
-0.0251017527859444
 10
898.8914854282975
 20
-1100.874042757388
 10
898.8929309051123
 20
-1100.872973499808
 42
-0.0130868069036687
 10
899.1911915550686
 20
-1100.664193031266
 10
899.1927533742112
 20
-1100.663159590991
 42
-0.0290329526392233
 10
899.5038645156046
 20
-1100.482334089362
 10
899.5337100775884
 20
-1100.467231706523
 42
-0.0160250190051126
 10
899.7996144913552
 20
-1100.343215596309
 42
-0.0267600374780309
 10
900.0748905688253
 20
-1100.24246727576
 10
900.1016264883449
 20
-1100.234274716935
 42
-0.0049981587669928
 10
900.1567996336319
 20
-1100.217969516622
 42
-0.0049981587669928
  0
LWPOLYLINE
  5
6E
330
23
100
AcDbEntity
  8
0
  6
Continuous
 62
     7
370
    15
390
1D
100
AcDbPolyline
 90
      118
 70
   128
 43
0.0
 10
919.9711671980788
 20
-1109.29435475451
 10
921.8462891225782
 20
-1109.29435475451
 10
921.0082502169784
 20
-1111.97592128091
 42
-0.0010587229206376
 10
921.0397060325647
 20
-1111.939016747537
 10
921.0979001231822
 20
-1111.871034491379
 42
-0.0071874740402163
 10
921.2482753412805
 20
-1111.700393799349
 10
921.3899981145425
 20
-1111.544157658037
 42
-0.0148118053513798
 10
921.8401274072513
 20
-1111.076543812027
 10
921.9273497421535
 20
-1110.991146491173
 42
-0.0086273358694375
 10
922.2628985431654
 20
-1110.673770857153
 10
922.3067322593879
 20
-1110.633721212824
 42
-0.0103138323115631
 10
922.5647559616249
 20
-1110.407558075482
 10
922.6105303679605
 20
-1110.369076028215
 42
-0.006020674856825
 10
922.7833784320642
 20
-1110.227281377468
 10
922.785409562951
 20
-1110.225655671836
 42
-0.0067069027297753
 10
922.9577023776126
 20
-1110.091505038041
 10
922.9602511435351
 20
-1110.089574868169
 42
-0.0076184352052914
 10
923.13115640941
 20
-1109.964199992922
 42
-0.0089652861675798
 10
923.3061173721434
 20
-1109.84456673259
 10
923.3424690922905
 20
-1109.820655519106
 42
-0.0156916245932114
 10
923.5384285894495
 20
-1109.700393032632
 42
-0.0023299011068919
 10
923.738690633403
 20
-1109.587215093106
 10
923.7540747658093
 20
-1109.578615098027
 42
-0.0107669341489347
 10
923.9883115909106
 20
-1109.454214964677
 10
924.0105763919855
 20
-1109.442998214727
 42
-0.0078058045898424
 10
924.2941665099339
 20
-1109.305636759091
 10
924.3040735976474
 20
-1109.30102763122
 42
-0.0181829330474081
 10
924.6143830022615
 20
-1109.170163890125
 10
924.6684384448309
 20
-1109.149648770181
 42
-0.0208411536030659
 10
925.01752341228
 20
-1109.033558307688
 10
925.0318795124059
 20
-1109.029439862735
 42
-0.0222799817142163
 10
925.3605993063247
 20
-1108.950798296594
 10
925.3694882695621
 20
-1108.949086286009
 42
-0.0215509523883674
 10
925.6859592378414
 20
-1108.902170597475
 10
925.7284411988908
 20
-1108.897733070684
 42
-0.0182545924867489
 10
925.9625499781957
 20
-1108.881889245293
 10
926.0019509945384
 20
-1108.880664700214
 42
-0.0072962856532422
 10
926.1578738742326
 20
-1108.878095371692
 10
926.1869735448118
 20
-1108.878040536288
 42
-0.0059227516317257
 10
926.2847230439496
 20
-1108.879014248078
 10
926.3139652614602
 20
-1108.879652014683
 42
-0.0011833111903027
 10
926.3532165451539
 20
-1108.880601018992
 10
925.5578299495468
 20
-1111.419334964091
 42
0.0143932051577469
 10
925.5314285671953
 20
-1111.409135994045
 10
925.5241565947789
 20
-1111.406564775188
 42
0.0234388603518303
 10
925.4823257288468
 20
-1111.393945539473
 10
925.4736440659341
 20
-1111.391764577468
 42
0.0199162742991349
 10
925.413355231855
 20
-1111.379147842133
 10
925.3925412940479
 20
-1111.375650642704
 42
0.0293643550671276
 10
925.2894664352888
 20
-1111.364500597051
 10
925.2647812545683
 20
-1111.363288980032
 42
0.0214606686863594
 10
925.1116403386175
 20
-1111.362350419615
 10
925.102268427798
 20
-1111.362695331159
 42
0.0167564054179955
 10
924.9307482366835
 20
-1111.374772373528
 10
924.9222884439305
 20
-1111.375653713954
 42
0.0137677553245345
 10
924.7349351306607
 20
-1111.400403022499
 10
924.7275833911581
 20
-1111.401580942466
 42
0.0118497261482576
 10
924.527085627058
 20
-1111.438598292655
 10
924.5209356198095
 20
-1111.439885155375
 42
0.0106421143890005
 10
924.3100547325271
 20
-1111.488717530949
 10
924.3051459241353
 20
-1111.489964873635
 42
0.0099746379708506
 10
924.0866874549638
 20
-1111.550139401952
 10
924.0251394148027
 20
-1111.56842128058
 42
0.0191613675859885
 10
923.6891549522869
 20
-1111.682398660867
 10
923.6010951795395
 20
-1111.716085571192
 42
0.0205274080145746
 10
923.215788407641
 20
-1111.881913979018
 10
923.1581391256569
 20
-1111.909581943591
 42
0.0181256912199157
 10
922.8998621849919
 20
-1112.045265762568
 10
922.8469068016738
 20
-1112.075583375786
 42
0.0140709242416257
 10
922.7019518670495
 20
-1112.164078049217
 10
922.6757029984316
 20
-1112.181134867933
 42
0.0086667884409482
 10
922.5867768368885
 20
-1112.241137535816
 42
0.0036408192014613
 10
922.4993435988525
 20
-1112.30331839361
 10
922.4641167243865
 20
-1112.328759339521
 42
0.0052260781277328
 10
922.3078880270022
 20
-1112.44409172615
 10
922.291681170736
 20
-1112.456319836773
 42
0.0050024435901937
 10
922.1056778276766
 20
-1112.599602405036
 10
922.0903596711619
 20
-1112.611648427481
 42
0.0136138710279127
 10
921.8799184028336
 20
-1112.786614932397
 10
921.8462505270429
 20
-1112.816193905109
 42
0.0172815186919461
 10
921.5818469853813
 20
-1113.065190577732
 10
921.579284639538
 20
-1113.067776394879
 42
0.0189403857995278
 10
921.3287028409588
 20
-1113.340581659683
 10
921.2960713474229
 20
-1113.37892559118
 42
0.0185044199501859
 10
921.1041149084427
 20
-1113.622174172303
 42
0.0088565243898904
 10
920.9256548018153
 20
-1113.875690592452
 10
920.9164768221658
 20
-1113.889231972214
 42
0.0157195347230533
 10
920.7332562158322
 20
-1114.178754181528
 10
920.687173273902
 20
-1114.256906378548
 42
0.0095451879777517
 10
920.5220877237632
 20
-1114.549501020907
 10
920.5109398048324
 20
-1114.57017169304
 42
0.0100351706252283
 10
920.3788960556742
 20
-1114.827227253529
 42
0.0086935915423017
 10
920.2565649038784
 20
-1115.089060398938
 10
920.2532441624658
 20
-1115.096502721906
 42
0.0072580174868649
 10
920.1328977105157
 20
-1115.377094713501
 10
920.1296360772144
 20
-1115.385014739506
 42
0.0060005122619341
 10
920.0104354088674
 20
-1115.684624410124
 10
920.0072244305302
 20
-1115.692985938017
 42
0.0049017786975175
 10
919.8883242716721
 20
-1116.011914918622
 10
919.8851584652823
 20
-1116.020667855851
 42
0.0039415167601632
 10
919.7657221872254
 20
-1116.359209918265
 10
919.7625910845734
 20
-1116.368313119141
 42
0.0031035838760381
 10
919.6417862988877
 20
-1116.726752980892
 10
919.63867625435
 20
-1116.736173602289
 42
0.0025070747153345
 10
919.5157749030318
 20
-1117.114820819241
 10
919.4784810066092
 20
-1117.231712484486
 42
0.0029081910282306
 10
919.2864627087988
 20
-1117.845876142776
 10
919.2456595402814
 20
-1117.979099385053
 42
0.0009266453733838
 10
918.9772421659376
 20
-1118.861323845073
 10
918.9563546933185
 20
-1118.930435724238
 42
-0.0005809993665949
 10
918.6790180127349
 20
-1119.844243830852
 10
918.612736214466
 20
-1120.061728762998
 42
-0.0012018708172016
 10
918.4657519050327
 20
-1120.539891427532
 10
918.4134320535061
 20
-1120.708650568273
 42
-0.000269105960072
 10
918.3698625722986
 20
-1120.84891818874
 10
915.5369066740094
 20
-1129.93807279104
 10
913.7189177820309
 20
-1129.93807279104
 10
919.9711671980788
 20
-1109.29435475451
  0
SPLINE
  5
6F
330
23
100
AcDbEntity
  8
0
  6
Continuous
 62
     7
370
    15
390
1D
100
AcDbSpline
210
0.0
220
0.0
230
1.0
 70
    15
 71
     2
 72
   782
 73
   779
 74
     0
 42
0.000000001
 43
0.000001
 40
0.0
 40
0.0
 40
0.0
 40
1.0
 40
1.0
 40
2.0
 40
2.0
 40
3.0
 40
3.0
 40
4.0
 40
4.0
 40
5.0
 40
5.0
 40
6.0
 40
6.0
 40
7.0
 40
7.0
 40
8.0
 40
8.0
 40
9.0
 40
9.0
 40
10.0
 40
10.0
 40
11.0
 40
11.0
 40
12.0
 40
12.0
 40
13.0
 40
13.0
 40
14.0
 40
14.0
 40
15.0
 40
15.0
 40
16.0
 40
16.0
 40
17.0
 40
17.0
 40
18.0
 40
18.0
 40
19.0
 40
19.0
 40
20.0
 40
20.0
 40
21.0
 40
21.0
 40
22.0
 40
22.0
 40
23.0
 40
23.0
 40
24.0
 40
24.0
 40
25.0
 40
25.0
 40
26.0
 40
26.0
 40
27.0
 40
27.0
 40
28.0
 40
28.0
 40
29.0
 40
29.0
 40
30.0
 40
30.0
 40
31.0
 40
31.0
 40
32.0
 40
32.0
 40
33.0
 40
33.0
 40
34.0
 40
34.0
 40
35.0
 40
35.0
 40
36.0
 40
36.0
 40
37.0
 40
37.0
 40
38.0
 40
38.0
 40
39.0
 40
39.0
 40
40.0
 40
40.0
 40
41.0
 40
41.0
 40
42.0
 40
42.0
 40
43.0
 40
43.0
 40
44.0
 40
44.0
 40
45.0
 40
45.0
 40
46.0
 40
46.0
 40
47.0
 40
47.0
 40
48.0
 40
48.0
 40
49.0
 40
49.0
 40
50.0
 40
50.0
 40
51.0
 40
51.0
 40
52.0
 40
52.0
 40
53.0
 40
53.0
 40
54.0
 40
54.0
 40
55.0
 40
55.0
 40
56.0
 40
56.0
 40
57.0
 40
57.0
 40
58.0
 40
58.0
 40
59.0
 40
59.0
 40
60.0
 40
60.0
 40
61.0
 40
61.0
 40
62.0
 40
62.0
 40
63.0
 40
63.0
 40
64.0
 40
64.0
 40
65.0
 40
65.0
 40
66.0
 40
66.0
 40
67.0
 40
67.0
 40
68.0
 40
68.0
 40
69.0
 40
69.0
 40
70.0
 40
70.0
 40
71.0
 40
71.0
 40
72.0
 40
72.0
 40
73.0
 40
73.0
 40
74.0
 40
74.0
 40
75.0
 40
75.0
 40
76.0
 40
76.0
 40
77.0
 40
77.0
 40
78.0
 40
78.0
 40
79.0
 40
79.0
 40
80.0
 40
80.0
 40
81.0
 40
81.0
 40
82.0
 40
82.0
 40
83.0
 40
83.0
 40
84.0
 40
84.0
 40
85.0
 40
85.0
 40
86.0
 40
86.0
 40
87.0
 40
87.0
 40
88.0
 40
88.0
 40
89.0
 40
89.0
 40
90.0
 40
90.0
 40
91.0
 40
91.0
 40
92.0
 40
92.0
 40
93.0
 40
93.0
 40
94.0
 40
94.0
 40
95.0
 40
95.0
 40
96.0
 40
96.0
 40
97.0
 40
97.0
 40
98.0
 40
98.0
 40
99.0
 40
99.0
 40
100.0
 40
100.0
 40
101.0
 40
101.0
 40
102.0
 40
102.0
 40
103.0
 40
103.0
 40
104.0
 40
104.0
 40
105.0
 40
105.0
 40
106.0
 40
106.0
 40
107.0
 40
107.0
 40
108.0
 40
108.0
 40
109.0
 40
109.0
 40
110.0
 40
110.0
 40
111.0
 40
111.0
 40
112.0
 40
112.0
 40
113.0
 40
113.0
 40
114.0
 40
114.0
 40
115.0
 40
115.0
 40
116.0
 40
116.0
 40
117.0
 40
117.0
 40
118.0
 40
118.0
 40
119.0
 40
119.0
 40
120.0
 40
120.0
 40
121.0
 40
121.0
 40
122.0
 40
122.0
 40
123.0
 40
123.0
 40
124.0
 40
124.0
 40
125.0
 40
125.0
 40
126.0
 40
126.0
 40
127.0
 40
127.0
 40
128.0
 40
128.0
 40
129.0
 40
129.0
 40
130.0
 40
130.0
 40
131.0
 40
131.0
 40
132.0
 40
132.0
 40
133.0
 40
133.0
 40
134.0
 40
134.0
 40
135.0
 40
135.0
 40
136.0
 40
136.0
 40
137.0
 40
137.0
 40
138.0
 40
138.0
 40
139.0
 40
139.0
 40
140.0
 40
140.0
 40
141.0
 40
141.0
 40
142.0
 40
142.0
 40
143.0
 40
143.0
 40
144.0
 40
144.0
 40
145.0
 40
145.0
 40
146.0
 40
146.0
 40
147.0
 40
147.0
 40
148.0
 40
148.0
 40
149.0
 40
149.0
 40
150.0
 40
150.0
 40
151.0
 40
151.0
 40
152.0
 40
152.0
 40
153.0
 40
153.0
 40
154.0
 40
154.0
 40
155.0
 40
155.0
 40
156.0
 40
156.0
 40
157.0
 40
157.0
 40
158.0
 40
158.0
 40
159.0
 40
159.0
 40
160.0
 40
160.0
 40
161.0
 40
161.0
 40
162.0
 40
162.0
 40
163.0
 40
163.0
 40
164.0
 40
164.0
 40
165.0
 40
165.0
 40
166.0
 40
166.0
 40
167.0
 40
167.0
 40
168.0
 40
168.0
 40
169.0
 40
169.0
 40
170.0
 40
170.0
 40
171.0
 40
171.0
 40
172.0
 40
172.0
 40
173.0
 40
173.0
 40
174.0
 40
174.0
 40
175.0
 40
175.0
 40
176.0
 40
176.0
 40
177.0
 40
177.0
 40
178.0
 40
178.0
 40
179.0
 40
179.0
 40
180.0
 40
180.0
 40
181.0
 40
181.0
 40
182.0
 40
182.0
 40
183.0
 40
183.0
 40
184.0
 40
184.0
 40
185.0
 40
185.0
 40
186.0
 40
186.0
 40
187.0
 40
187.0
 40
188.0
 40
188.0
 40
189.0
 40
189.0
 40
190.0
 40
190.0
 40
191.0
 40
191.0
 40
192.0
 40
192.0
 40
193.0
 40
193.0
 40
194.0
 40
194.0
 40
195.0
 40
195.0
 40
196.0
 40
196.0
 40
197.0
 40
197.0
 40
198.0
 40
198.0
 40
199.0
 40
199.0
 40
200.0
 40
200.0
 40
201.0
 40
201.0
 40
202.0
 40
202.0
 40
203.0
 40
203.0
 40
204.0
 40
204.0
 40
205.0
 40
205.0
 40
206.0
 40
206.0
 40
207.0
 40
207.0
 40
208.0
 40
208.0
 40
209.0
 40
209.0
 40
210.0
 40
210.0
 40
211.0
 40
211.0
 40
212.0
 40
212.0
 40
213.0
 40
213.0
 40
214.0
 40
214.0
 40
215.0
 40
215.0
 40
216.0
 40
216.0
 40
217.0
 40
217.0
 40
218.0
 40
218.0
 40
219.0
 40
219.0
 40
220.0
 40
220.0
 40
221.0
 40
221.0
 40
222.0
 40
222.0
 40
223.0
 40
223.0
 40
224.0
 40
224.0
 40
225.0
 40
225.0
 40
226.0
 40
226.0
 40
227.0
 40
227.0
 40
228.0
 40
228.0
 40
229.0
 40
229.0
 40
230.0
 40
230.0
 40
231.0
 40
231.0
 40
232.0
 40
232.0
 40
233.0
 40
233.0
 40
234.0
 40
234.0
 40
235.0
 40
235.0
 40
236.0
 40
236.0
 40
237.0
 40
237.0
 40
238.0
 40
238.0
 40
239.0
 40
239.0
 40
240.0
 40
240.0
 40
241.0
 40
241.0
 40
242.0
 40
242.0
 40
243.0
 40
243.0
 40
244.0
 40
244.0
 40
245.0
 40
245.0
 40
246.0
 40
246.0
 40
247.0
 40
247.0
 40
248.0
 40
248.0
 40
249.0
 40
249.0
 40
250.0
 40
250.0
 40
251.0
 40
251.0
 40
252.0
 40
252.0
 40
253.0
 40
253.0
 40
254.0
 40
254.0
 40
255.0
 40
255.0
 40
256.0
 40
256.0
 40
257.0
 40
257.0
 40
258.0
 40
258.0
 40
259.0
 40
259.0
 40
260.0
 40
260.0
 40
261.0
 40
261.0
 40
262.0
 40
262.0
 40
263.0
 40
263.0
 40
264.0
 40
264.0
 40
265.0
 40
265.0
 40
266.0
 40
266.0
 40
267.0
 40
267.0
 40
268.0
 40
268.0
 40
269.0
 40
269.0
 40
270.0
 40
270.0
 40
271.0
 40
271.0
 40
272.0
 40
272.0
 40
273.0
 40
273.0
 40
274.0
 40
274.0
 40
275.0
 40
275.0
 40
276.0
 40
276.0
 40
277.0
 40
277.0
 40
278.0
 40
278.0
 40
279.0
 40
279.0
 40
280.0
 40
280.0
 40
281.0
 40
281.0
 40
282.0
 40
282.0
 40
283.0
 40
283.0
 40
284.0
 40
284.0
 40
285.0
 40
285.0
 40
286.0
 40
286.0
 40
287.0
 40
287.0
 40
288.0
 40
288.0
 40
289.0
 40
289.0
 40
290.0
 40
290.0
 40
291.0
 40
291.0
 40
292.0
 40
292.0
 40
293.0
 40
293.0
 40
294.0
 40
294.0
 40
295.0
 40
295.0
 40
296.0
 40
296.0
 40
297.0
 40
297.0
 40
298.0
 40
298.0
 40
299.0
 40
299.0
 40
300.0
 40
300.0
 40
301.0
 40
301.0
 40
302.0
 40
302.0
 40
303.0
 40
303.0
 40
304.0
 40
304.0
 40
305.0
 40
305.0
 40
306.0
 40
306.0
 40
307.0
 40
307.0
 40
308.0
 40
308.0
 40
309.0
 40
309.0
 40
310.0
 40
310.0
 40
311.0
 40
311.0
 40
312.0
 40
312.0
 40
313.0
 40
313.0
 40
314.0
 40
314.0
 40
315.0
 40
315.0
 40
316.0
 40
316.0
 40
317.0
 40
317.0
 40
318.0
 40
318.0
 40
319.0
 40
319.0
 40
320.0
 40
320.0
 40
321.0
 40
321.0
 40
322.0
 40
322.0
 40
323.0
 40
323.0
 40
324.0
 40
324.0
 40
325.0
 40
325.0
 40
326.0
 40
326.0
 40
327.0
 40
327.0
 40
328.0
 40
328.0
 40
329.0
 40
329.0
 40
330.0
 40
330.0
 40
331.0
 40
331.0
 40
332.0
 40
332.0
 40
333.0
 40
333.0
 40
334.0
 40
334.0
 40
335.0
 40
335.0
 40
336.0
 40
336.0
 40
337.0
 40
337.0
 40
338.0
 40
338.0
 40
339.0
 40
339.0
 40
340.0
 40
340.0
 40
341.0
 40
341.0
 40
342.0
 40
342.0
 40
343.0
 40
343.0
 40
344.0
 40
344.0
 40
345.0
 40
345.0
 40
346.0
 40
346.0
 40
347.0
 40
347.0
 40
348.0
 40
348.0
 40
349.0
 40
349.0
 40
350.0
 40
350.0
 40
351.0
 40
351.0
 40
352.0
 40
352.0
 40
353.0
 40
353.0
 40
354.0
 40
354.0
 40
355.0
 40
355.0
 40
356.0
 40
356.0
 40
357.0
 40
357.0
 40
358.0
 40
358.0
 40
359.0
 40
359.0
 40
360.0
 40
360.0
 40
361.0
 40
361.0
 40
362.0
 40
362.0
 40
363.0
 40
363.0
 40
364.0
 40
364.0
 40
365.0
 40
365.0
 40
366.0
 40
366.0
 40
367.0
 40
367.0
 40
368.0
 40
368.0
 40
369.0
 40
369.0
 40
370.0
 40
370.0
 40
371.0
 40
371.0
 40
372.0
 40
372.0
 40
373.0
 40
373.0
 40
374.0
 40
374.0
 40
375.0
 40
375.0
 40
376.0
 40
376.0
 40
377.0
 40
377.0
 40
378.0
 40
378.0
 40
379.0
 40
379.0
 40
380.0
 40
380.0
 40
381.0
 40
381.0
 40
382.0
 40
382.0
 40
383.0
 40
383.0
 40
384.0
 40
384.0
 40
385.0
 40
385.0
 40
386.0
 40
386.0
 40
387.0
 40
387.0
 40
388.0
 40
388.0
 40
389.0
 40
389.0
 40
389.0
 10
930.2998716488114
 20
-1109.283428391147
 30
0.0
 41
1.0
 10
931.1182957575319
 20
-1109.283428391147
 30
0.0
 41
1.0
 10
931.9367198662524
 20
-1109.283428391147
 30
0.0
 41
1.0
 10
931.5229661307355
 20
-1110.626054655397
 30
0.0
 41
1.0
 10
931.1092123952188
 20
-1111.968680919647
 30
0.0
 41
1.0
 10
931.1275518903927
 20
-1111.939980146726
 30
0.0
 41
0.999995726432426
 10
931.1460588872133
 20
-1111.911387096591
 30
0.0
 41
1.0
 10
931.1764882113526
 20
-1111.864374218212
 30
0.0
 41
1.0
 10
931.206917535492
 20
-1111.817361339833
 30
0.0
 41
1.0
 10
931.2862831805987
 20
-1111.694742532929
 30
0.0
 41
0.999539406908078
 10
931.3729415721501
 20
-1111.577164471188
 30
0.0
 41
1.0
 10
931.4086984344098
 20
-1111.528649578594
 30
0.0
 41
1.0
 10
931.4444552966694
 20
-1111.480134686001
 30
0.0
 41
1.0
 10
931.5781819644875
 20
-1111.298694410874
 30
0.0
 41
0.9994460617142983
 10
931.7236824457758
 20
-1111.126552013224
 30
0.0
 41
1.0
 10
931.7280706267499
 20
-1111.121360332843
 30
0.0
 41
1.0
 10
931.7324588077239
 20
-1111.116168652461
 30
0.0
 41
1.0
 10
931.8691829270637
 20
-1110.954409615575
 30
0.0
 41
0.9994359394934353
 10
932.0164571574151
 20
-1110.80219341441
 30
0.0
 41
1.0
 10
932.0188405113684
 20
-1110.799730084037
 30
0.0
 41
1.0
 10
932.0212238653216
 20
-1110.797266753664
 30
0.0
 41
1.0
 10
932.1637313877668
 20
-1110.649977213245
 30
0.0
 41
0.9995293688567777
 10
932.3150030687488
 20
-1110.511704001081
 30
0.0
 41
1.0
 10
932.3342968280115
 20
-1110.494068115431
 30
0.0
 41
1.0
 10
932.3535905872741
 20
-1110.47643222978
 30
0.0
 41
1.0
 10
932.4662747497309
 20
-1110.373430788917
 30
0.0
 41
0.9997087614803707
 10
932.5837976386858
 20
-1110.275986508119
 30
0.0
 41
1.0
 10
932.6029637118563
 20
-1110.260094929616
 30
0.0
 41
1.0
 10
932.6221297850267
 20
-1110.244203351112
 30
0.0
 41
1.0
 10
932.7013205276389
 20
-1110.178542227323
 30
0.0
 41
0.9999595338698746
 10
932.781679798496
 20
-1110.114316496667
 30
0.0
 41
1.0
 10
932.8620390693372
 20
-1110.050090766022
 30
0.0
 41
0.999974941750717
 10
932.9432996036763
 20
-1109.987009212079
 30
0.0
 41
1.0
 10
932.9642857498658
 20
-1109.970717924757
 30
0.0
 41
1.0
 10
932.9852718960552
 20
-1109.954426637434
 30
0.0
 41
1.0
 10
933.0698397813362
 20
-1109.88877762761
 30
0.0
 41
0.9999792037126629
 10
933.1552473810971
 20
-1109.824224845972
 30
0.0
 41
1.0
 10
933.1760722069938
 20
-1109.808485023726
 30
0.0
 41
1.0
 10
933.1968970328905
 20
-1109.792745201479
 30
0.0
 41
1.0
 10
933.2406549808718
 20
-1109.759672064325
 30
0.0
 41
0.9999993374032897
 10
933.2843366670098
 20
-1109.726498268905
 30
0.0
 41
1.0
 10
933.3280183531565
 20
-1109.693324473478
 30
0.0
 41
0.9999160953816022
 10
933.3725447640796
 20
-1109.661293408277
 30
0.0
 41
1.0
 10
933.4053666514956
 20
-1109.637682252695
 30
0.0
 41
1.0
 10
933.4381885389116
 20
-1109.614071097113
 30
0.0
 41
1.0
 10
933.5483587246702
 20
-1109.534817720745
 30
0.0
 41
0.9980964527232142
 10
933.6674477181699
 20
-1109.469730247889
 30
0.0
 41
1.0
 10
933.7044803250993
 20
-1109.449490268295
 30
0.0
 41
1.0
 10
933.7415129320287
 20
-1109.429250288701
 30
0.0
 41
1.0
 10
933.9208399453005
 20
-1109.331240038001
 30
0.0
 41
0.9984572810573156
 10
934.1099285116588
 20
-1109.253717776655
 30
0.0
 41
1.0
 10
934.1135747810524
 20
-1109.252222884318
 30
0.0
 41
1.0
 10
934.1172210504459
 20
-1109.250727991981
 30
0.0
 41
1.0
 10
934.2990170780158
 20
-1109.176195515309
 30
0.0
 41
0.9987838528033853
 10
934.487269736577
 20
-1109.119929875143
 30
0.0
 41
1.0
 10
934.4915076857765
 20
-1109.118663221452
 30
0.0
 41
1.0
 10
934.495745634976
 20
-1109.117396567762
 30
0.0
 41
1.0
 10
934.675522395137
 20
-1109.063664234977
 30
0.0
 41
0.9990652816207256
 10
934.8592683268521
 20
-1109.025660555435
 30
0.0
 41
1.0
 10
934.8644567278841
 20
-1109.024587452328
 30
0.0
 41
1.0
 10
934.8696451289161
 20
-1109.023514349222
 30
0.0
 41
1.0
 10
935.0430142585685
 20
-1108.987656875893
 30
0.0
 41
0.9992909934270146
 10
935.2185900250263
 20
-1108.964946443426
 30
0.0
 41
1.0
 10
935.394165791485
 20
-1108.94223601096
 30
0.0
 41
0.9994553539449016
 10
935.5708572245786
 20
-1108.931156706754
 30
0.0
 41
1.0
 10
935.6062916323751
 20
-1108.928934818706
 30
0.0
 41
1.0
 10
935.6417260401718
 20
-1108.926712930658
 30
0.0
 41
1.0
 10
935.8079518067401
 20
-1108.916289868246
 30
0.0
 41
0.999092809829315
 10
935.974461598641
 20
-1108.920049509481
 30
0.0
 41
1.0
 10
936.0130234339172
 20
-1108.920920201014
 30
0.0
 41
1.0
 10
936.0515852691932
 20
-1108.921790892547
 30
0.0
 41
1.0
 10
936.140971390548
 20
-1108.923809150716
 30
0.0
 41
0.9998382089203696
 10
936.23022707333
 20
-1108.929041277243
 30
0.0
 41
1.0
 10
936.23065697955
 20
-1108.929066478146
 30
0.0
 41
1.0
 10
936.23108688577
 20
-1108.929091679048
 30
0.0
 41
1.0
 10
936.3194827561163
 20
-1108.934273403772
 30
0.0
 41
0.9997558016757975
 10
936.407563333317
 20
-1108.943355919138
 30
0.0
 41
1.0
 10
936.4080394717473
 20
-1108.943405016621
 30
0.0
 41
1.0
 10
936.4085156101777
 20
-1108.943454114103
 30
0.0
 41
1.0
 10
936.4956439105185
 20
-1108.952438434505
 30
0.0
 41
0.9996565144181592
 10
936.5821817638598
 20
-1108.965975741194
 30
0.0
 41
1.0
 10
936.5826476892379
 20
-1108.966048626925
 30
0.0
 41
1.0
 10
936.583113614616
 20
-1108.966121512657
 30
0.0
 41
1.0
 10
936.6687196172024
 20
-1108.979513047883
 30
0.0
 41
0.9995321806866176
 10
936.7533466975299
 20
-1108.998113536312
 30
0.0
 41
1.0
 10
936.753735892102
 20
-1108.998199078778
 30
0.0
 41
1.0
 10
936.754125086674
 20
-1108.998284621244
 30
0.0
 41
1.0
 10
936.837973777858
 20
-1109.016714024741
 30
0.0
 41
0.9993819199220446
 10
936.9203203120541
 20
-1109.040989408002
 30
0.0
 41
1.0
 10
936.9205587455514
 20
-1109.041059697111
 30
0.0
 41
1.0
 10
936.9207971790487
 20
-1109.04112998622
 30
0.0
 41
1.0
 10
937.00266684625
 20
-1109.065264791262
 30
0.0
 41
0.9992088568505504
 10
937.0823593652385
 20
-1109.095830027057
 30
0.0
 41
1.0
 10
937.1620403561176
 20
-1109.12638962779
 30
0.0
 41
0.9990226101773398
 10
937.2387110260247
 20
-1109.163867059405
 30
0.0
 41
1.0
 10
937.3153701678224
 20
-1109.201338855958
 30
0.0
 41
0.9988424273972337
 10
937.3880737950342
 20
-1109.24600363121
 30
0.0
 41
1.0
 10
937.388341503414
 20
-1109.246168095283
 30
0.0
 41
1.0
 10
937.3886092117938
 20
-1109.246332559355
 30
0.0
 41
1.0
 10
937.4618482557646
 20
-1109.291326262753
 30
0.0
 41
0.9986928844491578
 10
937.5301111224745
 20
-1109.343561997032
 30
0.0
 41
1.0
 10
937.5306924146973
 20
-1109.34400681026
 30
0.0
 41
1.0
 10
937.53127370692
 20
-1109.344451623488
 30
0.0
 41
1.0
 10
937.600699158075
 20
-1109.397576984224
 30
0.0
 41
0.9986007262279032
 10
937.6641253278427
 20
-1109.457737753918
 30
0.0
 41
1.0
 10
937.6650197432996
 20
-1109.458586121752
 30
0.0
 41
1.0
 10
937.6659141587564
 20
-1109.459434489587
 30
0.0
 41
1.0
 10
937.7311291594378
 20
-1109.521291994951
 30
0.0
 41
0.9985581491381768
 10
937.789336771139
 20
-1109.589784485222
 30
0.0
 41
1.0
 10
937.798595224735
 20
-1109.600678842924
 30
0.0
 41
1.0
 10
937.807853678331
 20
-1109.611573200626
 30
0.0
 41
1.0
 10
937.8845781972244
 20
-1109.701854406301
 30
0.0
 41
0.9970460233520719
 10
937.9465700983834
 20
-1109.802821490483
 30
0.0
 41
1.0
 10
937.9610394634633
 20
-1109.826387949564
 30
0.0
 41
1.0
 10
937.9755088285431
 20
-1109.849954408646
 30
0.0
 41
1.0
 10
938.0152455285546
 20
-1109.914674132677
 30
0.0
 41
0.9988468816635977
 10
938.0485918993064
 20
-1109.982906585105
 30
0.0
 41
1.0
 10
938.0556279217983
 20
-1109.997303506243
 30
0.0
 41
1.0
 10
938.0626639442902
 20
-1110.011700427381
 30
0.0
 41
1.0
 10
938.0819382700569
 20
-1110.05113903753
 30
0.0
 41
0.9998431189998841
 10
938.0998035975529
 20
-1110.091235591973
 30
0.0
 41
1.0
 10
938.1176689250312
 20
-1110.131332146376
 30
0.0
 41
0.9999989989918913
 10
938.1356476484395
 20
-1110.17137798393
 30
0.0
 41
1.0
 10
938.1418199600489
 20
-1110.185126200776
 30
0.0
 41
1.0
 10
938.1479922716584
 20
-1110.198874417623
 30
0.0
 41
1.0
 10
938.1783156182673
 20
-1110.266416688828
 30
0.0
 41
0.9998790356321229
 10
938.2065234984063
 20
-1110.334869440768
 30
0.0
 41
1.0
 10
938.2133586796922
 20
-1110.351456542199
 30
0.0
 41
1.0
 10
938.2201938609779
 20
-1110.36804364363
 30
0.0
 41
1.0
 10
938.2437515233569
 20
-1110.425211598513
 30
0.0
 41
0.9998227574561002
 10
938.265140271745
 20
-1110.483225906787
 30
0.0
 41
1.0
 10
938.2865290201347
 20
-1110.541240215065
 30
0.0
 41
0.9996797971041884
 10
938.3049553050928
 20
-1110.60026233418
 30
0.0
 41
1.0
 10
938.3088591078188
 20
-1110.61276679235
 30
0.0
 41
1.0
 10
938.3127629105447
 20
-1110.62527125052
 30
0.0
 41
1.0
 10
938.3389968009549
 20
-1110.709302285976
 30
0.0
 41
0.9979274938734393
 10
938.3542213244342
 20
-1110.796006644637
 30
0.0
 41
1.0
 10
938.3564450116953
 20
-1110.808670645458
 30
0.0
 41
1.0
 10
938.3586686989565
 20
-1110.821334646279
 30
0.0
 41
1.0
 10
938.3695986386547
 20
-1110.883581153569
 30
0.0
 41
0.9994985982138165
 10
938.3765668038318
 20
-1110.946394654711
 30
0.0
 41
1.0
 10
938.3835349690086
 20
-1111.009208155852
 30
0.0
 41
0.9996372611202222
 10
938.3871108347764
 20
-1111.072305734534
 30
0.0
 41
1.0
 10
938.3872794122658
 20
-1111.075280351617
 30
0.0
 41
1.0
 10
938.3874479897551
 20
-1111.0782549687
 30
0.0
 41
1.0
 10
938.3913610105013
 20
-1111.147301781542
 30
0.0
 41
0.999773063073672
 10
938.3923293239895
 20
-1111.216452605576
 30
0.0
 41
1.0
 10
938.3923864304077
 20
-1111.22053078472
 30
0.0
 41
1.0
 10
938.3924435368258
 20
-1111.224608963864
 30
0.0
 41
1.0
 10
938.39352606315
 20
-1111.301916146178
 30
0.0
 41
0.9998772614069017
 10
938.3921859764184
 20
-1111.379219292739
 30
0.0
 41
1.0
 10
938.3920967132196
 20
-1111.384368456577
 30
0.0
 41
1.0
 10
938.3920074500209
 20
-1111.389517620416
 30
0.0
 41
1.0
 10
938.3904888368917
 20
-1111.477119094649
 30
0.0
 41
0.9999415567329807
 10
938.3870765266458
 20
-1111.564667256322
 30
0.0
 41
1.0
 10
938.3868352059704
 20
-1111.570858716061
 30
0.0
 41
1.0
 10
938.386593885295
 20
-1111.5770501758
 30
0.0
 41
1.0
 10
938.3826989336986
 20
-1111.676981256947
 30
0.0
 41
0.9999716810430108
 10
938.3773003505803
 20
-1111.776842395172
 30
0.0
 41
1.0
 10
938.3740875517918
 20
-1111.836271644823
 30
0.0
 41
1.0
 10
938.3708747530034
 20
-1111.895700894474
 30
0.0
 41
1.0
 10
938.3628008438504
 20
-1112.045049295764
 30
0.0
 41
0.999981912989218
 10
938.3529310522331
 20
-1112.194289773485
 30
0.0
 41
1.0
 10
938.3430612606164
 20
-1112.343530251197
 30
0.0
 41
1.0
 10
938.3406219400525
 20
-1112.380723297046
 30
0.0
 41
1.0
 10
938.3633201739144
 20
-1112.341982299664
 30
0.0
 41
0.9999982128254727
 10
938.3861647327091
 20
-1112.30332740564
 30
0.0
 41
1.0
 10
938.4130742925588
 20
-1112.257794191644
 30
0.0
 41
1.0
 10
938.4399838524087
 20
-1112.212260977648
 30
0.0
 41
1.0
 10
938.5166475309337
 20
-1112.08253965558
 30
0.0
 41
0.999860919005663
 10
938.5975948437958
 20
-1111.95544727365
 30
0.0
 41
1.0
 10
938.627243165279
 20
-1111.90889754069
 30
0.0
 41
1.0
 10
938.6568914867621
 20
-1111.862347807731
 30
0.0
 41
1.0
 10
938.7391637069984
 20
-1111.733175237737
 30
0.0
 41
0.9999067609734985
 10
938.8249327164608
 20
-1111.606297548298
 30
0.0
 41
1.0
 10
938.8273374196631
 20
-1111.602740282241
 30
0.0
 41
1.0
 10
938.8297421228655
 20
-1111.599183016184
 30
0.0
 41
1.0
 10
938.9107017259241
 20
-1111.479419858858
 30
0.0
 41
0.9998784952149002
 10
938.9953553356063
 20
-1111.362238642148
 30
0.0
 41
1.0
 10
939.0800089452894
 20
-1111.245057425437
 30
0.0
 41
0.9998532968284335
 10
939.1686265661137
 20
-1111.130844516965
 30
0.0
 41
1.0
 10
939.1885883551029
 20
-1111.105117195947
 30
0.0
 41
1.0
 10
939.2085501440919
 20
-1111.07938987493
 30
0.0
 41
1.0
 10
939.3270341938519
 20
-1110.92668426396
 30
0.0
 41
0.9991551975795518
 10
939.4576586434748
 20
-1110.784224701877
 30
0.0
 41
1.0
 10
939.4611682594564
 20
-1110.780397100251
 30
0.0
 41
1.0
 10
939.4646778754378
 20
-1110.776569498624
 30
0.0
 41
1.0
 10
939.5882830930988
 20
-1110.641765139793
 30
0.0
 41
0.9997418144181696
 10
939.7178852327991
 20
-1110.512715729181
 30
0.0
 41
1.0
 10
939.8474873724986
 20
-1110.383666318569
 30
0.0
 41
0.9989238204633551
 10
939.9884899207482
 20
-1110.267181356531
 30
0.0
 41
1.0
 10
940.0337375988885
 20
-1110.229801364922
 30
0.0
 41
1.0
 10
940.0789852770288
 20
-1110.192421373313
 30
0.0
 41
1.0
 10
940.2192253342499
 20
-1110.076566320022
 30
0.0
 41
0.999082508409675
 10
940.3688652668551
 20
-1109.973137322188
 30
0.0
 41
1.0
 10
940.3789106309125
 20
-1109.966194109108
 30
0.0
 41
1.0
 10
940.38895599497
 20
-1109.959250896028
 30
0.0
 41
1.0
 10
940.5185051994597
 20
-1109.869708324355
 30
0.0
 41
0.9998164899826432
 10
940.6513894028353
 20
-1109.785194082839
 30
0.0
 41
1.0
 10
940.6632349633585
 20
-1109.777660316315
 30
0.0
 41
1.0
 10
940.6750805238817
 20
-1109.770126549791
 30
0.0
 41
1.0
 10
940.784273606209
 20
-1109.700679841324
 30
0.0
 41
0.9997473449130044
 10
940.8964775634611
 20
-1109.636210883507
 30
0.0
 41
1.0
 10
941.008681520711
 20
-1109.571741925691
 30
0.0
 41
0.9999327861147369
 10
941.1223501314762
 20
-1109.509891934008
 30
0.0
 41
1.0
 10
941.1229021340357
 20
-1109.50959157533
 30
0.0
 41
1.0
 10
941.1234541365953
 20
-1109.509291216651
 30
0.0
 41
1.0
 10
941.2382267524805
 20
-1109.446840507612
 30
0.0
 41
0.9996956420484077
 10
941.3559400783207
 20
-1109.390127040637
 30
0.0
 41
1.0
 10
941.3863804832121
 20
-1109.375461063907
 30
0.0
 41
1.0
 10
941.4168208881034
 20
-1109.360795087178
 30
0.0
 41
1.0
 10
941.5197979948496
 20
-1109.311181428733
 30
0.0
 41
0.9998070570176625
 10
941.6246443837906
 20
-1109.265650841832
 30
0.0
 41
1.0
 10
941.7294907727287
 20
-1109.220120254932
 30
0.0
 41
0.9997827436147062
 10
941.8361437093354
 20
-1109.178999083622
 30
0.0
 41
1.0
 10
941.8553665589698
 20
-1109.171587509988
 30
0.0
 41
1.0
 10
941.8745894086042
 20
-1109.164175936355
 30
0.0
 41
1.0
 10
942.0196880444763
 20
-1109.108231617778
 30
0.0
 41
0.9988031841976585
 10
942.1695584070803
 20
-1109.066731553611
 30
0.0
 41
1.0
 10
942.1944756554451
 20
-1109.059831807803
 30
0.0
 41
1.0
 10
942.21939290381
 20
-1109.052932061996
 30
0.0
 41
1.0
 10
942.3866629294557
 20
-1109.00661391959
 30
0.0
 41
0.998474804054966
 10
942.5580198381042
 20
-1108.979019687325
 30
0.0
 41
1.0
 10
942.5627589743522
 20
-1108.978256526811
 30
0.0
 41
1.0
 10
942.5674981106002
 20
-1108.977493366298
 30
0.0
 41
1.0
 10
942.7293767467525
 20
-1108.95142545506
 30
0.0
 41
0.9984436495479966
 10
942.893151490478
 20
-1108.943547501241
 30
0.0
 41
1.0
 10
942.914848698608
 20
-1108.942503814042
 30
0.0
 41
1.0
 10
942.9365459067379
 20
-1108.941460126842
 30
0.0
 41
1.0
 10
943.0569262342012
 20
-1108.935669547423
 30
0.0
 41
0.9987954789335187
 10
943.1772944791124
 20
-1108.941706075165
 30
0.0
 41
1.0
 10
943.1972592716081
 20
-1108.942707319503
 30
0.0
 41
1.0
 10
943.2172240641039
 20
-1108.943708563842
 30
0.0
 41
1.0
 10
943.2976627240236
 20
-1108.947742602907
 30
0.0
 41
0.9997941595878104
 10
943.3778715021167
 20
-1108.955036668828
 30
0.0
 41
1.0
 10
943.4580802802114
 20
-1108.962330734749
 30
0.0
 41
0.9998589466236715
 10
943.5379988270663
 20
-1108.972314589199
 30
0.0
 41
1.0
 10
943.5704050288745
 20
-1108.976362946119
 30
0.0
 41
1.0
 10
943.6028112306826
 20
-1108.980411303038
 30
0.0
 41
1.0
 10
943.7475421811546
 20
-1108.998491871326
 30
0.0
 41
0.9993495063249322
 10
943.8905934249208
 20
-1109.026957581068
 30
0.0
 41
1.0
 10
943.9235271220709
 20
-1109.033511044282
 30
0.0
 41
1.0
 10
943.9564608192212
 20
-1109.040064507497
 30
0.0
 41
1.0
 10
944.0657546424277
 20
-1109.061812841633
 30
0.0
 41
0.99967887155614
 10
944.1738062143847
 20
-1109.089070640996
 30
0.0
 41
1.0
 10
944.1758692169242
 20
-1109.089591067569
 30
0.0
 41
1.0
 10
944.1779322194637
 20
-1109.090111494142
 30
0.0
 41
1.0
 10
944.2818577863419
 20
-1109.116328440359
 30
0.0
 41
0.9995480654492916
 10
944.3840200215706
 20
-1109.148743396983
 30
0.0
 41
1.0
 10
944.3857096636996
 20
-1109.149279501897
 30
0.0
 41
1.0
 10
944.3873993058285
 20
-1109.149815606811
 30
0.0
 41
1.0
 10
944.4861822567997
 20
-1109.181158353608
 30
0.0
 41
0.9993867959456532
 10
944.5825294152426
 20
-1109.219337722898
 30
0.0
 41
1.0
 10
944.5837723643278
 20
-1109.219830264794
 30
0.0
 41
1.0
 10
944.5850153134131
 20
-1109.22032280669
 30
0.0
 41
1.0
 10
944.6788765736858
 20
-1109.257517092188
 30
0.0
 41
0.999205025652185
 10
944.7694762487184
 20
-1109.302070991426
 30
0.0
 41
1.0
 10
944.7702109314314
 20
-1109.302432283887
 30
0.0
 41
1.0
 10
944.7709456141442
 20
-1109.302793576348
 30
0.0
 41
1.0
 10
944.860075923752
 20
-1109.346624890665
 30
0.0
 41
0.9990222350741562
 10
944.9449859851454
 20
-1109.398158158363
 30
0.0
 41
1.0
 10
944.9451698704283
 20
-1109.398269761268
 30
0.0
 41
1.0
 10
944.9453537557114
 20
-1109.398381364173
 30
0.0
 41
1.0
 10
945.02989604654
 20
-1109.449691426062
 30
0.0
 41
0.9988642743805198
 10
945.1091705811582
 20
-1109.508815613587
 30
0.0
 41
1.0
 10
945.1884451157774
 20
-1109.567939801112
 30
0.0
 41
0.9987681233310435
 10
945.2614689000538
 20
-1109.634630492513
 30
0.0
 41
1.0
 10
945.2617978280193
 20
-1109.634930893727
 30
0.0
 41
1.0
 10
945.2621267559848
 20
-1109.635231294941
 30
0.0
 41
1.0
 10
945.3358083961923
 20
-1109.70252278877
 30
0.0
 41
0.9987496570898181
 10
945.4024022015204
 20
-1109.776835602858
 30
0.0
 41
1.0
 10
945.4031743712806
 20
-1109.777697276215
 30
0.0
 41
1.0
 10
945.4039465410408
 20
-1109.778558949573
 30
0.0
 41
1.0
 10
945.472084685889
 20
-1109.854595110375
 30
0.0
 41
0.9988147669827122
 10
945.5325069401142
 20
-1109.936896117218
 30
0.0
 41
1.0
 10
945.5336262661917
 20
-1109.93842074857
 30
0.0
 41
1.0
 10
945.5347455922692
 20
-1109.939945379923
 30
0.0
 41
1.0
 10
945.5974064986503
 20
-1110.025295649471
 30
0.0
 41
0.9989452636215783
 10
945.651973411611
 20
-1110.116034338628
 30
0.0
 41
1.0
 10
945.6533221376967
 20
-1110.118277119654
 30
0.0
 41
1.0
 10
945.6546708637824
 20
-1110.12051990068
 30
0.0
 41
1.0
 10
945.7119352289151
 20
-1110.215744151891
 30
0.0
 41
0.9991046436070875
 10
945.7609444422366
 20
-1110.315468584916
 30
0.0
 41
1.0
 10
945.7624083038266
 20
-1110.318447264988
 30
0.0
 41
1.0
 10
945.7638721654167
 20
-1110.321425945061
 30
0.0
 41
1.0
 10
945.8158091019183
 20
-1110.427107738231
 30
0.0
 41
0.9992763831101446
 10
945.8595622304734
 20
-1110.536431800187
 30
0.0
 41
1.0
 10
945.8610415001367
 20
-1110.540127987721
 30
0.0
 41
1.0
 10
945.8625207698001
 20
-1110.543824175254
 30
0.0
 41
1.0
 10
945.9092324376816
 20
-1110.660540612277
 30
0.0
 41
0.9994163472883112
 10
945.947865468871
 20
-1110.78017420074
 30
0.0
 41
1.0
 10
945.9491036211177
 20
-1110.784008344522
 30
0.0
 41
1.0
 10
945.9503417733645
 20
-1110.787842488305
 30
0.0
 41
1.0
 10
945.9902253343816
 20
-1110.911348549782
 30
0.0
 41
0.9997268055891184
 10
946.0242933902945
 20
-1111.036583581736
 30
0.0
 41
1.0
 10
946.0252235705638
 20
-1111.040002947844
 30
0.0
 41
1.0
 10
946.026153750833
 20
-1111.043422313952
 30
0.0
 41
1.0
 10
946.0583614462056
 20
-1111.161818613683
 30
0.0
 41
0.9996701319000731
 10
946.084447062977
 20
-1111.28171256695
 30
0.0
 41
1.0
 10
946.1105326797474
 20
-1111.401606520215
 30
0.0
 41
0.9995785451110064
 10
946.1296162570869
 20
-1111.522812281244
 30
0.0
 41
1.0
 10
946.1338360392607
 20
-1111.549613436009
 30
0.0
 41
1.0
 10
946.1380558214345
 20
-1111.576414590774
 30
0.0
 41
1.0
 10
946.1646307973731
 20
-1111.745200564479
 30
0.0
 41
0.99799251012173
 10
946.1696563832995
 20
-1111.91599189257
 30
0.0
 41
1.0
 10
946.170481195724
 20
-1111.944022616043
 30
0.0
 41
1.0
 10
946.1713060081485
 20
-1111.972053339516
 30
0.0
 41
1.0
 10
946.1746819692262
 20
-1112.086783220655
 30
0.0
 41
0.9995314902262659
 10
946.1710317770874
 20
-1112.201504704414
 30
0.0
 41
1.0
 10
946.1673815849489
 20
-1112.316226188164
 30
0.0
 41
0.9996245486944425
 10
946.1574524898181
 20
-1112.430575459288
 30
0.0
 41
1.0
 10
946.1572894418238
 20
-1112.432453215424
 30
0.0
 41
1.0
 10
946.1571263938295
 20
-1112.43433097156
 30
0.0
 41
1.0
 10
946.1468712027099
 20
-1112.552435754957
 30
0.0
 41
0.9997286095001383
 10
946.1311258791384
 20
-1112.669934663852
 30
0.0
 41
1.0
 10
946.1307323864883
 20
-1112.672871088553
 30
0.0
 41
1.0
 10
946.130338893838
 20
-1112.675807513253
 30
0.0
 41
1.0
 10
946.1138065849657
 20
-1112.799179271553
 30
0.0
 41
0.99982655339692
 10
946.092691126232
 20
-1112.921849746348
 30
0.0
 41
1.0
 10
946.0920145840955
 20
-1112.925780124852
 30
0.0
 41
1.0
 10
946.091338041959
 20
-1112.929710503355
 30
0.0
 41
1.0
 10
946.0688694989506
 20
-1113.060241735166
 30
0.0
 41
0.9999022530855838
 10
946.0427600343411
 20
-1113.190093703802
 30
0.0
 41
1.0
 10
946.0417813931763
 20
-1113.194960846187
 30
0.0
 41
1.0
 10
946.0408027520114
 20
-1113.199827988572
 30
0.0
 41
1.0
 10
946.0127360050691
 20
-1113.339414241992
 30
0.0
 41
0.9999524761935636
 10
945.9819530362329
 20
-1113.478426735163
 30
0.0
 41
1.0
 10
945.980676929059
 20
-1113.484189494458
 30
0.0
 41
1.0
 10
945.979400821885
 20
-1113.489952253754
 30
0.0
 41
1.0
 10
945.9460656386982
 20
-1113.640490265528
 30
0.0
 41
0.9999813588725677
 10
945.9108946379009
 20
-1113.79060997819
 30
0.0
 41
1.0
 10
945.9093407124457
 20
-1113.797242568607
 30
0.0
 41
1.0
 10
945.9077867869904
 20
-1113.803875159024
 30
0.0
 41
1.0
 10
945.8695079352772
 20
-1113.967260052542
 30
0.0
 41
0.9999955237712898
 10
945.8302520572831
 20
-1114.130412956205
 30
0.0
 41
1.0
 10
945.8179704216577
 20
-1114.181457146691
 30
0.0
 41
1.0
 10
945.8056887860322
 20
-1114.232501337177
 30
0.0
 41
1.0
 10
945.7418696367567
 20
-1114.497742621938
 30
0.0
 41
0.9999993604720105
 10
945.677450689587
 20
-1114.762838872629
 30
0.0
 41
1.0
 10
945.672731854054
 20
-1114.782257780612
 30
0.0
 41
1.0
 10
945.6680130185209
 20
-1114.801676688594
 30
0.0
 41
1.0
 10
945.5941564002583
 20
-1115.105610755362
 30
0.0
 41
0.9999659914737328
 10
945.515296804371
 20
-1115.408285301929
 30
0.0
 41
1.0
 10
945.5103441154424
 20
-1115.427294439103
 30
0.0
 41
1.0
 10
945.5053914265138
 20
-1115.446303576278
 30
0.0
 41
1.0
 10
945.4166264527684
 20
-1115.786996397198
 30
0.0
 41
0.9999441976025459
 10
945.3206834198038
 20
-1116.1257378225
 30
0.0
 41
1.0
 10
945.3039829013788
 20
-1116.184701535026
 30
0.0
 41
1.0
 10
945.2872823829539
 20
-1116.243665247551
 30
0.0
 41
1.0
 10
945.1579383131452
 20
-1116.700334097886
 30
0.0
 41
0.9999625120729989
 10
945.020705545824
 20
-1117.154694631875
 30
0.0
 41
1.0
 10
944.9849156027383
 20
-1117.273190658511
 30
0.0
 41
1.0
 10
944.9491256596525
 20
-1117.391686685147
 30
0.0
 41
1.0
 10
944.8746054556107
 20
-1117.638413763252
 30
0.0
 41
0.9999793386323276
 10
944.7969194324714
 20
-1117.884162402494
 30
0.0
 41
1.0
 10
944.7192334093338
 20
-1118.12991104173
 30
0.0
 41
1.0
 10
944.7084538504631
 20
-1118.163928946105
 30
0.0
 41
1.0
 10
942.8580807971939
 20
-1124.051000868572
 30
0.0
 41
1.0
 10
941.0077077439248
 20
-1129.93807279104
 30
0.0
 41
1.0
 10
940.0464510539013
 20
-1129.93807279104
 30
0.0
 41
1.0
 10
939.0851943638777
 20
-1129.93807279104
 30
0.0
 41
1.0
 10
940.7041391425562
 20
-1124.79004428925
 30
0.0
 41
1.0
 10
942.3230839212346
 20
-1119.642015787461
 30
0.0
 41
1.0
 10
942.3682497444119
 20
-1119.497984565181
 30
0.0
 41
1.0
 10
942.4134155675891
 20
-1119.353953342902
 30
0.0
 41
1.0
 10
942.5837199849459
 20
-1118.810862313759
 30
0.0
 41
0.999991165788731
 10
942.7494527966262
 20
-1118.266358782395
 30
0.0
 41
1.0
 10
942.7791487401327
 20
-1118.168794842324
 30
0.0
 41
1.0
 10
942.8088446836391
 20
-1118.071230902254
 30
0.0
 41
1.0
 10
942.9151856083118
 20
-1117.721855251013
 30
0.0
 41
0.9999952428129514
 10
943.0193691976312
 20
-1117.371830226682
 30
0.0
 41
1.0
 10
943.0244286679597
 20
-1117.35483195242
 30
0.0
 41
1.0
 10
943.029488138288
 20
-1117.337833678159
 30
0.0
 41
1.0
 10
943.1235527869541
 20
-1117.02180520234
 30
0.0
 41
0.9999931687516983
 10
943.2152786248299
 20
-1116.705089989061
 30
0.0
 41
1.0
 10
943.2202138892892
 20
-1116.688049279791
 30
0.0
 41
1.0
 10
943.2251491537484
 20
-1116.671008570522
 30
0.0
 41
1.0
 10
943.3070044627037
 20
-1116.38837477579
 30
0.0
 41
0.9999893840778815
 10
943.3862516891604
 20
-1116.104998646544
 30
0.0
 41
1.0
 10
943.4654989156174
 20
-1115.821622517297
 30
0.0
 41
0.9999833980075751
 10
943.541475156362
 20
-1115.537351934258
 30
0.0
 41
1.0
 10
943.5504790930838
 20
-1115.503663055781
 30
0.0
 41
1.0
 10
943.5594830298056
 20
-1115.469974177305
 30
0.0
 41
1.0
 10
943.6284475786723
 20
-1115.211938345007
 30
0.0
 41
0.9999233658068871
 10
943.6910025498908
 20
-1114.952274186291
 30
0.0
 41
1.0
 10
943.753557521111
 20
-1114.692610027569
 30
0.0
 41
1.0
 10
943.7930409399686
 20
-1114.528803363143
 30
0.0
 41
1.0
 10
943.7980195439474
 20
-1114.508148401266
 30
0.0
 41
1.0
 10
943.8029981479261
 20
-1114.48749343939
 30
0.0
 41
1.0
 10
943.8325243588309
 20
-1114.364996698697
 30
0.0
 41
0.999986867085324
 10
943.8607934428223
 20
-1114.242203753071
 30
0.0
 41
1.0
 10
943.8646909299811
 20
-1114.22527416565
 30
0.0
 41
1.0
 10
943.8685884171398
 20
-1114.208344578228
 30
0.0
 41
1.0
 10
943.889062526819
 20
-1114.119410807424
 30
0.0
 41
0.9999778173346371
 10
943.908350124934
 20
-1114.030212190195
 30
0.0
 41
1.0
 10
943.9276377230501
 20
-1113.941013572961
 30
0.0
 41
0.9999602692861005
 10
943.9453320816826
 20
-1113.851485284526
 30
0.0
 41
1.0
 10
943.9485359137591
 20
-1113.835274829647
 30
0.0
 41
1.0
 10
943.9517397458354
 20
-1113.819064374767
 30
0.0
 41
1.0
 10
943.9758417686206
 20
-1113.697115176573
 30
0.0
 41
0.9995617985321313
 10
943.9926851158398
 20
-1113.573953428867
 30
0.0
 41
1.0
 10
943.9951496057461
 20
-1113.555932611501
 30
0.0
 41
1.0
 10
943.9976140956522
 20
-1113.537911794136
 30
0.0
 41
1.0
 10
944.0178973567006
 20
-1113.389596744433
 30
0.0
 41
0.999112141064009
 10
944.0256227102892
 20
-1113.240100645625
 30
0.0
 41
1.0
 10
944.0265415003138
 20
-1113.222320809048
 30
0.0
 41
1.0
 10
944.0274602903384
 20
-1113.204540972472
 30
0.0
 41
1.0
 10
944.0333480638775
 20
-1113.090604546818
 30
0.0
 41
0.9989792494905344
 10
944.0289289717601
 20
-1112.97660171092
 30
0.0
 41
1.0
 10
944.0282809998913
 20
-1112.959885464988
 30
0.0
 41
1.0
 10
944.0276330280225
 20
-1112.943169219057
 30
0.0
 41
1.0
 10
944.0245098796426
 20
-1112.862598875017
 30
0.0
 41
0.9997820295394036
 10
944.0180258822671
 20
-1112.782229153278
 30
0.0
 41
1.0
 10
944.0115418848915
 20
-1112.701859431533
 30
0.0
 41
0.999833510597353
 10
944.0021296893796
 20
-1112.621779815082
 30
0.0
 41
1.0
 10
944.0005347647034
 20
-1112.6082100846
 30
0.0
 41
1.0
 10
943.9989398400271
 20
-1112.594640354117
 30
0.0
 41
1.0
 10
943.9863377951626
 20
-1112.487421276702
 30
0.0
 41
0.9996876457880055
 10
943.9683938823644
 20
-1112.380965848986
 30
0.0
 41
1.0
 10
943.9661622192191
 20
-1112.367726113744
 30
0.0
 41
1.0
 10
943.9639305560738
 20
-1112.354486378503
 30
0.0
 41
1.0
 10
943.9501347346524
 20
-1112.272640234542
 30
0.0
 41
0.9995547496495085
 10
943.93148141276
 20
-1112.191762737352
 30
0.0
 41
1.0
 10
943.9311074558887
 20
-1112.190141326647
 30
0.0
 41
1.0
 10
943.9307334990174
 20
-1112.188519915941
 30
0.0
 41
1.0
 10
943.9128280908674
 20
-1112.110885240161
 30
0.0
 41
0.999489942717583
 10
943.8900031821881
 20
-1112.034551957327
 30
0.0
 41
1.0
 10
943.8895446554476
 20
-1112.033018507539
 30
0.0
 41
1.0
 10
943.889086128707
 20
-1112.031485057751
 30
0.0
 41
1.0
 10
943.8671782735094
 20
-1111.958218674495
 30
0.0
 41
0.9993784877591889
 10
943.8401626384021
 20
-1111.886677969333
 30
0.0
 41
1.0
 10
943.8396309474255
 20
-1111.885269986613
 30
0.0
 41
1.0
 10
943.8390992564488
 20
-1111.883862003893
 30
0.0
 41
1.0
 10
943.8131470032961
 20
-1111.815137264176
 30
0.0
 41
0.9992430832254323
 10
943.7819304681361
 20
-1111.748638112106
 30
0.0
 41
1.0
 10
943.7813483520797
 20
-1111.747398056989
 30
0.0
 41
1.0
 10
943.7807662360234
 20
-1111.746158001872
 30
0.0
 41
1.0
 10
943.7507139329772
 20
-1111.682138960038
 30
0.0
 41
0.9990789632798329
 10
943.7152833062001
 20
-1111.620932348288
 30
0.0
 41
1.0
 10
943.714687600018
 20
-1111.619903262429
 30
0.0
 41
1.0
 10
943.7140918938359
 20
-1111.618874176569
 30
0.0
 41
1.0
 10
943.6798526794228
 20
-1111.559725736537
 30
0.0
 41
0.9988874801118968
 10
943.6401934033913
 20
-1111.504066024121
 30
0.0
 41
1.0
 10
943.6396378773272
 20
-1111.503286372446
 30
0.0
 41
1.0
 10
943.639082351263
 20
-1111.502506720772
 30
0.0
 41
1.0
 10
943.6005341273598
 20
-1111.448406311703
 30
0.0
 41
0.9986762060693243
 10
943.5566316560833
 20
-1111.398552597263
 30
0.0
 41
1.0
 10
943.5561876957506
 20
-1111.398048455446
 30
0.0
 41
1.0
 10
943.5557437354181
 20
-1111.397544313629
 30
0.0
 41
1.0
 10
943.5127291848062
 20
-1111.348698882823
 30
0.0
 41
0.9984621642487376
 10
943.4645716280293
 20
-1111.304915582353
 30
0.0
 41
1.0
 10
943.4643249935127
 20
-1111.30469135019
 30
0.0
 41
1.0
 10
943.4640783589962
 20
-1111.304467118026
 30
0.0
 41
1.0
 10
943.4164140712514
 20
-1111.261132281882
 30
0.0
 41
0.9982724693852686
 10
943.36399543941
 20
-1111.223687931365
 30
0.0
 41
1.0
 10
943.3115768075692
 20
-1111.186243580847
 30
0.0
 41
0.9981399180159596
 10
943.2549907441756
 20
-1111.155457061403
 30
0.0
 41
1.0
 10
943.254945082097
 20
-1111.155432218246
 30
0.0
 41
1.0
 10
943.2548994200183
 20
-1111.155407375089
 30
0.0
 41
1.0
 10
943.1982220324671
 20
-1111.124571169331
 30
0.0
 41
0.9980927086835638
 10
943.1381766814003
 20
-1111.100954360478
 30
0.0
 41
1.0
 10
943.1377365116894
 20
-1111.100781234603
 30
0.0
 41
1.0
 10
943.1372963419783
 20
-1111.100608108729
 30
0.0
 41
1.0
 10
943.076370651489
 20
-1111.076645048126
 30
0.0
 41
0.998141135656204
 10
943.01298213009
 20
-1111.060272406621
 30
0.0
 41
1.0
 10
943.0121000133881
 20
-1111.060044564415
 30
0.0
 41
1.0
 10
943.0112178966863
 20
-1111.05981672221
 30
0.0
 41
1.0
 10
942.9460651418842
 20
-1111.042988396293
 30
0.0
 41
0.9983031812934939
 10
942.8793977128895
 20
-1111.033849035117
 30
0.0
 41
1.0
 10
942.8705266874854
 20
-1111.032632916446
 30
0.0
 41
1.0
 10
942.8616556620813
 20
-1111.031416797774
 30
0.0
 41
1.0
 10
942.8073060195774
 20
-1111.023966067783
 30
0.0
 41
0.9983887708264191
 10
942.7524621702844
 20
-1111.02272139415
 30
0.0
 41
1.0
 10
942.7443987650687
 20
-1111.022538396275
 30
0.0
 41
1.0
 10
942.736335359853
 20
-1111.0223553984
 30
0.0
 41
1.0
 10
942.6976183209931
 20
-1111.021476720517
 30
0.0
 41
0.9998869563080174
 10
942.6588923677889
 20
-1111.021762589876
 30
0.0
 41
1.0
 10
942.6201664145801
 20
-1111.022048459236
 30
0.0
 41
0.9999972320114859
 10
942.5814422353642
 20
-1111.022516558765
 30
0.0
 41
1.0
 10
942.5620892187899
 20
-1111.022750498854
 30
0.0
 41
1.0
 10
942.5427362022155
 20
-1111.022984438944
 30
0.0
 41
1.0
 10
942.4653059898484
 20
-1111.023920418652
 30
0.0
 41
0.9997304945087572
 10
942.3880026836142
 20
-1111.028449512437
 30
0.0
 41
1.0
 10
942.3789530419065
 20
-1111.028979718428
 30
0.0
 41
1.0
 10
942.3699034001986
 20
-1111.029509924418
 30
0.0
 41
1.0
 10
942.2745008105535
 20
-1111.035099430183
 30
0.0
 41
0.9997888306414897
 10
942.1794084747121
 20
-1111.044604394672
 30
0.0
 41
1.0
 10
942.1706874131382
 20
-1111.045476109304
 30
0.0
 41
1.0
 10
942.1619663515644
 20
-1111.046347823937
 30
0.0
 41
1.0
 10
942.0494318925756
 20
-1111.05759621769
 30
0.0
 41
0.9984170238190854
 10
941.9388727452246
 20
-1111.081412299626
 30
0.0
 41
1.0
 10
941.9024916142387
 20
-1111.089249335432
 30
0.0
 41
1.0
 10
941.8661104832529
 20
-1111.097086371238
 30
0.0
 41
1.0
 10
941.7509194148313
 20
-1111.121900237748
 30
0.0
 41
0.9976592854199442
 10
941.6401912484256
 20
-1111.162198914895
 30
0.0
 41
1.0
 10
941.5294630820208
 20
-1111.202497592042
 30
0.0
 41
0.9993255074352642
 10
941.4219912832303
 20
-1111.250814490534
 30
0.0
 41
1.0
 10
941.4173661043068
 20
-1111.252893866734
 30
0.0
 41
1.0
 10
941.4127409253832
 20
-1111.254973242934
 30
0.0
 41
1.0
 10
941.296018768744
 20
-1111.307448893827
 30
0.0
 41
0.9976475078274675
 10
941.1875714244327
 20
-1111.375396883486
 30
0.0
 41
1.0
 10
941.1692290303007
 20
-1111.386889362299
 30
0.0
 41
1.0
 10
941.1508866361687
 20
-1111.398381841112
 30
0.0
 41
1.0
 10
941.0666844446159
 20
-1111.45113896188
 30
0.0
 41
0.9995131336406998
 10
940.9859367296563
 20
-1111.509045173835
 30
0.0
 41
1.0
 10
940.9051890146984
 20
-1111.566951385789
 30
0.0
 41
0.9995810107605942
 10
940.827927366967
 20
-1111.629433068257
 30
0.0
 41
1.0
 10
940.8249573357584
 20
-1111.63183493972
 30
0.0
 41
1.0
 10
940.8219873045499
 20
-1111.634236811183
 30
0.0
 41
1.0
 10
940.7387855944037
 20
-1111.701522236576
 30
0.0
 41
0.9996617837954487
 10
940.6591949072686
 20
-1111.773042692136
 30
0.0
 41
1.0
 10
940.6470641563902
 20
-1111.783943425127
 30
0.0
 41
1.0
 10
940.6349334055119
 20
-1111.794844158119
 30
0.0
 41
1.0
 10
940.566657878114
 20
-1111.856196773593
 30
0.0
 41
0.9997267750053023
 10
940.5013243698304
 20
-1111.920673310118
 30
0.0
 41
1.0
 10
940.4359908615477
 20
-1111.985149846642
 30
0.0
 41
0.9999667288954097
 10
940.3717179184085
 20
-1112.050683653529
 30
0.0
 41
1.0
 10
940.3028904706291
 20
-1112.120861312292
 30
0.0
 41
1.0
 10
940.2340630228498
 20
-1112.191038971054
 30
0.0
 41
1.0
 10
940.032135184154
 20
-1112.396928095464
 30
0.0
 41
0.9988205335175188
 10
939.8511295671761
 20
-1112.621432327522
 30
0.0
 41
1.0
 10
939.8204896022701
 20
-1112.659435577954
 30
0.0
 41
1.0
 10
939.7898496373641
 20
-1112.697438828385
 30
0.0
 41
1.0
 10
939.5475640905786
 20
-1112.997949561302
 30
0.0
 41
0.9997077826755575
 10
939.3200861394762
 20
-1113.309819355514
 30
0.0
 41
1.0
 10
939.3183627243427
 20
-1113.312182138898
 30
0.0
 41
1.0
 10
939.3166393092091
 20
-1113.314544922281
 30
0.0
 41
1.0
 10
939.0857145278421
 20
-1113.631140283258
 30
0.0
 41
0.9989147567078873
 10
938.8852510249577
 20
-1113.967849744444
 30
0.0
 41
1.0
 10
938.8605098796527
 20
-1114.009406324994
 30
0.0
 41
1.0
 10
938.8357687343478
 20
-1114.050962905543
 30
0.0
 41
1.0
 10
938.6805574357079
 20
-1114.31166429
 30
0.0
 41
0.9997476598181018
 10
938.5372124481986
 20
-1114.579074038582
 30
0.0
 41
1.0
 10
938.3938674606889
 20
-1114.846483787164
 30
0.0
 41
0.9996258967109207
 10
938.2653592087569
 20
-1115.121331723789
 30
0.0
 41
1.0
 10
938.2521592993074
 20
-1115.149563123884
 30
0.0
 41
1.0
 10
938.238959389858
 20
-1115.177794523979
 30
0.0
 41
1.0
 10
938.0987506688584
 20
-1115.477666921932
 30
0.0
 41
0.9998735413943461
 10
937.9681493221375
 20
-1115.7818465214
 30
0.0
 41
1.0
 10
937.9647064940768
 20
-1115.789865106866
 30
0.0
 41
1.0
 10
937.9612636660161
 20
-1115.797883692331
 30
0.0
 41
1.0
 10
937.8375479754175
 20
-1116.086026120868
 30
0.0
 41
0.9999377418860194
 10
937.7202931732425
 20
-1116.376857588543
 30
0.0
 41
1.0
 10
937.6030383710643
 20
-1116.667689056226
 30
0.0
 41
0.9999508299507067
 10
937.4915744276892
 20
-1116.960788733042
 30
0.0
 41
1.0
 10
937.488493659027
 20
-1116.968889759005
 30
0.0
 41
1.0
 10
937.4854128903648
 20
-1116.976990784968
 30
0.0
 41
1.0
 10
937.3677874096625
 20
-1117.286292513718
 30
0.0
 41
0.9999609228428081
 10
937.2556488067869
 20
-1117.597625529737
 30
0.0
 41
1.0
 10
937.2526927964382
 20
-1117.605832370145
 30
0.0
 41
1.0
 10
937.2497367860893
 20
-1117.614039210552
 30
0.0
 41
1.0
 10
937.1316861625155
 20
-1117.941785907388
 30
0.0
 41
0.9999674607404715
 10
937.0189386364451
 20
-1118.27139452739
 30
0.0
 41
1.0
 10
936.9675402458845
 20
-1118.421653723076
 30
0.0
 41
1.0
 10
936.9161418553238
 20
-1118.571912918763
 30
0.0
 41
1.0
 10
936.8001312485655
 20
-1118.911060901267
 30
0.0
 41
0.9999287532304783
 10
936.6922498445942
 20
-1119.252881640244
 30
0.0
 41
1.0
 10
936.6457725884502
 20
-1119.400144184631
 30
0.0
 41
1.0
 10
936.5992953323062
 20
-1119.547406729018
 30
0.0
 41
1.0
 10
936.584368440641
 20
-1119.594702379165
 30
0.0
 41
0.9999998223964517
 10
936.5694979318931
 20
-1119.642015787461
 30
0.0
 41
1.0
 10
934.9488417950977
 20
-1124.79004428925
 30
0.0
 41
1.0
 10
933.3281856583022
 20
-1129.93807279104
 30
0.0
 41
1.0
 10
932.4228772144113
 20
-1129.93807279104
 30
0.0
 41
1.0
 10
931.5175687705204
 20
-1129.93807279104
 30
0.0
 41
1.0
 10
933.3696531819064
 20
-1124.051000868572
 30
0.0
 41
1.0
 10
935.2217375932925
 20
-1118.163928946105
 30
0.0
 41
1.0
 10
935.2318593515952
 20
-1118.131885732655
 30
0.0
 41
1.0
 10
935.3044670204449
 20
-1117.901586190829
 30
0.0
 41
1.0
 10
935.3770746893022
 20
-1117.67128664898
 30
0.0
 41
0.9999825681978812
 10
935.4469577285155
 20
-1117.440145753907
 30
0.0
 41
1.0
 10
935.4952487906716
 20
-1117.280421170427
 30
0.0
 41
1.0
 10
935.5435398528276
 20
-1117.120696586947
 30
0.0
 41
1.0
 10
935.6406922061436
 20
-1116.799361365175
 30
0.0
 41
0.9999672528963915
 10
935.732631011767
 20
-1116.476495819588
 30
0.0
 41
1.0
 10
935.7354198954348
 20
-1116.466701974205
 30
0.0
 41
1.0
 10
935.7382087791026
 20
-1116.456908128822
 30
0.0
 41
1.0
 10
935.8245698173887
 20
-1116.153630274007
 30
0.0
 41
0.999989974914703
 10
935.908211426925
 20
-1115.849591185549
 30
0.0
 41
1.0
 10
935.9183173459427
 20
-1115.812855947871
 30
0.0
 41
1.0
 10
935.9284232649603
 20
-1115.776120710192
 30
0.0
 41
1.0
 10
935.9918530364605
 20
-1115.545552097095
 30
0.0
 41
0.9999214200504852
 10
936.0494824648374
 20
-1115.313465754888
 30
0.0
 41
1.0
 10
936.0622483170163
 20
-1115.262054869499
 30
0.0
 41
1.0
 10
936.0750141691951
 20
-1115.210643984109
 30
0.0
 41
1.0
 10
936.1071118932132
 20
-1115.081379412687
 30
0.0
 41
0.9999828681676877
 10
936.1376941452106
 20
-1114.951747938211
 30
0.0
 41
1.0
 10
936.1682763972078
 20
-1114.822116463737
 30
0.0
 41
0.9999389844479724
 10
936.1959873859983
 20
-1114.691841007829
 30
0.0
 41
1.0
 10
936.2031251297169
 20
-1114.658284903999
 30
0.0
 41
1.0
 10
936.2102628734357
 20
-1114.624728800169
 30
0.0
 41
1.0
 10
936.2522493496655
 20
-1114.427341136593
 30
0.0
 41
0.9998933699440599
 10
936.2884536140679
 20
-1114.228811528833
 30
0.0
 41
1.0
 10
936.2898264392841
 20
-1114.221283508138
 30
0.0
 41
1.0
 10
936.2911992645003
 20
-1114.213755487442
 30
0.0
 41
1.0
 10
936.3301491793355
 20
-1114.000169838289
 30
0.0
 41
0.9996850305193689
 10
936.3583328555949
 20
-1113.784898832846
 30
0.0
 41
1.0
 10
936.3603278889638
 20
-1113.769660478727
 30
0.0
 41
1.0
 10
936.3623229223326
 20
-1113.754422124609
 30
0.0
 41
1.0
 10
936.3897307847918
 20
-1113.545076897454
 30
0.0
 41
0.9994697936706273
 10
936.4034553440113
 20
-1113.334391702124
 30
0.0
 41
1.0
 10
936.4039324132609
 20
-1113.327068229912
 30
0.0
 41
1.0
 10
936.4044094825107
 20
-1113.3197447577
 30
0.0
 41
1.0
 10
936.4171799032308
 20
-1113.123706506791
 30
0.0
 41
0.9991804893136885
 10
936.4140515869581
 20
-1112.92727765682
 30
0.0
 41
1.0
 10
936.4139677081359
 20
-1112.922010855407
 30
0.0
 41
1.0
 10
936.4138838293138
 20
-1112.916744053994
 30
0.0
 41
1.0
 10
936.4109232706853
 20
-1112.730848806847
 30
0.0
 41
0.9988448329321481
 10
936.3901317250615
 20
-1112.546096217013
 30
0.0
 41
1.0
 10
936.3885376513584
 20
-1112.531931361242
 30
0.0
 41
1.0
 10
936.3869435776554
 20
-1112.517766505471
 30
0.0
 41
1.0
 10
936.3693401794378
 20
-1112.361343627181
 30
0.0
 41
0.9985503209458695
 10
936.3350239071381
 20
-1112.207719443091
 30
0.0
 41
1.0
 10
936.3274379150669
 20
-1112.17375911569
 30
0.0
 41
1.0
 10
936.3198519229957
 20
-1112.13979878829
 30
0.0
 41
1.0
 10
936.3007076348385
 20
-1112.054095259001
 30
0.0
 41
0.9991036781370517
 10
936.2743827731874
 20
-1111.970318171676
 30
0.0
 41
1.0
 10
936.2704005477323
 20
-1111.957645009168
 30
0.0
 41
1.0
 10
936.2664183222771
 20
-1111.94497184666
 30
0.0
 41
1.0
 10
936.2480579115369
 20
-1111.886541084354
 30
0.0
 41
0.9998874504368122
 10
936.2279527038577
 20
-1111.828687482128
 30
0.0
 41
1.0
 10
936.2078474961788
 20
-1111.770833879903
 30
0.0
 41
0.9994041637543783
 10
936.1837988832438
 20
-1111.714505176012
 30
0.0
 41
1.0
 10
936.1796020990205
 20
-1111.704675111532
 30
0.0
 41
1.0
 10
936.1754053147973
 20
-1111.694845047052
 30
0.0
 41
1.0
 10
936.147526483803
 20
-1111.629544881085
 30
0.0
 41
0.9991846840702957
 10
936.1144701271094
 20
-1111.566706849804
 30
0.0
 41
1.0
 10
936.1133335207146
 20
-1111.56454623335
 30
0.0
 41
1.0
 10
936.1121969143197
 20
-1111.562385616895
 30
0.0
 41
1.0
 10
936.0814137704161
 20
-1111.503868818523
 30
0.0
 41
0.9989253167921992
 10
936.0453443463614
 20
-1111.448453890133
 30
0.0
 41
1.0
 10
936.0442902216873
 20
-1111.446834395371
 30
0.0
 41
1.0
 10
936.0432360970134
 20
-1111.445214900609
 30
0.0
 41
1.0
 10
936.0092749223062
 20
-1111.393038961743
 30
0.0
 41
0.9986467172835495
 10
935.9700777696689
 20
-1111.344672928114
 30
0.0
 41
1.0
 10
935.9692036409683
 20
-1111.343594325836
 30
0.0
 41
1.0
 10
935.9683295122677
 20
-1111.342515723557
 30
0.0
 41
1.0
 10
935.9308806170321
 20
-1111.296306894485
 30
0.0
 41
0.9984001104268612
 10
935.8884538865144
 20
-1111.254621787115
 30
0.0
 41
1.0
 10
935.887866748405
 20
-1111.254044912234
 30
0.0
 41
1.0
 10
935.8872796102956
 20
-1111.253468037352
 30
0.0
 41
1.0
 10
935.8460271559976
 20
-1111.212936679747
 30
0.0
 41
0.9982442159083739
 10
935.8002710546616
 20
-1111.177568118486
 30
0.0
 41
1.0
 10
935.8000562591999
 20
-1111.177402085843
 30
0.0
 41
1.0
 10
935.7998414637382
 20
-1111.1772360532
 30
0.0
 41
1.0
 10
935.7545149533265
 20
-1111.142199557226
 30
0.0
 41
0.99824500608368
 10
935.7053639742543
 20
-1111.112767774192
 30
0.0
 41
1.0
 10
935.656212995182
 20
-1111.083335991158
 30
0.0
 41
0.9983922639634091
 10
935.6040466890174
 20
-1111.059656356505
 30
0.0
 41
1.0
 10
935.603819811693
 20
-1111.059553371023
 30
0.0
 41
1.0
 10
935.6035929343687
 20
-1111.059450385542
 30
0.0
 41
1.0
 10
935.5509728735542
 20
-1111.035564779924
 30
0.0
 41
0.9986517147149397
 10
935.496159900686
 20
-1111.017263660803
 30
0.0
 41
1.0
 10
935.4954819792587
 20
-1111.017037314371
 30
0.0
 41
1.0
 10
935.4948040578313
 20
-1111.01681096794
 30
0.0
 41
1.0
 10
935.4386352421076
 20
-1110.998057155956
 30
0.0
 41
0.9989435598956522
 10
935.3809818549562
 20
-1110.984539453721
 30
0.0
 41
1.0
 10
935.3799017353746
 20
-1110.984286203468
 30
0.0
 41
1.0
 10
935.378821615793
 20
-1110.984032953215
 30
0.0
 41
1.0
 10
935.3190079894786
 20
-1110.970008750475
 30
0.0
 41
0.9992249241240532
 10
935.2582764805819
 20
-1110.96073340776
 30
0.0
 41
1.0
 10
935.2568627922903
 20
-1110.960517499352
 30
0.0
 41
1.0
 10
935.2554491039987
 20
-1110.960301590944
 30
0.0
 41
1.0
 10
935.1918902185199
 20
-1110.950594431413
 30
0.0
 41
0.9994396597833783
 10
935.1278242819845
 20
-1110.945161509067
 30
0.0
 41
1.0
 10
935.1086836145056
 20
-1110.943538341348
 30
0.0
 41
1.0
 10
935.0895429470266
 20
-1110.94191517363
 30
0.0
 41
1.0
 10
934.9871956755342
 20
-1110.933235915847
 30
0.0
 41
0.9987693403121538
 10
934.8844920519475
 20
-1110.934738979299
 30
0.0
 41
1.0
 10
934.8742377177192
 20
-1110.934889051074
 30
0.0
 41
1.0
 10
934.8639833834909
 20
-1110.935039122848
 30
0.0
 41
1.0
 10
934.7544276173128
 20
-1110.936642467135
 30
0.0
 41
0.9989753644966078
 10
934.6454656172972
 20
-1110.94814547406
 30
0.0
 41
1.0
 10
934.5365036172827
 20
-1110.959648480985
 30
0.0
 41
0.9983190067306955
 10
934.42960480632
 20
-1110.983683472771
 30
0.0
 41
1.0
 10
934.4207038547111
 20
-1110.985684751335
 30
0.0
 41
1.0
 10
934.4118029031023
 20
-1110.987686029898
 30
0.0
 41
1.0
 10
934.2871021889214
 20
-1111.01572357881
 30
0.0
 41
0.9985539388302479
 10
934.1661324352414
 20
-1111.056987254857
 30
0.0
 41
1.0
 10
934.1637870042832
 20
-1111.057787298672
 30
0.0
 41
1.0
 10
934.1614415733252
 20
-1111.058587342487
 30
0.0
 41
1.0
 10
934.0357809577272
 20
-1111.101451106164
 30
0.0
 41
0.9988468746493773
 10
933.9148106154271
 20
-1111.156169191227
 30
0.0
 41
1.0
 10
933.9116277934381
 20
-1111.157608865787
 30
0.0
 41
1.0
 10
933.9084449714491
 20
-1111.159048540347
 30
0.0
 41
1.0
 10
933.7811089851725
 20
-1111.216645974528
 30
0.0
 41
0.9991322885919606
 10
933.6590084011154
 20
-1111.28464130671
 30
0.0
 41
1.0
 10
933.6414063900729
 20
-1111.294443508699
 30
0.0
 41
1.0
 10
933.6238043790303
 20
-1111.304245710688
 30
0.0
 41
1.0
 10
933.5216276979708
 20
-1111.36114582647
 30
0.0
 41
0.999386003784986
 10
933.4236866938961
 20
-1111.42506184206
 30
0.0
 41
1.0
 10
933.4180683810398
 20
-1111.428728336757
 30
0.0
 41
1.0
 10
933.4124500681836
 20
-1111.432394831455
 30
0.0
 41
1.0
 10
933.3257456898206
 20
-1111.48897785765
 30
0.0
 41
0.9998821494952579
 10
933.24081931401
 20
-1111.548196087725
 30
0.0
 41
1.0
 10
933.1558929381966
 20
-1111.607414317802
 30
0.0
 41
0.9997976482743053
 10
933.0734173077924
 20
-1111.670000725844
 30
0.0
 41
1.0
 10
933.058781042988
 20
-1111.681107415624
 30
0.0
 41
1.0
 10
933.0441447781836
 20
-1111.692214105403
 30
0.0
 41
1.0
 10
932.9323966181679
 20
-1111.777013893006
 30
0.0
 41
0.9998091630801571
 10
932.8240463401415
 20
-1111.866114243707
 30
0.0
 41
1.0
 10
932.8110405876647
 20
-1111.876809344152
 30
0.0
 41
1.0
 10
932.7980348351879
 20
-1111.887504444598
 30
0.0
 41
1.0
 10
932.6636730522034
 20
-1111.997994996193
 30
0.0
 41
0.9995035112317218
 10
932.536537174438
 20
-1112.11672881321
 30
0.0
 41
1.0
 10
932.5268898640526
 20
-1112.125738559366
 30
0.0
 41
1.0
 10
932.5172425536672
 20
-1112.134748305523
 30
0.0
 41
1.0
 10
932.3938194909032
 20
-1112.250014677277
 30
0.0
 41
0.99946304242992
 10
932.2782110851183
 20
-1112.373117420513
 30
0.0
 41
1.0
 10
932.2745282463503
 20
-1112.377039000022
 30
0.0
 41
1.0
 10
932.2708454075823
 20
-1112.380960579532
 30
0.0
 41
1.0
 10
932.1626026793381
 20
-1112.496220163745
 30
0.0
 41
0.9995160693750749
 10
932.0617366498025
 20
-1112.617987581621
 30
0.0
 41
1.0
 10
932.0598029297225
 20
-1112.620322005828
 30
0.0
 41
1.0
 10
932.0578692096427
 20
-1112.622656430035
 30
0.0
 41
1.0
 10
931.9608706202717
 20
-1112.739754999492
 30
0.0
 41
0.9996561470514378
 10
931.8701444016046
 20
-1112.861777761943
 30
0.0
 41
1.0
 10
931.8639867357007
 20
-1112.870059550988
 30
0.0
 41
1.0
 10
931.8578290697967
 20
-1112.878341340033
 30
0.0
 41
1.0
 10
931.7794181829364
 20
-1112.983800524395
 30
0.0
 41
0.9998349055172034
 10
931.7048909010066
 20
-1113.092039108055
 30
0.0
 41
1.0
 10
931.6303636190853
 20
-1113.200277691703
 30
0.0
 41
0.9999728109569922
 10
931.5574407231801
 20
-1113.30960361725
 30
0.0
 41
1.0
 10
931.5561255077604
 20
-1113.311575386764
 30
0.0
 41
1.0
 10
931.5548102923407
 20
-1113.313547156279
 30
0.0
 41
1.0
 10
931.4792569655887
 20
-1113.426816620867
 30
0.0
 41
0.9999972147460927
 10
931.4042391552196
 20
-1113.540441463695
 30
0.0
 41
1.0
 10
931.3992676126039
 20
-1113.547971552157
 30
0.0
 41
1.0
 10
931.3942960699883
 20
-1113.55550164062
 30
0.0
 41
1.0
 10
931.3093351743757
 20
-1113.684186660391
 30
0.0
 41
0.99993719790065
 10
931.2272798249741
 20
-1113.814743574163
 30
0.0
 41
1.0
 10
931.2237709406077
 20
-1113.820326502236
 30
0.0
 41
1.0
 10
931.2202620562412
 20
-1113.825909430308
 30
0.0
 41
1.0
 10
931.1311889381113
 20
-1113.967632200219
 30
0.0
 41
0.9998272025611067
 10
931.0474455472279
 20
-1114.112568076964
 30
0.0
 41
1.0
 10
931.0322303752052
 20
-1114.138901191418
 30
0.0
 41
1.0
 10
931.0170152031826
 20
-1114.165234305873
 30
0.0
 41
1.0
 10
930.902841468253
 20
-1114.362836411527
 30
0.0
 41
0.9995217214838262
 10
930.801101778698
 20
-1114.567118739388
 30
0.0
 41
1.0
 10
930.7934582160619
 20
-1114.582466189093
 30
0.0
 41
1.0
 10
930.7858146534257
 20
-1114.597813638798
 30
0.0
 41
1.0
 10
930.6989093608366
 20
-1114.772310096878
 30
0.0
 41
0.9998269762606361
 10
930.6185548945649
 20
-1114.949918383601
 30
0.0
 41
1.0
 10
930.5382004282915
 20
-1115.127526670328
 30
0.0
 41
0.9998944747387762
 10
930.4630396337255
 20
-1115.307394395961
 30
0.0
 41
1.0
 10
930.4580859641353
 20
-1115.319249050876
 30
0.0
 41
1.0
 10
930.4531322945451
 20
-1115.331103705791
 30
0.0
 41
1.0
 10
930.3724852339926
 20
-1115.524100645808
 30
0.0
 41
0.9999506734405921
 10
930.2956877050891
 20
-1115.718661450664
 30
0.0
 41
1.0
 10
930.2810877398271
 20
-1115.755649372448
 30
0.0
 41
1.0
 10
930.266487774565
 20
-1115.792637294231
 30
0.0
 41
1.0
 10
930.2188901761873
 20
-1115.913222255516
 30
0.0
 41
0.9999912393958211
 10
930.1723037321631
 20
-1116.034201458216
 30
0.0
 41
1.0
 10
930.1257172881348
 20
-1116.155180660927
 30
0.0
 41
0.9999927113940875
 10
930.0800559937458
 20
-1116.276512068415
 30
0.0
 41
1.0
 10
930.0660875623482
 20
-1116.313629050414
 30
0.0
 41
1.0
 10
930.0521191309508
 20
-1116.350746032412
 30
0.0
 41
1.0
 10
929.9785209737598
 20
-1116.546311403915
 30
0.0
 41
0.9999487550949039
 10
929.9088973487909
 20
-1116.74332676909
 30
0.0
 41
1.0
 10
929.8853037388558
 20
-1116.810090079378
 30
0.0
 41
1.0
 10
929.8617101289207
 20
-1116.876853389666
 30
0.0
 41
1.0
 10
929.7670244945483
 20
-1117.144787224496
 30
0.0
 41
0.9999808436937816
 10
929.6756629059038
 20
-1117.413872655769
 30
0.0
 41
1.0
 10
929.5843013172625
 20
-1117.682958087033
 30
0.0
 41
0.9999873932923773
 10
929.4956466085451
 20
-1117.952947442044
 30
0.0
 41
1.0
 10
929.4755542516752
 20
-1118.014136774798
 30
0.0
 41
1.0
 10
929.4554618948055
 20
-1118.075326107553
 30
0.0
 41
1.0
 10
929.3266224723538
 20
-1118.467694128056
 30
0.0
 41
0.9999794883034221
 10
929.2028196873945
 20
-1118.861680334338
 30
0.0
 41
1.0
 10
929.191667427938
 20
-1118.897170944635
 30
0.0
 41
1.0
 10
929.1805151684816
 20
-1118.932661554932
 30
0.0
 41
1.0
 10
929.0379570045958
 20
-1119.386334306982
 30
0.0
 41
0.9999982761721701
 10
928.897084564603
 20
-1119.840533329033
 30
0.0
 41
1.0
 10
927.3089442320304
 20
-1124.889303060036
 30
0.0
 41
1.0
 10
925.7208038994578
 20
-1129.93807279104
 30
0.0
 41
1.0
 10
924.7720532879814
 20
-1129.93807279104
 30
0.0
 41
1.0
 10
923.823302676505
 20
-1129.93807279104
 30
0.0
 41
1.0
 10
927.0615871626583
 20
-1119.610750591093
 30
0.0
 41
1.0
 10
930.2998716488114
 20
-1109.283428391147
 30
0.0
 41
1.0
  0
LWPOLYLINE
  5
70
330
23
100
AcDbEntity
  8
0
  6
Continuous
 62
     7
370
    15
390
1D
100
AcDbPolyline
 90
      232
 70
   128
 43
0.0
 10
904.5963258749844
 20
-1110.367771222662
 42
0.0004370800679417
 10
904.5434487011016
 20
-1110.436437861672
 10
904.5041644697849
 20
-1110.487544974815
 42
0.0030481992180793
 10
904.3738257526284
 20
-1110.659266667209
 10
904.3353140809153
 20
-1110.710653450948
 42
0.0042058245754909
 10
904.1313290302448
 20
-1110.987659196022
 10
904.0789239077448
 20
-1111.060092042802
 42
0.0120948898741866
 10
903.7828799909908
 20
-1111.49084164734
 10
903.6866874918563
 20
-1111.638322382584
 42
0.0141601263954129
 10
903.3830434449394
 20
-1112.133991719311
 10
903.3435061775124
 20
-1112.202835686745
 42
0.0071131081301886
 10
903.1382338542751
 20
-1112.572338485581
 42
0.006845879100365
 10
902.9433543274357
 20
-1112.94743004905
 10
902.9365424649742
 20
-1112.960991762781
 42
0.0064120880289905
 10
902.7384002149291
 20
-1113.368416237701
 10
902.7308655294129
 20
-1113.384428094421
 42
0.0058857236446444
 10
902.5281101375475
 20
-1113.828804205442
 10
902.5199352112472
 20
-1113.84729435909
 42
0.0053189741894239
 10
902.3112308985818
 20
-1114.333257833003
 10
902.3024830928983
 20
-1114.354239711204
 42
0.0047503650421019
 10
902.0865093667438
 20
-1114.886439144424
 10
902.0772411183996
 20
-1114.909915520522
 42
0.0042071762176256
 10
901.8526937346634
 20
-1115.493009114614
 10
901.8429443323231
 20
-1115.518975289461
 42
0.0036680086485299
 10
901.6084896890146
 20
-1116.157610673982
 10
901.5982819091632
 20
-1116.186059208337
 42
0.0032573142626166
 10
901.3526496232025
 20
-1116.884911868073
 10
901.2839991023604
 20
-1117.08437495213
 42
0.0026133366648819
 10
900.9355539035978
 20
-1118.114238235815
 10
900.872297116105
 20
-1118.304469071185
 42
0.0020592950741957
 10
900.6584340471301
 20
-1118.956572723821
 10
900.6553822559631
 20
-1118.966009212243
 42
0.0025609928535201
 10
900.4535617544811
 20
-1119.601154434597
 10
900.450970387347
 20
-1119.609456775561
 42
0.0031362356242575
 10
900.2614796016776
 20
-1120.230219631717
 10
900.2593485587496
 20
-1120.23736093793
 42
0.0037229918030272
 10
900.0825481718238
 20
-1120.846346239902
 10
900.0808695826147
 20
-1120.852293130086
 42
0.0043077623709844
 10
899.9171287805523
 20
-1121.452111861845
 42
0.0047654161823937
 10
899.7643000580416
 20
-1122.054797950727
 10
899.7298354491973
 20
-1122.196359727898
 42
0.011296936844637
 10
899.533971091053
 20
-1123.088051888525
 10
899.5059647019569
 20
-1123.23087993462
 42
0.0130056762572941
 10
899.3051274583104
 20
-1124.417821006265
 10
899.2845877081634
 20
-1124.561899119741
 42
0.0138721532143108
 10
899.1808847036253
 20
-1125.468728605567
 10
899.1615892157181
 20
-1125.692226327485
 42
0.0071254697008641
 10
899.1282425697948
 20
-1126.15541333634
 10
899.1232815956323
 20
-1126.241417330885
 42
0.0028881799195942
 10
899.1081433023417
 20
-1126.533159040742
 42
0.0060297297137966
 10
899.098211102566
 20
-1126.825107976866
 10
899.0971488208991
 20
-1126.873500348789
 42
0.0229523164155267
 10
899.1048798486848
 20
-1127.196255195074
 10
899.1091056222054
 20
-1127.256658729093
 42
0.0123673300675102
 10
899.1281842687235
 20
-1127.457779454265
 42
0.0128577674466714
 10
899.1573796591293
 20
-1127.657677304188
 10
899.1645055325168
 20
-1127.699006118788
 42
0.028571785376349
 10
899.2289995342123
 20
-1127.977122270101
 10
899.242668057879
 20
-1128.023777039579
 42
0.0316283099163325
 10
899.3584786377933
 20
-1128.342791541405
 10
899.3615273295492
 20
-1128.349777913731
 42
0.0338984824239912
 10
899.5109590405159
 20
-1128.63734387792
 10
899.5132677698851
 20
-1128.641134907195
 42
0.0350228718352172
 10
899.6956280605593
 20
-1128.898186891872
 10
899.6965133123347
 20
-1128.899265969637
 42
0.0347476747529401
 10
899.9109379995745
 20
-1129.126451016857
 42
0.0331337701910898
 10
900.1541813253215
 20
-1129.322579678934
 10
900.155281423837
 20
-1129.323352382106
 42
0.030523331908126
 10
900.4238261194115
 20
-1129.488480552199
 10
900.4270561639116
 20
-1129.490204564061
 42
0.0273744481152031
 10
900.719609875486
 20
-1129.626342707951
 10
900.7247144106234
 20
-1129.628386292421
 42
0.0240964406191805
 10
901.0401914862663
 20
-1129.737370018701
 10
901.046774815479
 20
-1129.739294758377
 42
0.0209636179808767
 10
901.3841749681318
 20
-1129.822762906309
 10
901.3918074285804
 20
-1129.824314819311
 42
0.0181388704692644
 10
901.7501298205806
 20
-1129.883730912525
 10
901.7584106689569
 20
-1129.884797096342
 42
0.0156086547585578
 10
902.1365980331453
 20
-1129.921533282918
 10
902.1797932854777
 20
-1129.924371785397
 42
0.0137148329024655
 10
902.5074664307717
 20
-1129.936892040649
 10
902.553402620709
 20
-1129.937386473764
 42
0.0051057823885116
 10
902.78954820729
 20
-1129.937516728173
 42
0.0052256693316638
 10
903.0256454910743
 20
-1129.932767903709
 10
903.095872274818
 20
-1129.930620937695
 42
0.0161507179050022
 10
903.471609352921
 20
-1129.906970567368
 10
903.4916223132923
 20
-1129.90506037208
 42
0.0101216737833268
 10
903.9056495347835
 20
-1129.857067441715
 10
903.9397028242098
 20
-1129.852419744905
 42
0.0245291776397157
 10
904.4164924797609
 20
-1129.763344666829
 10
904.5013157952798
 20
-1129.743148746485
 42
0.0143509212551986
 10
904.8579468992245
 20
-1129.647344112705
 42
0.0156557857037074
 10
905.2081629639529
 20
-1129.530332896885
 10
905.2156641784464
 20
-1129.527562735132
 42
0.0170137333629509
 10
905.5722601741307
 20
-1129.381905120259
 10
905.5793640965353
 20
-1129.378717284697
 42
0.0183105364411346
 10
905.9387137646944
 20
-1129.201382242876
 10
905.9456605293403
 20
-1129.197631808
 42
0.0194899958154163
 10
906.3041412703251
 20
-1128.985652826109
 10
906.3111551496611
 20
-1128.981127483814
 42
0.0204869852951697
 10
906.6651694517556
 20
-1128.731607468728
 10
906.672435060342
 20
-1128.72602740338
 42
0.0212516938557271
 10
907.0184249914511
 20
-1128.436123406485
 10
907.0649416855231
 20
-1128.393656096394
 42
0.0215248918249249
 10
907.3249678544132
 20
-1128.134891817398
 10
907.3699975887921
 20
-1128.086047696049
 42
0.0114578554961447
 10
907.5247897424713
 20
-1127.910224762589
 10
907.5359842784505
 20
-1127.896905999053
 42
0.0061531305130907
 10
907.6624589244523
 20
-1127.742616465738
 42
0.0006325587125126
 10
907.786837408652
 20
-1127.586613090002
 10
907.8098775436556
 20
-1127.557639569403
 42
0.0041897761560649
 10
907.9783329476439
 20
-1127.342120193321
 10
908.0367950675204
 20
-1127.266018846356
 42
0.0092993880039186
 10
908.3134069947439
 20
-1126.891740082473
 10
908.3958014879395
 20
-1126.775803078909
 42
0.0159321727083375
 10
908.7424079705854
 20
-1126.253628858148
 10
908.7867641059721
 20
-1126.181949293901
 42
0.0085547317024279
 10
909.0212758713003
 20
-1125.788074344673
 42
0.008460115688996
 10
909.2422520487427
 20
-1125.38644749564
 10
909.2503675225727
 20
-1125.371087813368
 42
0.008142965428472
 10
909.473616793007
 20
-1124.931366300833
 10
909.4824769571942
 20
-1124.913187458807
 42
0.0076574581325025
 10
909.7088844677577
 20
-1124.430004583562
 10
909.7183641084846
 20
-1124.408940105252
 42
0.0070682724202456
 10
909.9488090162953
 20
-1123.876902800461
 10
909.9587993002731
 20
-1123.852913611458
 42
0.0064559514447683
 10
910.1941325084554
 20
-1123.266601344938
 10
910.2045418666198
 20
-1123.239666419498
 42
0.0058311413905101
 10
910.4455886033837
 20
-1122.59363432511
 10
910.45634368077
 20
-1122.563749983953
 42
0.0052312425818579
 10
910.703924958815
 20
-1121.852547570107
 10
910.7149687951908
 20
-1121.819720858049
 42
0.0046680544797704
 10
910.9698972229243
 20
-1121.037894542297
 10
911.0118893729663
 20
-1120.90491130501
 42
0.0041666856443025
 10
911.2151753853636
 20
-1120.241942529997
 10
911.2528378260218
 20
-1120.115361422362
 42
0.0015170975152609
 10
911.3740244044405
 20
-1119.703493070849
 42
-0.000488799311504
 10
911.4943641775968
 20
-1119.291374658694
 10
911.5708414350588
 20
-1119.030417272866
 42
0.0002583378928119
 10
911.8440560052593
 20
-1118.09636056922
 10
911.9258288547
 20
-1117.816261310103
 42
0.0006636169672361
 10
912.119696614711
 20
-1117.148908386517
 10
912.1247932690712
 20
-1117.131276803591
 42
0.0010589131322869
 10
912.3062419699746
 20
-1116.498545460588
 10
912.3112240404528
 20
-1116.481032553576
 42
0.0015655524459887
 10
912.4794942476378
 20
-1115.882415874367
 10
912.4843244480525
 20
-1115.865023715432
 42
0.0021640440478986
 10
912.638614420039
 20
-1115.299996697413
 10
912.6432486394817
 20
-1115.282731967371
 42
0.0028763871853136
 10
912.7827643575217
 20
-1114.750764016572
 10
912.787150221693
 20
-1114.733640038402
 42
0.0037310511947314
 10
912.9111069135258
 20
-1114.234192444394
 10
912.9151821338179
 20
-1114.217232173136
 42
0.0047652197771507
 10
913.0228060343234
 20
-1113.749754404843
 10
913.0264966336406
 20
-1113.732994849721
 42
0.0060276699295195
 10
913.1170267328005
 20
-1113.296919054549
 10
913.1202454230906
 20
-1113.280417840234
 42
0.0075824337759782
 10
913.192934732505
 20
-1112.875150675814
 10
913.1955801098867
 20
-1112.858995728355
 42
0.009513062460953
 10
913.2496953455166
 20
-1112.483906375292
 10
913.2566815693995
 20
-1112.427972817172
 42
0.0121054653223341
 10
913.283272899977
 20
-1112.163076988701
 10
913.2841393897362
 20
-1112.151673545777
 42
0.0069050827382559
 10
913.2992282077741
 20
-1111.908732318928
 10
913.3003635074429
 20
-1111.88520606188
 42
0.0169063976699444
 10
913.3031907864231
 20
-1111.689013334582
 10
913.3020201348918
 20
-1111.628677573232
 42
0.0052007732890618
 10
913.2997666862988
 20
-1111.553084183081
 42
0.0054038123306395
 10
913.279803174458
 20
-1111.43306588706
 10
913.2747173185894
 20
-1111.40440740049
 42
0.0112050460463636
 10
913.2393329565322
 20
-1111.228080962156
 10
913.2215079944904
 20
-1111.14853937543
 42
0.0240764468005712
 10
913.1306106283439
 20
-1110.818302339928
 10
913.1120518655308
 20
-1110.761682174935
 42
0.025681233183524
 10
912.9686889453412
 20
-1110.389957968678
 10
912.9632795195197
 20
-1110.377826633688
 42
0.0268360501214079
 10
912.7938522786699
 20
-1110.046833499667
 10
912.7883158710353
 20
-1110.037313829356
 42
0.0274670231728151
 10
912.5961148946215
 20
-1109.745026454437
 10
912.5907335946576
 20
-1109.737747306894
 42
0.0275035967106784
 10
912.379160715097
 20
-1109.482231416592
 10
912.3740912141305
 20
-1109.476752328962
 42
0.0269557673523895
 10
912.1466876706909
 20
-1109.256110042999
 10
912.1419446129092
 20
-1109.25198008854
 42
0.0259124802209675
 10
911.9023897814775
 20
-1109.064289561386
 10
911.8978589362954
 20
-1109.061104059056
 42
0.0245162153003536
 10
911.6499425832009
 20
-1108.904371049945
 10
911.645416036877
 20
-1108.901810852745
 42
0.0229282588844877
 10
911.3929964800493
 20
-1108.773942660246
 10
911.3882159862145
 20
-1108.771790360485
 42
0.0212984135697442
 10
911.1351780337509
 20
-1108.670591443241
 10
911.1298737487814
 20
-1108.668727880481
 42
0.0197555462347429
 10
910.8800954110584
 20
-1108.591912462517
 42
0.0183511896790327
 10
910.6251666855931
 20
-1108.534329555551
 10
910.5388014888711
 20
-1108.518126765166
 42
0.0338057877148453
 10
910.2532941396119
 20
-1108.484318360026
 10
910.1622887345716
 20
-1108.479738704764
 42
0.0091990524490861
 10
910.0564416259359
 20
-1108.476362848842
 42
0.0028333980786862
 10
909.9505277099471
 20
-1108.475534741326
 10
909.9496122568937
 20
-1108.475532771502
 42
-0.0023619827792554
 10
909.8418662417654
 20
-1108.474791930423
 10
909.805461071612
 20
-1108.47436962396
 42
0.0008824598471302
 10
909.6249050817231
 20
-1108.472593845721
 10
909.581043649356
 20
-1108.472239884196
 42
0.003813266576387
 10
909.312760753485
 20
-1108.472120948129
 10
909.2962270986837
 20
-1108.472239714273
 42
0.0060665569335454
 10
908.9949466070973
 20
-1108.478060013694
 10
908.9806962750671
 20
-1108.478508321661
 42
0.0080356953336696
 10
908.6512375587238
 20
-1108.494176043728
 10
908.6391675436406
 20
-1108.494944626669
 42
0.0098996399105819
 10
908.2864044589872
 20
-1108.524429855867
 10
908.276358749615
 20
-1108.525470152065
 42
0.011774098136909
 10
907.9052018912672
 20
-1108.572762399595
 10
907.8969791947837
 20
-1108.574007516166
 42
0.0137435215134691
 10
907.5123903753018
 20
-1108.643104489727
 10
907.5057333361754
 20
-1108.644490385961
 42
0.0158359869387063
 10
907.1127362423706
 20
-1108.739382474442
 10
907.1073230555057
 20
-1108.740872415312
 42
0.0180554124025883
 10
906.711008010899
 20
-1108.865510431549
 10
906.7064512228098
 20
-1108.867126467817
 42
0.0203657431283249
 10
906.3119737049966
 20
-1109.025386809334
 10
906.3078301659912
 20
-1109.027248430775
 42
0.0226819684655047
 10
905.9203941097895
 20
-1109.222891009445
 10
905.9161943187694
 20
-1109.225256601366
 42
0.0248634984604651
 10
905.5410123775911
 20
-1109.461883247311
 10
905.4928174488033
 20
-1109.495740289139
 42
0.0267044190886373
 10
905.2185247518877
 20
-1109.711180665007
 42
0.0139303002200212
 10
904.9623575859506
 20
-1109.948419505917
 10
904.957504200228
 20
-1109.953172168779
 42
0.0283460963444501
 10
904.7134316059995
 20
-1110.220902829225
 10
904.6737631008442
 20
-1110.269704406697
 42
0.0070695364819079
 10
904.5963258749844
 20
-1110.367771222662
 42
0.0070695364819079
  0
LWPOLYLINE
  5
71
330
23
100
AcDbEntity
  8
0
  6
Continuous
 62
     7
370
    15
390
1D
100
AcDbPolyline
 90
      226
 70
   128
 43
0.0
 10
901.067505437738
 20
-1126.089360028846
 42
-0.0026277636607057
 10
901.0674275539379
 20
-1126.022588103079
 10
901.06764491217
 20
-1125.96943288566
 42
-0.0088680296722419
 10
901.0714215284634
 20
-1125.796417103247
 10
901.0737678875755
 20
-1125.737137077804
 42
-0.0077381705619854
 10
901.0898139983387
 20
-1125.445876582003
 10
901.0906819095117
 20
-1125.43358834832
 42
-0.0068872530529416
 10
901.1173139892602
 20
-1125.118366596247
 10
901.1185182134459
 20
-1125.106125617232
 42
-0.0062130021485644
 10
901.1561119302728
 20
-1124.767255926002
 10
901.1576158338089
 20
-1124.755082054078
 42
-0.0056726929671296
 10
901.2065376933103
 20
-1124.39288683197
 10
901.2083111389555
 20
-1124.380793031719
 42
-0.0052341884498056
 10
901.2689217252156
 20
-1123.995599776201
 10
901.2709397139922
 20
-1123.983594846208
 42
-0.0049768450173945
 10
901.343678395416
 20
-1123.575750278789
 10
901.3679274101403
 20
-1123.44720229577
 42
-0.0089029805623192
 10
901.5050082619355
 20
-1122.785426848346
 10
901.5377536372536
 20
-1122.640395417824
 42
-0.0080318257100595
 10
901.7673022515927
 20
-1121.694685785977
 10
901.7792871780425
 20
-1121.64855515078
 42
-0.0074265721318721
 10
902.0632987168872
 20
-1120.618490572418
 10
902.0831782600054
 20
-1120.550356511823
 42
-0.0069711922702464
 10
902.4104828385158
 20
-1119.484088771482
 10
902.4704347856219
 20
-1119.29806741311
 42
-0.0052070422895344
 10
902.6998600108807
 20
-1118.61079533608
 10
902.717141203078
 20
-1118.560768055391
 42
-0.0009167004449604
 10
902.9202330903422
 20
-1117.976312207309
 42
-0.0025162726943931
 10
903.1273307206006
 20
-1117.393270943158
 10
903.1645553324062
 20
-1117.290121397253
 42
-0.0028212681457631
 10
903.4127312513733
 20
-1116.61439076507
 10
903.4225620141239
 20
-1116.588083320394
 42
-0.0031964916822674
 10
903.6588542717864
 20
-1115.967878558266
 10
903.6684887257825
 20
-1115.943068568131
 42
-0.0036281836454107
 10
903.8935946868866
 20
-1115.37562788723
 10
903.9030330970501
 20
-1115.352330455712
 42
-0.0041269166831202
 10
904.1176507937032
 20
-1114.834889559749
 10
904.150283750123
 20
-1114.75801111339
 42
-0.0047472213055804
 10
904.3073285556776
 20
-1114.397589645504
 10
904.3142226368726
 20
-1114.382169048202
 42
-0.0025651659998885
 10
904.462580670736
 20
-1114.054840992424
 42
-0.0057144634993323
 10
904.6163303645134
 20
-1113.730031319049
 10
904.6443610699044
 20
-1113.672522936676
 42
-0.0065388068375601
 10
904.8278280976483
 20
-1113.308290440002
 10
904.8362865534268
 20
-1113.292030860633
 42
-0.007451084301986
 10
905.0124687993047
 20
-1112.96534257951
 10
905.0206484698343
 20
-1112.950701802244
 42
-0.0084648979857952
 10
905.1902823229357
 20
-1112.65879279128
 10
905.1981384494237
 20
-1112.645785799629
 42
-0.0095638542799011
 10
905.3619738970181
 20
-1112.385896927651
 10
905.3694488406854
 20
-1112.374527566202
 42
-0.0107191626810153
 10
905.5282504210774
 20
-1112.143916331651
 10
905.5352671548151
 20
-1112.134180239277
 42
-0.0118458573896578
 10
905.689815253321
 20
-1111.930108043976
 42
-0.0129184518190828
 10
905.8542678769194
 20
-1111.733947527809
 10
905.8844126492878
 20
-1111.699821448903
 42
-0.0217742579633283
 10
906.061024971621
 20
-1111.516614678656
 10
906.0717705160768
 20
-1111.506397845458
 42
-0.0097266568653696
 10
906.237828134937
 20
-1111.354550271016
 42
-0.0187720905719595
 10
906.4121757108243
 20
-1111.212481417628
 10
906.4428817014985
 20
-1111.189322335232
 42
-0.0179428207518683
 10
906.6753024214969
 20
-1111.026770158119
 10
906.6789547484119
 20
-1111.024406223231
 42
-0.0170047877698105
 10
906.914718385943
 20
-1110.882945709079
 10
906.9185013746849
 20
-1110.880847404046
 42
-0.0160190788368051
 10
907.1554099223249
 20
-1110.759196102055
 42
-0.0151102861486799
 10
907.3994417047716
 20
-1110.652513326
 10
907.4518282069834
 20
-1110.631473193106
 42
-0.0271945441886383
 10
907.8104907660415
 20
-1110.5096083824
 10
907.8795555665278
 20
-1110.490258841134
 42
-0.023759659402426
 10
908.2953524135521
 20
-1110.394808129152
 10
908.3634152672828
 20
-1110.382553441025
 42
-0.0213715440554476
 10
908.6492901987278
 20
-1110.343606409515
 10
908.7094373649517
 20
-1110.338016694814
 42
-0.0101465655817582
 10
908.87692989694
 20
-1110.32587315155
 10
908.8862702831377
 20
-1110.325386236553
 42
-0.0100375910881888
 10
909.0354243837008
 20
-1110.320610418628
 10
909.0456836533833
 20
-1110.320487979613
 42
-0.0103625633382373
 10
909.1743916480361
 20
-1110.32161941314
 10
909.1966572993003
 20
-1110.322276771604
 42
-0.0115689250234132
 10
909.2807080368309
 20
-1110.32670627785
 42
-0.0072438037440066
 10
909.3645463162721
 20
-1110.334295477599
 10
909.3813468257429
 20
-1110.336062020323
 42
-0.0217917313136314
 10
909.4979165890558
 20
-1110.353481913044
 10
909.5635166796259
 20
-1110.366228521459
 42
-0.0332943556749758
 10
909.7679088446516
 20
-1110.420268812766
 10
909.7980814132001
 20
-1110.430436889884
 42
-0.0184824084808592
 10
909.936586469667
 20
-1110.482887905271
 42
-0.0198002050703368
 10
910.0706608101644
 20
-1110.545771965469
 10
910.0725474475432
 20
-1110.54674975235
 42
-0.021224234297184
 10
910.2046863899437
 20
-1110.622512491142
 10
910.2065016854888
 20
-1110.623658293352
 42
-0.0226090605794823
 10
910.3350055867093
 20
-1110.713137936915
 10
910.3368500284478
 20
-1110.714550189904
 42
-0.0238457052240409
 10
910.4600321097404
 20
-1110.818546085766
 10
910.4619848382998
 20
-1110.820360963532
 42
-0.0248160564144616
 10
910.5781863456007
 20
-1110.939635564741
 10
910.5802899790026
 20
-1110.942020898445
 42
-0.0254109591446396
 10
910.6878951968696
 20
-1111.077309284411
 10
910.6901432187826
 20
-1111.08045083281
 42
-0.0255528488280101
 10
910.7875898975798
 20
-1111.232477887045
 10
910.7899209974958
 20
-1111.236559498652
 42
-0.025214679322899
 10
910.8757020235045
 20
-1111.406061744648
 10
910.8780042626626
 20
-1111.411243826562
 42
-0.0244265635952276
 10
910.9506589564236
 20
-1111.598990398607
 10
910.9599053578924
 20
-1111.626855816946
 42
-0.0231319612891843
 10
911.0058281368845
 20
-1111.790156863748
 42
-0.0112130424360252
 10
911.0404641594231
 20
-1111.956360463938
 10
911.0416666845351
 20
-1111.962857050824
 42
-0.0210527881237241
 10
911.0673531599059
 20
-1112.143912696264
 10
911.070863754728
 20
-1112.179318244813
 42
-0.0190029892421024
 10
911.0863052282724
 20
-1112.432854091083
 10
911.0871152047165
 20
-1112.468329705454
 42
-0.0137974553667799
 10
911.0855663518814
 20
-1112.793361112174
 10
911.0847208969254
 20
-1112.81947985678
 42
-0.0081336634214535
 10
911.0698615617029
 20
-1113.124827324379
 42
-0.0073526923572272
 10
911.045553028329
 20
-1113.429575568657
 10
911.0442916045455
 20
-1113.442912243331
 42
-0.0066886138690013
 10
911.0085560184983
 20
-1113.773498286834
 10
911.0068989290291
 20
-1113.787119905819
 42
-0.0061359187351377
 10
910.9590483269769
 20
-1114.143883885928
 10
910.9570108259054
 20
-1114.157778688748
 42
-0.0056698610069055
 10
910.8963604951384
 20
-1114.541057257585
 10
910.8939550618152
 20
-1114.555216376817
 42
-0.005272107727472
 10
910.8198228610169
 20
-1114.965343716488
 10
910.8170597121739
 20
-1114.979760351881
 42
-0.0049289272181881
 10
910.7287655940744
 20
-1115.417068863001
 10
910.7256530993914
 20
-1115.431737715819
 42
-0.0047415956715523
 10
910.6224151078634
 20
-1115.896534473211
 10
910.5876468974992
 20
-1116.046341568613
 42
-0.0084404470902911
 10
910.3976304539277
 20
-1116.806565593143
 10
910.3915037659417
 20
-1116.829429717298
 42
-0.0039635940256942
 10
910.1700500816585
 20
-1117.630418581542
 10
910.1566732864782
 20
-1117.677350198137
 42
-0.0072475040837414
 10
909.8892263986171
 20
-1118.566569914521
 10
909.8190140717925
 20
-1118.788310264484
 42
-0.0051345458827924
 10
909.5322546997288
 20
-1119.66263545231
 10
909.5107284329438
 20
-1119.726061719492
 42
-0.0019150016599641
 10
909.2551950260946
 20
-1120.469610839666
 10
909.2487274217157
 20
-1120.488198304538
 42
-0.002152436275388
 10
909.0002493706345
 20
-1121.192524126296
 10
908.9910389499386
 20
-1121.218277704595
 42
-0.0024331286821469
 10
908.7547836909021
 20
-1121.868877012716
 10
908.7457357383569
 20
-1121.893420319055
 42
-0.0027449721787388
 10
908.5211211675162
 20
-1122.492550197994
 10
908.5122311601328
 20
-1122.515872787823
 42
-0.0031083229768847
 10
908.298688673514
 20
-1123.065796825426
 10
908.2899525418318
 20
-1123.087886541301
 42
-0.0035311343277707
 10
908.0869113562467
 20
-1123.590869667014
 10
908.078326017098
 20
-1123.611712390527
 42
-0.0040245640949136
 10
907.8852142133045
 20
-1124.070021713117
 10
907.8767780997027
 20
-1124.089601081186
 42
-0.0046015135852397
 10
907.6930218065377
 20
-1124.505506110831
 10
907.6847356287079
 20
-1124.523803250286
 42
-0.0052768638267343
 10
907.5097581097539
 20
-1124.899576134553
 10
907.501625899125
 20
-1124.916569473101
 42
-0.0060672675642831
 10
907.334846286361
 20
-1125.254485096211
 10
907.3268768058864
 20
-1125.270150355195
 42
-0.0069904648869618
 10
907.1677084118778
 20
-1125.572486161872
 10
907.1599170122681
 20
-1125.586796711097
 42
-0.0080637022765167
 10
907.0077651519211
 20
-1125.855832014252
 10
907.0001761192872
 20
-1125.868759879858
 42
-0.0093006455662035
 10
906.8544354427585
 20
-1126.106774278356
 10
906.8470847760091
 20
-1126.118292247538
 42
-0.0107060778046867
 10
906.7071362325764
 20
-1126.327562564908
 10
906.7000744642971
 20
-1126.337648107474
 42
-0.0122723111416744
 10
906.5652807460986
 20
-1126.520441436963
 10
906.5649545225398
 20
-1126.520861824779
 42
-0.0141836319616583
 10
906.4213729195706
 20
-1126.695431582602
 10
906.414425163919
 20
-1126.703406582867
 42
-0.0175957477210522
 10
906.2745189958839
 20
-1126.853027471272
 42
-0.0080466359672833
 10
906.1270552308536
 20
-1126.995349999423
 10
906.0810206863362
 20
-1127.038370437514
 42
-0.0269600260395587
 10
905.8277404403564
 20
-1127.250693696021
 10
905.7611733040584
 20
-1127.300645110646
 42
-0.0178362839757826
 10
905.5212288144004
 20
-1127.4676630369
 10
905.5139838433953
 20
-1127.472331549108
 42
-0.0174650732648788
 10
905.2776476459587
 20
-1127.613192514064
 42
-0.0169240130167675
 10
905.0321814001072
 20
-1127.737484773838
 10
904.9861952445431
 20
-1127.758846729408
 42
-0.0318883036841983
 10
904.6358443889245
 20
-1127.895185038918
 10
904.567478853757
 20
-1127.916885659394
 42
-0.0284435909901296
 10
904.1914287274674
 20
-1128.013103094869
 10
904.1562705669656
 20
-1128.019996690698
 42
-0.0243909341009677
 10
903.8428271060499
 20
-1128.065717721727
 10
903.7925463792824
 20
-1128.070563268629
 42
-0.0196639292931969
 10
903.5769508017515
 20
-1128.082811554142
 10
903.5251267305862
 20
-1128.083714814879
 42
-0.010050151068186
 10
903.4127034489238
 20
-1128.083414416526
 10
903.3810435875902
 20
-1128.082693344641
 42
-0.0019752031153092
 10
903.3319512508983
 20
-1128.081381184431
 10
903.3291909476718
 20
-1128.081296492604
 42
0.0065378751982412
 10
903.2856143729214
 20
-1128.08052960139
 42
-0.0167974694626875
 10
903.242083549991
 20
-1128.078869702864
 10
903.2380042107275
 20
-1128.078576691969
 42
-0.0081283276256887
 10
903.1864444129819
 20
-1128.07402969833
 10
903.1747048391105
 20
-1128.072801780753
 42
-0.0126703440174408
 10
903.0999865433179
 20
-1128.063066989681
 10
903.0771986756401
 20
-1128.059508733766
 42
-0.0117852088437466
 10
902.9576596898121
 20
-1128.03794573861
 10
902.9022792380448
 20
-1128.026602198374
 42
-0.0251774592294526
 10
902.6754351990359
 20
-1127.968104188941
 10
902.6307160091867
 20
-1127.954137369606
 42
-0.014652519989115
 10
902.4443230216474
 20
-1127.889870842408
 42
-0.0166929435862508
 10
902.2623453655214
 20
-1127.814063709353
 10
902.2576887342475
 20
-1127.811938808739
 42
-0.0191684358433207
 10
902.0725051029992
 20
-1127.71870272495
 10
902.0691725172414
 20
-1127.716861477396
 42
-0.0221181781810171
 10
901.8858622133392
 20
-1127.604727979025
 10
901.8835124093307
 20
-1127.603143681034
 42
-0.0254984685380266
 10
901.7072222589453
 20
-1127.470732531064
 10
901.6847401112435
 20
-1127.451980222128
 42
-0.029249264880421
 10
901.5599711724004
 20
-1127.334887422485
 42
-0.0159048957504285
 10
901.4461311749509
 20
-1127.206867430886
 10
901.4448123843711
 20
-1127.205285817866
 42
-0.0343813379574935
 10
901.3421751227457
 20
-1127.063414492098
 10
901.310683591384
 20
-1127.012911100002
 42
-0.0369117275700891
 10
901.2247910894866
 20
-1126.849433859054
 42
-0.0191751379906943
 10
901.1575977039299
 20
-1126.677029253049
 10
901.1558343801701
 20
-1126.671935908373
 42
-0.0378178042231886
 10
901.106039661386
 20
-1126.482995132292
 10
901.1000443656562
 20
-1126.450434514098
 42
-0.0184846046482592
 10
901.0793271663613
 20
-1126.30868169355
 42
-0.017986635130858
 10
901.0689941612874
 20
-1126.165790880465
 10
901.0689377188418
 20
-1126.164233193856
 42
-0.0085497186138666
 10
901.067505437738
 20
-1126.089360028846
 42
-0.0085497186138666
  0
ENDBLK
  5
72
330
23
100
AcDbEntity
  8
template
390
1D
100
AcDbBlockEnd
  0
BLOCK
  5
73
330
24
100
AcDbEntity
  8
notes
390
1D
100
AcDbBlockBegin
  2
*D3
 70
     1
 10
0.0
 20
0.0
 30
0.0
  3
*D3
  1

  0
LINE
  5
74
330
24
100
AcDbEntity
  8
notes
  6
Continuous
 62
     0
370
    -2
100
AcDbLine
 10
547.6917398613572
 20
1264.605268396604
 30
0.0
 11
431.628836224001
 21
1264.605268396604
 31
0.0
  0
LINE
  5
75
330
24
100
AcDbEntity
  8
notes
  6
Continuous
 62
     0
370
    -2
100
AcDbLine
 10
547.6917398613572
 20
1364.605268396604
 30
0.0
 11
431.628836224001
 21
1364.605268396604
 31
0.0
  0
LINE
  5
76
330
24
100
AcDbEntity
  8
notes
  6
Continuous
 62
     0
370
    -2
100
AcDbLine
 10
431.628836224001
 20
1268.605024255979
 30
0.0
 11
431.628836224001
 21
1360.605512537229
 31
0.0
  0
INSERT
  5
77
102
{ACAD_REACTORS
330
78
102
}
330
24
100
AcDbEntity
  8
notes
 62
     0
370
    -2
100
AcDbBlockReference
  2
_DOT
 10
431.628836224001
 20
1264.605268396604
 30
0.0
 41
3.999755859375
 42
3.999755859375
 43
3.999755859375
 50
270.0
  0
INSERT
  5
78
330
24
100
AcDbEntity
  8
notes
 62
     0
370
    -2
100
AcDbBlockReference
  2
_DOT
 10
431.628836224001
 20
1364.605268396604
 30
0.0
 41
3.999755859375
 42
3.999755859375
 43
3.999755859375
 50
90.0
  0
MTEXT
  5
79
102
{ACAD_REACTORS
330
7A
102
}
330
24
100
AcDbEntity
  8
notes
  6
Continuous
 62
     0
370
     5
100
AcDbMText
 10
414.412527630251
 20
1314.605268396604
 30
0.0
 40
24.4326171875
 41
0.0
 46
0.0
 71
     5
 72
     1
  1
\A1;100
  7
ＭＳ ゴシック
 11
0.0
 21
1.0
 31
0.0
 73
     1
 44
1.0
  0
POINT
  5
7A
330
24
100
AcDbEntity
  8
Defpoints
 62
     0
100
AcDbPoint
 10
572.6917398613572
 20
1264.605268396604
 30
0.0
  0
POINT
  5
7B
330
24
100
AcDbEntity
  8
Defpoints
 62
     0
100
AcDbPoint
 10
572.6917398613572
 20
1364.605268396604
 30
0.0
  0
POINT
  5
7C
330
24
100
AcDbEntity
  8
Defpoints
 62
     0
100
AcDbPoint
 10
431.628836224001
 20
1364.605268396604
 30
0.0
  0
ENDBLK
  5
7F
330
24
100
AcDbEntity
  8
notes
390
1D
100
AcDbBlockEnd
  0
BLOCK
  5
80
330
25
100
AcDbEntity
  8
notes
390
1D
100
AcDbBlockBegin
  2
*D4
 70
     1
 10
0.0
 20
0.0
 30
0.0
  3
*D4
  1

  0
LINE
  5
81
330
25
100
AcDbEntity
  8
notes
  6
Continuous
 62
     0
370
    -2
100
AcDbLine
 10
547.6917398613572
 20
1164.605268396604
 30
0.0
 11
431.628836224001
 21
1164.605268396604
 31
0.0
  0
LINE
  5
82
330
25
100
AcDbEntity
  8
notes
  6
Continuous
 62
     0
370
    -2
100
AcDbLine
 10
547.6917398613572
 20
1264.605268396604
 30
0.0
 11
431.628836224001
 21
1264.605268396604
 31
0.0
  0
LINE
  5
83
330
25
100
AcDbEntity
  8
notes
  6
Continuous
 62
     0
370
    -2
100
AcDbLine
 10
431.628836224001
 20
1168.605024255979
 30
0.0
 11
431.628836224001
 21
1260.605512537229
 31
0.0
  0
INSERT
  5
84
102
{ACAD_REACTORS
330
85
102
}
330
25
100
AcDbEntity
  8
notes
 62
     0
370
    -2
100
AcDbBlockReference
  2
_DOT
 10
431.628836224001
 20
1164.605268396604
 30
0.0
 41
3.999755859375
 42
3.999755859375
 43
3.999755859375
 50
270.0
  0
INSERT
  5
85
330
25
100
AcDbEntity
  8
notes
 62
     0
370
    -2
100
AcDbBlockReference
  2
_DOT
 10
431.628836224001
 20
1264.605268396604
 30
0.0
 41
3.999755859375
 42
3.999755859375
 43
3.999755859375
 50
90.0
  0
MTEXT
  5
86
102
{ACAD_REACTORS
330
87
102
}
330
25
100
AcDbEntity
  8
notes
  6
Continuous
 62
     0
370
     5
100
AcDbMText
 10
414.412527630251
 20
1214.605268396604
 30
0.0
 40
24.4326171875
 41
0.0
 46
0.0
 71
     5
 72
     1
  1
\A1;100
  7
ＭＳ ゴシック
 11
0.0
 21
1.0
 31
0.0
 73
     1
 44
1.0
  0
POINT
  5
87
330
25
100
AcDbEntity
  8
Defpoints
 62
     0
100
AcDbPoint
 10
572.6917398613572
 20
1164.605268396604
 30
0.0
  0
POINT
  5
88
330
25
100
AcDbEntity
  8
Defpoints
 62
     0
100
AcDbPoint
 10
572.6917398613572
 20
1264.605268396604
 30
0.0
  0
POINT
  5
89
330
25
100
AcDbEntity
  8
Defpoints
 62
     0
100
AcDbPoint
 10
431.628836224001
 20
1264.605268396604
 30
0.0
  0
ENDBLK
  5
8C
330
25
100
AcDbEntity
  8
notes
390
1D
100
AcDbBlockEnd
  0
BLOCK
  5
8D
330
26
100
AcDbEntity
  8
notes
390
1D
100
AcDbBlockBegin
  2
*D5
 70
     1
 10
0.0
 20
0.0
 30
0.0
  3
*D5
  1

  0
LINE
  5
8E
330
26
100
AcDbEntity
  8
notes
  6
Continuous
 62
     0
370
    -2
100
AcDbLine
 10
547.6917398613572
 20
1064.605268396604
 30
0.0
 11
431.628836224001
 21
1064.605268396604
 31
0.0
  0
LINE
  5
8F
330
26
100
AcDbEntity
  8
notes
  6
Continuous
 62
     0
370
    -2
100
AcDbLine
 10
547.6917398613572
 20
1164.605268396604
 30
0.0
 11
431.628836224001
 21
1164.605268396604
 31
0.0
  0
LINE
  5
90
330
26
100
AcDbEntity
  8
notes
  6
Continuous
 62
     0
370
    -2
100
AcDbLine
 10
431.628836224001
 20
1068.605024255979
 30
0.0
 11
431.628836224001
 21
1160.605512537229
 31
0.0
  0
INSERT
  5
91
102
{ACAD_REACTORS
330
92
102
}
330
26
100
AcDbEntity
  8
notes
 62
     0
370
    -2
100
AcDbBlockReference
  2
_DOT
 10
431.628836224001
 20
1064.605268396604
 30
0.0
 41
3.999755859375
 42
3.999755859375
 43
3.999755859375
 50
270.0
  0
INSERT
  5
92
330
26
100
AcDbEntity
  8
notes
 62
     0
370
    -2
100
AcDbBlockReference
  2
_DOT
 10
431.628836224001
 20
1164.605268396604
 30
0.0
 41
3.999755859375
 42
3.999755859375
 43
3.999755859375
 50
90.0
  0
MTEXT
  5
93
102
{ACAD_REACTORS
330
94
102
}
330
26
100
AcDbEntity
  8
notes
  6
Continuous
 62
     0
370
     5
100
AcDbMText
 10
414.412527630251
 20
1114.605268396604
 30
0.0
 40
24.4326171875
 41
0.0
 46
0.0
 71
     5
 72
     1
  1
\A1;100
  7
ＭＳ ゴシック
 11
0.0
 21
1.0
 31
0.0
 73
     1
 44
1.0
  0
POINT
  5
94
330
26
100
AcDbEntity
  8
Defpoints
 62
     0
100
AcDbPoint
 10
572.6917398613572
 20
1064.605268396604
 30
0.0
  0
POINT
  5
95
330
26
100
AcDbEntity
  8
Defpoints
 62
     0
100
AcDbPoint
 10
572.6917398613572
 20
1164.605268396604
 30
0.0
  0
POINT
  5
96
330
26
100
AcDbEntity
  8
Defpoints
 62
     0
100
AcDbPoint
 10
431.628836224001
 20
1164.605268396604
 30
0.0
  0
ENDBLK
  5
99
330
26
100
AcDbEntity
  8
notes
390
1D
100
AcDbBlockEnd
  0
BLOCK
  5
9A
330
27
100
AcDbEntity
  8
notes
390
1D
100
AcDbBlockBegin
  2
*D6
 70
     1
 10
0.0
 20
0.0
 30
0.0
  3
*D6
  1

  0
LINE
  5
9B
330
27
100
AcDbEntity
  8
notes
  6
Continuous
 62
     0
370
    -2
100
AcDbLine
 10
547.6917398613571
 20
964.6052683966043
 30
0.0
 11
431.628836224001
 21
964.6052683966043
 31
0.0
  0
LINE
  5
9C
330
27
100
AcDbEntity
  8
notes
  6
Continuous
 62
     0
370
    -2
100
AcDbLine
 10
547.6917398613572
 20
1064.605268396604
 30
0.0
 11
431.628836224001
 21
1064.605268396604
 31
0.0
  0
LINE
  5
9D
330
27
100
AcDbEntity
  8
notes
  6
Continuous
 62
     0
370
    -2
100
AcDbLine
 10
431.628836224001
 20
968.6050242559793
 30
0.0
 11
431.628836224001
 21
1060.605512537229
 31
0.0
  0
INSERT
  5
9E
102
{ACAD_REACTORS
330
9F
102
}
330
27
100
AcDbEntity
  8
notes
 62
     0
370
    -2
100
AcDbBlockReference
  2
_DOT
 10
431.628836224001
 20
964.6052683966043
 30
0.0
 41
3.999755859375
 42
3.999755859375
 43
3.999755859375
 50
270.0
  0
INSERT
  5
9F
330
27
100
AcDbEntity
  8
notes
 62
     0
370
    -2
100
AcDbBlockReference
  2
_DOT
 10
431.628836224001
 20
1064.605268396604
 30
0.0
 41
3.999755859375
 42
3.999755859375
 43
3.999755859375
 50
90.0
  0
MTEXT
  5
A0
102
{ACAD_REACTORS
330
A1
102
}
330
27
100
AcDbEntity
  8
notes
  6
Continuous
 62
     0
370
     5
100
AcDbMText
 10
414.4125276302511
 20
1014.605268396604
 30
0.0
 40
24.4326171875
 41
0.0
 46
0.0
 71
     5
 72
     1
  1
\A1;100
  7
ＭＳ ゴシック
 11
0.0
 21
1.0
 31
0.0
 73
     1
 44
1.0
  0
POINT
  5
A1
330
27
100
AcDbEntity
  8
Defpoints
 62
     0
100
AcDbPoint
 10
572.6917398613571
 20
964.6052683966043
 30
0.0
  0
POINT
  5
A2
330
27
100
AcDbEntity
  8
Defpoints
 62
     0
100
AcDbPoint
 10
572.6917398613572
 20
1064.605268396604
 30
0.0
  0
POINT
  5
A3
330
27
100
AcDbEntity
  8
Defpoints
 62
     0
100
AcDbPoint
 10
431.628836224001
 20
1064.605268396604
 30
0.0
  0
ENDBLK
  5
A6
330
27
100
AcDbEntity
  8
notes
390
1D
100
AcDbBlockEnd
  0
BLOCK
  5
A7
330
28
100
AcDbEntity
  8
notes
390
1D
100
AcDbBlockBegin
  2
*D7
 70
     1
 10
0.0
 20
0.0
 30
0.0
  3
*D7
  1

  0
LINE
  5
A8
330
28
100
AcDbEntity
  8
notes
  6
Continuous
 62
     0
370
    -2
100
AcDbLine
 10
547.6917398613571
 20
864.6052683966043
 30
0.0
 11
431.628836224001
 21
864.6052683966043
 31
0.0
  0
LINE
  5
A9
330
28
100
AcDbEntity
  8
notes
  6
Continuous
 62
     0
370
    -2
100
AcDbLine
 10
547.6917398613571
 20
964.6052683966043
 30
0.0
 11
431.628836224001
 21
964.6052683966043
 31
0.0
  0
LINE
  5
AA
330
28
100
AcDbEntity
  8
notes
  6
Continuous
 62
     0
370
    -2
100
AcDbLine
 10
431.628836224001
 20
868.6050242559793
 30
0.0
 11
431.628836224001
 21
960.6055125372293
 31
0.0
  0
INSERT
  5
AB
102
{ACAD_REACTORS
330
AC
102
}
330
28
100
AcDbEntity
  8
notes
 62
     0
370
    -2
100
AcDbBlockReference
  2
_DOT
 10
431.628836224001
 20
864.6052683966043
 30
0.0
 41
3.999755859375
 42
3.999755859375
 43
3.999755859375
 50
270.0
  0
INSERT
  5
AC
330
28
100
AcDbEntity
  8
notes
 62
     0
370
    -2
100
AcDbBlockReference
  2
_DOT
 10
431.628836224001
 20
964.6052683966043
 30
0.0
 41
3.999755859375
 42
3.999755859375
 43
3.999755859375
 50
90.0
  0
MTEXT
  5
AD
102
{ACAD_REACTORS
330
AE
102
}
330
28
100
AcDbEntity
  8
notes
  6
Continuous
 62
     0
370
     5
100
AcDbMText
 10
414.412527630251
 20
914.6052683966043
 30
0.0
 40
24.4326171875
 41
0.0
 46
0.0
 71
     5
 72
     1
  1
\A1;100
  7
ＭＳ ゴシック
 11
0.0
 21
1.0
 31
0.0
 73
     1
 44
1.0
  0
POINT
  5
AE
330
28
100
AcDbEntity
  8
Defpoints
 62
     0
100
AcDbPoint
 10
572.6917398613571
 20
864.6052683966043
 30
0.0
  0
POINT
  5
AF
330
28
100
AcDbEntity
  8
Defpoints
 62
     0
100
AcDbPoint
 10
572.6917398613571
 20
964.6052683966043
 30
0.0
  0
POINT
  5
B0
330
28
100
AcDbEntity
  8
Defpoints
 62
     0
100
AcDbPoint
 10
431.628836224001
 20
964.6052683966043
 30
0.0
  0
ENDBLK
  5
B3
330
28
100
AcDbEntity
  8
notes
390
1D
100
AcDbBlockEnd
  0
BLOCK
  5
B4
330
29
100
AcDbEntity
  8
notes
390
1D
100
AcDbBlockBegin
  2
*D8
 70
     1
 10
0.0
 20
0.0
 30
0.0
  3
*D8
  1

  0
LINE
  5
B5
330
29
100
AcDbEntity
  8
notes
  6
Continuous
 62
     0
370
    -2
100
AcDbLine
 10
547.6917398613571
 20
764.6052683966043
 30
0.0
 11
431.628836224001
 21
764.6052683966043
 31
0.0
  0
LINE
  5
B6
330
29
100
AcDbEntity
  8
notes
  6
Continuous
 62
     0
370
    -2
100
AcDbLine
 10
547.6917398613571
 20
864.6052683966043
 30
0.0
 11
431.628836224001
 21
864.6052683966043
 31
0.0
  0
LINE
  5
B7
330
29
100
AcDbEntity
  8
notes
  6
Continuous
 62
     0
370
    -2
100
AcDbLine
 10
431.628836224001
 20
768.6050242559793
 30
0.0
 11
431.628836224001
 21
860.6055125372293
 31
0.0
  0
INSERT
  5
B8
102
{ACAD_REACTORS
330
B9
102
}
330
29
100
AcDbEntity
  8
notes
 62
     0
370
    -2
100
AcDbBlockReference
  2
_DOT
 10
431.628836224001
 20
764.6052683966043
 30
0.0
 41
3.999755859375
 42
3.999755859375
 43
3.999755859375
 50
270.0
  0
INSERT
  5
B9
330
29
100
AcDbEntity
  8
notes
 62
     0
370
    -2
100
AcDbBlockReference
  2
_DOT
 10
431.628836224001
 20
864.6052683966043
 30
0.0
 41
3.999755859375
 42
3.999755859375
 43
3.999755859375
 50
90.0
  0
MTEXT
  5
BA
102
{ACAD_REACTORS
330
BB
102
}
330
29
100
AcDbEntity
  8
notes
  6
Continuous
 62
     0
370
     5
100
AcDbMText
 10
414.412527630251
 20
814.6052683966043
 30
0.0
 40
24.4326171875
 41
0.0
 46
0.0
 71
     5
 72
     1
  1
\A1;100
  7
ＭＳ ゴシック
 11
0.0
 21
1.0
 31
0.0
 73
     1
 44
1.0
  0
POINT
  5
BB
330
29
100
AcDbEntity
  8
Defpoints
 62
     0
100
AcDbPoint
 10
572.6917398613571
 20
764.6052683966043
 30
0.0
  0
POINT
  5
BC
330
29
100
AcDbEntity
  8
Defpoints
 62
     0
100
AcDbPoint
 10
572.6917398613571
 20
864.6052683966043
 30
0.0
  0
POINT
  5
BD
330
29
100
AcDbEntity
  8
Defpoints
 62
     0
100
AcDbPoint
 10
431.628836224001
 20
864.6052683966043
 30
0.0
  0
ENDBLK
  5
C0
330
29
100
AcDbEntity
  8
notes
390
1D
100
AcDbBlockEnd
  0
BLOCK
  5
C1
330
2A
100
AcDbEntity
  8
notes
390
1D
100
AcDbBlockBegin
  2
*D9
 70
     1
 10
0.0
 20
0.0
 30
0.0
  3
*D9
  1

  0
LINE
  5
C2
330
2A
100
AcDbEntity
  8
notes
  6
Continuous
 62
     0
370
    -2
100
AcDbLine
 10
961.628836224001
 20
2053.01504063031
 30
0.0
 11
1038.809708209185
 21
2053.01504063031
 31
0.0
  0
LINE
  5
C3
330
2A
100
AcDbEntity
  8
notes
  6
Continuous
 62
     0
370
    -2
100
AcDbLine
 10
961.628836224001
 20
2453.01504063031
 30
0.0
 11
1038.809708209185
 21
2453.01504063031
 31
0.0
  0
LINE
  5
C4
330
2A
100
AcDbEntity
  8
notes
  6
Continuous
 62
     0
370
    -2
100
AcDbLine
 10
1038.809708209185
 20
2057.014796489685
 30
0.0
 11
1038.809708209185
 21
2449.015284770935
 31
0.0
  0
INSERT
  5
C5
102
{ACAD_REACTORS
330
C6
102
}
330
2A
100
AcDbEntity
  8
notes
 62
     0
370
    -2
100
AcDbBlockReference
  2
_DOT
 10
1038.809708209185
 20
2053.01504063031
 30
0.0
 41
3.999755859375
 42
3.999755859375
 43
3.999755859375
 50
270.0
  0
INSERT
  5
C6
330
2A
100
AcDbEntity
  8
notes
 62
     0
370
    -2
100
AcDbBlockReference
  2
_DOT
 10
1038.809708209185
 20
2453.01504063031
 30
0.0
 41
3.999755859375
 42
3.999755859375
 43
3.999755859375
 50
90.0
  0
MTEXT
  5
C7
102
{ACAD_REACTORS
330
C8
102
}
330
2A
100
AcDbEntity
  8
notes
  6
Continuous
 62
     0
370
     5
100
AcDbMText
 10
1021.593399615435
 20
2253.01504063031
 30
0.0
 40
24.4326171875
 41
0.0
 46
0.0
 71
     5
 72
     1
  1
\A1;400
  7
ＭＳ ゴシック
 11
0.0
 21
1.0
 31
0.0
 73
     1
 44
1.0
  0
POINT
  5
C8
330
2A
100
AcDbEntity
  8
Defpoints
 62
     0
100
AcDbPoint
 10
936.628836224001
 20
2053.01504063031
 30
0.0
  0
POINT
  5
C9
330
2A
100
AcDbEntity
  8
Defpoints
 62
     0
100
AcDbPoint
 10
936.628836224001
 20
2453.01504063031
 30
0.0
  0
POINT
  5
CA
330
2A
100
AcDbEntity
  8
Defpoints
 62
     0
100
AcDbPoint
 10
1038.809708209185
 20
2453.01504063031
 30
0.0
  0
ENDBLK
  5
CD
330
2A
100
AcDbEntity
  8
notes
390
1D
100
AcDbBlockEnd
  0
BLOCK
  5
CE
330
2B
100
AcDbEntity
  8
notes
390
1D
100
AcDbBlockBegin
  2
*D10
 70
     1
 10
0.0
 20
0.0
 30
0.0
  3
*D10
  1

  0
LINE
  5
CF
330
2B
100
AcDbEntity
  8
notes
  6
Continuous
 62
     0
370
    -2
100
AcDbLine
 10
531.628836224001
 20
2028.01504063031
 30
0.0
 11
531.628836224001
 21
1811.305268396604
 31
0.0
  0
LINE
  5
D0
330
2B
100
AcDbEntity
  8
notes
  6
Continuous
 62
     0
370
    -2
100
AcDbLine
 10
931.628836224001
 20
2028.01504063031
 30
0.0
 11
931.628836224001
 21
1811.305268396604
 31
0.0
  0
LINE
  5
D1
330
2B
100
AcDbEntity
  8
notes
  6
Continuous
 62
     0
370
    -2
100
AcDbLine
 10
535.628592083376
 20
1811.305268396604
 30
0.0
 11
927.629080364626
 21
1811.305268396604
 31
0.0
  0
INSERT
  5
D2
102
{ACAD_REACTORS
330
D3
102
}
330
2B
100
AcDbEntity
  8
notes
 62
     0
370
    -2
100
AcDbBlockReference
  2
_DOT
 10
531.628836224001
 20
1811.305268396604
 30
0.0
 41
3.999755859375
 42
3.999755859375
 43
3.999755859375
 50
180.0
  0
INSERT
  5
D3
330
2B
100
AcDbEntity
  8
notes
 62
     0
370
    -2
100
AcDbBlockReference
  2
_DOT
 10
931.628836224001
 20
1811.305268396604
 30
0.0
 41
3.999755859375
 42
3.999755859375
 43
3.999755859375
  0
MTEXT
  5
D4
102
{ACAD_REACTORS
330
D5
102
}
330
2B
100
AcDbEntity
  8
notes
  6
Continuous
 62
     0
370
     5
100
AcDbMText
 10
731.628836224001
 20
1828.521576990354
 30
0.0
 40
24.4326171875
 41
0.0
 46
0.0
 71
     5
 72
     1
  1
\A1;400
  7
ＭＳ ゴシック
 73
     1
 44
1.0
  0
POINT
  5
D5
330
2B
100
AcDbEntity
  8
Defpoints
 62
     0
100
AcDbPoint
 10
531.628836224001
 20
2053.01504063031
 30
0.0
  0
POINT
  5
D6
330
2B
100
AcDbEntity
  8
Defpoints
 62
     0
100
AcDbPoint
 10
931.628836224001
 20
2053.01504063031
 30
0.0
  0
POINT
  5
D7
330
2B
100
AcDbEntity
  8
Defpoints
 62
     0
100
AcDbPoint
 10
931.628836224001
 20
1811.305268396604
 30
0.0
  0
ENDBLK
  5
DA
330
2B
100
AcDbEntity
  8
notes
390
1D
100
AcDbBlockEnd
  0
BLOCK
  5
DB
330
2C
100
AcDbEntity
  8
notes
390
1D
100
AcDbBlockBegin
  2
*D11
 70
     1
 10
0.0
 20
0.0
 30
0.0
  3
*D11
  1

  0
LINE
  5
DC
330
2C
100
AcDbEntity
  8
0
  6
Continuous
 62
     0
370
    -2
390
1D
100
AcDbLine
 10
-205.7991654964191
 20
558.4072872103781
 30
0.0
 11
-71.39528095680697
 21
251.2781106589111
 31
0.0
  0
CIRCLE
  5
DD
102
{ACAD_REACTORS
330
DE
102
}
330
2C
100
AcDbEntity
  8
0
  6
Continuous
 62
     0
370
    -2
390
1D
100
AcDbCircle
 10
-205.7991654964191
 20
558.4072872103781
 30
0.0
 40
1.9998779296875
  0
HATCH
  5
DE
330
2C
100
AcDbEntity
  8
0
  6
Continuous
 62
     0
370
    -2
390
1D
100
AcDbHatch
 10
0.0
 20
0.0
 30
0.0
210
0.0
220
0.0
230
1.0
  2
SOLID
 70
     1
 71
     1
 91
        1
 92
        1
 93
        1
 72
     2
 10
-205.7991654964191
 20
558.4072872103781
 40
1.9998779296875
 50
0.0
 51
360.0
 73
     0
 97
        1
330
DD
 75
     0
 76
     1
 98
        1
 10
0.0
 20
0.0
  0
LINE
  5
DF
330
2C
100
AcDbEntity
  8
0
  6
Continuous
 62
     0
370
    -2
390
1D
100
AcDbLine
 10
-71.39528095680697
 20
251.2781106589111
 30
0.0
 11
321.9797190431931
 21
251.2781106589111
 31
0.0
  0
MTEXT
  5
E0
330
2C
100
AcDbEntity
  8
0
 62
     0
390
1D
100
AcDbMText
 10
-11.39528095680697
 20
285.1557278464112
 30
0.0
 40
24.4326171875
 41
0.0
 46
0.0
 71
     1
 72
     1
  1
φ10(固定金具用2ヶ所)
  7
ＭＳ ゴシック
 73
     1
 44
0.7828267384257843
  0
POINT
  5
E1
330
2C
100
AcDbEntity
  8
Defpoints
 62
     0
370
     0
390
1D
100
AcDbPoint
 10
-209.8082268308773
 20
567.5684785748552
 30
0.0
  0
POINT
  5
E2
330
2C
100
AcDbEntity
  8
Defpoints
 62
     0
370
     0
390
1D
100
AcDbPoint
 10
-205.7991654964191
 20
558.4072872103781
 30
0.0
  0
ENDBLK
  5
E3
330
2C
100
AcDbEntity
  8
notes
390
1D
100
AcDbBlockEnd
  0
BLOCK
  5
E4
330
2D
100
AcDbEntity
  8
notes
390
1D
100
AcDbBlockBegin
  2
*D12
 70
     1
 10
0.0
 20
0.0
 30
0.0
  3
*D12
  1

  0
LINE
  5
E5
330
2D
100
AcDbEntity
  8
notes
  6
Continuous
 62
     0
370
    -2
100
AcDbLine
 10
886.6288362240009
 20
1928.01504063031
 30
0.0
 11
1101.628836224001
 21
1928.01504063031
 31
0.0
  0
LINE
  5
E6
330
2D
100
AcDbEntity
  8
notes
  6
Continuous
 62
     0
370
    -2
100
AcDbLine
 10
886.6288362240009
 20
2578.01504063031
 30
0.0
 11
1101.628836224001
 21
2578.01504063031
 31
0.0
  0
LINE
  5
E7
330
2D
100
AcDbEntity
  8
notes
  6
Continuous
 62
     0
370
    -2
100
AcDbLine
 10
1101.628836224001
 20
1932.014796489685
 30
0.0
 11
1101.628836224001
 21
2574.015284770935
 31
0.0
  0
INSERT
  5
E8
102
{ACAD_REACTORS
330
E9
102
}
330
2D
100
AcDbEntity
  8
notes
 62
     0
370
    -2
100
AcDbBlockReference
  2
_DOT
 10
1101.628836224001
 20
1928.01504063031
 30
0.0
 41
3.999755859375
 42
3.999755859375
 43
3.999755859375
 50
270.0
  0
INSERT
  5
E9
330
2D
100
AcDbEntity
  8
notes
 62
     0
370
    -2
100
AcDbBlockReference
  2
_DOT
 10
1101.628836224001
 20
2578.01504063031
 30
0.0
 41
3.999755859375
 42
3.999755859375
 43
3.999755859375
 50
90.0
  0
MTEXT
  5
EA
102
{ACAD_REACTORS
330
EB
102
}
330
2D
100
AcDbEntity
  8
notes
  6
Continuous
 62
     0
370
     5
100
AcDbMText
 10
1084.412527630251
 20
2253.01504063031
 30
0.0
 40
24.4326171875
 41
0.0
 46
0.0
 71
     5
 72
     1
  1
\A1;650
  7
ＭＳ ゴシック
 11
0.0
 21
1.0
 31
0.0
 73
     1
 44
1.0
  0
POINT
  5
EB
330
2D
100
AcDbEntity
  8
Defpoints
 62
     0
100
AcDbPoint
 10
861.6288362240009
 20
1928.01504063031
 30
0.0
  0
POINT
  5
EC
330
2D
100
AcDbEntity
  8
Defpoints
 62
     0
100
AcDbPoint
 10
861.6288362240009
 20
2578.01504063031
 30
0.0
  0
POINT
  5
ED
330
2D
100
AcDbEntity
  8
Defpoints
 62
     0
100
AcDbPoint
 10
1101.628836224001
 20
2578.01504063031
 30
0.0
  0
ENDBLK
  5
F0
330
2D
100
AcDbEntity
  8
notes
390
1D
100
AcDbBlockEnd
  0
BLOCK
  5
F1
330
2E
100
AcDbEntity
  8
notes
390
1D
100
AcDbBlockBegin
  2
*D13
 70
     1
 10
0.0
 20
0.0
 30
0.0
  3
*D13
  1

  0
LINE
  5
F2
330
2E
100
AcDbEntity
  8
notes
  6
Continuous
 62
     0
370
    -2
100
AcDbLine
 10
561.628836224001
 20
2603.01504063031
 30
0.0
 11
561.628836224001
 21
2678.01504063031
 31
0.0
  0
LINE
  5
F3
330
2E
100
AcDbEntity
  8
notes
  6
Continuous
 62
     0
370
    -2
100
AcDbLine
 10
861.6288362240009
 20
2603.01504063031
 30
0.0
 11
861.6288362240009
 21
2678.01504063031
 31
0.0
  0
LINE
  5
F4
330
2E
100
AcDbEntity
  8
notes
  6
Continuous
 62
     0
370
    -2
100
AcDbLine
 10
565.628592083376
 20
2678.01504063031
 30
0.0
 11
857.6290803646259
 21
2678.01504063031
 31
0.0
  0
INSERT
  5
F5
102
{ACAD_REACTORS
330
F6
102
}
330
2E
100
AcDbEntity
  8
notes
 62
     0
370
    -2
100
AcDbBlockReference
  2
_DOT
 10
561.628836224001
 20
2678.01504063031
 30
0.0
 41
3.999755859375
 42
3.999755859375
 43
3.999755859375
 50
180.0
  0
INSERT
  5
F6
330
2E
100
AcDbEntity
  8
notes
 62
     0
370
    -2
100
AcDbBlockReference
  2
_DOT
 10
861.6288362240009
 20
2678.01504063031
 30
0.0
 41
3.999755859375
 42
3.999755859375
 43
3.999755859375
  0
MTEXT
  5
F7
102
{ACAD_REACTORS
330
F8
102
}
330
2E
100
AcDbEntity
  8
notes
  6
Continuous
 62
     0
370
     5
100
AcDbMText
 10
711.6288362240009
 20
2695.23134922406
 30
0.0
 40
24.4326171875
 41
0.0
 46
0.0
 71
     5
 72
     1
  1
\A1;300
  7
ＭＳ ゴシック
 73
     1
 44
1.0
  0
POINT
  5
F8
330
2E
100
AcDbEntity
  8
Defpoints
 62
     0
100
AcDbPoint
 10
561.628836224001
 20
2578.01504063031
 30
0.0
  0
POINT
  5
F9
330
2E
100
AcDbEntity
  8
Defpoints
 62
     0
100
AcDbPoint
 10
861.6288362240009
 20
2578.01504063031
 30
0.0
  0
POINT
  5
FA
330
2E
100
AcDbEntity
  8
Defpoints
 62
     0
100
AcDbPoint
 10
861.6288362240009
 20
2678.01504063031
 30
0.0
  0
ENDBLK
  5
FD
330
2E
100
AcDbEntity
  8
notes
390
1D
100
AcDbBlockEnd
  0
BLOCK
  5
FE
330
2F
100
AcDbEntity
  8
notes
390
1D
100
AcDbBlockBegin
  2
*D14
 70
     1
 10
0.0
 20
0.0
 30
0.0
  3
*D14
  1

  0
LINE
  5
FF
330
2F
100
AcDbEntity
  8
0
  6
Continuous
 62
     0
370
    -2
390
1D
100
AcDbLine
 10
-577.8036961636482
 20
1087.987882892617
 30
0.0
 11
-577.8036961636482
 21
1187.987882892617
 31
0.0
  0
LINE
  5
100
330
2F
100
AcDbEntity
  8
0
  6
Continuous
 62
     0
370
    -2
390
1D
100
AcDbLine
 10
-607.8036961636482
 20
1087.987882892617
 30
0.0
 11
-607.8036961636482
 21
1187.987882892617
 31
0.0
  0
LINE
  5
101
330
2F
100
AcDbEntity
  8
0
  6
Continuous
 62
     0
370
    -2
390
1D
100
AcDbLine
 10
-607.8036961636482
 20
1187.987882892617
 30
0.0
 11
-673.75
 21
1187.987882892617
 31
0.0
  0
LINE
  5
102
330
2F
100
AcDbEntity
  8
0
  6
Continuous
 62
     0
370
    -2
390
1D
100
AcDbLine
 10
-577.8036961636482
 20
1187.987882892617
 30
0.0
 11
-607.8036961636482
 21
1187.987882892617
 31
0.0
  0
CIRCLE
  5
103
102
{ACAD_REACTORS
330
104
102
}
330
2F
100
AcDbEntity
  8
0
  6
Continuous
 62
     0
370
    -2
390
1D
100
AcDbCircle
 10
-577.8036961636482
 20
1187.987882892617
 30
0.0
 40
1.9998779296875
  0
HATCH
  5
104
330
2F
100
AcDbEntity
  8
0
  6
Continuous
 62
     0
370
    -2
390
1D
100
AcDbHatch
 10
0.0
 20
0.0
 30
0.0
210
0.0
220
0.0
230
1.0
  2
SOLID
 70
     1
 71
     1
 91
        1
 92
        1
 93
        1
 72
     2
 10
-577.8036961636482
 20
1187.987882892617
 40
1.9998779296875
 50
0.0
 51
360.0
 73
     0
 97
        1
330
103
 75
     0
 76
     1
 98
        1
 10
0.0
 20
0.0
  0
CIRCLE
  5
105
102
{ACAD_REACTORS
330
106
102
}
330
2F
100
AcDbEntity
  8
0
  6
Continuous
 62
     0
370
    -2
390
1D
100
AcDbCircle
 10
-607.8036961636482
 20
1187.987882892617
 30
0.0
 40
1.9998779296875
  0
HATCH
  5
106
330
2F
100
AcDbEntity
  8
0
  6
Continuous
 62
     0
370
    -2
390
1D
100
AcDbHatch
 10
0.0
 20
0.0
 30
0.0
210
0.0
220
0.0
230
1.0
  2
SOLID
 70
     1
 71
     1
 91
        1
 92
        1
 93
        1
 72
     2
 10
-607.8036961636482
 20
1187.987882892617
 40
1.9998779296875
 50
0.0
 51
360.0
 73
     0
 97
        1
330
105
 75
     0
 76
     1
 98
        1
 10
0.0
 20
0.0
  0
MTEXT
  5
107
330
2F
100
AcDbEntity
  8
0
 62
     0
390
1D
100
AcDbMText
 10
-673.75
 20
1221.865500080117
 30
0.0
 40
24.4326171875
 41
0.0
 46
0.0
 71
     1
 72
     1
  1
30
  7
ＭＳ ゴシック
 73
     1
 44
0.7828267384257843
  0
POINT
  5
108
330
2F
100
AcDbEntity
  8
Defpoints
 62
     0
370
     0
390
1D
100
AcDbPoint
 10
-607.8036961636482
 20
1062.987882892617
 30
0.0
  0
POINT
  5
109
330
2F
100
AcDbEntity
  8
Defpoints
 62
     0
370
     0
390
1D
100
AcDbPoint
 10
-577.8036961636482
 20
1062.987882892617
 30
0.0
  0
POINT
  5
10A
330
2F
100
AcDbEntity
  8
Defpoints
 62
     0
370
     0
390
1D
100
AcDbPoint
 10
-577.8036961636482
 20
1187.987882892617
 30
0.0
  0
ENDBLK
  5
10B
330
2F
100
AcDbEntity
  8
notes
390
1D
100
AcDbBlockEnd
  0
BLOCK
  5
10C
330
30
100
AcDbEntity
  8
notes
390
1D
100
AcDbBlockBegin
  2
*D15
 70
     1
 10
0.0
 20
0.0
 30
0.0
  3
*D15
  1

  0
LINE
  5
10D
330
30
100
AcDbEntity
  8
notes
  6
Continuous
 62
     0
370
    -2
100
AcDbLine
 10
511.628836224001
 20
1564.578860420412
 30
0.0
 11
381.6288362240013
 21
1564.578860420412
 31
0.0
  0
LINE
  5
10E
330
30
100
AcDbEntity
  8
notes
  6
Continuous
 62
     0
370
    -2
100
AcDbLine
 10
511.628836224001
 20
564.5788604204129
 30
0.0
 11
381.6288362240012
 21
564.5788604204129
 31
0.0
  0
LINE
  5
10F
330
30
100
AcDbEntity
  8
notes
  6
Continuous
 62
     0
370
    -2
100
AcDbLine
 10
381.6288362240013
 20
1560.579104561037
 30
0.0
 11
381.6288362240012
 21
568.5786162797879
 31
0.0
  0
INSERT
  5
110
102
{ACAD_REACTORS
330
111
102
}
330
30
100
AcDbEntity
  8
notes
 62
     0
370
    -2
100
AcDbBlockReference
  2
_DOT
 10
381.6288362240013
 20
1564.578860420412
 30
0.0
 41
3.999755859375
 42
3.999755859375
 43
3.999755859375
 50
90.0
  0
INSERT
  5
111
330
30
100
AcDbEntity
  8
notes
 62
     0
370
    -2
100
AcDbBlockReference
  2
_DOT
 10
381.6288362240012
 20
564.5788604204129
 30
0.0
 41
3.999755859375
 42
3.999755859375
 43
3.999755859375
 50
270.0
  0
MTEXT
  5
112
102
{ACAD_REACTORS
330
113
102
}
330
30
100
AcDbEntity
  8
notes
  6
Continuous
 62
     0
370
     5
100
AcDbMText
 10
364.4125276302512
 20
1064.578860420413
 30
0.0
 40
24.4326171875
 41
0.0
 46
0.0
 71
     5
 72
     1
  1
\A1;1000
  7
ＭＳ ゴシック
 11
5.684341886080804E-17
 21
1.0
 31
0.0
 73
     1
 44
1.0
  0
POINT
  5
113
330
30
100
AcDbEntity
  8
Defpoints
 62
     0
100
AcDbPoint
 10
536.628836224001
 20
1564.578860420412
 30
0.0
  0
POINT
  5
114
330
30
100
AcDbEntity
  8
Defpoints
 62
     0
100
AcDbPoint
 10
536.628836224001
 20
564.5788604204129
 30
0.0
  0
POINT
  5
115
330
30
100
AcDbEntity
  8
Defpoints
 62
     0
100
AcDbPoint
 10
381.6288362240012
 20
564.5788604204129
 30
0.0
  0
ENDBLK
  5
118
330
30
100
AcDbEntity
  8
notes
390
1D
100
AcDbBlockEnd
  0
BLOCK
  5
119
330
31
100
AcDbEntity
  8
notes
390
1D
100
AcDbBlockBegin
  2
*D16
 70
     1
 10
0.0
 20
0.0
 30
0.0
  3
*D16
  1

  0
LINE
  5
11A
330
31
100
AcDbEntity
  8
notes
  6
Continuous
 62
     0
370
    -2
100
AcDbLine
 10
1001.628836224001
 20
1577.578860420412
 30
0.0
 11
1001.628836224001
 21
1664.578860420412
 31
0.0
  0
LINE
  5
11B
330
31
100
AcDbEntity
  8
notes
  6
Continuous
 62
     0
370
    -2
100
AcDbLine
 10
531.628836224001
 20
1577.578860420412
 30
0.0
 11
531.628836224001
 21
1664.578860420412
 31
0.0
  0
LINE
  5
11C
330
31
100
AcDbEntity
  8
notes
  6
Continuous
 62
     0
370
    -2
100
AcDbLine
 10
997.6290803646258
 20
1664.578860420412
 30
0.0
 11
535.628592083376
 21
1664.578860420412
 31
0.0
  0
INSERT
  5
11D
102
{ACAD_REACTORS
330
11E
102
}
330
31
100
AcDbEntity
  8
notes
 62
     0
370
    -2
100
AcDbBlockReference
  2
_DOT
 10
1001.628836224001
 20
1664.578860420412
 30
0.0
 41
3.999755859375
 42
3.999755859375
 43
3.999755859375
  0
INSERT
  5
11E
330
31
100
AcDbEntity
  8
notes
 62
     0
370
    -2
100
AcDbBlockReference
  2
_DOT
 10
531.628836224001
 20
1664.578860420412
 30
0.0
 41
3.999755859375
 42
3.999755859375
 43
3.999755859375
 50
180.0
  0
MTEXT
  5
11F
102
{ACAD_REACTORS
330
120
102
}
330
31
100
AcDbEntity
  8
notes
  6
Continuous
 62
     0
370
     5
100
AcDbMText
 10
766.6288362240009
 20
1681.795169014162
 30
0.0
 40
24.4326171875
 41
0.0
 46
0.0
 71
     5
 72
     1
  1
\A1;470
  7
ＭＳ ゴシック
 73
     1
 44
1.0
  0
POINT
  5
120
330
31
100
AcDbEntity
  8
Defpoints
 62
     0
100
AcDbPoint
 10
1001.628836224001
 20
1552.578860420412
 30
0.0
  0
POINT
  5
121
330
31
100
AcDbEntity
  8
Defpoints
 62
     0
100
AcDbPoint
 10
531.628836224001
 20
1552.578860420412
 30
0.0
  0
POINT
  5
122
330
31
100
AcDbEntity
  8
Defpoints
 62
     0
100
AcDbPoint
 10
531.628836224001
 20
1664.578860420412
 30
0.0
  0
ENDBLK
  5
125
330
31
100
AcDbEntity
  8
notes
390
1D
100
AcDbBlockEnd
  0
BLOCK
  5
126
330
32
100
AcDbEntity
  8
notes
390
1D
100
AcDbBlockBegin
  2
*D17
 70
     1
 10
0.0
 20
0.0
 30
0.0
  3
*D17
  1

  0
LINE
  5
127
330
32
100
AcDbEntity
  8
0
  6
Continuous
 62
     0
370
    -2
390
1D
100
AcDbLine
 10
-112.8036961636484
 20
39.55170268271954
 30
0.0
 11
-37.80369616364831
 21
39.55170268271954
 31
0.0
  0
LINE
  5
128
330
32
100
AcDbEntity
  8
0
  6
Continuous
 62
     0
370
    -2
390
1D
100
AcDbLine
 10
-112.8036961636484
 20
-890.4482973172801
 30
0.0
 11
-37.80369616364831
 21
-890.4482973172801
 31
0.0
  0
LINE
  5
129
330
32
100
AcDbEntity
  8
0
  6
Continuous
 62
     0
370
    -2
390
1D
100
AcDbLine
 10
-37.80369616364831
 20
39.55170268271954
 30
0.0
 11
-37.80369616364831
 21
-890.4482973172801
 31
0.0
  0
CIRCLE
  5
12A
102
{ACAD_REACTORS
330
12B
102
}
330
32
100
AcDbEntity
  8
0
  6
Continuous
 62
     0
370
    -2
390
1D
100
AcDbCircle
 10
-37.80369616364831
 20
39.55170268271954
 30
0.0
 40
1.9998779296875
  0
HATCH
  5
12B
330
32
100
AcDbEntity
  8
0
  6
Continuous
 62
     0
370
    -2
390
1D
100
AcDbHatch
 10
0.0
 20
0.0
 30
0.0
210
0.0
220
0.0
230
1.0
  2
SOLID
 70
     1
 71
     1
 91
        1
 92
        1
 93
        1
 72
     2
 10
-37.80369616364831
 20
39.55170268271954
 40
1.9998779296875
 50
0.0
 51
360.0
 73
     0
 97
        1
330
12A
 75
     0
 76
     1
 98
        1
 10
0.0
 20
0.0
  0
CIRCLE
  5
12C
102
{ACAD_REACTORS
330
12D
102
}
330
32
100
AcDbEntity
  8
0
  6
Continuous
 62
     0
370
    -2
390
1D
100
AcDbCircle
 10
-37.80369616364831
 20
-890.4482973172801
 30
0.0
 40
1.9998779296875
  0
HATCH
  5
12D
330
32
100
AcDbEntity
  8
0
  6
Continuous
 62
     0
370
    -2
390
1D
100
AcDbHatch
 10
0.0
 20
0.0
 30
0.0
210
0.0
220
0.0
230
1.0
  2
SOLID
 70
     1
 71
     1
 91
        1
 92
        1
 93
        1
 72
     2
 10
-37.80369616364831
 20
-890.4482973172801
 40
1.9998779296875
 50
0.0
 51
360.0
 73
     0
 97
        1
330
12C
 75
     0
 76
     1
 98
        1
 10
0.0
 20
0.0
  0
MTEXT
  5
12E
330
32
100
AcDbEntity
  8
0
 62
     0
390
1D
100
AcDbMText
 10
-71.68131335114832
 20
-449.2607989994558
 30
0.0
 40
24.4326171875
 41
0.0
 46
0.0
 71
     1
 72
     1
  1
930
  7
ＭＳ ゴシック
 11
0.0
 21
1.0
 31
0.0
 73
     1
 44
0.7828267384257843
  0
POINT
  5
12F
330
32
100
AcDbEntity
  8
Defpoints
 62
     0
370
     0
390
1D
100
AcDbPoint
 10
-137.8036961636484
 20
-890.4482973172801
 30
0.0
  0
POINT
  5
130
330
32
100
AcDbEntity
  8
Defpoints
 62
     0
370
     0
390
1D
100
AcDbPoint
 10
-137.8036961636484
 20
39.55170268271954
 30
0.0
  0
POINT
  5
131
330
32
100
AcDbEntity
  8
Defpoints
 62
     0
370
     0
390
1D
100
AcDbPoint
 10
-37.80369616364831
 20
39.55170268271954
 30
0.0
  0
ENDBLK
  5
132
330
32
100
AcDbEntity
  8
notes
390
1D
100
AcDbBlockEnd
  0
BLOCK
  5
133
330
33
100
AcDbEntity
  8
notes
390
1D
100
AcDbBlockBegin
  2
*D18
 70
     1
 10
0.0
 20
0.0
 30
0.0
  3
*D18
  1

  0
LINE
  5
134
330
33
100
AcDbEntity
  8
0
  6
Continuous
 62
     0
370
    -2
390
1D
100
AcDbLine
 10
-607.8036961636482
 20
-945.4482973172801
 30
0.0
 11
-607.8036961636482
 21
-1025.44829731728
 31
0.0
  0
LINE
  5
135
330
33
100
AcDbEntity
  8
0
  6
Continuous
 62
     0
370
    -2
390
1D
100
AcDbLine
 10
-482.8036961636482
 20
-950.44829731728
 30
0.0
 11
-482.8036961636482
 21
-1025.44829731728
 31
0.0
  0
LINE
  5
136
330
33
100
AcDbEntity
  8
0
  6
Continuous
 62
     0
370
    -2
390
1D
100
AcDbLine
 10
-607.8036961636482
 20
-1025.44829731728
 30
0.0
 11
-482.8036961636482
 21
-1025.44829731728
 31
0.0
  0
CIRCLE
  5
137
102
{ACAD_REACTORS
330
138
102
}
330
33
100
AcDbEntity
  8
0
  6
Continuous
 62
     0
370
    -2
390
1D
100
AcDbCircle
 10
-607.8036961636482
 20
-1025.44829731728
 30
0.0
 40
1.9998779296875
  0
HATCH
  5
138
330
33
100
AcDbEntity
  8
0
  6
Continuous
 62
     0
370
    -2
390
1D
100
AcDbHatch
 10
0.0
 20
0.0
 30
0.0
210
0.0
220
0.0
230
1.0
  2
SOLID
 70
     1
 71
     1
 91
        1
 92
        1
 93
        1
 72
     2
 10
-607.8036961636482
 20
-1025.44829731728
 40
1.9998779296875
 50
0.0
 51
360.0
 73
     0
 97
        1
330
137
 75
     0
 76
     1
 98
        1
 10
0.0
 20
0.0
  0
CIRCLE
  5
139
102
{ACAD_REACTORS
330
13A
102
}
330
33
100
AcDbEntity
  8
0
  6
Continuous
 62
     0
370
    -2
390
1D
100
AcDbCircle
 10
-482.8036961636482
 20
-1025.44829731728
 30
0.0
 40
1.9998779296875
  0
HATCH
  5
13A
330
33
100
AcDbEntity
  8
0
  6
Continuous
 62
     0
370
    -2
390
1D
100
AcDbHatch
 10
0.0
 20
0.0
 30
0.0
210
0.0
220
0.0
230
1.0
  2
SOLID
 70
     1
 71
     1
 91
        1
 92
        1
 93
        1
 72
     2
 10
-482.8036961636482
 20
-1025.44829731728
 40
1.9998779296875
 50
0.0
 51
360.0
 73
     0
 97
        1
330
139
 75
     0
 76
     1
 98
        1
 10
0.0
 20
0.0
  0
MTEXT
  5
13B
330
33
100
AcDbEntity
  8
0
 62
     0
390
1D
100
AcDbMText
 10
-569.1161978458236
 20
-991.5706801297799
 30
0.0
 40
24.4326171875
 41
0.0
 46
0.0
 71
     1
 72
     1
  1
125
  7
ＭＳ ゴシック
 73
     1
 44
0.7828267384257843
  0
POINT
  5
13C
330
33
100
AcDbEntity
  8
Defpoints
 62
     0
370
     0
390
1D
100
AcDbPoint
 10
-482.8036961636482
 20
-925.44829731728
 30
0.0
  0
POINT
  5
13D
330
33
100
AcDbEntity
  8
Defpoints
 62
     0
370
     0
390
1D
100
AcDbPoint
 10
-607.8036961636482
 20
-920.4482973172801
 30
0.0
  0
POINT
  5
13E
330
33
100
AcDbEntity
  8
Defpoints
 62
     0
370
     0
390
1D
100
AcDbPoint
 10
-607.8036961636482
 20
-1025.44829731728
 30
0.0
  0
ENDBLK
  5
13F
330
33
100
AcDbEntity
  8
notes
390
1D
100
AcDbBlockEnd
  0
BLOCK
  5
140
330
34
100
AcDbEntity
  8
notes
390
1D
100
AcDbBlockBegin
  2
*D19
 70
     1
 10
0.0
 20
0.0
 30
0.0
  3
*D19
  1

  0
LINE
  5
141
330
34
100
AcDbEntity
  8
0
  6
Continuous
 62
     0
370
    -2
390
1D
100
AcDbLine
 10
-482.803118915181
 20
-950.44829731728
 30
0.0
 11
-482.803118915181
 21
-1025.44829731728
 31
0.0
  0
LINE
  5
142
330
34
100
AcDbEntity
  8
0
  6
Continuous
 62
     0
370
    -2
390
1D
100
AcDbLine
 10
-172.8319383596255
 20
-950.44829731728
 30
0.0
 11
-172.8319383596255
 21
-1025.44829731728
 31
0.0
  0
LINE
  5
143
330
34
100
AcDbEntity
  8
0
  6
Continuous
 62
     0
370
    -2
390
1D
100
AcDbLine
 10
-482.803118915181
 20
-1025.44829731728
 30
0.0
 11
-172.8319383596255
 21
-1025.44829731728
 31
0.0
  0
CIRCLE
  5
144
102
{ACAD_REACTORS
330
145
102
}
330
34
100
AcDbEntity
  8
0
  6
Continuous
 62
     0
370
    -2
390
1D
100
AcDbCircle
 10
-482.803118915181
 20
-1025.44829731728
 30
0.0
 40
1.9998779296875
  0
HATCH
  5
145
330
34
100
AcDbEntity
  8
0
  6
Continuous
 62
     0
370
    -2
390
1D
100
AcDbHatch
 10
0.0
 20
0.0
 30
0.0
210
0.0
220
0.0
230
1.0
  2
SOLID
 70
     1
 71
     1
 91
        1
 92
        1
 93
        1
 72
     2
 10
-482.803118915181
 20
-1025.44829731728
 40
1.9998779296875
 50
0.0
 51
360.0
 73
     0
 97
        1
330
144
 75
     0
 76
     1
 98
        1
 10
0.0
 20
0.0
  0
CIRCLE
  5
146
102
{ACAD_REACTORS
330
147
102
}
330
34
100
AcDbEntity
  8
0
  6
Continuous
 62
     0
370
    -2
390
1D
100
AcDbCircle
 10
-172.8319383596255
 20
-1025.44829731728
 30
0.0
 40
1.9998779296875
  0
HATCH
  5
147
330
34
100
AcDbEntity
  8
0
  6
Continuous
 62
     0
370
    -2
390
1D
100
AcDbHatch
 10
0.0
 20
0.0
 30
0.0
210
0.0
220
0.0
230
1.0
  2
SOLID
 70
     1
 71
     1
 91
        1
 92
        1
 93
        1
 72
     2
 10
-172.8319383596255
 20
-1025.44829731728
 40
1.9998779296875
 50
0.0
 51
360.0
 73
     0
 97
        1
330
146
 75
     0
 76
     1
 98
        1
 10
0.0
 20
0.0
  0
MTEXT
  5
148
330
34
100
AcDbEntity
  8
0
 62
     0
390
1D
100
AcDbMText
 10
-351.6300303195787
 20
-991.5706801297799
 30
0.0
 40
24.4326171875
 41
0.0
 46
0.0
 71
     1
 72
     1
  1
310
  7
ＭＳ ゴシック
 73
     1
 44
0.7828267384257843
  0
POINT
  5
149
330
34
100
AcDbEntity
  8
Defpoints
 62
     0
370
     0
390
1D
100
AcDbPoint
 10
-172.8319383596255
 20
-925.44829731728
 30
0.0
  0
POINT
  5
14A
330
34
100
AcDbEntity
  8
Defpoints
 62
     0
370
     0
390
1D
100
AcDbPoint
 10
-482.803118915181
 20
-925.44829731728
 30
0.0
  0
POINT
  5
14B
330
34
100
AcDbEntity
  8
Defpoints
 62
     0
370
     0
390
1D
100
AcDbPoint
 10
-482.803118915181
 20
-1025.44829731728
 30
0.0
  0
ENDBLK
  5
14C
330
34
100
AcDbEntity
  8
notes
390
1D
100
AcDbBlockEnd
  0
BLOCK
  5
14D
330
35
100
AcDbEntity
  8
notes
390
1D
100
AcDbBlockBegin
  2
*D20
 70
     1
 10
0.0
 20
0.0
 30
0.0
  3
*D20
  1

  0
LINE
  5
14E
330
35
100
AcDbEntity
  8
0
  6
Continuous
 62
     0
370
    -2
390
1D
100
AcDbLine
 10
487.5480612138866
 20
-740.4317608589469
 30
0.0
 11
391.8501879499977
 21
-740.4317608589469
 31
0.0
  0
LINE
  5
14F
330
35
100
AcDbEntity
  8
0
  6
Continuous
 62
     0
370
    -2
390
1D
100
AcDbLine
 10
487.5480612138866
 20
-565.4317608589473
 30
0.0
 11
391.8501879499977
 21
-565.4317608589473
 31
0.0
  0
LINE
  5
150
330
35
100
AcDbEntity
  8
0
  6
Continuous
 62
     0
370
    -2
390
1D
100
AcDbLine
 10
391.8501879499977
 20
-740.4317608589469
 30
0.0
 11
391.8501879499977
 21
-565.4317608589473
 31
0.0
  0
CIRCLE
  5
151
102
{ACAD_REACTORS
330
152
102
}
330
35
100
AcDbEntity
  8
0
  6
Continuous
 62
     0
370
    -2
390
1D
100
AcDbCircle
 10
391.8501879499977
 20
-740.4317608589469
 30
0.0
 40
1.9998779296875
  0
HATCH
  5
152
330
35
100
AcDbEntity
  8
0
  6
Continuous
 62
     0
370
    -2
390
1D
100
AcDbHatch
 10
0.0
 20
0.0
 30
0.0
210
0.0
220
0.0
230
1.0
  2
SOLID
 70
     1
 71
     1
 91
        1
 92
        1
 93
        1
 72
     2
 10
391.8501879499977
 20
-740.4317608589469
 40
1.9998779296875
 50
0.0
 51
360.0
 73
     0
 97
        1
330
151
 75
     0
 76
     1
 98
        1
 10
0.0
 20
0.0
  0
CIRCLE
  5
153
102
{ACAD_REACTORS
330
154
102
}
330
35
100
AcDbEntity
  8
0
  6
Continuous
 62
     0
370
    -2
390
1D
100
AcDbCircle
 10
391.8501879499977
 20
-565.4317608589473
 30
0.0
 40
1.9998779296875
  0
HATCH
  5
154
330
35
100
AcDbEntity
  8
0
  6
Continuous
 62
     0
370
    -2
390
1D
100
AcDbHatch
 10
0.0
 20
0.0
 30
0.0
210
0.0
220
0.0
230
1.0
  2
SOLID
 70
     1
 71
     1
 91
        1
 92
        1
 93
        1
 72
     2
 10
391.8501879499977
 20
-565.4317608589473
 40
1.9998779296875
 50
0.0
 51
360.0
 73
     0
 97
        1
330
153
 75
     0
 76
     1
 98
        1
 10
0.0
 20
0.0
  0
MTEXT
  5
155
330
35
100
AcDbEntity
  8
0
 62
     0
390
1D
100
AcDbMText
 10
357.9725707624978
 20
-676.7442625411227
 30
0.0
 40
24.4326171875
 41
0.0
 46
0.0
 71
     1
 72
     1
  1
175
  7
ＭＳ ゴシック
 11
0.0
 21
1.0
 31
0.0
 73
     1
 44
0.7828267384257843
  0
POINT
  5
156
330
35
100
AcDbEntity
  8
Defpoints
 62
     0
370
     0
390
1D
100
AcDbPoint
 10
512.5480612138866
 20
-565.4317608589473
 30
0.0
  0
POINT
  5
157
330
35
100
AcDbEntity
  8
Defpoints
 62
     0
370
     0
390
1D
100
AcDbPoint
 10
512.5480612138866
 20
-740.4317608589469
 30
0.0
  0
POINT
  5
158
330
35
100
AcDbEntity
  8
Defpoints
 62
     0
370
     0
390
1D
100
AcDbPoint
 10
391.8501879499977
 20
-740.4317608589469
 30
0.0
  0
ENDBLK
  5
159
330
35
100
AcDbEntity
  8
notes
390
1D
100
AcDbBlockEnd
  0
BLOCK
  5
15A
330
36
100
AcDbEntity
  8
notes
390
1D
100
AcDbBlockBegin
  2
*D21
 70
     1
 10
0.0
 20
0.0
 30
0.0
  3
*D21
  1

  0
LINE
  5
15B
330
36
100
AcDbEntity
  8
0
  6
Continuous
 62
     0
370
    -2
390
1D
100
AcDbLine
 10
487.5480612138866
 20
-565.4317608589473
 30
0.0
 11
391.8501879499977
 21
-565.4317608589473
 31
0.0
  0
LINE
  5
15C
330
36
100
AcDbEntity
  8
0
  6
Continuous
 62
     0
370
    -2
390
1D
100
AcDbLine
 10
487.5480612138866
 20
-285.4317608589477
 30
0.0
 11
391.8501879499977
 21
-285.4317608589477
 31
0.0
  0
LINE
  5
15D
330
36
100
AcDbEntity
  8
0
  6
Continuous
 62
     0
370
    -2
390
1D
100
AcDbLine
 10
391.8501879499977
 20
-565.4317608589473
 30
0.0
 11
391.8501879499977
 21
-285.4317608589477
 31
0.0
  0
CIRCLE
  5
15E
102
{ACAD_REACTORS
330
15F
102
}
330
36
100
AcDbEntity
  8
0
  6
Continuous
 62
     0
370
    -2
390
1D
100
AcDbCircle
 10
391.8501879499977
 20
-565.4317608589473
 30
0.0
 40
1.9998779296875
  0
HATCH
  5
15F
330
36
100
AcDbEntity
  8
0
  6
Continuous
 62
     0
370
    -2
390
1D
100
AcDbHatch
 10
0.0
 20
0.0
 30
0.0
210
0.0
220
0.0
230
1.0
  2
SOLID
 70
     1
 71
     1
 91
        1
 92
        1
 93
        1
 72
     2
 10
391.8501879499977
 20
-565.4317608589473
 40
1.9998779296875
 50
0.0
 51
360.0
 73
     0
 97
        1
330
15E
 75
     0
 76
     1
 98
        1
 10
0.0
 20
0.0
  0
CIRCLE
  5
160
102
{ACAD_REACTORS
330
161
102
}
330
36
100
AcDbEntity
  8
0
  6
Continuous
 62
     0
370
    -2
390
1D
100
AcDbCircle
 10
391.8501879499977
 20
-285.4317608589477
 30
0.0
 40
1.9998779296875
  0
HATCH
  5
161
330
36
100
AcDbEntity
  8
0
  6
Continuous
 62
     0
370
    -2
390
1D
100
AcDbHatch
 10
0.0
 20
0.0
 30
0.0
210
0.0
220
0.0
230
1.0
  2
SOLID
 70
     1
 71
     1
 91
        1
 92
        1
 93
        1
 72
     2
 10
391.8501879499977
 20
-285.4317608589477
 40
1.9998779296875
 50
0.0
 51
360.0
 73
     0
 97
        1
330
160
 75
     0
 76
     1
 98
        1
 10
0.0
 20
0.0
  0
MTEXT
  5
162
330
36
100
AcDbEntity
  8
0
 62
     0
390
1D
100
AcDbMText
 10
357.9725707624978
 20
-435.8435238891021
 30
0.0
 40
24.4326171875
 41
0.0
 46
0.0
 71
     1
 72
     1
  1
280
  7
ＭＳ ゴシック
 11
0.0
 21
1.0
 31
0.0
 73
     1
 44
0.7828267384257843
  0
POINT
  5
163
330
36
100
AcDbEntity
  8
Defpoints
 62
     0
370
     0
390
1D
100
AcDbPoint
 10
512.5480612138866
 20
-285.4317608589477
 30
0.0
  0
POINT
  5
164
330
36
100
AcDbEntity
  8
Defpoints
 62
     0
370
     0
390
1D
100
AcDbPoint
 10
512.5480612138866
 20
-565.4317608589473
 30
0.0
  0
POINT
  5
165
330
36
100
AcDbEntity
  8
Defpoints
 62
     0
370
     0
390
1D
100
AcDbPoint
 10
391.8501879499977
 20
-565.4317608589473
 30
0.0
  0
ENDBLK
  5
166
330
36
100
AcDbEntity
  8
notes
390
1D
100
AcDbBlockEnd
  0
BLOCK
  5
167
330
37
100
AcDbEntity
  8
notes
390
1D
100
AcDbBlockBegin
  2
*D22
 70
     1
 10
0.0
 20
0.0
 30
0.0
  3
*D22
  1

  0
LINE
  5
168
330
37
100
AcDbEntity
  8
0
  6
Continuous
 62
     0
370
    -2
390
1D
100
AcDbLine
 10
487.5480612138866
 20
-285.4317608589477
 30
0.0
 11
391.8501879499977
 21
-285.4317608589477
 31
0.0
  0
LINE
  5
169
330
37
100
AcDbEntity
  8
0
  6
Continuous
 62
     0
370
    -2
390
1D
100
AcDbLine
 10
487.5480612138866
 20
-110.4317608589474
 30
0.0
 11
391.8501879499977
 21
-110.4317608589474
 31
0.0
  0
LINE
  5
16A
330
37
100
AcDbEntity
  8
0
  6
Continuous
 62
     0
370
    -2
390
1D
100
AcDbLine
 10
391.8501879499977
 20
-285.4317608589477
 30
0.0
 11
391.8501879499977
 21
-110.4317608589474
 31
0.0
  0
CIRCLE
  5
16B
102
{ACAD_REACTORS
330
16C
102
}
330
37
100
AcDbEntity
  8
0
  6
Continuous
 62
     0
370
    -2
390
1D
100
AcDbCircle
 10
391.8501879499977
 20
-285.4317608589477
 30
0.0
 40
1.9998779296875
  0
HATCH
  5
16C
330
37
100
AcDbEntity
  8
0
  6
Continuous
 62
     0
370
    -2
390
1D
100
AcDbHatch
 10
0.0
 20
0.0
 30
0.0
210
0.0
220
0.0
230
1.0
  2
SOLID
 70
     1
 71
     1
 91
        1
 92
        1
 93
        1
 72
     2
 10
391.8501879499977
 20
-285.4317608589477
 40
1.9998779296875
 50
0.0
 51
360.0
 73
     0
 97
        1
330
16B
 75
     0
 76
     1
 98
        1
 10
0.0
 20
0.0
  0
CIRCLE
  5
16D
102
{ACAD_REACTORS
330
16E
102
}
330
37
100
AcDbEntity
  8
0
  6
Continuous
 62
     0
370
    -2
390
1D
100
AcDbCircle
 10
391.8501879499977
 20
-110.4317608589474
 30
0.0
 40
1.9998779296875
  0
HATCH
  5
16E
330
37
100
AcDbEntity
  8
0
  6
Continuous
 62
     0
370
    -2
390
1D
100
AcDbHatch
 10
0.0
 20
0.0
 30
0.0
210
0.0
220
0.0
230
1.0
  2
SOLID
 70
     1
 71
     1
 91
        1
 92
        1
 93
        1
 72
     2
 10
391.8501879499977
 20
-110.4317608589474
 40
1.9998779296875
 50
0.0
 51
360.0
 73
     0
 97
        1
330
16D
 75
     0
 76
     1
 98
        1
 10
0.0
 20
0.0
  0
MTEXT
  5
16F
330
37
100
AcDbEntity
  8
0
 62
     0
390
1D
100
AcDbMText
 10
357.9725707624978
 20
-221.7442625411231
 30
0.0
 40
24.4326171875
 41
0.0
 46
0.0
 71
     1
 72
     1
  1
175
  7
ＭＳ ゴシック
 11
0.0
 21
1.0
 31
0.0
 73
     1
 44
0.7828267384257843
  0
POINT
  5
170
330
37
100
AcDbEntity
  8
Defpoints
 62
     0
370
     0
390
1D
100
AcDbPoint
 10
512.5480612138866
 20
-110.4317608589474
 30
0.0
  0
POINT
  5
171
330
37
100
AcDbEntity
  8
Defpoints
 62
     0
370
     0
390
1D
100
AcDbPoint
 10
512.5480612138866
 20
-285.4317608589477
 30
0.0
  0
POINT
  5
172
330
37
100
AcDbEntity
  8
Defpoints
 62
     0
370
     0
390
1D
100
AcDbPoint
 10
391.8501879499977
 20
-285.4317608589477
 30
0.0
  0
ENDBLK
  5
173
330
37
100
AcDbEntity
  8
notes
390
1D
100
AcDbBlockEnd
  0
BLOCK
  5
174
330
38
100
AcDbEntity
  8
notes
390
1D
100
AcDbBlockBegin
  2
*D23
 70
     1
 10
0.0
 20
0.0
 30
0.0
  3
*D23
  1

  0
LINE
  5
175
330
38
100
AcDbEntity
  8
notes
  6
Continuous
 62
     0
370
    -2
100
AcDbLine
 10
1686.332532387649
 20
704.595396878746
 30
0.0
 11
1686.332532387649
 21
464.5788604204129
 31
0.0
  0
LINE
  5
176
330
38
100
AcDbEntity
  8
notes
  6
Continuous
 62
     0
370
    -2
100
AcDbLine
 10
1631.282720337647
 20
549.5953968787461
 30
0.0
 11
1631.282720337647
 21
464.5788604204129
 31
0.0
  0
LINE
  5
177
330
38
100
AcDbEntity
  8
notes
  6
Continuous
 62
     0
370
    -2
100
AcDbLine
 10
1682.332776528274
 20
464.5788604204129
 30
0.0
 11
1635.282476197022
 21
464.5788604204129
 31
0.0
  0
INSERT
  5
178
102
{ACAD_REACTORS
330
179
102
}
330
38
100
AcDbEntity
  8
notes
 62
     0
370
    -2
100
AcDbBlockReference
  2
_DOT
 10
1686.332532387649
 20
464.5788604204129
 30
0.0
 41
3.999755859375
 42
3.999755859375
 43
3.999755859375
  0
INSERT
  5
179
330
38
100
AcDbEntity
  8
notes
 62
     0
370
    -2
100
AcDbBlockReference
  2
_DOT
 10
1631.282720337647
 20
464.5788604204129
 30
0.0
 41
3.999755859375
 42
3.999755859375
 43
3.999755859375
 50
180.0
  0
MTEXT
  5
17A
102
{ACAD_REACTORS
330
17B
102
}
330
38
100
AcDbEntity
  8
notes
  6
Continuous
 62
     0
370
     5
100
AcDbMText
 10
1658.807626362648
 20
481.7951690141629
 30
0.0
 40
24.4326171875
 41
0.0
 46
0.0
 71
     5
 72
     1
  1
\A1;55
  7
ＭＳ ゴシック
 73
     1
 44
1.0
  0
POINT
  5
17B
330
38
100
AcDbEntity
  8
Defpoints
 62
     0
100
AcDbPoint
 10
1686.332532387649
 20
729.595396878746
 30
0.0
  0
POINT
  5
17C
330
38
100
AcDbEntity
  8
Defpoints
 62
     0
100
AcDbPoint
 10
1631.282720337647
 20
574.5953968787461
 30
0.0
  0
POINT
  5
17D
330
38
100
AcDbEntity
  8
Defpoints
 62
     0
100
AcDbPoint
 10
1631.282720337647
 20
464.5788604204129
 30
0.0
  0
ENDBLK
  5
180
330
38
100
AcDbEntity
  8
notes
390
1D
100
AcDbBlockEnd
  0
BLOCK
  5
181
330
39
100
AcDbEntity
  8
notes
390
1D
100
AcDbBlockBegin
  2
*D24
 70
     1
 10
0.0
 20
0.0
 30
0.0
  3
*D24
  1

  0
LINE
  5
182
330
39
100
AcDbEntity
  8
notes
  6
Continuous
 62
     0
370
    -2
100
AcDbLine
 10
1806.43253238765
 20
1129.440513517664
 30
0.0
 11
1806.43253238765
 21
1664.595396878746
 31
0.0
  0
LINE
  5
183
330
39
100
AcDbEntity
  8
notes
  6
Continuous
 62
     0
370
    -2
100
AcDbLine
 10
1631.432532387649
 20
1579.595396878746
 30
0.0
 11
1631.432532387649
 21
1664.595396878746
 31
0.0
  0
LINE
  5
184
330
39
100
AcDbEntity
  8
notes
  6
Continuous
 62
     0
370
    -2
100
AcDbLine
 10
1802.432776528275
 20
1664.595396878746
 30
0.0
 11
1635.432288247024
 21
1664.595396878746
 31
0.0
  0
INSERT
  5
185
102
{ACAD_REACTORS
330
186
102
}
330
39
100
AcDbEntity
  8
notes
 62
     0
370
    -2
100
AcDbBlockReference
  2
_DOT
 10
1806.43253238765
 20
1664.595396878746
 30
0.0
 41
3.999755859375
 42
3.999755859375
 43
3.999755859375
  0
INSERT
  5
186
330
39
100
AcDbEntity
  8
notes
 62
     0
370
    -2
100
AcDbBlockReference
  2
_DOT
 10
1631.432532387649
 20
1664.595396878746
 30
0.0
 41
3.999755859375
 42
3.999755859375
 43
3.999755859375
 50
180.0
  0
MTEXT
  5
187
102
{ACAD_REACTORS
330
188
102
}
330
39
100
AcDbEntity
  8
notes
  6
Continuous
 62
     0
370
     5
100
AcDbMText
 10
1718.93253238765
 20
1681.811705472496
 30
0.0
 40
24.4326171875
 41
0.0
 46
0.0
 71
     5
 72
     1
  1
\A1;175
  7
ＭＳ ゴシック
 73
     1
 44
1.0
  0
POINT
  5
188
330
39
100
AcDbEntity
  8
Defpoints
 62
     0
100
AcDbPoint
 10
1806.43253238765
 20
1104.440513517664
 30
0.0
  0
POINT
  5
189
330
39
100
AcDbEntity
  8
Defpoints
 62
     0
100
AcDbPoint
 10
1631.432532387649
 20
1554.595396878746
 30
0.0
  0
POINT
  5
18A
330
39
100
AcDbEntity
  8
Defpoints
 62
     0
100
AcDbPoint
 10
1631.432532387649
 20
1664.595396878746
 30
0.0
  0
ENDBLK
  5
18D
330
39
100
AcDbEntity
  8
notes
390
1D
100
AcDbBlockEnd
  0
BLOCK
  5
18E
330
3A
100
AcDbEntity
  8
notes
390
1D
100
AcDbBlockBegin
  2
*D25
 70
     1
 10
0.0
 20
0.0
 30
0.0
  3
*D25
  1

  0
LINE
  5
18F
330
3A
100
AcDbEntity
  8
notes
  6
Continuous
 62
     0
370
    -2
100
AcDbLine
 10
1766.049473016608
 20
2059.158295069714
 30
0.0
 11
1766.049473016608
 21
1973.465967693109
 31
0.0
  0
LINE
  5
190
330
3A
100
AcDbEntity
  8
notes
  6
Continuous
 62
     0
370
    -2
100
AcDbLine
 10
1631.049473016608
 20
2058.465967693109
 30
0.0
 11
1631.049473016608
 21
1973.465967693109
 31
0.0
  0
LINE
  5
191
330
3A
100
AcDbEntity
  8
notes
  6
Continuous
 62
     0
370
    -2
100
AcDbLine
 10
1762.049717157233
 20
1973.465967693109
 30
0.0
 11
1635.049228875983
 21
1973.465967693109
 31
0.0
  0
INSERT
  5
192
102
{ACAD_REACTORS
330
193
102
}
330
3A
100
AcDbEntity
  8
notes
 62
     0
370
    -2
100
AcDbBlockReference
  2
_DOT
 10
1766.049473016608
 20
1973.465967693109
 30
0.0
 41
3.999755859375
 42
3.999755859375
 43
3.999755859375
  0
INSERT
  5
193
330
3A
100
AcDbEntity
  8
notes
 62
     0
370
    -2
100
AcDbBlockReference
  2
_DOT
 10
1631.049473016608
 20
1973.465967693109
 30
0.0
 41
3.999755859375
 42
3.999755859375
 43
3.999755859375
 50
180.0
  0
MTEXT
  5
194
102
{ACAD_REACTORS
330
195
102
}
330
3A
100
AcDbEntity
  8
notes
  6
Continuous
 62
     0
370
     5
100
AcDbMText
 10
1698.549473016608
 20
1990.682276286859
 30
0.0
 40
24.4326171875
 41
0.0
 46
0.0
 71
     5
 72
     1
  1
\A1;135
  7
ＭＳ ゴシック
 73
     1
 44
1.0
  0
POINT
  5
195
330
3A
100
AcDbEntity
  8
Defpoints
 62
     0
100
AcDbPoint
 10
1766.049473016608
 20
2084.158295069714
 30
0.0
  0
POINT
  5
196
330
3A
100
AcDbEntity
  8
Defpoints
 62
     0
100
AcDbPoint
 10
1631.049473016608
 20
2083.465967693109
 30
0.0
  0
POINT
  5
197
330
3A
100
AcDbEntity
  8
Defpoints
 62
     0
100
AcDbPoint
 10
1631.049473016608
 20
1973.465967693109
 30
0.0
  0
ENDBLK
  5
19A
330
3A
100
AcDbEntity
  8
notes
390
1D
100
AcDbBlockEnd
  0
BLOCK
  5
19B
330
3B
100
AcDbEntity
  8
notes
390
1D
100
AcDbBlockBegin
  2
*D26
 70
     1
 10
0.0
 20
0.0
 30
0.0
  3
*D26
  1

  0
LINE
  5
19C
330
3B
100
AcDbEntity
  8
notes
  6
Continuous
 62
     0
370
    -2
100
AcDbLine
 10
1806.021230820631
 20
2288.26596769311
 30
0.0
 11
1806.021230820631
 21
1973.458167335081
 31
0.0
  0
LINE
  5
19D
330
3B
100
AcDbEntity
  8
notes
  6
Continuous
 62
     0
370
    -2
100
AcDbLine
 10
1766.049473016608
 20
2059.158295069714
 30
0.0
 11
1766.049473016608
 21
1973.458167335081
 31
0.0
  0
LINE
  5
19E
330
3B
100
AcDbEntity
  8
notes
  6
Continuous
 62
     0
370
    -2
100
AcDbLine
 10
1802.021474961256
 20
1973.458167335081
 30
0.0
 11
1770.049228875983
 21
1973.458167335081
 31
0.0
  0
INSERT
  5
19F
102
{ACAD_REACTORS
330
1A0
102
}
330
3B
100
AcDbEntity
  8
notes
 62
     0
370
    -2
100
AcDbBlockReference
  2
_DOT
 10
1806.021230820631
 20
1973.458167335081
 30
0.0
 41
3.999755859375
 42
3.999755859375
 43
3.999755859375
  0
INSERT
  5
1A0
330
3B
100
AcDbEntity
  8
notes
 62
     0
370
    -2
100
AcDbBlockReference
  2
_DOT
 10
1766.049473016608
 20
1973.458167335081
 30
0.0
 41
3.999755859375
 42
3.999755859375
 43
3.999755859375
 50
180.0
  0
MTEXT
  5
1A1
102
{ACAD_REACTORS
330
1A2
102
}
330
3B
100
AcDbEntity
  8
notes
  6
Continuous
 62
     0
370
     5
100
AcDbMText
 10
1786.035351918619
 20
1990.674475928831
 30
0.0
 40
24.4326171875
 41
0.0
 46
0.0
 71
     5
 72
     1
  1
\A1;40
  7
ＭＳ ゴシック
 73
     1
 44
1.0
  0
POINT
  5
1A2
330
3B
100
AcDbEntity
  8
Defpoints
 62
     0
100
AcDbPoint
 10
1806.021230820631
 20
2313.26596769311
 30
0.0
  0
POINT
  5
1A3
330
3B
100
AcDbEntity
  8
Defpoints
 62
     0
100
AcDbPoint
 10
1766.049473016608
 20
2084.158295069714
 30
0.0
  0
POINT
  5
1A4
330
3B
100
AcDbEntity
  8
Defpoints
 62
     0
100
AcDbPoint
 10
1766.049473016608
 20
1973.458167335081
 30
0.0
  0
ENDBLK
  5
1A7
330
3B
100
AcDbEntity
  8
notes
390
1D
100
AcDbBlockEnd
  0
BLOCK
  5
1A8
330
3C
100
AcDbEntity
  8
notes
390
1D
100
AcDbBlockBegin
  2
*D27
 70
     1
 10
0.0
 20
0.0
 30
0.0
  3
*D27
  1

  0
LINE
  5
1A9
330
3C
100
AcDbEntity
  8
0
  6
Continuous
 62
     0
370
    -2
390
1D
100
AcDbLine
 10
491.6169406289588
 20
869.9388099554175
 30
0.0
 11
491.6169406289588
 21
849.895934517588
 31
0.0
  0
LINE
  5
1AA
330
3C
100
AcDbEntity
  8
0
  6
Continuous
 62
     0
370
    -2
390
1D
100
AcDbLine
 10
616.6169406289588
 20
869.9388099554175
 30
0.0
 11
616.6169406289588
 21
849.895934517588
 31
0.0
  0
LINE
  5
1AB
330
3C
100
AcDbEntity
  8
0
  6
Continuous
 62
     0
370
    -2
390
1D
100
AcDbLine
 10
491.6169406289588
 20
849.895934517588
 30
0.0
 11
337.9166230816534
 21
849.895934517588
 31
0.0
  0
LINE
  5
1AC
330
3C
100
AcDbEntity
  8
0
  6
Continuous
 62
     0
370
    -2
390
1D
100
AcDbLine
 10
491.6169406289588
 20
849.895934517588
 30
0.0
 11
616.6169406289588
 21
849.895934517588
 31
0.0
  0
CIRCLE
  5
1AD
102
{ACAD_REACTORS
330
1AE
102
}
330
3C
100
AcDbEntity
  8
0
  6
Continuous
 62
     0
370
    -2
390
1D
100
AcDbCircle
 10
491.6169406289588
 20
849.895934517588
 30
0.0
 40
1.9998779296875
  0
HATCH
  5
1AE
330
3C
100
AcDbEntity
  8
0
  6
Continuous
 62
     0
370
    -2
390
1D
100
AcDbHatch
 10
0.0
 20
0.0
 30
0.0
210
0.0
220
0.0
230
1.0
  2
SOLID
 70
     1
 71
     1
 91
        1
 92
        1
 93
        1
 72
     2
 10
491.6169406289588
 20
849.895934517588
 40
1.9998779296875
 50
0.0
 51
360.0
 73
     0
 97
        1
330
1AD
 75
     0
 76
     1
 98
        1
 10
0.0
 20
0.0
  0
CIRCLE
  5
1AF
102
{ACAD_REACTORS
330
1B0
102
}
330
3C
100
AcDbEntity
  8
0
  6
Continuous
 62
     0
370
    -2
390
1D
100
AcDbCircle
 10
616.6169406289588
 20
849.895934517588
 30
0.0
 40
1.9998779296875
  0
HATCH
  5
1B0
330
3C
100
AcDbEntity
  8
0
  6
Continuous
 62
     0
370
    -2
390
1D
100
AcDbHatch
 10
0.0
 20
0.0
 30
0.0
210
0.0
220
0.0
230
1.0
  2
SOLID
 70
     1
 71
     1
 91
        1
 92
        1
 93
        1
 72
     2
 10
616.6169406289588
 20
849.895934517588
 40
1.9998779296875
 50
0.0
 51
360.0
 73
     0
 97
        1
330
1AF
 75
     0
 76
     1
 98
        1
 10
0.0
 20
0.0
  0
MTEXT
  5
1B1
330
3C
100
AcDbEntity
  8
0
 62
     0
390
1D
100
AcDbMText
 10
337.9166230816534
 20
883.7735517050879
 30
0.0
 40
24.4326171875
 41
0.0
 46
0.0
 71
     1
 72
     1
  1
125(深さ)
  7
ＭＳ ゴシック
 73
     1
 44
0.7828267384257843
  0
POINT
  5
1B2
330
3C
100
AcDbEntity
  8
Defpoints
 62
     0
370
     0
390
1D
100
AcDbPoint
 10
616.6169406289588
 20
844.9388099554175
 30
0.0
  0
POINT
  5
1B3
330
3C
100
AcDbEntity
  8
Defpoints
 62
     0
370
     0
390
1D
100
AcDbPoint
 10
491.6169406289588
 20
844.9388099554175
 30
0.0
  0
POINT
  5
1B4
330
3C
100
AcDbEntity
  8
Defpoints
 62
     0
370
     0
390
1D
100
AcDbPoint
 10
491.6169406289588
 20
849.895934517588
 30
0.0
  0
ENDBLK
  5
1B5
330
3C
100
AcDbEntity
  8
notes
390
1D
100
AcDbBlockEnd
  0
BLOCK
  5
1B6
330
3D
100
AcDbEntity
  8
notes
390
1D
100
AcDbBlockBegin
  2
*D28
 70
     1
 10
0.0
 20
0.0
 30
0.0
  3
*D28
  1

  0
LINE
  5
1B7
330
3D
100
AcDbEntity
  8
notes
  6
Continuous
 62
     0
370
    -2
100
AcDbLine
 10
1821.049473016608
 20
2348.465967693111
 30
0.0
 11
1906.044171401842
 21
2348.465967693111
 31
0.0
  0
LINE
  5
1B8
330
3D
100
AcDbEntity
  8
notes
  6
Continuous
 62
     0
370
    -2
100
AcDbLine
 10
1776.049473016608
 20
2543.465967693111
 30
0.0
 11
1906.044171401842
 21
2543.465967693111
 31
0.0
  0
LINE
  5
1B9
330
3D
100
AcDbEntity
  8
notes
  6
Continuous
 62
     0
370
    -2
100
AcDbLine
 10
1906.044171401842
 20
2352.465723552486
 30
0.0
 11
1906.044171401842
 21
2539.466211833736
 31
0.0
  0
INSERT
  5
1BA
102
{ACAD_REACTORS
330
1BB
102
}
330
3D
100
AcDbEntity
  8
notes
 62
     0
370
    -2
100
AcDbBlockReference
  2
_DOT
 10
1906.044171401842
 20
2348.465967693111
 30
0.0
 41
3.999755859375
 42
3.999755859375
 43
3.999755859375
 50
270.0
  0
INSERT
  5
1BB
330
3D
100
AcDbEntity
  8
notes
 62
     0
370
    -2
100
AcDbBlockReference
  2
_DOT
 10
1906.044171401842
 20
2543.465967693111
 30
0.0
 41
3.999755859375
 42
3.999755859375
 43
3.999755859375
 50
90.0
  0
MTEXT
  5
1BC
102
{ACAD_REACTORS
330
1BD
102
}
330
3D
100
AcDbEntity
  8
notes
  6
Continuous
 62
     0
370
     5
100
AcDbMText
 10
1888.827862808092
 20
2445.965967693111
 30
0.0
 40
24.4326171875
 41
0.0
 46
0.0
 71
     5
 72
     1
  1
\A1;195
  7
ＭＳ ゴシック
 11
0.0
 21
1.0
 31
0.0
 73
     1
 44
1.0
  0
POINT
  5
1BD
330
3D
100
AcDbEntity
  8
Defpoints
 62
     0
100
AcDbPoint
 10
1796.049473016608
 20
2348.465967693111
 30
0.0
  0
POINT
  5
1BE
330
3D
100
AcDbEntity
  8
Defpoints
 62
     0
100
AcDbPoint
 10
1751.049473016608
 20
2543.465967693111
 30
0.0
  0
POINT
  5
1BF
330
3D
100
AcDbEntity
  8
Defpoints
 62
     0
100
AcDbPoint
 10
1906.044171401842
 20
2543.465967693111
 30
0.0
  0
ENDBLK
  5
1C2
330
3D
100
AcDbEntity
  8
notes
390
1D
100
AcDbBlockEnd
  0
BLOCK
  5
1C3
330
3E
100
AcDbEntity
  8
notes
390
1D
100
AcDbBlockBegin
  2
*D29
 70
     1
 10
0.0
 20
0.0
 30
0.0
  3
*D29
  1

  0
LINE
  5
1C4
330
3E
100
AcDbEntity
  8
notes
  6
Continuous
 62
     0
370
    -2
100
AcDbLine
 10
1616.049473016608
 20
2543.465967693111
 30
0.0
 11
1531.049473016608
 21
2543.465967693111
 31
0.0
  0
LINE
  5
1C5
330
3E
100
AcDbEntity
  8
notes
  6
Continuous
 62
     0
370
    -2
100
AcDbLine
 10
1606.049473016608
 20
2478.464099576111
 30
0.0
 11
1531.049473016608
 21
2478.464099576111
 31
0.0
  0
LINE
  5
1C6
330
3E
100
AcDbEntity
  8
notes
  6
Continuous
 62
     0
370
    -2
100
AcDbLine
 10
1531.049473016608
 20
2539.466211833736
 30
0.0
 11
1531.049473016608
 21
2482.463855435486
 31
0.0
  0
INSERT
  5
1C7
102
{ACAD_REACTORS
330
1C8
102
}
330
3E
100
AcDbEntity
  8
notes
 62
     0
370
    -2
100
AcDbBlockReference
  2
_DOT
 10
1531.049473016608
 20
2543.465967693111
 30
0.0
 41
3.999755859375
 42
3.999755859375
 43
3.999755859375
 50
90.0
  0
INSERT
  5
1C8
330
3E
100
AcDbEntity
  8
notes
 62
     0
370
    -2
100
AcDbBlockReference
  2
_DOT
 10
1531.049473016608
 20
2478.464099576111
 30
0.0
 41
3.999755859375
 42
3.999755859375
 43
3.999755859375
 50
270.0
  0
MTEXT
  5
1C9
102
{ACAD_REACTORS
330
1CA
102
}
330
3E
100
AcDbEntity
  8
notes
  6
Continuous
 62
     0
370
     5
100
AcDbMText
 10
1513.833164422858
 20
2510.965033634611
 30
0.0
 40
24.4326171875
 41
0.0
 46
0.0
 71
     5
 72
     1
  1
\A1;65
  7
ＭＳ ゴシック
 11
0.0
 21
1.0
 31
0.0
 73
     1
 44
1.0
  0
POINT
  5
1CA
330
3E
100
AcDbEntity
  8
Defpoints
 62
     0
100
AcDbPoint
 10
1641.049473016608
 20
2543.465967693111
 30
0.0
  0
POINT
  5
1CB
330
3E
100
AcDbEntity
  8
Defpoints
 62
     0
100
AcDbPoint
 10
1631.049473016608
 20
2478.464099576111
 30
0.0
  0
POINT
  5
1CC
330
3E
100
AcDbEntity
  8
Defpoints
 62
     0
100
AcDbPoint
 10
1531.049473016608
 20
2478.464099576111
 30
0.0
  0
ENDBLK
  5
1CF
330
3E
100
AcDbEntity
  8
notes
390
1D
100
AcDbBlockEnd
  0
BLOCK
  5
2FC
330
2FB
100
AcDbEntity
  8
0
100
AcDbBlockBegin
  2
*D30
 70
     1
 10
0.0
 20
0.0
 30
0.0
  3
*D30
  1

  0
LINE
  5
2FE
330
2FB
100
AcDbEntity
  8
notes
  6
Continuous
 62
     0
370
    -2
100
AcDbLine
 10
935.2368935475391
 20
2044.770192064179
 30
0.0
 11
1157.775143988443
 21
1536.243300574084
 31
0.0
  0
MTEXT
  5
2FF
330
2FB
100
AcDbEntity
  8
notes
  6
Continuous
 62
     0
370
     5
100
AcDbMText
 10
1111.471211376386
 20
1690.390390922579
 30
0.0
 40
24.4326171875
 41
0.0
 46
0.0
 71
     5
 72
     1
  1
\A1;%%c10(固定金具用2ヶ所)
  7
ＭＳ ゴシック
 11
0.4009061334457669
 21
-0.9161191364476376
 31
0.0
 73
     1
 44
1.0
  0
INSERT
  5
300
330
2FB
100
AcDbEntity
  8
notes
 62
     0
370
    -2
100
AcDbBlockReference
  2
_DOT
 10
933.63336689123
 20
2048.434444948071
 30
0.0
 41
3.999755859375
 42
3.999755859375
 43
3.999755859375
 50
113.6348374838562
  0
POINT
  5
301
330
2FB
100
AcDbEntity
  8
Defpoints
 62
     0
100
AcDbPoint
 10
933.63336689123
 20
2048.434444948071
 30
0.0
  0
POINT
  5
302
330
2FB
100
AcDbEntity
  8
Defpoints
 62
     0
100
AcDbPoint
 10
929.6243055567719
 20
2057.595636312548
 30
0.0
  0
ENDBLK
  5
2FD
330
2FB
100
AcDbEntity
  8
0
100
AcDbBlockEnd
  0
BLOCK
  5
304
330
303
100
AcDbEntity
  8
0
100
AcDbBlockBegin
  2
*D31
 70
     1
 10
0.0
 20
0.0
 30
0.0
  3
*D31
  1

  0
LINE
  5
306
330
303
100
AcDbEntity
  8
notes
  6
Continuous
 62
     0
370
    -2
100
AcDbLine
 10
531.628836224001
 20
2578.01504063031
 30
0.0
 11
531.628836224001
 21
2678.01504063031
 31
0.0
  0
LINE
  5
307
330
303
100
AcDbEntity
  8
notes
  6
Continuous
 62
     0
370
    -2
100
AcDbLine
 10
561.628836224001
 20
2578.01504063031
 30
0.0
 11
561.628836224001
 21
2678.01504063031
 31
0.0
  0
LINE
  5
308
330
303
100
AcDbEntity
  8
notes
  6
Continuous
 62
     0
370
    -2
100
AcDbLine
 10
535.628592083376
 20
2678.01504063031
 30
0.0
 11
557.629080364626
 21
2678.01504063031
 31
0.0
  0
INSERT
  5
309
330
303
100
AcDbEntity
  8
notes
 62
     0
370
    -2
100
AcDbBlockReference
  2
_DOT
 10
531.628836224001
 20
2678.01504063031
 30
0.0
 41
3.999755859375
 42
3.999755859375
 43
3.999755859375
 50
180.0
  0
INSERT
  5
30A
330
303
100
AcDbEntity
  8
notes
 62
     0
370
    -2
100
AcDbBlockReference
  2
_DOT
 10
561.628836224001
 20
2678.01504063031
 30
0.0
 41
3.999755859375
 42
3.999755859375
 43
3.999755859375
  0
MTEXT
  5
30B
330
303
100
AcDbEntity
  8
notes
  6
Continuous
 62
     0
370
     5
100
AcDbMText
 10
497.4325323876492
 20
2683.01504063031
 30
0.0
 40
24.4326171875
 41
0.0
 46
0.0
 71
     5
 72
     1
  1
\A1;30
  7
ＭＳ ゴシック
 73
     1
 44
1.0
  0
POINT
  5
30C
330
303
100
AcDbEntity
  8
Defpoints
 62
     0
100
AcDbPoint
 10
531.628836224001
 20
2553.01504063031
 30
0.0
  0
POINT
  5
30D
330
303
100
AcDbEntity
  8
Defpoints
 62
     0
100
AcDbPoint
 10
561.628836224001
 20
2553.01504063031
 30
0.0
  0
POINT
  5
30E
330
303
100
AcDbEntity
  8
Defpoints
 62
     0
100
AcDbPoint
 10
561.628836224001
 20
2678.01504063031
 30
0.0
  0
ENDBLK
  5
305
330
303
100
AcDbEntity
  8
0
100
AcDbBlockEnd
  0
BLOCK
  5
310
330
30F
100
AcDbEntity
  8
0
100
AcDbBlockBegin
  2
*D32
 70
     1
 10
0.0
 20
0.0
 30
0.0
  3
*D32
  1

  0
LINE
  5
312
330
30F
100
AcDbEntity
  8
notes
  6
Continuous
 62
     0
370
    -2
100
AcDbLine
 10
1026.628836224001
 20
599.5788604204129
 30
0.0
 11
1101.628836224001
 21
599.5788604204129
 31
0.0
  0
LINE
  5
313
330
30F
100
AcDbEntity
  8
notes
  6
Continuous
 62
     0
370
    -2
100
AcDbLine
 10
1026.628836224001
 20
1529.578860420412
 30
0.0
 11
1101.628836224001
 21
1529.578860420412
 31
0.0
  0
LINE
  5
314
330
30F
100
AcDbEntity
  8
notes
  6
Continuous
 62
     0
370
    -2
100
AcDbLine
 10
1101.628836224001
 20
603.5786162797879
 30
0.0
 11
1101.628836224001
 21
1037.186366768069
 31
0.0
  0
LINE
  5
315
330
30F
100
AcDbEntity
  8
notes
  6
Continuous
 62
     0
370
    -2
100
AcDbLine
 10
1101.628836224001
 20
1525.579104561037
 30
0.0
 11
1101.628836224001
 21
1091.971354072756
 31
0.0
  0
INSERT
  5
316
330
30F
100
AcDbEntity
  8
notes
 62
     0
370
    -2
100
AcDbBlockReference
  2
_DOT
 10
1101.628836224001
 20
599.5788604204129
 30
0.0
 41
3.999755859375
 42
3.999755859375
 43
3.999755859375
 50
270.0
  0
INSERT
  5
317
330
30F
100
AcDbEntity
  8
notes
 62
     0
370
    -2
100
AcDbBlockReference
  2
_DOT
 10
1101.628836224001
 20
1529.578860420412
 30
0.0
 41
3.999755859375
 42
3.999755859375
 43
3.999755859375
 50
90.0
  0
MTEXT
  5
318
330
30F
100
AcDbEntity
  8
notes
  6
Continuous
 62
     0
370
     5
100
AcDbMText
 10
1106.628836224001
 20
1064.578860420413
 30
0.0
 40
24.4326171875
 41
0.0
 46
0.0
 71
     5
 72
     1
  1
\A1;930
  7
ＭＳ ゴシック
 11
0.0
 21
1.0
 31
0.0
 73
     1
 44
1.0
  0
POINT
  5
319
330
30F
100
AcDbEntity
  8
Defpoints
 62
     0
100
AcDbPoint
 10
1001.628836224001
 20
599.5788604204129
 30
0.0
  0
POINT
  5
31A
330
30F
100
AcDbEntity
  8
Defpoints
 62
     0
100
AcDbPoint
 10
1001.628836224001
 20
1529.578860420412
 30
0.0
  0
POINT
  5
31B
330
30F
100
AcDbEntity
  8
Defpoints
 62
     0
100
AcDbPoint
 10
1101.628836224001
 20
1529.578860420412
 30
0.0
  0
ENDBLK
  5
311
330
30F
100
AcDbEntity
  8
0
100
AcDbBlockEnd
  0
BLOCK
  5
31D
330
31C
100
AcDbEntity
  8
0
100
AcDbBlockBegin
  2
*D33
 70
     1
 10
0.0
 20
0.0
 30
0.0
  3
*D33
  1

  0
LINE
  5
31F
330
31C
100
AcDbEntity
  8
notes
  6
Continuous
 62
     0
370
    -2
100
AcDbLine
 10
656.6288362240009
 20
539.578860420413
 30
0.0
 11
656.6288362240009
 21
464.5788604204129
 31
0.0
  0
LINE
  5
320
330
31C
100
AcDbEntity
  8
notes
  6
Continuous
 62
     0
370
    -2
100
AcDbLine
 10
531.628836224001
 20
544.5788604204129
 30
0.0
 11
531.628836224001
 21
464.5788604204129
 31
0.0
  0
LINE
  5
321
330
31C
100
AcDbEntity
  8
notes
  6
Continuous
 62
     0
370
    -2
100
AcDbLine
 10
652.6290803646259
 20
464.5788604204129
 30
0.0
 11
620.4585110286885
 21
464.5788604204129
 31
0.0
  0
LINE
  5
322
330
31C
100
AcDbEntity
  8
notes
  6
Continuous
 62
     0
370
    -2
100
AcDbLine
 10
535.628592083376
 20
464.5788604204129
 30
0.0
 11
567.7991614193136
 21
464.5788604204129
 31
0.0
  0
INSERT
  5
323
330
31C
100
AcDbEntity
  8
notes
 62
     0
370
    -2
100
AcDbBlockReference
  2
_DOT
 10
656.6288362240009
 20
464.5788604204129
 30
0.0
 41
3.999755859375
 42
3.999755859375
 43
3.999755859375
  0
INSERT
  5
324
330
31C
100
AcDbEntity
  8
notes
 62
     0
370
    -2
100
AcDbBlockReference
  2
_DOT
 10
531.628836224001
 20
464.5788604204129
 30
0.0
 41
3.999755859375
 42
3.999755859375
 43
3.999755859375
 50
180.0
  0
MTEXT
  5
325
330
31C
100
AcDbEntity
  8
notes
  6
Continuous
 62
     0
370
     5
100
AcDbMText
 10
594.128836224001
 20
469.578860420413
 30
0.0
 40
24.4326171875
 41
0.0
 46
0.0
 71
     5
 72
     1
  1
\A1;125
  7
ＭＳ ゴシック
 73
     1
 44
1.0
  0
POINT
  5
326
330
31C
100
AcDbEntity
  8
Defpoints
 62
     0
100
AcDbPoint
 10
656.6288362240009
 20
564.578860420413
 30
0.0
  0
POINT
  5
327
330
31C
100
AcDbEntity
  8
Defpoints
 62
     0
100
AcDbPoint
 10
531.628836224001
 20
569.5788604204129
 30
0.0
  0
POINT
  5
328
330
31C
100
AcDbEntity
  8
Defpoints
 62
     0
100
AcDbPoint
 10
531.628836224001
 20
464.5788604204129
 30
0.0
  0
ENDBLK
  5
31E
330
31C
100
AcDbEntity
  8
0
100
AcDbBlockEnd
  0
BLOCK
  5
32A
330
329
100
AcDbEntity
  8
0
100
AcDbBlockBegin
  2
*D34
 70
     1
 10
0.0
 20
0.0
 30
0.0
  3
*D34
  1

  0
LINE
  5
32C
330
329
100
AcDbEntity
  8
notes
  6
Continuous
 62
     0
370
    -2
100
AcDbLine
 10
966.6005940280237
 20
539.578860420413
 30
0.0
 11
966.6005940280237
 21
464.5788604204129
 31
0.0
  0
LINE
  5
32D
330
329
100
AcDbEntity
  8
notes
  6
Continuous
 62
     0
370
    -2
100
AcDbLine
 10
656.6294134724682
 20
539.578860420413
 30
0.0
 11
656.6294134724682
 21
464.5788604204129
 31
0.0
  0
LINE
  5
32E
330
329
100
AcDbEntity
  8
notes
  6
Continuous
 62
     0
370
    -2
100
AcDbLine
 10
962.6008381686487
 20
464.5788604204129
 30
0.0
 11
839.1296604885272
 21
464.5788604204129
 31
0.0
  0
LINE
  5
32F
330
329
100
AcDbEntity
  8
notes
  6
Continuous
 62
     0
370
    -2
100
AcDbLine
 10
660.6291693318432
 20
464.5788604204129
 30
0.0
 11
784.1003470119647
 21
464.5788604204129
 31
0.0
  0
INSERT
  5
330
330
329
100
AcDbEntity
  8
notes
 62
     0
370
    -2
100
AcDbBlockReference
  2
_DOT
 10
966.6005940280237
 20
464.5788604204129
 30
0.0
 41
3.999755859375
 42
3.999755859375
 43
3.999755859375
  0
INSERT
  5
331
330
329
100
AcDbEntity
  8
notes
 62
     0
370
    -2
100
AcDbBlockReference
  2
_DOT
 10
656.6294134724682
 20
464.5788604204129
 30
0.0
 41
3.999755859375
 42
3.999755859375
 43
3.999755859375
 50
180.0
  0
MTEXT
  5
332
330
329
100
AcDbEntity
  8
notes
  6
Continuous
 62
     0
370
     5
100
AcDbMText
 10
811.6150037502459
 20
469.578860420413
 30
0.0
 40
24.4326171875
 41
0.0
 46
0.0
 71
     5
 72
     1
  1
\A1;310
  7
ＭＳ ゴシック
 73
     1
 44
1.0
  0
POINT
  5
333
330
329
100
AcDbEntity
  8
Defpoints
 62
     0
100
AcDbPoint
 10
966.6005940280237
 20
564.578860420413
 30
0.0
  0
POINT
  5
334
330
329
100
AcDbEntity
  8
Defpoints
 62
     0
100
AcDbPoint
 10
656.6294134724682
 20
564.578860420413
 30
0.0
  0
POINT
  5
335
330
329
100
AcDbEntity
  8
Defpoints
 62
     0
100
AcDbPoint
 10
656.6294134724682
 20
464.5788604204129
 30
0.0
  0
ENDBLK
  5
32B
330
329
100
AcDbEntity
  8
0
100
AcDbBlockEnd
  0
BLOCK
  5
337
330
336
100
AcDbEntity
  8
0
100
AcDbBlockBegin
  2
*D35
 70
     1
 10
0.0
 20
0.0
 30
0.0
  3
*D35
  1

  0
LINE
  5
339
330
336
100
AcDbEntity
  8
notes
  6
Continuous
 62
     0
370
    -2
100
AcDbLine
 10
1626.980593601536
 20
924.5953968787456
 30
0.0
 11
1531.282720337647
 21
924.5953968787456
 31
0.0
  0
LINE
  5
33A
330
336
100
AcDbEntity
  8
notes
  6
Continuous
 62
     0
370
    -2
100
AcDbLine
 10
1626.980593601536
 20
749.5953968787461
 30
0.0
 11
1531.282720337647
 21
749.5953968787461
 31
0.0
  0
LINE
  5
33B
330
336
100
AcDbEntity
  8
notes
  6
Continuous
 62
     0
370
    -2
100
AcDbLine
 10
1531.282720337647
 20
920.5956410193706
 30
0.0
 11
1531.282720337647
 21
863.4250716834334
 31
0.0
  0
LINE
  5
33C
330
336
100
AcDbEntity
  8
notes
  6
Continuous
 62
     0
370
    -2
100
AcDbLine
 10
1531.282720337647
 20
753.5951527381211
 30
0.0
 11
1531.282720337647
 21
810.7657220740583
 31
0.0
  0
INSERT
  5
33D
330
336
100
AcDbEntity
  8
notes
 62
     0
370
    -2
100
AcDbBlockReference
  2
_DOT
 10
1531.282720337647
 20
924.5953968787456
 30
0.0
 41
3.999755859375
 42
3.999755859375
 43
3.999755859375
 50
90.0
  0
INSERT
  5
33E
330
336
100
AcDbEntity
  8
notes
 62
     0
370
    -2
100
AcDbBlockReference
  2
_DOT
 10
1531.282720337647
 20
749.5953968787461
 30
0.0
 41
3.999755859375
 42
3.999755859375
 43
3.999755859375
 50
270.0
  0
MTEXT
  5
33F
330
336
100
AcDbEntity
  8
notes
  6
Continuous
 62
     0
370
     5
100
AcDbMText
 10
1526.282720337647
 20
837.0953968787459
 30
0.0
 40
24.4326171875
 41
0.0
 46
0.0
 71
     5
 72
     1
  1
\A1;175
  7
ＭＳ ゴシック
 11
0.0
 21
1.0
 31
0.0
 73
     1
 44
1.0
  0
POINT
  5
340
330
336
100
AcDbEntity
  8
Defpoints
 62
     0
100
AcDbPoint
 10
1651.980593601536
 20
924.5953968787456
 30
0.0
  0
POINT
  5
341
330
336
100
AcDbEntity
  8
Defpoints
 62
     0
100
AcDbPoint
 10
1651.980593601536
 20
749.5953968787461
 30
0.0
  0
POINT
  5
342
330
336
100
AcDbEntity
  8
Defpoints
 62
     0
100
AcDbPoint
 10
1531.282720337647
 20
749.5953968787461
 30
0.0
  0
ENDBLK
  5
338
330
336
100
AcDbEntity
  8
0
100
AcDbBlockEnd
  0
BLOCK
  5
344
330
343
100
AcDbEntity
  8
0
100
AcDbBlockBegin
  2
*D36
 70
     1
 10
0.0
 20
0.0
 30
0.0
  3
*D36
  1

  0
LINE
  5
346
330
343
100
AcDbEntity
  8
notes
  6
Continuous
 62
     0
370
    -2
100
AcDbLine
 10
1626.980593601536
 20
1204.595396878745
 30
0.0
 11
1531.282720337647
 21
1204.595396878745
 31
0.0
  0
LINE
  5
347
330
343
100
AcDbEntity
  8
notes
  6
Continuous
 62
     0
370
    -2
100
AcDbLine
 10
1626.980593601536
 20
924.5953968787456
 30
0.0
 11
1531.282720337647
 21
924.5953968787456
 31
0.0
  0
LINE
  5
348
330
343
100
AcDbEntity
  8
notes
  6
Continuous
 62
     0
370
    -2
100
AcDbLine
 10
1531.282720337647
 20
1200.59564101937
 30
0.0
 11
1531.282720337647
 21
1105.449710726079
 31
0.0
  0
LINE
  5
349
330
343
100
AcDbEntity
  8
notes
  6
Continuous
 62
     0
370
    -2
100
AcDbLine
 10
1531.282720337647
 20
928.5951527381206
 30
0.0
 11
1531.282720337647
 21
1050.542560335454
 31
0.0
  0
INSERT
  5
34A
330
343
100
AcDbEntity
  8
notes
 62
     0
370
    -2
100
AcDbBlockReference
  2
_DOT
 10
1531.282720337647
 20
1204.595396878745
 30
0.0
 41
3.999755859375
 42
3.999755859375
 43
3.999755859375
 50
90.0
  0
INSERT
  5
34B
330
343
100
AcDbEntity
  8
notes
 62
     0
370
    -2
100
AcDbBlockReference
  2
_DOT
 10
1531.282720337647
 20
924.5953968787456
 30
0.0
 41
3.999755859375
 42
3.999755859375
 43
3.999755859375
 50
270.0
  0
MTEXT
  5
34C
330
343
100
AcDbEntity
  8
notes
  6
Continuous
 62
     0
370
     5
100
AcDbMText
 10
1526.282720337647
 20
1077.996135530766
 30
0.0
 40
24.4326171875
 41
0.0
 46
0.0
 71
     5
 72
     1
  1
\A1;280
  7
ＭＳ ゴシック
 11
0.0
 21
1.0
 31
0.0
 73
     1
 44
1.0
  0
POINT
  5
34D
330
343
100
AcDbEntity
  8
Defpoints
 62
     0
100
AcDbPoint
 10
1651.980593601536
 20
1204.595396878745
 30
0.0
  0
POINT
  5
34E
330
343
100
AcDbEntity
  8
Defpoints
 62
     0
100
AcDbPoint
 10
1651.980593601536
 20
924.5953968787456
 30
0.0
  0
POINT
  5
34F
330
343
100
AcDbEntity
  8
Defpoints
 62
     0
100
AcDbPoint
 10
1531.282720337647
 20
924.5953968787456
 30
0.0
  0
ENDBLK
  5
345
330
343
100
AcDbEntity
  8
0
100
AcDbBlockEnd
  0
BLOCK
  5
351
330
350
100
AcDbEntity
  8
0
100
AcDbBlockBegin
  2
*D37
 70
     1
 10
0.0
 20
0.0
 30
0.0
  3
*D37
  1

  0
LINE
  5
353
330
350
100
AcDbEntity
  8
notes
  6
Continuous
 62
     0
370
    -2
100
AcDbLine
 10
1626.980593601536
 20
1379.595396878746
 30
0.0
 11
1531.282720337647
 21
1379.595396878746
 31
0.0
  0
LINE
  5
354
330
350
100
AcDbEntity
  8
notes
  6
Continuous
 62
     0
370
    -2
100
AcDbLine
 10
1626.980593601536
 20
1204.595396878745
 30
0.0
 11
1531.282720337647
 21
1204.595396878745
 31
0.0
  0
LINE
  5
355
330
350
100
AcDbEntity
  8
notes
  6
Continuous
 62
     0
370
    -2
100
AcDbLine
 10
1531.282720337647
 20
1375.595641019371
 30
0.0
 11
1531.282720337647
 21
1318.425071683433
 31
0.0
  0
LINE
  5
356
330
350
100
AcDbEntity
  8
notes
  6
Continuous
 62
     0
370
    -2
100
AcDbLine
 10
1531.282720337647
 20
1208.59515273812
 30
0.0
 11
1531.282720337647
 21
1265.765722074058
 31
0.0
  0
INSERT
  5
357
330
350
100
AcDbEntity
  8
notes
 62
     0
370
    -2
100
AcDbBlockReference
  2
_DOT
 10
1531.282720337647
 20
1379.595396878746
 30
0.0
 41
3.999755859375
 42
3.999755859375
 43
3.999755859375
 50
90.0
  0
INSERT
  5
358
330
350
100
AcDbEntity
  8
notes
 62
     0
370
    -2
100
AcDbBlockReference
  2
_DOT
 10
1531.282720337647
 20
1204.595396878745
 30
0.0
 41
3.999755859375
 42
3.999755859375
 43
3.999755859375
 50
270.0
  0
MTEXT
  5
359
330
350
100
AcDbEntity
  8
notes
  6
Continuous
 62
     0
370
     5
100
AcDbMText
 10
1526.282720337647
 20
1292.095396878746
 30
0.0
 40
24.4326171875
 41
0.0
 46
0.0
 71
     5
 72
     1
  1
\A1;175
  7
ＭＳ ゴシック
 11
0.0
 21
1.0
 31
0.0
 73
     1
 44
1.0
  0
POINT
  5
35A
330
350
100
AcDbEntity
  8
Defpoints
 62
     0
100
AcDbPoint
 10
1651.980593601536
 20
1379.595396878746
 30
0.0
  0
POINT
  5
35B
330
350
100
AcDbEntity
  8
Defpoints
 62
     0
100
AcDbPoint
 10
1651.980593601536
 20
1204.595396878745
 30
0.0
  0
POINT
  5
35C
330
350
100
AcDbEntity
  8
Defpoints
 62
     0
100
AcDbPoint
 10
1531.282720337647
 20
1204.595396878745
 30
0.0
  0
ENDBLK
  5
352
330
350
100
AcDbEntity
  8
0
100
AcDbBlockEnd
  0
BLOCK
  5
35E
330
35D
100
AcDbEntity
  8
0
100
AcDbBlockBegin
  2
*D38
 70
     1
 10
0.0
 20
0.0
 30
0.0
  3
*D38
  1

  0
LINE
  5
360
330
35D
100
AcDbEntity
  8
notes
  6
Continuous
 62
     0
370
    -2
100
AcDbLine
 10
1756.049473016608
 20
2359.965967693111
 30
0.0
 11
1756.049473016608
 21
2339.923092255281
 31
0.0
  0
LINE
  5
361
330
35D
100
AcDbEntity
  8
notes
  6
Continuous
 62
     0
370
    -2
100
AcDbLine
 10
1631.049473016608
 20
2359.965967693111
 30
0.0
 11
1631.049473016608
 21
2339.923092255281
 31
0.0
  0
LINE
  5
362
330
35D
100
AcDbEntity
  8
notes
  6
Continuous
 62
     0
370
    -2
100
AcDbLine
 10
1752.049717157233
 20
2339.923092255281
 30
0.0
 11
1635.049228875983
 21
2339.923092255281
 31
0.0
  0
INSERT
  5
363
330
35D
100
AcDbEntity
  8
notes
 62
     0
370
    -2
100
AcDbBlockReference
  2
_DOT
 10
1756.049473016608
 20
2339.923092255281
 30
0.0
 41
3.999755859375
 42
3.999755859375
 43
3.999755859375
  0
INSERT
  5
364
330
35D
100
AcDbEntity
  8
notes
 62
     0
370
    -2
100
AcDbBlockReference
  2
_DOT
 10
1631.049473016608
 20
2339.923092255281
 30
0.0
 41
3.999755859375
 42
3.999755859375
 43
3.999755859375
 50
180.0
  0
MTEXT
  5
365
330
35D
100
AcDbEntity
  8
notes
  6
Continuous
 62
     0
370
     5
100
AcDbMText
 10
1620.224155469303
 20
2344.923092255281
 30
0.0
 40
24.4326171875
 41
0.0
 46
0.0
 71
     5
 72
     1
  1
\A1;125(深さ)
  7
ＭＳ ゴシック
 73
     1
 44
1.0
  0
POINT
  5
366
330
35D
100
AcDbEntity
  8
Defpoints
 62
     0
100
AcDbPoint
 10
1756.049473016608
 20
2334.965967693111
 30
0.0
  0
POINT
  5
367
330
35D
100
AcDbEntity
  8
Defpoints
 62
     0
100
AcDbPoint
 10
1631.049473016608
 20
2334.965967693111
 30
0.0
  0
POINT
  5
368
330
35D
100
AcDbEntity
  8
Defpoints
 62
     0
100
AcDbPoint
 10
1631.049473016608
 20
2339.923092255281
 30
0.0
  0
ENDBLK
  5
35F
330
35D
100
AcDbEntity
  8
0
100
AcDbBlockEnd
  0
ENDSEC
  0
SECTION
  2
ENTITIES
  0
MTEXT
  5
1D0
330
A
100
AcDbEntity
  8
template
 62
     7
390
1D
100
AcDbMText
 10
171.43253238789
 20
342.6095285039919
 30
0.0
 40
16.28841145833333
 41
0.0
 46
0.0
 71
     1
 72
     1
  1
品名
  7
ＭＳ ゴシック
 73
     1
 44
0.7828267384257843
  0
MTEXT
  5
1D1
330
A
100
AcDbEntity
  8
template
 62
     7
390
1D
100
AcDbMText
 10
171.43253238789
 20
257.6095285039919
 30
0.0
 40
16.28841145833333
 41
0.0
 46
0.0
 71
     1
 72
     1
  1
仕様
  7
ＭＳ ゴシック
 73
     1
 44
0.7828267384257843
  0
LINE
  5
1D2
330
A
100
AcDbEntity
  8
template
  6
Continuous
 62
     7
370
     5
390
1D
100
AcDbLine
 10
2114.432532387408
 20
266.0244503789929
 30
0.0
 11
164.4325323874079
 21
266.0244503789929
 31
0.0
  0
LWPOLYLINE
  5
1D3
330
A
100
AcDbEntity
  8
template
  6
Continuous
 62
     7
370
     5
390
1D
100
AcDbPolyline
 90
        5
 70
   128
 43
0.0
 10
2114.43253238789
 20
2896.024450378993
 10
164.43253238789
 20
2896.024450378993
 10
164.43253238789
 20
96.02445037899292
 10
2114.43253238789
 20
96.02445037899292
 10
2114.43253238789
 20
2896.024450378993
  0
LINE
  5
1D4
330
A
100
AcDbEntity
  8
template
  6
Continuous
 62
     7
370
     5
390
1D
100
AcDbLine
 10
2114.432532387408
 20
351.0244503789929
 30
0.0
 11
164.4325323874079
 21
351.0244503789929
 31
0.0
  0
LINE
  5
1D5
330
A
100
AcDbEntity
  8
template
  6
Continuous
 62
     7
370
     5
390
1D
100
AcDbLine
 10
2114.43253238789
 20
181.0244503789929
 30
0.0
 11
1361.43253238789
 21
181.0244503789929
 31
0.0
  0
MTEXT
  5
1D6
330
A
100
AcDbEntity
  8
template
 62
     7
390
1D
100
AcDbMText
 10
1391.30393864015
 20
151.1140559056851
 30
0.0
 40
24.4326171875
 41
0.0
 46
0.0
 71
     1
 72
     1
  1
大洋金物株式会社 ティーフォルム事業部
  7
ＭＳ ゴシック
 73
     1
 44
0.7828267384257843
  0
INSERT
  5
1D7
330
A
100
AcDbEntity
  8
template
 62
     7
390
1D
100
AcDbBlockReference
  2
グループ
 10
1139.432532387649
 20
1255.027157737693
 30
0.0
  0
MTEXT
  5
1D8
330
A
100
AcDbEntity
  8
template
 62
     7
390
1D
100
AcDbMText
 10
1923.432532388149
 20
229.027067566492
 30
0.0
 40
24.4326171875
 41
0.0
 46
0.0
 71
     1
 72
     1
  1
1:10
  7
ＭＳ ゴシック
 73
     1
 44
0.7828267384257843
  0
MTEXT
  5
1D9
330
A
100
AcDbEntity
  8
template
 62
     7
390
1D
100
AcDbMText
 10
1870.432532388149
 20
257.6095285039919
 30
0.0
 40
16.28841145833333
 41
0.0
 46
0.0
 71
     1
 72
     1
  1
縮尺
  7
ＭＳ ゴシック
 73
     1
 44
0.7828267384257843
  0
LINE
  5
1DA
330
A
100
AcDbEntity
  8
template
  6
Continuous
 62
     7
370
     5
390
1D
100
AcDbLine
 10
1863.432532388149
 20
181.0244503789929
 30
0.0
 11
1863.432532388149
 21
266.0244503789929
 31
0.0
  0
MTEXT
  5
1DB
330
A
100
AcDbEntity
  8
template
 62
     7
390
1D
100
AcDbMText
 10
1619.432532388149
 20
257.6095285039919
 30
0.0
 40
16.28841145833333
 41
0.0
 46
0.0
 71
     1
 72
     1
  1
容量
  7
ＭＳ ゴシック
 73
     1
 44
0.7828267384257843
  0
MTEXT
  5
1DC
330
A
100
AcDbEntity
  8
template
 62
     7
390
1D
100
AcDbMText
 10
1672.432532388149
 20
229.027067566492
 30
0.0
 40
24.4326171875
 41
0.0
 46
0.0
 71
     1
 72
     1
  1
13.5L
  7
ＭＳ ゴシック
 73
     1
 44
0.7828267384257843
  0
LINE
  5
1DD
330
A
100
AcDbEntity
  8
template
  6
Continuous
 62
     7
370
     5
390
1D
100
AcDbLine
 10
1612.432532388149
 20
181.0244503789929
 30
0.0
 11
1612.432532388149
 21
266.0244503789929
 31
0.0
  0
MTEXT
  5
1DE
330
A
100
AcDbEntity
  8
template
 62
     7
390
1D
100
AcDbMText
 10
1368.432532388149
 20
342.6095285039919
 30
0.0
 40
16.28841145833333
 41
0.0
 46
0.0
 71
     1
 72
     1
  1
品番
  7
ＭＳ ゴシック
 73
     1
 44
0.7828267384257843
  0
MTEXT
  5
1DF
330
A
100
AcDbEntity
  8
template
 62
     7
390
1D
100
AcDbMText
 10
1368.432532388149
 20
257.6095285039919
 30
0.0
 40
16.28841145833333
 41
0.0
 46
0.0
 71
     1
 72
     1
  1
重量
  7
ＭＳ ゴシック
 73
     1
 44
0.7828267384257843
  0
MTEXT
  5
1E0
330
A
100
AcDbEntity
  8
template
 62
     7
390
1D
100
AcDbMText
 10
1421.432532388149
 20
314.027067566492
 30
0.0
 40
24.4326171875
 41
0.0
 46
0.0
 71
     1
 72
     1
  1
FAA70-0506
  7
ＭＳ ゴシック
 73
     1
 44
0.7828267384257843
  0
MTEXT
  5
1E1
330
A
100
AcDbEntity
  8
template
 62
     7
390
1D
100
AcDbMText
 10
1421.432532388149
 20
229.027067566492
 30
0.0
 40
24.4326171875
 41
0.0
 46
0.0
 71
     1
 72
     1
  1
27kg
  7
ＭＳ ゴシック
 73
     1
 44
0.7828267384257843
  0
LINE
  5
1E2
330
A
100
AcDbEntity
  8
template
  6
Continuous
 62
     7
370
     5
390
1D
100
AcDbLine
 10
1361.432532388149
 20
96.02445037899292
 30
0.0
 11
1361.432532388149
 21
351.0244503789929
 31
0.0
  0
MTEXT
  5
1E3
330
A
100
AcDbEntity
  8
template
 62
     7
390
1D
100
AcDbMText
 10
164.4325323880931
 20
84.17062832213492
 30
0.0
 40
21.71788194444445
 41
0.0
 46
21.71788194444445
 71
     1
 72
     1
  1
{100709SH}
  7
ＭＳ ゴシック
 73
     1
 44
0.7828267384257843
1001
ACAD
1000
ACAD_MTEXT_DEFINED_HEIGHT_BEGIN
1070
    46
1040
21.71788194444445
1000
ACAD_MTEXT_DEFINED_HEIGHT_END
  0
MTEXT
  5
1E4
330
A
100
AcDbEntity
  8
template
 62
     7
390
1D
100
AcDbMText
 10
224.432532387446
 20
314.1547749251929
 30
0.0
 40
24.4326171875
 41
0.0
 46
0.0
 71
     1
 72
     1
  1
洗面器 -DURAVIT,Vero-
  7
ＭＳ ゴシック
 73
     1
 44
0.7828267384257843
  0
MTEXT
  5
1E5
330
A
100
AcDbEntity
  8
template
 62
     7
390
1D
100
AcDbMText
 10
224.432532387446
 20
229.1547749251929
 30
0.0
 40
24.4326171875
 41
0.0
 46
0.0
 71
     1
 72
     1
  1
壁掛け,カウンタ ートップ/オーバーフロー付き/壁取付ボルト,\Pカウンター固定金具,型 紙付属/陶器/ホワイト
  7
ＭＳ ゴシック
 73
     1
 44
1.130749733281688
  0
MTEXT
  5
1E6
330
A
100
AcDbEntity
  8
notes
 62
     7
390
1D
100
AcDbMText
 10
344.8668758905172
 20
2115.309435063271
 30
0.0
 40
24.4326171875
 41
0.0
 46
0.0
 71
     1
 72
     1
  1
カウンター切込寸法
  7
ＭＳ ゴシック
 11
0.0
 21
1.0
 31
0.0
 73
     1
 44
0.7828267384257843
  0
DIMENSION
  5
1E7
330
A
100
AcDbEntity
  8
notes
  6
Continuous
 62
     7
370
     5
390
1D
100
AcDbDimension
  2
*D3
 10
431.628836224001
 20
1364.605268396604
 30
0.0
 11
414.412527630251
 21
1314.605268396604
 31
0.0
 70
    32
 71
     5
 42
100.0
 73
     0
 74
     0
 75
     0
  3
tform線あり
100
AcDbAlignedDimension
 13
572.6917398613572
 23
1264.605268396604
 33
0.0
 14
572.6917398613572
 24
1364.605268396604
 34
0.0
 50
90.0
100
AcDbRotatedDimension
1001
ACAD
1000
DSTYLE
1002
{
1070
   279
1070
     2
1070
   340
1005
3F
1070
   147
1040
5.0
1002
}
  0
DIMENSION
  5
1E8
330
A
100
AcDbEntity
  8
notes
  6
Continuous
 62
     7
370
     5
390
1D
100
AcDbDimension
  2
*D4
 10
431.628836224001
 20
1264.605268396604
 30
0.0
 11
414.412527630251
 21
1214.605268396604
 31
0.0
 70
    32
 71
     5
 42
100.0
 73
     0
 74
     0
 75
     0
  3
tform線あり
100
AcDbAlignedDimension
 13
572.6917398613572
 23
1164.605268396604
 33
0.0
 14
572.6917398613572
 24
1264.605268396604
 34
0.0
 50
90.0
100
AcDbRotatedDimension
1001
ACAD
1000
DSTYLE
1002
{
1070
   279
1070
     2
1070
   340
1005
3F
1070
   147
1040
5.0
1002
}
  0
DIMENSION
  5
1E9
330
A
100
AcDbEntity
  8
notes
  6
Continuous
 62
     7
370
     5
390
1D
100
AcDbDimension
  2
*D5
 10
431.628836224001
 20
1164.605268396604
 30
0.0
 11
414.412527630251
 21
1114.605268396604
 31
0.0
 70
    32
 71
     5
 42
100.0
 73
     0
 74
     0
 75
     0
  3
tform線あり
100
AcDbAlignedDimension
 13
572.6917398613572
 23
1064.605268396604
 33
0.0
 14
572.6917398613572
 24
1164.605268396604
 34
0.0
 50
90.0
100
AcDbRotatedDimension
1001
ACAD
1000
DSTYLE
1002
{
1070
   279
1070
     2
1070
   340
1005
3F
1070
   147
1040
5.0
1002
}
  0
DIMENSION
  5
1EA
330
A
100
AcDbEntity
  8
notes
  6
Continuous
 62
     7
370
     5
390
1D
100
AcDbDimension
  2
*D6
 10
431.628836224001
 20
1064.605268396604
 30
0.0
 11
414.4125276302511
 21
1014.605268396604
 31
0.0
 70
    32
 71
     5
 42
99.99999999999977
 73
     0
 74
     0
 75
     0
  3
tform線あり
100
AcDbAlignedDimension
 13
572.6917398613571
 23
964.6052683966043
 33
0.0
 14
572.6917398613572
 24
1064.605268396604
 34
0.0
 50
90.0
100
AcDbRotatedDimension
1001
ACAD
1000
DSTYLE
1002
{
1070
   279
1070
     2
1070
   340
1005
3F
1070
   147
1040
5.0
1002
}
  0
DIMENSION
  5
1EB
330
A
100
AcDbEntity
  8
notes
  6
Continuous
 62
     7
370
     5
390
1D
100
AcDbDimension
  2
*D7
 10
431.628836224001
 20
964.6052683966043
 30
0.0
 11
414.412527630251
 21
914.6052683966043
 31
0.0
 70
    32
 71
     5
 42
100.0
 73
     0
 74
     0
 75
     0
  3
tform線あり
100
AcDbAlignedDimension
 13
572.6917398613571
 23
864.6052683966043
 33
0.0
 14
572.6917398613571
 24
964.6052683966043
 34
0.0
 50
90.0
100
AcDbRotatedDimension
1001
ACAD
1000
DSTYLE
1002
{
1070
   279
1070
     2
1070
   340
1005
3F
1070
   147
1040
5.0
1002
}
  0
DIMENSION
  5
1EC
330
A
100
AcDbEntity
  8
notes
  6
Continuous
 62
     7
370
     5
390
1D
100
AcDbDimension
  2
*D8
 10
431.628836224001
 20
864.6052683966043
 30
0.0
 11
414.412527630251
 21
814.6052683966043
 31
0.0
 70
    32
 71
     5
 42
100.0
 73
     0
 74
     0
 75
     0
  3
tform線あり
100
AcDbAlignedDimension
 13
572.6917398613571
 23
764.6052683966043
 33
0.0
 14
572.6917398613571
 24
864.6052683966043
 34
0.0
 50
90.0
100
AcDbRotatedDimension
1001
ACAD
1000
DSTYLE
1002
{
1070
   279
1070
     2
1070
   340
1005
3F
1070
   147
1040
5.0
1002
}
  0
DIMENSION
  5
1ED
330
A
100
AcDbEntity
  8
notes
  6
Continuous
 62
     7
370
     5
390
1D
100
AcDbDimension
  2
*D9
 10
1038.809708209185
 20
2453.01504063031
 30
0.0
 11
1021.593399615435
 21
2253.01504063031
 31
0.0
 70
    32
 71
     5
 42
400.0
 73
     0
 74
     0
 75
     0
  3
tform線あり
100
AcDbAlignedDimension
 13
936.628836224001
 23
2053.01504063031
 33
0.0
 14
936.628836224001
 24
2453.01504063031
 34
0.0
 50
90.0
100
AcDbRotatedDimension
1001
ACAD
1000
DSTYLE
1002
{
1070
   279
1070
     2
1070
   340
1005
3F
1070
   147
1040
5.0
1002
}
  0
DIMENSION
  5
1EE
330
A
100
AcDbEntity
  8
notes
  6
Continuous
 62
     7
370
     5
390
1D
100
AcDbDimension
  2
*D10
 10
931.628836224001
 20
1811.305268396604
 30
0.0
 11
731.628836224001
 21
1828.521576990354
 31
0.0
 70
    32
 71
     5
 42
400.0
 73
     0
 74
     0
 75
     0
  3
tform線あり
100
AcDbAlignedDimension
 13
531.628836224001
 23
2053.01504063031
 33
0.0
 14
931.628836224001
 24
2053.01504063031
 34
0.0
100
AcDbRotatedDimension
1001
ACAD
1000
DSTYLE
1002
{
1070
   279
1070
     2
1070
   340
1005
3F
1070
   147
1040
5.0
1002
}
  0
DIMENSION
  5
1EF
330
A
100
AcDbEntity
  8
notes
  6
Continuous
 62
     7
370
     5
390
1D
100
AcDbDimension
  2
*D30
 10
929.6243055567719
 20
2057.595636312548
 30
0.0
 11
1093.718109462596
 21
1682.621393243385
 31
0.0
 70
   163
 71
     5
 42
10.00000000000114
 73
     0
 74
     0
 75
     0
  3
tform線あり
100
AcDbDiametricDimension
 15
933.63336689123
 25
2048.434444948071
 35
0.0
 40
0.0
1001
ACAD
1000
DSTYLE
1002
{
1070
   289
1070
     0
1070
   342
1005
5D
1070
   340
1005
3F
1070
    75
1070
     1
1070
    76
1070
     1
1070
     3
1000
(固定金具用2ヶ所)
1070
   174
1070
     0
1070
   147
1040
5.0
1002
}
  0
DIMENSION
  5
1F0
330
A
100
AcDbEntity
  8
notes
  6
Continuous
 62
     7
370
     5
390
1D
100
AcDbDimension
  2
*D12
 10
1101.628836224001
 20
2578.01504063031
 30
0.0
 11
1084.412527630251
 21
2253.01504063031
 31
0.0
 70
    32
 71
     5
 42
650.0
 73
     0
 74
     0
 75
     0
  3
tform線あり
100
AcDbAlignedDimension
 13
861.6288362240009
 23
1928.01504063031
 33
0.0
 14
861.6288362240009
 24
2578.01504063031
 34
0.0
 50
90.0
100
AcDbRotatedDimension
1001
ACAD
1000
DSTYLE
1002
{
1070
   279
1070
     2
1070
   340
1005
3F
1070
   147
1040
5.0
1002
}
  0
DIMENSION
  5
1F1
330
A
100
AcDbEntity
  8
notes
  6
Continuous
 62
     7
370
     5
390
1D
100
AcDbDimension
  2
*D13
 10
861.6288362240009
 20
2678.01504063031
 30
0.0
 11
711.6288362240009
 21
2695.23134922406
 31
0.0
 70
    32
 71
     5
 42
299.9999999999999
 73
     0
 74
     0
 75
     0
  3
tform線あり
100
AcDbAlignedDimension
 13
561.628836224001
 23
2578.01504063031
 33
0.0
 14
861.6288362240009
 24
2578.01504063031
 34
0.0
100
AcDbRotatedDimension
1001
ACAD
1000
DSTYLE
1002
{
1070
   279
1070
     2
1070
   340
1005
3F
1070
   147
1040
5.0
1002
}
  0
DIMENSION
  5
1F2
330
A
100
AcDbEntity
  8
notes
  6
Continuous
 62
     7
370
     5
390
1D
100
AcDbDimension
  2
*D31
 10
561.628836224001
 20
2678.01504063031
 30
0.0
 11
497.4325323876492
 21
2683.01504063031
 31
0.0
 70
   160
 71
     5
 42
30.0
 73
     0
 74
     0
 75
     0
  3
tform線あり
100
AcDbAlignedDimension
 13
531.628836224001
 23
2553.01504063031
 33
0.0
 14
561.628836224001
 24
2553.01504063031
 34
0.0
100
AcDbRotatedDimension
1001
ACAD
1000
DSTYLE
1002
{
1070
   279
1070
     2
1070
   340
1005
3F
1070
   174
1070
     0
1070
   147
1040
5.0
1002
}
  0
MTEXT
  5
1F3
330
A
100
AcDbEntity
  8
notes
 62
     7
390
1D
100
AcDbMText
 10
1182.906849727108
 20
1826.305268396604
 30
0.0
 40
24.4326171875
 41
890.0000000000001
 46
0.0
 71
     1
 72
     1
  1
※陶器製品には寸法公差があります。\P  洗面器の収め方をご確認の上、必ず現物を合わせて\P  固定金具の穴あけ、カウンターの切込を行ってください。
  7
ＭＳ ゴシック
 11
0.0
 21
1.0
 31
0.0
 73
     1
 44
1.043768984567712
  0
DIMENSION
  5
1F4
330
A
100
AcDbEntity
  8
notes
  6
Continuous
 62
     7
370
     5
390
1D
100
AcDbDimension
  2
*D15
 10
381.6288362240012
 20
564.5788604204129
 30
0.0
 11
364.4125276302512
 21
1064.578860420413
 31
0.0
 70
    32
 71
     5
 42
1000.0
 73
     0
 74
     0
 75
     0
  3
tform線あり
100
AcDbAlignedDimension
 13
536.628836224001
 23
1564.578860420412
 33
0.0
 14
536.628836224001
 24
564.5788604204129
 34
0.0
 50
90.0
100
AcDbRotatedDimension
1001
ACAD
1000
DSTYLE
1002
{
1070
   279
1070
     2
1070
   340
1005
3F
1070
   147
1040
5.0
1002
}
  0
DIMENSION
  5
1F5
330
A
100
AcDbEntity
  8
notes
  6
Continuous
 62
     7
370
     5
390
1D
100
AcDbDimension
  2
*D16
 10
531.628836224001
 20
1664.578860420412
 30
0.0
 11
766.6288362240009
 21
1681.795169014162
 31
0.0
 70
    32
 71
     5
 42
469.9999999999998
 73
     0
 74
     0
 75
     0
  3
tform線あり
100
AcDbAlignedDimension
 13
1001.628836224001
 23
1552.578860420412
 33
0.0
 14
531.628836224001
 24
1552.578860420412
 34
0.0
100
AcDbRotatedDimension
1001
ACAD
1000
DSTYLE
1002
{
1070
   279
1070
     2
1070
   340
1005
3F
1070
   147
1040
5.0
1002
}
  0
DIMENSION
  5
1F6
330
A
100
AcDbEntity
  8
notes
  6
Continuous
 62
     7
370
     5
390
1D
100
AcDbDimension
  2
*D32
 10
1101.628836224001
 20
1529.578860420412
 30
0.0
 11
1106.628836224001
 21
1064.578860420413
 31
0.0
 70
   160
 71
     5
 42
929.9999999999995
 73
     0
 74
     0
 75
     0
  3
tform線あり
100
AcDbAlignedDimension
 13
1001.628836224001
 23
599.5788604204129
 33
0.0
 14
1001.628836224001
 24
1529.578860420412
 34
0.0
 50
90.0
100
AcDbRotatedDimension
1001
ACAD
1000
DSTYLE
1002
{
1070
   279
1070
     2
1070
   340
1005
3F
1070
   147
1040
5.0
1002
}
  0
DIMENSION
  5
1F7
330
A
100
AcDbEntity
  8
notes
  6
Continuous
 62
     7
370
     5
390
1D
100
AcDbDimension
  2
*D33
 10
531.628836224001
 20
464.5788604204129
 30
0.0
 11
594.128836224001
 21
469.578860420413
 31
0.0
 70
   160
 71
     5
 42
124.9999999999999
 73
     0
 74
     0
 75
     0
  3
tform線あり
100
AcDbAlignedDimension
 13
656.6288362240009
 23
564.578860420413
 33
0.0
 14
531.628836224001
 24
569.5788604204129
 34
0.0
100
AcDbRotatedDimension
1001
ACAD
1000
DSTYLE
1002
{
1070
   279
1070
     2
1070
   340
1005
3F
1070
   147
1040
5.0
1002
}
  0
DIMENSION
  5
1F8
330
A
100
AcDbEntity
  8
notes
  6
Continuous
 62
     7
370
     5
390
1D
100
AcDbDimension
  2
*D34
 10
656.6294134724682
 20
464.5788604204129
 30
0.0
 11
811.6150037502459
 21
469.578860420413
 31
0.0
 70
   160
 71
     5
 42
309.9711805555555
 73
     0
 74
     0
 75
     0
  3
tform線あり
100
AcDbAlignedDimension
 13
966.6005940280237
 23
564.578860420413
 33
0.0
 14
656.6294134724682
 24
564.578860420413
 34
0.0
100
AcDbRotatedDimension
1001
ACAD
1000
DSTYLE
1002
{
1070
   279
1070
     2
1070
   340
1005
3F
1070
   147
1040
5.0
1002
}
  0
DIMENSION
  5
1F9
330
A
100
AcDbEntity
  8
notes
  6
Continuous
 62
     7
370
     5
390
1D
100
AcDbDimension
  2
*D35
 10
1531.282720337647
 20
749.5953968787461
 30
0.0
 11
1526.282720337647
 21
837.0953968787459
 31
0.0
 70
   160
 71
     5
 42
174.9999999999995
 73
     0
 74
     0
 75
     0
  3
tform線あり
100
AcDbAlignedDimension
 13
1651.980593601536
 23
924.5953968787456
 33
0.0
 14
1651.980593601536
 24
749.5953968787461
 34
0.0
 50
90.0
100
AcDbRotatedDimension
1001
ACAD
1000
DSTYLE
1002
{
1070
   279
1070
     2
1070
   340
1005
3F
1070
   147
1040
5.0
1002
}
  0
DIMENSION
  5
1FA
330
A
100
AcDbEntity
  8
notes
  6
Continuous
 62
     7
370
     5
390
1D
100
AcDbDimension
  2
*D36
 10
1531.282720337647
 20
924.5953968787456
 30
0.0
 11
1526.282720337647
 21
1077.996135530766
 31
0.0
 70
   160
 71
     5
 42
279.9999999999997
 73
     0
 74
     0
 75
     0
  3
tform線あり
100
AcDbAlignedDimension
 13
1651.980593601536
 23
1204.595396878745
 33
0.0
 14
1651.980593601536
 24
924.5953968787456
 34
0.0
 50
90.0
100
AcDbRotatedDimension
1001
ACAD
1000
DSTYLE
1002
{
1070
   279
1070
     2
1070
   340
1005
3F
1070
   147
1040
5.0
1002
}
  0
DIMENSION
  5
1FB
330
A
100
AcDbEntity
  8
notes
  6
Continuous
 62
     7
370
     5
390
1D
100
AcDbDimension
  2
*D37
 10
1531.282720337647
 20
1204.595396878745
 30
0.0
 11
1526.282720337647
 21
1292.095396878746
 31
0.0
 70
   160
 71
     5
 42
175.0000000000002
 73
     0
 74
     0
 75
     0
  3
tform線あり
100
AcDbAlignedDimension
 13
1651.980593601536
 23
1379.595396878746
 33
0.0
 14
1651.980593601536
 24
1204.595396878745
 34
0.0
 50
90.0
100
AcDbRotatedDimension
1001
ACAD
1000
DSTYLE
1002
{
1070
   279
1070
     2
1070
   340
1005
3F
1070
   147
1040
5.0
1002
}
  0
DIMENSION
  5
1FC
330
A
100
AcDbEntity
  8
notes
  6
Continuous
 62
     7
370
     5
390
1D
100
AcDbDimension
  2
*D23
 10
1631.282720337647
 20
464.5788604204129
 30
0.0
 11
1658.807626362648
 21
481.7951690141629
 31
0.0
 70
    32
 71
     5
 42
55.0498120500024
 73
     0
 74
     0
 75
     0
  3
tform線あり
100
AcDbAlignedDimension
 13
1686.332532387649
 23
729.595396878746
 33
0.0
 14
1631.282720337647
 24
574.5953968787461
 34
0.0
100
AcDbRotatedDimension
1001
ACAD
1000
DSTYLE
1002
{
1070
   279
1070
     2
1070
   340
1005
3F
1070
   147
1040
5.0
1002
}
  0
DIMENSION
  5
1FD
330
A
100
AcDbEntity
  8
notes
  6
Continuous
 62
     7
370
     5
390
1D
100
AcDbDimension
  2
*D24
 10
1631.432532387649
 20
1664.595396878746
 30
0.0
 11
1718.93253238765
 21
1681.811705472496
 31
0.0
 70
    32
 71
     5
 42
175.0000000000009
 73
     0
 74
     0
 75
     0
  3
tform線あり
100
AcDbAlignedDimension
 13
1806.43253238765
 23
1104.440513517664
 33
0.0
 14
1631.432532387649
 24
1554.595396878746
 34
0.0
100
AcDbRotatedDimension
1001
ACAD
1000
DSTYLE
1002
{
1070
   279
1070
     2
1070
   340
1005
3F
1070
   147
1040
5.0
1002
}
  0
DIMENSION
  5
1FE
330
A
100
AcDbEntity
  8
notes
  6
Continuous
 62
     7
370
     5
390
1D
100
AcDbDimension
  2
*D25
 10
1631.049473016608
 20
1973.465967693109
 30
0.0
 11
1698.549473016608
 21
1990.682276286859
 31
0.0
 70
    32
 71
     5
 42
135.0
 73
     0
 74
     0
 75
     0
  3
tform線あり
100
AcDbAlignedDimension
 13
1766.049473016608
 23
2084.158295069714
 33
0.0
 14
1631.049473016608
 24
2083.465967693109
 34
0.0
100
AcDbRotatedDimension
1001
ACAD
1000
DSTYLE
1002
{
1070
   279
1070
     2
1070
   340
1005
3F
1070
   147
1040
5.0
1002
}
  0
DIMENSION
  5
1FF
330
A
100
AcDbEntity
  8
notes
  6
Continuous
 62
     7
370
     5
390
1D
100
AcDbDimension
  2
*D26
 10
1766.049473016608
 20
1973.458167335081
 30
0.0
 11
1786.035351918619
 21
1990.674475928831
 31
0.0
 70
    32
 71
     5
 42
39.97175780402313
 73
     0
 74
     0
 75
     0
  3
tform線あり
100
AcDbAlignedDimension
 13
1806.021230820631
 23
2313.26596769311
 33
0.0
 14
1766.049473016608
 24
2084.158295069714
 34
0.0
100
AcDbRotatedDimension
1001
ACAD
1000
DSTYLE
1002
{
1070
   279
1070
     2
1070
   340
1005
3F
1070
   147
1040
5.0
1002
}
  0
DIMENSION
  5
200
330
A
100
AcDbEntity
  8
notes
  6
Continuous
 62
     7
370
     5
390
1D
100
AcDbDimension
  2
*D38
 10
1631.049473016608
 20
2339.923092255281
 30
0.0
 11
1620.224155469303
 21
2344.923092255281
 31
0.0
 70
   160
 71
     5
 42
125.0
 73
     0
 74
     0
 75
     0
  3
tform線あり
100
AcDbAlignedDimension
 13
1756.049473016608
 23
2334.965967693111
 33
0.0
 14
1631.049473016608
 24
2334.965967693111
 34
0.0
100
AcDbRotatedDimension
1001
ACAD
1000
DSTYLE
1002
{
1070
   279
1070
     2
1070
   340
1005
3F
1070
     3
1000
<>(深さ)
1070
   174
1070
     0
1070
   147
1040
5.0
1002
}
  0
DIMENSION
  5
201
330
A
100
AcDbEntity
  8
notes
  6
Continuous
 62
     7
370
     5
390
1D
100
AcDbDimension
  2
*D28
 10
1906.044171401842
 20
2543.465967693111
 30
0.0
 11
1888.827862808092
 21
2445.965967693111
 31
0.0
 70
    32
 71
     5
 42
195.0000000000005
 73
     0
 74
     0
 75
     0
  3
tform線あり
100
AcDbAlignedDimension
 13
1796.049473016608
 23
2348.465967693111
 33
0.0
 14
1751.049473016608
 24
2543.465967693111
 34
0.0
 50
90.0
100
AcDbRotatedDimension
1001
ACAD
1000
DSTYLE
1002
{
1070
   279
1070
     2
1070
   340
1005
3F
1070
   147
1040
5.0
1002
}
  0
DIMENSION
  5
202
330
A
100
AcDbEntity
  8
notes
  6
Continuous
 62
     7
370
     5
390
1D
100
AcDbDimension
  2
*D29
 10
1531.049473016608
 20
2478.464099576111
 30
0.0
 11
1513.833164422858
 21
2510.965033634611
 31
0.0
 70
    32
 71
     5
 42
65.00186811700041
 73
     0
 74
     0
 75
     0
  3
tform線あり
100
AcDbAlignedDimension
 13
1641.049473016608
 23
2543.465967693111
 33
0.0
 14
1631.049473016608
 24
2478.464099576111
 34
0.0
 50
90.0
100
AcDbRotatedDimension
1001
ACAD
1000
DSTYLE
1002
{
1070
   279
1070
     2
1070
   340
1005
3F
1070
   147
1040
5.0
1002
}
  0
MTEXT
  5
203
330
A
100
AcDbEntity
  8
notes
 62
     7
390
1D
100
AcDbMText
 10
1182.906849727108
 20
633.970677329126
 30
0.0
 40
24.4326171875
 41
919.6335985116467
 46
0.0
 71
     1
 72
     1
  1
＝φ30もしくはφ35の水栓取付用穴あけ加工を承ります。\P   必要な場合、ご注文の際にご指示ください。
  7
ＭＳ ゴシック
 11
0.0
 21
1.0
 31
0.0
 73
     1
 44
1.043768984567712
  0
CIRCLE
  5
204
330
A
100
AcDbEntity
  8
notes
  6
STYLE_25
 62
     7
370
     5
390
1D
100
AcDbCircle
 10
1195.448603350709
 20
603.6042758407727
 30
0.0
 40
17.5
  0
MTEXT
  5
205
330
A
100
AcDbEntity
  8
notes
 62
     7
390
1D
100
AcDbMText
 10
1545.690190256189
 20
1433.50313520076
 30
0.0
 40
24.4326171875
 41
0.0
 46
0.0
 71
     1
 72
     1
  1
壁取付ボルト穴(4ヶ所)
  7
ＭＳ ゴシック
 11
0.0
 21
1.0
 31
0.0
 73
     1
 44
0.7828267384257843
  0
LINE
  5
206
330
A
100
AcDbEntity
  8
notes
  6
Continuous
 62
     7
370
     5
390
1D
100
AcDbLine
 10
1686.282720337648
 20
1379.595396878746
 30
0.0
 11
1587.728742596216
 21
1465.309317396541
 31
0.0
  0
LINE
  5
207
330
A
100
AcDbEntity
  8
FAA70-0506
  6
STYLE_25
 62
     7
370
    15
390
1D
100
AcDbLine
 10
1666.332532387649
 20
924.5953968787456
 30
0.0
 11
1706.332532387649
 21
924.5953968787456
 31
0.0
  0
LINE
  5
208
330
A
100
AcDbEntity
  8
FAA70-0506
  6
Continuous
 62
     7
370
    15
390
1D
100
AcDbLine
 10
1766.282720337648
 20
1014.623458897747
 30
0.0
 11
1766.282720337648
 21
1114.534261943076
 31
0.0
  0
LINE
  5
209
330
A
100
AcDbEntity
  8
FAA70-0506
  6
STYLE_25
 62
     7
370
    15
390
1D
100
AcDbLine
 10
1666.332532387649
 20
1204.595396878745
 30
0.0
 11
1706.332532387649
 21
1204.595396878745
 31
0.0
  0
LWPOLYLINE
  5
20A
330
A
100
AcDbEntity
  8
FAA70-0506
  6
Continuous
 62
     7
370
    15
390
1D
100
AcDbPolyline
 90
       17
 70
   129
 43
0.0
 10
1641.282720337647
 20
1564.595396878746
 42
0.41421356237309
 10
1631.282720337647
 20
1554.595396878746
 10
1631.282720337647
 20
574.5953968787461
 42
0.4142135623730984
 10
1641.282720337647
 20
564.5953968787461
 10
1756.282720337648
 20
564.5953968787461
 42
0.414213562373095
 10
1766.282720337648
 20
574.5953968787461
 10
1766.282720337648
 20
969.7367460330127
 10
1766.282720337648
 20
1014.623458897747
 42
-0.3729018752331407
 10
1770.569775975605
 20
1019.572368912754
 10
1806.282720337648
 20
1024.717207323159
 10
1806.282720337648
 20
1104.440513517664
 10
1770.569775975605
 20
1109.58535192807
 42
-0.3729018752331915
 10
1766.282720337648
 20
1114.534261943076
 10
1766.282720337647
 20
1160.713721378097
 10
1766.282720337648
 20
1226.978721918821
 10
1766.282720337648
 20
1553.895269144112
 42
0.3945442706201814
 10
1756.282720337648
 20
1564.595396878746
  0
LINE
  5
20B
330
A
100
AcDbEntity
  8
FAA70-0506
  6
Continuous
 62
     7
370
    15
390
1D
100
AcDbLine
 10
1766.282720337648
 20
903.4717454922895
 30
0.0
 11
1766.282720337648
 21
969.7367460330127
 31
0.0
  0
LINE
  5
20C
330
A
100
AcDbEntity
  8
FAA70-0506
  6
Continuous
 62
     7
370
    15
390
1D
100
AcDbLine
 10
1766.282720337647
 20
1160.713721378097
 30
0.0
 11
1766.282720337648
 21
1226.978721918821
 31
0.0
  0
LINE
  5
20D
330
A
100
AcDbEntity
  8
FAA70-0506
  6
STYLE_25
 62
     7
370
    15
390
1D
100
AcDbLine
 10
1666.332532387649
 20
749.5953968787461
 30
0.0
 11
1706.332532387649
 21
749.5953968787461
 31
0.0
  0
LINE
  5
20E
330
A
100
AcDbEntity
  8
FAA70-0506
  6
STYLE_25
 62
     7
370
    15
390
1D
100
AcDbLine
 10
1666.332532387649
 20
1379.595396878746
 30
0.0
 11
1706.332532387649
 21
1379.595396878746
 31
0.0
  0
CIRCLE
  5
20F
330
A
100
AcDbEntity
  8
FAA70-0506
  6
Continuous
 62
     7
370
    15
390
1D
100
AcDbCircle
 10
726.6288362240009
 20
1064.578860420412
 30
0.0
 40
26.00000000000006
  0
CIRCLE
  5
210
330
A
100
AcDbEntity
  8
FAA70-0506
  6
Continuous
 62
     7
370
    15
390
1D
100
AcDbCircle
 10
726.6288362240009
 20
1064.578860420412
 30
0.0
 40
37.50000000000006
  0
LINE
  5
211
330
A
100
AcDbEntity
  8
FAA70-0506
  6
Continuous
 62
     7
370
    15
390
1D
100
AcDbLine
 10
666.7294134724681
 20
599.5788604204129
 30
0.0
 11
956.6005940280237
 21
599.5788604204129
 31
0.0
  0
LINE
  5
212
330
A
100
AcDbEntity
  8
FAA70-0506
  6
Continuous
 62
     7
370
    15
390
1D
100
AcDbLine
 10
656.6294134724682
 20
609.5788604204125
 30
0.0
 11
656.6294134724682
 21
1519.578860420413
 31
0.0
  0
LINE
  5
213
330
A
100
AcDbEntity
  8
FAA70-0506
  6
Continuous
 62
     7
370
    15
390
1D
100
AcDbLine
 10
966.6005940280237
 20
609.5788604204125
 30
0.0
 11
966.6005940280237
 21
1519.578860420413
 31
0.0
  0
LINE
  5
214
330
A
100
AcDbEntity
  8
FAA70-0506
  6
Continuous
 62
     7
370
    15
390
1D
100
AcDbLine
 10
666.7294134724681
 20
1529.578860420412
 30
0.0
 11
956.6005940280237
 21
1529.578860420412
 31
0.0
  0
ARC
  5
215
330
A
100
AcDbEntity
  8
FAA70-0506
  6
Continuous
 62
     7
370
    15
390
1D
100
AcDbCircle
 10
666.6294134724682
 20
1519.578860420412
 30
0.0
 40
10.0
100
AcDbArc
 50
90.0
 51
180.0
  0
ARC
  5
216
330
A
100
AcDbEntity
  8
FAA70-0506
  6
Continuous
 62
     7
370
    15
390
1D
100
AcDbCircle
 10
666.6294134724682
 20
609.5788604204129
 30
0.0
 40
10.0
100
AcDbArc
 50
180.0
 51
270.0
  0
ARC
  5
217
330
A
100
AcDbEntity
  8
FAA70-0506
  6
Continuous
 62
     7
370
    15
390
1D
100
AcDbCircle
 10
956.6005940280237
 20
609.5788604204129
 30
0.0
 40
10.0
100
AcDbArc
 50
270.0
 51
0.0
  0
ARC
  5
218
330
A
100
AcDbEntity
  8
FAA70-0506
  6
Continuous
 62
     7
370
    15
390
1D
100
AcDbCircle
 10
956.6005940280237
 20
1519.578860420412
 30
0.0
 40
10.0
100
AcDbArc
 50
0.0
 51
90.0
  0
LWPOLYLINE
  5
219
330
A
100
AcDbEntity
  8
FAA70-0506
  6
Continuous
 62
     7
370
    15
390
1D
100
AcDbPolyline
 90
        8
 70
   129
 43
0.0
 10
536.628836224001
 20
1564.578860420412
 42
0.414213562373095
 10
531.628836224001
 20
1559.578860420412
 10
531.628836224001
 20
569.578860420413
 42
0.414213562373095
 10
536.628836224001
 20
564.578860420413
 10
991.6288362240008
 20
564.578860420413
 42
0.414213562373095
 10
1001.628836224001
 20
574.578860420413
 10
1001.628836224001
 20
1554.578860420412
 42
0.414213562373095
 10
991.6288362240008
 20
1564.578860420412
  0
ARC
  5
21A
330
A
100
AcDbEntity
  8
FAA70-0506
  6
STYLE_25
 62
     7
370
    15
390
1D
100
AcDbCircle
 10
1637.432715382657
 20
2427.335779347338
 30
0.0
 40
6.467225337981083
100
AcDbArc
 50
170.7563104187398
 51
260.7563104187355
  0
ARC
  5
21B
330
A
100
AcDbEntity
  8
FAA70-0506
  6
STYLE_25
 62
     7
370
    15
390
1D
100
AcDbCircle
 10
1737.123426023804
 20
2402.096600620516
 30
0.0
 40
9.99999999999972
100
AcDbArc
 50
2.999999999997823
 51
85.0000000000001
  0
LINE
  5
21C
330
A
100
AcDbEntity
  8
FAA70-0506
  6
STYLE_25
 62
     7
370
    15
390
1D
100
AcDbLine
 10
1755.708060144185
 20
2387.233203748445
 30
0.0
 11
1747.109721371349
 21
2402.619960182945
 31
0.0
  0
LWPOLYLINE
  5
21D
330
A
100
AcDbEntity
  8
FAA70-0506
  6
Continuous
 62
     7
370
    15
390
1D
100
AcDbPolyline
 90
       20
 70
   129
 43
0.0
 10
1641.049473016608
 20
2073.465967693109
 42
-0.4142135623730967
 10
1631.049473016608
 20
2083.465967693109
 10
1631.049473016608
 20
2533.465967693112
 42
-0.4142135623730817
 10
1641.049473016608
 20
2543.465967693111
 10
1756.049473016608
 20
2543.458295069717
 42
-0.4142135623730851
 10
1766.049473016608
 20
2533.458295069717
 10
1766.049473016608
 20
2425.958295069716
 10
1766.021230820631
 20
2403.465967693111
 10
1766.021230820631
 20
2403.407626362329
 42
0.3741658354231933
 10
1770.321230820631
 20
2398.465967693111
 10
1806.021230820631
 20
2393.66596769311
 10
1806.021230820631
 20
2313.26596769311
 10
1770.321230820631
 20
2308.46596769311
 42
0.3741658354232062
 10
1766.021230820631
 20
2303.524309023892
 10
1766.021230820631
 20
2303.46596769311
 10
1766.049473016608
 20
2298.458295069716
 10
1766.049473016608
 20
2084.158295069714
 42
-0.3938894426416011
 10
1756.073883345192
 20
2073.460003792715
 10
1756.049473016608
 20
2073.458295069714
 10
1751.049473016608
 20
2073.465967693109
  0
ARC
  5
21E
330
A
100
AcDbEntity
  8
FAA70-0506
  6
STYLE_25
 62
     7
370
    15
390
1D
100
AcDbCircle
 10
1637.432715382657
 20
2113.175052703666
 30
0.0
 40
6.46722533798083
100
AcDbArc
 50
99.2436895812632
 51
189.2436895812605
  0
ARC
  5
21F
330
A
100
AcDbEntity
  8
FAA70-0506
  6
STYLE_25
 62
     7
370
    15
390
1D
100
AcDbCircle
 10
1737.6738381399
 20
2138.081198647217
 30
0.0
 40
10.0000000000001
100
AcDbArc
 50
274.9999999999999
 51
357.0000000000049
  0
LINE
  5
220
330
A
100
AcDbEntity
  8
FAA70-0506
  6
STYLE_25
 62
     7
370
    15
390
1D
100
AcDbLine
 10
1756.258472260281
 20
2319.332625937839
 30
0.0
 11
1747.610447125545
 21
2137.560202968702
 31
0.0
  0
LINE
  5
221
330
A
100
AcDbEntity
  8
FAA70-0506
  6
STYLE_25
 62
     7
370
    15
390
1D
100
AcDbLine
 10
1756.049473016608
 20
2387.233203748445
 30
0.0
 11
1756.049473016608
 21
2353.449431234777
 31
0.0
  0
LINE
  5
222
330
A
100
AcDbEntity
  8
FAA70-0506
  6
STYLE_25
 62
     7
370
    15
390
1D
100
AcDbLine
 10
1763.833245530276
 20
2379.449431234777
 30
0.0
 11
1806.049473016608
 21
2379.449431234777
 31
0.0
  0
LINE
  5
223
330
A
100
AcDbEntity
  8
FAA70-0506
  6
STYLE_25
 62
     7
370
    15
390
1D
100
AcDbLine
 10
1756.049473016608
 20
2387.233203748445
 30
0.0
 11
1763.833245530276
 21
2379.449431234777
 31
0.0
  0
LINE
  5
224
330
A
100
AcDbEntity
  8
FAA70-0506
  6
Continuous
 62
     7
370
    15
390
1D
100
AcDbLine
 10
1766.049473016608
 20
2403.421369215775
 30
0.0
 11
1766.049473016608
 21
2303.510566170445
 31
0.0
  0
LINE
  5
225
330
A
100
AcDbEntity
  8
FAA70-0506
  6
STYLE_25
 62
     7
370
    15
390
1D
100
AcDbLine
 10
1763.833245530276
 20
2379.449431234777
 30
0.0
 11
1763.833245530276
 21
2353.449431234777
 31
0.0
  0
LINE
  5
226
330
A
100
AcDbEntity
  8
FAA70-0506
  6
STYLE_25
 62
     7
370
    15
390
1D
100
AcDbLine
 10
1756.049473016608
 20
2319.665658721109
 30
0.0
 11
1756.049473016608
 21
2353.449431234777
 31
0.0
  0
LINE
  5
227
330
A
100
AcDbEntity
  8
FAA70-0506
  6
STYLE_25
 62
     7
370
    15
390
1D
100
AcDbLine
 10
1763.833245530276
 20
2327.449431234777
 30
0.0
 11
1806.049473016608
 21
2327.449431234777
 31
0.0
  0
LINE
  5
228
330
A
100
AcDbEntity
  8
FAA70-0506
  6
STYLE_25
 62
     7
370
    15
390
1D
100
AcDbLine
 10
1756.049473016608
 20
2319.665658721109
 30
0.0
 11
1763.833245530276
 21
2327.449431234777
 31
0.0
  0
LINE
  5
229
330
A
100
AcDbEntity
  8
FAA70-0506
  6
STYLE_25
 62
     7
370
    15
390
1D
100
AcDbLine
 10
1763.833245530276
 20
2327.449431234777
 30
0.0
 11
1763.833245530276
 21
2353.449431234777
 31
0.0
  0
LINE
  5
22A
330
A
100
AcDbEntity
  8
FAA70-0506
  6
STYLE_25
 62
     7
370
    15
390
1D
100
AcDbLine
 10
1636.393860018082
 20
2119.558295069715
 30
0.0
 11
1738.545395567376
 21
2128.1192516663
 31
0.0
  0
LINE
  5
22B
330
A
100
AcDbEntity
  8
FAA70-0506
  6
STYLE_25
 62
     7
370
    15
390
1D
100
AcDbLine
 10
1636.393860018082
 20
2420.952536981289
 30
0.0
 11
1737.99498345128
 21
2412.058547601433
 31
0.0
  0
CIRCLE
  5
22C
330
A
100
AcDbEntity
  8
FAA70-0506
  6
STYLE_25
 62
     7
370
    15
390
1D
100
AcDbCircle
 10
590.1917398613572
 20
1164.605268396604
 30
0.0
 40
17.50000000000006
  0
CIRCLE
  5
22D
330
A
100
AcDbEntity
  8
FAA70-0506
  6
STYLE_25
 62
     7
370
    15
390
1D
100
AcDbCircle
 10
590.1917398613572
 20
1264.605268396604
 30
0.0
 40
17.50000000000006
  0
CIRCLE
  5
22E
330
A
100
AcDbEntity
  8
FAA70-0506
  6
STYLE_25
 62
     7
370
    15
390
1D
100
AcDbCircle
 10
590.1917398613572
 20
1364.605268396604
 30
0.0
 40
17.50000000000006
  0
CIRCLE
  5
22F
330
A
100
AcDbEntity
  8
FAA70-0506
  6
STYLE_25
 62
     7
370
    15
390
1D
100
AcDbCircle
 10
590.1917398613572
 20
964.6052683966043
 30
0.0
 40
17.50000000000011
  0
CIRCLE
  5
230
330
A
100
AcDbEntity
  8
FAA70-0506
  6
STYLE_25
 62
     7
370
    15
390
1D
100
AcDbCircle
 10
590.1917398613572
 20
864.6052683966043
 30
0.0
 40
17.50000000000011
  0
CIRCLE
  5
231
330
A
100
AcDbEntity
  8
FAA70-0506
  6
STYLE_25
 62
     7
370
    15
390
1D
100
AcDbCircle
 10
590.1917398613572
 20
764.6052683966043
 30
0.0
 40
17.50000000000011
  0
CIRCLE
  5
232
330
A
100
AcDbEntity
  8
FAA70-0506
  6
STYLE_25
 62
     7
370
     5
390
1D
100
AcDbCircle
 10
590.1917398613572
 20
2353.005268396604
 30
0.0
 40
17.50000000000023
  0
CIRCLE
  5
233
330
A
100
AcDbEntity
  8
FAA70-0506
  6
STYLE_25
 62
     7
370
     5
390
1D
100
AcDbCircle
 10
590.1917398613572
 20
2453.005268396604
 30
0.0
 40
17.50000000000023
  0
CIRCLE
  5
234
330
A
100
AcDbEntity
  8
FAA70-0506
  6
STYLE_25
 62
     7
370
     5
390
1D
100
AcDbCircle
 10
590.1917398613572
 20
2553.005268396604
 30
0.0
 40
17.50000000000023
  0
CIRCLE
  5
235
330
A
100
AcDbEntity
  8
FAA70-0506
  6
STYLE_25
 62
     7
370
     5
390
1D
100
AcDbCircle
 10
590.1917398613572
 20
2153.005268396604
 30
0.0
 40
17.50000000000011
  0
CIRCLE
  5
236
330
A
100
AcDbEntity
  8
FAA70-0506
  6
STYLE_25
 62
     7
370
     5
390
1D
100
AcDbCircle
 10
590.1917398613572
 20
2053.005268396604
 30
0.0
 40
17.50000000000011
  0
CIRCLE
  5
237
330
A
100
AcDbEntity
  8
FAA70-0506
  6
STYLE_25
 62
     7
370
     5
390
1D
100
AcDbCircle
 10
590.1917398613572
 20
1953.005268396604
 30
0.0
 40
17.50000000000011
  0
CIRCLE
  5
238
330
A
100
AcDbEntity
  8
FAA70-0506
 62
     7
370
     5
390
1D
100
AcDbCircle
 10
590.1917398613572
 20
2253.005268396604
 30
0.0
 40
17.50000000000011
  0
ARC
  5
239
330
A
100
AcDbEntity
  8
FAA70-0506
  6
STYLE_25
 62
     7
370
    15
390
1D
100
AcDbCircle
 10
1637.763272160213
 20
1524.657262364409
 30
0.0
 40
6.467225337980837
100
AcDbArc
 50
183.1562899828508
 51
260.7563104187371
  0
ARC
  5
23A
330
A
100
AcDbEntity
  8
FAA70-0506
  6
STYLE_25
 62
     7
370
    15
390
1D
100
AcDbCircle
 10
1735.45152459947
 20
1499.418083637587
 30
0.0
 40
10.00000000000006
100
AcDbArc
 50
2.999999999997755
 51
85.0000000000015
  0
LINE
  5
23B
330
A
100
AcDbEntity
  8
FAA70-0506
  6
STYLE_25
 62
     7
370
    15
390
1D
100
AcDbLine
 10
1756.049473016608
 20
1030.795087906744
 30
0.0
 11
1756.049473016608
 21
1064.578860420412
 31
0.0
  0
LINE
  5
23C
330
A
100
AcDbEntity
  8
FAA70-0506
  6
STYLE_25
 62
     7
370
    15
390
1D
100
AcDbLine
 10
1763.833245530276
 20
1038.578860420412
 30
0.0
 11
1806.049473016608
 21
1038.578860420412
 31
0.0
  0
LINE
  5
23D
330
A
100
AcDbEntity
  8
FAA70-0506
  6
STYLE_25
 62
     7
370
    15
390
1D
100
AcDbLine
 10
1756.049473016608
 20
1030.795087906744
 30
0.0
 11
1763.833245530276
 21
1038.578860420412
 31
0.0
  0
LINE
  5
23E
330
A
100
AcDbEntity
  8
FAA70-0506
  6
STYLE_25
 62
     7
370
    15
390
1D
100
AcDbLine
 10
1763.833245530276
 20
1038.578860420412
 30
0.0
 11
1763.833245530276
 21
1064.578860420412
 31
0.0
  0
LINE
  5
23F
330
A
100
AcDbEntity
  8
FAA70-0506
  6
STYLE_25
 62
     7
370
    15
390
1D
100
AcDbLine
 10
1756.049473016608
 20
1098.36263293408
 30
0.0
 11
1756.049473016608
 21
1064.578860420412
 31
0.0
  0
LINE
  5
240
330
A
100
AcDbEntity
  8
FAA70-0506
  6
STYLE_25
 62
     7
370
    15
390
1D
100
AcDbLine
 10
1763.833245530276
 20
1090.578860420412
 30
0.0
 11
1806.049473016608
 21
1090.578860420412
 31
0.0
  0
LINE
  5
241
330
A
100
AcDbEntity
  8
FAA70-0506
  6
STYLE_25
 62
     7
370
    15
390
1D
100
AcDbLine
 10
1756.049473016608
 20
1098.36263293408
 30
0.0
 11
1763.833245530276
 21
1090.578860420412
 31
0.0
  0
LINE
  5
242
330
A
100
AcDbEntity
  8
FAA70-0506
  6
STYLE_25
 62
     7
370
    15
390
1D
100
AcDbLine
 10
1763.833245530276
 20
1090.578860420412
 30
0.0
 11
1763.833245530276
 21
1064.578860420412
 31
0.0
  0
LINE
  5
243
330
A
100
AcDbEntity
  8
FAA70-0506
  6
STYLE_25
 62
     7
370
    15
390
1D
100
AcDbLine
 10
1636.724416795639
 20
1518.27401999836
 30
0.0
 11
1736.323082026947
 21
1509.380030618505
 31
0.0
  0
LINE
  5
244
330
A
100
AcDbEntity
  8
FAA70-0506
  6
STYLE_25
 62
     7
370
    15
390
1D
100
AcDbLine
 10
1745.437819947016
 20
1499.941443200016
 30
0.0
 11
1756.049473016608
 21
1098.36263293408
 31
0.0
  0
ARC
  5
245
330
A
100
AcDbEntity
  8
FAA70-0506
  6
STYLE_25
 62
     7
370
    15
390
1D
100
AcDbCircle
 10
1637.763272160213
 20
604.5004584764145
 30
0.0
 40
6.46722533798083
100
AcDbArc
 50
99.24368958126287
 51
176.8437100171492
  0
ARC
  5
246
330
A
100
AcDbEntity
  8
FAA70-0506
  6
STYLE_25
 62
     7
370
    15
390
1D
100
AcDbCircle
 10
1735.45152459947
 20
629.7396372032367
 30
0.0
 40
10.00000000000078
100
AcDbArc
 50
274.9999999999994
 51
357.0000000000024
  0
LINE
  5
247
330
A
100
AcDbEntity
  8
FAA70-0506
  6
STYLE_25
 62
     7
370
    15
390
1D
100
AcDbLine
 10
1636.724416795639
 20
610.8837008424632
 30
0.0
 11
1736.323082026947
 21
619.7776902223185
 31
0.0
  0
LINE
  5
248
330
A
100
AcDbEntity
  8
FAA70-0506
  6
STYLE_25
 62
     7
370
    15
390
1D
100
AcDbLine
 10
1745.437819947016
 20
629.2162776408077
 30
0.0
 11
1756.049473016608
 21
1030.795087906744
 31
0.0
  0
LINE
  5
249
330
A
100
AcDbEntity
  8
FAA70-0506
  6
STYLE_25
 62
     7
370
    15
390
1D
100
AcDbLine
 10
1686.332532387649
 20
1359.595396878746
 30
0.0
 11
1686.332532387649
 21
1399.595396878746
 31
0.0
  0
LINE
  5
24A
330
A
100
AcDbEntity
  8
FAA70-0506
  6
STYLE_25
 62
     7
370
    15
390
1D
100
AcDbLine
 10
1686.332532387649
 20
1184.595396878745
 30
0.0
 11
1686.332532387649
 21
1224.595396878745
 31
0.0
  0
LINE
  5
24B
330
A
100
AcDbEntity
  8
FAA70-0506
  6
STYLE_25
 62
     7
370
    15
390
1D
100
AcDbLine
 10
1686.332532387649
 20
904.5953968787456
 30
0.0
 11
1686.332532387649
 21
944.5953968787456
 31
0.0
  0
LINE
  5
24C
330
A
100
AcDbEntity
  8
FAA70-0506
  6
STYLE_25
 62
     7
370
    15
390
1D
100
AcDbLine
 10
1686.332532387649
 20
729.595396878746
 30
0.0
 11
1686.332532387649
 21
769.5953968787462
 31
0.0
  0
CIRCLE
  5
24D
330
A
100
AcDbEntity
  8
FAA70-0506
  6
STYLE_25
 62
     7
370
    15
390
1D
100
AcDbCircle
 10
1686.332532387649
 20
1379.595396878746
 30
0.0
 40
10.0
  0
CIRCLE
  5
24E
330
A
100
AcDbEntity
  8
FAA70-0506
  6
STYLE_25
 62
     7
370
    15
390
1D
100
AcDbCircle
 10
1686.332532387649
 20
1204.595396878745
 30
0.0
 40
10.0
  0
CIRCLE
  5
24F
330
A
100
AcDbEntity
  8
FAA70-0506
  6
STYLE_25
 62
     7
370
    15
390
1D
100
AcDbCircle
 10
1686.332532387649
 20
924.5953968787456
 30
0.0
 40
10.0
  0
CIRCLE
  5
250
330
A
100
AcDbEntity
  8
FAA70-0506
  6
STYLE_25
 62
     7
370
    15
390
1D
100
AcDbCircle
 10
1686.332532387649
 20
749.5953968787461
 30
0.0
 40
10.0
  0
LWPOLYLINE
  5
251
330
A
100
AcDbEntity
  8
FAA70-0506
  6
STYLE_25
 62
     7
370
     5
390
1D
100
AcDbPolyline
 90
        8
 70
   129
 43
0.0
 10
536.628836224001
 20
2753.015040630309
 42
0.414213562373095
 10
531.628836224001
 20
2748.015040630309
 10
531.628836224001
 20
1758.01504063031
 42
0.414213562373095
 10
536.628836224001
 20
1753.01504063031
 10
991.6288362240008
 20
1753.01504063031
 42
0.4142135623730934
 10
1001.628836224001
 20
1763.01504063031
 10
1001.628836224001
 20
2743.015040630309
 42
0.4142135623730934
 10
991.6288362240008
 20
2753.015040630309
  0
POLYLINE
  5
252
330
A
100
AcDbEntity
  8
FAA70-0506
  6
Continuous
 62
     7
370
    15
390
1D
100
AcDb2dPolyline
 66
     1
 10
0.0
 20
0.0
 30
0.0
 70
     1
 75
     5
  0
VERTEX
  5
253
330
252
100
AcDbEntity
  8
FAA70-0506
  6
Continuous
 62
     7
370
    15
390
1D
100
AcDbVertex
100
AcDb2dVertex
 10
561.628836224001
 20
2578.01504063031
 30
0.0
  0
VERTEX
  5
254
330
252
100
AcDbEntity
  8
FAA70-0506
  6
Continuous
 62
     7
370
    15
390
1D
100
AcDbVertex
100
AcDb2dVertex
 10
861.6288362240009
 20
2578.01504063031
 30
0.0
  0
VERTEX
  5
255
330
252
100
AcDbEntity
  8
FAA70-0506
  6
Continuous
 62
     7
370
    15
390
1D
100
AcDbVertex
100
AcDb2dVertex
 10
861.6288362240009
 20
1928.01504063031
 30
0.0
  0
VERTEX
  5
256
330
252
100
AcDbEntity
  8
FAA70-0506
  6
Continuous
 62
     7
370
    15
390
1D
100
AcDbVertex
100
AcDb2dVertex
 10
561.628836224001
 20
1928.01504063031
 30
0.0
  0
SEQEND
  5
257
330
252
100
AcDbEntity
  8
FAA70-0506
  6
Continuous
 62
     7
370
    15
390
1D
  0
LINE
  5
258
330
A
100
AcDbEntity
  8
FAA70-0506
  6
Continuous
 62
     7
370
     5
390
1D
100
AcDbLine
 10
531.628836224001
 20
1703.01504063031
 30
0.0
 11
531.628836224001
 21
2803.015040630309
 31
0.0
  0
LINE
  5
259
330
A
100
AcDbEntity
  8
FAA70-0506
  6
Continuous
 62
     7
370
     5
390
1D
100
AcDbLine
 10
531.628836224001
 20
2743.125450059392
 30
0.0
 11
494.628836224001
 21
2780.125450059392
 31
0.0
  0
LINE
  5
25A
330
A
100
AcDbEntity
  8
FAA70-0506
  6
Continuous
 62
     7
370
     5
390
1D
100
AcDbLine
 10
531.628836224001
 20
2763.125450059392
 30
0.0
 11
494.628836224001
 21
2800.125450059392
 31
0.0
  0
LINE
  5
25B
330
A
100
AcDbEntity
  8
FAA70-0506
  6
Continuous
 62
     7
370
     5
390
1D
100
AcDbLine
 10
531.628836224001
 20
2783.125450059392
 30
0.0
 11
494.628836224001
 21
2820.125450059392
 31
0.0
  0
CIRCLE
  5
25C
330
A
100
AcDbEntity
  8
FAA70-0506
  6
STYLE_25
 62
     7
370
     5
390
1D
100
AcDbCircle
 10
726.6288362240009
 20
2253.015040630309
 30
0.0
 40
26.00000000000011
  0
CIRCLE
  5
25D
330
A
100
AcDbEntity
  8
FAA70-0506
  6
Continuous
 62
     7
370
    15
390
1D
100
AcDbCircle
 10
931.628836224001
 20
2053.01504063031
 30
0.0
 40
5.0
  0
CIRCLE
  5
25E
330
A
100
AcDbEntity
  8
FAA70-0506
  6
Continuous
 62
     7
370
    15
390
1D
100
AcDbCircle
 10
931.628836224001
 20
2453.01504063031
 30
0.0
 40
5.0
  0
LINE
  5
25F
330
A
100
AcDbEntity
  8
FAA70-0506
  6
Continuous
 62
     7
370
    15
390
1D
100
AcDbLine
 10
1631.049473016608
 20
2495.964099576111
 30
0.0
 11
1646.049473016608
 21
2495.964099576111
 31
0.0
  0
LINE
  5
260
330
A
100
AcDbEntity
  8
FAA70-0506
  6
Continuous
 62
     7
370
    15
390
1D
100
AcDbLine
 10
1631.049473016608
 20
2460.964099576111
 30
0.0
 11
1646.049473016608
 21
2460.964099576111
 31
0.0
  0
CIRCLE
  5
261
330
A
100
AcDbEntity
  8
FAA70-0506
 62
     7
370
    15
390
1D
100
AcDbCircle
 10
590.1917398613572
 20
1060.465400466016
 30
0.0
 40
17.50000000000006
  0
MTEXT
  5
2F1
330
A
100
AcDbEntity
  8
notes
 62
     7
390
1D
100
AcDbMText
 10
298.5990441196196
 20
1196.258850536528
 30
0.0
 40
24.4326171875
 41
0.0
 46
24.4326171875
 71
     1
 72
     1
  1
{%%c35}
  7
ＭＳ ゴシック
 11
0.0
 21
1.0
 31
0.0
 73
     1
 44
0.7828267384257843
1001
ACAD
1000
ACAD_MTEXT_DEFINED_HEIGHT_BEGIN
1070
    46
1040
24.4326171875
1000
ACAD_MTEXT_DEFINED_HEIGHT_END
  0
LINE
  5
2F2
330
A
100
AcDbEntity
  8
notes
  6
Continuous
 62
     7
370
     5
390
1D
100
AcDbLine
 10
575.0660877531416
 20
1069.266800826256
 30
0.0
 11
340.6375964596471
 21
1205.677382859964
 31
0.0
  0
ENDSEC
  0
SECTION
  2
OBJECTS
  0
DICTIONARY
  5
19
330
0
100
AcDbDictionary
281
     1
  3
ACAD_DETAILVIEWSTYLE
350
2B1
  3
ACAD_GROUP
350
1A
  3
ACAD_IMAGE_VARS
350
2A7
  3
ACAD_LAYOUT
350
1E
  3
ACAD_MATERIAL
350
29D
  3
ACAD_MLEADERSTYLE
350
2A3
  3
ACAD_MLINESTYLE
350
1B
  3
ACAD_PLOTSETTINGS
350
22
  3
ACAD_PLOTSTYLENAME
350
1F
  3
ACAD_SCALELIST
350
262
  3
ACAD_SECTIONVIEWSTYLE
350
2B2
  3
ACAD_TABLESTYLE
350
2A1
  3
ACAD_VISUALSTYLE
350
284
  3
ACDB_RECOMPOSE_DATA
350
371
  3
AcDbVariableDictionary
350
2A8
  3
APPDATA
350
2A5
  0
SUN
  5
2A6
330
15
100
AcDbSun
 90
        1
290
     0
 63
     7
421
 16777215
 40
1.0
291
     1
 91
  2455826
 92
 54000000
292
     0
 70
     2
 71
   256
280
     1
  0
DICTIONARY
  5
2B1
102
{ACAD_REACTORS
330
19
102
}
330
19
100
AcDbDictionary
281
     1
  0
DICTIONARY
  5
1A
102
{ACAD_REACTORS
330
19
102
}
330
19
100
AcDbDictionary
281
     1
  0
RASTERVARIABLES
  5
2A7
102
{ACAD_REACTORS
330
19
102
}
330
19
100
AcDbRasterVariables
 90
        0
 70
     1
 71
     1
 72
     1
  0
DICTIONARY
  5
1E
102
{ACAD_REACTORS
330
19
102
}
330
19
100
AcDbDictionary
281
     1
  3
Layout1
350
21
  3
Model
350
20
  0
DICTIONARY
  5
29D
102
{ACAD_REACTORS
330
19
102
}
330
19
100
AcDbDictionary
281
     1
  3
ByBlock
350
29F
  3
ByLayer
350
29E
  3
Global
350
2A0
  0
DICTIONARY
  5
2A3
102
{ACAD_REACTORS
330
19
102
}
330
19
100
AcDbDictionary
281
     1
  3
Standard
350
2A4
  0
DICTIONARY
  5
1B
102
{ACAD_REACTORS
330
19
102
}
330
19
100
AcDbDictionary
281
     1
  3
Standard
350
1C
  0
DICTIONARY
  5
22
102
{ACAD_REACTORS
330
19
102
}
330
19
100
AcDbDictionary
281
     1
  0
ACDBDICTIONARYWDFLT
  5
1F
102
{ACAD_REACTORS
330
19
102
}
330
19
100
AcDbDictionary
281
     1
  3
Normal
350
1D
100
AcDbDictionaryWithDefault
340
1D
  0
DICTIONARY
  5
262
102
{ACAD_REACTORS
330
19
102
}
330
19
100
AcDbDictionary
281
     1
  3
A0
350
263
  3
A1
350
264
  3
A2
350
265
  3
A3
350
266
  3
A4
350
267
  3
A5
350
268
  3
A6
350
269
  3
A7
350
26A
  3
A8
350
26B
  3
A9
350
26C
  3
B0
350
26D
  3
B1
350
26E
  3
B2
350
26F
  3
B3
350
270
  3
B4
350
271
  3
B5
350
272
  3
B6
350
273
  3
B7
350
274
  3
B8
350
275
  3
B9
350
276
  3
C0
350
277
  3
C1
350
278
  3
C2
350
279
  3
C3
350
27A
  3
C4
350
27B
  3
C5
350
27C
  3
C6
350
27D
  3
C7
350
27E
  3
C8
350
27F
  3
C9
350
280
  3
D0
350
281
  3
D1
350
282
  3
D2
350
283
  0
DICTIONARY
  5
2B2
102
{ACAD_REACTORS
330
19
102
}
330
19
100
AcDbDictionary
281
     1
  0
DICTIONARY
  5
2A1
102
{ACAD_REACTORS
330
19
102
}
330
19
100
AcDbDictionary
281
     1
  3
Standard
350
2A2
  0
DICTIONARY
  5
284
102
{ACAD_REACTORS
330
19
102
}
330
19
100
AcDbDictionary
281
     1
  3
2dWireframe
350
289
  3
Basic
350
28C
  3
Brighten
350
290
  3
ColorChange
350
294
  3
Conceptual
350
28E
  3
Dim
350
28F
  3
EdgeColorOff
350
297
  3
Facepattern
350
293
  3
Flat
350
285
  3
FlatWithEdges
350
286
  3
Gouraud
350
287
  3
GouraudWithEdges
350
288
  3
Hidden
350
28B
  3
JitterOff
350
295
  3
Linepattern
350
292
  3
OverhangOff
350
296
  3
Realistic
350
28D
  3
Shaded
350
29C
  3
Shaded with edges
350
29B
  3
Shades of Gray
350
298
  3
Sketchy
350
299
  3
Thicken
350
291
  3
Wireframe
350
28A
  3
X-Ray
350
29A
  0
XRECORD
  5
371
102
{ACAD_REACTORS
330
19
102
}
330
19
100
AcDbXrecord
280
     1
 90
        1
330
2A2
  0
DICTIONARY
  5
2A8
102
{ACAD_REACTORS
330
19
102
}
330
19
100
AcDbDictionary
281
     1
  3
CANNOSCALE
350
2A9
  3
CMLEADERSTYLE
350
2AF
  3
CTABLESTYLE
350
2AE
  3
MSLTSCALE
350
2B0
  3
XCLIPFRAME
350
2F6
  0
DICTIONARY
  5
2A5
102
{ACAD_REACTORS
330
19
102
}
330
19
100
AcDbDictionary
281
     1
  0
LAYOUT
  5
21
102
{ACAD_REACTORS
330
1E
102
}
330
1E
100
AcDbPlotSettings
  1

  2

  4

  6

 40
0.0
 41
0.0
 42
0.0
 43
0.0
 44
0.0
 45
0.0
 46
0.0
 47
0.0
 48
0.0
 49
0.0
140
0.0
141
0.0
142
1.0
143
1.0
 70
     0
 72
     0
 73
     0
 74
     0
  7

 75
     0
 76
     0
 77
     2
 78
   300
147
1.0
148
0.0
149
0.0
100
AcDbLayout
  1
Layout1
 70
     0
 71
     0
 10
0.0
 20
0.0
 11
0.0
 21
0.0
 12
0.0
 22
0.0
 32
0.0
 14
0.0
 24
0.0
 34
0.0
 15
0.0
 25
0.0
 35
0.0
146
0.0
 13
0.0
 23
0.0
 33
0.0
 16
0.0
 26
0.0
 36
0.0
 17
0.0
 27
0.0
 37
0.0
 76
     0
330
B
  0
LAYOUT
  5
20
102
{ACAD_REACTORS
330
1E
102
}
330
1E
100
AcDbPlotSettings
  1

  2

  4

  6

 40
0.0
 41
0.0
 42
0.0
 43
0.0
 44
0.0
 45
0.0
 46
0.0
 47
0.0
 48
0.0
 49
0.0
140
0.0
141
0.0
142
1.0
143
1.0
 70
  1024
 72
     0
 73
     0
 74
     0
  7

 75
     0
 76
     0
 77
     2
 78
   300
147
1.0
148
0.0
149
0.0
100
AcDbLayout
  1
Model
 70
     0
 71
     1
 10
87.0
 20
0.0000000000000568
 11
2186.999999999999
 21
2970.0
 12
0.0
 22
0.0
 32
0.0
 14
164.4325323874079
 24
62.66992519713494
 34
0.0
 15
2114.43253238789
 25
2896.024450378993
 35
0.0
146
0.0
 13
0.0
 23
0.0
 33
0.0
 16
0.0
 26
0.0
 36
0.0
 17
0.0
 27
0.0
 37
0.0
 76
     0
330
A
331
15
  0
MATERIAL
  5
29F
102
{ACAD_REACTORS
330
29D
102
}
330
29D
100
AcDbMaterial
  1
ByBlock
 72
     1
 94
      127
  0
MATERIAL
  5
29E
102
{ACAD_REACTORS
330
29D
102
}
330
29D
100
AcDbMaterial
  1
ByLayer
 72
     1
 94
      127
  0
MATERIAL
  5
2A0
102
{ACAD_REACTORS
330
29D
102
}
330
29D
100
AcDbMaterial
  1
Global
 72
     1
 94
      127
  0
MLEADERSTYLE
  5
2A4
102
{ACAD_REACTORS
330
2A3
102
}
330
2A3
100
AcDbMLeaderStyle
170
     2
171
     1
172
     0
 90
        2
 40
0.0
 41
0.0
173
     1
 91
-1056964608
340
11
 92
       -2
290
     1
 42
2.0
291
     1
 43
8.0
  3
Standard
341
0
 44
4.0
300

342
17
174
     1
178
     1
175
     1
176
     0
 93
-1056964608
 45
4.0
292
     0
297
     0
 46
4.0
343
0
 94
-1056964608
 47
1.0
 49
1.0
140
1.0
293
     1
141
0.0
294
     1
177
     0
142
1.0
295
     0
296
     0
143
3.75
1001
ACAD_MLEADERVER
1070
     2
  0
MLINESTYLE
  5
1C
102
{ACAD_REACTORS
330
1B
102
}
330
1B
100
AcDbMlineStyle
  2
Standard
 70
     0
  3

 62
     0
 51
90.0
 52
90.0
 71
     2
 49
0.5
 62
   256
  6
BYLAYER
 49
-0.5
 62
   256
  6
BYLAYER
  0
ACDBPLACEHOLDER
  5
1D
102
{ACAD_REACTORS
330
1F
102
}
330
1F
  0
SCALE
  5
263
102
{ACAD_REACTORS
330
262
102
}
330
262
100
AcDbScale
 70
     0
300
1:1
140
1.0
141
1.0
290
     1
  0
SCALE
  5
264
102
{ACAD_REACTORS
330
262
102
}
330
262
100
AcDbScale
 70
     0
300
1:2
140
1.0
141
2.0
290
     0
  0
SCALE
  5
265
102
{ACAD_REACTORS
330
262
102
}
330
262
100
AcDbScale
 70
     0
300
1:4
140
1.0
141
4.0
290
     0
  0
SCALE
  5
266
102
{ACAD_REACTORS
330
262
102
}
330
262
100
AcDbScale
 70
     0
300
1:5
140
1.0
141
5.0
290
     0
  0
SCALE
  5
267
102
{ACAD_REACTORS
330
262
102
}
330
262
100
AcDbScale
 70
     0
300
1:8
140
1.0
141
8.0
290
     0
  0
SCALE
  5
268
102
{ACAD_REACTORS
330
262
102
}
330
262
100
AcDbScale
 70
     0
300
1:10
140
1.0
141
10.0
290
     0
  0
SCALE
  5
269
102
{ACAD_REACTORS
330
262
102
}
330
262
100
AcDbScale
 70
     0
300
1:16
140
1.0
141
16.0
290
     0
  0
SCALE
  5
26A
102
{ACAD_REACTORS
330
262
102
}
330
262
100
AcDbScale
 70
     0
300
1:20
140
1.0
141
20.0
290
     0
  0
SCALE
  5
26B
102
{ACAD_REACTORS
330
262
102
}
330
262
100
AcDbScale
 70
     0
300
1:30
140
1.0
141
30.0
290
     0
  0
SCALE
  5
26C
102
{ACAD_REACTORS
330
262
102
}
330
262
100
AcDbScale
 70
     0
300
1:40
140
1.0
141
40.0
290
     0
  0
SCALE
  5
26D
102
{ACAD_REACTORS
330
262
102
}
330
262
100
AcDbScale
 70
     0
300
1:50
140
1.0
141
50.0
290
     0
  0
SCALE
  5
26E
102
{ACAD_REACTORS
330
262
102
}
330
262
100
AcDbScale
 70
     0
300
1:100
140
1.0
141
100.0
290
     0
  0
SCALE
  5
26F
102
{ACAD_REACTORS
330
262
102
}
330
262
100
AcDbScale
 70
     0
300
2:1
140
2.0
141
1.0
290
     0
  0
SCALE
  5
270
102
{ACAD_REACTORS
330
262
102
}
330
262
100
AcDbScale
 70
     0
300
4:1
140
4.0
141
1.0
290
     0
  0
SCALE
  5
271
102
{ACAD_REACTORS
330
262
102
}
330
262
100
AcDbScale
 70
     0
300
8:1
140
8.0
141
1.0
290
     0
  0
SCALE
  5
272
102
{ACAD_REACTORS
330
262
102
}
330
262
100
AcDbScale
 70
     0
300
10:1
140
10.0
141
1.0
290
     0
  0
SCALE
  5
273
102
{ACAD_REACTORS
330
262
102
}
330
262
100
AcDbScale
 70
     0
300
100:1
140
100.0
141
1.0
290
     0
  0
SCALE
  5
274
102
{ACAD_REACTORS
330
262
102
}
330
262
100
AcDbScale
 70
     0
300
1/128" = 1'-0"
140
0.0078125
141
12.0
290
     0
  0
SCALE
  5
275
102
{ACAD_REACTORS
330
262
102
}
330
262
100
AcDbScale
 70
     0
300
1/64" = 1'-0"
140
0.015625
141
12.0
290
     0
  0
SCALE
  5
276
102
{ACAD_REACTORS
330
262
102
}
330
262
100
AcDbScale
 70
     0
300
1/32" = 1'-0"
140
0.03125
141
12.0
290
     0
  0
SCALE
  5
277
102
{ACAD_REACTORS
330
262
102
}
330
262
100
AcDbScale
 70
     0
300
1/16" = 1'-0"
140
0.0625
141
12.0
290
     0
  0
SCALE
  5
278
102
{ACAD_REACTORS
330
262
102
}
330
262
100
AcDbScale
 70
     0
300
3/32" = 1'-0"
140
0.09375
141
12.0
290
     0
  0
SCALE
  5
279
102
{ACAD_REACTORS
330
262
102
}
330
262
100
AcDbScale
 70
     0
300
1/8" = 1'-0"
140
0.125
141
12.0
290
     0
  0
SCALE
  5
27A
102
{ACAD_REACTORS
330
262
102
}
330
262
100
AcDbScale
 70
     0
300
3/16" = 1'-0"
140
0.1875
141
12.0
290
     0
  0
SCALE
  5
27B
102
{ACAD_REACTORS
330
262
102
}
330
262
100
AcDbScale
 70
     0
300
1/4" = 1'-0"
140
0.25
141
12.0
290
     0
  0
SCALE
  5
27C
102
{ACAD_REACTORS
330
262
102
}
330
262
100
AcDbScale
 70
     0
300
3/8" = 1'-0"
140
0.375
141
12.0
290
     0
  0
SCALE
  5
27D
102
{ACAD_REACTORS
330
262
102
}
330
262
100
AcDbScale
 70
     0
300
1/2" = 1'-0"
140
0.5
141
12.0
290
     0
  0
SCALE
  5
27E
102
{ACAD_REACTORS
330
262
102
}
330
262
100
AcDbScale
 70
     0
300
3/4" = 1'-0"
140
0.75
141
12.0
290
     0
  0
SCALE
  5
27F
102
{ACAD_REACTORS
330
262
102
}
330
262
100
AcDbScale
 70
     0
300
1" = 1'-0"
140
1.0
141
12.0
290
     0
  0
SCALE
  5
280
102
{ACAD_REACTORS
330
262
102
}
330
262
100
AcDbScale
 70
     0
300
1-1/2" = 1'-0"
140
1.5
141
12.0
290
     0
  0
SCALE
  5
281
102
{ACAD_REACTORS
330
262
102
}
330
262
100
AcDbScale
 70
     0
300
3" = 1'-0"
140
3.0
141
12.0
290
     0
  0
SCALE
  5
282
102
{ACAD_REACTORS
330
262
102
}
330
262
100
AcDbScale
 70
     0
300
6" = 1'-0"
140
6.0
141
12.0
290
     0
  0
SCALE
  5
283
102
{ACAD_REACTORS
330
262
102
}
330
262
100
AcDbScale
 70
     0
300
1'-0" = 1'-0"
140
12.0
141
12.0
290
     0
  0
TABLESTYLE
  5
2A2
102
{ACAD_REACTORS
330
2A1
102
}
102
{ACAD_XDICTIONARY
360
36F
102
}
330
2A1
100
AcDbTableStyle
  3
Standard
 70
     0
 71
     0
 40
0.06
 41
0.06
280
     0
281
     0
  7
Standard
140
4.5
170
     2
 62
     0
 63
   257
283
     0
 90
        4
 91
        0
  1

274
    -2
284
     1
 64
     0
275
    -2
285
     1
 65
     0
276
    -2
286
     1
 66
     0
277
    -2
287
     1
 67
     0
278
    -2
288
     1
 68
     0
279
    -2
289
     1
 69
     0
  7
Standard
140
6.0
170
     5
 62
     0
 63
   257
283
     0
 90
        4
 91
        0
  1

274
    -2
284
     1
 64
     0
275
    -2
285
     1
 65
     0
276
    -2
286
     1
 66
     0
277
    -2
287
     1
 67
     0
278
    -2
288
     1
 68
     0
279
    -2
289
     1
 69
     0
  7
Standard
140
4.5
170
     5
 62
     0
 63
   257
283
     0
 90
        4
 91
        0
  1

274
    -2
284
     1
 64
     0
275
    -2
285
     1
 65
     0
276
    -2
286
     1
 66
     0
277
    -2
287
     1
 67
     0
278
    -2
288
     1
 68
     0
279
    -2
289
     1
 69
     0
  0
VISUALSTYLE
  5
289
102
{ACAD_REACTORS
330
284
102
}
330
284
100
AcDbVisualStyle
  2
2dWireframe
 70
     4
 71
     0
 72
     2
 73
     0
 90
        0
 40
0.6
 41
30.0
 62
     5
 63
     7
421
 16777215
 74
     1
 91
        4
 64
     7
 65
   257
 75
     1
175
     1
 42
1.0
 92
        0
 66
   257
 43
1.0
 76
     1
 77
     6
 78
     2
 67
     7
 79
     5
170
     0
171
     0
290
     0
174
     0
 93
        1
 44
0.0
173
     0
291
     0
 45
0.0
  0
VISUALSTYLE
  5
28C
102
{ACAD_REACTORS
330
284
102
}
330
284
100
AcDbVisualStyle
  2
Basic
 70
     7
 71
     1
 72
     0
 73
     1
 90
        0
 40
0.6
 41
30.0
 62
     5
 63
     7
421
 16777215
 74
     0
 91
        4
 64
     7
 65
   257
 75
     1
175
     1
 42
1.0
 92
        8
 66
     7
 43
1.0
 76
     1
 77
     6
 78
     2
 67
     7
 79
     5
170
     0
171
     0
290
     0
174
     0
 93
        1
 44
0.0
173
     0
291
     1
 45
0.0
  0
VISUALSTYLE
  5
290
102
{ACAD_REACTORS
330
284
102
}
330
284
100
AcDbVisualStyle
  2
Brighten
 70
    12
 71
     2
 72
     2
 73
     0
 90
        0
 40
0.6
 41
30.0
 62
     5
 63
     7
421
 16777215
 74
     1
 91
        4
 64
     7
 65
   257
 75
     1
175
     1
 42
1.0
 92
        8
 66
     7
 43
1.0
 76
     1
 77
     6
 78
     2
 67
     7
 79
     5
170
     0
171
     0
290
     0
174
     0
 93
        1
 44
50.0
173
     0
291
     1
 45
0.0
  0
VISUALSTYLE
  5
294
102
{ACAD_REACTORS
330
284
102
}
330
284
100
AcDbVisualStyle
  2
ColorChange
 70
    16
 71
     2
 72
     2
 73
     3
 90
        0
 40
0.6
 41
30.0
 62
     5
 63
     8
421
  8421504
 74
     1
 91
        4
 64
     7
 65
   257
 75
     1
175
     1
 42
1.0
 92
        8
 66
     8
424
  8421504
 43
1.0
 76
     1
 77
     6
 78
     2
 67
     7
 79
     5
170
     0
171
     0
290
     0
174
     0
 93
        1
 44
0.0
173
     0
291
     1
 45
0.0
  0
VISUALSTYLE
  5
28E
102
{ACAD_REACTORS
330
284
102
}
330
284
100
AcDbVisualStyle
  2
Conceptual
 70
     9
 71
     3
 72
     2
 73
     0
 90
        0
 40
0.6
 41
30.0
 62
     5
 63
     7
421
 16777215
 74
     2
 91
        2
 64
     7
 65
   257
 75
     1
175
     1
 42
179.0
 92
        8
 66
     7
 43
1.0
 76
     1
 77
     6
 78
     2
 67
     7
 79
     3
170
     0
171
     0
290
     0
174
     0
 93
        1
 44
0.0
173
     0
291
     0
 45
0.0
  0
VISUALSTYLE
  5
28F
102
{ACAD_REACTORS
330
284
102
}
330
284
100
AcDbVisualStyle
  2
Dim
 70
    11
 71
     2
 72
     2
 73
     0
 90
        0
 40
0.6
 41
30.0
 62
     5
 63
     7
421
 16777215
 74
     1
 91
        4
 64
     7
 65
   257
 75
     1
175
     1
 42
1.0
 92
        8
 66
     7
 43
1.0
 76
     1
 77
     6
 78
     2
 67
     7
 79
     5
170
     0
171
     0
290
     0
174
     0
 93
        1
 44
-50.0
173
     0
291
     1
 45
0.0
  0
VISUALSTYLE
  5
297
102
{ACAD_REACTORS
330
284
102
}
330
284
100
AcDbVisualStyle
  2
EdgeColorOff
 70
    22
 71
     2
 72
     2
 73
     0
 90
        0
 40
0.6
 41
30.0
 62
     5
 63
     7
421
 16777215
 74
     1
 91
        4
 64
     7
 65
   257
 75
     1
175
     1
 42
1.0
 92
        8
 66
     7
 43
1.0
 76
     1
 77
     6
 78
     2
 67
     7
 79
     5
170
     0
171
     0
290
     0
174
     0
 93
        1
 44
0.0
173
     0
291
     1
 45
0.0
  0
VISUALSTYLE
  5
293
102
{ACAD_REACTORS
330
284
102
}
330
284
100
AcDbVisualStyle
  2
Facepattern
 70
    15
 71
     2
 72
     2
 73
     0
 90
        0
 40
0.6
 41
30.0
 62
     5
 63
     7
421
 16777215
 74
     1
 91
        4
 64
     7
 65
   257
 75
     1
175
     1
 42
1.0
 92
        8
 66
     7
 43
1.0
 76
     1
 77
     6
 78
     2
 67
     7
 79
     5
170
     0
171
     0
290
     0
174
     0
 93
        1
 44
0.0
173
     0
291
     1
 45
0.0
  0
VISUALSTYLE
  5
285
102
{ACAD_REACTORS
330
284
102
}
330
284
100
AcDbVisualStyle
  2
Flat
 70
     0
 71
     2
 72
     1
 73
     1
 90
        2
 40
0.6
 41
30.0
 62
     5
 63
     7
421
 16777215
 74
     0
 91
        0
 64
     7
 65
   257
 75
     1
175
     1
 42
1.0
 92
        8
 66
     7
 43
1.0
 76
     1
 77
     6
 78
     2
 67
     7
 79
     5
170
     0
171
     0
290
     0
174
     0
 93
       13
 44
0.0
173
     0
291
     1
 45
0.0
  0
VISUALSTYLE
  5
286
102
{ACAD_REACTORS
330
284
102
}
330
284
100
AcDbVisualStyle
  2
FlatWithEdges
 70
     1
 71
     2
 72
     1
 73
     1
 90
        2
 40
0.6
 41
30.0
 62
     5
 63
     7
421
 16777215
 74
     1
 91
        0
 64
     7
 65
   257
 75
     1
175
     1
 42
1.0
 92
        0
 66
   257
 43
1.0
 76
     1
 77
     6
 78
     2
 67
     7
 79
     5
170
     0
171
     0
290
     0
174
     0
 93
       13
 44
0.0
173
     0
291
     1
 45
0.0
  0
VISUALSTYLE
  5
287
102
{ACAD_REACTORS
330
284
102
}
330
284
100
AcDbVisualStyle
  2
Gouraud
 70
     2
 71
     2
 72
     2
 73
     1
 90
        2
 40
0.6
 41
30.0
 62
     5
 63
     7
421
 16777215
 74
     0
 91
        0
 64
     7
 65
   257
 75
     1
175
     1
 42
1.0
 92
        0
 66
     7
 43
1.0
 76
     1
 77
     6
 78
     2
 67
     7
 79
     5
170
     0
171
     0
290
     0
174
     0
 93
       13
 44
0.0
173
     0
291
     1
 45
0.0
  0
VISUALSTYLE
  5
288
102
{ACAD_REACTORS
330
284
102
}
330
284
100
AcDbVisualStyle
  2
GouraudWithEdges
 70
     3
 71
     2
 72
     2
 73
     1
 90
        2
 40
0.6
 41
30.0
 62
     5
 63
     7
421
 16777215
 74
     1
 91
        0
 64
     7
 65
   257
 75
     1
175
     1
 42
1.0
 92
        0
 66
   257
 43
1.0
 76
     1
 77
     6
 78
     2
 67
     7
 79
     5
170
     0
171
     0
290
     0
174
     0
 93
       13
 44
0.0
173
     0
291
     1
 45
0.0
  0
VISUALSTYLE
  5
28B
102
{ACAD_REACTORS
330
284
102
}
330
284
100
AcDbVisualStyle
  2
Hidden
 70
     6
 71
     1
 72
     2
 73
     2
 90
        0
 40
0.6
 41
30.0
 62
     5
 63
     7
421
 16777215
 74
     2
 91
        2
 64
     7
 65
   257
 75
     2
175
     1
 42
40.0
 92
        0
 66
   257
 43
1.0
 76
     1
 77
     6
 78
     2
 67
     7
 79
     3
170
     0
171
     0
290
     0
174
     0
 93
        1
 44
0.0
173
     0
291
     0
 45
0.0
  0
VISUALSTYLE
  5
295
102
{ACAD_REACTORS
330
284
102
}
330
284
100
AcDbVisualStyle
  2
JitterOff
 70
    20
 71
     2
 72
     2
 73
     0
 90
        0
 40
0.6
 41
30.0
 62
     5
 63
     7
421
 16777215
 74
     1
 91
        4
 64
     7
 65
   257
 75
     1
175
     1
 42
1.0
 92
       10
 66
     7
 43
1.0
 76
     1
 77
     6
 78
     2
 67
     7
 79
     5
170
     0
171
     0
290
     0
174
     0
 93
        1
 44
0.0
173
     0
291
     1
 45
0.0
  0
VISUALSTYLE
  5
292
102
{ACAD_REACTORS
330
284
102
}
330
284
100
AcDbVisualStyle
  2
Linepattern
 70
    14
 71
     2
 72
     2
 73
     0
 90
        0
 40
0.6
 41
30.0
 62
     5
 63
     7
421
 16777215
 74
     1
 91
        4
 64
     7
 65
   257
 75
     7
175
     7
 42
1.0
 92
        8
 66
     7
 43
1.0
 76
     1
 77
     6
 78
     2
 67
     7
 79
     5
170
     0
171
     0
290
     0
174
     0
 93
        1
 44
0.0
173
     0
291
     1
 45
0.0
  0
VISUALSTYLE
  5
296
102
{ACAD_REACTORS
330
284
102
}
330
284
100
AcDbVisualStyle
  2
OverhangOff
 70
    21
 71
     2
 72
     2
 73
     0
 90
        0
 40
0.6
 41
30.0
 62
     5
 63
     7
421
 16777215
 74
     1
 91
        4
 64
     7
 65
   257
 75
     1
175
     1
 42
1.0
 92
        9
 66
     7
 43
1.0
 76
     1
 77
     6
 78
     2
 67
     7
 79
     5
170
     0
171
     0
290
     0
174
     0
 93
        1
 44
0.0
173
     0
291
     1
 45
0.0
  0
VISUALSTYLE
  5
28D
102
{ACAD_REACTORS
330
284
102
}
330
284
100
AcDbVisualStyle
  2
Realistic
 70
     8
 71
     2
 72
     3
 73
     0
 90
        2
 40
0.6
 41
30.0
 62
     5
 63
     7
421
 16777215
 74
     0
 91
        0
 64
     7
 65
   257
 75
     1
175
     1
 42
1.0
 92
        8
 66
   257
 43
1.0
 76
     1
 77
     6
 78
     2
 67
     7
 79
     3
170
     0
171
     0
290
     0
174
     0
 93
       13
 44
0.0
173
     0
291
     0
 45
0.0
  0
VISUALSTYLE
  5
29C
102
{ACAD_REACTORS
330
284
102
}
330
284
100
AcDbVisualStyle
  2
Shaded
 70
    27
 71
     2
 72
     2
 73
     1
 90
        2
 40
0.6
 41
30.0
 62
     5
 63
     7
421
 16777215
 74
     0
 91
        4
 64
     7
 65
   257
 75
     1
175
     1
 42
1.0
 92
        8
 66
   257
 43
1.0
 76
     1
 77
     6
 78
     2
 67
     8
425
  7895160
 79
     3
170
     0
171
     0
290
     0
174
     0
 93
        5
 44
0.0
173
     0
291
     0
 45
0.0
  0
VISUALSTYLE
  5
29B
102
{ACAD_REACTORS
330
284
102
}
330
284
100
AcDbVisualStyle
  2
Shaded with edges
 70
    26
 71
     2
 72
     2
 73
     1
 90
        2
 40
0.6
 41
30.0
 62
     5
 63
     7
421
 16777215
 74
     1
 91
       10
 64
     7
 65
   257
 75
     2
175
     1
 42
1.0
 92
        8
 66
   257
 43
1.0
 76
     1
 77
     6
 78
     2
 67
     7
 79
     3
170
     0
171
     0
290
     0
174
     0
 93
        5
 44
0.0
173
     0
291
     0
 45
0.0
  0
VISUALSTYLE
  5
298
102
{ACAD_REACTORS
330
284
102
}
330
284
100
AcDbVisualStyle
  2
Shades of Gray
 70
    23
 71
     2
 72
     2
 73
     3
 90
        0
 40
0.6
 41
30.0
 62
     5
 63
     7
421
 16777215
 74
     2
 91
        2
 64
     7
 65
     7
 75
     1
175
     1
 42
40.0
 92
        8
 66
     7
 43
1.0
 76
     1
 77
     6
 78
     2
 67
     7
 79
     3
170
     0
171
     0
290
     0
174
     0
 93
        1
 44
0.0
173
     0
291
     0
 45
0.0
  0
VISUALSTYLE
  5
299
102
{ACAD_REACTORS
330
284
102
}
330
284
100
AcDbVisualStyle
  2
Sketchy
 70
    24
 71
     1
 72
     2
 73
     2
 90
        0
 40
0.6
 41
30.0
 62
     5
 63
     7
421
 16777215
 74
     2
 91
        2
 64
     7
 65
     7
 75
     1
175
     1
 42
40.0
 92
       11
 66
     7
 43
1.0
 76
     1
 77
     6
 78
     2
 67
     7
 79
     6
170
     0
171
     0
290
     0
174
     0
 93
        1
 44
0.0
173
     0
291
     0
 45
0.0
  0
VISUALSTYLE
  5
291
102
{ACAD_REACTORS
330
284
102
}
330
284
100
AcDbVisualStyle
  2
Thicken
 70
    13
 71
     2
 72
     2
 73
     0
 90
        0
 40
0.6
 41
30.0
 62
     5
 63
     7
421
 16777215
 74
     1
 91
        4
 64
     7
 65
   257
 75
     1
175
     1
 42
1.0
 92
       12
 66
     7
 43
1.0
 76
     1
 77
     6
 78
     2
 67
     7
 79
     5
170
     0
171
     0
290
     0
174
     0
 93
        1
 44
0.0
173
     0
291
     1
 45
0.0
  0
VISUALSTYLE
  5
28A
102
{ACAD_REACTORS
330
284
102
}
330
284
100
AcDbVisualStyle
  2
Wireframe
 70
     5
 71
     0
 72
     2
 73
     0
 90
        0
 40
0.6
 41
30.0
 62
     5
 63
     7
421
 16777215
 74
     1
 91
        4
 64
     7
 65
   257
 75
     1
175
     1
 42
1.0
 92
        0
 66
   257
 43
1.0
 76
     1
 77
     6
 78
     2
 67
     7
 79
     3
170
     0
171
     0
290
     0
174
     0
 93
        1
 44
0.0
173
     0
291
     0
 45
0.0
  0
VISUALSTYLE
  5
29A
102
{ACAD_REACTORS
330
284
102
}
330
284
100
AcDbVisualStyle
  2
X-Ray
 70
    25
 71
     2
 72
     2
 73
     1
 90
        1
 40
0.5
 41
30.0
 62
     5
 63
     7
421
 16777215
 74
     1
 91
        0
 64
     7
 65
   257
 75
     1
175
     1
 42
1.0
 92
        8
 66
     7
 43
1.0
 76
     1
 77
     6
 78
     2
 67
     7
 79
     3
170
     0
171
     0
290
     0
174
     0
 93
       13
 44
0.0
173
     0
291
     0
 45
0.0
  0
DICTIONARYVAR
  5
2A9
102
{ACAD_REACTORS
330
2A8
102
}
330
2A8
100
DictionaryVariables
280
     0
  1
1:1
  0
DICTIONARYVAR
  5
2AF
102
{ACAD_REACTORS
330
2A8
102
}
330
2A8
100
DictionaryVariables
280
     0
  1
Standard
  0
DICTIONARYVAR
  5
2AE
102
{ACAD_REACTORS
330
2A8
102
}
330
2A8
100
DictionaryVariables
280
     0
  1
Standard
  0
DICTIONARYVAR
  5
2B0
102
{ACAD_REACTORS
330
2A8
102
}
330
2A8
100
DictionaryVariables
280
     0
  1
0
  0
DICTIONARYVAR
  5
2F6
102
{ACAD_REACTORS
330
2A8
102
}
330
2A8
100
DictionaryVariables
280
     0
  1
0
  0
DICTIONARY
  5
36F
330
2A2
100
AcDbDictionary
280
     1
281
     1
  3
ACAD_ROUNDTRIP_2008_TABLESTYLE_CELLSTYLEMAP
360
370
  0
CELLSTYLEMAP
  5
370
102
{ACAD_REACTORS
330
36F
102
}
330
36F
100
AcDbCellStyleMap
 90
        3
300
CELLSTYLE
  1
TABLEFORMAT_BEGIN
 90
        5
170
     1
 91
        0
 92
    32768
 62
   257
 93
        1
300
CONTENTFORMAT
  1
CONTENTFORMAT_BEGIN
 90
        0
 91
        0
 92
        4
 93
        0
300

 40
0.0
140
1.0
 94
        5
 62
     0
340
17
144
6.0
309
CONTENTFORMAT_END
171
     1
301
MARGIN
  1
CELLMARGIN_BEGIN
 40
1.5
 40
1.5
 40
1.5
 40
1.5
 40
1.5
 40
1.5
309
CELLMARGIN_END
 94
        6
 95
        1
302
GRIDFORMAT
  1
GRIDFORMAT_BEGIN
 90
        0
 91
        1
 62
     0
 92
       -2
340
11
 93
        0
 40
0.045
309
GRIDFORMAT_END
 95
        2
302
GRIDFORMAT
  1
GRIDFORMAT_BEGIN
 90
        0
 91
        1
 62
     0
 92
       -2
340
11
 93
        0
 40
0.045
309
GRIDFORMAT_END
 95
        4
302
GRIDFORMAT
  1
GRIDFORMAT_BEGIN
 90
        0
 91
        1
 62
     0
 92
       -2
340
11
 93
        0
 40
0.045
309
GRIDFORMAT_END
 95
        8
302
GRIDFORMAT
  1
GRIDFORMAT_BEGIN
 90
        0
 91
        1
 62
     0
 92
       -2
340
11
 93
        0
 40
0.045
309
GRIDFORMAT_END
 95
       16
302
GRIDFORMAT
  1
GRIDFORMAT_BEGIN
 90
        0
 91
        1
 62
     0
 92
       -2
340
11
 93
        0
 40
0.045
309
GRIDFORMAT_END
 95
       32
302
GRIDFORMAT
  1
GRIDFORMAT_BEGIN
 90
        0
 91
        1
 62
     0
 92
       -2
340
11
 93
        0
 40
0.045
309
GRIDFORMAT_END
309
TABLEFORMAT_END
  1
CELLSTYLE_BEGIN
 90
        1
 91
        1
300
_TITLE
309
CELLSTYLE_END
300
CELLSTYLE
  1
TABLEFORMAT_BEGIN
 90
        5
170
     1
 91
        0
 92
        0
 62
   257
 93
        1
300
CONTENTFORMAT
  1
CONTENTFORMAT_BEGIN
 90
        0
 91
        0
 92
        4
 93
        0
300

 40
0.0
140
1.0
 94
        5
 62
     0
340
17
144
4.5
309
CONTENTFORMAT_END
171
     1
301
MARGIN
  1
CELLMARGIN_BEGIN
 40
1.5
 40
1.5
 40
1.5
 40
1.5
 40
1.5
 40
1.5
309
CELLMARGIN_END
 94
        6
 95
        1
302
GRIDFORMAT
  1
GRIDFORMAT_BEGIN
 90
        0
 91
        1
 62
     0
 92
       -2
340
11
 93
        0
 40
0.045
309
GRIDFORMAT_END
 95
        2
302
GRIDFORMAT
  1
GRIDFORMAT_BEGIN
 90
        0
 91
        1
 62
     0
 92
       -2
340
11
 93
        0
 40
0.045
309
GRIDFORMAT_END
 95
        4
302
GRIDFORMAT
  1
GRIDFORMAT_BEGIN
 90
        0
 91
        1
 62
     0
 92
       -2
340
11
 93
        0
 40
0.045
309
GRIDFORMAT_END
 95
        8
302
GRIDFORMAT
  1
GRIDFORMAT_BEGIN
 90
        0
 91
        1
 62
     0
 92
       -2
340
11
 93
        0
 40
0.045
309
GRIDFORMAT_END
 95
       16
302
GRIDFORMAT
  1
GRIDFORMAT_BEGIN
 90
        0
 91
        1
 62
     0
 92
       -2
340
11
 93
        0
 40
0.045
309
GRIDFORMAT_END
 95
       32
302
GRIDFORMAT
  1
GRIDFORMAT_BEGIN
 90
        0
 91
        1
 62
     0
 92
       -2
340
11
 93
        0
 40
0.045
309
GRIDFORMAT_END
309
TABLEFORMAT_END
  1
CELLSTYLE_BEGIN
 90
        2
 91
        1
300
_HEADER
309
CELLSTYLE_END
300
CELLSTYLE
  1
TABLEFORMAT_BEGIN
 90
        5
170
     1
 91
        0
 92
        0
 62
   257
 93
        1
300
CONTENTFORMAT
  1
CONTENTFORMAT_BEGIN
 90
        0
 91
        0
 92
        4
 93
        0
300

 40
0.0
140
1.0
 94
        2
 62
     0
340
17
144
4.5
309
CONTENTFORMAT_END
171
     1
301
MARGIN
  1
CELLMARGIN_BEGIN
 40
1.5
 40
1.5
 40
1.5
 40
1.5
 40
1.5
 40
1.5
309
CELLMARGIN_END
 94
        6
 95
        1
302
GRIDFORMAT
  1
GRIDFORMAT_BEGIN
 90
        0
 91
        1
 62
     0
 92
       -2
340
11
 93
        0
 40
0.045
309
GRIDFORMAT_END
 95
        2
302
GRIDFORMAT
  1
GRIDFORMAT_BEGIN
 90
        0
 91
        1
 62
     0
 92
       -2
340
11
 93
        0
 40
0.045
309
GRIDFORMAT_END
 95
        4
302
GRIDFORMAT
  1
GRIDFORMAT_BEGIN
 90
        0
 91
        1
 62
     0
 92
       -2
340
11
 93
        0
 40
0.045
309
GRIDFORMAT_END
 95
        8
302
GRIDFORMAT
  1
GRIDFORMAT_BEGIN
 90
        0
 91
        1
 62
     0
 92
       -2
340
11
 93
        0
 40
0.045
309
GRIDFORMAT_END
 95
       16
302
GRIDFORMAT
  1
GRIDFORMAT_BEGIN
 90
        0
 91
        1
 62
     0
 92
       -2
340
11
 93
        0
 40
0.045
309
GRIDFORMAT_END
 95
       32
302
GRIDFORMAT
  1
GRIDFORMAT_BEGIN
 90
        0
 91
        1
 62
     0
 92
       -2
340
11
 93
        0
 40
0.045
309
GRIDFORMAT_END
309
TABLEFORMAT_END
  1
CELLSTYLE_BEGIN
 90
        3
 91
        2
300
_DATA
309
CELLSTYLE_END
  0
ENDSEC
  0
EOF
