  0
SECTION
  2
HEADER
  9
$ACADVER
  1
AC1021
  9
$ACADMAINTVER
 70
    25
  9
$DWGCODEPAGE
  3
ANSI_932
  9
$LASTSAVEDBY
  1
howeNelson
  9
$INSBASE
 10
0.0
 20
0.0
 30
0.0
  9
$EXTMIN
 10
0.0
 20
0.0
 30
-0.0000000000000071
  9
$EXTMAX
 10
2100.0
 20
2970.0
 30
0.0000000000000071
  9
$LIMMIN
 10
0.0
 20
0.0
  9
$LIMMAX
 10
2100.0
 20
2970.0
  9
$ORTHOMODE
 70
     0
  9
$REGENMODE
 70
     1
  9
$FILLMODE
 70
     1
  9
$QTEXTMODE
 70
     0
  9
$MIRRTEXT
 70
     1
  9
$LTSCALE
 40
5.0
  9
$ATTMODE
 70
     1
  9
$TEXTSIZE
 40
2.5
  9
$TRACEWID
 40
1.0
  9
$TEXTSTYLE
  7
ＭＳ ゴシック
  9
$CLAYER
  8
DIM
  9
$CELTYPE
  6
ByLayer
  9
$CECOLOR
 62
   256
  9
$CELTSCALE
 40
1.0
  9
$DISPSILH
 70
     0
  9
$DIMSCALE
 40
1.0
  9
$DIMASZ
 40
10.0
  9
$DIMEXO
 40
30.0
  9
$DIMDLI
 40
0.9999999999999999
  9
$DIMRND
 40
0.0
  9
$DIMDLE
 40
0.0
  9
$DIMEXE
 40
0.0
  9
$DIMTP
 40
0.0
  9
$DIMTM
 40
0.0
  9
$DIMTXT
 40
24.0
  9
$DIMCEN
 40
0.0
  9
$DIMTSZ
 40
0.0
  9
$DIMTOL
 70
     0
  9
$DIMLIM
 70
     0
  9
$DIMTIH
 70
     0
  9
$DIMTOH
 70
     0
  9
$DIMSE1
 70
     0
  9
$DIMSE2
 70
     0
  9
$DIMTAD
 70
     1
  9
$DIMZIN
 70
    11
  9
$DIMBLK
  1
DOT
  9
$DIMASO
 70
     1
  9
$DIMSHO
 70
     1
  9
$DIMPOST
  1
<>
  9
$DIMAPOST
  1
[]
  9
$DIMALT
 70
     0
  9
$DIMALTD
 70
     1
  9
$DIMALTF
 40
1.0
  9
$DIMLFAC
 40
1.0
  9
$DIMTOFL
 70
     0
  9
$DIMTVP
 40
0.0
  9
$DIMTIX
 70
     1
  9
$DIMSOXD
 70
     0
  9
$DIMSAH
 70
     0
  9
$DIMBLK1
  1

  9
$DIMBLK2
  1

  9
$DIMSTYLE
  2
tfrom線あり
  9
$DIMCLRD
 70
     0
  9
$DIMCLRE
 70
     0
  9
$DIMCLRT
 70
     0
  9
$DIMTFAC
 40
1.0
  9
$DIMGAP
 40
10.0
  9
$DIMJUST
 70
     0
  9
$DIMSD1
 70
     0
  9
$DIMSD2
 70
     0
  9
$DIMTOLJ
 70
     1
  9
$DIMTZIN
 70
    11
  9
$DIMALTZ
 70
    11
  9
$DIMALTTZ
 70
    11
  9
$DIMUPT
 70
     0
  9
$DIMDEC
 70
     0
  9
$DIMTDEC
 70
     1
  9
$DIMALTU
 70
     2
  9
$DIMALTTD
 70
     2
  9
$DIMTXSTY
  7
ＭＳ ゴシック
  9
$DIMAUNIT
 70
     0
  9
$DIMADEC
 70
     2
  9
$DIMALTRND
 40
0.0
  9
$DIMAZIN
 70
     0
  9
$DIMDSEP
 70
    46
  9
$DIMATFIT
 70
     0
  9
$DIMFRAC
 70
     2
  9
$DIMLDRBLK
  1
DOT
  9
$DIMLUNIT
 70
     2
  9
$DIMLWD
 70
    -2
  9
$DIMLWE
 70
    -2
  9
$DIMTMOVE
 70
     0
  9
$DIMFXL
 40
1.0
  9
$DIMFXLON
 70
     0
  9
$DIMJOGANG
 40
0.7853981633974483
  9
$DIMTFILL
 70
     0
  9
$DIMTFILLCLR
 70
     0
  9
$DIMARCSYM
 70
     0
  9
$DIMLTYPE
  6

  9
$DIMLTEX1
  6

  9
$DIMLTEX2
  6

  9
$LUNITS
 70
     2
  9
$LUPREC
 70
     0
  9
$SKETCHINC
 40
0.1
  9
$FILLETRAD
 40
0.0
  9
$AUNITS
 70
     0
  9
$AUPREC
 70
     0
  9
$MENU
  1
acad
  9
$ELEVATION
 40
0.0
  9
$PELEVATION
 40
0.0
  9
$THICKNESS
 40
0.0
  9
$LIMCHECK
 70
     0
  9
$CHAMFERA
 40
0.0
  9
$CHAMFERB
 40
0.0
  9
$CHAMFERC
 40
0.0
  9
$CHAMFERD
 40
0.0
  9
$SKPOLY
 70
     0
  9
$TDCREATE
 40
2447893.375
  9
$TDUCREATE
 40
0.0
  9
$TDUPDATE
 40
2458645.438642164
  9
$TDUUPDATE
 40
2458645.063642164
  9
$TDINDWG
 40
0.1640751273
  9
$TDUSRTIMER
 40
0.0096019792
  9
$USRTIMER
 70
     1
  9
$ANGBASE
 50
0.0
  9
$ANGDIR
 70
     0
  9
$PDMODE
 70
     1
  9
$PDSIZE
 40
-2.0
  9
$PLINEWID
 40
0.0
  9
$SPLFRAME
 70
     0
  9
$SPLINETYPE
 70
     6
  9
$SPLINESEGS
 70
     8
  9
$HANDSEED
  5
3C10
  9
$SURFTAB1
 70
     6
  9
$SURFTAB2
 70
     6
  9
$SURFTYPE
 70
     6
  9
$SURFU
 70
     6
  9
$SURFV
 70
     6
  9
$UCSBASE
  2

  9
$UCSNAME
  2

  9
$UCSORG
 10
0.0
 20
0.0
 30
0.0
  9
$UCSXDIR
 10
1.0
 20
0.0
 30
0.0
  9
$UCSYDIR
 10
0.0
 20
1.0
 30
0.0
  9
$UCSORTHOREF
  2

  9
$UCSORTHOVIEW
 70
     0
  9
$UCSORGTOP
 10
0.0
 20
0.0
 30
0.0
  9
$UCSORGBOTTOM
 10
0.0
 20
0.0
 30
0.0
  9
$UCSORGLEFT
 10
0.0
 20
0.0
 30
0.0
  9
$UCSORGRIGHT
 10
0.0
 20
0.0
 30
0.0
  9
$UCSORGFRONT
 10
0.0
 20
0.0
 30
0.0
  9
$UCSORGBACK
 10
0.0
 20
0.0
 30
0.0
  9
$PUCSBASE
  2

  9
$PUCSNAME
  2

  9
$PUCSORG
 10
0.0
 20
0.0
 30
0.0
  9
$PUCSXDIR
 10
1.0
 20
0.0
 30
0.0
  9
$PUCSYDIR
 10
0.0
 20
1.0
 30
0.0
  9
$PUCSORTHOREF
  2

  9
$PUCSORTHOVIEW
 70
     0
  9
$PUCSORGTOP
 10
0.0
 20
0.0
 30
0.0
  9
$PUCSORGBOTTOM
 10
0.0
 20
0.0
 30
0.0
  9
$PUCSORGLEFT
 10
0.0
 20
0.0
 30
0.0
  9
$PUCSORGRIGHT
 10
0.0
 20
0.0
 30
0.0
  9
$PUCSORGFRONT
 10
0.0
 20
0.0
 30
0.0
  9
$PUCSORGBACK
 10
0.0
 20
0.0
 30
0.0
  9
$USERI1
 70
     0
  9
$USERI2
 70
     0
  9
$USERI3
 70
     0
  9
$USERI4
 70
     0
  9
$USERI5
 70
     0
  9
$USERR1
 40
0.0
  9
$USERR2
 40
0.0
  9
$USERR3
 40
0.0
  9
$USERR4
 40
0.0
  9
$USERR5
 40
0.0
  9
$WORLDVIEW
 70
     1
  9
$SHADEDGE
 70
     3
  9
$SHADEDIF
 70
    70
  9
$TILEMODE
 70
     1
  9
$MAXACTVP
 70
    64
  9
$PINSBASE
 10
0.0
 20
0.0
 30
0.0
  9
$PLIMCHECK
 70
     0
  9
$PEXTMIN
 10
0.0
 20
0.0
 30
0.0
  9
$PEXTMAX
 10
0.0
 20
0.0
 30
0.0
  9
$PLIMMIN
 10
-7.5
 20
-20.0
  9
$PLIMMAX
 10
412.5
 20
277.0
  9
$UNITMODE
 70
     0
  9
$VISRETAIN
 70
     0
  9
$PLINEGEN
 70
     1
  9
$PSLTSCALE
 70
     0
  9
$TREEDEPTH
 70
  3020
  9
$CMLSTYLE
  2
Standard
  9
$CMLJUST
 70
     0
  9
$CMLSCALE
 40
1.0
  9
$PROXYGRAPHICS
 70
     0
  9
$MEASUREMENT
 70
     1
  9
$CELWEIGHT
370
    -1
  9
$ENDCAPS
280
     0
  9
$JOINSTYLE
280
     0
  9
$LWDISPLAY
290
     1
  9
$INSUNITS
 70
     4
  9
$HYPERLINKBASE
  1

  9
$STYLESHEET
  1

  9
$XEDIT
290
     1
  9
$CEPSNTYPE
380
     0
  9
$PSTYLEMODE
290
     1
  9
$FINGERPRINTGUID
  2

  9
$VERSIONGUID
  2

  9
$EXTNAMES
290
     1
  9
$PSVPSCALE
 40
0.0
  9
$OLESTARTUP
290
     0
  9
$SORTENTS
280
   127
  9
$INDEXCTL
280
     0
  9
$HIDETEXT
280
     1
  9
$XCLIPFRAME
290
     0
  9
$HALOGAP
280
     0
  9
$OBSCOLOR
 70
   257
  9
$OBSLTYPE
280
     0
  9
$INTERSECTIONDISPLAY
280
     0
  9
$INTERSECTIONCOLOR
 70
   257
  9
$DIMASSOC
280
     2
  9
$PROJECTNAME
  1

  9
$CAMERADISPLAY
290
     0
  9
$LENSLENGTH
 40
50.0
  9
$CAMERAHEIGHT
 40
0.0
  9
$STEPSPERSEC
 40
2.0
  9
$STEPSIZE
 40
6.0
  9
$3DDWFPREC
 40
2.0
  9
$PSOLWIDTH
 40
0.25
  9
$PSOLHEIGHT
 40
4.0
  9
$LOFTANG1
 40
1.570796326794897
  9
$LOFTANG2
 40
1.570796326794897
  9
$LOFTMAG1
 40
0.0
  9
$LOFTMAG2
 40
0.0
  9
$LOFTPARAM
 70
     7
  9
$LOFTNORMALS
280
     1
  9
$LATITUDE
 40
37.795
  9
$LONGITUDE
 40
-122.394
  9
$NORTHDIRECTION
 40
0.0
  9
$TIMEZONE
 70
 -8000
  9
$LIGHTGLYPHDISPLAY
280
     1
  9
$TILEMODELIGHTSYNCH
280
     1
  9
$SOLIDHIST
280
     1
  9
$SHOWHIST
280
     1
  9
$DWFFRAME
280
     2
  9
$DGNFRAME
280
     2
  9
$REALWORLDSCALE
290
     1
  9
$INTERFERECOLOR
 62
   256
  9
$CSHADOW
280
     0
  9
$SHADOWPLANELOCATION
 40
0.0
  0
ENDSEC
  0
SECTION
  2
CLASSES
  0
CLASS
  1
LWPOLYLINE
  2
AcDbPolyline
  3
ObjectDBX Classes
 90
        0
 91
        1
280
     0
281
     1
  0
CLASS
  1
IMAGE
  2
AcDbRasterImage
  3
ISM
 90
      127
 91
        6
280
     0
281
     1
  0
CLASS
  1
OLE2FRAME
  2
AcDbOle2Frame
  3
ObjectDBX Classes
 90
        0
 91
        1
280
     0
281
     1
  0
CLASS
  1
HATCH
  2
AcDbHatch
  3
ObjectDBX Classes
 90
        0
 91
        1
280
     0
281
     1
  0
CLASS
  1
DICTIONARYVAR
  2
AcDbDictionaryVar
  3
ObjectDBX Classes
 90
        0
 91
        5
280
     0
281
     0
  0
CLASS
  1
RASTERVARIABLES
  2
AcDbRasterVariables
  3
ISM
 90
        0
 91
        5
280
     0
281
     0
  0
CLASS
  1
IMAGEDEF
  2
AcDbRasterImageDef
  3
ISM
 90
        0
 91
        5
280
     0
281
     0
  0
CLASS
  1
IMAGEDEF_REACTOR
  2
AcDbRasterImageDefReactor
  3
ISM
 90
        1
 91
        5
280
     0
281
     0
  0
CLASS
  1
IDBUFFER
  2
AcDbIdBuffer
  3
ObjectDBX Classes
 90
        0
 91
        5
280
     0
281
     0
  0
CLASS
  1
SPATIAL_FILTER
  2
AcDbSpatialFilter
  3
ObjectDBX Classes
 90
        0
 91
        5
280
     0
281
     0
  0
CLASS
  1
XRECORD
  2
AcDbXrecord
  3
ObjectDBX Classes
 90
        0
 91
        1
280
     0
281
     0
  0
CLASS
  1
SORTENTSTABLE
  2
AcDbSortentsTable
  3
ObjectDBX Classes
 90
        0
 91
        5
280
     0
281
     0
  0
CLASS
  1
LAYER_INDEX
  2
AcDbLayerIndex
  3
ObjectDBX Classes
 90
        0
 91
        5
280
     0
281
     0
  0
CLASS
  1
SPATIAL_INDEX
  2
AcDbSpatialIndex
  3
AutoCAD 2000
 90
        0
 91
        5
280
     0
281
     0
  0
CLASS
  1
OBJECT_PTR
  2
CAseDLPNTableRecord
  3
ASE-LPNTableRecord
 90
        1
 91
        5
280
     0
281
     0
  0
CLASS
  1
LAYOUT
  2
AcDbLayout
  3
ObjectDBX Classes
 90
        0
 91
        1
280
     0
281
     0
  0
CLASS
  1
PLOTSETTINGS
  2
AcDbPlotSettings
  3
ObjectDBX Classes
 90
        0
 91
        5
280
     0
281
     0
  0
CLASS
  1
ACDBDICTIONARYWDFLT
  2
AcDbDictionaryWithDefault
  3
ObjectDBX Classes
 90
        0
 91
        5
280
     0
281
     0
  0
CLASS
  1
ACDBPLACEHOLDER
  2
AcDbPlaceHolder
  3
ObjectDBX Classes
 90
        0
 91
        1
280
     0
281
     0
  0
CLASS
  1
SCALE
  2
AcDbScale
  3
ObjectDBX Classes
 90
     1153
 91
        5
280
     0
281
     0
  0
CLASS
  1
MATERIAL
  2
AcDbMaterial
  3
ObjectDBX Classes
 90
     1153
 91
        5
280
     0
281
     0
  0
CLASS
  1
VISUALSTYLE
  2
AcDbVisualStyle
  3
ObjectDBX Classes
 90
     4095
 91
        5
280
     0
281
     0
  0
CLASS
  1
TABLESTYLE
  2
AcDbTableStyle
  3
ObjectDBX Classes
 90
     4095
 91
        5
280
     0
281
     0
  0
CLASS
  1
DIMASSOC
  2
AcDbDimAssoc
  3
"AcDbDimAssoc|Product Desc:     AcDim ARX App For Dimension|Company:          Autodesk, Inc.|WEB Address:      www.autodesk.com"
 90
        0
 91
        4
280
     0
281
     0
  0
CLASS
  1
CELLSTYLEMAP
  2
AcDbCellStyleMap
  3
ObjectDBX Classes
 90
     1152
 91
        4
280
     0
281
     0
  0
CLASS
  1
SUN
  2
AcDbSun
  3
SCENEOE
 90
     1153
 91
        4
280
     0
281
     0
  0
CLASS
  1
MLEADERSTYLE
  2
AcDbMLeaderStyle
  3
ACDB_MLEADERSTYLE_CLASS
 90
     4095
 91
        5
280
     0
281
     0
  0
CLASS
  1
FIELD
  2
AcDbField
  3
ObjectDBX Classes
 90
     1152
 91
        4
280
     0
281
     0
  0
CLASS
  1
FIELDLIST
  2
AcDbFieldList
  3
ObjectDBX Classes
 90
     1152
 91
        4
280
     0
281
     0
  0
CLASS
  1
MULTILEADER
  2
AcDbMLeader
  3
ACDB_MLEADER_CLASS
 90
     1025
 91
        4
280
     0
281
     1
  0
CLASS
  1
WIPEOUT
  2
AcDbWipeout
  3
WipeOut|AutoCAD Express Tool|expresstools@autodesk.com
 90
      127
 91
        5
280
     0
281
     1
  0
ENDSEC
  0
SECTION
  2
TABLES
  0
TABLE
  2
VPORT
  5
7
330
0
100
AcDbSymbolTable
 70
     1
  0
VPORT
  5
15
330
7
100
AcDbSymbolTableRecord
100
AcDbViewportTableRecord
  2
*ACTIVE
 70
     0
 10
0.0
 20
0.0
 11
1.0
 21
1.0
 12
1141.020135670899
 22
1411.401285469834
 13
0.0
 23
0.0
 14
1.0
 24
1.0
 15
0.0
 25
0.0
 16
0.0
 26
0.0
 36
1.0
 17
-91.02013567089898
 27
73.59871453016603
 37
-46.86809886248109
 40
3029.4
 41
2.339705882352941
 42
50.0
 43
0.0
 44
0.0
 50
0.0
 51
0.0
 71
    16
 72
  2000
 73
     1
 74
     1
 75
     0
 76
     0
 77
     0
 78
     0
281
     0
 65
     1
110
0.0
120
0.0
130
0.0
111
1.0
121
0.0
131
0.0
112
0.0
122
1.0
132
0.0
 79
     0
146
0.0
348
26C
 60
     3
 61
     5
292
     1
282
     1
141
0.0
142
0.0
 63
   256
361
904
  0
ENDTAB
  0
TABLE
  2
LTYPE
  5
4
330
0
100
AcDbSymbolTable
 70
     4
  0
LTYPE
  5
11
330
4
100
AcDbSymbolTableRecord
100
AcDbLinetypeTableRecord
  2
ByBlock
 70
     0
  3

 72
    65
 73
     0
 40
0.0
  0
LTYPE
  5
12
330
4
100
AcDbSymbolTableRecord
100
AcDbLinetypeTableRecord
  2
ByLayer
 70
     0
  3

 72
    65
 73
     0
 40
0.0
  0
LTYPE
  5
13
330
4
100
AcDbSymbolTableRecord
100
AcDbLinetypeTableRecord
  2
Continuous
 70
     0
  3
Solid line
 72
    65
 73
     0
 40
0.0
  0
LTYPE
  5
DAF
330
4
100
AcDbSymbolTableRecord
100
AcDbLinetypeTableRecord
  2
BORDER
 70
     0
  3
Border __  __  . __  __  . __  __  . __  __  . 
 72
    65
 73
     6
 40
44.45
 49
12.7
 74
     0
 49
-6.35
 74
     0
 49
12.7
 74
     0
 49
-6.35
 74
     0
 49
0.0
 74
     0
 49
-6.35
 74
     0
  0
LTYPE
  5
33DD
330
4
100
AcDbSymbolTableRecord
100
AcDbLinetypeTableRecord
  2
HIDDEN
 70
     0
  3
Hidden _ _ _ _ _ _ _ _ _ _ _ _ _ _ _ _ _ _ _ _ 
 72
    65
 73
     2
 40
9.524999999999999
 49
6.35
 74
     0
 49
-3.175
 74
     0
  0
ENDTAB
  0
TABLE
  2
LAYER
  5
2
102
{ACAD_XDICTIONARY
360
2E1
102
}
330
0
100
AcDbSymbolTable
 70
    12
  0
LAYER
  5
14
330
2
100
AcDbSymbolTableRecord
100
AcDbLayerTableRecord
  2
0
 70
     0
 62
     7
  6
Continuous
370
    -3
390
1D
347
266
  0
LAYER
  5
4B
330
2
100
AcDbSymbolTableRecord
100
AcDbLayerTableRecord
  2
TEMPLATE
 70
     0
 62
     7
  6
Continuous
370
    20
390
1D
347
266
  0
LAYER
  5
4C
330
2
100
AcDbSymbolTableRecord
100
AcDbLayerTableRecord
  2
DIM
 70
     0
 62
     3
  6
Continuous
370
    13
390
1D
347
266
  0
LAYER
  5
4D
330
2
100
AcDbSymbolTableRecord
100
AcDbLayerTableRecord
  2
MODEL
 70
     0
 62
     7
  6
Continuous
370
    20
390
1D
347
266
  0
LAYER
  5
D5D
330
2
100
AcDbSymbolTableRecord
100
AcDbLayerTableRecord
  2
Defpoints
 70
     0
 62
     7
  6
Continuous
290
     0
370
    -3
390
1D
347
266
  0
LAYER
  5
DAE
330
2
100
AcDbSymbolTableRecord
100
AcDbLayerTableRecord
  2
BORDER
 70
     0
 62
     4
  6
BORDER
290
     0
370
    20
390
1D
347
266
1001
AcAecLayerStandard
1000

1000

  0
LAYER
  5
157B
330
2
100
AcDbSymbolTableRecord
100
AcDbLayerTableRecord
  2
Layer3
 70
     0
 62
     7
  6
Continuous
370
    -3
390
1D
347
266
  0
LAYER
  5
157F
330
2
100
AcDbSymbolTableRecord
100
AcDbLayerTableRecord
  2
Layer9
 70
     0
 62
     7
  6
Continuous
370
    -3
390
1D
347
266
  0
LAYER
  5
1582
330
2
100
AcDbSymbolTableRecord
100
AcDbLayerTableRecord
  2
Standard
 70
     0
 62
     7
  6
Continuous
370
    -3
390
1D
347
266
  0
LAYER
  5
33DC
330
2
100
AcDbSymbolTableRecord
100
AcDbLayerTableRecord
  2
HIDDEN
 70
     0
 62
     8
  6
HIDDEN
370
    20
390
1D
347
266
1001
AcAecLayerStandard
1000

1000

  0
ENDTAB
  0
TABLE
  2
STYLE
  5
3
330
0
100
AcDbSymbolTable
 70
     3
  0
STYLE
  5
17
330
3
100
AcDbSymbolTableRecord
100
AcDbTextStyleTableRecord
  2
Standard
 70
     0
 40
0.0
 41
1.0
 50
0.0
 71
     0
 42
2.5
  3
txt
  4
BIGFONT.SHX
  0
STYLE
  5
39
330
3
100
AcDbSymbolTableRecord
100
AcDbTextStyleTableRecord
  2
ＭＳ ゴシック
 70
     0
 40
0.0
 41
1.0
 50
0.0
 71
     0
 42
2.5
  3
msgothic.ttc
  4
ＭＳ ゴシック
1001
ACAD
1000
ＭＳ ゴシック
1071
        0
  0
ENDTAB
  0
TABLE
  2
VIEW
  5
5
330
0
100
AcDbSymbolTable
 70
     0
  0
ENDTAB
  0
TABLE
  2
UCS
  5
6
330
0
100
AcDbSymbolTable
 70
     0
  0
ENDTAB
  0
TABLE
  2
APPID
  5
8
330
0
100
AcDbSymbolTable
 70
     3
  0
APPID
  5
16
330
8
100
AcDbSymbolTableRecord
100
AcDbRegAppTableRecord
  2
ACAD
 70
     0
  0
APPID
  5
7AC
330
8
100
AcDbSymbolTableRecord
100
AcDbRegAppTableRecord
  2
AcAecLayerStandard
 70
     0
  0
APPID
  5
F3A
330
8
100
AcDbSymbolTableRecord
100
AcDbRegAppTableRecord
  2
ACAD_MLEADERVER
 70
     0
  0
ENDTAB
  0
TABLE
  2
DIMSTYLE
  5
9
330
0
100
AcDbSymbolTable
 70
     4
100
AcDbDimStyleTable
  0
DIMSTYLE
105
18
330
9
100
AcDbSymbolTableRecord
100
AcDbDimStyleTableRecord
  2
Standard
 70
     0
178
     0
340
17
  0
DIMSTYLE
105
57
102
{ACAD_REACTORS
330
3A9A
330
3A9B
330
3A9C
330
3A9D
330
3A9E
330
3A9F
330
3AA0
330
3AA1
330
3AA2
330
3ABD
330
3ABE
330
3ABF
330
3AC1
330
3AC2
330
3AC3
330
3BD3
102
}
330
9
100
AcDbSymbolTableRecord
100
AcDbDimStyleTableRecord
  2
tfrom線あり
 70
     0
  3
<>
  4
[]
 41
10.0
 42
30.0
 43
0.9999999999999999
 44
0.0
 73
     0
 74
     0
 77
     1
 78
    11
140
24.0
141
0.0
143
1.0
147
10.0
171
     1
174
     1
178
     0
179
     2
271
     0
272
     1
276
     2
284
    11
285
    11
286
    11
289
     0
340
39
341
4E
342
4E
  0
ENDTAB
  0
TABLE
  2
BLOCK_RECORD
  5
1
330
0
100
AcDbSymbolTable
 70
    61
  0
BLOCK_RECORD
  5
A
102
{ACAD_XDICTIONARY
360
374D
102
}
330
1
100
AcDbSymbolTableRecord
100
AcDbBlockTableRecord
  2
*MODEL_SPACE
340
20
 70
     0
280
     1
281
     0
  0
BLOCK_RECORD
  5
B
330
1
100
AcDbSymbolTableRecord
100
AcDbBlockTableRecord
  2
*PAPER_SPACE
340
21
 70
     0
280
     1
281
     0
  0
BLOCK_RECORD
  5
4E
330
1
100
AcDbSymbolTableRecord
100
AcDbBlockTableRecord
  2
_DOT
340
0
102
{BLKREFS
331
3B5A
331
3B7F
331
0
331
0
331
0
331
3BDE
102
}
 70
     0
280
     1
281
     0
  0
BLOCK_RECORD
  5
68D
330
1
100
AcDbSymbolTableRecord
100
AcDbBlockTableRecord
  2
block 2
340
0
102
{BLKREFS
331
68C
102
}
 70
     0
280
     1
281
     0
  0
BLOCK_RECORD
  5
199A
330
1
100
AcDbSymbolTableRecord
100
AcDbBlockTableRecord
  2
SEANNOT_GROUP
340
0
102
{BLKREFS
331
28CA
102
}
 70
     0
280
     1
281
     0
  0
BLOCK_RECORD
  5
1F2F
330
1
100
AcDbSymbolTableRecord
100
AcDbBlockTableRecord
  2
SEANNOT_GROUP1
340
0
102
{BLKREFS
331
2B9B
102
}
 70
     0
280
     1
281
     0
  0
BLOCK_RECORD
  5
3B00
330
1
100
AcDbSymbolTableRecord
100
AcDbBlockTableRecord
  2
*D44
340
0
 70
     0
280
     1
281
     0
  0
BLOCK_RECORD
  5
3B0C
330
1
100
AcDbSymbolTableRecord
100
AcDbBlockTableRecord
  2
*D45
340
0
 70
     0
280
     1
281
     0
  0
BLOCK_RECORD
  5
3B18
330
1
100
AcDbSymbolTableRecord
100
AcDbBlockTableRecord
  2
*D46
340
0
 70
     0
280
     1
281
     0
  0
BLOCK_RECORD
  5
3B24
330
1
100
AcDbSymbolTableRecord
100
AcDbBlockTableRecord
  2
*D47
340
0
 70
     0
280
     1
281
     0
  0
BLOCK_RECORD
  5
3B30
330
1
100
AcDbSymbolTableRecord
100
AcDbBlockTableRecord
  2
*D48
340
0
 70
     0
280
     1
281
     0
  0
BLOCK_RECORD
  5
3B3C
330
1
100
AcDbSymbolTableRecord
100
AcDbBlockTableRecord
  2
*D49
340
0
 70
     0
280
     1
281
     0
  0
BLOCK_RECORD
  5
3B48
330
1
100
AcDbSymbolTableRecord
100
AcDbBlockTableRecord
  2
*D50
340
0
 70
     0
280
     1
281
     0
  0
BLOCK_RECORD
  5
3B54
330
1
100
AcDbSymbolTableRecord
100
AcDbBlockTableRecord
  2
*D51
340
0
 70
     0
280
     1
281
     0
  0
BLOCK_RECORD
  5
3B60
330
1
100
AcDbSymbolTableRecord
100
AcDbBlockTableRecord
  2
*D52
340
0
 70
     0
280
     1
281
     0
  0
BLOCK_RECORD
  5
3B6D
330
1
100
AcDbSymbolTableRecord
100
AcDbBlockTableRecord
  2
*D53
340
0
 70
     0
280
     1
281
     0
  0
BLOCK_RECORD
  5
3B79
330
1
100
AcDbSymbolTableRecord
100
AcDbBlockTableRecord
  2
*D54
340
0
 70
     0
280
     1
281
     0
  0
BLOCK_RECORD
  5
3B85
330
1
100
AcDbSymbolTableRecord
100
AcDbBlockTableRecord
  2
*D55
340
0
 70
     0
280
     1
281
     0
  0
BLOCK_RECORD
  5
3B9D
330
1
100
AcDbSymbolTableRecord
100
AcDbBlockTableRecord
  2
*D57
340
0
 70
     0
280
     1
281
     0
  0
BLOCK_RECORD
  5
3BA9
330
1
100
AcDbSymbolTableRecord
100
AcDbBlockTableRecord
  2
*D58
340
0
 70
     0
280
     1
281
     0
  0
BLOCK_RECORD
  5
3BB5
330
1
100
AcDbSymbolTableRecord
100
AcDbBlockTableRecord
  2
*D59
340
0
 70
     0
280
     1
281
     0
  0
BLOCK_RECORD
  5
3BD6
330
1
100
AcDbSymbolTableRecord
100
AcDbBlockTableRecord
  2
*D60
340
0
 70
     0
280
     1
281
     0
  0
ENDTAB
  0
ENDSEC
  0
SECTION
  2
BLOCKS
  0
BLOCK
  5
D
330
A
100
AcDbEntity
  8
0
390
1D
100
AcDbBlockBegin
  2
*MODEL_SPACE
 70
     0
 10
0.0
 20
0.0
 30
0.0
  3
*MODEL_SPACE
  1
*MODEL_SPACE
  0
ENDBLK
  5
E
330
A
100
AcDbEntity
  8
0
390
1D
100
AcDbBlockEnd
  0
BLOCK
  5
F
330
B
100
AcDbEntity
 67
     1
  8
0
390
1D
100
AcDbBlockBegin
  2
*PAPER_SPACE
 70
     0
 10
0.0
 20
0.0
 30
0.0
  3
*PAPER_SPACE
  1
*PAPER_SPACE
  0
ENDBLK
  5
10
330
B
100
AcDbEntity
 67
     1
  8
0
390
1D
100
AcDbBlockEnd
  0
BLOCK
  5
3BCA
330
4E
100
AcDbEntity
  8
0
390
1D
100
AcDbBlockBegin
  2
_DOT
 70
     0
 10
0.0
 20
0.0
 30
0.0
  3
_DOT
  1
_DOT
  0
POLYLINE
  5
3BCC
330
4E
100
AcDbEntity
  8
0
  6
ByBlock
 62
     0
370
    -2
390
1D
100
AcDb2dPolyline
 66
     1
 10
0.0
 20
0.0
 30
0.0
 70
     1
 40
0.5
 41
0.5
  0
VERTEX
  5
3BCD
330
3BCC
100
AcDbEntity
  8
0
  6
ByBlock
 62
     0
370
    -2
390
1D
100
AcDbVertex
100
AcDb2dVertex
 10
-0.25
 20
0.0
 30
0.0
 42
1.0
  0
VERTEX
  5
3BCE
330
3BCC
100
AcDbEntity
  8
0
  6
ByBlock
 62
     0
370
    -2
390
1D
100
AcDbVertex
100
AcDb2dVertex
 10
0.25
 20
0.0
 30
0.0
 42
1.0
  0
SEQEND
  5
3BCF
330
3BCC
100
AcDbEntity
  8
0
390
1D
  0
LINE
  5
3BD0
330
4E
100
AcDbEntity
  8
0
  6
ByBlock
 62
     0
370
    -2
390
1D
100
AcDbLine
 10
-0.5
 20
0.0
 30
0.0
 11
-1.0
 21
0.0
 31
0.0
  0
ENDBLK
  5
3BD1
330
4E
100
AcDbEntity
  8
0
390
1D
100
AcDbBlockEnd
  0
BLOCK
  5
68E
330
68D
100
AcDbEntity
  8
0
100
AcDbBlockBegin
  2
block 2
 70
     0
 10
0.0
 20
0.0
 30
0.0
  3
block 2
  1
block 2
  0
ENDBLK
  5
6B0
330
68D
100
AcDbEntity
  8
0
100
AcDbBlockEnd
  0
BLOCK
  5
199B
330
199A
100
AcDbEntity
  8
0
100
AcDbBlockBegin
  2
SEANNOT_GROUP
 70
     0
 10
0.0
 20
0.0
 30
0.0
  3
SEANNOT_GROUP
  1
SEANNOT_GROUP
  0
ENDBLK
  5
199C
330
199A
100
AcDbEntity
  8
0
100
AcDbBlockEnd
  0
BLOCK
  5
1F30
330
1F2F
100
AcDbEntity
  8
0
100
AcDbBlockBegin
  2
SEANNOT_GROUP1
 70
     0
 10
0.0
 20
0.0
 30
0.0
  3
SEANNOT_GROUP1
  1
SEANNOT_GROUP1
  0
ENDBLK
  5
1F31
330
1F2F
100
AcDbEntity
  8
0
100
AcDbBlockEnd
  0
BLOCK
  5
3B01
330
3B00
100
AcDbEntity
  8
0
100
AcDbBlockBegin
  2
*D44
 70
     1
 10
0.0
 20
0.0
 30
0.0
  3
*D44
  1

  0
LINE
  5
3B03
330
3B00
100
AcDbEntity
  8
DIM
 62
     0
370
    -2
100
AcDbLine
 10
857.6525692742962
 20
2319.815492678796
 30
0.0
 11
857.6525692742962
 21
2399.815492678796
 31
0.0
  0
LINE
  5
3B04
330
3B00
100
AcDbEntity
  8
DIM
 62
     0
370
    -2
100
AcDbLine
 10
357.6525692742962
 20
2319.815492678796
 30
0.0
 11
357.6525692742962
 21
2399.815492678796
 31
0.0
  0
LINE
  5
3B05
330
3B00
100
AcDbEntity
  8
DIM
 62
     0
370
    -2
100
AcDbLine
 10
847.6525692742962
 20
2399.815492678796
 30
0.0
 11
367.6525692742962
 21
2399.815492678796
 31
0.0
  0
INSERT
  5
3B06
330
3B00
100
AcDbEntity
  8
DIM
 62
     0
370
    -2
100
AcDbBlockReference
  2
_DOT
 10
857.6525692742962
 20
2399.815492678796
 30
0.0
 41
10.0
 42
10.0
 43
10.0
  0
INSERT
  5
3B07
330
3B00
100
AcDbEntity
  8
DIM
 62
     0
370
    -2
100
AcDbBlockReference
  2
_DOT
 10
357.6525692742962
 20
2399.815492678796
 30
0.0
 41
10.0
 42
10.0
 43
10.0
 50
180.0
  0
MTEXT
  5
3B08
330
3B00
100
AcDbEntity
  8
DIM
 62
     0
100
AcDbMText
 10
607.6525692742962
 20
2421.815492678796
 30
0.0
 40
24.0
 41
0.0
 46
0.0
 71
     5
 72
     1
  1
\A1;500
  7
ＭＳ ゴシック
 73
     1
 44
1.0
  0
POINT
  5
3B09
330
3B00
100
AcDbEntity
  8
Defpoints
 62
     0
100
AcDbPoint
 10
857.6525692742962
 20
2289.815492678796
 30
0.0
  0
POINT
  5
3B0A
330
3B00
100
AcDbEntity
  8
Defpoints
 62
     0
100
AcDbPoint
 10
357.6525692742962
 20
2289.815492678796
 30
0.0
  0
POINT
  5
3B0B
330
3B00
100
AcDbEntity
  8
Defpoints
 62
     0
100
AcDbPoint
 10
357.6525692742962
 20
2399.815492678796
 30
0.0
  0
ENDBLK
  5
3B02
330
3B00
100
AcDbEntity
  8
0
100
AcDbBlockEnd
  0
BLOCK
  5
3B0D
330
3B0C
100
AcDbEntity
  8
0
100
AcDbBlockBegin
  2
*D45
 70
     1
 10
0.0
 20
0.0
 30
0.0
  3
*D45
  1

  0
LINE
  5
3B0F
330
3B0C
100
AcDbEntity
  8
DIM
 62
     0
370
    -2
100
AcDbLine
 10
877.6525692742962
 20
2049.815492678796
 30
0.0
 11
1007.652569274296
 21
2049.815492678796
 31
0.0
  0
LINE
  5
3B10
330
3B0C
100
AcDbEntity
  8
DIM
 62
     0
370
    -2
100
AcDbLine
 10
873.952322203204
 20
2299.815492678796
 30
0.0
 11
1007.652569274296
 21
2299.815492678796
 31
0.0
  0
LINE
  5
3B11
330
3B0C
100
AcDbEntity
  8
DIM
 62
     0
370
    -2
100
AcDbLine
 10
1007.652569274296
 20
2059.815492678796
 30
0.0
 11
1007.652569274296
 21
2289.815492678796
 31
0.0
  0
INSERT
  5
3B12
330
3B0C
100
AcDbEntity
  8
DIM
 62
     0
370
    -2
100
AcDbBlockReference
  2
_DOT
 10
1007.652569274296
 20
2049.815492678796
 30
0.0
 41
10.0
 42
10.0
 43
10.0
 50
270.0
  0
INSERT
  5
3B13
330
3B0C
100
AcDbEntity
  8
DIM
 62
     0
370
    -2
100
AcDbBlockReference
  2
_DOT
 10
1007.652569274296
 20
2299.815492678796
 30
0.0
 41
10.0
 42
10.0
 43
10.0
 50
90.0
  0
MTEXT
  5
3B14
330
3B0C
100
AcDbEntity
  8
DIM
 62
     0
100
AcDbMText
 10
985.6525692742962
 20
2174.815492678796
 30
0.0
 40
24.0
 41
0.0
 46
0.0
 71
     5
 72
     1
  1
\A1;250
  7
ＭＳ ゴシック
 11
0.0
 21
1.0
 31
0.0
 73
     1
 44
1.0
  0
POINT
  5
3B15
330
3B0C
100
AcDbEntity
  8
Defpoints
 62
     0
100
AcDbPoint
 10
847.6525692742962
 20
2049.815492678796
 30
0.0
  0
POINT
  5
3B16
330
3B0C
100
AcDbEntity
  8
Defpoints
 62
     0
100
AcDbPoint
 10
843.952322203204
 20
2299.815492678796
 30
0.0
  0
POINT
  5
3B17
330
3B0C
100
AcDbEntity
  8
Defpoints
 62
     0
100
AcDbPoint
 10
1007.652569274296
 20
2299.815492678796
 30
0.0
  0
ENDBLK
  5
3B0E
330
3B0C
100
AcDbEntity
  8
0
100
AcDbBlockEnd
  0
BLOCK
  5
3B19
330
3B18
100
AcDbEntity
  8
0
100
AcDbBlockBegin
  2
*D46
 70
     1
 10
0.0
 20
0.0
 30
0.0
  3
*D46
  1

  0
LINE
  5
3B1B
330
3B18
100
AcDbEntity
  8
DIM
 62
     0
370
    -2
100
AcDbLine
 10
327.7329284943421
 20
2084.815492678797
 30
0.0
 11
257.6525692742962
 21
2084.815492678797
 31
0.0
  0
LINE
  5
3B1C
330
3B18
100
AcDbEntity
  8
DIM
 62
     0
370
    -2
100
AcDbLine
 10
327.7329284943421
 20
2264.815492678796
 30
0.0
 11
257.6525692742962
 21
2264.815492678796
 31
0.0
  0
LINE
  5
3B1D
330
3B18
100
AcDbEntity
  8
DIM
 62
     0
370
    -2
100
AcDbLine
 10
257.6525692742962
 20
2094.815492678797
 30
0.0
 11
257.6525692742962
 21
2254.815492678796
 31
0.0
  0
INSERT
  5
3B1E
330
3B18
100
AcDbEntity
  8
DIM
 62
     0
370
    -2
100
AcDbBlockReference
  2
_DOT
 10
257.6525692742962
 20
2084.815492678797
 30
0.0
 41
10.0
 42
10.0
 43
10.0
 50
270.0
  0
INSERT
  5
3B1F
330
3B18
100
AcDbEntity
  8
DIM
 62
     0
370
    -2
100
AcDbBlockReference
  2
_DOT
 10
257.6525692742962
 20
2264.815492678796
 30
0.0
 41
10.0
 42
10.0
 43
10.0
 50
90.0
  0
MTEXT
  5
3B20
330
3B18
100
AcDbEntity
  8
DIM
 62
     0
100
AcDbMText
 10
235.6525692742962
 20
2174.815492678797
 30
0.0
 40
24.0
 41
0.0
 46
0.0
 71
     5
 72
     1
  1
\A1;180
  7
ＭＳ ゴシック
 11
0.0
 21
1.0
 31
0.0
 73
     1
 44
1.0
  0
POINT
  5
3B21
330
3B18
100
AcDbEntity
  8
Defpoints
 62
     0
100
AcDbPoint
 10
357.7329284943421
 20
2084.815492678797
 30
0.0
  0
POINT
  5
3B22
330
3B18
100
AcDbEntity
  8
Defpoints
 62
     0
100
AcDbPoint
 10
357.7329284943421
 20
2264.815492678796
 30
0.0
  0
POINT
  5
3B23
330
3B18
100
AcDbEntity
  8
Defpoints
 62
     0
100
AcDbPoint
 10
257.6525692742962
 20
2264.815492678796
 30
0.0
  0
ENDBLK
  5
3B1A
330
3B18
100
AcDbEntity
  8
0
100
AcDbBlockEnd
  0
BLOCK
  5
3B25
330
3B24
100
AcDbEntity
  8
0
100
AcDbBlockBegin
  2
*D47
 70
     1
 10
0.0
 20
0.0
 30
0.0
  3
*D47
  1

  0
LINE
  5
3B27
330
3B24
100
AcDbEntity
  8
DIM
 62
     0
370
    -2
100
AcDbLine
 10
747.4918508342034
 20
2019.815492678796
 30
0.0
 11
747.4918508342034
 21
1949.815492678796
 31
0.0
  0
LINE
  5
3B28
330
3B24
100
AcDbEntity
  8
DIM
 62
     0
370
    -2
100
AcDbLine
 10
467.813287714388
 20
2019.815492678796
 30
0.0
 11
467.813287714388
 21
1949.815492678796
 31
0.0
  0
LINE
  5
3B29
330
3B24
100
AcDbEntity
  8
DIM
 62
     0
370
    -2
100
AcDbLine
 10
737.4918508342034
 20
1949.815492678796
 30
0.0
 11
477.813287714388
 21
1949.815492678796
 31
0.0
  0
INSERT
  5
3B2A
330
3B24
100
AcDbEntity
  8
DIM
 62
     0
370
    -2
100
AcDbBlockReference
  2
_DOT
 10
747.4918508342034
 20
1949.815492678796
 30
0.0
 41
10.0
 42
10.0
 43
10.0
  0
INSERT
  5
3B2B
330
3B24
100
AcDbEntity
  8
DIM
 62
     0
370
    -2
100
AcDbBlockReference
  2
_DOT
 10
467.813287714388
 20
1949.815492678796
 30
0.0
 41
10.0
 42
10.0
 43
10.0
 50
180.0
  0
MTEXT
  5
3B2C
330
3B24
100
AcDbEntity
  8
DIM
 62
     0
100
AcDbMText
 10
607.6525692742957
 20
1971.815492678796
 30
0.0
 40
24.0
 41
0.0
 46
0.0
 71
     5
 72
     1
  1
\A1;270
  7
ＭＳ ゴシック
 73
     1
 44
1.0
  0
POINT
  5
3B2D
330
3B24
100
AcDbEntity
  8
Defpoints
 62
     0
100
AcDbPoint
 10
747.4918508342034
 20
2049.815492678796
 30
0.0
  0
POINT
  5
3B2E
330
3B24
100
AcDbEntity
  8
Defpoints
 62
     0
100
AcDbPoint
 10
467.813287714388
 20
2049.815492678796
 30
0.0
  0
POINT
  5
3B2F
330
3B24
100
AcDbEntity
  8
Defpoints
 62
     0
100
AcDbPoint
 10
467.813287714388
 20
1949.815492678796
 30
0.0
  0
ENDBLK
  5
3B26
330
3B24
100
AcDbEntity
  8
0
100
AcDbBlockEnd
  0
BLOCK
  5
3B31
330
3B30
100
AcDbEntity
  8
0
100
AcDbBlockBegin
  2
*D48
 70
     1
 10
0.0
 20
0.0
 30
0.0
  3
*D48
  1

  0
LINE
  5
3B33
330
3B30
100
AcDbEntity
  8
DIM
 62
     0
370
    -2
100
AcDbLine
 10
887.6525692742962
 20
2299.815492678796
 30
0.0
 11
939.431607439833
 21
2299.815492678796
 31
0.0
  0
LINE
  5
3B34
330
3B30
100
AcDbEntity
  8
DIM
 62
     0
370
    -2
100
AcDbLine
 10
887.6525692742962
 20
2174.815492678796
 30
0.0
 11
939.431607439833
 21
2174.815492678796
 31
0.0
  0
LINE
  5
3B35
330
3B30
100
AcDbEntity
  8
DIM
 62
     0
370
    -2
100
AcDbLine
 10
939.431607439833
 20
2289.815492678796
 30
0.0
 11
939.431607439833
 21
2184.815492678796
 31
0.0
  0
INSERT
  5
3B36
330
3B30
100
AcDbEntity
  8
DIM
 62
     0
370
    -2
100
AcDbBlockReference
  2
_DOT
 10
939.431607439833
 20
2299.815492678796
 30
0.0
 41
10.0
 42
10.0
 43
10.0
 50
90.0
  0
INSERT
  5
3B37
330
3B30
100
AcDbEntity
  8
DIM
 62
     0
370
    -2
100
AcDbBlockReference
  2
_DOT
 10
939.431607439833
 20
2174.815492678796
 30
0.0
 41
10.0
 42
10.0
 43
10.0
 50
270.0
  0
MTEXT
  5
3B38
330
3B30
100
AcDbEntity
  8
DIM
 62
     0
100
AcDbMText
 10
917.431607439833
 20
2237.315492678796
 30
0.0
 40
24.0
 41
0.0
 46
0.0
 71
     5
 72
     1
  1
\A1;125
  7
ＭＳ ゴシック
 11
0.0
 21
1.0
 31
0.0
 73
     1
 44
1.0
  0
POINT
  5
3B39
330
3B30
100
AcDbEntity
  8
Defpoints
 62
     0
100
AcDbPoint
 10
857.6525692742962
 20
2299.815492678796
 30
0.0
  0
POINT
  5
3B3A
330
3B30
100
AcDbEntity
  8
Defpoints
 62
     0
100
AcDbPoint
 10
857.6525692742962
 20
2174.815492678796
 30
0.0
  0
POINT
  5
3B3B
330
3B30
100
AcDbEntity
  8
Defpoints
 62
     0
100
AcDbPoint
 10
939.431607439833
 20
2174.815492678796
 30
0.0
  0
ENDBLK
  5
3B32
330
3B30
100
AcDbEntity
  8
0
100
AcDbBlockEnd
  0
BLOCK
  5
3B3D
330
3B3C
100
AcDbEntity
  8
0
100
AcDbBlockBegin
  2
*D49
 70
     1
 10
0.0
 20
0.0
 30
0.0
  3
*D49
  1

  0
LINE
  5
3B3F
330
3B3C
100
AcDbEntity
  8
DIM
 62
     0
370
    -2
100
AcDbLine
 10
1316.831722894408
 20
2089.815492678796
 30
0.0
 11
1316.831722894408
 21
1949.815492678796
 31
0.0
  0
LINE
  5
3B40
330
3B3C
100
AcDbEntity
  8
DIM
 62
     0
370
    -2
100
AcDbLine
 10
1746.831722894408
 20
2089.815492678796
 30
0.0
 11
1746.831722894408
 21
1949.815492678796
 31
0.0
  0
LINE
  5
3B41
330
3B3C
100
AcDbEntity
  8
DIM
 62
     0
370
    -2
100
AcDbLine
 10
1326.831722894408
 20
1949.815492678796
 30
0.0
 11
1736.831722894408
 21
1949.815492678796
 31
0.0
  0
INSERT
  5
3B42
330
3B3C
100
AcDbEntity
  8
DIM
 62
     0
370
    -2
100
AcDbBlockReference
  2
_DOT
 10
1316.831722894408
 20
1949.815492678796
 30
0.0
 41
10.0
 42
10.0
 43
10.0
 50
180.0
  0
INSERT
  5
3B43
330
3B3C
100
AcDbEntity
  8
DIM
 62
     0
370
    -2
100
AcDbBlockReference
  2
_DOT
 10
1746.831722894408
 20
1949.815492678796
 30
0.0
 41
10.0
 42
10.0
 43
10.0
  0
MTEXT
  5
3B44
330
3B3C
100
AcDbEntity
  8
DIM
 62
     0
100
AcDbMText
 10
1531.831722894408
 20
1971.815492678796
 30
0.0
 40
24.0
 41
0.0
 46
0.0
 71
     5
 72
     1
  1
\A1;430
  7
ＭＳ ゴシック
 73
     1
 44
1.0
  0
POINT
  5
3B45
330
3B3C
100
AcDbEntity
  8
Defpoints
 62
     0
100
AcDbPoint
 10
1316.831722894408
 20
2119.815492678796
 30
0.0
  0
POINT
  5
3B46
330
3B3C
100
AcDbEntity
  8
Defpoints
 62
     0
100
AcDbPoint
 10
1746.831722894408
 20
2119.815492678796
 30
0.0
  0
POINT
  5
3B47
330
3B3C
100
AcDbEntity
  8
Defpoints
 62
     0
100
AcDbPoint
 10
1746.831722894408
 20
1949.815492678796
 30
0.0
  0
ENDBLK
  5
3B3E
330
3B3C
100
AcDbEntity
  8
0
100
AcDbBlockEnd
  0
BLOCK
  5
3B49
330
3B48
100
AcDbEntity
  8
0
100
AcDbBlockBegin
  2
*D50
 70
     1
 10
0.0
 20
0.0
 30
0.0
  3
*D50
  1

  0
LINE
  5
3B4B
330
3B48
100
AcDbEntity
  8
DIM
 62
     0
370
    -2
100
AcDbLine
 10
1776.831722894408
 20
2299.815492678796
 30
0.0
 11
1860.831722894408
 21
2299.815492678796
 31
0.0
  0
LINE
  5
3B4C
330
3B48
100
AcDbEntity
  8
DIM
 62
     0
370
    -2
100
AcDbLine
 10
1776.831722894408
 20
2119.815492678796
 30
0.0
 11
1860.831722894408
 21
2119.815492678796
 31
0.0
  0
LINE
  5
3B4D
330
3B48
100
AcDbEntity
  8
DIM
 62
     0
370
    -2
100
AcDbLine
 10
1860.831722894408
 20
2289.815492678796
 30
0.0
 11
1860.831722894408
 21
2129.815492678796
 31
0.0
  0
INSERT
  5
3B4E
330
3B48
100
AcDbEntity
  8
DIM
 62
     0
370
    -2
100
AcDbBlockReference
  2
_DOT
 10
1860.831722894408
 20
2299.815492678796
 30
0.0
 41
10.0
 42
10.0
 43
10.0
 50
90.0
  0
INSERT
  5
3B4F
330
3B48
100
AcDbEntity
  8
DIM
 62
     0
370
    -2
100
AcDbBlockReference
  2
_DOT
 10
1860.831722894408
 20
2119.815492678796
 30
0.0
 41
10.0
 42
10.0
 43
10.0
 50
270.0
  0
MTEXT
  5
3B50
330
3B48
100
AcDbEntity
  8
DIM
 62
     0
100
AcDbMText
 10
1838.831722894408
 20
2209.815492678796
 30
0.0
 40
24.0
 41
0.0
 46
0.0
 71
     5
 72
     1
  1
\A1;180
  7
ＭＳ ゴシック
 11
0.0
 21
1.0
 31
0.0
 73
     1
 44
1.0
  0
POINT
  5
3B51
330
3B48
100
AcDbEntity
  8
Defpoints
 62
     0
100
AcDbPoint
 10
1746.831722894408
 20
2299.815492678796
 30
0.0
  0
POINT
  5
3B52
330
3B48
100
AcDbEntity
  8
Defpoints
 62
     0
100
AcDbPoint
 10
1746.831722894408
 20
2119.815492678796
 30
0.0
  0
POINT
  5
3B53
330
3B48
100
AcDbEntity
  8
Defpoints
 62
     0
100
AcDbPoint
 10
1860.831722894408
 20
2119.815492678796
 30
0.0
  0
ENDBLK
  5
3B4A
330
3B48
100
AcDbEntity
  8
0
100
AcDbBlockEnd
  0
BLOCK
  5
3B55
330
3B54
100
AcDbEntity
  8
0
100
AcDbBlockBegin
  2
*D51
 70
     1
 10
0.0
 20
0.0
 30
0.0
  3
*D51
  1

  0
LINE
  5
3B57
330
3B54
100
AcDbEntity
  8
DIM
 62
     0
370
    -2
100
AcDbLine
 10
357.6525692742962
 20
2020.576305255356
 30
0.0
 11
357.6525692742962
 21
1950.631890454987
 31
0.0
  0
LINE
  5
3B58
330
3B54
100
AcDbEntity
  8
DIM
 62
     0
370
    -2
100
AcDbLine
 10
422.6317228944081
 20
2144.815492678796
 30
0.0
 11
422.6317228944081
 21
1950.631890454987
 31
0.0
  0
LINE
  5
3B59
330
3B54
100
AcDbEntity
  8
DIM
 62
     0
370
    -2
100
AcDbLine
 10
367.6525692742962
 20
1950.631890454987
 30
0.0
 11
412.6317228944081
 21
1950.631890454987
 31
0.0
  0
INSERT
  5
3B5A
330
3B54
100
AcDbEntity
  8
DIM
 62
     0
370
    -2
100
AcDbBlockReference
  2
_DOT
 10
357.6525692742962
 20
1950.631890454987
 30
0.0
 41
10.0
 42
10.0
 43
10.0
 50
180.0
  0
INSERT
  5
3B5B
330
3B54
100
AcDbEntity
  8
DIM
 62
     0
370
    -2
100
AcDbBlockReference
  2
_DOT
 10
422.6317228944081
 20
1950.631890454987
 30
0.0
 41
10.0
 42
10.0
 43
10.0
  0
MTEXT
  5
3B5C
330
3B54
100
AcDbEntity
  8
DIM
 62
     0
100
AcDbMText
 10
390.1421460843521
 20
1972.631890454987
 30
0.0
 40
24.0
 41
0.0
 46
0.0
 71
     5
 72
     1
  1
\A1;65
  7
ＭＳ ゴシック
 73
     1
 44
1.0
  0
POINT
  5
3B5D
330
3B54
100
AcDbEntity
  8
Defpoints
 62
     0
100
AcDbPoint
 10
357.6525692742962
 20
2050.576305255356
 30
0.0
  0
POINT
  5
3B5E
330
3B54
100
AcDbEntity
  8
Defpoints
 62
     0
100
AcDbPoint
 10
422.6317228944081
 20
2174.815492678796
 30
0.0
  0
POINT
  5
3B5F
330
3B54
100
AcDbEntity
  8
Defpoints
 62
     0
100
AcDbPoint
 10
422.6317228944081
 20
1950.631890454987
 30
0.0
  0
ENDBLK
  5
3B56
330
3B54
100
AcDbEntity
  8
0
100
AcDbBlockEnd
  0
BLOCK
  5
3B61
330
3B60
100
AcDbEntity
  8
0
100
AcDbBlockBegin
  2
*D52
 70
     1
 10
0.0
 20
0.0
 30
0.0
  3
*D52
  1

  0
LINE
  5
3B63
330
3B60
100
AcDbEntity
  8
DIM
 62
     0
370
    -2
100
AcDbLine
 10
857.6525692742962
 20
2016.491889172624
 30
0.0
 11
857.6525692742962
 21
1949.815492678796
 31
0.0
  0
LINE
  5
3B64
330
3B60
100
AcDbEntity
  8
DIM
 62
     0
370
    -2
100
AcDbLine
 10
792.6525692742962
 20
2144.815492678796
 30
0.0
 11
792.6525692742962
 21
1949.815492678796
 31
0.0
  0
LINE
  5
3B65
330
3B60
100
AcDbEntity
  8
DIM
 62
     0
370
    -2
100
AcDbLine
 10
847.6525692742962
 20
1949.815492678796
 30
0.0
 11
802.6525692742962
 21
1949.815492678796
 31
0.0
  0
INSERT
  5
3B66
330
3B60
100
AcDbEntity
  8
DIM
 62
     0
370
    -2
100
AcDbBlockReference
  2
_DOT
 10
857.6525692742962
 20
1949.815492678796
 30
0.0
 41
10.0
 42
10.0
 43
10.0
  0
INSERT
  5
3B67
330
3B60
100
AcDbEntity
  8
DIM
 62
     0
370
    -2
100
AcDbBlockReference
  2
_DOT
 10
792.6525692742962
 20
1949.815492678796
 30
0.0
 41
10.0
 42
10.0
 43
10.0
 50
180.0
  0
MTEXT
  5
3B68
330
3B60
100
AcDbEntity
  8
DIM
 62
     0
100
AcDbMText
 10
822.9567228944079
 20
1971.815492678796
 30
0.0
 40
24.0
 41
0.0
 46
0.0
 71
     5
 72
     1
  1
\A1;65
  7
ＭＳ ゴシック
 73
     1
 44
1.0
  0
POINT
  5
3B69
330
3B60
100
AcDbEntity
  8
Defpoints
 62
     0
100
AcDbPoint
 10
857.6525692742962
 20
2046.491889172624
 30
0.0
  0
POINT
  5
3B6A
330
3B60
100
AcDbEntity
  8
Defpoints
 62
     0
100
AcDbPoint
 10
792.6525692742962
 20
2174.815492678796
 30
0.0
  0
POINT
  5
3B6B
330
3B60
100
AcDbEntity
  8
Defpoints
 62
     0
100
AcDbPoint
 10
792.6525692742962
 20
1949.815492678796
 30
0.0
  0
ENDBLK
  5
3B62
330
3B60
100
AcDbEntity
  8
0
100
AcDbBlockEnd
  0
BLOCK
  5
3B6E
330
3B6D
100
AcDbEntity
  8
0
100
AcDbBlockBegin
  2
*D53
 70
     1
 10
0.0
 20
0.0
 30
0.0
  3
*D53
  1

  0
LINE
  5
3B70
330
3B6D
100
AcDbEntity
  8
DIM
 62
     0
370
    -2
100
AcDbLine
 10
787.6691057326298
 20
1063.893294795244
 30
0.0
 11
787.6691057326298
 21
1183.893294795244
 31
0.0
  0
LINE
  5
3B71
330
3B6D
100
AcDbEntity
  8
DIM
 62
     0
370
    -2
100
AcDbLine
 10
427.6691057326293
 20
1063.893294795244
 30
0.0
 11
427.6691057326293
 21
1183.893294795244
 31
0.0
  0
LINE
  5
3B72
330
3B6D
100
AcDbEntity
  8
DIM
 62
     0
370
    -2
100
AcDbLine
 10
777.6691057326298
 20
1183.893294795244
 30
0.0
 11
437.6691057326293
 21
1183.893294795244
 31
0.0
  0
INSERT
  5
3B73
330
3B6D
100
AcDbEntity
  8
DIM
 62
     0
370
    -2
100
AcDbBlockReference
  2
_DOT
 10
787.6691057326298
 20
1183.893294795244
 30
0.0
 41
10.0
 42
10.0
 43
10.0
  0
INSERT
  5
3B74
330
3B6D
100
AcDbEntity
  8
DIM
 62
     0
370
    -2
100
AcDbBlockReference
  2
_DOT
 10
427.6691057326293
 20
1183.893294795244
 30
0.0
 41
10.0
 42
10.0
 43
10.0
 50
180.0
  0
MTEXT
  5
3B75
330
3B6D
100
AcDbEntity
  8
DIM
 62
     0
100
AcDbMText
 10
607.6691057326295
 20
1205.893294795244
 30
0.0
 40
24.0
 41
0.0
 46
0.0
 71
     5
 72
     1
  1
\A1;360
  7
ＭＳ ゴシック
 73
     1
 44
1.0
  0
POINT
  5
3B76
330
3B6D
100
AcDbEntity
  8
Defpoints
 62
     0
100
AcDbPoint
 10
787.6691057326298
 20
1033.893294795244
 30
0.0
  0
POINT
  5
3B77
330
3B6D
100
AcDbEntity
  8
Defpoints
 62
     0
100
AcDbPoint
 10
427.6691057326293
 20
1033.893294795244
 30
0.0
  0
POINT
  5
3B78
330
3B6D
100
AcDbEntity
  8
Defpoints
 62
     0
100
AcDbPoint
 10
427.6691057326293
 20
1183.893294795244
 30
0.0
  0
ENDBLK
  5
3B6F
330
3B6D
100
AcDbEntity
  8
0
100
AcDbBlockEnd
  0
BLOCK
  5
3B7A
330
3B79
100
AcDbEntity
  8
0
100
AcDbBlockBegin
  2
*D54
 70
     1
 10
0.0
 20
0.0
 30
0.0
  3
*D54
  1

  0
LINE
  5
3B7C
330
3B79
100
AcDbEntity
  8
DIM
 62
     0
370
    -2
100
AcDbLine
 10
387.4249030127194
 20
1033.893294795244
 30
0.0
 11
258.7646489748749
 21
1033.893294795244
 31
0.0
  0
LINE
  5
3B7D
330
3B79
100
AcDbEntity
  8
DIM
 62
     0
370
    -2
100
AcDbLine
 10
337.4249030127194
 20
1083.893294795244
 30
0.0
 11
258.7646489748749
 21
1083.893294795244
 31
0.0
  0
LINE
  5
3B7E
330
3B79
100
AcDbEntity
  8
DIM
 62
     0
370
    -2
100
AcDbLine
 10
258.7646489748749
 20
1043.893294795244
 30
0.0
 11
258.7646489748749
 21
1073.893294795244
 31
0.0
  0
INSERT
  5
3B7F
330
3B79
100
AcDbEntity
  8
DIM
 62
     0
370
    -2
100
AcDbBlockReference
  2
_DOT
 10
258.7646489748749
 20
1033.893294795244
 30
0.0
 41
10.0
 42
10.0
 43
10.0
 50
270.0
  0
INSERT
  5
3B80
330
3B79
100
AcDbEntity
  8
DIM
 62
     0
370
    -2
100
AcDbBlockReference
  2
_DOT
 10
258.7646489748749
 20
1083.893294795244
 30
0.0
 41
10.0
 42
10.0
 43
10.0
 50
90.0
  0
MTEXT
  5
3B81
330
3B79
100
AcDbEntity
  8
DIM
 62
     0
100
AcDbMText
 10
236.7646489748749
 20
1058.893294795244
 30
0.0
 40
24.0
 41
0.0
 46
0.0
 71
     5
 72
     1
  1
\A1;50
  7
ＭＳ ゴシック
 11
0.0
 21
1.0
 31
0.0
 73
     1
 44
1.0
  0
POINT
  5
3B82
330
3B79
100
AcDbEntity
  8
Defpoints
 62
     0
100
AcDbPoint
 10
417.4249030127194
 20
1033.893294795244
 30
0.0
  0
POINT
  5
3B83
330
3B79
100
AcDbEntity
  8
Defpoints
 62
     0
100
AcDbPoint
 10
367.4249030127194
 20
1083.893294795244
 30
0.0
  0
POINT
  5
3B84
330
3B79
100
AcDbEntity
  8
Defpoints
 62
     0
100
AcDbPoint
 10
258.7646489748749
 20
1083.893294795244
 30
0.0
  0
ENDBLK
  5
3B7B
330
3B79
100
AcDbEntity
  8
0
100
AcDbBlockEnd
  0
BLOCK
  5
3B86
330
3B85
100
AcDbEntity
  8
0
100
AcDbBlockBegin
  2
*D55
 70
     1
 10
0.0
 20
0.0
 30
0.0
  3
*D55
  1

  0
LINE
  5
3B88
330
3B85
100
AcDbEntity
  8
DIM
 62
     0
370
    -2
100
AcDbLine
 10
676.4331738003211
 20
933.8932947952438
 30
0.0
 11
957.6525692742962
 21
933.8932947952438
 31
0.0
  0
LINE
  5
3B89
330
3B85
100
AcDbEntity
  8
DIM
 62
     0
370
    -2
100
AcDbLine
 10
877.6691057326298
 20
1083.893294795244
 30
0.0
 11
957.6525692742962
 21
1083.893294795244
 31
0.0
  0
LINE
  5
3B8A
330
3B85
100
AcDbEntity
  8
DIM
 62
     0
370
    -2
100
AcDbLine
 10
957.6525692742962
 20
943.8932947952438
 30
0.0
 11
957.6525692742962
 21
1073.893294795244
 31
0.0
  0
INSERT
  5
3B8B
330
3B85
100
AcDbEntity
  8
DIM
 62
     0
370
    -2
100
AcDbBlockReference
  2
_DOT
 10
957.6525692742962
 20
933.8932947952438
 30
0.0
 41
10.0
 42
10.0
 43
10.0
 50
270.0
  0
INSERT
  5
3B8C
330
3B85
100
AcDbEntity
  8
DIM
 62
     0
370
    -2
100
AcDbBlockReference
  2
_DOT
 10
957.6525692742962
 20
1083.893294795244
 30
0.0
 41
10.0
 42
10.0
 43
10.0
 50
90.0
  0
MTEXT
  5
3B8D
330
3B85
100
AcDbEntity
  8
DIM
 62
     0
100
AcDbMText
 10
935.6525692742962
 20
1008.893294795244
 30
0.0
 40
24.0
 41
0.0
 46
0.0
 71
     5
 72
     1
  1
\A1;150
  7
ＭＳ ゴシック
 11
0.0
 21
1.0
 31
0.0
 73
     1
 44
1.0
  0
POINT
  5
3B8E
330
3B85
100
AcDbEntity
  8
Defpoints
 62
     0
100
AcDbPoint
 10
646.4331738003211
 20
933.8932947952438
 30
0.0
  0
POINT
  5
3B8F
330
3B85
100
AcDbEntity
  8
Defpoints
 62
     0
100
AcDbPoint
 10
847.6691057326298
 20
1083.893294795244
 30
0.0
  0
POINT
  5
3B90
330
3B85
100
AcDbEntity
  8
Defpoints
 62
     0
100
AcDbPoint
 10
957.6525692742962
 20
1083.893294795244
 30
0.0
  0
ENDBLK
  5
3B87
330
3B85
100
AcDbEntity
  8
0
100
AcDbBlockEnd
  0
BLOCK
  5
3B9E
330
3B9D
100
AcDbEntity
  8
0
100
AcDbBlockBegin
  2
*D57
 70
     1
 10
0.0
 20
0.0
 30
0.0
  3
*D57
  1

  0
LINE
  5
3BA0
330
3B9D
100
AcDbEntity
  8
DIM
 62
     0
370
    -2
100
AcDbLine
 10
1406.831722894408
 20
923.8932947952436
 30
0.0
 11
1406.831722894408
 21
833.8932947952438
 31
0.0
  0
LINE
  5
3BA1
330
3B9D
100
AcDbEntity
  8
DIM
 62
     0
370
    -2
100
AcDbLine
 10
1531.831722894408
 20
903.8932947952438
 30
0.0
 11
1531.831722894408
 21
833.8932947952438
 31
0.0
  0
LINE
  5
3BA2
330
3B9D
100
AcDbEntity
  8
DIM
 62
     0
370
    -2
100
AcDbLine
 10
1416.831722894408
 20
833.8932947952438
 30
0.0
 11
1521.831722894408
 21
833.8932947952438
 31
0.0
  0
INSERT
  5
3BA3
330
3B9D
100
AcDbEntity
  8
DIM
 62
     0
370
    -2
100
AcDbBlockReference
  2
_DOT
 10
1406.831722894408
 20
833.8932947952438
 30
0.0
 41
10.0
 42
10.0
 43
10.0
 50
180.0
  0
INSERT
  5
3BA4
330
3B9D
100
AcDbEntity
  8
DIM
 62
     0
370
    -2
100
AcDbBlockReference
  2
_DOT
 10
1531.831722894408
 20
833.8932947952438
 30
0.0
 41
10.0
 42
10.0
 43
10.0
  0
MTEXT
  5
3BA5
330
3B9D
100
AcDbEntity
  8
DIM
 62
     0
100
AcDbMText
 10
1469.331722894408
 20
855.8932947952438
 30
0.0
 40
24.0
 41
0.0
 46
0.0
 71
     5
 72
     1
  1
\A1;125
  7
ＭＳ ゴシック
 73
     1
 44
1.0
  0
POINT
  5
3BA6
330
3B9D
100
AcDbEntity
  8
Defpoints
 62
     0
100
AcDbPoint
 10
1406.831722894408
 20
953.8932947952436
 30
0.0
  0
POINT
  5
3BA7
330
3B9D
100
AcDbEntity
  8
Defpoints
 62
     0
100
AcDbPoint
 10
1531.831722894408
 20
933.8932947952438
 30
0.0
  0
POINT
  5
3BA8
330
3B9D
100
AcDbEntity
  8
Defpoints
 62
     0
100
AcDbPoint
 10
1531.831722894408
 20
833.8932947952438
 30
0.0
  0
ENDBLK
  5
3B9F
330
3B9D
100
AcDbEntity
  8
0
100
AcDbBlockEnd
  0
BLOCK
  5
3BAA
330
3BA9
100
AcDbEntity
  8
0
100
AcDbBlockBegin
  2
*D58
 70
     1
 10
0.0
 20
0.0
 30
0.0
  3
*D58
  1

  0
LINE
  5
3BAC
330
3BA9
100
AcDbEntity
  8
DIM
 62
     0
370
    -2
100
AcDbLine
 10
1672.700879265661
 20
953.8932947952438
 30
0.0
 11
1756.548259352741
 21
953.8932947952438
 31
0.0
  0
LINE
  5
3BAD
330
3BA9
100
AcDbEntity
  8
DIM
 62
     0
370
    -2
100
AcDbLine
 10
1676.548259352741
 20
1083.893294795244
 30
0.0
 11
1756.548259352741
 21
1083.893294795244
 31
0.0
  0
LINE
  5
3BAE
330
3BA9
100
AcDbEntity
  8
DIM
 62
     0
370
    -2
100
AcDbLine
 10
1756.548259352741
 20
963.8932947952438
 30
0.0
 11
1756.548259352741
 21
1073.893294795244
 31
0.0
  0
INSERT
  5
3BAF
330
3BA9
100
AcDbEntity
  8
DIM
 62
     0
370
    -2
100
AcDbBlockReference
  2
_DOT
 10
1756.548259352741
 20
953.8932947952438
 30
0.0
 41
10.0
 42
10.0
 43
10.0
 50
270.0
  0
INSERT
  5
3BB0
330
3BA9
100
AcDbEntity
  8
DIM
 62
     0
370
    -2
100
AcDbBlockReference
  2
_DOT
 10
1756.548259352741
 20
1083.893294795244
 30
0.0
 41
10.0
 42
10.0
 43
10.0
 50
90.0
  0
MTEXT
  5
3BB1
330
3BA9
100
AcDbEntity
  8
DIM
 62
     0
100
AcDbMText
 10
1734.548259352741
 20
1018.893294795244
 30
0.0
 40
24.0
 41
0.0
 46
0.0
 71
     5
 72
     1
  1
\A1;130
  7
ＭＳ ゴシック
 11
0.0
 21
1.0
 31
0.0
 73
     1
 44
1.0
  0
POINT
  5
3BB2
330
3BA9
100
AcDbEntity
  8
Defpoints
 62
     0
100
AcDbPoint
 10
1642.700879265661
 20
953.8932947952438
 30
0.0
  0
POINT
  5
3BB3
330
3BA9
100
AcDbEntity
  8
Defpoints
 62
     0
100
AcDbPoint
 10
1646.548259352741
 20
1083.893294795244
 30
0.0
  0
POINT
  5
3BB4
330
3BA9
100
AcDbEntity
  8
Defpoints
 62
     0
100
AcDbPoint
 10
1756.548259352741
 20
1083.893294795244
 30
0.0
  0
ENDBLK
  5
3BAB
330
3BA9
100
AcDbEntity
  8
0
100
AcDbBlockEnd
  0
BLOCK
  5
3BB6
330
3BB5
100
AcDbEntity
  8
0
100
AcDbBlockBegin
  2
*D59
 70
     1
 10
0.0
 20
0.0
 30
0.0
  3
*D59
  1

  0
LINE
  5
3BB8
330
3BB5
100
AcDbEntity
  8
DIM
 62
     0
370
    -2
100
AcDbLine
 10
1600.612327420434
 20
933.8932947952438
 30
0.0
 11
1756.548259352741
 21
933.8932947952438
 31
0.0
  0
LINE
  5
3BB9
330
3BB5
100
AcDbEntity
  8
DIM
 62
     0
370
    -2
100
AcDbLine
 10
1672.700879265661
 20
953.8932947952438
 30
0.0
 11
1756.548259352741
 21
953.8932947952438
 31
0.0
  0
LINE
  5
3BBA
330
3BB5
100
AcDbEntity
  8
DIM
 62
     0
370
    -2
100
AcDbLine
 10
1756.548259352741
 20
933.8932947952438
 30
0.0
 11
1756.548259352741
 21
855.3812947952437
 31
0.0
  0
LINE
  5
3BBB
330
3BB5
100
AcDbEntity
  8
DIM
 62
     0
370
    -2
100
AcDbLine
 10
1756.548259352741
 20
943.8932947952438
 30
0.0
 11
1756.548259352741
 21
953.8932947952438
 31
0.0
  0
LINE
  5
3BBC
330
3BB5
100
AcDbEntity
  8
DIM
 62
     0
370
    -2
100
AcDbLine
 10
1756.548259352741
 20
953.8932947952438
 30
0.0
 11
1756.548259352741
 21
963.8932947952438
 31
0.0
  0
INSERT
  5
3BBD
330
3BB5
100
AcDbEntity
  8
DIM
 62
     0
370
    -2
100
AcDbBlockReference
  2
_DOT
 10
1756.548259352741
 20
933.8932947952438
 30
0.0
 41
10.0
 42
10.0
 43
10.0
 50
270.0
  0
INSERT
  5
3BBE
330
3BB5
100
AcDbEntity
  8
DIM
 62
     0
370
    -2
100
AcDbBlockReference
  2
_DOT
 10
1756.548259352741
 20
953.8932947952438
 30
0.0
 41
10.0
 42
10.0
 43
10.0
 50
90.0
  0
MTEXT
  5
3BBF
330
3BB5
100
AcDbEntity
  8
DIM
 62
     0
100
AcDbMText
 10
1734.548259352741
 20
879.6372947952437
 30
0.0
 40
24.0
 41
0.0
 46
0.0
 71
     5
 72
     1
  1
\A1;20
  7
ＭＳ ゴシック
 11
0.0
 21
1.0
 31
0.0
 73
     1
 44
1.0
  0
POINT
  5
3BC0
330
3BB5
100
AcDbEntity
  8
Defpoints
 62
     0
100
AcDbPoint
 10
1570.612327420434
 20
933.8932947952438
 30
0.0
  0
POINT
  5
3BC5
330
3BB5
100
AcDbEntity
  8
Defpoints
 62
     0
100
AcDbPoint
 10
1642.700879265661
 20
953.8932947952438
 30
0.0
  0
POINT
  5
3BC6
330
3BB5
100
AcDbEntity
  8
Defpoints
 62
     0
100
AcDbPoint
 10
1756.548259352741
 20
953.8932947952438
 30
0.0
  0
ENDBLK
  5
3BB7
330
3BB5
100
AcDbEntity
  8
0
100
AcDbBlockEnd
  0
BLOCK
  5
3BD7
330
3BD6
100
AcDbEntity
  8
0
100
AcDbBlockBegin
  2
*D60
 70
     1
 10
0.0
 20
0.0
 30
0.0
  3
*D60
  1

  0
LINE
  5
3BD9
330
3BD6
100
AcDbEntity
  8
DIM
 62
     0
370
    -2
100
AcDbLine
 10
1501.848259352741
 20
980.8932947952438
 30
0.0
 11
1531.726157992786
 21
980.8932947952438
 31
0.0
  0
LINE
  5
3BDA
330
3BD6
100
AcDbEntity
  8
DIM
 62
     0
370
    -2
100
AcDbLine
 10
1501.726157992786
 20
1083.893294795244
 30
0.0
 11
1531.726157992786
 21
1083.893294795244
 31
0.0
  0
LINE
  5
3BDB
330
3BD6
100
AcDbEntity
  8
DIM
 62
     0
370
    -2
100
AcDbLine
 10
1531.726157992786
 20
1083.893294795244
 30
0.0
 11
1531.726157992786
 21
1253.925294795244
 31
0.0
  0
LINE
  5
3BDC
330
3BD6
100
AcDbEntity
  8
DIM
 62
     0
370
    -2
100
AcDbLine
 10
1531.726157992786
 20
990.8932947952438
 30
0.0
 11
1531.726157992786
 21
1073.893294795244
 31
0.0
  0
LINE
  5
3BDD
330
3BD6
100
AcDbEntity
  8
DIM
 62
     0
370
    -2
100
AcDbLine
 10
1531.726157992786
 20
1073.893294795244
 30
0.0
 11
1531.726157992786
 21
1063.893294795244
 31
0.0
  0
INSERT
  5
3BDE
330
3BD6
100
AcDbEntity
  8
DIM
 62
     0
370
    -2
100
AcDbBlockReference
  2
_DOT
 10
1531.726157992786
 20
980.8932947952438
 30
0.0
 41
10.0
 42
10.0
 43
10.0
 50
270.0
  0
INSERT
  5
3BDF
330
3BD6
100
AcDbEntity
  8
DIM
 62
     0
370
    -2
100
AcDbBlockReference
  2
_DOT
 10
1531.726157992786
 20
1083.893294795244
 30
0.0
 41
10.0
 42
10.0
 43
10.0
 50
90.0
  0
MTEXT
  5
3BE0
330
3BD6
100
AcDbEntity
  8
DIM
 62
     0
100
AcDbMText
 10
1507.602157992786
 20
1178.909294795244
 30
0.0
 40
24.0
 41
0.0
 46
0.0
 71
     5
 72
     1
  1
\A1;100(深さ)
  7
ＭＳ ゴシック
 11
0.0
 21
1.0
 31
0.0
 73
     1
 44
1.0
  0
POINT
  5
3BE1
330
3BD6
100
AcDbEntity
  8
Defpoints
 62
     0
100
AcDbPoint
 10
1531.848259352741
 20
980.8932947952438
 30
0.0
  0
POINT
  5
3BE2
330
3BD6
100
AcDbEntity
  8
Defpoints
 62
     0
100
AcDbPoint
 10
1531.726157992786
 20
1083.893294795244
 30
0.0
  0
POINT
  5
3BE3
330
3BD6
100
AcDbEntity
  8
Defpoints
 62
     0
100
AcDbPoint
 10
1531.726157992786
 20
1083.893294795244
 30
0.0
  0
ENDBLK
  5
3BD8
330
3BD6
100
AcDbEntity
  8
0
100
AcDbBlockEnd
  0
ENDSEC
  0
SECTION
  2
ENTITIES
  0
MTEXT
  5
177
330
A
100
AcDbEntity
  8
TEMPLATE
390
1D
100
AcDbMText
 10
79.20214454773075
 20
343.7317516314282
 30
0.0
 40
16.28841145833333
 41
0.0
 46
0.0
 71
     1
 72
     1
  1
品名
  7
ＭＳ ゴシック
 73
     1
 44
0.7828267384257843
  0
MTEXT
  5
178
330
A
100
AcDbEntity
  8
TEMPLATE
390
1D
100
AcDbMText
 10
79.20214454773075
 20
258.731751631428
 30
0.0
 40
16.28841145833333
 41
0.0
 46
0.0
 71
     1
 72
     1
  1
仕様
  7
ＭＳ ゴシック
 73
     1
 44
0.7828267384257843
  0
LINE
  5
179
330
A
100
AcDbEntity
  8
TEMPLATE
390
1D
100
AcDbLine
 10
2022.202144547248
 20
267.1466735064284
 30
0.0
 11
72.20214454724874
 21
267.1466735064284
 31
0.0
  0
LWPOLYLINE
  5
17A
330
A
100
AcDbEntity
  8
TEMPLATE
390
1D
100
AcDbPolyline
 90
        5
 70
   128
 43
0.0
 10
2022.202144547248
 20
2897.146673506426
 10
72.20214454724874
 20
2897.146673506426
 10
72.20214454724874
 20
97.14667350642826
 10
2022.202144547248
 20
97.14667350642826
 10
2022.202144547248
 20
2897.146673506426
  0
LINE
  5
17B
330
A
100
AcDbEntity
  8
TEMPLATE
390
1D
100
AcDbLine
 10
2022.202144547248
 20
352.1466735064282
 30
0.0
 11
72.20214454724874
 21
352.1466735064282
 31
0.0
  0
LINE
  5
17C
330
A
100
AcDbEntity
  8
TEMPLATE
390
1D
100
AcDbLine
 10
2022.202144547732
 20
182.1466735064282
 30
0.0
 11
1269.20214454773
 21
182.1466735064282
 31
0.0
  0
MTEXT
  5
17E
330
A
100
AcDbEntity
  8
TEMPLATE
390
1D
100
AcDbMText
 10
1299.073550799991
 20
152.2362790331201
 30
0.0
 40
24.4326171875
 41
0.0
 46
0.0
 71
     1
 72
     1
  1
大洋金物株式会社 ティーフォルム事業部
  7
ＭＳ ゴシック
 73
     1
 44
0.7828267384257843
  0
MTEXT
  5
180
330
A
100
AcDbEntity
  8
TEMPLATE
390
1D
100
AcDbMText
 10
1831.20214454799
 20
230.1492906939282
 30
0.0
 40
24.4326171875
 41
0.0
 46
24.4326171875
 71
     1
 72
     1
  1
{1:10}
  7
ＭＳ ゴシック
 73
     1
 44
0.7828267384257843
1001
ACAD
1000
ACAD_MTEXT_DEFINED_HEIGHT_BEGIN
1070
    46
1040
24.4326171875
1000
ACAD_MTEXT_DEFINED_HEIGHT_END
  0
MTEXT
  5
181
330
A
100
AcDbEntity
  8
TEMPLATE
390
1D
100
AcDbMText
 10
1778.20214454799
 20
258.731751631428
 30
0.0
 40
16.28841145833333
 41
0.0
 46
0.0
 71
     1
 72
     1
  1
縮尺
  7
ＭＳ ゴシック
 73
     1
 44
0.7828267384257843
  0
LINE
  5
182
330
A
100
AcDbEntity
  8
TEMPLATE
390
1D
100
AcDbLine
 10
1771.20214454799
 20
182.1466735064282
 30
0.0
 11
1771.20214454799
 21
267.1466735064284
 31
0.0
  0
MTEXT
  5
183
330
A
100
AcDbEntity
  8
TEMPLATE
390
1D
100
AcDbMText
 10
1527.20214454799
 20
258.731751631428
 30
0.0
 40
16.28841145833333
 41
0.0
 46
0.0
 71
     1
 72
     1
  1
容量
  7
ＭＳ ゴシック
 73
     1
 44
0.7828267384257843
  0
LINE
  5
184
330
A
100
AcDbEntity
  8
TEMPLATE
390
1D
100
AcDbLine
 10
1520.20214454799
 20
182.1466735064282
 30
0.0
 11
1520.20214454799
 21
267.1466735064284
 31
0.0
  0
MTEXT
  5
185
330
A
100
AcDbEntity
  8
TEMPLATE
390
1D
100
AcDbMText
 10
1276.20214454799
 20
343.7317516314282
 30
0.0
 40
16.28841145833333
 41
0.0
 46
0.0
 71
     1
 72
     1
  1
品番
  7
ＭＳ ゴシック
 73
     1
 44
0.7828267384257843
  0
MTEXT
  5
186
330
A
100
AcDbEntity
  8
TEMPLATE
390
1D
100
AcDbMText
 10
1276.20214454799
 20
258.731751631428
 30
0.0
 40
16.28841145833333
 41
0.0
 46
0.0
 71
     1
 72
     1
  1
重量
  7
ＭＳ ゴシック
 73
     1
 44
0.7828267384257843
  0
MTEXT
  5
187
330
A
100
AcDbEntity
  8
TEMPLATE
390
1D
100
AcDbMText
 10
1329.20214454799
 20
315.1492906939282
 30
0.0
 40
24.4326171875
 41
0.0
 46
24.4326171875
 71
     1
 72
     1
  1
{FAA70-0508}
  7
ＭＳ ゴシック
 73
     1
 44
0.7828267384257843
1001
ACAD
1000
ACAD_MTEXT_DEFINED_HEIGHT_BEGIN
1070
    46
1040
24.4326171875
1000
ACAD_MTEXT_DEFINED_HEIGHT_END
  0
LINE
  5
188
330
A
100
AcDbEntity
  8
TEMPLATE
390
1D
100
AcDbLine
 10
1269.20214454799
 20
97.14667350642826
 30
0.0
 11
1269.20214454799
 21
352.1466735064282
 31
0.0
  0
MTEXT
  5
189
330
A
100
AcDbEntity
  8
TEMPLATE
390
1D
100
AcDbMText
 10
132.2021445477307
 20
315.1492906939282
 30
0.0
 40
24.4326171875
 41
0.0
 46
27.5355595703125
 71
     1
 72
     1
  1
{手洗器 -DURAVIT,Vero}
  7
ＭＳ ゴシック
 73
     1
 44
0.7828267384257843
1001
ACAD
1000
ACAD_MTEXT_DEFINED_HEIGHT_BEGIN
1070
    46
1040
27.5355595703125
1000
ACAD_MTEXT_DEFINED_HEIGHT_END
  0
MTEXT
  5
7D9
330
A
100
AcDbEntity
  8
TEMPLATE
390
1D
100
AcDbMText
 10
125.2543452760364
 20
226.8119760293952
 30
0.0
 40
24.4326171875
 41
0.0
 46
67.584517578125
 71
     1
 72
     1
  1
{壁掛け,カウンタートップ/オーバーフロー付き/壁取付ボルト付属/\P陶器/ホワイト}
  7
ＭＳ ゴシック
 73
     1
 44
0.9331787841240657
1001
ACAD
1000
ACAD_MTEXT_DEFINED_HEIGHT_BEGIN
1070
    46
1040
67.584517578125
1000
ACAD_MTEXT_DEFINED_HEIGHT_END
  0
INSERT
  5
68C
330
A
100
AcDbEntity
  8
TEMPLATE
100
AcDbBlockReference
  2
block 2
 10
919.2743017702577
 20
8.373076514336368
 30
0.0
 41
0.3809999999999999
 42
0.3809999999999999
 43
0.3809999999999999
  0
LWPOLYLINE
  5
DAC
330
A
100
AcDbEntity
  8
BORDER
100
AcDbPolyline
 90
        4
 70
     1
 43
0.0
 10
0.0
 20
0.0
 10
0.0
 20
2970.0
 10
2100.0
 20
2970.0
 10
2100.0
 20
0.0
  0
MTEXT
  5
121B
330
A
100
AcDbEntity
  8
TEMPLATE
390
1D
100
AcDbMText
 10
1329.20214454799
 20
227.1688729773101
 30
0.0
 40
24.4326171875
 41
0.0
 46
28.390701171875
 71
     1
 72
     1
  1
{11kg}
  7
ＭＳ ゴシック
 73
     1
 44
0.7828267384257843
1001
ACAD
1000
ACAD_MTEXT_DEFINED_HEIGHT_BEGIN
1070
    46
1040
28.390701171875
1000
ACAD_MTEXT_DEFINED_HEIGHT_END
  0
MTEXT
  5
1466
102
{ACAD_XDICTIONARY
360
1468
102
}
330
A
100
AcDbEntity
  8
TEMPLATE
 48
0.05
100
AcDbMText
 10
74.728656548571
 20
83.86172105142839
 30
0.0
 40
22.0
 41
0.0
 46
22.0
 71
     1
 72
     1
  1
{20190610N}
  7
ＭＳ ゴシック
 73
     1
 44
1.0
1001
ACAD
1000
ACAD_MTEXT_DEFINED_HEIGHT_BEGIN
1070
    46
1040
22.0
1000
ACAD_MTEXT_DEFINED_HEIGHT_END
  0
MTEXT
  5
146D
330
A
100
AcDbEntity
  8
TEMPLATE
390
1D
100
AcDbMText
 10
1583.904999862276
 20
227.1688729773101
 30
0.0
 40
24.4326171875
 41
0.0
 46
24.4326171875
 71
     1
 72
     1
  1
{2L}
  7
ＭＳ ゴシック
 73
     1
 44
0.7828267384257843
1001
ACAD
1000
ACAD_MTEXT_DEFINED_HEIGHT_BEGIN
1070
    46
1040
24.4326171875
1000
ACAD_MTEXT_DEFINED_HEIGHT_END
  0
POINT
  5
262A
330
A
100
AcDbEntity
  8
Layer9
  6
Continuous
 62
     7
100
AcDbPoint
 10
1037.460145007193
 20
1010.220672371878
 30
0.0
  0
POINT
  5
262B
330
A
100
AcDbEntity
  8
Layer9
  6
Continuous
 62
     7
100
AcDbPoint
 10
1037.460146257193
 20
1010.220672788578
 30
0.0
  0
POINT
  5
262C
330
A
100
AcDbEntity
  8
Layer9
  6
Continuous
 62
     7
100
AcDbPoint
 10
1037.853693340493
 20
1015.267975288578
 30
0.0
  0
POINT
  5
2812
330
A
100
AcDbEntity
  8
Layer9
  6
Continuous
 62
     7
100
AcDbPoint
 10
925.7934783404928
 20
1010.220672371878
 30
0.0
  0
POINT
  5
2813
330
A
100
AcDbEntity
  8
Layer9
  6
Continuous
 62
     7
100
AcDbPoint
 10
925.7934795904928
 20
1010.220672788578
 30
0.0
  0
POINT
  5
2814
330
A
100
AcDbEntity
  8
Layer9
  6
Continuous
 62
     7
100
AcDbPoint
 10
926.1870266737928
 20
1015.267975288578
 30
0.0
  0
INSERT
  5
28CA
330
A
100
AcDbEntity
  8
Layer3
100
AcDbBlockReference
  2
SEANNOT_GROUP
 10
859.7083018867928
 20
826.1905269541776
 30
0.0
  0
POINT
  5
2A52
330
A
100
AcDbEntity
  8
Standard
  6
Continuous
 62
     7
100
AcDbPoint
 10
1036.111241014893
 20
1018.794321538578
 30
0.0
  0
INSERT
  5
2B9B
330
A
100
AcDbEntity
  8
Layer3
100
AcDbBlockReference
  2
SEANNOT_GROUP1
 10
859.7083018867928
 20
826.1905269541776
 30
0.0
  0
HATCH
  5
369B
102
{ACAD_REACTORS
330
36AC
102
}
330
A
100
AcDbEntity
  8
TEMPLATE
100
AcDbHatch
 10
0.0
 20
0.0
 30
0.0
210
0.0
220
0.0
230
1.0
  2
SOLID
 70
     1
 71
     1
 91
        6
 92
        1
 93
        8
 72
     1
 10
1934.476782902687
 20
153.1053194253001
 11
1934.476782902687
 21
147.1959117946397
 72
     1
 10
1934.476782902687
 20
147.1959117946397
 11
1925.116191352377
 21
147.1959117946397
 72
     1
 10
1925.116191352377
 20
147.1959117946397
 11
1925.116191352377
 21
123.105319426746
 72
     1
 10
1925.116191352377
 20
123.105319426746
 11
1916.883578199102
 21
123.105319426746
 72
     1
 10
1916.883578199102
 20
123.105319426746
 11
1916.883578199102
 21
147.1959117946397
 72
     1
 10
1916.883578199102
 20
147.1959117946397
 11
1907.688876764557
 21
147.1959117946397
 72
     1
 10
1907.688876764557
 20
147.1959117946397
 11
1907.688876764557
 21
153.1053194253001
 72
     1
 10
1907.688876764557
 20
153.1053194253001
 11
1934.476782902687
 21
153.1053194253001
 97
        1
330
369C
 92
        1
 93
        1
 72
     4
 94
        3
 73
     0
 74
     1
 95
       56
 96
       52
 40
0.0
 40
0.0
 40
0.0
 40
0.0
 40
1.0
 40
1.0
 40
1.0
 40
2.0
 40
2.0
 40
2.0
 40
3.0
 40
3.0
 40
3.0
 40
4.0
 40
4.0
 40
4.0
 40
5.0
 40
5.0
 40
5.0
 40
6.0
 40
6.0
 40
6.0
 40
7.0
 40
7.0
 40
7.0
 40
8.0
 40
8.0
 40
8.0
 40
9.0
 40
9.0
 40
9.0
 40
10.0
 40
10.0
 40
10.0
 40
11.0
 40
11.0
 40
11.0
 40
12.0
 40
12.0
 40
12.0
 40
13.0
 40
13.0
 40
13.0
 40
14.0
 40
14.0
 40
14.0
 40
15.0
 40
15.0
 40
15.0
 40
16.0
 40
16.0
 40
16.0
 40
17.0
 40
17.0
 40
17.0
 40
17.0
 10
1947.01896833698
 20
152.3909504648878
 10
1948.1728345189
 20
152.715738018898
 10
1949.662423612235
 20
152.4440650580081
 10
1949.662423612235
 20
152.4440650580081
 10
1949.662423612235
 20
152.4440650580081
 10
1948.946790018651
 20
150.2964947655846
 10
1948.946790018651
 20
150.2964947655846
 10
1948.946790018651
 20
150.2964947655846
 10
1947.484427733556
 20
150.6348957237139
 10
1946.356523726704
 20
149.7454866546012
 10
1945.480058550036
 20
149.0499384113589
 10
1944.912238256914
 20
147.2017886193686
 10
1944.69442379101
 20
146.4990989182278
 10
1944.69442379101
 20
146.4990989182278
 10
1943.723334297183
 20
143.518432927829
 10
1943.723334297183
 20
143.518432927829
 10
1943.723334297183
 20
143.518432927829
 10
1946.907457447503
 20
143.518432927829
 10
1946.907457447503
 20
143.518432927829
 10
1946.907457447503
 20
143.518432927829
 10
1946.412241976351
 20
141.642461206109
 10
1946.412241976351
 20
141.642461206109
 10
1946.412241976351
 20
141.642461206109
 10
1943.202156650962
 20
141.642461206109
 10
1943.202156650962
 20
141.642461206109
 10
1943.202156650962
 20
141.642461206109
 10
1937.458713526257
 20
123.105319426746
 10
1937.458713526257
 20
123.105319426746
 10
1937.458713526257
 20
123.105319426746
 10
1935.660479549369
 20
123.105319426746
 10
1935.660479549369
 20
123.105319426746
 10
1935.660479549369
 20
123.105319426746
 10
1941.409129987127
 20
141.642461206109
 10
1941.409129987127
 20
141.642461206109
 10
1941.409129987127
 20
141.642461206109
 10
1939.040397670409
 20
141.642461206109
 10
1939.040397670409
 20
141.642461206109
 10
1939.040397670409
 20
141.642461206109
 10
1939.536952164915
 20
143.518432927829
 10
1939.536952164915
 20
143.518432927829
 10
1939.536952164915
 20
143.518432927829
 10
1941.930307633347
 20
143.518432927829
 10
1941.930307633347
 20
143.518432927829
 10
1941.930307633347
 20
143.518432927829
 10
1942.77686795507
 20
146.1179236028939
 10
1942.77686795507
 20
146.1179236028939
 10
1943.461406450716
 20
148.2973328951149
 10
1944.042245026465
 20
149.4674161376772
 10
1944.540138544327
 20
150.3496093587049
 10
1945.032750358952
 20
151.232546481597
 10
1946.007708142475
 20
152.0998616653363
 10
1947.01896833698
 20
152.3909504648878
 97
        1
330
36A7
 92
        1
 93
        1
 72
     4
 94
        3
 73
     0
 74
     1
 95
       32
 96
       28
 40
0.0
 40
0.0
 40
0.0
 40
0.0
 40
1.0
 40
1.0
 40
1.0
 40
2.0
 40
2.0
 40
2.0
 40
3.0
 40
3.0
 40
3.0
 40
4.0
 40
4.0
 40
4.0
 40
5.0
 40
5.0
 40
5.0
 40
6.0
 40
6.0
 40
6.0
 40
7.0
 40
7.0
 40
7.0
 40
8.0
 40
8.0
 40
8.0
 40
9.0
 40
9.0
 40
9.0
 40
9.0
 10
1951.394524713372
 20
142.3847264864374
 10
1950.311998720255
 20
140.9844800070205
 10
1949.478382290974
 20
139.7243102486757
 10
1948.128795528524
 20
135.7635535518901
 10
1946.888041608841
 20
132.1406026917421
 10
1946.098464169936
 20
129.5048096056932
 10
1945.979216701069
 20
126.2947242803041
 10
1945.888460673606
 20
123.9059066132458
 10
1947.343086379314
 20
123.105319426746
 10
1949.475853024634
 20
123.105319426746
 10
1950.395018168326
 20
123.105319426746
 10
1952.714504181618
 20
123.1637901132903
 10
1954.3662638814
 20
125.2056519507783
 10
1955.522584939468
 20
126.6401923061455
 10
1956.588298750451
 20
128.1272521331414
 10
1958.017036671275
 20
133.0053142189559
 10
1959.205940631009
 20
137.0833842397621
 10
1960.029142434186
 20
139.7191029356247
 10
1959.968291261677
 20
141.2197761667398
 10
1959.968291261677
 20
141.2197761667398
 10
1959.968291261677
 20
141.2197761667398
 10
1959.968291261677
 20
141.2197761667398
 10
1959.580569609936
 20
143.7233035012931
 10
1957.762919794387
 20
144.2522921170894
 10
1956.724432791643
 20
144.2522921170894
 10
1955.70156772805
 20
144.2522921170894
 10
1952.960735698745
 20
144.4292663706373
 10
1951.394524713372
 20
142.3847264864374
 97
        1
330
36AA
 92
        1
 93
        1
 72
     4
 94
        3
 73
     0
 74
     1
 95
       38
 96
       34
 40
0.0
 40
0.0
 40
0.0
 40
0.0
 40
1.0
 40
1.0
 40
1.0
 40
2.0
 40
2.0
 40
2.0
 40
3.0
 40
3.0
 40
3.0
 40
4.0
 40
4.0
 40
4.0
 40
5.0
 40
5.0
 40
5.0
 40
6.0
 40
6.0
 40
6.0
 40
7.0
 40
7.0
 40
7.0
 40
8.0
 40
8.0
 40
8.0
 40
9.0
 40
9.0
 40
9.0
 40
10.0
 40
10.0
 40
10.0
 40
11.0
 40
11.0
 40
11.0
 40
11.0
 10
1966.542747159137
 20
143.4464976175386
 10
1966.542747159137
 20
143.4464976175386
 10
1968.39149207262
 20
143.4464976175386
 10
1968.39149207262
 20
143.4464976175386
 10
1968.39149207262
 20
143.4464976175386
 10
1967.56561222273
 20
140.8022984404216
 10
1967.56561222273
 20
140.8022984404216
 10
1968.193167835563
 20
141.54456372075
 10
1969.183598777865
 20
142.5331349083912
 10
1970.034176169654
 20
143.0316235477459
 10
1971.304760554101
 20
143.7738888280742
 10
1972.030808773784
 20
143.8717863134333
 10
1972.829313035064
 20
143.8522960845852
 10
1972.829313035064
 20
143.8522960845852
 10
1972.048959979278
 20
141.3520419182353
 10
1972.048959979278
 20
141.3520419182353
 10
1971.540726225497
 20
141.5672527276151
 10
1969.974515240128
 20
141.1575859708734
 10
1969.076030568268
 20
140.5112840310564
 10
1968.265772657532
 20
139.9285113104618
 10
1967.705614553615
 20
139.4326263276327
 10
1967.04190531017
 20
138.1859955832205
 10
1966.383254599404
 20
136.9375050841474
 10
1965.86341597654
 20
134.9467493047458
 10
1964.968799594376
 20
132.058773486655
 10
1964.968799594376
 20
132.058773486655
 10
1962.174852971949
 20
123.105319426746
 10
1962.174852971949
 20
123.105319426746
 10
1962.174852971949
 20
123.105319426746
 10
1960.380561674943
 20
123.105319426746
 10
1960.380561674943
 20
123.105319426746
 10
1960.380561674943
 20
123.105319426746
 10
1966.542747159137
 20
143.4464976175386
 10
1966.542747159137
 20
143.4464976175386
 97
        1
330
36A8
 92
        1
 93
        1
 72
     4
 94
        3
 73
     0
 74
     1
 95
      104
 96
      100
 40
0.0
 40
0.0
 40
0.0
 40
0.0
 40
1.0
 40
1.0
 40
1.0
 40
2.0
 40
2.0
 40
2.0
 40
3.0
 40
3.0
 40
3.0
 40
4.0
 40
4.0
 40
4.0
 40
5.0
 40
5.0
 40
5.0
 40
6.0
 40
6.0
 40
6.0
 40
7.0
 40
7.0
 40
7.0
 40
8.0
 40
8.0
 40
8.0
 40
9.0
 40
9.0
 40
9.0
 40
10.0
 40
10.0
 40
10.0
 40
11.0
 40
11.0
 40
11.0
 40
12.0
 40
12.0
 40
12.0
 40
13.0
 40
13.0
 40
13.0
 40
14.0
 40
14.0
 40
14.0
 40
15.0
 40
15.0
 40
15.0
 40
16.0
 40
16.0
 40
16.0
 40
17.0
 40
17.0
 40
17.0
 40
18.0
 40
18.0
 40
18.0
 40
19.0
 40
19.0
 40
19.0
 40
20.0
 40
20.0
 40
20.0
 40
21.0
 40
21.0
 40
21.0
 40
22.0
 40
22.0
 40
22.0
 40
23.0
 40
23.0
 40
23.0
 40
24.0
 40
24.0
 40
24.0
 40
25.0
 40
25.0
 40
25.0
 40
26.0
 40
26.0
 40
26.0
 40
27.0
 40
27.0
 40
27.0
 40
28.0
 40
28.0
 40
28.0
 40
29.0
 40
29.0
 40
29.0
 40
30.0
 40
30.0
 40
30.0
 40
31.0
 40
31.0
 40
31.0
 40
32.0
 40
32.0
 40
32.0
 40
33.0
 40
33.0
 40
33.0
 40
33.0
 10
1976.718878323425
 20
143.4575073651321
 10
1976.718878323425
 20
143.4575073651321
 10
1978.332996588864
 20
143.4575073651321
 10
1978.332996588864
 20
143.4575073651321
 10
1978.332996588864
 20
143.4575073651321
 10
1977.517531365076
 20
140.810778921676
 10
1977.517531365076
 20
140.810778921676
 10
1978.225279598895
 20
141.920531723033
 10
1978.860571791119
 20
142.4151520726926
 10
1979.704602846502
 20
143.054312554611
 10
1980.551163168223
 20
143.6843974337833
 10
1981.556025806694
 20
143.812794895584
 10
1982.253508194784
 20
143.812794895584
 10
1983.117029479015
 20
143.812794895584
 10
1983.950645908296
 20
143.6422925882567
 10
1984.388804106443
 20
142.6958262461422
 10
1984.72460140805
 20
141.9536353560001
 10
1984.740223347202
 20
141.8660781065566
 10
1984.644260006691
 20
140.4010377747479
 10
1985.521915426345
 20
141.9030500292188
 10
1986.170151511008
 20
142.5500214807137
 10
1987.272167732975
 20
143.1716258786317
 10
1988.42863757142
 20
143.812794895584
 10
1989.102761440966
 20
143.8607765658398
 10
1989.885941323838
 20
143.7453229964802
 10
1991.039733115569
 20
143.5748950793392
 10
1991.776195961356
 20
143.1632197875635
 10
1992.161239566385
 20
141.9121256319649
 10
1992.54762219477
 20
140.6648997660613
 10
1992.338883331611
 20
139.9959088193793
 10
1991.861744675765
 20
138.0103603530286
 10
1991.64393020986
 20
137.1060732466272
 10
1991.328813380087
 20
136.0111240923725
 10
1990.916542966819
 20
134.7082543670094
 10
1990.916542966819
 20
134.7082543670094
 10
1987.272167732975
 20
123.105319426746
 10
1987.272167732975
 20
123.105319426746
 10
1987.272167732975
 20
123.105319426746
 10
1985.376705782409
 20
123.105319426746
 10
1985.376705782409
 20
123.105319426746
 10
1985.376705782409
 20
123.105319426746
 10
1988.567449659321
 20
133.2490164697431
 10
1988.567449659321
 20
133.2490164697431
 10
1989.233836949479
 20
135.3713684889626
 10
1989.684939040069
 20
136.9212880235028
 10
1989.918375445127
 20
137.893047029008
 10
1990.211323999339
 20
139.1052351170969
 10
1990.327967811683
 20
139.505231149601
 10
1990.189304504152
 20
140.3874987608153
 10
1990.062246065708
 20
141.2087664191461
 10
1989.647297605728
 20
141.7435574694851
 10
1988.936871325198
 20
141.7435574694851
 10
1988.17972800758
 20
141.7435574694851
 10
1987.566455310545
 20
141.659273388245
 10
1986.708290119737
 20
140.7971655175569
 10
1985.84997614856
 20
139.9285113104618
 10
1985.140740111011
 20
138.9088450248874
 10
1984.584599077163
 20
137.7361581257997
 10
1984.029648286297
 20
136.5563297688134
 10
1983.466960916042
 20
135.0608638507494
 10
1982.896536966398
 20
133.2490164697431
 10
1982.896536966398
 20
133.2490164697431
 10
1979.704602846502
 20
123.105319426746
 10
1979.704602846502
 20
123.105319426746
 10
1979.704602846502
 20
123.105319426746
 10
1977.921916418581
 20
123.105319426746
 10
1977.921916418581
 20
123.105319426746
 10
1977.921916418581
 20
123.105319426746
 10
1981.571498965475
 20
134.7030470539584
 10
1981.571498965475
 20
134.7030470539584
 10
1981.956542570504
 20
135.9373290274211
 10
1982.245771615394
 20
136.9433819088763
 10
1982.436359273062
 20
137.729686179579
 10
1982.760402925207
 20
139.0832156219098
 10
1982.851158952669
 20
139.9985124759046
 10
1982.606117678524
 20
140.810778921676
 10
1982.364944694076
 20
141.6204417109219
 10
1981.941069411725
 20
141.8272464292334
 10
1981.233172397533
 20
141.8272464292334
 10
1980.639389929345
 20
141.8272464292334
 10
1980.059890376953
 20
141.5724600406662
 10
1979.398710399847
 20
141.0654909200569
 10
1978.566284213549
 20
140.4276694614944
 10
1978.233164958657
 20
139.9038881587491
 10
1977.824762835085
 20
139.2815398589669
 10
1977.273680333915
 20
138.458263665602
 10
1977.015695167332
 20
137.9040567766015
 10
1976.550310160944
 20
136.687926008631
 10
1976.084776374184
 20
135.4646537827621
 10
1975.644088909695
 20
134.0411231749885
 10
1975.336708659311
 20
133.0564946672286
 10
1975.336708659311
 20
133.0564946672286
 10
1972.205774492298
 20
123.105319426746
 10
1972.205774492298
 20
123.105319426746
 10
1972.205774492298
 20
123.105319426746
 10
1970.338878373326
 20
123.105319426746
 10
1970.338878373326
 20
123.105319426746
 10
1970.338878373326
 20
123.105319426746
 10
1976.718878323425
 20
143.4575073651321
 10
1976.718878323425
 20
143.4575073651321
 97
        1
330
36A9
 92
       16
 93
        1
 72
     4
 94
        3
 73
     0
 74
     1
 95
       29
 96
       25
 40
0.0
 40
0.0
 40
0.0
 40
0.0
 40
1.0
 40
1.0
 40
1.0
 40
2.0
 40
2.0
 40
2.0
 40
3.0
 40
3.0
 40
3.0
 40
4.0
 40
4.0
 40
4.0
 40
5.0
 40
5.0
 40
5.0
 40
6.0
 40
6.0
 40
6.0
 40
7.0
 40
7.0
 40
7.0
 40
8.0
 40
8.0
 40
8.0
 40
8.0
 10
1947.916188375669
 20
126.8949043045264
 10
1947.908303015907
 20
128.3120373562658
 10
1948.355685597176
 20
130.8298476066162
 10
1949.501740809517
 20
134.1986815898748
 10
1951.062744481836
 20
138.7603622127471
 10
1951.998870588036
 20
140.4276694614944
 10
1952.818055321147
 20
141.2392663955878
 10
1954.014844640642
 20
142.4210288974216
 10
1955.623755593032
 20
142.4799459250845
 10
1956.098364982539
 20
142.4210288974216
 10
1956.77382787544
 20
142.3399435941987
 10
1957.727956406759
 20
141.8978427161679
 10
1957.784939289575
 20
140.4095182560024
 10
1957.830466083678
 20
139.1357350935386
 10
1957.463424903768
 20
136.7501905946838
 10
1956.178706383896
 20
133.0053142189559
 10
1954.698044112936
 20
128.6536370924121
 10
1953.808635043822
 20
126.9429603649685
 10
1953.095679496951
 20
126.1974219164366
 10
1951.752490290537
 20
124.7997790935452
 10
1950.311998720255
 20
124.9339789898883
 10
1950.0993915674
 20
124.9339789898883
 10
1949.823255195324
 20
124.9339789898883
 10
1947.920056665365
 20
125.2336226608809
 10
1947.916188375669
 20
126.8949043045264
 97
        1
330
36AB
 75
     0
 76
     1
 98
        1
 10
1859.334883625664
 20
72.26751235270598
1001
ACAD
1010
0.0
1020
0.0
1030
0.0
  0
POLYLINE
  5
369C
102
{ACAD_REACTORS
330
369B
330
36AC
102
}
330
A
100
AcDbEntity
  8
TEMPLATE
100
AcDb2dPolyline
 66
     1
 10
0.0
 20
0.0
 30
0.0
  0
VERTEX
  5
369D
330
369C
100
AcDbEntity
  8
TEMPLATE
100
AcDbVertex
100
AcDb2dVertex
 10
1934.476782902687
 20
153.1053194253001
 30
0.0
  0
VERTEX
  5
369E
330
369C
100
AcDbEntity
  8
TEMPLATE
100
AcDbVertex
100
AcDb2dVertex
 10
1934.476782902687
 20
147.1959117946397
 30
0.0
  0
VERTEX
  5
369F
330
369C
100
AcDbEntity
  8
TEMPLATE
100
AcDbVertex
100
AcDb2dVertex
 10
1925.116191352377
 20
147.1959117946397
 30
0.0
  0
VERTEX
  5
36A0
330
369C
100
AcDbEntity
  8
TEMPLATE
100
AcDbVertex
100
AcDb2dVertex
 10
1925.116191352377
 20
123.105319426746
 30
0.0
  0
VERTEX
  5
36A1
330
369C
100
AcDbEntity
  8
TEMPLATE
100
AcDbVertex
100
AcDb2dVertex
 10
1916.883578199102
 20
123.105319426746
 30
0.0
  0
VERTEX
  5
36A2
330
369C
100
AcDbEntity
  8
TEMPLATE
100
AcDbVertex
100
AcDb2dVertex
 10
1916.883578199102
 20
147.1959117946397
 30
0.0
  0
VERTEX
  5
36A3
330
369C
100
AcDbEntity
  8
TEMPLATE
100
AcDbVertex
100
AcDb2dVertex
 10
1907.688876764557
 20
147.1959117946397
 30
0.0
  0
VERTEX
  5
36A4
330
369C
100
AcDbEntity
  8
TEMPLATE
100
AcDbVertex
100
AcDb2dVertex
 10
1907.688876764557
 20
153.1053194253001
 30
0.0
  0
VERTEX
  5
36A5
330
369C
100
AcDbEntity
  8
TEMPLATE
100
AcDbVertex
100
AcDb2dVertex
 10
1934.476782902687
 20
153.1053194253001
 30
0.0
  0
SEQEND
  5
36A6
330
369C
100
AcDbEntity
  8
TEMPLATE
  0
SPLINE
  5
36A7
102
{ACAD_REACTORS
330
369B
330
36AC
102
}
330
A
100
AcDbEntity
  8
TEMPLATE
100
AcDbSpline
210
0.0
220
0.0
230
1.0
 70
    11
 71
     3
 72
    56
 73
    52
 74
     0
 42
0.000000001
 43
0.0000000001
 40
0.0
 40
0.0
 40
0.0
 40
0.0
 40
1.0
 40
1.0
 40
1.0
 40
2.0
 40
2.0
 40
2.0
 40
3.0
 40
3.0
 40
3.0
 40
4.0
 40
4.0
 40
4.0
 40
5.0
 40
5.0
 40
5.0
 40
6.0
 40
6.0
 40
6.0
 40
7.0
 40
7.0
 40
7.0
 40
8.0
 40
8.0
 40
8.0
 40
9.0
 40
9.0
 40
9.0
 40
10.0
 40
10.0
 40
10.0
 40
11.0
 40
11.0
 40
11.0
 40
12.0
 40
12.0
 40
12.0
 40
13.0
 40
13.0
 40
13.0
 40
14.0
 40
14.0
 40
14.0
 40
15.0
 40
15.0
 40
15.0
 40
16.0
 40
16.0
 40
16.0
 40
17.0
 40
17.0
 40
17.0
 40
17.0
 10
1947.01896833698
 20
152.3909504648878
 30
0.0
 10
1948.1728345189
 20
152.715738018898
 30
0.0
 10
1949.662423612235
 20
152.4440650580081
 30
0.0
 10
1949.662423612235
 20
152.4440650580081
 30
0.0
 10
1949.662423612235
 20
152.4440650580081
 30
0.0
 10
1948.946790018651
 20
150.2964947655846
 30
0.0
 10
1948.946790018651
 20
150.2964947655846
 30
0.0
 10
1948.946790018651
 20
150.2964947655846
 30
0.0
 10
1947.484427733556
 20
150.6348957237139
 30
0.0
 10
1946.356523726704
 20
149.7454866546012
 30
0.0
 10
1945.480058550036
 20
149.0499384113589
 30
0.0
 10
1944.912238256914
 20
147.2017886193686
 30
0.0
 10
1944.69442379101
 20
146.4990989182278
 30
0.0
 10
1944.69442379101
 20
146.4990989182278
 30
0.0
 10
1943.723334297183
 20
143.518432927829
 30
0.0
 10
1943.723334297183
 20
143.518432927829
 30
0.0
 10
1943.723334297183
 20
143.518432927829
 30
0.0
 10
1946.907457447503
 20
143.518432927829
 30
0.0
 10
1946.907457447503
 20
143.518432927829
 30
0.0
 10
1946.907457447503
 20
143.518432927829
 30
0.0
 10
1946.412241976351
 20
141.642461206109
 30
0.0
 10
1946.412241976351
 20
141.642461206109
 30
0.0
 10
1946.412241976351
 20
141.642461206109
 30
0.0
 10
1943.202156650962
 20
141.642461206109
 30
0.0
 10
1943.202156650962
 20
141.642461206109
 30
0.0
 10
1943.202156650962
 20
141.642461206109
 30
0.0
 10
1937.458713526257
 20
123.105319426746
 30
0.0
 10
1937.458713526257
 20
123.105319426746
 30
0.0
 10
1937.458713526257
 20
123.105319426746
 30
0.0
 10
1935.660479549369
 20
123.105319426746
 30
0.0
 10
1935.660479549369
 20
123.105319426746
 30
0.0
 10
1935.660479549369
 20
123.105319426746
 30
0.0
 10
1941.409129987127
 20
141.642461206109
 30
0.0
 10
1941.409129987127
 20
141.642461206109
 30
0.0
 10
1941.409129987127
 20
141.642461206109
 30
0.0
 10
1939.040397670409
 20
141.642461206109
 30
0.0
 10
1939.040397670409
 20
141.642461206109
 30
0.0
 10
1939.040397670409
 20
141.642461206109
 30
0.0
 10
1939.536952164915
 20
143.518432927829
 30
0.0
 10
1939.536952164915
 20
143.518432927829
 30
0.0
 10
1939.536952164915
 20
143.518432927829
 30
0.0
 10
1941.930307633347
 20
143.518432927829
 30
0.0
 10
1941.930307633347
 20
143.518432927829
 30
0.0
 10
1941.930307633347
 20
143.518432927829
 30
0.0
 10
1942.77686795507
 20
146.1179236028939
 30
0.0
 10
1942.77686795507
 20
146.1179236028939
 30
0.0
 10
1943.461406450716
 20
148.2973328951149
 30
0.0
 10
1944.042245026465
 20
149.4674161376772
 30
0.0
 10
1944.540138544327
 20
150.3496093587049
 30
0.0
 10
1945.032750358952
 20
151.232546481597
 30
0.0
 10
1946.007708142475
 20
152.0998616653363
 30
0.0
 10
1947.01896833698
 20
152.3909504648878
 30
0.0
  0
SPLINE
  5
36A8
102
{ACAD_REACTORS
330
369B
330
36AC
102
}
330
A
100
AcDbEntity
  8
TEMPLATE
100
AcDbSpline
210
0.0
220
0.0
230
1.0
 70
    11
 71
     3
 72
    38
 73
    34
 74
     0
 42
0.000000001
 43
0.0000000001
 40
0.0
 40
0.0
 40
0.0
 40
0.0
 40
1.0
 40
1.0
 40
1.0
 40
2.0
 40
2.0
 40
2.0
 40
3.0
 40
3.0
 40
3.0
 40
4.0
 40
4.0
 40
4.0
 40
5.0
 40
5.0
 40
5.0
 40
6.0
 40
6.0
 40
6.0
 40
7.0
 40
7.0
 40
7.0
 40
8.0
 40
8.0
 40
8.0
 40
9.0
 40
9.0
 40
9.0
 40
10.0
 40
10.0
 40
10.0
 40
11.0
 40
11.0
 40
11.0
 40
11.0
 10
1966.542747159137
 20
143.4464976175386
 30
0.0
 10
1966.542747159137
 20
143.4464976175386
 30
0.0
 10
1968.39149207262
 20
143.4464976175386
 30
0.0
 10
1968.39149207262
 20
143.4464976175386
 30
0.0
 10
1968.39149207262
 20
143.4464976175386
 30
0.0
 10
1967.56561222273
 20
140.8022984404216
 30
0.0
 10
1967.56561222273
 20
140.8022984404216
 30
0.0
 10
1968.193167835563
 20
141.54456372075
 30
0.0
 10
1969.183598777865
 20
142.5331349083912
 30
0.0
 10
1970.034176169654
 20
143.0316235477459
 30
0.0
 10
1971.304760554101
 20
143.7738888280742
 30
0.0
 10
1972.030808773784
 20
143.8717863134333
 30
0.0
 10
1972.829313035064
 20
143.8522960845852
 30
0.0
 10
1972.829313035064
 20
143.8522960845852
 30
0.0
 10
1972.048959979278
 20
141.3520419182353
 30
0.0
 10
1972.048959979278
 20
141.3520419182353
 30
0.0
 10
1971.540726225497
 20
141.5672527276151
 30
0.0
 10
1969.974515240128
 20
141.1575859708734
 30
0.0
 10
1969.076030568268
 20
140.5112840310564
 30
0.0
 10
1968.265772657532
 20
139.9285113104618
 30
0.0
 10
1967.705614553615
 20
139.4326263276327
 30
0.0
 10
1967.04190531017
 20
138.1859955832205
 30
0.0
 10
1966.383254599404
 20
136.9375050841474
 30
0.0
 10
1965.86341597654
 20
134.9467493047458
 30
0.0
 10
1964.968799594376
 20
132.058773486655
 30
0.0
 10
1964.968799594376
 20
132.058773486655
 30
0.0
 10
1962.174852971949
 20
123.105319426746
 30
0.0
 10
1962.174852971949
 20
123.105319426746
 30
0.0
 10
1962.174852971949
 20
123.105319426746
 30
0.0
 10
1960.380561674943
 20
123.105319426746
 30
0.0
 10
1960.380561674943
 20
123.105319426746
 30
0.0
 10
1960.380561674943
 20
123.105319426746
 30
0.0
 10
1966.542747159137
 20
143.4464976175386
 30
0.0
 10
1966.542747159137
 20
143.4464976175386
 30
0.0
  0
SPLINE
  5
36A9
102
{ACAD_REACTORS
330
369B
330
36AC
102
}
330
A
100
AcDbEntity
  8
TEMPLATE
100
AcDbSpline
210
0.0
220
0.0
230
1.0
 70
    11
 71
     3
 72
   104
 73
   100
 74
     0
 42
0.000000001
 43
0.0000000001
 40
0.0
 40
0.0
 40
0.0
 40
0.0
 40
1.0
 40
1.0
 40
1.0
 40
2.0
 40
2.0
 40
2.0
 40
3.0
 40
3.0
 40
3.0
 40
4.0
 40
4.0
 40
4.0
 40
5.0
 40
5.0
 40
5.0
 40
6.0
 40
6.0
 40
6.0
 40
7.0
 40
7.0
 40
7.0
 40
8.0
 40
8.0
 40
8.0
 40
9.0
 40
9.0
 40
9.0
 40
10.0
 40
10.0
 40
10.0
 40
11.0
 40
11.0
 40
11.0
 40
12.0
 40
12.0
 40
12.0
 40
13.0
 40
13.0
 40
13.0
 40
14.0
 40
14.0
 40
14.0
 40
15.0
 40
15.0
 40
15.0
 40
16.0
 40
16.0
 40
16.0
 40
17.0
 40
17.0
 40
17.0
 40
18.0
 40
18.0
 40
18.0
 40
19.0
 40
19.0
 40
19.0
 40
20.0
 40
20.0
 40
20.0
 40
21.0
 40
21.0
 40
21.0
 40
22.0
 40
22.0
 40
22.0
 40
23.0
 40
23.0
 40
23.0
 40
24.0
 40
24.0
 40
24.0
 40
25.0
 40
25.0
 40
25.0
 40
26.0
 40
26.0
 40
26.0
 40
27.0
 40
27.0
 40
27.0
 40
28.0
 40
28.0
 40
28.0
 40
29.0
 40
29.0
 40
29.0
 40
30.0
 40
30.0
 40
30.0
 40
31.0
 40
31.0
 40
31.0
 40
32.0
 40
32.0
 40
32.0
 40
33.0
 40
33.0
 40
33.0
 40
33.0
 10
1976.718878323425
 20
143.4575073651321
 30
0.0
 10
1976.718878323425
 20
143.4575073651321
 30
0.0
 10
1978.332996588864
 20
143.4575073651321
 30
0.0
 10
1978.332996588864
 20
143.4575073651321
 30
0.0
 10
1978.332996588864
 20
143.4575073651321
 30
0.0
 10
1977.517531365076
 20
140.810778921676
 30
0.0
 10
1977.517531365076
 20
140.810778921676
 30
0.0
 10
1978.225279598895
 20
141.920531723033
 30
0.0
 10
1978.860571791119
 20
142.4151520726926
 30
0.0
 10
1979.704602846502
 20
143.054312554611
 30
0.0
 10
1980.551163168223
 20
143.6843974337833
 30
0.0
 10
1981.556025806694
 20
143.812794895584
 30
0.0
 10
1982.253508194784
 20
143.812794895584
 30
0.0
 10
1983.117029479015
 20
143.812794895584
 30
0.0
 10
1983.950645908296
 20
143.6422925882567
 30
0.0
 10
1984.388804106443
 20
142.6958262461422
 30
0.0
 10
1984.72460140805
 20
141.9536353560001
 30
0.0
 10
1984.740223347202
 20
141.8660781065566
 30
0.0
 10
1984.644260006691
 20
140.4010377747479
 30
0.0
 10
1985.521915426345
 20
141.9030500292188
 30
0.0
 10
1986.170151511008
 20
142.5500214807137
 30
0.0
 10
1987.272167732975
 20
143.1716258786317
 30
0.0
 10
1988.42863757142
 20
143.812794895584
 30
0.0
 10
1989.102761440966
 20
143.8607765658398
 30
0.0
 10
1989.885941323838
 20
143.7453229964802
 30
0.0
 10
1991.039733115569
 20
143.5748950793392
 30
0.0
 10
1991.776195961356
 20
143.1632197875635
 30
0.0
 10
1992.161239566385
 20
141.9121256319649
 30
0.0
 10
1992.54762219477
 20
140.6648997660613
 30
0.0
 10
1992.338883331611
 20
139.9959088193793
 30
0.0
 10
1991.861744675765
 20
138.0103603530286
 30
0.0
 10
1991.64393020986
 20
137.1060732466272
 30
0.0
 10
1991.328813380087
 20
136.0111240923725
 30
0.0
 10
1990.916542966819
 20
134.7082543670094
 30
0.0
 10
1990.916542966819
 20
134.7082543670094
 30
0.0
 10
1987.272167732975
 20
123.105319426746
 30
0.0
 10
1987.272167732975
 20
123.105319426746
 30
0.0
 10
1987.272167732975
 20
123.105319426746
 30
0.0
 10
1985.376705782409
 20
123.105319426746
 30
0.0
 10
1985.376705782409
 20
123.105319426746
 30
0.0
 10
1985.376705782409
 20
123.105319426746
 30
0.0
 10
1988.567449659321
 20
133.2490164697431
 30
0.0
 10
1988.567449659321
 20
133.2490164697431
 30
0.0
 10
1989.233836949479
 20
135.3713684889626
 30
0.0
 10
1989.684939040069
 20
136.9212880235028
 30
0.0
 10
1989.918375445127
 20
137.893047029008
 30
0.0
 10
1990.211323999339
 20
139.1052351170969
 30
0.0
 10
1990.327967811683
 20
139.505231149601
 30
0.0
 10
1990.189304504152
 20
140.3874987608153
 30
0.0
 10
1990.062246065708
 20
141.2087664191461
 30
0.0
 10
1989.647297605728
 20
141.7435574694851
 30
0.0
 10
1988.936871325198
 20
141.7435574694851
 30
0.0
 10
1988.17972800758
 20
141.7435574694851
 30
0.0
 10
1987.566455310545
 20
141.659273388245
 30
0.0
 10
1986.708290119737
 20
140.7971655175569
 30
0.0
 10
1985.84997614856
 20
139.9285113104618
 30
0.0
 10
1985.140740111011
 20
138.9088450248874
 30
0.0
 10
1984.584599077163
 20
137.7361581257997
 30
0.0
 10
1984.029648286297
 20
136.5563297688134
 30
0.0
 10
1983.466960916042
 20
135.0608638507494
 30
0.0
 10
1982.896536966398
 20
133.2490164697431
 30
0.0
 10
1982.896536966398
 20
133.2490164697431
 30
0.0
 10
1979.704602846502
 20
123.105319426746
 30
0.0
 10
1979.704602846502
 20
123.105319426746
 30
0.0
 10
1979.704602846502
 20
123.105319426746
 30
0.0
 10
1977.921916418581
 20
123.105319426746
 30
0.0
 10
1977.921916418581
 20
123.105319426746
 30
0.0
 10
1977.921916418581
 20
123.105319426746
 30
0.0
 10
1981.571498965475
 20
134.7030470539584
 30
0.0
 10
1981.571498965475
 20
134.7030470539584
 30
0.0
 10
1981.956542570504
 20
135.9373290274211
 30
0.0
 10
1982.245771615394
 20
136.9433819088763
 30
0.0
 10
1982.436359273062
 20
137.729686179579
 30
0.0
 10
1982.760402925207
 20
139.0832156219098
 30
0.0
 10
1982.851158952669
 20
139.9985124759046
 30
0.0
 10
1982.606117678524
 20
140.810778921676
 30
0.0
 10
1982.364944694076
 20
141.6204417109219
 30
0.0
 10
1981.941069411725
 20
141.8272464292334
 30
0.0
 10
1981.233172397533
 20
141.8272464292334
 30
0.0
 10
1980.639389929345
 20
141.8272464292334
 30
0.0
 10
1980.059890376953
 20
141.5724600406662
 30
0.0
 10
1979.398710399847
 20
141.0654909200569
 30
0.0
 10
1978.566284213549
 20
140.4276694614944
 30
0.0
 10
1978.233164958657
 20
139.9038881587491
 30
0.0
 10
1977.824762835085
 20
139.2815398589669
 30
0.0
 10
1977.273680333915
 20
138.458263665602
 30
0.0
 10
1977.015695167332
 20
137.9040567766015
 30
0.0
 10
1976.550310160944
 20
136.687926008631
 30
0.0
 10
1976.084776374184
 20
135.4646537827621
 30
0.0
 10
1975.644088909695
 20
134.0411231749885
 30
0.0
 10
1975.336708659311
 20
133.0564946672286
 30
0.0
 10
1975.336708659311
 20
133.0564946672286
 30
0.0
 10
1972.205774492298
 20
123.105319426746
 30
0.0
 10
1972.205774492298
 20
123.105319426746
 30
0.0
 10
1972.205774492298
 20
123.105319426746
 30
0.0
 10
1970.338878373326
 20
123.105319426746
 30
0.0
 10
1970.338878373326
 20
123.105319426746
 30
0.0
 10
1970.338878373326
 20
123.105319426746
 30
0.0
 10
1976.718878323425
 20
143.4575073651321
 30
0.0
 10
1976.718878323425
 20
143.4575073651321
 30
0.0
  0
SPLINE
  5
36AA
102
{ACAD_REACTORS
330
369B
330
36AC
102
}
330
A
100
AcDbEntity
  8
TEMPLATE
100
AcDbSpline
210
0.0
220
0.0
230
1.0
 70
    11
 71
     3
 72
    32
 73
    28
 74
     0
 42
0.000000001
 43
0.0000000001
 40
0.0
 40
0.0
 40
0.0
 40
0.0
 40
1.0
 40
1.0
 40
1.0
 40
2.0
 40
2.0
 40
2.0
 40
3.0
 40
3.0
 40
3.0
 40
4.0
 40
4.0
 40
4.0
 40
5.0
 40
5.0
 40
5.0
 40
6.0
 40
6.0
 40
6.0
 40
7.0
 40
7.0
 40
7.0
 40
8.0
 40
8.0
 40
8.0
 40
9.0
 40
9.0
 40
9.0
 40
9.0
 10
1951.394524713372
 20
142.3847264864374
 30
0.0
 10
1950.311998720255
 20
140.9844800070205
 30
0.0
 10
1949.478382290974
 20
139.7243102486757
 30
0.0
 10
1948.128795528524
 20
135.7635535518901
 30
0.0
 10
1946.888041608841
 20
132.1406026917421
 30
0.0
 10
1946.098464169936
 20
129.5048096056932
 30
0.0
 10
1945.979216701069
 20
126.2947242803041
 30
0.0
 10
1945.888460673606
 20
123.9059066132458
 30
0.0
 10
1947.343086379314
 20
123.105319426746
 30
0.0
 10
1949.475853024634
 20
123.105319426746
 30
0.0
 10
1950.395018168326
 20
123.105319426746
 30
0.0
 10
1952.714504181618
 20
123.1637901132903
 30
0.0
 10
1954.3662638814
 20
125.2056519507783
 30
0.0
 10
1955.522584939468
 20
126.6401923061455
 30
0.0
 10
1956.588298750451
 20
128.1272521331414
 30
0.0
 10
1958.017036671275
 20
133.0053142189559
 30
0.0
 10
1959.205940631009
 20
137.0833842397621
 30
0.0
 10
1960.029142434186
 20
139.7191029356247
 30
0.0
 10
1959.968291261677
 20
141.2197761667398
 30
0.0
 10
1959.968291261677
 20
141.2197761667398
 30
0.0
 10
1959.968291261677
 20
141.2197761667398
 30
0.0
 10
1959.968291261677
 20
141.2197761667398
 30
0.0
 10
1959.580569609936
 20
143.7233035012931
 30
0.0
 10
1957.762919794387
 20
144.2522921170894
 30
0.0
 10
1956.724432791643
 20
144.2522921170894
 30
0.0
 10
1955.70156772805
 20
144.2522921170894
 30
0.0
 10
1952.960735698745
 20
144.4292663706373
 30
0.0
 10
1951.394524713372
 20
142.3847264864374
 30
0.0
  0
SPLINE
  5
36AB
102
{ACAD_REACTORS
330
369B
330
36AC
102
}
330
A
100
AcDbEntity
  8
TEMPLATE
100
AcDbSpline
210
0.0
220
0.0
230
1.0
 70
    11
 71
     3
 72
    29
 73
    25
 74
     0
 42
0.000000001
 43
0.0000000001
 40
0.0
 40
0.0
 40
0.0
 40
0.0
 40
1.0
 40
1.0
 40
1.0
 40
2.0
 40
2.0
 40
2.0
 40
3.0
 40
3.0
 40
3.0
 40
4.0
 40
4.0
 40
4.0
 40
5.0
 40
5.0
 40
5.0
 40
6.0
 40
6.0
 40
6.0
 40
7.0
 40
7.0
 40
7.0
 40
8.0
 40
8.0
 40
8.0
 40
8.0
 10
1947.916188375669
 20
126.8949043045264
 30
0.0
 10
1947.908303015907
 20
128.3120373562658
 30
0.0
 10
1948.355685597176
 20
130.8298476066162
 30
0.0
 10
1949.501740809517
 20
134.1986815898748
 30
0.0
 10
1951.062744481836
 20
138.7603622127471
 30
0.0
 10
1951.998870588036
 20
140.4276694614944
 30
0.0
 10
1952.818055321147
 20
141.2392663955878
 30
0.0
 10
1954.014844640642
 20
142.4210288974216
 30
0.0
 10
1955.623755593032
 20
142.4799459250845
 30
0.0
 10
1956.098364982539
 20
142.4210288974216
 30
0.0
 10
1956.77382787544
 20
142.3399435941987
 30
0.0
 10
1957.727956406759
 20
141.8978427161679
 30
0.0
 10
1957.784939289575
 20
140.4095182560024
 30
0.0
 10
1957.830466083678
 20
139.1357350935386
 30
0.0
 10
1957.463424903768
 20
136.7501905946838
 30
0.0
 10
1956.178706383896
 20
133.0053142189559
 30
0.0
 10
1954.698044112936
 20
128.6536370924121
 30
0.0
 10
1953.808635043822
 20
126.9429603649685
 30
0.0
 10
1953.095679496951
 20
126.1974219164366
 30
0.0
 10
1951.752490290537
 20
124.7997790935452
 30
0.0
 10
1950.311998720255
 20
124.9339789898883
 30
0.0
 10
1950.0993915674
 20
124.9339789898883
 30
0.0
 10
1949.823255195324
 20
124.9339789898883
 30
0.0
 10
1947.920056665365
 20
125.2336226608809
 30
0.0
 10
1947.916188375669
 20
126.8949043045264
 30
0.0
  0
DIMENSION
  5
3A9A
330
A
100
AcDbEntity
  8
DIM
390
1D
100
AcDbDimension
  2
*D44
 10
357.6525692742962
 20
2399.815492678796
 30
0.0
 11
607.6525692742962
 21
2421.815492678796
 31
0.0
 70
    32
 71
     5
 42
500.0
 73
     0
 74
     0
 75
     0
  3
tfrom線あり
100
AcDbAlignedDimension
 13
857.6525692742962
 23
2289.815492678796
 33
0.0
 14
357.6525692742962
 24
2289.815492678796
 34
0.0
100
AcDbRotatedDimension
  0
DIMENSION
  5
3A9B
330
A
100
AcDbEntity
  8
DIM
390
1D
100
AcDbDimension
  2
*D45
 10
1007.652569274296
 20
2299.815492678796
 30
0.0
 11
985.6525692742962
 21
2174.815492678796
 31
0.0
 70
    32
 71
     5
 42
250.0
 73
     0
 74
     0
 75
     0
  3
tfrom線あり
100
AcDbAlignedDimension
 13
847.6525692742962
 23
2049.815492678796
 33
0.0
 14
843.952322203204
 24
2299.815492678796
 34
0.0
 50
90.0
100
AcDbRotatedDimension
  0
DIMENSION
  5
3A9C
330
A
100
AcDbEntity
  8
DIM
390
1D
100
AcDbDimension
  2
*D46
 10
257.6525692742962
 20
2264.815492678796
 30
0.0
 11
235.6525692742962
 21
2174.815492678797
 31
0.0
 70
    32
 71
     5
 42
179.9999999999995
 73
     0
 74
     0
 75
     0
  3
tfrom線あり
100
AcDbAlignedDimension
 13
357.7329284943421
 23
2084.815492678797
 33
0.0
 14
357.7329284943421
 24
2264.815492678796
 34
0.0
 50
90.0
100
AcDbRotatedDimension
  0
DIMENSION
  5
3A9D
330
A
100
AcDbEntity
  8
DIM
390
1D
100
AcDbDimension
  2
*D47
 10
467.813287714388
 20
1949.815492678796
 30
0.0
 11
607.6525692742957
 21
1971.815492678796
 31
0.0
 70
    32
  1
270
 71
     5
 42
279.6785631198154
 73
     0
 74
     0
 75
     0
  3
tfrom線あり
100
AcDbAlignedDimension
 13
747.4918508342034
 23
2049.815492678796
 33
0.0
 14
467.813287714388
 24
2049.815492678796
 34
0.0
100
AcDbRotatedDimension
  0
DIMENSION
  5
3A9E
330
A
100
AcDbEntity
  8
DIM
390
1D
100
AcDbDimension
  2
*D48
 10
939.431607439833
 20
2174.815492678796
 30
0.0
 11
917.431607439833
 21
2237.315492678796
 31
0.0
 70
    32
 71
     5
 42
125.0
 73
     0
 74
     0
 75
     0
  3
tfrom線あり
100
AcDbAlignedDimension
 13
857.6525692742962
 23
2299.815492678796
 33
0.0
 14
857.6525692742962
 24
2174.815492678796
 34
0.0
 50
90.0
100
AcDbRotatedDimension
  0
DIMENSION
  5
3A9F
330
A
100
AcDbEntity
  8
DIM
390
1D
100
AcDbDimension
  2
*D49
 10
1746.831722894408
 20
1949.815492678796
 30
0.0
 11
1531.831722894408
 21
1971.815492678796
 31
0.0
 70
    32
 71
     5
 42
430.0
 73
     0
 74
     0
 75
     0
  3
tfrom線あり
100
AcDbAlignedDimension
 13
1316.831722894408
 23
2119.815492678796
 33
0.0
 14
1746.831722894408
 24
2119.815492678796
 34
0.0
100
AcDbRotatedDimension
  0
DIMENSION
  5
3AA0
330
A
100
AcDbEntity
  8
DIM
390
1D
100
AcDbDimension
  2
*D50
 10
1860.831722894408
 20
2119.815492678796
 30
0.0
 11
1838.831722894408
 21
2209.815492678796
 31
0.0
 70
    32
 71
     5
 42
180.0
 73
     0
 74
     0
 75
     0
  3
tfrom線あり
100
AcDbAlignedDimension
 13
1746.831722894408
 23
2299.815492678796
 33
0.0
 14
1746.831722894408
 24
2119.815492678796
 34
0.0
 50
90.0
100
AcDbRotatedDimension
  0
DIMENSION
  5
3AA1
330
A
100
AcDbEntity
  8
DIM
390
1D
100
AcDbDimension
  2
*D51
 10
422.6317228944081
 20
1950.631890454987
 30
0.0
 11
390.1421460843521
 21
1972.631890454987
 31
0.0
 70
    32
 71
     5
 42
64.97915362011184
 73
     0
 74
     0
 75
     0
  3
tfrom線あり
100
AcDbAlignedDimension
 13
357.6525692742962
 23
2050.576305255356
 33
0.0
 14
422.6317228944081
 24
2174.815492678796
 34
0.0
100
AcDbRotatedDimension
  0
DIMENSION
  5
3AA2
330
A
100
AcDbEntity
  8
DIM
390
1D
100
AcDbDimension
  2
*D52
 10
792.6525692742962
 20
1949.815492678796
 30
0.0
 11
822.9567228944079
 21
1949.815492678796
 31
0.0
 70
   160
 71
     5
 42
65.0
 73
     0
 74
     0
 75
     0
  3
tfrom線あり
100
AcDbAlignedDimension
 13
857.6525692742962
 23
2046.491889172624
 33
0.0
 14
792.6525692742962
 24
2174.815492678796
 34
0.0
100
AcDbRotatedDimension
  0
LINE
  5
3AA3
330
A
100
AcDbEntity
  8
MODEL
390
1D
100
AcDbLine
 10
482.813287714388
 20
2084.815492678797
 30
0.0
 11
732.4918508342034
 21
2084.815492678797
 31
0.0
  0
LINE
  5
3AA4
330
A
100
AcDbEntity
  8
MODEL
390
1D
100
AcDbLine
 10
482.813287714388
 20
2264.815492678796
 30
0.0
 11
732.4918508342034
 21
2264.815492678796
 31
0.0
  0
LINE
  5
3AA5
330
A
100
AcDbEntity
  8
MODEL
390
1D
100
AcDbLine
 10
467.813287714388
 20
2099.815492678796
 30
0.0
 11
467.813287714388
 21
2249.815492678796
 31
0.0
  0
ARC
  5
3AA6
330
A
100
AcDbEntity
  8
MODEL
390
1D
100
AcDbCircle
 10
482.813287714388
 20
2099.815492678796
 30
0.0
 40
15.0
100
AcDbArc
 50
180.0
 51
270.0
  0
CIRCLE
  5
3AA7
330
A
100
AcDbEntity
  8
HIDDEN
 48
0.5
390
1D
100
AcDbCircle
 10
422.6317228944081
 20
2174.815492678796
 30
0.0
 40
17.5
  0
CIRCLE
  5
3AA8
330
A
100
AcDbEntity
  8
MODEL
390
1D
100
AcDbCircle
 10
607.6525692742962
 20
2174.815492678796
 30
0.0
 40
37.5
  0
CIRCLE
  5
3AA9
330
A
100
AcDbEntity
  8
MODEL
390
1D
100
AcDbCircle
 10
607.6525692742962
 20
2174.815492678796
 30
0.0
 40
26.0
  0
ARC
  5
3AAA
330
A
100
AcDbEntity
  8
MODEL
390
1D
100
AcDbCircle
 10
482.813287714388
 20
2249.815492678796
 30
0.0
 40
15.0
100
AcDbArc
 50
90.0
 51
180.0
  0
LINE
  5
3AAB
330
A
100
AcDbEntity
  8
MODEL
390
1D
100
AcDbLine
 10
747.4918508342034
 20
2099.815492678796
 30
0.0
 11
747.4918508342034
 21
2249.815492678796
 31
0.0
  0
ARC
  5
3AAC
330
A
100
AcDbEntity
  8
MODEL
390
1D
100
AcDbCircle
 10
732.4918508342034
 20
2099.815492678796
 30
0.0
 40
15.0
100
AcDbArc
 50
270.0
 51
0.0
  0
CIRCLE
  5
3AAD
330
A
100
AcDbEntity
  8
HIDDEN
 48
0.5
390
1D
100
AcDbCircle
 10
792.6525692742962
 20
2174.815492678796
 30
0.0
 40
17.5
  0
ARC
  5
3AAE
330
A
100
AcDbEntity
  8
MODEL
390
1D
100
AcDbCircle
 10
732.4918508342034
 20
2249.815492678796
 30
0.0
 40
15.0
100
AcDbArc
 50
0.0
 51
90.0
  0
LWPOLYLINE
  5
3AAF
330
A
100
AcDbEntity
  8
MODEL
390
1D
100
AcDbPolyline
 90
        6
 70
   129
 43
0.0
 10
857.6525692742962
 20
2299.815492678796
 10
357.6525692742962
 20
2299.815492678796
 10
357.6525692742962
 20
2059.815492678796
 42
0.414213562373095
 10
367.6525692742962
 20
2049.815492678796
 10
847.6525692742962
 20
2049.815492678796
 42
0.414213562373095
 10
857.6525692742962
 20
2059.815492678796
  0
CIRCLE
  5
3AB0
330
A
100
AcDbEntity
  8
HIDDEN
 48
0.5
390
1D
100
AcDbCircle
 10
1336.912082114454
 20
2174.815492678796
 30
0.0
 40
17.5
  0
CIRCLE
  5
3AB1
330
A
100
AcDbEntity
  8
HIDDEN
 48
0.5
390
1D
100
AcDbCircle
 10
1531.831722894408
 20
2174.815492678796
 30
0.0
 40
26.0
  0
CIRCLE
  5
3AB2
330
A
100
AcDbEntity
  8
HIDDEN
 48
0.5
390
1D
100
AcDbCircle
 10
1726.751363674362
 20
2174.815492678796
 30
0.0
 40
17.5
  0
LWPOLYLINE
  5
3AB3
330
A
100
AcDbEntity
  8
HIDDEN
 48
0.75
390
1D
100
AcDbPolyline
 90
        6
 70
   129
 43
0.0
 10
1781.831722894408
 20
2299.815492678796
 10
1281.831722894408
 20
2299.815492678796
 10
1281.831722894408
 20
2059.815492678796
 42
0.4142135623731
 10
1291.831722894408
 20
2049.815492678796
 10
1771.831722894408
 20
2049.815492678796
 42
0.414213562373095
 10
1781.831722894408
 20
2059.815492678796
  0
LINE
  5
3AB4
330
A
100
AcDbEntity
  8
MODEL
390
1D
100
AcDbLine
 10
1231.831722894408
 20
2299.815492678796
 30
0.0
 11
1831.831722894408
 21
2299.815492678796
 31
0.0
  0
POLYLINE
  5
3AB5
102
{ACAD_REACTORS
330
3BFA
102
}
330
A
100
AcDbEntity
  8
MODEL
390
1D
100
AcDb2dPolyline
 66
     1
 10
0.0
 20
0.0
 30
0.0
 70
     1
 75
     5
  0
VERTEX
  5
3AB6
330
3AB5
100
AcDbEntity
  8
MODEL
390
1D
100
AcDbVertex
100
AcDb2dVertex
 10
1316.831722894408
 20
2299.815492678796
 30
0.0
  0
VERTEX
  5
3AB7
330
3AB5
100
AcDbEntity
  8
MODEL
390
1D
100
AcDbVertex
100
AcDb2dVertex
 10
1746.831722894408
 20
2299.815492678796
 30
0.0
  0
VERTEX
  5
3AB8
330
3AB5
100
AcDbEntity
  8
MODEL
390
1D
100
AcDbVertex
100
AcDb2dVertex
 10
1746.831722894408
 20
2119.815492678796
 30
0.0
  0
VERTEX
  5
3AB9
330
3AB5
100
AcDbEntity
  8
MODEL
390
1D
100
AcDbVertex
100
AcDb2dVertex
 10
1316.831722894408
 20
2119.815492678796
 30
0.0
  0
SEQEND
  5
3ABA
330
3AB5
100
AcDbEntity
  8
MODEL
390
1D
  0
DIMENSION
  5
3ABD
330
A
100
AcDbEntity
  8
DIM
390
1D
100
AcDbDimension
  2
*D53
 10
427.6691057326293
 20
1183.893294795244
 30
0.0
 11
607.6691057326295
 21
1205.893294795244
 31
0.0
 70
    32
 71
     5
 42
360.0000000000005
 73
     0
 74
     0
 75
     0
  3
tfrom線あり
100
AcDbAlignedDimension
 13
787.6691057326298
 23
1033.893294795244
 33
0.0
 14
427.6691057326293
 24
1033.893294795244
 34
0.0
100
AcDbRotatedDimension
  0
DIMENSION
  5
3ABE
330
A
100
AcDbEntity
  8
DIM
390
1D
100
AcDbDimension
  2
*D54
 10
258.7646489748749
 20
1083.893294795244
 30
0.0
 11
236.7646489748749
 21
1058.893294795244
 31
0.0
 70
    32
 71
     5
 42
50.0
 73
     0
 74
     0
 75
     0
  3
tfrom線あり
100
AcDbAlignedDimension
 13
417.4249030127194
 23
1033.893294795244
 33
0.0
 14
367.4249030127194
 24
1083.893294795244
 34
0.0
 50
90.0
100
AcDbRotatedDimension
  0
DIMENSION
  5
3ABF
330
A
100
AcDbEntity
  8
DIM
390
1D
100
AcDbDimension
  2
*D55
 10
957.6525692742962
 20
1083.893294795244
 30
0.0
 11
935.6525692742962
 21
1008.893294795244
 31
0.0
 70
    32
 71
     5
 42
150.0000000000001
 73
     0
 74
     0
 75
     0
  3
tfrom線あり
100
AcDbAlignedDimension
 13
646.4331738003211
 23
933.8932947952438
 33
0.0
 14
847.6691057326298
 24
1083.893294795244
 34
0.0
 50
90.0
100
AcDbRotatedDimension
  0
DIMENSION
  5
3AC1
330
A
100
AcDbEntity
  8
DIM
390
1D
100
AcDbDimension
  2
*D57
 10
1531.831722894408
 20
833.8932947952438
 30
0.0
 11
1469.331722894408
 21
855.8932947952438
 31
0.0
 70
    32
 71
     5
 42
125.0
 73
     0
 74
     0
 75
     0
  3
tfrom線あり
100
AcDbAlignedDimension
 13
1406.831722894408
 23
953.8932947952436
 33
0.0
 14
1531.831722894408
 24
933.8932947952438
 34
0.0
100
AcDbRotatedDimension
  0
DIMENSION
  5
3AC2
330
A
100
AcDbEntity
  8
DIM
390
1D
100
AcDbDimension
  2
*D58
 10
1756.548259352741
 20
1083.893294795244
 30
0.0
 11
1734.548259352741
 21
1018.893294795244
 31
0.0
 70
    32
 71
     5
 42
130.0000000000001
 73
     0
 74
     0
 75
     0
  3
tfrom線あり
100
AcDbAlignedDimension
 13
1642.700879265661
 23
953.8932947952438
 33
0.0
 14
1646.548259352741
 24
1083.893294795244
 34
0.0
 50
90.0
100
AcDbRotatedDimension
  0
DIMENSION
  5
3AC3
330
A
100
AcDbEntity
  8
DIM
390
1D
100
AcDbDimension
  2
*D59
 10
1756.548259352741
 20
953.8932947952438
 30
0.0
 11
1756.548259352741
 21
879.6372947952437
 31
0.0
 70
   160
 71
     5
 42
20.0
 73
     0
 74
     1
 75
     1
  3
tfrom線あり
100
AcDbAlignedDimension
 13
1570.612327420434
 23
933.8932947952438
 33
0.0
 14
1642.700879265661
 24
953.8932947952438
 34
0.0
 50
90.0
100
AcDbRotatedDimension
  0
LINE
  5
3AC4
330
A
100
AcDbEntity
  8
MODEL
390
1D
100
AcDbLine
 10
787.6691057326293
 20
1033.893294795244
 30
0.0
 11
888.8317228944079
 21
1127.447272536674
 31
0.0
  0
LINE
  5
3AC5
330
A
100
AcDbEntity
  8
HIDDEN
 48
0.75
390
1D
100
AcDbLine
 10
573.8853332189619
 20
980.8932947952438
 30
0.0
 11
488.2794191069652
 21
988.3828418108175
 31
0.0
  0
LINE
  5
3AC6
330
A
100
AcDbEntity
  8
HIDDEN
 48
0.75
390
1D
100
AcDbLine
 10
581.6691057326298
 20
973.109522281576
 30
0.0
 11
581.6691057326298
 21
933.8932947952438
 31
0.0
  0
LINE
  5
3AC7
330
A
100
AcDbEntity
  8
HIDDEN
 48
0.75
390
1D
100
AcDbLine
 10
573.8853332189619
 20
980.8932947952438
 30
0.0
 11
607.6691057326298
 21
980.8932947952438
 31
0.0
  0
LINE
  5
3AC8
330
A
100
AcDbEntity
  8
HIDDEN
 48
0.75
390
1D
100
AcDbLine
 10
581.6691057326298
 20
973.109522281576
 30
0.0
 11
607.6691057326298
 21
973.109522281576
 31
0.0
  0
LINE
  5
3AC9
330
A
100
AcDbEntity
  8
HIDDEN
 48
0.75
390
1D
100
AcDbLine
 10
573.8853332189619
 20
980.8932947952437
 30
0.0
 11
581.6691057326298
 21
973.109522281576
 31
0.0
  0
LINE
  5
3ACA
330
A
100
AcDbEntity
  8
HIDDEN
 48
0.75
390
1D
100
AcDbLine
 10
479.1890295535241
 20
997.4835681743515
 30
0.0
 11
470.1959032586419
 21
1078.548907793769
 31
0.0
  0
ARC
  5
3ACB
330
A
100
AcDbEntity
  8
HIDDEN
 48
0.5
390
1D
100
AcDbCircle
 10
463.8126608925932
 20
1077.510052429195
 30
0.0
 40
6.467225337980839
100
AcDbArc
 50
9.24368958126254
 51
99.24368958126485
  0
LINE
  5
3ACC
330
A
100
AcDbEntity
  8
HIDDEN
 48
0.5
390
1D
100
AcDbLine
 10
407.6691057326293
 20
1033.893294795244
 30
0.0
 11
447.6691057326293
 21
1033.893294795244
 31
0.0
  0
LINE
  5
3ACD
330
A
100
AcDbEntity
  8
HIDDEN
 48
0.5
390
1D
100
AcDbLine
 10
767.6691057326293
 20
1033.893294795244
 30
0.0
 11
807.6691057326293
 21
1033.893294795244
 31
0.0
  0
LINE
  5
3ACE
330
A
100
AcDbEntity
  8
HIDDEN
 48
0.5
390
1D
100
AcDbLine
 10
787.6691057326298
 20
1013.893294795244
 30
0.0
 11
787.6691057326298
 21
1053.893294795244
 31
0.0
  0
LWPOLYLINE
  5
3ACF
330
A
100
AcDbEntity
  8
MODEL
390
1D
100
AcDbPolyline
 90
       14
 70
   129
 43
0.0
 10
857.6691057326298
 20
1073.893294795244
 42
0.4142135623730917
 10
847.6691057326298
 20
1083.893294795244
 10
367.4249030127194
 20
1083.893294795244
 42
0.424474816209605
 10
357.4309947425281
 20
1073.544299828219
 10
361.2722793866205
 20
963.5442998282189
 42
0.4040262258351452
 10
371.2661876568113
 20
953.8932947952438
 10
557.6971677516317
 20
953.8932947952438
 42
-0.3729018752331654
 10
562.646077766638
 20
949.606239157286
 10
568.8719647482703
 20
933.8932947952438
 10
646.4331738003211
 20
933.8932947952438
 10
652.6590607819544
 20
949.6062391572862
 42
-0.3729018752331741
 10
657.6079707969611
 20
953.8932947952438
 10
843.8217256455491
 20
953.8932947952438
 42
0.4040262258351646
 10
853.8156339157395
 20
963.5442998282189
  0
LINE
  5
3AD0
330
A
100
AcDbEntity
  8
MODEL
390
1D
100
AcDbLine
 10
557.6971677516312
 20
953.8932947952438
 30
0.0
 11
657.6079707969611
 21
953.8932947952438
 31
0.0
  0
ARC
  5
3AD1
330
A
100
AcDbEntity
  8
HIDDEN
 48
0.75
390
1D
100
AcDbCircle
 10
489.1509765344417
 20
998.355125601828
 30
0.0
 40
10.00000000000021
100
AcDbArc
 50
184.9999999999997
 51
265.0000000000003
  0
LINE
  5
3AD2
330
A
100
AcDbEntity
  8
HIDDEN
 48
0.75
390
1D
100
AcDbLine
 10
641.436341787964
 20
980.8932947952438
 30
0.0
 11
727.0422558999608
 21
988.3828418108175
 31
0.0
  0
LINE
  5
3AD3
330
A
100
AcDbEntity
  8
HIDDEN
 48
0.75
390
1D
100
AcDbLine
 10
633.6525692742962
 20
973.109522281576
 30
0.0
 11
633.6525692742962
 21
933.8932947952438
 31
0.0
  0
LINE
  5
3AD4
330
A
100
AcDbEntity
  8
HIDDEN
 48
0.75
390
1D
100
AcDbLine
 10
641.436341787964
 20
980.8932947952438
 30
0.0
 11
607.6525692742962
 21
980.8932947952438
 31
0.0
  0
LINE
  5
3AD5
330
A
100
AcDbEntity
  8
HIDDEN
 48
0.75
390
1D
100
AcDbLine
 10
633.6525692742962
 20
973.109522281576
 30
0.0
 11
607.6525692742962
 21
973.109522281576
 31
0.0
  0
LINE
  5
3AD6
330
A
100
AcDbEntity
  8
HIDDEN
 48
0.75
390
1D
100
AcDbLine
 10
641.436341787964
 20
980.8932947952437
 30
0.0
 11
633.6525692742962
 21
973.109522281576
 31
0.0
  0
LINE
  5
3AD7
330
A
100
AcDbEntity
  8
HIDDEN
 48
0.75
390
1D
100
AcDbLine
 10
736.1326454534019
 20
997.4835681743515
 30
0.0
 11
745.125771748284
 21
1078.548907793769
 31
0.0
  0
ARC
  5
3AD8
330
A
100
AcDbEntity
  8
HIDDEN
 48
0.5
390
1D
100
AcDbCircle
 10
751.5090141143323
 20
1077.510052429195
 30
0.0
 40
6.467225337980839
100
AcDbArc
 50
80.75631041873912
 51
170.7563104187368
  0
ARC
  5
3AD9
330
A
100
AcDbEntity
  8
HIDDEN
 48
0.75
390
1D
100
AcDbCircle
 10
726.1706984724842
 20
998.355125601828
 30
0.0
 40
9.999999999999988
100
AcDbArc
 50
274.9999999999998
 51
355.0000000000001
  0
LINE
  5
3ADA
330
A
100
AcDbEntity
  8
HIDDEN
 48
0.75
390
1D
100
AcDbLine
 10
1498.064486839074
 20
980.8932947952438
 30
0.0
 11
1457.458572727077
 21
985.3931786209106
 31
0.0
  0
LINE
  5
3ADB
330
A
100
AcDbEntity
  8
HIDDEN
 48
0.75
390
1D
100
AcDbLine
 10
1505.848259352741
 20
973.109522281576
 30
0.0
 11
1505.848259352741
 21
933.8932947952438
 31
0.0
  0
LINE
  5
3ADC
102
{ACAD_REACTORS
330
3BD5
102
}
330
A
100
AcDbEntity
  8
HIDDEN
 48
0.75
390
1D
100
AcDbLine
 10
1498.064486839074
 20
980.8932947952438
 30
0.0
 11
1531.848259352741
 21
980.8932947952438
 31
0.0
  0
LINE
  5
3ADD
330
A
100
AcDbEntity
  8
HIDDEN
 48
0.75
390
1D
100
AcDbLine
 10
1505.848259352741
 20
973.109522281576
 30
0.0
 11
1531.848259352741
 21
973.109522281576
 31
0.0
  0
LINE
  5
3ADE
330
A
100
AcDbEntity
  8
HIDDEN
 48
0.75
390
1D
100
AcDbLine
 10
1498.064486839074
 20
980.8932947952437
 30
0.0
 11
1505.848259352741
 21
973.109522281576
 31
0.0
  0
LINE
  5
3ADF
330
A
100
AcDbEntity
  8
HIDDEN
 48
0.75
390
1D
100
AcDbLine
 10
1448.368183173636
 20
994.4835681743515
 30
0.0
 11
1439.375056878754
 21
1078.548907793769
 31
0.0
  0
ARC
  5
3AE0
330
A
100
AcDbEntity
  8
HIDDEN
 48
0.5
390
1D
100
AcDbCircle
 10
1432.991814512705
 20
1077.510052429195
 30
0.0
 40
6.467225337981063
100
AcDbArc
 50
9.24368958126254
 51
99.24368958125658
  0
LINE
  5
3AE1
330
A
100
AcDbEntity
  8
MODEL
390
1D
100
AcDbLine
 10
1652.694787535852
 20
963.5442998282188
 30
0.0
 11
1656.548259352741
 21
1073.893294795243
 31
0.0
  0
ARC
  5
3AE2
330
A
100
AcDbEntity
  8
MODEL
390
1D
100
AcDbCircle
 10
1642.700879265661
 20
963.8932947952443
 30
0.0
 40
10.00000000000045
100
AcDbArc
 50
270.0
 51
357.9999999999971
  0
LINE
  5
3AE3
330
A
100
AcDbEntity
  8
MODEL
390
1D
100
AcDbLine
 10
1581.787124417073
 20
953.8932947952438
 30
0.0
 11
1642.700879265661
 21
953.8932947952438
 31
0.0
  0
ARC
  5
3AE4
330
A
100
AcDbEntity
  8
MODEL
390
1D
100
AcDbCircle
 10
1581.787124417073
 20
948.8932947952434
 30
0.0
 40
5.000000000000455
100
AcDbArc
 50
90.0
 51
171.8023190459335
  0
LINE
  5
3AE5
330
A
100
AcDbEntity
  8
MODEL
390
1D
100
AcDbLine
 10
1570.612327420434
 20
933.8932947952438
 30
0.0
 11
1576.838214402066
 21
949.6062391572863
 31
0.0
  0
LINE
  5
3AE6
330
A
100
AcDbEntity
  8
MODEL
390
1D
100
AcDbLine
 10
1493.051118368383
 20
933.8932947952438
 30
0.0
 11
1570.612327420434
 21
933.8932947952438
 31
0.0
  0
LINE
  5
3AE7
330
A
100
AcDbEntity
  8
MODEL
390
1D
100
AcDbLine
 10
1486.825231386751
 20
949.606239157286
 30
0.0
 11
1493.051118368383
 21
933.8932947952438
 31
0.0
  0
ARC
  5
3AE8
330
A
100
AcDbEntity
  8
MODEL
390
1D
100
AcDbCircle
 10
1481.876321371744
 20
948.8932947952444
 30
0.0
 40
4.999999999999205
100
AcDbArc
 50
8.197680954055087
 51
90.00000000001042
  0
LINE
  5
3AE9
330
A
100
AcDbEntity
  8
MODEL
390
1D
100
AcDbLine
 10
1420.745341276924
 20
953.8932947952438
 30
0.0
 11
1481.876321371744
 21
953.8932947952438
 31
0.0
  0
ARC
  5
3AEA
330
A
100
AcDbEntity
  8
MODEL
390
1D
100
AcDbCircle
 10
1420.745341276924
 20
963.8932947952438
 30
0.0
 40
10.00000000000029
100
AcDbArc
 50
182.000000000001
 51
270.0
  0
LINE
  5
3AEB
330
A
100
AcDbEntity
  8
MODEL
390
1D
100
AcDbLine
 10
1406.910148362641
 20
1073.544299828219
 30
0.0
 11
1410.751433006732
 21
963.5442998282189
 31
0.0
  0
ARC
  5
3AEC
330
A
100
AcDbEntity
  8
MODEL
390
1D
100
AcDbCircle
 10
1416.904056632831
 20
1073.893294795243
 30
0.0
 40
10.00000000000023
100
AcDbArc
 50
90.0
 51
181.9999999999984
  0
LINE
  5
3AED
102
{ACAD_REACTORS
330
3BD5
102
}
330
A
100
AcDbEntity
  8
MODEL
390
1D
100
AcDbLine
 10
1646.526157992786
 20
1083.893294795244
 30
0.0
 11
1416.926157992786
 21
1083.893294795244
 31
0.0
  0
ARC
  5
3AEE
330
A
100
AcDbEntity
  8
MODEL
390
1D
100
AcDbCircle
 10
1646.548259352741
 20
1073.893294795243
 30
0.0
 40
10.0
100
AcDbArc
 50
0.0
 51
90.0
  0
LINE
  5
3AEF
330
A
100
AcDbEntity
  8
MODEL
390
1D
100
AcDbLine
 10
1481.876321371744
 20
953.8932947952438
 30
0.0
 11
1581.787124417073
 21
953.8932947952438
 31
0.0
  0
ARC
  5
3AF0
330
A
100
AcDbEntity
  8
HIDDEN
 48
0.75
390
1D
100
AcDbCircle
 10
1458.330130154553
 20
995.355125601828
 30
0.0
 40
10.00000000000021
100
AcDbArc
 50
184.9999999999997
 51
265.0000000000003
  0
LINE
  5
3AF1
330
A
100
AcDbEntity
  8
HIDDEN
 48
0.75
390
1D
100
AcDbLine
 10
1565.615495408076
 20
980.8932947952438
 30
0.0
 11
1606.221409520072
 21
985.3931786209106
 31
0.0
  0
LINE
  5
3AF2
330
A
100
AcDbEntity
  8
HIDDEN
 48
0.75
390
1D
100
AcDbLine
 10
1557.831722894408
 20
973.109522281576
 30
0.0
 11
1557.831722894408
 21
933.8932947952438
 31
0.0
  0
LINE
  5
3AF3
330
A
100
AcDbEntity
  8
HIDDEN
 48
0.75
390
1D
100
AcDbLine
 10
1565.615495408076
 20
980.8932947952438
 30
0.0
 11
1531.831722894408
 21
980.8932947952438
 31
0.0
  0
LINE
  5
3AF4
330
A
100
AcDbEntity
  8
HIDDEN
 48
0.75
390
1D
100
AcDbLine
 10
1557.831722894408
 20
973.109522281576
 30
0.0
 11
1531.831722894408
 21
973.109522281576
 31
0.0
  0
LINE
  5
3AF5
330
A
100
AcDbEntity
  8
HIDDEN
 48
0.75
390
1D
100
AcDbLine
 10
1565.615495408076
 20
980.8932947952437
 30
0.0
 11
1557.831722894408
 21
973.109522281576
 31
0.0
  0
LINE
  5
3AF6
330
A
100
AcDbEntity
  8
HIDDEN
 48
0.75
390
1D
100
AcDbLine
 10
1615.311799073514
 20
994.4835681743515
 30
0.0
 11
1624.304925368396
 21
1078.548907793769
 31
0.0
  0
ARC
  5
3AF7
330
A
100
AcDbEntity
  8
HIDDEN
 48
0.5
390
1D
100
AcDbCircle
 10
1630.688167734445
 20
1077.510052429195
 30
0.0
 40
6.467225337980802
100
AcDbArc
 50
80.75631041873515
 51
170.7563104187375
  0
ARC
  5
3AF8
330
A
100
AcDbEntity
  8
HIDDEN
 48
0.75
390
1D
100
AcDbCircle
 10
1605.349852092596
 20
995.355125601828
 30
0.0
 40
9.999999999999988
100
AcDbArc
 50
274.9999999999998
 51
355.0000000000003
  0
LINE
  5
3AF9
330
A
100
AcDbEntity
  8
MODEL
390
1D
100
AcDbLine
 10
809.9309947425281
 20
1083.893294795244
 30
0.0
 11
809.9309947425281
 21
1068.893294795244
 31
0.0
  0
LINE
  5
3AFA
330
A
100
AcDbEntity
  8
MODEL
390
1D
100
AcDbLine
 10
774.9309947425281
 20
1083.893294795244
 30
0.0
 11
774.9309947425281
 21
1068.893294795244
 31
0.0
  0
LINE
  5
3AFB
330
A
100
AcDbEntity
  8
MODEL
390
1D
100
AcDbLine
 10
439.9309947425281
 20
1083.893294795244
 30
0.0
 11
439.9309947425281
 21
1068.893294795244
 31
0.0
  0
LINE
  5
3AFC
330
A
100
AcDbEntity
  8
MODEL
390
1D
100
AcDbLine
 10
404.9309947425281
 20
1083.893294795244
 30
0.0
 11
404.9309947425281
 21
1068.893294795244
 31
0.0
  0
LINE
  5
3AFD
330
A
100
AcDbEntity
  8
HIDDEN
 48
0.5
390
1D
100
AcDbLine
 10
427.6691057326293
 20
1013.893294795244
 30
0.0
 11
427.6691057326293
 21
1053.893294795244
 31
0.0
  0
CIRCLE
  5
3AFE
330
A
100
AcDbEntity
  8
HIDDEN
 48
0.5
390
1D
100
AcDbCircle
 10
427.6691057326293
 20
1033.893294795244
 30
0.0
 40
10.0
  0
CIRCLE
  5
3AFF
330
A
100
AcDbEntity
  8
HIDDEN
 48
0.5
390
1D
100
AcDbCircle
 10
787.6691057326298
 20
1033.893294795244
 30
0.0
 40
10.0
  0
MTEXT
  5
3BC1
330
A
100
AcDbEntity
  8
DIM
390
1D
100
AcDbMText
 10
1405.405439193697
 20
2539.526870007777
 30
0.0
 40
24.0
 41
1899.432250186409
 46
26.928
 71
     1
 72
     1
  1
{カウンター切込寸法}
  7
ＭＳ ゴシック
 73
     1
 44
0.9822934569727008
1001
ACAD
1000
ACAD_MTEXT_DEFINED_HEIGHT_BEGIN
1070
    46
1040
26.928
1000
ACAD_MTEXT_DEFINED_HEIGHT_END
  0
MTEXT
  5
3BC2
330
A
100
AcDbEntity
  8
DIM
390
1D
100
AcDbMText
 10
890.618138695263
 20
1167.940087694652
 30
0.0
 40
24.0
 41
1899.432250186409
 46
26.808
 71
     1
 72
     1
  1
{壁取付ボルト穴(2ヶ所)}
  7
ＭＳ ゴシック
 73
     1
 44
0.9822934569727008
1001
ACAD
1000
ACAD_MTEXT_DEFINED_HEIGHT_BEGIN
1070
    46
1040
26.808
1000
ACAD_MTEXT_DEFINED_HEIGHT_END
  0
DIMENSION
  5
3BD3
102
{ACAD_REACTORS
330
3BD5
102
}
102
{ACAD_XDICTIONARY
360
3BD4
102
}
330
A
100
AcDbEntity
  8
DIM
100
AcDbDimension
  2
*D60
 10
1531.726157992786
 20
1083.893294795244
 30
0.0
 11
1531.726157992786
 21
1178.909294795244
 31
0.0
 70
   160
  1
100(深さ)
 71
     5
 42
103.0000000000001
 73
     0
 74
     1
 75
     1
  3
tfrom線あり
100
AcDbAlignedDimension
 13
1531.848259352741
 23
980.8932947952438
 33
0.0
 14
1531.726157992786
 24
1083.893294795244
 34
0.0
 50
90.0
100
AcDbRotatedDimension
1001
ACAD
1000
DSTYLE
1002
{
1070
   172
1070
     1
1070
   144
1040
1.0
1002
}
  0
MTEXT
  5
3BE5
330
A
100
AcDbEntity
  8
DIM
390
1D
100
AcDbMText
 10
233.0923491625751
 20
1689.656083245614
 30
0.0
 40
24.0
 41
1899.432250186409
 46
68.14078388424798
 71
     1
 72
     1
  1
{＝φ30もしくはφ35の水栓取付用穴あけ加工を承ります。\P 必要な場合、ご注文の際にご指示ください。}
  7
ＭＳ ゴシック
 73
     1
 44
0.9822934569727008
1001
ACAD
1000
ACAD_MTEXT_DEFINED_HEIGHT_BEGIN
1070
    46
1040
68.14078388424798
1000
ACAD_MTEXT_DEFINED_HEIGHT_END
  0
CIRCLE
  5
3BE6
330
A
100
AcDbEntity
  8
HIDDEN
 48
0.5
390
1D
100
AcDbCircle
 10
206.1837120247544
 20
1675.212353678454
 30
0.0
 40
17.5
  0
MTEXT
  5
3BE7
330
A
100
AcDbEntity
  8
DIM
390
1D
100
AcDbMText
 10
1188.367752149361
 20
1689.656083245614
 30
0.0
 40
24.0
 41
1899.432250186409
 46
111.8331968503937
 71
     1
 72
     1
  1
{※陶器製品には寸法公差があります。\P 洗面器の収め方をご確認の上、必ず現物を合わせて\P カウンターの切込を行ってください。}
  7
ＭＳ ゴシック
 73
     1
 44
0.9822934569727008
1001
ACAD
1000
ACAD_MTEXT_DEFINED_HEIGHT_BEGIN
1070
    46
1040
111.8331968503937
1000
ACAD_MTEXT_DEFINED_HEIGHT_END
  0
HATCH
  5
3BFA
330
A
100
AcDbEntity
  8
DIM
100
AcDbHatch
 10
0.0
 20
0.0
 30
0.0
210
0.0
220
0.0
230
1.0
  2
ANSI31
 70
     0
 71
     1
 91
        1
 92
        1
 93
        4
 72
     1
 10
1316.831722894408
 20
2299.815492678796
 11
1746.831722894408
 21
2299.815492678796
 72
     1
 10
1746.831722894408
 20
2299.815492678796
 11
1746.831722894408
 21
2119.815492678796
 72
     1
 10
1746.831722894408
 20
2119.815492678796
 11
1316.831722894408
 21
2119.815492678796
 72
     1
 10
1316.831722894408
 20
2119.815492678796
 11
1316.831722894408
 21
2299.815492678796
 97
        1
330
3AB5
 75
     0
 76
     1
 52
0.0
 41
6.0
 77
     0
 78
     1
 53
45.0
 43
0.0
 44
0.0
 45
-13.47038418160373
 46
13.47038418160373
 79
     0
 98
        1
 10
0.0
 20
0.0
1001
ACAD
1010
0.0
1020
0.0
1030
0.0
  0
VIEWPORT
  5
349
330
B
100
AcDbEntity
 67
     1
  8
0
100
AcDbViewport
 10
202.5
 20
128.5
 30
0.0
 40
486.0
 41
308.4
 68
     1
 69
     1
 12
202.5
 22
128.5
 13
0.0
 23
0.0
 14
0.5
 24
0.5
 15
0.0
 25
0.0
 16
0.0
 26
0.0
 36
1.0
 17
0.0
 27
0.0
 37
0.0
 42
50.0
 43
0.0
 44
0.0
 45
308.4
 50
0.0
 51
0.0
 72
   100
 90
   557152
  1

281
     0
 71
     1
 74
     0
110
0.0
120
0.0
130
0.0
111
1.0
121
0.0
131
0.0
112
0.0
122
1.0
132
0.0
 79
     0
146
0.0
170
     0
 61
     5
348
26C
292
     1
282
     1
141
0.0
142
0.0
 63
   256
  0
VIEWPORT
  5
34A
330
B
100
AcDbEntity
 67
     1
  8
0
100
AcDbViewport
 10
202.5
 20
128.5
 30
0.0
 40
324.0
 41
205.6
 68
     2
 69
     2
 12
986.6781359294573
 22
1427.077061889956
 13
0.0
 23
0.0
 14
0.5
 24
0.5
 15
0.0
 25
0.0
 16
0.0
 26
0.0
 36
1.0
 17
0.0
 27
0.0
 37
0.0
 42
50.0
 43
0.0
 44
0.0
 45
2890.021615685494
 50
0.0
 51
0.0
 72
   100
 90
   557152
  1

281
     0
 71
     1
 74
     0
110
0.0
120
0.0
130
0.0
111
1.0
121
0.0
131
0.0
112
0.0
122
1.0
132
0.0
 79
     0
146
0.0
170
     0
 61
     5
348
26C
292
     1
282
     1
141
0.0
142
0.0
 63
   256
  0
ENDSEC
  0
SECTION
  2
OBJECTS
  0
DICTIONARY
  5
19
330
0
100
AcDbDictionary
281
     1
  3
ACAD_COLOR
350
674
  3
ACAD_DETAILVIEWSTYLE
350
BBF
  3
ACAD_FIELDLIST
350
146A
  3
ACAD_GROUP
350
1A
  3
ACAD_IMAGE_VARS
350
27B
  3
ACAD_LAYOUT
350
1E
  3
ACAD_MATERIAL
350
263
  3
ACAD_MLEADERSTYLE
350
336
  3
ACAD_MLINESTYLE
350
1B
  3
ACAD_PLOTSETTINGS
350
22
  3
ACAD_PLOTSTYLENAME
350
1F
  3
ACAD_SCALELIST
350
241
  3
ACAD_SECTIONVIEWSTYLE
350
BC0
  3
ACAD_TABLESTYLE
350
278
  3
ACAD_VISUALSTYLE
350
267
  3
ACDB_RECOMPOSE_DATA
350
3C0F
  3
AcDbVariableDictionary
350
330
  3
APPDATA
350
27A
  3
DimOffsetDictionary
350
E3E
  0
SUN
  5
904
330
15
100
AcDbSun
 90
        1
290
     0
 63
     7
421
 16777215
 40
1.0
291
     1
 91
  2455826
 92
 54000000
292
     0
 70
     2
 71
   256
280
     1
  0
DICTIONARY
  5
2E1
330
2
100
AcDbDictionary
280
     1
281
     1
  3
ACAD_LAYERSTATES
360
2E2
  3
ACLYDICTIONARY
360
DF9
  0
DICTIONARY
  5
374D
330
A
100
AcDbDictionary
280
     1
281
     1
  3
ACAD_SORTENTS
360
374E
  0
DICTIONARY
  5
1468
330
1466
100
AcDbDictionary
280
     1
281
     1
  3
ACAD_FIELD
360
3BE9
  0
DICTIONARY
  5
3BD4
330
3BD3
100
AcDbDictionary
280
     1
281
     1
  3
ACAD_DIMASSOC
360
3BD5
  0
DICTIONARY
  5
674
102
{ACAD_REACTORS
330
19
102
}
330
19
100
AcDbDictionary
281
     1
  0
DICTIONARY
  5
BBF
102
{ACAD_REACTORS
330
19
102
}
330
19
100
AcDbDictionary
281
     1
  0
FIELDLIST
  5
146A
102
{ACAD_REACTORS
330
19
102
}
330
19
100
AcDbIdSet
 90
        2
330
146B
330
1467
100
AcDbFieldList
  0
DICTIONARY
  5
1A
102
{ACAD_REACTORS
330
19
102
}
330
19
100
AcDbDictionary
281
     1
  3
*A1
350
36AC
  0
RASTERVARIABLES
  5
27B
102
{ACAD_REACTORS
330
19
102
}
330
19
100
AcDbRasterVariables
 90
        0
 70
     1
 71
     1
 72
     1
  0
DICTIONARY
  5
1E
102
{ACAD_REACTORS
330
19
102
}
330
19
100
AcDbDictionary
281
     1
  3
Layout1
350
21
  3
Model
350
20
  0
DICTIONARY
  5
263
102
{ACAD_REACTORS
330
19
102
}
330
19
100
AcDbDictionary
281
     1
  3
ByBlock
350
265
  3
ByLayer
350
264
  3
Global
350
266
  0
DICTIONARY
  5
336
102
{ACAD_REACTORS
330
19
102
}
330
19
100
AcDbDictionary
281
     1
  3
Standard
350
DAB
  0
DICTIONARY
  5
1B
102
{ACAD_REACTORS
330
19
102
}
330
19
100
AcDbDictionary
281
     1
  3
Standard
350
1C
  0
DICTIONARY
  5
22
102
{ACAD_REACTORS
330
19
102
}
330
19
100
AcDbDictionary
281
     1
  0
ACDBDICTIONARYWDFLT
  5
1F
102
{ACAD_REACTORS
330
19
102
}
330
19
100
AcDbDictionary
281
     1
  3
Normal
350
1D
100
AcDbDictionaryWithDefault
340
1D
  0
DICTIONARY
  5
241
102
{ACAD_REACTORS
330
19
102
}
330
19
100
AcDbDictionary
281
     1
  3
A0
350
242
  3
A1
350
243
  3
A2
350
244
  3
A3
350
245
  3
A4
350
246
  3
A5
350
247
  3
A6
350
248
  3
A7
350
249
  3
A8
350
24A
  3
A9
350
24B
  3
B0
350
24C
  3
B1
350
24D
  3
B2
350
24E
  3
B3
350
24F
  3
B4
350
250
  3
B5
350
251
  3
B6
350
252
  3
B7
350
253
  3
B8
350
254
  3
B9
350
255
  3
C0
350
256
  3
C1
350
257
  3
C2
350
258
  3
C3
350
259
  3
C4
350
25A
  3
C5
350
25B
  3
C6
350
25C
  3
C7
350
25D
  3
C8
350
25E
  3
C9
350
25F
  3
D0
350
260
  3
D1
350
261
  3
D2
350
262
  0
DICTIONARY
  5
BC0
102
{ACAD_REACTORS
330
19
102
}
330
19
100
AcDbDictionary
281
     1
  0
DICTIONARY
  5
278
102
{ACAD_REACTORS
330
19
102
}
330
19
100
AcDbDictionary
281
     1
  3
Standard
350
279
  0
DICTIONARY
  5
267
102
{ACAD_REACTORS
330
19
102
}
330
19
100
AcDbDictionary
281
     1
  3
2dWireframe
350
26C
  3
3D Hidden
350
26E
  3
3dWireframe
350
26D
  3
Basic
350
26F
  3
Brighten
350
273
  3
ColorChange
350
277
  3
Conceptual
350
271
  3
Dim
350
272
  3
EdgeColorOff
350
8FE
  3
Facepattern
350
276
  3
Flat
350
268
  3
FlatWithEdges
350
269
  3
Gouraud
350
26A
  3
GouraudWithEdges
350
26B
  3
Hidden
350
8FB
  3
JitterOff
350
8FC
  3
Linepattern
350
275
  3
OverhangOff
350
8FD
  3
Realistic
350
270
  3
Shaded
350
903
  3
Shaded with edges
350
902
  3
Shades of Gray
350
8FF
  3
Sketchy
350
900
  3
Thicken
350
274
  3
Wireframe
350
8FA
  3
X-Ray
350
901
  0
XRECORD
  5
3C0F
102
{ACAD_REACTORS
330
19
102
}
330
19
100
AcDbXrecord
280
     1
 90
        1
330
279
  0
DICTIONARY
  5
330
102
{ACAD_REACTORS
330
19
102
}
330
19
100
AcDbDictionary
281
     1
  3
CANNOSCALE
350
331
  3
CMLEADERSTYLE
350
DB1
  3
CTABLESTYLE
350
335
  3
HPTRANSPARENCY
350
D52
  3
XCLIPFRAME
350
896
  0
DICTIONARY
  5
27A
102
{ACAD_REACTORS
330
19
102
}
330
19
100
AcDbDictionary
281
     1
  0
DICTIONARY
  5
E3E
102
{ACAD_REACTORS
330
19
102
}
330
19
100
AcDbDictionary
281
     1
  3
DIMRAILANGLE
350
ECE
  3
DIMRAILFIRSTOFFSET
350
ECC
  3
DIMRAILOFFSET
350
ECD
  3
DIMRAILSENABLED
350
ECF
  0
DICTIONARY
  5
2E2
102
{ACAD_REACTORS
330
2E1
102
}
330
2E1
100
AcDbDictionary
281
     1
  0
DICTIONARY
  5
DF9
102
{ACAD_REACTORS
330
2E1
102
}
330
2E1
100
AcDbDictionary
281
     1
1001
ACAD
1000
<All
  0
SORTENTSTABLE
  5
374E
102
{ACAD_REACTORS
330
374D
102
}
330
374D
100
AcDbSortentsTable
330
A
331
0
  5
3733
331
0
  5
3732
331
369B
  5
35AE
331
369C
  5
369A
331
36A7
  5
369B
331
36A8
  5
369C
331
36A9
  5
36A7
331
36AA
  5
36A8
331
36AB
  5
36A9
331
0
  5
36AB
331
0
  5
3728
331
0
  5
3729
331
0
  5
372A
331
0
  5
372B
331
0
  5
372E
331
0
  5
3731
331
3AB5
  5
3ABC
331
0
  5
3ABD
331
0
  5
3ABE
331
3ABD
  5
3ABF
331
3ABE
  5
3AC0
331
3ABF
  5
3AC1
331
0
  5
3AC2
331
3AC1
  5
3AC3
331
3AC2
  5
3AC4
331
3AC3
  5
3AC5
331
3AC4
  5
3AC6
331
3AC5
  5
3AC7
331
3AC6
  5
3AC8
331
3AC7
  5
3AC9
331
3AC8
  5
3ACA
331
3AC9
  5
3ACB
331
3ACA
  5
3ACC
331
3ACB
  5
3ACD
331
3ACC
  5
3ACE
331
3ACD
  5
3ACF
331
3ACE
  5
3AD0
331
3ACF
  5
3AD1
331
3AD0
  5
3AD2
331
3AD1
  5
3AD3
331
3AD2
  5
3AD4
331
3AD3
  5
3AD5
331
3AD4
  5
3AD6
331
3AD5
  5
3AD7
331
3AD6
  5
3AD8
331
3AD7
  5
3AD9
331
3AD8
  5
3ADA
331
3AD9
  5
3ADB
331
3ADA
  5
3ADC
331
3ADB
  5
3ADD
331
3ADC
  5
3ADE
331
3ADD
  5
3ADF
331
3ADE
  5
3AE0
331
3ADF
  5
3AE1
331
3AE0
  5
3AE2
331
3AE1
  5
3AE3
331
3AE2
  5
3AE4
331
3AE3
  5
3AE5
331
3AE4
  5
3AE6
331
3AE5
  5
3AE7
331
3AE6
  5
3AE8
331
3AE7
  5
3AE9
331
3AE8
  5
3AEA
331
3AE9
  5
3AEB
331
3AEA
  5
3AEC
331
3AEB
  5
3AED
331
3AEC
  5
3AEE
331
3AED
  5
3AEF
331
3AEE
  5
3AF0
331
3AEF
  5
3AF1
331
3AF0
  5
3AF2
331
3AF1
  5
3AF3
331
3AF2
  5
3AF4
331
3AF3
  5
3AF5
331
3AF4
  5
3AF6
331
3AF5
  5
3AF7
331
3AF6
  5
3AF8
331
3AF7
  5
3AF9
331
3AF8
  5
3AFA
331
3AF9
  5
3AFB
331
3AFA
  5
3AFC
331
3AFB
  5
3AFD
331
3AFC
  5
3AFE
331
3AFD
  5
3AFF
331
3AFE
  5
3BC1
331
3AFF
  5
3BC2
331
3BC1
  5
3BD2
331
3BC2
  5
3BD3
331
0
  5
3BE5
331
3BD3
  5
3BE6
331
3BE5
  5
3BE7
331
3BE6
  5
3BF9
331
3BE7
  5
3BFA
331
0
  5
3AB5
331
3BFA
  5
3ABB
  0
DICTIONARY
  5
3BE9
102
{ACAD_REACTORS
330
1468
102
}
330
1468
100
AcDbDictionary
280
     1
281
     1
  3
TEXT
360
1467
  0
DIMASSOC
  5
3BD5
102
{ACAD_REACTORS
330
3BD4
102
}
330
3BD4
100
AcDbDimAssoc
330
3BD3
 90
        3
 70
     0
 71
     1
  1
AcDbOsnapPointRef
 72
     1
331
3ADC
 73
     0
 91
        0
 40
0.0
 10
0.0
 20
0.0
 30
0.0
 75
     0
  1
AcDbOsnapPointRef
 72
     2
331
3AED
 73
     0
 91
        0
 40
0.5
 10
0.0
 20
0.0
 30
0.0
 75
     0
  0
GROUP
  5
36AC
102
{ACAD_REACTORS
330
1A
102
}
330
1A
100
AcDbGroup
300

 70
     1
 71
     1
340
369B
340
369C
340
36A7
340
36A8
340
36A9
340
36AA
340
36AB
  0
LAYOUT
  5
21
102
{ACAD_REACTORS
330
1E
102
}
330
1E
100
AcDbPlotSettings
  1

  2
none_device
  4
ISO_A3_(420.00_x_297.00_MM)
  6

 40
7.5
 41
20.0
 42
7.5
 43
20.0
 44
420.0
 45
297.0
 46
0.0
 47
0.0
 48
0.0
 49
0.0
140
0.0
141
0.0
142
1.0
143
1.0
 70
     0
 72
     1
 73
     0
 74
     0
  7

 75
     0
 76
     0
 77
     2
 78
   300
147
1.0
148
0.0
149
0.0
100
AcDbLayout
  1
Layout1
 70
     0
 71
     0
 10
-7.5
 20
-20.0
 11
412.5
 21
277.0
 12
0.0
 22
0.0
 32
0.0
 14
0.0
 24
0.0
 34
0.0
 15
0.0
 25
0.0
 35
0.0
146
0.0
 13
0.0
 23
0.0
 33
0.0
 16
0.0
 26
0.0
 36
0.0
 17
0.0
 27
0.0
 37
0.0
 76
     0
330
B
331
349
  0
LAYOUT
  5
20
102
{ACAD_REACTORS
330
1E
102
}
330
1E
100
AcDbPlotSettings
  1

  2
none_device
  4
ISO_A3_(420.00_x_297.00_MM)
  6

 40
7.5
 41
20.0
 42
7.5
 43
20.0
 44
420.0
 45
297.0
 46
0.0
 47
0.0
 48
0.0
 49
0.0
140
0.0
141
0.0
142
1.0
143
1.0
 70
  1024
 72
     1
 73
     0
 74
     0
  7

 75
     0
 76
     0
 77
     2
 78
   300
147
1.0
148
0.0
149
0.0
100
AcDbLayout
  1
Model
 70
     0
 71
     1
 10
0.0
 20
0.0
 11
2100.0
 21
2970.0
 12
0.0
 22
0.0
 32
0.0
 14
0.0
 24
0.0
 34
-0.0000000000000071
 15
2100.0
 25
2970.0
 35
0.0000000000000071
146
0.0
 13
0.0
 23
0.0
 33
0.0
 16
0.0
 26
0.0
 36
0.0
 17
0.0
 27
0.0
 37
0.0
 76
     0
330
A
331
15
  0
MATERIAL
  5
265
102
{ACAD_REACTORS
330
263
102
}
330
263
100
AcDbMaterial
  1
ByBlock
 72
     1
 94
      127
  0
MATERIAL
  5
264
102
{ACAD_REACTORS
330
263
102
}
330
263
100
AcDbMaterial
  1
ByLayer
 72
     1
 94
      127
  0
MATERIAL
  5
266
102
{ACAD_REACTORS
330
263
102
}
330
263
100
AcDbMaterial
  1
Global
 72
     1
 94
      127
  0
MLEADERSTYLE
  5
DAB
102
{ACAD_REACTORS
330
336
102
}
330
336
100
AcDbMLeaderStyle
170
     2
171
     1
172
     0
 90
        2
 40
0.0
 41
0.0
173
     1
 91
-1056964608
340
11
 92
       -2
290
     1
 42
2.0
291
     1
 43
8.0
  3
Standard
341
0
 44
4.0
300

342
17
174
     1
178
     6
175
     1
176
     0
 93
-1056964608
 45
4.0
292
     0
297
     0
 46
4.0
343
0
 94
-1056964608
 47
1.0
 49
1.0
140
1.0
293
     1
141
0.0
294
     1
177
     0
142
1.0
295
     0
296
     0
143
3.75
1001
ACAD_MLEADERVER
1070
     2
  0
MLINESTYLE
  5
1C
102
{ACAD_REACTORS
330
1B
102
}
330
1B
100
AcDbMlineStyle
  2
Standard
 70
     0
  3

 62
     0
 51
90.0
 52
90.0
 71
     2
 49
0.5
 62
   256
  6
BYLAYER
 49
-0.5
 62
   256
  6
BYLAYER
  0
ACDBPLACEHOLDER
  5
1D
102
{ACAD_REACTORS
330
1F
102
}
330
1F
  0
SCALE
  5
242
102
{ACAD_REACTORS
330
241
102
}
330
241
100
AcDbScale
 70
     0
300
1:1
140
1.0
141
1.0
290
     1
  0
SCALE
  5
243
102
{ACAD_REACTORS
330
241
102
}
330
241
100
AcDbScale
 70
     0
300
1:2
140
1.0
141
2.0
290
     0
  0
SCALE
  5
244
102
{ACAD_REACTORS
330
241
102
}
330
241
100
AcDbScale
 70
     0
300
1:4
140
1.0
141
4.0
290
     0
  0
SCALE
  5
245
102
{ACAD_REACTORS
330
241
102
}
330
241
100
AcDbScale
 70
     0
300
1:5
140
1.0
141
5.0
290
     0
  0
SCALE
  5
246
102
{ACAD_REACTORS
330
241
102
}
330
241
100
AcDbScale
 70
     0
300
1:8
140
1.0
141
8.0
290
     0
  0
SCALE
  5
247
102
{ACAD_REACTORS
330
241
102
}
330
241
100
AcDbScale
 70
     0
300
1:10
140
1.0
141
10.0
290
     0
  0
SCALE
  5
248
102
{ACAD_REACTORS
330
241
102
}
330
241
100
AcDbScale
 70
     0
300
1:16
140
1.0
141
16.0
290
     0
  0
SCALE
  5
249
102
{ACAD_REACTORS
330
241
102
}
330
241
100
AcDbScale
 70
     0
300
1:20
140
1.0
141
20.0
290
     0
  0
SCALE
  5
24A
102
{ACAD_REACTORS
330
241
102
}
330
241
100
AcDbScale
 70
     0
300
1:30
140
1.0
141
30.0
290
     0
  0
SCALE
  5
24B
102
{ACAD_REACTORS
330
241
102
}
330
241
100
AcDbScale
 70
     0
300
1:40
140
1.0
141
40.0
290
     0
  0
SCALE
  5
24C
102
{ACAD_REACTORS
330
241
102
}
330
241
100
AcDbScale
 70
     0
300
1:50
140
1.0
141
50.0
290
     0
  0
SCALE
  5
24D
102
{ACAD_REACTORS
330
241
102
}
330
241
100
AcDbScale
 70
     0
300
1:100
140
1.0
141
100.0
290
     0
  0
SCALE
  5
24E
102
{ACAD_REACTORS
330
241
102
}
330
241
100
AcDbScale
 70
     0
300
2:1
140
2.0
141
1.0
290
     0
  0
SCALE
  5
24F
102
{ACAD_REACTORS
330
241
102
}
330
241
100
AcDbScale
 70
     0
300
4:1
140
4.0
141
1.0
290
     0
  0
SCALE
  5
250
102
{ACAD_REACTORS
330
241
102
}
330
241
100
AcDbScale
 70
     0
300
8:1
140
8.0
141
1.0
290
     0
  0
SCALE
  5
251
102
{ACAD_REACTORS
330
241
102
}
330
241
100
AcDbScale
 70
     0
300
10:1
140
10.0
141
1.0
290
     0
  0
SCALE
  5
252
102
{ACAD_REACTORS
330
241
102
}
330
241
100
AcDbScale
 70
     0
300
100:1
140
100.0
141
1.0
290
     0
  0
SCALE
  5
253
102
{ACAD_REACTORS
330
241
102
}
330
241
100
AcDbScale
 70
     0
300
1/128" = 1'-0"
140
0.0078125
141
12.0
290
     0
  0
SCALE
  5
254
102
{ACAD_REACTORS
330
241
102
}
330
241
100
AcDbScale
 70
     0
300
1/64" = 1'-0"
140
0.015625
141
12.0
290
     0
  0
SCALE
  5
255
102
{ACAD_REACTORS
330
241
102
}
330
241
100
AcDbScale
 70
     0
300
1/32" = 1'-0"
140
0.03125
141
12.0
290
     0
  0
SCALE
  5
256
102
{ACAD_REACTORS
330
241
102
}
330
241
100
AcDbScale
 70
     0
300
1/16" = 1'-0"
140
0.0625
141
12.0
290
     0
  0
SCALE
  5
257
102
{ACAD_REACTORS
330
241
102
}
330
241
100
AcDbScale
 70
     0
300
3/32" = 1'-0"
140
0.09375
141
12.0
290
     0
  0
SCALE
  5
258
102
{ACAD_REACTORS
330
241
102
}
330
241
100
AcDbScale
 70
     0
300
1/8" = 1'-0"
140
0.125
141
12.0
290
     0
  0
SCALE
  5
259
102
{ACAD_REACTORS
330
241
102
}
330
241
100
AcDbScale
 70
     0
300
3/16" = 1'-0"
140
0.1875
141
12.0
290
     0
  0
SCALE
  5
25A
102
{ACAD_REACTORS
330
241
102
}
330
241
100
AcDbScale
 70
     0
300
1/4" = 1'-0"
140
0.25
141
12.0
290
     0
  0
SCALE
  5
25B
102
{ACAD_REACTORS
330
241
102
}
330
241
100
AcDbScale
 70
     0
300
3/8" = 1'-0"
140
0.375
141
12.0
290
     0
  0
SCALE
  5
25C
102
{ACAD_REACTORS
330
241
102
}
330
241
100
AcDbScale
 70
     0
300
1/2" = 1'-0"
140
0.5
141
12.0
290
     0
  0
SCALE
  5
25D
102
{ACAD_REACTORS
330
241
102
}
330
241
100
AcDbScale
 70
     0
300
3/4" = 1'-0"
140
0.75
141
12.0
290
     0
  0
SCALE
  5
25E
102
{ACAD_REACTORS
330
241
102
}
330
241
100
AcDbScale
 70
     0
300
1" = 1'-0"
140
1.0
141
12.0
290
     0
  0
SCALE
  5
25F
102
{ACAD_REACTORS
330
241
102
}
330
241
100
AcDbScale
 70
     0
300
1-1/2" = 1'-0"
140
1.5
141
12.0
290
     0
  0
SCALE
  5
260
102
{ACAD_REACTORS
330
241
102
}
330
241
100
AcDbScale
 70
     0
300
3" = 1'-0"
140
3.0
141
12.0
290
     0
  0
SCALE
  5
261
102
{ACAD_REACTORS
330
241
102
}
330
241
100
AcDbScale
 70
     0
300
6" = 1'-0"
140
6.0
141
12.0
290
     0
  0
SCALE
  5
262
102
{ACAD_REACTORS
330
241
102
}
330
241
100
AcDbScale
 70
     0
300
1'-0" = 1'-0"
140
12.0
141
12.0
290
     0
  0
TABLESTYLE
  5
279
102
{ACAD_REACTORS
330
278
102
}
102
{ACAD_XDICTIONARY
360
3C0D
102
}
330
278
100
AcDbTableStyle
  3
Standard
 70
     0
 71
     0
 40
0.06
 41
0.06
280
     0
281
     0
  7
Standard
140
4.5
170
     2
 62
     0
 63
   257
283
     0
 90
        4
 91
        0
  1

274
    -2
284
     1
 64
     0
275
    -2
285
     1
 65
     0
276
    -2
286
     1
 66
     0
277
    -2
287
     1
 67
     0
278
    -2
288
     1
 68
     0
279
    -2
289
     1
 69
     0
  7
Standard
140
6.0
170
     5
 62
     0
 63
   257
283
     0
 90
        4
 91
        0
  1

274
    -2
284
     1
 64
     0
275
    -2
285
     1
 65
     0
276
    -2
286
     1
 66
     0
277
    -2
287
     1
 67
     0
278
    -2
288
     1
 68
     0
279
    -2
289
     1
 69
     0
  7
Standard
140
4.5
170
     5
 62
     0
 63
   257
283
     0
 90
        4
 91
        0
  1

274
    -2
284
     1
 64
     0
275
    -2
285
     1
 65
     0
276
    -2
286
     1
 66
     0
277
    -2
287
     1
 67
     0
278
    -2
288
     1
 68
     0
279
    -2
289
     1
 69
     0
  0
VISUALSTYLE
  5
26C
102
{ACAD_REACTORS
330
267
102
}
330
267
100
AcDbVisualStyle
  2
2dWireframe
 70
     4
 71
     0
 72
     2
 73
     0
 90
        0
 40
-0.6
 41
-30.0
 62
     5
 63
     7
421
 16777215
 74
     1
 91
        4
 64
     7
 65
   257
 75
     1
175
     1
 42
1.0
 92
        0
 66
   257
 43
1.0
 76
     1
 77
     6
 78
     2
 67
     7
 79
     5
170
     0
171
     0
290
     0
174
     0
 93
        1
 44
0.0
173
     0
291
     0
 45
0.0
  0
VISUALSTYLE
  5
26E
102
{ACAD_REACTORS
330
267
102
}
330
267
100
AcDbVisualStyle
  2
3D Hidden
 70
     6
 71
     1
 72
     2
 73
     2
 90
        0
 40
-0.6
 41
-30.0
 62
     5
 63
     7
421
 16777215
 74
     2
 91
        2
 64
     7
 65
   257
 75
     2
175
     1
 42
40.0
 92
        0
 66
   257
 43
1.0
 76
     1
 77
     6
 78
     2
 67
     7
 79
     3
170
     0
171
     0
290
     0
174
     0
 93
        1
 44
0.0
173
     0
291
     0
 45
0.0
  0
VISUALSTYLE
  5
26D
102
{ACAD_REACTORS
330
267
102
}
330
267
100
AcDbVisualStyle
  2
3dWireframe
 70
     5
 71
     0
 72
     2
 73
     0
 90
        0
 40
-0.6
 41
-30.0
 62
     5
 63
     7
421
 16777215
 74
     1
 91
        4
 64
     7
 65
   257
 75
     1
175
     1
 42
1.0
 92
        0
 66
   257
 43
1.0
 76
     1
 77
     6
 78
     2
 67
     7
 79
     5
170
     0
171
     0
290
     0
174
     0
 93
        1
 44
0.0
173
     0
291
     0
 45
0.0
  0
VISUALSTYLE
  5
26F
102
{ACAD_REACTORS
330
267
102
}
330
267
100
AcDbVisualStyle
  2
Basic
 70
     7
 71
     1
 72
     0
 73
     1
 90
        0
 40
-0.6
 41
-30.0
 62
     5
 63
     7
421
 16777215
 74
     0
 91
        4
 64
     7
 65
   257
 75
     1
175
     1
 42
1.0
 92
        8
 66
     7
 43
1.0
 76
     1
 77
     6
 78
     2
 67
     7
 79
     5
170
     0
171
     0
290
     0
174
     0
 93
        1
 44
0.0
173
     0
291
     1
 45
0.0
  0
VISUALSTYLE
  5
273
102
{ACAD_REACTORS
330
267
102
}
330
267
100
AcDbVisualStyle
  2
Brighten
 70
    12
 71
     2
 72
     2
 73
     0
 90
        0
 40
-0.6
 41
-30.0
 62
     5
 63
     7
421
 16777215
 74
     1
 91
        4
 64
     7
 65
   257
 75
     1
175
     1
 42
1.0
 92
        8
 66
     7
 43
1.0
 76
     1
 77
     6
 78
     2
 67
     7
 79
     5
170
     0
171
     0
290
     0
174
     0
 93
        1
 44
50.0
173
     0
291
     1
 45
0.0
  0
VISUALSTYLE
  5
277
102
{ACAD_REACTORS
330
267
102
}
330
267
100
AcDbVisualStyle
  2
ColorChange
 70
    16
 71
     2
 72
     2
 73
     3
 90
        0
 40
-0.6
 41
-30.0
 62
     5
 63
     8
421
  8421504
 74
     1
 91
        4
 64
     7
 65
   257
 75
     1
175
     1
 42
1.0
 92
        8
 66
     8
424
  8421504
 43
1.0
 76
     1
 77
     6
 78
     2
 67
     7
 79
     5
170
     0
171
     0
290
     0
174
     0
 93
        1
 44
0.0
173
     0
291
     1
 45
0.0
  0
VISUALSTYLE
  5
271
102
{ACAD_REACTORS
330
267
102
}
330
267
100
AcDbVisualStyle
  2
Conceptual
 70
     9
 71
     3
 72
     2
 73
     0
 90
        0
 40
-0.6
 41
-30.0
 62
     5
 63
     7
421
 16777215
 74
     2
 91
        2
 64
     7
 65
   257
 75
     1
175
     1
 42
40.0
 92
        8
 66
     7
 43
1.0
 76
     1
 77
     6
 78
     2
 67
     7
 79
     3
170
     0
171
     0
290
     0
174
     0
 93
        1
 44
0.0
173
     0
291
     0
 45
0.0
  0
VISUALSTYLE
  5
272
102
{ACAD_REACTORS
330
267
102
}
330
267
100
AcDbVisualStyle
  2
Dim
 70
    11
 71
     2
 72
     2
 73
     0
 90
        0
 40
-0.6
 41
-30.0
 62
     5
 63
     7
421
 16777215
 74
     1
 91
        4
 64
     7
 65
   257
 75
     1
175
     1
 42
1.0
 92
        8
 66
     7
 43
1.0
 76
     1
 77
     6
 78
     2
 67
     7
 79
     5
170
     0
171
     0
290
     0
174
     0
 93
        1
 44
-50.0
173
     0
291
     1
 45
0.0
  0
VISUALSTYLE
  5
8FE
102
{ACAD_REACTORS
330
267
102
}
330
267
100
AcDbVisualStyle
  2
EdgeColorOff
 70
    22
 71
     2
 72
     2
 73
     0
 90
        0
 40
0.6
 41
30.0
 62
     5
 63
     7
421
 16777215
 74
     1
 91
        4
 64
     7
 65
   257
 75
     1
175
     1
 42
1.0
 92
        8
 66
     7
 43
1.0
 76
     1
 77
     6
 78
     2
 67
     7
 79
     5
170
     0
171
     0
290
     0
174
     0
 93
        1
 44
0.0
173
     0
291
     1
 45
0.0
  0
VISUALSTYLE
  5
276
102
{ACAD_REACTORS
330
267
102
}
330
267
100
AcDbVisualStyle
  2
Facepattern
 70
    15
 71
     2
 72
     2
 73
     0
 90
        0
 40
-0.6
 41
-30.0
 62
     5
 63
     7
421
 16777215
 74
     1
 91
        4
 64
     7
 65
   257
 75
     1
175
     1
 42
1.0
 92
        8
 66
     7
 43
1.0
 76
     1
 77
     6
 78
     2
 67
     7
 79
     5
170
     0
171
     0
290
     0
174
     0
 93
        1
 44
0.0
173
     0
291
     1
 45
0.0
  0
VISUALSTYLE
  5
268
102
{ACAD_REACTORS
330
267
102
}
330
267
100
AcDbVisualStyle
  2
Flat
 70
     0
 71
     2
 72
     1
 73
     1
 90
        2
 40
-0.6
 41
30.0
 62
     5
 63
     7
421
 16777215
 74
     0
 91
        4
 64
     7
 65
   257
 75
     1
175
     1
 42
1.0
 92
        8
 66
     7
 43
1.0
 76
     1
 77
     6
 78
     2
 67
     7
 79
     5
170
     0
171
     0
290
     0
174
     0
 93
       13
 44
0.0
173
     0
291
     1
 45
0.0
  0
VISUALSTYLE
  5
269
102
{ACAD_REACTORS
330
267
102
}
330
267
100
AcDbVisualStyle
  2
FlatWithEdges
 70
     1
 71
     2
 72
     1
 73
     1
 90
        2
 40
-0.6
 41
30.0
 62
     5
 63
     7
421
 16777215
 74
     1
 91
        4
 64
     7
 65
   257
 75
     1
175
     1
 42
1.0
 92
        0
 66
   257
 43
1.0
 76
     1
 77
     6
 78
     2
 67
     7
 79
     5
170
     0
171
     0
290
     0
174
     0
 93
       13
 44
0.0
173
     0
291
     1
 45
0.0
  0
VISUALSTYLE
  5
26A
102
{ACAD_REACTORS
330
267
102
}
330
267
100
AcDbVisualStyle
  2
Gouraud
 70
     2
 71
     2
 72
     2
 73
     1
 90
        2
 40
-0.6
 41
30.0
 62
     5
 63
     7
421
 16777215
 74
     0
 91
        4
 64
     7
 65
   257
 75
     1
175
     1
 42
1.0
 92
        0
 66
     7
 43
1.0
 76
     1
 77
     6
 78
     2
 67
     7
 79
     5
170
     0
171
     0
290
     0
174
     0
 93
       13
 44
0.0
173
     0
291
     1
 45
0.0
  0
VISUALSTYLE
  5
26B
102
{ACAD_REACTORS
330
267
102
}
330
267
100
AcDbVisualStyle
  2
GouraudWithEdges
 70
     3
 71
     2
 72
     2
 73
     1
 90
        2
 40
-0.6
 41
30.0
 62
     5
 63
     7
421
 16777215
 74
     1
 91
        4
 64
     7
 65
   257
 75
     1
175
     1
 42
1.0
 92
        0
 66
   257
 43
1.0
 76
     1
 77
     6
 78
     2
 67
     7
 79
     5
170
     0
171
     0
290
     0
174
     0
 93
       13
 44
0.0
173
     0
291
     1
 45
0.0
  0
VISUALSTYLE
  5
8FB
102
{ACAD_REACTORS
330
267
102
}
330
267
100
AcDbVisualStyle
  2
Hidden
 70
     6
 71
     1
 72
     2
 73
     2
 90
        0
 40
0.6
 41
30.0
 62
     5
 63
     7
421
 16777215
 74
     2
 91
        2
 64
     7
 65
   257
 75
     2
175
     1
 42
40.0
 92
        0
 66
   257
 43
1.0
 76
     1
 77
     6
 78
     2
 67
     7
 79
     3
170
     0
171
     0
290
     0
174
     0
 93
        1
 44
0.0
173
     0
291
     0
 45
0.0
  0
VISUALSTYLE
  5
8FC
102
{ACAD_REACTORS
330
267
102
}
330
267
100
AcDbVisualStyle
  2
JitterOff
 70
    20
 71
     2
 72
     2
 73
     0
 90
        0
 40
0.6
 41
30.0
 62
     5
 63
     7
421
 16777215
 74
     1
 91
        4
 64
     7
 65
   257
 75
     1
175
     1
 42
1.0
 92
       10
 66
     7
 43
1.0
 76
     1
 77
     6
 78
     2
 67
     7
 79
     5
170
     0
171
     0
290
     0
174
     0
 93
        1
 44
0.0
173
     0
291
     1
 45
0.0
  0
VISUALSTYLE
  5
275
102
{ACAD_REACTORS
330
267
102
}
330
267
100
AcDbVisualStyle
  2
Linepattern
 70
    14
 71
     2
 72
     2
 73
     0
 90
        0
 40
-0.6
 41
-30.0
 62
     5
 63
     7
421
 16777215
 74
     1
 91
        4
 64
     7
 65
   257
 75
     7
175
     7
 42
1.0
 92
        8
 66
     7
 43
1.0
 76
     1
 77
     6
 78
     2
 67
     7
 79
     5
170
     0
171
     0
290
     0
174
     0
 93
        1
 44
0.0
173
     0
291
     1
 45
0.0
  0
VISUALSTYLE
  5
8FD
102
{ACAD_REACTORS
330
267
102
}
330
267
100
AcDbVisualStyle
  2
OverhangOff
 70
    21
 71
     2
 72
     2
 73
     0
 90
        0
 40
0.6
 41
30.0
 62
     5
 63
     7
421
 16777215
 74
     1
 91
        4
 64
     7
 65
   257
 75
     1
175
     1
 42
1.0
 92
        9
 66
     7
 43
1.0
 76
     1
 77
     6
 78
     2
 67
     7
 79
     5
170
     0
171
     0
290
     0
174
     0
 93
        1
 44
0.0
173
     0
291
     1
 45
0.0
  0
VISUALSTYLE
  5
270
102
{ACAD_REACTORS
330
267
102
}
330
267
100
AcDbVisualStyle
  2
Realistic
 70
     8
 71
     2
 72
     2
 73
     0
 90
        0
 40
-0.6
 41
-30.0
 62
     5
 63
     7
421
 16777215
 74
     1
 91
        0
 64
     7
 65
   257
 75
     1
175
     1
 42
1.0
 92
        8
 66
     8
424
  7895160
 43
1.0
 76
     1
 77
     6
 78
     2
 67
     7
 79
     5
170
     0
171
     0
290
     0
174
     0
 93
       13
 44
0.0
173
     0
291
     0
 45
0.0
  0
VISUALSTYLE
  5
903
102
{ACAD_REACTORS
330
267
102
}
330
267
100
AcDbVisualStyle
  2
Shaded
 70
    27
 71
     2
 72
     2
 73
     1
 90
        2
 40
0.6
 41
30.0
 62
     5
 63
     7
421
 16777215
 74
     0
 91
        4
 64
     7
 65
   257
 75
     1
175
     1
 42
1.0
 92
        8
 66
   257
 43
1.0
 76
     1
 77
     6
 78
     2
 67
     8
425
  7895160
 79
     3
170
     0
171
     0
290
     0
174
     0
 93
        5
 44
0.0
173
     0
291
     0
 45
0.0
  0
VISUALSTYLE
  5
902
102
{ACAD_REACTORS
330
267
102
}
330
267
100
AcDbVisualStyle
  2
Shaded with edges
 70
    26
 71
     2
 72
     2
 73
     1
 90
        2
 40
0.6
 41
30.0
 62
     5
 63
     7
421
 16777215
 74
     1
 91
       10
 64
     7
 65
   257
 75
     2
175
     1
 42
1.0
 92
        8
 66
   257
 43
1.0
 76
     1
 77
     6
 78
     2
 67
     7
 79
     3
170
     0
171
     0
290
     0
174
     0
 93
        5
 44
0.0
173
     0
291
     0
 45
0.0
  0
VISUALSTYLE
  5
8FF
102
{ACAD_REACTORS
330
267
102
}
330
267
100
AcDbVisualStyle
  2
Shades of Gray
 70
    23
 71
     2
 72
     2
 73
     3
 90
        0
 40
0.6
 41
30.0
 62
     5
 63
     7
421
 16777215
 74
     2
 91
        2
 64
     7
 65
     7
 75
     1
175
     1
 42
40.0
 92
        8
 66
     7
 43
1.0
 76
     1
 77
     6
 78
     2
 67
     7
 79
     3
170
     0
171
     0
290
     0
174
     0
 93
        1
 44
0.0
173
     0
291
     0
 45
0.0
  0
VISUALSTYLE
  5
900
102
{ACAD_REACTORS
330
267
102
}
330
267
100
AcDbVisualStyle
  2
Sketchy
 70
    24
 71
     1
 72
     2
 73
     2
 90
        0
 40
0.6
 41
30.0
 62
     5
 63
     7
421
 16777215
 74
     2
 91
        2
 64
     7
 65
     7
 75
     1
175
     1
 42
40.0
 92
       11
 66
     7
 43
1.0
 76
     1
 77
     6
 78
     2
 67
     7
 79
     6
170
     0
171
     0
290
     0
174
     0
 93
        1
 44
0.0
173
     0
291
     0
 45
0.0
  0
VISUALSTYLE
  5
274
102
{ACAD_REACTORS
330
267
102
}
330
267
100
AcDbVisualStyle
  2
Thicken
 70
    13
 71
     2
 72
     2
 73
     0
 90
        0
 40
-0.6
 41
-30.0
 62
     5
 63
     7
421
 16777215
 74
     1
 91
        4
 64
     7
 65
   257
 75
     1
175
     1
 42
1.0
 92
       12
 66
     7
 43
1.0
 76
     1
 77
     6
 78
     2
 67
     7
 79
     5
170
     0
171
     0
290
     0
174
     0
 93
        1
 44
0.0
173
     0
291
     1
 45
0.0
  0
VISUALSTYLE
  5
8FA
102
{ACAD_REACTORS
330
267
102
}
330
267
100
AcDbVisualStyle
  2
Wireframe
 70
     5
 71
     0
 72
     2
 73
     0
 90
        0
 40
0.6
 41
30.0
 62
     5
 63
     7
421
 16777215
 74
     1
 91
        4
 64
     7
 65
   257
 75
     1
175
     1
 42
1.0
 92
        0
 66
   257
 43
1.0
 76
     1
 77
     6
 78
     2
 67
     7
 79
     3
170
     0
171
     0
290
     0
174
     0
 93
        1
 44
0.0
173
     0
291
     0
 45
0.0
  0
VISUALSTYLE
  5
901
102
{ACAD_REACTORS
330
267
102
}
330
267
100
AcDbVisualStyle
  2
X-Ray
 70
    25
 71
     2
 72
     2
 73
     1
 90
        1
 40
0.5
 41
30.0
 62
     5
 63
     7
421
 16777215
 74
     1
 91
        0
 64
     7
 65
   257
 75
     1
175
     1
 42
1.0
 92
        8
 66
     7
 43
1.0
 76
     1
 77
     6
 78
     2
 67
     7
 79
     3
170
     0
171
     0
290
     0
174
     0
 93
       13
 44
0.0
173
     0
291
     0
 45
0.0
  0
DICTIONARYVAR
  5
331
102
{ACAD_REACTORS
330
330
102
}
330
330
100
DictionaryVariables
280
     0
  1
1:1
  0
DICTIONARYVAR
  5
DB1
102
{ACAD_REACTORS
330
330
102
}
330
330
100
DictionaryVariables
280
     0
  1
Standard
  0
DICTIONARYVAR
  5
335
102
{ACAD_REACTORS
330
330
102
}
330
330
100
DictionaryVariables
280
     0
  1
Standard
  0
DICTIONARYVAR
  5
D52
102
{ACAD_REACTORS
330
330
102
}
330
330
100
DictionaryVariables
280
     0
  1
ByLayer
  0
DICTIONARYVAR
  5
896
102
{ACAD_REACTORS
330
330
102
}
330
330
100
DictionaryVariables
280
     0
  1
0
  0
DICTIONARYVAR
  5
ECE
102
{ACAD_REACTORS
330
E3E
102
}
330
E3E
100
DictionaryVariables
280
     0
  1
0.261799
  0
DICTIONARYVAR
  5
ECC
102
{ACAD_REACTORS
330
E3E
102
}
330
E3E
100
DictionaryVariables
280
     0
  1
0.400000
  0
DICTIONARYVAR
  5
ECD
102
{ACAD_REACTORS
330
E3E
102
}
330
E3E
100
DictionaryVariables
280
     0
  1
0.250000
  0
DICTIONARYVAR
  5
ECF
102
{ACAD_REACTORS
330
E3E
102
}
330
E3E
100
DictionaryVariables
280
     0
  1
1
  0
FIELD
  5
1467
102
{ACAD_REACTORS
330
36C0
330
3BE8
330
3BE9
102
}
330
3BE9
100
AcDbField
  1
_text
  2
{%<\_FldIdx 0>%N}
 90
        1
360
146B
 97
        0
 91
       63
 92
        0
 94
       11
 95
        2
 96
        0
300

 93
        1
  6
ACFD_FIELDTEXT_CHECKSUM
 93
        2
 90
        2
140
4493.0
 94
        0
300

302

304
ACVALUE_END
  7
ACFD_FIELD_VALUE
 93
        6
 90
        4
  1
{20190610N}
 94
        0
300

302

304
ACVALUE_END
301
{20190610N}
 98
       11
  0
DICTIONARY
  5
3C0D
330
279
100
AcDbDictionary
280
     1
281
     1
  3
ACAD_ROUNDTRIP_2008_TABLESTYLE_CELLSTYLEMAP
360
3C0E
  0
FIELD
  5
146B
330
1467
100
AcDbField
  1
AcVar
  2
\AcVar Date \f "yyyyMMdd"
 90
        0
 97
        0
 91
       63
 92
        0
 94
        8
 95
       64
 96
        0
300
Variable not supported
 93
        1
  6
Variable
 93
        2
 90
        4
  1
Date
 94
        0
300

302

304
ACVALUE_END
  7
ACFD_FIELD_VALUE
 93
        6
 90
        8
 92
       16
310
E307060000000A000A001B0039000000
 94
        0
300
yyyyMMdd
302

304
ACVALUE_END
301
20190610
 98
        8
  0
CELLSTYLEMAP
  5
3C0E
102
{ACAD_REACTORS
330
3C0D
102
}
330
3C0D
100
AcDbCellStyleMap
 90
        3
300
CELLSTYLE
  1
TABLEFORMAT_BEGIN
 90
        5
170
     1
 91
        0
 92
    32768
 62
   257
 93
        1
300
CONTENTFORMAT
  1
CONTENTFORMAT_BEGIN
 90
        0
 91
        0
 92
        4
 93
        0
300

 40
0.0
140
1.0
 94
        5
 62
     0
340
17
144
6.0
309
CONTENTFORMAT_END
171
     1
301
MARGIN
  1
CELLMARGIN_BEGIN
 40
0.06
 40
0.06
 40
0.06
 40
0.06
 40
0.18
 40
0.18
309
CELLMARGIN_END
 94
        6
 95
        1
302
GRIDFORMAT
  1
GRIDFORMAT_BEGIN
 90
        0
 91
        1
 62
     0
 92
       -2
340
0
 93
        0
 40
0.045
309
GRIDFORMAT_END
 95
        2
302
GRIDFORMAT
  1
GRIDFORMAT_BEGIN
 90
        0
 91
        1
 62
     0
 92
       -2
340
0
 93
        0
 40
0.045
309
GRIDFORMAT_END
 95
        4
302
GRIDFORMAT
  1
GRIDFORMAT_BEGIN
 90
        0
 91
        1
 62
     0
 92
       -2
340
0
 93
        0
 40
0.045
309
GRIDFORMAT_END
 95
        8
302
GRIDFORMAT
  1
GRIDFORMAT_BEGIN
 90
        0
 91
        1
 62
     0
 92
       -2
340
0
 93
        0
 40
0.045
309
GRIDFORMAT_END
 95
       16
302
GRIDFORMAT
  1
GRIDFORMAT_BEGIN
 90
        0
 91
        1
 62
     0
 92
       -2
340
0
 93
        0
 40
0.045
309
GRIDFORMAT_END
 95
       32
302
GRIDFORMAT
  1
GRIDFORMAT_BEGIN
 90
        0
 91
        1
 62
     0
 92
       -2
340
0
 93
        0
 40
0.045
309
GRIDFORMAT_END
309
TABLEFORMAT_END
  1
CELLSTYLE_BEGIN
 90
        1
 91
        1
300
_TITLE
309
CELLSTYLE_END
300
CELLSTYLE
  1
TABLEFORMAT_BEGIN
 90
        5
170
     1
 91
        0
 92
        0
 62
   257
 93
        1
300
CONTENTFORMAT
  1
CONTENTFORMAT_BEGIN
 90
        0
 91
        0
 92
        4
 93
        0
300

 40
0.0
140
1.0
 94
        5
 62
     0
340
17
144
4.5
309
CONTENTFORMAT_END
171
     1
301
MARGIN
  1
CELLMARGIN_BEGIN
 40
0.06
 40
0.06
 40
0.06
 40
0.06
 40
0.18
 40
0.18
309
CELLMARGIN_END
 94
        6
 95
        1
302
GRIDFORMAT
  1
GRIDFORMAT_BEGIN
 90
        0
 91
        1
 62
     0
 92
       -2
340
0
 93
        0
 40
0.045
309
GRIDFORMAT_END
 95
        2
302
GRIDFORMAT
  1
GRIDFORMAT_BEGIN
 90
        0
 91
        1
 62
     0
 92
       -2
340
0
 93
        0
 40
0.045
309
GRIDFORMAT_END
 95
        4
302
GRIDFORMAT
  1
GRIDFORMAT_BEGIN
 90
        0
 91
        1
 62
     0
 92
       -2
340
0
 93
        0
 40
0.045
309
GRIDFORMAT_END
 95
        8
302
GRIDFORMAT
  1
GRIDFORMAT_BEGIN
 90
        0
 91
        1
 62
     0
 92
       -2
340
0
 93
        0
 40
0.045
309
GRIDFORMAT_END
 95
       16
302
GRIDFORMAT
  1
GRIDFORMAT_BEGIN
 90
        0
 91
        1
 62
     0
 92
       -2
340
0
 93
        0
 40
0.045
309
GRIDFORMAT_END
 95
       32
302
GRIDFORMAT
  1
GRIDFORMAT_BEGIN
 90
        0
 91
        1
 62
     0
 92
       -2
340
0
 93
        0
 40
0.045
309
GRIDFORMAT_END
309
TABLEFORMAT_END
  1
CELLSTYLE_BEGIN
 90
        2
 91
        1
300
_HEADER
309
CELLSTYLE_END
300
CELLSTYLE
  1
TABLEFORMAT_BEGIN
 90
        5
170
     1
 91
        0
 92
        0
 62
   257
 93
        1
300
CONTENTFORMAT
  1
CONTENTFORMAT_BEGIN
 90
        0
 91
        0
 92
        4
 93
        0
300

 40
0.0
140
1.0
 94
        2
 62
     0
340
17
144
4.5
309
CONTENTFORMAT_END
171
     1
301
MARGIN
  1
CELLMARGIN_BEGIN
 40
0.06
 40
0.06
 40
0.06
 40
0.06
 40
0.18
 40
0.18
309
CELLMARGIN_END
 94
        6
 95
        1
302
GRIDFORMAT
  1
GRIDFORMAT_BEGIN
 90
        0
 91
        1
 62
     0
 92
       -2
340
0
 93
        0
 40
0.045
309
GRIDFORMAT_END
 95
        2
302
GRIDFORMAT
  1
GRIDFORMAT_BEGIN
 90
        0
 91
        1
 62
     0
 92
       -2
340
0
 93
        0
 40
0.045
309
GRIDFORMAT_END
 95
        4
302
GRIDFORMAT
  1
GRIDFORMAT_BEGIN
 90
        0
 91
        1
 62
     0
 92
       -2
340
0
 93
        0
 40
0.045
309
GRIDFORMAT_END
 95
        8
302
GRIDFORMAT
  1
GRIDFORMAT_BEGIN
 90
        0
 91
        1
 62
     0
 92
       -2
340
0
 93
        0
 40
0.045
309
GRIDFORMAT_END
 95
       16
302
GRIDFORMAT
  1
GRIDFORMAT_BEGIN
 90
        0
 91
        1
 62
     0
 92
       -2
340
0
 93
        0
 40
0.045
309
GRIDFORMAT_END
 95
       32
302
GRIDFORMAT
  1
GRIDFORMAT_BEGIN
 90
        0
 91
        1
 62
     0
 92
       -2
340
0
 93
        0
 40
0.045
309
GRIDFORMAT_END
309
TABLEFORMAT_END
  1
CELLSTYLE_BEGIN
 90
        3
 91
        2
300
_DATA
309
CELLSTYLE_END
  0
ENDSEC
  0
EOF
