  0
SECTION
  2
HEADER
  9
$ACADVER
  1
AC1021
  9
$ACADMAINTVER
 70
    25
  9
$DWGCODEPAGE
  3
ANSI_932
  9
$LASTSAVEDBY
  1
Shimosaki
  9
$INSBASE
 10
0.0
 20
0.0
 30
0.0
  9
$EXTMIN
 10
0.0
 20
0.0
 30
0.0
  9
$EXTMAX
 10
2100.0
 20
2970.0
 30
0.0
  9
$LIMMIN
 10
0.0
 20
0.0
  9
$LIMMAX
 10
2100.0
 20
2970.0
  9
$ORTHOMODE
 70
     0
  9
$REGENMODE
 70
     1
  9
$FILLMODE
 70
     1
  9
$QTEXTMODE
 70
     0
  9
$MIRRTEXT
 70
     1
  9
$LTSCALE
 40
12.7
  9
$ATTMODE
 70
     1
  9
$TEXTSIZE
 40
0.0
  9
$TRACEWID
 40
1.0
  9
$TEXTSTYLE
  7
Standard
  9
$CLAYER
  8
template
  9
$CELTYPE
  6
Continuous
  9
$CECOLOR
 62
   256
  9
$CELTSCALE
 40
1.0
  9
$DISPSILH
 70
     0
  9
$DIMSCALE
 40
1.0
  9
$DIMASZ
 40
31.75
  9
$DIMEXO
 40
0.0
  9
$DIMDLI
 40
6.99999999999994
  9
$DIMRND
 40
0.0
  9
$DIMDLE
 40
0.0
  9
$DIMEXE
 40
19.9999999999962
  9
$DIMTP
 40
0.0
  9
$DIMTM
 40
0.0
  9
$DIMTXT
 40
24.4326171875
  9
$DIMCEN
 40
0.0
  9
$DIMTSZ
 40
0.0
  9
$DIMTOL
 70
     0
  9
$DIMLIM
 70
     0
  9
$DIMTIH
 70
     0
  9
$DIMTOH
 70
     0
  9
$DIMSE1
 70
     0
  9
$DIMSE2
 70
     0
  9
$DIMTAD
 70
     1
  9
$DIMZIN
 70
    11
  9
$DIMBLK
  1
VW_FILLEDARROW
  9
$DIMASO
 70
     1
  9
$DIMSHO
 70
     1
  9
$DIMPOST
  1
<>
  9
$DIMAPOST
  1
[]
  9
$DIMALT
 70
     0
  9
$DIMALTD
 70
     1
  9
$DIMALTF
 40
1.0
  9
$DIMLFAC
 40
1.0
  9
$DIMTOFL
 70
     0
  9
$DIMTVP
 40
0.0
  9
$DIMTIX
 70
     1
  9
$DIMSOXD
 70
     0
  9
$DIMSAH
 70
     0
  9
$DIMBLK1
  1

  9
$DIMBLK2
  1

  9
$DIMSTYLE
  2
JIS
  9
$DIMCLRD
 70
     0
  9
$DIMCLRE
 70
     0
  9
$DIMCLRT
 70
     0
  9
$DIMTFAC
 40
1.0
  9
$DIMGAP
 40
1.00000000000108
  9
$DIMJUST
 70
     0
  9
$DIMSD1
 70
     0
  9
$DIMSD2
 70
     0
  9
$DIMTOLJ
 70
     1
  9
$DIMTZIN
 70
    11
  9
$DIMALTZ
 70
    11
  9
$DIMALTTZ
 70
    11
  9
$DIMUPT
 70
     0
  9
$DIMDEC
 70
     1
  9
$DIMTDEC
 70
     1
  9
$DIMALTU
 70
     2
  9
$DIMALTTD
 70
     2
  9
$DIMTXSTY
  7
ＭＳ ゴシック
  9
$DIMAUNIT
 70
     0
  9
$DIMADEC
 70
     2
  9
$DIMALTRND
 40
0.0
  9
$DIMAZIN
 70
     0
  9
$DIMDSEP
 70
    46
  9
$DIMATFIT
 70
     0
  9
$DIMFRAC
 70
     2
  9
$DIMLDRBLK
  1

  9
$DIMLUNIT
 70
     2
  9
$DIMLWD
 70
    -2
  9
$DIMLWE
 70
    -2
  9
$DIMTMOVE
 70
     0
  9
$DIMFXL
 40
1.0
  9
$DIMFXLON
 70
     0
  9
$DIMJOGANG
 40
0.7853981633974483
  9
$DIMTFILL
 70
     0
  9
$DIMTFILLCLR
 70
     0
  9
$DIMARCSYM
 70
     0
  9
$DIMLTYPE
  6

  9
$DIMLTEX1
  6

  9
$DIMLTEX2
  6

  9
$LUNITS
 70
     2
  9
$LUPREC
 70
     4
  9
$SKETCHINC
 40
0.1
  9
$FILLETRAD
 40
0.0
  9
$AUNITS
 70
     0
  9
$AUPREC
 70
     0
  9
$MENU
  1
acad
  9
$ELEVATION
 40
0.0
  9
$PELEVATION
 40
0.0
  9
$THICKNESS
 40
0.0
  9
$LIMCHECK
 70
     0
  9
$CHAMFERA
 40
0.0
  9
$CHAMFERB
 40
0.0
  9
$CHAMFERC
 40
0.0
  9
$CHAMFERD
 40
0.0
  9
$SKPOLY
 70
     0
  9
$TDCREATE
 40
2447893.375
  9
$TDUCREATE
 40
0.0
  9
$TDUPDATE
 40
2457536.619578912
  9
$TDUUPDATE
 40
2457536.244578912
  9
$TDINDWG
 40
0.0252650231
  9
$TDUSRTIMER
 40
2457536.243643623
  9
$USRTIMER
 70
     1
  9
$ANGBASE
 50
0.0
  9
$ANGDIR
 70
     0
  9
$PDMODE
 70
     1
  9
$PDSIZE
 40
-2.0
  9
$PLINEWID
 40
0.0
  9
$SPLFRAME
 70
     0
  9
$SPLINETYPE
 70
     6
  9
$SPLINESEGS
 70
     8
  9
$HANDSEED
  5
AF1
  9
$SURFTAB1
 70
     6
  9
$SURFTAB2
 70
     6
  9
$SURFTYPE
 70
     6
  9
$SURFU
 70
     6
  9
$SURFV
 70
     6
  9
$UCSBASE
  2

  9
$UCSNAME
  2

  9
$UCSORG
 10
0.0
 20
0.0
 30
0.0
  9
$UCSXDIR
 10
1.0
 20
0.0
 30
0.0
  9
$UCSYDIR
 10
0.0
 20
1.0
 30
0.0
  9
$UCSORTHOREF
  2

  9
$UCSORTHOVIEW
 70
     0
  9
$UCSORGTOP
 10
0.0
 20
0.0
 30
0.0
  9
$UCSORGBOTTOM
 10
0.0
 20
0.0
 30
0.0
  9
$UCSORGLEFT
 10
0.0
 20
0.0
 30
0.0
  9
$UCSORGRIGHT
 10
0.0
 20
0.0
 30
0.0
  9
$UCSORGFRONT
 10
0.0
 20
0.0
 30
0.0
  9
$UCSORGBACK
 10
0.0
 20
0.0
 30
0.0
  9
$PUCSBASE
  2

  9
$PUCSNAME
  2

  9
$PUCSORG
 10
0.0
 20
0.0
 30
0.0
  9
$PUCSXDIR
 10
1.0
 20
0.0
 30
0.0
  9
$PUCSYDIR
 10
0.0
 20
1.0
 30
0.0
  9
$PUCSORTHOREF
  2

  9
$PUCSORTHOVIEW
 70
     0
  9
$PUCSORGTOP
 10
0.0
 20
0.0
 30
0.0
  9
$PUCSORGBOTTOM
 10
0.0
 20
0.0
 30
0.0
  9
$PUCSORGLEFT
 10
0.0
 20
0.0
 30
0.0
  9
$PUCSORGRIGHT
 10
0.0
 20
0.0
 30
0.0
  9
$PUCSORGFRONT
 10
0.0
 20
0.0
 30
0.0
  9
$PUCSORGBACK
 10
0.0
 20
0.0
 30
0.0
  9
$USERI1
 70
     0
  9
$USERI2
 70
     0
  9
$USERI3
 70
     0
  9
$USERI4
 70
     0
  9
$USERI5
 70
     0
  9
$USERR1
 40
0.0
  9
$USERR2
 40
0.0
  9
$USERR3
 40
0.0
  9
$USERR4
 40
0.0
  9
$USERR5
 40
0.0
  9
$WORLDVIEW
 70
     1
  9
$SHADEDGE
 70
     3
  9
$SHADEDIF
 70
    70
  9
$TILEMODE
 70
     1
  9
$MAXACTVP
 70
    64
  9
$PINSBASE
 10
0.0
 20
0.0
 30
0.0
  9
$PLIMCHECK
 70
     0
  9
$PEXTMIN
 10
1.000000000000000E+20
 20
1.000000000000000E+20
 30
1.000000000000000E+20
  9
$PEXTMAX
 10
-1.000000000000000E+20
 20
-1.000000000000000E+20
 30
-1.000000000000000E+20
  9
$PLIMMIN
 10
0.0
 20
0.0
  9
$PLIMMAX
 10
0.0
 20
0.0
  9
$UNITMODE
 70
     0
  9
$VISRETAIN
 70
     0
  9
$PLINEGEN
 70
     1
  9
$PSLTSCALE
 70
     0
  9
$TREEDEPTH
 70
  3020
  9
$CMLSTYLE
  2
Standard
  9
$CMLJUST
 70
     0
  9
$CMLSCALE
 40
1.0
  9
$PROXYGRAPHICS
 70
     0
  9
$MEASUREMENT
 70
     1
  9
$CELWEIGHT
370
     0
  9
$ENDCAPS
280
     0
  9
$JOINSTYLE
280
     0
  9
$LWDISPLAY
290
     1
  9
$INSUNITS
 70
     4
  9
$HYPERLINKBASE
  1

  9
$STYLESHEET
  1

  9
$XEDIT
290
     1
  9
$CEPSNTYPE
380
     0
  9
$PSTYLEMODE
290
     1
  9
$FINGERPRINTGUID
  2

  9
$VERSIONGUID
  2

  9
$EXTNAMES
290
     1
  9
$PSVPSCALE
 40
0.0
  9
$OLESTARTUP
290
     0
  9
$SORTENTS
280
   127
  9
$INDEXCTL
280
     0
  9
$HIDETEXT
280
     1
  9
$XCLIPFRAME
290
     0
  9
$HALOGAP
280
     0
  9
$OBSCOLOR
 70
   257
  9
$OBSLTYPE
280
     0
  9
$INTERSECTIONDISPLAY
280
     0
  9
$INTERSECTIONCOLOR
 70
   257
  9
$DIMASSOC
280
     2
  9
$PROJECTNAME
  1

  9
$CAMERADISPLAY
290
     0
  9
$LENSLENGTH
 40
50.0
  9
$CAMERAHEIGHT
 40
0.0
  9
$STEPSPERSEC
 40
2.0
  9
$STEPSIZE
 40
6.0
  9
$3DDWFPREC
 40
2.0
  9
$PSOLWIDTH
 40
0.25
  9
$PSOLHEIGHT
 40
4.0
  9
$LOFTANG1
 40
1.570796326794897
  9
$LOFTANG2
 40
1.570796326794897
  9
$LOFTMAG1
 40
0.0
  9
$LOFTMAG2
 40
0.0
  9
$LOFTPARAM
 70
     7
  9
$LOFTNORMALS
280
     1
  9
$LATITUDE
 40
37.795
  9
$LONGITUDE
 40
-122.394
  9
$NORTHDIRECTION
 40
0.0
  9
$TIMEZONE
 70
 -8000
  9
$LIGHTGLYPHDISPLAY
280
     1
  9
$TILEMODELIGHTSYNCH
280
     1
  9
$SOLIDHIST
280
     1
  9
$SHOWHIST
280
     1
  9
$DWFFRAME
280
     2
  9
$DGNFRAME
280
     2
  9
$REALWORLDSCALE
290
     1
  9
$INTERFERECOLOR
 62
   256
  9
$CSHADOW
280
     0
  9
$SHADOWPLANELOCATION
 40
0.0
  0
ENDSEC
  0
SECTION
  2
CLASSES
  0
CLASS
  1
LWPOLYLINE
  2
AcDbPolyline
  3
ObjectDBX Classes
 90
        0
 91
        1
280
     0
281
     1
  0
CLASS
  1
IMAGE
  2
AcDbRasterImage
  3
ISM
 90
      127
 91
        5
280
     0
281
     1
  0
CLASS
  1
OLE2FRAME
  2
AcDbOle2Frame
  3
ObjectDBX Classes
 90
        0
 91
        1
280
     0
281
     1
  0
CLASS
  1
HATCH
  2
AcDbHatch
  3
ObjectDBX Classes
 90
        0
 91
        1
280
     0
281
     1
  0
CLASS
  1
DICTIONARYVAR
  2
AcDbDictionaryVar
  3
ObjectDBX Classes
 90
        0
 91
        4
280
     0
281
     0
  0
CLASS
  1
RASTERVARIABLES
  2
AcDbRasterVariables
  3
ISM
 90
        0
 91
        5
280
     0
281
     0
  0
CLASS
  1
IMAGEDEF
  2
AcDbRasterImageDef
  3
ISM
 90
        0
 91
        4
280
     0
281
     0
  0
CLASS
  1
IMAGEDEF_REACTOR
  2
AcDbRasterImageDefReactor
  3
ISM
 90
        1
 91
        4
280
     0
281
     0
  0
CLASS
  1
IDBUFFER
  2
AcDbIdBuffer
  3
ObjectDBX Classes
 90
        0
 91
        4
280
     0
281
     0
  0
CLASS
  1
SPATIAL_FILTER
  2
AcDbSpatialFilter
  3
ObjectDBX Classes
 90
        0
 91
        4
280
     0
281
     0
  0
CLASS
  1
XRECORD
  2
AcDbXrecord
  3
ObjectDBX Classes
 90
        0
 91
        1
280
     0
281
     0
  0
CLASS
  1
SORTENTSTABLE
  2
AcDbSortentsTable
  3
ObjectDBX Classes
 90
        0
 91
        4
280
     0
281
     0
  0
CLASS
  1
LAYER_INDEX
  2
AcDbLayerIndex
  3
ObjectDBX Classes
 90
        0
 91
        4
280
     0
281
     0
  0
CLASS
  1
SPATIAL_INDEX
  2
AcDbSpatialIndex
  3
AutoCAD 2000
 90
        0
 91
        4
280
     0
281
     0
  0
CLASS
  1
OBJECT_PTR
  2
CAseDLPNTableRecord
  3
ASE-LPNTableRecord
 90
        1
 91
        4
280
     0
281
     0
  0
CLASS
  1
LAYOUT
  2
AcDbLayout
  3
ObjectDBX Classes
 90
        0
 91
        1
280
     0
281
     0
  0
CLASS
  1
PLOTSETTINGS
  2
AcDbPlotSettings
  3
ObjectDBX Classes
 90
        0
 91
        4
280
     0
281
     0
  0
CLASS
  1
ACDBDICTIONARYWDFLT
  2
AcDbDictionaryWithDefault
  3
ObjectDBX Classes
 90
        0
 91
        5
280
     0
281
     0
  0
CLASS
  1
ACDBPLACEHOLDER
  2
AcDbPlaceHolder
  3
ObjectDBX Classes
 90
        0
 91
        1
280
     0
281
     0
  0
CLASS
  1
SCALE
  2
AcDbScale
  3
ObjectDBX Classes
 90
     1153
 91
        5
280
     0
281
     0
  0
CLASS
  1
VISUALSTYLE
  2
AcDbVisualStyle
  3
ObjectDBX Classes
 90
     4095
 91
        5
280
     0
281
     0
  0
CLASS
  1
MATERIAL
  2
AcDbMaterial
  3
ObjectDBX Classes
 90
     1153
 91
        5
280
     0
281
     0
  0
CLASS
  1
TABLESTYLE
  2
AcDbTableStyle
  3
ObjectDBX Classes
 90
     4095
 91
        5
280
     0
281
     0
  0
CLASS
  1
SUN
  2
AcDbSun
  3
SCENEOE
 90
     1153
 91
        5
280
     0
281
     0
  0
CLASS
  1
CELLSTYLEMAP
  2
AcDbCellStyleMap
  3
ObjectDBX Classes
 90
     1152
 91
        4
280
     0
281
     0
  0
CLASS
  1
DIMASSOC
  2
AcDbDimAssoc
  3
"AcDbDimAssoc|Product Desc:     AcDim ARX App For Dimension|Company:          Autodesk, Inc.|WEB Address:      www.autodesk.com"
 90
        0
 91
        4
280
     0
281
     0
  0
ENDSEC
  0
SECTION
  2
TABLES
  0
TABLE
  2
VPORT
  5
7
330
0
100
AcDbSymbolTable
 70
     1
  0
VPORT
  5
15
330
7
100
AcDbSymbolTableRecord
100
AcDbViewportTableRecord
  2
*ACTIVE
 70
     0
 10
0.0
 20
0.0
 11
1.0
 21
1.0
 12
3611.750310632026
 22
1445.913384409003
 13
0.0
 23
0.0
 14
1.0
 24
1.0
 15
0.0
 25
0.0
 16
0.0
 26
0.0
 36
1.0
 17
0.0
 27
0.0
 37
0.0
 40
5916.796874999995
 41
2.391379310344828
 42
50.0
 43
0.0
 44
0.0
 50
0.0
 51
0.0
 71
    16
 72
  2000
 73
     1
 74
     1
 75
     0
 76
     0
 77
     0
 78
     0
281
     0
 65
     0
110
0.0
120
0.0
130
0.0
111
1.0
121
0.0
131
0.0
112
0.0
122
1.0
132
0.0
 79
     0
146
0.0
348
25F
 60
     3
 61
     5
292
     1
282
     1
141
0.0
142
0.0
 63
   250
361
27A
  0
ENDTAB
  0
TABLE
  2
LTYPE
  5
4
330
0
100
AcDbSymbolTable
 70
     2
  0
LTYPE
  5
11
330
4
100
AcDbSymbolTableRecord
100
AcDbLinetypeTableRecord
  2
ByBlock
 70
     0
  3

 72
    65
 73
     0
 40
0.0
  0
LTYPE
  5
12
330
4
100
AcDbSymbolTableRecord
100
AcDbLinetypeTableRecord
  2
ByLayer
 70
     0
  3

 72
    65
 73
     0
 40
0.0
  0
LTYPE
  5
13
330
4
100
AcDbSymbolTableRecord
100
AcDbLinetypeTableRecord
  2
Continuous
 70
     0
  3
Solid line
 72
    65
 73
     0
 40
0.0
  0
LTYPE
  5
56
330
4
100
AcDbSymbolTableRecord
100
AcDbLinetypeTableRecord
  2
STYLE_25
 70
     0
  3

 72
    65
 73
     2
 40
1.574803149606299
 49
0.7874015748031495
 74
     0
 49
-0.7874015748031495
 74
     0
  0
ENDTAB
  0
TABLE
  2
LAYER
  5
2
102
{ACAD_XDICTIONARY
360
27C
102
}
330
0
100
AcDbSymbolTable
 70
     5
  0
LAYER
  5
14
330
2
100
AcDbSymbolTableRecord
100
AcDbLayerTableRecord
  2
0
 70
     0
 62
     7
  6
Continuous
370
    -3
390
1D
347
276
  0
LAYER
  5
57
330
2
100
AcDbSymbolTableRecord
100
AcDbLayerTableRecord
  2
Defpoints
 70
     0
 62
     7
  6
Continuous
290
     0
370
    -3
390
1D
347
276
  0
LAYER
  5
59
330
2
100
AcDbSymbolTableRecord
100
AcDbLayerTableRecord
  2
template
 70
     0
 62
     7
  6
Continuous
370
    -3
390
1D
347
276
  0
LAYER
  5
27F
330
2
100
AcDbSymbolTableRecord
100
AcDbLayerTableRecord
  2
MODEL
 70
     0
 62
     7
  6
Continuous
370
    20
390
1D
347
276
1001
AcAecLayerStandard
1000

1000

  0
LAYER
  5
281
330
2
100
AcDbSymbolTableRecord
100
AcDbLayerTableRecord
  2
DIM
 70
     0
 62
     7
  6
Continuous
370
    18
390
1D
347
276
1001
AcAecLayerStandard
1000

1000

  0
ENDTAB
  0
TABLE
  2
STYLE
  5
3
330
0
100
AcDbSymbolTable
 70
     2
  0
STYLE
  5
17
330
3
100
AcDbSymbolTableRecord
100
AcDbTextStyleTableRecord
  2
Standard
 70
     0
 40
0.0
 41
1.0
 50
0.0
 71
     0
 42
0.0
  3
txt
  4
BIGFONT.SHX
  0
STYLE
  5
3D
330
3
100
AcDbSymbolTableRecord
100
AcDbTextStyleTableRecord
  2
ＭＳ ゴシック
 70
     0
 40
0.0
 41
1.0
 50
0.0
 71
     0
 42
0.0
  3
msgothic.ttc
  4
ＭＳ ゴシック
1001
ACAD
1000
ＭＳ ゴシック
1071
        0
  0
ENDTAB
  0
TABLE
  2
VIEW
  5
5
330
0
100
AcDbSymbolTable
 70
     0
  0
ENDTAB
  0
TABLE
  2
UCS
  5
6
330
0
100
AcDbSymbolTable
 70
     0
  0
ENDTAB
  0
TABLE
  2
APPID
  5
8
330
0
100
AcDbSymbolTable
 70
     3
  0
APPID
  5
16
330
8
100
AcDbSymbolTableRecord
100
AcDbRegAppTableRecord
  2
ACAD
 70
     0
  0
APPID
  5
280
330
8
100
AcDbSymbolTableRecord
100
AcDbRegAppTableRecord
  2
AcAecLayerStandard
 70
     0
  0
APPID
  5
AD6
330
8
100
AcDbSymbolTableRecord
100
AcDbRegAppTableRecord
  2
ACAD_DSTYLE_DIMRADIAL_EXTENSION
 70
     0
  0
ENDTAB
  0
TABLE
  2
DIMSTYLE
  5
9
330
0
100
AcDbSymbolTable
 70
     3
100
AcDbDimStyleTable
  0
DIMSTYLE
105
18
330
9
100
AcDbSymbolTableRecord
100
AcDbDimStyleTableRecord
  2
Standard
 70
     0
178
     0
340
17
  0
DIMSTYLE
105
64
330
9
100
AcDbSymbolTableRecord
100
AcDbDimStyleTableRecord
  2
tform線あり
 70
     0
  3
<>
  4
[]
 41
3.999755859375
 42
25.0
 43
0.9999999999999999
 44
0.0
 73
     0
 74
     0
 77
     1
 78
    11
140
24.4326171875
141
0.0
143
1.0
147
0.4999999999999999
171
     1
174
     1
178
     0
179
     2
271
     1
272
     1
276
     2
284
    11
285
    11
286
    11
289
     0
340
3D
341
5C
342
5C
  0
DIMSTYLE
105
69
330
9
100
AcDbSymbolTableRecord
100
AcDbDimStyleTableRecord
  2
JIS
 70
     0
  3
<>
  4
[]
 41
31.75
 42
0.0
 43
6.99999999999994
 44
19.9999999999962
 73
     0
 74
     0
 77
     1
 78
    11
140
24.4326171875
141
0.0
143
1.0
147
1.00000000000108
171
     1
174
     1
178
     0
179
     2
271
     1
272
     1
276
     2
284
    11
285
    11
286
    11
289
     0
340
3D
341
65
342
65
  0
ENDTAB
  0
TABLE
  2
BLOCK_RECORD
  5
1
330
0
100
AcDbSymbolTable
 70
    29
  0
BLOCK_RECORD
  5
A
330
1
100
AcDbSymbolTableRecord
100
AcDbBlockTableRecord
  2
*MODEL_SPACE
340
20
 70
     0
280
     1
281
     0
  0
BLOCK_RECORD
  5
B
330
1
100
AcDbSymbolTableRecord
100
AcDbBlockTableRecord
  2
*PAPER_SPACE
340
21
 70
     0
280
     1
281
     0
  0
BLOCK_RECORD
  5
5C
330
1
100
AcDbSymbolTableRecord
100
AcDbBlockTableRecord
  2
_DOT
340
0
102
{BLKREFS
331
6E
331
6F
331
7B
331
7C
331
89
331
8A
331
9D
331
9E
331
AA
331
AB
331
B7
331
B8
331
C4
331
C5
331
D1
331
D2
331
DE
331
DF
331
EB
331
EC
331
F8
331
F9
331
105
331
106
331
112
331
113
331
11F
331
120
331
12C
331
12D
331
139
331
13A
331
146
331
147
331
153
331
154
331
16E
331
16F
331
17B
331
17C
331
188
331
189
331
28E
331
296
331
297
331
2A3
331
2A4
102
}
 70
     0
280
     1
281
     0
  0
BLOCK_RECORD
  5
65
330
1
100
AcDbSymbolTableRecord
100
AcDbBlockTableRecord
  2
VW_FILLEDARROW
340
0
102
{BLKREFS
331
ADF
102
}
 70
     0
280
     1
281
     0
  0
BLOCK_RECORD
  5
23
330
1
100
AcDbSymbolTableRecord
100
AcDbBlockTableRecord
  2
*D2
340
0
 70
     0
280
     1
281
     0
  0
BLOCK_RECORD
  5
24
330
1
100
AcDbSymbolTableRecord
100
AcDbBlockTableRecord
  2
*D3
340
0
 70
     0
280
     1
281
     0
  0
BLOCK_RECORD
  5
25
330
1
100
AcDbSymbolTableRecord
100
AcDbBlockTableRecord
  2
*D4
340
0
 70
     0
280
     1
281
     0
  0
BLOCK_RECORD
  5
26
330
1
100
AcDbSymbolTableRecord
100
AcDbBlockTableRecord
  2
グループ
340
0
102
{BLKREFS
331
1C5
102
}
 70
     0
280
     1
281
     0
  0
BLOCK_RECORD
  5
27
330
1
100
AcDbSymbolTableRecord
100
AcDbBlockTableRecord
  2
*D6
340
0
 70
     0
280
     1
281
     0
  0
BLOCK_RECORD
  5
28
330
1
100
AcDbSymbolTableRecord
100
AcDbBlockTableRecord
  2
*D7
340
0
 70
     0
280
     1
281
     0
  0
BLOCK_RECORD
  5
29
330
1
100
AcDbSymbolTableRecord
100
AcDbBlockTableRecord
  2
*D8
340
0
 70
     0
280
     1
281
     0
  0
BLOCK_RECORD
  5
2A
330
1
100
AcDbSymbolTableRecord
100
AcDbBlockTableRecord
  2
*D9
340
0
 70
     0
280
     1
281
     0
  0
BLOCK_RECORD
  5
2B
330
1
100
AcDbSymbolTableRecord
100
AcDbBlockTableRecord
  2
*D10
340
0
 70
     0
280
     1
281
     0
  0
BLOCK_RECORD
  5
2C
330
1
100
AcDbSymbolTableRecord
100
AcDbBlockTableRecord
  2
*D11
340
0
 70
     0
280
     1
281
     0
  0
BLOCK_RECORD
  5
2D
330
1
100
AcDbSymbolTableRecord
100
AcDbBlockTableRecord
  2
*D12
340
0
 70
     0
280
     1
281
     0
  0
BLOCK_RECORD
  5
2E
330
1
100
AcDbSymbolTableRecord
100
AcDbBlockTableRecord
  2
*D13
340
0
 70
     0
280
     1
281
     0
  0
BLOCK_RECORD
  5
2F
330
1
100
AcDbSymbolTableRecord
100
AcDbBlockTableRecord
  2
*D14
340
0
 70
     0
280
     1
281
     0
  0
BLOCK_RECORD
  5
30
330
1
100
AcDbSymbolTableRecord
100
AcDbBlockTableRecord
  2
*D15
340
0
 70
     0
280
     1
281
     0
  0
BLOCK_RECORD
  5
31
330
1
100
AcDbSymbolTableRecord
100
AcDbBlockTableRecord
  2
*D16
340
0
 70
     0
280
     1
281
     0
  0
BLOCK_RECORD
  5
32
330
1
100
AcDbSymbolTableRecord
100
AcDbBlockTableRecord
  2
*D17
340
0
 70
     0
280
     1
281
     0
  0
BLOCK_RECORD
  5
33
330
1
100
AcDbSymbolTableRecord
100
AcDbBlockTableRecord
  2
*D18
340
0
 70
     0
280
     1
281
     0
  0
BLOCK_RECORD
  5
34
330
1
100
AcDbSymbolTableRecord
100
AcDbBlockTableRecord
  2
*D19
340
0
 70
     0
280
     1
281
     0
  0
BLOCK_RECORD
  5
35
330
1
100
AcDbSymbolTableRecord
100
AcDbBlockTableRecord
  2
*D20
340
0
 70
     0
280
     1
281
     0
  0
BLOCK_RECORD
  5
37
330
1
100
AcDbSymbolTableRecord
100
AcDbBlockTableRecord
  2
*D21
340
0
 70
     0
280
     1
281
     0
  0
BLOCK_RECORD
  5
38
330
1
100
AcDbSymbolTableRecord
100
AcDbBlockTableRecord
  2
*D22
340
0
 70
     0
280
     1
281
     0
  0
BLOCK_RECORD
  5
39
330
1
100
AcDbSymbolTableRecord
100
AcDbBlockTableRecord
  2
*D23
340
0
 70
     0
280
     1
281
     0
  0
BLOCK_RECORD
  5
3B
330
1
100
AcDbSymbolTableRecord
100
AcDbBlockTableRecord
  2
グループ-1
340
0
102
{BLKREFS
331
225
102
}
 70
     0
280
     1
281
     0
  0
BLOCK_RECORD
  5
288
330
1
100
AcDbSymbolTableRecord
100
AcDbBlockTableRecord
  2
*D25
340
0
 70
     0
280
     1
281
     0
  0
BLOCK_RECORD
  5
290
330
1
100
AcDbSymbolTableRecord
100
AcDbBlockTableRecord
  2
*D26
340
0
 70
     0
280
     1
281
     0
  0
BLOCK_RECORD
  5
29D
330
1
100
AcDbSymbolTableRecord
100
AcDbBlockTableRecord
  2
*D27
340
0
 70
     0
280
     1
281
     0
  0
BLOCK_RECORD
  5
ADA
330
1
100
AcDbSymbolTableRecord
100
AcDbBlockTableRecord
  2
*D28
340
0
 70
     0
280
     1
281
     0
  0
ENDTAB
  0
ENDSEC
  0
SECTION
  2
BLOCKS
  0
BLOCK
  5
D
330
A
100
AcDbEntity
  8
0
390
1D
100
AcDbBlockBegin
  2
*MODEL_SPACE
 70
     0
 10
0.0
 20
0.0
 30
0.0
  3
*MODEL_SPACE
  1
*MODEL_SPACE
  0
ENDBLK
  5
E
330
A
100
AcDbEntity
  8
0
390
1D
100
AcDbBlockEnd
  0
BLOCK
  5
F
330
B
100
AcDbEntity
 67
     1
  8
0
390
1D
100
AcDbBlockBegin
  2
*PAPER_SPACE
 70
     0
 10
0.0
 20
0.0
 30
0.0
  3
*PAPER_SPACE
  1
*PAPER_SPACE
  0
ENDBLK
  5
10
330
B
100
AcDbEntity
 67
     1
  8
0
390
1D
100
AcDbBlockEnd
  0
BLOCK
  5
5D
330
5C
100
AcDbEntity
  8
0
390
1D
100
AcDbBlockBegin
  2
_DOT
 70
     0
 10
0.0
 20
0.0
 30
0.0
  3
_DOT
  1
_DOT
  0
POLYLINE
  5
5E
330
5C
100
AcDbEntity
  8
0
  6
ByBlock
 62
     0
370
    -2
390
1D
100
AcDb2dPolyline
 66
     1
 10
0.0
 20
0.0
 30
0.0
 70
     1
 40
0.5
 41
0.5
  0
VERTEX
  5
5F
330
5E
100
AcDbEntity
  8
0
  6
ByBlock
 62
     0
370
    -2
390
1D
100
AcDbVertex
100
AcDb2dVertex
 10
-0.25
 20
0.0
 30
0.0
 42
1.0
  0
VERTEX
  5
60
330
5E
100
AcDbEntity
  8
0
  6
ByBlock
 62
     0
370
    -2
390
1D
100
AcDbVertex
100
AcDb2dVertex
 10
0.25
 20
0.0
 30
0.0
 42
1.0
  0
SEQEND
  5
61
330
5E
100
AcDbEntity
  8
0
390
1D
  0
LINE
  5
62
330
5C
100
AcDbEntity
  8
0
  6
ByBlock
 62
     0
370
    -2
390
1D
100
AcDbLine
 10
-0.5
 20
0.0
 30
0.0
 11
-1.0
 21
0.0
 31
0.0
  0
ENDBLK
  5
63
330
5C
100
AcDbEntity
  8
0
390
1D
100
AcDbBlockEnd
  0
BLOCK
  5
66
330
65
100
AcDbEntity
  8
0
  6
ByBlock
 62
     0
370
    -2
390
1D
100
AcDbBlockBegin
  2
VW_FILLEDARROW
 70
     0
 10
0.0
 20
0.0
 30
0.0
  3
VW_FILLEDARROW
  1
VW_FILLEDARROW
  0
SOLID
  5
67
330
65
100
AcDbEntity
  8
0
 62
     0
370
    -2
390
1D
100
AcDbTrace
 10
0.0
 20
0.0
 30
0.0
 11
-0.9921874999999999
 21
-0.2658558393652545
 31
0.0
 12
-0.9921874999999999
 22
0.2658558393652548
 32
0.0
 13
-0.9921874999999999
 23
0.2658558393652548
 33
0.0
  0
ENDBLK
  5
68
330
65
100
AcDbEntity
  8
0
390
1D
100
AcDbBlockEnd
  0
BLOCK
  5
6A
330
23
100
AcDbEntity
  8
0
390
1D
100
AcDbBlockBegin
  2
*D2
 70
     1
 10
0.0
 20
0.0
 30
0.0
  3
*D2
  1
*D2
  0
LINE
  5
6B
330
23
100
AcDbEntity
  8
DIM
  6
Continuous
 62
     0
370
    -2
100
AcDbLine
 10
591.3662750774564
 20
2232.084919357968
 30
0.0
 11
638.8662750774564
 21
2232.084919357968
 31
0.0
  0
LINE
  5
6C
330
23
100
AcDbEntity
  8
DIM
  6
Continuous
 62
     0
370
    -2
100
AcDbLine
 10
591.3662750774564
 20
2457.084919357968
 30
0.0
 11
638.8662750774564
 21
2457.084919357968
 31
0.0
  0
LINE
  5
6D
330
23
100
AcDbEntity
  8
DIM
  6
Continuous
 62
     0
370
    -2
100
AcDbLine
 10
638.8662750774564
 20
2236.084675217343
 30
0.0
 11
638.8662750774564
 21
2453.085163498593
 31
0.0
  0
INSERT
  5
6E
102
{ACAD_REACTORS
330
6F
102
}
330
23
100
AcDbEntity
  8
DIM
 62
     0
370
    -2
100
AcDbBlockReference
  2
_DOT
 10
638.8662750774564
 20
2232.084919357968
 30
0.0
 41
3.999755859375
 42
3.999755859375
 43
3.999755859375
 50
270.0
  0
INSERT
  5
6F
330
23
100
AcDbEntity
  8
DIM
 62
     0
370
    -2
100
AcDbBlockReference
  2
_DOT
 10
638.8662750774564
 20
2457.084919357968
 30
0.0
 41
3.999755859375
 42
3.999755859375
 43
3.999755859375
 50
90.0
  0
MTEXT
  5
70
102
{ACAD_REACTORS
330
71
102
}
330
23
100
AcDbEntity
  8
DIM
  6
Continuous
 62
     0
370
     5
100
AcDbMText
 10
621.6499664837064
 20
2344.584919357968
 30
0.0
 40
24.4326171875
 41
0.0
 46
0.0
 71
     5
 72
     1
  1
\A1;450
  7
ＭＳ ゴシック
 11
0.0
 21
1.0
 31
0.0
 73
     1
 44
1.0
  0
POINT
  5
71
330
23
100
AcDbEntity
  8
Defpoints
 62
     0
100
AcDbPoint
 10
566.3662750774564
 20
2232.084919357968
 30
0.0
  0
POINT
  5
72
330
23
100
AcDbEntity
  8
Defpoints
 62
     0
100
AcDbPoint
 10
566.3662750774564
 20
2457.084919357968
 30
0.0
  0
POINT
  5
73
330
23
100
AcDbEntity
  8
Defpoints
 62
     0
100
AcDbPoint
 10
638.8662750774564
 20
2457.084919357968
 30
0.0
  0
ENDBLK
  5
76
330
23
100
AcDbEntity
  8
0
390
1D
100
AcDbBlockEnd
  0
BLOCK
  5
77
330
24
100
AcDbEntity
  8
0
390
1D
100
AcDbBlockBegin
  2
*D3
 70
     1
 10
0.0
 20
0.0
 30
0.0
  3
*D3
  1
*D3
  0
LINE
  5
78
330
24
100
AcDbEntity
  8
DIM
  6
Continuous
 62
     0
370
    -2
100
AcDbLine
 10
456.3662750774564
 20
2482.084919357968
 30
0.0
 11
456.3662750774564
 21
2531.784919357969
 31
0.0
  0
LINE
  5
79
330
24
100
AcDbEntity
  8
DIM
  6
Continuous
 62
     0
370
    -2
100
AcDbLine
 10
566.3662750774564
 20
2482.084919357968
 30
0.0
 11
566.3662750774564
 21
2531.784919357969
 31
0.0
  0
LINE
  5
7A
330
24
100
AcDbEntity
  8
DIM
  6
Continuous
 62
     0
370
    -2
100
AcDbLine
 10
460.3660309368314
 20
2531.784919357969
 30
0.0
 11
562.3665192180814
 21
2531.784919357969
 31
0.0
  0
INSERT
  5
7B
102
{ACAD_REACTORS
330
7C
102
}
330
24
100
AcDbEntity
  8
DIM
 62
     0
370
    -2
100
AcDbBlockReference
  2
_DOT
 10
456.3662750774564
 20
2531.784919357969
 30
0.0
 41
3.999755859375
 42
3.999755859375
 43
3.999755859375
 50
180.0
  0
INSERT
  5
7C
330
24
100
AcDbEntity
  8
DIM
 62
     0
370
    -2
100
AcDbBlockReference
  2
_DOT
 10
566.3662750774564
 20
2531.784919357969
 30
0.0
 41
3.999755859375
 42
3.999755859375
 43
3.999755859375
  0
MTEXT
  5
7D
102
{ACAD_REACTORS
330
7E
102
}
330
24
100
AcDbEntity
  8
DIM
  6
Continuous
 62
     0
370
     5
100
AcDbMText
 10
511.3662750774564
 20
2549.001227951719
 30
0.0
 40
24.4326171875
 41
0.0
 46
0.0
 71
     5
 72
     1
  1
\A1;220
  7
ＭＳ ゴシック
 73
     1
 44
1.0
  0
POINT
  5
7E
330
24
100
AcDbEntity
  8
Defpoints
 62
     0
100
AcDbPoint
 10
456.3662750774564
 20
2457.084919357968
 30
0.0
  0
POINT
  5
7F
330
24
100
AcDbEntity
  8
Defpoints
 62
     0
100
AcDbPoint
 10
566.3662750774564
 20
2457.084919357968
 30
0.0
  0
POINT
  5
80
330
24
100
AcDbEntity
  8
Defpoints
 62
     0
100
AcDbPoint
 10
566.3662750774564
 20
2531.784919357969
 30
0.0
  0
ENDBLK
  5
83
330
24
100
AcDbEntity
  8
0
390
1D
100
AcDbBlockEnd
  0
BLOCK
  5
84
330
25
100
AcDbEntity
  8
0
390
1D
100
AcDbBlockBegin
  2
*D4
 70
     1
 10
0.0
 20
0.0
 30
0.0
  3
*D4
  1
*D4
  0
LINE
  5
85
330
25
100
AcDbEntity
  8
DIM
  6
Continuous
 62
     0
370
    -2
100
AcDbLine
 10
441.3662750774564
 20
2481.784919357969
 30
0.0
 11
441.3662750774564
 21
2531.784919357969
 31
0.0
  0
LINE
  5
86
330
25
100
AcDbEntity
  8
DIM
  6
Continuous
 62
     0
370
    -2
100
AcDbLine
 10
456.3662750774564
 20
2482.084919357968
 30
0.0
 11
456.3662750774564
 21
2531.784919357969
 31
0.0
  0
LINE
  5
87
330
25
100
AcDbEntity
  8
DIM
  6
Continuous
 62
     0
370
    -2
100
AcDbLine
 10
437.3665192180814
 20
2531.784919357969
 30
0.0
 11
433.3667633587064
 21
2531.784919357969
 31
0.0
  0
LINE
  5
88
102
{ACAD_REACTORS
330
89
102
}
330
25
100
AcDbEntity
  8
DIM
  6
Continuous
 62
     0
370
    -2
100
AcDbLine
 10
460.3660309368314
 20
2531.784919357969
 30
0.0
 11
464.3657867962064
 21
2531.784919357969
 31
0.0
  0
INSERT
  5
89
330
25
100
AcDbEntity
  8
DIM
 62
     0
370
    -2
100
AcDbBlockReference
  2
_DOT
 10
441.3662750774564
 20
2531.784919357969
 30
0.0
 41
3.999755859375
 42
3.999755859375
 43
3.999755859375
  0
INSERT
  5
8A
102
{ACAD_REACTORS
330
8B
102
}
330
25
100
AcDbEntity
  8
DIM
 62
     0
370
    -2
100
AcDbBlockReference
  2
_DOT
 10
456.3662750774564
 20
2531.784919357969
 30
0.0
 41
3.999755859375
 42
3.999755859375
 43
3.999755859375
 50
180.0
  0
MTEXT
  5
8B
330
25
100
AcDbEntity
  8
DIM
  6
Continuous
 62
     0
370
     5
100
AcDbMText
 10
448.8662750774564
 20
2549.001227951719
 30
0.0
 40
24.4326171875
 41
0.0
 46
0.0
 71
     5
 72
     1
  1
\A1;30
  7
ＭＳ ゴシック
 73
     1
 44
1.0
  0
POINT
  5
8C
330
25
100
AcDbEntity
  8
Defpoints
 62
     0
100
AcDbPoint
 10
441.3662750774564
 20
2456.784919357969
 30
0.0
  0
POINT
  5
8D
330
25
100
AcDbEntity
  8
Defpoints
 62
     0
100
AcDbPoint
 10
456.3662750774564
 20
2457.084919357968
 30
0.0
  0
POINT
  5
8E
330
25
100
AcDbEntity
  8
Defpoints
 62
     0
100
AcDbPoint
 10
456.3662750774564
 20
2531.784919357969
 30
0.0
  0
ENDBLK
  5
90
330
25
100
AcDbEntity
  8
0
390
1D
100
AcDbBlockEnd
  0
BLOCK
  5
91
330
26
100
AcDbEntity
  8
template
390
1D
100
AcDbBlockBegin
  2
グループ
 70
     0
 10
0.0
 20
0.0
 30
0.0
  3
グループ
  1
グループ
  0
LWPOLYLINE
  5
92
330
26
100
AcDbEntity
  8
0
  6
Continuous
 62
     7
370
    15
390
1D
100
AcDbPolyline
 90
        8
 70
   129
 43
0.0
 10
887.4119713447415
 20
-1406.378219287575
 10
887.4119713447415
 20
-1412.375607981151
 10
877.9107744267382
 20
-1412.375607981151
 10
877.9107744267382
 20
-1436.82657124466
 10
869.5553971649554
 20
-1436.82657124466
 10
869.5553971649554
 20
-1412.375607981151
 10
860.2224402186459
 20
-1412.375607981151
 10
860.2224402186459
 20
-1406.378219287575
  0
LWPOLYLINE
  5
93
330
26
100
AcDbEntity
  8
0
  6
Continuous
 62
     7
370
    15
390
1D
100
AcDbPolyline
 90
      101
 70
   128
 43
0.0
 10
900.1402631752984
 20
-1407.106467780511
 10
900.1556132040841
 20
-1407.102107023826
 42
-0.0222221607814993
 10
900.4456177807544
 20
-1407.033482558581
 10
900.4614115447437
 20
-1407.030479135485
 42
-0.0146883565590017
 10
900.7241142499722
 20
-1406.988475948535
 42
-0.0127458844182008
 10
900.9887532171318
 20
-1406.960938980462
 10
901.0512082954381
 20
-1406.956045557874
 42
-0.0198099018569732
 10
901.4420574049097
 20
-1406.940960400478
 10
901.4938688743587
 20
-1406.941014176143
 42
-0.0147617382760203
 10
901.9884923353355
 20
-1406.956134201388
 10
902.0611837902101
 20
-1406.960506808276
 42
-0.0162624549002366
 10
902.4513374196724
 20
-1406.996739683548
 10
902.5728698109377
 20
-1407.012026242545
 42
-0.0080020874663873
 10
902.7184488420232
 20
-1407.032709089813
 10
902.7567683126086
 20
-1407.038780367622
 42
-0.0053821929676628
 10
902.825252417933
 20
-1407.050387891446
 10
902.0988467187344
 20
-1409.231316347159
 42
0.0108667757398438
 10
902.0315296486018
 20
-1409.218129231939
 10
901.9940616254141
 20
-1409.211631489345
 42
0.0170663203305977
 10
901.8508448384986
 20
-1409.191801892053
 10
901.7829695058156
 20
-1409.184754721466
 42
0.0220162375275681
 10
901.50259009796
 20
-1409.168072360696
 10
901.4247345309102
 20
-1409.166872993429
 42
0.0282606915781637
 10
901.0890982073303
 20
-1409.180676270398
 10
901.0451849335556
 20
-1409.184976260402
 42
0.0169677213691955
 10
900.799260438599
 20
-1409.217513309954
 42
0.0190576269866144
 10
900.5563524760138
 20
-1409.267660182061
 10
900.5500932879081
 20
-1409.26920315617
 42
0.0213685642841457
 10
900.2997088034311
 20
-1409.342403441274
 10
900.2942189085142
 20
-1409.344266437333
 42
0.0237595297598472
 10
900.0407240236171
 20
-1409.443950959228
 10
900.0356219495858
 20
-1409.446242734707
 42
0.0261857468814549
 10
899.7834511733549
 20
-1409.575779072082
 10
899.7730249842701
 20
-1409.581844546549
 42
0.0272553062026289
 10
899.5365952090303
 20
-1409.737216752494
 10
899.5018321955223
 20
-1409.762877900585
 42
0.0325996893168763
 10
899.3516768518693
 20
-1409.889625773558
 10
899.327967422747
 20
-1409.91244380207
 42
0.0138050960631041
 10
899.2360842665362
 20
-1410.005893463622
 42
0.0125280103799894
 10
899.1492417337078
 20
-1410.104056790216
 10
899.1255612887943
 20
-1410.13221528841
 42
0.0205218024747642
 10
899.0004612132769
 20
-1410.294008602644
 10
898.9779948727935
 20
-1410.325668332466
 42
0.0163110129577936
 10
898.8222844935448
 20
-1410.560998767531
 10
898.8195605974912
 20
-1410.565422529521
 42
0.0131897341897367
 10
898.6727600765848
 20
-1410.818554621887
 10
898.6710599812188
 20
-1410.821672861021
 42
0.0107895576065128
 10
898.533283279005
 20
-1411.087888070663
 10
898.532550389483
 20
-1411.089382303303
 42
0.009137150720985
 10
898.4040704408357
 20
-1411.363907501058
 10
898.3743248094243
 20
-1411.430614008221
 42
0.0135418326350545
 10
898.2026108703518
 20
-1411.845551793492
 10
898.1690060619169
 20
-1411.933417935775
 42
0.0092834542412509
 10
897.9977770019975
 20
-1412.407316434077
 10
897.9721598742743
 20
-1412.482557503886
 42
0.0054261043584715
 10
897.8645217259868
 20
-1412.810321476935
 10
897.8469957398046
 20
-1412.865709639181
 42
0.000822509082098
 10
897.7783256879794
 20
-1413.083978397315
 10
896.793636556046
 20
-1416.108869690571
 10
900.0262603961198
 20
-1416.108869690571
 10
899.5220679662664
 20
-1418.013347988924
 10
896.2660116842831
 20
-1418.013347988924
 10
890.4368626519292
 20
-1436.826571054929
 10
888.6117650416189
 20
-1436.826571054929
 10
894.4464430771199
 20
-1418.013347988924
 10
892.0413267080795
 20
-1418.013347988924
 10
892.545519137933
 20
-1416.108869690571
 10
894.974067948883
 20
-1416.108869690571
 10
895.8342228670716
 20
-1413.472456689872
 42
-0.0005863560646002
 10
895.870957545219
 20
-1413.355630269758
 10
895.9470453789355
 20
-1413.114637970195
 42
-0.0087522378928667
 10
896.1465135223923
 20
-1412.519361883049
 10
896.2387777978047
 20
-1412.259221714539
 42
-0.0077400953831038
 10
896.496711456937
 20
-1411.566217036987
 10
896.5124764285167
 20
-1411.525786153599
 42
-0.008236994632933
 10
896.7595608991278
 20
-1410.921707087406
 42
-0.0085725238363792
 10
897.026806995127
 20
-1410.326281048126
 10
897.1284365961404
 20
-1410.109859946128
 42
-0.0168109410595854
 10
897.4153810248681
 20
-1409.548652420029
 10
897.5412244153325
 20
-1409.321688387022
 42
-0.0007817726865838
 10
897.5955087653838
 20
-1409.224144142001
 10
897.5956370713919
 20
-1409.22391443328
 42
-0.0036626142165214
 10
897.6505249354223
 20
-1409.127316553296
 42
-0.0080221150677482
 10
897.7076491908285
 20
-1409.032037318544
 10
897.7383491421901
 20
-1408.982646369421
 42
-0.0202139325567561
 10
897.8660048819991
 20
-1408.794664768736
 10
897.9200723471845
 20
-1408.721585904498
 42
-0.024932379180439
 10
898.1792351409003
 20
-1408.405540662348
 10
898.2033749550307
 20
-1408.378926389431
 42
-0.0242132121532335
 10
898.5430556965774
 20
-1408.039042903223
 10
898.5909672693206
 20
-1407.995533767044
 42
-0.0251017527863423
 10
898.874948969964
 20
-1407.762541021277
 10
898.8763944467773
 20
-1407.761471763698
 42
-0.0130868069038581
 10
899.174655096735
 20
-1407.552691295155
 10
899.1762169158749
 20
-1407.551657854882
 42
-0.0290329526389542
 10
899.487328057271
 20
-1407.370832353251
 10
899.5171736192597
 20
-1407.35572997041
 42
-0.0160250190048768
 10
899.7830780330219
 20
-1407.231713860198
 42
-0.0267600374782197
 10
900.0583541104893
 20
-1407.13096553965
 10
900.0850900300114
 20
-1407.122772980824
 42
-0.0049981587650893
 10
900.1402631752984
 20
-1407.106467780511
 42
-0.0049981587650893
  0
LWPOLYLINE
  5
94
330
26
100
AcDbEntity
  8
0
  6
Continuous
 62
     7
370
    15
390
1D
100
AcDbPolyline
 90
      118
 70
   128
 43
0.0
 10
919.9546307397453
 20
-1416.182853018398
 10
921.8297526642448
 20
-1416.182853018398
 10
920.9917137586449
 20
-1418.864419544799
 42
-0.0010587229238425
 10
921.0231695742909
 20
-1418.827515011356
 10
921.0813636648488
 20
-1418.759532755267
 42
-0.0071874740403631
 10
921.2317388829575
 20
-1418.588892063226
 10
921.3734616562091
 20
-1418.432655921925
 42
-0.0148118053511228
 10
921.823590948924
 20
-1417.96504207591
 10
921.9108132838172
 20
-1417.879644755065
 42
-0.0086273358695582
 10
922.2463620848321
 20
-1417.562269121042
 10
922.2901958010667
 20
-1417.522219476701
 42
-0.0103138323111344
 10
922.5482195032914
 20
-1417.296056339371
 10
922.5939939096137
 20
-1417.257574292114
 42
-0.0060206748566648
 10
922.7668419737307
 20
-1417.115779641356
 10
922.7688731046034
 20
-1417.114153935736
 42
-0.0067069027289878
 10
922.9411659192792
 20
-1416.98000330193
 10
922.9437146852058
 20
-1416.978073132054
 42
-0.0076184352052549
 10
923.1146199510765
 20
-1416.852698256811
 42
-0.0089652861665633
 10
923.289580913818
 20
-1416.733064996474
 10
923.3259326339543
 20
-1416.709153782997
 42
-0.0156916245944047
 10
923.5218921311161
 20
-1416.588891296521
 42
-0.0023299011061414
 10
923.7221541751138
 20
-1416.47571335697
 10
923.7375383074758
 20
-1416.467113361916
 42
-0.0107669341488205
 10
923.9717751325752
 20
-1416.342713228567
 10
923.994039933652
 20
-1416.331496478616
 42
-0.0078058045896486
 10
924.2776300515986
 20
-1416.19413502298
 10
924.2875371393138
 20
-1416.189525895109
 42
-0.0181829330472071
 10
924.5978465439302
 20
-1416.058662154013
 10
924.6519019864903
 20
-1416.038147034072
 42
-0.0208411536031476
 10
925.0009869539465
 20
-1415.922056571577
 10
925.0153430540759
 20
-1415.917938126623
 42
-0.0222799817140435
 10
925.3440628479912
 20
-1415.839296560483
 10
925.3529518112243
 20
-1415.837584549899
 42
-0.0215509523883868
 10
925.6694227795081
 20
-1415.790668861364
 10
925.7119047405577
 20
-1415.786231334573
 42
-0.0182545924872962
 10
925.9460135198622
 20
-1415.770387509182
 10
925.9854145362076
 20
-1415.769162964103
 42
-0.0072962856533887
 10
926.1413374158992
 20
-1415.76659363558
 10
926.1704370864634
 20
-1415.766538800177
 42
-0.0059227516324921
 10
926.2681865856161
 20
-1415.767512511967
 10
926.2974288031897
 20
-1415.768150278573
 42
-0.001183311188391
 10
926.3366800868205
 20
-1415.769099282881
 10
925.5412934912133
 20
-1418.30783322798
 42
0.0143932051582902
 10
925.5148921088606
 20
-1418.297634257933
 10
925.5076201364454
 20
-1418.295063039077
 42
0.0234388603493951
 10
925.4657892705148
 20
-1418.282443803362
 10
925.4571076076006
 20
-1418.280262841357
 42
0.0199162742974592
 10
925.396818773522
 20
-1418.267646106022
 10
925.3760048357144
 20
-1418.264148906593
 42
0.0293643550683673
 10
925.2729299769514
 20
-1418.25299886094
 10
925.248244796235
 20
-1418.251787243921
 42
0.0214606686861764
 10
925.0951038802855
 20
-1418.250848683504
 10
925.0857319694645
 20
-1418.251193595048
 42
0.0167564054191961
 10
924.9142117783491
 20
-1418.263270637417
 10
924.9057519855971
 20
-1418.264151977843
 42
0.0137677553242178
 10
924.7183986723346
 20
-1418.288901286387
 10
924.7110469328245
 20
-1418.290079206355
 42
0.0118497261485441
 10
924.5105491687227
 20
-1418.327096556544
 10
924.5043991614759
 20
-1418.328383419264
 42
0.010642114388842
 10
924.2935182741941
 20
-1418.377215794838
 10
924.2886094658019
 20
-1418.378463137524
 42
0.0099746379707783
 10
924.070150996631
 20
-1418.438637665841
 10
924.0086029564691
 20
-1418.456919544469
 42
0.0191613675861694
 10
923.6726184939524
 20
-1418.570896924757
 10
923.5845587212115
 20
-1418.604583835079
 42
0.0205274080142293
 10
923.1992519493074
 20
-1418.770412242907
 10
923.1416026673286
 20
-1418.798080207478
 42
0.0181256912192395
 10
922.8833257266584
 20
-1418.933764026457
 10
922.8303703433422
 20
-1418.964081639673
 42
0.0140709242406012
 10
922.6854154087162
 20
-1419.052576313106
 10
922.6591665401118
 20
-1419.069633131813
 42
0.0086667884396147
 10
922.5702403785551
 20
-1419.129635799705
 42
0.003640819202075
 10
922.4828071405395
 20
-1419.191816657484
 10
922.4475802660531
 20
-1419.21725760341
 42
0.0052260781276
 10
922.2913515686686
 20
-1419.332589990039
 10
922.2751447124024
 20
-1419.344818100662
 42
0.0050024435893683
 10
922.0891413693586
 20
-1419.488100668912
 10
922.0738232128284
 20
-1419.50014669137
 42
0.0136138710277775
 10
921.8633819445005
 20
-1419.675113196286
 10
921.8297140687096
 20
-1419.704692168998
 42
0.0172815186911658
 10
921.5653105270534
 20
-1419.953688841614
 10
921.5627481812044
 20
-1419.956274658768
 42
0.0189403857988824
 10
921.3121663826281
 20
-1420.229079923569
 10
921.2795348890887
 20
-1420.26742385507
 42
0.0185044199500612
 10
921.0875784501093
 20
-1420.510672436192
 42
0.0088565243904171
 10
920.9091183434776
 20
-1420.764188856347
 10
920.8999403638323
 20
-1420.777730236102
 42
0.0157195347233476
 10
920.7167197574952
 20
-1421.067252445423
 10
920.6706368155711
 20
-1421.145404642433
 42
0.0095451879781371
 10
920.5055512654297
 20
-1421.437999284796
 10
920.4944033464961
 20
-1421.458669956935
 42
0.0100351706264693
 10
920.3623595973409
 20
-1421.715725517418
 42
0.008693591541984
 10
920.2400284455468
 20
-1421.977558662823
 10
920.2367077041323
 20
-1421.985000985794
 42
0.0072580174871565
 10
920.1163612521837
 20
-1422.265592977387
 10
920.113099618881
 20
-1422.273513003395
 42
0.0060005122616785
 10
919.9938989505343
 20
-1422.573122674011
 10
919.9906879721967
 20
-1422.581484201905
 42
0.004901778697836
 10
919.8717878133394
 20
-1422.900413182509
 10
919.8686220069488
 20
-1422.90916611974
 42
0.003941516760797
 10
919.7491857288916
 20
-1423.247708182156
 10
919.74605462624
 20
-1423.25681138303
 42
0.0031035838759307
 10
919.6252498405549
 20
-1423.615251244779
 10
919.6221397960165
 20
-1423.624671866178
 42
0.0025070747154867
 10
919.4992384446894
 20
-1424.003319083159
 10
919.4619445482758
 20
-1424.120210748375
 42
0.0029081910284787
 10
919.2699262504648
 20
-1424.734374406667
 10
919.2291230819479
 20
-1424.867597648942
 42
0.0009266453734137
 10
918.9607057076128
 20
-1425.749822108934
 10
918.9398182350116
 20
-1425.818933988039
 42
-0.0005809993664994
 10
918.6624815544014
 20
-1426.732742094741
 10
918.5961997561217
 20
-1426.950227026923
 42
-0.0012018708169476
 10
918.4492154466993
 20
-1427.428389691421
 10
918.3968955951844
 20
-1427.597148832123
 42
-0.0002691059606909
 10
918.3533261139652
 20
-1427.737416452629
 10
915.5203702156759
 20
-1436.826571054929
 10
913.7023813236974
 20
-1436.826571054929
 10
919.9546307397453
 20
-1416.182853018398
  0
SPLINE
  5
95
330
26
100
AcDbEntity
  8
0
  6
Continuous
 62
     7
370
    15
390
1D
100
AcDbSpline
210
0.0
220
0.0
230
1.0
 70
    15
 71
     2
 72
   782
 73
   779
 74
     0
 42
0.000000001
 43
0.000001
 40
0.0
 40
0.0
 40
0.0
 40
1.0
 40
1.0
 40
2.0
 40
2.0
 40
3.0
 40
3.0
 40
4.0
 40
4.0
 40
5.0
 40
5.0
 40
6.0
 40
6.0
 40
7.0
 40
7.0
 40
8.0
 40
8.0
 40
9.0
 40
9.0
 40
10.0
 40
10.0
 40
11.0
 40
11.0
 40
12.0
 40
12.0
 40
13.0
 40
13.0
 40
14.0
 40
14.0
 40
15.0
 40
15.0
 40
16.0
 40
16.0
 40
17.0
 40
17.0
 40
18.0
 40
18.0
 40
19.0
 40
19.0
 40
20.0
 40
20.0
 40
21.0
 40
21.0
 40
22.0
 40
22.0
 40
23.0
 40
23.0
 40
24.0
 40
24.0
 40
25.0
 40
25.0
 40
26.0
 40
26.0
 40
27.0
 40
27.0
 40
28.0
 40
28.0
 40
29.0
 40
29.0
 40
30.0
 40
30.0
 40
31.0
 40
31.0
 40
32.0
 40
32.0
 40
33.0
 40
33.0
 40
34.0
 40
34.0
 40
35.0
 40
35.0
 40
36.0
 40
36.0
 40
37.0
 40
37.0
 40
38.0
 40
38.0
 40
39.0
 40
39.0
 40
40.0
 40
40.0
 40
41.0
 40
41.0
 40
42.0
 40
42.0
 40
43.0
 40
43.0
 40
44.0
 40
44.0
 40
45.0
 40
45.0
 40
46.0
 40
46.0
 40
47.0
 40
47.0
 40
48.0
 40
48.0
 40
49.0
 40
49.0
 40
50.0
 40
50.0
 40
51.0
 40
51.0
 40
52.0
 40
52.0
 40
53.0
 40
53.0
 40
54.0
 40
54.0
 40
55.0
 40
55.0
 40
56.0
 40
56.0
 40
57.0
 40
57.0
 40
58.0
 40
58.0
 40
59.0
 40
59.0
 40
60.0
 40
60.0
 40
61.0
 40
61.0
 40
62.0
 40
62.0
 40
63.0
 40
63.0
 40
64.0
 40
64.0
 40
65.0
 40
65.0
 40
66.0
 40
66.0
 40
67.0
 40
67.0
 40
68.0
 40
68.0
 40
69.0
 40
69.0
 40
70.0
 40
70.0
 40
71.0
 40
71.0
 40
72.0
 40
72.0
 40
73.0
 40
73.0
 40
74.0
 40
74.0
 40
75.0
 40
75.0
 40
76.0
 40
76.0
 40
77.0
 40
77.0
 40
78.0
 40
78.0
 40
79.0
 40
79.0
 40
80.0
 40
80.0
 40
81.0
 40
81.0
 40
82.0
 40
82.0
 40
83.0
 40
83.0
 40
84.0
 40
84.0
 40
85.0
 40
85.0
 40
86.0
 40
86.0
 40
87.0
 40
87.0
 40
88.0
 40
88.0
 40
89.0
 40
89.0
 40
90.0
 40
90.0
 40
91.0
 40
91.0
 40
92.0
 40
92.0
 40
93.0
 40
93.0
 40
94.0
 40
94.0
 40
95.0
 40
95.0
 40
96.0
 40
96.0
 40
97.0
 40
97.0
 40
98.0
 40
98.0
 40
99.0
 40
99.0
 40
100.0
 40
100.0
 40
101.0
 40
101.0
 40
102.0
 40
102.0
 40
103.0
 40
103.0
 40
104.0
 40
104.0
 40
105.0
 40
105.0
 40
106.0
 40
106.0
 40
107.0
 40
107.0
 40
108.0
 40
108.0
 40
109.0
 40
109.0
 40
110.0
 40
110.0
 40
111.0
 40
111.0
 40
112.0
 40
112.0
 40
113.0
 40
113.0
 40
114.0
 40
114.0
 40
115.0
 40
115.0
 40
116.0
 40
116.0
 40
117.0
 40
117.0
 40
118.0
 40
118.0
 40
119.0
 40
119.0
 40
120.0
 40
120.0
 40
121.0
 40
121.0
 40
122.0
 40
122.0
 40
123.0
 40
123.0
 40
124.0
 40
124.0
 40
125.0
 40
125.0
 40
126.0
 40
126.0
 40
127.0
 40
127.0
 40
128.0
 40
128.0
 40
129.0
 40
129.0
 40
130.0
 40
130.0
 40
131.0
 40
131.0
 40
132.0
 40
132.0
 40
133.0
 40
133.0
 40
134.0
 40
134.0
 40
135.0
 40
135.0
 40
136.0
 40
136.0
 40
137.0
 40
137.0
 40
138.0
 40
138.0
 40
139.0
 40
139.0
 40
140.0
 40
140.0
 40
141.0
 40
141.0
 40
142.0
 40
142.0
 40
143.0
 40
143.0
 40
144.0
 40
144.0
 40
145.0
 40
145.0
 40
146.0
 40
146.0
 40
147.0
 40
147.0
 40
148.0
 40
148.0
 40
149.0
 40
149.0
 40
150.0
 40
150.0
 40
151.0
 40
151.0
 40
152.0
 40
152.0
 40
153.0
 40
153.0
 40
154.0
 40
154.0
 40
155.0
 40
155.0
 40
156.0
 40
156.0
 40
157.0
 40
157.0
 40
158.0
 40
158.0
 40
159.0
 40
159.0
 40
160.0
 40
160.0
 40
161.0
 40
161.0
 40
162.0
 40
162.0
 40
163.0
 40
163.0
 40
164.0
 40
164.0
 40
165.0
 40
165.0
 40
166.0
 40
166.0
 40
167.0
 40
167.0
 40
168.0
 40
168.0
 40
169.0
 40
169.0
 40
170.0
 40
170.0
 40
171.0
 40
171.0
 40
172.0
 40
172.0
 40
173.0
 40
173.0
 40
174.0
 40
174.0
 40
175.0
 40
175.0
 40
176.0
 40
176.0
 40
177.0
 40
177.0
 40
178.0
 40
178.0
 40
179.0
 40
179.0
 40
180.0
 40
180.0
 40
181.0
 40
181.0
 40
182.0
 40
182.0
 40
183.0
 40
183.0
 40
184.0
 40
184.0
 40
185.0
 40
185.0
 40
186.0
 40
186.0
 40
187.0
 40
187.0
 40
188.0
 40
188.0
 40
189.0
 40
189.0
 40
190.0
 40
190.0
 40
191.0
 40
191.0
 40
192.0
 40
192.0
 40
193.0
 40
193.0
 40
194.0
 40
194.0
 40
195.0
 40
195.0
 40
196.0
 40
196.0
 40
197.0
 40
197.0
 40
198.0
 40
198.0
 40
199.0
 40
199.0
 40
200.0
 40
200.0
 40
201.0
 40
201.0
 40
202.0
 40
202.0
 40
203.0
 40
203.0
 40
204.0
 40
204.0
 40
205.0
 40
205.0
 40
206.0
 40
206.0
 40
207.0
 40
207.0
 40
208.0
 40
208.0
 40
209.0
 40
209.0
 40
210.0
 40
210.0
 40
211.0
 40
211.0
 40
212.0
 40
212.0
 40
213.0
 40
213.0
 40
214.0
 40
214.0
 40
215.0
 40
215.0
 40
216.0
 40
216.0
 40
217.0
 40
217.0
 40
218.0
 40
218.0
 40
219.0
 40
219.0
 40
220.0
 40
220.0
 40
221.0
 40
221.0
 40
222.0
 40
222.0
 40
223.0
 40
223.0
 40
224.0
 40
224.0
 40
225.0
 40
225.0
 40
226.0
 40
226.0
 40
227.0
 40
227.0
 40
228.0
 40
228.0
 40
229.0
 40
229.0
 40
230.0
 40
230.0
 40
231.0
 40
231.0
 40
232.0
 40
232.0
 40
233.0
 40
233.0
 40
234.0
 40
234.0
 40
235.0
 40
235.0
 40
236.0
 40
236.0
 40
237.0
 40
237.0
 40
238.0
 40
238.0
 40
239.0
 40
239.0
 40
240.0
 40
240.0
 40
241.0
 40
241.0
 40
242.0
 40
242.0
 40
243.0
 40
243.0
 40
244.0
 40
244.0
 40
245.0
 40
245.0
 40
246.0
 40
246.0
 40
247.0
 40
247.0
 40
248.0
 40
248.0
 40
249.0
 40
249.0
 40
250.0
 40
250.0
 40
251.0
 40
251.0
 40
252.0
 40
252.0
 40
253.0
 40
253.0
 40
254.0
 40
254.0
 40
255.0
 40
255.0
 40
256.0
 40
256.0
 40
257.0
 40
257.0
 40
258.0
 40
258.0
 40
259.0
 40
259.0
 40
260.0
 40
260.0
 40
261.0
 40
261.0
 40
262.0
 40
262.0
 40
263.0
 40
263.0
 40
264.0
 40
264.0
 40
265.0
 40
265.0
 40
266.0
 40
266.0
 40
267.0
 40
267.0
 40
268.0
 40
268.0
 40
269.0
 40
269.0
 40
270.0
 40
270.0
 40
271.0
 40
271.0
 40
272.0
 40
272.0
 40
273.0
 40
273.0
 40
274.0
 40
274.0
 40
275.0
 40
275.0
 40
276.0
 40
276.0
 40
277.0
 40
277.0
 40
278.0
 40
278.0
 40
279.0
 40
279.0
 40
280.0
 40
280.0
 40
281.0
 40
281.0
 40
282.0
 40
282.0
 40
283.0
 40
283.0
 40
284.0
 40
284.0
 40
285.0
 40
285.0
 40
286.0
 40
286.0
 40
287.0
 40
287.0
 40
288.0
 40
288.0
 40
289.0
 40
289.0
 40
290.0
 40
290.0
 40
291.0
 40
291.0
 40
292.0
 40
292.0
 40
293.0
 40
293.0
 40
294.0
 40
294.0
 40
295.0
 40
295.0
 40
296.0
 40
296.0
 40
297.0
 40
297.0
 40
298.0
 40
298.0
 40
299.0
 40
299.0
 40
300.0
 40
300.0
 40
301.0
 40
301.0
 40
302.0
 40
302.0
 40
303.0
 40
303.0
 40
304.0
 40
304.0
 40
305.0
 40
305.0
 40
306.0
 40
306.0
 40
307.0
 40
307.0
 40
308.0
 40
308.0
 40
309.0
 40
309.0
 40
310.0
 40
310.0
 40
311.0
 40
311.0
 40
312.0
 40
312.0
 40
313.0
 40
313.0
 40
314.0
 40
314.0
 40
315.0
 40
315.0
 40
316.0
 40
316.0
 40
317.0
 40
317.0
 40
318.0
 40
318.0
 40
319.0
 40
319.0
 40
320.0
 40
320.0
 40
321.0
 40
321.0
 40
322.0
 40
322.0
 40
323.0
 40
323.0
 40
324.0
 40
324.0
 40
325.0
 40
325.0
 40
326.0
 40
326.0
 40
327.0
 40
327.0
 40
328.0
 40
328.0
 40
329.0
 40
329.0
 40
330.0
 40
330.0
 40
331.0
 40
331.0
 40
332.0
 40
332.0
 40
333.0
 40
333.0
 40
334.0
 40
334.0
 40
335.0
 40
335.0
 40
336.0
 40
336.0
 40
337.0
 40
337.0
 40
338.0
 40
338.0
 40
339.0
 40
339.0
 40
340.0
 40
340.0
 40
341.0
 40
341.0
 40
342.0
 40
342.0
 40
343.0
 40
343.0
 40
344.0
 40
344.0
 40
345.0
 40
345.0
 40
346.0
 40
346.0
 40
347.0
 40
347.0
 40
348.0
 40
348.0
 40
349.0
 40
349.0
 40
350.0
 40
350.0
 40
351.0
 40
351.0
 40
352.0
 40
352.0
 40
353.0
 40
353.0
 40
354.0
 40
354.0
 40
355.0
 40
355.0
 40
356.0
 40
356.0
 40
357.0
 40
357.0
 40
358.0
 40
358.0
 40
359.0
 40
359.0
 40
360.0
 40
360.0
 40
361.0
 40
361.0
 40
362.0
 40
362.0
 40
363.0
 40
363.0
 40
364.0
 40
364.0
 40
365.0
 40
365.0
 40
366.0
 40
366.0
 40
367.0
 40
367.0
 40
368.0
 40
368.0
 40
369.0
 40
369.0
 40
370.0
 40
370.0
 40
371.0
 40
371.0
 40
372.0
 40
372.0
 40
373.0
 40
373.0
 40
374.0
 40
374.0
 40
375.0
 40
375.0
 40
376.0
 40
376.0
 40
377.0
 40
377.0
 40
378.0
 40
378.0
 40
379.0
 40
379.0
 40
380.0
 40
380.0
 40
381.0
 40
381.0
 40
382.0
 40
382.0
 40
383.0
 40
383.0
 40
384.0
 40
384.0
 40
385.0
 40
385.0
 40
386.0
 40
386.0
 40
387.0
 40
387.0
 40
388.0
 40
388.0
 40
389.0
 40
389.0
 40
389.0
 10
930.2833351904779
 20
-1416.171926655036
 30
0.0
 41
1.0
 10
931.1017592991984
 20
-1416.171926655036
 30
0.0
 41
1.0
 10
931.9201834079189
 20
-1416.171926655036
 30
0.0
 41
1.0
 10
931.5064296724022
 20
-1417.514552919286
 30
0.0
 41
1.0
 10
931.0926759368854
 20
-1418.857179183536
 30
0.0
 41
1.0
 10
931.1110154320522
 20
-1418.828478410625
 30
0.0
 41
0.9999957264383417
 10
931.1295224288829
 20
-1418.799885360475
 30
0.0
 41
1.0
 10
931.1599517530208
 20
-1418.752872482098
 30
0.0
 41
1.0
 10
931.1903810771587
 20
-1418.705859603722
 30
0.0
 41
1.0
 10
931.2697467222641
 20
-1418.583240796819
 30
0.0
 41
0.9995394069081684
 10
931.3564051138158
 20
-1418.465662735078
 30
0.0
 41
1.0
 10
931.3921619760754
 20
-1418.417147842485
 30
0.0
 41
1.0
 10
931.427918838335
 20
-1418.368632949891
 30
0.0
 41
1.0
 10
931.5616455061535
 20
-1418.187192674764
 30
0.0
 41
0.999446061714343
 10
931.7071459874423
 20
-1418.015050277113
 30
0.0
 41
1.0
 10
931.7115341684165
 20
-1418.009858596732
 30
0.0
 41
1.0
 10
931.7159223493907
 20
-1418.00466691635
 30
0.0
 41
1.0
 10
931.8526464687296
 20
-1417.842907879465
 30
0.0
 41
0.9994359394934469
 10
931.9999206990817
 20
-1417.690691678299
 30
0.0
 41
1.0
 10
932.0023040530336
 20
-1417.688228347927
 30
0.0
 41
1.0
 10
932.0046874069855
 20
-1417.685765017556
 30
0.0
 41
1.0
 10
932.1471949294302
 20
-1417.538475477137
 30
0.0
 41
0.999529368856769
 10
932.2984666104153
 20
-1417.40020226497
 30
0.0
 41
1.0
 10
932.3177603696759
 20
-1417.382566379321
 30
0.0
 41
1.0
 10
932.3370541289364
 20
-1417.364930493673
 30
0.0
 41
1.0
 10
932.4497382913953
 20
-1417.261929052808
 30
0.0
 41
0.9997087614803426
 10
932.5672611803525
 20
-1417.164484772008
 30
0.0
 41
1.0
 10
932.5864272535232
 20
-1417.148593193504
 30
0.0
 41
1.0
 10
932.6055933266939
 20
-1417.132701615
 30
0.0
 41
1.0
 10
932.6847840693027
 20
-1417.067040491214
 30
0.0
 41
0.9999595338699544
 10
932.7651433401627
 20
-1417.002814760555
 30
0.0
 41
1.0
 10
932.845502611021
 20
-1416.938589029898
 30
0.0
 41
0.9999749417508891
 10
932.9267631453693
 20
-1416.875507475948
 30
0.0
 41
1.0
 10
932.9477492915167
 20
-1416.859216188658
 30
0.0
 41
1.0
 10
932.9687354376642
 20
-1416.842924901368
 30
0.0
 41
1.0
 10
933.0533033229777
 20
-1416.777275891517
 30
0.0
 41
0.9999792037124918
 10
933.1387109227637
 20
-1416.712723109861
 30
0.0
 41
1.0
 10
933.1595357487179
 20
-1416.696983287571
 30
0.0
 41
1.0
 10
933.1803605746719
 20
-1416.681243465281
 30
0.0
 41
1.0
 10
933.2241185225478
 20
-1416.648170328207
 30
0.0
 41
0.9999993374060698
 10
933.2678002086764
 20
-1416.614996532794
 30
0.0
 41
1.0
 10
933.3114818948154
 20
-1416.581822737373
 30
0.0
 41
0.9999160953816907
 10
933.3560083057356
 20
-1416.549791672174
 30
0.0
 41
1.0
 10
933.3888301931569
 20
-1416.526180516588
 30
0.0
 41
1.0
 10
933.4216520805782
 20
-1416.502569361002
 30
0.0
 41
1.0
 10
933.5318222663376
 20
-1416.423315984633
 30
0.0
 41
0.9980964527232409
 10
933.6509112598383
 20
-1416.358228511777
 30
0.0
 41
1.0
 10
933.6879438667654
 20
-1416.337988532185
 30
0.0
 41
1.0
 10
933.7249764736927
 20
-1416.317748552592
 30
0.0
 41
1.0
 10
933.9043034869657
 20
-1416.21973830189
 30
0.0
 41
0.9984572810572369
 10
934.0933920533255
 20
-1416.142216040544
 30
0.0
 41
1.0
 10
934.0970383227191
 20
-1416.140721148207
 30
0.0
 41
1.0
 10
934.1006845921125
 20
-1416.13922625587
 30
0.0
 41
1.0
 10
934.2824806196825
 20
-1416.064693779198
 30
0.0
 41
0.9987838528033939
 10
934.4707332782436
 20
-1416.008428139032
 30
0.0
 41
1.0
 10
934.4749712274411
 20
-1416.007161485342
 30
0.0
 41
1.0
 10
934.4792091766385
 20
-1416.005894831652
 30
0.0
 41
1.0
 10
934.6589859368016
 20
-1415.952162498866
 30
0.0
 41
0.9990652816207193
 10
934.8427318685187
 20
-1415.914158819324
 30
0.0
 41
1.0
 10
934.8479202695502
 20
-1415.913085716218
 30
0.0
 41
1.0
 10
934.8531086705816
 20
-1415.912012613111
 30
0.0
 41
1.0
 10
935.0264778002346
 20
-1415.876155139782
 30
0.0
 41
0.9992909934270139
 10
935.2020535666929
 20
-1415.853444707315
 30
0.0
 41
1.0
 10
935.3776293331485
 20
-1415.830734274849
 30
0.0
 41
0.999455353944851
 10
935.5543207662398
 20
-1415.819654970643
 30
0.0
 41
1.0
 10
935.5897551740379
 20
-1415.817433082595
 30
0.0
 41
1.0
 10
935.625189581836
 20
-1415.815211194547
 30
0.0
 41
1.0
 10
935.7914153484056
 20
-1415.804788132135
 30
0.0
 41
0.9990928098293307
 10
935.9579251403077
 20
-1415.80854777337
 30
0.0
 41
1.0
 10
935.9964869755765
 20
-1415.809418464903
 30
0.0
 41
1.0
 10
936.0350488108454
 20
-1415.810289156436
 30
0.0
 41
1.0
 10
936.1244349322074
 20
-1415.812307414604
 30
0.0
 41
0.9998382089205308
 10
936.2136906149965
 20
-1415.817539541132
 30
0.0
 41
1.0
 10
936.2141205212154
 20
-1415.817564742035
 30
0.0
 41
1.0
 10
936.2145504274342
 20
-1415.817589942937
 30
0.0
 41
1.0
 10
936.3029462977817
 20
-1415.82277166766
 30
0.0
 41
0.9997558016757772
 10
936.3910268749835
 20
-1415.831854183027
 30
0.0
 41
1.0
 10
936.3915030134161
 20
-1415.83190328051
 30
0.0
 41
1.0
 10
936.3919791518488
 20
-1415.831952377993
 30
0.0
 41
1.0
 10
936.4791074521873
 20
-1415.840936698394
 30
0.0
 41
0.99965651441806
 10
936.5656453055265
 20
-1415.854474005082
 30
0.0
 41
1.0
 10
936.5661112309051
 20
-1415.854546890814
 30
0.0
 41
1.0
 10
936.5665771562839
 20
-1415.854619776546
 30
0.0
 41
1.0
 10
936.6521831588695
 20
-1415.868011311772
 30
0.0
 41
0.9995321806867242
 10
936.7368102391964
 20
-1415.886611800201
 30
0.0
 41
1.0
 10
936.7371994337688
 20
-1415.886697342667
 30
0.0
 41
1.0
 10
936.7375886283411
 20
-1415.886782885133
 30
0.0
 41
1.0
 10
936.8214373195243
 20
-1415.90521228863
 30
0.0
 41
0.9993819199219953
 10
936.9037838537206
 20
-1415.929487671891
 30
0.0
 41
1.0
 10
936.9040222872176
 20
-1415.929557961
 30
0.0
 41
1.0
 10
936.9042607207145
 20
-1415.929628250109
 30
0.0
 41
1.0
 10
936.9861303879162
 20
-1415.953763055151
 30
0.0
 41
0.9992088568504884
 10
937.065822906905
 20
-1415.984328290946
 30
0.0
 41
1.0
 10
937.1455038977841
 20
-1416.014887891679
 30
0.0
 41
0.9990226101773869
 10
937.2221745676912
 20
-1416.052365323294
 30
0.0
 41
1.0
 10
937.2988337094898
 20
-1416.089837119847
 30
0.0
 41
0.998842427397189
 10
937.3715373367013
 20
-1416.1345018951
 30
0.0
 41
1.0
 10
937.3718050450808
 20
-1416.134666359172
 30
0.0
 41
1.0
 10
937.3720727534603
 20
-1416.134830823244
 30
0.0
 41
1.0
 10
937.4453117974316
 20
-1416.179824526642
 30
0.0
 41
0.9986928844491952
 10
937.5135746641412
 20
-1416.232060260922
 30
0.0
 41
1.0
 10
937.5141559563638
 20
-1416.232505074149
 30
0.0
 41
1.0
 10
937.5147372485865
 20
-1416.232949887377
 30
0.0
 41
1.0
 10
937.584162699742
 20
-1416.286075248112
 30
0.0
 41
0.9986007262277017
 10
937.6475888695088
 20
-1416.346236017806
 30
0.0
 41
1.0
 10
937.6484832849659
 20
-1416.347084385641
 30
0.0
 41
1.0
 10
937.649377700423
 20
-1416.347932753476
 30
0.0
 41
1.0
 10
937.7145927011046
 20
-1416.409790258841
 30
0.0
 41
0.9985581491382163
 10
937.7728003128068
 20
-1416.478282749113
 30
0.0
 41
1.0
 10
937.7820587664021
 20
-1416.489177106814
 30
0.0
 41
1.0
 10
937.7913172199974
 20
-1416.500071464515
 30
0.0
 41
1.0
 10
937.8680417388903
 20
-1416.590352670189
 30
0.0
 41
0.9970460233518803
 10
937.9300336400496
 20
-1416.691319754371
 30
0.0
 41
1.0
 10
937.9445030051295
 20
-1416.714886213453
 30
0.0
 41
1.0
 10
937.9589723702094
 20
-1416.738452672535
 30
0.0
 41
1.0
 10
937.9987090702219
 20
-1416.803172396567
 30
0.0
 41
0.9988468816637117
 10
938.032055440973
 20
-1416.871404848994
 30
0.0
 41
1.0
 10
938.0390914634656
 20
-1416.885801770134
 30
0.0
 41
1.0
 10
938.0461274859582
 20
-1416.900198691273
 30
0.0
 41
1.0
 10
938.0654018117243
 20
-1416.939637301421
 30
0.0
 41
0.9998431189998254
 10
938.0832671392195
 20
-1416.979733855862
 30
0.0
 41
1.0
 10
938.1011324667247
 20
-1417.019830410326
 30
0.0
 41
0.9999989990024227
 10
938.1191111901608
 20
-1417.059876247941
 30
0.0
 41
1.0
 10
938.1252835017428
 20
-1417.073624464726
 30
0.0
 41
1.0
 10
938.1314558133249
 20
-1417.087372681512
 30
0.0
 41
1.0
 10
938.1617791599325
 20
-1417.154914952714
 30
0.0
 41
0.9998790356322813
 10
938.1899870400704
 20
-1417.223367704651
 30
0.0
 41
1.0
 10
938.1968222213558
 20
-1417.239954806081
 30
0.0
 41
1.0
 10
938.2036574026412
 20
-1417.256541907511
 30
0.0
 41
1.0
 10
938.2272150650228
 20
-1417.3137098624
 30
0.0
 41
0.99982275745611
 10
938.2486038134116
 20
-1417.371724170676
 30
0.0
 41
1.0
 10
938.2699925618002
 20
-1417.429738478951
 30
0.0
 41
0.9996797971041049
 10
938.28841884676
 20
-1417.488760598071
 30
0.0
 41
1.0
 10
938.2923226494856
 20
-1417.50126505624
 30
0.0
 41
1.0
 10
938.2962264522112
 20
-1417.513769514409
 30
0.0
 41
1.0
 10
938.3224603426215
 20
-1417.597800549865
 30
0.0
 41
0.9979274938734313
 10
938.3376848661007
 20
-1417.684504908526
 30
0.0
 41
1.0
 10
938.3399085533616
 20
-1417.697168909345
 30
0.0
 41
1.0
 10
938.3421322406225
 20
-1417.709832910165
 30
0.0
 41
1.0
 10
938.3530621803212
 20
-1417.772079417457
 30
0.0
 41
0.9994985982137016
 10
938.3600303454982
 20
-1417.8348929186
 30
0.0
 41
1.0
 10
938.3669985106753
 20
-1417.897706419744
 30
0.0
 41
0.9996372611202329
 10
938.370574376443
 20
-1417.960803998424
 30
0.0
 41
1.0
 10
938.3707429539322
 20
-1417.963778615506
 30
0.0
 41
1.0
 10
938.3709115314216
 20
-1417.966753232589
 30
0.0
 41
1.0
 10
938.374824552168
 20
-1418.035800045436
 30
0.0
 41
0.9997730630736189
 10
938.3757928656561
 20
-1418.104950869475
 30
0.0
 41
1.0
 10
938.3758499720741
 20
-1418.109029048614
 30
0.0
 41
1.0
 10
938.3759070784922
 20
-1418.113107227753
 30
0.0
 41
1.0
 10
938.3769896048167
 20
-1418.190414410063
 30
0.0
 41
0.9998772614072348
 10
938.3756495180851
 20
-1418.267717556619
 30
0.0
 41
1.0
 10
938.3755602548862
 20
-1418.272866720462
 30
0.0
 41
1.0
 10
938.3754709916873
 20
-1418.278015884305
 30
0.0
 41
1.0
 10
938.3739523785575
 20
-1418.365617358553
 30
0.0
 41
0.999941556732397
 10
938.3705400683115
 20
-1418.453165520231
 30
0.0
 41
1.0
 10
938.3702987476365
 20
-1418.45935697996
 30
0.0
 41
1.0
 10
938.3700574269615
 20
-1418.465548439689
 30
0.0
 41
1.0
 10
938.3661624753644
 20
-1418.565479520847
 30
0.0
 41
0.9999716810431785
 10
938.3607638922464
 20
-1418.665340659067
 30
0.0
 41
1.0
 10
938.3575510934577
 20
-1418.724769908723
 30
0.0
 41
1.0
 10
938.354338294669
 20
-1418.78419915838
 30
0.0
 41
1.0
 10
938.3462643855157
 20
-1418.933547559671
 30
0.0
 41
0.9999819129891062
 10
938.3363945938995
 20
-1419.082788037374
 30
0.0
 41
1.0
 10
938.326524802283
 20
-1419.232028515086
 30
0.0
 41
1.0
 10
938.3240854817191
 20
-1419.269221560935
 30
0.0
 41
1.0
 10
938.3467837155297
 20
-1419.23048056364
 30
0.0
 41
0.9999982128120503
 10
938.3696282743005
 20
-1419.191825669656
 30
0.0
 41
1.0
 10
938.3965378341878
 20
-1419.146292455597
 30
0.0
 41
1.0
 10
938.4234473940752
 20
-1419.100759241537
 30
0.0
 41
1.0
 10
938.5001110726031
 20
-1418.971037919464
 30
0.0
 41
0.9998609190058912
 10
938.581058385465
 20
-1418.843945537535
 30
0.0
 41
1.0
 10
938.6107067069411
 20
-1418.797395804586
 30
0.0
 41
1.0
 10
938.6403550284173
 20
-1418.750846071638
 30
0.0
 41
1.0
 10
938.7226272486571
 20
-1418.621673501638
 30
0.0
 41
0.999906760973275
 10
938.8083962581275
 20
-1418.494795812187
 30
0.0
 41
1.0
 10
938.8108009613293
 20
-1418.491238546131
 30
0.0
 41
1.0
 10
938.813205664531
 20
-1418.487681280075
 30
0.0
 41
1.0
 10
938.8941652675918
 20
-1418.367918122746
 30
0.0
 41
0.9998784952148116
 10
938.9788188772728
 20
-1418.250736906037
 30
0.0
 41
1.0
 10
939.0634724869531
 20
-1418.13355568933
 30
0.0
 41
0.99985329682824
 10
939.1520901077744
 20
-1418.019342780861
 30
0.0
 41
1.0
 10
939.1720518967654
 20
-1417.993615459841
 30
0.0
 41
1.0
 10
939.1920136857566
 20
-1417.967888138821
 30
0.0
 41
1.0
 10
939.3104977355165
 20
-1417.815182527851
 30
0.0
 41
0.9991551975794923
 10
939.4411221851415
 20
-1417.672722965766
 30
0.0
 41
1.0
 10
939.4446318011164
 20
-1417.668895364146
 30
0.0
 41
1.0
 10
939.4481414170914
 20
-1417.665067762527
 30
0.0
 41
1.0
 10
939.5717466347596
 20
-1417.530263403687
 30
0.0
 41
0.9997418144180988
 10
939.7013487744655
 20
-1417.40121399307
 30
0.0
 41
1.0
 10
939.8309509141632
 20
-1417.272164582459
 30
0.0
 41
0.9989238204632741
 10
939.9719534624127
 20
-1417.155679620422
 30
0.0
 41
1.0
 10
940.0172011405573
 20
-1417.118299628809
 30
0.0
 41
1.0
 10
940.0624488187018
 20
-1417.080919637196
 30
0.0
 41
1.0
 10
940.2026888759207
 20
-1416.965064583908
 30
0.0
 41
0.999082508409737
 10
940.3523288085216
 20
-1416.861635586077
 30
0.0
 41
1.0
 10
940.3623741725728
 20
-1416.854692373001
 30
0.0
 41
1.0
 10
940.3724195366239
 20
-1416.847749159926
 30
0.0
 41
1.0
 10
940.5019687411198
 20
-1416.758206588248
 30
0.0
 41
0.9998164899826978
 10
940.6348529445019
 20
-1416.673692346728
 30
0.0
 41
1.0
 10
940.6466985050281
 20
-1416.666158580202
 30
0.0
 41
1.0
 10
940.6585440655543
 20
-1416.658624813676
 30
0.0
 41
1.0
 10
940.7677371478776
 20
-1416.589178105212
 30
0.0
 41
0.9997473449130513
 10
940.8799411051275
 20
-1416.524709147396
 30
0.0
 41
1.0
 10
940.9921450623784
 20
-1416.460240189579
 30
0.0
 41
0.9999327861143388
 10
941.1058136731447
 20
-1416.398390197896
 30
0.0
 41
1.0
 10
941.1063656757033
 20
-1416.398089839218
 30
0.0
 41
1.0
 10
941.1069176782619
 20
-1416.39778948054
 30
0.0
 41
1.0
 10
941.2216902941465
 20
-1416.335338771501
 30
0.0
 41
0.9996956420483354
 10
941.3394036199861
 20
-1416.278625304526
 30
0.0
 41
1.0
 10
941.3698440248799
 20
-1416.263959327795
 30
0.0
 41
1.0
 10
941.4002844297736
 20
-1416.249293351065
 30
0.0
 41
1.0
 10
941.5032615365158
 20
-1416.199679692622
 30
0.0
 41
0.9998070570176868
 10
941.6081079254571
 20
-1416.154149105721
 30
0.0
 41
1.0
 10
941.7129543143978
 20
-1416.10861851882
 30
0.0
 41
0.999782743614792
 10
941.8196072510071
 20
-1416.067497347509
 30
0.0
 41
1.0
 10
941.8388301006389
 20
-1416.060085773876
 30
0.0
 41
1.0
 10
941.8580529502708
 20
-1416.052674200244
 30
0.0
 41
1.0
 10
942.0031515861435
 20
-1415.996729881667
 30
0.0
 41
0.9988031841976669
 10
942.1530219487473
 20
-1415.955229817499
 30
0.0
 41
1.0
 10
942.1779391971104
 20
-1415.948330071692
 30
0.0
 41
1.0
 10
942.2028564454736
 20
-1415.941430325886
 30
0.0
 41
1.0
 10
942.3701264711214
 20
-1415.895112183478
 30
0.0
 41
0.9984748040549726
 10
942.5414833797707
 20
-1415.867517951214
 30
0.0
 41
1.0
 10
942.5462225160212
 20
-1415.8667547907
 30
0.0
 41
1.0
 10
942.5509616522717
 20
-1415.865991630186
 30
0.0
 41
1.0
 10
942.7128402884209
 20
-1415.839923718949
 30
0.0
 41
0.9984436495480082
 10
942.8766150321444
 20
-1415.83204576513
 30
0.0
 41
1.0
 10
942.8983122402773
 20
-1415.83100207793
 30
0.0
 41
1.0
 10
942.9200094484102
 20
-1415.829958390731
 30
0.0
 41
1.0
 10
943.0403897758707
 20
-1415.824167811311
 30
0.0
 41
0.9987954789335753
 10
943.160758020779
 20
-1415.830204339054
 30
0.0
 41
1.0
 10
943.1807228132683
 20
-1415.831205583392
 30
0.0
 41
1.0
 10
943.2006876057576
 20
-1415.83220682773
 30
0.0
 41
1.0
 10
943.2811262656835
 20
-1415.836240866795
 30
0.0
 41
0.999794159587819
 10
943.3613350437832
 20
-1415.843534932717
 30
0.0
 41
1.0
 10
943.4415438218831
 20
-1415.850828998639
 30
0.0
 41
0.9998589466237132
 10
943.5214623687433
 20
-1415.860812853089
 30
0.0
 41
1.0
 10
943.5538685705462
 20
-1415.864861210008
 30
0.0
 41
1.0
 10
943.5862747723492
 20
-1415.868909566927
 30
0.0
 41
1.0
 10
943.7310057228209
 20
-1415.886990135215
 30
0.0
 41
0.9993495063249114
 10
943.8740569665871
 20
-1415.915455844957
 30
0.0
 41
1.0
 10
943.9069906637374
 20
-1415.922009308171
 30
0.0
 41
1.0
 10
943.9399243608876
 20
-1415.928562771386
 30
0.0
 41
1.0
 10
944.0492181840938
 20
-1415.950311105522
 30
0.0
 41
0.9996788715561208
 10
944.1572697560513
 20
-1415.977568904885
 30
0.0
 41
1.0
 10
944.1593327585906
 20
-1415.978089331458
 30
0.0
 41
1.0
 10
944.1613957611299
 20
-1415.978609758031
 30
0.0
 41
1.0
 10
944.2653213280086
 20
-1416.004826704248
 30
0.0
 41
0.9995480654492828
 10
944.3674835632371
 20
-1416.037241660872
 30
0.0
 41
1.0
 10
944.3691732053645
 20
-1416.037777765786
 30
0.0
 41
1.0
 10
944.3708628474919
 20
-1416.038313870699
 30
0.0
 41
1.0
 10
944.4696457984644
 20
-1416.069656617496
 30
0.0
 41
0.9993867959455708
 10
944.5659929569091
 20
-1416.107835986786
 30
0.0
 41
1.0
 10
944.567235905994
 20
-1416.108328528683
 30
0.0
 41
1.0
 10
944.568478855079
 20
-1416.108821070579
 30
0.0
 41
1.0
 10
944.662340115351
 20
-1416.146015356076
 30
0.0
 41
0.9992050256521771
 10
944.752939790385
 20
-1416.190569255315
 30
0.0
 41
1.0
 10
944.7536744730983
 20
-1416.190930547776
 30
0.0
 41
1.0
 10
944.7544091558116
 20
-1416.191291840237
 30
0.0
 41
1.0
 10
944.8435394654191
 20
-1416.235123154554
 30
0.0
 41
0.99902223507422
 10
944.9284495268121
 20
-1416.286656422252
 30
0.0
 41
1.0
 10
944.9286334120944
 20
-1416.286768025157
 30
0.0
 41
1.0
 10
944.9288172973768
 20
-1416.286879628061
 30
0.0
 41
1.0
 10
945.0133595882053
 20
-1416.33818968995
 30
0.0
 41
0.998864274380558
 10
945.0926341228246
 20
-1416.397313877476
 30
0.0
 41
1.0
 10
945.1719086574441
 20
-1416.456438065001
 30
0.0
 41
0.998768123331131
 10
945.2449324417199
 20
-1416.523128756402
 30
0.0
 41
1.0
 10
945.2452613696857
 20
-1416.523429157616
 30
0.0
 41
1.0
 10
945.2455902976515
 20
-1416.52372955883
 30
0.0
 41
1.0
 10
945.319271937859
 20
-1416.591021052659
 30
0.0
 41
0.9987496570898432
 10
945.3858657431863
 20
-1416.665333866746
 30
0.0
 41
1.0
 10
945.3866379129468
 20
-1416.666195540104
 30
0.0
 41
1.0
 10
945.3874100827072
 20
-1416.667057213461
 30
0.0
 41
1.0
 10
945.4555482275556
 20
-1416.743093374264
 30
0.0
 41
0.9988147669826729
 10
945.5159704817796
 20
-1416.825394381106
 30
0.0
 41
1.0
 10
945.5170898078577
 20
-1416.826919012458
 30
0.0
 41
1.0
 10
945.5182091339358
 20
-1416.828443643811
 30
0.0
 41
1.0
 10
945.5808700403163
 20
-1416.913793913359
 30
0.0
 41
0.9989452636215641
 10
945.6354369532789
 20
-1417.004532602519
 30
0.0
 41
1.0
 10
945.6367856793639
 20
-1417.006775383544
 30
0.0
 41
1.0
 10
945.6381344054489
 20
-1417.009018164569
 30
0.0
 41
1.0
 10
945.6953987705807
 20
-1417.104242415778
 30
0.0
 41
0.9991046436070308
 10
945.7444079839023
 20
-1417.203966848803
 30
0.0
 41
1.0
 10
945.7458718454927
 20
-1417.206945528877
 30
0.0
 41
1.0
 10
945.7473357070833
 20
-1417.20992420895
 30
0.0
 41
1.0
 10
945.7992726435853
 20
-1417.315606002121
 30
0.0
 41
0.9992763831101074
 10
945.8430257721396
 20
-1417.424930064075
 30
0.0
 41
1.0
 10
945.8445050418031
 20
-1417.428626251609
 30
0.0
 41
1.0
 10
945.8459843114667
 20
-1417.432322439143
 30
0.0
 41
1.0
 10
945.8926959793489
 20
-1417.549038876168
 30
0.0
 41
0.9994163472884015
 10
945.931329010539
 20
-1417.668672464633
 30
0.0
 41
1.0
 10
945.9325671627857
 20
-1417.672506608416
 30
0.0
 41
1.0
 10
945.9338053150325
 20
-1417.676340752198
 30
0.0
 41
1.0
 10
945.9736888760493
 20
-1417.799846813675
 30
0.0
 41
0.9997268055891452
 10
946.007756931961
 20
-1417.925081845625
 30
0.0
 41
1.0
 10
946.0086871122307
 20
-1417.928501211734
 30
0.0
 41
1.0
 10
946.0096172925005
 20
-1417.931920577844
 30
0.0
 41
1.0
 10
946.041824987873
 20
-1418.050316877576
 30
0.0
 41
0.9996701319000844
 10
946.0679106046434
 20
-1418.170210830839
 30
0.0
 41
1.0
 10
946.093996221414
 20
-1418.290104784103
 30
0.0
 41
0.9995785451109359
 10
946.1130797987533
 20
-1418.411310545132
 30
0.0
 41
1.0
 10
946.1172995809272
 20
-1418.438111699898
 30
0.0
 41
1.0
 10
946.121519363101
 20
-1418.464912854664
 30
0.0
 41
1.0
 10
946.1480943390399
 20
-1418.633698828368
 30
0.0
 41
0.9979925101216325
 10
946.1531199249661
 20
-1418.804490156459
 30
0.0
 41
1.0
 10
946.1539447373907
 20
-1418.832520879942
 30
0.0
 41
1.0
 10
946.1547695498155
 20
-1418.860551603426
 30
0.0
 41
1.0
 10
946.1581455108922
 20
-1418.975281484554
 30
0.0
 41
0.9995314902263901
 10
946.1544953187539
 20
-1419.090002968303
 30
0.0
 41
1.0
 10
946.1508451266154
 20
-1419.204724452053
 30
0.0
 41
0.9996245486944407
 10
946.1409160314848
 20
-1419.319073723176
 30
0.0
 41
1.0
 10
946.1407529834905
 20
-1419.320951479312
 30
0.0
 41
1.0
 10
946.1405899354961
 20
-1419.322829235449
 30
0.0
 41
1.0
 10
946.1303347443767
 20
-1419.440934018844
 30
0.0
 41
0.9997286095001578
 10
946.114589420806
 20
-1419.558432927733
 30
0.0
 41
1.0
 10
946.1141959281554
 20
-1419.561369352437
 30
0.0
 41
1.0
 10
946.1138024355046
 20
-1419.564305777142
 30
0.0
 41
1.0
 10
946.0972701266328
 20
-1419.687677535438
 30
0.0
 41
0.9998265533969019
 10
946.0761546678995
 20
-1419.81034801023
 30
0.0
 41
1.0
 10
946.0754781257624
 20
-1419.814278388737
 30
0.0
 41
1.0
 10
946.0748015836255
 20
-1419.818208767244
 30
0.0
 41
1.0
 10
946.0523330406186
 20
-1419.948739999047
 30
0.0
 41
0.9999022530850432
 10
946.026223576009
 20
-1420.078591967684
 30
0.0
 41
1.0
 10
946.0252449348434
 20
-1420.083459110072
 30
0.0
 41
1.0
 10
946.0242662936779
 20
-1420.088326252461
 30
0.0
 41
1.0
 10
945.9961995467345
 20
-1420.227912505887
 30
0.0
 41
0.9999524761940322
 10
945.9654165778969
 20
-1420.366924999063
 30
0.0
 41
1.0
 10
945.9641404707243
 20
-1420.372687758353
 30
0.0
 41
1.0
 10
945.9628643635515
 20
-1420.378450517643
 30
0.0
 41
1.0
 10
945.9295291803667
 20
-1420.528988529408
 30
0.0
 41
0.9999813588722904
 10
945.8943581795673
 20
-1420.679108242079
 30
0.0
 41
1.0
 10
945.8928042541122
 20
-1420.685740832496
 30
0.0
 41
1.0
 10
945.891250328657
 20
-1420.692373422913
 30
0.0
 41
1.0
 10
945.8529714769577
 20
-1420.855758316372
 30
0.0
 41
0.999995523770932
 10
945.8137155989776
 20
-1421.018911219978
 30
0.0
 41
1.0
 10
945.8014339633382
 20
-1421.069955410522
 30
0.0
 41
1.0
 10
945.7891523276987
 20
-1421.120999601066
 30
0.0
 41
1.0
 10
945.725333178458
 20
-1421.386240885683
 30
0.0
 41
0.999999360479241
 10
945.6609142312927
 20
-1421.651337136357
 30
0.0
 41
1.0
 10
945.65619539574
 20
-1421.67075604442
 30
0.0
 41
1.0
 10
945.6514765601875
 20
-1421.690174952483
 30
0.0
 41
1.0
 10
945.5776199419283
 20
-1421.994109019237
 30
0.0
 41
0.9999659914727309
 10
945.4987603460413
 20
-1422.296783565804
 30
0.0
 41
1.0
 10
945.4938076571109
 20
-1422.315792702985
 30
0.0
 41
1.0
 10
945.4888549681805
 20
-1422.334801840167
 30
0.0
 41
1.0
 10
945.4000899944356
 20
-1422.675494661084
 30
0.0
 41
0.9999441976029358
 10
945.304146961469
 20
-1423.014236086394
 30
0.0
 41
1.0
 10
945.2874464430447
 20
-1423.073199798917
 30
0.0
 41
1.0
 10
945.2707459246205
 20
-1423.13216351144
 30
0.0
 41
1.0
 10
945.1414018548124
 20
-1423.588832361772
 30
0.0
 41
0.9999625120734462
 10
945.0041690874924
 20
-1424.043192895757
 30
0.0
 41
1.0
 10
944.9683791444093
 20
-1424.161688922385
 30
0.0
 41
1.0
 10
944.9325892013261
 20
-1424.280184949013
 30
0.0
 41
1.0
 10
944.8580689972783
 20
-1424.526912027138
 30
0.0
 41
0.9999793386302862
 10
944.7803829741379
 20
-1424.772660666383
 30
0.0
 41
1.0
 10
944.7026969510003
 20
-1425.018409305619
 30
0.0
 41
1.0
 10
944.6919173921297
 20
-1425.052427209993
 30
0.0
 41
1.0
 10
942.8415443388606
 20
-1430.939499132461
 30
0.0
 41
1.0
 10
940.9911712855913
 20
-1436.826571054929
 30
0.0
 41
1.0
 10
940.0299145955678
 20
-1436.826571054929
 30
0.0
 41
1.0
 10
939.0686579055442
 20
-1436.826571054929
 30
0.0
 41
1.0
 10
940.6876026842226
 20
-1431.678542553139
 30
0.0
 41
1.0
 10
942.3065474629011
 20
-1426.53051405135
 30
0.0
 41
1.0
 10
942.3517132860733
 20
-1426.386482829087
 30
0.0
 41
1.0
 10
942.3968791092454
 20
-1426.242451606823
 30
0.0
 41
1.0
 10
942.5671835266105
 20
-1425.699360577653
 30
0.0
 41
0.99999116578811
 10
942.7329163382926
 20
-1425.154857046283
 30
0.0
 41
1.0
 10
942.7626122817984
 20
-1425.057293106215
 30
0.0
 41
1.0
 10
942.7923082253042
 20
-1424.959729166147
 30
0.0
 41
1.0
 10
942.8986491499784
 20
-1424.610353514902
 30
0.0
 41
0.999995242813508
 10
943.0028327392979
 20
-1424.26032849057
 30
0.0
 41
1.0
 10
943.0078922096321
 20
-1424.243330216289
 30
0.0
 41
1.0
 10
943.0129516799664
 20
-1424.226331942008
 30
0.0
 41
1.0
 10
943.1070163286254
 20
-1423.910303466212
 30
0.0
 41
0.999993168750546
 10
943.1987421664965
 20
-1423.59358825295
 30
0.0
 41
1.0
 10
943.2036774309536
 20
-1423.576547543688
 30
0.0
 41
1.0
 10
943.2086126954106
 20
-1423.559506834425
 30
0.0
 41
1.0
 10
943.290468004368
 20
-1423.276873039687
 30
0.0
 41
0.9999893840819493
 10
943.369715230827
 20
-1422.993496910433
 30
0.0
 41
1.0
 10
943.4489624572863
 20
-1422.710120781178
 30
0.0
 41
0.9999833980056074
 10
943.5249386980229
 20
-1422.425850198168
 30
0.0
 41
1.0
 10
943.5339426347452
 20
-1422.39216131969
 30
0.0
 41
1.0
 10
943.5429465714675
 20
-1422.358472441211
 30
0.0
 41
1.0
 10
943.6119111203355
 20
-1422.100436608909
 30
0.0
 41
0.9999233658065206
 10
943.6744660915573
 20
-1421.84077245018
 30
0.0
 41
1.0
 10
943.7370210627776
 20
-1421.581108291458
 30
0.0
 41
1.0
 10
943.7765044816351
 20
-1421.417301627032
 30
0.0
 41
1.0
 10
943.7814830856096
 20
-1421.396646665173
 30
0.0
 41
1.0
 10
943.7864616895839
 20
-1421.375991703315
 30
0.0
 41
1.0
 10
943.8159879004904
 20
-1421.253494962615
 30
0.0
 41
0.9999868670841819
 10
943.8442569844889
 20
-1421.13070201696
 30
0.0
 41
1.0
 10
943.8481544716494
 20
-1421.113772429531
 30
0.0
 41
1.0
 10
943.85205195881
 20
-1421.096842842102
 30
0.0
 41
1.0
 10
943.8725260684889
 20
-1421.007909071297
 30
0.0
 41
0.9999778173350999
 10
943.8918136666005
 20
-1420.918710454084
 30
0.0
 41
1.0
 10
943.9111012647148
 20
-1420.82951183686
 30
0.0
 41
0.9999602692856289
 10
943.9287956233454
 20
-1420.739983548434
 30
0.0
 41
1.0
 10
943.9319994554237
 20
-1420.723773093545
 30
0.0
 41
1.0
 10
943.935203287502
 20
-1420.707562638656
 30
0.0
 41
1.0
 10
943.9593053102885
 20
-1420.585613440456
 30
0.0
 41
0.9995617985319997
 10
943.9761486575065
 20
-1420.462451692753
 30
0.0
 41
1.0
 10
943.9786131474131
 20
-1420.444430875385
 30
0.0
 41
1.0
 10
943.9810776373196
 20
-1420.426410058018
 30
0.0
 41
1.0
 10
944.0013608983675
 20
-1420.27809500832
 30
0.0
 41
0.9991121410639622
 10
944.0090862519558
 20
-1420.128598909514
 30
0.0
 41
1.0
 10
944.0100050419805
 20
-1420.110819072933
 30
0.0
 41
1.0
 10
944.0109238320053
 20
-1420.093039236352
 30
0.0
 41
1.0
 10
944.0168116055443
 20
-1419.979102810703
 30
0.0
 41
0.9989792494904592
 10
944.0123925134267
 20
-1419.865099974809
 30
0.0
 41
1.0
 10
944.0117445415581
 20
-1419.848383728882
 30
0.0
 41
1.0
 10
944.0110965696894
 20
-1419.831667482956
 30
0.0
 41
1.0
 10
944.0079734213095
 20
-1419.751097138914
 30
0.0
 41
0.9997820295393652
 10
944.0014894239337
 20
-1419.670727417167
 30
0.0
 41
1.0
 10
943.9950054265578
 20
-1419.59035769542
 30
0.0
 41
0.9998335105974103
 10
943.9855932310464
 20
-1419.510278078974
 30
0.0
 41
1.0
 10
943.98399830637
 20
-1419.49670834849
 30
0.0
 41
1.0
 10
943.9824033816935
 20
-1419.483138618006
 30
0.0
 41
1.0
 10
943.9698013368295
 20
-1419.375919540594
 30
0.0
 41
0.9996876457879315
 10
943.9518574240313
 20
-1419.269464112877
 30
0.0
 41
1.0
 10
943.949625760886
 20
-1419.256224377635
 30
0.0
 41
1.0
 10
943.9473940977405
 20
-1419.242984642392
 30
0.0
 41
1.0
 10
943.9335982763191
 20
-1419.161138498433
 30
0.0
 41
0.9995547496495545
 10
943.9149449544266
 20
-1419.080261001241
 30
0.0
 41
1.0
 10
943.9145709975548
 20
-1419.078639590534
 30
0.0
 41
1.0
 10
943.9141970406832
 20
-1419.077018179827
 30
0.0
 41
1.0
 10
943.896291632534
 20
-1418.99938350405
 30
0.0
 41
0.9994899427175429
 10
943.8734667238546
 20
-1418.923050221216
 30
0.0
 41
1.0
 10
943.8730081971136
 20
-1418.921516771426
 30
0.0
 41
1.0
 10
943.8725496703726
 20
-1418.919983321637
 30
0.0
 41
1.0
 10
943.8506418151752
 20
-1418.846716938381
 30
0.0
 41
0.9993784877590237
 10
943.8236261800687
 20
-1418.775176233222
 30
0.0
 41
1.0
 10
943.8230944890923
 20
-1418.773768250503
 30
0.0
 41
1.0
 10
943.822562798116
 20
-1418.772360267784
 30
0.0
 41
1.0
 10
943.7966105449625
 20
-1418.703635528064
 30
0.0
 41
0.9992430832254913
 10
943.7653940098028
 20
-1418.637136375995
 30
0.0
 41
1.0
 10
943.7648118937459
 20
-1418.635896320877
 30
0.0
 41
1.0
 10
943.7642297776891
 20
-1418.634656265759
 30
0.0
 41
1.0
 10
943.7341774746427
 20
-1418.570637223925
 30
0.0
 41
0.999078963279845
 10
943.6987468478667
 20
-1418.509430612177
 30
0.0
 41
1.0
 10
943.6981511416852
 20
-1418.508401526319
 30
0.0
 41
1.0
 10
943.6975554355038
 20
-1418.50737244046
 30
0.0
 41
1.0
 10
943.6633162210906
 20
-1418.448224000428
 30
0.0
 41
0.9988874801120352
 10
943.623656945058
 20
-1418.392564288009
 30
0.0
 41
1.0
 10
943.6231014189934
 20
-1418.391784636334
 30
0.0
 41
1.0
 10
943.622545892929
 20
-1418.391004984659
 30
0.0
 41
1.0
 10
943.5839976690258
 20
-1418.336904575592
 30
0.0
 41
0.998676206069463
 10
943.5400951977497
 20
-1418.287050861152
 30
0.0
 41
1.0
 10
943.539651237417
 20
-1418.286546719336
 30
0.0
 41
1.0
 10
943.5392072770845
 20
-1418.286042577518
 30
0.0
 41
1.0
 10
943.4961927264736
 20
-1418.237197146713
 30
0.0
 41
0.998462164248747
 10
943.4480351696957
 20
-1418.193413846242
 30
0.0
 41
1.0
 10
943.4477885351789
 20
-1418.193189614078
 30
0.0
 41
1.0
 10
943.4475419006621
 20
-1418.192965381915
 30
0.0
 41
1.0
 10
943.399877612918
 20
-1418.149630545771
 30
0.0
 41
0.998272469385053
 10
943.3474589810764
 20
-1418.112186195253
 30
0.0
 41
1.0
 10
943.2950403492354
 20
-1418.074741844736
 30
0.0
 41
0.9981399180158352
 10
943.2384542858422
 20
-1418.043955325293
 30
0.0
 41
1.0
 10
943.2384086237635
 20
-1418.043930482135
 30
0.0
 41
1.0
 10
943.2383629616847
 20
-1418.043905638978
 30
0.0
 41
1.0
 10
943.1816855741351
 20
-1418.013069433221
 30
0.0
 41
0.9980927086836645
 10
943.1216402230696
 20
-1417.989452624368
 30
0.0
 41
1.0
 10
943.1212000533571
 20
-1417.989279498493
 30
0.0
 41
1.0
 10
943.1207598836447
 20
-1417.989106372618
 30
0.0
 41
1.0
 10
943.0598341931543
 20
-1417.965143312015
 30
0.0
 41
0.9981411356560376
 10
942.9964456717537
 20
-1417.948770670509
 30
0.0
 41
1.0
 10
942.9955635550532
 20
-1417.948542828304
 30
0.0
 41
1.0
 10
942.9946814383527
 20
-1417.948314986099
 30
0.0
 41
1.0
 10
942.9295286835508
 20
-1417.931486660182
 30
0.0
 41
0.9983031812935483
 10
942.8628612545557
 20
-1417.922347299006
 30
0.0
 41
1.0
 10
942.8539902291511
 20
-1417.921131180335
 30
0.0
 41
1.0
 10
942.8451192037464
 20
-1417.919915061663
 30
0.0
 41
1.0
 10
942.7907695612431
 20
-1417.912464331672
 30
0.0
 41
0.9983887708262746
 10
942.7359257119509
 20
-1417.911219658039
 30
0.0
 41
1.0
 10
942.7278623067385
 20
-1417.911036660164
 30
0.0
 41
1.0
 10
942.7197989015261
 20
-1417.910853662289
 30
0.0
 41
1.0
 10
942.6810818626632
 20
-1417.909974984406
 30
0.0
 41
0.9998869563079096
 10
942.6423559094554
 20
-1417.910260853765
 30
0.0
 41
1.0
 10
942.6036299562525
 20
-1417.910546723125
 30
0.0
 41
0.9999972320075625
 10
942.564905777041
 20
-1417.911014822654
 30
0.0
 41
1.0
 10
942.5455527604615
 20
-1417.911248762743
 30
0.0
 41
1.0
 10
942.526199743882
 20
-1417.911482702833
 30
0.0
 41
1.0
 10
942.4487695315077
 20
-1417.912418682541
 30
0.0
 41
0.9997304945087131
 10
942.3714662252664
 20
-1417.916947776327
 30
0.0
 41
1.0
 10
942.3624165835658
 20
-1417.917477982317
 30
0.0
 41
1.0
 10
942.3533669418651
 20
-1417.918008188306
 30
0.0
 41
1.0
 10
942.2579643522207
 20
-1417.923597694072
 30
0.0
 41
0.9997888306415121
 10
942.1628720163806
 20
-1417.933102658561
 30
0.0
 41
1.0
 10
942.1541509548058
 20
-1417.933974373193
 30
0.0
 41
1.0
 10
942.1454298932309
 20
-1417.934846087826
 30
0.0
 41
1.0
 10
942.0328954342411
 20
-1417.946094481579
 30
0.0
 41
0.9984170238190655
 10
941.9223362868888
 20
-1417.969910563515
 30
0.0
 41
1.0
 10
941.885955155904
 20
-1417.977747599321
 30
0.0
 41
1.0
 10
941.849574024919
 20
-1417.985584635127
 30
0.0
 41
1.0
 10
941.7343829564976
 20
-1418.010398501637
 30
0.0
 41
0.9976592854199606
 10
941.6236547900921
 20
-1418.050697178784
 30
0.0
 41
1.0
 10
941.5129266236869
 20
-1418.090995855931
 30
0.0
 41
0.9993255074352055
 10
941.4054548248972
 20
-1418.139312754423
 30
0.0
 41
1.0
 10
941.4008296459735
 20
-1418.141392130623
 30
0.0
 41
1.0
 10
941.3962044670498
 20
-1418.143471506823
 30
0.0
 41
1.0
 10
941.2794823104131
 20
-1418.195947157714
 30
0.0
 41
0.9976475078275383
 10
941.1710349661026
 20
-1418.263895147373
 30
0.0
 41
1.0
 10
941.1526925719672
 20
-1418.275387626188
 30
0.0
 41
1.0
 10
941.1343501778317
 20
-1418.286880105003
 30
0.0
 41
1.0
 10
941.0501479862796
 20
-1418.339637225771
 30
0.0
 41
0.999513133640665
 10
940.9694002713228
 20
-1418.397543437724
 30
0.0
 41
1.0
 10
940.8886525563684
 20
-1418.455449649675
 30
0.0
 41
0.9995810107606149
 10
940.811390908642
 20
-1418.517931332139
 30
0.0
 41
1.0
 10
940.8084208774292
 20
-1418.520333203605
 30
0.0
 41
1.0
 10
940.8054508462164
 20
-1418.522735075072
 30
0.0
 41
1.0
 10
940.7222491360665
 20
-1418.590020500468
 30
0.0
 41
0.9996617837954287
 10
940.6426584489274
 20
-1418.661540956032
 30
0.0
 41
1.0
 10
940.6305276980555
 20
-1418.672441689017
 30
0.0
 41
1.0
 10
940.6183969471837
 20
-1418.683342422004
 30
0.0
 41
1.0
 10
940.5501214197844
 20
-1418.744695037478
 30
0.0
 41
0.9997267750052683
 10
940.484787911497
 20
-1418.809171574007
 30
0.0
 41
1.0
 10
940.4194544031978
 20
-1418.873648110547
 30
0.0
 41
0.9999667288960216
 10
940.3551814600353
 20
-1418.939181917458
 30
0.0
 41
1.0
 10
940.2863540122759
 20
-1419.0093595762
 30
0.0
 41
1.0
 10
940.2175265645164
 20
-1419.079537234943
 30
0.0
 41
1.0
 10
940.0155987258183
 20
-1419.285426359355
 30
0.0
 41
0.9988205335174909
 10
939.8345931088375
 20
-1419.509930591418
 30
0.0
 41
1.0
 10
939.8039531439341
 20
-1419.547933841846
 30
0.0
 41
1.0
 10
939.7733131790308
 20
-1419.585937092274
 30
0.0
 41
1.0
 10
939.5310276322411
 20
-1419.886447825196
 30
0.0
 41
0.9997077826755496
 10
939.3035496811356
 20
-1420.198317619413
 30
0.0
 41
1.0
 10
939.3018262660056
 20
-1420.200680402791
 30
0.0
 41
1.0
 10
939.3001028508756
 20
-1420.20304318617
 30
0.0
 41
1.0
 10
939.0691780695101
 20
-1420.519638547145
 30
0.0
 41
0.9989147567079063
 10
938.8687145666267
 20
-1420.856348008329
 30
0.0
 41
1.0
 10
938.8439734213189
 20
-1420.897904588884
 30
0.0
 41
1.0
 10
938.8192322760109
 20
-1420.939461169438
 30
0.0
 41
1.0
 10
938.6640209773749
 20
-1421.200162553888
 30
0.0
 41
0.9997476598181901
 10
938.5206759898651
 20
-1421.467572302471
 30
0.0
 41
1.0
 10
938.377331002356
 20
-1421.734982051052
 30
0.0
 41
0.9996258967109305
 10
938.2488227504248
 20
-1422.009829987675
 30
0.0
 41
1.0
 10
938.2356228409737
 20
-1422.038061387774
 30
0.0
 41
1.0
 10
938.2224229315227
 20
-1422.066292787872
 30
0.0
 41
1.0
 10
938.082214210524
 20
-1422.366165185823
 30
0.0
 41
0.9998735413946069
 10
937.951612863804
 20
-1422.670344785289
 30
0.0
 41
1.0
 10
937.9481700357414
 20
-1422.678363370759
 30
0.0
 41
1.0
 10
937.9447272076787
 20
-1422.686381956229
 30
0.0
 41
1.0
 10
937.8210115170801
 20
-1422.974524384765
 30
0.0
 41
0.9999377418859036
 10
937.7037567149089
 20
-1423.265355852432
 30
0.0
 41
1.0
 10
937.5865019127323
 20
-1423.556187320112
 30
0.0
 41
0.999950829950533
 10
937.4750379693553
 20
-1423.849286996933
 30
0.0
 41
1.0
 10
937.4719572006934
 20
-1423.857388022895
 30
0.0
 41
1.0
 10
937.4688764320315
 20
-1423.865489048857
 30
0.0
 41
1.0
 10
937.3512509513291
 20
-1424.174790777606
 30
0.0
 41
0.999960922843671
 10
937.2391123484582
 20
-1424.486123793613
 30
0.0
 41
1.0
 10
937.2361563381071
 20
-1424.494330634027
 30
0.0
 41
1.0
 10
937.2332003277559
 20
-1424.502537474441
 30
0.0
 41
1.0
 10
937.1151497041839
 20
-1424.830284171272
 30
0.0
 41
0.9999674607401513
 10
937.0024021781155
 20
-1425.159892791267
 30
0.0
 41
1.0
 10
936.9510037875541
 20
-1425.310151986956
 30
0.0
 41
1.0
 10
936.8996053969926
 20
-1425.460411182645
 30
0.0
 41
1.0
 10
936.7835947902314
 20
-1425.799559165157
 30
0.0
 41
0.9999287532308218
 10
936.6757133862609
 20
-1426.141379904133
 30
0.0
 41
1.0
 10
936.6292361300931
 20
-1426.288642448595
 30
0.0
 41
1.0
 10
936.5827588739253
 20
-1426.435904993056
 30
0.0
 41
1.0
 10
936.5678319822573
 20
-1426.483200643212
 30
0.0
 41
0.9999998224441943
 10
936.5529614735597
 20
-1426.53051405135
 30
0.0
 41
1.0
 10
934.9323053367642
 20
-1431.678542553139
 30
0.0
 41
1.0
 10
933.3116491999688
 20
-1436.826571054929
 30
0.0
 41
1.0
 10
932.4063407560778
 20
-1436.826571054929
 30
0.0
 41
1.0
 10
931.5010323121869
 20
-1436.826571054929
 30
0.0
 41
1.0
 10
933.353116723573
 20
-1430.939499132461
 30
0.0
 41
1.0
 10
935.205201134959
 20
-1425.052427209993
 30
0.0
 41
1.0
 10
935.2153228932617
 20
-1425.020383996544
 30
0.0
 41
1.0
 10
935.2879305621115
 20
-1424.790084454718
 30
0.0
 41
1.0
 10
935.3605382309668
 20
-1424.559784912874
 30
0.0
 41
0.9999825681965081
 10
935.4304212701784
 20
-1424.328644017809
 30
0.0
 41
1.0
 10
935.478712332334
 20
-1424.16891943433
 30
0.0
 41
1.0
 10
935.5270033944895
 20
-1424.009194850851
 30
0.0
 41
1.0
 10
935.6241557478097
 20
-1423.687859629065
 30
0.0
 41
0.9999672528964244
 10
935.7160945534335
 20
-1423.364994083477
 30
0.0
 41
1.0
 10
935.7188834370983
 20
-1423.355200238105
 30
0.0
 41
1.0
 10
935.721672320763
 20
-1423.345406392733
 30
0.0
 41
1.0
 10
935.8080333590524
 20
-1423.042128537906
 30
0.0
 41
0.9999899749145433
 10
935.8916749685916
 20
-1422.738089449438
 30
0.0
 41
1.0
 10
935.9017808876101
 20
-1422.701354211756
 30
0.0
 41
1.0
 10
935.9118868066288
 20
-1422.664618974074
 30
0.0
 41
1.0
 10
935.9753165781278
 20
-1422.43405036098
 30
0.0
 41
0.999921420050334
 10
936.0329460065041
 20
-1422.201964018777
 30
0.0
 41
1.0
 10
936.0457118586824
 20
-1422.15055313339
 30
0.0
 41
1.0
 10
936.0584777108606
 20
-1422.099142248002
 30
0.0
 41
1.0
 10
936.0905754348769
 20
-1421.969877676587
 30
0.0
 41
0.9999828681668703
 10
936.1211576868772
 20
-1421.8402462021
 30
0.0
 41
1.0
 10
936.1517399388744
 20
-1421.710614727624
 30
0.0
 41
0.9999389844480903
 10
936.1794509276631
 20
-1421.580339271726
 30
0.0
 41
1.0
 10
936.1865886713827
 20
-1421.546783167892
 30
0.0
 41
1.0
 10
936.1937264151022
 20
-1421.513227064057
 30
0.0
 41
1.0
 10
936.2357128913326
 20
-1421.315839400479
 30
0.0
 41
0.9998933699439072
 10
936.2719171557355
 20
-1421.117309792716
 30
0.0
 41
1.0
 10
936.2732899809512
 20
-1421.109781772023
 30
0.0
 41
1.0
 10
936.2746628061668
 20
-1421.102253751331
 30
0.0
 41
1.0
 10
936.3136127210014
 20
-1420.888668102181
 30
0.0
 41
0.9996850305193733
 10
936.3417963972599
 20
-1420.673397096747
 30
0.0
 41
1.0
 10
936.3437914306294
 20
-1420.658158742624
 30
0.0
 41
1.0
 10
936.3457864639988
 20
-1420.6429203885
 30
0.0
 41
1.0
 10
936.373194326458
 20
-1420.433575161344
 30
0.0
 41
0.9994697936706437
 10
936.3869188856777
 20
-1420.222889966013
 30
0.0
 41
1.0
 10
936.3873959549273
 20
-1420.215566493802
 30
0.0
 41
1.0
 10
936.387873024177
 20
-1420.208243021592
 30
0.0
 41
1.0
 10
936.4006434448975
 20
-1420.012204770683
 30
0.0
 41
0.9991804893136885
 10
936.3975151286245
 20
-1419.815775920709
 30
0.0
 41
1.0
 10
936.3974312498024
 20
-1419.810509119294
 30
0.0
 41
1.0
 10
936.3973473709802
 20
-1419.805242317879
 30
0.0
 41
1.0
 10
936.3943868123517
 20
-1419.619347070733
 30
0.0
 41
0.9988448329321542
 10
936.373595266728
 20
-1419.434594480902
 30
0.0
 41
1.0
 10
936.372001193025
 20
-1419.420429625131
 30
0.0
 41
1.0
 10
936.370407119322
 20
-1419.406264769359
 30
0.0
 41
1.0
 10
936.3528037211042
 20
-1419.249841891069
 30
0.0
 41
0.9985503209458917
 10
936.3184874488047
 20
-1419.096217706979
 30
0.0
 41
1.0
 10
936.3109014567333
 20
-1419.062257379578
 30
0.0
 41
1.0
 10
936.3033154646619
 20
-1419.028297052177
 30
0.0
 41
1.0
 10
936.2841711765047
 20
-1418.942593522889
 30
0.0
 41
0.9991036781370592
 10
936.2578463148539
 20
-1418.858816435565
 30
0.0
 41
1.0
 10
936.2538640893986
 20
-1418.846143273057
 30
0.0
 41
1.0
 10
936.2498818639433
 20
-1418.833470110548
 30
0.0
 41
1.0
 10
936.2315214532033
 20
-1418.775039348242
 30
0.0
 41
0.9998874504368273
 10
936.2114162455243
 20
-1418.717185746017
 30
0.0
 41
1.0
 10
936.1913110378456
 20
-1418.659332143792
 30
0.0
 41
0.9994041637543226
 10
936.1672624249106
 20
-1418.603003439902
 30
0.0
 41
1.0
 10
936.1630656406874
 20
-1418.593173375421
 30
0.0
 41
1.0
 10
936.158868856464
 20
-1418.583343310941
 30
0.0
 41
1.0
 10
936.1309900254691
 20
-1418.518043144973
 30
0.0
 41
0.9991846840702163
 10
936.0979336687759
 20
-1418.455205113693
 30
0.0
 41
1.0
 10
936.0967970623813
 20
-1418.453044497239
 30
0.0
 41
1.0
 10
936.0956604559867
 20
-1418.450883880785
 30
0.0
 41
1.0
 10
936.0648773120834
 20
-1418.392367082413
 30
0.0
 41
0.9989253167923063
 10
936.0288078880278
 20
-1418.336952154022
 30
0.0
 41
1.0
 10
936.0277537633538
 20
-1418.33533265926
 30
0.0
 41
1.0
 10
936.0266996386798
 20
-1418.333713164498
 30
0.0
 41
1.0
 10
935.9927384639736
 20
-1418.281537225633
 30
0.0
 41
0.9986467172837152
 10
935.9535413113356
 20
-1418.233171192002
 30
0.0
 41
1.0
 10
935.952667182635
 20
-1418.232092589724
 30
0.0
 41
1.0
 10
935.9517930539344
 20
-1418.231013987446
 30
0.0
 41
1.0
 10
935.9143441586981
 20
-1418.184805158373
 30
0.0
 41
0.9984001104267862
 10
935.871917428181
 20
-1418.143120051004
 30
0.0
 41
1.0
 10
935.8713302900711
 20
-1418.142543176122
 30
0.0
 41
1.0
 10
935.8707431519613
 20
-1418.14196630124
 30
0.0
 41
1.0
 10
935.8294906976632
 20
-1418.101434943634
 30
0.0
 41
0.9982442159080933
 10
935.7837345963283
 20
-1418.066066382375
 30
0.0
 41
1.0
 10
935.7835198008662
 20
-1418.065900349731
 30
0.0
 41
1.0
 10
935.7833050054041
 20
-1418.065734317088
 30
0.0
 41
1.0
 10
935.7379784949924
 20
-1418.030697821114
 30
0.0
 41
0.9982450060835616
 10
935.6888275159208
 20
-1418.001266038081
 30
0.0
 41
1.0
 10
935.6396765368486
 20
-1417.971834255047
 30
0.0
 41
0.9983922639634907
 10
935.5875102306834
 20
-1417.948154620393
 30
0.0
 41
1.0
 10
935.5872833533593
 20
-1417.948051634912
 30
0.0
 41
1.0
 10
935.5870564760353
 20
-1417.947948649431
 30
0.0
 41
1.0
 10
935.5344364152224
 20
-1417.924063043814
 30
0.0
 41
0.9986517147150286
 10
935.4796234423552
 20
-1417.905761924693
 30
0.0
 41
1.0
 10
935.4789455209266
 20
-1417.905535578261
 30
0.0
 41
1.0
 10
935.4782675994979
 20
-1417.905309231829
 30
0.0
 41
1.0
 10
935.4220987837755
 20
-1417.886555419845
 30
0.0
 41
0.9989435598957268
 10
935.3644453966253
 20
-1417.873037717611
 30
0.0
 41
1.0
 10
935.3633652770424
 20
-1417.872784467357
 30
0.0
 41
1.0
 10
935.3622851574594
 20
-1417.872531217104
 30
0.0
 41
1.0
 10
935.3024715311435
 20
-1417.858507014363
 30
0.0
 41
0.9992249241240211
 10
935.2417400222448
 20
-1417.849231671648
 30
0.0
 41
1.0
 10
935.240326333955
 20
-1417.84901576324
 30
0.0
 41
1.0
 10
935.2389126456652
 20
-1417.848799854833
 30
0.0
 41
1.0
 10
935.1753537601858
 20
-1417.839092695302
 30
0.0
 41
0.9994396597833445
 10
935.1112878236497
 20
-1417.833659772956
 30
0.0
 41
1.0
 10
935.0921471561714
 20
-1417.832036605237
 30
0.0
 41
1.0
 10
935.0730064886932
 20
-1417.830413437519
 30
0.0
 41
1.0
 10
934.9706592172007
 20
-1417.821734179736
 30
0.0
 41
0.9987693403122158
 10
934.8679555936138
 20
-1417.823237243188
 30
0.0
 41
1.0
 10
934.8577012593847
 20
-1417.823387314962
 30
0.0
 41
1.0
 10
934.8474469251556
 20
-1417.823537386737
 30
0.0
 41
1.0
 10
934.7378911589786
 20
-1417.825140731024
 30
0.0
 41
0.9989753644964989
 10
934.6289291589637
 20
-1417.836643737949
 30
0.0
 41
1.0
 10
934.5199671589475
 20
-1417.848146744875
 30
0.0
 41
0.9983190067306374
 10
934.4130683479833
 20
-1417.872181736661
 30
0.0
 41
1.0
 10
934.4041673963761
 20
-1417.874183015224
 30
0.0
 41
1.0
 10
934.3952664447688
 20
-1417.876184293787
 30
0.0
 41
1.0
 10
934.2705657305897
 20
-1417.904221842699
 30
0.0
 41
0.9985539388303366
 10
934.149595976911
 20
-1417.945485518745
 30
0.0
 41
1.0
 10
934.1472505459515
 20
-1417.94628556256
 30
0.0
 41
1.0
 10
934.1449051149918
 20
-1417.947085606376
 30
0.0
 41
1.0
 10
934.0192444993935
 20
-1417.989949370053
 30
0.0
 41
0.9988468746493513
 10
933.898274157093
 20
-1418.044667455116
 30
0.0
 41
1.0
 10
933.8950913351043
 20
-1418.046107129675
 30
0.0
 41
1.0
 10
933.8919085131156
 20
-1418.047546804235
 30
0.0
 41
1.0
 10
933.7645725268377
 20
-1418.105144238418
 30
0.0
 41
0.9991322885919309
 10
933.6424719427803
 20
-1418.1731395706
 30
0.0
 41
1.0
 10
933.6248699317373
 20
-1418.182941772589
 30
0.0
 41
1.0
 10
933.6072679206943
 20
-1418.192743974579
 30
0.0
 41
1.0
 10
933.5050912396375
 20
-1418.249644090359
 30
0.0
 41
0.9993860037849787
 10
933.4071502355627
 20
-1418.313560105949
 30
0.0
 41
1.0
 10
933.4015319227105
 20
-1418.317226600644
 30
0.0
 41
1.0
 10
933.3959136098586
 20
-1418.320893095338
 30
0.0
 41
1.0
 10
933.3092092314895
 20
-1418.377476121537
 30
0.0
 41
0.9998821494951561
 10
933.2242828556764
 20
-1418.436694351614
 30
0.0
 41
1.0
 10
933.1393564798586
 20
-1418.495912581694
 30
0.0
 41
0.999797648274416
 10
933.0568808494476
 20
-1418.558498989742
 30
0.0
 41
1.0
 10
933.0422445846489
 20
-1418.569605679517
 30
0.0
 41
1.0
 10
933.0276083198502
 20
-1418.580712369292
 30
0.0
 41
1.0
 10
932.9158601598396
 20
-1418.665512156891
 30
0.0
 41
0.9998091630799986
 10
932.8075098818124
 20
-1418.754612507592
 30
0.0
 41
1.0
 10
932.7945041293334
 20
-1418.765307608039
 30
0.0
 41
1.0
 10
932.7814983768544
 20
-1418.776002708487
 30
0.0
 41
1.0
 10
932.6471365938731
 20
-1418.88649326008
 30
0.0
 41
0.9995035112317799
 10
932.5200007161087
 20
-1419.005227077095
 30
0.0
 41
1.0
 10
932.5103534057241
 20
-1419.01423682325
 30
0.0
 41
1.0
 10
932.5007060953395
 20
-1419.023246569406
 30
0.0
 41
1.0
 10
932.3772830325709
 20
-1419.138512941165
 30
0.0
 41
0.9994630424299094
 10
932.261674626785
 20
-1419.261615684402
 30
0.0
 41
1.0
 10
932.2579917880148
 20
-1419.265537263914
 30
0.0
 41
1.0
 10
932.2543089492447
 20
-1419.269458843425
 30
0.0
 41
1.0
 10
932.1460662210013
 20
-1419.384718427637
 30
0.0
 41
0.9995160693749632
 10
932.045200191469
 20
-1419.50648584551
 30
0.0
 41
1.0
 10
932.0432664713875
 20
-1419.508820269719
 30
0.0
 41
1.0
 10
932.041332751306
 20
-1419.511154693928
 30
0.0
 41
1.0
 10
931.9443341619357
 20
-1419.628253263384
 30
0.0
 41
0.9996561470513997
 10
931.8536079432712
 20
-1419.750276025832
 30
0.0
 41
1.0
 10
931.8474502773684
 20
-1419.758557814875
 30
0.0
 41
1.0
 10
931.8412926114656
 20
-1419.766839603918
 30
0.0
 41
1.0
 10
931.7628817246041
 20
-1419.872298788282
 30
0.0
 41
0.9998349055174095
 10
931.688354442673
 20
-1419.980537371944
 30
0.0
 41
1.0
 10
931.6138271607405
 20
-1420.088775955608
 30
0.0
 41
0.9999728109560062
 10
931.5409042648314
 20
-1420.198101881161
 30
0.0
 41
1.0
 10
931.5395890494193
 20
-1420.200073650665
 30
0.0
 41
1.0
 10
931.5382738340072
 20
-1420.202045420168
 30
0.0
 41
1.0
 10
931.462720507282
 20
-1420.315314884715
 30
0.0
 41
0.999997214746944
 10
931.3877026969201
 20
-1420.428939727533
 30
0.0
 41
1.0
 10
931.3827311542875
 20
-1420.436469816021
 30
0.0
 41
1.0
 10
931.3777596116548
 20
-1420.443999904508
 30
0.0
 41
1.0
 10
931.2927987160376
 20
-1420.572684924287
 30
0.0
 41
0.9999371979002082
 10
931.2107433666359
 20
-1420.70324183806
 30
0.0
 41
1.0
 10
931.2072344822718
 20
-1420.708824766129
 30
0.0
 41
1.0
 10
931.2037255979078
 20
-1420.714407694197
 30
0.0
 41
1.0
 10
931.114652479779
 20
-1420.856130464106
 30
0.0
 41
0.9998272025610725
 10
931.0309090888937
 20
-1421.001066340854
 30
0.0
 41
1.0
 10
931.0156939168714
 20
-1421.027399455308
 30
0.0
 41
1.0
 10
931.000478744849
 20
-1421.053732569761
 30
0.0
 41
1.0
 10
930.8863050099179
 20
-1421.251334675419
 30
0.0
 41
0.9995217214838326
 10
930.7845653203632
 20
-1421.455617003279
 30
0.0
 41
1.0
 10
930.7769217577284
 20
-1421.470964452982
 30
0.0
 41
1.0
 10
930.7692781950936
 20
-1421.486311902684
 30
0.0
 41
1.0
 10
930.6823729025039
 20
-1421.660808360766
 30
0.0
 41
0.9998269762607875
 10
930.6020184362314
 20
-1421.83841664749
 30
0.0
 41
1.0
 10
930.5216639699609
 20
-1422.01602493421
 30
0.0
 41
0.9998944747387973
 10
930.4465031753973
 20
-1422.195892659837
 30
0.0
 41
1.0
 10
930.4415495058056
 20
-1422.207747314755
 30
0.0
 41
1.0
 10
930.436595836214
 20
-1422.219601969674
 30
0.0
 41
1.0
 10
930.3559487756626
 20
-1422.412598909689
 30
0.0
 41
0.9999506734412151
 10
930.2791512467556
 20
-1422.607159714553
 30
0.0
 41
1.0
 10
930.2645512814845
 20
-1422.644147636359
 30
0.0
 41
1.0
 10
930.2499513162135
 20
-1422.681135558166
 30
0.0
 41
1.0
 10
930.202353717845
 20
-1422.801720519427
 30
0.0
 41
0.9999912393954736
 10
930.1557672738295
 20
-1422.922699722105
 30
0.0
 41
1.0
 10
930.1091808297947
 20
-1423.043678924833
 30
0.0
 41
0.9999927113973338
 10
930.0635195353985
 20
-1423.165010332341
 30
0.0
 41
1.0
 10
930.0495511040081
 20
-1423.202127314321
 30
0.0
 41
1.0
 10
930.0355826726175
 20
-1423.239244296301
 30
0.0
 41
1.0
 10
929.961984515426
 20
-1423.434809667805
 30
0.0
 41
0.9999487550950523
 10
929.8923608904531
 20
-1423.631825032991
 30
0.0
 41
1.0
 10
929.8687672805195
 20
-1423.698588343275
 30
0.0
 41
1.0
 10
929.8451736705857
 20
-1423.765351653559
 30
0.0
 41
1.0
 10
929.7504880362167
 20
-1424.033285488379
 30
0.0
 41
0.9999808436934439
 10
929.6591264475703
 20
-1424.302370919658
 30
0.0
 41
1.0
 10
929.5677648589254
 20
-1424.571456350933
 30
0.0
 41
0.9999873932898693
 10
929.4791101502113
 20
-1424.841445705935
 30
0.0
 41
1.0
 10
929.4590177933417
 20
-1424.902635038688
 30
0.0
 41
1.0
 10
929.4389254364721
 20
-1424.963824371442
 30
0.0
 41
1.0
 10
929.3100860140094
 20
-1425.356192391978
 30
0.0
 41
0.9999794883019707
 10
929.1862832290444
 20
-1425.750178598279
 30
0.0
 41
1.0
 10
929.1751309696176
 20
-1425.785669208482
 30
0.0
 41
1.0
 10
929.1639787101907
 20
-1425.821159818685
 30
0.0
 41
1.0
 10
929.0214205462837
 20
-1426.274832570803
 30
0.0
 41
0.9999982761821599
 10
928.8805481062695
 20
-1426.729031592922
 30
0.0
 41
1.0
 10
927.2924077736969
 20
-1431.777801323925
 30
0.0
 41
1.0
 10
925.7042674411243
 20
-1436.826571054929
 30
0.0
 41
1.0
 10
924.755516829648
 20
-1436.826571054929
 30
0.0
 41
1.0
 10
923.8067662181716
 20
-1436.826571054929
 30
0.0
 41
1.0
 10
927.0450507043247
 20
-1426.499248854982
 30
0.0
 41
1.0
 10
930.2833351904779
 20
-1416.171926655036
 30
0.0
 41
1.0
  0
LWPOLYLINE
  5
96
330
26
100
AcDbEntity
  8
0
  6
Continuous
 62
     7
370
    15
390
1D
100
AcDbPolyline
 90
      232
 70
   128
 43
0.0
 10
904.5797894166509
 20
-1417.256269486551
 42
0.0004370800701325
 10
904.526912242506
 20
-1417.324936125902
 10
904.4876280114514
 20
-1417.376043238704
 42
0.0030481992181203
 10
904.3572892943221
 20
-1417.547764931062
 10
904.3187776225818
 20
-1417.599151714836
 42
0.0042058245756229
 10
904.1147925719056
 20
-1417.876157459919
 10
904.0623874494113
 20
-1417.948590306691
 42
0.0120948898738244
 10
903.7663435326505
 20
-1418.379339911239
 10
903.6701510335276
 20
-1418.526820646465
 42
0.0141601263949377
 10
903.3665069866059
 20
-1419.0224899832
 10
903.326969719184
 20
-1419.091333950625
 42
0.0071131081302959
 10
903.1216973959415
 20
-1419.46083674947
 42
0.0068458791007259
 10
902.9268178690937
 20
-1419.835928312956
 10
902.9200060066407
 20
-1419.84949002667
 42
0.0064120880288173
 10
902.7218637566014
 20
-1420.256914501578
 10
902.7143290710794
 20
-1420.27292635831
 42
0.0058857236447399
 10
902.5115736792083
 20
-1420.717302469344
 10
902.5033987529138
 20
-1420.735792622979
 42
0.0053189741895426
 10
902.2946944402463
 20
-1421.221756096897
 10
902.2859466345649
 20
-1421.242737975093
 42
0.0047503650420771
 10
902.0699729084125
 20
-1421.774937408307
 10
902.060704660066
 20
-1421.798413784411
 42
0.0042071762170301
 10
901.8361572763326
 20
-1422.381507378495
 10
901.8264078739896
 20
-1422.40747355335
 42
0.0036680086485185
 10
901.5919532306756
 20
-1423.046108937887
 10
901.5817454508298
 20
-1423.074557472226
 42
0.0032573142628616
 10
901.3361131648561
 20
-1423.773410132
 10
901.267462644024
 20
-1423.972873216027
 42
0.0026133366647837
 10
900.9190174452644
 20
-1425.002736499704
 10
900.8557606577633
 20
-1425.192967335098
 42
0.0020592950742597
 10
900.6418975887966
 20
-1425.84507098771
 10
900.638845797622
 20
-1425.854507476155
 42
0.0025609928538832
 10
900.4370252961477
 20
-1426.489652698486
 10
900.4344339290112
 20
-1426.497955039457
 42
0.0031362356241292
 10
900.244943143344
 20
-1427.118717895606
 10
900.2428121004158
 20
-1427.12585920182
 42
0.0037229918026693
 10
900.0660117134903
 20
-1427.734844503791
 10
900.0643331242877
 20
-1427.740791393952
 42
0.0043077623705043
 10
899.9005923222188
 20
-1428.340610125734
 42
0.0047654161826719
 10
899.7477635996997
 20
-1428.943296214649
 10
899.7132989908637
 20
-1429.084857991787
 42
0.0112969368444588
 10
899.5174346327211
 20
-1429.976550152406
 10
899.4894282436235
 20
-1430.119378198509
 42
0.0130056762570154
 10
899.2885909999768
 20
-1431.306319270154
 10
899.2680512498296
 20
-1431.450397383632
 42
0.0138721532145181
 10
899.1643482452919
 20
-1432.357226869456
 10
899.1450527573841
 20
-1432.58072459138
 42
0.0071254697007697
 10
899.1117061114614
 20
-1433.043911600229
 10
899.1067451372976
 20
-1433.129915594798
 42
0.0028881799199233
 10
899.0916068440083
 20
-1433.421657304631
 42
0.0060297297136873
 10
899.0816746442327
 20
-1433.713606240746
 10
899.0806123625656
 20
-1433.761998612681
 42
0.0229523164150701
 10
899.0883433903514
 20
-1434.084753458963
 10
899.0925691638714
 20
-1434.145156992975
 42
0.0123673300671335
 10
899.1116478103901
 20
-1434.346277718154
 42
0.0128577674480625
 10
899.1408432007967
 20
-1434.546175568082
 10
899.1479690741834
 20
-1434.587504382677
 42
0.028571785377146
 10
899.2124630758791
 20
-1434.865620533991
 10
899.2261315995452
 20
-1434.912275303467
 42
0.0316283099156477
 10
899.3419421794597
 20
-1435.231289805294
 10
899.3449908712155
 20
-1435.23827617762
 42
0.0338984824232893
 10
899.4944225821824
 20
-1435.525842141808
 10
899.4967313115525
 20
-1435.529633171085
 42
0.0350228718354227
 10
899.6790916022259
 20
-1435.786685155761
 10
899.6799768540004
 20
-1435.787764233525
 42
0.0347476747523674
 10
899.894401541241
 20
-1436.014949280745
 42
0.0331337701912999
 10
900.1376448669884
 20
-1436.211077942824
 10
900.1387449655035
 20
-1436.211850645995
 42
0.030523331907975
 10
900.4072896610775
 20
-1436.376978816087
 10
900.410519705578
 20
-1436.378702827949
 42
0.0273744481153496
 10
900.7030734171523
 20
-1436.51484097184
 10
900.7081779522899
 20
-1436.51688455631
 42
0.0240964406197056
 10
901.0236550279351
 20
-1436.625868282591
 10
901.0302383571457
 20
-1436.627793022266
 42
0.020963617981004
 10
901.3676385098016
 20
-1436.711261170199
 10
901.3752709702469
 20
-1436.712813083199
 42
0.0181388704690181
 10
901.7335933622447
 20
-1436.772229176413
 10
901.7418742106236
 20
-1436.77329536023
 42
0.0156086547586811
 10
902.1200615748106
 20
-1436.810031546807
 10
902.1632568271381
 20
-1436.812870049286
 42
0.0137148329019405
 10
902.4909299724383
 20
-1436.825390304537
 10
902.5368661624001
 20
-1436.825884737653
 42
0.0051057823895976
 10
902.7730117489565
 20
-1436.826014992062
 42
0.0052256693308325
 10
903.0091090327375
 20
-1436.821266167598
 10
903.0793358164846
 20
-1436.819119201583
 42
0.0161507179050014
 10
903.4550728945875
 20
-1436.795468831257
 10
903.4750858549589
 20
-1436.793558635969
 42
0.0101216737834791
 10
903.8891130764601
 20
-1436.745565705602
 10
903.9231663658763
 20
-1436.740918008794
 42
0.0245291776396728
 10
904.3999560214278
 20
-1436.651842930718
 10
904.4847793369528
 20
-1436.631647010372
 42
0.0143509212562274
 10
904.8414104408911
 20
-1436.535842376593
 42
0.0156557857033192
 10
905.1916265056135
 20
-1436.418831160776
 10
905.199127720113
 20
-1436.41606099902
 42
0.0170137333632653
 10
905.5557237157979
 20
-1436.270403384148
 10
905.5628276382018
 20
-1436.267215548586
 42
0.018310536440803
 10
905.9221773063628
 20
-1436.089880506764
 10
905.9291240710069
 20
-1436.086130071889
 42
0.0194899958150787
 10
906.2876048119948
 20
-1435.874151089996
 10
906.2946186913275
 20
-1435.869625747703
 42
0.0204869852955144
 10
906.6486329934249
 20
-1435.620105732615
 10
906.6558986020085
 20
-1435.614525667269
 42
0.021251693855345
 10
907.0018885331149
 20
-1435.324621670376
 10
907.0484052271903
 20
-1435.282154360282
 42
0.0215248918250263
 10
907.3084313960799
 20
-1435.023390081286
 10
907.3534611304574
 20
-1434.97454595994
 42
0.0114578554955449
 10
907.5082532841377
 20
-1434.798723026478
 10
907.5194478201242
 20
-1434.785404262933
 42
0.006153130513481
 10
907.6459224661188
 20
-1434.631114729627
 42
0.0006325587128088
 10
907.7703009503348
 20
-1434.475111353871
 10
907.793341085322
 20
-1434.446137833292
 42
0.0041897761556856
 10
907.9617964892986
 20
-1434.230618457225
 10
908.020258609187
 20
-1434.154517110245
 42
0.0092993880033349
 10
908.2968705364099
 20
-1433.780238346362
 10
908.3792650296099
 20
-1433.664301342792
 42
0.0159321727086209
 10
908.725871512252
 20
-1433.142127122036
 10
908.7702276476388
 20
-1433.07044755779
 42
0.0085547317020052
 10
909.0047394129667
 20
-1432.676572608562
 42
0.0084601156892069
 10
909.2257155904102
 20
-1432.274945759527
 10
909.2338310642392
 20
-1432.259586077256
 42
0.0081429654284302
 10
909.4570803346784
 20
-1431.819864564712
 10
909.4659404988607
 20
-1431.801685722696
 42
0.0076574581330816
 10
909.6923480094241
 20
-1431.318502847451
 10
909.7018276501511
 20
-1431.29743836914
 42
0.0070682724200031
 10
909.9322725579639
 20
-1430.765401064345
 10
909.9422628419396
 20
-1430.741411875347
 42
0.006455951444635
 10
910.1775960501197
 20
-1430.155099608832
 10
910.1880054082862
 20
-1430.128164683386
 42
0.005831141390816
 10
910.429052145051
 20
-1429.482132588997
 10
910.4398072224366
 20
-1429.452248247842
 42
0.0052312425820171
 10
910.6873885004785
 20
-1428.741045834004
 10
910.6984323368572
 20
-1428.708219121938
 42
0.0046680544797243
 10
910.9533607645943
 20
-1427.926392806175
 10
910.9953529146388
 20
-1427.79340956888
 42
0.0041666856442942
 10
911.1986389270303
 20
-1427.130440793886
 10
911.2363013676741
 20
-1427.0038596863
 42
0.0015170975148996
 10
911.3574879461071
 20
-1426.591991334738
 42
-0.0004887993112485
 10
911.4778277192551
 20
-1426.179872922611
 10
911.5543049767252
 20
-1425.918915536755
 42
0.0002583378928656
 10
911.8275195468068
 20
-1424.984858833517
 10
911.9092923963434
 20
-1424.704759574071
 42
0.000663616967393
 10
912.1031601563775
 20
-1424.037406650406
 10
912.1082568107006
 20
-1424.019775067608
 42
0.0010589131321755
 10
912.2897055116412
 20
-1423.387043724477
 10
912.2946875821301
 20
-1423.369530817427
 42
0.0015655524461749
 10
912.4629577893045
 20
-1422.770914138256
 10
912.4677879897108
 20
-1422.753521979351
 42
0.0021640440474721
 10
912.6220779617054
 20
-1422.188494961302
 10
912.6267121811346
 20
-1422.171230231311
 42
0.0028763871855211
 10
912.7662278991884
 20
-1421.639262280461
 10
912.7706137633576
 20
-1421.622138302299
 42
0.0037310511945231
 10
912.8945704551925
 20
-1421.122690708283
 10
912.8986456754822
 20
-1421.105730437035
 42
0.004765219777091
 10
913.0062695759899
 20
-1420.638252668732
 10
913.0099601753134
 20
-1420.621493113582
 42
0.0060276699301781
 10
913.1004902744669
 20
-1420.185417318438
 10
913.1037089647551
 20
-1420.168916104133
 42
0.0075824337756285
 10
913.1763982741716
 20
-1419.763648939703
 10
913.1790436515515
 20
-1419.747493992254
 42
0.0095130624609887
 10
913.233158887183
 20
-1419.37240463918
 10
913.2401451110654
 20
-1419.316471081065
 42
0.0121054653224717
 10
913.2667364416435
 20
-1419.05157525259
 10
913.2676029314022
 20
-1419.040171809672
 42
0.0069050827390238
 10
913.2826917494408
 20
-1418.797230582817
 10
913.2838270491095
 20
-1418.773704325768
 42
0.0169063976707317
 10
913.2866543280895
 20
-1418.577511598471
 10
913.2854836765582
 20
-1418.51717583712
 42
0.0052007732904335
 10
913.2832302279653
 20
-1418.44158244697
 42
0.0054038123293989
 10
913.2632667161263
 20
-1418.321564150958
 10
913.2581808602561
 20
-1418.292905664379
 42
0.0112050460465873
 10
913.2227964981972
 20
-1418.116579226038
 10
913.2049715361568
 20
-1418.037037639319
 42
0.0240764468010212
 10
913.1140741700104
 20
-1417.706800603818
 10
913.0955154071972
 20
-1417.650180438824
 42
0.0256812331839412
 10
912.9521524870077
 20
-1417.278456232567
 10
912.9467430611866
 20
-1417.266324897578
 42
0.0268360501215886
 10
912.7773158203364
 20
-1416.935331763556
 10
912.7717794127012
 20
-1416.925812093243
 42
0.0274670231726687
 10
912.5795784362881
 20
-1416.633524718326
 10
912.5741971363252
 20
-1416.626245570784
 42
0.0275035967100885
 10
912.3626242567636
 20
-1416.370729680481
 10
912.3575547557973
 20
-1416.365250592851
 42
0.0269557673523895
 10
912.1301512123575
 20
-1416.144608306888
 10
912.1254081545754
 20
-1416.140478352428
 42
0.0259124802209318
 10
911.8858533231441
 20
-1415.952787825275
 10
911.881322477961
 20
-1415.949602322944
 42
0.0245162153008603
 10
911.6334061248674
 20
-1415.792869313834
 10
911.6288795785435
 20
-1415.790309116634
 42
0.0229282588837932
 10
911.3764600217158
 20
-1415.662440924134
 10
911.3716795278816
 20
-1415.660288624374
 42
0.0212984135698777
 10
911.1186415754173
 20
-1415.55908970713
 10
911.1133372904462
 20
-1415.55722614437
 42
0.0197555462341892
 10
910.8635589527248
 20
-1415.480410726405
 42
0.0183511896792126
 10
910.6086302272636
 20
-1415.42282781944
 10
910.5222650305376
 20
-1415.406625029055
 42
0.0338057877153055
 10
910.2367576812784
 20
-1415.372816623915
 10
910.1457522762349
 20
-1415.368236968653
 42
0.0091990524490559
 10
910.0399051676025
 20
-1415.364861112731
 42
0.0028333980770747
 10
909.9339912516284
 20
-1415.364033005214
 10
909.9330757985601
 20
-1415.36403103539
 42
-0.0023619827796373
 10
909.8253297834373
 20
-1415.363290194312
 10
909.7889246132784
 20
-1415.362867887849
 42
0.000882459847256
 10
909.6083686235237
 20
-1415.361092109611
 10
909.5645071910226
 20
-1415.360738148085
 42
0.0038132665772514
 10
909.296224295135
 20
-1415.360619212018
 10
909.2796906403503
 20
-1415.360737978162
 42
0.00606655693336
 10
908.9784101487584
 20
-1415.366558277582
 10
908.9641598167336
 20
-1415.36700658555
 42
0.0080356953337931
 10
908.6347011003871
 20
-1415.382674307617
 10
908.6226310853071
 20
-1415.383442890557
 42
0.0098996399105903
 10
908.2698680006567
 20
-1415.412928119756
 10
908.2598222912816
 20
-1415.413968415954
 42
0.0117740981367733
 10
907.8886654329384
 20
-1415.461260663483
 10
907.8804427364503
 20
-1415.462505780054
 42
0.0137435215138001
 10
907.4958539169622
 20
-1415.531602753617
 10
907.4891968778418
 20
-1415.53298864985
 42
0.0158359869385366
 10
907.0961997840394
 20
-1415.627880738331
 10
907.0907865971722
 20
-1415.629370679201
 42
0.0180554124025083
 10
906.6944715525611
 20
-1415.754008695439
 10
906.6899147644764
 20
-1415.755624731706
 42
0.0203657431286931
 10
906.2954372466621
 20
-1415.913885073223
 10
906.2912937076577
 20
-1415.915746694664
 42
0.0226819684652803
 10
905.9038576514528
 20
-1416.111389273336
 10
905.8996578604359
 20
-1416.113754865255
 42
0.0248634984609276
 10
905.5244759192545
 20
-1416.350381511202
 10
905.4762809904751
 20
-1416.384238553024
 42
0.0267044190879421
 10
905.2019882935542
 20
-1416.599678928896
 42
0.0139303002202032
 10
904.9458211276117
 20
-1416.836917769811
 10
904.9409677418945
 20
-1416.841670432668
 42
0.0283460963446996
 10
904.6968951476686
 20
-1417.109401093111
 10
904.6572266425108
 20
-1417.158202670586
 42
0.0070695364826344
 10
904.5797894166509
 20
-1417.256269486551
 42
0.0070695364826344
  0
LWPOLYLINE
  5
97
330
26
100
AcDbEntity
  8
0
  6
Continuous
 62
     7
370
    15
390
1D
100
AcDbPolyline
 90
      226
 70
   128
 43
0.0
 10
901.0509689794045
 20
-1432.977858292735
 42
-0.0026277636621475
 10
901.0508910956045
 20
-1432.911086366989
 10
901.0511084538365
 20
-1432.857931149549
 42
-0.0088680296737299
 10
901.0548850701291
 20
-1432.684915367157
 10
901.0572314292419
 20
-1432.625635341692
 42
-0.0077381705615567
 10
901.0732775400052
 20
-1432.334374845894
 10
901.0741454511782
 20
-1432.322086612209
 42
-0.0068872530533487
 10
901.100777530926
 20
-1432.006864860143
 10
901.1019817551124
 20
-1431.994623881121
 42
-0.0062130021487867
 10
901.1395754719379
 20
-1431.655754189902
 10
901.1410793754753
 20
-1431.643580317967
 42
-0.0056726929664261
 10
901.1900012349784
 20
-1431.281385095848
 10
901.1917746806221
 20
-1431.269291295608
 42
-0.0052341884496001
 10
901.2523852668821
 20
-1430.884098040089
 10
901.2544032556586
 20
-1430.872093110097
 42
-0.0049768450165398
 10
901.3271419370841
 20
-1430.46424854267
 10
901.3513909518068
 20
-1430.335700559659
 42
-0.00890298056244
 10
901.4884718036038
 20
-1429.673925112226
 10
901.5212171789201
 20
-1429.528893681713
 42
-0.008031825710139
 10
901.7507657932609
 20
-1428.583184049859
 10
901.7627507197091
 20
-1428.537053414669
 42
-0.0074265721318338
 10
902.046762258558
 20
-1427.506988836292
 10
902.0666418016754
 20
-1427.438854775701
 42
-0.0069711922704694
 10
902.3939463801823
 20
-1426.372587035371
 10
902.4538983272838
 20
-1426.186565677013
 42
-0.0052070422896356
 10
902.6833235525471
 20
-1425.499293599969
 10
902.7006047447278
 20
-1425.449266319328
 42
-0.0009167004447712
 10
902.9036966320089
 20
-1424.864810471198
 42
-0.0025162726943407
 10
903.1107942622739
 20
-1424.281769207029
 10
903.148018874084
 20
-1424.17861966111
 42
-0.0028212681456598
 10
903.39619479304
 20
-1423.502889028959
 10
903.4060255557938
 20
-1423.476581584274
 42
-0.0031964916823846
 10
903.6423178134529
 20
-1422.856376822155
 10
903.6519522674496
 20
-1422.831566832018
 42
-0.0036281836452061
 10
903.8770582285531
 20
-1422.264126151119
 10
903.8864966387148
 20
-1422.240828719606
 42
-0.0041269166833976
 10
904.1011143353697
 20
-1421.723387823638
 10
904.1337472917835
 20
-1421.646509377293
 42
-0.0047472213058494
 10
904.2907920973441
 20
-1421.286087909393
 10
904.2976861785538
 20
-1421.270667312058
 42
-0.0025651659993962
 10
904.4460442124025
 20
-1420.943339256313
 42
-0.0057144634992048
 10
904.5997939061764
 20
-1420.618529582945
 10
904.6278246115808
 20
-1420.561021200545
 42
-0.0065388068373574
 10
904.8112916393148
 20
-1420.196788703891
 10
904.819750095085
 20
-1420.180529124538
 42
-0.0074510843029901
 10
904.9959323409712
 20
-1419.853840843399
 10
905.0041120115026
 20
-1419.83920006613
 42
-0.0084648979861011
 10
905.1737458646023
 20
-1419.547291055169
 10
905.1816019910915
 20
-1419.534284063516
 42
-0.0095638542802038
 10
905.3454374386846
 20
-1419.274395191539
 10
905.3529123823596
 20
-1419.263025830079
 42
-0.0107191626805289
 10
905.5117139627439
 20
-1419.03241459554
 10
905.5187306964668
 20
-1419.022678503187
 42
-0.0118458573905123
 10
905.6732787949875
 20
-1418.818606307865
 42
-0.0129184518186964
 10
905.8377314185941
 20
-1418.622445791689
 10
905.8678761909546
 20
-1418.588319712792
 42
-0.0217742579633631
 10
906.0444885132874
 20
-1418.405112942545
 10
906.0552340577461
 20
-1418.394896109343
 42
-0.0097266568649071
 10
906.2212916766036
 20
-1418.243048534905
 42
-0.0187720905732758
 10
906.3956392524881
 20
-1418.100979681519
 10
906.4263452431652
 20
-1418.077820599121
 42
-0.0179428207522133
 10
906.6587659631634
 20
-1417.915268422008
 10
906.6624182900799
 20
-1417.912904487119
 42
-0.0170047877695139
 10
906.8981819276096
 20
-1417.771443972968
 10
906.9019649163583
 20
-1417.769345667931
 42
-0.0160190788367951
 10
907.1388734639914
 20
-1417.647694365944
 42
-0.0151102861488674
 10
907.3829052464404
 20
-1417.541011589888
 10
907.4352917486499
 20
-1417.519971456995
 42
-0.0271945441886115
 10
907.7939543077092
 20
-1417.398106646288
 10
907.8630191081951
 20
-1417.378757105023
 42
-0.0237596594022308
 10
908.2788159552188
 20
-1417.283306393041
 10
908.3468788089501
 20
-1417.271051704914
 42
-0.0213715440552134
 10
908.6327537403945
 20
-1417.232104673404
 10
908.6929009066107
 20
-1417.226514958703
 42
-0.0101465655821475
 10
908.8603934386066
 20
-1417.214371415439
 10
908.8697338248052
 20
-1417.213884500442
 42
-0.0100375910875899
 10
909.0188879253674
 20
-1417.209108682517
 10
909.029147195052
 20
-1417.208986243502
 42
-0.0103625633372552
 10
909.1578551897026
 20
-1417.210117677029
 10
909.180120840971
 20
-1417.210775035494
 42
-0.0115689250221362
 10
909.2641715784974
 20
-1417.215204541739
 42
-0.0072438037437422
 10
909.3480098579348
 20
-1417.222793741488
 10
909.3648103674094
 20
-1417.224560284212
 42
-0.0217917313133472
 10
909.4813801307262
 20
-1417.241980176934
 10
909.5469802212907
 20
-1417.254726785348
 42
-0.0332943556747685
 10
909.751372386318
 20
-1417.308767076655
 10
909.781544954866
 20
-1417.318935153773
 42
-0.0184824084806513
 10
909.9200500113336
 20
-1417.37138616916
 42
-0.0198002050686731
 10
910.0541243518342
 20
-1417.43427022936
 10
910.0560109892099
 20
-1417.435248016239
 42
-0.0212242342980506
 10
910.1881499316123
 20
-1417.511010755033
 10
910.1899652271552
 20
-1417.512156557241
 42
-0.0226090605805655
 10
910.318469128376
 20
-1417.601636200804
 10
910.3203135701144
 20
-1417.603048453793
 42
-0.0238457052225937
 10
910.4434956514073
 20
-1417.707044349655
 10
910.4454483799664
 20
-1417.708859227421
 42
-0.0248160564157827
 10
910.5616498872655
 20
-1417.828133828628
 10
910.563753520669
 20
-1417.830519162334
 42
-0.0254109591449558
 10
910.6713587385345
 20
-1417.965807548298
 10
910.673606760449
 20
-1417.968949096699
 42
-0.0255528488285576
 10
910.7710534392471
 20
-1418.120976150935
 10
910.7733845391624
 20
-1418.125057762541
 42
-0.0252146793212403
 10
910.8591655651711
 20
-1418.294560008537
 10
910.8614678043291
 20
-1418.299742090451
 42
-0.0244265635952493
 10
910.9341224980905
 20
-1418.487488662497
 10
910.9433688995591
 20
-1418.515354080836
 42
-0.0231319612898769
 10
910.989291678551
 20
-1418.678655127637
 42
-0.0112130424352197
 10
911.0239277010888
 20
-1418.844858727823
 10
911.0251302262018
 20
-1418.851355314713
 42
-0.021052788123805
 10
911.0508167015724
 20
-1419.032410960153
 10
911.0543272963944
 20
-1419.067816508702
 42
-0.019002989243243
 10
911.0697687699387
 20
-1419.321352354963
 10
911.070578746383
 20
-1419.356827969343
 42
-0.0137974553661906
 10
911.0690298935477
 20
-1419.681859376069
 10
911.0681844385919
 20
-1419.707978120671
 42
-0.0081336634216455
 10
911.0533251033694
 20
-1420.013325588268
 42
-0.0073526923576642
 10
911.029016569995
 20
-1420.318073832552
 10
911.027755146212
 20
-1420.33141050722
 42
-0.0066886138693011
 10
910.9920195601651
 20
-1420.66199655072
 10
910.9903624706956
 20
-1420.675618169708
 42
-0.0061359187358559
 10
910.9425118686452
 20
-1421.032382149805
 10
910.9404743675718
 20
-1421.046276952637
 42
-0.0056698610067439
 10
910.8798240368062
 20
-1421.429555521467
 10
910.8774186034818
 20
-1421.443714640706
 42
-0.0052721077277681
 10
910.803286402685
 20
-1421.853841980369
 10
910.8005232538404
 20
-1421.86825861577
 42
-0.0049289272178037
 10
910.7122291357427
 20
-1422.305567126881
 10
910.7091166410578
 20
-1422.320235979708
 42
-0.004741595671141
 10
910.6058786495269
 20
-1422.785032737113
 10
910.5711104391657
 20
-1422.934839832502
 42
-0.0084404470898865
 10
910.3810939955903
 20
-1423.695063857047
 10
910.3749673076082
 20
-1423.717927981187
 42
-0.0039635940261231
 10
910.1535136233305
 20
-1424.518916845412
 10
910.1401368281447
 20
-1424.565848462026
 42
-0.0072475040835949
 10
909.8726899402774
 20
-1425.455068178429
 10
909.8024776134465
 20
-1425.676808528413
 42
-0.0051345458827451
 10
909.5157182413953
 20
-1426.551133716199
 10
909.4941919746383
 20
-1426.614559983298
 42
-0.001915001660341
 10
909.2386585677611
 20
-1427.358109103555
 10
909.2321909633765
 20
-1427.376696568443
 42
-0.0021524362753816
 10
908.9837129123011
 20
-1428.081022390185
 10
908.974502491601
 20
-1428.106775968496
 42
-0.0024331286817961
 10
908.7382472325687
 20
-1428.757375276604
 10
908.7291992800135
 20
-1428.781918582971
 42
-0.002744972178802
 10
908.5045847091827
 20
-1429.381048461883
 10
908.4956947017863
 20
-1429.404371051746
 42
-0.003108322976773
 10
908.2821522151805
 20
-1429.954295089315
 10
908.2734160835071
 20
-1429.976384805168
 42
-0.0035311343282679
 10
908.0703748979131
 20
-1430.479367930903
 10
908.0617895587668
 20
-1430.50021065441
 42
-0.0040245640947791
 10
907.868677754971
 20
-1430.958519977006
 10
907.8602416413659
 20
-1430.978099345083
 42
-0.0046015135850346
 10
907.6764853482042
 20
-1431.39400437472
 10
907.6681991703753
 20
-1431.412301514173
 42
-0.005276863827163
 10
907.4932216514203
 20
-1431.788074398442
 10
907.4850894407891
 20
-1431.805067736994
 42
-0.0060672675641848
 10
907.3183098280274
 20
-1432.1429833601
 10
907.3103403475469
 20
-1432.158648619095
 42
-0.0069904648874631
 10
907.1511719535445
 20
-1432.460984425761
 10
907.1433805539359
 20
-1432.475294974984
 42
-0.0080637022767327
 10
906.9912286935878
 20
-1432.744330278141
 10
906.9836396609522
 20
-1432.757258143749
 42
-0.0093006455663006
 10
906.837898984425
 20
-1432.995272542245
 10
906.8305483176824
 20
-1433.006790511416
 42
-0.01070607780521
 10
906.6905997742429
 20
-1433.216060828797
 10
906.6835380059648
 20
-1433.226146371361
 42
-0.0122723111409694
 10
906.5487442877652
 20
-1433.408939700852
 10
906.548418064208
 20
-1433.409360088666
 42
-0.0141836319628573
 10
906.404836461237
 20
-1433.583929846491
 10
906.3978887055862
 20
-1433.591904846754
 42
-0.0175957477209448
 10
906.2579825375503
 20
-1433.741525735161
 42
-0.0080466359674144
 10
906.1105187725162
 20
-1433.883848263315
 10
906.0644842280027
 20
-1433.926868701403
 42
-0.0269600260400393
 10
905.811203982024
 20
-1434.139191959909
 10
905.7446368457231
 20
-1434.189143374536
 42
-0.0178362839753182
 10
905.5046923560669
 20
-1434.356161300788
 10
905.497447385068
 20
-1434.360829812993
 42
-0.0174650732649978
 10
905.2611111876251
 20
-1434.501690777952
 42
-0.0169240130165298
 10
905.0156449417686
 20
-1434.625983037729
 10
904.9696587862097
 20
-1434.647344993297
 42
-0.0318883036842652
 10
904.6193079305917
 20
-1434.783683302807
 10
904.5509423954245
 20
-1434.805383923283
 42
-0.028443590990102
 10
904.1748922691339
 20
-1434.901601358757
 10
904.1397341086313
 20
-1434.908494954587
 42
-0.0243909341011477
 10
903.8262906477164
 20
-1434.954215985616
 10
903.7760099209506
 20
-1434.959061532517
 42
-0.0196639292935408
 10
903.560414343418
 20
-1434.971309818031
 10
903.508590272251
 20
-1434.972213078768
 42
-0.0100501510681066
 10
903.3961669905902
 20
-1434.971912680415
 10
903.364507129241
 20
-1434.97119160853
 42
-0.0019752031134895
 10
903.3154147925649
 20
-1434.96987944832
 10
903.312654489335
 20
-1434.969794756493
 42
0.006537875202412
 10
903.269077914588
 20
-1434.969027865279
 42
-0.0167974694654062
 10
903.2255470916574
 20
-1434.967367966753
 10
903.2214677523941
 20
-1434.967074955858
 42
-0.0081283276304774
 10
903.1699079546654
 20
-1434.962527962221
 10
903.1581683807769
 20
-1434.961300044642
 42
-0.0126703440174677
 10
903.0834500849845
 20
-1434.95156525357
 10
903.0606622173068
 20
-1434.948006997655
 42
-0.0117852088441018
 10
902.9411232314817
 20
-1434.926444002499
 10
902.8857427797113
 20
-1434.915100462263
 42
-0.0251774592296181
 10
902.6588987407026
 20
-1434.85660245283
 10
902.6141795508485
 20
-1434.842635633494
 42
-0.0146525199878964
 10
902.4277865633139
 20
-1434.778369106297
 42
-0.0166929435864842
 10
902.245808907189
 20
-1434.702561973243
 10
902.2411522759141
 20
-1434.700437072628
 42
-0.0191684358439577
 10
902.0559686446665
 20
-1434.607200988839
 10
902.0526360589079
 20
-1434.605359741285
 42
-0.0221181781808763
 10
901.869325755005
 20
-1434.493226242913
 10
901.8669759509972
 20
-1434.491641944923
 42
-0.0254984685385374
 10
901.6906858006125
 20
-1434.359230794954
 10
901.66820365291
 20
-1434.340478486017
 42
-0.0292492648804653
 10
901.543434714067
 20
-1434.223385686374
 42
-0.0159048957499896
 10
901.4295947166165
 20
-1434.095365694775
 10
901.4282759260375
 20
-1434.093784081755
 42
-0.0343813379555274
 10
901.325638664411
 20
-1433.951912755985
 10
901.2941471330496
 20
-1433.90140936389
 42
-0.0369117275695759
 10
901.2082546311532
 20
-1433.737932122943
 42
-0.0191751379912068
 10
901.1410612455969
 20
-1433.565527516939
 10
901.1392979218367
 20
-1433.560434172262
 42
-0.0378178042237601
 10
901.0895032030525
 20
-1433.371493396181
 10
901.0835079073216
 20
-1433.338932777981
 42
-0.0184846046472799
 10
901.0627907080277
 20
-1433.197179957439
 42
-0.0179866351323885
 10
901.052457702954
 20
-1433.054289144356
 10
901.0524012605083
 20
-1433.052731457745
 42
-0.0085497186138909
 10
901.0509689794045
 20
-1432.977858292735
 42
-0.0085497186138909
  0
ENDBLK
  5
98
330
26
100
AcDbEntity
  8
template
390
1D
100
AcDbBlockEnd
  0
BLOCK
  5
99
330
27
100
AcDbEntity
  8
0
390
1D
100
AcDbBlockBegin
  2
*D6
 70
     1
 10
0.0
 20
0.0
 30
0.0
  3
*D6
  1
*D6
  0
LINE
  5
9A
330
27
100
AcDbEntity
  8
DIM
  6
Continuous
 62
     0
370
    -2
100
AcDbLine
 10
423.6854170533908
 20
523.9546110879104
 30
0.0
 11
288.6854170533907
 21
523.9546110879103
 31
0.0
  0
LINE
  5
9B
330
27
100
AcDbEntity
  8
DIM
  6
Continuous
 62
     0
370
    -2
100
AcDbLine
 10
423.6854170533908
 20
1773.954611087907
 30
0.0
 11
288.6854170533908
 21
1773.954611087907
 31
0.0
  0
LINE
  5
9C
330
27
100
AcDbEntity
  8
DIM
  6
Continuous
 62
     0
370
    -2
100
AcDbLine
 10
288.6854170533907
 20
527.9543669472853
 30
0.0
 11
288.6854170533908
 21
1769.954855228532
 31
0.0
  0
INSERT
  5
9D
102
{ACAD_REACTORS
330
9E
102
}
330
27
100
AcDbEntity
  8
DIM
 62
     0
370
    -2
100
AcDbBlockReference
  2
_DOT
 10
288.6854170533907
 20
523.9546110879103
 30
0.0
 41
3.999755859375
 42
3.999755859375
 43
3.999755859375
 50
270.0
  0
INSERT
  5
9E
330
27
100
AcDbEntity
  8
DIM
 62
     0
370
    -2
100
AcDbBlockReference
  2
_DOT
 10
288.6854170533908
 20
1773.954611087907
 30
0.0
 41
3.999755859375
 42
3.999755859375
 43
3.999755859375
 50
90.0
  0
MTEXT
  5
9F
102
{ACAD_REACTORS
330
A0
102
}
330
27
100
AcDbEntity
  8
DIM
  6
Continuous
 62
     0
370
     5
100
AcDbMText
 10
271.4691084596408
 20
1148.954611087909
 30
0.0
 40
24.4326171875
 41
0.0
 46
0.0
 71
     5
 72
     1
  1
\A1;1250
  7
ＭＳ ゴシック
 11
4.547473508864653E-17
 21
1.0
 31
0.0
 73
     1
 44
1.0
  0
POINT
  5
A0
330
27
100
AcDbEntity
  8
Defpoints
 62
     0
100
AcDbPoint
 10
448.6854170533908
 20
523.9546110879104
 30
0.0
  0
POINT
  5
A1
330
27
100
AcDbEntity
  8
Defpoints
 62
     0
100
AcDbPoint
 10
448.6854170533908
 20
1773.954611087907
 30
0.0
  0
POINT
  5
A2
330
27
100
AcDbEntity
  8
Defpoints
 62
     0
100
AcDbPoint
 10
288.6854170533908
 20
1773.954611087907
 30
0.0
  0
ENDBLK
  5
A5
330
27
100
AcDbEntity
  8
0
390
1D
100
AcDbBlockEnd
  0
BLOCK
  5
A6
330
28
100
AcDbEntity
  8
0
390
1D
100
AcDbBlockBegin
  2
*D7
 70
     1
 10
0.0
 20
0.0
 30
0.0
  3
*D7
  1
*D7
  0
LINE
  5
A7
330
28
100
AcDbEntity
  8
DIM
  6
Continuous
 62
     0
370
    -2
100
AcDbLine
 10
928.6849227337722
 20
1799.363987066445
 30
0.0
 11
928.6849227337722
 21
1873.954611087907
 31
0.0
  0
LINE
  5
A8
330
28
100
AcDbEntity
  8
DIM
  6
Continuous
 62
     0
370
    -2
100
AcDbLine
 10
438.6854170533908
 20
1788.954611087907
 30
0.0
 11
438.6854170533908
 21
1873.954611087907
 31
0.0
  0
LINE
  5
A9
330
28
100
AcDbEntity
  8
DIM
  6
Continuous
 62
     0
370
    -2
100
AcDbLine
 10
924.6851668743972
 20
1873.954611087907
 30
0.0
 11
442.6851729127658
 21
1873.954611087907
 31
0.0
  0
INSERT
  5
AA
102
{ACAD_REACTORS
330
AB
102
}
330
28
100
AcDbEntity
  8
DIM
 62
     0
370
    -2
100
AcDbBlockReference
  2
_DOT
 10
928.6849227337722
 20
1873.954611087907
 30
0.0
 41
3.999755859375
 42
3.999755859375
 43
3.999755859375
  0
INSERT
  5
AB
330
28
100
AcDbEntity
  8
DIM
 62
     0
370
    -2
100
AcDbBlockReference
  2
_DOT
 10
438.6854170533908
 20
1873.954611087907
 30
0.0
 41
3.999755859375
 42
3.999755859375
 43
3.999755859375
 50
180.0
  0
MTEXT
  5
AC
102
{ACAD_REACTORS
330
AD
102
}
330
28
100
AcDbEntity
  8
DIM
  6
Continuous
 62
     0
370
     5
100
AcDbMText
 10
683.6851698935815
 20
1891.170919681657
 30
0.0
 40
24.4326171875
 41
0.0
 46
0.0
 71
     5
 72
     1
  1
\A1;490
  7
ＭＳ ゴシック
 73
     1
 44
1.0
  0
POINT
  5
AD
330
28
100
AcDbEntity
  8
Defpoints
 62
     0
100
AcDbPoint
 10
928.6849227337722
 20
1774.363987066445
 30
0.0
  0
POINT
  5
AE
330
28
100
AcDbEntity
  8
Defpoints
 62
     0
100
AcDbPoint
 10
438.6854170533908
 20
1763.954611087907
 30
0.0
  0
POINT
  5
AF
330
28
100
AcDbEntity
  8
Defpoints
 62
     0
100
AcDbPoint
 10
438.6854170533908
 20
1873.954611087907
 30
0.0
  0
ENDBLK
  5
B2
330
28
100
AcDbEntity
  8
0
390
1D
100
AcDbBlockEnd
  0
BLOCK
  5
B3
330
29
100
AcDbEntity
  8
0
390
1D
100
AcDbBlockBegin
  2
*D8
 70
     1
 10
0.0
 20
0.0
 30
0.0
  3
*D8
  1
*D8
  0
LINE
  5
B4
330
29
100
AcDbEntity
  8
DIM
  6
Continuous
 62
     0
370
    -2
100
AcDbLine
 10
953.121959697628
 20
863.9546110879071
 30
0.0
 11
1028.684922733766
 21
863.9546110879071
 31
0.0
  0
LINE
  5
B5
330
29
100
AcDbEntity
  8
DIM
  6
Continuous
 62
     0
370
    -2
100
AcDbLine
 10
953.0532252813972
 20
1433.954611087907
 30
0.0
 11
1028.684922733766
 21
1433.954611087907
 31
0.0
  0
LINE
  5
B6
330
29
100
AcDbEntity
  8
DIM
  6
Continuous
 62
     0
370
    -2
100
AcDbLine
 10
1028.684922733766
 20
867.9543669472821
 30
0.0
 11
1028.684922733766
 21
1429.954855228532
 31
0.0
  0
INSERT
  5
B7
102
{ACAD_REACTORS
330
B8
102
}
330
29
100
AcDbEntity
  8
DIM
 62
     0
370
    -2
100
AcDbBlockReference
  2
_DOT
 10
1028.684922733766
 20
863.9546110879071
 30
0.0
 41
3.999755859375
 42
3.999755859375
 43
3.999755859375
 50
270.0
  0
INSERT
  5
B8
330
29
100
AcDbEntity
  8
DIM
 62
     0
370
    -2
100
AcDbBlockReference
  2
_DOT
 10
1028.684922733766
 20
1433.954611087907
 30
0.0
 41
3.999755859375
 42
3.999755859375
 43
3.999755859375
 50
90.0
  0
MTEXT
  5
B9
102
{ACAD_REACTORS
330
BA
102
}
330
29
100
AcDbEntity
  8
DIM
  6
Continuous
 62
     0
370
     5
100
AcDbMText
 10
1011.468614140016
 20
1148.954611087907
 30
0.0
 40
24.4326171875
 41
0.0
 46
0.0
 71
     5
 72
     1
  1
\A1;570
  7
ＭＳ ゴシック
 11
0.0
 21
1.0
 31
0.0
 73
     1
 44
1.0
  0
POINT
  5
BA
330
29
100
AcDbEntity
  8
Defpoints
 62
     0
100
AcDbPoint
 10
928.121959697628
 20
863.9546110879071
 30
0.0
  0
POINT
  5
BB
330
29
100
AcDbEntity
  8
Defpoints
 62
     0
100
AcDbPoint
 10
928.0532252813972
 20
1433.954611087907
 30
0.0
  0
POINT
  5
BC
330
29
100
AcDbEntity
  8
Defpoints
 62
     0
100
AcDbPoint
 10
1028.684922733766
 20
1433.954611087907
 30
0.0
  0
ENDBLK
  5
BF
330
29
100
AcDbEntity
  8
0
390
1D
100
AcDbBlockEnd
  0
BLOCK
  5
C0
330
2A
100
AcDbEntity
  8
0
390
1D
100
AcDbBlockBegin
  2
*D9
 70
     1
 10
0.0
 20
0.0
 30
0.0
  3
*D9
  1
*D9
  0
LINE
  5
C1
330
2A
100
AcDbEntity
  8
DIM
  6
Continuous
 62
     0
370
    -2
100
AcDbLine
 10
944.3724106579513
 20
523.9546110879061
 30
0.0
 11
1028.684922733766
 21
523.9546110879061
 31
0.0
  0
LINE
  5
C2
330
2A
100
AcDbEntity
  8
DIM
  6
Continuous
 62
     0
370
    -2
100
AcDbLine
 10
953.121959697628
 20
863.9546110879061
 30
0.0
 11
1028.684922733766
 21
863.9546110879061
 31
0.0
  0
LINE
  5
C3
330
2A
100
AcDbEntity
  8
DIM
  6
Continuous
 62
     0
370
    -2
100
AcDbLine
 10
1028.684922733766
 20
527.9543669472811
 30
0.0
 11
1028.684922733766
 21
859.9548552285311
 31
0.0
  0
INSERT
  5
C4
102
{ACAD_REACTORS
330
C5
102
}
330
2A
100
AcDbEntity
  8
DIM
 62
     0
370
    -2
100
AcDbBlockReference
  2
_DOT
 10
1028.684922733766
 20
523.9546110879061
 30
0.0
 41
3.999755859375
 42
3.999755859375
 43
3.999755859375
 50
270.0
  0
INSERT
  5
C5
330
2A
100
AcDbEntity
  8
DIM
 62
     0
370
    -2
100
AcDbBlockReference
  2
_DOT
 10
1028.684922733766
 20
863.9546110879061
 30
0.0
 41
3.999755859375
 42
3.999755859375
 43
3.999755859375
 50
90.0
  0
MTEXT
  5
C6
102
{ACAD_REACTORS
330
C7
102
}
330
2A
100
AcDbEntity
  8
DIM
  6
Continuous
 62
     0
370
     5
100
AcDbMText
 10
1011.468614140016
 20
693.9546110879061
 30
0.0
 40
24.4326171875
 41
0.0
 46
0.0
 71
     5
 72
     1
  1
\A1;340
  7
ＭＳ ゴシック
 11
0.0
 21
1.0
 31
0.0
 73
     1
 44
1.0
  0
POINT
  5
C7
330
2A
100
AcDbEntity
  8
Defpoints
 62
     0
100
AcDbPoint
 10
919.3724106579513
 20
523.9546110879061
 30
0.0
  0
POINT
  5
C8
330
2A
100
AcDbEntity
  8
Defpoints
 62
     0
100
AcDbPoint
 10
928.121959697628
 20
863.9546110879061
 30
0.0
  0
POINT
  5
C9
330
2A
100
AcDbEntity
  8
Defpoints
 62
     0
100
AcDbPoint
 10
1028.684922733766
 20
863.9546110879061
 30
0.0
  0
ENDBLK
  5
CC
330
2A
100
AcDbEntity
  8
0
390
1D
100
AcDbBlockEnd
  0
BLOCK
  5
CD
330
2B
100
AcDbEntity
  8
0
390
1D
100
AcDbBlockBegin
  2
*D10
 70
     1
 10
0.0
 20
0.0
 30
0.0
  3
*D10
  1
*D10
  0
LINE
  5
CE
330
2B
100
AcDbEntity
  8
DIM
  6
Continuous
 62
     0
370
    -2
100
AcDbLine
 10
563.685417053391
 20
498.9546110879104
 30
0.0
 11
563.685417053391
 21
447.954611087906
 31
0.0
  0
LINE
  5
CF
330
2B
100
AcDbEntity
  8
DIM
  6
Continuous
 62
     0
370
    -2
100
AcDbLine
 10
438.685417053391
 20
509.1141411713561
 30
0.0
 11
438.685417053391
 21
447.954611087906
 31
0.0
  0
LINE
  5
D0
330
2B
100
AcDbEntity
  8
DIM
  6
Continuous
 62
     0
370
    -2
100
AcDbLine
 10
559.685661194016
 20
447.954611087906
 30
0.0
 11
442.685172912766
 21
447.954611087906
 31
0.0
  0
INSERT
  5
D1
102
{ACAD_REACTORS
330
D2
102
}
330
2B
100
AcDbEntity
  8
DIM
 62
     0
370
    -2
100
AcDbBlockReference
  2
_DOT
 10
563.685417053391
 20
447.954611087906
 30
0.0
 41
3.999755859375
 42
3.999755859375
 43
3.999755859375
  0
INSERT
  5
D2
330
2B
100
AcDbEntity
  8
DIM
 62
     0
370
    -2
100
AcDbBlockReference
  2
_DOT
 10
438.685417053391
 20
447.954611087906
 30
0.0
 41
3.999755859375
 42
3.999755859375
 43
3.999755859375
 50
180.0
  0
MTEXT
  5
D3
102
{ACAD_REACTORS
330
D4
102
}
330
2B
100
AcDbEntity
  8
DIM
  6
Continuous
 62
     0
370
     5
100
AcDbMText
 10
501.185417053391
 20
465.170919681656
 30
0.0
 40
24.4326171875
 41
0.0
 46
0.0
 71
     5
 72
     1
  1
\A1;125
  7
ＭＳ ゴシック
 73
     1
 44
1.0
  0
POINT
  5
D4
330
2B
100
AcDbEntity
  8
Defpoints
 62
     0
100
AcDbPoint
 10
563.685417053391
 20
523.9546110879104
 30
0.0
  0
POINT
  5
D5
330
2B
100
AcDbEntity
  8
Defpoints
 62
     0
100
AcDbPoint
 10
438.685417053391
 20
534.1141411713561
 30
0.0
  0
POINT
  5
D6
330
2B
100
AcDbEntity
  8
Defpoints
 62
     0
100
AcDbPoint
 10
438.685417053391
 20
447.954611087906
 30
0.0
  0
ENDBLK
  5
D9
330
2B
100
AcDbEntity
  8
0
390
1D
100
AcDbBlockEnd
  0
BLOCK
  5
DA
330
2C
100
AcDbEntity
  8
0
390
1D
100
AcDbBlockBegin
  2
*D11
 70
     1
 10
0.0
 20
0.0
 30
0.0
  3
*D11
  1
*D11
  0
LINE
  5
DB
330
2C
100
AcDbEntity
  8
DIM
  6
Continuous
 62
     0
370
    -2
100
AcDbLine
 10
888.6854170533907
 20
498.9546110879104
 30
0.0
 11
888.6854170533907
 21
447.954611087906
 31
0.0
  0
LINE
  5
DC
330
2C
100
AcDbEntity
  8
DIM
  6
Continuous
 62
     0
370
    -2
100
AcDbLine
 10
563.6854170533907
 20
498.9546110879104
 30
0.0
 11
563.6854170533907
 21
447.954611087906
 31
0.0
  0
LINE
  5
DD
330
2C
100
AcDbEntity
  8
DIM
  6
Continuous
 62
     0
370
    -2
100
AcDbLine
 10
884.6856611940157
 20
447.954611087906
 30
0.0
 11
567.6851729127657
 21
447.954611087906
 31
0.0
  0
INSERT
  5
DE
102
{ACAD_REACTORS
330
DF
102
}
330
2C
100
AcDbEntity
  8
DIM
 62
     0
370
    -2
100
AcDbBlockReference
  2
_DOT
 10
888.6854170533907
 20
447.954611087906
 30
0.0
 41
3.999755859375
 42
3.999755859375
 43
3.999755859375
  0
INSERT
  5
DF
330
2C
100
AcDbEntity
  8
DIM
 62
     0
370
    -2
100
AcDbBlockReference
  2
_DOT
 10
563.6854170533907
 20
447.954611087906
 30
0.0
 41
3.999755859375
 42
3.999755859375
 43
3.999755859375
 50
180.0
  0
MTEXT
  5
E0
102
{ACAD_REACTORS
330
E1
102
}
330
2C
100
AcDbEntity
  8
DIM
  6
Continuous
 62
     0
370
     5
100
AcDbMText
 10
726.1854170533907
 20
465.170919681656
 30
0.0
 40
24.4326171875
 41
0.0
 46
0.0
 71
     5
 72
     1
  1
\A1;325
  7
ＭＳ ゴシック
 73
     1
 44
1.0
  0
POINT
  5
E1
330
2C
100
AcDbEntity
  8
Defpoints
 62
     0
100
AcDbPoint
 10
888.6854170533907
 20
523.9546110879104
 30
0.0
  0
POINT
  5
E2
330
2C
100
AcDbEntity
  8
Defpoints
 62
     0
100
AcDbPoint
 10
563.6854170533907
 20
523.9546110879104
 30
0.0
  0
POINT
  5
E3
330
2C
100
AcDbEntity
  8
Defpoints
 62
     0
100
AcDbPoint
 10
563.6854170533907
 20
447.954611087906
 30
0.0
  0
ENDBLK
  5
E6
330
2C
100
AcDbEntity
  8
0
390
1D
100
AcDbBlockEnd
  0
BLOCK
  5
E7
330
2D
100
AcDbEntity
  8
0
390
1D
100
AcDbBlockBegin
  2
*D12
 70
     1
 10
0.0
 20
0.0
 30
0.0
  3
*D12
  1
*D12
  0
LINE
  5
E8
330
2D
100
AcDbEntity
  8
DIM
  6
Continuous
 62
     0
370
    -2
100
AcDbLine
 10
461.1854170533908
 20
1148.954611087908
 30
0.0
 11
338.6854170533908
 21
1148.954611087908
 31
0.0
  0
LINE
  5
E9
330
2D
100
AcDbEntity
  8
DIM
  6
Continuous
 62
     0
370
    -2
100
AcDbLine
 10
461.1854170533908
 20
1048.954611087908
 30
0.0
 11
338.6854170533908
 21
1048.954611087908
 31
0.0
  0
LINE
  5
EA
330
2D
100
AcDbEntity
  8
DIM
  6
Continuous
 62
     0
370
    -2
100
AcDbLine
 10
338.6854170533908
 20
1144.954855228533
 30
0.0
 11
338.6854170533908
 21
1052.954366947283
 31
0.0
  0
INSERT
  5
EB
102
{ACAD_REACTORS
330
EC
102
}
330
2D
100
AcDbEntity
  8
DIM
 62
     0
370
    -2
100
AcDbBlockReference
  2
_DOT
 10
338.6854170533908
 20
1148.954611087908
 30
0.0
 41
3.999755859375
 42
3.999755859375
 43
3.999755859375
 50
90.0
  0
INSERT
  5
EC
330
2D
100
AcDbEntity
  8
DIM
 62
     0
370
    -2
100
AcDbBlockReference
  2
_DOT
 10
338.6854170533908
 20
1048.954611087908
 30
0.0
 41
3.999755859375
 42
3.999755859375
 43
3.999755859375
 50
270.0
  0
MTEXT
  5
ED
102
{ACAD_REACTORS
330
EE
102
}
330
2D
100
AcDbEntity
  8
DIM
  6
Continuous
 62
     0
370
     5
100
AcDbMText
 10
321.4691084596408
 20
1098.954611087908
 30
0.0
 40
24.4326171875
 41
0.0
 46
0.0
 71
     5
 72
     1
  1
\A1;100
  7
ＭＳ ゴシック
 11
0.0
 21
1.0
 31
0.0
 73
     1
 44
1.0
  0
POINT
  5
EE
330
2D
100
AcDbEntity
  8
Defpoints
 62
     0
100
AcDbPoint
 10
486.1854170533908
 20
1148.954611087908
 30
0.0
  0
POINT
  5
EF
330
2D
100
AcDbEntity
  8
Defpoints
 62
     0
100
AcDbPoint
 10
486.1854170533908
 20
1048.954611087908
 30
0.0
  0
POINT
  5
F0
330
2D
100
AcDbEntity
  8
Defpoints
 62
     0
100
AcDbPoint
 10
338.6854170533908
 20
1048.954611087908
 30
0.0
  0
ENDBLK
  5
F3
330
2D
100
AcDbEntity
  8
0
390
1D
100
AcDbBlockEnd
  0
BLOCK
  5
F4
330
2E
100
AcDbEntity
  8
0
390
1D
100
AcDbBlockBegin
  2
*D13
 70
     1
 10
0.0
 20
0.0
 30
0.0
  3
*D13
  1
*D13
  0
LINE
  5
F5
330
2E
100
AcDbEntity
  8
DIM
  6
Continuous
 62
     0
370
    -2
100
AcDbLine
 10
461.1854170533908
 20
1248.954611087908
 30
0.0
 11
338.6854170533908
 21
1248.954611087908
 31
0.0
  0
LINE
  5
F6
330
2E
100
AcDbEntity
  8
DIM
  6
Continuous
 62
     0
370
    -2
100
AcDbLine
 10
461.1854170533908
 20
1148.954611087908
 30
0.0
 11
338.6854170533908
 21
1148.954611087908
 31
0.0
  0
LINE
  5
F7
330
2E
100
AcDbEntity
  8
DIM
  6
Continuous
 62
     0
370
    -2
100
AcDbLine
 10
338.6854170533908
 20
1244.954855228533
 30
0.0
 11
338.6854170533908
 21
1152.954366947283
 31
0.0
  0
INSERT
  5
F8
102
{ACAD_REACTORS
330
F9
102
}
330
2E
100
AcDbEntity
  8
DIM
 62
     0
370
    -2
100
AcDbBlockReference
  2
_DOT
 10
338.6854170533908
 20
1248.954611087908
 30
0.0
 41
3.999755859375
 42
3.999755859375
 43
3.999755859375
 50
90.0
  0
INSERT
  5
F9
330
2E
100
AcDbEntity
  8
DIM
 62
     0
370
    -2
100
AcDbBlockReference
  2
_DOT
 10
338.6854170533908
 20
1148.954611087908
 30
0.0
 41
3.999755859375
 42
3.999755859375
 43
3.999755859375
 50
270.0
  0
MTEXT
  5
FA
102
{ACAD_REACTORS
330
FB
102
}
330
2E
100
AcDbEntity
  8
DIM
  6
Continuous
 62
     0
370
     5
100
AcDbMText
 10
321.4691084596408
 20
1198.954611087908
 30
0.0
 40
24.4326171875
 41
0.0
 46
0.0
 71
     5
 72
     1
  1
\A1;100
  7
ＭＳ ゴシック
 11
0.0
 21
1.0
 31
0.0
 73
     1
 44
1.0
  0
POINT
  5
FB
330
2E
100
AcDbEntity
  8
Defpoints
 62
     0
100
AcDbPoint
 10
486.1854170533908
 20
1248.954611087908
 30
0.0
  0
POINT
  5
FC
330
2E
100
AcDbEntity
  8
Defpoints
 62
     0
100
AcDbPoint
 10
486.1854170533908
 20
1148.954611087908
 30
0.0
  0
POINT
  5
FD
330
2E
100
AcDbEntity
  8
Defpoints
 62
     0
100
AcDbPoint
 10
338.6854170533908
 20
1148.954611087908
 30
0.0
  0
ENDBLK
  5
100
330
2E
100
AcDbEntity
  8
0
390
1D
100
AcDbBlockEnd
  0
BLOCK
  5
101
330
2F
100
AcDbEntity
  8
0
390
1D
100
AcDbBlockBegin
  2
*D14
 70
     1
 10
0.0
 20
0.0
 30
0.0
  3
*D14
  1
*D14
  0
LINE
  5
102
330
2F
100
AcDbEntity
  8
DIM
  6
Continuous
 62
     0
370
    -2
100
AcDbLine
 10
457.6707468475892
 20
1348.954611087908
 30
0.0
 11
338.6854170533908
 21
1348.954611087908
 31
0.0
  0
LINE
  5
103
330
2F
100
AcDbEntity
  8
DIM
  6
Continuous
 62
     0
370
    -2
100
AcDbLine
 10
461.1854170533908
 20
1248.954611087908
 30
0.0
 11
338.6854170533908
 21
1248.954611087908
 31
0.0
  0
LINE
  5
104
330
2F
100
AcDbEntity
  8
DIM
  6
Continuous
 62
     0
370
    -2
100
AcDbLine
 10
338.6854170533908
 20
1344.954855228533
 30
0.0
 11
338.6854170533908
 21
1252.954366947283
 31
0.0
  0
INSERT
  5
105
102
{ACAD_REACTORS
330
106
102
}
330
2F
100
AcDbEntity
  8
DIM
 62
     0
370
    -2
100
AcDbBlockReference
  2
_DOT
 10
338.6854170533908
 20
1348.954611087908
 30
0.0
 41
3.999755859375
 42
3.999755859375
 43
3.999755859375
 50
90.0
  0
INSERT
  5
106
330
2F
100
AcDbEntity
  8
DIM
 62
     0
370
    -2
100
AcDbBlockReference
  2
_DOT
 10
338.6854170533908
 20
1248.954611087908
 30
0.0
 41
3.999755859375
 42
3.999755859375
 43
3.999755859375
 50
270.0
  0
MTEXT
  5
107
102
{ACAD_REACTORS
330
108
102
}
330
2F
100
AcDbEntity
  8
DIM
  6
Continuous
 62
     0
370
     5
100
AcDbMText
 10
321.4691084596408
 20
1298.954611087908
 30
0.0
 40
24.4326171875
 41
0.0
 46
0.0
 71
     5
 72
     1
  1
\A1;100
  7
ＭＳ ゴシック
 11
0.0
 21
1.0
 31
0.0
 73
     1
 44
1.0
  0
POINT
  5
108
330
2F
100
AcDbEntity
  8
Defpoints
 62
     0
100
AcDbPoint
 10
482.6707468475892
 20
1348.954611087908
 30
0.0
  0
POINT
  5
109
330
2F
100
AcDbEntity
  8
Defpoints
 62
     0
100
AcDbPoint
 10
486.1854170533908
 20
1248.954611087908
 30
0.0
  0
POINT
  5
10A
330
2F
100
AcDbEntity
  8
Defpoints
 62
     0
100
AcDbPoint
 10
338.6854170533908
 20
1248.954611087908
 30
0.0
  0
ENDBLK
  5
10D
330
2F
100
AcDbEntity
  8
0
390
1D
100
AcDbBlockEnd
  0
BLOCK
  5
10E
330
30
100
AcDbEntity
  8
0
390
1D
100
AcDbBlockBegin
  2
*D15
 70
     1
 10
0.0
 20
0.0
 30
0.0
  3
*D15
  1
*D15
  0
LINE
  5
10F
330
30
100
AcDbEntity
  8
DIM
  6
Continuous
 62
     0
370
    -2
100
AcDbLine
 10
461.1854170533908
 20
1048.954611087908
 30
0.0
 11
338.6854170533908
 21
1048.954611087908
 31
0.0
  0
LINE
  5
110
330
30
100
AcDbEntity
  8
DIM
  6
Continuous
 62
     0
370
    -2
100
AcDbLine
 10
461.1854170533908
 20
948.9546110879082
 30
0.0
 11
338.6854170533908
 21
948.9546110879082
 31
0.0
  0
LINE
  5
111
330
30
100
AcDbEntity
  8
DIM
  6
Continuous
 62
     0
370
    -2
100
AcDbLine
 10
338.6854170533908
 20
1044.954855228533
 30
0.0
 11
338.6854170533908
 21
952.9543669472832
 31
0.0
  0
INSERT
  5
112
102
{ACAD_REACTORS
330
113
102
}
330
30
100
AcDbEntity
  8
DIM
 62
     0
370
    -2
100
AcDbBlockReference
  2
_DOT
 10
338.6854170533908
 20
1048.954611087908
 30
0.0
 41
3.999755859375
 42
3.999755859375
 43
3.999755859375
 50
90.0
  0
INSERT
  5
113
330
30
100
AcDbEntity
  8
DIM
 62
     0
370
    -2
100
AcDbBlockReference
  2
_DOT
 10
338.6854170533908
 20
948.9546110879082
 30
0.0
 41
3.999755859375
 42
3.999755859375
 43
3.999755859375
 50
270.0
  0
MTEXT
  5
114
102
{ACAD_REACTORS
330
115
102
}
330
30
100
AcDbEntity
  8
DIM
  6
Continuous
 62
     0
370
     5
100
AcDbMText
 10
321.4691084596408
 20
998.9546110879082
 30
0.0
 40
24.4326171875
 41
0.0
 46
0.0
 71
     5
 72
     1
  1
\A1;100
  7
ＭＳ ゴシック
 11
0.0
 21
1.0
 31
0.0
 73
     1
 44
1.0
  0
POINT
  5
115
330
30
100
AcDbEntity
  8
Defpoints
 62
     0
100
AcDbPoint
 10
486.1854170533908
 20
1048.954611087908
 30
0.0
  0
POINT
  5
116
330
30
100
AcDbEntity
  8
Defpoints
 62
     0
100
AcDbPoint
 10
486.1854170533908
 20
948.9546110879082
 30
0.0
  0
POINT
  5
117
330
30
100
AcDbEntity
  8
Defpoints
 62
     0
100
AcDbPoint
 10
338.6854170533908
 20
948.9546110879082
 30
0.0
  0
ENDBLK
  5
11A
330
30
100
AcDbEntity
  8
0
390
1D
100
AcDbBlockEnd
  0
BLOCK
  5
11B
330
31
100
AcDbEntity
  8
0
390
1D
100
AcDbBlockBegin
  2
*D16
 70
     1
 10
0.0
 20
0.0
 30
0.0
  3
*D16
  1
*D16
  0
LINE
  5
11C
330
31
100
AcDbEntity
  8
DIM
  6
Continuous
 62
     0
370
    -2
100
AcDbLine
 10
1533.91460044499
 20
1008.954611087904
 30
0.0
 11
1451.216727181101
 21
1008.954611087904
 31
0.0
  0
LINE
  5
11D
330
31
100
AcDbEntity
  8
DIM
  6
Continuous
 62
     0
370
    -2
100
AcDbLine
 10
1533.91460044499
 20
798.954611087904
 30
0.0
 11
1451.216727181101
 21
798.954611087904
 31
0.0
  0
LINE
  5
11E
330
31
100
AcDbEntity
  8
DIM
  6
Continuous
 62
     0
370
    -2
100
AcDbLine
 10
1451.216727181101
 20
1004.954855228529
 30
0.0
 11
1451.216727181101
 21
802.954366947279
 31
0.0
  0
INSERT
  5
11F
102
{ACAD_REACTORS
330
120
102
}
330
31
100
AcDbEntity
  8
DIM
 62
     0
370
    -2
100
AcDbBlockReference
  2
_DOT
 10
1451.216727181101
 20
1008.954611087904
 30
0.0
 41
3.999755859375
 42
3.999755859375
 43
3.999755859375
 50
90.0
  0
INSERT
  5
120
330
31
100
AcDbEntity
  8
DIM
 62
     0
370
    -2
100
AcDbBlockReference
  2
_DOT
 10
1451.216727181101
 20
798.954611087904
 30
0.0
 41
3.999755859375
 42
3.999755859375
 43
3.999755859375
 50
270.0
  0
MTEXT
  5
121
102
{ACAD_REACTORS
330
122
102
}
330
31
100
AcDbEntity
  8
DIM
  6
Continuous
 62
     0
370
     5
100
AcDbMText
 10
1434.000418587351
 20
903.954611087904
 30
0.0
 40
24.4326171875
 41
0.0
 46
0.0
 71
     5
 72
     1
  1
\A1;210
  7
ＭＳ ゴシック
 11
0.0
 21
1.0
 31
0.0
 73
     1
 44
1.0
  0
POINT
  5
122
330
31
100
AcDbEntity
  8
Defpoints
 62
     0
100
AcDbPoint
 10
1558.91460044499
 20
1008.954611087904
 30
0.0
  0
POINT
  5
123
330
31
100
AcDbEntity
  8
Defpoints
 62
     0
100
AcDbPoint
 10
1558.91460044499
 20
798.954611087904
 30
0.0
  0
POINT
  5
124
330
31
100
AcDbEntity
  8
Defpoints
 62
     0
100
AcDbPoint
 10
1451.216727181101
 20
798.954611087904
 30
0.0
  0
ENDBLK
  5
127
330
31
100
AcDbEntity
  8
0
390
1D
100
AcDbBlockEnd
  0
BLOCK
  5
128
330
32
100
AcDbEntity
  8
0
390
1D
100
AcDbBlockBegin
  2
*D17
 70
     1
 10
0.0
 20
0.0
 30
0.0
  3
*D17
  1
*D17
  0
LINE
  5
129
330
32
100
AcDbEntity
  8
DIM
  6
Continuous
 62
     0
370
    -2
100
AcDbLine
 10
1533.91460044499
 20
1288.954611087906
 30
0.0
 11
1451.216727181101
 21
1288.954611087906
 31
0.0
  0
LINE
  5
12A
330
32
100
AcDbEntity
  8
DIM
  6
Continuous
 62
     0
370
    -2
100
AcDbLine
 10
1533.91460044499
 20
1008.954611087904
 30
0.0
 11
1451.216727181101
 21
1008.954611087904
 31
0.0
  0
LINE
  5
12B
330
32
100
AcDbEntity
  8
DIM
  6
Continuous
 62
     0
370
    -2
100
AcDbLine
 10
1451.216727181101
 20
1284.954855228531
 30
0.0
 11
1451.216727181101
 21
1012.954366947279
 31
0.0
  0
INSERT
  5
12C
102
{ACAD_REACTORS
330
12D
102
}
330
32
100
AcDbEntity
  8
DIM
 62
     0
370
    -2
100
AcDbBlockReference
  2
_DOT
 10
1451.216727181101
 20
1288.954611087906
 30
0.0
 41
3.999755859375
 42
3.999755859375
 43
3.999755859375
 50
90.0
  0
INSERT
  5
12D
330
32
100
AcDbEntity
  8
DIM
 62
     0
370
    -2
100
AcDbBlockReference
  2
_DOT
 10
1451.216727181101
 20
1008.954611087904
 30
0.0
 41
3.999755859375
 42
3.999755859375
 43
3.999755859375
 50
270.0
  0
MTEXT
  5
12E
102
{ACAD_REACTORS
330
12F
102
}
330
32
100
AcDbEntity
  8
DIM
  6
Continuous
 62
     0
370
     5
100
AcDbMText
 10
1434.000418587351
 20
1148.954611087905
 30
0.0
 40
24.4326171875
 41
0.0
 46
0.0
 71
     5
 72
     1
  1
\A1;280
  7
ＭＳ ゴシック
 11
0.0
 21
1.0
 31
0.0
 73
     1
 44
1.0
  0
POINT
  5
12F
330
32
100
AcDbEntity
  8
Defpoints
 62
     0
100
AcDbPoint
 10
1558.91460044499
 20
1288.954611087906
 30
0.0
  0
POINT
  5
130
330
32
100
AcDbEntity
  8
Defpoints
 62
     0
100
AcDbPoint
 10
1558.91460044499
 20
1008.954611087904
 30
0.0
  0
POINT
  5
131
330
32
100
AcDbEntity
  8
Defpoints
 62
     0
100
AcDbPoint
 10
1451.216727181101
 20
1008.954611087904
 30
0.0
  0
ENDBLK
  5
134
330
32
100
AcDbEntity
  8
0
390
1D
100
AcDbBlockEnd
  0
BLOCK
  5
135
330
33
100
AcDbEntity
  8
0
390
1D
100
AcDbBlockBegin
  2
*D18
 70
     1
 10
0.0
 20
0.0
 30
0.0
  3
*D18
  1
*D18
  0
LINE
  5
136
330
33
100
AcDbEntity
  8
DIM
  6
Continuous
 62
     0
370
    -2
100
AcDbLine
 10
1533.91460044499
 20
1498.954611087905
 30
0.0
 11
1451.216727181101
 21
1498.954611087905
 31
0.0
  0
LINE
  5
137
330
33
100
AcDbEntity
  8
DIM
  6
Continuous
 62
     0
370
    -2
100
AcDbLine
 10
1533.91460044499
 20
1288.954611087906
 30
0.0
 11
1451.216727181101
 21
1288.954611087906
 31
0.0
  0
LINE
  5
138
330
33
100
AcDbEntity
  8
DIM
  6
Continuous
 62
     0
370
    -2
100
AcDbLine
 10
1451.216727181101
 20
1494.95485522853
 30
0.0
 11
1451.216727181101
 21
1292.954366947281
 31
0.0
  0
INSERT
  5
139
102
{ACAD_REACTORS
330
13A
102
}
330
33
100
AcDbEntity
  8
DIM
 62
     0
370
    -2
100
AcDbBlockReference
  2
_DOT
 10
1451.216727181101
 20
1498.954611087905
 30
0.0
 41
3.999755859375
 42
3.999755859375
 43
3.999755859375
 50
90.0
  0
INSERT
  5
13A
330
33
100
AcDbEntity
  8
DIM
 62
     0
370
    -2
100
AcDbBlockReference
  2
_DOT
 10
1451.216727181101
 20
1288.954611087906
 30
0.0
 41
3.999755859375
 42
3.999755859375
 43
3.999755859375
 50
270.0
  0
MTEXT
  5
13B
102
{ACAD_REACTORS
330
13C
102
}
330
33
100
AcDbEntity
  8
DIM
  6
Continuous
 62
     0
370
     5
100
AcDbMText
 10
1434.000418587351
 20
1393.954611087906
 30
0.0
 40
24.4326171875
 41
0.0
 46
0.0
 71
     5
 72
     1
  1
\A1;210
  7
ＭＳ ゴシック
 11
0.0
 21
1.0
 31
0.0
 73
     1
 44
1.0
  0
POINT
  5
13C
330
33
100
AcDbEntity
  8
Defpoints
 62
     0
100
AcDbPoint
 10
1558.91460044499
 20
1498.954611087905
 30
0.0
  0
POINT
  5
13D
330
33
100
AcDbEntity
  8
Defpoints
 62
     0
100
AcDbPoint
 10
1558.91460044499
 20
1288.954611087906
 30
0.0
  0
POINT
  5
13E
330
33
100
AcDbEntity
  8
Defpoints
 62
     0
100
AcDbPoint
 10
1451.216727181101
 20
1288.954611087906
 30
0.0
  0
ENDBLK
  5
141
330
33
100
AcDbEntity
  8
0
390
1D
100
AcDbBlockEnd
  0
BLOCK
  5
142
330
34
100
AcDbEntity
  8
0
390
1D
100
AcDbBlockBegin
  2
*D19
 70
     1
 10
0.0
 20
0.0
 30
0.0
  3
*D19
  1
*D19
  0
LINE
  5
143
330
34
100
AcDbEntity
  8
DIM
  6
Continuous
 62
     0
370
    -2
100
AcDbLine
 10
1708.216727181101
 20
1213.816264185159
 30
0.0
 11
1708.216727181101
 21
1873.954611087907
 31
0.0
  0
LINE
  5
144
330
34
100
AcDbEntity
  8
DIM
  6
Continuous
 62
     0
370
    -2
100
AcDbLine
 10
1538.216727181101
 20
1788.971147546238
 30
0.0
 11
1538.216727181101
 21
1873.954611087907
 31
0.0
  0
LINE
  5
145
330
34
100
AcDbEntity
  8
DIM
  6
Continuous
 62
     0
370
    -2
100
AcDbLine
 10
1704.216971321726
 20
1873.954611087907
 30
0.0
 11
1542.216483040476
 21
1873.954611087907
 31
0.0
  0
INSERT
  5
146
102
{ACAD_REACTORS
330
147
102
}
330
34
100
AcDbEntity
  8
DIM
 62
     0
370
    -2
100
AcDbBlockReference
  2
_DOT
 10
1708.216727181101
 20
1873.954611087907
 30
0.0
 41
3.999755859375
 42
3.999755859375
 43
3.999755859375
  0
INSERT
  5
147
330
34
100
AcDbEntity
  8
DIM
 62
     0
370
    -2
100
AcDbBlockReference
  2
_DOT
 10
1538.216727181101
 20
1873.954611087907
 30
0.0
 41
3.999755859375
 42
3.999755859375
 43
3.999755859375
 50
180.0
  0
MTEXT
  5
148
102
{ACAD_REACTORS
330
149
102
}
330
34
100
AcDbEntity
  8
DIM
  6
Continuous
 62
     0
370
     5
100
AcDbMText
 10
1623.216727181101
 20
1891.170919681657
 30
0.0
 40
24.4326171875
 41
0.0
 46
0.0
 71
     5
 72
     1
  1
\A1;170
  7
ＭＳ ゴシック
 73
     1
 44
1.0
  0
POINT
  5
149
330
34
100
AcDbEntity
  8
Defpoints
 62
     0
100
AcDbPoint
 10
1708.216727181101
 20
1188.816264185159
 30
0.0
  0
POINT
  5
14A
330
34
100
AcDbEntity
  8
Defpoints
 62
     0
100
AcDbPoint
 10
1538.216727181101
 20
1763.971147546238
 30
0.0
  0
POINT
  5
14B
330
34
100
AcDbEntity
  8
Defpoints
 62
     0
100
AcDbPoint
 10
1538.216727181101
 20
1873.954611087907
 30
0.0
  0
ENDBLK
  5
14E
330
34
100
AcDbEntity
  8
0
390
1D
100
AcDbBlockEnd
  0
BLOCK
  5
14F
330
35
100
AcDbEntity
  8
0
390
1D
100
AcDbBlockBegin
  2
*D20
 70
     1
 10
0.0
 20
0.0
 30
0.0
  3
*D20
  1
*D20
  0
LINE
  5
150
330
35
100
AcDbEntity
  8
DIM
  6
Continuous
 62
     0
370
    -2
100
AcDbLine
 10
1538.216727181101
 20
508.9711475462414
 30
0.0
 11
1538.216727181101
 21
423.9546110879101
 31
0.0
  0
LINE
  5
151
330
35
100
AcDbEntity
  8
DIM
  6
Continuous
 62
     0
370
    -2
100
AcDbLine
 10
1593.216727181101
 20
722.9175885184596
 30
0.0
 11
1593.216727181101
 21
423.9546110879101
 31
0.0
  0
LINE
  5
152
330
35
100
AcDbEntity
  8
DIM
  6
Continuous
 62
     0
370
    -2
100
AcDbLine
 10
1542.216483040476
 20
423.9546110879101
 30
0.0
 11
1589.216971321726
 21
423.9546110879101
 31
0.0
  0
INSERT
  5
153
102
{ACAD_REACTORS
330
154
102
}
330
35
100
AcDbEntity
  8
DIM
 62
     0
370
    -2
100
AcDbBlockReference
  2
_DOT
 10
1538.216727181101
 20
423.9546110879101
 30
0.0
 41
3.999755859375
 42
3.999755859375
 43
3.999755859375
 50
180.0
  0
INSERT
  5
154
330
35
100
AcDbEntity
  8
DIM
 62
     0
370
    -2
100
AcDbBlockReference
  2
_DOT
 10
1593.216727181101
 20
423.9546110879101
 30
0.0
 41
3.999755859375
 42
3.999755859375
 43
3.999755859375
  0
MTEXT
  5
155
102
{ACAD_REACTORS
330
156
102
}
330
35
100
AcDbEntity
  8
DIM
  6
Continuous
 62
     0
370
     5
100
AcDbMText
 10
1565.716727181101
 20
441.1709196816601
 30
0.0
 40
24.4326171875
 41
0.0
 46
0.0
 71
     5
 72
     1
  1
\A1;55
  7
ＭＳ ゴシック
 73
     1
 44
1.0
  0
POINT
  5
156
330
35
100
AcDbEntity
  8
Defpoints
 62
     0
100
AcDbPoint
 10
1538.216727181101
 20
533.9711475462414
 30
0.0
  0
POINT
  5
157
330
35
100
AcDbEntity
  8
Defpoints
 62
     0
100
AcDbPoint
 10
1593.216727181101
 20
747.9175885184596
 30
0.0
  0
POINT
  5
158
330
35
100
AcDbEntity
  8
Defpoints
 62
     0
100
AcDbPoint
 10
1593.216727181101
 20
423.9546110879101
 30
0.0
  0
ENDBLK
  5
15B
330
35
100
AcDbEntity
  8
0
390
1D
100
AcDbBlockEnd
  0
BLOCK
  5
16A
330
37
100
AcDbEntity
  8
0
390
1D
100
AcDbBlockBegin
  2
*D21
 70
     1
 10
0.0
 20
0.0
 30
0.0
  3
*D21
  1
*D22
  0
LINE
  5
16B
330
37
100
AcDbEntity
  8
DIM
  6
Continuous
 62
     0
370
    -2
100
AcDbLine
 10
1668.216727181101
 20
2173.431440937906
 30
0.0
 11
1668.216727181101
 21
2087.731313203272
 31
0.0
  0
LINE
  5
16C
330
37
100
AcDbEntity
  8
DIM
  6
Continuous
 62
     0
370
    -2
100
AcDbLine
 10
1538.216727181101
 20
2172.731313203272
 30
0.0
 11
1538.216727181101
 21
2087.731313203272
 31
0.0
  0
LINE
  5
16D
330
37
100
AcDbEntity
  8
DIM
  6
Continuous
 62
     0
370
    -2
100
AcDbLine
 10
1664.216971321726
 20
2087.731313203272
 30
0.0
 11
1542.216483040476
 21
2087.731313203272
 31
0.0
  0
INSERT
  5
16E
102
{ACAD_REACTORS
330
16F
102
}
330
37
100
AcDbEntity
  8
DIM
 62
     0
370
    -2
100
AcDbBlockReference
  2
_DOT
 10
1668.216727181101
 20
2087.731313203272
 30
0.0
 41
3.999755859375
 42
3.999755859375
 43
3.999755859375
  0
INSERT
  5
16F
330
37
100
AcDbEntity
  8
DIM
 62
     0
370
    -2
100
AcDbBlockReference
  2
_DOT
 10
1538.216727181101
 20
2087.731313203272
 30
0.0
 41
3.999755859375
 42
3.999755859375
 43
3.999755859375
 50
180.0
  0
MTEXT
  5
170
102
{ACAD_REACTORS
330
171
102
}
330
37
100
AcDbEntity
  8
DIM
  6
Continuous
 62
     0
370
     5
100
AcDbMText
 10
1603.216727181101
 20
2104.947621797022
 30
0.0
 40
24.4326171875
 41
0.0
 46
0.0
 71
     5
 72
     1
  1
\A1;130
  7
ＭＳ ゴシック
 73
     1
 44
1.0
  0
POINT
  5
171
330
37
100
AcDbEntity
  8
Defpoints
 62
     0
100
AcDbPoint
 10
1668.216727181101
 20
2198.431440937906
 30
0.0
  0
POINT
  5
172
330
37
100
AcDbEntity
  8
Defpoints
 62
     0
100
AcDbPoint
 10
1538.216727181101
 20
2197.731313203272
 30
0.0
  0
POINT
  5
173
330
37
100
AcDbEntity
  8
Defpoints
 62
     0
100
AcDbPoint
 10
1538.216727181101
 20
2087.731313203272
 30
0.0
  0
ENDBLK
  5
176
330
37
100
AcDbEntity
  8
0
390
1D
100
AcDbBlockEnd
  0
BLOCK
  5
177
330
38
100
AcDbEntity
  8
0
390
1D
100
AcDbBlockBegin
  2
*D22
 70
     1
 10
0.0
 20
0.0
 30
0.0
  3
*D22
  1
*D23
  0
LINE
  5
178
330
38
100
AcDbEntity
  8
DIM
  6
Continuous
 62
     0
370
    -2
100
AcDbLine
 10
1708.216727181101
 20
2421.161588724428
 30
0.0
 11
1708.216727181101
 21
2087.731313203272
 31
0.0
  0
LINE
  5
179
330
38
100
AcDbEntity
  8
DIM
  6
Continuous
 62
     0
370
    -2
100
AcDbLine
 10
1668.216727181101
 20
2173.431440937906
 30
0.0
 11
1668.216727181101
 21
2087.731313203272
 31
0.0
  0
LINE
  5
17A
330
38
100
AcDbEntity
  8
DIM
  6
Continuous
 62
     0
370
    -2
100
AcDbLine
 10
1704.216971321726
 20
2087.731313203272
 30
0.0
 11
1672.216483040476
 21
2087.731313203272
 31
0.0
  0
INSERT
  5
17B
102
{ACAD_REACTORS
330
17C
102
}
330
38
100
AcDbEntity
  8
DIM
 62
     0
370
    -2
100
AcDbBlockReference
  2
_DOT
 10
1708.216727181101
 20
2087.731313203272
 30
0.0
 41
3.999755859375
 42
3.999755859375
 43
3.999755859375
  0
INSERT
  5
17C
330
38
100
AcDbEntity
  8
DIM
 62
     0
370
    -2
100
AcDbBlockReference
  2
_DOT
 10
1668.216727181101
 20
2087.731313203272
 30
0.0
 41
3.999755859375
 42
3.999755859375
 43
3.999755859375
 50
180.0
  0
MTEXT
  5
17D
102
{ACAD_REACTORS
330
17E
102
}
330
38
100
AcDbEntity
  8
DIM
  6
Continuous
 62
     0
370
     5
100
AcDbMText
 10
1688.216727181101
 20
2104.947621797022
 30
0.0
 40
24.4326171875
 41
0.0
 46
0.0
 71
     5
 72
     1
  1
\A1;40
  7
ＭＳ ゴシック
 73
     1
 44
1.0
  0
POINT
  5
17E
330
38
100
AcDbEntity
  8
Defpoints
 62
     0
100
AcDbPoint
 10
1708.216727181101
 20
2446.161588724428
 30
0.0
  0
POINT
  5
17F
330
38
100
AcDbEntity
  8
Defpoints
 62
     0
100
AcDbPoint
 10
1668.216727181101
 20
2198.431440937906
 30
0.0
  0
POINT
  5
180
330
38
100
AcDbEntity
  8
Defpoints
 62
     0
100
AcDbPoint
 10
1668.216727181101
 20
2087.731313203272
 30
0.0
  0
ENDBLK
  5
183
330
38
100
AcDbEntity
  8
0
390
1D
100
AcDbBlockEnd
  0
BLOCK
  5
184
330
39
100
AcDbEntity
  8
0
390
1D
100
AcDbBlockBegin
  2
*D23
 70
     1
 10
0.0
 20
0.0
 30
0.0
  3
*D23
  1
*D24
  0
LINE
  5
185
330
39
100
AcDbEntity
  8
DIM
  6
Continuous
 62
     0
370
    -2
100
AcDbLine
 10
1513.216727181101
 20
2611.061588724426
 30
0.0
 11
1438.216727181101
 21
2611.061588724426
 31
0.0
  0
LINE
  5
186
330
39
100
AcDbEntity
  8
DIM
  6
Continuous
 62
     0
370
    -2
100
AcDbLine
 10
1523.216727181101
 20
2676.061588724426
 30
0.0
 11
1438.216727181101
 21
2676.061588724426
 31
0.0
  0
LINE
  5
187
330
39
100
AcDbEntity
  8
DIM
  6
Continuous
 62
     0
370
    -2
100
AcDbLine
 10
1438.216727181101
 20
2615.061344583801
 30
0.0
 11
1438.216727181101
 21
2672.061832865051
 31
0.0
  0
INSERT
  5
188
102
{ACAD_REACTORS
330
189
102
}
330
39
100
AcDbEntity
  8
DIM
 62
     0
370
    -2
100
AcDbBlockReference
  2
_DOT
 10
1438.216727181101
 20
2611.061588724426
 30
0.0
 41
3.999755859375
 42
3.999755859375
 43
3.999755859375
 50
270.0
  0
INSERT
  5
189
330
39
100
AcDbEntity
  8
DIM
 62
     0
370
    -2
100
AcDbBlockReference
  2
_DOT
 10
1438.216727181101
 20
2676.061588724426
 30
0.0
 41
3.999755859375
 42
3.999755859375
 43
3.999755859375
 50
90.0
  0
MTEXT
  5
18A
102
{ACAD_REACTORS
330
18B
102
}
330
39
100
AcDbEntity
  8
DIM
  6
Continuous
 62
     0
370
     5
100
AcDbMText
 10
1421.000418587351
 20
2643.561588724426
 30
0.0
 40
24.4326171875
 41
0.0
 46
0.0
 71
     5
 72
     1
  1
\A1;65
  7
ＭＳ ゴシック
 11
0.0
 21
1.0
 31
0.0
 73
     1
 44
1.0
  0
POINT
  5
18B
330
39
100
AcDbEntity
  8
Defpoints
 62
     0
100
AcDbPoint
 10
1538.216727181101
 20
2611.061588724426
 30
0.0
  0
POINT
  5
18C
330
39
100
AcDbEntity
  8
Defpoints
 62
     0
100
AcDbPoint
 10
1548.216727181101
 20
2676.061588724426
 30
0.0
  0
POINT
  5
18D
330
39
100
AcDbEntity
  8
Defpoints
 62
     0
100
AcDbPoint
 10
1438.216727181101
 20
2676.061588724426
 30
0.0
  0
ENDBLK
  5
190
330
39
100
AcDbEntity
  8
0
390
1D
100
AcDbBlockEnd
  0
BLOCK
  5
19E
330
3B
100
AcDbEntity
  8
0
390
1D
100
AcDbBlockBegin
  2
グループ-1
 70
     0
 10
0.0
 20
0.0
 30
0.0
  3
グループ-1
  1
グループ-1
  0
ARC
  5
19F
330
3B
100
AcDbEntity
  8
0
  6
STYLE_25
 62
     7
370
    15
390
1D
100
AcDbCircle
 10
590.4875680022491
 20
-649.6634528894979
 30
0.0
 40
10.00000000000019
100
AcDbArc
 50
279.9999999999997
 51
356.9999999999997
  0
LINE
  5
1A0
330
3B
100
AcDbEntity
  8
0
  6
STYLE_25
 62
     7
370
    15
390
1D
100
AcDbLine
 10
600.4738633497949
 20
-650.1868124519274
 30
0.0
 11
611.8421838744783
 21
-433.2663346105347
 31
0.0
  0
ARC
  5
1A1
330
3B
100
AcDbEntity
  8
0
  6
STYLE_25
 62
     7
370
    15
390
1D
100
AcDbCircle
 10
590.4875680022491
 20
-152.8856619145167
 30
0.0
 40
10.00000000000008
100
AcDbArc
 50
3.000000000000356
 51
80.00000000000023
  0
LINE
  5
1A2
330
3B
100
AcDbEntity
  8
0
  6
STYLE_25
 62
     7
370
    15
390
1D
100
AcDbLine
 10
600.4738633497949
 20
-152.3623023520871
 30
0.0
 11
611.8421838744783
 21
-369.2827801934769
 31
0.0
  0
ENDBLK
  5
1A3
330
3B
100
AcDbEntity
  8
0
390
1D
100
AcDbBlockEnd
  0
BLOCK
  5
289
330
288
100
AcDbEntity
  8
0
100
AcDbBlockBegin
  2
*D25
 70
     1
 10
0.0
 20
0.0
 30
0.0
  3
*D25
  1
*D28
  0
LINE
  5
28B
330
288
100
AcDbEntity
  8
DIM
  6
Continuous
 62
     0
370
    -2
100
AcDbLine
 10
405.831559570033
 20
1410.798551572769
 30
0.0
 11
405.831559570033
 21
1410.798551572769
 31
0.0
  0
LINE
  5
28C
330
288
100
AcDbEntity
  8
DIM
  6
Continuous
 62
     0
370
    -2
100
AcDbLine
 10
405.831559570033
 20
1410.798551572769
 30
0.0
 11
496.1591197267511
 21
1169.093984230179
 31
0.0
  0
MTEXT
  5
28D
330
288
100
AcDbEntity
  8
DIM
  6
Continuous
 62
     0
370
     5
100
AcDbMText
 10
378.3902006833142
 20
1410.798551572769
 30
0.0
 40
24.4326171875
 41
0.0
 46
0.0
 71
     5
 72
     1
  1
\A1;%%c35
  7
ＭＳ ゴシック
 11
6.123233995736766E-17
 21
1.0
 31
0.0
 73
     1
 44
1.0
  0
INSERT
  5
28E
330
288
100
AcDbEntity
  8
DIM
 62
     0
370
    -2
100
AcDbBlockReference
  2
_DOT
 10
497.5592915253765
 20
1165.34731025598
 30
0.0
 41
3.999755859375
 42
3.999755859375
 43
3.999755859375
 50
290.4912490109677
  0
POINT
  5
28F
330
288
100
AcDbEntity
  8
Defpoints
 62
     0
100
AcDbPoint
 10
497.5592915253765
 20
1165.34731025598
 30
0.0
  0
POINT
  5
AD5
330
288
100
AcDbEntity
  8
Defpoints
 62
     0
100
AcDbPoint
 10
509.8115425814048
 20
1132.561911919835
 30
0.0
  0
ENDBLK
  5
28A
330
288
100
AcDbEntity
  8
0
100
AcDbBlockEnd
  0
BLOCK
  5
291
330
290
100
AcDbEntity
  8
0
100
AcDbBlockBegin
  2
*D26
 70
     1
 10
0.0
 20
0.0
 30
0.0
  3
*D26
  1
*D29
  0
LINE
  5
293
330
290
100
AcDbEntity
  8
DIM
  6
Continuous
 62
     0
370
    -2
100
AcDbLine
 10
1733.216727181101
 20
2486.061588724428
 30
0.0
 11
1808.216727181101
 21
2486.061588724428
 31
0.0
  0
LINE
  5
294
330
290
100
AcDbEntity
  8
DIM
  6
Continuous
 62
     0
370
    -2
100
AcDbLine
 10
1683.216727181101
 20
2676.061588724426
 30
0.0
 11
1808.216727181101
 21
2676.061588724426
 31
0.0
  0
LINE
  5
295
330
290
100
AcDbEntity
  8
DIM
  6
Continuous
 62
     0
370
    -2
100
AcDbLine
 10
1808.216727181101
 20
2490.061344583803
 30
0.0
 11
1808.216727181101
 21
2672.061832865051
 31
0.0
  0
INSERT
  5
296
330
290
100
AcDbEntity
  8
DIM
 62
     0
370
    -2
100
AcDbBlockReference
  2
_DOT
 10
1808.216727181101
 20
2486.061588724428
 30
0.0
 41
3.999755859375
 42
3.999755859375
 43
3.999755859375
 50
270.0
  0
INSERT
  5
297
330
290
100
AcDbEntity
  8
DIM
 62
     0
370
    -2
100
AcDbBlockReference
  2
_DOT
 10
1808.216727181101
 20
2676.061588724426
 30
0.0
 41
3.999755859375
 42
3.999755859375
 43
3.999755859375
 50
90.0
  0
MTEXT
  5
298
330
290
100
AcDbEntity
  8
DIM
  6
Continuous
 62
     0
370
     5
100
AcDbMText
 10
1789.291660058187
 20
2582.041864211789
 30
0.0
 40
24.4326171875
 41
0.0
 46
0.0
 71
     5
 72
     1
  1
\A1;190
  7
ＭＳ ゴシック
 11
0.0
 21
1.0
 31
0.0
 73
     1
 44
1.0
  0
POINT
  5
299
330
290
100
AcDbEntity
  8
Defpoints
 62
     0
100
AcDbPoint
 10
1708.216727181101
 20
2486.061588724428
 30
0.0
  0
POINT
  5
29A
330
290
100
AcDbEntity
  8
Defpoints
 62
     0
100
AcDbPoint
 10
1658.216727181101
 20
2676.061588724426
 30
0.0
  0
POINT
  5
29B
330
290
100
AcDbEntity
  8
Defpoints
 62
     0
100
AcDbPoint
 10
1808.216727181101
 20
2676.061588724426
 30
0.0
  0
ENDBLK
  5
292
330
290
100
AcDbEntity
  8
0
100
AcDbBlockEnd
  0
BLOCK
  5
29E
330
29D
100
AcDbEntity
  8
0
100
AcDbBlockBegin
  2
*D27
 70
     1
 10
0.0
 20
0.0
 30
0.0
  3
*D27
  1
*D30
  0
LINE
  5
2A0
330
29D
100
AcDbEntity
  8
DIM
  6
Continuous
 62
     0
370
    -2
100
AcDbLine
 10
1538.216727181101
 20
2454.811568724428
 30
0.0
 11
1538.216727181101
 21
2472.111608724427
 31
0.0
  0
LINE
  5
2A1
330
29D
100
AcDbEntity
  8
DIM
  6
Continuous
 62
     0
370
    -2
100
AcDbLine
 10
1658.216727181101
 20
2454.811568724428
 30
0.0
 11
1658.216727181101
 21
2472.111608724427
 31
0.0
  0
LINE
  5
2A2
330
29D
100
AcDbEntity
  8
DIM
  6
Continuous
 62
     0
370
    -2
100
AcDbLine
 10
1542.216483040476
 20
2472.111608724427
 30
0.0
 11
1654.216971321726
 21
2472.111608724427
 31
0.0
  0
INSERT
  5
2A3
330
29D
100
AcDbEntity
  8
DIM
 62
     0
370
    -2
100
AcDbBlockReference
  2
_DOT
 10
1538.216727181101
 20
2472.111608724427
 30
0.0
 41
3.999755859375
 42
3.999755859375
 43
3.999755859375
 50
180.0
  0
INSERT
  5
2A4
330
29D
100
AcDbEntity
  8
DIM
 62
     0
370
    -2
100
AcDbBlockReference
  2
_DOT
 10
1658.216727181101
 20
2472.111608724427
 30
0.0
 41
3.999755859375
 42
3.999755859375
 43
3.999755859375
  0
MTEXT
  5
2A5
330
29D
100
AcDbEntity
  8
DIM
  6
Continuous
 62
     0
370
     5
100
AcDbMText
 10
1462.170046887353
 20
2491.49020393927
 30
0.0
 40
24.4326171875
 41
0.0
 46
0.0
 71
     5
 72
     1
  1
\A1;120(深さ)
  7
ＭＳ ゴシック
 73
     1
 44
1.0
  0
POINT
  5
2A6
330
29D
100
AcDbEntity
  8
Defpoints
 62
     0
100
AcDbPoint
 10
1538.216727181101
 20
2479.811568724428
 30
0.0
  0
POINT
  5
2A7
330
29D
100
AcDbEntity
  8
Defpoints
 62
     0
100
AcDbPoint
 10
1658.216727181101
 20
2479.811568724428
 30
0.0
  0
POINT
  5
2A8
330
29D
100
AcDbEntity
  8
Defpoints
 62
     0
100
AcDbPoint
 10
1658.216727181101
 20
2472.111608724427
 30
0.0
  0
ENDBLK
  5
29F
330
29D
100
AcDbEntity
  8
0
100
AcDbBlockEnd
  0
BLOCK
  5
ADB
330
ADA
100
AcDbEntity
  8
0
100
AcDbBlockBegin
  2
*D28
 70
     1
 10
0.0
 20
0.0
 30
0.0
  3
*D28
  1
*D28
  0
LINE
  5
ADD
330
ADA
100
AcDbEntity
  8
template
  6
Continuous
 62
     0
370
    -2
100
AcDbLine
 10
534.5553199118905
 20
1187.329232877664
 30
0.0
 11
622.0209494602238
 21
1296.058452691066
 31
0.0
  0
MTEXT
  5
ADE
330
ADA
100
AcDbEntity
  8
template
  6
Continuous
 62
     0
370
     0
100
AcDbMText
 10
596.934832147215
 20
1286.153966265016
 30
0.0
 40
24.4326171875
 41
0.0
 46
0.0
 71
     5
 72
     1
  1
\A1;%%c35
  7
ＭＳ ゴシック
 11
0.6268000580406019
 21
0.7791801378630606
 31
0.0
 73
     1
 44
1.0
  0
INSERT
  5
ADF
330
ADA
100
AcDbEntity
  8
template
 62
     0
370
    -2
100
AcDbBlockReference
  2
VW_FILLEDARROW
 10
514.6544180691013
 20
1162.590263500512
 30
0.0
 41
31.75
 42
31.75
 43
31.75
 50
231.1855707723807
  0
POINT
  5
AE0
330
ADA
100
AcDbEntity
  8
Defpoints
 62
     0
100
AcDbPoint
 10
514.6544180691013
 20
1162.590263500512
 30
0.0
  0
POINT
  5
AE1
330
ADA
100
AcDbEntity
  8
Defpoints
 62
     0
100
AcDbPoint
 10
492.7164160376802
 20
1135.318958675304
 30
0.0
  0
ENDBLK
  5
ADC
330
ADA
100
AcDbEntity
  8
0
100
AcDbBlockEnd
  0
ENDSEC
  0
SECTION
  2
ENTITIES
  0
MTEXT
  5
1AC
330
A
100
AcDbEntity
  8
template
 62
     7
390
1D
100
AcDbMText
 10
928.7541455004467
 20
1988.465439116167
 30
0.0
 40
24.4326171875
 41
803.3194802418016
 46
113.5195576982408
 71
     1
 72
     1
  1
{\fメイリオ|b0|i0|c0|p0;※\fＭＳ ゴシック|b0|i0|c0|p0;陶器製品には寸法公差があります。\P  洗面器の収め方をご確認の上、必ず現物を合わせて\P  カウンターの切込を行ってください。}
  7
ＭＳ ゴシック
 11
0.0
 21
1.0
 31
0.0
 73
     1
 44
1.043768984567712
1001
ACAD
1000
ACAD_MTEXT_DEFINED_HEIGHT_BEGIN
1070
    46
1040
113.5195576982408
1000
ACAD_MTEXT_DEFINED_HEIGHT_END
  0
MTEXT
  5
1AD
330
A
100
AcDbEntity
  8
template
 62
     7
390
1D
100
AcDbMText
 10
315.8636578899564
 20
2089.89286032207
 30
0.0
 40
24.4326171875
 41
0.0
 46
0.0
 71
     1
 72
     1
  1
カウンター切込寸法(Not To Scale)
  7
ＭＳ ゴシック
 11
0.0
 21
1.0
 31
0.0
 73
     1
 44
1.043768984567712
  0
CIRCLE
  5
1AE
330
A
100
AcDbEntity
  8
MODEL
  6
STYLE_25
390
1D
100
AcDbCircle
 10
536.3662750774564
 20
2344.591889788911
 30
0.0
 40
13.0
  0
LWPOLYLINE
  5
1AF
330
A
100
AcDbEntity
  8
MODEL
  6
STYLE_25
390
1D
100
AcDbPolyline
 90
        9
 70
   129
 43
0.0
 10
679.8336068105344
 20
2657.09188978891
 10
446.3662750774564
 20
2657.09188978891
 42
0.414213562373095
 10
441.3662750774564
 20
2652.09188978891
 10
441.3662750774565
 20
2034.591889788912
 42
0.414213562373095
 10
443.8662750774565
 20
2032.091889788912
 10
679.9104794319292
 20
2032.091889788912
 42
0.4114069418927435
 10
684.9102494222678
 20
2037.043931017871
 42
0.0048584869398816
 10
684.8333646553181
 20
2652.14109846227
 42
0.4113338675527147
 10
679.8336068105344
 20
2657.09188978891
  0
CIRCLE
  5
1B0
330
A
100
AcDbEntity
  8
MODEL
  6
STYLE_25
390
1D
100
AcDbCircle
 10
476.3662750774564
 20
2344.591889788911
 30
0.0
 40
8.75
  0
CIRCLE
  5
1B1
330
A
100
AcDbEntity
  8
MODEL
  6
STYLE_25
390
1D
100
AcDbCircle
 10
476.3662750774564
 20
2394.591889788911
 30
0.0
 40
8.75
  0
CIRCLE
  5
1B2
330
A
100
AcDbEntity
  8
MODEL
  6
STYLE_25
390
1D
100
AcDbCircle
 10
476.3662750774564
 20
2294.591889788911
 30
0.0
 40
8.75
  0
CIRCLE
  5
1B3
330
A
100
AcDbEntity
  8
MODEL
  6
STYLE_25
390
1D
100
AcDbCircle
 10
476.3662750774564
 20
2444.591889788911
 30
0.0
 40
8.75
  0
CIRCLE
  5
1B4
330
A
100
AcDbEntity
  8
MODEL
  6
STYLE_25
390
1D
100
AcDbCircle
 10
476.3662750774564
 20
2244.591889788911
 30
0.0
 40
8.75
  0
POLYLINE
  5
1B5
330
A
100
AcDbEntity
  8
MODEL
  6
Continuous
390
1D
100
AcDb2dPolyline
 66
     1
 10
0.0
 20
0.0
 30
0.0
 70
     1
 75
     5
  0
VERTEX
  5
1B6
330
1B5
100
AcDbEntity
  8
MODEL
  6
Continuous
390
1D
100
AcDbVertex
100
AcDb2dVertex
 10
456.3662750774564
 20
2457.084919357968
 30
0.0
  0
VERTEX
  5
1B7
330
1B5
100
AcDbEntity
  8
MODEL
  6
Continuous
390
1D
100
AcDbVertex
100
AcDb2dVertex
 10
566.3662750774564
 20
2457.084919357968
 30
0.0
  0
VERTEX
  5
1B8
330
1B5
100
AcDbEntity
  8
MODEL
  6
Continuous
390
1D
100
AcDbVertex
100
AcDb2dVertex
 10
566.3662750774564
 20
2232.084919357968
 30
0.0
  0
VERTEX
  5
1B9
330
1B5
100
AcDbEntity
  8
MODEL
  6
Continuous
390
1D
100
AcDbVertex
100
AcDb2dVertex
 10
456.3662750774564
 20
2232.084919357968
 30
0.0
  0
SEQEND
  5
1BA
330
1B5
100
AcDbEntity
  8
MODEL
  6
Continuous
390
1D
  0
DIMENSION
  5
1BB
330
A
100
AcDbEntity
  8
DIM
  6
Continuous
 62
     7
370
     5
390
1D
100
AcDbDimension
  2
*D2
 10
638.8662750774564
 20
2457.084919357968
 30
0.0
 11
621.6499664837064
 21
2344.584919357968
 31
0.0
 70
    32
 71
     5
 42
450.0
 73
     0
 74
     0
 75
     0
  3
tform線あり
100
AcDbAlignedDimension
 13
566.3662750774564
 23
2232.084919357968
 33
0.0
 14
566.3662750774564
 24
2457.084919357968
 34
0.0
 50
90.0
100
AcDbRotatedDimension
1001
ACAD
1000
DSTYLE
1002
{
1070
   279
1070
     2
1070
   340
1005
3D
1070
   144
1040
2.0
1070
   147
1040
5.0
1002
}
  0
DIMENSION
  5
1BC
330
A
100
AcDbEntity
  8
DIM
  6
Continuous
 62
     7
370
     5
390
1D
100
AcDbDimension
  2
*D3
 10
566.3662750774564
 20
2531.784919357969
 30
0.0
 11
511.3662750774564
 21
2549.001227951719
 31
0.0
 70
    32
 71
     5
 42
220.0
 73
     0
 74
     0
 75
     0
  3
tform線あり
100
AcDbAlignedDimension
 13
456.3662750774564
 23
2457.084919357968
 33
0.0
 14
566.3662750774564
 24
2457.084919357968
 34
0.0
100
AcDbRotatedDimension
1001
ACAD
1000
DSTYLE
1002
{
1070
   279
1070
     2
1070
   340
1005
3D
1070
   144
1040
2.0
1070
   147
1040
5.0
1002
}
  0
DIMENSION
  5
1BD
330
A
100
AcDbEntity
  8
DIM
  6
Continuous
 62
     7
370
     5
390
1D
100
AcDbDimension
  2
*D4
 10
456.3662750774564
 20
2531.784919357969
 30
0.0
 11
448.8662750774564
 21
2549.001227951719
 31
0.0
 70
    32
 71
     5
 42
30.0
 73
     0
 74
     0
 75
     0
  3
tform線あり
100
AcDbAlignedDimension
 13
441.3662750774564
 23
2456.784919357969
 33
0.0
 14
456.3662750774564
 24
2457.084919357968
 34
0.0
100
AcDbRotatedDimension
1001
ACAD
1000
DSTYLE
1002
{
1070
   279
1070
     2
1070
   340
1005
3D
1070
   144
1040
2.0
1070
   147
1040
5.0
1002
}
  0
MTEXT
  5
1BE
330
A
100
AcDbEntity
  8
template
 62
     7
390
1D
100
AcDbMText
 10
78.35800684853052
 20
330.923040992323
 30
0.0
 40
16.28841145833333
 41
0.0
 46
0.0
 71
     1
 72
     1
  1
品名
  7
ＭＳ ゴシック
 73
     1
 44
0.7828267384257843
  0
MTEXT
  5
1BF
330
A
100
AcDbEntity
  8
template
 62
     7
390
1D
100
AcDbMText
 10
78.35800684853052
 20
245.923040992323
 30
0.0
 40
16.28841145833333
 41
0.0
 46
0.0
 71
     1
 72
     1
  1
仕様
  7
ＭＳ ゴシック
 73
     1
 44
0.7828267384257843
  0
LINE
  5
1C0
330
A
100
AcDbEntity
  8
template
  6
Continuous
 62
     7
370
     5
390
1D
100
AcDbLine
 10
2021.358006848048
 20
254.3379628673231
 30
0.0
 11
71.35800684804849
 21
254.3379628673231
 31
0.0
  0
LWPOLYLINE
  5
1C1
330
A
100
AcDbEntity
  8
template
  6
Continuous
 62
     7
370
     5
390
1D
100
AcDbPolyline
 90
        5
 70
   128
 43
0.0
 10
2021.358006848531
 20
2884.337962867323
 10
71.35800684853052
 20
2884.337962867323
 10
71.35800684853052
 20
84.33796286732309
 10
2021.358006848531
 20
84.33796286732309
 10
2021.358006848531
 20
2884.337962867323
  0
LINE
  5
1C2
330
A
100
AcDbEntity
  8
template
  6
Continuous
 62
     7
370
     5
390
1D
100
AcDbLine
 10
2021.358006848048
 20
339.3379628673231
 30
0.0
 11
71.35800684804849
 21
339.3379628673231
 31
0.0
  0
LINE
  5
1C3
330
A
100
AcDbEntity
  8
template
  6
Continuous
 62
     7
370
     5
390
1D
100
AcDbLine
 10
2021.358006848531
 20
169.3379628673231
 30
0.0
 11
1268.358006848531
 21
169.3379628673231
 31
0.0
  0
MTEXT
  5
1C4
330
A
100
AcDbEntity
  8
template
 62
     7
390
1D
100
AcDbMText
 10
1298.229413100791
 20
139.4275683940161
 30
0.0
 40
24.4326171875
 41
0.0
 46
0.0
 71
     1
 72
     1
  1
大洋金物株式会社 ティーフォルム事業部
  7
ＭＳ ゴシック
 73
     1
 44
0.7828267384257843
  0
INSERT
  5
1C5
330
A
100
AcDbEntity
  8
template
 62
     7
390
1D
100
AcDbBlockReference
  2
グループ
 10
1046.374543306623
 20
1550.229168489913
 30
0.0
  0
MTEXT
  5
1C6
330
A
100
AcDbEntity
  8
template
 62
     7
390
1D
100
AcDbMText
 10
1830.35800684879
 20
217.340580054823
 30
0.0
 40
24.4326171875
 41
0.0
 46
0.0
 71
     1
 72
     1
  1
1:10
  7
ＭＳ ゴシック
 73
     1
 44
0.7828267384257843
  0
MTEXT
  5
1C7
330
A
100
AcDbEntity
  8
template
 62
     7
390
1D
100
AcDbMText
 10
1777.35800684879
 20
245.923040992323
 30
0.0
 40
16.28841145833333
 41
0.0
 46
0.0
 71
     1
 72
     1
  1
縮尺
  7
ＭＳ ゴシック
 73
     1
 44
0.7828267384257843
  0
LINE
  5
1C8
330
A
100
AcDbEntity
  8
template
  6
Continuous
 62
     7
370
     5
390
1D
100
AcDbLine
 10
1770.35800684879
 20
169.3379628673231
 30
0.0
 11
1770.35800684879
 21
254.3379628673231
 31
0.0
  0
MTEXT
  5
1C9
330
A
100
AcDbEntity
  8
template
 62
     7
390
1D
100
AcDbMText
 10
1526.35800684879
 20
245.923040992323
 30
0.0
 40
16.28841145833333
 41
0.0
 46
0.0
 71
     1
 72
     1
  1
容量
  7
ＭＳ ゴシック
 73
     1
 44
0.7828267384257843
  0
MTEXT
  5
1CA
330
A
100
AcDbEntity
  8
template
 62
     7
390
1D
100
AcDbMText
 10
1579.35800684879
 20
217.340580054823
 30
0.0
 40
24.4326171875
 41
0.0
 46
0.0
 71
     1
 72
     1
  1
8.6L
  7
ＭＳ ゴシック
 73
     1
 44
0.7828267384257843
  0
LINE
  5
1CB
330
A
100
AcDbEntity
  8
template
  6
Continuous
 62
     7
370
     5
390
1D
100
AcDbLine
 10
1519.35800684879
 20
169.3379628673231
 30
0.0
 11
1519.35800684879
 21
254.3379628673231
 31
0.0
  0
MTEXT
  5
1CC
330
A
100
AcDbEntity
  8
template
 62
     7
390
1D
100
AcDbMText
 10
1275.35800684879
 20
330.923040992323
 30
0.0
 40
16.28841145833333
 41
0.0
 46
0.0
 71
     1
 72
     1
  1
品番
  7
ＭＳ ゴシック
 73
     1
 44
0.7828267384257843
  0
MTEXT
  5
1CD
330
A
100
AcDbEntity
  8
template
 62
     7
390
1D
100
AcDbMText
 10
1275.35800684879
 20
245.923040992323
 30
0.0
 40
16.28841145833333
 41
0.0
 46
0.0
 71
     1
 72
     1
  1
重量
  7
ＭＳ ゴシック
 73
     1
 44
0.7828267384257843
  0
MTEXT
  5
1CE
330
A
100
AcDbEntity
  8
template
 62
     7
390
1D
100
AcDbMText
 10
1328.35800684879
 20
302.340580054823
 30
0.0
 40
24.4326171875
 41
0.0
 46
24.4326171875
 71
     1
 72
     1
  1
{FAA70-0513-01S}
  7
ＭＳ ゴシック
 73
     1
 44
0.7828267384257843
1001
ACAD
1000
ACAD_MTEXT_DEFINED_HEIGHT_BEGIN
1070
    46
1040
24.4326171875
1000
ACAD_MTEXT_DEFINED_HEIGHT_END
  0
MTEXT
  5
1CF
330
A
100
AcDbEntity
  8
template
 62
     7
390
1D
100
AcDbMText
 10
1328.35800684879
 20
217.340580054823
 30
0.0
 40
24.4326171875
 41
0.0
 46
0.0
 71
     1
 72
     1
  1
34.5kg
  7
ＭＳ ゴシック
 73
     1
 44
0.7828267384257843
  0
LINE
  5
1D0
330
A
100
AcDbEntity
  8
template
  6
Continuous
 62
     7
370
     5
390
1D
100
AcDbLine
 10
1268.35800684879
 20
84.33796286732309
 30
0.0
 11
1268.35800684879
 21
339.3379628673231
 31
0.0
  0
MTEXT
  5
1D1
330
A
100
AcDbEntity
  8
template
 62
     7
390
1D
100
AcDbMText
 10
71.35800684873357
 20
72.48414081046712
 30
0.0
 40
21.71788194444445
 41
0.0
 46
0.0
 71
     1
 72
     1
  1
100709SH
  7
ＭＳ ゴシック
 73
     1
 44
0.7828267384257843
  0
MTEXT
  5
1D2
330
A
100
AcDbEntity
  8
template
 62
     7
390
1D
100
AcDbMText
 10
131.3580068480865
 20
302.468287413524
 30
0.0
 40
24.4326171875
 41
0.0
 46
0.0
 71
     1
 72
     1
  1
手洗器 -DURAVIT,Vero-
  7
ＭＳ ゴシック
 73
     1
 44
0.7828267384257843
  0
MTEXT
  5
1D3
330
A
100
AcDbEntity
  8
template
 62
     7
390
1D
100
AcDbMText
 10
131.3580068480865
 20
217.468287413524
 30
0.0
 40
24.4326171875
 41
0.0
 46
0.0
 71
     1
 72
     1
  1
壁掛け,カウンタ ートップ/オーバーフロー付き/壁取付ボルト付属/\P陶器/ホワイト\P
  7
ＭＳ ゴシック
 73
     1
 44
1.130749733281688
  0
CIRCLE
  5
1D4
330
A
100
AcDbEntity
  8
template
  6
STYLE_25
 62
     7
370
    15
390
1D
100
AcDbCircle
 10
1118.281886886168
 20
763.2751771107446
 30
0.0
 40
17.50000000000011
  0
MTEXT
  5
1D5
330
A
100
AcDbEntity
  8
template
 62
     7
390
1D
100
AcDbMText
 10
1108.657834714546
 20
792.8920205468298
 30
0.0
 40
24.4326171875
 41
918.9206409242322
 46
68.27975785302667
 71
     1
 72
     1
  1
{=φ30もしくはφ35の水栓取付用穴あけ加工を承ります。\P 必要な場合、ご注文の際にご指示ください。}
  7
ＭＳ ゴシック
 11
0.0
 21
1.0
 31
0.0
 73
     1
 44
1.043768984567712
1001
ACAD
1000
ACAD_MTEXT_DEFINED_HEIGHT_BEGIN
1070
    46
1040
68.27975785302667
1000
ACAD_MTEXT_DEFINED_HEIGHT_END
  0
MTEXT
  5
1D6
330
A
100
AcDbEntity
  8
DIM
 62
     7
390
1D
100
AcDbMText
 10
1467.159760216114
 20
1532.463185865707
 30
0.0
 40
24.4326171875
 41
0.0
 46
24.4326171875
 71
     1
 72
     1
  1
{壁取付ボルト穴(4ヶ所)}
  7
ＭＳ ゴシック
 11
0.0
 21
1.0
 31
0.0
 73
     1
 44
0.7828267384257843
1001
ACAD
1000
ACAD_MTEXT_DEFINED_HEIGHT_BEGIN
1070
    46
1040
24.4326171875
1000
ACAD_MTEXT_DEFINED_HEIGHT_END
  0
DIMENSION
  5
1D7
330
A
100
AcDbEntity
  8
DIM
  6
Continuous
 62
     7
370
     5
390
1D
100
AcDbDimension
  2
*D6
 10
288.6854170533908
 20
1773.954611087907
 30
0.0
 11
271.4691084596408
 21
1148.954611087909
 31
0.0
 70
    32
 71
     5
 42
1249.999999999997
 73
     0
 74
     0
 75
     0
  3
tform線あり
100
AcDbAlignedDimension
 13
448.6854170533908
 23
523.9546110879104
 33
0.0
 14
448.6854170533908
 24
1773.954611087907
 34
0.0
 50
90.0
100
AcDbRotatedDimension
1001
ACAD
1000
DSTYLE
1002
{
1070
   279
1070
     2
1070
   340
1005
3D
1070
   147
1040
5.0
1002
}
  0
DIMENSION
  5
1D8
330
A
100
AcDbEntity
  8
DIM
  6
Continuous
 62
     7
370
     5
390
1D
100
AcDbDimension
  2
*D7
 10
438.6854170533908
 20
1873.954611087907
 30
0.0
 11
683.6851698935815
 21
1891.170919681657
 31
0.0
 70
    32
 71
     5
 42
489.9995056803814
 73
     0
 74
     0
 75
     0
  3
tform線あり
100
AcDbAlignedDimension
 13
928.6849227337722
 23
1774.363987066445
 33
0.0
 14
438.6854170533908
 24
1763.954611087907
 34
0.0
100
AcDbRotatedDimension
1001
ACAD
1000
DSTYLE
1002
{
1070
   279
1070
     2
1070
   340
1005
3D
1070
   147
1040
5.0
1002
}
  0
DIMENSION
  5
1D9
330
A
100
AcDbEntity
  8
DIM
  6
Continuous
 62
     7
370
     5
390
1D
100
AcDbDimension
  2
*D8
 10
1028.684922733766
 20
1433.954611087907
 30
0.0
 11
1011.468614140016
 21
1148.954611087907
 31
0.0
 70
    32
 71
     5
 42
570.0
 73
     0
 74
     0
 75
     0
  3
tform線あり
100
AcDbAlignedDimension
 13
928.121959697628
 23
863.9546110879071
 33
0.0
 14
928.0532252813972
 24
1433.954611087907
 34
0.0
 50
90.0
100
AcDbRotatedDimension
1001
ACAD
1000
DSTYLE
1002
{
1070
   279
1070
     2
1070
   340
1005
3D
1070
   147
1040
5.0
1002
}
  0
DIMENSION
  5
1DA
330
A
100
AcDbEntity
  8
DIM
  6
Continuous
 62
     7
370
     5
390
1D
100
AcDbDimension
  2
*D9
 10
1028.684922733766
 20
863.9546110879061
 30
0.0
 11
1011.468614140016
 21
693.9546110879061
 31
0.0
 70
    32
 71
     5
 42
340.0
 73
     0
 74
     0
 75
     0
  3
tform線あり
100
AcDbAlignedDimension
 13
919.3724106579513
 23
523.9546110879061
 33
0.0
 14
928.121959697628
 24
863.9546110879061
 34
0.0
 50
90.0
100
AcDbRotatedDimension
1001
ACAD
1000
DSTYLE
1002
{
1070
   279
1070
     2
1070
   340
1005
3D
1070
   147
1040
5.0
1002
}
  0
DIMENSION
  5
1DB
330
A
100
AcDbEntity
  8
DIM
  6
Continuous
 62
     7
370
     5
390
1D
100
AcDbDimension
  2
*D10
 10
438.685417053391
 20
447.954611087906
 30
0.0
 11
501.185417053391
 21
465.170919681656
 31
0.0
 70
    32
 71
     5
 42
125.0
 73
     0
 74
     0
 75
     0
  3
tform線あり
100
AcDbAlignedDimension
 13
563.685417053391
 23
523.9546110879104
 33
0.0
 14
438.685417053391
 24
534.1141411713561
 34
0.0
100
AcDbRotatedDimension
1001
ACAD
1000
DSTYLE
1002
{
1070
   279
1070
     2
1070
   340
1005
3D
1070
   147
1040
5.0
1002
}
  0
DIMENSION
  5
1DC
330
A
100
AcDbEntity
  8
DIM
  6
Continuous
 62
     7
370
     5
390
1D
100
AcDbDimension
  2
*D11
 10
563.6854170533907
 20
447.954611087906
 30
0.0
 11
726.1854170533907
 21
465.170919681656
 31
0.0
 70
    32
 71
     5
 42
325.0
 73
     0
 74
     0
 75
     0
  3
tform線あり
100
AcDbAlignedDimension
 13
888.6854170533907
 23
523.9546110879104
 33
0.0
 14
563.6854170533907
 24
523.9546110879104
 34
0.0
100
AcDbRotatedDimension
1001
ACAD
1000
DSTYLE
1002
{
1070
   279
1070
     2
1070
   340
1005
3D
1070
   147
1040
5.0
1002
}
  0
DIMENSION
  5
1DD
330
A
100
AcDbEntity
  8
DIM
  6
Continuous
 62
     7
370
     5
390
1D
100
AcDbDimension
  2
*D12
 10
338.6854170533908
 20
1048.954611087908
 30
0.0
 11
321.4691084596408
 21
1098.954611087908
 31
0.0
 70
    32
 71
     5
 42
100.0
 73
     0
 74
     0
 75
     0
  3
tform線あり
100
AcDbAlignedDimension
 13
486.1854170533908
 23
1148.954611087908
 33
0.0
 14
486.1854170533908
 24
1048.954611087908
 34
0.0
 50
90.0
100
AcDbRotatedDimension
1001
ACAD
1000
DSTYLE
1002
{
1070
   279
1070
     2
1070
   340
1005
3D
1070
   147
1040
5.0
1002
}
  0
DIMENSION
  5
1DE
330
A
100
AcDbEntity
  8
DIM
  6
Continuous
 62
     7
370
     5
390
1D
100
AcDbDimension
  2
*D13
 10
338.6854170533908
 20
1148.954611087908
 30
0.0
 11
321.4691084596408
 21
1198.954611087908
 31
0.0
 70
    32
 71
     5
 42
100.0
 73
     0
 74
     0
 75
     0
  3
tform線あり
100
AcDbAlignedDimension
 13
486.1854170533908
 23
1248.954611087908
 33
0.0
 14
486.1854170533908
 24
1148.954611087908
 34
0.0
 50
90.0
100
AcDbRotatedDimension
1001
ACAD
1000
DSTYLE
1002
{
1070
   279
1070
     2
1070
   340
1005
3D
1070
   147
1040
5.0
1002
}
  0
DIMENSION
  5
1DF
330
A
100
AcDbEntity
  8
DIM
  6
Continuous
 62
     7
370
     5
390
1D
100
AcDbDimension
  2
*D14
 10
338.6854170533908
 20
1248.954611087908
 30
0.0
 11
321.4691084596408
 21
1298.954611087908
 31
0.0
 70
    32
 71
     5
 42
100.0
 73
     0
 74
     0
 75
     0
  3
tform線あり
100
AcDbAlignedDimension
 13
482.6707468475892
 23
1348.954611087908
 33
0.0
 14
486.1854170533908
 24
1248.954611087908
 34
0.0
 50
90.0
100
AcDbRotatedDimension
1001
ACAD
1000
DSTYLE
1002
{
1070
   279
1070
     2
1070
   340
1005
3D
1070
   147
1040
5.0
1002
}
  0
DIMENSION
  5
1E0
330
A
100
AcDbEntity
  8
DIM
  6
Continuous
 62
     7
370
     5
390
1D
100
AcDbDimension
  2
*D15
 10
338.6854170533908
 20
948.9546110879082
 30
0.0
 11
321.4691084596408
 21
998.9546110879082
 31
0.0
 70
    32
 71
     5
 42
100.0
 73
     0
 74
     0
 75
     0
  3
tform線あり
100
AcDbAlignedDimension
 13
486.1854170533908
 23
1048.954611087908
 33
0.0
 14
486.1854170533908
 24
948.9546110879082
 34
0.0
 50
90.0
100
AcDbRotatedDimension
1001
ACAD
1000
DSTYLE
1002
{
1070
   279
1070
     2
1070
   340
1005
3D
1070
   147
1040
5.0
1002
}
  0
DIMENSION
  5
1E1
330
A
100
AcDbEntity
  8
DIM
  6
Continuous
 62
     7
370
     5
390
1D
100
AcDbDimension
  2
*D16
 10
1451.216727181101
 20
798.954611087904
 30
0.0
 11
1434.000418587351
 21
903.954611087904
 31
0.0
 70
    32
 71
     5
 42
210.0
 73
     0
 74
     0
 75
     0
  3
tform線あり
100
AcDbAlignedDimension
 13
1558.91460044499
 23
1008.954611087904
 33
0.0
 14
1558.91460044499
 24
798.954611087904
 34
0.0
 50
90.0
100
AcDbRotatedDimension
1001
ACAD
1000
DSTYLE
1002
{
1070
   279
1070
     2
1070
   340
1005
3D
1070
   147
1040
5.0
1002
}
  0
DIMENSION
  5
1E2
330
A
100
AcDbEntity
  8
DIM
  6
Continuous
 62
     7
370
     5
390
1D
100
AcDbDimension
  2
*D17
 10
1451.216727181101
 20
1008.954611087904
 30
0.0
 11
1434.000418587351
 21
1148.954611087905
 31
0.0
 70
    32
 71
     5
 42
280.0000000000022
 73
     0
 74
     0
 75
     0
  3
tform線あり
100
AcDbAlignedDimension
 13
1558.91460044499
 23
1288.954611087906
 33
0.0
 14
1558.91460044499
 24
1008.954611087904
 34
0.0
 50
90.0
100
AcDbRotatedDimension
1001
ACAD
1000
DSTYLE
1002
{
1070
   279
1070
     2
1070
   340
1005
3D
1070
   147
1040
5.0
1002
}
  0
DIMENSION
  5
1E3
330
A
100
AcDbEntity
  8
DIM
  6
Continuous
 62
     7
370
     5
390
1D
100
AcDbDimension
  2
*D18
 10
1451.216727181101
 20
1288.954611087906
 30
0.0
 11
1434.000418587351
 21
1393.954611087906
 31
0.0
 70
    32
 71
     5
 42
209.9999999999989
 73
     0
 74
     0
 75
     0
  3
tform線あり
100
AcDbAlignedDimension
 13
1558.91460044499
 23
1498.954611087905
 33
0.0
 14
1558.91460044499
 24
1288.954611087906
 34
0.0
 50
90.0
100
AcDbRotatedDimension
1001
ACAD
1000
DSTYLE
1002
{
1070
   279
1070
     2
1070
   340
1005
3D
1070
   147
1040
5.0
1002
}
  0
DIMENSION
  5
1E4
330
A
100
AcDbEntity
  8
DIM
  6
Continuous
 62
     7
370
     5
390
1D
100
AcDbDimension
  2
*D19
 10
1538.216727181101
 20
1873.954611087907
 30
0.0
 11
1623.216727181101
 21
1891.170919681657
 31
0.0
 70
    32
 71
     5
 42
170.0
 73
     0
 74
     0
 75
     0
  3
tform線あり
100
AcDbAlignedDimension
 13
1708.216727181101
 23
1188.816264185159
 33
0.0
 14
1538.216727181101
 24
1763.971147546238
 34
0.0
100
AcDbRotatedDimension
1001
ACAD
1000
DSTYLE
1002
{
1070
   279
1070
     2
1070
   340
1005
3D
1070
   147
1040
5.0
1002
}
  0
DIMENSION
  5
1E5
330
A
100
AcDbEntity
  8
DIM
  6
Continuous
 62
     7
370
     5
390
1D
100
AcDbDimension
  2
*D20
 10
1593.216727181101
 20
423.9546110879101
 30
0.0
 11
1565.716727181101
 21
441.1709196816601
 31
0.0
 70
    32
 71
     5
 42
55.0
 73
     0
 74
     0
 75
     0
  3
tform線あり
100
AcDbAlignedDimension
 13
1538.216727181101
 23
533.9711475462414
 33
0.0
 14
1593.216727181101
 24
747.9175885184596
 34
0.0
100
AcDbRotatedDimension
1001
ACAD
1000
DSTYLE
1002
{
1070
   279
1070
     2
1070
   340
1005
3D
1070
   147
1040
5.0
1002
}
  0
DIMENSION
  5
1E6
330
A
100
AcDbEntity
  8
DIM
  6
Continuous
 62
     7
370
     5
390
1D
100
AcDbDimension
  2
*D27
 10
1658.216727181101
 20
2472.111608724427
 30
0.0
 11
1462.170046887353
 21
2491.49020393927
 31
0.0
 70
   160
 71
     5
 42
120.0
 73
     0
 74
     0
 75
     0
  3
tform線あり
100
AcDbAlignedDimension
 13
1538.216727181101
 23
2479.811568724428
 33
0.0
 14
1658.216727181101
 24
2479.811568724428
 34
0.0
100
AcDbRotatedDimension
1001
ACAD
1000
DSTYLE
1002
{
1070
   279
1070
     2
1070
   340
1005
3D
1070
     3
1000
<>(深さ)
1070
   174
1070
     0
1070
   147
1040
5.0
1002
}
  0
DIMENSION
  5
1E7
330
A
100
AcDbEntity
  8
DIM
  6
Continuous
 62
     7
370
     5
390
1D
100
AcDbDimension
  2
*D21
 10
1538.216727181101
 20
2087.731313203272
 30
0.0
 11
1603.216727181101
 21
2104.947621797022
 31
0.0
 70
    32
 71
     5
 42
130.0
 73
     0
 74
     0
 75
     0
  3
tform線あり
100
AcDbAlignedDimension
 13
1668.216727181101
 23
2198.431440937906
 33
0.0
 14
1538.216727181101
 24
2197.731313203272
 34
0.0
100
AcDbRotatedDimension
1001
ACAD
1000
DSTYLE
1002
{
1070
   279
1070
     2
1070
   340
1005
3D
1070
   147
1040
5.0
1002
}
  0
DIMENSION
  5
1E8
330
A
100
AcDbEntity
  8
DIM
  6
Continuous
 62
     7
370
     5
390
1D
100
AcDbDimension
  2
*D22
 10
1668.216727181101
 20
2087.731313203272
 30
0.0
 11
1688.216727181101
 21
2104.947621797022
 31
0.0
 70
    32
 71
     5
 42
40.0
 73
     0
 74
     0
 75
     0
  3
tform線あり
100
AcDbAlignedDimension
 13
1708.216727181101
 23
2446.161588724428
 33
0.0
 14
1668.216727181101
 24
2198.431440937906
 34
0.0
100
AcDbRotatedDimension
1001
ACAD
1000
DSTYLE
1002
{
1070
   279
1070
     2
1070
   340
1005
3D
1070
   147
1040
5.0
1002
}
  0
DIMENSION
  5
1E9
330
A
100
AcDbEntity
  8
DIM
  6
Continuous
 62
     7
370
     5
390
1D
100
AcDbDimension
  2
*D23
 10
1438.216727181101
 20
2676.061588724426
 30
0.0
 11
1421.000418587351
 21
2643.561588724426
 31
0.0
 70
    32
 71
     5
 42
65.0
 73
     0
 74
     0
 75
     0
  3
tform線あり
100
AcDbAlignedDimension
 13
1538.216727181101
 23
2611.061588724426
 33
0.0
 14
1548.216727181101
 24
2676.061588724426
 34
0.0
 50
90.0
100
AcDbRotatedDimension
1001
ACAD
1000
DSTYLE
1002
{
1070
   279
1070
     2
1070
   340
1005
3D
1070
   147
1040
5.0
1002
}
  0
DIMENSION
  5
1EA
330
A
100
AcDbEntity
  8
DIM
  6
Continuous
 62
     7
370
     5
390
1D
100
AcDbDimension
  2
*D26
 10
1808.216727181101
 20
2676.061588724426
 30
0.0
 11
1789.291660058187
 21
2582.041864211789
 31
0.0
 70
   160
 71
     5
 42
189.9999999999982
 73
     0
 74
     0
 75
     0
  3
tform線あり
100
AcDbAlignedDimension
 13
1708.216727181101
 23
2486.061588724428
 33
0.0
 14
1658.216727181101
 24
2676.061588724426
 34
0.0
 50
90.0
100
AcDbRotatedDimension
1001
ACAD
1000
DSTYLE
1002
{
1070
   279
1070
     2
1070
   340
1005
3D
1070
   147
1040
5.0
1002
}
  0
LINE
  5
1EB
330
A
100
AcDbEntity
  8
DIM
  6
Continuous
 62
     7
370
     5
390
1D
100
AcDbLine
 10
1592.428489333879
 20
1498.954611087905
 30
0.0
 11
1505.079556845365
 21
1621.68260971344
 31
0.0
  0
LINE
  5
1EC
330
A
100
AcDbEntity
  8
MODEL
  6
Continuous
390
1D
100
AcDbLine
 10
1668.216727181101
 20
1098.982673106907
 30
0.0
 11
1668.216727181101
 21
1198.893476152238
 31
0.0
  0
LINE
  5
1ED
330
A
100
AcDbEntity
  8
MODEL
  6
STYLE_25
390
1D
100
AcDbLine
 10
1658.216727181101
 20
1116.962833879378
 30
0.0
 11
1658.216727181101
 21
1148.954611087906
 31
0.0
  0
LINE
  5
1EE
330
A
100
AcDbEntity
  8
MODEL
  6
STYLE_25
390
1D
100
AcDbLine
 10
1664.530742918559
 20
1122.954611087906
 30
0.0
 11
1664.530742918559
 21
1148.954611087906
 31
0.0
  0
LINE
  5
1EF
330
A
100
AcDbEntity
  8
MODEL
  6
STYLE_25
390
1D
100
AcDbLine
 10
1544.001189937433
 20
874.9745679407484
 30
0.0
 11
1640.216727181101
 21
891.1451767437546
 31
0.0
  0
LINE
  5
1F0
330
A
100
AcDbEntity
  8
MODEL
  6
STYLE_25
390
1D
100
AcDbLine
 10
1658.216727181101
 20
1116.962833879378
 30
0.0
 11
1664.530742918559
 21
1122.954611087906
 31
0.0
  0
LINE
  5
1F1
330
A
100
AcDbEntity
  8
MODEL
  6
STYLE_25
390
1D
100
AcDbLine
 10
1664.530742918559
 20
1122.954611087906
 30
0.0
 11
1708.216727181101
 21
1122.954611087906
 31
0.0
  0
ARC
  5
1F2
330
A
100
AcDbEntity
  8
MODEL
  6
STYLE_25
390
1D
100
AcDbCircle
 10
1545.216727181101
 20
868.0809136696631
 30
0.0
 40
6.99999999999982
100
AcDbArc
 50
99.99999999999784
 51
180.0
  0
LINE
  5
1F3
330
A
100
AcDbEntity
  8
MODEL
  6
Continuous
390
1D
100
AcDbLine
 10
1573.25800684829
 20
798.954611087904
 30
0.0
 11
1613.25800684829
 21
798.954611087904
 31
0.0
  0
LWPOLYLINE
  5
1F4
330
A
100
AcDbEntity
  8
MODEL
  6
Continuous
390
1D
100
AcDbPolyline
 90
       14
 70
   129
 43
0.0
 10
1548.216727181101
 20
1773.971147546238
 42
0.4142135623730934
 10
1538.216727181101
 20
1763.971147546238
 10
1538.216727181101
 20
533.9711475462414
 42
0.414213562373105
 10
1548.216727181101
 20
523.9711475462417
 10
1658.216727181101
 20
523.9711475462417
 42
0.4142135623730851
 10
1668.216727181101
 20
533.9711475462414
 10
1668.216727181101
 20
1098.999209565241
 42
-0.3729018752331797
 10
1672.503782819059
 20
1103.948119580248
 10
1708.216727181101
 20
1109.092957990653
 10
1708.216727181101
 20
1188.816264185159
 10
1672.503782819059
 20
1193.961102595564
 42
-0.3729018752331815
 10
1668.216727181101
 20
1198.910012610571
 10
1668.216727181101
 20
1763.271019811605
 42
0.3945442706201102
 10
1658.216727181104
 20
1773.971147546238
  0
LINE
  5
1F5
330
A
100
AcDbEntity
  8
MODEL
  6
Continuous
390
1D
100
AcDbLine
 10
563.6854170533907
 20
1423.954611087906
 30
0.0
 11
563.6854170533907
 21
873.9546110879064
 31
0.0
  0
CIRCLE
  5
1F6
330
A
100
AcDbEntity
  8
MODEL
  6
Continuous
390
1D
100
AcDbCircle
 10
628.6854170533907
 20
1148.954611087908
 30
0.0
 40
26.0
  0
CIRCLE
  5
1F7
330
A
100
AcDbEntity
  8
MODEL
  6
Continuous
390
1D
100
AcDbCircle
 10
628.6854170533907
 20
1148.954611087908
 30
0.0
 40
37.5
  0
LINE
  5
1F8
330
A
100
AcDbEntity
  8
MODEL
  6
Continuous
390
1D
100
AcDbLine
 10
888.7319882339463
 20
873.9546110879065
 30
0.0
 11
888.7319882339463
 21
1423.954611087906
 31
0.0
  0
LINE
  5
1F9
330
A
100
AcDbEntity
  8
MODEL
  6
Continuous
390
1D
100
AcDbLine
 10
573.7319882339464
 20
863.9546110879061
 30
0.0
 11
879.4319882339463
 21
863.9546110879061
 31
0.0
  0
ARC
  5
1FA
330
A
100
AcDbEntity
  8
MODEL
  6
Continuous
390
1D
100
AcDbCircle
 10
878.7319882339463
 20
873.9546110879061
 30
0.0
 40
10.0
100
AcDbArc
 50
270.0
 51
0.0
  0
ARC
  5
1FB
330
A
100
AcDbEntity
  8
MODEL
  6
Continuous
390
1D
100
AcDbCircle
 10
573.6854170533907
 20
873.9546110879061
 30
0.0
 40
10.0
100
AcDbArc
 50
180.0
 51
270.0
  0
LINE
  5
1FC
330
A
100
AcDbEntity
  8
MODEL
  6
Continuous
390
1D
100
AcDbLine
 10
573.7319882339464
 20
1433.954611087907
 30
0.0
 11
879.4319882339463
 21
1433.954611087907
 31
0.0
  0
ARC
  5
1FD
330
A
100
AcDbEntity
  8
MODEL
  6
Continuous
390
1D
100
AcDbCircle
 10
878.7319882339463
 20
1423.954611087907
 30
0.0
 40
10.0
100
AcDbArc
 50
0.0
 51
90.0
  0
ARC
  5
1FE
330
A
100
AcDbEntity
  8
MODEL
  6
Continuous
390
1D
100
AcDbCircle
 10
573.6854170533907
 20
1423.954611087907
 30
0.0
 40
9.999999999999943
100
AcDbArc
 50
90.0
 51
180.0
  0
LWPOLYLINE
  5
1FF
330
A
100
AcDbEntity
  8
MODEL
  6
Continuous
390
1D
100
AcDbPolyline
 90
       11
 70
   129
 43
0.0
 10
915.6200805195468
 20
1773.954611087907
 10
448.6854170533908
 20
1773.954611087907
 42
0.414213562373095
 10
438.6854170533908
 20
1763.954611087907
 10
438.685417053391
 20
528.9546110879104
 42
0.414213562373095
 10
443.685417053391
 20
523.9546110879104
 10
915.7738257623364
 20
523.9546110879104
 42
0.4114069418927468
 10
925.7733657430136
 20
533.8586935458288
 10
925.7733657430233
 20
533.8586935465205
 42
0.004858486939873
 10
925.6195962091313
 20
1764.053028433965
 10
925.6195962091143
 20
1764.053028434629
 42
0.4113338675527419
 10
915.6200805195468
 20
1773.954611087907
  0
CIRCLE
  5
200
102
{ACAD_REACTORS
102
}
330
A
100
AcDbEntity
  8
MODEL
  6
STYLE_25
390
1D
100
AcDbCircle
 10
503.6854170533908
 20
1148.954611087908
 30
0.0
 40
17.5
  0
LINE
  5
201
330
A
100
AcDbEntity
  8
MODEL
  6
STYLE_25
390
1D
100
AcDbLine
 10
1658.216727181101
 20
1180.946388296436
 30
0.0
 11
1658.216727181101
 21
1148.954611087908
 31
0.0
  0
LINE
  5
202
330
A
100
AcDbEntity
  8
MODEL
  6
STYLE_25
390
1D
100
AcDbLine
 10
1544.001189937433
 20
1422.934654235063
 30
0.0
 11
1638.598593085541
 21
1407.191584105519
 31
0.0
  0
ARC
  5
203
330
A
100
AcDbEntity
  8
MODEL
  6
STYLE_25
390
1D
100
AcDbCircle
 10
1545.216727181101
 20
1429.828308506148
 30
0.0
 40
7.0
100
AcDbArc
 50
180.0
 51
260.0000000000025
  0
LINE
  5
204
330
A
100
AcDbEntity
  8
MODEL
  6
STYLE_25
390
1D
100
AcDbLine
 10
1658.216727181101
 20
1180.946388296436
 30
0.0
 11
1658.216727181101
 21
1148.954611087908
 31
0.0
  0
LINE
  5
205
330
A
100
AcDbEntity
  8
MODEL
  6
STYLE_25
390
1D
100
AcDbLine
 10
1664.530742918559
 20
1174.954611087908
 30
0.0
 11
1664.530742918559
 21
1148.954611087908
 31
0.0
  0
LINE
  5
206
330
A
100
AcDbEntity
  8
MODEL
  6
STYLE_25
390
1D
100
AcDbLine
 10
1658.216727181101
 20
1180.946388296436
 30
0.0
 11
1664.530742918559
 21
1174.954611087908
 31
0.0
  0
LINE
  5
207
330
A
100
AcDbEntity
  8
MODEL
  6
STYLE_25
390
1D
100
AcDbLine
 10
1664.530742918559
 20
1174.954611087908
 30
0.0
 11
1708.216727181101
 21
1174.954611087908
 31
0.0
  0
LINE
  5
208
330
A
100
AcDbEntity
  8
MODEL
  6
Continuous
390
1D
100
AcDbLine
 10
1658.216727181104
 20
2187.731313203272
 30
0.0
 11
1548.216727181101
 21
2187.731313203272
 31
0.0
  0
ARC
  5
209
330
A
100
AcDbEntity
  8
MODEL
  6
Continuous
390
1D
100
AcDbCircle
 10
1657.492090504228
 20
2198.431440937906
 30
0.0
 40
10.7246366768736
100
AcDbArc
 50
273.8742831920344
 51
0.0
  0
LINE
  5
20A
330
A
100
AcDbEntity
  8
MODEL
  6
Continuous
390
1D
100
AcDbLine
 10
1668.216727181101
 20
2666.061588724427
 30
0.0
 11
1668.216727181101
 21
2198.431440937906
 31
0.0
  0
LINE
  5
20B
330
A
100
AcDbEntity
  8
MODEL
  6
Continuous
390
1D
100
AcDbLine
 10
1668.216727181101
 20
2436.119930055208
 30
0.0
 11
1668.216727181101
 21
2436.061588724428
 31
0.0
  0
ARC
  5
20C
330
A
100
AcDbEntity
  8
MODEL
  6
Continuous
390
1D
100
AcDbCircle
 10
1673.206260948901
 20
2436.119930055208
 30
0.0
 40
4.989533767799953
100
AcDbArc
 50
97.94347181060772
 51
180.0
  0
LINE
  5
20D
330
A
100
AcDbEntity
  8
MODEL
  6
Continuous
390
1D
100
AcDbLine
 10
1708.216727181101
 20
2446.161588724428
 30
0.0
 11
1672.516727181101
 21
2441.061588724428
 31
0.0
  0
LINE
  5
20E
330
A
100
AcDbEntity
  8
MODEL
  6
Continuous
390
1D
100
AcDbLine
 10
1708.216727181101
 20
2525.861588724428
 30
0.0
 11
1708.216727181101
 21
2446.161588724428
 31
0.0
  0
LINE
  5
20F
330
A
100
AcDbEntity
  8
MODEL
  6
Continuous
390
1D
100
AcDbLine
 10
1672.516727181101
 20
2531.061588724428
 30
0.0
 11
1708.216727181101
 21
2525.861588724428
 31
0.0
  0
ARC
  5
210
330
A
100
AcDbEntity
  8
MODEL
  6
Continuous
390
1D
100
AcDbCircle
 10
1671.994635273769
 20
2534.761252975809
 30
0.0
 40
3.777908092667076
100
AcDbArc
 50
180.0
 51
277.9434718105882
  0
ARC
  5
211
330
A
100
AcDbEntity
  8
MODEL
  6
Continuous
390
1D
100
AcDbCircle
 10
1658.216727181101
 20
2666.061588724427
 30
0.0
 40
9.999999999999545
100
AcDbArc
 50
359.9999999999974
 51
90.0
  0
LINE
  5
212
330
A
100
AcDbEntity
  8
MODEL
  6
Continuous
390
1D
100
AcDbLine
 10
1548.216727181101
 20
2676.061588724426
 30
0.0
 11
1658.216727181101
 21
2676.061588724426
 31
0.0
  0
ARC
  5
213
330
A
100
AcDbEntity
  8
MODEL
  6
Continuous
390
1D
100
AcDbCircle
 10
1548.216727181101
 20
2666.061588724426
 30
0.0
 40
10.0
100
AcDbArc
 50
90.0
 51
180.0
  0
LINE
  5
214
330
A
100
AcDbEntity
  8
MODEL
  6
Continuous
390
1D
100
AcDbLine
 10
1538.216727181101
 20
2197.731313203272
 30
0.0
 11
1538.216727181101
 21
2666.061588724426
 31
0.0
  0
ARC
  5
215
330
A
100
AcDbEntity
  8
MODEL
  6
Continuous
390
1D
100
AcDbCircle
 10
1548.216727181101
 20
2197.731313203273
 30
0.0
 40
10.00000000000045
100
AcDbArc
 50
180.0000000000026
 51
270.0
  0
LINE
  5
216
330
A
100
AcDbEntity
  8
MODEL
  6
STYLE_25
390
1D
100
AcDbLine
 10
1544.001189937433
 20
2228.721235333892
 30
0.0
 11
1638.598593085542
 21
2244.464305463437
 31
0.0
  0
ARC
  5
217
330
A
100
AcDbEntity
  8
MODEL
  6
STYLE_25
390
1D
100
AcDbCircle
 10
1636.862111308872
 20
2254.312382993559
 30
0.0
 40
9.999999999999615
100
AcDbArc
 50
280.0000000000001
 51
356.9999999999995
  0
ARC
  5
218
330
A
100
AcDbEntity
  8
MODEL
  6
STYLE_25
390
1D
100
AcDbCircle
 10
1545.216727181101
 20
2221.827581062807
 30
0.0
 40
7.000000000000054
100
AcDbArc
 50
99.9999999999972
 51
180.0
  0
ARC
  5
219
330
A
100
AcDbEntity
  8
MODEL
  6
STYLE_25
390
1D
100
AcDbCircle
 10
1545.216727181101
 20
2540.237113324765
 30
0.0
 40
6.999999999999829
100
AcDbArc
 50
180.0
 51
260.0000000000022
  0
LINE
  5
21A
330
A
100
AcDbEntity
  8
MODEL
  6
STYLE_25
390
1D
100
AcDbLine
 10
1544.001189937433
 20
2533.343459053679
 30
0.0
 11
1648.216727181101
 21
2533.343459053679
 31
0.0
  0
LINE
  5
21B
330
A
100
AcDbEntity
  8
MODEL
  6
STYLE_25
390
1D
100
AcDbLine
 10
1658.216727181101
 20
2453.9698115159
 30
0.0
 11
1658.216727181101
 21
2485.961588724427
 31
0.0
  0
LINE
  5
21C
330
A
100
AcDbEntity
  8
MODEL
  6
STYLE_25
390
1D
100
AcDbLine
 10
1664.530742918559
 20
2459.961588724427
 30
0.0
 11
1664.530742918559
 21
2485.961588724427
 31
0.0
  0
LINE
  5
21D
330
A
100
AcDbEntity
  8
MODEL
  6
STYLE_25
390
1D
100
AcDbLine
 10
1658.216727181101
 20
2453.9698115159
 30
0.0
 11
1664.530742918559
 21
2459.961588724427
 31
0.0
  0
LINE
  5
21E
330
A
100
AcDbEntity
  8
MODEL
  6
STYLE_25
390
1D
100
AcDbLine
 10
1664.530742918559
 20
2459.961588724427
 30
0.0
 11
1708.216727181101
 21
2459.961588724427
 31
0.0
  0
LINE
  5
21F
330
A
100
AcDbEntity
  8
MODEL
  6
STYLE_25
390
1D
100
AcDbLine
 10
1658.216727181101
 20
2523.343459053679
 30
0.0
 11
1658.216727181101
 21
2485.961588724427
 31
0.0
  0
LINE
  5
220
330
A
100
AcDbEntity
  8
MODEL
  6
STYLE_25
390
1D
100
AcDbLine
 10
1664.530742918559
 20
2511.961588724427
 30
0.0
 11
1664.530742918559
 21
2485.961588724427
 31
0.0
  0
LINE
  5
221
330
A
100
AcDbEntity
  8
MODEL
  6
STYLE_25
390
1D
100
AcDbLine
 10
1658.216727181101
 20
2517.953365932954
 30
0.0
 11
1664.530742918559
 21
2511.961588724427
 31
0.0
  0
LINE
  5
222
330
A
100
AcDbEntity
  8
MODEL
  6
STYLE_25
390
1D
100
AcDbLine
 10
1664.530742918559
 20
2511.961588724427
 30
0.0
 11
1708.216727181101
 21
2511.961588724427
 31
0.0
  0
LINE
  5
223
330
A
100
AcDbEntity
  8
MODEL
  6
STYLE_25
390
1D
100
AcDbLine
 10
1658.216727181101
 20
2453.9698115159
 30
0.0
 11
1646.848406656418
 21
2253.789023431129
 31
0.0
  0
ARC
  5
224
330
A
100
AcDbEntity
  8
MODEL
  6
STYLE_25
390
1D
100
AcDbCircle
 10
1648.216727181101
 20
2523.343459053679
 30
0.0
 40
10.0
100
AcDbArc
 50
0.0
 51
90.0
  0
INSERT
  5
225
330
A
100
AcDbEntity
  8
MODEL
390
1D
100
AcDbBlockReference
  2
グループ-1
 10
1046.374543306623
 20
1550.229168489913
 30
0.0
  0
CIRCLE
  5
226
330
A
100
AcDbEntity
  8
MODEL
  6
STYLE_25
390
1D
100
AcDbCircle
 10
503.6854170533908
 20
1248.954611087908
 30
0.0
 40
17.5
  0
CIRCLE
  5
227
330
A
100
AcDbEntity
  8
MODEL
  6
STYLE_25
390
1D
100
AcDbCircle
 10
503.6854170533908
 20
1048.954611087908
 30
0.0
 40
17.5
  0
CIRCLE
  5
228
330
A
100
AcDbEntity
  8
MODEL
  6
STYLE_25
390
1D
100
AcDbCircle
 10
503.6854170533908
 20
1348.954611087908
 30
0.0
 40
17.5
  0
CIRCLE
  5
229
330
A
100
AcDbEntity
  8
MODEL
  6
STYLE_25
390
1D
100
AcDbCircle
 10
503.6854170533908
 20
948.9546110879082
 30
0.0
 40
17.5
  0
LINE
  5
22A
330
A
100
AcDbEntity
  8
MODEL
  6
Continuous
390
1D
100
AcDbLine
 10
1593.25800684829
 20
778.954611087904
 30
0.0
 11
1593.25800684829
 21
818.954611087904
 31
0.0
  0
CIRCLE
  5
22B
330
A
100
AcDbEntity
  8
MODEL
  6
STYLE_25
390
1D
100
AcDbCircle
 10
1593.25800684829
 20
798.954611087904
 30
0.0
 40
10.0
  0
LINE
  5
22C
330
A
100
AcDbEntity
  8
MODEL
  6
Continuous
390
1D
100
AcDbLine
 10
1573.25800684829
 20
1008.954611087904
 30
0.0
 11
1613.25800684829
 21
1008.954611087904
 31
0.0
  0
LINE
  5
22D
330
A
100
AcDbEntity
  8
MODEL
  6
Continuous
390
1D
100
AcDbLine
 10
1593.25800684829
 20
988.954611087904
 30
0.0
 11
1593.25800684829
 21
1028.954611087904
 31
0.0
  0
CIRCLE
  5
22E
330
A
100
AcDbEntity
  8
MODEL
  6
STYLE_25
390
1D
100
AcDbCircle
 10
1593.25800684829
 20
1008.954611087904
 30
0.0
 40
10.0
  0
LINE
  5
22F
330
A
100
AcDbEntity
  8
MODEL
  6
Continuous
390
1D
100
AcDbLine
 10
1573.25800684829
 20
1288.954611087904
 30
0.0
 11
1613.25800684829
 21
1288.954611087904
 31
0.0
  0
LINE
  5
230
330
A
100
AcDbEntity
  8
MODEL
  6
Continuous
390
1D
100
AcDbLine
 10
1593.25800684829
 20
1268.954611087904
 30
0.0
 11
1593.25800684829
 21
1308.954611087904
 31
0.0
  0
CIRCLE
  5
231
330
A
100
AcDbEntity
  8
MODEL
  6
STYLE_25
390
1D
100
AcDbCircle
 10
1593.25800684829
 20
1288.954611087904
 30
0.0
 40
10.0
  0
LINE
  5
232
330
A
100
AcDbEntity
  8
MODEL
  6
Continuous
390
1D
100
AcDbLine
 10
1573.25800684829
 20
1498.954611087904
 30
0.0
 11
1613.25800684829
 21
1498.954611087904
 31
0.0
  0
LINE
  5
233
330
A
100
AcDbEntity
  8
MODEL
  6
Continuous
390
1D
100
AcDbLine
 10
1593.25800684829
 20
1478.954611087904
 30
0.0
 11
1593.25800684829
 21
1518.954611087904
 31
0.0
  0
CIRCLE
  5
234
330
A
100
AcDbEntity
  8
MODEL
  6
STYLE_25
390
1D
100
AcDbCircle
 10
1593.25800684829
 20
1498.954611087904
 30
0.0
 40
10.0
  0
LINE
  5
235
330
A
100
AcDbEntity
  8
MODEL
  6
Continuous
390
1D
100
AcDbLine
 10
1538.216727181101
 20
2628.540670226024
 30
0.0
 11
1553.216727181101
 21
2628.540670226024
 31
0.0
  0
LINE
  5
236
330
A
100
AcDbEntity
  8
MODEL
  6
Continuous
390
1D
100
AcDbLine
 10
1538.216727181101
 20
2593.540670226024
 30
0.0
 11
1553.216727181101
 21
2593.540670226024
 31
0.0
  0
ENDSEC
  0
SECTION
  2
OBJECTS
  0
DICTIONARY
  5
19
330
0
100
AcDbDictionary
281
     1
  3
ACAD_DETAILVIEWSTYLE
350
2D6
  3
ACAD_GROUP
350
1A
  3
ACAD_IMAGE_VARS
350
27B
  3
ACAD_LAYOUT
350
1E
  3
ACAD_MATERIAL
350
273
  3
ACAD_MLEADERSTYLE
350
2D4
  3
ACAD_MLINESTYLE
350
1B
  3
ACAD_PLOTSETTINGS
350
22
  3
ACAD_PLOTSTYLENAME
350
1F
  3
ACAD_SCALELIST
350
238
  3
ACAD_SECTIONVIEWSTYLE
350
2D7
  3
ACAD_TABLESTYLE
350
277
  3
ACAD_VISUALSTYLE
350
25A
  3
ACDB_RECOMPOSE_DATA
350
AF0
  3
AcDbVariableDictionary
350
2CD
  3
APPDATA
350
279
  0
SUN
  5
27A
330
15
100
AcDbSun
 90
        1
290
     0
 63
     7
421
 16777215
 40
1.0
291
     1
 91
  2455826
 92
 54000000
292
     0
 70
     2
 71
   256
280
     1
  0
DICTIONARY
  5
27C
330
2
100
AcDbDictionary
280
     1
281
     1
  3
ACAD_LAYERSTATES
360
27D
  3
ACLYDICTIONARY
360
2AE
  0
DICTIONARY
  5
2D6
102
{ACAD_REACTORS
330
19
102
}
330
19
100
AcDbDictionary
281
     1
  0
DICTIONARY
  5
1A
102
{ACAD_REACTORS
330
19
102
}
330
19
100
AcDbDictionary
281
     1
  0
RASTERVARIABLES
  5
27B
102
{ACAD_REACTORS
330
19
102
}
330
19
100
AcDbRasterVariables
 90
        0
 70
     1
 71
     1
 72
     1
  0
DICTIONARY
  5
1E
102
{ACAD_REACTORS
330
19
102
}
330
19
100
AcDbDictionary
281
     1
  3
Layout1
350
21
  3
Model
350
20
  0
DICTIONARY
  5
273
102
{ACAD_REACTORS
330
19
102
}
330
19
100
AcDbDictionary
281
     1
  3
ByBlock
350
ACA
  3
ByLayer
350
2EE
  3
Global
350
276
  0
DICTIONARY
  5
2D4
102
{ACAD_REACTORS
330
19
102
}
330
19
100
AcDbDictionary
281
     1
  0
DICTIONARY
  5
1B
102
{ACAD_REACTORS
330
19
102
}
330
19
100
AcDbDictionary
281
     1
  3
Standard
350
1C
  0
DICTIONARY
  5
22
102
{ACAD_REACTORS
330
19
102
}
330
19
100
AcDbDictionary
281
     1
  0
ACDBDICTIONARYWDFLT
  5
1F
102
{ACAD_REACTORS
330
19
102
}
330
19
100
AcDbDictionary
281
     1
  3
Normal
350
1D
100
AcDbDictionaryWithDefault
340
1D
  0
DICTIONARY
  5
238
102
{ACAD_REACTORS
330
19
102
}
330
19
100
AcDbDictionary
281
     1
  3
A0
350
239
  3
A1
350
23A
  3
A2
350
23B
  3
A3
350
23C
  3
A4
350
23D
  3
A5
350
23E
  3
A6
350
23F
  3
A7
350
240
  3
A8
350
241
  3
A9
350
242
  3
B0
350
243
  3
B1
350
244
  3
B2
350
245
  3
B3
350
246
  3
B4
350
247
  3
B5
350
248
  3
B6
350
249
  3
B7
350
24A
  3
B8
350
24B
  3
B9
350
24C
  3
C0
350
24D
  3
C1
350
24E
  3
C2
350
24F
  3
C3
350
250
  3
C4
350
251
  3
C5
350
252
  3
C6
350
253
  3
C7
350
254
  3
C8
350
255
  3
C9
350
256
  3
D0
350
257
  3
D1
350
258
  3
D2
350
259
  0
DICTIONARY
  5
2D7
102
{ACAD_REACTORS
330
19
102
}
330
19
100
AcDbDictionary
281
     1
  0
DICTIONARY
  5
277
102
{ACAD_REACTORS
330
19
102
}
330
19
100
AcDbDictionary
281
     1
  3
Standard
350
278
  0
DICTIONARY
  5
25A
102
{ACAD_REACTORS
330
19
102
}
330
19
100
AcDbDictionary
281
     1
  3
2dWireframe
350
25F
  3
Basic
350
262
  3
Brighten
350
266
  3
ColorChange
350
26A
  3
Conceptual
350
264
  3
Dim
350
265
  3
EdgeColorOff
350
26D
  3
Facepattern
350
269
  3
Flat
350
25B
  3
FlatWithEdges
350
25C
  3
Gouraud
350
25D
  3
GouraudWithEdges
350
25E
  3
Hidden
350
261
  3
JitterOff
350
26B
  3
Linepattern
350
268
  3
OverhangOff
350
26C
  3
Realistic
350
263
  3
Shaded
350
272
  3
Shaded with edges
350
271
  3
Shades of Gray
350
26E
  3
Sketchy
350
26F
  3
Thicken
350
267
  3
Wireframe
350
260
  3
X-Ray
350
270
  0
XRECORD
  5
AF0
102
{ACAD_REACTORS
330
19
102
}
330
19
100
AcDbXrecord
280
     1
 90
        1
330
278
  0
DICTIONARY
  5
2CD
102
{ACAD_REACTORS
330
19
102
}
330
19
100
AcDbDictionary
281
     1
  3
CANNOSCALE
350
2CE
  3
CTABLESTYLE
350
2D3
  3
LIGHTINGUNITS
350
2CF
  3
MSLTSCALE
350
2D5
  3
XCLIPFRAME
350
AC2
  0
DICTIONARY
  5
279
102
{ACAD_REACTORS
330
19
102
}
330
19
100
AcDbDictionary
281
     1
  0
DICTIONARY
  5
27D
102
{ACAD_REACTORS
330
27C
102
}
330
27C
100
AcDbDictionary
281
     1
  3
ARGON_LAYERP_60
350
69B
  0
DICTIONARY
  5
2AE
102
{ACAD_REACTORS
330
27C
102
}
330
27C
100
AcDbDictionary
281
     1
1001
ACAD
1000
<All
  0
LAYOUT
  5
21
102
{ACAD_REACTORS
330
1E
102
}
330
1E
100
AcDbPlotSettings
  1

  2

  4

  6

 40
0.0
 41
0.0
 42
0.0
 43
0.0
 44
0.0
 45
0.0
 46
0.0
 47
0.0
 48
0.0
 49
0.0
140
0.0
141
0.0
142
1.0
143
1.0
 70
     0
 72
     0
 73
     0
 74
     0
  7

 75
     0
 76
     0
 77
     2
 78
   300
147
1.0
148
0.0
149
0.0
100
AcDbLayout
  1
Layout1
 70
     0
 71
     0
 10
0.0
 20
0.0
 11
0.0
 21
0.0
 12
0.0
 22
0.0
 32
0.0
 14
0.0
 24
0.0
 34
0.0
 15
0.0
 25
0.0
 35
0.0
146
0.0
 13
0.0
 23
0.0
 33
0.0
 16
0.0
 26
0.0
 36
0.0
 17
0.0
 27
0.0
 37
0.0
 76
     0
330
B
  0
LAYOUT
  5
20
102
{ACAD_REACTORS
330
1E
102
}
330
1E
100
AcDbPlotSettings
  1

  2

  4

  6

 40
0.0
 41
0.0
 42
0.0
 43
0.0
 44
0.0
 45
0.0
 46
0.0
 47
0.0
 48
0.0
 49
0.0
140
0.0
141
0.0
142
1.0
143
1.0
 70
  1024
 72
     0
 73
     0
 74
     0
  7

 75
     0
 76
     0
 77
     2
 78
   300
147
1.0
148
0.0
149
0.0
100
AcDbLayout
  1
Model
 70
     0
 71
     1
 10
0.0
 20
0.0
 11
2100.0
 21
2970.0
 12
0.0
 22
0.0
 32
0.0
 14
0.0
 24
0.0
 34
0.0
 15
2100.0
 25
2970.0
 35
0.0
146
0.0
 13
0.0
 23
0.0
 33
0.0
 16
0.0
 26
0.0
 36
0.0
 17
0.0
 27
0.0
 37
0.0
 76
     0
330
A
331
15
  0
MATERIAL
  5
ACA
102
{ACAD_REACTORS
330
273
102
}
330
273
100
AcDbMaterial
  1
ByBlock
 72
     1
 94
      127
  0
MATERIAL
  5
2EE
102
{ACAD_REACTORS
330
273
102
}
330
273
100
AcDbMaterial
  1
ByLayer
 72
     1
 94
      127
  0
MATERIAL
  5
276
102
{ACAD_REACTORS
330
273
102
}
330
273
100
AcDbMaterial
  1
Global
 72
     1
 94
      127
  0
MLINESTYLE
  5
1C
102
{ACAD_REACTORS
330
1B
102
}
330
1B
100
AcDbMlineStyle
  2
Standard
 70
     0
  3

 62
     0
 51
90.0
 52
90.0
 71
     2
 49
0.5
 62
   256
  6
BYLAYER
 49
-0.5
 62
   256
  6
BYLAYER
  0
ACDBPLACEHOLDER
  5
1D
102
{ACAD_REACTORS
330
1F
102
}
330
1F
  0
SCALE
  5
239
102
{ACAD_REACTORS
330
238
102
}
330
238
100
AcDbScale
 70
     0
300
1:1
140
1.0
141
1.0
290
     1
  0
SCALE
  5
23A
102
{ACAD_REACTORS
330
238
102
}
330
238
100
AcDbScale
 70
     0
300
1:2
140
1.0
141
2.0
290
     0
  0
SCALE
  5
23B
102
{ACAD_REACTORS
330
238
102
}
330
238
100
AcDbScale
 70
     0
300
1:4
140
1.0
141
4.0
290
     0
  0
SCALE
  5
23C
102
{ACAD_REACTORS
330
238
102
}
330
238
100
AcDbScale
 70
     0
300
1:5
140
1.0
141
5.0
290
     0
  0
SCALE
  5
23D
102
{ACAD_REACTORS
330
238
102
}
330
238
100
AcDbScale
 70
     0
300
1:8
140
1.0
141
8.0
290
     0
  0
SCALE
  5
23E
102
{ACAD_REACTORS
330
238
102
}
330
238
100
AcDbScale
 70
     0
300
1:10
140
1.0
141
10.0
290
     0
  0
SCALE
  5
23F
102
{ACAD_REACTORS
330
238
102
}
330
238
100
AcDbScale
 70
     0
300
1:16
140
1.0
141
16.0
290
     0
  0
SCALE
  5
240
102
{ACAD_REACTORS
330
238
102
}
330
238
100
AcDbScale
 70
     0
300
1:20
140
1.0
141
20.0
290
     0
  0
SCALE
  5
241
102
{ACAD_REACTORS
330
238
102
}
330
238
100
AcDbScale
 70
     0
300
1:30
140
1.0
141
30.0
290
     0
  0
SCALE
  5
242
102
{ACAD_REACTORS
330
238
102
}
330
238
100
AcDbScale
 70
     0
300
1:40
140
1.0
141
40.0
290
     0
  0
SCALE
  5
243
102
{ACAD_REACTORS
330
238
102
}
330
238
100
AcDbScale
 70
     0
300
1:50
140
1.0
141
50.0
290
     0
  0
SCALE
  5
244
102
{ACAD_REACTORS
330
238
102
}
330
238
100
AcDbScale
 70
     0
300
1:100
140
1.0
141
100.0
290
     0
  0
SCALE
  5
245
102
{ACAD_REACTORS
330
238
102
}
330
238
100
AcDbScale
 70
     0
300
2:1
140
2.0
141
1.0
290
     0
  0
SCALE
  5
246
102
{ACAD_REACTORS
330
238
102
}
330
238
100
AcDbScale
 70
     0
300
4:1
140
4.0
141
1.0
290
     0
  0
SCALE
  5
247
102
{ACAD_REACTORS
330
238
102
}
330
238
100
AcDbScale
 70
     0
300
8:1
140
8.0
141
1.0
290
     0
  0
SCALE
  5
248
102
{ACAD_REACTORS
330
238
102
}
330
238
100
AcDbScale
 70
     0
300
10:1
140
10.0
141
1.0
290
     0
  0
SCALE
  5
249
102
{ACAD_REACTORS
330
238
102
}
330
238
100
AcDbScale
 70
     0
300
100:1
140
100.0
141
1.0
290
     0
  0
SCALE
  5
24A
102
{ACAD_REACTORS
330
238
102
}
330
238
100
AcDbScale
 70
     0
300
1/128" = 1'-0"
140
0.0078125
141
12.0
290
     0
  0
SCALE
  5
24B
102
{ACAD_REACTORS
330
238
102
}
330
238
100
AcDbScale
 70
     0
300
1/64" = 1'-0"
140
0.015625
141
12.0
290
     0
  0
SCALE
  5
24C
102
{ACAD_REACTORS
330
238
102
}
330
238
100
AcDbScale
 70
     0
300
1/32" = 1'-0"
140
0.03125
141
12.0
290
     0
  0
SCALE
  5
24D
102
{ACAD_REACTORS
330
238
102
}
330
238
100
AcDbScale
 70
     0
300
1/16" = 1'-0"
140
0.0625
141
12.0
290
     0
  0
SCALE
  5
24E
102
{ACAD_REACTORS
330
238
102
}
330
238
100
AcDbScale
 70
     0
300
3/32" = 1'-0"
140
0.09375
141
12.0
290
     0
  0
SCALE
  5
24F
102
{ACAD_REACTORS
330
238
102
}
330
238
100
AcDbScale
 70
     0
300
1/8" = 1'-0"
140
0.125
141
12.0
290
     0
  0
SCALE
  5
250
102
{ACAD_REACTORS
330
238
102
}
330
238
100
AcDbScale
 70
     0
300
3/16" = 1'-0"
140
0.1875
141
12.0
290
     0
  0
SCALE
  5
251
102
{ACAD_REACTORS
330
238
102
}
330
238
100
AcDbScale
 70
     0
300
1/4" = 1'-0"
140
0.25
141
12.0
290
     0
  0
SCALE
  5
252
102
{ACAD_REACTORS
330
238
102
}
330
238
100
AcDbScale
 70
     0
300
3/8" = 1'-0"
140
0.375
141
12.0
290
     0
  0
SCALE
  5
253
102
{ACAD_REACTORS
330
238
102
}
330
238
100
AcDbScale
 70
     0
300
1/2" = 1'-0"
140
0.5
141
12.0
290
     0
  0
SCALE
  5
254
102
{ACAD_REACTORS
330
238
102
}
330
238
100
AcDbScale
 70
     0
300
3/4" = 1'-0"
140
0.75
141
12.0
290
     0
  0
SCALE
  5
255
102
{ACAD_REACTORS
330
238
102
}
330
238
100
AcDbScale
 70
     0
300
1" = 1'-0"
140
1.0
141
12.0
290
     0
  0
SCALE
  5
256
102
{ACAD_REACTORS
330
238
102
}
330
238
100
AcDbScale
 70
     0
300
1-1/2" = 1'-0"
140
1.5
141
12.0
290
     0
  0
SCALE
  5
257
102
{ACAD_REACTORS
330
238
102
}
330
238
100
AcDbScale
 70
     0
300
3" = 1'-0"
140
3.0
141
12.0
290
     0
  0
SCALE
  5
258
102
{ACAD_REACTORS
330
238
102
}
330
238
100
AcDbScale
 70
     0
300
6" = 1'-0"
140
6.0
141
12.0
290
     0
  0
SCALE
  5
259
102
{ACAD_REACTORS
330
238
102
}
330
238
100
AcDbScale
 70
     0
300
1'-0" = 1'-0"
140
12.0
141
12.0
290
     0
  0
TABLESTYLE
  5
278
102
{ACAD_REACTORS
330
277
102
}
102
{ACAD_XDICTIONARY
360
AEE
102
}
330
277
100
AcDbTableStyle
  3
Standard
 70
     0
 71
     0
 40
0.06
 41
0.06
280
     0
281
     0
  7
Standard
140
4.5
170
     2
 62
     0
 63
   257
283
     0
 90
        4
 91
        0
  1

274
    -2
284
     1
 64
     0
275
    -2
285
     1
 65
     0
276
    -2
286
     1
 66
     0
277
    -2
287
     1
 67
     0
278
    -2
288
     1
 68
     0
279
    -2
289
     1
 69
     0
  7
Standard
140
6.0
170
     5
 62
     0
 63
   257
283
     0
 90
        4
 91
        0
  1

274
    -2
284
     1
 64
     0
275
    -2
285
     1
 65
     0
276
    -2
286
     1
 66
     0
277
    -2
287
     1
 67
     0
278
    -2
288
     1
 68
     0
279
    -2
289
     1
 69
     0
  7
Standard
140
4.5
170
     5
 62
     0
 63
   257
283
     0
 90
        4
 91
        0
  1

274
    -2
284
     1
 64
     0
275
    -2
285
     1
 65
     0
276
    -2
286
     1
 66
     0
277
    -2
287
     1
 67
     0
278
    -2
288
     1
 68
     0
279
    -2
289
     1
 69
     0
  0
VISUALSTYLE
  5
25F
102
{ACAD_REACTORS
330
25A
102
}
330
25A
100
AcDbVisualStyle
  2
2dWireframe
 70
     4
 71
     0
 72
     2
 73
     0
 90
        0
 40
0.6
 41
30.0
 62
     5
 63
     7
421
 16777215
 74
     1
 91
        4
 64
     7
 65
   257
 75
     1
175
     1
 42
1.0
 92
        0
 66
   257
 43
1.0
 76
     1
 77
     6
 78
     2
 67
     7
 79
     5
170
     0
171
     0
290
     0
174
     0
 93
        1
 44
0.0
173
     0
291
     0
 45
0.0
  0
VISUALSTYLE
  5
262
102
{ACAD_REACTORS
330
25A
102
}
330
25A
100
AcDbVisualStyle
  2
Basic
 70
     7
 71
     1
 72
     0
 73
     1
 90
        0
 40
0.6
 41
30.0
 62
     5
 63
     7
421
 16777215
 74
     0
 91
        4
 64
     7
 65
   257
 75
     1
175
     1
 42
1.0
 92
        8
 66
     7
 43
1.0
 76
     1
 77
     6
 78
     2
 67
     7
 79
     5
170
     0
171
     0
290
     0
174
     0
 93
        1
 44
0.0
173
     0
291
     1
 45
0.0
  0
VISUALSTYLE
  5
266
102
{ACAD_REACTORS
330
25A
102
}
330
25A
100
AcDbVisualStyle
  2
Brighten
 70
    12
 71
     2
 72
     2
 73
     0
 90
        0
 40
0.6
 41
30.0
 62
     5
 63
     7
421
 16777215
 74
     1
 91
        4
 64
     7
 65
   257
 75
     1
175
     1
 42
1.0
 92
        8
 66
     7
 43
1.0
 76
     1
 77
     6
 78
     2
 67
     7
 79
     5
170
     0
171
     0
290
     0
174
     0
 93
        1
 44
50.0
173
     0
291
     1
 45
0.0
  0
VISUALSTYLE
  5
26A
102
{ACAD_REACTORS
330
25A
102
}
330
25A
100
AcDbVisualStyle
  2
ColorChange
 70
    16
 71
     2
 72
     2
 73
     3
 90
        0
 40
0.6
 41
30.0
 62
     5
 63
     8
421
  8421504
 74
     1
 91
        4
 64
     7
 65
   257
 75
     1
175
     1
 42
1.0
 92
        8
 66
     8
424
  8421504
 43
1.0
 76
     1
 77
     6
 78
     2
 67
     7
 79
     5
170
     0
171
     0
290
     0
174
     0
 93
        1
 44
0.0
173
     0
291
     1
 45
0.0
  0
VISUALSTYLE
  5
264
102
{ACAD_REACTORS
330
25A
102
}
330
25A
100
AcDbVisualStyle
  2
Conceptual
 70
     9
 71
     3
 72
     2
 73
     0
 90
        0
 40
0.6
 41
30.0
 62
     5
 63
     7
421
 16777215
 74
     2
 91
        2
 64
     7
 65
   257
 75
     1
175
     1
 42
179.0
 92
        8
 66
     7
 43
1.0
 76
     1
 77
     6
 78
     2
 67
     7
 79
     3
170
     0
171
     0
290
     0
174
     0
 93
        1
 44
0.0
173
     0
291
     0
 45
0.0
  0
VISUALSTYLE
  5
265
102
{ACAD_REACTORS
330
25A
102
}
330
25A
100
AcDbVisualStyle
  2
Dim
 70
    11
 71
     2
 72
     2
 73
     0
 90
        0
 40
0.6
 41
30.0
 62
     5
 63
     7
421
 16777215
 74
     1
 91
        4
 64
     7
 65
   257
 75
     1
175
     1
 42
1.0
 92
        8
 66
     7
 43
1.0
 76
     1
 77
     6
 78
     2
 67
     7
 79
     5
170
     0
171
     0
290
     0
174
     0
 93
        1
 44
-50.0
173
     0
291
     1
 45
0.0
  0
VISUALSTYLE
  5
26D
102
{ACAD_REACTORS
330
25A
102
}
330
25A
100
AcDbVisualStyle
  2
EdgeColorOff
 70
    22
 71
     2
 72
     2
 73
     0
 90
        0
 40
0.6
 41
30.0
 62
     5
 63
     7
421
 16777215
 74
     1
 91
        4
 64
     7
 65
   257
 75
     1
175
     1
 42
1.0
 92
        8
 66
     7
 43
1.0
 76
     1
 77
     6
 78
     2
 67
     7
 79
     5
170
     0
171
     0
290
     0
174
     0
 93
        1
 44
0.0
173
     0
291
     1
 45
0.0
  0
VISUALSTYLE
  5
269
102
{ACAD_REACTORS
330
25A
102
}
330
25A
100
AcDbVisualStyle
  2
Facepattern
 70
    15
 71
     2
 72
     2
 73
     0
 90
        0
 40
0.6
 41
30.0
 62
     5
 63
     7
421
 16777215
 74
     1
 91
        4
 64
     7
 65
   257
 75
     1
175
     1
 42
1.0
 92
        8
 66
     7
 43
1.0
 76
     1
 77
     6
 78
     2
 67
     7
 79
     5
170
     0
171
     0
290
     0
174
     0
 93
        1
 44
0.0
173
     0
291
     1
 45
0.0
  0
VISUALSTYLE
  5
25B
102
{ACAD_REACTORS
330
25A
102
}
330
25A
100
AcDbVisualStyle
  2
Flat
 70
     0
 71
     2
 72
     1
 73
     1
 90
        2
 40
0.6
 41
30.0
 62
     5
 63
     7
421
 16777215
 74
     0
 91
        0
 64
     7
 65
   257
 75
     1
175
     1
 42
1.0
 92
        8
 66
     7
 43
1.0
 76
     1
 77
     6
 78
     2
 67
     7
 79
     5
170
     0
171
     0
290
     0
174
     0
 93
       13
 44
0.0
173
     0
291
     1
 45
0.0
  0
VISUALSTYLE
  5
25C
102
{ACAD_REACTORS
330
25A
102
}
330
25A
100
AcDbVisualStyle
  2
FlatWithEdges
 70
     1
 71
     2
 72
     1
 73
     1
 90
        2
 40
0.6
 41
30.0
 62
     5
 63
     7
421
 16777215
 74
     1
 91
        0
 64
     7
 65
   257
 75
     1
175
     1
 42
1.0
 92
        0
 66
   257
 43
1.0
 76
     1
 77
     6
 78
     2
 67
     7
 79
     5
170
     0
171
     0
290
     0
174
     0
 93
       13
 44
0.0
173
     0
291
     1
 45
0.0
  0
VISUALSTYLE
  5
25D
102
{ACAD_REACTORS
330
25A
102
}
330
25A
100
AcDbVisualStyle
  2
Gouraud
 70
     2
 71
     2
 72
     2
 73
     1
 90
        2
 40
0.6
 41
30.0
 62
     5
 63
     7
421
 16777215
 74
     0
 91
        0
 64
     7
 65
   257
 75
     1
175
     1
 42
1.0
 92
        0
 66
     7
 43
1.0
 76
     1
 77
     6
 78
     2
 67
     7
 79
     5
170
     0
171
     0
290
     0
174
     0
 93
       13
 44
0.0
173
     0
291
     1
 45
0.0
  0
VISUALSTYLE
  5
25E
102
{ACAD_REACTORS
330
25A
102
}
330
25A
100
AcDbVisualStyle
  2
GouraudWithEdges
 70
     3
 71
     2
 72
     2
 73
     1
 90
        2
 40
0.6
 41
30.0
 62
     5
 63
     7
421
 16777215
 74
     1
 91
        0
 64
     7
 65
   257
 75
     1
175
     1
 42
1.0
 92
        0
 66
   257
 43
1.0
 76
     1
 77
     6
 78
     2
 67
     7
 79
     5
170
     0
171
     0
290
     0
174
     0
 93
       13
 44
0.0
173
     0
291
     1
 45
0.0
  0
VISUALSTYLE
  5
261
102
{ACAD_REACTORS
330
25A
102
}
330
25A
100
AcDbVisualStyle
  2
Hidden
 70
     6
 71
     1
 72
     2
 73
     2
 90
        0
 40
0.6
 41
30.0
 62
     5
 63
     7
421
 16777215
 74
     2
 91
        2
 64
     7
 65
   257
 75
     2
175
     1
 42
40.0
 92
        0
 66
   257
 43
1.0
 76
     1
 77
     6
 78
     2
 67
     7
 79
     3
170
     0
171
     0
290
     0
174
     0
 93
        1
 44
0.0
173
     0
291
     0
 45
0.0
  0
VISUALSTYLE
  5
26B
102
{ACAD_REACTORS
330
25A
102
}
330
25A
100
AcDbVisualStyle
  2
JitterOff
 70
    20
 71
     2
 72
     2
 73
     0
 90
        0
 40
0.6
 41
30.0
 62
     5
 63
     7
421
 16777215
 74
     1
 91
        4
 64
     7
 65
   257
 75
     1
175
     1
 42
1.0
 92
       10
 66
     7
 43
1.0
 76
     1
 77
     6
 78
     2
 67
     7
 79
     5
170
     0
171
     0
290
     0
174
     0
 93
        1
 44
0.0
173
     0
291
     1
 45
0.0
  0
VISUALSTYLE
  5
268
102
{ACAD_REACTORS
330
25A
102
}
330
25A
100
AcDbVisualStyle
  2
Linepattern
 70
    14
 71
     2
 72
     2
 73
     0
 90
        0
 40
0.6
 41
30.0
 62
     5
 63
     7
421
 16777215
 74
     1
 91
        4
 64
     7
 65
   257
 75
     7
175
     7
 42
1.0
 92
        8
 66
     7
 43
1.0
 76
     1
 77
     6
 78
     2
 67
     7
 79
     5
170
     0
171
     0
290
     0
174
     0
 93
        1
 44
0.0
173
     0
291
     1
 45
0.0
  0
VISUALSTYLE
  5
26C
102
{ACAD_REACTORS
330
25A
102
}
330
25A
100
AcDbVisualStyle
  2
OverhangOff
 70
    21
 71
     2
 72
     2
 73
     0
 90
        0
 40
0.6
 41
30.0
 62
     5
 63
     7
421
 16777215
 74
     1
 91
        4
 64
     7
 65
   257
 75
     1
175
     1
 42
1.0
 92
        9
 66
     7
 43
1.0
 76
     1
 77
     6
 78
     2
 67
     7
 79
     5
170
     0
171
     0
290
     0
174
     0
 93
        1
 44
0.0
173
     0
291
     1
 45
0.0
  0
VISUALSTYLE
  5
263
102
{ACAD_REACTORS
330
25A
102
}
330
25A
100
AcDbVisualStyle
  2
Realistic
 70
     8
 71
     2
 72
     3
 73
     0
 90
        2
 40
0.6
 41
30.0
 62
     5
 63
     7
421
 16777215
 74
     0
 91
        0
 64
     7
 65
   257
 75
     1
175
     1
 42
1.0
 92
        8
 66
   257
 43
1.0
 76
     1
 77
     6
 78
     2
 67
     7
 79
     3
170
     0
171
     0
290
     0
174
     0
 93
       13
 44
0.0
173
     0
291
     0
 45
0.0
  0
VISUALSTYLE
  5
272
102
{ACAD_REACTORS
330
25A
102
}
330
25A
100
AcDbVisualStyle
  2
Shaded
 70
    27
 71
     2
 72
     2
 73
     1
 90
        2
 40
0.6
 41
30.0
 62
     5
 63
     7
421
 16777215
 74
     0
 91
        4
 64
     7
 65
   257
 75
     1
175
     1
 42
1.0
 92
        8
 66
   257
 43
1.0
 76
     1
 77
     6
 78
     2
 67
     8
425
  7895160
 79
     3
170
     0
171
     0
290
     0
174
     0
 93
        5
 44
0.0
173
     0
291
     0
 45
0.0
  0
VISUALSTYLE
  5
271
102
{ACAD_REACTORS
330
25A
102
}
330
25A
100
AcDbVisualStyle
  2
Shaded with edges
 70
    26
 71
     2
 72
     2
 73
     1
 90
        2
 40
0.6
 41
30.0
 62
     5
 63
     7
421
 16777215
 74
     1
 91
       10
 64
     7
 65
   257
 75
     2
175
     1
 42
1.0
 92
        8
 66
   257
 43
1.0
 76
     1
 77
     6
 78
     2
 67
     7
 79
     3
170
     0
171
     0
290
     0
174
     0
 93
        5
 44
0.0
173
     0
291
     0
 45
0.0
  0
VISUALSTYLE
  5
26E
102
{ACAD_REACTORS
330
25A
102
}
330
25A
100
AcDbVisualStyle
  2
Shades of Gray
 70
    23
 71
     2
 72
     2
 73
     3
 90
        0
 40
0.6
 41
30.0
 62
     5
 63
     7
421
 16777215
 74
     2
 91
        2
 64
     7
 65
     7
 75
     1
175
     1
 42
40.0
 92
        8
 66
     7
 43
1.0
 76
     1
 77
     6
 78
     2
 67
     7
 79
     3
170
     0
171
     0
290
     0
174
     0
 93
        1
 44
0.0
173
     0
291
     0
 45
0.0
  0
VISUALSTYLE
  5
26F
102
{ACAD_REACTORS
330
25A
102
}
330
25A
100
AcDbVisualStyle
  2
Sketchy
 70
    24
 71
     1
 72
     2
 73
     2
 90
        0
 40
0.6
 41
30.0
 62
     5
 63
     7
421
 16777215
 74
     2
 91
        2
 64
     7
 65
     7
 75
     1
175
     1
 42
40.0
 92
       11
 66
     7
 43
1.0
 76
     1
 77
     6
 78
     2
 67
     7
 79
     6
170
     0
171
     0
290
     0
174
     0
 93
        1
 44
0.0
173
     0
291
     0
 45
0.0
  0
VISUALSTYLE
  5
267
102
{ACAD_REACTORS
330
25A
102
}
330
25A
100
AcDbVisualStyle
  2
Thicken
 70
    13
 71
     2
 72
     2
 73
     0
 90
        0
 40
0.6
 41
30.0
 62
     5
 63
     7
421
 16777215
 74
     1
 91
        4
 64
     7
 65
   257
 75
     1
175
     1
 42
1.0
 92
       12
 66
     7
 43
1.0
 76
     1
 77
     6
 78
     2
 67
     7
 79
     5
170
     0
171
     0
290
     0
174
     0
 93
        1
 44
0.0
173
     0
291
     1
 45
0.0
  0
VISUALSTYLE
  5
260
102
{ACAD_REACTORS
330
25A
102
}
330
25A
100
AcDbVisualStyle
  2
Wireframe
 70
     5
 71
     0
 72
     2
 73
     0
 90
        0
 40
0.6
 41
30.0
 62
     5
 63
     7
421
 16777215
 74
     1
 91
        4
 64
     7
 65
   257
 75
     1
175
     1
 42
1.0
 92
        0
 66
   257
 43
1.0
 76
     1
 77
     6
 78
     2
 67
     7
 79
     3
170
     0
171
     0
290
     0
174
     0
 93
        1
 44
0.0
173
     0
291
     0
 45
0.0
  0
VISUALSTYLE
  5
270
102
{ACAD_REACTORS
330
25A
102
}
330
25A
100
AcDbVisualStyle
  2
X-Ray
 70
    25
 71
     2
 72
     2
 73
     1
 90
        1
 40
0.5
 41
30.0
 62
     5
 63
     7
421
 16777215
 74
     1
 91
        0
 64
     7
 65
   257
 75
     1
175
     1
 42
1.0
 92
        8
 66
     7
 43
1.0
 76
     1
 77
     6
 78
     2
 67
     7
 79
     3
170
     0
171
     0
290
     0
174
     0
 93
       13
 44
0.0
173
     0
291
     0
 45
0.0
  0
DICTIONARYVAR
  5
2CE
102
{ACAD_REACTORS
330
2CD
102
}
330
2CD
100
DictionaryVariables
280
     0
  1
1:1
  0
DICTIONARYVAR
  5
2D3
102
{ACAD_REACTORS
330
2CD
102
}
330
2CD
100
DictionaryVariables
280
     0
  1
Standard
  0
DICTIONARYVAR
  5
2CF
102
{ACAD_REACTORS
330
2CD
102
}
330
2CD
100
DictionaryVariables
280
     0
  1
0
  0
DICTIONARYVAR
  5
2D5
102
{ACAD_REACTORS
330
2CD
102
}
330
2CD
100
DictionaryVariables
280
     0
  1
0
  0
DICTIONARYVAR
  5
AC2
102
{ACAD_REACTORS
330
2CD
102
}
330
2CD
100
DictionaryVariables
280
     0
  1
0
  0
XRECORD
  5
69B
102
{ACAD_REACTORS
330
27D
102
}
330
27D
100
AcDbXrecord
280
     1
 91
     1023
301

290
     0
302
template
330
14
 90
        8
 62
     7
370
    -3
331
13
  1
Color_7
330
57
 90
        0
 62
     7
370
    -3
331
13
  1
Color_7
330
59
 90
        8
 62
     7
370
    -3
331
13
  1
Color_7
330
27F
 90
        8
 62
     7
370
    20
331
13
  1
Color_7
330
281
 90
        9
 62
     7
370
    18
331
13
  1
Color_7
  0
DICTIONARY
  5
AEE
330
278
100
AcDbDictionary
280
     1
281
     1
  3
ACAD_ROUNDTRIP_2008_TABLESTYLE_CELLSTYLEMAP
360
AEF
  0
CELLSTYLEMAP
  5
AEF
102
{ACAD_REACTORS
330
AEE
102
}
330
AEE
100
AcDbCellStyleMap
 90
        3
300
CELLSTYLE
  1
TABLEFORMAT_BEGIN
 90
        5
170
     1
 91
        0
 92
        0
 62
   257
 93
        1
300
CONTENTFORMAT
  1
CONTENTFORMAT_BEGIN
 90
        0
 91
        0
 92
        4
 93
        0
300

 40
0.0
140
1.0
 94
        5
 62
     0
340
17
144
6.0
309
CONTENTFORMAT_END
171
     1
301
MARGIN
  1
CELLMARGIN_BEGIN
 40
1.5
 40
1.5
 40
1.5
 40
1.5
 40
1.5
 40
1.5
309
CELLMARGIN_END
 94
        6
 95
        1
302
GRIDFORMAT
  1
GRIDFORMAT_BEGIN
 90
        0
 91
        1
 62
     0
 92
       -2
340
11
 93
        0
 40
0.045
309
GRIDFORMAT_END
 95
        2
302
GRIDFORMAT
  1
GRIDFORMAT_BEGIN
 90
        0
 91
        1
 62
     0
 92
       -2
340
11
 93
        0
 40
0.045
309
GRIDFORMAT_END
 95
        4
302
GRIDFORMAT
  1
GRIDFORMAT_BEGIN
 90
        0
 91
        1
 62
     0
 92
       -2
340
11
 93
        0
 40
0.045
309
GRIDFORMAT_END
 95
        8
302
GRIDFORMAT
  1
GRIDFORMAT_BEGIN
 90
        0
 91
        1
 62
     0
 92
       -2
340
11
 93
        0
 40
0.045
309
GRIDFORMAT_END
 95
       16
302
GRIDFORMAT
  1
GRIDFORMAT_BEGIN
 90
        0
 91
        1
 62
     0
 92
       -2
340
11
 93
        0
 40
0.045
309
GRIDFORMAT_END
 95
       32
302
GRIDFORMAT
  1
GRIDFORMAT_BEGIN
 90
        0
 91
        1
 62
     0
 92
       -2
340
11
 93
        0
 40
0.045
309
GRIDFORMAT_END
309
TABLEFORMAT_END
  1
CELLSTYLE_BEGIN
 90
        1
 91
        1
300
_TITLE
309
CELLSTYLE_END
300
CELLSTYLE
  1
TABLEFORMAT_BEGIN
 90
        5
170
     1
 91
        0
 92
        0
 62
   257
 93
        1
300
CONTENTFORMAT
  1
CONTENTFORMAT_BEGIN
 90
        0
 91
        0
 92
        4
 93
        0
300

 40
0.0
140
1.0
 94
        5
 62
     0
340
17
144
4.5
309
CONTENTFORMAT_END
171
     1
301
MARGIN
  1
CELLMARGIN_BEGIN
 40
1.5
 40
1.5
 40
1.5
 40
1.5
 40
1.5
 40
1.5
309
CELLMARGIN_END
 94
        6
 95
        1
302
GRIDFORMAT
  1
GRIDFORMAT_BEGIN
 90
        0
 91
        1
 62
     0
 92
       -2
340
11
 93
        0
 40
0.045
309
GRIDFORMAT_END
 95
        2
302
GRIDFORMAT
  1
GRIDFORMAT_BEGIN
 90
        0
 91
        1
 62
     0
 92
       -2
340
11
 93
        0
 40
0.045
309
GRIDFORMAT_END
 95
        4
302
GRIDFORMAT
  1
GRIDFORMAT_BEGIN
 90
        0
 91
        1
 62
     0
 92
       -2
340
11
 93
        0
 40
0.045
309
GRIDFORMAT_END
 95
        8
302
GRIDFORMAT
  1
GRIDFORMAT_BEGIN
 90
        0
 91
        1
 62
     0
 92
       -2
340
11
 93
        0
 40
0.045
309
GRIDFORMAT_END
 95
       16
302
GRIDFORMAT
  1
GRIDFORMAT_BEGIN
 90
        0
 91
        1
 62
     0
 92
       -2
340
11
 93
        0
 40
0.045
309
GRIDFORMAT_END
 95
       32
302
GRIDFORMAT
  1
GRIDFORMAT_BEGIN
 90
        0
 91
        1
 62
     0
 92
       -2
340
11
 93
        0
 40
0.045
309
GRIDFORMAT_END
309
TABLEFORMAT_END
  1
CELLSTYLE_BEGIN
 90
        2
 91
        1
300
_HEADER
309
CELLSTYLE_END
300
CELLSTYLE
  1
TABLEFORMAT_BEGIN
 90
        5
170
     1
 91
        0
 92
        0
 62
   257
 93
        1
300
CONTENTFORMAT
  1
CONTENTFORMAT_BEGIN
 90
        0
 91
        0
 92
        4
 93
        0
300

 40
0.0
140
1.0
 94
        2
 62
     0
340
17
144
4.5
309
CONTENTFORMAT_END
171
     1
301
MARGIN
  1
CELLMARGIN_BEGIN
 40
1.5
 40
1.5
 40
1.5
 40
1.5
 40
1.5
 40
1.5
309
CELLMARGIN_END
 94
        6
 95
        1
302
GRIDFORMAT
  1
GRIDFORMAT_BEGIN
 90
        0
 91
        1
 62
     0
 92
       -2
340
11
 93
        0
 40
0.045
309
GRIDFORMAT_END
 95
        2
302
GRIDFORMAT
  1
GRIDFORMAT_BEGIN
 90
        0
 91
        1
 62
     0
 92
       -2
340
11
 93
        0
 40
0.045
309
GRIDFORMAT_END
 95
        4
302
GRIDFORMAT
  1
GRIDFORMAT_BEGIN
 90
        0
 91
        1
 62
     0
 92
       -2
340
11
 93
        0
 40
0.045
309
GRIDFORMAT_END
 95
        8
302
GRIDFORMAT
  1
GRIDFORMAT_BEGIN
 90
        0
 91
        1
 62
     0
 92
       -2
340
11
 93
        0
 40
0.045
309
GRIDFORMAT_END
 95
       16
302
GRIDFORMAT
  1
GRIDFORMAT_BEGIN
 90
        0
 91
        1
 62
     0
 92
       -2
340
11
 93
        0
 40
0.045
309
GRIDFORMAT_END
 95
       32
302
GRIDFORMAT
  1
GRIDFORMAT_BEGIN
 90
        0
 91
        1
 62
     0
 92
       -2
340
11
 93
        0
 40
0.045
309
GRIDFORMAT_END
309
TABLEFORMAT_END
  1
CELLSTYLE_BEGIN
 90
        3
 91
        2
300
_DATA
309
CELLSTYLE_END
  0
ENDSEC
  0
EOF
