  0
SECTION
  2
HEADER
  9
$ACADVER
  1
AC1021
  9
$ACADMAINTVER
 70
    25
  9
$DWGCODEPAGE
  3
ANSI_932
  9
$LASTSAVEDBY
  1
howeNelson
  9
$INSBASE
 10
0.0
 20
0.0
 30
0.0
  9
$EXTMIN
 10
0.0
 20
0.0
 30
0.0
  9
$EXTMAX
 10
2100.0
 20
2970.0
 30
0.0
  9
$LIMMIN
 10
0.0
 20
0.0
  9
$LIMMAX
 10
2100.0
 20
2970.0
  9
$ORTHOMODE
 70
     0
  9
$REGENMODE
 70
     1
  9
$FILLMODE
 70
     1
  9
$QTEXTMODE
 70
     0
  9
$MIRRTEXT
 70
     1
  9
$LTSCALE
 40
1.0
  9
$ATTMODE
 70
     1
  9
$TEXTSIZE
 40
533.0403732820173
  9
$TRACEWID
 40
1.0
  9
$TEXTSTYLE
  7
Standard
  9
$CLAYER
  8
Dim
  9
$CELTYPE
  6
Continuous
  9
$CECOLOR
 62
   256
  9
$CELTSCALE
 40
1.0
  9
$DISPSILH
 70
     0
  9
$DIMSCALE
 40
1.0
  9
$DIMASZ
 40
6.0
  9
$DIMEXO
 40
25.0
  9
$DIMDLI
 40
0.9999999999999999
  9
$DIMRND
 40
0.0
  9
$DIMDLE
 40
0.0
  9
$DIMEXE
 40
0.0
  9
$DIMTP
 40
0.0
  9
$DIMTM
 40
0.0
  9
$DIMTXT
 40
24.4326171875
  9
$DIMCEN
 40
0.0
  9
$DIMTSZ
 40
0.0
  9
$DIMTOL
 70
     0
  9
$DIMLIM
 70
     0
  9
$DIMTIH
 70
     0
  9
$DIMTOH
 70
     0
  9
$DIMSE1
 70
     0
  9
$DIMSE2
 70
     0
  9
$DIMTAD
 70
     1
  9
$DIMZIN
 70
    11
  9
$DIMBLK
  1
DOT
  9
$DIMASO
 70
     1
  9
$DIMSHO
 70
     1
  9
$DIMPOST
  1
<>
  9
$DIMAPOST
  1
[]
  9
$DIMALT
 70
     0
  9
$DIMALTD
 70
     1
  9
$DIMALTF
 40
1.0
  9
$DIMLFAC
 40
1.0
  9
$DIMTOFL
 70
     0
  9
$DIMTVP
 40
0.0
  9
$DIMTIX
 70
     1
  9
$DIMSOXD
 70
     0
  9
$DIMSAH
 70
     0
  9
$DIMBLK1
  1

  9
$DIMBLK2
  1

  9
$DIMSTYLE
  2
tfrom線あり
  9
$DIMCLRD
 70
     0
  9
$DIMCLRE
 70
     0
  9
$DIMCLRT
 70
     0
  9
$DIMTFAC
 40
1.0
  9
$DIMGAP
 40
0.4999999999999999
  9
$DIMJUST
 70
     0
  9
$DIMSD1
 70
     0
  9
$DIMSD2
 70
     0
  9
$DIMTOLJ
 70
     1
  9
$DIMTZIN
 70
    11
  9
$DIMALTZ
 70
    11
  9
$DIMALTTZ
 70
    11
  9
$DIMUPT
 70
     0
  9
$DIMDEC
 70
     1
  9
$DIMTDEC
 70
     1
  9
$DIMALTU
 70
     2
  9
$DIMALTTD
 70
     2
  9
$DIMTXSTY
  7
ＭＳ ゴシック
  9
$DIMAUNIT
 70
     0
  9
$DIMADEC
 70
     2
  9
$DIMALTRND
 40
0.0
  9
$DIMAZIN
 70
     0
  9
$DIMDSEP
 70
    46
  9
$DIMATFIT
 70
     0
  9
$DIMFRAC
 70
     2
  9
$DIMLDRBLK
  1
DOT
  9
$DIMLUNIT
 70
     2
  9
$DIMLWD
 70
    -2
  9
$DIMLWE
 70
    -2
  9
$DIMTMOVE
 70
     0
  9
$DIMFXL
 40
1.0
  9
$DIMFXLON
 70
     0
  9
$DIMJOGANG
 40
0.7853981633974483
  9
$DIMTFILL
 70
     0
  9
$DIMTFILLCLR
 70
     0
  9
$DIMARCSYM
 70
     0
  9
$DIMLTYPE
  6

  9
$DIMLTEX1
  6

  9
$DIMLTEX2
  6

  9
$LUNITS
 70
     2
  9
$LUPREC
 70
     0
  9
$SKETCHINC
 40
0.1
  9
$FILLETRAD
 40
0.0
  9
$AUNITS
 70
     0
  9
$AUPREC
 70
     0
  9
$MENU
  1
acad
  9
$ELEVATION
 40
0.0
  9
$PELEVATION
 40
0.0
  9
$THICKNESS
 40
0.0
  9
$LIMCHECK
 70
     0
  9
$CHAMFERA
 40
0.0
  9
$CHAMFERB
 40
0.0
  9
$CHAMFERC
 40
0.0
  9
$CHAMFERD
 40
0.0
  9
$SKPOLY
 70
     0
  9
$TDCREATE
 40
2447893.375
  9
$TDUCREATE
 40
0.0
  9
$TDUPDATE
 40
2457815.391361134
  9
$TDUUPDATE
 40
2457815.016361134
  9
$TDINDWG
 40
0.0139347338
  9
$TDUSRTIMER
 40
2457815.00809037
  9
$USRTIMER
 70
     1
  9
$ANGBASE
 50
0.0
  9
$ANGDIR
 70
     0
  9
$PDMODE
 70
     1
  9
$PDSIZE
 40
-2.0
  9
$PLINEWID
 40
0.0
  9
$SPLFRAME
 70
     0
  9
$SPLINETYPE
 70
     6
  9
$SPLINESEGS
 70
     8
  9
$HANDSEED
  5
258F
  9
$SURFTAB1
 70
     6
  9
$SURFTAB2
 70
     6
  9
$SURFTYPE
 70
     6
  9
$SURFU
 70
     6
  9
$SURFV
 70
     6
  9
$UCSBASE
  2

  9
$UCSNAME
  2

  9
$UCSORG
 10
0.0
 20
0.0
 30
0.0
  9
$UCSXDIR
 10
1.0
 20
0.0
 30
0.0
  9
$UCSYDIR
 10
0.0
 20
1.0
 30
0.0
  9
$UCSORTHOREF
  2

  9
$UCSORTHOVIEW
 70
     0
  9
$UCSORGTOP
 10
0.0
 20
0.0
 30
0.0
  9
$UCSORGBOTTOM
 10
0.0
 20
0.0
 30
0.0
  9
$UCSORGLEFT
 10
0.0
 20
0.0
 30
0.0
  9
$UCSORGRIGHT
 10
0.0
 20
0.0
 30
0.0
  9
$UCSORGFRONT
 10
0.0
 20
0.0
 30
0.0
  9
$UCSORGBACK
 10
0.0
 20
0.0
 30
0.0
  9
$PUCSBASE
  2

  9
$PUCSNAME
  2

  9
$PUCSORG
 10
0.0
 20
0.0
 30
0.0
  9
$PUCSXDIR
 10
1.0
 20
0.0
 30
0.0
  9
$PUCSYDIR
 10
0.0
 20
1.0
 30
0.0
  9
$PUCSORTHOREF
  2

  9
$PUCSORTHOVIEW
 70
     0
  9
$PUCSORGTOP
 10
0.0
 20
0.0
 30
0.0
  9
$PUCSORGBOTTOM
 10
0.0
 20
0.0
 30
0.0
  9
$PUCSORGLEFT
 10
0.0
 20
0.0
 30
0.0
  9
$PUCSORGRIGHT
 10
0.0
 20
0.0
 30
0.0
  9
$PUCSORGFRONT
 10
0.0
 20
0.0
 30
0.0
  9
$PUCSORGBACK
 10
0.0
 20
0.0
 30
0.0
  9
$USERI1
 70
     0
  9
$USERI2
 70
     0
  9
$USERI3
 70
     0
  9
$USERI4
 70
     0
  9
$USERI5
 70
     0
  9
$USERR1
 40
0.0
  9
$USERR2
 40
0.0
  9
$USERR3
 40
0.0
  9
$USERR4
 40
0.0
  9
$USERR5
 40
0.0
  9
$WORLDVIEW
 70
     1
  9
$SHADEDGE
 70
     3
  9
$SHADEDIF
 70
    70
  9
$TILEMODE
 70
     1
  9
$MAXACTVP
 70
    64
  9
$PINSBASE
 10
0.0
 20
0.0
 30
0.0
  9
$PLIMCHECK
 70
     0
  9
$PEXTMIN
 10
0.0
 20
0.0
 30
0.0
  9
$PEXTMAX
 10
0.0
 20
0.0
 30
0.0
  9
$PLIMMIN
 10
-95.87226993865028
 20
-25.69999999999999
  9
$PLIMMAX
 10
201.1277300613497
 20
184.3
  9
$UNITMODE
 70
     0
  9
$VISRETAIN
 70
     0
  9
$PLINEGEN
 70
     1
  9
$PSLTSCALE
 70
     0
  9
$TREEDEPTH
 70
  3020
  9
$CMLSTYLE
  2
Standard
  9
$CMLJUST
 70
     0
  9
$CMLSCALE
 40
1.0
  9
$PROXYGRAPHICS
 70
     0
  9
$MEASUREMENT
 70
     1
  9
$CELWEIGHT
370
    -1
  9
$ENDCAPS
280
     0
  9
$JOINSTYLE
280
     0
  9
$LWDISPLAY
290
     1
  9
$INSUNITS
 70
     4
  9
$HYPERLINKBASE
  1

  9
$STYLESHEET
  1

  9
$XEDIT
290
     1
  9
$CEPSNTYPE
380
     0
  9
$PSTYLEMODE
290
     1
  9
$FINGERPRINTGUID
  2

  9
$VERSIONGUID
  2

  9
$EXTNAMES
290
     1
  9
$PSVPSCALE
 40
0.0
  9
$OLESTARTUP
290
     0
  9
$SORTENTS
280
   127
  9
$INDEXCTL
280
     0
  9
$HIDETEXT
280
     1
  9
$XCLIPFRAME
290
     0
  9
$HALOGAP
280
     0
  9
$OBSCOLOR
 70
   257
  9
$OBSLTYPE
280
     0
  9
$INTERSECTIONDISPLAY
280
     0
  9
$INTERSECTIONCOLOR
 70
   257
  9
$DIMASSOC
280
     2
  9
$PROJECTNAME
  1

  9
$CAMERADISPLAY
290
     0
  9
$LENSLENGTH
 40
50.0
  9
$CAMERAHEIGHT
 40
0.0
  9
$STEPSPERSEC
 40
2.0
  9
$STEPSIZE
 40
6.0
  9
$3DDWFPREC
 40
2.0
  9
$PSOLWIDTH
 40
0.25
  9
$PSOLHEIGHT
 40
4.0
  9
$LOFTANG1
 40
1.570796326794897
  9
$LOFTANG2
 40
1.570796326794897
  9
$LOFTMAG1
 40
0.0
  9
$LOFTMAG2
 40
0.0
  9
$LOFTPARAM
 70
     7
  9
$LOFTNORMALS
280
     1
  9
$LATITUDE
 40
37.795
  9
$LONGITUDE
 40
-122.394
  9
$NORTHDIRECTION
 40
0.0
  9
$TIMEZONE
 70
 -8000
  9
$LIGHTGLYPHDISPLAY
280
     1
  9
$TILEMODELIGHTSYNCH
280
     1
  9
$SOLIDHIST
280
     1
  9
$SHOWHIST
280
     1
  9
$DWFFRAME
280
     2
  9
$DGNFRAME
280
     2
  9
$REALWORLDSCALE
290
     1
  9
$INTERFERECOLOR
 62
   256
  9
$CSHADOW
280
     0
  9
$SHADOWPLANELOCATION
 40
0.0
  0
ENDSEC
  0
SECTION
  2
CLASSES
  0
CLASS
  1
LWPOLYLINE
  2
AcDbPolyline
  3
ObjectDBX Classes
 90
        0
 91
        1
280
     0
281
     1
  0
CLASS
  1
IMAGE
  2
AcDbRasterImage
  3
ISM
 90
      127
 91
        5
280
     0
281
     1
  0
CLASS
  1
OLE2FRAME
  2
AcDbOle2Frame
  3
ObjectDBX Classes
 90
        0
 91
        1
280
     0
281
     1
  0
CLASS
  1
HATCH
  2
AcDbHatch
  3
ObjectDBX Classes
 90
        0
 91
        1
280
     0
281
     1
  0
CLASS
  1
DICTIONARYVAR
  2
AcDbDictionaryVar
  3
ObjectDBX Classes
 90
        0
 91
        4
280
     0
281
     0
  0
CLASS
  1
RASTERVARIABLES
  2
AcDbRasterVariables
  3
ISM
 90
        0
 91
        4
280
     0
281
     0
  0
CLASS
  1
IMAGEDEF
  2
AcDbRasterImageDef
  3
ISM
 90
        0
 91
        4
280
     0
281
     0
  0
CLASS
  1
IMAGEDEF_REACTOR
  2
AcDbRasterImageDefReactor
  3
ISM
 90
        1
 91
        4
280
     0
281
     0
  0
CLASS
  1
IDBUFFER
  2
AcDbIdBuffer
  3
ObjectDBX Classes
 90
        0
 91
        4
280
     0
281
     0
  0
CLASS
  1
SPATIAL_FILTER
  2
AcDbSpatialFilter
  3
ObjectDBX Classes
 90
        0
 91
        4
280
     0
281
     0
  0
CLASS
  1
XRECORD
  2
AcDbXrecord
  3
ObjectDBX Classes
 90
        0
 91
        1
280
     0
281
     0
  0
CLASS
  1
SORTENTSTABLE
  2
AcDbSortentsTable
  3
ObjectDBX Classes
 90
        0
 91
        4
280
     0
281
     0
  0
CLASS
  1
LAYER_INDEX
  2
AcDbLayerIndex
  3
ObjectDBX Classes
 90
        0
 91
        4
280
     0
281
     0
  0
CLASS
  1
SPATIAL_INDEX
  2
AcDbSpatialIndex
  3
AutoCAD 2000
 90
        0
 91
        4
280
     0
281
     0
  0
CLASS
  1
OBJECT_PTR
  2
CAseDLPNTableRecord
  3
ASE-LPNTableRecord
 90
        1
 91
        4
280
     0
281
     0
  0
CLASS
  1
LAYOUT
  2
AcDbLayout
  3
ObjectDBX Classes
 90
        0
 91
        1
280
     0
281
     0
  0
CLASS
  1
PLOTSETTINGS
  2
AcDbPlotSettings
  3
ObjectDBX Classes
 90
        0
 91
        4
280
     0
281
     0
  0
CLASS
  1
ACDBDICTIONARYWDFLT
  2
AcDbDictionaryWithDefault
  3
ObjectDBX Classes
 90
        0
 91
        4
280
     0
281
     0
  0
CLASS
  1
ACDBPLACEHOLDER
  2
AcDbPlaceHolder
  3
ObjectDBX Classes
 90
        0
 91
        1
280
     0
281
     0
  0
CLASS
  1
SCALE
  2
AcDbScale
  3
ObjectDBX Classes
 90
     1153
 91
        4
280
     0
281
     0
  0
CLASS
  1
MATERIAL
  2
AcDbMaterial
  3
ObjectDBX Classes
 90
     1153
 91
        4
280
     0
281
     0
  0
CLASS
  1
VISUALSTYLE
  2
AcDbVisualStyle
  3
ObjectDBX Classes
 90
     4095
 91
        4
280
     0
281
     0
  0
CLASS
  1
TABLESTYLE
  2
AcDbTableStyle
  3
ObjectDBX Classes
 90
     4095
 91
        4
280
     0
281
     0
  0
CLASS
  1
DIMASSOC
  2
AcDbDimAssoc
  3
"AcDbDimAssoc|Product Desc:     AcDim ARX App For Dimension|Company:          Autodesk, Inc.|WEB Address:      www.autodesk.com"
 90
        0
 91
        4
280
     0
281
     0
  0
CLASS
  1
CELLSTYLEMAP
  2
AcDbCellStyleMap
  3
ObjectDBX Classes
 90
     1152
 91
        4
280
     0
281
     0
  0
CLASS
  1
SUN
  2
AcDbSun
  3
SCENEOE
 90
     1153
 91
        4
280
     0
281
     0
  0
CLASS
  1
MLEADERSTYLE
  2
AcDbMLeaderStyle
  3
ACDB_MLEADERSTYLE_CLASS
 90
     4095
 91
        4
280
     0
281
     0
  0
CLASS
  1
FIELD
  2
AcDbField
  3
ObjectDBX Classes
 90
     1152
 91
        4
280
     0
281
     0
  0
CLASS
  1
FIELDLIST
  2
AcDbFieldList
  3
ObjectDBX Classes
 90
     1152
 91
        4
280
     0
281
     0
  0
CLASS
  1
WIPEOUT
  2
AcDbWipeout
  3
WipeOut|AutoCAD Express Tool|expresstools@autodesk.com
 90
      127
 91
        4
280
     0
281
     1
  0
ENDSEC
  0
SECTION
  2
TABLES
  0
TABLE
  2
VPORT
  5
7
330
0
100
AcDbSymbolTable
 70
     1
  0
VPORT
  5
15
330
7
100
AcDbSymbolTableRecord
100
AcDbViewportTableRecord
  2
*ACTIVE
 70
     0
 10
0.0
 20
0.0
 11
1.0
 21
1.0
 12
672.9525617540357
 22
1782.612370234516
 13
0.0
 23
0.0
 14
1.0
 24
1.0
 15
0.0
 25
0.0
 16
0.0
 26
0.0
 36
1.0
 17
377.0474382459643
 27
-297.6123702345158
 37
0.0
 40
3029.400000000004
 41
2.202956989247312
 42
50.0
 43
0.0
 44
0.0
 50
0.0
 51
0.0
 71
    16
 72
  2000
 73
     1
 74
     1
 75
     0
 76
     0
 77
     0
 78
     0
281
     0
 65
     1
110
0.0
120
0.0
130
0.0
111
1.0
121
0.0
131
0.0
112
0.0
122
1.0
132
0.0
 79
     0
146
0.0
348
26C
 60
     3
 61
     5
292
     1
282
     1
141
0.0
142
0.0
 63
   256
361
8C2
  0
ENDTAB
  0
TABLE
  2
LTYPE
  5
4
330
0
100
AcDbSymbolTable
 70
    21
  0
LTYPE
  5
11
330
4
100
AcDbSymbolTableRecord
100
AcDbLinetypeTableRecord
  2
ByBlock
 70
     0
  3

 72
    65
 73
     0
 40
0.0
  0
LTYPE
  5
12
330
4
100
AcDbSymbolTableRecord
100
AcDbLinetypeTableRecord
  2
ByLayer
 70
     0
  3

 72
    65
 73
     0
 40
0.0
  0
LTYPE
  5
13
330
4
100
AcDbSymbolTableRecord
100
AcDbLinetypeTableRecord
  2
Continuous
 70
     0
  3
Solid line
 72
    65
 73
     0
 40
0.0
  0
LTYPE
  5
8D4
330
4
100
AcDbSymbolTableRecord
100
AcDbLinetypeTableRecord
  2
HIDDEN
 70
     0
  3
Hidden _ _ _ _ _ _ _ _ _ _ _ _ _ _ _ _ _ _ _ _ 
 72
    65
 73
     2
 40
9.524999999999999
 49
6.35
 74
     0
 49
-3.175
 74
     0
  0
LTYPE
  5
BF2
330
4
100
AcDbSymbolTableRecord
100
AcDbLinetypeTableRecord
  2
BORDER
 70
     0
  3
Border __  __  . __  __  . __  __  . __  __  . 
 72
    65
 73
     6
 40
44.45
 49
12.7
 74
     0
 49
-6.35
 74
     0
 49
12.7
 74
     0
 49
-6.35
 74
     0
 49
0.0
 74
     0
 49
-6.35
 74
     0
  0
LTYPE
  5
255C
330
4
100
AcDbSymbolTableRecord
100
AcDbLinetypeTableRecord
  2
CENTER
 70
     0
  3
 Center _____  _  _____  _  _____  _  _____  _ 
 72
    65
 73
     4
 40
50.8
 49
31.75
 74
     0
 49
-6.35
 74
     0
 49
6.35
 74
     0
 49
-6.35
 74
     0
  0
ENDTAB
  0
TABLE
  2
LAYER
  5
2
102
{ACAD_XDICTIONARY
360
2E1
102
}
330
0
100
AcDbSymbolTable
 70
    12
  0
LAYER
  5
14
330
2
100
AcDbSymbolTableRecord
100
AcDbLayerTableRecord
  2
0
 70
     0
 62
     7
  6
Continuous
370
    -3
390
1D
347
266
  0
LAYER
  5
4A
330
2
100
AcDbSymbolTableRecord
100
AcDbLayerTableRecord
  2
Defpoints
 70
     0
 62
     7
  6
Continuous
290
     0
370
    20
390
1D
347
266
  0
LAYER
  5
4B
330
2
100
AcDbSymbolTableRecord
100
AcDbLayerTableRecord
  2
template
 70
     0
 62
     7
  6
Continuous
370
    20
390
1D
347
266
  0
LAYER
  5
4D
330
2
100
AcDbSymbolTableRecord
100
AcDbLayerTableRecord
  2
MODEL
 70
     0
 62
     7
  6
Continuous
370
    20
390
1D
347
266
  0
LAYER
  5
382
330
2
100
AcDbSymbolTableRecord
100
AcDbLayerTableRecord
  2
レイヤー 1
 70
     0
 62
     7
  6
Continuous
370
    -3
390
1D
347
266
  0
LAYER
  5
5C4
330
2
100
AcDbSymbolTableRecord
100
AcDbLayerTableRecord
  2
HIDDEN
 70
     0
 62
   253
  6
HIDDEN
370
    20
390
1D
347
266
1001
AcAecLayerStandard
1000

1000

  0
LAYER
  5
5EB
330
2
100
AcDbSymbolTableRecord
100
AcDbLayerTableRecord
  2
Dim
 70
     0
 62
     3
  6
Continuous
370
    13
390
1D
347
266
1001
AcAecLayerStandard
1000

1000

  0
LAYER
  5
BF1
330
2
100
AcDbSymbolTableRecord
100
AcDbLayerTableRecord
  2
PRINT BORDER
 70
     0
 62
     4
  6
BORDER
290
     0
370
    20
390
1D
347
266
1001
AcAecLayerStandard
1000

1000

  0
ENDTAB
  0
TABLE
  2
STYLE
  5
3
330
0
100
AcDbSymbolTable
 70
     4
  0
STYLE
  5
17
330
3
100
AcDbSymbolTableRecord
100
AcDbTextStyleTableRecord
  2
Standard
 70
     0
 40
0.0
 41
1.0
 50
0.0
 71
     0
 42
533.0403732820173
  3
txt
  4
BIGFONT.SHX
  0
STYLE
  5
39
330
3
100
AcDbSymbolTableRecord
100
AcDbTextStyleTableRecord
  2
ＭＳ ゴシック
 70
     0
 40
0.0
 41
1.0
 50
0.0
 71
     0
 42
533.0403732820173
  3
msgothic.ttc
  4
ＭＳ ゴシック
1001
ACAD
1000
ＭＳ ゴシック
1071
        0
  0
STYLE
  5
1D41
330
3
100
AcDbSymbolTableRecord
100
AcDbTextStyleTableRecord
  2
ＭＳゴシック
 70
     0
 40
0.0
 41
1.0
 50
0.0
 71
     0
 42
533.0403732820173
  3

  4
ＭＳゴシック
1001
ACAD
1000
ＭＳゴシック
1071
        0
  0
ENDTAB
  0
TABLE
  2
VIEW
  5
5
330
0
100
AcDbSymbolTable
 70
     0
  0
ENDTAB
  0
TABLE
  2
UCS
  5
6
330
0
100
AcDbSymbolTable
 70
     0
  0
ENDTAB
  0
TABLE
  2
APPID
  5
8
330
0
100
AcDbSymbolTable
 70
    11
  0
APPID
  5
16
330
8
100
AcDbSymbolTableRecord
100
AcDbRegAppTableRecord
  2
ACAD
 70
     0
  0
APPID
  5
5C5
330
8
100
AcDbSymbolTableRecord
100
AcDbRegAppTableRecord
  2
AcAecLayerStandard
 70
     0
  0
APPID
  5
913
330
8
100
AcDbSymbolTableRecord
100
AcDbRegAppTableRecord
  2
ACAD_DSTYLE_DIMBREAK
 70
     0
  0
APPID
  5
914
330
8
100
AcDbSymbolTableRecord
100
AcDbRegAppTableRecord
  2
ACAD_DSTYLE_DIMJAG
 70
     0
  0
APPID
  5
915
330
8
100
AcDbSymbolTableRecord
100
AcDbRegAppTableRecord
  2
ACAD_DSTYLE_DIMTALN
 70
     0
  0
APPID
  5
E4F
330
8
100
AcDbSymbolTableRecord
100
AcDbRegAppTableRecord
  2
ACAD_MLEADERVER
 70
     0
  0
APPID
  5
E79
330
8
100
AcDbSymbolTableRecord
100
AcDbRegAppTableRecord
  2
ACAD_PSEXT
 70
     0
  0
APPID
  5
E7A
330
8
100
AcDbSymbolTableRecord
100
AcDbRegAppTableRecord
  2
ACAD_NAV_VCDISPLAY
 70
     0
  0
APPID
  5
166E
330
8
100
AcDbSymbolTableRecord
100
AcDbRegAppTableRecord
  2
AcadAnnotative
 70
     0
  0
APPID
  5
166F
330
8
100
AcDbSymbolTableRecord
100
AcDbRegAppTableRecord
  2
GradientColor1ACI
 70
     0
  0
APPID
  5
1670
330
8
100
AcDbSymbolTableRecord
100
AcDbRegAppTableRecord
  2
GradientColor2ACI
 70
     0
  0
ENDTAB
  0
TABLE
  2
DIMSTYLE
  5
9
330
0
100
AcDbSymbolTable
 70
     9
100
AcDbDimStyleTable
  0
DIMSTYLE
105
18
330
9
100
AcDbSymbolTableRecord
100
AcDbDimStyleTableRecord
  2
Standard
 70
     0
178
     0
340
17
  0
DIMSTYLE
105
57
102
{ACAD_REACTORS
330
2408
330
2409
330
2404
330
2406
330
2407
330
23FB
330
23FC
330
2405
330
23FA
330
23F8
330
23F9
330
23FE
330
23FF
330
2400
330
2401
330
2402
330
23FD
330
2403
102
}
330
9
100
AcDbSymbolTableRecord
100
AcDbDimStyleTableRecord
  2
tfrom線あり
 70
     0
  3
<>
  4
[]
 41
6.0
 42
25.0
 43
0.9999999999999999
 44
0.0
 73
     0
 74
     0
 77
     1
 78
    11
140
24.4326171875
141
0.0
143
1.0
147
0.4999999999999999
171
     1
174
     1
178
     0
179
     2
271
     1
272
     1
276
     2
284
    11
285
    11
286
    11
289
     0
340
39
341
4E
342
4E
  0
ENDTAB
  0
TABLE
  2
BLOCK_RECORD
  5
1
330
0
100
AcDbSymbolTable
 70
   294
  0
BLOCK_RECORD
  5
A
330
1
100
AcDbSymbolTableRecord
100
AcDbBlockTableRecord
  2
*MODEL_SPACE
340
20
 70
     0
280
     1
281
     0
  0
BLOCK_RECORD
  5
B
330
1
100
AcDbSymbolTableRecord
100
AcDbBlockTableRecord
  2
*PAPER_SPACE
340
21
 70
     0
280
     1
281
     0
  0
BLOCK_RECORD
  5
4E
330
1
100
AcDbSymbolTableRecord
100
AcDbBlockTableRecord
  2
_DOT
340
0
102
{BLKREFS
331
2A1
331
2A2
331
2B0
331
2B1
331
2CA
331
2CB
331
2D9
331
2DA
331
2EC
331
2ED
331
2FB
331
2FC
331
30A
331
30B
331
319
331
31A
331
328
331
329
331
3E9
331
3EA
331
45F
331
460
331
46E
331
46F
331
47D
331
47E
331
48E
331
48F
331
49D
331
49E
331
4B0
331
4B1
331
4C0
331
4C1
331
524
331
525
331
52E
331
52F
331
538
331
539
331
544
331
545
331
54E
331
54F
331
558
331
559
331
562
331
563
331
5D4
331
5D5
331
763
331
764
331
772
331
773
331
781
331
782
331
790
331
791
331
79F
331
7A0
331
834
331
835
331
83E
331
83F
331
848
331
849
331
852
331
853
331
85A
331
85B
331
988
331
989
331
9BC
331
9BD
331
9C9
331
9CA
331
9D6
331
9D7
331
9E3
331
9E4
331
9F0
331
9F1
331
A11
331
A12
331
A1E
331
A1F
331
A2C
331
A2D
331
A41
331
A42
331
AF7
331
AF8
331
B03
331
B04
331
B0F
331
B10
331
B1B
331
B1C
331
B27
331
B28
331
B33
331
B34
331
B3F
331
B40
331
B4B
331
B4C
331
B57
331
B58
331
B63
331
B64
331
C16
331
C17
331
C95
331
C96
331
CA2
331
CA3
331
CB7
331
CB8
331
CC4
331
CC5
331
CD1
331
CD2
331
CDE
331
CDF
331
CFC
331
CFD
331
D09
331
D0A
331
D16
331
D17
331
D23
331
D24
331
D30
331
D31
331
D3D
331
D3E
331
DBE
331
DBF
331
DCA
331
DCB
331
DD6
331
DD7
331
DE2
331
DE3
331
DEE
331
DEF
331
DFA
331
DFB
331
E06
331
E07
331
E12
331
E13
331
E1E
331
E1F
331
E2A
331
E2B
331
E36
331
E37
331
E41
331
E42
331
103F
331
1040
331
1081
331
1082
331
1095
331
1096
331
10AC
331
10AD
331
10BC
331
10BD
331
10F1
331
10F2
331
1155
331
1156
331
1174
331
1175
331
1189
331
118A
331
11A1
331
11A2
331
1301
331
1302
331
130F
331
1310
331
131C
331
131D
331
1331
331
1332
331
137F
331
1380
331
138B
331
138C
331
1397
331
1398
331
13A3
331
13A4
331
147B
331
147C
331
1488
331
1489
331
1495
331
1496
331
14B1
331
14B2
331
14BE
331
14BF
331
1500
331
1501
331
1510
331
1511
331
1526
331
1527
331
158D
331
158E
331
159D
331
159E
331
1733
331
1734
331
1743
331
1744
331
1753
331
1754
331
1763
331
1764
331
1773
331
1774
331
1783
331
1784
331
1793
331
1794
331
17A3
331
17A4
331
17B3
331
17B4
331
17C3
331
17C4
331
17D3
331
17D4
331
17E3
331
17E4
331
18C2
331
18C3
331
18CE
331
18CF
331
18DA
331
18DB
331
18E6
331
18E7
331
18F2
331
18F3
331
18FE
331
18FF
331
190A
331
190B
331
1916
331
1917
331
1922
331
1923
331
192E
331
192F
331
193A
331
193B
331
1946
331
1947
331
19BF
331
19C0
331
19CE
331
19CF
331
19DB
331
19DC
331
19EB
331
19EC
331
19FA
331
19FB
331
1A0A
331
1A0B
331
1A1F
331
1A20
331
1A2C
331
1A2D
331
1A3C
331
1A3D
331
1A49
331
1A4A
331
1A77
331
1A78
331
1A8F
331
1A90
331
1AAA
331
1AAB
331
1AF7
331
1AF8
331
1B04
331
1B05
331
1B13
331
1B14
331
1B20
331
1B21
331
1B2D
331
1B2E
331
1BA6
331
1BA7
331
1BBB
331
1BBC
331
1BCA
331
1BCB
331
1BD9
331
1BDA
331
1BF3
331
1BF4
331
1C03
331
1C04
331
1C12
331
1C13
331
1DA1
331
1DA2
331
1DB0
331
1DB1
331
1DBF
331
1DC0
331
1DCE
331
1DCF
331
1DDD
331
1DDE
331
1DEC
331
1DED
331
1E10
331
1E11
331
1E1F
331
1E20
331
1E2E
331
1E2F
331
1E3D
331
1E3E
331
1E4C
331
1E4D
331
1E5B
331
1E5C
331
1E6A
331
1E6B
331
1E79
331
1E7A
331
1E8A
331
1E8B
331
1E99
331
1E9A
331
1EA8
331
1EA9
331
1EB7
331
1EB8
331
1EC6
331
1EC7
331
1ED5
331
1ED6
331
1F7D
331
1F7E
331
1F89
331
1F8A
331
1F97
331
1F98
331
204C
331
204D
331
2058
331
2059
331
2064
331
2065
331
2070
331
2071
331
207C
331
207D
331
2088
331
2089
331
2094
331
2095
331
20A1
331
20A2
331
20AD
331
20AE
331
20B9
331
20BA
331
20C5
331
20C6
331
20D1
331
20D2
331
20DD
331
20DE
331
20E9
331
20EA
331
20F5
331
20F6
331
2101
331
2102
331
210D
331
210E
331
2119
331
211A
331
2125
331
2126
331
2131
331
2132
331
213D
331
213E
331
2149
331
214A
331
2156
331
2157
331
2176
331
2177
331
221B
331
221C
331
222B
331
222C
331
223B
331
223C
331
224B
331
224C
331
225B
331
225C
331
23B3
331
23B4
331
23BF
331
23C0
331
23CB
331
23CC
331
23D8
331
23D9
331
23E4
331
23E5
331
22BC
331
22BD
331
22CC
331
22CD
331
22DC
331
22DD
331
22EC
331
22ED
331
22FC
331
22FD
331
230C
331
230D
331
231C
331
231D
331
232C
331
232D
331
23F0
331
247A
331
247B
331
2486
331
2487
331
2492
331
2493
331
249E
331
249F
331
24AA
331
24AB
331
24B6
331
24B7
331
24C2
331
24C3
331
24CE
331
24CF
331
24DB
331
0
331
24E7
331
24E8
331
24F3
331
24F4
331
24FF
331
2500
331
250B
331
250C
331
2517
331
2518
331
2523
331
2524
331
252F
331
2530
331
253B
331
253C
331
2547
331
2548
331
0
331
0
331
0
331
2552
102
}
 70
     0
280
     1
281
     0
  0
BLOCK_RECORD
  5
3A5
330
1
100
AcDbSymbolTableRecord
100
AcDbBlockTableRecord
  2
名称未設定-1
340
0
102
{BLKREFS
331
3D0
102
}
 70
     1
280
     1
281
     0
  0
BLOCK_RECORD
  5
3A8
330
1
100
AcDbSymbolTableRecord
100
AcDbBlockTableRecord
  2
block 2
340
0
102
{BLKREFS
331
3A7
102
}
 70
     0
280
     1
281
     0
  0
BLOCK_RECORD
  5
3AB
330
1
100
AcDbSymbolTableRecord
100
AcDbBlockTableRecord
  2
block 3
340
0
102
{BLKREFS
331
3AA
102
}
 70
     0
280
     1
281
     0
  0
BLOCK_RECORD
  5
3AE
330
1
100
AcDbSymbolTableRecord
100
AcDbBlockTableRecord
  2
block 4
340
0
102
{BLKREFS
331
3AD
102
}
 70
     0
280
     1
281
     0
  0
BLOCK_RECORD
  5
3BD
330
1
100
AcDbSymbolTableRecord
100
AcDbBlockTableRecord
  2
block 5
340
0
102
{BLKREFS
331
3BC
102
}
 70
     0
280
     1
281
     0
  0
BLOCK_RECORD
  5
11F0
330
1
100
AcDbSymbolTableRecord
100
AcDbBlockTableRecord
  2
BLOCK_2
340
0
102
{BLKREFS
331
11EF
331
1221
331
124F
331
1273
331
127B
331
127C
102
}
 70
     0
280
     1
281
     0
  0
BLOCK_RECORD
  5
2474
330
1
100
AcDbSymbolTableRecord
100
AcDbBlockTableRecord
  2
*D275
340
0
 70
     0
280
     1
281
     0
  0
BLOCK_RECORD
  5
2480
330
1
100
AcDbSymbolTableRecord
100
AcDbBlockTableRecord
  2
*D276
340
0
 70
     0
280
     1
281
     0
  0
BLOCK_RECORD
  5
248C
330
1
100
AcDbSymbolTableRecord
100
AcDbBlockTableRecord
  2
*D277
340
0
 70
     0
280
     1
281
     0
  0
BLOCK_RECORD
  5
2498
330
1
100
AcDbSymbolTableRecord
100
AcDbBlockTableRecord
  2
*D278
340
0
 70
     0
280
     1
281
     0
  0
BLOCK_RECORD
  5
24A4
330
1
100
AcDbSymbolTableRecord
100
AcDbBlockTableRecord
  2
*D279
340
0
 70
     0
280
     1
281
     0
  0
BLOCK_RECORD
  5
24B0
330
1
100
AcDbSymbolTableRecord
100
AcDbBlockTableRecord
  2
*D280
340
0
 70
     0
280
     1
281
     0
  0
BLOCK_RECORD
  5
24BC
330
1
100
AcDbSymbolTableRecord
100
AcDbBlockTableRecord
  2
*D281
340
0
 70
     0
280
     1
281
     0
  0
BLOCK_RECORD
  5
24C8
330
1
100
AcDbSymbolTableRecord
100
AcDbBlockTableRecord
  2
*D282
340
0
 70
     0
280
     1
281
     0
  0
BLOCK_RECORD
  5
24D4
330
1
100
AcDbSymbolTableRecord
100
AcDbBlockTableRecord
  2
*D283
340
0
 70
     0
280
     1
281
     0
  0
BLOCK_RECORD
  5
24E1
330
1
100
AcDbSymbolTableRecord
100
AcDbBlockTableRecord
  2
*D284
340
0
 70
     0
280
     1
281
     0
  0
BLOCK_RECORD
  5
24ED
330
1
100
AcDbSymbolTableRecord
100
AcDbBlockTableRecord
  2
*D285
340
0
 70
     0
280
     1
281
     0
  0
BLOCK_RECORD
  5
24F9
330
1
100
AcDbSymbolTableRecord
100
AcDbBlockTableRecord
  2
*D286
340
0
 70
     0
280
     1
281
     0
  0
BLOCK_RECORD
  5
2505
330
1
100
AcDbSymbolTableRecord
100
AcDbBlockTableRecord
  2
*D287
340
0
 70
     0
280
     1
281
     0
  0
BLOCK_RECORD
  5
2511
330
1
100
AcDbSymbolTableRecord
100
AcDbBlockTableRecord
  2
*D288
340
0
 70
     0
280
     1
281
     0
  0
BLOCK_RECORD
  5
251D
330
1
100
AcDbSymbolTableRecord
100
AcDbBlockTableRecord
  2
*D289
340
0
 70
     0
280
     1
281
     0
  0
BLOCK_RECORD
  5
2529
330
1
100
AcDbSymbolTableRecord
100
AcDbBlockTableRecord
  2
*D290
340
0
 70
     0
280
     1
281
     0
  0
BLOCK_RECORD
  5
2535
330
1
100
AcDbSymbolTableRecord
100
AcDbBlockTableRecord
  2
*D291
340
0
 70
     0
280
     1
281
     0
  0
BLOCK_RECORD
  5
2541
330
1
100
AcDbSymbolTableRecord
100
AcDbBlockTableRecord
  2
*D292
340
0
 70
     0
280
     1
281
     0
  0
ENDTAB
  0
ENDSEC
  0
SECTION
  2
BLOCKS
  0
BLOCK
  5
D
330
A
100
AcDbEntity
  8
0
390
1D
100
AcDbBlockBegin
  2
*MODEL_SPACE
 70
     0
 10
0.0
 20
0.0
 30
0.0
  3
*MODEL_SPACE
  1
*MODEL_SPACE
  0
ENDBLK
  5
E
330
A
100
AcDbEntity
  8
0
390
1D
100
AcDbBlockEnd
  0
BLOCK
  5
F
330
B
100
AcDbEntity
 67
     1
  8
0
390
1D
100
AcDbBlockBegin
  2
*PAPER_SPACE
 70
     0
 10
0.0
 20
0.0
 30
0.0
  3
*PAPER_SPACE
  1
*PAPER_SPACE
  0
ENDBLK
  5
10
330
B
100
AcDbEntity
 67
     1
  8
0
390
1D
100
AcDbBlockEnd
  0
BLOCK
  5
21CE
330
4E
100
AcDbEntity
  8
0
390
1D
100
AcDbBlockBegin
  2
_DOT
 70
     0
 10
0.0
 20
0.0
 30
0.0
  3
_DOT
  1
_DOT
  0
POLYLINE
  5
21D0
330
4E
100
AcDbEntity
  8
0
  6
ByBlock
 62
     0
370
    -2
390
1D
100
AcDb2dPolyline
 66
     1
 10
0.0
 20
0.0
 30
0.0
 70
     1
 40
0.5
 41
0.5
  0
VERTEX
  5
21D1
330
21D0
100
AcDbEntity
  8
0
  6
ByBlock
 62
     0
370
    -2
390
1D
100
AcDbVertex
100
AcDb2dVertex
 10
-0.25
 20
0.0
 30
0.0
 42
1.0
  0
VERTEX
  5
21D2
330
21D0
100
AcDbEntity
  8
0
  6
ByBlock
 62
     0
370
    -2
390
1D
100
AcDbVertex
100
AcDb2dVertex
 10
0.25
 20
0.0
 30
0.0
 42
1.0
  0
SEQEND
  5
21D3
330
21D0
100
AcDbEntity
  8
0
390
1D
  0
LINE
  5
21D4
330
4E
100
AcDbEntity
  8
0
  6
ByBlock
 62
     0
370
    -2
390
1D
100
AcDbLine
 10
-0.5
 20
0.0
 30
0.0
 11
-1.0
 21
0.0
 31
0.0
  0
ENDBLK
  5
21D5
330
4E
100
AcDbEntity
  8
0
390
1D
100
AcDbBlockEnd
  0
BLOCK
  5
3A6
330
3A5
100
AcDbEntity
  8
0
100
AcDbBlockBegin
  2
名称未設定-1
 70
     0
 10
0.0
 20
0.0
 30
0.0
  3
名称未設定-1
  1
名称未設定-1
  0
INSERT
  5
3A7
330
3A5
100
AcDbEntity
  8
レイヤー 1
100
AcDbBlockReference
  2
block 2
 10
0.0
 20
0.0
 30
0.0
  0
ENDBLK
  5
3CC
330
3A5
100
AcDbEntity
  8
0
100
AcDbBlockEnd
  0
BLOCK
  5
3A9
330
3A8
100
AcDbEntity
  8
0
100
AcDbBlockBegin
  2
block 2
 70
     0
 10
0.0
 20
0.0
 30
0.0
  3
block 2
  1
block 2
  0
INSERT
  5
3AA
330
3A8
100
AcDbEntity
  8
レイヤー 1
100
AcDbBlockReference
  2
block 3
 10
0.0
 20
0.0
 30
0.0
  0
ENDBLK
  5
3CB
330
3A8
100
AcDbEntity
  8
0
100
AcDbBlockEnd
  0
BLOCK
  5
3AC
330
3AB
100
AcDbEntity
  8
0
100
AcDbBlockBegin
  2
block 3
 70
     0
 10
0.0
 20
0.0
 30
0.0
  3
block 3
  1
block 3
  0
INSERT
  5
3AD
330
3AB
100
AcDbEntity
  8
レイヤー 1
100
AcDbBlockReference
  2
block 4
 10
0.0
 20
0.0
 30
0.0
  0
ENDBLK
  5
3CA
330
3AB
100
AcDbEntity
  8
0
100
AcDbBlockEnd
  0
BLOCK
  5
3AF
330
3AE
100
AcDbEntity
  8
0
100
AcDbBlockBegin
  2
block 4
 70
     0
 10
0.0
 20
0.0
 30
0.0
  3
block 4
  1
block 4
  0
POLYLINE
  5
3B0
330
3AE
100
AcDbEntity
  8
レイヤー 1
370
     0
100
AcDb2dPolyline
 66
     1
 10
0.0
 20
0.0
 30
0.0
  0
VERTEX
  5
3B1
330
3B0
100
AcDbEntity
  8
レイヤー 1
370
     0
100
AcDbVertex
100
AcDb2dVertex
 10
83.79545727667795
 20
167.6444858234922
 30
0.0
  0
VERTEX
  5
3B2
330
3B0
100
AcDbEntity
  8
レイヤー 1
370
     0
100
AcDbVertex
100
AcDb2dVertex
 10
83.79545727667795
 20
159.7968976406313
 30
0.0
  0
VERTEX
  5
3B3
330
3B0
100
AcDbEntity
  8
レイヤー 1
370
     0
100
AcDbVertex
100
AcDb2dVertex
 10
71.3631329975216
 20
159.7968976406313
 30
0.0
  0
VERTEX
  5
3B4
330
3B0
100
AcDbEntity
  8
レイヤー 1
370
     0
100
AcDbVertex
100
AcDb2dVertex
 10
71.3631329975216
 20
127.8027915271048
 30
0.0
  0
VERTEX
  5
3B5
330
3B0
100
AcDbEntity
  8
レイヤー 1
370
     0
100
AcDbVertex
100
AcDb2dVertex
 10
60.43011526263018
 20
127.8027915271048
 30
0.0
  0
VERTEX
  5
3B6
330
3B0
100
AcDbEntity
  8
レイヤー 1
370
     0
100
AcDbVertex
100
AcDb2dVertex
 10
60.43011526263018
 20
159.7968976406313
 30
0.0
  0
VERTEX
  5
3B7
330
3B0
100
AcDbEntity
  8
レイヤー 1
370
     0
100
AcDbVertex
100
AcDb2dVertex
 10
48.21793273020759
 20
159.7968976406313
 30
0.0
  0
VERTEX
  5
3B8
330
3B0
100
AcDbEntity
  8
レイヤー 1
370
     0
100
AcDbVertex
100
AcDb2dVertex
 10
48.21793273020759
 20
167.6444858234922
 30
0.0
  0
VERTEX
  5
3B9
330
3B0
100
AcDbEntity
  8
レイヤー 1
370
     0
100
AcDbVertex
100
AcDb2dVertex
 10
83.79545727667795
 20
167.6444858234922
 30
0.0
  0
SEQEND
  5
3BA
330
3B0
100
AcDbEntity
  8
レイヤー 1
370
     0
  0
HATCH
  5
3BB
330
3AE
100
AcDbEntity
  8
レイヤー 1
 62
   250
420
  2234388
100
AcDbHatch
 10
0.0
 20
0.0
 30
0.0
210
0.0
220
0.0
230
1.0
  2
SOLID
 70
     1
 71
     0
 91
        1
 92
        1
 93
        8
 72
     1
 10
83.79545727667795
 20
167.6444858234922
 11
83.79545727667795
 21
159.7968976406313
 72
     1
 10
83.79545727667795
 20
159.7968976406313
 11
71.3631329975216
 21
159.7968976406313
 72
     1
 10
71.3631329975216
 20
159.7968976406313
 11
71.3631329975216
 21
127.8027915271048
 72
     1
 10
71.3631329975216
 20
127.8027915271048
 11
60.43011526263018
 21
127.8027915271048
 72
     1
 10
60.43011526263018
 20
127.8027915271048
 11
60.43011526263018
 21
159.7968976406313
 72
     1
 10
60.43011526263018
 20
159.7968976406313
 11
48.21793273020759
 21
159.7968976406313
 72
     1
 10
48.21793273020759
 20
159.7968976406313
 11
48.21793273020759
 21
167.6444858234922
 72
     1
 10
48.21793273020759
 20
167.6444858234922
 11
83.79545727667795
 21
167.6444858234922
 97
        0
 75
     2
 76
     1
 98
        0
  0
INSERT
  5
3BC
330
3AE
100
AcDbEntity
  8
レイヤー 1
100
AcDbBlockReference
  2
block 5
 10
0.0
 20
0.0
 30
0.0
  0
ENDBLK
  5
3C9
330
3AE
100
AcDbEntity
  8
0
100
AcDbBlockEnd
  0
BLOCK
  5
3BE
330
3BD
100
AcDbEntity
  8
0
100
AcDbBlockBegin
  2
block 5
 70
     0
 10
0.0
 20
0.0
 30
0.0
  3
block 5
  1
block 5
  0
SPLINE
  5
3BF
330
3BD
100
AcDbEntity
  8
レイヤー 1
370
     0
100
AcDbSpline
210
0.0
220
0.0
230
1.0
 70
    11
 71
     3
 72
    56
 73
    52
 74
     0
 42
0.000000001
 43
0.0000000001
 40
0.0
 40
0.0
 40
0.0
 40
0.0
 40
1.0
 40
1.0
 40
1.0
 40
2.0
 40
2.0
 40
2.0
 40
3.0
 40
3.0
 40
3.0
 40
4.0
 40
4.0
 40
4.0
 40
5.0
 40
5.0
 40
5.0
 40
6.0
 40
6.0
 40
6.0
 40
7.0
 40
7.0
 40
7.0
 40
8.0
 40
8.0
 40
8.0
 40
9.0
 40
9.0
 40
9.0
 40
10.0
 40
10.0
 40
10.0
 40
11.0
 40
11.0
 40
11.0
 40
12.0
 40
12.0
 40
12.0
 40
13.0
 40
13.0
 40
13.0
 40
14.0
 40
14.0
 40
14.0
 40
15.0
 40
15.0
 40
15.0
 40
16.0
 40
16.0
 40
16.0
 40
17.0
 40
17.0
 40
17.0
 40
17.0
 10
100.4504378777679
 20
166.69157178364
 30
0.0
 10
101.9848844191641
 20
167.1313385124438
 30
0.0
 10
103.9637485713373
 20
166.7649523658846
 30
0.0
 10
103.9637485713373
 20
166.7649523658846
 30
0.0
 10
103.9637485713373
 20
166.7649523658846
 30
0.0
 10
103.0132460999156
 20
163.911205638077
 30
0.0
 10
103.0132460999156
 20
163.911205638077
 30
0.0
 10
103.0132460999156
 20
163.911205638077
 30
0.0
 10
101.0674548862189
 20
164.3601018759394
 30
0.0
 10
99.57090442016032
 20
163.1805004036133
 30
0.0
 10
98.40508333886608
 20
162.258247733807
 30
0.0
 10
97.65301849830304
 20
159.804132345923
 30
0.0
 10
97.3598406791005
 20
158.8699940888517
 30
0.0
 10
97.3598406791005
 20
158.8699940888517
 30
0.0
 10
96.07137411762282
 20
154.9119212747295
 30
0.0
 10
96.07137411762282
 20
154.9119212747295
 30
0.0
 10
96.07137411762282
 20
154.9119212747295
 30
0.0
 10
100.3012651448482
 20
154.9119212747295
 30
0.0
 10
100.3012651448482
 20
154.9119212747295
 30
0.0
 10
100.3012651448482
 20
154.9119212747295
 30
0.0
 10
99.64152892419852
 20
152.4199098115079
 30
0.0
 10
99.64152892419852
 20
152.4199098115079
 30
0.0
 10
99.64152892419852
 20
152.4199098115079
 30
0.0
 10
95.38097652692731
 20
152.4199098115079
 30
0.0
 10
95.38097652692731
 20
152.4199098115079
 30
0.0
 10
95.38097652692731
 20
152.4199098115079
 30
0.0
 10
87.75353009080013
 20
127.8027915271048
 30
0.0
 10
87.75353009080013
 20
127.8027915271048
 30
0.0
 10
87.75353009080013
 20
127.8027915271048
 30
0.0
 10
85.36538832498108
 20
127.8027915271048
 30
0.0
 10
85.36538832498108
 20
127.8027915271048
 30
0.0
 10
85.36538832498108
 20
127.8027915271048
 30
0.0
 10
93.00006946639998
 20
152.4199098115079
 30
0.0
 10
93.00006946639998
 20
152.4199098115079
 30
0.0
 10
93.00006946639998
 20
152.4199098115079
 30
0.0
 10
89.85297266450198
 20
152.4199098115079
 30
0.0
 10
89.85297266450198
 20
152.4199098115079
 30
0.0
 10
89.85297266450198
 20
152.4199098115079
 30
0.0
 10
90.51270888515164
 20
154.9119212747295
 30
0.0
 10
90.51270888515164
 20
154.9119212747295
 30
0.0
 10
90.51270888515164
 20
154.9119212747295
 30
0.0
 10
93.6904670570955
 20
154.9119212747295
 30
0.0
 10
93.6904670570955
 20
154.9119212747295
 30
0.0
 10
93.6904670570955
 20
154.9119212747295
 30
0.0
 10
94.81598049462158
 20
158.3616699146644
 30
0.0
 10
94.81598049462158
 20
158.3616699146644
 30
0.0
 10
95.7237637538445
 20
161.2605474231013
 30
0.0
 10
96.4968436907311
 20
162.8139420021662
 30
0.0
 10
97.15657991138076
 20
163.9844139654337
 30
0.0
 10
97.81183750494507
 20
165.1523021053827
 30
0.0
 10
99.1047826935081
 20
166.3084769129547
 30
0.0
 10
100.4504378777679
 20
166.69157178364
 30
0.0
  0
HATCH
  5
3C0
330
3BD
100
AcDbEntity
  8
レイヤー 1
 62
   250
420
  2234388
100
AcDbHatch
 10
0.0
 20
0.0
 30
0.0
210
0.0
220
0.0
230
1.0
  2
SOLID
 70
     1
 71
     0
 91
        1
 92
        1
 93
        1
 72
     4
 94
        3
 73
     0
 74
     1
 95
       56
 96
       52
 40
0.0
 40
0.0
 40
0.0
 40
0.0
 40
1.0
 40
1.0
 40
1.0
 40
2.0
 40
2.0
 40
2.0
 40
3.0
 40
3.0
 40
3.0
 40
4.0
 40
4.0
 40
4.0
 40
5.0
 40
5.0
 40
5.0
 40
6.0
 40
6.0
 40
6.0
 40
7.0
 40
7.0
 40
7.0
 40
8.0
 40
8.0
 40
8.0
 40
9.0
 40
9.0
 40
9.0
 40
10.0
 40
10.0
 40
10.0
 40
11.0
 40
11.0
 40
11.0
 40
12.0
 40
12.0
 40
12.0
 40
13.0
 40
13.0
 40
13.0
 40
14.0
 40
14.0
 40
14.0
 40
15.0
 40
15.0
 40
15.0
 40
16.0
 40
16.0
 40
16.0
 40
17.0
 40
17.0
 40
17.0
 40
17.0
 10
100.4504378777679
 20
166.69157178364
 10
101.9848844191641
 20
167.1313385124438
 10
103.9637485713373
 20
166.7649523658846
 10
103.9637485713373
 20
166.7649523658846
 10
103.9637485713373
 20
166.7649523658846
 10
103.0132460999156
 20
163.911205638077
 10
103.0132460999156
 20
163.911205638077
 10
103.0132460999156
 20
163.911205638077
 10
101.0674548862189
 20
164.3601018759394
 10
99.57090442016032
 20
163.1805004036133
 10
98.40508333886608
 20
162.258247733807
 10
97.65301849830304
 20
159.804132345923
 10
97.3598406791005
 20
158.8699940888517
 10
97.3598406791005
 20
158.8699940888517
 10
96.07137411762282
 20
154.9119212747295
 10
96.07137411762282
 20
154.9119212747295
 10
96.07137411762282
 20
154.9119212747295
 10
100.3012651448482
 20
154.9119212747295
 10
100.3012651448482
 20
154.9119212747295
 10
100.3012651448482
 20
154.9119212747295
 10
99.64152892419852
 20
152.4199098115079
 10
99.64152892419852
 20
152.4199098115079
 10
99.64152892419852
 20
152.4199098115079
 10
95.38097652692731
 20
152.4199098115079
 10
95.38097652692731
 20
152.4199098115079
 10
95.38097652692731
 20
152.4199098115079
 10
87.75353009080013
 20
127.8027915271048
 10
87.75353009080013
 20
127.8027915271048
 10
87.75353009080013
 20
127.8027915271048
 10
85.36538832498108
 20
127.8027915271048
 10
85.36538832498108
 20
127.8027915271048
 10
85.36538832498108
 20
127.8027915271048
 10
93.00006946639998
 20
152.4199098115079
 10
93.00006946639998
 20
152.4199098115079
 10
93.00006946639998
 20
152.4199098115079
 10
89.85297266450198
 20
152.4199098115079
 10
89.85297266450198
 20
152.4199098115079
 10
89.85297266450198
 20
152.4199098115079
 10
90.51270888515164
 20
154.9119212747295
 10
90.51270888515164
 20
154.9119212747295
 10
90.51270888515164
 20
154.9119212747295
 10
93.6904670570955
 20
154.9119212747295
 10
93.6904670570955
 20
154.9119212747295
 10
93.6904670570955
 20
154.9119212747295
 10
94.81598049462158
 20
158.3616699146644
 10
94.81598049462158
 20
158.3616699146644
 10
95.7237637538445
 20
161.2605474231013
 10
96.4968436907311
 20
162.8139420021662
 10
97.15657991138076
 20
163.9844139654337
 10
97.81183750494507
 20
165.1523021053827
 10
99.1047826935081
 20
166.3084769129547
 10
100.4504378777679
 20
166.69157178364
 97
        0
 75
     2
 76
     1
 98
        0
  0
SPLINE
  5
3C1
330
3BD
100
AcDbEntity
  8
レイヤー 1
370
     0
100
AcDbSpline
210
0.0
220
0.0
230
1.0
 70
    11
 71
     3
 72
    38
 73
    34
 74
     0
 42
0.000000001
 43
0.0000000001
 40
0.0
 40
0.0
 40
0.0
 40
0.0
 40
1.0
 40
1.0
 40
1.0
 40
2.0
 40
2.0
 40
2.0
 40
3.0
 40
3.0
 40
3.0
 40
4.0
 40
4.0
 40
4.0
 40
5.0
 40
5.0
 40
5.0
 40
6.0
 40
6.0
 40
6.0
 40
7.0
 40
7.0
 40
7.0
 40
8.0
 40
8.0
 40
8.0
 40
9.0
 40
9.0
 40
9.0
 40
10.0
 40
10.0
 40
10.0
 40
11.0
 40
11.0
 40
11.0
 40
11.0
 10
126.377554584636
 20
154.8151140277308
 30
0.0
 10
126.377554584636
 20
154.8151140277308
 30
0.0
 10
128.8311532078563
 20
154.8151140277308
 30
0.0
 10
128.8311532078563
 20
154.8151140277308
 30
0.0
 10
128.8311532078563
 20
154.8151140277308
 30
0.0
 10
127.7345785914971
 20
151.3062819612468
 30
0.0
 10
127.7345785914971
 20
151.3062819612468
 30
0.0
 10
128.571392836906
 20
152.2922689395754
 30
0.0
 10
129.8860421413442
 20
153.604506675583
 30
0.0
 10
131.0163787157314
 20
154.2664822097754
 30
0.0
 10
132.7044766171327
 20
155.2500576196734
 30
0.0
 10
133.6642808525008
 20
155.3847609420097
 30
0.0
 10
134.7284715499351
 20
155.3565111403944
 30
0.0
 10
134.7284715499351
 20
155.3565111403944
 30
0.0
 10
133.6877075172549
 20
152.0345756272799
 30
0.0
 10
133.6877075172549
 20
152.0345756272799
 30
0.0
 10
133.011434827367
 20
152.3184516825359
 30
0.0
 10
130.930940291334
 20
151.7768823149844
 30
0.0
 10
129.739280976855
 20
150.9162968950455
 30
0.0
 10
128.66613302525
 20
150.1454562717016
 30
0.0
 10
127.9192358313239
 20
149.4857200510519
 30
0.0
 10
127.0393578639405
 20
147.8282835196966
 30
0.0
 10
126.164647543194
 20
146.1699857139017
 30
0.0
 10
125.4742499524985
 20
143.5262176944419
 30
0.0
 10
124.2822461282437
 20
139.6959580071401
 30
0.0
 10
124.2822461282437
 20
139.6959580071401
 30
0.0
 10
120.5753209406769
 20
127.8027915271048
 30
0.0
 10
120.5753209406769
 20
127.8027915271048
 30
0.0
 10
120.5753209406769
 20
127.8027915271048
 30
0.0
 10
118.1964809388044
 20
127.8027915271048
 30
0.0
 10
118.1964809388044
 20
127.8027915271048
 30
0.0
 10
118.1964809388044
 20
127.8027915271048
 30
0.0
 10
126.377554584636
 20
154.8151140277308
 30
0.0
 10
126.377554584636
 20
154.8151140277308
 30
0.0
  0
HATCH
  5
3C2
330
3BD
100
AcDbEntity
  8
レイヤー 1
 62
   250
420
  2234388
100
AcDbHatch
 10
0.0
 20
0.0
 30
0.0
210
0.0
220
0.0
230
1.0
  2
SOLID
 70
     1
 71
     0
 91
        1
 92
        1
 93
        1
 72
     4
 94
        3
 73
     0
 74
     1
 95
       38
 96
       34
 40
0.0
 40
0.0
 40
0.0
 40
0.0
 40
1.0
 40
1.0
 40
1.0
 40
2.0
 40
2.0
 40
2.0
 40
3.0
 40
3.0
 40
3.0
 40
4.0
 40
4.0
 40
4.0
 40
5.0
 40
5.0
 40
5.0
 40
6.0
 40
6.0
 40
6.0
 40
7.0
 40
7.0
 40
7.0
 40
8.0
 40
8.0
 40
8.0
 40
9.0
 40
9.0
 40
9.0
 40
10.0
 40
10.0
 40
10.0
 40
11.0
 40
11.0
 40
11.0
 40
11.0
 10
126.377554584636
 20
154.8151140277308
 10
126.377554584636
 20
154.8151140277308
 10
128.8311532078563
 20
154.8151140277308
 10
128.8311532078563
 20
154.8151140277308
 10
128.8311532078563
 20
154.8151140277308
 10
127.7345785914971
 20
151.3062819612468
 10
127.7345785914971
 20
151.3062819612468
 10
128.571392836906
 20
152.2922689395754
 10
129.8860421413442
 20
153.604506675583
 10
131.0163787157314
 20
154.2664822097754
 10
132.7044766171327
 20
155.2500576196734
 10
133.6642808525008
 20
155.3847609420097
 10
134.7284715499351
 20
155.3565111403944
 10
134.7284715499351
 20
155.3565111403944
 10
133.6877075172549
 20
152.0345756272799
 10
133.6877075172549
 20
152.0345756272799
 10
133.011434827367
 20
152.3184516825359
 10
130.930940291334
 20
151.7768823149844
 10
129.739280976855
 20
150.9162968950455
 10
128.66613302525
 20
150.1454562717016
 10
127.9192358313239
 20
149.4857200510519
 10
127.0393578639405
 20
147.8282835196966
 10
126.164647543194
 20
146.1699857139017
 10
125.4742499524985
 20
143.5262176944419
 10
124.2822461282437
 20
139.6959580071401
 10
124.2822461282437
 20
139.6959580071401
 10
120.5753209406769
 20
127.8027915271048
 10
120.5753209406769
 20
127.8027915271048
 10
120.5753209406769
 20
127.8027915271048
 10
118.1964809388044
 20
127.8027915271048
 10
118.1964809388044
 20
127.8027915271048
 10
118.1964809388044
 20
127.8027915271048
 10
126.377554584636
 20
154.8151140277308
 10
126.377554584636
 20
154.8151140277308
 97
        0
 75
     2
 76
     1
 98
        0
  0
SPLINE
  5
3C3
330
3BD
100
AcDbEntity
  8
レイヤー 1
370
     0
100
AcDbSpline
210
0.0
220
0.0
230
1.0
 70
    11
 71
     3
 72
   104
 73
   100
 74
     0
 42
0.000000001
 43
0.0000000001
 40
0.0
 40
0.0
 40
0.0
 40
0.0
 40
1.0
 40
1.0
 40
1.0
 40
2.0
 40
2.0
 40
2.0
 40
3.0
 40
3.0
 40
3.0
 40
4.0
 40
4.0
 40
4.0
 40
5.0
 40
5.0
 40
5.0
 40
6.0
 40
6.0
 40
6.0
 40
7.0
 40
7.0
 40
7.0
 40
8.0
 40
8.0
 40
8.0
 40
9.0
 40
9.0
 40
9.0
 40
10.0
 40
10.0
 40
10.0
 40
11.0
 40
11.0
 40
11.0
 40
12.0
 40
12.0
 40
12.0
 40
13.0
 40
13.0
 40
13.0
 40
14.0
 40
14.0
 40
14.0
 40
15.0
 40
15.0
 40
15.0
 40
16.0
 40
16.0
 40
16.0
 40
17.0
 40
17.0
 40
17.0
 40
18.0
 40
18.0
 40
18.0
 40
19.0
 40
19.0
 40
19.0
 40
20.0
 40
20.0
 40
20.0
 40
21.0
 40
21.0
 40
21.0
 40
22.0
 40
22.0
 40
22.0
 40
23.0
 40
23.0
 40
23.0
 40
24.0
 40
24.0
 40
24.0
 40
25.0
 40
25.0
 40
25.0
 40
26.0
 40
26.0
 40
26.0
 40
27.0
 40
27.0
 40
27.0
 40
28.0
 40
28.0
 40
28.0
 40
29.0
 40
29.0
 40
29.0
 40
30.0
 40
30.0
 40
30.0
 40
31.0
 40
31.0
 40
31.0
 40
32.0
 40
32.0
 40
32.0
 40
33.0
 40
33.0
 40
33.0
 40
33.0
 10
139.8926730891197
 20
154.8294111834263
 30
0.0
 10
139.8926730891197
 20
154.8294111834263
 30
0.0
 10
142.0344903652445
 20
154.8294111834263
 30
0.0
 10
142.0344903652445
 20
154.8294111834263
 30
0.0
 10
142.0344903652445
 20
154.8294111834263
 30
0.0
 10
140.9516961399171
 20
151.3157559800812
 30
0.0
 10
140.9516961399171
 20
151.3157559800812
 30
0.0
 10
141.8928968473923
 20
152.7887075264977
 30
0.0
 10
142.7341897198865
 20
153.4484437471474
 30
0.0
 10
143.8552245303272
 20
154.2926649527359
 30
0.0
 10
144.9803934580775
 20
155.1296514530327
 30
0.0
 10
146.3139908001845
 20
155.3044901642492
 30
0.0
 10
147.241066606852
 20
155.3044901642492
 30
0.0
 10
148.3855280820469
 20
155.3044901642492
 30
0.0
 10
149.4969166187653
 20
155.0752189084569
 30
0.0
 10
150.0784491203092
 20
153.8172414621372
 30
0.0
 10
150.5228667310863
 20
152.833838307127
 30
0.0
 10
150.5414702589793
 20
152.7201500811143
 30
0.0
 10
150.4140016419347
 20
150.7765981809602
 30
0.0
 10
151.5818897818837
 20
152.7699317437168
 30
0.0
 10
152.4424752018226
 20
153.6256940267945
 30
0.0
 10
153.9038856707499
 20
154.4507949398263
 30
0.0
 10
155.4455669174378
 20
155.3044901642492
 30
0.0
 10
156.339225275853
 20
155.3659851592288
 30
0.0
 10
157.3748216618963
 20
155.2147453676543
 30
0.0
 10
158.911679771723
 20
154.9877134254046
 30
0.0
 10
159.8859534176746
 20
154.4390816074493
 30
0.0
 10
160.3965169054045
 20
152.7816450760939
 30
0.0
 10
160.9070803931344
 20
151.1219692311958
 30
0.0
 10
160.6328506116007
 20
150.2303779314354
 30
0.0
 10
159.9992971339115
 20
147.597634224801
 30
0.0
 10
159.7105979417943
 20
146.4014962832367
 30
0.0
 10
159.2947746424084
 20
144.9400858143094
 30
0.0
 10
158.7463150793409
 20
143.2092687007094
 30
0.0
 10
158.7463150793409
 20
143.2092687007094
 30
0.0
 10
153.9038856707499
 20
127.8027915271048
 30
0.0
 10
153.9038856707499
 20
127.8027915271048
 30
0.0
 10
153.9038856707499
 20
127.8027915271048
 30
0.0
 10
151.3882752878863
 20
127.8027915271048
 30
0.0
 10
151.3882752878863
 20
127.8027915271048
 30
0.0
 10
151.3882752878863
 20
127.8027915271048
 30
0.0
 10
155.6250565106276
 20
141.2751908193897
 30
0.0
 10
155.6250565106276
 20
141.2751908193897
 30
0.0
 10
156.5094131050963
 20
144.0936252951782
 30
0.0
 10
157.109893644309
 20
146.1506931664571
 30
0.0
 10
157.4220195011804
 20
147.4415712963654
 30
0.0
 10
157.8095929989511
 20
149.0530157726519
 30
0.0
 10
157.9656559273867
 20
149.5826995529385
 30
0.0
 10
157.7816877071116
 20
150.7529992613181
 30
0.0
 10
157.6111553680925
 20
151.8430281919372
 30
0.0
 10
157.0582171779396
 20
152.5547853887321
 30
0.0
 10
156.1170164704645
 20
152.5547853887321
 30
0.0
 10
155.1096698860365
 20
152.5547853887321
 30
0.0
 10
154.2962823053817
 20
152.4412694176073
 30
0.0
 10
153.156643967048
 20
151.2945686288697
 30
0.0
 10
152.0170056287143
 20
150.1476955852443
 30
0.0
 10
151.076149431015
 20
148.7930831468137
 30
0.0
 10
150.3337308641742
 20
147.2290087646991
 30
0.0
 10
149.5957909244188
 20
145.6683794803425
 30
0.0
 10
148.8530278478023
 20
143.6822806228776
 30
0.0
 10
148.0964843801539
 20
141.2751908193897
 30
0.0
 10
148.0964843801539
 20
141.2751908193897
 30
0.0
 10
143.8552245303272
 20
127.8027915271048
 30
0.0
 10
143.8552245303272
 20
127.8027915271048
 30
0.0
 10
143.8552245303272
 20
127.8027915271048
 30
0.0
 10
141.486030802177
 20
127.8027915271048
 30
0.0
 10
141.486030802177
 20
127.8027915271048
 30
0.0
 10
141.486030802177
 20
127.8027915271048
 30
0.0
 10
146.3329388378533
 20
143.2092687007094
 30
0.0
 10
146.3329388378533
 20
143.2092687007094
 30
0.0
 10
146.8483254624444
 20
144.8408669988801
 30
0.0
 10
147.2314203331297
 20
146.1837661049335
 30
0.0
 10
147.4867020769946
 20
147.224185627838
 30
0.0
 10
147.9169947869641
 20
149.0197705792876
 30
0.0
 10
148.0306830129768
 20
150.2400242051577
 30
0.0
 10
147.709255392159
 20
151.3157559800812
 30
0.0
 10
147.3874832615654
 20
152.3916600098926
 30
0.0
 10
146.8245542879144
 20
152.6683013598569
 30
0.0
 10
145.8840425999909
 20
152.6683013598569
 30
0.0
 10
145.0989048209514
 20
152.6683013598569
 30
0.0
 10
144.3282364524954
 20
152.3275811915945
 30
0.0
 10
143.4531816219731
 20
151.6538923250251
 30
0.0
 10
142.34627171234
 20
150.8074318058939
 30
0.0
 10
141.901854101563
 20
150.1097995099067
 30
0.0
 10
141.3578731655808
 20
149.289521733736
 30
0.0
 10
140.6299240093235
 20
148.192602607601
 30
0.0
 10
140.2850697237515
 20
147.455696197173
 30
0.0
 10
139.6652966370942
 20
145.8385673095858
 30
0.0
 10
139.0506911970739
 20
144.2214384219986
 30
0.0
 10
138.463991048893
 20
142.3252566160164
 30
0.0
 10
138.0571250036777
 20
141.0154304484394
 30
0.0
 10
138.0571250036777
 20
141.0154304484394
 30
0.0
 10
133.9009590684727
 20
127.8027915271048
 30
0.0
 10
133.9009590684727
 20
127.8027915271048
 30
0.0
 10
133.9009590684727
 20
127.8027915271048
 30
0.0
 10
131.4180771143097
 20
127.8027915271048
 30
0.0
 10
131.4180771143097
 20
127.8027915271048
 30
0.0
 10
131.4180771143097
 20
127.8027915271048
 30
0.0
 10
139.8926730891197
 20
154.8294111834263
 30
0.0
 10
139.8926730891197
 20
154.8294111834263
 30
0.0
  0
HATCH
  5
3C4
330
3BD
100
AcDbEntity
  8
レイヤー 1
 62
   250
420
  2234388
100
AcDbHatch
 10
0.0
 20
0.0
 30
0.0
210
0.0
220
0.0
230
1.0
  2
SOLID
 70
     1
 71
     0
 91
        1
 92
        1
 93
        1
 72
     4
 94
        3
 73
     0
 74
     1
 95
      104
 96
      100
 40
0.0
 40
0.0
 40
0.0
 40
0.0
 40
1.0
 40
1.0
 40
1.0
 40
2.0
 40
2.0
 40
2.0
 40
3.0
 40
3.0
 40
3.0
 40
4.0
 40
4.0
 40
4.0
 40
5.0
 40
5.0
 40
5.0
 40
6.0
 40
6.0
 40
6.0
 40
7.0
 40
7.0
 40
7.0
 40
8.0
 40
8.0
 40
8.0
 40
9.0
 40
9.0
 40
9.0
 40
10.0
 40
10.0
 40
10.0
 40
11.0
 40
11.0
 40
11.0
 40
12.0
 40
12.0
 40
12.0
 40
13.0
 40
13.0
 40
13.0
 40
14.0
 40
14.0
 40
14.0
 40
15.0
 40
15.0
 40
15.0
 40
16.0
 40
16.0
 40
16.0
 40
17.0
 40
17.0
 40
17.0
 40
18.0
 40
18.0
 40
18.0
 40
19.0
 40
19.0
 40
19.0
 40
20.0
 40
20.0
 40
20.0
 40
21.0
 40
21.0
 40
21.0
 40
22.0
 40
22.0
 40
22.0
 40
23.0
 40
23.0
 40
23.0
 40
24.0
 40
24.0
 40
24.0
 40
25.0
 40
25.0
 40
25.0
 40
26.0
 40
26.0
 40
26.0
 40
27.0
 40
27.0
 40
27.0
 40
28.0
 40
28.0
 40
28.0
 40
29.0
 40
29.0
 40
29.0
 40
30.0
 40
30.0
 40
30.0
 40
31.0
 40
31.0
 40
31.0
 40
32.0
 40
32.0
 40
32.0
 40
33.0
 40
33.0
 40
33.0
 40
33.0
 10
139.8926730891197
 20
154.8294111834263
 10
139.8926730891197
 20
154.8294111834263
 10
142.0344903652445
 20
154.8294111834263
 10
142.0344903652445
 20
154.8294111834263
 10
142.0344903652445
 20
154.8294111834263
 10
140.9516961399171
 20
151.3157559800812
 10
140.9516961399171
 20
151.3157559800812
 10
141.8928968473923
 20
152.7887075264977
 10
142.7341897198865
 20
153.4484437471474
 10
143.8552245303272
 20
154.2926649527359
 10
144.9803934580775
 20
155.1296514530327
 10
146.3139908001845
 20
155.3044901642492
 10
147.241066606852
 20
155.3044901642492
 10
148.3855280820469
 20
155.3044901642492
 10
149.4969166187653
 20
155.0752189084569
 10
150.0784491203092
 20
153.8172414621372
 10
150.5228667310863
 20
152.833838307127
 10
150.5414702589793
 20
152.7201500811143
 10
150.4140016419347
 20
150.7765981809602
 10
151.5818897818837
 20
152.7699317437168
 10
152.4424752018226
 20
153.6256940267945
 10
153.9038856707499
 20
154.4507949398263
 10
155.4455669174378
 20
155.3044901642492
 10
156.339225275853
 20
155.3659851592288
 10
157.3748216618963
 20
155.2147453676543
 10
158.911679771723
 20
154.9877134254046
 10
159.8859534176746
 20
154.4390816074493
 10
160.3965169054045
 20
152.7816450760939
 10
160.9070803931344
 20
151.1219692311958
 10
160.6328506116007
 20
150.2303779314354
 10
159.9992971339115
 20
147.597634224801
 10
159.7105979417943
 20
146.4014962832367
 10
159.2947746424084
 20
144.9400858143094
 10
158.7463150793409
 20
143.2092687007094
 10
158.7463150793409
 20
143.2092687007094
 10
153.9038856707499
 20
127.8027915271048
 10
153.9038856707499
 20
127.8027915271048
 10
153.9038856707499
 20
127.8027915271048
 10
151.3882752878863
 20
127.8027915271048
 10
151.3882752878863
 20
127.8027915271048
 10
151.3882752878863
 20
127.8027915271048
 10
155.6250565106276
 20
141.2751908193897
 10
155.6250565106276
 20
141.2751908193897
 10
156.5094131050963
 20
144.0936252951782
 10
157.109893644309
 20
146.1506931664571
 10
157.4220195011804
 20
147.4415712963654
 10
157.8095929989511
 20
149.0530157726519
 10
157.9656559273867
 20
149.5826995529385
 10
157.7816877071116
 20
150.7529992613181
 10
157.6111553680925
 20
151.8430281919372
 10
157.0582171779396
 20
152.5547853887321
 10
156.1170164704645
 20
152.5547853887321
 10
155.1096698860365
 20
152.5547853887321
 10
154.2962823053817
 20
152.4412694176073
 10
153.156643967048
 20
151.2945686288697
 10
152.0170056287143
 20
150.1476955852443
 10
151.076149431015
 20
148.7930831468137
 10
150.3337308641742
 20
147.2290087646991
 10
149.5957909244188
 20
145.6683794803425
 10
148.8530278478023
 20
143.6822806228776
 10
148.0964843801539
 20
141.2751908193897
 10
148.0964843801539
 20
141.2751908193897
 10
143.8552245303272
 20
127.8027915271048
 10
143.8552245303272
 20
127.8027915271048
 10
143.8552245303272
 20
127.8027915271048
 10
141.486030802177
 20
127.8027915271048
 10
141.486030802177
 20
127.8027915271048
 10
141.486030802177
 20
127.8027915271048
 10
146.3329388378533
 20
143.2092687007094
 10
146.3329388378533
 20
143.2092687007094
 10
146.8483254624444
 20
144.8408669988801
 10
147.2314203331297
 20
146.1837661049335
 10
147.4867020769946
 20
147.224185627838
 10
147.9169947869641
 20
149.0197705792876
 10
148.0306830129768
 20
150.2400242051577
 10
147.709255392159
 20
151.3157559800812
 10
147.3874832615654
 20
152.3916600098926
 10
146.8245542879144
 20
152.6683013598569
 10
145.8840425999909
 20
152.6683013598569
 10
145.0989048209514
 20
152.6683013598569
 10
144.3282364524954
 20
152.3275811915945
 10
143.4531816219731
 20
151.6538923250251
 10
142.34627171234
 20
150.8074318058939
 10
141.901854101563
 20
150.1097995099067
 10
141.3578731655808
 20
149.289521733736
 10
140.6299240093235
 20
148.192602607601
 10
140.2850697237515
 20
147.455696197173
 10
139.6652966370942
 20
145.8385673095858
 10
139.0506911970739
 20
144.2214384219986
 10
138.463991048893
 20
142.3252566160164
 10
138.0571250036777
 20
141.0154304484394
 10
138.0571250036777
 20
141.0154304484394
 10
133.9009590684727
 20
127.8027915271048
 10
133.9009590684727
 20
127.8027915271048
 10
133.9009590684727
 20
127.8027915271048
 10
131.4180771143097
 20
127.8027915271048
 10
131.4180771143097
 20
127.8027915271048
 10
131.4180771143097
 20
127.8027915271048
 10
139.8926730891197
 20
154.8294111834263
 10
139.8926730891197
 20
154.8294111834263
 97
        0
 75
     2
 76
     1
 98
        0
  0
SPLINE
  5
3C5
330
3BD
100
AcDbEntity
  8
レイヤー 1
370
     0
100
AcDbSpline
210
0.0
220
0.0
230
1.0
 70
    11
 71
     3
 72
    29
 73
    25
 74
     0
 42
0.000000001
 43
0.0000000001
 40
0.0
 40
0.0
 40
0.0
 40
0.0
 40
1.0
 40
1.0
 40
1.0
 40
2.0
 40
2.0
 40
2.0
 40
3.0
 40
3.0
 40
3.0
 40
4.0
 40
4.0
 40
4.0
 40
5.0
 40
5.0
 40
5.0
 40
6.0
 40
6.0
 40
6.0
 40
7.0
 40
7.0
 40
7.0
 40
8.0
 40
8.0
 40
8.0
 40
8.0
 10
101.6420971922469
 20
132.8388354296931
 30
0.0
 10
101.630039350094
 20
134.7164137077823
 30
0.0
 10
102.2236296937908
 20
138.0598810818841
 30
0.0
 10
103.7487744712405
 20
142.5378191476827
 30
0.0
 10
105.819967243327
 20
148.5896501242061
 30
0.0
 10
107.0602024361932
 20
150.8074318058939
 30
0.0
 10
108.1522984254671
 20
151.8833358357054
 30
0.0
 10
109.741177511439
 20
153.4532668840085
 30
0.0
 10
111.8740375333931
 20
153.5290590346837
 30
0.0
 10
112.5075910110823
 20
153.4532668840085
 30
0.0
 10
113.4012493694975
 20
153.3490526768302
 30
0.0
 10
114.6683563248758
 20
152.7580461564518
 30
0.0
 10
114.7493161221879
 20
150.7838328862519
 30
0.0
 10
114.8106388622796
 20
149.0909118479895
 30
0.0
 10
114.3186789024427
 20
145.9191825971221
 30
0.0
 10
112.6164561002338
 20
140.9489400617108
 30
0.0
 10
110.6444821435766
 20
135.1746117095912
 30
0.0
 10
109.4669477299053
 20
132.8960240524753
 30
0.0
 10
108.5212683953448
 20
131.9072809959403
 30
0.0
 10
106.7346406980658
 20
130.0538184021569
 30
0.0
 10
104.8222669326213
 20
130.2336525051225
 30
0.0
 10
104.5408024457958
 20
130.2336525051225
 30
0.0
 10
104.1721769856939
 20
130.2336525051225
 30
0.0
 10
101.6465758193322
 20
130.6305277668397
 30
0.0
 10
101.6420971922469
 20
132.8388354296931
 30
0.0
  0
SPLINE
  5
3C6
330
3BD
100
AcDbEntity
  8
レイヤー 1
370
     0
100
AcDbSpline
210
0.0
220
0.0
230
1.0
 70
    11
 71
     3
 72
    32
 73
    28
 74
     0
 42
0.000000001
 43
0.0000000001
 40
0.0
 40
0.0
 40
0.0
 40
0.0
 40
1.0
 40
1.0
 40
1.0
 40
2.0
 40
2.0
 40
2.0
 40
3.0
 40
3.0
 40
3.0
 40
4.0
 40
4.0
 40
4.0
 40
5.0
 40
5.0
 40
5.0
 40
6.0
 40
6.0
 40
6.0
 40
7.0
 40
7.0
 40
7.0
 40
8.0
 40
8.0
 40
8.0
 40
9.0
 40
9.0
 40
9.0
 40
9.0
 10
106.2595617172429
 20
153.4105476718098
 30
0.0
 10
104.8222669326213
 20
151.5474388043041
 30
0.0
 10
103.7177685914188
 20
149.8758773721411
 30
0.0
 10
101.9232171692965
 20
144.6141795664062
 30
0.0
 10
100.2754269116635
 20
139.7999999594306
 30
0.0
 10
99.22777268346732
 20
136.3052927937542
 30
0.0
 10
99.06964269637689
 20
132.039572749846
 30
0.0
 10
98.94665270641765
 20
128.8673267343149
 30
0.0
 10
100.8807305877373
 20
127.8027915271048
 30
0.0
 10
103.7129454545577
 20
127.8027915271048
 30
0.0
 10
104.9352661390825
 20
127.8027915271048
 30
0.0
 10
108.0151835347002
 20
127.8827177950895
 30
0.0
 10
110.2045431598849
 20
130.5926316915021
 30
0.0
 10
111.7417457794874
 20
132.4984597712065
 30
0.0
 10
113.155269389579
 20
134.475256864725
 30
0.0
 10
115.0562743324223
 20
140.9489400617108
 30
0.0
 10
116.6361961642235
 20
146.3680788349845
 30
0.0
 10
117.7282921534974
 20
149.8639917848761
 30
0.0
 10
117.6480213757369
 20
151.8595646611754
 30
0.0
 10
117.6480213757369
 20
151.8595646611754
 30
0.0
 10
117.6480213757369
 20
151.8595646611754
 30
0.0
 10
117.6480213757369
 20
151.8595646611754
 30
0.0
 10
117.13229024137
 20
155.18150017429
 30
0.0
 10
114.7162431837115
 20
155.886194920681
 30
0.0
 10
113.3351034925446
 20
155.886194920681
 30
0.0
 10
111.9829026225447
 20
155.886194920681
 30
0.0
 10
108.3414342923792
 20
156.1251124501957
 30
0.0
 10
106.2595617172429
 20
153.4105476718098
 30
0.0
  0
HATCH
  5
3C7
330
3BD
100
AcDbEntity
  8
レイヤー 1
 62
   250
420
  2234388
100
AcDbHatch
 10
0.0
 20
0.0
 30
0.0
210
0.0
220
0.0
230
1.0
  2
SOLID
 70
     1
 71
     0
 91
        2
 92
        1
 93
        1
 72
     4
 94
        3
 73
     0
 74
     1
 95
       29
 96
       25
 40
0.0
 40
0.0
 40
0.0
 40
0.0
 40
1.0
 40
1.0
 40
1.0
 40
2.0
 40
2.0
 40
2.0
 40
3.0
 40
3.0
 40
3.0
 40
4.0
 40
4.0
 40
4.0
 40
5.0
 40
5.0
 40
5.0
 40
6.0
 40
6.0
 40
6.0
 40
7.0
 40
7.0
 40
7.0
 40
8.0
 40
8.0
 40
8.0
 40
8.0
 10
101.6420971922469
 20
132.8388354296931
 10
101.630039350094
 20
134.7164137077823
 10
102.2236296937908
 20
138.0598810818841
 10
103.7487744712405
 20
142.5378191476827
 10
105.819967243327
 20
148.5896501242061
 10
107.0602024361932
 20
150.8074318058939
 10
108.1522984254671
 20
151.8833358357054
 10
109.741177511439
 20
153.4532668840085
 10
111.8740375333931
 20
153.5290590346837
 10
112.5075910110823
 20
153.4532668840085
 10
113.4012493694975
 20
153.3490526768302
 10
114.6683563248758
 20
152.7580461564518
 10
114.7493161221879
 20
150.7838328862519
 10
114.8106388622796
 20
149.0909118479895
 10
114.3186789024427
 20
145.9191825971221
 10
112.6164561002338
 20
140.9489400617108
 10
110.6444821435766
 20
135.1746117095912
 10
109.4669477299053
 20
132.8960240524753
 10
108.5212683953448
 20
131.9072809959403
 10
106.7346406980658
 20
130.0538184021569
 10
104.8222669326213
 20
130.2336525051225
 10
104.5408024457958
 20
130.2336525051225
 10
104.1721769856939
 20
130.2336525051225
 10
101.6465758193322
 20
130.6305277668397
 10
101.6420971922469
 20
132.8388354296931
 97
        0
 92
        1
 93
        1
 72
     4
 94
        3
 73
     0
 74
     1
 95
       32
 96
       28
 40
0.0
 40
0.0
 40
0.0
 40
0.0
 40
1.0
 40
1.0
 40
1.0
 40
2.0
 40
2.0
 40
2.0
 40
3.0
 40
3.0
 40
3.0
 40
4.0
 40
4.0
 40
4.0
 40
5.0
 40
5.0
 40
5.0
 40
6.0
 40
6.0
 40
6.0
 40
7.0
 40
7.0
 40
7.0
 40
8.0
 40
8.0
 40
8.0
 40
9.0
 40
9.0
 40
9.0
 40
9.0
 10
106.2595617172429
 20
153.4105476718098
 10
104.8222669326213
 20
151.5474388043041
 10
103.7177685914188
 20
149.8758773721411
 10
101.9232171692965
 20
144.6141795664062
 10
100.2754269116635
 20
139.7999999594306
 10
99.22777268346732
 20
136.3052927937542
 10
99.06964269637689
 20
132.039572749846
 10
98.94665270641765
 20
128.8673267343149
 10
100.8807305877373
 20
127.8027915271048
 10
103.7129454545577
 20
127.8027915271048
 10
104.9352661390825
 20
127.8027915271048
 10
108.0151835347002
 20
127.8827177950895
 10
110.2045431598849
 20
130.5926316915021
 10
111.7417457794874
 20
132.4984597712065
 10
113.155269389579
 20
134.475256864725
 10
115.0562743324223
 20
140.9489400617108
 10
116.6361961642235
 20
146.3680788349845
 10
117.7282921534974
 20
149.8639917848761
 10
117.6480213757369
 20
151.8595646611754
 10
117.6480213757369
 20
151.8595646611754
 10
117.6480213757369
 20
151.8595646611754
 10
117.6480213757369
 20
151.8595646611754
 10
117.13229024137
 20
155.18150017429
 10
114.7162431837115
 20
155.886194920681
 10
113.3351034925446
 20
155.886194920681
 10
111.9829026225447
 20
155.886194920681
 10
108.3414342923792
 20
156.1251124501957
 10
106.2595617172429
 20
153.4105476718098
 97
        0
 75
     2
 76
     1
 98
        0
  0
ENDBLK
  5
3C8
330
3BD
100
AcDbEntity
  8
0
100
AcDbBlockEnd
  0
BLOCK
  5
11F1
330
11F0
100
AcDbEntity
  8
0
100
AcDbBlockBegin
  2
BLOCK_2
 70
     0
 10
0.0
 20
0.0
 30
0.0
  3
BLOCK_2
  1
BLOCK_2
  0
ENDBLK
  5
11F2
330
11F0
100
AcDbEntity
  8
0
100
AcDbBlockEnd
  0
BLOCK
  5
2475
330
2474
100
AcDbEntity
  8
0
100
AcDbBlockBegin
  2
*D275
 70
     1
 10
0.0
 20
0.0
 30
0.0
  3
*D275
  1
*D275
  0
LINE
  5
2477
330
2474
100
AcDbEntity
  8
Dim
 62
     0
370
    -2
100
AcDbLine
 10
1021.587318976245
 20
1395.609723506831
 30
0.0
 11
1096.587318976246
 21
1395.609723506831
 31
0.0
  0
LINE
  5
2478
330
2474
100
AcDbEntity
  8
Dim
 62
     0
370
    -2
100
AcDbLine
 10
1021.587318976245
 20
865.6097235068312
 30
0.0
 11
1096.587318976246
 21
865.6097235068312
 31
0.0
  0
LINE
  5
2479
330
2474
100
AcDbEntity
  8
Dim
 62
     0
370
    -2
100
AcDbLine
 10
1096.587318976246
 20
1389.609723506831
 30
0.0
 11
1096.587318976246
 21
871.6097235068312
 31
0.0
  0
INSERT
  5
247A
330
2474
100
AcDbEntity
  8
Dim
 62
     0
370
    -2
100
AcDbBlockReference
  2
_DOT
 10
1096.587318976246
 20
1395.609723506831
 30
0.0
 41
6.0
 42
6.0
 43
6.0
 50
90.0
  0
INSERT
  5
247B
330
2474
100
AcDbEntity
  8
Dim
 62
     0
370
    -2
100
AcDbBlockReference
  2
_DOT
 10
1096.587318976246
 20
865.6097235068312
 30
0.0
 41
6.0
 42
6.0
 43
6.0
 50
270.0
  0
MTEXT
  5
247C
330
2474
100
AcDbEntity
  8
Dim
  6
Continuous
 62
     0
100
AcDbMText
 10
1079.371010382496
 20
1130.609723506831
 30
0.0
 40
24.4326171875
 41
0.0
 46
0.0
 71
     5
 72
     1
  1
\A1;530
  7
ＭＳ ゴシック
 11
0.0
 21
1.0
 31
0.0
 73
     1
 44
1.0
  0
POINT
  5
247D
330
2474
100
AcDbEntity
  8
Defpoints
 62
     0
100
AcDbPoint
 10
996.5873189762455
 20
1395.609723506831
 30
0.0
  0
POINT
  5
247E
330
2474
100
AcDbEntity
  8
Defpoints
 62
     0
100
AcDbPoint
 10
996.5873189762455
 20
865.6097235068312
 30
0.0
  0
POINT
  5
247F
330
2474
100
AcDbEntity
  8
Defpoints
 62
     0
100
AcDbPoint
 10
1096.587318976246
 20
865.6097235068312
 30
0.0
  0
ENDBLK
  5
2476
330
2474
100
AcDbEntity
  8
0
100
AcDbBlockEnd
  0
BLOCK
  5
2481
330
2480
100
AcDbEntity
  8
0
100
AcDbBlockBegin
  2
*D276
 70
     1
 10
0.0
 20
0.0
 30
0.0
  3
*D276
  1
*D276
  0
LINE
  5
2483
330
2480
100
AcDbEntity
  8
Dim
 62
     0
370
    -2
100
AcDbLine
 10
1021.165115422613
 20
640.609723506831
 30
0.0
 11
1096.587318976246
 21
640.609723506831
 31
0.0
  0
LINE
  5
2484
330
2480
100
AcDbEntity
  8
Dim
 62
     0
370
    -2
100
AcDbLine
 10
1021.587318976245
 20
865.6097235068312
 30
0.0
 11
1096.587318976246
 21
865.6097235068312
 31
0.0
  0
LINE
  5
2485
330
2480
100
AcDbEntity
  8
Dim
 62
     0
370
    -2
100
AcDbLine
 10
1096.587318976246
 20
646.609723506831
 30
0.0
 11
1096.587318976246
 21
859.6097235068312
 31
0.0
  0
INSERT
  5
2486
330
2480
100
AcDbEntity
  8
Dim
 62
     0
370
    -2
100
AcDbBlockReference
  2
_DOT
 10
1096.587318976246
 20
640.609723506831
 30
0.0
 41
6.0
 42
6.0
 43
6.0
 50
270.0
  0
INSERT
  5
2487
330
2480
100
AcDbEntity
  8
Dim
 62
     0
370
    -2
100
AcDbBlockReference
  2
_DOT
 10
1096.587318976246
 20
865.6097235068312
 30
0.0
 41
6.0
 42
6.0
 43
6.0
 50
90.0
  0
MTEXT
  5
2488
330
2480
100
AcDbEntity
  8
Dim
  6
Continuous
 62
     0
100
AcDbMText
 10
1079.371010382496
 20
753.1097235068311
 30
0.0
 40
24.4326171875
 41
0.0
 46
0.0
 71
     5
 72
     1
  1
\A1;225
  7
ＭＳ ゴシック
 11
0.0
 21
1.0
 31
0.0
 73
     1
 44
1.0
  0
POINT
  5
2489
330
2480
100
AcDbEntity
  8
Defpoints
 62
     0
100
AcDbPoint
 10
996.1651154226129
 20
640.609723506831
 30
0.0
  0
POINT
  5
248A
330
2480
100
AcDbEntity
  8
Defpoints
 62
     0
100
AcDbPoint
 10
996.5873189762455
 20
865.6097235068312
 30
0.0
  0
POINT
  5
248B
330
2480
100
AcDbEntity
  8
Defpoints
 62
     0
100
AcDbPoint
 10
1096.587318976246
 20
865.6097235068312
 30
0.0
  0
ENDBLK
  5
2482
330
2480
100
AcDbEntity
  8
0
100
AcDbBlockEnd
  0
BLOCK
  5
248D
330
248C
100
AcDbEntity
  8
0
100
AcDbBlockBegin
  2
*D277
 70
     1
 10
0.0
 20
0.0
 30
0.0
  3
*D277
  1
*D277
  0
LINE
  5
248F
330
248C
100
AcDbEntity
  8
Dim
 62
     0
370
    -2
100
AcDbLine
 10
1630.917619163672
 20
1270.609723506832
 30
0.0
 11
1475.917619163672
 21
1270.609723506832
 31
0.0
  0
LINE
  5
2490
330
248C
100
AcDbEntity
  8
Dim
 62
     0
370
    -2
100
AcDbLine
 10
1630.917619163672
 20
990.6097235068323
 30
0.0
 11
1475.917619163672
 21
990.6097235068323
 31
0.0
  0
LINE
  5
2491
330
248C
100
AcDbEntity
  8
Dim
 62
     0
370
    -2
100
AcDbLine
 10
1475.917619163672
 20
1264.609723506832
 30
0.0
 11
1475.917619163672
 21
996.6097235068323
 31
0.0
  0
INSERT
  5
2492
330
248C
100
AcDbEntity
  8
Dim
 62
     0
370
    -2
100
AcDbBlockReference
  2
_DOT
 10
1475.917619163672
 20
1270.609723506832
 30
0.0
 41
6.0
 42
6.0
 43
6.0
 50
90.0
  0
INSERT
  5
2493
330
248C
100
AcDbEntity
  8
Dim
 62
     0
370
    -2
100
AcDbBlockReference
  2
_DOT
 10
1475.917619163672
 20
990.6097235068323
 30
0.0
 41
6.0
 42
6.0
 43
6.0
 50
270.0
  0
MTEXT
  5
2494
330
248C
100
AcDbEntity
  8
Dim
  6
Continuous
 62
     0
100
AcDbMText
 10
1458.701310569922
 20
1130.609723506832
 30
0.0
 40
24.4326171875
 41
0.0
 46
0.0
 71
     5
 72
     1
  1
\A1;280
  7
ＭＳ ゴシック
 11
0.0
 21
1.0
 31
0.0
 73
     1
 44
1.0
  0
POINT
  5
2495
330
248C
100
AcDbEntity
  8
Defpoints
 62
     0
100
AcDbPoint
 10
1655.917619163672
 20
1270.609723506832
 30
0.0
  0
POINT
  5
2496
330
248C
100
AcDbEntity
  8
Defpoints
 62
     0
100
AcDbPoint
 10
1655.917619163672
 20
990.6097235068323
 30
0.0
  0
POINT
  5
2497
330
248C
100
AcDbEntity
  8
Defpoints
 62
     0
100
AcDbPoint
 10
1475.917619163672
 20
990.6097235068323
 30
0.0
  0
ENDBLK
  5
248E
330
248C
100
AcDbEntity
  8
0
100
AcDbBlockEnd
  0
BLOCK
  5
2499
330
2498
100
AcDbEntity
  8
0
100
AcDbBlockBegin
  2
*D278
 70
     1
 10
0.0
 20
0.0
 30
0.0
  3
*D278
  1
*D278
  0
LINE
  5
249B
330
2498
100
AcDbEntity
  8
Dim
 62
     0
370
    -2
100
AcDbLine
 10
996.5873189762455
 20
1630.515010564898
 30
0.0
 11
996.5873189762455
 21
1755.609723506832
 31
0.0
  0
LINE
  5
249C
330
2498
100
AcDbEntity
  8
Dim
 62
     0
370
    -2
100
AcDbLine
 10
511.5798379885707
 20
1675.609723506833
 30
0.0
 11
511.5798379885707
 21
1755.609723506832
 31
0.0
  0
LINE
  5
249D
330
2498
100
AcDbEntity
  8
Dim
 62
     0
370
    -2
100
AcDbLine
 10
990.5873189762455
 20
1755.609723506832
 30
0.0
 11
517.5798379885707
 21
1755.609723506832
 31
0.0
  0
INSERT
  5
249E
330
2498
100
AcDbEntity
  8
Dim
 62
     0
370
    -2
100
AcDbBlockReference
  2
_DOT
 10
996.5873189762455
 20
1755.609723506832
 30
0.0
 41
6.0
 42
6.0
 43
6.0
  0
INSERT
  5
249F
330
2498
100
AcDbEntity
  8
Dim
 62
     0
370
    -2
100
AcDbBlockReference
  2
_DOT
 10
511.5798379885707
 20
1755.609723506832
 30
0.0
 41
6.0
 42
6.0
 43
6.0
 50
180.0
  0
MTEXT
  5
24A0
330
2498
100
AcDbEntity
  8
Dim
  6
Continuous
 62
     0
100
AcDbMText
 10
754.083578482408
 20
1772.826032100582
 30
0.0
 40
24.4326171875
 41
0.0
 46
0.0
 71
     5
 72
     1
  1
\A1;485
  7
ＭＳ ゴシック
 73
     1
 44
1.0
  0
POINT
  5
24A1
330
2498
100
AcDbEntity
  8
Defpoints
 62
     0
100
AcDbPoint
 10
996.5873189762455
 20
1605.515010564898
 30
0.0
  0
POINT
  5
24A2
330
2498
100
AcDbEntity
  8
Defpoints
 62
     0
100
AcDbPoint
 10
511.5798379885707
 20
1650.609723506833
 30
0.0
  0
POINT
  5
24A3
330
2498
100
AcDbEntity
  8
Defpoints
 62
     0
100
AcDbPoint
 10
511.5798379885707
 20
1755.609723506832
 30
0.0
  0
ENDBLK
  5
249A
330
2498
100
AcDbEntity
  8
0
100
AcDbBlockEnd
  0
BLOCK
  5
24A5
330
24A4
100
AcDbEntity
  8
0
100
AcDbBlockBegin
  2
*D279
 70
     1
 10
0.0
 20
0.0
 30
0.0
  3
*D279
  1
*D279
  0
LINE
  5
24A7
330
24A4
100
AcDbEntity
  8
Dim
 62
     0
370
    -2
100
AcDbLine
 10
1800.917619163672
 20
1193.109723506832
 30
0.0
 11
1800.917619163672
 21
1755.609723506832
 31
0.0
  0
LINE
  5
24A8
330
24A4
100
AcDbEntity
  8
Dim
 62
     0
370
    -2
100
AcDbLine
 10
1575.917619163672
 20
1668.609723506832
 30
0.0
 11
1575.917619163672
 21
1755.609723506832
 31
0.0
  0
LINE
  5
24A9
330
24A4
100
AcDbEntity
  8
Dim
 62
     0
370
    -2
100
AcDbLine
 10
1794.917619163672
 20
1755.609723506832
 30
0.0
 11
1581.917619163672
 21
1755.609723506832
 31
0.0
  0
INSERT
  5
24AA
330
24A4
100
AcDbEntity
  8
Dim
 62
     0
370
    -2
100
AcDbBlockReference
  2
_DOT
 10
1800.917619163672
 20
1755.609723506832
 30
0.0
 41
6.0
 42
6.0
 43
6.0
  0
INSERT
  5
24AB
330
24A4
100
AcDbEntity
  8
Dim
 62
     0
370
    -2
100
AcDbBlockReference
  2
_DOT
 10
1575.917619163672
 20
1755.609723506832
 30
0.0
 41
6.0
 42
6.0
 43
6.0
 50
180.0
  0
MTEXT
  5
24AC
330
24A4
100
AcDbEntity
  8
Dim
  6
Continuous
 62
     0
100
AcDbMText
 10
1688.417619163672
 20
1772.826032100582
 30
0.0
 40
24.4326171875
 41
0.0
 46
0.0
 71
     5
 72
     1
  1
\A1;225
  7
ＭＳ ゴシック
 73
     1
 44
1.0
  0
POINT
  5
24AD
330
24A4
100
AcDbEntity
  8
Defpoints
 62
     0
100
AcDbPoint
 10
1800.917619163672
 20
1168.109723506832
 30
0.0
  0
POINT
  5
24AE
330
24A4
100
AcDbEntity
  8
Defpoints
 62
     0
100
AcDbPoint
 10
1575.917619163672
 20
1643.609723506832
 30
0.0
  0
POINT
  5
24AF
330
24A4
100
AcDbEntity
  8
Defpoints
 62
     0
100
AcDbPoint
 10
1575.917619163672
 20
1755.609723506832
 30
0.0
  0
ENDBLK
  5
24A6
330
24A4
100
AcDbEntity
  8
0
100
AcDbBlockEnd
  0
BLOCK
  5
24B1
330
24B0
100
AcDbEntity
  8
0
100
AcDbBlockBegin
  2
*D280
 70
     1
 10
0.0
 20
0.0
 30
0.0
  3
*D280
  1
*D280
  0
LINE
  5
24B3
330
24B0
100
AcDbEntity
  8
Dim
 62
     0
370
    -2
100
AcDbLine
 10
1755.92577025777
 20
2481.335330821121
 30
0.0
 11
1755.92577025777
 21
2481.335330821121
 31
0.0
  0
LINE
  5
24B4
330
24B0
100
AcDbEntity
  8
Dim
 62
     0
370
    -2
100
AcDbLine
 10
1610.92577025777
 20
2481.335330821121
 30
0.0
 11
1610.92577025777
 21
2481.335330821121
 31
0.0
  0
LINE
  5
24B5
330
24B0
100
AcDbEntity
  8
Dim
 62
     0
370
    -2
100
AcDbLine
 10
1749.92577025777
 20
2481.335330821121
 30
0.0
 11
1616.92577025777
 21
2481.335330821121
 31
0.0
  0
INSERT
  5
24B6
330
24B0
100
AcDbEntity
  8
Dim
 62
     0
370
    -2
100
AcDbBlockReference
  2
_DOT
 10
1755.92577025777
 20
2481.335330821121
 30
0.0
 41
6.0
 42
6.0
 43
6.0
  0
INSERT
  5
24B7
330
24B0
100
AcDbEntity
  8
Dim
 62
     0
370
    -2
100
AcDbBlockReference
  2
_DOT
 10
1610.92577025777
 20
2481.335330821121
 30
0.0
 41
6.0
 42
6.0
 43
6.0
 50
180.0
  0
MTEXT
  5
24B8
330
24B0
100
AcDbEntity
  8
Dim
  6
Continuous
 62
     0
100
AcDbMText
 10
1525.396576278981
 20
2503.813046432483
 30
0.0
 40
24.4326171875
 41
0.0
 46
0.0
 71
     5
 72
     1
  1
\A1;145(深さ)
  7
ＭＳ ゴシック
 73
     1
 44
1.0
  0
POINT
  5
24B9
330
24B0
100
AcDbEntity
  8
Defpoints
 62
     0
100
AcDbPoint
 10
1755.92577025777
 20
2506.335330821121
 30
0.0
  0
POINT
  5
24BA
330
24B0
100
AcDbEntity
  8
Defpoints
 62
     0
100
AcDbPoint
 10
1610.92577025777
 20
2506.335330821121
 30
0.0
  0
POINT
  5
24BB
330
24B0
100
AcDbEntity
  8
Defpoints
 62
     0
100
AcDbPoint
 10
1610.92577025777
 20
2481.335330821121
 30
0.0
  0
ENDBLK
  5
24B2
330
24B0
100
AcDbEntity
  8
0
100
AcDbBlockEnd
  0
BLOCK
  5
24BD
330
24BC
100
AcDbEntity
  8
0
100
AcDbBlockBegin
  2
*D281
 70
     1
 10
0.0
 20
0.0
 30
0.0
  3
*D281
  1
*D281
  0
LINE
  5
24BF
330
24BC
100
AcDbEntity
  8
Dim
 62
     0
370
    -2
100
AcDbLine
 10
1610.92577025777
 20
2192.626201007747
 30
0.0
 11
1610.92577025777
 21
2110.626201007747
 31
0.0
  0
LINE
  5
24C0
330
24BC
100
AcDbEntity
  8
Dim
 62
     0
370
    -2
100
AcDbLine
 10
1650.917619163672
 20
2190.626201007747
 30
0.0
 11
1650.917619163672
 21
2110.626201007747
 31
0.0
  0
LINE
  5
24C1
330
24BC
100
AcDbEntity
  8
Dim
 62
     0
370
    -2
100
AcDbLine
 10
1616.92577025777
 20
2110.626201007747
 30
0.0
 11
1644.917619163672
 21
2110.626201007747
 31
0.0
  0
INSERT
  5
24C2
330
24BC
100
AcDbEntity
  8
Dim
 62
     0
370
    -2
100
AcDbBlockReference
  2
_DOT
 10
1610.92577025777
 20
2110.626201007747
 30
0.0
 41
6.0
 42
6.0
 43
6.0
 50
180.0
  0
INSERT
  5
24C3
330
24BC
100
AcDbEntity
  8
Dim
 62
     0
370
    -2
100
AcDbBlockReference
  2
_DOT
 10
1650.917619163672
 20
2110.626201007747
 30
0.0
 41
6.0
 42
6.0
 43
6.0
  0
MTEXT
  5
24C4
330
24BC
100
AcDbEntity
  8
Dim
  6
Continuous
 62
     0
100
AcDbMText
 10
1630.916260278776
 20
2137.448331218419
 30
0.0
 40
24.4326171875
 41
0.0
 46
0.0
 71
     5
 72
     1
  1
\A1;40
  7
ＭＳ ゴシック
 73
     1
 44
1.0
  0
POINT
  5
24C5
330
24BC
100
AcDbEntity
  8
Defpoints
 62
     0
100
AcDbPoint
 10
1610.92577025777
 20
2217.626201007747
 30
0.0
  0
POINT
  5
24C6
330
24BC
100
AcDbEntity
  8
Defpoints
 62
     0
100
AcDbPoint
 10
1650.917619163672
 20
2215.626201007747
 30
0.0
  0
POINT
  5
24C7
330
24BC
100
AcDbEntity
  8
Defpoints
 62
     0
100
AcDbPoint
 10
1650.917619163672
 20
2110.626201007747
 30
0.0
  0
ENDBLK
  5
24BE
330
24BC
100
AcDbEntity
  8
0
100
AcDbBlockEnd
  0
BLOCK
  5
24C9
330
24C8
100
AcDbEntity
  8
0
100
AcDbBlockBegin
  2
*D282
 70
     1
 10
0.0
 20
0.0
 30
0.0
  3
*D282
  1
*D282
  0
LINE
  5
24CB
330
24C8
100
AcDbEntity
  8
Dim
 62
     0
370
    -2
100
AcDbLine
 10
1575.92577025777
 20
2192.626201007747
 30
0.0
 11
1575.92577025777
 21
2110.626201007747
 31
0.0
  0
LINE
  5
24CC
330
24C8
100
AcDbEntity
  8
Dim
 62
     0
370
    -2
100
AcDbLine
 10
1610.92577025777
 20
2192.626201007747
 30
0.0
 11
1610.92577025777
 21
2110.626201007747
 31
0.0
  0
LINE
  5
24CD
330
24C8
100
AcDbEntity
  8
Dim
 62
     0
370
    -2
100
AcDbLine
 10
1581.92577025777
 20
2110.626201007747
 30
0.0
 11
1604.92577025777
 21
2110.626201007747
 31
0.0
  0
INSERT
  5
24CE
330
24C8
100
AcDbEntity
  8
Dim
 62
     0
370
    -2
100
AcDbBlockReference
  2
_DOT
 10
1575.92577025777
 20
2110.626201007747
 30
0.0
 41
6.0
 42
6.0
 43
6.0
 50
180.0
  0
INSERT
  5
24CF
330
24C8
100
AcDbEntity
  8
Dim
 62
     0
370
    -2
100
AcDbBlockReference
  2
_DOT
 10
1610.92577025777
 20
2110.626201007747
 30
0.0
 41
6.0
 42
6.0
 43
6.0
  0
MTEXT
  5
24D0
330
24C8
100
AcDbEntity
  8
Dim
  6
Continuous
 62
     0
100
AcDbMText
 10
1551.351296046513
 20
2136.515317065706
 30
0.0
 40
24.4326171875
 41
0.0
 46
0.0
 71
     5
 72
     1
  1
\A1;35
  7
ＭＳ ゴシック
 73
     1
 44
1.0
  0
POINT
  5
24D1
330
24C8
100
AcDbEntity
  8
Defpoints
 62
     0
100
AcDbPoint
 10
1575.92577025777
 20
2217.626201007747
 30
0.0
  0
POINT
  5
24D2
330
24C8
100
AcDbEntity
  8
Defpoints
 62
     0
100
AcDbPoint
 10
1610.92577025777
 20
2217.626201007747
 30
0.0
  0
POINT
  5
24D3
330
24C8
100
AcDbEntity
  8
Defpoints
 62
     0
100
AcDbPoint
 10
1610.92577025777
 20
2110.626201007747
 30
0.0
  0
ENDBLK
  5
24CA
330
24C8
100
AcDbEntity
  8
0
100
AcDbBlockEnd
  0
BLOCK
  5
24D5
330
24D4
100
AcDbEntity
  8
0
100
AcDbBlockBegin
  2
*D283
 70
     1
 10
0.0
 20
0.0
 30
0.0
  3
*D283
  1
*D283
  0
LINE
  5
24D7
330
24D4
100
AcDbEntity
  8
Dim
 62
     0
370
    -2
100
AcDbLine
 10
1770.917619163672
 20
2385.279901708604
 30
0.0
 11
1770.917619163672
 21
2110.626201007747
 31
0.0
  0
LINE
  5
24D8
330
24D4
100
AcDbEntity
  8
Dim
 62
     0
370
    -2
100
AcDbLine
 10
1650.917619163672
 20
2195.335330821121
 30
0.0
 11
1650.917619163672
 21
2110.626201007747
 31
0.0
  0
LINE
  5
24D9
330
24D4
100
AcDbEntity
  8
Dim
 62
     0
370
    -2
100
AcDbLine
 10
1764.917619163672
 20
2110.626201007747
 30
0.0
 11
1656.917619163672
 21
2110.626201007747
 31
0.0
  0
INSERT
  5
24DA
330
24D4
100
AcDbEntity
  8
Dim
 62
     0
370
    -2
100
AcDbBlockReference
  2
_DOT
 10
1770.917619163672
 20
2110.626201007747
 30
0.0
 41
6.0
 42
6.0
 43
6.0
  0
INSERT
  5
24DB
330
24D4
100
AcDbEntity
  8
Dim
 62
     0
370
    -2
100
AcDbBlockReference
  2
_DOT
 10
1650.917619163672
 20
2110.626201007747
 30
0.0
 41
6.0
 42
6.0
 43
6.0
 50
180.0
  0
MTEXT
  5
24DC
330
24D4
100
AcDbEntity
  8
Dim
  6
Continuous
 62
     0
100
AcDbMText
 10
1709.071465317518
 20
2138.364944731729
 30
0.0
 40
24.4326171875
 41
0.0
 46
0.0
 71
     5
 72
     1
  1
\A1;120
  7
ＭＳ ゴシック
 73
     1
 44
1.0
  0
POINT
  5
24DD
330
24D4
100
AcDbEntity
  8
Defpoints
 62
     0
100
AcDbPoint
 10
1770.917619163672
 20
2410.279901708604
 30
0.0
  0
POINT
  5
24DE
330
24D4
100
AcDbEntity
  8
Defpoints
 62
     0
100
AcDbPoint
 10
1650.917619163672
 20
2220.335330821121
 30
0.0
  0
POINT
  5
24DF
330
24D4
100
AcDbEntity
  8
Defpoints
 62
     0
100
AcDbPoint
 10
1650.917619163672
 20
2110.626201007747
 30
0.0
  0
ENDBLK
  5
24D6
330
24D4
100
AcDbEntity
  8
0
100
AcDbBlockEnd
  0
BLOCK
  5
24E2
330
24E1
100
AcDbEntity
  8
0
100
AcDbBlockBegin
  2
*D284
 70
     1
 10
0.0
 20
0.0
 30
0.0
  3
*D284
  1
*D284
  0
LINE
  5
24E4
330
24E1
100
AcDbEntity
  8
Dim
 62
     0
370
    -2
100
AcDbLine
 10
1800.917619163672
 20
2423.126201007757
 30
0.0
 11
1800.917619163672
 21
2110.626201007747
 31
0.0
  0
LINE
  5
24E5
330
24E1
100
AcDbEntity
  8
Dim
 62
     0
370
    -2
100
AcDbLine
 10
1770.917619163672
 20
2416.126201007757
 30
0.0
 11
1770.917619163672
 21
2110.626201007747
 31
0.0
  0
LINE
  5
24E6
330
24E1
100
AcDbEntity
  8
Dim
 62
     0
370
    -2
100
AcDbLine
 10
1794.917619163672
 20
2110.626201007747
 30
0.0
 11
1776.917619163672
 21
2110.626201007747
 31
0.0
  0
INSERT
  5
24E7
330
24E1
100
AcDbEntity
  8
Dim
 62
     0
370
    -2
100
AcDbBlockReference
  2
_DOT
 10
1800.917619163672
 20
2110.626201007747
 30
0.0
 41
6.0
 42
6.0
 43
6.0
  0
INSERT
  5
24E8
330
24E1
100
AcDbEntity
  8
Dim
 62
     0
370
    -2
100
AcDbBlockReference
  2
_DOT
 10
1770.917619163672
 20
2110.626201007747
 30
0.0
 41
6.0
 42
6.0
 43
6.0
 50
180.0
  0
MTEXT
  5
24E9
330
24E1
100
AcDbEntity
  8
Dim
  6
Continuous
 62
     0
100
AcDbMText
 10
1822.986886161256
 20
2138.381345371132
 30
0.0
 40
24.4326171875
 41
0.0
 46
0.0
 71
     5
 72
     1
  1
\A1;30
  7
ＭＳ ゴシック
 73
     1
 44
1.0
  0
POINT
  5
24EA
330
24E1
100
AcDbEntity
  8
Defpoints
 62
     0
100
AcDbPoint
 10
1800.917619163672
 20
2448.126201007757
 30
0.0
  0
POINT
  5
24EB
330
24E1
100
AcDbEntity
  8
Defpoints
 62
     0
100
AcDbPoint
 10
1770.917619163672
 20
2441.126201007757
 30
0.0
  0
POINT
  5
24EC
330
24E1
100
AcDbEntity
  8
Defpoints
 62
     0
100
AcDbPoint
 10
1770.917619163672
 20
2110.626201007747
 30
0.0
  0
ENDBLK
  5
24E3
330
24E1
100
AcDbEntity
  8
0
100
AcDbBlockEnd
  0
BLOCK
  5
24EE
330
24ED
100
AcDbEntity
  8
0
100
AcDbBlockBegin
  2
*D285
 70
     1
 10
0.0
 20
0.0
 30
0.0
  3
*D285
  1
*D285
  0
LINE
  5
24F0
330
24ED
100
AcDbEntity
  8
Dim
 62
     0
370
    -2
100
AcDbLine
 10
1795.917619163672
 20
2695.626201007754
 30
0.0
 11
1885.917619163672
 21
2695.626201007754
 31
0.0
  0
LINE
  5
24F1
330
24ED
100
AcDbEntity
  8
Dim
 62
     0
370
    -2
100
AcDbLine
 10
1825.917619163672
 20
2485.626201007757
 30
0.0
 11
1885.917619163672
 21
2485.626201007757
 31
0.0
  0
LINE
  5
24F2
330
24ED
100
AcDbEntity
  8
Dim
 62
     0
370
    -2
100
AcDbLine
 10
1885.917619163672
 20
2689.626201007754
 30
0.0
 11
1885.917619163672
 21
2491.626201007757
 31
0.0
  0
INSERT
  5
24F3
330
24ED
100
AcDbEntity
  8
Dim
 62
     0
370
    -2
100
AcDbBlockReference
  2
_DOT
 10
1885.917619163672
 20
2695.626201007754
 30
0.0
 41
6.0
 42
6.0
 43
6.0
 50
90.0
  0
INSERT
  5
24F4
330
24ED
100
AcDbEntity
  8
Dim
 62
     0
370
    -2
100
AcDbBlockReference
  2
_DOT
 10
1885.917619163672
 20
2485.626201007757
 30
0.0
 41
6.0
 42
6.0
 43
6.0
 50
270.0
  0
MTEXT
  5
24F5
330
24ED
100
AcDbEntity
  8
Dim
  6
Continuous
 62
     0
100
AcDbMText
 10
1868.701310569922
 20
2590.626201007756
 30
0.0
 40
24.4326171875
 41
0.0
 46
0.0
 71
     5
 72
     1
  1
\A1;210
  7
ＭＳ ゴシック
 11
0.0
 21
1.0
 31
0.0
 73
     1
 44
1.0
  0
POINT
  5
24F6
330
24ED
100
AcDbEntity
  8
Defpoints
 62
     0
100
AcDbPoint
 10
1770.917619163672
 20
2695.626201007754
 30
0.0
  0
POINT
  5
24F7
330
24ED
100
AcDbEntity
  8
Defpoints
 62
     0
100
AcDbPoint
 10
1800.917619163672
 20
2485.626201007757
 30
0.0
  0
POINT
  5
24F8
330
24ED
100
AcDbEntity
  8
Defpoints
 62
     0
100
AcDbPoint
 10
1885.917619163672
 20
2485.626201007757
 30
0.0
  0
ENDBLK
  5
24EF
330
24ED
100
AcDbEntity
  8
0
100
AcDbBlockEnd
  0
BLOCK
  5
24FA
330
24F9
100
AcDbEntity
  8
0
100
AcDbBlockBegin
  2
*D286
 70
     1
 10
0.0
 20
0.0
 30
0.0
  3
*D286
  1
*D286
  0
LINE
  5
24FC
330
24F9
100
AcDbEntity
  8
Dim
 62
     0
370
    -2
100
AcDbLine
 10
1585.92577025777
 20
2615.626201007754
 30
0.0
 11
1475.917619163672
 21
2615.626201007754
 31
0.0
  0
LINE
  5
24FD
330
24F9
100
AcDbEntity
  8
Dim
 62
     0
370
    -2
100
AcDbLine
 10
1550.917619163672
 20
2695.626201007754
 30
0.0
 11
1475.917619163672
 21
2695.626201007754
 31
0.0
  0
LINE
  5
24FE
330
24F9
100
AcDbEntity
  8
Dim
 62
     0
370
    -2
100
AcDbLine
 10
1475.917619163672
 20
2621.626201007754
 30
0.0
 11
1475.917619163672
 21
2689.626201007754
 31
0.0
  0
INSERT
  5
24FF
330
24F9
100
AcDbEntity
  8
Dim
 62
     0
370
    -2
100
AcDbBlockReference
  2
_DOT
 10
1475.917619163672
 20
2615.626201007754
 30
0.0
 41
6.0
 42
6.0
 43
6.0
 50
270.0
  0
INSERT
  5
2500
330
24F9
100
AcDbEntity
  8
Dim
 62
     0
370
    -2
100
AcDbBlockReference
  2
_DOT
 10
1475.917619163672
 20
2695.626201007754
 30
0.0
 41
6.0
 42
6.0
 43
6.0
 50
90.0
  0
MTEXT
  5
2501
330
24F9
100
AcDbEntity
  8
Dim
  6
Continuous
 62
     0
100
AcDbMText
 10
1458.701310569922
 20
2655.626201007754
 30
0.0
 40
24.4326171875
 41
0.0
 46
0.0
 71
     5
 72
     1
  1
\A1;80
  7
ＭＳ ゴシック
 11
0.0
 21
1.0
 31
0.0
 73
     1
 44
1.0
  0
POINT
  5
2502
330
24F9
100
AcDbEntity
  8
Defpoints
 62
     0
100
AcDbPoint
 10
1610.92577025777
 20
2615.626201007754
 30
0.0
  0
POINT
  5
2503
330
24F9
100
AcDbEntity
  8
Defpoints
 62
     0
100
AcDbPoint
 10
1575.917619163672
 20
2695.626201007754
 30
0.0
  0
POINT
  5
2504
330
24F9
100
AcDbEntity
  8
Defpoints
 62
     0
100
AcDbPoint
 10
1475.917619163672
 20
2695.626201007754
 30
0.0
  0
ENDBLK
  5
24FB
330
24F9
100
AcDbEntity
  8
0
100
AcDbBlockEnd
  0
BLOCK
  5
2506
330
2505
100
AcDbEntity
  8
0
100
AcDbBlockBegin
  2
*D287
 70
     1
 10
0.0
 20
0.0
 30
0.0
  3
*D287
  1
*D287
  0
LINE
  5
2508
330
2505
100
AcDbEntity
  8
Dim
 62
     0
370
    -2
100
AcDbLine
 10
491.5798379885709
 20
605.6097235068307
 30
0.0
 11
361.5798379885709
 21
605.6097235068307
 31
0.0
  0
LINE
  5
2509
330
2505
100
AcDbEntity
  8
Dim
 62
     0
370
    -2
100
AcDbLine
 10
491.5798379885709
 20
1655.609723506833
 30
0.0
 11
361.5798379885709
 21
1655.609723506833
 31
0.0
  0
LINE
  5
250A
330
2505
100
AcDbEntity
  8
Dim
 62
     0
370
    -2
100
AcDbLine
 10
361.5798379885709
 20
611.6097235068307
 30
0.0
 11
361.5798379885709
 21
1649.609723506833
 31
0.0
  0
INSERT
  5
250B
330
2505
100
AcDbEntity
  8
Dim
 62
     0
370
    -2
100
AcDbBlockReference
  2
_DOT
 10
361.5798379885709
 20
605.6097235068307
 30
0.0
 41
6.0
 42
6.0
 43
6.0
 50
270.0
  0
INSERT
  5
250C
330
2505
100
AcDbEntity
  8
Dim
 62
     0
370
    -2
100
AcDbBlockReference
  2
_DOT
 10
361.5798379885709
 20
1655.609723506833
 30
0.0
 41
6.0
 42
6.0
 43
6.0
 50
90.0
  0
MTEXT
  5
250D
330
2505
100
AcDbEntity
  8
Dim
  6
Continuous
 62
     0
100
AcDbMText
 10
344.3635293948209
 20
1130.609723506832
 30
0.0
 40
24.4326171875
 41
0.0
 46
0.0
 71
     5
 72
     1
  1
\A1;1050
  7
ＭＳ ゴシック
 11
5.413658939124561E-17
 21
1.0
 31
0.0
 73
     1
 44
1.0
  0
POINT
  5
250E
330
2505
100
AcDbEntity
  8
Defpoints
 62
     0
100
AcDbPoint
 10
516.579837988571
 20
605.6097235068307
 30
0.0
  0
POINT
  5
250F
330
2505
100
AcDbEntity
  8
Defpoints
 62
     0
100
AcDbPoint
 10
516.579837988571
 20
1655.609723506833
 30
0.0
  0
POINT
  5
2510
330
2505
100
AcDbEntity
  8
Defpoints
 62
     0
100
AcDbPoint
 10
361.5798379885709
 20
1655.609723506833
 30
0.0
  0
ENDBLK
  5
2507
330
2505
100
AcDbEntity
  8
0
100
AcDbBlockEnd
  0
BLOCK
  5
2512
330
2511
100
AcDbEntity
  8
0
100
AcDbBlockBegin
  2
*D288
 70
     1
 10
0.0
 20
0.0
 30
0.0
  3
*D288
  1
*D288
  0
LINE
  5
2514
330
2511
100
AcDbEntity
  8
Dim
 62
     0
370
    -2
100
AcDbLine
 10
1575.917619163672
 20
592.6097235068307
 30
0.0
 11
1575.917619163672
 21
505.609723506831
 31
0.0
  0
LINE
  5
2515
330
2511
100
AcDbEntity
  8
Dim
 62
     0
370
    -2
100
AcDbLine
 10
1675.917619163672
 20
945.6097235068323
 30
0.0
 11
1675.917619163672
 21
505.609723506831
 31
0.0
  0
LINE
  5
2516
330
2511
100
AcDbEntity
  8
Dim
 62
     0
370
    -2
100
AcDbLine
 10
1581.917619163672
 20
505.609723506831
 30
0.0
 11
1669.917619163672
 21
505.609723506831
 31
0.0
  0
INSERT
  5
2517
330
2511
100
AcDbEntity
  8
Dim
 62
     0
370
    -2
100
AcDbBlockReference
  2
_DOT
 10
1575.917619163672
 20
505.609723506831
 30
0.0
 41
6.0
 42
6.0
 43
6.0
 50
180.0
  0
INSERT
  5
2518
330
2511
100
AcDbEntity
  8
Dim
 62
     0
370
    -2
100
AcDbBlockReference
  2
_DOT
 10
1675.917619163672
 20
505.609723506831
 30
0.0
 41
6.0
 42
6.0
 43
6.0
  0
MTEXT
  5
2519
330
2511
100
AcDbEntity
  8
Dim
  6
Continuous
 62
     0
100
AcDbMText
 10
1625.917619163672
 20
522.826032100581
 30
0.0
 40
24.4326171875
 41
0.0
 46
0.0
 71
     5
 72
     1
  1
\A1;100
  7
ＭＳ ゴシック
 73
     1
 44
1.0
  0
POINT
  5
251A
330
2511
100
AcDbEntity
  8
Defpoints
 62
     0
100
AcDbPoint
 10
1575.917619163672
 20
617.6097235068307
 30
0.0
  0
POINT
  5
251B
330
2511
100
AcDbEntity
  8
Defpoints
 62
     0
100
AcDbPoint
 10
1675.917619163672
 20
970.6097235068323
 30
0.0
  0
POINT
  5
251C
330
2511
100
AcDbEntity
  8
Defpoints
 62
     0
100
AcDbPoint
 10
1675.917619163672
 20
505.609723506831
 30
0.0
  0
ENDBLK
  5
2513
330
2511
100
AcDbEntity
  8
0
100
AcDbBlockEnd
  0
BLOCK
  5
251E
330
251D
100
AcDbEntity
  8
0
100
AcDbBlockBegin
  2
*D289
 70
     1
 10
0.0
 20
0.0
 30
0.0
  3
*D289
  1
*D289
  0
LINE
  5
2520
330
251D
100
AcDbEntity
  8
Dim
 62
     0
370
    -2
100
AcDbLine
 10
548.4395095732789
 20
1230.609723506833
 30
0.0
 11
411.5798379885709
 21
1230.609723506833
 31
0.0
  0
LINE
  5
2521
330
251D
100
AcDbEntity
  8
Dim
 62
     0
370
    -2
100
AcDbLine
 10
548.3395095732787
 20
1130.609723506833
 30
0.0
 11
411.5798379885709
 21
1130.609723506833
 31
0.0
  0
LINE
  5
2522
330
251D
100
AcDbEntity
  8
Dim
 62
     0
370
    -2
100
AcDbLine
 10
411.5798379885709
 20
1224.609723506833
 30
0.0
 11
411.5798379885709
 21
1136.609723506833
 31
0.0
  0
INSERT
  5
2523
330
251D
100
AcDbEntity
  8
Dim
 62
     0
370
    -2
100
AcDbBlockReference
  2
_DOT
 10
411.5798379885709
 20
1230.609723506833
 30
0.0
 41
6.0
 42
6.0
 43
6.0
 50
90.0
  0
INSERT
  5
2524
330
251D
100
AcDbEntity
  8
Dim
 62
     0
370
    -2
100
AcDbBlockReference
  2
_DOT
 10
411.5798379885709
 20
1130.609723506833
 30
0.0
 41
6.0
 42
6.0
 43
6.0
 50
270.0
  0
MTEXT
  5
2525
330
251D
100
AcDbEntity
  8
Dim
  6
Continuous
 62
     0
100
AcDbMText
 10
394.3635293948209
 20
1180.609723506833
 30
0.0
 40
24.4326171875
 41
0.0
 46
0.0
 71
     5
 72
     1
  1
\A1;100
  7
ＭＳ ゴシック
 11
0.0
 21
1.0
 31
0.0
 73
     1
 44
1.0
  0
POINT
  5
2526
330
251D
100
AcDbEntity
  8
Defpoints
 62
     0
100
AcDbPoint
 10
573.4395095732789
 20
1230.609723506833
 30
0.0
  0
POINT
  5
2527
330
251D
100
AcDbEntity
  8
Defpoints
 62
     0
100
AcDbPoint
 10
573.3395095732787
 20
1130.609723506833
 30
0.0
  0
POINT
  5
2528
330
251D
100
AcDbEntity
  8
Defpoints
 62
     0
100
AcDbPoint
 10
411.5798379885709
 20
1130.609723506833
 30
0.0
  0
ENDBLK
  5
251F
330
251D
100
AcDbEntity
  8
0
100
AcDbBlockEnd
  0
BLOCK
  5
252A
330
2529
100
AcDbEntity
  8
0
100
AcDbBlockBegin
  2
*D290
 70
     1
 10
0.0
 20
0.0
 30
0.0
  3
*D290
  1
*D290
  0
LINE
  5
252C
330
2529
100
AcDbEntity
  8
Dim
 62
     0
370
    -2
100
AcDbLine
 10
548.4395095732789
 20
1030.609723506833
 30
0.0
 11
411.5798379885709
 21
1030.609723506833
 31
0.0
  0
LINE
  5
252D
330
2529
100
AcDbEntity
  8
Dim
 62
     0
370
    -2
100
AcDbLine
 10
548.3395095732787
 20
1130.609723506833
 30
0.0
 11
411.5798379885709
 21
1130.609723506833
 31
0.0
  0
LINE
  5
252E
330
2529
100
AcDbEntity
  8
Dim
 62
     0
370
    -2
100
AcDbLine
 10
411.5798379885709
 20
1036.609723506833
 30
0.0
 11
411.5798379885709
 21
1124.609723506833
 31
0.0
  0
INSERT
  5
252F
330
2529
100
AcDbEntity
  8
Dim
 62
     0
370
    -2
100
AcDbBlockReference
  2
_DOT
 10
411.5798379885709
 20
1030.609723506833
 30
0.0
 41
6.0
 42
6.0
 43
6.0
 50
270.0
  0
INSERT
  5
2530
330
2529
100
AcDbEntity
  8
Dim
 62
     0
370
    -2
100
AcDbBlockReference
  2
_DOT
 10
411.5798379885709
 20
1130.609723506833
 30
0.0
 41
6.0
 42
6.0
 43
6.0
 50
90.0
  0
MTEXT
  5
2531
330
2529
100
AcDbEntity
  8
Dim
  6
Continuous
 62
     0
100
AcDbMText
 10
394.3635293948209
 20
1080.609723506833
 30
0.0
 40
24.4326171875
 41
0.0
 46
0.0
 71
     5
 72
     1
  1
\A1;100
  7
ＭＳ ゴシック
 11
0.0
 21
1.0
 31
0.0
 73
     1
 44
1.0
  0
POINT
  5
2532
330
2529
100
AcDbEntity
  8
Defpoints
 62
     0
100
AcDbPoint
 10
573.4395095732789
 20
1030.609723506833
 30
0.0
  0
POINT
  5
2533
330
2529
100
AcDbEntity
  8
Defpoints
 62
     0
100
AcDbPoint
 10
573.3395095732787
 20
1130.609723506833
 30
0.0
  0
POINT
  5
2534
330
2529
100
AcDbEntity
  8
Defpoints
 62
     0
100
AcDbPoint
 10
411.5798379885709
 20
1130.609723506833
 30
0.0
  0
ENDBLK
  5
252B
330
2529
100
AcDbEntity
  8
0
100
AcDbBlockEnd
  0
BLOCK
  5
2536
330
2535
100
AcDbEntity
  8
0
100
AcDbBlockBegin
  2
*D291
 70
     1
 10
0.0
 20
0.0
 30
0.0
  3
*D291
  1
*D291
  0
LINE
  5
2538
330
2535
100
AcDbEntity
  8
Dim
 62
     0
370
    -2
100
AcDbLine
 10
656.5873189762453
 20
580.6097235068307
 30
0.0
 11
656.5873189762453
 21
505.6097235068307
 31
0.0
  0
LINE
  5
2539
330
2535
100
AcDbEntity
  8
Dim
 62
     0
370
    -2
100
AcDbLine
 10
556.5873189762453
 20
580.6097235068307
 30
0.0
 11
556.5873189762453
 21
505.6097235068307
 31
0.0
  0
LINE
  5
253A
330
2535
100
AcDbEntity
  8
Dim
 62
     0
370
    -2
100
AcDbLine
 10
650.5873189762453
 20
505.6097235068307
 30
0.0
 11
562.5873189762453
 21
505.6097235068307
 31
0.0
  0
INSERT
  5
253B
330
2535
100
AcDbEntity
  8
Dim
 62
     0
370
    -2
100
AcDbBlockReference
  2
_DOT
 10
656.5873189762453
 20
505.6097235068307
 30
0.0
 41
6.0
 42
6.0
 43
6.0
  0
INSERT
  5
253C
330
2535
100
AcDbEntity
  8
Dim
 62
     0
370
    -2
100
AcDbBlockReference
  2
_DOT
 10
556.5873189762453
 20
505.6097235068307
 30
0.0
 41
6.0
 42
6.0
 43
6.0
 50
180.0
  0
MTEXT
  5
253D
330
2535
100
AcDbEntity
  8
Dim
  6
Continuous
 62
     0
100
AcDbMText
 10
606.5873189762453
 20
522.8260321005807
 30
0.0
 40
24.4326171875
 41
0.0
 46
0.0
 71
     5
 72
     1
  1
\A1;100
  7
ＭＳ ゴシック
 73
     1
 44
1.0
  0
POINT
  5
253E
330
2535
100
AcDbEntity
  8
Defpoints
 62
     0
100
AcDbPoint
 10
656.5873189762453
 20
605.6097235068307
 30
0.0
  0
POINT
  5
253F
330
2535
100
AcDbEntity
  8
Defpoints
 62
     0
100
AcDbPoint
 10
556.5873189762453
 20
605.6097235068307
 30
0.0
  0
POINT
  5
2540
330
2535
100
AcDbEntity
  8
Defpoints
 62
     0
100
AcDbPoint
 10
556.5873189762453
 20
505.6097235068307
 30
0.0
  0
ENDBLK
  5
2537
330
2535
100
AcDbEntity
  8
0
100
AcDbBlockEnd
  0
BLOCK
  5
2542
330
2541
100
AcDbEntity
  8
0
100
AcDbBlockBegin
  2
*D292
 70
     1
 10
0.0
 20
0.0
 30
0.0
  3
*D292
  1
*D292
  0
LINE
  5
2544
330
2541
100
AcDbEntity
  8
Dim
 62
     0
370
    -2
100
AcDbLine
 10
961.5873189762455
 20
581.1332781456165
 30
0.0
 11
961.5873189762455
 21
505.6097235068307
 31
0.0
  0
LINE
  5
2545
330
2541
100
AcDbEntity
  8
Dim
 62
     0
370
    -2
100
AcDbLine
 10
656.5873189762453
 20
580.6097235068307
 30
0.0
 11
656.5873189762453
 21
505.6097235068307
 31
0.0
  0
LINE
  5
2546
330
2541
100
AcDbEntity
  8
Dim
 62
     0
370
    -2
100
AcDbLine
 10
955.5873189762455
 20
505.6097235068307
 30
0.0
 11
662.5873189762453
 21
505.6097235068307
 31
0.0
  0
INSERT
  5
2547
330
2541
100
AcDbEntity
  8
Dim
 62
     0
370
    -2
100
AcDbBlockReference
  2
_DOT
 10
961.5873189762455
 20
505.6097235068307
 30
0.0
 41
6.0
 42
6.0
 43
6.0
  0
INSERT
  5
2548
330
2541
100
AcDbEntity
  8
Dim
 62
     0
370
    -2
100
AcDbBlockReference
  2
_DOT
 10
656.5873189762453
 20
505.6097235068307
 30
0.0
 41
6.0
 42
6.0
 43
6.0
 50
180.0
  0
MTEXT
  5
2549
330
2541
100
AcDbEntity
  8
Dim
  6
Continuous
 62
     0
100
AcDbMText
 10
809.0873189762453
 20
522.8260321005807
 30
0.0
 40
24.4326171875
 41
0.0
 46
0.0
 71
     5
 72
     1
  1
\A1;305
  7
ＭＳ ゴシック
 73
     1
 44
1.0
  0
POINT
  5
254A
330
2541
100
AcDbEntity
  8
Defpoints
 62
     0
100
AcDbPoint
 10
961.5873189762455
 20
606.1332781456165
 30
0.0
  0
POINT
  5
254B
330
2541
100
AcDbEntity
  8
Defpoints
 62
     0
100
AcDbPoint
 10
656.5873189762453
 20
605.6097235068307
 30
0.0
  0
POINT
  5
254C
330
2541
100
AcDbEntity
  8
Defpoints
 62
     0
100
AcDbPoint
 10
656.5873189762453
 20
505.6097235068307
 30
0.0
  0
ENDBLK
  5
2543
330
2541
100
AcDbEntity
  8
0
100
AcDbBlockEnd
  0
ENDSEC
  0
SECTION
  2
ENTITIES
  0
MTEXT
  5
177
330
A
100
AcDbEntity
  8
template
390
1D
100
AcDbMText
 10
82.00000000048226
 20
348.023957835319
 30
0.0
 40
16.28841145833333
 41
0.0
 46
0.0
 71
     1
 72
     1
  1
品名
  7
ＭＳ ゴシック
 73
     1
 44
0.7828267384257843
  0
MTEXT
  5
178
330
A
100
AcDbEntity
  8
template
390
1D
100
AcDbMText
 10
82.00000000048226
 20
263.0239578353188
 30
0.0
 40
16.28841145833333
 41
0.0
 46
0.0
 71
     1
 72
     1
  1
仕様
  7
ＭＳ ゴシック
 73
     1
 44
0.7828267384257843
  0
LINE
  5
179
330
A
100
AcDbEntity
  8
template
390
1D
100
AcDbLine
 10
2025.0
 20
271.4388797103189
 30
0.0
 11
75.00000000000023
 21
271.4388797103189
 31
0.0
  0
LWPOLYLINE
  5
17A
330
A
100
AcDbEntity
  8
template
390
1D
100
AcDbPolyline
 90
        5
 70
   128
 43
0.0
 10
2025.0
 20
2901.438879710319
 10
75.00000000000023
 20
2901.438879710319
 10
75.00000000000023
 20
101.4388797103188
 10
2025.0
 20
101.4388797103188
 10
2025.0
 20
2901.438879710319
  0
LINE
  5
17B
330
A
100
AcDbEntity
  8
template
390
1D
100
AcDbLine
 10
2025.0
 20
356.4388797103188
 30
0.0
 11
75.00000000000023
 21
356.4388797103188
 31
0.0
  0
LINE
  5
17C
330
A
100
AcDbEntity
  8
template
390
1D
100
AcDbLine
 10
2025.000000000482
 20
186.4388797103189
 30
0.0
 11
1272.000000000482
 21
186.4388797103189
 31
0.0
  0
MTEXT
  5
17E
330
A
100
AcDbEntity
  8
template
390
1D
100
AcDbMText
 10
1301.871406252743
 20
156.5284852370108
 30
0.0
 40
24.4326171875
 41
0.0
 46
0.0
 71
     1
 72
     1
  1
大洋金物株式会社 ティーフォルム事業部
  7
ＭＳ ゴシック
 73
     1
 44
0.7828267384257843
  0
MTEXT
  5
180
330
A
100
AcDbEntity
  8
template
390
1D
100
AcDbMText
 10
1834.000000000742
 20
234.4414968978188
 30
0.0
 40
24.4326171875
 41
0.0
 46
0.0
 71
     1
 72
     1
  1
1:10
  7
ＭＳ ゴシック
 73
     1
 44
0.7828267384257843
  0
MTEXT
  5
181
330
A
100
AcDbEntity
  8
template
390
1D
100
AcDbMText
 10
1781.000000000742
 20
263.0239578353188
 30
0.0
 40
16.28841145833333
 41
0.0
 46
0.0
 71
     1
 72
     1
  1
縮尺
  7
ＭＳ ゴシック
 73
     1
 44
0.7828267384257843
  0
LINE
  5
182
330
A
100
AcDbEntity
  8
template
390
1D
100
AcDbLine
 10
1774.000000000742
 20
186.4388797103189
 30
0.0
 11
1774.000000000742
 21
271.4388797103189
 31
0.0
  0
MTEXT
  5
183
330
A
100
AcDbEntity
  8
template
390
1D
100
AcDbMText
 10
1530.000000000742
 20
263.0239578353188
 30
0.0
 40
16.28841145833333
 41
0.0
 46
0.0
 71
     1
 72
     1
  1
容量
  7
ＭＳ ゴシック
 73
     1
 44
0.7828267384257843
  0
LINE
  5
184
330
A
100
AcDbEntity
  8
template
390
1D
100
AcDbLine
 10
1523.000000000742
 20
186.4388797103189
 30
0.0
 11
1523.000000000742
 21
271.4388797103189
 31
0.0
  0
MTEXT
  5
185
330
A
100
AcDbEntity
  8
template
390
1D
100
AcDbMText
 10
1279.000000000742
 20
348.023957835319
 30
0.0
 40
16.28841145833333
 41
0.0
 46
0.0
 71
     1
 72
     1
  1
品番
  7
ＭＳ ゴシック
 73
     1
 44
0.7828267384257843
  0
MTEXT
  5
186
330
A
100
AcDbEntity
  8
template
390
1D
100
AcDbMText
 10
1279.000000000742
 20
263.0239578353188
 30
0.0
 40
16.28841145833333
 41
0.0
 46
0.0
 71
     1
 72
     1
  1
重量
  7
ＭＳ ゴシック
 73
     1
 44
0.7828267384257843
  0
MTEXT
  5
187
330
A
100
AcDbEntity
  8
template
390
1D
100
AcDbMText
 10
1332.000000000742
 20
319.4414968978188
 30
0.0
 40
24.4326171875
 41
0.0
 46
24.4326171875
 71
     1
 72
     1
  1
{\C7;FAA70-2221}
  7
ＭＳ ゴシック
 73
     1
 44
0.7828267384257843
1001
ACAD
1000
ACAD_MTEXT_DEFINED_HEIGHT_BEGIN
1070
    46
1040
24.4326171875
1000
ACAD_MTEXT_DEFINED_HEIGHT_END
  0
LINE
  5
188
330
A
100
AcDbEntity
  8
template
390
1D
100
AcDbLine
 10
1272.000000000742
 20
101.4388797103188
 30
0.0
 11
1272.000000000742
 21
356.4388797103188
 31
0.0
  0
MTEXT
  5
189
330
A
100
AcDbEntity
  8
template
390
1D
100
AcDbMText
 10
129.4388022861965
 20
319.4414968978188
 30
0.0
 40
24.0
 41
0.0
 46
28.008
 71
     1
 72
     1
  1
{\C7;洗面器\C256; -DURAVIT,Philippe Starck E3-}
  7
ＭＳ ゴシック
 73
     1
 44
0.7828267384257843
1001
ACAD
1000
ACAD_MTEXT_DEFINED_HEIGHT_BEGIN
1070
    46
1040
28.008
1000
ACAD_MTEXT_DEFINED_HEIGHT_END
  0
MTEXT
  5
18A
330
A
100
AcDbEntity
  8
template
390
1D
100
AcDbMText
 10
128.3265627433394
 20
234.4414968978188
 30
0.0
 40
24.0
 41
0.0
 46
64.82835546640803
 71
     1
 72
     1
  1
{\fＭＳ ゴシック|b0|i0|c1|p0;\C7;壁掛け\C256;/オーバーフロー付き/壁取付ボルト付属/\P陶器/ホワイト}
  7
ＭＳ ゴシック
 73
     1
 44
0.9822934569727008
1001
ACAD
1000
ACAD_MTEXT_DEFINED_HEIGHT_BEGIN
1070
    46
1040
64.82835546640803
1000
ACAD_MTEXT_DEFINED_HEIGHT_END
  0
MTEXT
  5
1A6
330
A
100
AcDbEntity
  8
template
390
1D
100
AcDbMText
 10
1332.000000000742
 20
234.4414968978188
 30
0.0
 40
24.4326171875
 41
0.0
 46
28.390701171875
 71
     1
 72
     1
  1
{\C7;26kg}
  7
ＭＳ ゴシック
 73
     1
 44
0.7828267384257843
1001
ACAD
1000
ACAD_MTEXT_DEFINED_HEIGHT_BEGIN
1070
    46
1040
28.390701171875
1000
ACAD_MTEXT_DEFINED_HEIGHT_END
  0
MTEXT
  5
374
330
A
100
AcDbEntity
  8
template
390
1D
100
AcDbMText
 10
1581.992122669024
 20
234.4414968978188
 30
0.0
 40
24.4326171875
 41
0.0
 46
24.4326171875
 71
     1
 72
     1
  1
{\C7;5.8L}
  7
ＭＳ ゴシック
 73
     1
 44
0.7828267384257843
1001
ACAD
1000
ACAD_MTEXT_DEFINED_HEIGHT_BEGIN
1070
    46
1040
24.4326171875
1000
ACAD_MTEXT_DEFINED_HEIGHT_END
  0
INSERT
  5
3D0
330
A
100
AcDbEntity
  8
template
100
AcDbBlockReference
  2
名称未設定-1
 10
1873.559250554905
 20
30.23897196054438
 30
0.0
 41
0.7619999999999999
 42
0.7619999999999999
 43
0.7619999999999999
  0
MTEXT
  5
BDB
102
{ACAD_XDICTIONARY
360
BDC
102
}
330
A
100
AcDbEntity
  8
template
  6
Continuous
100
AcDbMText
 10
78.95663872901252
 20
86.10730750352229
 30
0.0
 40
23.0
 41
0.0
 46
23.0
 71
     1
 72
     1
  1
{20170302N}
  7
ＭＳ ゴシック
 73
     1
 44
1.0
1001
ACAD
1000
ACAD_MTEXT_DEFINED_HEIGHT_BEGIN
1070
    46
1040
23.0
1000
ACAD_MTEXT_DEFINED_HEIGHT_END
  0
LWPOLYLINE
  5
BEE
330
A
100
AcDbEntity
  8
PRINT BORDER
 48
3.0
100
AcDbPolyline
 90
        4
 70
     1
 43
0.0
 10
0.0
 20
0.0
 10
0.0
 20
2970.0
 10
2100.0
 20
2970.0
 10
2100.0
 20
0.0
  0
INSERT
  5
1273
330
A
100
AcDbEntity
  8
0
 62
     7
100
AcDbBlockReference
  2
BLOCK_2
 10
591.2037060744204
 20
943.564364962162
 30
0.0
  0
INSERT
  5
127B
330
A
100
AcDbEntity
  8
0
 62
     7
100
AcDbBlockReference
  2
BLOCK_2
 10
1291.863324028138
 20
1038.76992320659
 30
0.0
  0
INSERT
  5
127C
330
A
100
AcDbEntity
  8
0
 62
     7
100
AcDbBlockReference
  2
BLOCK_2
 10
652.1648429406905
 20
1595.641631888467
 30
0.0
  0
CIRCLE
  5
142C
330
A
100
AcDbEntity
  8
Dim
  6
Continuous
100
AcDbCircle
 10
1366.841726484681
 20
1758.85027442579
 30
0.0
 40
0.0
  0
MTEXT
  5
23F5
330
A
100
AcDbEntity
  8
Dim
390
1D
100
AcDbMText
 10
1189.63402542233
 20
690.2763113126061
 30
0.0
 40
24.4326171875
 41
921.0387070578199
 46
69.6724170327142
 71
     1
 72
     1
  1
{＝\C256;φ30もしくはφ35の水栓取付用穴あけ加工を承ります。必要な場合、ご注文の際にご指示ください。}
  7
ＭＳ ゴシック
 11
0.0
 21
1.0
 31
0.0
 73
     1
 44
1.043768984567712
1001
ACAD
1000
ACAD_MTEXT_DEFINED_HEIGHT_BEGIN
1070
    46
1040
69.6724170327142
1000
ACAD_MTEXT_DEFINED_HEIGHT_END
  0
MTEXT
  5
23F7
330
A
100
AcDbEntity
  8
Dim
390
1D
100
AcDbMText
 10
1508.209364022598
 20
1355.965660650151
 30
0.0
 40
24.0
 41
0.0
 46
29.448
 71
     1
 72
     1
  1
{\fSegoe UI|b0|i0|c0|p0;壁取付ボルト穴(2\f游ゴシック|b0|i0|c1|p0;ヶ所\fSegoe UI|b0|i0|c0|p0;)}
  7
ＭＳゴシック
 11
0.0
 21
1.0
 31
0.0
 73
     1
 44
0.7828267384257843
1001
ACAD
1000
ACAD_MTEXT_DEFINED_HEIGHT_BEGIN
1070
    46
1040
29.448
1000
ACAD_MTEXT_DEFINED_HEIGHT_END
  0
DIMENSION
  5
23F8
330
A
100
AcDbEntity
  8
Dim
390
1D
100
AcDbDimension
  2
*D275
 10
1096.587318976246
 20
865.6097235068312
 30
0.0
 11
1079.371010382496
 21
1130.609723506831
 31
0.0
 70
    32
 71
     5
 42
529.9999999999998
 73
     0
 74
     0
 75
     0
  3
tfrom線あり
100
AcDbAlignedDimension
 13
996.5873189762455
 23
1395.609723506831
 33
0.0
 14
996.5873189762455
 24
865.6097235068312
 34
0.0
 50
90.0
100
AcDbRotatedDimension
1001
ACAD
1000
DSTYLE
1002
{
1070
   279
1070
     2
1070
   340
1005
39
1070
   147
1040
5.0
1002
}
  0
DIMENSION
  5
23F9
330
A
100
AcDbEntity
  8
Dim
390
1D
100
AcDbDimension
  2
*D276
 10
1096.587318976246
 20
865.6097235068312
 30
0.0
 11
1079.371010382496
 21
753.1097235068311
 31
0.0
 70
    32
 71
     5
 42
225.0000000000002
 73
     0
 74
     0
 75
     0
  3
tfrom線あり
100
AcDbAlignedDimension
 13
996.1651154226129
 23
640.609723506831
 33
0.0
 14
996.5873189762455
 24
865.6097235068312
 34
0.0
 50
90.0
100
AcDbRotatedDimension
1001
ACAD
1000
DSTYLE
1002
{
1070
   279
1070
     2
1070
   340
1005
39
1070
   147
1040
5.0
1002
}
  0
DIMENSION
  5
23FA
330
A
100
AcDbEntity
  8
Dim
390
1D
100
AcDbDimension
  2
*D277
 10
1475.917619163672
 20
990.6097235068323
 30
0.0
 11
1458.701310569922
 21
1130.609723506832
 31
0.0
 70
    32
 71
     5
 42
279.9999999999998
 73
     0
 74
     0
 75
     0
  3
tfrom線あり
100
AcDbAlignedDimension
 13
1655.917619163672
 23
1270.609723506832
 33
0.0
 14
1655.917619163672
 24
990.6097235068323
 34
0.0
 50
90.0
100
AcDbRotatedDimension
1001
ACAD
1000
DSTYLE
1002
{
1070
   279
1070
     2
1070
   340
1005
39
1070
   147
1040
5.0
1002
}
  0
DIMENSION
  5
23FB
330
A
100
AcDbEntity
  8
Dim
390
1D
100
AcDbDimension
  2
*D278
 10
511.5798379885707
 20
1755.609723506832
 30
0.0
 11
754.083578482408
 21
1772.826032100582
 31
0.0
 70
    32
 71
     5
 42
485.0074809876747
 73
     0
 74
     0
 75
     0
  3
tfrom線あり
100
AcDbAlignedDimension
 13
996.5873189762455
 23
1605.515010564898
 33
0.0
 14
511.5798379885707
 24
1650.609723506833
 34
0.0
100
AcDbRotatedDimension
1001
ACAD
1000
DSTYLE
1002
{
1070
   279
1070
     2
1070
   340
1005
39
1070
   147
1040
5.0
1002
}
  0
DIMENSION
  5
23FC
330
A
100
AcDbEntity
  8
Dim
390
1D
100
AcDbDimension
  2
*D279
 10
1575.917619163672
 20
1755.609723506832
 30
0.0
 11
1688.417619163672
 21
1772.826032100582
 31
0.0
 70
    32
 71
     5
 42
225.0000000000009
 73
     0
 74
     0
 75
     0
  3
tfrom線あり
100
AcDbAlignedDimension
 13
1800.917619163672
 23
1168.109723506832
 33
0.0
 14
1575.917619163672
 24
1643.609723506832
 34
0.0
100
AcDbRotatedDimension
1001
ACAD
1000
DSTYLE
1002
{
1070
   279
1070
     2
1070
   340
1005
39
1070
   147
1040
5.0
1002
}
  0
DIMENSION
  5
23FD
330
A
100
AcDbEntity
  8
Dim
390
1D
100
AcDbDimension
  2
*D280
 10
1610.92577025777
 20
2481.335330821121
 30
0.0
 11
1525.396576278981
 21
2503.813046432483
 31
0.0
 70
   160
 71
     5
 42
145.0
 73
     0
 74
     0
 75
     0
  3
tfrom線あり
100
AcDbAlignedDimension
 13
1755.92577025777
 23
2506.335330821121
 33
0.0
 14
1610.92577025777
 24
2506.335330821121
 34
0.0
100
AcDbRotatedDimension
1001
ACAD
1000
DSTYLE
1002
{
1070
   172
1070
     1
1070
   279
1070
     2
1070
   340
1005
39
1070
     3
1000
<>(深さ)
1070
   174
1070
     0
1070
   147
1040
5.0
1002
}
  0
DIMENSION
  5
23FE
330
A
100
AcDbEntity
  8
Dim
390
1D
100
AcDbDimension
  2
*D281
 10
1650.917619163672
 20
2110.626201007747
 30
0.0
 11
1630.916260278776
 21
2137.448331218419
 31
0.0
 70
   160
 71
     5
 42
39.99184890590186
 73
     0
 74
     0
 75
     0
  3
tfrom線あり
100
AcDbAlignedDimension
 13
1610.92577025777
 23
2217.626201007747
 33
0.0
 14
1650.917619163672
 24
2215.626201007747
 34
0.0
100
AcDbRotatedDimension
1001
ACAD
1000
DSTYLE
1002
{
1070
   279
1070
     2
1070
   340
1005
39
1070
   147
1040
5.0
1002
}
  0
DIMENSION
  5
23FF
330
A
100
AcDbEntity
  8
Dim
390
1D
100
AcDbDimension
  2
*D282
 10
1610.92577025777
 20
2110.626201007747
 30
0.0
 11
1551.351296046513
 21
2136.515317065706
 31
0.0
 70
   160
 71
     5
 42
35.0
 73
     0
 74
     0
 75
     0
  3
tfrom線あり
100
AcDbAlignedDimension
 13
1575.92577025777
 23
2217.626201007747
 33
0.0
 14
1610.92577025777
 24
2217.626201007747
 34
0.0
100
AcDbRotatedDimension
1001
ACAD
1000
DSTYLE
1002
{
1070
   279
1070
     2
1070
   340
1005
39
1070
   174
1070
     0
1070
   147
1040
5.0
1002
}
  0
DIMENSION
  5
2400
330
A
100
AcDbEntity
  8
Dim
390
1D
100
AcDbDimension
  2
*D283
 10
1650.917619163672
 20
2110.626201007747
 30
0.0
 11
1709.071465317518
 21
2138.364944731729
 31
0.0
 70
   160
 71
     5
 42
119.9999999999998
 73
     0
 74
     0
 75
     0
  3
tfrom線あり
100
AcDbAlignedDimension
 13
1770.917619163672
 23
2410.279901708604
 33
0.0
 14
1650.917619163672
 24
2220.335330821121
 34
0.0
100
AcDbRotatedDimension
1001
ACAD
1000
DSTYLE
1002
{
1070
   279
1070
     2
1070
   340
1005
39
1070
   147
1040
5.0
1002
}
  0
DIMENSION
  5
2401
330
A
100
AcDbEntity
  8
Dim
390
1D
100
AcDbDimension
  2
*D284
 10
1770.917619163672
 20
2110.626201007747
 30
0.0
 11
1822.986886161256
 21
2138.381345371132
 31
0.0
 70
   160
 71
     5
 42
30.0
 73
     0
 74
     0
 75
     0
  3
tfrom線あり
100
AcDbAlignedDimension
 13
1800.917619163672
 23
2448.126201007757
 33
0.0
 14
1770.917619163672
 24
2441.126201007757
 34
0.0
100
AcDbRotatedDimension
1001
ACAD
1000
DSTYLE
1002
{
1070
   279
1070
     2
1070
   340
1005
39
1070
   174
1070
     0
1070
   147
1040
5.0
1002
}
  0
DIMENSION
  5
2402
330
A
100
AcDbEntity
  8
Dim
390
1D
100
AcDbDimension
  2
*D285
 10
1885.917619163672
 20
2485.626201007757
 30
0.0
 11
1868.701310569922
 21
2590.626201007756
 31
0.0
 70
    32
 71
     5
 42
209.9999999999973
 73
     0
 74
     0
 75
     0
  3
tfrom線あり
100
AcDbAlignedDimension
 13
1770.917619163672
 23
2695.626201007754
 33
0.0
 14
1800.917619163672
 24
2485.626201007757
 34
0.0
 50
90.0
100
AcDbRotatedDimension
1001
ACAD
1000
DSTYLE
1002
{
1070
   279
1070
     2
1070
   340
1005
39
1070
   147
1040
5.0
1002
}
  0
DIMENSION
  5
2403
330
A
100
AcDbEntity
  8
Dim
390
1D
100
AcDbDimension
  2
*D286
 10
1475.917619163672
 20
2695.626201007754
 30
0.0
 11
1458.701310569922
 21
2655.626201007754
 31
0.0
 70
    32
 71
     5
 42
80.0
 73
     0
 74
     0
 75
     0
  3
tfrom線あり
100
AcDbAlignedDimension
 13
1610.92577025777
 23
2615.626201007754
 33
0.0
 14
1575.917619163672
 24
2695.626201007754
 34
0.0
 50
90.0
100
AcDbRotatedDimension
1001
ACAD
1000
DSTYLE
1002
{
1070
   279
1070
     2
1070
   340
1005
39
1070
   147
1040
5.0
1002
}
  0
DIMENSION
  5
2404
330
A
100
AcDbEntity
  8
Dim
390
1D
100
AcDbDimension
  2
*D287
 10
361.5798379885709
 20
1655.609723506833
 30
0.0
 11
344.3635293948209
 21
1130.609723506832
 31
0.0
 70
    32
 71
     5
 42
1050.000000000002
 73
     0
 74
     0
 75
     0
  3
tfrom線あり
100
AcDbAlignedDimension
 13
516.579837988571
 23
605.6097235068307
 33
0.0
 14
516.579837988571
 24
1655.609723506833
 34
0.0
 50
90.0
100
AcDbRotatedDimension
1001
ACAD
1000
DSTYLE
1002
{
1070
   279
1070
     2
1070
   340
1005
39
1070
   147
1040
5.0
1002
}
  0
DIMENSION
  5
2405
330
A
100
AcDbEntity
  8
Dim
390
1D
100
AcDbDimension
  2
*D288
 10
1675.917619163672
 20
505.609723506831
 30
0.0
 11
1625.917619163672
 21
522.826032100581
 31
0.0
 70
    32
 71
     5
 42
100.0000000000002
 73
     0
 74
     0
 75
     0
  3
tfrom線あり
100
AcDbAlignedDimension
 13
1575.917619163672
 23
617.6097235068307
 33
0.0
 14
1675.917619163672
 24
970.6097235068323
 34
0.0
100
AcDbRotatedDimension
1001
ACAD
1000
DSTYLE
1002
{
1070
   279
1070
     2
1070
   340
1005
39
1070
   147
1040
5.0
1002
}
  0
DIMENSION
  5
2406
330
A
100
AcDbEntity
  8
Dim
390
1D
100
AcDbDimension
  2
*D289
 10
411.5798379885709
 20
1130.609723506833
 30
0.0
 11
394.3635293948209
 21
1180.609723506833
 31
0.0
 70
    32
 71
     5
 42
100.0
 73
     0
 74
     0
 75
     0
  3
tfrom線あり
100
AcDbAlignedDimension
 13
573.4395095732789
 23
1230.609723506833
 33
0.0
 14
573.3395095732787
 24
1130.609723506833
 34
0.0
 50
90.0
100
AcDbRotatedDimension
1001
ACAD
1000
DSTYLE
1002
{
1070
   279
1070
     2
1070
   340
1005
39
1070
   147
1040
5.0
1002
}
  0
DIMENSION
  5
2407
330
A
100
AcDbEntity
  8
Dim
390
1D
100
AcDbDimension
  2
*D290
 10
411.5798379885709
 20
1130.609723506833
 30
0.0
 11
394.3635293948209
 21
1080.609723506833
 31
0.0
 70
    32
 71
     5
 42
99.99999999999977
 73
     0
 74
     0
 75
     0
  3
tfrom線あり
100
AcDbAlignedDimension
 13
573.4395095732789
 23
1030.609723506833
 33
0.0
 14
573.3395095732787
 24
1130.609723506833
 34
0.0
 50
90.0
100
AcDbRotatedDimension
1001
ACAD
1000
DSTYLE
1002
{
1070
   279
1070
     2
1070
   340
1005
39
1070
   147
1040
5.0
1002
}
  0
DIMENSION
  5
2408
330
A
100
AcDbEntity
  8
Dim
390
1D
100
AcDbDimension
  2
*D291
 10
556.5873189762453
 20
505.6097235068307
 30
0.0
 11
606.5873189762453
 21
522.8260321005807
 31
0.0
 70
    32
 71
     5
 42
100.0
 73
     0
 74
     0
 75
     0
  3
tfrom線あり
100
AcDbAlignedDimension
 13
656.5873189762453
 23
605.6097235068307
 33
0.0
 14
556.5873189762453
 24
605.6097235068307
 34
0.0
100
AcDbRotatedDimension
1001
ACAD
1000
DSTYLE
1002
{
1070
   279
1070
     2
1070
   340
1005
39
1070
   147
1040
5.0
1002
}
  0
DIMENSION
  5
2409
330
A
100
AcDbEntity
  8
Dim
390
1D
100
AcDbDimension
  2
*D292
 10
656.5873189762453
 20
505.6097235068307
 30
0.0
 11
809.0873189762453
 21
522.8260321005807
 31
0.0
 70
    32
 71
     5
 42
305.0000000000001
 73
     0
 74
     0
 75
     0
  3
tfrom線あり
100
AcDbAlignedDimension
 13
961.5873189762455
 23
606.1332781456165
 33
0.0
 14
656.5873189762453
 24
605.6097235068307
 34
0.0
100
AcDbRotatedDimension
1001
ACAD
1000
DSTYLE
1002
{
1070
   279
1070
     2
1070
   340
1005
39
1070
   147
1040
5.0
1002
}
  0
LINE
  5
240A
330
A
100
AcDbEntity
  8
Dim
390
1D
100
AcDbLine
 10
1675.917619163672
 20
1270.609723506832
 30
0.0
 11
1551.521599128412
 21
1374.702840519534
 31
0.0
  0
CIRCLE
  5
240C
330
A
100
AcDbEntity
  8
HIDDEN
 48
2.0
390
1D
100
AcDbCircle
 10
1201.661869793913
 20
664.3938629302654
 30
0.0
 40
17.49999999999997
  0
LINE
  5
240D
330
A
100
AcDbEntity
  8
MODEL
390
1D
100
AcDbLine
 10
656.5873189762453
 20
1388.609723506833
 30
0.0
 11
656.5873189762453
 21
872.6097235068312
 31
0.0
  0
LINE
  5
240E
330
A
100
AcDbEntity
  8
MODEL
390
1D
100
AcDbLine
 10
961.5873189762455
 20
647.609723506831
 30
0.0
 11
961.5873189762455
 21
1613.609723506833
 31
0.0
  0
CIRCLE
  5
240F
330
A
100
AcDbEntity
  8
MODEL
390
1D
100
AcDbCircle
 10
591.579837988571
 20
1130.609723506833
 30
0.0
 40
17.5
  0
CIRCLE
  5
2410
330
A
100
AcDbEntity
  8
MODEL
390
1D
100
AcDbCircle
 10
721.5798379885707
 20
1130.609723506833
 30
0.0
 40
26.0
  0
CIRCLE
  5
2411
330
A
100
AcDbEntity
  8
MODEL
390
1D
100
AcDbCircle
 10
721.5798379885707
 20
1130.609723506833
 30
0.0
 40
37.5
  0
LINE
  5
2412
330
A
100
AcDbEntity
  8
MODEL
390
1D
100
AcDbLine
 10
539.5798379885707
 20
619.2895915505705
 30
0.0
 11
539.5798379885707
 21
1641.929855463093
 31
0.0
  0
LINE
  5
2413
330
A
100
AcDbEntity
  8
MODEL
390
1D
100
AcDbLine
 10
556.5873189762453
 20
647.609723506831
 30
0.0
 11
556.5873189762453
 21
1613.609723506833
 31
0.0
  0
LINE
  5
2414
330
A
100
AcDbEntity
  8
MODEL
390
1D
100
AcDbLine
 10
563.5873189762453
 20
640.609723506831
 30
0.0
 11
954.5873189762455
 21
640.609723506831
 31
0.0
  0
LINE
  5
2415
330
A
100
AcDbEntity
  8
MODEL
390
1D
100
AcDbLine
 10
663.5873189762453
 20
865.6097235068312
 30
0.0
 11
954.5873189762455
 21
865.6097235068312
 31
0.0
  0
LINE
  5
2416
330
A
100
AcDbEntity
  8
MODEL
390
1D
100
AcDbLine
 10
556.5873189762453
 20
635.8716152647353
 30
0.0
 11
556.5873189762453
 21
617.2387313570416
 31
0.0
  0
LINE
  5
2417
330
A
100
AcDbEntity
  8
MODEL
390
1D
100
AcDbLine
 10
511.5798379885707
 20
610.609723506831
 30
0.0
 11
539.5798379885707
 21
610.609723506831
 31
0.0
  0
ARC
  5
2418
330
A
100
AcDbEntity
  8
MODEL
390
1D
100
AcDbCircle
 10
549.140650179449
 20
618.14344054809
 30
0.0
 40
9.629267462778996
100
AcDbArc
 50
173.1639996303425
 51
239.8026947647648
  0
LINE
  5
2419
330
A
100
AcDbEntity
  8
MODEL
390
1D
100
AcDbLine
 10
563.5873189762453
 20
1620.609723506833
 30
0.0
 11
954.5873189762455
 21
1620.609723506833
 31
0.0
  0
LINE
  5
241A
330
A
100
AcDbEntity
  8
MODEL
390
1D
100
AcDbLine
 10
663.5873189762453
 20
1395.609723506833
 30
0.0
 11
954.5873189762455
 21
1395.609723506833
 31
0.0
  0
LINE
  5
241B
330
A
100
AcDbEntity
  8
MODEL
390
1D
100
AcDbLine
 10
556.5873189762453
 20
1625.347831748928
 30
0.0
 11
556.5873189762453
 21
1643.980715656622
 31
0.0
  0
LINE
  5
241C
330
A
100
AcDbEntity
  8
MODEL
390
1D
100
AcDbLine
 10
511.5798379885707
 20
1650.609723506833
 30
0.0
 11
539.5798379885707
 21
1650.609723506833
 31
0.0
  0
ARC
  5
241D
330
A
100
AcDbEntity
  8
MODEL
390
1D
100
AcDbCircle
 10
549.140650179449
 20
1643.076006465574
 30
0.0
 40
9.629267462779055
100
AcDbArc
 50
120.1973052352362
 51
186.8360003696575
  0
LWPOLYLINE
  5
241E
330
A
100
AcDbEntity
  8
MODEL
390
1D
100
AcDbPolyline
 90
        8
 70
   129
 43
0.0
 10
516.579837988571
 20
1655.609723506833
 42
0.414213562373095
 10
511.5798379885709
 20
1650.609723506833
 10
511.5798379885709
 20
610.6097235068307
 42
0.414213562373095
 10
516.579837988571
 20
605.6097235068307
 10
949.6893152681239
 20
605.6097235068312
 42
0.3950431318699724
 10
996.5873189762455
 20
649.5150105648909
 10
996.587318976245
 20
1611.704436448773
 42
0.3950431318699743
 10
949.6893152681233
 20
1655.609723506833
  0
LINE
  5
241F
330
A
100
AcDbEntity
  8
MODEL
390
1D
100
AcDbLine
 10
1770.917619163672
 20
1084.140397938779
 30
0.0
 11
1770.917619163672
 21
1177.079049074885
 31
0.0
  0
LINE
  5
2420
330
A
100
AcDbEntity
  8
MODEL
390
1D
100
AcDbLine
 10
1650.917619163672
 20
864.7360260885897
 30
0.0
 11
1650.917619163672
 21
1396.483420925073
 31
0.0
  0
LINE
  5
2421
330
A
100
AcDbEntity
  8
HIDDEN
  6
CENTER
 48
0.5
390
1D
100
AcDbLine
 10
1655.917619163672
 20
990.6097235068323
 30
0.0
 11
1695.917619163672
 21
990.6097235068323
 31
0.0
  0
LINE
  5
2422
330
A
100
AcDbEntity
  8
HIDDEN
  6
CENTER
 48
0.5
390
1D
100
AcDbLine
 10
1675.917619163672
 20
970.6097235068323
 30
0.0
 11
1675.917619163672
 21
1010.609723506832
 31
0.0
  0
LINE
  5
2423
330
A
100
AcDbEntity
  8
HIDDEN
  6
CENTER
 48
0.5
390
1D
100
AcDbLine
 10
1655.917619163672
 20
1270.609723506832
 30
0.0
 11
1695.917619163672
 21
1270.609723506832
 31
0.0
  0
LWPOLYLINE
  5
2424
330
A
100
AcDbEntity
  8
MODEL
390
1D
100
AcDbPolyline
 90
       36
 70
   129
 43
0.0
 10
1656.702081920003
 20
1389.589766653988
 42
-0.3639702342661584
 10
1650.917619163672
 20
1396.483420925073
 10
1650.917619163672
 20
1648.609723506832
 42
0.414213562373095
 10
1643.917619163672
 20
1655.609723506832
 10
1617.917619163672
 20
1655.609723506832
 42
0.414213562373095
 10
1610.917619163672
 20
1648.609723506832
 10
1610.917619163672
 20
1647.609723506832
 42
0.414213562373095
 10
1607.917619163672
 20
1650.609723506832
 10
1582.917619163672
 20
1650.609723506832
 42
0.414213562373095
 10
1575.917619163672
 20
1643.609723506832
 10
1575.917619163672
 20
617.6097235068305
 42
0.4142135623730974
 10
1582.917619163672
 20
610.6097235068305
 10
1607.917619163672
 20
610.6097235068305
 42
0.414213562373095
 10
1610.917619163672
 20
613.6097235068305
 10
1610.917619163672
 20
612.6097235068305
 42
0.4142135623730927
 10
1617.917619163672
 20
605.6097235068305
 10
1643.917619163672
 20
605.6097235068305
 42
0.414213562373095
 10
1650.917619163672
 20
612.6097235068305
 10
1650.917619163672
 20
864.7360260885896
 42
-0.3639702342661919
 10
1656.702081920004
 20
871.6296803596751
 10
1751.12706449368
 20
890.9242571509683
 42
0.3518140497447224
 10
1770.886615234012
 20
915.5307920482471
 10
1770.886615234012
 20
920.4938629302653
 10
1770.886615234012
 20
1084.093862930265
 10
1770.886615234012
 20
1084.128563378381
 42
-0.3821619133551238
 10
1777.113594551488
 20
1091.085749521096
 10
1777.186615234012
 20
1091.093862930265
 10
1800.917619163672
 20
1093.109723506832
 10
1800.917619163672
 20
1168.109723506832
 10
1777.186615234012
 20
1170.093862930265
 10
1777.113594551488
 20
1170.101976339435
 42
-0.3821619133551372
 10
1770.886615234012
 20
1177.05916248215
 10
1770.886615234012
 20
1177.093862930265
 10
1770.886615234012
 20
1340.793862930265
 42
0.3636703735527838
 10
1746.172571256241
 20
1370.278612668257
 10
1746.086615234012
 20
1370.293862930265
  0
LINE
  5
2425
330
A
100
AcDbEntity
  8
MODEL
390
1D
100
AcDbLine
 10
1610.917619163672
 20
613.6097235068307
 30
0.0
 11
1610.917619163672
 21
1648.609723506832
 31
0.0
  0
ARC
  5
2426
330
A
100
AcDbEntity
  8
HIDDEN
 48
2.0
390
1D
100
AcDbCircle
 10
1628.021785797574
 20
871.2250849489664
 30
0.0
 40
7.108176581756175
100
AcDbArc
 50
76.63154819184595
 51
178.0753653183579
  0
LINE
  5
2427
330
A
100
AcDbEntity
  8
HIDDEN
 48
2.0
390
1D
100
AcDbLine
 10
1765.03854370768
 20
1103.977654460716
 30
0.0
 11
1761.237423312772
 21
1099.993047292496
 31
0.0
  0
ARC
  5
2428
330
A
100
AcDbEntity
  8
HIDDEN
 48
2.0
390
1D
100
AcDbCircle
 10
1766.391650707107
 20
1102.853412610916
 30
0.0
 40
1.759209563622086
100
AcDbArc
 50
86.50703546641492
 51
140.2781795809291
  0
LINE
  5
2429
330
A
100
AcDbEntity
  8
MODEL
390
1D
100
AcDbLine
 10
1800.917619163672
 20
1093.109723506826
 30
0.0
 11
1800.917619163672
 21
1168.109723506826
 31
0.0
  0
LINE
  5
242A
330
A
100
AcDbEntity
  8
MODEL
390
1D
100
AcDbLine
 10
1575.917619163672
 20
612.6097235068271
 30
0.0
 11
1575.917619163672
 21
618.6097235068307
 31
0.0
  0
LINE
  5
242B
330
A
100
AcDbEntity
  8
MODEL
390
1D
100
AcDbLine
 10
1575.917619163672
 20
612.6097235068271
 30
0.0
 11
1575.917619163672
 21
618.6097235068307
 31
0.0
  0
LINE
  5
242C
330
A
100
AcDbEntity
  8
MODEL
390
1D
100
AcDbLine
 10
1800.917619163672
 20
1093.109723506826
 30
0.0
 11
1800.917619163672
 21
1130.609723506832
 31
0.0
  0
LINE
  5
242D
330
A
100
AcDbEntity
  8
MODEL
390
1D
100
AcDbLine
 10
1575.917619163672
 20
2695.626201007754
 30
0.0
 11
1770.917619163672
 21
2695.626201007754
 31
0.0
  0
LINE
  5
242E
330
A
100
AcDbEntity
  8
MODEL
390
1D
100
AcDbLine
 10
1575.917619163672
 20
2695.626201007754
 30
0.0
 11
1575.917619163672
 21
2666.13560455454
 31
0.0
  0
LINE
  5
242F
330
A
100
AcDbEntity
  8
MODEL
390
1D
100
AcDbLine
 10
1582.279217974262
 20
2659.164776488854
 30
0.0
 11
1593.512953439857
 21
2658.135970439535
 31
0.0
  0
ARC
  5
2430
330
A
100
AcDbEntity
  8
MODEL
390
1D
100
AcDbCircle
 10
1582.917619163672
 20
2666.13560455454
 30
0.0
 40
7.0
100
AcDbArc
 50
180.0
 51
264.7673442614728
  0
ARC
  5
2431
330
A
100
AcDbEntity
  8
MODEL
390
1D
100
AcDbCircle
 10
1590.273981965713
 20
2637.278522923541
 30
0.0
 40
21.10412583705681
100
AcDbArc
 50
11.67101220508752
 51
81.3192328580429
  0
LINE
  5
2432
330
A
100
AcDbEntity
  8
MODEL
390
1D
100
AcDbLine
 10
1610.92577025777
 20
2641.624528869969
 30
0.0
 11
1610.92577025777
 21
2217.626201007747
 31
0.0
  0
LINE
  5
2433
330
A
100
AcDbEntity
  8
MODEL
390
1D
100
AcDbLine
 10
1617.92577025777
 20
2210.626201007746
 30
0.0
 11
1645.917619163672
 21
2210.626201007746
 31
0.0
  0
ARC
  5
2434
330
A
100
AcDbEntity
  8
MODEL
390
1D
100
AcDbCircle
 10
1617.92577025777
 20
2217.626201007747
 30
0.0
 40
6.999999999999886
100
AcDbArc
 50
180.0
 51
270.0
  0
LINE
  5
2435
330
A
100
AcDbEntity
  8
MODEL
390
1D
100
AcDbLine
 10
1650.917619163672
 20
2695.626201007754
 30
0.0
 11
1650.917619163672
 21
2215.626201007747
 31
0.0
  0
ARC
  5
2436
330
A
100
AcDbEntity
  8
MODEL
390
1D
100
AcDbCircle
 10
1645.917619163672
 20
2215.626201007747
 30
0.0
 40
5.000000000000227
100
AcDbArc
 50
270.0
 51
0.0
  0
ARC
  5
2437
330
A
100
AcDbEntity
  8
MODEL
390
1D
100
AcDbCircle
 10
1545.854605082569
 20
2445.029426837418
 30
0.0
 40
225.4453162706672
100
AcDbArc
 50
298.2234197298669
 51
356.6628033016301
  0
LINE
  5
2438
330
A
100
AcDbEntity
  8
MODEL
390
1D
100
AcDbLine
 10
1770.917619163672
 20
2431.905771816407
 30
0.0
 11
1770.917619163672
 21
2695.626201007754
 31
0.0
  0
LINE
  5
2439
330
A
100
AcDbEntity
  8
MODEL
390
1D
100
AcDbLine
 10
1777.917619163672
 20
2523.126201007757
 30
0.0
 11
1800.917619163672
 21
2523.126201007757
 31
0.0
  0
LINE
  5
243A
330
A
100
AcDbEntity
  8
MODEL
390
1D
100
AcDbLine
 10
1777.917619163672
 20
2523.126201007757
 30
0.0
 11
1777.917619163672
 21
2448.126201007757
 31
0.0
  0
LINE
  5
243B
330
A
100
AcDbEntity
  8
MODEL
390
1D
100
AcDbLine
 10
1777.917619163672
 20
2448.126201007757
 30
0.0
 11
1800.917619163672
 21
2448.126201007757
 31
0.0
  0
LINE
  5
243C
330
A
100
AcDbEntity
  8
MODEL
390
1D
100
AcDbLine
 10
1800.917619163672
 20
2523.126201007757
 30
0.0
 11
1800.917619163672
 21
2448.126201007757
 31
0.0
  0
ARC
  5
243D
330
A
100
AcDbEntity
  8
MODEL
390
1D
100
AcDbCircle
 10
1777.546163610941
 20
2441.497656560488
 30
0.0
 40
6.638944247173034
100
AcDbArc
 50
86.7925690144146
 51
183.2074309855893
  0
ARC
  5
243E
330
A
100
AcDbEntity
  8
MODEL
390
1D
100
AcDbCircle
 10
1777.417619163665
 20
2529.62620100775
 30
0.0
 40
6.519202405196162
100
AcDbArc
 50
175.601294644936
 51
274.3987053550622
  0
LINE
  5
243F
330
A
100
AcDbEntity
  8
HIDDEN
 48
2.0
390
1D
100
AcDbLine
 10
1800.917619163672
 20
2511.626201007757
 30
0.0
 11
1767.524903253281
 21
2511.626201007757
 31
0.0
  0
LINE
  5
2440
330
A
100
AcDbEntity
  8
HIDDEN
 48
2.0
390
1D
100
AcDbLine
 10
1800.917619163672
 20
2459.626201007757
 30
0.0
 11
1767.174822893922
 21
2459.626201007757
 31
0.0
  0
LINE
  5
2441
330
A
100
AcDbEntity
  8
HIDDEN
 48
2.0
390
1D
100
AcDbLine
 10
1615.917619163672
 20
2250.626201007747
 30
0.0
 11
1618.917619163672
 21
2250.626201007747
 31
0.0
  0
ARC
  5
2442
330
A
100
AcDbEntity
  8
HIDDEN
 48
2.0
390
1D
100
AcDbCircle
 10
1615.871339113629
 20
2245.634877079031
 30
0.0
 40
4.992770373471242
100
AcDbArc
 50
88.62079683533283
 51
172.8292731323184
  0
ARC
  5
2443
330
A
100
AcDbEntity
  8
HIDDEN
 48
2.0
390
1D
100
AcDbCircle
 10
1618.864852848333
 20
2252.697096704508
 30
0.0
 40
2.071567829180991
100
AcDbArc
 50
271.4595776897439
 51
341.8793448457547
  0
ARC
  5
2444
330
A
100
AcDbEntity
  8
HIDDEN
 48
2.0
390
1D
100
AcDbCircle
 10
1626.679534750873
 20
2248.210465899746
 30
0.0
 40
6.995538820440996
100
AcDbArc
 50
123.3159083376807
 51
146.6840916623167
  0
ARC
  5
2445
330
A
100
AcDbEntity
  8
HIDDEN
 48
2.0
390
1D
100
AcDbCircle
 10
1291.08690253774
 20
2709.96774386228
 30
0.0
 40
563.8381727273312
100
AcDbArc
 50
306.0420309332132
 51
317.9233570888407
  0
ARC
  5
2446
330
A
100
AcDbEntity
  8
HIDDEN
 48
2.0
390
1D
100
AcDbCircle
 10
1551.037852081077
 20
2477.832054966412
 30
0.0
 40
215.3384559482735
100
AcDbArc
 50
317.4186387520991
 51
347.7763776932743
  0
ARC
  5
2447
330
A
100
AcDbEntity
  8
HIDDEN
 48
2.0
390
1D
100
AcDbCircle
 10
1694.640648237387
 20
2444.643056643197
 30
0.0
 40
67.99465749833622
100
AcDbArc
 50
349.4887840032523
 51
8.44537808451031
  0
LINE
  5
2448
330
A
100
AcDbEntity
  8
HIDDEN
 48
2.0
390
1D
100
AcDbLine
 10
1761.897993794737
 20
2454.62919287776
 30
0.0
 11
1765.644527624171
 21
2459.015465977577
 31
0.0
  0
LINE
  5
2449
330
A
100
AcDbEntity
  8
HIDDEN
 48
2.0
390
1D
100
AcDbLine
 10
1761.897993794737
 20
2454.62919287776
 30
0.0
 11
1765.644527624171
 21
2459.015465977577
 31
0.0
  0
ARC
  5
244A
330
A
100
AcDbEntity
  8
HIDDEN
 48
2.0
390
1D
100
AcDbCircle
 10
1767.121246110212
 20
2457.537913630348
 30
0.0
 40
2.088985022879855
100
AcDbArc
 50
88.53035795377907
 51
134.9838279128023
  0
LINE
  5
244B
330
A
100
AcDbEntity
  8
HIDDEN
 48
2.0
390
1D
100
AcDbLine
 10
1800.917619163672
 20
2511.626201007757
 30
0.0
 11
1767.174822893922
 21
2511.626201007757
 31
0.0
  0
LINE
  5
244C
330
A
100
AcDbEntity
  8
HIDDEN
 48
2.0
390
1D
100
AcDbLine
 10
1762.444432784122
 20
2515.99188403584
 30
0.0
 11
1765.644527624171
 21
2512.236936037936
 31
0.0
  0
ARC
  5
244D
330
A
100
AcDbEntity
  8
HIDDEN
 48
2.0
390
1D
100
AcDbCircle
 10
1767.121246110212
 20
2513.714488385165
 30
0.0
 40
2.088985022879978
100
AcDbArc
 50
225.0161720871933
 51
271.4696420462209
  0
ARC
  5
244E
330
A
100
AcDbEntity
  8
HIDDEN
 48
2.0
390
1D
100
AcDbCircle
 10
1628.044865101311
 20
2560.286165945612
 30
0.0
 40
7.142968853381986
100
AcDbArc
 50
186.8473781516367
 51
272.6293856601125
  0
ARC
  5
244F
330
A
100
AcDbEntity
  8
HIDDEN
 48
2.0
390
1D
100
AcDbCircle
 10
1661.796476863102
 20
2199.24985806191
 30
0.0
 40
355.4042358915497
100
AcDbArc
 50
82.54734902906938
 51
95.36867923889183
  0
ARC
  5
2450
330
A
100
AcDbEntity
  8
HIDDEN
 48
2.0
390
1D
100
AcDbCircle
 10
1694.694279291544
 20
2441.504639823119
 30
0.0
 40
110.9353255104232
100
AcDbArc
 50
65.41596309900966
 51
83.16599815588916
  0
ARC
  5
2451
330
A
100
AcDbEntity
  8
HIDDEN
 48
2.0
390
1D
100
AcDbCircle
 10
1729.216496790654
 20
2510.833094137653
 30
0.0
 40
33.62601438766723
100
AcDbArc
 50
8.824977677358119
 51
69.76564275057451
  0
LINE
  5
2452
330
A
100
AcDbEntity
  8
HIDDEN
 48
2.0
390
1D
100
AcDbLine
 10
1620.917619163672
 20
2559.621087092006
 30
0.0
 11
1620.917619163672
 21
2653.800994948834
 31
0.0
  0
LINE
  5
2453
330
A
100
AcDbEntity
  8
HIDDEN
 48
2.0
390
1D
100
AcDbLine
 10
1582.279217974262
 20
2659.164776488854
 30
0.0
 11
1619.100019503503
 21
2655.792660110459
 31
0.0
  0
ARC
  5
2454
330
A
100
AcDbEntity
  8
HIDDEN
 48
2.0
390
1D
100
AcDbCircle
 10
1618.917619163672
 20
2653.800994948834
 30
0.0
 40
2.0
100
AcDbArc
 50
0.0
 51
84.76734426147426
  0
LINE
  5
2455
330
A
100
AcDbEntity
  8
HIDDEN
 48
2.0
390
1D
100
AcDbLine
 10
1620.917619163672
 20
871.4638123147582
 30
0.0
 11
1620.917619163672
 21
650.6097235068307
 31
0.0
  0
ARC
  5
2456
330
A
100
AcDbEntity
  8
HIDDEN
 48
2.0
390
1D
100
AcDbCircle
 10
1615.917619163672
 20
650.6097235068307
 30
0.0
 40
5.0
100
AcDbArc
 50
270.0
 51
0.0
  0
LINE
  5
2457
330
A
100
AcDbEntity
  8
MODEL
390
1D
100
AcDbLine
 10
1610.917619163672
 20
640.9222251890062
 30
0.0
 11
1610.917619163672
 21
629.9222251890062
 31
0.0
  0
ARC
  5
2458
330
A
100
AcDbEntity
  8
HIDDEN
 48
2.0
390
1D
100
AcDbCircle
 10
1615.917619163672
 20
640.6097235068307
 30
0.0
 40
5.0
100
AcDbArc
 50
90.0
 51
180.0
  0
LINE
  5
2459
330
A
100
AcDbEntity
  8
HIDDEN
 48
2.0
390
1D
100
AcDbLine
 10
1620.917619163672
 20
1389.755634698904
 30
0.0
 11
1620.917619163672
 21
1610.609723506832
 31
0.0
  0
ARC
  5
245A
330
A
100
AcDbEntity
  8
HIDDEN
 48
2.0
390
1D
100
AcDbCircle
 10
1615.917619163672
 20
1610.609723506832
 30
0.0
 40
5.0
100
AcDbArc
 50
0.0
 51
90.0
  0
ARC
  5
245B
330
A
100
AcDbEntity
  8
HIDDEN
 48
2.0
390
1D
100
AcDbCircle
 10
1615.917619163672
 20
1620.609723506832
 30
0.0
 40
5.0
100
AcDbArc
 50
180.0
 51
269.9999999999974
  0
LINE
  5
245C
330
A
100
AcDbEntity
  8
HIDDEN
  6
CENTER
 48
0.5
390
1D
100
AcDbLine
 10
1675.917619163672
 20
1290.609723506832
 30
0.0
 11
1675.917619163672
 21
1250.609723506832
 31
0.0
  0
ARC
  5
245D
330
A
100
AcDbEntity
  8
HIDDEN
 48
2.0
390
1D
100
AcDbCircle
 10
1628.021785797574
 20
1389.994362064696
 30
0.0
 40
7.108176581756252
100
AcDbArc
 50
181.9246346816421
 51
283.3684518081538
  0
LINE
  5
245E
330
A
100
AcDbEntity
  8
HIDDEN
 48
2.0
390
1D
100
AcDbLine
 10
1766.498829185202
 20
1156.609723506839
 30
0.0
 11
1800.917619163672
 21
1156.609723506839
 31
0.0
  0
LINE
  5
245F
330
A
100
AcDbEntity
  8
HIDDEN
 48
2.0
390
1D
100
AcDbLine
 10
1765.03854370768
 20
1157.241792552949
 30
0.0
 11
1761.237423312772
 21
1161.226399721168
 31
0.0
  0
ARC
  5
2460
330
A
100
AcDbEntity
  8
HIDDEN
 48
2.0
390
1D
100
AcDbCircle
 10
1766.391650707107
 20
1158.366034402748
 30
0.0
 40
1.759209563621853
100
AcDbArc
 50
219.7218204190699
 51
273.4929645335929
  0
LINE
  5
2461
330
A
100
AcDbEntity
  8
MODEL
390
1D
100
AcDbLine
 10
1800.917619163672
 20
1168.109723506839
 30
0.0
 11
1800.917619163672
 21
1093.109723506839
 31
0.0
  0
LINE
  5
2462
330
A
100
AcDbEntity
  8
MODEL
390
1D
100
AcDbLine
 10
1800.917619163672
 20
1168.109723506839
 30
0.0
 11
1800.917619163672
 21
1130.609723506832
 31
0.0
  0
CIRCLE
  5
2463
330
A
100
AcDbEntity
  8
HIDDEN
 48
2.0
390
1D
100
AcDbCircle
 10
591.5866152340116
 20
1230.609723506833
 30
0.0
 40
17.49999999999997
  0
CIRCLE
  5
2464
330
A
100
AcDbEntity
  8
HIDDEN
 48
2.0
390
1D
100
AcDbCircle
 10
591.5866152340116
 20
1030.609723506833
 30
0.0
 40
17.49999999999997
  0
ARC
  5
2465
330
A
100
AcDbEntity
  8
MODEL
390
1D
100
AcDbCircle
 10
954.5873189762455
 20
647.609723506831
 30
0.0
 40
7.0
100
AcDbArc
 50
270.0
 51
0.0
  0
ARC
  5
2466
330
A
100
AcDbEntity
  8
MODEL
390
1D
100
AcDbCircle
 10
954.5873189762455
 20
1613.609723506833
 30
0.0
 40
7.0
100
AcDbArc
 50
0.0
 51
90.0
  0
ARC
  5
2467
330
A
100
AcDbEntity
  8
MODEL
390
1D
100
AcDbCircle
 10
954.5873189762455
 20
1388.609723506833
 30
0.0
 40
7.0
100
AcDbArc
 50
0.0
 51
90.0
  0
ARC
  5
2468
330
A
100
AcDbEntity
  8
MODEL
390
1D
100
AcDbCircle
 10
954.5873189762455
 20
872.6097235068312
 30
0.0
 40
7.0
100
AcDbArc
 50
270.0
 51
0.0
  0
ARC
  5
2469
330
A
100
AcDbEntity
  8
MODEL
390
1D
100
AcDbCircle
 10
663.5873189762453
 20
1388.609723506833
 30
0.0
 40
7.0
100
AcDbArc
 50
90.0
 51
180.0
  0
ARC
  5
246A
330
A
100
AcDbEntity
  8
MODEL
390
1D
100
AcDbCircle
 10
663.5873189762453
 20
872.6097235068312
 30
0.0
 40
7.0
100
AcDbArc
 50
180.0
 51
270.0
  0
LINE
  5
246B
330
A
100
AcDbEntity
  8
MODEL
390
1D
100
AcDbLine
 10
1620.917619163672
 20
2598.126201007754
 30
0.0
 11
1635.917619163672
 21
2598.126201007754
 31
0.0
  0
LINE
  5
246C
330
A
100
AcDbEntity
  8
MODEL
390
1D
100
AcDbLine
 10
1620.917619163672
 20
2633.126201007754
 30
0.0
 11
1635.917619163672
 21
2633.126201007754
 31
0.0
  0
ARC
  5
246D
330
A
100
AcDbEntity
  8
MODEL
390
1D
100
AcDbCircle
 10
563.5873189762453
 20
1613.609723506833
 30
0.0
 40
7.0
100
AcDbArc
 50
90.0
 51
180.0
  0
ARC
  5
246E
330
A
100
AcDbEntity
  8
MODEL
390
1D
100
AcDbCircle
 10
563.5873189762453
 20
647.609723506831
 30
0.0
 40
7.0
100
AcDbArc
 50
180.0
 51
270.0
  0
CIRCLE
  5
246F
330
A
100
AcDbEntity
  8
HIDDEN
 48
2.0
390
1D
100
AcDbCircle
 10
1675.917619163672
 20
1270.609723506832
 30
0.0
 40
10.0
  0
CIRCLE
  5
2470
330
A
100
AcDbEntity
  8
HIDDEN
 48
2.0
390
1D
100
AcDbCircle
 10
1675.917619163672
 20
990.6097235068323
 30
0.0
 40
10.0
  0
SPLINE
  5
2471
330
A
100
AcDbEntity
  8
HIDDEN
 48
2.0
390
1D
100
AcDbSpline
210
0.0
220
0.0
230
1.0
 70
     8
 71
     2
 72
     6
 73
     3
 74
     0
 42
0.000000001
 43
0.000001
 40
0.0
 40
0.0
 40
0.0
 40
1.0
 40
1.0
 40
1.0
 10
1627.386779316141
 20
1382.914606342501
 30
0.0
 10
1766.276082827295
 20
1365.524534104834
 30
0.0
 10
1761.237423312772
 20
1161.226399721168
 30
0.0
  0
LINE
  5
2472
330
A
100
AcDbEntity
  8
HIDDEN
 48
2.0
390
1D
100
AcDbLine
 10
1766.498829185202
 20
1104.609723506826
 30
0.0
 11
1800.917619163672
 21
1104.609723506826
 31
0.0
  0
SPLINE
  5
2473
330
A
100
AcDbEntity
  8
HIDDEN
 48
2.0
390
1D
100
AcDbSpline
210
0.0
220
0.0
230
1.0
 70
     8
 71
     2
 72
     6
 73
     3
 74
     0
 42
0.000000001
 43
0.000001
 40
0.0
 40
0.0
 40
0.0
 40
1.0
 40
1.0
 40
1.0
 10
1627.386779316141
 20
878.304840671163
 30
0.0
 10
1766.276082827295
 20
895.6949129088307
 30
0.0
 10
1761.237423312772
 20
1099.993047292496
 30
0.0
  0
LINE
  5
2565
330
A
100
AcDbEntity
  8
Dim
  6
Continuous
100
AcDbLine
 10
607.0301528391892
 20
1138.827860218811
 30
0.0
 11
705.3125823957992
 21
1246.974045823288
 31
0.0
  0
LINE
  5
2566
330
A
100
AcDbEntity
  8
Dim
  6
Continuous
100
AcDbLine
 10
705.3125823957992
 20
1246.974045823288
 30
0.0
 11
779.9127130143135
 21
1246.974045823288
 31
0.0
  0
MTEXT
  5
2567
330
A
100
AcDbEntity
  8
Dim
390
1D
100
AcDbMText
 10
716.6229814679562
 20
1281.73486726485
 30
0.0
 40
24.4326171875
 41
0.0
 46
28.390701171875
 71
     1
 72
     1
  1
{φ35}
  7
ＭＳ ゴシック
 73
     1
 44
0.7828267384257843
1001
ACAD
1000
ACAD_MTEXT_DEFINED_HEIGHT_BEGIN
1070
    46
1040
28.390701171875
1000
ACAD_MTEXT_DEFINED_HEIGHT_END
  0
LINE
  5
2571
330
A
100
AcDbEntity
  8
Dim
  6
Continuous
100
AcDbLine
 10
1613.92577025777
 20
2481.335330821121
 30
0.0
 11
1458.525178992939
 21
2481.335330821121
 31
0.0
  0
LINE
  5
2578
330
A
100
AcDbEntity
  8
Dim
  6
Continuous
100
AcDbLine
 10
1581.92577025777
 20
2110.626201007747
 30
0.0
 11
1533.697830022284
 21
2110.626201007747
 31
0.0
  0
LINE
  5
2579
330
A
100
AcDbEntity
  8
Dim
  6
Continuous
100
AcDbLine
 10
1799.417619163672
 20
2110.626201007747
 30
0.0
 11
1847.473951936799
 21
2110.626201007747
 31
0.0
  0
VIEWPORT
  5
349
330
B
100
AcDbEntity
 67
     1
  8
0
100
AcDbViewport
 10
202.5
 20
128.5
 30
0.0
 40
486.0
 41
308.4
 68
     1
 69
     1
 12
202.5
 22
128.5
 13
0.0
 23
0.0
 14
0.5
 24
0.5
 15
0.0
 25
0.0
 16
0.0
 26
0.0
 36
1.0
 17
0.0
 27
0.0
 37
0.0
 42
50.0
 43
0.0
 44
0.0
 45
308.4
 50
0.0
 51
0.0
 72
   100
 90
   557152
  1

281
     0
 71
     1
 74
     0
110
0.0
120
0.0
130
0.0
111
1.0
121
0.0
131
0.0
112
0.0
122
1.0
132
0.0
 79
     0
146
0.0
170
     0
 61
     5
348
26C
292
     1
282
     1
141
0.0
142
0.0
 63
   256
  0
VIEWPORT
  5
34A
330
B
100
AcDbEntity
 67
     1
  8
0
100
AcDbViewport
 10
202.5
 20
128.5
 30
0.0
 40
324.0
 41
205.6
 68
     2
 69
     2
 12
986.6781359294573
 22
1427.077061889956
 13
0.0
 23
0.0
 14
0.5
 24
0.5
 15
0.0
 25
0.0
 16
0.0
 26
0.0
 36
1.0
 17
0.0
 27
0.0
 37
0.0
 42
50.0
 43
0.0
 44
0.0
 45
2890.021615685494
 50
0.0
 51
0.0
 72
   100
 90
   557152
  1

281
     0
 71
     1
 74
     0
110
0.0
120
0.0
130
0.0
111
1.0
121
0.0
131
0.0
112
0.0
122
1.0
132
0.0
 79
     0
146
0.0
170
     0
 61
     5
348
26C
292
     1
282
     1
141
0.0
142
0.0
 63
   256
  0
ENDSEC
  0
SECTION
  2
OBJECTS
  0
DICTIONARY
  5
19
330
0
100
AcDbDictionary
281
     1
  3
ACAD_COLOR
350
38F
  3
ACAD_DETAILVIEWSTYLE
350
8CF
  3
ACAD_FIELDLIST
350
BA6
  3
ACAD_GROUP
350
1A
  3
ACAD_IMAGE_VARS
350
27B
  3
ACAD_LAYOUT
350
1E
  3
ACAD_MATERIAL
350
263
  3
ACAD_MLEADERSTYLE
350
336
  3
ACAD_MLINESTYLE
350
1B
  3
ACAD_PLOTSETTINGS
350
22
  3
ACAD_PLOTSTYLENAME
350
1F
  3
ACAD_SCALELIST
350
241
  3
ACAD_SECTIONVIEWSTYLE
350
8D0
  3
ACAD_TABLESTYLE
350
278
  3
ACAD_VISUALSTYLE
350
267
  3
ACDB_RECOMPOSE_DATA
350
258E
  3
AcDbVariableDictionary
350
330
  3
APPDATA
350
27A
  3
DimOffsetDictionary
350
C08
  0
SUN
  5
8C2
330
15
100
AcDbSun
 90
        1
290
     0
 63
     7
421
 16777215
 40
1.0
291
     1
 91
  2455826
 92
 54000000
292
     0
 70
     2
 71
   256
280
     1
  0
DICTIONARY
  5
2E1
330
2
100
AcDbDictionary
280
     1
281
     1
  3
ACAD_LAYERSTATES
360
2E2
  3
ACLYDICTIONARY
360
BFE
  0
DICTIONARY
  5
BDC
330
BDB
100
AcDbDictionary
280
     1
281
     1
  3
ACAD_FIELD
360
BE4
  0
DICTIONARY
  5
38F
102
{ACAD_REACTORS
330
19
102
}
330
19
100
AcDbDictionary
281
     1
  0
DICTIONARY
  5
8CF
102
{ACAD_REACTORS
330
19
102
}
330
19
100
AcDbDictionary
281
     1
  0
FIELDLIST
  5
BA6
102
{ACAD_REACTORS
330
19
102
}
330
19
100
AcDbIdSet
 90
        2
330
BDF
330
BDE
100
AcDbFieldList
  0
DICTIONARY
  5
1A
102
{ACAD_REACTORS
330
19
102
}
330
19
100
AcDbDictionary
281
     1
  0
RASTERVARIABLES
  5
27B
102
{ACAD_REACTORS
330
19
102
}
330
19
100
AcDbRasterVariables
 90
        0
 70
     1
 71
     1
 72
     1
  0
DICTIONARY
  5
1E
102
{ACAD_REACTORS
330
19
102
}
330
19
100
AcDbDictionary
281
     1
  3
Layout1
350
21
  3
Model
350
20
  0
DICTIONARY
  5
263
102
{ACAD_REACTORS
330
19
102
}
330
19
100
AcDbDictionary
281
     1
  3
ByLayer
350
264
  3
Global
350
266
  0
DICTIONARY
  5
336
102
{ACAD_REACTORS
330
19
102
}
330
19
100
AcDbDictionary
281
     1
  3
Standard
350
8D1
  0
DICTIONARY
  5
1B
102
{ACAD_REACTORS
330
19
102
}
330
19
100
AcDbDictionary
281
     1
  3
Standard
350
1C
  0
DICTIONARY
  5
22
102
{ACAD_REACTORS
330
19
102
}
330
19
100
AcDbDictionary
281
     1
  0
ACDBDICTIONARYWDFLT
  5
1F
102
{ACAD_REACTORS
330
19
102
}
330
19
100
AcDbDictionary
281
     1
  3
Normal
350
1D
100
AcDbDictionaryWithDefault
340
1D
  0
DICTIONARY
  5
241
102
{ACAD_REACTORS
330
19
102
}
330
19
100
AcDbDictionary
281
     1
  3
A0
350
242
  3
A1
350
243
  3
A2
350
244
  3
A3
350
245
  3
A4
350
246
  3
A5
350
247
  3
A6
350
248
  3
A7
350
249
  3
A8
350
24A
  3
A9
350
24B
  3
B0
350
24C
  3
B1
350
24D
  3
B2
350
24E
  3
B3
350
24F
  3
B4
350
250
  3
B5
350
251
  3
B6
350
252
  3
B7
350
253
  3
B8
350
254
  3
B9
350
255
  3
C0
350
256
  3
C1
350
257
  3
C2
350
258
  3
C3
350
259
  3
C4
350
25A
  3
C5
350
25B
  3
C6
350
25C
  3
C7
350
25D
  3
C8
350
25E
  3
C9
350
25F
  3
D0
350
260
  3
D1
350
261
  3
D2
350
262
  0
DICTIONARY
  5
8D0
102
{ACAD_REACTORS
330
19
102
}
330
19
100
AcDbDictionary
281
     1
  0
DICTIONARY
  5
278
102
{ACAD_REACTORS
330
19
102
}
330
19
100
AcDbDictionary
281
     1
  3
Standard
350
279
  0
DICTIONARY
  5
267
102
{ACAD_REACTORS
330
19
102
}
330
19
100
AcDbDictionary
281
     1
  3
2dWireframe
350
26C
  3
3D Hidden
350
26E
  3
3dWireframe
350
26D
  3
Basic
350
26F
  3
Brighten
350
273
  3
ColorChange
350
277
  3
Conceptual
350
271
  3
Dim
350
272
  3
EdgeColorOff
350
8BC
  3
Facepattern
350
276
  3
Flat
350
268
  3
FlatWithEdges
350
269
  3
Gouraud
350
26A
  3
GouraudWithEdges
350
26B
  3
Hidden
350
8B9
  3
JitterOff
350
8BA
  3
Linepattern
350
275
  3
OverhangOff
350
8BB
  3
Realistic
350
270
  3
Shaded
350
8C1
  3
Shaded with edges
350
8C0
  3
Shades of Gray
350
8BD
  3
Sketchy
350
8BE
  3
Thicken
350
274
  3
Wireframe
350
8B8
  3
X-Ray
350
8BF
  0
XRECORD
  5
258E
102
{ACAD_REACTORS
330
19
102
}
330
19
100
AcDbXrecord
280
     1
 90
        1
330
279
  0
DICTIONARY
  5
330
102
{ACAD_REACTORS
330
19
102
}
330
19
100
AcDbDictionary
281
     1
  3
CANNOSCALE
350
331
  3
CMLEADERSTYLE
350
8DA
  3
CTABLESTYLE
350
335
  3
HPTRANSPARENCY
350
C07
  3
XCLIPFRAME
350
64A
  0
DICTIONARY
  5
27A
102
{ACAD_REACTORS
330
19
102
}
330
19
100
AcDbDictionary
281
     1
  0
DICTIONARY
  5
C08
102
{ACAD_REACTORS
330
19
102
}
330
19
100
AcDbDictionary
281
     1
  3
DIMRAILANGLE
350
21D8
  3
DIMRAILFIRSTOFFSET
350
21D6
  3
DIMRAILOFFSET
350
21D7
  3
DIMRAILSENABLED
350
21D9
  0
DICTIONARY
  5
2E2
102
{ACAD_REACTORS
330
2E1
102
}
330
2E1
100
AcDbDictionary
281
     1
  3
ARGON_LAYERP_15
350
870
  0
DICTIONARY
  5
BFE
102
{ACAD_REACTORS
330
2E1
102
}
330
2E1
100
AcDbDictionary
281
     1
1001
ACAD
1000
<All
  0
DICTIONARY
  5
BE4
102
{ACAD_REACTORS
330
BDC
102
}
330
BDC
100
AcDbDictionary
280
     1
281
     1
  3
TEXT
360
BDE
  0
LAYOUT
  5
21
102
{ACAD_REACTORS
330
1E
102
}
330
1E
100
AcDbPlotSettings
  1

  2
none_device
  4
ISO_A3_(420.00_x_297.00_MM)
  6

 40
7.5
 41
20.0
 42
7.5
 43
20.0
 44
420.0
 45
297.0
 46
0.0
 47
0.0
 48
0.0
 49
0.0
140
0.0
141
0.0
142
1.0
143
1.0
 70
     0
 72
     1
 73
     0
 74
     0
  7

 75
     0
 76
     0
 77
     2
 78
   300
147
1.0
148
0.0
149
0.0
100
AcDbLayout
  1
Layout1
 70
     0
 71
     0
 10
0.0
 20
0.0
 11
0.0
 21
0.0
 12
0.0
 22
0.0
 32
0.0
 14
0.0
 24
0.0
 34
0.0
 15
0.0
 25
0.0
 35
0.0
146
0.0
 13
0.0
 23
0.0
 33
0.0
 16
0.0
 26
0.0
 36
0.0
 17
0.0
 27
0.0
 37
0.0
 76
     0
330
B
331
349
  0
LAYOUT
  5
20
102
{ACAD_REACTORS
330
1E
102
}
330
1E
100
AcDbPlotSettings
  1

  2
none_device
  4
ISO_A3_(420.00_x_297.00_MM)
  6

 40
7.5
 41
20.0
 42
7.5
 43
20.0
 44
420.0
 45
297.0
 46
0.0
 47
0.0
 48
0.0
 49
0.0
140
0.0
141
0.0
142
1.0
143
1.0
 70
  1024
 72
     1
 73
     0
 74
     0
  7

 75
     0
 76
     0
 77
     2
 78
   300
147
1.0
148
0.0
149
0.0
100
AcDbLayout
  1
Model
 70
     0
 71
     1
 10
0.0
 20
0.0
 11
2100.0
 21
2970.0
 12
0.0
 22
0.0
 32
0.0
 14
0.0
 24
0.0
 34
0.0
 15
2100.0
 25
2970.0
 35
0.0
146
0.0
 13
0.0
 23
0.0
 33
0.0
 16
0.0
 26
0.0
 36
0.0
 17
0.0
 27
0.0
 37
0.0
 76
     0
330
A
331
15
  0
MATERIAL
  5
264
102
{ACAD_REACTORS
330
263
102
}
330
263
100
AcDbMaterial
  1
ByLayer
 72
     1
 94
      127
  0
MATERIAL
  5
266
102
{ACAD_REACTORS
330
263
102
}
330
263
100
AcDbMaterial
  1
Global
 72
     1
 94
      127
  0
MLEADERSTYLE
  5
8D1
102
{ACAD_REACTORS
330
336
102
}
330
336
100
AcDbMLeaderStyle
170
     2
171
     1
172
     0
 90
        2
 40
0.0
 41
0.0
173
     1
 91
-1056964608
340
11
 92
       -2
290
     1
 42
2.0
291
     1
 43
8.0
  3
Standard
341
0
 44
4.0
300

342
17
174
     1
178
     6
175
     1
176
     0
 93
-1056964608
 45
4.0
292
     0
297
     0
 46
4.0
343
0
 94
-1056964608
 47
1.0
 49
1.0
140
1.0
293
     1
141
0.0
294
     1
177
     0
142
1.0
295
     0
296
     0
143
3.75
1001
ACAD_MLEADERVER
1070
     2
  0
MLINESTYLE
  5
1C
102
{ACAD_REACTORS
330
1B
102
}
330
1B
100
AcDbMlineStyle
  2
Standard
 70
     0
  3

 62
     0
 51
90.0
 52
90.0
 71
     2
 49
0.5
 62
   256
  6
BYLAYER
 49
-0.5
 62
   256
  6
BYLAYER
  0
ACDBPLACEHOLDER
  5
1D
102
{ACAD_REACTORS
330
1F
102
}
330
1F
  0
SCALE
  5
242
102
{ACAD_REACTORS
330
241
102
}
330
241
100
AcDbScale
 70
     0
300
1:1
140
1.0
141
1.0
290
     1
  0
SCALE
  5
243
102
{ACAD_REACTORS
330
241
102
}
330
241
100
AcDbScale
 70
     0
300
1:2
140
1.0
141
2.0
290
     0
  0
SCALE
  5
244
102
{ACAD_REACTORS
330
241
102
}
330
241
100
AcDbScale
 70
     0
300
1:4
140
1.0
141
4.0
290
     0
  0
SCALE
  5
245
102
{ACAD_REACTORS
330
241
102
}
330
241
100
AcDbScale
 70
     0
300
1:5
140
1.0
141
5.0
290
     0
  0
SCALE
  5
246
102
{ACAD_REACTORS
330
241
102
}
330
241
100
AcDbScale
 70
     0
300
1:8
140
1.0
141
8.0
290
     0
  0
SCALE
  5
247
102
{ACAD_REACTORS
330
241
102
}
330
241
100
AcDbScale
 70
     0
300
1:10
140
1.0
141
10.0
290
     0
  0
SCALE
  5
248
102
{ACAD_REACTORS
330
241
102
}
330
241
100
AcDbScale
 70
     0
300
1:16
140
1.0
141
16.0
290
     0
  0
SCALE
  5
249
102
{ACAD_REACTORS
330
241
102
}
330
241
100
AcDbScale
 70
     0
300
1:20
140
1.0
141
20.0
290
     0
  0
SCALE
  5
24A
102
{ACAD_REACTORS
330
241
102
}
330
241
100
AcDbScale
 70
     0
300
1:30
140
1.0
141
30.0
290
     0
  0
SCALE
  5
24B
102
{ACAD_REACTORS
330
241
102
}
330
241
100
AcDbScale
 70
     0
300
1:40
140
1.0
141
40.0
290
     0
  0
SCALE
  5
24C
102
{ACAD_REACTORS
330
241
102
}
330
241
100
AcDbScale
 70
     0
300
1:50
140
1.0
141
50.0
290
     0
  0
SCALE
  5
24D
102
{ACAD_REACTORS
330
241
102
}
330
241
100
AcDbScale
 70
     0
300
1:100
140
1.0
141
100.0
290
     0
  0
SCALE
  5
24E
102
{ACAD_REACTORS
330
241
102
}
330
241
100
AcDbScale
 70
     0
300
2:1
140
2.0
141
1.0
290
     0
  0
SCALE
  5
24F
102
{ACAD_REACTORS
330
241
102
}
330
241
100
AcDbScale
 70
     0
300
4:1
140
4.0
141
1.0
290
     0
  0
SCALE
  5
250
102
{ACAD_REACTORS
330
241
102
}
330
241
100
AcDbScale
 70
     0
300
8:1
140
8.0
141
1.0
290
     0
  0
SCALE
  5
251
102
{ACAD_REACTORS
330
241
102
}
330
241
100
AcDbScale
 70
     0
300
10:1
140
10.0
141
1.0
290
     0
  0
SCALE
  5
252
102
{ACAD_REACTORS
330
241
102
}
330
241
100
AcDbScale
 70
     0
300
100:1
140
100.0
141
1.0
290
     0
  0
SCALE
  5
253
102
{ACAD_REACTORS
330
241
102
}
330
241
100
AcDbScale
 70
     0
300
1/128" = 1'-0"
140
0.0078125
141
12.0
290
     0
  0
SCALE
  5
254
102
{ACAD_REACTORS
330
241
102
}
330
241
100
AcDbScale
 70
     0
300
1/64" = 1'-0"
140
0.015625
141
12.0
290
     0
  0
SCALE
  5
255
102
{ACAD_REACTORS
330
241
102
}
330
241
100
AcDbScale
 70
     0
300
1/32" = 1'-0"
140
0.03125
141
12.0
290
     0
  0
SCALE
  5
256
102
{ACAD_REACTORS
330
241
102
}
330
241
100
AcDbScale
 70
     0
300
1/16" = 1'-0"
140
0.0625
141
12.0
290
     0
  0
SCALE
  5
257
102
{ACAD_REACTORS
330
241
102
}
330
241
100
AcDbScale
 70
     0
300
3/32" = 1'-0"
140
0.09375
141
12.0
290
     0
  0
SCALE
  5
258
102
{ACAD_REACTORS
330
241
102
}
330
241
100
AcDbScale
 70
     0
300
1/8" = 1'-0"
140
0.125
141
12.0
290
     0
  0
SCALE
  5
259
102
{ACAD_REACTORS
330
241
102
}
330
241
100
AcDbScale
 70
     0
300
3/16" = 1'-0"
140
0.1875
141
12.0
290
     0
  0
SCALE
  5
25A
102
{ACAD_REACTORS
330
241
102
}
330
241
100
AcDbScale
 70
     0
300
1/4" = 1'-0"
140
0.25
141
12.0
290
     0
  0
SCALE
  5
25B
102
{ACAD_REACTORS
330
241
102
}
330
241
100
AcDbScale
 70
     0
300
3/8" = 1'-0"
140
0.375
141
12.0
290
     0
  0
SCALE
  5
25C
102
{ACAD_REACTORS
330
241
102
}
330
241
100
AcDbScale
 70
     0
300
1/2" = 1'-0"
140
0.5
141
12.0
290
     0
  0
SCALE
  5
25D
102
{ACAD_REACTORS
330
241
102
}
330
241
100
AcDbScale
 70
     0
300
3/4" = 1'-0"
140
0.75
141
12.0
290
     0
  0
SCALE
  5
25E
102
{ACAD_REACTORS
330
241
102
}
330
241
100
AcDbScale
 70
     0
300
1" = 1'-0"
140
1.0
141
12.0
290
     0
  0
SCALE
  5
25F
102
{ACAD_REACTORS
330
241
102
}
330
241
100
AcDbScale
 70
     0
300
1-1/2" = 1'-0"
140
1.5
141
12.0
290
     0
  0
SCALE
  5
260
102
{ACAD_REACTORS
330
241
102
}
330
241
100
AcDbScale
 70
     0
300
3" = 1'-0"
140
3.0
141
12.0
290
     0
  0
SCALE
  5
261
102
{ACAD_REACTORS
330
241
102
}
330
241
100
AcDbScale
 70
     0
300
6" = 1'-0"
140
6.0
141
12.0
290
     0
  0
SCALE
  5
262
102
{ACAD_REACTORS
330
241
102
}
330
241
100
AcDbScale
 70
     0
300
1'-0" = 1'-0"
140
12.0
141
12.0
290
     0
  0
TABLESTYLE
  5
279
102
{ACAD_REACTORS
330
278
102
}
102
{ACAD_XDICTIONARY
360
258C
102
}
330
278
100
AcDbTableStyle
  3
Standard
 70
     0
 71
     0
 40
0.06
 41
0.06
280
     0
281
     0
  7
Standard
140
4.5
170
     2
 62
     0
 63
   257
283
     0
 90
        4
 91
        0
  1

274
    -2
284
     1
 64
     0
275
    -2
285
     1
 65
     0
276
    -2
286
     1
 66
     0
277
    -2
287
     1
 67
     0
278
    -2
288
     1
 68
     0
279
    -2
289
     1
 69
     0
  7
Standard
140
6.0
170
     5
 62
     0
 63
   257
283
     0
 90
        4
 91
        0
  1

274
    -2
284
     1
 64
     0
275
    -2
285
     1
 65
     0
276
    -2
286
     1
 66
     0
277
    -2
287
     1
 67
     0
278
    -2
288
     1
 68
     0
279
    -2
289
     1
 69
     0
  7
Standard
140
4.5
170
     5
 62
     0
 63
   257
283
     0
 90
        4
 91
        0
  1

274
    -2
284
     1
 64
     0
275
    -2
285
     1
 65
     0
276
    -2
286
     1
 66
     0
277
    -2
287
     1
 67
     0
278
    -2
288
     1
 68
     0
279
    -2
289
     1
 69
     0
  0
VISUALSTYLE
  5
26C
102
{ACAD_REACTORS
330
267
102
}
330
267
100
AcDbVisualStyle
  2
2dWireframe
 70
     4
 71
     0
 72
     2
 73
     0
 90
        0
 40
-0.6
 41
-30.0
 62
     5
 63
     7
421
 16777215
 74
     1
 91
        4
 64
     7
 65
   257
 75
     1
175
     1
 42
1.0
 92
        0
 66
   257
 43
1.0
 76
     1
 77
     6
 78
     2
 67
     7
 79
     5
170
     0
171
     0
290
     0
174
     0
 93
        1
 44
0.0
173
     0
291
     0
 45
0.0
  0
VISUALSTYLE
  5
26E
102
{ACAD_REACTORS
330
267
102
}
330
267
100
AcDbVisualStyle
  2
3D Hidden
 70
     6
 71
     1
 72
     2
 73
     2
 90
        0
 40
-0.6
 41
-30.0
 62
     5
 63
     7
421
 16777215
 74
     2
 91
        2
 64
     7
 65
   257
 75
     2
175
     1
 42
40.0
 92
        0
 66
   257
 43
1.0
 76
     1
 77
     6
 78
     2
 67
     7
 79
     3
170
     0
171
     0
290
     0
174
     0
 93
        1
 44
0.0
173
     0
291
     0
 45
0.0
  0
VISUALSTYLE
  5
26D
102
{ACAD_REACTORS
330
267
102
}
330
267
100
AcDbVisualStyle
  2
3dWireframe
 70
     5
 71
     0
 72
     2
 73
     0
 90
        0
 40
-0.6
 41
-30.0
 62
     5
 63
     7
421
 16777215
 74
     1
 91
        4
 64
     7
 65
   257
 75
     1
175
     1
 42
1.0
 92
        0
 66
   257
 43
1.0
 76
     1
 77
     6
 78
     2
 67
     7
 79
     5
170
     0
171
     0
290
     0
174
     0
 93
        1
 44
0.0
173
     0
291
     0
 45
0.0
  0
VISUALSTYLE
  5
26F
102
{ACAD_REACTORS
330
267
102
}
330
267
100
AcDbVisualStyle
  2
Basic
 70
     7
 71
     1
 72
     0
 73
     1
 90
        0
 40
-0.6
 41
-30.0
 62
     5
 63
     7
421
 16777215
 74
     0
 91
        4
 64
     7
 65
   257
 75
     1
175
     1
 42
1.0
 92
        8
 66
     7
 43
1.0
 76
     1
 77
     6
 78
     2
 67
     7
 79
     5
170
     0
171
     0
290
     0
174
     0
 93
        1
 44
0.0
173
     0
291
     1
 45
0.0
  0
VISUALSTYLE
  5
273
102
{ACAD_REACTORS
330
267
102
}
330
267
100
AcDbVisualStyle
  2
Brighten
 70
    12
 71
     2
 72
     2
 73
     0
 90
        0
 40
-0.6
 41
-30.0
 62
     5
 63
     7
421
 16777215
 74
     1
 91
        4
 64
     7
 65
   257
 75
     1
175
     1
 42
1.0
 92
        8
 66
     7
 43
1.0
 76
     1
 77
     6
 78
     2
 67
     7
 79
     5
170
     0
171
     0
290
     0
174
     0
 93
        1
 44
50.0
173
     0
291
     1
 45
0.0
  0
VISUALSTYLE
  5
277
102
{ACAD_REACTORS
330
267
102
}
330
267
100
AcDbVisualStyle
  2
ColorChange
 70
    16
 71
     2
 72
     2
 73
     3
 90
        0
 40
-0.6
 41
-30.0
 62
     5
 63
     8
421
  8421504
 74
     1
 91
        4
 64
     7
 65
   257
 75
     1
175
     1
 42
1.0
 92
        8
 66
     8
424
  8421504
 43
1.0
 76
     1
 77
     6
 78
     2
 67
     7
 79
     5
170
     0
171
     0
290
     0
174
     0
 93
        1
 44
0.0
173
     0
291
     1
 45
0.0
  0
VISUALSTYLE
  5
271
102
{ACAD_REACTORS
330
267
102
}
330
267
100
AcDbVisualStyle
  2
Conceptual
 70
     9
 71
     3
 72
     2
 73
     0
 90
        0
 40
-0.6
 41
-30.0
 62
     5
 63
     7
421
 16777215
 74
     2
 91
        2
 64
     7
 65
   257
 75
     1
175
     1
 42
40.0
 92
        8
 66
     7
 43
1.0
 76
     1
 77
     6
 78
     2
 67
     7
 79
     3
170
     0
171
     0
290
     0
174
     0
 93
        1
 44
0.0
173
     0
291
     0
 45
0.0
  0
VISUALSTYLE
  5
272
102
{ACAD_REACTORS
330
267
102
}
330
267
100
AcDbVisualStyle
  2
Dim
 70
    11
 71
     2
 72
     2
 73
     0
 90
        0
 40
-0.6
 41
-30.0
 62
     5
 63
     7
421
 16777215
 74
     1
 91
        4
 64
     7
 65
   257
 75
     1
175
     1
 42
1.0
 92
        8
 66
     7
 43
1.0
 76
     1
 77
     6
 78
     2
 67
     7
 79
     5
170
     0
171
     0
290
     0
174
     0
 93
        1
 44
-50.0
173
     0
291
     1
 45
0.0
  0
VISUALSTYLE
  5
8BC
102
{ACAD_REACTORS
330
267
102
}
330
267
100
AcDbVisualStyle
  2
EdgeColorOff
 70
    22
 71
     2
 72
     2
 73
     0
 90
        0
 40
0.6
 41
30.0
 62
     5
 63
     7
421
 16777215
 74
     1
 91
        4
 64
     7
 65
   257
 75
     1
175
     1
 42
1.0
 92
        8
 66
     7
 43
1.0
 76
     1
 77
     6
 78
     2
 67
     7
 79
     5
170
     0
171
     0
290
     0
174
     0
 93
        1
 44
0.0
173
     0
291
     1
 45
0.0
  0
VISUALSTYLE
  5
276
102
{ACAD_REACTORS
330
267
102
}
330
267
100
AcDbVisualStyle
  2
Facepattern
 70
    15
 71
     2
 72
     2
 73
     0
 90
        0
 40
-0.6
 41
-30.0
 62
     5
 63
     7
421
 16777215
 74
     1
 91
        4
 64
     7
 65
   257
 75
     1
175
     1
 42
1.0
 92
        8
 66
     7
 43
1.0
 76
     1
 77
     6
 78
     2
 67
     7
 79
     5
170
     0
171
     0
290
     0
174
     0
 93
        1
 44
0.0
173
     0
291
     1
 45
0.0
  0
VISUALSTYLE
  5
268
102
{ACAD_REACTORS
330
267
102
}
330
267
100
AcDbVisualStyle
  2
Flat
 70
     0
 71
     2
 72
     1
 73
     1
 90
        2
 40
-0.6
 41
30.0
 62
     5
 63
     7
421
 16777215
 74
     0
 91
        4
 64
     7
 65
   257
 75
     1
175
     1
 42
1.0
 92
        8
 66
     7
 43
1.0
 76
     1
 77
     6
 78
     2
 67
     7
 79
     5
170
     0
171
     0
290
     0
174
     0
 93
       13
 44
0.0
173
     0
291
     1
 45
0.0
  0
VISUALSTYLE
  5
269
102
{ACAD_REACTORS
330
267
102
}
330
267
100
AcDbVisualStyle
  2
FlatWithEdges
 70
     1
 71
     2
 72
     1
 73
     1
 90
        2
 40
-0.6
 41
30.0
 62
     5
 63
     7
421
 16777215
 74
     1
 91
        4
 64
     7
 65
   257
 75
     1
175
     1
 42
1.0
 92
        0
 66
   257
 43
1.0
 76
     1
 77
     6
 78
     2
 67
     7
 79
     5
170
     0
171
     0
290
     0
174
     0
 93
       13
 44
0.0
173
     0
291
     1
 45
0.0
  0
VISUALSTYLE
  5
26A
102
{ACAD_REACTORS
330
267
102
}
330
267
100
AcDbVisualStyle
  2
Gouraud
 70
     2
 71
     2
 72
     2
 73
     1
 90
        2
 40
-0.6
 41
30.0
 62
     5
 63
     7
421
 16777215
 74
     0
 91
        4
 64
     7
 65
   257
 75
     1
175
     1
 42
1.0
 92
        0
 66
     7
 43
1.0
 76
     1
 77
     6
 78
     2
 67
     7
 79
     5
170
     0
171
     0
290
     0
174
     0
 93
       13
 44
0.0
173
     0
291
     1
 45
0.0
  0
VISUALSTYLE
  5
26B
102
{ACAD_REACTORS
330
267
102
}
330
267
100
AcDbVisualStyle
  2
GouraudWithEdges
 70
     3
 71
     2
 72
     2
 73
     1
 90
        2
 40
-0.6
 41
30.0
 62
     5
 63
     7
421
 16777215
 74
     1
 91
        4
 64
     7
 65
   257
 75
     1
175
     1
 42
1.0
 92
        0
 66
   257
 43
1.0
 76
     1
 77
     6
 78
     2
 67
     7
 79
     5
170
     0
171
     0
290
     0
174
     0
 93
       13
 44
0.0
173
     0
291
     1
 45
0.0
  0
VISUALSTYLE
  5
8B9
102
{ACAD_REACTORS
330
267
102
}
330
267
100
AcDbVisualStyle
  2
Hidden
 70
     6
 71
     1
 72
     2
 73
     2
 90
        0
 40
0.6
 41
30.0
 62
     5
 63
     7
421
 16777215
 74
     2
 91
        2
 64
     7
 65
   257
 75
     2
175
     1
 42
40.0
 92
        0
 66
   257
 43
1.0
 76
     1
 77
     6
 78
     2
 67
     7
 79
     3
170
     0
171
     0
290
     0
174
     0
 93
        1
 44
0.0
173
     0
291
     0
 45
0.0
  0
VISUALSTYLE
  5
8BA
102
{ACAD_REACTORS
330
267
102
}
330
267
100
AcDbVisualStyle
  2
JitterOff
 70
    20
 71
     2
 72
     2
 73
     0
 90
        0
 40
0.6
 41
30.0
 62
     5
 63
     7
421
 16777215
 74
     1
 91
        4
 64
     7
 65
   257
 75
     1
175
     1
 42
1.0
 92
       10
 66
     7
 43
1.0
 76
     1
 77
     6
 78
     2
 67
     7
 79
     5
170
     0
171
     0
290
     0
174
     0
 93
        1
 44
0.0
173
     0
291
     1
 45
0.0
  0
VISUALSTYLE
  5
275
102
{ACAD_REACTORS
330
267
102
}
330
267
100
AcDbVisualStyle
  2
Linepattern
 70
    14
 71
     2
 72
     2
 73
     0
 90
        0
 40
-0.6
 41
-30.0
 62
     5
 63
     7
421
 16777215
 74
     1
 91
        4
 64
     7
 65
   257
 75
     7
175
     7
 42
1.0
 92
        8
 66
     7
 43
1.0
 76
     1
 77
     6
 78
     2
 67
     7
 79
     5
170
     0
171
     0
290
     0
174
     0
 93
        1
 44
0.0
173
     0
291
     1
 45
0.0
  0
VISUALSTYLE
  5
8BB
102
{ACAD_REACTORS
330
267
102
}
330
267
100
AcDbVisualStyle
  2
OverhangOff
 70
    21
 71
     2
 72
     2
 73
     0
 90
        0
 40
0.6
 41
30.0
 62
     5
 63
     7
421
 16777215
 74
     1
 91
        4
 64
     7
 65
   257
 75
     1
175
     1
 42
1.0
 92
        9
 66
     7
 43
1.0
 76
     1
 77
     6
 78
     2
 67
     7
 79
     5
170
     0
171
     0
290
     0
174
     0
 93
        1
 44
0.0
173
     0
291
     1
 45
0.0
  0
VISUALSTYLE
  5
270
102
{ACAD_REACTORS
330
267
102
}
330
267
100
AcDbVisualStyle
  2
Realistic
 70
     8
 71
     2
 72
     2
 73
     0
 90
        0
 40
-0.6
 41
-30.0
 62
     5
 63
     7
421
 16777215
 74
     1
 91
        0
 64
     7
 65
   257
 75
     1
175
     1
 42
1.0
 92
        8
 66
     8
424
  7895160
 43
1.0
 76
     1
 77
     6
 78
     2
 67
     7
 79
     5
170
     0
171
     0
290
     0
174
     0
 93
       13
 44
0.0
173
     0
291
     0
 45
0.0
  0
VISUALSTYLE
  5
8C1
102
{ACAD_REACTORS
330
267
102
}
330
267
100
AcDbVisualStyle
  2
Shaded
 70
    27
 71
     2
 72
     2
 73
     1
 90
        2
 40
0.6
 41
30.0
 62
     5
 63
     7
421
 16777215
 74
     0
 91
        4
 64
     7
 65
   257
 75
     1
175
     1
 42
1.0
 92
        8
 66
   257
 43
1.0
 76
     1
 77
     6
 78
     2
 67
     8
425
  7895160
 79
     3
170
     0
171
     0
290
     0
174
     0
 93
        5
 44
0.0
173
     0
291
     0
 45
0.0
  0
VISUALSTYLE
  5
8C0
102
{ACAD_REACTORS
330
267
102
}
330
267
100
AcDbVisualStyle
  2
Shaded with edges
 70
    26
 71
     2
 72
     2
 73
     1
 90
        2
 40
0.6
 41
30.0
 62
     5
 63
     7
421
 16777215
 74
     1
 91
       10
 64
     7
 65
   257
 75
     2
175
     1
 42
1.0
 92
        8
 66
   257
 43
1.0
 76
     1
 77
     6
 78
     2
 67
     7
 79
     3
170
     0
171
     0
290
     0
174
     0
 93
        5
 44
0.0
173
     0
291
     0
 45
0.0
  0
VISUALSTYLE
  5
8BD
102
{ACAD_REACTORS
330
267
102
}
330
267
100
AcDbVisualStyle
  2
Shades of Gray
 70
    23
 71
     2
 72
     2
 73
     3
 90
        0
 40
0.6
 41
30.0
 62
     5
 63
     7
421
 16777215
 74
     2
 91
        2
 64
     7
 65
     7
 75
     1
175
     1
 42
40.0
 92
        8
 66
     7
 43
1.0
 76
     1
 77
     6
 78
     2
 67
     7
 79
     3
170
     0
171
     0
290
     0
174
     0
 93
        1
 44
0.0
173
     0
291
     0
 45
0.0
  0
VISUALSTYLE
  5
8BE
102
{ACAD_REACTORS
330
267
102
}
330
267
100
AcDbVisualStyle
  2
Sketchy
 70
    24
 71
     1
 72
     2
 73
     2
 90
        0
 40
0.6
 41
30.0
 62
     5
 63
     7
421
 16777215
 74
     2
 91
        2
 64
     7
 65
     7
 75
     1
175
     1
 42
40.0
 92
       11
 66
     7
 43
1.0
 76
     1
 77
     6
 78
     2
 67
     7
 79
     6
170
     0
171
     0
290
     0
174
     0
 93
        1
 44
0.0
173
     0
291
     0
 45
0.0
  0
VISUALSTYLE
  5
274
102
{ACAD_REACTORS
330
267
102
}
330
267
100
AcDbVisualStyle
  2
Thicken
 70
    13
 71
     2
 72
     2
 73
     0
 90
        0
 40
-0.6
 41
-30.0
 62
     5
 63
     7
421
 16777215
 74
     1
 91
        4
 64
     7
 65
   257
 75
     1
175
     1
 42
1.0
 92
       12
 66
     7
 43
1.0
 76
     1
 77
     6
 78
     2
 67
     7
 79
     5
170
     0
171
     0
290
     0
174
     0
 93
        1
 44
0.0
173
     0
291
     1
 45
0.0
  0
VISUALSTYLE
  5
8B8
102
{ACAD_REACTORS
330
267
102
}
330
267
100
AcDbVisualStyle
  2
Wireframe
 70
     5
 71
     0
 72
     2
 73
     0
 90
        0
 40
0.6
 41
30.0
 62
     5
 63
     7
421
 16777215
 74
     1
 91
        4
 64
     7
 65
   257
 75
     1
175
     1
 42
1.0
 92
        0
 66
   257
 43
1.0
 76
     1
 77
     6
 78
     2
 67
     7
 79
     3
170
     0
171
     0
290
     0
174
     0
 93
        1
 44
0.0
173
     0
291
     0
 45
0.0
  0
VISUALSTYLE
  5
8BF
102
{ACAD_REACTORS
330
267
102
}
330
267
100
AcDbVisualStyle
  2
X-Ray
 70
    25
 71
     2
 72
     2
 73
     1
 90
        1
 40
0.5
 41
30.0
 62
     5
 63
     7
421
 16777215
 74
     1
 91
        0
 64
     7
 65
   257
 75
     1
175
     1
 42
1.0
 92
        8
 66
     7
 43
1.0
 76
     1
 77
     6
 78
     2
 67
     7
 79
     3
170
     0
171
     0
290
     0
174
     0
 93
       13
 44
0.0
173
     0
291
     0
 45
0.0
  0
DICTIONARYVAR
  5
331
102
{ACAD_REACTORS
330
330
102
}
330
330
100
DictionaryVariables
280
     0
  1
1:1
  0
DICTIONARYVAR
  5
8DA
102
{ACAD_REACTORS
330
330
102
}
330
330
100
DictionaryVariables
280
     0
  1
Standard
  0
DICTIONARYVAR
  5
335
102
{ACAD_REACTORS
330
330
102
}
330
330
100
DictionaryVariables
280
     0
  1
Standard
  0
DICTIONARYVAR
  5
C07
102
{ACAD_REACTORS
330
330
102
}
330
330
100
DictionaryVariables
280
     0
  1
ByLayer
  0
DICTIONARYVAR
  5
64A
102
{ACAD_REACTORS
330
330
102
}
330
330
100
DictionaryVariables
280
     0
  1
0
  0
DICTIONARYVAR
  5
21D8
102
{ACAD_REACTORS
330
C08
102
}
330
C08
100
DictionaryVariables
280
     0
  1
0.261799
  0
DICTIONARYVAR
  5
21D6
102
{ACAD_REACTORS
330
C08
102
}
330
C08
100
DictionaryVariables
280
     0
  1
0.400000
  0
DICTIONARYVAR
  5
21D7
102
{ACAD_REACTORS
330
C08
102
}
330
C08
100
DictionaryVariables
280
     0
  1
0.250000
  0
DICTIONARYVAR
  5
21D9
102
{ACAD_REACTORS
330
C08
102
}
330
C08
100
DictionaryVariables
280
     0
  1
1
  0
XRECORD
  5
870
102
{ACAD_REACTORS
330
2E2
102
}
330
2E2
100
AcDbXrecord
280
     1
 91
     1023
301

290
     0
302
MODEL
330
14
 90
        8
 62
     7
370
    -3
331
13
  1
Color_7
330
4A
 90
        0
 62
     7
370
     9
331
13
  1
Color_7
330
4B
 90
        8
 62
     7
370
    -3
331
13
  1
Color_7
330
0
 90
        8
 62
     7
370
    -3
331
13
  1
Color_7
330
4D
 90
        9
 62
     7
370
    -3
331
13
  1
Color_7
330
382
 90
        8
 62
     7
370
    -3
331
13
  1
Color_7
330
5C4
 90
        8
 62
     7
370
     9
331
0
  1
Color_7
330
5EB
 90
        8
 62
     7
370
     9
331
13
  1
Color_7
330
0
 90
        8
 62
     7
370
    -3
331
13
  1
Color_7
  0
FIELD
  5
BDE
102
{ACAD_REACTORS
330
BE4
102
}
330
BE4
100
AcDbField
  1
_text
  2
{%<\_FldIdx 0>%N}
 90
        1
360
BDF
 97
        0
 91
       63
 92
        0
 94
        8
 95
        2
 96
        0
300

 93
        1
  6
ACFD_FIELDTEXT_CHECKSUM
 93
        2
 90
        2
140
4472.0
 94
        0
300

302

304
ACVALUE_END
  7
ACFD_FIELD_VALUE
 93
        6
 90
        4
  1
{20170302N}
 94
        0
300

302

304
ACVALUE_END
301
{20170302N}
 98
       11
  0
DICTIONARY
  5
258C
330
279
100
AcDbDictionary
280
     1
281
     1
  3
ACAD_ROUNDTRIP_2008_TABLESTYLE_CELLSTYLEMAP
360
258D
  0
FIELD
  5
BDF
330
BDE
100
AcDbField
  1
AcVar
  2
\AcVar Date \f "yyyyMMdd"
 90
        0
 97
        0
 91
       63
 92
        0
 94
        8
 95
        2
 96
        0
300

 93
        1
  6
Variable
 93
        2
 90
        4
  1
Date
 94
        0
300

302

304
ACVALUE_END
  7
ACFD_FIELD_VALUE
 93
        6
 90
        8
 92
       16
310
E1070300000002000000170021000000
 94
        0
300
yyyyMMdd
302

304
ACVALUE_END
301
20170302
 98
        8
  0
CELLSTYLEMAP
  5
258D
102
{ACAD_REACTORS
330
258C
102
}
330
258C
100
AcDbCellStyleMap
 90
        3
300
CELLSTYLE
  1
TABLEFORMAT_BEGIN
 90
        5
170
     1
 91
        0
 92
    32768
 62
   257
 93
        1
300
CONTENTFORMAT
  1
CONTENTFORMAT_BEGIN
 90
        0
 91
        0
 92
        4
 93
        0
300

 40
0.0
140
1.0
 94
        5
 62
     0
340
17
144
6.0
309
CONTENTFORMAT_END
171
     1
301
MARGIN
  1
CELLMARGIN_BEGIN
 40
0.06
 40
0.06
 40
0.06
 40
0.06
 40
0.18
 40
0.18
309
CELLMARGIN_END
 94
        6
 95
        1
302
GRIDFORMAT
  1
GRIDFORMAT_BEGIN
 90
        0
 91
        1
 62
     0
 92
       -2
340
0
 93
        0
 40
0.045
309
GRIDFORMAT_END
 95
        2
302
GRIDFORMAT
  1
GRIDFORMAT_BEGIN
 90
        0
 91
        1
 62
     0
 92
       -2
340
0
 93
        0
 40
0.045
309
GRIDFORMAT_END
 95
        4
302
GRIDFORMAT
  1
GRIDFORMAT_BEGIN
 90
        0
 91
        1
 62
     0
 92
       -2
340
0
 93
        0
 40
0.045
309
GRIDFORMAT_END
 95
        8
302
GRIDFORMAT
  1
GRIDFORMAT_BEGIN
 90
        0
 91
        1
 62
     0
 92
       -2
340
0
 93
        0
 40
0.045
309
GRIDFORMAT_END
 95
       16
302
GRIDFORMAT
  1
GRIDFORMAT_BEGIN
 90
        0
 91
        1
 62
     0
 92
       -2
340
0
 93
        0
 40
0.045
309
GRIDFORMAT_END
 95
       32
302
GRIDFORMAT
  1
GRIDFORMAT_BEGIN
 90
        0
 91
        1
 62
     0
 92
       -2
340
0
 93
        0
 40
0.045
309
GRIDFORMAT_END
309
TABLEFORMAT_END
  1
CELLSTYLE_BEGIN
 90
        1
 91
        1
300
_TITLE
309
CELLSTYLE_END
300
CELLSTYLE
  1
TABLEFORMAT_BEGIN
 90
        5
170
     1
 91
        0
 92
        0
 62
   257
 93
        1
300
CONTENTFORMAT
  1
CONTENTFORMAT_BEGIN
 90
        0
 91
        0
 92
        4
 93
        0
300

 40
0.0
140
1.0
 94
        5
 62
     0
340
17
144
4.5
309
CONTENTFORMAT_END
171
     1
301
MARGIN
  1
CELLMARGIN_BEGIN
 40
0.06
 40
0.06
 40
0.06
 40
0.06
 40
0.18
 40
0.18
309
CELLMARGIN_END
 94
        6
 95
        1
302
GRIDFORMAT
  1
GRIDFORMAT_BEGIN
 90
        0
 91
        1
 62
     0
 92
       -2
340
0
 93
        0
 40
0.045
309
GRIDFORMAT_END
 95
        2
302
GRIDFORMAT
  1
GRIDFORMAT_BEGIN
 90
        0
 91
        1
 62
     0
 92
       -2
340
0
 93
        0
 40
0.045
309
GRIDFORMAT_END
 95
        4
302
GRIDFORMAT
  1
GRIDFORMAT_BEGIN
 90
        0
 91
        1
 62
     0
 92
       -2
340
0
 93
        0
 40
0.045
309
GRIDFORMAT_END
 95
        8
302
GRIDFORMAT
  1
GRIDFORMAT_BEGIN
 90
        0
 91
        1
 62
     0
 92
       -2
340
0
 93
        0
 40
0.045
309
GRIDFORMAT_END
 95
       16
302
GRIDFORMAT
  1
GRIDFORMAT_BEGIN
 90
        0
 91
        1
 62
     0
 92
       -2
340
0
 93
        0
 40
0.045
309
GRIDFORMAT_END
 95
       32
302
GRIDFORMAT
  1
GRIDFORMAT_BEGIN
 90
        0
 91
        1
 62
     0
 92
       -2
340
0
 93
        0
 40
0.045
309
GRIDFORMAT_END
309
TABLEFORMAT_END
  1
CELLSTYLE_BEGIN
 90
        2
 91
        1
300
_HEADER
309
CELLSTYLE_END
300
CELLSTYLE
  1
TABLEFORMAT_BEGIN
 90
        5
170
     1
 91
        0
 92
        0
 62
   257
 93
        1
300
CONTENTFORMAT
  1
CONTENTFORMAT_BEGIN
 90
        0
 91
        0
 92
        4
 93
        0
300

 40
0.0
140
1.0
 94
        2
 62
     0
340
17
144
4.5
309
CONTENTFORMAT_END
171
     1
301
MARGIN
  1
CELLMARGIN_BEGIN
 40
0.06
 40
0.06
 40
0.06
 40
0.06
 40
0.18
 40
0.18
309
CELLMARGIN_END
 94
        6
 95
        1
302
GRIDFORMAT
  1
GRIDFORMAT_BEGIN
 90
        0
 91
        1
 62
     0
 92
       -2
340
0
 93
        0
 40
0.045
309
GRIDFORMAT_END
 95
        2
302
GRIDFORMAT
  1
GRIDFORMAT_BEGIN
 90
        0
 91
        1
 62
     0
 92
       -2
340
0
 93
        0
 40
0.045
309
GRIDFORMAT_END
 95
        4
302
GRIDFORMAT
  1
GRIDFORMAT_BEGIN
 90
        0
 91
        1
 62
     0
 92
       -2
340
0
 93
        0
 40
0.045
309
GRIDFORMAT_END
 95
        8
302
GRIDFORMAT
  1
GRIDFORMAT_BEGIN
 90
        0
 91
        1
 62
     0
 92
       -2
340
0
 93
        0
 40
0.045
309
GRIDFORMAT_END
 95
       16
302
GRIDFORMAT
  1
GRIDFORMAT_BEGIN
 90
        0
 91
        1
 62
     0
 92
       -2
340
0
 93
        0
 40
0.045
309
GRIDFORMAT_END
 95
       32
302
GRIDFORMAT
  1
GRIDFORMAT_BEGIN
 90
        0
 91
        1
 62
     0
 92
       -2
340
0
 93
        0
 40
0.045
309
GRIDFORMAT_END
309
TABLEFORMAT_END
  1
CELLSTYLE_BEGIN
 90
        3
 91
        2
300
_DATA
309
CELLSTYLE_END
  0
ENDSEC
  0
EOF
