  0
SECTION
  2
HEADER
  9
$ACADVER
  1
AC1021
  9
$ACADMAINTVER
 70
    25
  9
$DWGCODEPAGE
  3
ANSI_932
  9
$LASTSAVEDBY
  1
T-HOWE-PC
  9
$INSBASE
 10
0.0
 20
0.0
 30
0.0
  9
$EXTMIN
 10
0.0
 20
0.0
 30
-0.0000000000000142
  9
$EXTMAX
 10
2100.0
 20
2970.0
 30
0.0000000000000071
  9
$LIMMIN
 10
0.0
 20
0.0
  9
$LIMMAX
 10
2100.0
 20
2970.0
  9
$ORTHOMODE
 70
     0
  9
$REGENMODE
 70
     1
  9
$FILLMODE
 70
     1
  9
$QTEXTMODE
 70
     0
  9
$MIRRTEXT
 70
     1
  9
$LTSCALE
 40
5.0
  9
$ATTMODE
 70
     1
  9
$TEXTSIZE
 40
2.5
  9
$TRACEWID
 40
1.0
  9
$TEXTSTYLE
  7
ＭＳ ゴシック
  9
$CLAYER
  8
DIM
  9
$CELTYPE
  6
ByLayer
  9
$CECOLOR
 62
   256
  9
$CELTSCALE
 40
1.0
  9
$DISPSILH
 70
     0
  9
$DIMSCALE
 40
1.0
  9
$DIMASZ
 40
10.0
  9
$DIMEXO
 40
30.0
  9
$DIMDLI
 40
0.9999999999999999
  9
$DIMRND
 40
0.0
  9
$DIMDLE
 40
0.0
  9
$DIMEXE
 40
0.0
  9
$DIMTP
 40
0.0
  9
$DIMTM
 40
0.0
  9
$DIMTXT
 40
24.0
  9
$DIMCEN
 40
0.0
  9
$DIMTSZ
 40
0.0
  9
$DIMTOL
 70
     0
  9
$DIMLIM
 70
     0
  9
$DIMTIH
 70
     0
  9
$DIMTOH
 70
     0
  9
$DIMSE1
 70
     0
  9
$DIMSE2
 70
     0
  9
$DIMTAD
 70
     1
  9
$DIMZIN
 70
    11
  9
$DIMBLK
  1
DOT
  9
$DIMASO
 70
     1
  9
$DIMSHO
 70
     1
  9
$DIMPOST
  1
<>
  9
$DIMAPOST
  1
[]
  9
$DIMALT
 70
     0
  9
$DIMALTD
 70
     1
  9
$DIMALTF
 40
1.0
  9
$DIMLFAC
 40
1.0
  9
$DIMTOFL
 70
     0
  9
$DIMTVP
 40
0.0
  9
$DIMTIX
 70
     1
  9
$DIMSOXD
 70
     0
  9
$DIMSAH
 70
     0
  9
$DIMBLK1
  1

  9
$DIMBLK2
  1

  9
$DIMSTYLE
  2
tfrom線あり
  9
$DIMCLRD
 70
     0
  9
$DIMCLRE
 70
     0
  9
$DIMCLRT
 70
     0
  9
$DIMTFAC
 40
1.0
  9
$DIMGAP
 40
20.0
  9
$DIMJUST
 70
     0
  9
$DIMSD1
 70
     0
  9
$DIMSD2
 70
     0
  9
$DIMTOLJ
 70
     1
  9
$DIMTZIN
 70
    11
  9
$DIMALTZ
 70
    11
  9
$DIMALTTZ
 70
    11
  9
$DIMUPT
 70
     0
  9
$DIMDEC
 70
     0
  9
$DIMTDEC
 70
     1
  9
$DIMALTU
 70
     2
  9
$DIMALTTD
 70
     2
  9
$DIMTXSTY
  7
ＭＳ ゴシック
  9
$DIMAUNIT
 70
     0
  9
$DIMADEC
 70
     2
  9
$DIMALTRND
 40
0.0
  9
$DIMAZIN
 70
     0
  9
$DIMDSEP
 70
    46
  9
$DIMATFIT
 70
     0
  9
$DIMFRAC
 70
     2
  9
$DIMLDRBLK
  1
DOT
  9
$DIMLUNIT
 70
     2
  9
$DIMLWD
 70
    -2
  9
$DIMLWE
 70
    -2
  9
$DIMTMOVE
 70
     0
  9
$DIMFXL
 40
1.0
  9
$DIMFXLON
 70
     0
  9
$DIMJOGANG
 40
0.7853981633974483
  9
$DIMTFILL
 70
     0
  9
$DIMTFILLCLR
 70
     0
  9
$DIMARCSYM
 70
     0
  9
$DIMLTYPE
  6

  9
$DIMLTEX1
  6

  9
$DIMLTEX2
  6

  9
$LUNITS
 70
     2
  9
$LUPREC
 70
     0
  9
$SKETCHINC
 40
0.1
  9
$FILLETRAD
 40
0.0
  9
$AUNITS
 70
     0
  9
$AUPREC
 70
     0
  9
$MENU
  1
acad
  9
$ELEVATION
 40
0.0
  9
$PELEVATION
 40
0.0
  9
$THICKNESS
 40
0.0
  9
$LIMCHECK
 70
     0
  9
$CHAMFERA
 40
0.0
  9
$CHAMFERB
 40
0.0
  9
$CHAMFERC
 40
0.0
  9
$CHAMFERD
 40
0.0
  9
$SKPOLY
 70
     0
  9
$TDCREATE
 40
2447893.375
  9
$TDUCREATE
 40
0.0
  9
$TDUPDATE
 40
2459199.409208322
  9
$TDUUPDATE
 40
2459199.034208322
  9
$TDINDWG
 40
0.1633009722
  9
$TDUSRTIMER
 40
0.0062787269
  9
$USRTIMER
 70
     1
  9
$ANGBASE
 50
0.0
  9
$ANGDIR
 70
     0
  9
$PDMODE
 70
     1
  9
$PDSIZE
 40
-2.0
  9
$PLINEWID
 40
0.0
  9
$SPLFRAME
 70
     0
  9
$SPLINETYPE
 70
     6
  9
$SPLINESEGS
 70
     8
  9
$HANDSEED
  5
47B2
  9
$SURFTAB1
 70
     6
  9
$SURFTAB2
 70
     6
  9
$SURFTYPE
 70
     6
  9
$SURFU
 70
     6
  9
$SURFV
 70
     6
  9
$UCSBASE
  2

  9
$UCSNAME
  2

  9
$UCSORG
 10
0.0
 20
0.0
 30
0.0
  9
$UCSXDIR
 10
1.0
 20
0.0
 30
0.0
  9
$UCSYDIR
 10
0.0
 20
1.0
 30
0.0
  9
$UCSORTHOREF
  2

  9
$UCSORTHOVIEW
 70
     0
  9
$UCSORGTOP
 10
0.0
 20
0.0
 30
0.0
  9
$UCSORGBOTTOM
 10
0.0
 20
0.0
 30
0.0
  9
$UCSORGLEFT
 10
0.0
 20
0.0
 30
0.0
  9
$UCSORGRIGHT
 10
0.0
 20
0.0
 30
0.0
  9
$UCSORGFRONT
 10
0.0
 20
0.0
 30
0.0
  9
$UCSORGBACK
 10
0.0
 20
0.0
 30
0.0
  9
$PUCSBASE
  2

  9
$PUCSNAME
  2

  9
$PUCSORG
 10
0.0
 20
0.0
 30
0.0
  9
$PUCSXDIR
 10
1.0
 20
0.0
 30
0.0
  9
$PUCSYDIR
 10
0.0
 20
1.0
 30
0.0
  9
$PUCSORTHOREF
  2

  9
$PUCSORTHOVIEW
 70
     0
  9
$PUCSORGTOP
 10
0.0
 20
0.0
 30
0.0
  9
$PUCSORGBOTTOM
 10
0.0
 20
0.0
 30
0.0
  9
$PUCSORGLEFT
 10
0.0
 20
0.0
 30
0.0
  9
$PUCSORGRIGHT
 10
0.0
 20
0.0
 30
0.0
  9
$PUCSORGFRONT
 10
0.0
 20
0.0
 30
0.0
  9
$PUCSORGBACK
 10
0.0
 20
0.0
 30
0.0
  9
$USERI1
 70
     0
  9
$USERI2
 70
     0
  9
$USERI3
 70
     0
  9
$USERI4
 70
     0
  9
$USERI5
 70
     0
  9
$USERR1
 40
0.0
  9
$USERR2
 40
0.0
  9
$USERR3
 40
0.0
  9
$USERR4
 40
0.0
  9
$USERR5
 40
0.0
  9
$WORLDVIEW
 70
     1
  9
$SHADEDGE
 70
     3
  9
$SHADEDIF
 70
    70
  9
$TILEMODE
 70
     1
  9
$MAXACTVP
 70
    64
  9
$PINSBASE
 10
0.0
 20
0.0
 30
0.0
  9
$PLIMCHECK
 70
     0
  9
$PEXTMIN
 10
0.0
 20
0.0
 30
0.0
  9
$PEXTMAX
 10
0.0
 20
0.0
 30
0.0
  9
$PLIMMIN
 10
-7.5
 20
-20.0
  9
$PLIMMAX
 10
412.5
 20
277.0
  9
$UNITMODE
 70
     0
  9
$VISRETAIN
 70
     0
  9
$PLINEGEN
 70
     1
  9
$PSLTSCALE
 70
     0
  9
$TREEDEPTH
 70
  3020
  9
$CMLSTYLE
  2
Standard
  9
$CMLJUST
 70
     0
  9
$CMLSCALE
 40
1.0
  9
$PROXYGRAPHICS
 70
     0
  9
$MEASUREMENT
 70
     1
  9
$CELWEIGHT
370
    -1
  9
$ENDCAPS
280
     0
  9
$JOINSTYLE
280
     0
  9
$LWDISPLAY
290
     1
  9
$INSUNITS
 70
     4
  9
$HYPERLINKBASE
  1

  9
$STYLESHEET
  1

  9
$XEDIT
290
     1
  9
$CEPSNTYPE
380
     0
  9
$PSTYLEMODE
290
     1
  9
$FINGERPRINTGUID
  2

  9
$VERSIONGUID
  2

  9
$EXTNAMES
290
     1
  9
$PSVPSCALE
 40
0.0
  9
$OLESTARTUP
290
     0
  9
$SORTENTS
280
   127
  9
$INDEXCTL
280
     0
  9
$HIDETEXT
280
     1
  9
$XCLIPFRAME
290
     0
  9
$HALOGAP
280
     0
  9
$OBSCOLOR
 70
   257
  9
$OBSLTYPE
280
     0
  9
$INTERSECTIONDISPLAY
280
     0
  9
$INTERSECTIONCOLOR
 70
   257
  9
$DIMASSOC
280
     2
  9
$PROJECTNAME
  1

  9
$CAMERADISPLAY
290
     0
  9
$LENSLENGTH
 40
50.0
  9
$CAMERAHEIGHT
 40
0.0
  9
$STEPSPERSEC
 40
2.0
  9
$STEPSIZE
 40
6.0
  9
$3DDWFPREC
 40
2.0
  9
$PSOLWIDTH
 40
0.25
  9
$PSOLHEIGHT
 40
4.0
  9
$LOFTANG1
 40
1.570796326794897
  9
$LOFTANG2
 40
1.570796326794897
  9
$LOFTMAG1
 40
0.0
  9
$LOFTMAG2
 40
0.0
  9
$LOFTPARAM
 70
     7
  9
$LOFTNORMALS
280
     1
  9
$LATITUDE
 40
37.795
  9
$LONGITUDE
 40
-122.394
  9
$NORTHDIRECTION
 40
0.0
  9
$TIMEZONE
 70
 -8000
  9
$LIGHTGLYPHDISPLAY
280
     1
  9
$TILEMODELIGHTSYNCH
280
     1
  9
$SOLIDHIST
280
     1
  9
$SHOWHIST
280
     1
  9
$DWFFRAME
280
     2
  9
$DGNFRAME
280
     2
  9
$REALWORLDSCALE
290
     1
  9
$INTERFERECOLOR
 62
   256
  9
$CSHADOW
280
     0
  9
$SHADOWPLANELOCATION
 40
0.0
  0
ENDSEC
  0
SECTION
  2
CLASSES
  0
CLASS
  1
LWPOLYLINE
  2
AcDbPolyline
  3
ObjectDBX Classes
 90
        0
 91
        1
280
     0
281
     1
  0
CLASS
  1
IMAGE
  2
AcDbRasterImage
  3
ISM
 90
      127
 91
        4
280
     0
281
     1
  0
CLASS
  1
OLE2FRAME
  2
AcDbOle2Frame
  3
ObjectDBX Classes
 90
        0
 91
        1
280
     0
281
     1
  0
CLASS
  1
HATCH
  2
AcDbHatch
  3
ObjectDBX Classes
 90
        0
 91
        1
280
     0
281
     1
  0
CLASS
  1
DICTIONARYVAR
  2
AcDbDictionaryVar
  3
ObjectDBX Classes
 90
        0
 91
        3
280
     0
281
     0
  0
CLASS
  1
RASTERVARIABLES
  2
AcDbRasterVariables
  3
ISM
 90
        0
 91
        3
280
     0
281
     0
  0
CLASS
  1
IMAGEDEF
  2
AcDbRasterImageDef
  3
ISM
 90
        0
 91
        3
280
     0
281
     0
  0
CLASS
  1
IMAGEDEF_REACTOR
  2
AcDbRasterImageDefReactor
  3
ISM
 90
        1
 91
        3
280
     0
281
     0
  0
CLASS
  1
IDBUFFER
  2
AcDbIdBuffer
  3
ObjectDBX Classes
 90
        0
 91
        3
280
     0
281
     0
  0
CLASS
  1
SPATIAL_FILTER
  2
AcDbSpatialFilter
  3
ObjectDBX Classes
 90
        0
 91
        3
280
     0
281
     0
  0
CLASS
  1
XRECORD
  2
AcDbXrecord
  3
ObjectDBX Classes
 90
        0
 91
        1
280
     0
281
     0
  0
CLASS
  1
SORTENTSTABLE
  2
AcDbSortentsTable
  3
ObjectDBX Classes
 90
        0
 91
        3
280
     0
281
     0
  0
CLASS
  1
LAYER_INDEX
  2
AcDbLayerIndex
  3
ObjectDBX Classes
 90
        0
 91
        3
280
     0
281
     0
  0
CLASS
  1
SPATIAL_INDEX
  2
AcDbSpatialIndex
  3
AutoCAD 2000
 90
        0
 91
        3
280
     0
281
     0
  0
CLASS
  1
OBJECT_PTR
  2
CAseDLPNTableRecord
  3
ASE-LPNTableRecord
 90
        1
 91
        3
280
     0
281
     0
  0
CLASS
  1
LAYOUT
  2
AcDbLayout
  3
ObjectDBX Classes
 90
        0
 91
        1
280
     0
281
     0
  0
CLASS
  1
PLOTSETTINGS
  2
AcDbPlotSettings
  3
ObjectDBX Classes
 90
        0
 91
        3
280
     0
281
     0
  0
CLASS
  1
ACDBDICTIONARYWDFLT
  2
AcDbDictionaryWithDefault
  3
ObjectDBX Classes
 90
        0
 91
        3
280
     0
281
     0
  0
CLASS
  1
ACDBPLACEHOLDER
  2
AcDbPlaceHolder
  3
ObjectDBX Classes
 90
        0
 91
        1
280
     0
281
     0
  0
CLASS
  1
SCALE
  2
AcDbScale
  3
ObjectDBX Classes
 90
     1153
 91
        3
280
     0
281
     0
  0
CLASS
  1
MATERIAL
  2
AcDbMaterial
  3
ObjectDBX Classes
 90
     1153
 91
        3
280
     0
281
     0
  0
CLASS
  1
VISUALSTYLE
  2
AcDbVisualStyle
  3
ObjectDBX Classes
 90
     4095
 91
        3
280
     0
281
     0
  0
CLASS
  1
TABLESTYLE
  2
AcDbTableStyle
  3
ObjectDBX Classes
 90
     4095
 91
        3
280
     0
281
     0
  0
CLASS
  1
DIMASSOC
  2
AcDbDimAssoc
  3
"AcDbDimAssoc|Product Desc:     AcDim ARX App For Dimension|Company:          Autodesk, Inc.|WEB Address:      www.autodesk.com"
 90
        0
 91
        3
280
     0
281
     0
  0
CLASS
  1
CELLSTYLEMAP
  2
AcDbCellStyleMap
  3
ObjectDBX Classes
 90
     1152
 91
        3
280
     0
281
     0
  0
CLASS
  1
SUN
  2
AcDbSun
  3
SCENEOE
 90
     1153
 91
        3
280
     0
281
     0
  0
CLASS
  1
MLEADERSTYLE
  2
AcDbMLeaderStyle
  3
ACDB_MLEADERSTYLE_CLASS
 90
     4095
 91
        3
280
     0
281
     0
  0
CLASS
  1
FIELD
  2
AcDbField
  3
ObjectDBX Classes
 90
     1152
 91
        3
280
     0
281
     0
  0
CLASS
  1
FIELDLIST
  2
AcDbFieldList
  3
ObjectDBX Classes
 90
     1152
 91
        3
280
     0
281
     0
  0
CLASS
  1
MULTILEADER
  2
AcDbMLeader
  3
ACDB_MLEADER_CLASS
 90
     1025
 91
        3
280
     0
281
     1
  0
ENDSEC
  0
SECTION
  2
TABLES
  0
TABLE
  2
VPORT
  5
7
330
0
100
AcDbSymbolTable
 70
     1
  0
VPORT
  5
15
330
7
100
AcDbSymbolTableRecord
100
AcDbViewportTableRecord
  2
*ACTIVE
 70
     0
 10
0.0
 20
0.0
 11
1.0
 21
1.0
 12
1141.0201356709
 22
1411.401285469834
 13
0.0
 23
0.0
 14
1.0
 24
1.0
 15
0.0
 25
0.0
 16
0.0
 26
0.0
 36
1.0
 17
-91.02013567089989
 27
73.59871453016603
 37
-46.86809886248109
 40
3029.4
 41
2.333333333333333
 42
50.0
 43
0.0
 44
0.0
 50
0.0
 51
0.0
 71
    16
 72
  2000
 73
     1
 74
     1
 75
     0
 76
     0
 77
     0
 78
     0
281
     0
 65
     1
110
0.0
120
0.0
130
0.0
111
1.0
121
0.0
131
0.0
112
0.0
122
1.0
132
0.0
 79
     0
146
0.0
348
26C
 60
     3
 61
     5
292
     1
282
     1
141
0.0
142
0.0
 63
   256
361
904
  0
ENDTAB
  0
TABLE
  2
LTYPE
  5
4
330
0
100
AcDbSymbolTable
 70
     3
  0
LTYPE
  5
11
330
4
100
AcDbSymbolTableRecord
100
AcDbLinetypeTableRecord
  2
ByBlock
 70
     0
  3

 72
    65
 73
     0
 40
0.0
  0
LTYPE
  5
12
330
4
100
AcDbSymbolTableRecord
100
AcDbLinetypeTableRecord
  2
ByLayer
 70
     0
  3

 72
    65
 73
     0
 40
0.0
  0
LTYPE
  5
13
330
4
100
AcDbSymbolTableRecord
100
AcDbLinetypeTableRecord
  2
Continuous
 70
     0
  3
Solid line
 72
    65
 73
     0
 40
0.0
  0
LTYPE
  5
DAF
330
4
100
AcDbSymbolTableRecord
100
AcDbLinetypeTableRecord
  2
BORDER
 70
     0
  3
Border __  __  . __  __  . __  __  . __  __  . 
 72
    65
 73
     6
 40
44.45
 49
12.7
 74
     0
 49
-6.35
 74
     0
 49
12.7
 74
     0
 49
-6.35
 74
     0
 49
0.0
 74
     0
 49
-6.35
 74
     0
  0
LTYPE
  5
33DD
330
4
100
AcDbSymbolTableRecord
100
AcDbLinetypeTableRecord
  2
HIDDEN
 70
     0
  3
Hidden _ _ _ _ _ _ _ _ _ _ _ _ _ _ _ _ _ _ _ _ 
 72
    65
 73
     2
 40
9.524999999999999
 49
6.35
 74
     0
 49
-3.175
 74
     0
  0
ENDTAB
  0
TABLE
  2
LAYER
  5
2
102
{ACAD_XDICTIONARY
360
2E1
102
}
330
0
100
AcDbSymbolTable
 70
    11
  0
LAYER
  5
14
330
2
100
AcDbSymbolTableRecord
100
AcDbLayerTableRecord
  2
0
 70
     0
 62
     7
  6
Continuous
370
    -3
390
1D
347
266
  0
LAYER
  5
4B
330
2
100
AcDbSymbolTableRecord
100
AcDbLayerTableRecord
  2
TEMPLATE
 70
     0
 62
     7
  6
Continuous
370
    20
390
1D
347
266
  0
LAYER
  5
4C
330
2
100
AcDbSymbolTableRecord
100
AcDbLayerTableRecord
  2
DIM
 70
     0
 62
     3
  6
Continuous
370
    13
390
1D
347
266
  0
LAYER
  5
4D
330
2
100
AcDbSymbolTableRecord
100
AcDbLayerTableRecord
  2
MODEL
 70
     0
 62
     7
  6
Continuous
370
    20
390
1D
347
266
  0
LAYER
  5
D5D
330
2
100
AcDbSymbolTableRecord
100
AcDbLayerTableRecord
  2
Defpoints
 70
     0
 62
     7
  6
Continuous
290
     0
370
    -3
390
1D
347
266
  0
LAYER
  5
DAE
330
2
100
AcDbSymbolTableRecord
100
AcDbLayerTableRecord
  2
BORDER
 70
     0
 62
     4
  6
BORDER
290
     0
370
    20
390
1D
347
266
1001
AcAecLayerStandard
1000

1000

  0
LAYER
  5
157B
330
2
100
AcDbSymbolTableRecord
100
AcDbLayerTableRecord
  2
Layer3
 70
     0
 62
     7
  6
Continuous
370
    -3
390
1D
347
266
  0
LAYER
  5
157F
330
2
100
AcDbSymbolTableRecord
100
AcDbLayerTableRecord
  2
Layer9
 70
     0
 62
     7
  6
Continuous
370
    -3
390
1D
347
266
  0
LAYER
  5
1582
330
2
100
AcDbSymbolTableRecord
100
AcDbLayerTableRecord
  2
Standard
 70
     0
 62
     7
  6
Continuous
370
    -3
390
1D
347
266
  0
LAYER
  5
33DC
330
2
100
AcDbSymbolTableRecord
100
AcDbLayerTableRecord
  2
HIDDEN
 70
     0
 62
     8
  6
HIDDEN
370
    20
390
1D
347
266
1001
AcAecLayerStandard
1000

1000

  0
LAYER
  5
377D
330
2
100
AcDbSymbolTableRecord
100
AcDbLayerTableRecord
  2
レイヤー 1
 70
     0
 62
     7
  6
Continuous
370
    -3
390
1D
347
266
  0
ENDTAB
  0
TABLE
  2
STYLE
  5
3
330
0
100
AcDbSymbolTable
 70
     2
  0
STYLE
  5
17
330
3
100
AcDbSymbolTableRecord
100
AcDbTextStyleTableRecord
  2
Standard
 70
     0
 40
0.0
 41
1.0
 50
0.0
 71
     0
 42
2.5
  3
txt
  4
BIGFONT.SHX
  0
STYLE
  5
39
330
3
100
AcDbSymbolTableRecord
100
AcDbTextStyleTableRecord
  2
ＭＳ ゴシック
 70
     0
 40
0.0
 41
1.0
 50
0.0
 71
     0
 42
2.5
  3
msgothic.ttc
  4
ＭＳ ゴシック
1001
ACAD
1000
ＭＳ ゴシック
1071
        0
  0
ENDTAB
  0
TABLE
  2
VIEW
  5
5
330
0
100
AcDbSymbolTable
 70
     0
  0
ENDTAB
  0
TABLE
  2
UCS
  5
6
330
0
100
AcDbSymbolTable
 70
     0
  0
ENDTAB
  0
TABLE
  2
APPID
  5
8
330
0
100
AcDbSymbolTable
 70
     4
  0
APPID
  5
16
330
8
100
AcDbSymbolTableRecord
100
AcDbRegAppTableRecord
  2
ACAD
 70
     0
  0
APPID
  5
7AC
330
8
100
AcDbSymbolTableRecord
100
AcDbRegAppTableRecord
  2
AcAecLayerStandard
 70
     0
  0
APPID
  5
F3A
330
8
100
AcDbSymbolTableRecord
100
AcDbRegAppTableRecord
  2
ACAD_MLEADERVER
 70
     0
  0
APPID
  5
47AB
330
8
100
AcDbSymbolTableRecord
100
AcDbRegAppTableRecord
  2
PLOTTRANSPARENCY
 70
     0
  0
ENDTAB
  0
TABLE
  2
DIMSTYLE
  5
9
330
0
100
AcDbSymbolTable
 70
     2
100
AcDbDimStyleTable
  0
DIMSTYLE
105
18
330
9
100
AcDbSymbolTableRecord
100
AcDbDimStyleTableRecord
  2
Standard
 70
     0
178
     0
340
17
  0
DIMSTYLE
105
57
102
{ACAD_REACTORS
330
4685
330
4694
330
46A3
330
46B2
330
46D0
330
46DD
330
46EC
330
46FB
330
470A
330
4719
330
4728
330
4738
330
4748
330
4757
330
4769
330
4778
330
4787
330
4796
102
}
330
9
100
AcDbSymbolTableRecord
100
AcDbDimStyleTableRecord
  2
tfrom線あり
 70
     0
  3
<>
  4
[]
 41
10.0
 42
30.0
 43
0.9999999999999999
 44
0.0
 73
     0
 74
     0
 77
     1
 78
    11
140
24.0
141
0.0
143
1.0
147
20.0
171
     1
174
     1
178
     0
179
     2
271
     0
272
     1
276
     2
284
    11
285
    11
286
    11
289
     0
340
39
341
4E
342
4E
  0
ENDTAB
  0
TABLE
  2
BLOCK_RECORD
  5
1
330
0
100
AcDbSymbolTable
 70
    25
  0
BLOCK_RECORD
  5
A
102
{ACAD_XDICTIONARY
360
374D
102
}
330
1
100
AcDbSymbolTableRecord
100
AcDbBlockTableRecord
  2
*MODEL_SPACE
340
20
 70
     0
280
     1
281
     0
  0
BLOCK_RECORD
  5
B
330
1
100
AcDbSymbolTableRecord
100
AcDbBlockTableRecord
  2
*PAPER_SPACE
340
21
 70
     0
280
     1
281
     0
  0
BLOCK_RECORD
  5
4E
330
1
100
AcDbSymbolTableRecord
100
AcDbBlockTableRecord
  2
_DOT
340
0
102
{BLKREFS
331
373A
331
373B
331
3746
331
3747
331
468F
331
468E
331
469E
331
469D
331
46BC
331
46BB
331
46CB
331
46CA
331
46D8
331
46D7
331
46E7
331
46E6
331
46F6
331
46F5
331
4705
331
4704
331
4714
331
4713
331
4723
331
4722
331
0
331
0
331
0
331
4742
331
4752
331
4751
331
0
331
4761
331
4735
331
4773
331
4772
331
4782
331
4781
331
4791
331
4790
331
0
331
0
331
47A3
102
}
 70
     0
280
     1
281
     0
  0
BLOCK_RECORD
  5
68D
330
1
100
AcDbSymbolTableRecord
100
AcDbBlockTableRecord
  2
block 2
340
0
102
{BLKREFS
331
68C
102
}
 70
     0
280
     1
281
     0
  0
BLOCK_RECORD
  5
199A
330
1
100
AcDbSymbolTableRecord
100
AcDbBlockTableRecord
  2
SEANNOT_GROUP
340
0
102
{BLKREFS
331
28CA
102
}
 70
     0
280
     1
281
     0
  0
BLOCK_RECORD
  5
1F2F
330
1
100
AcDbSymbolTableRecord
100
AcDbBlockTableRecord
  2
SEANNOT_GROUP1
340
0
102
{BLKREFS
331
2B9B
102
}
 70
     0
280
     1
281
     0
  0
BLOCK_RECORD
  5
3734
330
1
100
AcDbSymbolTableRecord
100
AcDbBlockTableRecord
  2
*D4
340
0
 70
     0
280
     1
281
     0
  0
BLOCK_RECORD
  5
3740
330
1
100
AcDbSymbolTableRecord
100
AcDbBlockTableRecord
  2
*D5
340
0
 70
     0
280
     1
281
     0
  0
BLOCK_RECORD
  5
4688
330
1
100
AcDbSymbolTableRecord
100
AcDbBlockTableRecord
  2
*D7
340
0
 70
     0
280
     1
281
     0
  0
BLOCK_RECORD
  5
4697
330
1
100
AcDbSymbolTableRecord
100
AcDbBlockTableRecord
  2
*D8
340
0
 70
     0
280
     1
281
     0
  0
BLOCK_RECORD
  5
46A6
330
1
100
AcDbSymbolTableRecord
100
AcDbBlockTableRecord
  2
*D9
340
0
 70
     0
280
     1
281
     0
  0
BLOCK_RECORD
  5
46B5
330
1
100
AcDbSymbolTableRecord
100
AcDbBlockTableRecord
  2
*D10
340
0
 70
     0
280
     1
281
     0
  0
BLOCK_RECORD
  5
46C4
330
1
100
AcDbSymbolTableRecord
100
AcDbBlockTableRecord
  2
*D11
340
0
 70
     0
280
     1
281
     0
  0
BLOCK_RECORD
  5
46D1
330
1
100
AcDbSymbolTableRecord
100
AcDbBlockTableRecord
  2
*D12
340
0
 70
     0
280
     1
281
     0
  0
BLOCK_RECORD
  5
46E0
330
1
100
AcDbSymbolTableRecord
100
AcDbBlockTableRecord
  2
*D13
340
0
 70
     0
280
     1
281
     0
  0
BLOCK_RECORD
  5
46EF
330
1
100
AcDbSymbolTableRecord
100
AcDbBlockTableRecord
  2
*D14
340
0
 70
     0
280
     1
281
     0
  0
BLOCK_RECORD
  5
46FE
330
1
100
AcDbSymbolTableRecord
100
AcDbBlockTableRecord
  2
*D15
340
0
 70
     0
280
     1
281
     0
  0
BLOCK_RECORD
  5
470D
330
1
100
AcDbSymbolTableRecord
100
AcDbBlockTableRecord
  2
*D16
340
0
 70
     0
280
     1
281
     0
  0
BLOCK_RECORD
  5
471C
330
1
100
AcDbSymbolTableRecord
100
AcDbBlockTableRecord
  2
*D17
340
0
 70
     0
280
     1
281
     0
  0
BLOCK_RECORD
  5
472B
330
1
100
AcDbSymbolTableRecord
100
AcDbBlockTableRecord
  2
*D18
340
0
 70
     0
280
     1
281
     0
  0
BLOCK_RECORD
  5
473B
330
1
100
AcDbSymbolTableRecord
100
AcDbBlockTableRecord
  2
*D19
340
0
 70
     0
280
     1
281
     0
  0
BLOCK_RECORD
  5
474B
330
1
100
AcDbSymbolTableRecord
100
AcDbBlockTableRecord
  2
*D20
340
0
 70
     0
280
     1
281
     0
  0
BLOCK_RECORD
  5
475A
330
1
100
AcDbSymbolTableRecord
100
AcDbBlockTableRecord
  2
*D21
340
0
 70
     0
280
     1
281
     0
  0
BLOCK_RECORD
  5
476C
330
1
100
AcDbSymbolTableRecord
100
AcDbBlockTableRecord
  2
*D22
340
0
 70
     0
280
     1
281
     0
  0
BLOCK_RECORD
  5
477B
330
1
100
AcDbSymbolTableRecord
100
AcDbBlockTableRecord
  2
*D23
340
0
 70
     0
280
     1
281
     0
  0
BLOCK_RECORD
  5
478A
330
1
100
AcDbSymbolTableRecord
100
AcDbBlockTableRecord
  2
*D24
340
0
 70
     0
280
     1
281
     0
  0
BLOCK_RECORD
  5
4799
330
1
100
AcDbSymbolTableRecord
100
AcDbBlockTableRecord
  2
*D25
340
0
 70
     0
280
     1
281
     0
  0
ENDTAB
  0
ENDSEC
  0
SECTION
  2
BLOCKS
  0
BLOCK
  5
D
330
A
100
AcDbEntity
  8
0
390
1D
100
AcDbBlockBegin
  2
*MODEL_SPACE
 70
     0
 10
0.0
 20
0.0
 30
0.0
  3
*MODEL_SPACE
  1
*MODEL_SPACE
  0
ENDBLK
  5
E
330
A
100
AcDbEntity
  8
0
390
1D
100
AcDbBlockEnd
  0
BLOCK
  5
F
330
B
100
AcDbEntity
 67
     1
  8
0
390
1D
100
AcDbBlockBegin
  2
*PAPER_SPACE
 70
     0
 10
0.0
 20
0.0
 30
0.0
  3
*PAPER_SPACE
  1
*PAPER_SPACE
  0
ENDBLK
  5
10
330
B
100
AcDbEntity
 67
     1
  8
0
390
1D
100
AcDbBlockEnd
  0
BLOCK
  5
EC4
330
4E
100
AcDbEntity
  8
0
390
1D
100
AcDbBlockBegin
  2
_DOT
 70
     0
 10
0.0
 20
0.0
 30
0.0
  3
_DOT
  1
_DOT
  0
POLYLINE
  5
EC6
330
4E
100
AcDbEntity
  8
0
  6
ByBlock
 62
     0
370
    -2
390
1D
100
AcDb2dPolyline
 66
     1
 10
0.0
 20
0.0
 30
0.0
 70
     1
 40
0.5
 41
0.5
  0
VERTEX
  5
EC7
330
EC6
100
AcDbEntity
  8
0
  6
ByBlock
 62
     0
370
    -2
390
1D
100
AcDbVertex
100
AcDb2dVertex
 10
-0.25
 20
0.0
 30
0.0
 42
1.0
  0
VERTEX
  5
EC8
330
EC6
100
AcDbEntity
  8
0
  6
ByBlock
 62
     0
370
    -2
390
1D
100
AcDbVertex
100
AcDb2dVertex
 10
0.25
 20
0.0
 30
0.0
 42
1.0
  0
SEQEND
  5
EC9
330
EC6
100
AcDbEntity
  8
0
390
1D
  0
LINE
  5
ECA
330
4E
100
AcDbEntity
  8
0
  6
ByBlock
 62
     0
370
    -2
390
1D
100
AcDbLine
 10
-0.5
 20
0.0
 30
0.0
 11
-1.0
 21
0.0
 31
0.0
  0
ENDBLK
  5
ECB
330
4E
100
AcDbEntity
  8
0
390
1D
100
AcDbBlockEnd
  0
BLOCK
  5
68E
330
68D
100
AcDbEntity
  8
0
100
AcDbBlockBegin
  2
block 2
 70
     0
 10
0.0
 20
0.0
 30
0.0
  3
block 2
  1
block 2
  0
ENDBLK
  5
6B0
330
68D
100
AcDbEntity
  8
0
100
AcDbBlockEnd
  0
BLOCK
  5
199B
330
199A
100
AcDbEntity
  8
0
100
AcDbBlockBegin
  2
SEANNOT_GROUP
 70
     0
 10
0.0
 20
0.0
 30
0.0
  3
SEANNOT_GROUP
  1
SEANNOT_GROUP
  0
ENDBLK
  5
199C
330
199A
100
AcDbEntity
  8
0
100
AcDbBlockEnd
  0
BLOCK
  5
1F30
330
1F2F
100
AcDbEntity
  8
0
100
AcDbBlockBegin
  2
SEANNOT_GROUP1
 70
     0
 10
0.0
 20
0.0
 30
0.0
  3
SEANNOT_GROUP1
  1
SEANNOT_GROUP1
  0
ENDBLK
  5
1F31
330
1F2F
100
AcDbEntity
  8
0
100
AcDbBlockEnd
  0
BLOCK
  5
3735
330
3734
100
AcDbEntity
  8
0
100
AcDbBlockBegin
  2
*D4
 70
     1
 10
0.0
 20
0.0
 30
0.0
  3
*D4
  1

  0
LINE
  5
3737
330
3734
100
AcDbEntity
  8
DIM
 62
     0
370
    -2
100
AcDbLine
 10
792.5747720364734
 20
1624.375151854103
 30
0.0
 11
792.5747720364734
 21
1945.106376948328
 31
0.0
  0
LINE
  5
3738
330
3734
100
AcDbEntity
  8
DIM
 62
     0
370
    -2
100
AcDbLine
 10
1363.464741641327
 20
1624.375151854103
 30
0.0
 11
1363.464741641327
 21
1945.106376948328
 31
0.0
  0
LINE
  5
3739
330
3734
100
AcDbEntity
  8
DIM
 62
     0
370
    -2
100
AcDbLine
 10
802.5747720364734
 20
1945.106376948328
 30
0.0
 11
1353.464741641327
 21
1945.106376948328
 31
0.0
  0
INSERT
  5
373A
330
3734
100
AcDbEntity
  8
DIM
 62
     0
370
    -2
100
AcDbBlockReference
  2
_DOT
 10
792.5747720364734
 20
1945.106376948328
 30
0.0
 41
10.0
 42
10.0
 43
10.0
 50
180.0
  0
INSERT
  5
373B
330
3734
100
AcDbEntity
  8
DIM
 62
     0
370
    -2
100
AcDbBlockReference
  2
_DOT
 10
1363.464741641327
 20
1945.106376948328
 30
0.0
 41
10.0
 42
10.0
 43
10.0
  0
MTEXT
  5
373C
330
3734
100
AcDbEntity
  8
DIM
 62
     0
100
AcDbMText
 10
1078.019756838897
 20
1977.106376948328
 30
0.0
 40
24.0
 41
0.0
 46
0.0
 71
     5
 72
     1
  1
\A1;571
  7
ＭＳ ゴシック
 73
     1
 44
1.0
  0
POINT
  5
373D
330
3734
100
AcDbEntity
  8
Defpoints
 62
     0
100
AcDbPoint
 10
792.5747720364734
 20
1594.375151854103
 30
0.0
  0
POINT
  5
373E
330
3734
100
AcDbEntity
  8
Defpoints
 62
     0
100
AcDbPoint
 10
1363.464741641327
 20
1594.375151854103
 30
0.0
  0
POINT
  5
373F
330
3734
100
AcDbEntity
  8
Defpoints
 62
     0
100
AcDbPoint
 10
1363.464741641327
 20
1945.106376948328
 30
0.0
  0
ENDBLK
  5
3736
330
3734
100
AcDbEntity
  8
0
100
AcDbBlockEnd
  0
BLOCK
  5
3741
330
3740
100
AcDbEntity
  8
0
100
AcDbBlockBegin
  2
*D5
 70
     1
 10
0.0
 20
0.0
 30
0.0
  3
*D5
  1

  0
LINE
  5
3743
330
3740
100
AcDbEntity
  8
DIM
 62
     0
370
    -2
100
AcDbLine
 10
888.5851999139768
 20
1564.375151854103
 30
0.0
 11
888.5851999139768
 21
1160.881823708206
 31
0.0
  0
LINE
  5
3744
330
3740
100
AcDbEntity
  8
DIM
 62
     0
370
    -2
100
AcDbLine
 10
1267.454313763824
 20
1564.375151854103
 30
0.0
 11
1267.454313763824
 21
1160.881823708206
 31
0.0
  0
LINE
  5
3745
330
3740
100
AcDbEntity
  8
DIM
 62
     0
370
    -2
100
AcDbLine
 10
898.5851999139768
 20
1160.881823708206
 30
0.0
 11
1257.454313763824
 21
1160.881823708206
 31
0.0
  0
INSERT
  5
3746
330
3740
100
AcDbEntity
  8
DIM
 62
     0
370
    -2
100
AcDbBlockReference
  2
_DOT
 10
888.5851999139768
 20
1160.881823708206
 30
0.0
 41
10.0
 42
10.0
 43
10.0
 50
180.0
  0
INSERT
  5
3747
330
3740
100
AcDbEntity
  8
DIM
 62
     0
370
    -2
100
AcDbBlockReference
  2
_DOT
 10
1267.454313763824
 20
1160.881823708206
 30
0.0
 41
10.0
 42
10.0
 43
10.0
  0
MTEXT
  5
3748
330
3740
100
AcDbEntity
  8
DIM
 62
     0
100
AcDbMText
 10
1078.0197568389
 20
1192.881823708206
 30
0.0
 40
24.0
 41
0.0
 46
0.0
 71
     5
 72
     1
  1
\A1;379
  7
ＭＳ ゴシック
 73
     1
 44
1.0
  0
POINT
  5
3749
330
3740
100
AcDbEntity
  8
Defpoints
 62
     0
100
AcDbPoint
 10
888.5851999139768
 20
1594.375151854103
 30
0.0
  0
POINT
  5
374A
330
3740
100
AcDbEntity
  8
Defpoints
 62
     0
100
AcDbPoint
 10
1267.454313763824
 20
1594.375151854103
 30
0.0
  0
POINT
  5
374B
330
3740
100
AcDbEntity
  8
Defpoints
 62
     0
100
AcDbPoint
 10
1267.454313763824
 20
1160.881823708206
 30
0.0
  0
ENDBLK
  5
3742
330
3740
100
AcDbEntity
  8
0
100
AcDbBlockEnd
  0
BLOCK
  5
4689
330
4688
100
AcDbEntity
  8
0
100
AcDbBlockBegin
  2
*D7
 70
     1
 10
0.0
 20
0.0
 30
0.0
  3
*D7
  1

  0
LINE
  5
468B
330
4688
100
AcDbEntity
  8
DIM
 62
     0
370
    -2
100
AcDbLine
 10
1130.11242876885
 20
2342.040173156463
 30
0.0
 11
1130.11242876885
 21
2442.426788002038
 31
0.0
  0
LINE
  5
468C
330
4688
100
AcDbEntity
  8
DIM
 62
     0
370
    -2
100
AcDbLine
 10
280.4824197003359
 20
2342.040173156463
 30
0.0
 11
280.4824197003359
 21
2442.426788002038
 31
0.0
  0
LINE
  5
468D
330
4688
100
AcDbEntity
  8
DIM
 62
     0
370
    -2
100
AcDbLine
 10
1120.11242876885
 20
2442.426788002038
 30
0.0
 11
290.4824197003359
 21
2442.426788002038
 31
0.0
  0
INSERT
  5
468E
330
4688
100
AcDbEntity
  8
DIM
 62
     0
370
    -2
100
AcDbBlockReference
  2
_DOT
 10
1130.11242876885
 20
2442.426788002038
 30
0.0
 41
10.0
 42
10.0
 43
10.0
  0
INSERT
  5
468F
330
4688
100
AcDbEntity
  8
DIM
 62
     0
370
    -2
100
AcDbBlockReference
  2
_DOT
 10
280.4824197003359
 20
2442.426788002038
 30
0.0
 41
10.0
 42
10.0
 43
10.0
 50
180.0
  0
MTEXT
  5
4690
330
4688
100
AcDbEntity
  8
DIM
 62
     0
100
AcDbMText
 10
705.2974242345931
 20
2474.431289690172
 30
0.0
 40
24.0
 41
0.0
 46
0.0
 71
     5
 72
     1
  1
\A1;850
  7
ＭＳ ゴシック
 73
     1
 44
1.0
  0
POINT
  5
4691
330
4688
100
AcDbEntity
  8
Defpoints
 62
     0
100
AcDbPoint
 10
1130.11242876885
 20
2312.040173156463
 30
0.0
  0
POINT
  5
4692
330
4688
100
AcDbEntity
  8
Defpoints
 62
     0
100
AcDbPoint
 10
280.4824197003359
 20
2312.040173156463
 30
0.0
  0
POINT
  5
4693
330
4688
100
AcDbEntity
  8
Defpoints
 62
     0
100
AcDbPoint
 10
280.4824197003359
 20
2442.426788002038
 30
0.0
  0
ENDBLK
  5
468A
330
4688
100
AcDbEntity
  8
0
100
AcDbBlockEnd
  0
BLOCK
  5
4698
330
4697
100
AcDbEntity
  8
0
100
AcDbBlockBegin
  2
*D8
 70
     1
 10
0.0
 20
0.0
 30
0.0
  3
*D8
  1

  0
LINE
  5
469A
330
4697
100
AcDbEntity
  8
DIM
 62
     0
370
    -2
100
AcDbLine
 10
605.1794382904695
 20
2306.116126167462
 30
0.0
 11
605.1794382904695
 21
2380.684580584361
 31
0.0
  0
LINE
  5
469B
330
4697
100
AcDbEntity
  8
DIM
 62
     0
370
    -2
100
AcDbLine
 10
705.0855507224801
 20
2306.116126167462
 30
0.0
 11
705.0855507224801
 21
2380.684580584361
 31
0.0
  0
LINE
  5
469C
330
4697
100
AcDbEntity
  8
DIM
 62
     0
370
    -2
100
AcDbLine
 10
615.1794382904695
 20
2380.684580584361
 30
0.0
 11
695.0855507224801
 21
2380.684580584361
 31
0.0
  0
INSERT
  5
469D
330
4697
100
AcDbEntity
  8
DIM
 62
     0
370
    -2
100
AcDbBlockReference
  2
_DOT
 10
605.1794382904695
 20
2380.684580584361
 30
0.0
 41
10.0
 42
10.0
 43
10.0
 50
180.0
  0
INSERT
  5
469E
330
4697
100
AcDbEntity
  8
DIM
 62
     0
370
    -2
100
AcDbBlockReference
  2
_DOT
 10
705.0855507224801
 20
2380.684580584361
 30
0.0
 41
10.0
 42
10.0
 43
10.0
  0
MTEXT
  5
469F
330
4697
100
AcDbEntity
  8
DIM
 62
     0
100
AcDbMText
 10
655.1324945064748
 20
2412.689082272494
 30
0.0
 40
24.0
 41
0.0
 46
0.0
 71
     5
 72
     1
  1
\A1;100
  7
ＭＳ ゴシック
 73
     1
 44
1.0
  0
POINT
  5
46A0
330
4697
100
AcDbEntity
  8
Defpoints
 62
     0
100
AcDbPoint
 10
605.1794382904695
 20
2276.116126167462
 30
0.0
  0
POINT
  5
46A1
330
4697
100
AcDbEntity
  8
Defpoints
 62
     0
100
AcDbPoint
 10
705.0855507224801
 20
2276.116126167462
 30
0.0
  0
POINT
  5
46A2
330
4697
100
AcDbEntity
  8
Defpoints
 62
     0
100
AcDbPoint
 10
705.0855507224801
 20
2380.684580584361
 30
0.0
  0
ENDBLK
  5
4699
330
4697
100
AcDbEntity
  8
0
100
AcDbBlockEnd
  0
BLOCK
  5
46A7
330
46A6
100
AcDbEntity
  8
0
100
AcDbBlockBegin
  2
*D9
 70
     1
 10
0.0
 20
0.0
 30
0.0
  3
*D9
  1

  0
LINE
  5
46A9
330
46A6
100
AcDbEntity
  8
DIM
 62
     0
370
    -2
100
AcDbLine
 10
804.9916631544907
 20
2306.116126167462
 30
0.0
 11
804.9916631544907
 21
2380.684580584361
 31
0.0
  0
LINE
  5
46AA
330
46A6
100
AcDbEntity
  8
DIM
 62
     0
370
    -2
100
AcDbLine
 10
705.0855507224801
 20
2306.116126167462
 30
0.0
 11
705.0855507224801
 21
2380.684580584361
 31
0.0
  0
LINE
  5
46AB
330
46A6
100
AcDbEntity
  8
DIM
 62
     0
370
    -2
100
AcDbLine
 10
794.9916631544907
 20
2380.684580584361
 30
0.0
 11
715.0855507224801
 21
2380.684580584361
 31
0.0
  0
INSERT
  5
46AC
330
46A6
100
AcDbEntity
  8
DIM
 62
     0
370
    -2
100
AcDbBlockReference
  2
_DOT
 10
804.9916631544907
 20
2380.684580584361
 30
0.0
 41
10.0
 42
10.0
 43
10.0
  0
INSERT
  5
46AD
330
46A6
100
AcDbEntity
  8
DIM
 62
     0
370
    -2
100
AcDbBlockReference
  2
_DOT
 10
705.0855507224801
 20
2380.684580584361
 30
0.0
 41
10.0
 42
10.0
 43
10.0
 50
180.0
  0
MTEXT
  5
46AE
330
46A6
100
AcDbEntity
  8
DIM
 62
     0
100
AcDbMText
 10
755.0386069384854
 20
2412.689082272494
 30
0.0
 40
24.0
 41
0.0
 46
0.0
 71
     5
 72
     1
  1
\A1;100
  7
ＭＳ ゴシック
 73
     1
 44
1.0
  0
POINT
  5
46AF
330
46A6
100
AcDbEntity
  8
Defpoints
 62
     0
100
AcDbPoint
 10
804.9916631544907
 20
2276.116126167462
 30
0.0
  0
POINT
  5
46B0
330
46A6
100
AcDbEntity
  8
Defpoints
 62
     0
100
AcDbPoint
 10
705.0855507224801
 20
2276.116126167462
 30
0.0
  0
POINT
  5
46B1
330
46A6
100
AcDbEntity
  8
Defpoints
 62
     0
100
AcDbPoint
 10
705.0855507224801
 20
2380.684580584361
 30
0.0
  0
ENDBLK
  5
46A8
330
46A6
100
AcDbEntity
  8
0
100
AcDbBlockEnd
  0
BLOCK
  5
46B6
330
46B5
100
AcDbEntity
  8
0
100
AcDbBlockBegin
  2
*D10
 70
     1
 10
0.0
 20
0.0
 30
0.0
  3
*D10
  1

  0
LINE
  5
46B8
330
46B5
100
AcDbEntity
  8
DIM
 62
     0
370
    -2
100
AcDbLine
 10
236.934572767153
 20
2312.945943748951
 30
0.0
 11
167.9467936429969
 21
2312.945943748951
 31
0.0
  0
LINE
  5
46B9
330
46B5
100
AcDbEntity
  8
DIM
 62
     0
370
    -2
100
AcDbLine
 10
225.0817139308888
 20
2168.165710470611
 30
0.0
 11
167.9467936429969
 21
2168.165710470611
 31
0.0
  0
LINE
  5
46BA
330
46B5
100
AcDbEntity
  8
DIM
 62
     0
370
    -2
100
AcDbLine
 10
167.9467936429969
 20
2302.945943748951
 30
0.0
 11
167.9467936429969
 21
2178.165710470611
 31
0.0
  0
INSERT
  5
46BB
330
46B5
100
AcDbEntity
  8
DIM
 62
     0
370
    -2
100
AcDbBlockReference
  2
_DOT
 10
167.9467936429969
 20
2312.945943748951
 30
0.0
 41
10.0
 42
10.0
 43
10.0
 50
90.0
  0
INSERT
  5
46BC
330
46B5
100
AcDbEntity
  8
DIM
 62
     0
370
    -2
100
AcDbBlockReference
  2
_DOT
 10
167.9467936429969
 20
2168.165710470611
 30
0.0
 41
10.0
 42
10.0
 43
10.0
 50
270.0
  0
MTEXT
  5
46BD
330
46B5
100
AcDbEntity
  8
DIM
 62
     0
100
AcDbMText
 10
135.9422919548638
 20
2240.555827109781
 30
0.0
 40
24.0
 41
0.0
 46
0.0
 71
     5
 72
     1
  1
\A1;145
  7
ＭＳ ゴシック
 11
0.0
 21
1.0
 31
0.0
 73
     1
 44
1.0
  0
POINT
  5
46BE
330
46B5
100
AcDbEntity
  8
Defpoints
 62
     0
100
AcDbPoint
 10
266.934572767153
 20
2312.945943748951
 30
0.0
  0
POINT
  5
46BF
330
46B5
100
AcDbEntity
  8
Defpoints
 62
     0
100
AcDbPoint
 10
255.0817139308888
 20
2168.165710470611
 30
0.0
  0
POINT
  5
46C0
330
46B5
100
AcDbEntity
  8
Defpoints
 62
     0
100
AcDbPoint
 10
167.9467936429969
 20
2168.165710470611
 30
0.0
  0
ENDBLK
  5
46B7
330
46B5
100
AcDbEntity
  8
0
100
AcDbBlockEnd
  0
BLOCK
  5
46C5
330
46C4
100
AcDbEntity
  8
0
100
AcDbBlockBegin
  2
*D11
 70
     1
 10
0.0
 20
0.0
 30
0.0
  3
*D11
  1

  0
LINE
  5
46C7
330
46C4
100
AcDbEntity
  8
DIM
 62
     0
370
    -2
100
AcDbLine
 10
2657.505764314836
 20
2184.023601584829
 30
0.0
 11
2657.505764314836
 21
1908.799998071577
 31
0.0
  0
LINE
  5
46C8
330
46C4
100
AcDbEntity
  8
DIM
 62
     0
370
    -2
100
AcDbLine
 10
2513.235923739052
 20
2211.288932246104
 30
0.0
 11
2513.235923739052
 21
1908.799998071577
 31
0.0
  0
LINE
  5
46C9
330
46C4
100
AcDbEntity
  8
DIM
 62
     0
370
    -2
100
AcDbLine
 10
2647.505764314836
 20
1908.799998071577
 30
0.0
 11
2523.235923739052
 21
1908.799998071577
 31
0.0
  0
INSERT
  5
46CA
330
46C4
100
AcDbEntity
  8
DIM
 62
     0
370
    -2
100
AcDbBlockReference
  2
_DOT
 10
2657.505764314836
 20
1908.799998071577
 30
0.0
 41
10.0
 42
10.0
 43
10.0
  0
INSERT
  5
46CB
330
46C4
100
AcDbEntity
  8
DIM
 62
     0
370
    -2
100
AcDbBlockReference
  2
_DOT
 10
2513.235923739052
 20
1908.799998071577
 30
0.0
 41
10.0
 42
10.0
 43
10.0
 50
180.0
  0
MTEXT
  5
46CC
330
46C4
100
AcDbEntity
  8
DIM
 62
     0
100
AcDbMText
 10
2585.370844026944
 20
1940.80449975971
 30
0.0
 40
24.0
 41
0.0
 46
0.0
 71
     5
 72
     1
  1
\A1;144
  7
ＭＳ ゴシック
 73
     1
 44
1.0
  0
POINT
  5
46CD
330
46C4
100
AcDbEntity
  8
Defpoints
 62
     0
100
AcDbPoint
 10
2657.505764314836
 20
2214.023601584829
 30
0.0
  0
POINT
  5
46CE
330
46C4
100
AcDbEntity
  8
Defpoints
 62
     0
100
AcDbPoint
 10
2513.235923739052
 20
2241.288932246104
 30
0.0
  0
POINT
  5
46CF
330
46C4
100
AcDbEntity
  8
Defpoints
 62
     0
100
AcDbPoint
 10
2513.235923739052
 20
1908.799998071577
 30
0.0
  0
ENDBLK
  5
46C6
330
46C4
100
AcDbEntity
  8
0
100
AcDbBlockEnd
  0
BLOCK
  5
46D2
330
46D1
100
AcDbEntity
  8
0
100
AcDbBlockBegin
  2
*D12
 70
     1
 10
0.0
 20
0.0
 30
0.0
  3
*D12
  1

  0
LINE
  5
46D4
330
46D1
100
AcDbEntity
  8
DIM
 62
     0
370
    -2
100
AcDbLine
 10
225.0817139308888
 20
2168.165710470611
 30
0.0
 11
167.9467936429969
 21
2168.165710470611
 31
0.0
  0
LINE
  5
46D5
330
46D1
100
AcDbEntity
  8
DIM
 62
     0
370
    -2
100
AcDbLine
 10
225.0817139308888
 20
1863.165710470611
 30
0.0
 11
167.9467936429969
 21
1863.165710470611
 31
0.0
  0
LINE
  5
46D6
330
46D1
100
AcDbEntity
  8
DIM
 62
     0
370
    -2
100
AcDbLine
 10
167.9467936429969
 20
2158.165710470611
 30
0.0
 11
167.9467936429969
 21
1873.165710470611
 31
0.0
  0
INSERT
  5
46D7
330
46D1
100
AcDbEntity
  8
DIM
 62
     0
370
    -2
100
AcDbBlockReference
  2
_DOT
 10
167.9467936429969
 20
2168.165710470611
 30
0.0
 41
10.0
 42
10.0
 43
10.0
 50
90.0
  0
INSERT
  5
46D8
330
46D1
100
AcDbEntity
  8
DIM
 62
     0
370
    -2
100
AcDbBlockReference
  2
_DOT
 10
167.9467936429969
 20
1863.165710470611
 30
0.0
 41
10.0
 42
10.0
 43
10.0
 50
270.0
  0
MTEXT
  5
46D9
330
46D1
100
AcDbEntity
  8
DIM
 62
     0
100
AcDbMText
 10
135.9422919548638
 20
2015.665710470611
 30
0.0
 40
24.0
 41
0.0
 46
0.0
 71
     5
 72
     1
  1
\A1;305
  7
ＭＳ ゴシック
 11
9.318593255870166E-17
 21
1.0
 31
0.0
 73
     1
 44
1.0
  0
POINT
  5
46DA
330
46D1
100
AcDbEntity
  8
Defpoints
 62
     0
100
AcDbPoint
 10
255.0817139308888
 20
2168.165710470611
 30
0.0
  0
POINT
  5
46DB
330
46D1
100
AcDbEntity
  8
Defpoints
 62
     0
100
AcDbPoint
 10
255.0817139308888
 20
1863.165710470611
 30
0.0
  0
POINT
  5
46DC
330
46D1
100
AcDbEntity
  8
Defpoints
 62
     0
100
AcDbPoint
 10
167.9467936429969
 20
1863.165710470611
 30
0.0
  0
ENDBLK
  5
46D3
330
46D1
100
AcDbEntity
  8
0
100
AcDbBlockEnd
  0
BLOCK
  5
46E1
330
46E0
100
AcDbEntity
  8
0
100
AcDbBlockBegin
  2
*D13
 70
     1
 10
0.0
 20
0.0
 30
0.0
  3
*D13
  1

  0
LINE
  5
46E3
330
46E0
100
AcDbEntity
  8
DIM
 62
     0
370
    -2
100
AcDbLine
 10
315.195224709561
 20
1780.449152419297
 30
0.0
 11
315.195224709561
 21
1727.899442491897
 31
0.0
  0
LINE
  5
46E4
330
46E0
100
AcDbEntity
  8
DIM
 62
     0
370
    -2
100
AcDbLine
 10
440.078295886789
 20
1776.215127274761
 30
0.0
 11
440.078295886789
 21
1727.899442491897
 31
0.0
  0
LINE
  5
46E5
330
46E0
100
AcDbEntity
  8
DIM
 62
     0
370
    -2
100
AcDbLine
 10
325.195224709561
 20
1727.899442491897
 30
0.0
 11
430.078295886789
 21
1727.899442491897
 31
0.0
  0
INSERT
  5
46E6
330
46E0
100
AcDbEntity
  8
DIM
 62
     0
370
    -2
100
AcDbBlockReference
  2
_DOT
 10
315.195224709561
 20
1727.899442491897
 30
0.0
 41
10.0
 42
10.0
 43
10.0
 50
180.0
  0
INSERT
  5
46E7
330
46E0
100
AcDbEntity
  8
DIM
 62
     0
370
    -2
100
AcDbBlockReference
  2
_DOT
 10
440.078295886789
 20
1727.899442491897
 30
0.0
 41
10.0
 42
10.0
 43
10.0
  0
MTEXT
  5
46E8
330
46E0
100
AcDbEntity
  8
DIM
 62
     0
100
AcDbMText
 10
377.636760298175
 20
1759.903944180031
 30
0.0
 40
24.0
 41
0.0
 46
0.0
 71
     5
 72
     1
  1
\A1;125
  7
ＭＳ ゴシック
 73
     1
 44
1.0
  0
POINT
  5
46E9
330
46E0
100
AcDbEntity
  8
Defpoints
 62
     0
100
AcDbPoint
 10
315.195224709561
 20
1810.449152419297
 30
0.0
  0
POINT
  5
46EA
330
46E0
100
AcDbEntity
  8
Defpoints
 62
     0
100
AcDbPoint
 10
440.078295886789
 20
1806.215127274761
 30
0.0
  0
POINT
  5
46EB
330
46E0
100
AcDbEntity
  8
Defpoints
 62
     0
100
AcDbPoint
 10
440.078295886789
 20
1727.899442491897
 30
0.0
  0
ENDBLK
  5
46E2
330
46E0
100
AcDbEntity
  8
0
100
AcDbBlockEnd
  0
BLOCK
  5
46F0
330
46EF
100
AcDbEntity
  8
0
100
AcDbBlockBegin
  2
*D14
 70
     1
 10
0.0
 20
0.0
 30
0.0
  3
*D14
  1

  0
LINE
  5
46F2
330
46EF
100
AcDbEntity
  8
DIM
 62
     0
370
    -2
100
AcDbLine
 10
440.078295886789
 20
1776.215127274761
 30
0.0
 11
440.078295886789
 21
1727.899442491897
 31
0.0
  0
LINE
  5
46F3
330
46EF
100
AcDbEntity
  8
DIM
 62
     0
370
    -2
100
AcDbLine
 10
970.0928055581676
 20
1776.215127274761
 30
0.0
 11
970.0928055581676
 21
1727.899442491897
 31
0.0
  0
LINE
  5
46F4
330
46EF
100
AcDbEntity
  8
DIM
 62
     0
370
    -2
100
AcDbLine
 10
450.078295886789
 20
1727.899442491897
 30
0.0
 11
960.0928055581676
 21
1727.899442491897
 31
0.0
  0
INSERT
  5
46F5
330
46EF
100
AcDbEntity
  8
DIM
 62
     0
370
    -2
100
AcDbBlockReference
  2
_DOT
 10
440.078295886789
 20
1727.899442491897
 30
0.0
 41
10.0
 42
10.0
 43
10.0
 50
180.0
  0
INSERT
  5
46F6
330
46EF
100
AcDbEntity
  8
DIM
 62
     0
370
    -2
100
AcDbBlockReference
  2
_DOT
 10
970.0928055581676
 20
1727.899442491897
 30
0.0
 41
10.0
 42
10.0
 43
10.0
  0
MTEXT
  5
46F7
330
46EF
100
AcDbEntity
  8
DIM
 62
     0
100
AcDbMText
 10
705.0855507224783
 20
1759.903944180031
 30
0.0
 40
24.0
 41
0.0
 46
0.0
 71
     5
 72
     1
  1
\A1;530
  7
ＭＳ ゴシック
 73
     1
 44
1.0
  0
POINT
  5
46F8
330
46EF
100
AcDbEntity
  8
Defpoints
 62
     0
100
AcDbPoint
 10
440.078295886789
 20
1806.215127274761
 30
0.0
  0
POINT
  5
46F9
330
46EF
100
AcDbEntity
  8
Defpoints
 62
     0
100
AcDbPoint
 10
970.0928055581676
 20
1806.215127274761
 30
0.0
  0
POINT
  5
46FA
330
46EF
100
AcDbEntity
  8
Defpoints
 62
     0
100
AcDbPoint
 10
970.0928055581676
 20
1727.899442491897
 30
0.0
  0
ENDBLK
  5
46F1
330
46EF
100
AcDbEntity
  8
0
100
AcDbBlockEnd
  0
BLOCK
  5
46FF
330
46FE
100
AcDbEntity
  8
0
100
AcDbBlockBegin
  2
*D15
 70
     1
 10
0.0
 20
0.0
 30
0.0
  3
*D15
  1

  0
LINE
  5
4701
330
46FE
100
AcDbEntity
  8
DIM
 62
     0
370
    -2
100
AcDbLine
 10
1180.431615345307
 20
2312.945943748951
 30
0.0
 11
1255.695495554727
 21
2312.945943748951
 31
0.0
  0
LINE
  5
4702
330
46FE
100
AcDbEntity
  8
DIM
 62
     0
370
    -2
100
AcDbLine
 10
1107.195727206555
 20
1828.229301948136
 30
0.0
 11
1255.695495554727
 21
1828.229301948136
 31
0.0
  0
LINE
  5
4703
330
46FE
100
AcDbEntity
  8
DIM
 62
     0
370
    -2
100
AcDbLine
 10
1255.695495554727
 20
2302.945943748951
 30
0.0
 11
1255.695495554727
 21
1838.229301948136
 31
0.0
  0
INSERT
  5
4704
330
46FE
100
AcDbEntity
  8
DIM
 62
     0
370
    -2
100
AcDbBlockReference
  2
_DOT
 10
1255.695495554727
 20
2312.945943748951
 30
0.0
 41
10.0
 42
10.0
 43
10.0
 50
90.0
  0
INSERT
  5
4705
330
46FE
100
AcDbEntity
  8
DIM
 62
     0
370
    -2
100
AcDbBlockReference
  2
_DOT
 10
1255.695495554727
 20
1828.229301948136
 30
0.0
 41
10.0
 42
10.0
 43
10.0
 50
270.0
  0
MTEXT
  5
4706
330
46FE
100
AcDbEntity
  8
DIM
 62
     0
100
AcDbMText
 10
1223.690993866594
 20
2070.587622848544
 30
0.0
 40
24.0
 41
0.0
 46
0.0
 71
     5
 72
     1
  1
\A1;485
  7
ＭＳ ゴシック
 11
0.0
 21
1.0
 31
0.0
 73
     1
 44
1.0
  0
POINT
  5
4707
330
46FE
100
AcDbEntity
  8
Defpoints
 62
     0
100
AcDbPoint
 10
1150.431615345307
 20
2312.945943748951
 30
0.0
  0
POINT
  5
4708
330
46FE
100
AcDbEntity
  8
Defpoints
 62
     0
100
AcDbPoint
 10
1077.195727206555
 20
1828.229301948136
 30
0.0
  0
POINT
  5
4709
330
46FE
100
AcDbEntity
  8
Defpoints
 62
     0
100
AcDbPoint
 10
1255.695495554727
 20
1828.229301948136
 30
0.0
  0
ENDBLK
  5
4700
330
46FE
100
AcDbEntity
  8
0
100
AcDbBlockEnd
  0
BLOCK
  5
470E
330
470D
100
AcDbEntity
  8
0
100
AcDbBlockBegin
  2
*D16
 70
     1
 10
0.0
 20
0.0
 30
0.0
  3
*D16
  1

  0
LINE
  5
4710
330
470D
100
AcDbEntity
  8
DIM
 62
     0
370
    -2
100
AcDbLine
 10
237.3583197913827
 20
1061.994774306603
 30
0.0
 11
162.7629729705091
 21
1061.994774306603
 31
0.0
  0
LINE
  5
4711
330
470D
100
AcDbEntity
  8
DIM
 62
     0
370
    -2
100
AcDbLine
 10
490.0889687665763
 20
962.0869393257144
 30
0.0
 11
162.7629729705091
 21
962.0869393257144
 31
0.0
  0
LINE
  5
4712
330
470D
100
AcDbEntity
  8
DIM
 62
     0
370
    -2
100
AcDbLine
 10
162.7629729705091
 20
1051.994774306603
 30
0.0
 11
162.7629729705091
 21
972.0869393257144
 31
0.0
  0
INSERT
  5
4713
330
470D
100
AcDbEntity
  8
DIM
 62
     0
370
    -2
100
AcDbBlockReference
  2
_DOT
 10
162.7629729705091
 20
1061.994774306603
 30
0.0
 41
10.0
 42
10.0
 43
10.0
 50
90.0
  0
INSERT
  5
4714
330
470D
100
AcDbEntity
  8
DIM
 62
     0
370
    -2
100
AcDbBlockReference
  2
_DOT
 10
162.7629729705091
 20
962.0869393257144
 30
0.0
 41
10.0
 42
10.0
 43
10.0
 50
270.0
  0
MTEXT
  5
4715
330
470D
100
AcDbEntity
  8
DIM
 62
     0
100
AcDbMText
 10
130.758471282376
 20
1012.040856816159
 30
0.0
 40
24.0
 41
0.0
 46
0.0
 71
     5
 72
     1
  1
\A1;100
  7
ＭＳ ゴシック
 11
0.0
 21
1.0
 31
0.0
 73
     1
 44
1.0
  0
POINT
  5
4716
330
470D
100
AcDbEntity
  8
Defpoints
 62
     0
100
AcDbPoint
 10
267.3583197913827
 20
1061.994774306603
 30
0.0
  0
POINT
  5
4717
330
470D
100
AcDbEntity
  8
Defpoints
 62
     0
100
AcDbPoint
 10
520.0889687665763
 20
962.0869393257144
 30
0.0
  0
POINT
  5
4718
330
470D
100
AcDbEntity
  8
Defpoints
 62
     0
100
AcDbPoint
 10
162.7629729705091
 20
962.0869393257144
 30
0.0
  0
ENDBLK
  5
470F
330
470D
100
AcDbEntity
  8
0
100
AcDbBlockEnd
  0
BLOCK
  5
471D
330
471C
100
AcDbEntity
  8
0
100
AcDbBlockBegin
  2
*D17
 70
     1
 10
0.0
 20
0.0
 30
0.0
  3
*D17
  1

  0
LINE
  5
471F
330
471C
100
AcDbEntity
  8
DIM
 62
     0
370
    -2
100
AcDbLine
 10
565.3851140882539
 20
1036.962782720923
 30
0.0
 11
565.3851140882539
 21
1133.352365655982
 31
0.0
  0
LINE
  5
4720
330
471C
100
AcDbEntity
  8
DIM
 62
     0
370
    -2
100
AcDbLine
 10
845.2080118320514
 20
1036.962782720923
 30
0.0
 11
845.2080118320514
 21
1133.352365655982
 31
0.0
  0
LINE
  5
4721
330
471C
100
AcDbEntity
  8
DIM
 62
     0
370
    -2
100
AcDbLine
 10
575.3851140882539
 20
1133.352365655982
 30
0.0
 11
835.2080118320514
 21
1133.352365655982
 31
0.0
  0
INSERT
  5
4722
330
471C
100
AcDbEntity
  8
DIM
 62
     0
370
    -2
100
AcDbBlockReference
  2
_DOT
 10
565.3851140882539
 20
1133.352365655982
 30
0.0
 41
10.0
 42
10.0
 43
10.0
 50
180.0
  0
INSERT
  5
4723
330
471C
100
AcDbEntity
  8
DIM
 62
     0
370
    -2
100
AcDbBlockReference
  2
_DOT
 10
845.2080118320514
 20
1133.352365655982
 30
0.0
 41
10.0
 42
10.0
 43
10.0
  0
MTEXT
  5
4724
330
471C
100
AcDbEntity
  8
DIM
 62
     0
100
AcDbMText
 10
705.2965629601526
 20
1165.356867344115
 30
0.0
 40
24.0
 41
0.0
 46
0.0
 71
     5
 72
     1
  1
\A1;280
  7
ＭＳ ゴシック
 73
     1
 44
1.0
  0
POINT
  5
4725
330
471C
100
AcDbEntity
  8
Defpoints
 62
     0
100
AcDbPoint
 10
565.3851140882539
 20
1006.962782720923
 30
0.0
  0
POINT
  5
4726
330
471C
100
AcDbEntity
  8
Defpoints
 62
     0
100
AcDbPoint
 10
845.2080118320514
 20
1006.962782720923
 30
0.0
  0
POINT
  5
4727
330
471C
100
AcDbEntity
  8
Defpoints
 62
     0
100
AcDbPoint
 10
845.2080118320514
 20
1133.352365655982
 30
0.0
  0
ENDBLK
  5
471E
330
471C
100
AcDbEntity
  8
0
100
AcDbBlockEnd
  0
BLOCK
  5
472C
330
472B
100
AcDbEntity
  8
0
100
AcDbBlockBegin
  2
*D18
 70
     1
 10
0.0
 20
0.0
 30
0.0
  3
*D18
  1

  0
LINE
  5
472E
330
472B
100
AcDbEntity
  8
DIM
 62
     0
370
    -2
100
AcDbLine
 10
1376.126770941227
 20
1061.994774306603
 30
0.0
 11
1324.422832513402
 21
1061.994774306603
 31
0.0
  0
LINE
  5
472F
330
472B
100
AcDbEntity
  8
DIM
 62
     0
370
    -2
100
AcDbLine
 10
1376.126770941227
 20
1027.281969297381
 30
0.0
 11
1324.422832513402
 21
1027.281969297381
 31
0.0
  0
LINE
  5
4730
330
472B
100
AcDbEntity
  8
DIM
 62
     0
370
    -2
100
AcDbLine
 10
1324.422832513402
 20
1061.994774306603
 30
0.0
 11
1324.422832513402
 21
1150.013281246706
 31
0.0
  0
LINE
  5
4731
330
472B
100
AcDbEntity
  8
DIM
 62
     0
370
    -2
100
AcDbLine
 10
1324.422832513402
 20
1061.994774306603
 30
0.0
 11
1324.422832513402
 21
1027.281969297381
 31
0.0
  0
LINE
  5
4732
330
472B
100
AcDbEntity
  8
DIM
 62
     0
370
    -2
100
AcDbLine
 10
1324.422832513402
 20
1071.994774306603
 30
0.0
 11
1324.422832513402
 21
1081.994774306603
 31
0.0
  0
LINE
  5
4733
330
472B
100
AcDbEntity
  8
DIM
 62
     0
370
    -2
100
AcDbLine
 10
1324.422832513402
 20
1017.281969297381
 30
0.0
 11
1324.422832513402
 21
1007.281969297381
 31
0.0
  0
INSERT
  5
4734
330
472B
100
AcDbEntity
  8
DIM
 62
     0
370
    -2
100
AcDbBlockReference
  2
_DOT
 10
1324.422832513402
 20
1061.994774306603
 30
0.0
 41
10.0
 42
10.0
 43
10.0
 50
270.0
  0
INSERT
  5
4735
330
472B
100
AcDbEntity
  8
DIM
 62
     0
370
    -2
100
AcDbBlockReference
  2
_DOT
 10
1324.422832513402
 20
1027.281969297381
 30
0.0
 41
10.0
 42
10.0
 43
10.0
 50
90.0
  0
MTEXT
  5
4736
330
472B
100
AcDbEntity
  8
DIM
 62
     0
100
AcDbMText
 10
1292.418330825269
 20
1116.004027776655
 30
0.0
 40
24.0
 41
0.0
 46
0.0
 71
     5
 72
     1
  1
\A1;35
  7
ＭＳ ゴシック
 11
0.0
 21
1.0
 31
0.0
 73
     1
 44
1.0
  0
POINT
  5
4737
330
472B
100
AcDbEntity
  8
Defpoints
 62
     0
100
AcDbPoint
 10
1406.126770941227
 20
1061.994774306603
 30
0.0
  0
POINT
  5
4767
330
472B
100
AcDbEntity
  8
Defpoints
 62
     0
100
AcDbPoint
 10
1406.126770941227
 20
1027.281969297381
 30
0.0
  0
POINT
  5
4768
330
472B
100
AcDbEntity
  8
Defpoints
 62
     0
100
AcDbPoint
 10
1324.422832513402
 20
1027.281969297381
 30
0.0
  0
ENDBLK
  5
472D
330
472B
100
AcDbEntity
  8
0
100
AcDbBlockEnd
  0
BLOCK
  5
473C
330
473B
100
AcDbEntity
  8
0
100
AcDbBlockBegin
  2
*D19
 70
     1
 10
0.0
 20
0.0
 30
0.0
  3
*D19
  1

  0
LINE
  5
473E
330
473B
100
AcDbEntity
  8
DIM
 62
     0
370
    -2
100
AcDbLine
 10
1376.126770941227
 20
1027.281969297381
 30
0.0
 11
1324.422832513402
 21
1027.281969297381
 31
0.0
  0
LINE
  5
473F
330
473B
100
AcDbEntity
  8
DIM
 62
     0
370
    -2
100
AcDbLine
 10
1379.089555013073
 20
987.0638980709364
 30
0.0
 11
1324.422832513402
 21
987.0638980709364
 31
0.0
  0
LINE
  5
4740
330
473B
100
AcDbEntity
  8
DIM
 62
     0
370
    -2
100
AcDbLine
 10
1324.422832513402
 20
1017.281969297381
 30
0.0
 11
1324.422832513402
 21
997.0638980709364
 31
0.0
  0
INSERT
  5
4741
330
473B
100
AcDbEntity
  8
DIM
 62
     0
370
    -2
100
AcDbBlockReference
  2
_DOT
 10
1324.422832513402
 20
1027.281969297381
 30
0.0
 41
10.0
 42
10.0
 43
10.0
 50
90.0
  0
INSERT
  5
4742
330
473B
100
AcDbEntity
  8
DIM
 62
     0
370
    -2
100
AcDbBlockReference
  2
_DOT
 10
1324.422832513402
 20
987.0638980709364
 30
0.0
 41
10.0
 42
10.0
 43
10.0
 50
270.0
  0
MTEXT
  5
4743
330
473B
100
AcDbEntity
  8
DIM
 62
     0
100
AcDbMText
 10
1292.422832513402
 20
1005.696294081054
 30
0.0
 40
24.0
 41
0.0
 46
0.0
 71
     5
 72
     1
  1
\A1;40
  7
ＭＳ ゴシック
 11
0.0
 21
1.0
 31
0.0
 73
     1
 44
1.0
  0
POINT
  5
4744
330
473B
100
AcDbEntity
  8
Defpoints
 62
     0
100
AcDbPoint
 10
1406.126770941227
 20
1027.281969297381
 30
0.0
  0
POINT
  5
4745
330
473B
100
AcDbEntity
  8
Defpoints
 62
     0
100
AcDbPoint
 10
1409.089555013073
 20
987.0638980709364
 30
0.0
  0
POINT
  5
4746
330
473B
100
AcDbEntity
  8
Defpoints
 62
     0
100
AcDbPoint
 10
1324.422832513402
 20
987.0638980709364
 30
0.0
  0
ENDBLK
  5
473D
330
473B
100
AcDbEntity
  8
0
100
AcDbBlockEnd
  0
BLOCK
  5
474C
330
474B
100
AcDbEntity
  8
0
100
AcDbBlockBegin
  2
*D20
 70
     1
 10
0.0
 20
0.0
 30
0.0
  3
*D20
  1

  0
LINE
  5
474E
330
474B
100
AcDbEntity
  8
DIM
 62
     0
370
    -2
100
AcDbLine
 10
1379.089555013073
 20
987.0638980709364
 30
0.0
 11
1324.422832513402
 21
987.0638980709364
 31
0.0
  0
LINE
  5
474F
330
474B
100
AcDbEntity
  8
DIM
 62
     0
370
    -2
100
AcDbLine
 10
1540.129524629046
 20
867.2606235378189
 30
0.0
 11
1324.422832513402
 21
867.2606235378189
 31
0.0
  0
LINE
  5
4750
330
474B
100
AcDbEntity
  8
DIM
 62
     0
370
    -2
100
AcDbLine
 10
1324.422832513402
 20
977.0638980709364
 30
0.0
 11
1324.422832513402
 21
877.2606235378189
 31
0.0
  0
INSERT
  5
4751
330
474B
100
AcDbEntity
  8
DIM
 62
     0
370
    -2
100
AcDbBlockReference
  2
_DOT
 10
1324.422832513402
 20
987.0638980709364
 30
0.0
 41
10.0
 42
10.0
 43
10.0
 50
90.0
  0
INSERT
  5
4752
330
474B
100
AcDbEntity
  8
DIM
 62
     0
370
    -2
100
AcDbBlockReference
  2
_DOT
 10
1324.422832513402
 20
867.2606235378189
 30
0.0
 41
10.0
 42
10.0
 43
10.0
 50
270.0
  0
MTEXT
  5
4753
330
474B
100
AcDbEntity
  8
DIM
 62
     0
100
AcDbMText
 10
1292.418330825269
 20
927.1622608043776
 30
0.0
 40
24.0
 41
0.0
 46
0.0
 71
     5
 72
     1
  1
\A1;120
  7
ＭＳ ゴシック
 11
0.0
 21
1.0
 31
0.0
 73
     1
 44
1.0
  0
POINT
  5
4754
330
474B
100
AcDbEntity
  8
Defpoints
 62
     0
100
AcDbPoint
 10
1409.089555013073
 20
987.0638980709364
 30
0.0
  0
POINT
  5
4755
330
474B
100
AcDbEntity
  8
Defpoints
 62
     0
100
AcDbPoint
 10
1570.129524629046
 20
867.2606235378189
 30
0.0
  0
POINT
  5
4756
330
474B
100
AcDbEntity
  8
Defpoints
 62
     0
100
AcDbPoint
 10
1324.422832513402
 20
867.2606235378189
 30
0.0
  0
ENDBLK
  5
474D
330
474B
100
AcDbEntity
  8
0
100
AcDbBlockEnd
  0
BLOCK
  5
475B
330
475A
100
AcDbEntity
  8
0
100
AcDbBlockBegin
  2
*D21
 70
     1
 10
0.0
 20
0.0
 30
0.0
  3
*D21
  1

  0
LINE
  5
475D
330
475A
100
AcDbEntity
  8
DIM
 62
     0
370
    -2
100
AcDbLine
 10
1510.129524629046
 20
867.2606235378189
 30
0.0
 11
1324.422832513402
 21
867.2606235378189
 31
0.0
  0
LINE
  5
475E
330
475A
100
AcDbEntity
  8
DIM
 62
     0
370
    -2
100
AcDbLine
 10
1606.841522694161
 20
837.2055906973615
 30
0.0
 11
1324.422832513402
 21
837.2055906973615
 31
0.0
  0
LINE
  5
475F
330
475A
100
AcDbEntity
  8
DIM
 62
     0
370
    -2
100
AcDbLine
 10
1324.422832513402
 20
857.2606235378189
 30
0.0
 11
1324.422832513402
 21
847.2055906973615
 31
0.0
  0
INSERT
  5
4760
330
475A
100
AcDbEntity
  8
DIM
 62
     0
370
    -2
100
AcDbBlockReference
  2
_DOT
 10
1324.422832513402
 20
867.2606235378189
 30
0.0
 41
10.0
 42
10.0
 43
10.0
 50
90.0
  0
INSERT
  5
4761
330
475A
100
AcDbEntity
  8
DIM
 62
     0
370
    -2
100
AcDbBlockReference
  2
_DOT
 10
1324.422832513402
 20
837.2055906973615
 30
0.0
 41
10.0
 42
10.0
 43
10.0
 50
270.0
  0
MTEXT
  5
4762
330
475A
100
AcDbEntity
  8
DIM
 62
     0
100
AcDbMText
 10
1292.418330825269
 20
852.2331071175902
 30
0.0
 40
24.0
 41
0.0
 46
0.0
 71
     5
 72
     1
  1
\A1;30
  7
ＭＳ ゴシック
 11
0.0
 21
1.0
 31
0.0
 73
     1
 44
1.0
  0
POINT
  5
4763
330
475A
100
AcDbEntity
  8
Defpoints
 62
     0
100
AcDbPoint
 10
1540.129524629046
 20
867.2606235378189
 30
0.0
  0
POINT
  5
4764
330
475A
100
AcDbEntity
  8
Defpoints
 62
     0
100
AcDbPoint
 10
1636.841522694161
 20
837.2055906973615
 30
0.0
  0
POINT
  5
4765
330
475A
100
AcDbEntity
  8
Defpoints
 62
     0
100
AcDbPoint
 10
1324.422832513402
 20
837.2055906973615
 30
0.0
  0
ENDBLK
  5
475C
330
475A
100
AcDbEntity
  8
0
100
AcDbBlockEnd
  0
BLOCK
  5
476D
330
476C
100
AcDbEntity
  8
0
100
AcDbBlockBegin
  2
*D22
 70
     1
 10
0.0
 20
0.0
 30
0.0
  3
*D22
  1

  0
LINE
  5
476F
330
476C
100
AcDbEntity
  8
DIM
 62
     0
370
    -2
100
AcDbLine
 10
1142.474620947721
 20
1061.994774306603
 30
0.0
 11
1221.304778094772
 21
1061.994774306603
 31
0.0
  0
LINE
  5
4770
330
476C
100
AcDbEntity
  8
DIM
 62
     0
370
    -2
100
AcDbLine
 10
797.7380985487684
 20
837.2055906973615
 30
0.0
 11
1221.304778094772
 21
837.2055906973615
 31
0.0
  0
LINE
  5
4771
330
476C
100
AcDbEntity
  8
DIM
 62
     0
370
    -2
100
AcDbLine
 10
1221.304778094772
 20
1051.994774306603
 30
0.0
 11
1221.304778094772
 21
847.2055906973615
 31
0.0
  0
INSERT
  5
4772
330
476C
100
AcDbEntity
  8
DIM
 62
     0
370
    -2
100
AcDbBlockReference
  2
_DOT
 10
1221.304778094772
 20
1061.994774306603
 30
0.0
 41
10.0
 42
10.0
 43
10.0
 50
90.0
  0
INSERT
  5
4773
330
476C
100
AcDbEntity
  8
DIM
 62
     0
370
    -2
100
AcDbBlockReference
  2
_DOT
 10
1221.304778094772
 20
837.2055906973615
 30
0.0
 41
10.0
 42
10.0
 43
10.0
 50
270.0
  0
MTEXT
  5
4774
330
476C
100
AcDbEntity
  8
DIM
 62
     0
100
AcDbMText
 10
1189.300276406639
 20
949.6001825019823
 30
0.0
 40
24.0
 41
0.0
 46
0.0
 71
     5
 72
     1
  1
\A1;225
  7
ＭＳ ゴシック
 11
0.0
 21
1.0
 31
0.0
 73
     1
 44
1.0
  0
POINT
  5
4775
330
476C
100
AcDbEntity
  8
Defpoints
 62
     0
100
AcDbPoint
 10
1112.474620947721
 20
1061.994774306603
 30
0.0
  0
POINT
  5
4776
330
476C
100
AcDbEntity
  8
Defpoints
 62
     0
100
AcDbPoint
 10
767.7380985487684
 20
837.2055906973615
 30
0.0
  0
POINT
  5
4777
330
476C
100
AcDbEntity
  8
Defpoints
 62
     0
100
AcDbPoint
 10
1221.304778094772
 20
837.2055906973615
 30
0.0
  0
ENDBLK
  5
476E
330
476C
100
AcDbEntity
  8
0
100
AcDbBlockEnd
  0
BLOCK
  5
477C
330
477B
100
AcDbEntity
  8
0
100
AcDbBlockBegin
  2
*D23
 70
     1
 10
0.0
 20
0.0
 30
0.0
  3
*D23
  1

  0
LINE
  5
477E
330
477B
100
AcDbEntity
  8
DIM
 62
     0
370
    -2
100
AcDbLine
 10
1699.073768593982
 20
806.3061003475043
 30
0.0
 11
1699.073768593982
 21
748.4698496551573
 31
0.0
  0
LINE
  5
477F
330
477B
100
AcDbEntity
  8
DIM
 62
     0
370
    -2
100
AcDbLine
 10
1909.469333770459
 20
836.3611331879622
 30
0.0
 11
1909.469333770459
 21
748.4698496551573
 31
0.0
  0
LINE
  5
4780
330
477B
100
AcDbEntity
  8
DIM
 62
     0
370
    -2
100
AcDbLine
 10
1709.073768593982
 20
748.4698496551573
 30
0.0
 11
1899.469333770459
 21
748.4698496551573
 31
0.0
  0
INSERT
  5
4781
330
477B
100
AcDbEntity
  8
DIM
 62
     0
370
    -2
100
AcDbBlockReference
  2
_DOT
 10
1699.073768593982
 20
748.4698496551573
 30
0.0
 41
10.0
 42
10.0
 43
10.0
 50
180.0
  0
INSERT
  5
4782
330
477B
100
AcDbEntity
  8
DIM
 62
     0
370
    -2
100
AcDbBlockReference
  2
_DOT
 10
1909.469333770459
 20
748.4698496551573
 30
0.0
 41
10.0
 42
10.0
 43
10.0
  0
MTEXT
  5
4783
330
477B
100
AcDbEntity
  8
DIM
 62
     0
100
AcDbMText
 10
1804.27155118222
 20
780.4743513432903
 30
0.0
 40
24.0
 41
0.0
 46
0.0
 71
     5
 72
     1
  1
\A1;210
  7
ＭＳ ゴシック
 73
     1
 44
1.0
  0
POINT
  5
4784
330
477B
100
AcDbEntity
  8
Defpoints
 62
     0
100
AcDbPoint
 10
1699.073768593982
 20
836.3061003475043
 30
0.0
  0
POINT
  5
4785
330
477B
100
AcDbEntity
  8
Defpoints
 62
     0
100
AcDbPoint
 10
1909.469333770459
 20
866.3611331879622
 30
0.0
  0
POINT
  5
4786
330
477B
100
AcDbEntity
  8
Defpoints
 62
     0
100
AcDbPoint
 10
1909.469333770459
 20
748.4698496551573
 30
0.0
  0
ENDBLK
  5
477D
330
477B
100
AcDbEntity
  8
0
100
AcDbBlockEnd
  0
BLOCK
  5
478B
330
478A
100
AcDbEntity
  8
0
100
AcDbBlockBegin
  2
*D24
 70
     1
 10
0.0
 20
0.0
 30
0.0
  3
*D24
  1

  0
LINE
  5
478D
330
478A
100
AcDbEntity
  8
DIM
 62
     0
370
    -2
100
AcDbLine
 10
1829.460383439556
 20
1082.258928042604
 30
0.0
 11
1829.460383439556
 21
1150.082022489851
 31
0.0
  0
LINE
  5
478E
330
478A
100
AcDbEntity
  8
DIM
 62
     0
370
    -2
100
AcDbLine
 10
1909.469333770459
 20
1116.971733051826
 30
0.0
 11
1909.469333770459
 21
1150.082022489851
 31
0.0
  0
LINE
  5
478F
330
478A
100
AcDbEntity
  8
DIM
 62
     0
370
    -2
100
AcDbLine
 10
1839.460383439556
 20
1150.082022489851
 30
0.0
 11
1899.469333770459
 21
1150.082022489851
 31
0.0
  0
INSERT
  5
4790
330
478A
100
AcDbEntity
  8
DIM
 62
     0
370
    -2
100
AcDbBlockReference
  2
_DOT
 10
1829.460383439556
 20
1150.082022489851
 30
0.0
 41
10.0
 42
10.0
 43
10.0
 50
180.0
  0
INSERT
  5
4791
330
478A
100
AcDbEntity
  8
DIM
 62
     0
370
    -2
100
AcDbBlockReference
  2
_DOT
 10
1909.469333770459
 20
1150.082022489851
 30
0.0
 41
10.0
 42
10.0
 43
10.0
  0
MTEXT
  5
4792
330
478A
100
AcDbEntity
  8
DIM
 62
     0
100
AcDbMText
 10
1869.464858605008
 20
1182.082022489851
 30
0.0
 40
24.0
 41
0.0
 46
0.0
 71
     5
 72
     1
  1
\A1;80
  7
ＭＳ ゴシック
 73
     1
 44
1.0
  0
POINT
  5
4793
330
478A
100
AcDbEntity
  8
Defpoints
 62
     0
100
AcDbPoint
 10
1829.460383439556
 20
1052.258928042604
 30
0.0
  0
POINT
  5
4794
330
478A
100
AcDbEntity
  8
Defpoints
 62
     0
100
AcDbPoint
 10
1909.469333770459
 20
1086.971733051826
 30
0.0
  0
POINT
  5
4795
330
478A
100
AcDbEntity
  8
Defpoints
 62
     0
100
AcDbPoint
 10
1909.469333770459
 20
1150.082022489851
 30
0.0
  0
ENDBLK
  5
478C
330
478A
100
AcDbEntity
  8
0
100
AcDbBlockEnd
  0
BLOCK
  5
479A
330
4799
100
AcDbEntity
  8
0
100
AcDbBlockBegin
  2
*D25
 70
     1
 10
0.0
 20
0.0
 30
0.0
  3
*D25
  1

  0
LINE
  5
479C
330
4799
100
AcDbEntity
  8
DIM
 62
     0
370
    -2
100
AcDbLine
 10
1667.802527521293
 20
882.0779889948126
 30
0.0
 11
1697.564692031893
 21
882.0779889948126
 31
0.0
  0
LINE
  5
479D
330
4799
100
AcDbEntity
  8
DIM
 62
     0
370
    -2
100
AcDbLine
 10
1667.802527521293
 20
1027.281969297381
 30
0.0
 11
1697.564692031893
 21
1027.281969297381
 31
0.0
  0
LINE
  5
479E
330
4799
100
AcDbEntity
  8
DIM
 62
     0
370
    -2
100
AcDbLine
 10
1697.564692031893
 20
1027.281969297381
 30
0.0
 11
1697.564692031893
 21
1217.362749589991
 31
0.0
  0
LINE
  5
479F
330
4799
100
AcDbEntity
  8
DIM
 62
     0
370
    -2
100
AcDbLine
 10
1697.564692031893
 20
882.0779889948126
 30
0.0
 11
1697.564692031893
 21
1027.281969297381
 31
0.0
  0
LINE
  5
47A0
330
4799
100
AcDbEntity
  8
DIM
 62
     0
370
    -2
100
AcDbLine
 10
1697.564692031893
 20
872.0779889948126
 30
0.0
 11
1697.564692031893
 21
862.0779889948126
 31
0.0
  0
LINE
  5
47A1
330
4799
100
AcDbEntity
  8
DIM
 62
     0
370
    -2
100
AcDbLine
 10
1697.564692031893
 20
1037.281969297381
 30
0.0
 11
1697.564692031893
 21
1047.281969297381
 31
0.0
  0
INSERT
  5
47A2
330
4799
100
AcDbEntity
  8
DIM
 62
     0
370
    -2
100
AcDbBlockReference
  2
_DOT
 10
1697.564692031893
 20
882.0779889948126
 30
0.0
 41
10.0
 42
10.0
 43
10.0
 50
90.0
  0
INSERT
  5
47A3
330
4799
100
AcDbEntity
  8
DIM
 62
     0
370
    -2
100
AcDbBlockReference
  2
_DOT
 10
1697.564692031893
 20
1027.281969297381
 30
0.0
 41
10.0
 42
10.0
 43
10.0
 50
270.0
  0
MTEXT
  5
47A4
330
4799
100
AcDbEntity
  8
DIM
 62
     0
100
AcDbMText
 10
1663.555438561841
 20
1132.322359443686
 30
0.0
 40
24.0
 41
0.0
 46
0.0
 71
     5
 72
     1
  1
\A1;145(深さ)
  7
ＭＳ ゴシック
 11
0.0
 21
1.0
 31
0.0
 73
     1
 44
1.0
  0
POINT
  5
47A5
330
4799
100
AcDbEntity
  8
Defpoints
 62
     0
100
AcDbPoint
 10
1697.802527521293
 20
882.0779889948126
 30
0.0
  0
POINT
  5
47A6
330
4799
100
AcDbEntity
  8
Defpoints
 62
     0
100
AcDbPoint
 10
1697.802527521293
 20
1027.281969297381
 30
0.0
  0
POINT
  5
47A7
330
4799
100
AcDbEntity
  8
Defpoints
 62
     0
100
AcDbPoint
 10
1697.564692031893
 20
1027.281969297381
 30
0.0
  0
ENDBLK
  5
479B
330
4799
100
AcDbEntity
  8
0
100
AcDbBlockEnd
  0
ENDSEC
  0
SECTION
  2
ENTITIES
  0
MTEXT
  5
177
330
A
100
AcDbEntity
  8
TEMPLATE
390
1D
100
AcDbMText
 10
79.20214454773075
 20
343.7317516314282
 30
0.0
 40
16.28841145833333
 41
0.0
 46
0.0
 71
     1
 72
     1
  1
品名
  7
ＭＳ ゴシック
 73
     1
 44
0.7828267384257843
  0
MTEXT
  5
178
330
A
100
AcDbEntity
  8
TEMPLATE
390
1D
100
AcDbMText
 10
79.20214454773075
 20
258.731751631428
 30
0.0
 40
16.28841145833333
 41
0.0
 46
0.0
 71
     1
 72
     1
  1
仕様
  7
ＭＳ ゴシック
 73
     1
 44
0.7828267384257843
  0
LINE
  5
179
330
A
100
AcDbEntity
  8
TEMPLATE
390
1D
100
AcDbLine
 10
2022.202144547248
 20
267.1466735064284
 30
0.0
 11
72.20214454724874
 21
267.1466735064284
 31
0.0
  0
LWPOLYLINE
  5
17A
330
A
100
AcDbEntity
  8
TEMPLATE
390
1D
100
AcDbPolyline
 90
        5
 70
   128
 43
0.0
 10
2022.202144547248
 20
2897.146673506426
 10
72.20214454724874
 20
2897.146673506426
 10
72.20214454724874
 20
97.14667350642826
 10
2022.202144547248
 20
97.14667350642826
 10
2022.202144547248
 20
2897.146673506426
  0
LINE
  5
17B
330
A
100
AcDbEntity
  8
TEMPLATE
390
1D
100
AcDbLine
 10
2022.202144547248
 20
352.1466735064282
 30
0.0
 11
72.20214454724874
 21
352.1466735064282
 31
0.0
  0
LINE
  5
17C
330
A
100
AcDbEntity
  8
TEMPLATE
390
1D
100
AcDbLine
 10
2022.202144547732
 20
182.1466735064282
 30
0.0
 11
1269.20214454773
 21
182.1466735064282
 31
0.0
  0
MTEXT
  5
17E
330
A
100
AcDbEntity
  8
TEMPLATE
390
1D
100
AcDbMText
 10
1299.073550799991
 20
152.2362790331201
 30
0.0
 40
24.4326171875
 41
0.0
 46
0.0
 71
     1
 72
     1
  1
大洋金物株式会社 ティーフォルム事業部
  7
ＭＳ ゴシック
 73
     1
 44
0.7828267384257843
  0
MTEXT
  5
180
330
A
100
AcDbEntity
  8
TEMPLATE
390
1D
100
AcDbMText
 10
1831.20214454799
 20
230.1492906939282
 30
0.0
 40
24.4326171875
 41
0.0
 46
24.4326171875
 71
     1
 72
     1
  1
{1:10}
  7
ＭＳ ゴシック
 73
     1
 44
0.7828267384257843
1001
ACAD
1000
ACAD_MTEXT_DEFINED_HEIGHT_BEGIN
1070
    46
1040
24.4326171875
1000
ACAD_MTEXT_DEFINED_HEIGHT_END
  0
MTEXT
  5
181
330
A
100
AcDbEntity
  8
TEMPLATE
390
1D
100
AcDbMText
 10
1778.20214454799
 20
258.731751631428
 30
0.0
 40
16.28841145833333
 41
0.0
 46
0.0
 71
     1
 72
     1
  1
縮尺
  7
ＭＳ ゴシック
 73
     1
 44
0.7828267384257843
  0
LINE
  5
182
330
A
100
AcDbEntity
  8
TEMPLATE
390
1D
100
AcDbLine
 10
1771.20214454799
 20
182.1466735064282
 30
0.0
 11
1771.20214454799
 21
267.1466735064284
 31
0.0
  0
MTEXT
  5
183
330
A
100
AcDbEntity
  8
TEMPLATE
390
1D
100
AcDbMText
 10
1527.20214454799
 20
258.731751631428
 30
0.0
 40
16.28841145833333
 41
0.0
 46
0.0
 71
     1
 72
     1
  1
容量
  7
ＭＳ ゴシック
 73
     1
 44
0.7828267384257843
  0
LINE
  5
184
330
A
100
AcDbEntity
  8
TEMPLATE
390
1D
100
AcDbLine
 10
1520.20214454799
 20
182.1466735064282
 30
0.0
 11
1520.20214454799
 21
267.1466735064284
 31
0.0
  0
MTEXT
  5
185
330
A
100
AcDbEntity
  8
TEMPLATE
390
1D
100
AcDbMText
 10
1276.20214454799
 20
343.7317516314282
 30
0.0
 40
16.28841145833333
 41
0.0
 46
0.0
 71
     1
 72
     1
  1
品番
  7
ＭＳ ゴシック
 73
     1
 44
0.7828267384257843
  0
MTEXT
  5
186
330
A
100
AcDbEntity
  8
TEMPLATE
390
1D
100
AcDbMText
 10
1276.20214454799
 20
258.731751631428
 30
0.0
 40
16.28841145833333
 41
0.0
 46
0.0
 71
     1
 72
     1
  1
重量
  7
ＭＳ ゴシック
 73
     1
 44
0.7828267384257843
  0
MTEXT
  5
187
330
A
100
AcDbEntity
  8
TEMPLATE
390
1D
100
AcDbMText
 10
1329.20214454799
 20
315.1492906939282
 30
0.0
 40
24.4326171875
 41
0.0
 46
24.4326171875
 71
     1
 72
     1
  1
{\fＭＳ ゴシック|b0|i0|c0|p34;{\C7;FAA70-2222}}
  7
ＭＳ ゴシック
 73
     1
 44
0.7828267384257843
1001
ACAD
1000
ACAD_MTEXT_DEFINED_HEIGHT_BEGIN
1070
    46
1040
24.4326171875
1000
ACAD_MTEXT_DEFINED_HEIGHT_END
  0
LINE
  5
188
330
A
100
AcDbEntity
  8
TEMPLATE
390
1D
100
AcDbLine
 10
1269.20214454799
 20
97.14667350642826
 30
0.0
 11
1269.20214454799
 21
352.1466735064282
 31
0.0
  0
MTEXT
  5
189
330
A
100
AcDbEntity
  8
TEMPLATE
390
1D
100
AcDbMText
 10
132.2021445477307
 20
315.1492906939282
 30
0.0
 40
24.4326171875
 41
0.0
 46
28.52547010732052
 71
     1
 72
     1
  1
{\fＭＳ ゴシック|b0|i0|c0|p34;{\C7;洗面器 -DURAVIT,Philippe Starck E3-}}
  7
ＭＳ ゴシック
 73
     1
 44
0.7828267384257843
1001
ACAD
1000
ACAD_MTEXT_DEFINED_HEIGHT_BEGIN
1070
    46
1040
28.52547010732052
1000
ACAD_MTEXT_DEFINED_HEIGHT_END
  0
MTEXT
  5
7D9
330
A
100
AcDbEntity
  8
TEMPLATE
390
1D
100
AcDbMText
 10
125.2543452760364
 20
226.8119760293952
 30
0.0
 40
24.4326171875
 41
0.0
 46
25.55693919887927
 71
     1
 72
     1
  1
{\fＭＳ ゴシック|b0|i0|c0|p34;{\C7;壁掛け/オーバーフロー付き/壁取付ボルト付属/陶器/ホワイト}}
  7
ＭＳ ゴシック
 73
     1
 44
0.9331787841240657
1001
ACAD
1000
ACAD_MTEXT_DEFINED_HEIGHT_BEGIN
1070
    46
1040
25.55693919887927
1000
ACAD_MTEXT_DEFINED_HEIGHT_END
  0
INSERT
  5
68C
330
A
100
AcDbEntity
  8
TEMPLATE
100
AcDbBlockReference
  2
block 2
 10
919.2743017702577
 20
8.373076514336368
 30
0.0
 41
0.3809999999999999
 42
0.3809999999999999
 43
0.3809999999999999
  0
LWPOLYLINE
  5
DAC
330
A
100
AcDbEntity
  8
BORDER
100
AcDbPolyline
 90
        4
 70
     1
 43
0.0
 10
0.0
 20
0.0
 10
0.0
 20
2970.0
 10
2100.0
 20
2970.0
 10
2100.0
 20
0.0
  0
MTEXT
  5
121B
330
A
100
AcDbEntity
  8
TEMPLATE
390
1D
100
AcDbMText
 10
1329.20214454799
 20
227.1688729773101
 30
0.0
 40
24.4326171875
 41
0.0
 46
28.40135167875453
 71
     1
 72
     1
  1
{\fＭＳ ゴシック|b0|i0|c0|p34;{\C7;20.5kg}}
  7
ＭＳ ゴシック
 73
     1
 44
0.7828267384257843
1001
ACAD
1000
ACAD_MTEXT_DEFINED_HEIGHT_BEGIN
1070
    46
1040
28.40135167875453
1000
ACAD_MTEXT_DEFINED_HEIGHT_END
  0
MTEXT
  5
1466
102
{ACAD_XDICTIONARY
360
1468
102
}
330
A
100
AcDbEntity
  8
TEMPLATE
 48
0.05
100
AcDbMText
 10
74.728656548571
 20
83.86172105142839
 30
0.0
 40
22.0
 41
0.0
 46
22.0
 71
     1
 72
     1
  1
{20201215N}
  7
ＭＳ ゴシック
 73
     1
 44
1.0
1001
ACAD
1000
ACAD_MTEXT_DEFINED_HEIGHT_BEGIN
1070
    46
1040
22.0
1000
ACAD_MTEXT_DEFINED_HEIGHT_END
  0
MTEXT
  5
146D
330
A
100
AcDbEntity
  8
TEMPLATE
390
1D
100
AcDbMText
 10
1583.904999862276
 20
227.1688729773101
 30
0.0
 40
24.4326171875
 41
0.0
 46
24.4326171875
 71
     1
 72
     1
  1
{\fＭＳ ゴシック|b0|i0|c0|p34;{\C7;5.5L}}
  7
ＭＳ ゴシック
 73
     1
 44
0.7828267384257843
1001
ACAD
1000
ACAD_MTEXT_DEFINED_HEIGHT_BEGIN
1070
    46
1040
24.4326171875
1000
ACAD_MTEXT_DEFINED_HEIGHT_END
  0
POINT
  5
262A
330
A
100
AcDbEntity
  8
Layer9
  6
Continuous
 62
     7
100
AcDbPoint
 10
1037.460145007193
 20
1010.220672371878
 30
0.0
  0
POINT
  5
262B
330
A
100
AcDbEntity
  8
Layer9
  6
Continuous
 62
     7
100
AcDbPoint
 10
1037.460146257193
 20
1010.220672788578
 30
0.0
  0
POINT
  5
262C
330
A
100
AcDbEntity
  8
Layer9
  6
Continuous
 62
     7
100
AcDbPoint
 10
1037.853693340493
 20
1015.267975288578
 30
0.0
  0
POINT
  5
2812
330
A
100
AcDbEntity
  8
Layer9
  6
Continuous
 62
     7
100
AcDbPoint
 10
925.7934783404928
 20
1010.220672371878
 30
0.0
  0
POINT
  5
2813
330
A
100
AcDbEntity
  8
Layer9
  6
Continuous
 62
     7
100
AcDbPoint
 10
925.7934795904928
 20
1010.220672788578
 30
0.0
  0
POINT
  5
2814
330
A
100
AcDbEntity
  8
Layer9
  6
Continuous
 62
     7
100
AcDbPoint
 10
926.1870266737928
 20
1015.267975288578
 30
0.0
  0
INSERT
  5
28CA
330
A
100
AcDbEntity
  8
Layer3
100
AcDbBlockReference
  2
SEANNOT_GROUP
 10
859.7083018867928
 20
826.1905269541776
 30
0.0
  0
POINT
  5
2A52
330
A
100
AcDbEntity
  8
Standard
  6
Continuous
 62
     7
100
AcDbPoint
 10
1036.111241014893
 20
1018.794321538578
 30
0.0
  0
INSERT
  5
2B9B
330
A
100
AcDbEntity
  8
Layer3
100
AcDbBlockReference
  2
SEANNOT_GROUP1
 10
859.7083018867928
 20
826.1905269541776
 30
0.0
  0
HATCH
  5
369B
102
{ACAD_REACTORS
330
36AC
102
}
330
A
100
AcDbEntity
  8
TEMPLATE
100
AcDbHatch
 10
0.0
 20
0.0
 30
0.0
210
0.0
220
0.0
230
1.0
  2
SOLID
 70
     1
 71
     1
 91
        6
 92
        1
 93
        8
 72
     1
 10
1934.476782902687
 20
153.1053194253001
 11
1934.476782902687
 21
147.1959117946397
 72
     1
 10
1934.476782902687
 20
147.1959117946397
 11
1925.116191352377
 21
147.1959117946397
 72
     1
 10
1925.116191352377
 20
147.1959117946397
 11
1925.116191352377
 21
123.105319426746
 72
     1
 10
1925.116191352377
 20
123.105319426746
 11
1916.883578199102
 21
123.105319426746
 72
     1
 10
1916.883578199102
 20
123.105319426746
 11
1916.883578199102
 21
147.1959117946397
 72
     1
 10
1916.883578199102
 20
147.1959117946397
 11
1907.688876764557
 21
147.1959117946397
 72
     1
 10
1907.688876764557
 20
147.1959117946397
 11
1907.688876764557
 21
153.1053194253001
 72
     1
 10
1907.688876764557
 20
153.1053194253001
 11
1934.476782902687
 21
153.1053194253001
 97
        1
330
369C
 92
        1
 93
        1
 72
     4
 94
        3
 73
     0
 74
     1
 95
       56
 96
       52
 40
0.0
 40
0.0
 40
0.0
 40
0.0
 40
1.0
 40
1.0
 40
1.0
 40
2.0
 40
2.0
 40
2.0
 40
3.0
 40
3.0
 40
3.0
 40
4.0
 40
4.0
 40
4.0
 40
5.0
 40
5.0
 40
5.0
 40
6.0
 40
6.0
 40
6.0
 40
7.0
 40
7.0
 40
7.0
 40
8.0
 40
8.0
 40
8.0
 40
9.0
 40
9.0
 40
9.0
 40
10.0
 40
10.0
 40
10.0
 40
11.0
 40
11.0
 40
11.0
 40
12.0
 40
12.0
 40
12.0
 40
13.0
 40
13.0
 40
13.0
 40
14.0
 40
14.0
 40
14.0
 40
15.0
 40
15.0
 40
15.0
 40
16.0
 40
16.0
 40
16.0
 40
17.0
 40
17.0
 40
17.0
 40
17.0
 10
1947.01896833698
 20
152.3909504648878
 10
1948.1728345189
 20
152.715738018898
 10
1949.662423612235
 20
152.4440650580081
 10
1949.662423612235
 20
152.4440650580081
 10
1949.662423612235
 20
152.4440650580081
 10
1948.946790018651
 20
150.2964947655846
 10
1948.946790018651
 20
150.2964947655846
 10
1948.946790018651
 20
150.2964947655846
 10
1947.484427733556
 20
150.6348957237139
 10
1946.356523726704
 20
149.7454866546012
 10
1945.480058550036
 20
149.0499384113589
 10
1944.912238256914
 20
147.2017886193686
 10
1944.69442379101
 20
146.4990989182278
 10
1944.69442379101
 20
146.4990989182278
 10
1943.723334297183
 20
143.518432927829
 10
1943.723334297183
 20
143.518432927829
 10
1943.723334297183
 20
143.518432927829
 10
1946.907457447503
 20
143.518432927829
 10
1946.907457447503
 20
143.518432927829
 10
1946.907457447503
 20
143.518432927829
 10
1946.412241976351
 20
141.642461206109
 10
1946.412241976351
 20
141.642461206109
 10
1946.412241976351
 20
141.642461206109
 10
1943.202156650962
 20
141.642461206109
 10
1943.202156650962
 20
141.642461206109
 10
1943.202156650962
 20
141.642461206109
 10
1937.458713526257
 20
123.105319426746
 10
1937.458713526257
 20
123.105319426746
 10
1937.458713526257
 20
123.105319426746
 10
1935.660479549369
 20
123.105319426746
 10
1935.660479549369
 20
123.105319426746
 10
1935.660479549369
 20
123.105319426746
 10
1941.409129987127
 20
141.642461206109
 10
1941.409129987127
 20
141.642461206109
 10
1941.409129987127
 20
141.642461206109
 10
1939.040397670409
 20
141.642461206109
 10
1939.040397670409
 20
141.642461206109
 10
1939.040397670409
 20
141.642461206109
 10
1939.536952164915
 20
143.518432927829
 10
1939.536952164915
 20
143.518432927829
 10
1939.536952164915
 20
143.518432927829
 10
1941.930307633347
 20
143.518432927829
 10
1941.930307633347
 20
143.518432927829
 10
1941.930307633347
 20
143.518432927829
 10
1942.77686795507
 20
146.1179236028939
 10
1942.77686795507
 20
146.1179236028939
 10
1943.461406450716
 20
148.2973328951149
 10
1944.042245026465
 20
149.4674161376772
 10
1944.540138544327
 20
150.3496093587049
 10
1945.032750358952
 20
151.232546481597
 10
1946.007708142475
 20
152.0998616653363
 10
1947.01896833698
 20
152.3909504648878
 97
        1
330
36A7
 92
        1
 93
        1
 72
     4
 94
        3
 73
     0
 74
     1
 95
       32
 96
       28
 40
0.0
 40
0.0
 40
0.0
 40
0.0
 40
1.0
 40
1.0
 40
1.0
 40
2.0
 40
2.0
 40
2.0
 40
3.0
 40
3.0
 40
3.0
 40
4.0
 40
4.0
 40
4.0
 40
5.0
 40
5.0
 40
5.0
 40
6.0
 40
6.0
 40
6.0
 40
7.0
 40
7.0
 40
7.0
 40
8.0
 40
8.0
 40
8.0
 40
9.0
 40
9.0
 40
9.0
 40
9.0
 10
1951.394524713372
 20
142.3847264864374
 10
1950.311998720255
 20
140.9844800070205
 10
1949.478382290974
 20
139.7243102486757
 10
1948.128795528524
 20
135.7635535518901
 10
1946.888041608841
 20
132.1406026917421
 10
1946.098464169936
 20
129.5048096056932
 10
1945.979216701069
 20
126.2947242803041
 10
1945.888460673606
 20
123.9059066132458
 10
1947.343086379314
 20
123.105319426746
 10
1949.475853024634
 20
123.105319426746
 10
1950.395018168326
 20
123.105319426746
 10
1952.714504181618
 20
123.1637901132903
 10
1954.3662638814
 20
125.2056519507783
 10
1955.522584939468
 20
126.6401923061455
 10
1956.588298750451
 20
128.1272521331414
 10
1958.017036671275
 20
133.0053142189559
 10
1959.205940631009
 20
137.0833842397621
 10
1960.029142434186
 20
139.7191029356247
 10
1959.968291261677
 20
141.2197761667398
 10
1959.968291261677
 20
141.2197761667398
 10
1959.968291261677
 20
141.2197761667398
 10
1959.968291261677
 20
141.2197761667398
 10
1959.580569609936
 20
143.7233035012931
 10
1957.762919794387
 20
144.2522921170894
 10
1956.724432791643
 20
144.2522921170894
 10
1955.70156772805
 20
144.2522921170894
 10
1952.960735698745
 20
144.4292663706373
 10
1951.394524713372
 20
142.3847264864374
 97
        1
330
36AA
 92
        1
 93
        1
 72
     4
 94
        3
 73
     0
 74
     1
 95
       38
 96
       34
 40
0.0
 40
0.0
 40
0.0
 40
0.0
 40
1.0
 40
1.0
 40
1.0
 40
2.0
 40
2.0
 40
2.0
 40
3.0
 40
3.0
 40
3.0
 40
4.0
 40
4.0
 40
4.0
 40
5.0
 40
5.0
 40
5.0
 40
6.0
 40
6.0
 40
6.0
 40
7.0
 40
7.0
 40
7.0
 40
8.0
 40
8.0
 40
8.0
 40
9.0
 40
9.0
 40
9.0
 40
10.0
 40
10.0
 40
10.0
 40
11.0
 40
11.0
 40
11.0
 40
11.0
 10
1966.542747159137
 20
143.4464976175386
 10
1966.542747159137
 20
143.4464976175386
 10
1968.39149207262
 20
143.4464976175386
 10
1968.39149207262
 20
143.4464976175386
 10
1968.39149207262
 20
143.4464976175386
 10
1967.56561222273
 20
140.8022984404216
 10
1967.56561222273
 20
140.8022984404216
 10
1968.193167835563
 20
141.54456372075
 10
1969.183598777865
 20
142.5331349083912
 10
1970.034176169654
 20
143.0316235477459
 10
1971.304760554101
 20
143.7738888280742
 10
1972.030808773784
 20
143.8717863134333
 10
1972.829313035064
 20
143.8522960845852
 10
1972.829313035064
 20
143.8522960845852
 10
1972.048959979278
 20
141.3520419182353
 10
1972.048959979278
 20
141.3520419182353
 10
1971.540726225497
 20
141.5672527276151
 10
1969.974515240128
 20
141.1575859708734
 10
1969.076030568268
 20
140.5112840310564
 10
1968.265772657532
 20
139.9285113104618
 10
1967.705614553615
 20
139.4326263276327
 10
1967.04190531017
 20
138.1859955832205
 10
1966.383254599404
 20
136.9375050841474
 10
1965.86341597654
 20
134.9467493047458
 10
1964.968799594376
 20
132.058773486655
 10
1964.968799594376
 20
132.058773486655
 10
1962.174852971949
 20
123.105319426746
 10
1962.174852971949
 20
123.105319426746
 10
1962.174852971949
 20
123.105319426746
 10
1960.380561674943
 20
123.105319426746
 10
1960.380561674943
 20
123.105319426746
 10
1960.380561674943
 20
123.105319426746
 10
1966.542747159137
 20
143.4464976175386
 10
1966.542747159137
 20
143.4464976175386
 97
        1
330
36A8
 92
        1
 93
        1
 72
     4
 94
        3
 73
     0
 74
     1
 95
      104
 96
      100
 40
0.0
 40
0.0
 40
0.0
 40
0.0
 40
1.0
 40
1.0
 40
1.0
 40
2.0
 40
2.0
 40
2.0
 40
3.0
 40
3.0
 40
3.0
 40
4.0
 40
4.0
 40
4.0
 40
5.0
 40
5.0
 40
5.0
 40
6.0
 40
6.0
 40
6.0
 40
7.0
 40
7.0
 40
7.0
 40
8.0
 40
8.0
 40
8.0
 40
9.0
 40
9.0
 40
9.0
 40
10.0
 40
10.0
 40
10.0
 40
11.0
 40
11.0
 40
11.0
 40
12.0
 40
12.0
 40
12.0
 40
13.0
 40
13.0
 40
13.0
 40
14.0
 40
14.0
 40
14.0
 40
15.0
 40
15.0
 40
15.0
 40
16.0
 40
16.0
 40
16.0
 40
17.0
 40
17.0
 40
17.0
 40
18.0
 40
18.0
 40
18.0
 40
19.0
 40
19.0
 40
19.0
 40
20.0
 40
20.0
 40
20.0
 40
21.0
 40
21.0
 40
21.0
 40
22.0
 40
22.0
 40
22.0
 40
23.0
 40
23.0
 40
23.0
 40
24.0
 40
24.0
 40
24.0
 40
25.0
 40
25.0
 40
25.0
 40
26.0
 40
26.0
 40
26.0
 40
27.0
 40
27.0
 40
27.0
 40
28.0
 40
28.0
 40
28.0
 40
29.0
 40
29.0
 40
29.0
 40
30.0
 40
30.0
 40
30.0
 40
31.0
 40
31.0
 40
31.0
 40
32.0
 40
32.0
 40
32.0
 40
33.0
 40
33.0
 40
33.0
 40
33.0
 10
1976.718878323425
 20
143.4575073651321
 10
1976.718878323425
 20
143.4575073651321
 10
1978.332996588864
 20
143.4575073651321
 10
1978.332996588864
 20
143.4575073651321
 10
1978.332996588864
 20
143.4575073651321
 10
1977.517531365076
 20
140.810778921676
 10
1977.517531365076
 20
140.810778921676
 10
1978.225279598895
 20
141.920531723033
 10
1978.860571791119
 20
142.4151520726926
 10
1979.704602846502
 20
143.054312554611
 10
1980.551163168223
 20
143.6843974337833
 10
1981.556025806694
 20
143.812794895584
 10
1982.253508194784
 20
143.812794895584
 10
1983.117029479015
 20
143.812794895584
 10
1983.950645908296
 20
143.6422925882567
 10
1984.388804106443
 20
142.6958262461422
 10
1984.72460140805
 20
141.9536353560001
 10
1984.740223347202
 20
141.8660781065566
 10
1984.644260006691
 20
140.4010377747479
 10
1985.521915426345
 20
141.9030500292188
 10
1986.170151511008
 20
142.5500214807137
 10
1987.272167732975
 20
143.1716258786317
 10
1988.42863757142
 20
143.812794895584
 10
1989.102761440966
 20
143.8607765658398
 10
1989.885941323838
 20
143.7453229964802
 10
1991.039733115569
 20
143.5748950793392
 10
1991.776195961356
 20
143.1632197875635
 10
1992.161239566385
 20
141.9121256319649
 10
1992.54762219477
 20
140.6648997660613
 10
1992.338883331611
 20
139.9959088193793
 10
1991.861744675765
 20
138.0103603530286
 10
1991.64393020986
 20
137.1060732466272
 10
1991.328813380087
 20
136.0111240923725
 10
1990.916542966819
 20
134.7082543670094
 10
1990.916542966819
 20
134.7082543670094
 10
1987.272167732975
 20
123.105319426746
 10
1987.272167732975
 20
123.105319426746
 10
1987.272167732975
 20
123.105319426746
 10
1985.376705782409
 20
123.105319426746
 10
1985.376705782409
 20
123.105319426746
 10
1985.376705782409
 20
123.105319426746
 10
1988.567449659321
 20
133.2490164697431
 10
1988.567449659321
 20
133.2490164697431
 10
1989.233836949479
 20
135.3713684889626
 10
1989.684939040069
 20
136.9212880235028
 10
1989.918375445127
 20
137.893047029008
 10
1990.211323999339
 20
139.1052351170969
 10
1990.327967811683
 20
139.505231149601
 10
1990.189304504152
 20
140.3874987608153
 10
1990.062246065708
 20
141.2087664191461
 10
1989.647297605728
 20
141.7435574694851
 10
1988.936871325198
 20
141.7435574694851
 10
1988.17972800758
 20
141.7435574694851
 10
1987.566455310545
 20
141.659273388245
 10
1986.708290119737
 20
140.7971655175569
 10
1985.84997614856
 20
139.9285113104618
 10
1985.140740111011
 20
138.9088450248874
 10
1984.584599077163
 20
137.7361581257997
 10
1984.029648286297
 20
136.5563297688134
 10
1983.466960916042
 20
135.0608638507494
 10
1982.896536966398
 20
133.2490164697431
 10
1982.896536966398
 20
133.2490164697431
 10
1979.704602846502
 20
123.105319426746
 10
1979.704602846502
 20
123.105319426746
 10
1979.704602846502
 20
123.105319426746
 10
1977.921916418581
 20
123.105319426746
 10
1977.921916418581
 20
123.105319426746
 10
1977.921916418581
 20
123.105319426746
 10
1981.571498965475
 20
134.7030470539584
 10
1981.571498965475
 20
134.7030470539584
 10
1981.956542570504
 20
135.9373290274211
 10
1982.245771615394
 20
136.9433819088763
 10
1982.436359273062
 20
137.729686179579
 10
1982.760402925207
 20
139.0832156219098
 10
1982.851158952669
 20
139.9985124759046
 10
1982.606117678524
 20
140.810778921676
 10
1982.364944694076
 20
141.6204417109219
 10
1981.941069411725
 20
141.8272464292334
 10
1981.233172397533
 20
141.8272464292334
 10
1980.639389929345
 20
141.8272464292334
 10
1980.059890376953
 20
141.5724600406662
 10
1979.398710399847
 20
141.0654909200569
 10
1978.566284213549
 20
140.4276694614944
 10
1978.233164958657
 20
139.9038881587491
 10
1977.824762835085
 20
139.2815398589669
 10
1977.273680333915
 20
138.458263665602
 10
1977.015695167332
 20
137.9040567766015
 10
1976.550310160944
 20
136.687926008631
 10
1976.084776374184
 20
135.4646537827621
 10
1975.644088909695
 20
134.0411231749885
 10
1975.336708659311
 20
133.0564946672286
 10
1975.336708659311
 20
133.0564946672286
 10
1972.205774492298
 20
123.105319426746
 10
1972.205774492298
 20
123.105319426746
 10
1972.205774492298
 20
123.105319426746
 10
1970.338878373326
 20
123.105319426746
 10
1970.338878373326
 20
123.105319426746
 10
1970.338878373326
 20
123.105319426746
 10
1976.718878323425
 20
143.4575073651321
 10
1976.718878323425
 20
143.4575073651321
 97
        1
330
36A9
 92
       16
 93
        1
 72
     4
 94
        3
 73
     0
 74
     1
 95
       29
 96
       25
 40
0.0
 40
0.0
 40
0.0
 40
0.0
 40
1.0
 40
1.0
 40
1.0
 40
2.0
 40
2.0
 40
2.0
 40
3.0
 40
3.0
 40
3.0
 40
4.0
 40
4.0
 40
4.0
 40
5.0
 40
5.0
 40
5.0
 40
6.0
 40
6.0
 40
6.0
 40
7.0
 40
7.0
 40
7.0
 40
8.0
 40
8.0
 40
8.0
 40
8.0
 10
1947.916188375669
 20
126.8949043045264
 10
1947.908303015907
 20
128.3120373562658
 10
1948.355685597176
 20
130.8298476066162
 10
1949.501740809517
 20
134.1986815898748
 10
1951.062744481836
 20
138.7603622127471
 10
1951.998870588036
 20
140.4276694614944
 10
1952.818055321147
 20
141.2392663955878
 10
1954.014844640642
 20
142.4210288974216
 10
1955.623755593032
 20
142.4799459250845
 10
1956.098364982539
 20
142.4210288974216
 10
1956.77382787544
 20
142.3399435941987
 10
1957.727956406759
 20
141.8978427161679
 10
1957.784939289575
 20
140.4095182560024
 10
1957.830466083678
 20
139.1357350935386
 10
1957.463424903768
 20
136.7501905946838
 10
1956.178706383896
 20
133.0053142189559
 10
1954.698044112936
 20
128.6536370924121
 10
1953.808635043822
 20
126.9429603649685
 10
1953.095679496951
 20
126.1974219164366
 10
1951.752490290537
 20
124.7997790935452
 10
1950.311998720255
 20
124.9339789898883
 10
1950.0993915674
 20
124.9339789898883
 10
1949.823255195324
 20
124.9339789898883
 10
1947.920056665365
 20
125.2336226608809
 10
1947.916188375669
 20
126.8949043045264
 97
        1
330
36AB
 75
     0
 76
     1
 98
        1
 10
1859.334883625664
 20
72.26751235270598
1001
ACAD
1010
0.0
1020
0.0
1030
0.0
  0
POLYLINE
  5
369C
102
{ACAD_REACTORS
330
369B
330
36AC
102
}
330
A
100
AcDbEntity
  8
TEMPLATE
100
AcDb2dPolyline
 66
     1
 10
0.0
 20
0.0
 30
0.0
  0
VERTEX
  5
369D
330
369C
100
AcDbEntity
  8
TEMPLATE
100
AcDbVertex
100
AcDb2dVertex
 10
1934.476782902687
 20
153.1053194253001
 30
0.0
  0
VERTEX
  5
369E
330
369C
100
AcDbEntity
  8
TEMPLATE
100
AcDbVertex
100
AcDb2dVertex
 10
1934.476782902687
 20
147.1959117946397
 30
0.0
  0
VERTEX
  5
369F
330
369C
100
AcDbEntity
  8
TEMPLATE
100
AcDbVertex
100
AcDb2dVertex
 10
1925.116191352377
 20
147.1959117946397
 30
0.0
  0
VERTEX
  5
36A0
330
369C
100
AcDbEntity
  8
TEMPLATE
100
AcDbVertex
100
AcDb2dVertex
 10
1925.116191352377
 20
123.105319426746
 30
0.0
  0
VERTEX
  5
36A1
330
369C
100
AcDbEntity
  8
TEMPLATE
100
AcDbVertex
100
AcDb2dVertex
 10
1916.883578199102
 20
123.105319426746
 30
0.0
  0
VERTEX
  5
36A2
330
369C
100
AcDbEntity
  8
TEMPLATE
100
AcDbVertex
100
AcDb2dVertex
 10
1916.883578199102
 20
147.1959117946397
 30
0.0
  0
VERTEX
  5
36A3
330
369C
100
AcDbEntity
  8
TEMPLATE
100
AcDbVertex
100
AcDb2dVertex
 10
1907.688876764557
 20
147.1959117946397
 30
0.0
  0
VERTEX
  5
36A4
330
369C
100
AcDbEntity
  8
TEMPLATE
100
AcDbVertex
100
AcDb2dVertex
 10
1907.688876764557
 20
153.1053194253001
 30
0.0
  0
VERTEX
  5
36A5
330
369C
100
AcDbEntity
  8
TEMPLATE
100
AcDbVertex
100
AcDb2dVertex
 10
1934.476782902687
 20
153.1053194253001
 30
0.0
  0
SEQEND
  5
36A6
330
369C
100
AcDbEntity
  8
TEMPLATE
  0
SPLINE
  5
36A7
102
{ACAD_REACTORS
330
369B
330
36AC
102
}
330
A
100
AcDbEntity
  8
TEMPLATE
100
AcDbSpline
210
0.0
220
0.0
230
1.0
 70
    11
 71
     3
 72
    56
 73
    52
 74
     0
 42
0.000000001
 43
0.0000000001
 40
0.0
 40
0.0
 40
0.0
 40
0.0
 40
1.0
 40
1.0
 40
1.0
 40
2.0
 40
2.0
 40
2.0
 40
3.0
 40
3.0
 40
3.0
 40
4.0
 40
4.0
 40
4.0
 40
5.0
 40
5.0
 40
5.0
 40
6.0
 40
6.0
 40
6.0
 40
7.0
 40
7.0
 40
7.0
 40
8.0
 40
8.0
 40
8.0
 40
9.0
 40
9.0
 40
9.0
 40
10.0
 40
10.0
 40
10.0
 40
11.0
 40
11.0
 40
11.0
 40
12.0
 40
12.0
 40
12.0
 40
13.0
 40
13.0
 40
13.0
 40
14.0
 40
14.0
 40
14.0
 40
15.0
 40
15.0
 40
15.0
 40
16.0
 40
16.0
 40
16.0
 40
17.0
 40
17.0
 40
17.0
 40
17.0
 10
1947.01896833698
 20
152.3909504648878
 30
0.0
 10
1948.1728345189
 20
152.715738018898
 30
0.0
 10
1949.662423612235
 20
152.4440650580081
 30
0.0
 10
1949.662423612235
 20
152.4440650580081
 30
0.0
 10
1949.662423612235
 20
152.4440650580081
 30
0.0
 10
1948.946790018651
 20
150.2964947655846
 30
0.0
 10
1948.946790018651
 20
150.2964947655846
 30
0.0
 10
1948.946790018651
 20
150.2964947655846
 30
0.0
 10
1947.484427733556
 20
150.6348957237139
 30
0.0
 10
1946.356523726704
 20
149.7454866546012
 30
0.0
 10
1945.480058550036
 20
149.0499384113589
 30
0.0
 10
1944.912238256914
 20
147.2017886193686
 30
0.0
 10
1944.69442379101
 20
146.4990989182278
 30
0.0
 10
1944.69442379101
 20
146.4990989182278
 30
0.0
 10
1943.723334297183
 20
143.518432927829
 30
0.0
 10
1943.723334297183
 20
143.518432927829
 30
0.0
 10
1943.723334297183
 20
143.518432927829
 30
0.0
 10
1946.907457447503
 20
143.518432927829
 30
0.0
 10
1946.907457447503
 20
143.518432927829
 30
0.0
 10
1946.907457447503
 20
143.518432927829
 30
0.0
 10
1946.412241976351
 20
141.642461206109
 30
0.0
 10
1946.412241976351
 20
141.642461206109
 30
0.0
 10
1946.412241976351
 20
141.642461206109
 30
0.0
 10
1943.202156650962
 20
141.642461206109
 30
0.0
 10
1943.202156650962
 20
141.642461206109
 30
0.0
 10
1943.202156650962
 20
141.642461206109
 30
0.0
 10
1937.458713526257
 20
123.105319426746
 30
0.0
 10
1937.458713526257
 20
123.105319426746
 30
0.0
 10
1937.458713526257
 20
123.105319426746
 30
0.0
 10
1935.660479549369
 20
123.105319426746
 30
0.0
 10
1935.660479549369
 20
123.105319426746
 30
0.0
 10
1935.660479549369
 20
123.105319426746
 30
0.0
 10
1941.409129987127
 20
141.642461206109
 30
0.0
 10
1941.409129987127
 20
141.642461206109
 30
0.0
 10
1941.409129987127
 20
141.642461206109
 30
0.0
 10
1939.040397670409
 20
141.642461206109
 30
0.0
 10
1939.040397670409
 20
141.642461206109
 30
0.0
 10
1939.040397670409
 20
141.642461206109
 30
0.0
 10
1939.536952164915
 20
143.518432927829
 30
0.0
 10
1939.536952164915
 20
143.518432927829
 30
0.0
 10
1939.536952164915
 20
143.518432927829
 30
0.0
 10
1941.930307633347
 20
143.518432927829
 30
0.0
 10
1941.930307633347
 20
143.518432927829
 30
0.0
 10
1941.930307633347
 20
143.518432927829
 30
0.0
 10
1942.77686795507
 20
146.1179236028939
 30
0.0
 10
1942.77686795507
 20
146.1179236028939
 30
0.0
 10
1943.461406450716
 20
148.2973328951149
 30
0.0
 10
1944.042245026465
 20
149.4674161376772
 30
0.0
 10
1944.540138544327
 20
150.3496093587049
 30
0.0
 10
1945.032750358952
 20
151.232546481597
 30
0.0
 10
1946.007708142475
 20
152.0998616653363
 30
0.0
 10
1947.01896833698
 20
152.3909504648878
 30
0.0
  0
SPLINE
  5
36A8
102
{ACAD_REACTORS
330
369B
330
36AC
102
}
330
A
100
AcDbEntity
  8
TEMPLATE
100
AcDbSpline
210
0.0
220
0.0
230
1.0
 70
    11
 71
     3
 72
    38
 73
    34
 74
     0
 42
0.000000001
 43
0.0000000001
 40
0.0
 40
0.0
 40
0.0
 40
0.0
 40
1.0
 40
1.0
 40
1.0
 40
2.0
 40
2.0
 40
2.0
 40
3.0
 40
3.0
 40
3.0
 40
4.0
 40
4.0
 40
4.0
 40
5.0
 40
5.0
 40
5.0
 40
6.0
 40
6.0
 40
6.0
 40
7.0
 40
7.0
 40
7.0
 40
8.0
 40
8.0
 40
8.0
 40
9.0
 40
9.0
 40
9.0
 40
10.0
 40
10.0
 40
10.0
 40
11.0
 40
11.0
 40
11.0
 40
11.0
 10
1966.542747159137
 20
143.4464976175386
 30
0.0
 10
1966.542747159137
 20
143.4464976175386
 30
0.0
 10
1968.39149207262
 20
143.4464976175386
 30
0.0
 10
1968.39149207262
 20
143.4464976175386
 30
0.0
 10
1968.39149207262
 20
143.4464976175386
 30
0.0
 10
1967.56561222273
 20
140.8022984404216
 30
0.0
 10
1967.56561222273
 20
140.8022984404216
 30
0.0
 10
1968.193167835563
 20
141.54456372075
 30
0.0
 10
1969.183598777865
 20
142.5331349083912
 30
0.0
 10
1970.034176169654
 20
143.0316235477459
 30
0.0
 10
1971.304760554101
 20
143.7738888280742
 30
0.0
 10
1972.030808773784
 20
143.8717863134333
 30
0.0
 10
1972.829313035064
 20
143.8522960845852
 30
0.0
 10
1972.829313035064
 20
143.8522960845852
 30
0.0
 10
1972.048959979278
 20
141.3520419182353
 30
0.0
 10
1972.048959979278
 20
141.3520419182353
 30
0.0
 10
1971.540726225497
 20
141.5672527276151
 30
0.0
 10
1969.974515240128
 20
141.1575859708734
 30
0.0
 10
1969.076030568268
 20
140.5112840310564
 30
0.0
 10
1968.265772657532
 20
139.9285113104618
 30
0.0
 10
1967.705614553615
 20
139.4326263276327
 30
0.0
 10
1967.04190531017
 20
138.1859955832205
 30
0.0
 10
1966.383254599404
 20
136.9375050841474
 30
0.0
 10
1965.86341597654
 20
134.9467493047458
 30
0.0
 10
1964.968799594376
 20
132.058773486655
 30
0.0
 10
1964.968799594376
 20
132.058773486655
 30
0.0
 10
1962.174852971949
 20
123.105319426746
 30
0.0
 10
1962.174852971949
 20
123.105319426746
 30
0.0
 10
1962.174852971949
 20
123.105319426746
 30
0.0
 10
1960.380561674943
 20
123.105319426746
 30
0.0
 10
1960.380561674943
 20
123.105319426746
 30
0.0
 10
1960.380561674943
 20
123.105319426746
 30
0.0
 10
1966.542747159137
 20
143.4464976175386
 30
0.0
 10
1966.542747159137
 20
143.4464976175386
 30
0.0
  0
SPLINE
  5
36A9
102
{ACAD_REACTORS
330
369B
330
36AC
102
}
330
A
100
AcDbEntity
  8
TEMPLATE
100
AcDbSpline
210
0.0
220
0.0
230
1.0
 70
    11
 71
     3
 72
   104
 73
   100
 74
     0
 42
0.000000001
 43
0.0000000001
 40
0.0
 40
0.0
 40
0.0
 40
0.0
 40
1.0
 40
1.0
 40
1.0
 40
2.0
 40
2.0
 40
2.0
 40
3.0
 40
3.0
 40
3.0
 40
4.0
 40
4.0
 40
4.0
 40
5.0
 40
5.0
 40
5.0
 40
6.0
 40
6.0
 40
6.0
 40
7.0
 40
7.0
 40
7.0
 40
8.0
 40
8.0
 40
8.0
 40
9.0
 40
9.0
 40
9.0
 40
10.0
 40
10.0
 40
10.0
 40
11.0
 40
11.0
 40
11.0
 40
12.0
 40
12.0
 40
12.0
 40
13.0
 40
13.0
 40
13.0
 40
14.0
 40
14.0
 40
14.0
 40
15.0
 40
15.0
 40
15.0
 40
16.0
 40
16.0
 40
16.0
 40
17.0
 40
17.0
 40
17.0
 40
18.0
 40
18.0
 40
18.0
 40
19.0
 40
19.0
 40
19.0
 40
20.0
 40
20.0
 40
20.0
 40
21.0
 40
21.0
 40
21.0
 40
22.0
 40
22.0
 40
22.0
 40
23.0
 40
23.0
 40
23.0
 40
24.0
 40
24.0
 40
24.0
 40
25.0
 40
25.0
 40
25.0
 40
26.0
 40
26.0
 40
26.0
 40
27.0
 40
27.0
 40
27.0
 40
28.0
 40
28.0
 40
28.0
 40
29.0
 40
29.0
 40
29.0
 40
30.0
 40
30.0
 40
30.0
 40
31.0
 40
31.0
 40
31.0
 40
32.0
 40
32.0
 40
32.0
 40
33.0
 40
33.0
 40
33.0
 40
33.0
 10
1976.718878323425
 20
143.4575073651321
 30
0.0
 10
1976.718878323425
 20
143.4575073651321
 30
0.0
 10
1978.332996588864
 20
143.4575073651321
 30
0.0
 10
1978.332996588864
 20
143.4575073651321
 30
0.0
 10
1978.332996588864
 20
143.4575073651321
 30
0.0
 10
1977.517531365076
 20
140.810778921676
 30
0.0
 10
1977.517531365076
 20
140.810778921676
 30
0.0
 10
1978.225279598895
 20
141.920531723033
 30
0.0
 10
1978.860571791119
 20
142.4151520726926
 30
0.0
 10
1979.704602846502
 20
143.054312554611
 30
0.0
 10
1980.551163168223
 20
143.6843974337833
 30
0.0
 10
1981.556025806694
 20
143.812794895584
 30
0.0
 10
1982.253508194784
 20
143.812794895584
 30
0.0
 10
1983.117029479015
 20
143.812794895584
 30
0.0
 10
1983.950645908296
 20
143.6422925882567
 30
0.0
 10
1984.388804106443
 20
142.6958262461422
 30
0.0
 10
1984.72460140805
 20
141.9536353560001
 30
0.0
 10
1984.740223347202
 20
141.8660781065566
 30
0.0
 10
1984.644260006691
 20
140.4010377747479
 30
0.0
 10
1985.521915426345
 20
141.9030500292188
 30
0.0
 10
1986.170151511008
 20
142.5500214807137
 30
0.0
 10
1987.272167732975
 20
143.1716258786317
 30
0.0
 10
1988.42863757142
 20
143.812794895584
 30
0.0
 10
1989.102761440966
 20
143.8607765658398
 30
0.0
 10
1989.885941323838
 20
143.7453229964802
 30
0.0
 10
1991.039733115569
 20
143.5748950793392
 30
0.0
 10
1991.776195961356
 20
143.1632197875635
 30
0.0
 10
1992.161239566385
 20
141.9121256319649
 30
0.0
 10
1992.54762219477
 20
140.6648997660613
 30
0.0
 10
1992.338883331611
 20
139.9959088193793
 30
0.0
 10
1991.861744675765
 20
138.0103603530286
 30
0.0
 10
1991.64393020986
 20
137.1060732466272
 30
0.0
 10
1991.328813380087
 20
136.0111240923725
 30
0.0
 10
1990.916542966819
 20
134.7082543670094
 30
0.0
 10
1990.916542966819
 20
134.7082543670094
 30
0.0
 10
1987.272167732975
 20
123.105319426746
 30
0.0
 10
1987.272167732975
 20
123.105319426746
 30
0.0
 10
1987.272167732975
 20
123.105319426746
 30
0.0
 10
1985.376705782409
 20
123.105319426746
 30
0.0
 10
1985.376705782409
 20
123.105319426746
 30
0.0
 10
1985.376705782409
 20
123.105319426746
 30
0.0
 10
1988.567449659321
 20
133.2490164697431
 30
0.0
 10
1988.567449659321
 20
133.2490164697431
 30
0.0
 10
1989.233836949479
 20
135.3713684889626
 30
0.0
 10
1989.684939040069
 20
136.9212880235028
 30
0.0
 10
1989.918375445127
 20
137.893047029008
 30
0.0
 10
1990.211323999339
 20
139.1052351170969
 30
0.0
 10
1990.327967811683
 20
139.505231149601
 30
0.0
 10
1990.189304504152
 20
140.3874987608153
 30
0.0
 10
1990.062246065708
 20
141.2087664191461
 30
0.0
 10
1989.647297605728
 20
141.7435574694851
 30
0.0
 10
1988.936871325198
 20
141.7435574694851
 30
0.0
 10
1988.17972800758
 20
141.7435574694851
 30
0.0
 10
1987.566455310545
 20
141.659273388245
 30
0.0
 10
1986.708290119737
 20
140.7971655175569
 30
0.0
 10
1985.84997614856
 20
139.9285113104618
 30
0.0
 10
1985.140740111011
 20
138.9088450248874
 30
0.0
 10
1984.584599077163
 20
137.7361581257997
 30
0.0
 10
1984.029648286297
 20
136.5563297688134
 30
0.0
 10
1983.466960916042
 20
135.0608638507494
 30
0.0
 10
1982.896536966398
 20
133.2490164697431
 30
0.0
 10
1982.896536966398
 20
133.2490164697431
 30
0.0
 10
1979.704602846502
 20
123.105319426746
 30
0.0
 10
1979.704602846502
 20
123.105319426746
 30
0.0
 10
1979.704602846502
 20
123.105319426746
 30
0.0
 10
1977.921916418581
 20
123.105319426746
 30
0.0
 10
1977.921916418581
 20
123.105319426746
 30
0.0
 10
1977.921916418581
 20
123.105319426746
 30
0.0
 10
1981.571498965475
 20
134.7030470539584
 30
0.0
 10
1981.571498965475
 20
134.7030470539584
 30
0.0
 10
1981.956542570504
 20
135.9373290274211
 30
0.0
 10
1982.245771615394
 20
136.9433819088763
 30
0.0
 10
1982.436359273062
 20
137.729686179579
 30
0.0
 10
1982.760402925207
 20
139.0832156219098
 30
0.0
 10
1982.851158952669
 20
139.9985124759046
 30
0.0
 10
1982.606117678524
 20
140.810778921676
 30
0.0
 10
1982.364944694076
 20
141.6204417109219
 30
0.0
 10
1981.941069411725
 20
141.8272464292334
 30
0.0
 10
1981.233172397533
 20
141.8272464292334
 30
0.0
 10
1980.639389929345
 20
141.8272464292334
 30
0.0
 10
1980.059890376953
 20
141.5724600406662
 30
0.0
 10
1979.398710399847
 20
141.0654909200569
 30
0.0
 10
1978.566284213549
 20
140.4276694614944
 30
0.0
 10
1978.233164958657
 20
139.9038881587491
 30
0.0
 10
1977.824762835085
 20
139.2815398589669
 30
0.0
 10
1977.273680333915
 20
138.458263665602
 30
0.0
 10
1977.015695167332
 20
137.9040567766015
 30
0.0
 10
1976.550310160944
 20
136.687926008631
 30
0.0
 10
1976.084776374184
 20
135.4646537827621
 30
0.0
 10
1975.644088909695
 20
134.0411231749885
 30
0.0
 10
1975.336708659311
 20
133.0564946672286
 30
0.0
 10
1975.336708659311
 20
133.0564946672286
 30
0.0
 10
1972.205774492298
 20
123.105319426746
 30
0.0
 10
1972.205774492298
 20
123.105319426746
 30
0.0
 10
1972.205774492298
 20
123.105319426746
 30
0.0
 10
1970.338878373326
 20
123.105319426746
 30
0.0
 10
1970.338878373326
 20
123.105319426746
 30
0.0
 10
1970.338878373326
 20
123.105319426746
 30
0.0
 10
1976.718878323425
 20
143.4575073651321
 30
0.0
 10
1976.718878323425
 20
143.4575073651321
 30
0.0
  0
SPLINE
  5
36AA
102
{ACAD_REACTORS
330
369B
330
36AC
102
}
330
A
100
AcDbEntity
  8
TEMPLATE
100
AcDbSpline
210
0.0
220
0.0
230
1.0
 70
    11
 71
     3
 72
    32
 73
    28
 74
     0
 42
0.000000001
 43
0.0000000001
 40
0.0
 40
0.0
 40
0.0
 40
0.0
 40
1.0
 40
1.0
 40
1.0
 40
2.0
 40
2.0
 40
2.0
 40
3.0
 40
3.0
 40
3.0
 40
4.0
 40
4.0
 40
4.0
 40
5.0
 40
5.0
 40
5.0
 40
6.0
 40
6.0
 40
6.0
 40
7.0
 40
7.0
 40
7.0
 40
8.0
 40
8.0
 40
8.0
 40
9.0
 40
9.0
 40
9.0
 40
9.0
 10
1951.394524713372
 20
142.3847264864374
 30
0.0
 10
1950.311998720255
 20
140.9844800070205
 30
0.0
 10
1949.478382290974
 20
139.7243102486757
 30
0.0
 10
1948.128795528524
 20
135.7635535518901
 30
0.0
 10
1946.888041608841
 20
132.1406026917421
 30
0.0
 10
1946.098464169936
 20
129.5048096056932
 30
0.0
 10
1945.979216701069
 20
126.2947242803041
 30
0.0
 10
1945.888460673606
 20
123.9059066132458
 30
0.0
 10
1947.343086379314
 20
123.105319426746
 30
0.0
 10
1949.475853024634
 20
123.105319426746
 30
0.0
 10
1950.395018168326
 20
123.105319426746
 30
0.0
 10
1952.714504181618
 20
123.1637901132903
 30
0.0
 10
1954.3662638814
 20
125.2056519507783
 30
0.0
 10
1955.522584939468
 20
126.6401923061455
 30
0.0
 10
1956.588298750451
 20
128.1272521331414
 30
0.0
 10
1958.017036671275
 20
133.0053142189559
 30
0.0
 10
1959.205940631009
 20
137.0833842397621
 30
0.0
 10
1960.029142434186
 20
139.7191029356247
 30
0.0
 10
1959.968291261677
 20
141.2197761667398
 30
0.0
 10
1959.968291261677
 20
141.2197761667398
 30
0.0
 10
1959.968291261677
 20
141.2197761667398
 30
0.0
 10
1959.968291261677
 20
141.2197761667398
 30
0.0
 10
1959.580569609936
 20
143.7233035012931
 30
0.0
 10
1957.762919794387
 20
144.2522921170894
 30
0.0
 10
1956.724432791643
 20
144.2522921170894
 30
0.0
 10
1955.70156772805
 20
144.2522921170894
 30
0.0
 10
1952.960735698745
 20
144.4292663706373
 30
0.0
 10
1951.394524713372
 20
142.3847264864374
 30
0.0
  0
SPLINE
  5
36AB
102
{ACAD_REACTORS
330
369B
330
36AC
102
}
330
A
100
AcDbEntity
  8
TEMPLATE
100
AcDbSpline
210
0.0
220
0.0
230
1.0
 70
    11
 71
     3
 72
    29
 73
    25
 74
     0
 42
0.000000001
 43
0.0000000001
 40
0.0
 40
0.0
 40
0.0
 40
0.0
 40
1.0
 40
1.0
 40
1.0
 40
2.0
 40
2.0
 40
2.0
 40
3.0
 40
3.0
 40
3.0
 40
4.0
 40
4.0
 40
4.0
 40
5.0
 40
5.0
 40
5.0
 40
6.0
 40
6.0
 40
6.0
 40
7.0
 40
7.0
 40
7.0
 40
8.0
 40
8.0
 40
8.0
 40
8.0
 10
1947.916188375669
 20
126.8949043045264
 30
0.0
 10
1947.908303015907
 20
128.3120373562658
 30
0.0
 10
1948.355685597176
 20
130.8298476066162
 30
0.0
 10
1949.501740809517
 20
134.1986815898748
 30
0.0
 10
1951.062744481836
 20
138.7603622127471
 30
0.0
 10
1951.998870588036
 20
140.4276694614944
 30
0.0
 10
1952.818055321147
 20
141.2392663955878
 30
0.0
 10
1954.014844640642
 20
142.4210288974216
 30
0.0
 10
1955.623755593032
 20
142.4799459250845
 30
0.0
 10
1956.098364982539
 20
142.4210288974216
 30
0.0
 10
1956.77382787544
 20
142.3399435941987
 30
0.0
 10
1957.727956406759
 20
141.8978427161679
 30
0.0
 10
1957.784939289575
 20
140.4095182560024
 30
0.0
 10
1957.830466083678
 20
139.1357350935386
 30
0.0
 10
1957.463424903768
 20
136.7501905946838
 30
0.0
 10
1956.178706383896
 20
133.0053142189559
 30
0.0
 10
1954.698044112936
 20
128.6536370924121
 30
0.0
 10
1953.808635043822
 20
126.9429603649685
 30
0.0
 10
1953.095679496951
 20
126.1974219164366
 30
0.0
 10
1951.752490290537
 20
124.7997790935452
 30
0.0
 10
1950.311998720255
 20
124.9339789898883
 30
0.0
 10
1950.0993915674
 20
124.9339789898883
 30
0.0
 10
1949.823255195324
 20
124.9339789898883
 30
0.0
 10
1947.920056665365
 20
125.2336226608809
 30
0.0
 10
1947.916188375669
 20
126.8949043045264
 30
0.0
  0
SPLINE
  5
41CB
330
A
100
AcDbEntity
  8
MODEL
100
AcDbSpline
210
0.0
220
0.0
230
1.0
 70
    11
 71
     3
 72
    17
 73
    13
 74
     0
 42
0.000000001
 43
0.0000000001
 40
0.0
 40
0.0
 40
0.0
 40
0.0
 40
1.0
 40
1.0
 40
1.0
 40
2.0
 40
2.0
 40
2.0
 40
3.0
 40
3.0
 40
3.0
 40
4.0
 40
4.0
 40
4.0
 40
4.0
 10
719.479169155245
 20
2220.660387557552
 30
0.0
 10
719.479169155245
 20
2221.929906081362
 30
0.0
 10
718.631675106782
 20
2223.199424605171
 30
0.0
 10
717.362156582974
 20
2223.199424605171
 30
0.0
 10
716.0926380591659
 20
2223.199424605171
 30
0.0
 10
715.2451440107066
 20
2221.929906081362
 30
0.0
 10
715.2451440107066
 20
2220.660387557552
 30
0.0
 10
715.2451440107066
 20
2219.812893509093
 30
0.0
 10
716.0926380591659
 20
2218.543374985285
 30
0.0
 10
717.362156582974
 20
2218.543374985285
 30
0.0
 10
718.631675106782
 20
2218.543374985285
 30
0.0
 10
719.479169155245
 20
2219.812893509093
 30
0.0
 10
719.479169155245
 20
2220.660387557552
 30
0.0
  0
HATCH
  5
41CC
330
A
100
AcDbEntity
  8
MODEL
100
AcDbHatch
 10
0.0
 20
0.0
 30
0.0
210
0.0
220
0.0
230
1.0
  2
SOLID
 70
     1
 71
     0
 91
        1
 92
        1
 93
        2
 72
     4
 94
        3
 73
     0
 74
     0
 95
       17
 96
       13
 40
0.0
 40
0.0
 40
0.0
 40
0.0
 40
0.3527780104152769
 40
0.3527780104152769
 40
0.3527780104152769
 40
0.7055560208305538
 40
0.7055560208305538
 40
0.7055560208305538
 40
1.058334031245831
 40
1.058334031245831
 40
1.058334031245831
 40
1.411112041661108
 40
1.411112041661108
 40
1.411112041661108
 40
1.411112041661108
 10
719.479169155245
 20
2220.660387557552
 10
719.479169155245
 20
2221.929906081362
 10
718.631675106782
 20
2223.199424605171
 10
717.362156582974
 20
2223.199424605171
 10
716.0926380591659
 20
2223.199424605171
 10
715.2451440107066
 20
2221.929906081362
 10
715.2451440107066
 20
2220.660387557552
 10
715.2451440107066
 20
2219.812893509093
 10
716.0926380591659
 20
2218.543374985285
 10
717.362156582974
 20
2218.543374985285
 10
718.631675106782
 20
2218.543374985285
 10
719.479169155245
 20
2219.812893509093
 10
719.479169155245
 20
2220.660387557552
 72
     1
 10
719.479169155245
 20
2220.660387557552
 11
719.479169155245
 21
2220.660387557552
 97
        0
 75
     0
 76
     1
 98
        0
  0
SPLINE
  5
41CD
330
A
100
AcDbEntity
  8
MODEL
100
AcDbSpline
210
0.0
220
0.0
230
1.0
 70
    11
 71
     3
 72
    17
 73
    13
 74
     0
 42
0.000000001
 43
0.0000000001
 40
0.0
 40
0.0
 40
0.0
 40
0.0
 40
1.0
 40
1.0
 40
1.0
 40
2.0
 40
2.0
 40
2.0
 40
3.0
 40
3.0
 40
3.0
 40
4.0
 40
4.0
 40
4.0
 40
4.0
 10
719.479169155245
 20
2220.660387557552
 30
0.0
 10
719.479169155245
 20
2221.929906081362
 30
0.0
 10
718.631675106782
 20
2222.775677580942
 30
0.0
 10
717.362156582974
 20
2222.775677580942
 30
0.0
 10
716.5146625345146
 20
2222.775677580942
 30
0.0
 10
715.6688910349362
 20
2221.929906081362
 30
0.0
 10
715.6688910349362
 20
2220.660387557552
 30
0.0
 10
715.6688910349362
 20
2219.812893509093
 30
0.0
 10
716.5146625345146
 20
2218.543374985285
 30
0.0
 10
717.362156582974
 20
2218.543374985285
 30
0.0
 10
718.631675106782
 20
2218.543374985285
 30
0.0
 10
719.479169155245
 20
2219.812893509093
 30
0.0
 10
719.479169155245
 20
2220.660387557552
 30
0.0
  0
POLYLINE
  5
41CE
330
A
100
AcDbEntity
  8
MODEL
100
AcDb2dPolyline
 66
     1
 10
0.0
 20
0.0
 30
0.0
  0
VERTEX
  5
41CF
330
41CE
100
AcDbEntity
  8
MODEL
100
AcDbVertex
100
AcDb2dVertex
 10
717.7859036072036
 20
2220.660387557552
 30
0.0
  0
VERTEX
  5
41D0
330
41CE
100
AcDbEntity
  8
MODEL
100
AcDbVertex
100
AcDb2dVertex
 10
824.0413312071391
 20
2113.97949038451
 30
0.0
  0
VERTEX
  5
41D1
330
41CE
100
AcDbEntity
  8
MODEL
100
AcDbVertex
100
AcDb2dVertex
 10
947.6548838605627
 20
2113.97949038451
 30
0.0
  0
SEQEND
  5
41D2
330
41CE
100
AcDbEntity
  8
MODEL
  0
MTEXT
  5
41D3
330
A
100
AcDbEntity
  8
DIM
100
AcDbMText
 10
884.1548419858113
 20
2123.71705919739
 30
0.0
 40
21.59001423741495
 41
0.0
 46
0.0
 71
     7
 72
     1
  1
\fMS Gothic|b0|i0|c0|p34;\W1;φ35
 73
     1
 44
1.0
  0
POLYLINE
  5
41D4
330
A
100
AcDbEntity
  8
MODEL
100
AcDb2dPolyline
 66
     1
 10
0.0
 20
0.0
 30
0.0
  0
VERTEX
  5
41D5
330
41D4
100
AcDbEntity
  8
MODEL
100
AcDbVertex
100
AcDb2dVertex
 10
308.4221625174064
 20
1646.195504064078
 30
0.0
  0
VERTEX
  5
41D6
330
41D4
100
AcDbEntity
  8
MODEL
100
AcDbVertex
100
AcDb2dVertex
 10
306.7288969693686
 20
1639.422441871925
 30
0.0
  0
VERTEX
  5
41D7
330
41D4
100
AcDbEntity
  8
MODEL
100
AcDbVertex
100
AcDb2dVertex
 10
305.0356314213309
 20
1636.459657800079
 30
0.0
  0
SEQEND
  5
41D8
330
41D4
100
AcDbEntity
  8
MODEL
  0
POLYLINE
  5
41D9
330
A
100
AcDbEntity
  8
MODEL
100
AcDb2dPolyline
 66
     1
 10
0.0
 20
0.0
 30
0.0
  0
VERTEX
  5
41DA
330
41D9
100
AcDbEntity
  8
MODEL
100
AcDbVertex
100
AcDb2dVertex
 10
297.8388222049466
 20
1629.684873059046
 30
0.0
  0
VERTEX
  5
41DB
330
41D9
100
AcDbEntity
  8
MODEL
100
AcDbVertex
100
AcDb2dVertex
 10
297.4150751807169
 20
1629.684873059046
 30
0.0
  0
VERTEX
  5
41DC
330
41D9
100
AcDbEntity
  8
MODEL
100
AcDbVertex
100
AcDb2dVertex
 10
290.642012988566
 20
1628.415354535237
 30
0.0
  0
VERTEX
  5
41DD
330
41D9
100
AcDbEntity
  8
MODEL
100
AcDbVertex
100
AcDb2dVertex
 10
287.6792289167201
 20
1628.839101559467
 30
0.0
  0
SEQEND
  5
41DE
330
41D9
100
AcDbEntity
  8
MODEL
  0
POLYLINE
  5
41DF
330
A
100
AcDbEntity
  8
MODEL
100
AcDb2dPolyline
 66
     1
 10
0.0
 20
0.0
 30
0.0
  0
VERTEX
  5
41E0
330
41DF
100
AcDbEntity
  8
MODEL
100
AcDbVertex
100
AcDb2dVertex
 10
278.7891541522981
 20
1633.073126704001
 30
0.0
  0
VERTEX
  5
41E1
330
41DF
100
AcDbEntity
  8
MODEL
100
AcDbVertex
100
AcDb2dVertex
 10
278.3654071280685
 20
1633.495151179352
 30
0.0
  0
VERTEX
  5
41E2
330
41DF
100
AcDbEntity
  8
MODEL
100
AcDbVertex
100
AcDb2dVertex
 10
274.5551290077633
 20
1639.422441871925
 30
0.0
  0
VERTEX
  5
41E3
330
41DF
100
AcDbEntity
  8
MODEL
100
AcDbVertex
100
AcDb2dVertex
 10
274.1313819835373
 20
1641.963201468422
 30
0.0
  0
SEQEND
  5
41E4
330
41DF
100
AcDbEntity
  8
MODEL
  0
POLYLINE
  5
41E5
330
A
100
AcDbEntity
  8
MODEL
100
AcDb2dPolyline
 66
     1
 10
0.0
 20
0.0
 30
0.0
  0
VERTEX
  5
41E6
330
41E5
100
AcDbEntity
  8
MODEL
100
AcDbVertex
100
AcDb2dVertex
 10
274.5551290077633
 20
1652.12279475665
 30
0.0
  0
VERTEX
  5
41E7
330
41E5
100
AcDbEntity
  8
MODEL
100
AcDbVertex
100
AcDb2dVertex
 10
274.5551290077633
 20
1652.54654178088
 30
0.0
  0
VERTEX
  5
41E8
330
41E5
100
AcDbEntity
  8
MODEL
100
AcDbVertex
100
AcDb2dVertex
 10
278.3654071280685
 20
1658.472109924574
 30
0.0
  0
VERTEX
  5
41E9
330
41E5
100
AcDbEntity
  8
MODEL
100
AcDbVertex
100
AcDb2dVertex
 10
280.4824197003359
 20
1660.165375472613
 30
0.0
  0
SEQEND
  5
41EA
330
41E5
100
AcDbEntity
  8
MODEL
  0
POLYLINE
  5
41EB
330
A
100
AcDbEntity
  8
MODEL
100
AcDb2dPolyline
 66
     1
 10
0.0
 20
0.0
 30
0.0
  0
VERTEX
  5
41EC
330
41EB
100
AcDbEntity
  8
MODEL
100
AcDbVertex
100
AcDb2dVertex
 10
289.7945189401103
 20
1663.551906568689
 30
0.0
  0
VERTEX
  5
41ED
330
41EB
100
AcDbEntity
  8
MODEL
100
AcDbVertex
100
AcDb2dVertex
 10
290.642012988566
 20
1663.551906568689
 30
0.0
  0
VERTEX
  5
41EE
330
41EB
100
AcDbEntity
  8
MODEL
100
AcDbVertex
100
AcDb2dVertex
 10
297.4150751807169
 20
1662.28238804488
 30
0.0
  0
VERTEX
  5
41EF
330
41EB
100
AcDbEntity
  8
MODEL
100
AcDbVertex
100
AcDb2dVertex
 10
299.532087752988
 20
1661.012869521071
 30
0.0
  0
SEQEND
  5
41F0
330
41EB
100
AcDbEntity
  8
MODEL
  0
POLYLINE
  5
41F1
330
A
100
AcDbEntity
  8
MODEL
100
AcDb2dPolyline
 66
     1
 10
0.0
 20
0.0
 30
0.0
  0
VERTEX
  5
41F2
330
41F1
100
AcDbEntity
  8
MODEL
100
AcDbVertex
100
AcDb2dVertex
 10
306.305149945139
 20
1653.816060304688
 30
0.0
  0
VERTEX
  5
41F3
330
41F1
100
AcDbEntity
  8
MODEL
100
AcDbVertex
100
AcDb2dVertex
 10
306.7288969693686
 20
1652.54654178088
 30
0.0
  0
VERTEX
  5
41F4
330
41F1
100
AcDbEntity
  8
MODEL
100
AcDbVertex
100
AcDb2dVertex
 10
308.4221625174064
 20
1646.195504064078
 30
0.0
  0
SEQEND
  5
41F5
330
41F1
100
AcDbEntity
  8
MODEL
  0
MTEXT
  5
41F6
330
A
100
AcDbEntity
  8
MODEL
100
AcDbMText
 10
312.2324406377115
 20
1636.459657800079
 30
0.0
 40
21.59001423741495
 41
0.0
 46
0.0
 71
     7
 72
     1
  1
\fMS Gothic|b0|i0|c0|p34;\W1;＝φ30もしくはφ35の水栓取付用穴あけ加工を承ります。
 73
     1
 44
1.0
  0
MTEXT
  5
41F7
330
A
100
AcDbEntity
  8
MODEL
100
AcDbMText
 10
312.2324406377115
 20
1594.136631843518
 30
0.0
 40
21.59001423741495
 41
0.0
 46
0.0
 71
     7
 72
     1
  1
\fMS Gothic|b0|i0|c0|p34;\W1;   必要な場合、ご注文の際にご指示ください。
 73
     1
 44
1.0
  0
MTEXT
  5
41F8
330
A
100
AcDbEntity
  8
DIM
100
AcDbMText
 10
914.2115973751493
 20
1119.992995061888
 30
0.0
 40
21.59001423741495
 41
0.0
 46
0.0
 71
     7
 72
     1
  1
\fMS Gothic|b0|i0|c0|p34;\W1;壁取付ボルト穴(2ヶ所)
 73
     1
 44
1.0
  0
POLYLINE
  5
421F
330
A
100
AcDbEntity
  8
DIM
100
AcDb2dPolyline
 66
     1
 10
0.0
 20
0.0
 30
0.0
  0
VERTEX
  5
4220
330
421F
100
AcDbEntity
  8
DIM
100
AcDbVertex
100
AcDb2dVertex
 10
845.2080118320514
 20
962.0869393257144
 30
0.0
  0
VERTEX
  5
4221
330
421F
100
AcDbEntity
  8
DIM
100
AcDbVertex
100
AcDb2dVertex
 10
929.4527098563699
 20
1107.714666652513
 30
0.0
  0
SEQEND
  5
4222
330
421F
100
AcDbEntity
  8
DIM
  0
POLYLINE
  5
42C1
330
A
100
AcDbEntity
  8
MODEL
100
AcDb2dPolyline
 66
     1
 10
0.0
 20
0.0
 30
0.0
  0
VERTEX
  5
42C2
330
42C1
100
AcDbEntity
  8
MODEL
100
AcDbVertex
100
AcDb2dVertex
 10
288.1012533920725
 20
1027.281969297381
 30
0.0
  0
VERTEX
  5
42C3
330
42C1
100
AcDbEntity
  8
MODEL
100
AcDbVertex
100
AcDb2dVertex
 10
1122.06812550401
 20
1027.281969297381
 30
0.0
  0
SEQEND
  5
42C4
330
42C1
100
AcDbEntity
  8
MODEL
  0
POLYLINE
  5
42C5
330
A
100
AcDbEntity
  8
MODEL
100
AcDb2dPolyline
 66
     1
 10
0.0
 20
0.0
 30
0.0
  0
VERTEX
  5
42C6
330
42C5
100
AcDbEntity
  8
MODEL
100
AcDbVertex
100
AcDb2dVertex
 10
459.5517109636708
 20
987.0638980709364
 30
0.0
  0
VERTEX
  5
42C7
330
42C5
100
AcDbEntity
  8
MODEL
100
AcDbVertex
100
AcDb2dVertex
 10
951.0431375055155
 20
987.0638980709364
 30
0.0
  0
SEQEND
  5
42C8
330
42C5
100
AcDbEntity
  8
MODEL
  0
POLYLINE
  5
42C9
330
A
100
AcDbEntity
  8
MODEL
100
AcDb2dPolyline
 66
     1
 10
0.0
 20
0.0
 30
0.0
  0
VERTEX
  5
42CA
330
42C9
100
AcDbEntity
  8
MODEL
100
AcDbVertex
100
AcDb2dVertex
 10
945.1158468129429
 20
891.8138352588117
 30
0.0
  0
VERTEX
  5
42CB
330
42C9
100
AcDbEntity
  8
MODEL
100
AcDbVertex
100
AcDb2dVertex
 10
964.1655148655914
 20
981.5620769514717
 30
0.0
  0
SEQEND
  5
42CC
330
42C9
100
AcDbEntity
  8
MODEL
  0
SPLINE
  5
42CD
330
A
100
AcDbEntity
  8
MODEL
100
AcDbSpline
210
0.0
220
0.0
230
1.0
 70
     8
 71
     3
 72
    14
 73
    10
 74
     0
 42
0.000000001
 43
0.0000000001
 40
0.0
 40
0.0
 40
0.0
 40
0.0
 40
1.0
 40
1.0
 40
1.0
 40
2.0
 40
2.0
 40
2.0
 40
3.0
 40
3.0
 40
3.0
 40
3.0
 10
945.1158468129429
 20
891.8138352588117
 30
0.0
 10
945.1158468129429
 20
891.8138352588117
 30
0.0
 10
943.4225812649051
 20
886.7357611635762
 30
0.0
 10
943.4225812649051
 20
886.7357611635762
 30
0.0
 10
939.989541349099
 20
876.8862266735641
 30
0.0
 10
930.937546990051
 20
869.2002135755515
 30
0.0
 10
920.5626350919479
 20
867.6843705620486
 30
0.0
 10
920.5626350919479
 20
867.6843705620486
 30
0.0
 10
915.4828384478346
 20
867.2606235378189
 30
0.0
 10
915.4828384478346
 20
867.2606235378189
 30
0.0
  0
POLYLINE
  5
42CE
330
A
100
AcDbEntity
  8
MODEL
100
AcDb2dPolyline
 66
     1
 10
0.0
 20
0.0
 30
0.0
  0
VERTEX
  5
42CF
330
42CE
100
AcDbEntity
  8
MODEL
100
AcDbVertex
100
AcDb2dVertex
 10
895.5856763467305
 20
862.1825494425839
 30
0.0
  0
VERTEX
  5
42D0
330
42CE
100
AcDbEntity
  8
MODEL
100
AcDbVertex
100
AcDb2dVertex
 10
895.5856763467305
 20
862.1825494425839
 30
0.0
  0
SEQEND
  5
42D1
330
42CE
100
AcDbEntity
  8
MODEL
  0
SPLINE
  5
42D2
330
A
100
AcDbEntity
  8
MODEL
100
AcDbSpline
210
0.0
220
0.0
230
1.0
 70
     8
 71
     3
 72
    14
 73
    10
 74
     0
 42
0.000000001
 43
0.0000000001
 40
0.0
 40
0.0
 40
0.0
 40
0.0
 40
1.0
 40
1.0
 40
1.0
 40
2.0
 40
2.0
 40
2.0
 40
3.0
 40
3.0
 40
3.0
 40
3.0
 10
495.1120100213516
 20
867.2606235378189
 30
0.0
 10
495.1120100213516
 20
867.2606235378189
 30
0.0
 10
496.8052755693893
 20
867.2606235378189
 30
0.0
 10
496.8052755693893
 20
867.2606235378189
 30
0.0
 10
635.8632014717546
 20
872.8761328832966
 30
0.0
 10
774.766097975014
 20
872.8726877855388
 30
0.0
 10
913.7895728997969
 20
867.2606235378189
 30
0.0
 10
913.7895728997969
 20
867.2606235378189
 30
0.0
 10
915.4828384478346
 20
867.2606235378189
 30
0.0
 10
915.4828384478346
 20
867.2606235378189
 30
0.0
  0
SPLINE
  5
42D3
330
A
100
AcDbEntity
  8
MODEL
100
AcDbSpline
210
0.0
220
0.0
230
1.0
 70
     8
 71
     3
 72
    14
 73
    10
 74
     0
 42
0.000000001
 43
0.0000000001
 40
0.0
 40
0.0
 40
0.0
 40
0.0
 40
1.0
 40
1.0
 40
1.0
 40
2.0
 40
2.0
 40
2.0
 40
3.0
 40
3.0
 40
3.0
 40
3.0
 10
495.1120100213516
 20
867.2606235378189
 30
0.0
 10
495.1120100213516
 20
867.2606235378189
 30
0.0
 10
490.0322133772383
 20
867.6843705620486
 30
0.0
 10
490.0322133772383
 20
867.6843705620486
 30
0.0
 10
477.4696644028295
 20
870.2613036850039
 30
0.0
 10
472.3864226609544
 20
875.6666620672454
 30
0.0
 10
466.7485201800514
 20
886.7357611635762
 30
0.0
 10
466.7485201800514
 20
886.7357611635762
 30
0.0
 10
465.4790016562433
 20
891.8138352588117
 30
0.0
 10
465.4790016562433
 20
891.8138352588117
 30
0.0
  0
POLYLINE
  5
42D4
330
A
100
AcDbEntity
  8
MODEL
100
AcDb2dPolyline
 66
     1
 10
0.0
 20
0.0
 30
0.0
  0
VERTEX
  5
42D5
330
42D4
100
AcDbEntity
  8
MODEL
100
AcDbVertex
100
AcDb2dVertex
 10
446.4293336035948
 20
981.5620769514717
 30
0.0
  0
VERTEX
  5
42D6
330
42D4
100
AcDbEntity
  8
MODEL
100
AcDbVertex
100
AcDb2dVertex
 10
465.4790016562433
 20
891.8138352588117
 30
0.0
  0
SEQEND
  5
42D7
330
42D4
100
AcDbEntity
  8
MODEL
  0
SPLINE
  5
42D8
330
A
100
AcDbEntity
  8
MODEL
100
AcDbSpline
210
0.0
220
0.0
230
1.0
 70
     8
 71
     3
 72
    14
 73
    10
 74
     0
 42
0.000000001
 43
0.0000000001
 40
0.0
 40
0.0
 40
0.0
 40
0.0
 40
1.0
 40
1.0
 40
1.0
 40
2.0
 40
2.0
 40
2.0
 40
3.0
 40
3.0
 40
3.0
 40
3.0
 10
439.2325243872142
 20
987.0638980709364
 30
0.0
 10
439.2325243872142
 20
987.0638980709364
 30
0.0
 10
440.5020429110223
 20
987.0638980709364
 30
0.0
 10
440.5020429110223
 20
987.0638980709364
 30
0.0
 10
442.9153338904721
 20
986.6091451668858
 30
0.0
 10
445.3062317345025
 20
984.7970237461982
 30
0.0
 10
446.0055865793652
 20
982.4095709999306
 30
0.0
 10
446.0055865793652
 20
982.4095709999306
 30
0.0
 10
446.4293336035948
 20
981.5620769514717
 30
0.0
 10
446.4293336035948
 20
981.5620769514717
 30
0.0
  0
POLYLINE
  5
42D9
330
A
100
AcDbEntity
  8
MODEL
100
AcDb2dPolyline
 66
     1
 10
0.0
 20
0.0
 30
0.0
  0
VERTEX
  5
42DA
330
42D9
100
AcDbEntity
  8
MODEL
100
AcDbVertex
100
AcDb2dVertex
 10
287.2554818924905
 20
987.0638980709364
 30
0.0
  0
VERTEX
  5
42DB
330
42D9
100
AcDbEntity
  8
MODEL
100
AcDbVertex
100
AcDb2dVertex
 10
459.5517109636708
 20
987.0638980709364
 30
0.0
  0
SEQEND
  5
42DC
330
42D9
100
AcDbEntity
  8
MODEL
  0
SPLINE
  5
42DD
330
A
100
AcDbEntity
  8
MODEL
100
AcDbSpline
210
0.0
220
0.0
230
1.0
 70
     8
 71
     3
 72
    14
 73
    10
 74
     0
 42
0.000000001
 43
0.0000000001
 40
0.0
 40
0.0
 40
0.0
 40
0.0
 40
1.0
 40
1.0
 40
1.0
 40
2.0
 40
2.0
 40
2.0
 40
3.0
 40
3.0
 40
3.0
 40
3.0
 10
287.2554818924905
 20
987.0638980709364
 30
0.0
 10
287.2554818924905
 20
987.0638980709364
 30
0.0
 10
285.9859633686824
 20
987.0638980709364
 30
0.0
 10
285.9859633686824
 20
987.0638980709364
 30
0.0
 10
283.2333302600705
 20
987.8838313373317
 30
0.0
 10
281.1059823945247
 20
989.6752821714717
 30
0.0
 10
280.4824197003359
 20
992.5691642881593
 30
0.0
 10
280.4824197003359
 20
992.5691642881593
 30
0.0
 10
280.4824197003359
 20
994.2607072873188
 30
0.0
 10
280.4824197003359
 20
994.2607072873188
 30
0.0
  0
POLYLINE
  5
42DE
330
A
100
AcDbEntity
  8
MODEL
100
AcDb2dPolyline
 66
     1
 10
0.0
 20
0.0
 30
0.0
  0
VERTEX
  5
42DF
330
42DE
100
AcDbEntity
  8
MODEL
100
AcDbVertex
100
AcDb2dVertex
 10
280.4824197003359
 20
1020.085160080999
 30
0.0
  0
VERTEX
  5
42E0
330
42DE
100
AcDbEntity
  8
MODEL
100
AcDbVertex
100
AcDb2dVertex
 10
280.4824197003359
 20
994.2607072873188
 30
0.0
  0
SEQEND
  5
42E1
330
42DE
100
AcDbEntity
  8
MODEL
  0
SPLINE
  5
42E2
330
A
100
AcDbEntity
  8
MODEL
100
AcDbSpline
210
0.0
220
0.0
230
1.0
 70
     8
 71
     3
 72
    14
 73
    10
 74
     0
 42
0.000000001
 43
0.0000000001
 40
0.0
 40
0.0
 40
0.0
 40
0.0
 40
1.0
 40
1.0
 40
1.0
 40
2.0
 40
2.0
 40
2.0
 40
3.0
 40
3.0
 40
3.0
 40
3.0
 10
280.4824197003359
 20
1020.085160080999
 30
0.0
 10
280.4824197003359
 20
1020.085160080999
 30
0.0
 10
280.4824197003359
 20
1021.356401153687
 30
0.0
 10
280.4824197003359
 20
1021.356401153687
 30
0.0
 10
281.7622735174223
 20
1025.487073365483
 30
0.0
 10
281.8535686080063
 20
1025.576645907191
 30
0.0
 10
285.9842408198015
 20
1026.858222273152
 30
0.0
 10
285.9842408198015
 20
1026.858222273152
 30
0.0
 10
287.2554818924905
 20
1027.281969297381
 30
0.0
 10
287.2554818924905
 20
1027.281969297381
 30
0.0
  0
POLYLINE
  5
42E3
330
A
100
AcDbEntity
  8
MODEL
100
AcDb2dPolyline
 66
     1
 10
0.0
 20
0.0
 30
0.0
  0
VERTEX
  5
42E4
330
42E3
100
AcDbEntity
  8
MODEL
100
AcDbVertex
100
AcDb2dVertex
 10
288.1012533920725
 20
1027.281969297381
 30
0.0
  0
VERTEX
  5
42E5
330
42E3
100
AcDbEntity
  8
MODEL
100
AcDbVertex
100
AcDb2dVertex
 10
287.2554818924905
 20
1027.281969297381
 30
0.0
  0
SEQEND
  5
42E6
330
42E3
100
AcDbEntity
  8
MODEL
  0
POLYLINE
  5
42E7
330
A
100
AcDbEntity
  8
MODEL
100
AcDb2dPolyline
 66
     1
 10
0.0
 20
0.0
 30
0.0
  0
VERTEX
  5
42E8
330
42E7
100
AcDbEntity
  8
MODEL
100
AcDbVertex
100
AcDb2dVertex
 10
288.1012533920725
 20
1027.281969297381
 30
0.0
  0
VERTEX
  5
42E9
330
42E7
100
AcDbEntity
  8
MODEL
100
AcDbVertex
100
AcDb2dVertex
 10
287.2554818924905
 20
1027.281969297381
 30
0.0
  0
VERTEX
  5
42EA
330
42E7
100
AcDbEntity
  8
MODEL
100
AcDbVertex
100
AcDb2dVertex
 10
286.4079878440348
 20
1027.70571632161
 30
0.0
  0
VERTEX
  5
42EB
330
42E7
100
AcDbEntity
  8
MODEL
100
AcDbVertex
100
AcDb2dVertex
 10
285.9842408198015
 20
1028.129463345841
 30
0.0
  0
VERTEX
  5
42EC
330
42E7
100
AcDbEntity
  8
MODEL
100
AcDbVertex
100
AcDb2dVertex
 10
285.9842408198015
 20
1028.553210370069
 30
0.0
  0
VERTEX
  5
42ED
330
42E7
100
AcDbEntity
  8
MODEL
100
AcDbVertex
100
AcDb2dVertex
 10
285.1384693202267
 20
1029.39725932077
 30
0.0
  0
VERTEX
  5
42EE
330
42E7
100
AcDbEntity
  8
MODEL
100
AcDbVertex
100
AcDb2dVertex
 10
285.1384693202267
 20
1030.244753369228
 30
0.0
  0
SEQEND
  5
42EF
330
42E7
100
AcDbEntity
  8
MODEL
  0
POLYLINE
  5
42F0
330
A
100
AcDbEntity
  8
MODEL
100
AcDb2dPolyline
 66
     1
 10
0.0
 20
0.0
 30
0.0
  0
VERTEX
  5
42F1
330
42F0
100
AcDbEntity
  8
MODEL
100
AcDbVertex
100
AcDb2dVertex
 10
285.1384693202267
 20
1055.22171211445
 30
0.0
  0
VERTEX
  5
42F2
330
42F0
100
AcDbEntity
  8
MODEL
100
AcDbVertex
100
AcDb2dVertex
 10
285.1384693202267
 20
1030.244753369228
 30
0.0
  0
SEQEND
  5
42F3
330
42F0
100
AcDbEntity
  8
MODEL
  0
SPLINE
  5
42F4
330
A
100
AcDbEntity
  8
MODEL
100
AcDbSpline
210
0.0
220
0.0
230
1.0
 70
     8
 71
     3
 72
    14
 73
    10
 74
     0
 42
0.000000001
 43
0.0000000001
 40
0.0
 40
0.0
 40
0.0
 40
0.0
 40
1.0
 40
1.0
 40
1.0
 40
2.0
 40
2.0
 40
2.0
 40
3.0
 40
3.0
 40
3.0
 40
3.0
 10
285.1384693202267
 20
1055.22171211445
 30
0.0
 10
285.1384693202267
 20
1055.22171211445
 30
0.0
 10
285.5622163444527
 20
1056.492953187138
 30
0.0
 10
285.5622163444527
 20
1056.492953187138
 30
0.0
 10
286.0273045417775
 20
1059.335158837458
 30
0.0
 10
288.1942710315375
 20
1061.546911598069
 30
0.0
 10
291.0657600127956
 20
1061.994774306603
 30
0.0
 10
291.0657600127956
 20
1061.994774306603
 30
0.0
 10
292.3352785366037
 20
1061.994774306603
 30
0.0
 10
292.3352785366037
 20
1061.994774306603
 30
0.0
  0
POLYLINE
  5
42F5
330
A
100
AcDbEntity
  8
MODEL
100
AcDb2dPolyline
 66
     1
 10
0.0
 20
0.0
 30
0.0
  0
VERTEX
  5
42F6
330
42F5
100
AcDbEntity
  8
MODEL
100
AcDbVertex
100
AcDb2dVertex
 10
1118.257847383705
 20
1061.994774306603
 30
0.0
  0
VERTEX
  5
42F7
330
42F5
100
AcDbEntity
  8
MODEL
100
AcDbVertex
100
AcDb2dVertex
 10
292.3352785366037
 20
1061.994774306603
 30
0.0
  0
SEQEND
  5
42F8
330
42F5
100
AcDbEntity
  8
MODEL
  0
SPLINE
  5
42F9
330
A
100
AcDbEntity
  8
MODEL
100
AcDbSpline
210
0.0
220
0.0
230
1.0
 70
     8
 71
     3
 72
    14
 73
    10
 74
     0
 42
0.000000001
 43
0.0000000001
 40
0.0
 40
0.0
 40
0.0
 40
0.0
 40
1.0
 40
1.0
 40
1.0
 40
2.0
 40
2.0
 40
2.0
 40
3.0
 40
3.0
 40
3.0
 40
3.0
 10
1118.257847383705
 20
1061.994774306603
 30
0.0
 10
1118.257847383705
 20
1061.994774306603
 30
0.0
 10
1119.529088456391
 20
1061.994774306603
 30
0.0
 10
1119.529088456391
 20
1061.994774306603
 30
0.0
 10
1122.402299986533
 20
1061.546911598069
 30
0.0
 10
1124.565821378531
 20
1059.335158837458
 30
0.0
 10
1125.030909575856
 20
1056.492953187138
 30
0.0
 10
1125.030909575856
 20
1056.492953187138
 30
0.0
 10
1125.454656600086
 20
1055.22171211445
 30
0.0
 10
1125.454656600086
 20
1055.22171211445
 30
0.0
  0
POLYLINE
  5
42FA
330
A
100
AcDbEntity
  8
MODEL
100
AcDb2dPolyline
 66
     1
 10
0.0
 20
0.0
 30
0.0
  0
VERTEX
  5
42FB
330
42FA
100
AcDbEntity
  8
MODEL
100
AcDbVertex
100
AcDb2dVertex
 10
1125.454656600086
 20
1030.244753369228
 30
0.0
  0
VERTEX
  5
42FC
330
42FA
100
AcDbEntity
  8
MODEL
100
AcDbVertex
100
AcDb2dVertex
 10
1125.454656600086
 20
1055.22171211445
 30
0.0
  0
SEQEND
  5
42FD
330
42FA
100
AcDbEntity
  8
MODEL
  0
POLYLINE
  5
42FE
330
A
100
AcDbEntity
  8
MODEL
100
AcDb2dPolyline
 66
     1
 10
0.0
 20
0.0
 30
0.0
  0
VERTEX
  5
42FF
330
42FE
100
AcDbEntity
  8
MODEL
100
AcDbVertex
100
AcDb2dVertex
 10
1125.454656600086
 20
1030.244753369228
 30
0.0
  0
VERTEX
  5
4300
330
42FE
100
AcDbEntity
  8
MODEL
100
AcDbVertex
100
AcDb2dVertex
 10
1125.030909575856
 20
1029.39725932077
 30
0.0
  0
VERTEX
  5
4301
330
42FE
100
AcDbEntity
  8
MODEL
100
AcDbVertex
100
AcDb2dVertex
 10
1125.030909575856
 20
1028.976957394299
 30
0.0
  0
VERTEX
  5
4302
330
42FE
100
AcDbEntity
  8
MODEL
100
AcDbVertex
100
AcDb2dVertex
 10
1123.339366576696
 20
1027.281969297381
 30
0.0
  0
VERTEX
  5
4303
330
42FE
100
AcDbEntity
  8
MODEL
100
AcDbVertex
100
AcDb2dVertex
 10
1122.06812550401
 20
1027.281969297381
 30
0.0
  0
SEQEND
  5
4304
330
42FE
100
AcDbEntity
  8
MODEL
  0
POLYLINE
  5
4305
330
A
100
AcDbEntity
  8
MODEL
100
AcDb2dPolyline
 66
     1
 10
0.0
 20
0.0
 30
0.0
  0
VERTEX
  5
4306
330
4305
100
AcDbEntity
  8
MODEL
100
AcDbVertex
100
AcDb2dVertex
 10
1123.339366576696
 20
1027.281969297381
 30
0.0
  0
VERTEX
  5
4307
330
4305
100
AcDbEntity
  8
MODEL
100
AcDbVertex
100
AcDb2dVertex
 10
1122.06812550401
 20
1027.281969297381
 30
0.0
  0
SEQEND
  5
4308
330
4305
100
AcDbEntity
  8
MODEL
  0
SPLINE
  5
4309
330
A
100
AcDbEntity
  8
MODEL
100
AcDbSpline
210
0.0
220
0.0
230
1.0
 70
     8
 71
     3
 72
    14
 73
    10
 74
     0
 42
0.000000001
 43
0.0000000001
 40
0.0
 40
0.0
 40
0.0
 40
0.0
 40
1.0
 40
1.0
 40
1.0
 40
2.0
 40
2.0
 40
2.0
 40
3.0
 40
3.0
 40
3.0
 40
3.0
 10
1123.339366576696
 20
1027.281969297381
 30
0.0
 10
1123.339366576696
 20
1027.281969297381
 30
0.0
 10
1124.610607649385
 20
1026.858222273152
 30
0.0
 10
1124.610607649385
 20
1026.858222273152
 30
0.0
 10
1128.74127986118
 20
1025.576645907191
 30
0.0
 10
1128.830852402887
 20
1025.487073365483
 30
0.0
 10
1130.11242876885
 20
1021.356401153687
 30
0.0
 10
1130.11242876885
 20
1021.356401153687
 30
0.0
 10
1130.11242876885
 20
1020.085160080999
 30
0.0
 10
1130.11242876885
 20
1020.085160080999
 30
0.0
  0
POLYLINE
  5
430A
330
A
100
AcDbEntity
  8
MODEL
100
AcDb2dPolyline
 66
     1
 10
0.0
 20
0.0
 30
0.0
  0
VERTEX
  5
430B
330
430A
100
AcDbEntity
  8
MODEL
100
AcDbVertex
100
AcDb2dVertex
 10
1130.11242876885
 20
994.2607072873188
 30
0.0
  0
VERTEX
  5
430C
330
430A
100
AcDbEntity
  8
MODEL
100
AcDbVertex
100
AcDb2dVertex
 10
1130.11242876885
 20
1020.085160080999
 30
0.0
  0
SEQEND
  5
430D
330
430A
100
AcDbEntity
  8
MODEL
  0
SPLINE
  5
430E
330
A
100
AcDbEntity
  8
MODEL
100
AcDbSpline
210
0.0
220
0.0
230
1.0
 70
     8
 71
     3
 72
    14
 73
    10
 74
     0
 42
0.000000001
 43
0.0000000001
 40
0.0
 40
0.0
 40
0.0
 40
0.0
 40
1.0
 40
1.0
 40
1.0
 40
2.0
 40
2.0
 40
2.0
 40
3.0
 40
3.0
 40
3.0
 40
3.0
 10
1130.11242876885
 20
994.2607072873188
 30
0.0
 10
1130.11242876885
 20
994.2607072873188
 30
0.0
 10
1130.11242876885
 20
992.5691642881593
 30
0.0
 10
1130.11242876885
 20
992.5691642881593
 30
0.0
 10
1129.488866074658
 20
989.6752821714717
 30
0.0
 10
1127.359795660238
 20
987.8838313373317
 30
0.0
 10
1124.610607649385
 20
987.0638980709364
 30
0.0
 10
1124.610607649385
 20
987.0638980709364
 30
0.0
 10
1123.339366576696
 20
987.0638980709364
 30
0.0
 10
1123.339366576696
 20
987.0638980709364
 30
0.0
  0
POLYLINE
  5
430F
330
A
100
AcDbEntity
  8
MODEL
100
AcDb2dPolyline
 66
     1
 10
0.0
 20
0.0
 30
0.0
  0
VERTEX
  5
4310
330
430F
100
AcDbEntity
  8
MODEL
100
AcDbVertex
100
AcDb2dVertex
 10
951.0414149566382
 20
987.0638980709364
 30
0.0
  0
VERTEX
  5
4311
330
430F
100
AcDbEntity
  8
MODEL
100
AcDbVertex
100
AcDb2dVertex
 10
1123.339366576696
 20
987.0638980709364
 30
0.0
  0
SEQEND
  5
4312
330
430F
100
AcDbEntity
  8
MODEL
  0
SPLINE
  5
4313
330
A
100
AcDbEntity
  8
MODEL
100
AcDbSpline
210
0.0
220
0.0
230
1.0
 70
     8
 71
     3
 72
    14
 73
    10
 74
     0
 42
0.000000001
 43
0.0000000001
 40
0.0
 40
0.0
 40
0.0
 40
0.0
 40
1.0
 40
1.0
 40
1.0
 40
2.0
 40
2.0
 40
2.0
 40
3.0
 40
3.0
 40
3.0
 40
3.0
 10
964.1655148655914
 20
981.5620769514717
 30
0.0
 10
964.1655148655914
 20
981.5620769514717
 30
0.0
 10
964.589261889821
 20
982.4095709999306
 30
0.0
 10
964.589261889821
 20
982.4095709999306
 30
0.0
 10
965.2868941858101
 20
984.7970237461982
 30
0.0
 10
967.6795145787141
 20
986.6091451668858
 30
0.0
 10
970.0928055581676
 20
987.0638980709364
 30
0.0
 10
970.0928055581676
 20
987.0638980709364
 30
0.0
 10
970.9385770577424
 20
987.0638980709364
 30
0.0
 10
970.9385770577424
 20
987.0638980709364
 30
0.0
  0
POLYLINE
  5
4314
330
A
100
AcDbEntity
  8
MODEL
100
AcDb2dPolyline
 66
     1
 10
0.0
 20
0.0
 30
0.0
  0
VERTEX
  5
4315
330
4314
100
AcDbEntity
  8
MODEL
100
AcDbVertex
100
AcDb2dVertex
 10
667.8319861167615
 20
837.2055906973615
 30
0.0
  0
VERTEX
  5
4316
330
4314
100
AcDbEntity
  8
MODEL
100
AcDbVertex
100
AcDb2dVertex
 10
742.7628623524283
 20
837.2055906973615
 30
0.0
  0
SEQEND
  5
4317
330
4314
100
AcDbEntity
  8
MODEL
  0
POLYLINE
  5
4318
330
A
100
AcDbEntity
  8
MODEL
100
AcDb2dPolyline
 66
     1
 10
0.0
 20
0.0
 30
0.0
  0
VERTEX
  5
4319
330
4318
100
AcDbEntity
  8
MODEL
100
AcDbVertex
100
AcDb2dVertex
 10
667.8319861167615
 20
871.4946486823537
 30
0.0
  0
VERTEX
  5
431A
330
4318
100
AcDbEntity
  8
MODEL
100
AcDbVertex
100
AcDb2dVertex
 10
667.8319861167615
 20
837.2055906973615
 30
0.0
  0
SEQEND
  5
431B
330
4318
100
AcDbEntity
  8
MODEL
  0
POLYLINE
  5
431C
330
A
100
AcDbEntity
  8
MODEL
100
AcDb2dPolyline
 66
     1
 10
0.0
 20
0.0
 30
0.0
  0
VERTEX
  5
431D
330
431C
100
AcDbEntity
  8
MODEL
100
AcDbVertex
100
AcDb2dVertex
 10
742.7628623524283
 20
871.4946486823537
 30
0.0
  0
VERTEX
  5
431E
330
431C
100
AcDbEntity
  8
MODEL
100
AcDbVertex
100
AcDb2dVertex
 10
742.7628623524283
 20
837.2055906973615
 30
0.0
  0
SEQEND
  5
431F
330
431C
100
AcDbEntity
  8
MODEL
  0
POLYLINE
  5
4320
330
A
100
AcDbEntity
  8
MODEL
100
AcDb2dPolyline
 66
     1
 10
0.0
 20
0.0
 30
0.0
  0
VERTEX
  5
4321
330
4320
100
AcDbEntity
  8
MODEL
100
AcDbVertex
100
AcDb2dVertex
 10
1909.469333770459
 20
1061.994774306603
 30
0.0
  0
VERTEX
  5
4322
330
4320
100
AcDbEntity
  8
MODEL
100
AcDbVertex
100
AcDb2dVertex
 10
1909.469333770459
 20
867.2606235378189
 30
0.0
  0
SEQEND
  5
4323
330
4320
100
AcDbEntity
  8
MODEL
  0
POLYLINE
  5
4324
330
A
100
AcDbEntity
  8
MODEL
100
AcDb2dPolyline
 66
     1
 10
0.0
 20
0.0
 30
0.0
  0
VERTEX
  5
4325
330
4324
100
AcDbEntity
  8
MODEL
100
AcDbVertex
100
AcDb2dVertex
 10
1909.469333770459
 20
1061.994774306603
 30
0.0
  0
VERTEX
  5
4326
330
4324
100
AcDbEntity
  8
MODEL
100
AcDbVertex
100
AcDb2dVertex
 10
1879.83460285647
 20
1061.994774306603
 30
0.0
  0
SEQEND
  5
4327
330
4324
100
AcDbEntity
  8
MODEL
  0
POLYLINE
  5
4328
330
A
100
AcDbEntity
  8
MODEL
100
AcDb2dPolyline
 66
     1
 10
0.0
 20
0.0
 30
0.0
  0
VERTEX
  5
4329
330
4328
100
AcDbEntity
  8
MODEL
100
AcDbVertex
100
AcDb2dVertex
 10
1872.641238737851
 20
1055.645459138681
 30
0.0
  0
VERTEX
  5
432A
330
4328
100
AcDbEntity
  8
MODEL
100
AcDbVertex
100
AcDb2dVertex
 10
1871.793744689392
 20
1044.638371801992
 30
0.0
  0
SEQEND
  5
432B
330
4328
100
AcDbEntity
  8
MODEL
  0
SPLINE
  5
432C
330
A
100
AcDbEntity
  8
MODEL
100
AcDbSpline
210
0.0
220
0.0
230
1.0
 70
     8
 71
     3
 72
    14
 73
    10
 74
     0
 42
0.000000001
 43
0.0000000001
 40
0.0
 40
0.0
 40
0.0
 40
0.0
 40
1.0
 40
1.0
 40
1.0
 40
2.0
 40
2.0
 40
2.0
 40
3.0
 40
3.0
 40
3.0
 40
3.0
 10
1872.641238737851
 20
1055.645459138681
 30
0.0
 10
1872.641238737851
 20
1055.645459138681
 30
0.0
 10
1873.061540664319
 20
1056.916700211367
 30
0.0
 10
1873.061540664319
 20
1056.916700211367
 30
0.0
 10
1873.698883749541
 20
1059.521194116386
 30
0.0
 10
1875.934752194458
 20
1061.567582184617
 30
0.0
 10
1878.566806881543
 20
1061.994774306603
 30
0.0
 10
1878.566806881543
 20
1061.994774306603
 30
0.0
 10
1879.83460285647
 20
1061.994774306603
 30
0.0
 10
1879.83460285647
 20
1061.994774306603
 30
0.0
  0
POLYLINE
  5
432D
330
A
100
AcDbEntity
  8
MODEL
100
AcDb2dPolyline
 66
     1
 10
0.0
 20
0.0
 30
0.0
  0
VERTEX
  5
432E
330
432D
100
AcDbEntity
  8
MODEL
100
AcDbVertex
100
AcDb2dVertex
 10
1871.793744689392
 20
1044.638371801992
 30
0.0
  0
VERTEX
  5
432F
330
432D
100
AcDbEntity
  8
MODEL
100
AcDbVertex
100
AcDb2dVertex
 10
1870.946250640929
 20
1041.675587730145
 30
0.0
  0
VERTEX
  5
4330
330
432D
100
AcDbEntity
  8
MODEL
100
AcDbVertex
100
AcDb2dVertex
 10
1869.675009568243
 20
1038.289056634069
 30
0.0
  0
VERTEX
  5
4331
330
432D
100
AcDbEntity
  8
MODEL
100
AcDbVertex
100
AcDb2dVertex
 10
1868.407213593312
 20
1035.750019586451
 30
0.0
  0
VERTEX
  5
4332
330
432D
100
AcDbEntity
  8
MODEL
100
AcDbVertex
100
AcDb2dVertex
 10
1867.983466569083
 20
1035.326272562223
 30
0.0
  0
SEQEND
  5
4333
330
432D
100
AcDbEntity
  8
MODEL
  0
POLYLINE
  5
4334
330
A
100
AcDbEntity
  8
MODEL
100
AcDb2dPolyline
 66
     1
 10
0.0
 20
0.0
 30
0.0
  0
VERTEX
  5
4335
330
4334
100
AcDbEntity
  8
MODEL
100
AcDbVertex
100
AcDb2dVertex
 10
1860.362910328476
 20
1028.976957394299
 30
0.0
  0
VERTEX
  5
4336
330
4334
100
AcDbEntity
  8
MODEL
100
AcDbVertex
100
AcDb2dVertex
 10
1858.247620305086
 20
1028.129463345841
 30
0.0
  0
VERTEX
  5
4337
330
4334
100
AcDbEntity
  8
MODEL
100
AcDbVertex
100
AcDb2dVertex
 10
1855.281391135478
 20
1027.281969297381
 30
0.0
  0
VERTEX
  5
4338
330
4334
100
AcDbEntity
  8
MODEL
100
AcDbVertex
100
AcDb2dVertex
 10
1431.103729686445
 20
1027.281969297381
 30
0.0
  0
SEQEND
  5
4339
330
4334
100
AcDbEntity
  8
MODEL
  0
POLYLINE
  5
433A
330
A
100
AcDbEntity
  8
MODEL
100
AcDb2dPolyline
 66
     1
 10
0.0
 20
0.0
 30
0.0
  0
VERTEX
  5
433B
330
433A
100
AcDbEntity
  8
MODEL
100
AcDbVertex
100
AcDb2dVertex
 10
1424.330667494294
 20
1020.085160080999
 30
0.0
  0
VERTEX
  5
433C
330
433A
100
AcDbEntity
  8
MODEL
100
AcDbVertex
100
AcDb2dVertex
 10
1424.330667494294
 20
992.1454172639301
 30
0.0
  0
SEQEND
  5
433D
330
433A
100
AcDbEntity
  8
MODEL
  0
SPLINE
  5
433E
330
A
100
AcDbEntity
  8
MODEL
100
AcDbSpline
210
0.0
220
0.0
230
1.0
 70
     8
 71
     3
 72
    14
 73
    10
 74
     0
 42
0.000000001
 43
0.0000000001
 40
0.0
 40
0.0
 40
0.0
 40
0.0
 40
1.0
 40
1.0
 40
1.0
 40
2.0
 40
2.0
 40
2.0
 40
3.0
 40
3.0
 40
3.0
 40
3.0
 10
1424.330667494294
 20
1020.085160080999
 30
0.0
 10
1424.330667494294
 20
1020.085160080999
 30
0.0
 10
1424.330667494294
 20
1021.356401153687
 30
0.0
 10
1424.330667494294
 20
1021.356401153687
 30
0.0
 10
1425.574347784917
 20
1024.487995015675
 30
0.0
 10
1426.542420254907
 20
1026.224324285688
 30
0.0
 10
1429.832488613759
 20
1026.858222273152
 30
0.0
 10
1429.832488613759
 20
1026.858222273152
 30
0.0
 10
1431.103729686445
 20
1027.281969297381
 30
0.0
 10
1431.103729686445
 20
1027.281969297381
 30
0.0
  0
SPLINE
  5
433F
330
A
100
AcDbEntity
  8
MODEL
100
AcDbSpline
210
0.0
220
0.0
230
1.0
 70
     8
 71
     3
 72
    17
 73
    13
 74
     0
 42
0.000000001
 43
0.0000000001
 40
0.0
 40
0.0
 40
0.0
 40
0.0
 40
1.0
 40
1.0
 40
1.0
 40
2.0
 40
2.0
 40
2.0
 40
3.0
 40
3.0
 40
3.0
 40
4.0
 40
4.0
 40
4.0
 40
4.0
 10
1909.469333770459
 20
987.0638980709364
 30
0.0
 10
1909.469333770459
 20
987.0638980709364
 30
0.0
 10
1429.40874158953
 20
987.0638980709364
 30
0.0
 10
1429.40874158953
 20
987.0638980709364
 30
0.0
 10
1429.40874158953
 20
987.0638980709364
 30
0.0
 10
1428.140945614599
 20
987.0638980709364
 30
0.0
 10
1428.140945614599
 20
987.0638980709364
 30
0.0
 10
1426.032545786729
 20
987.9251725104273
 30
0.0
 10
1424.847432157988
 20
989.0344939884908
 30
0.0
 10
1424.330667494294
 20
991.2979232154717
 30
0.0
 10
1424.330667494294
 20
991.2979232154717
 30
0.0
 10
1424.330667494294
 20
992.1454172639301
 30
0.0
 10
1424.330667494294
 20
992.1454172639301
 30
0.0
  0
POLYLINE
  5
4340
330
A
100
AcDbEntity
  8
MODEL
100
AcDb2dPolyline
 66
     1
 10
0.0
 20
0.0
 30
0.0
  0
VERTEX
  5
4341
330
4340
100
AcDbEntity
  8
MODEL
100
AcDbVertex
100
AcDb2dVertex
 10
1449.727928165986
 20
987.0638980709364
 30
0.0
  0
VERTEX
  5
4342
330
4340
100
AcDbEntity
  8
MODEL
100
AcDbVertex
100
AcDb2dVertex
 10
1451.846663287135
 20
987.0638980709364
 30
0.0
  0
VERTEX
  5
4343
330
4340
100
AcDbEntity
  8
MODEL
100
AcDbVertex
100
AcDb2dVertex
 10
1453.538206286291
 20
986.2198491202362
 30
0.0
  0
VERTEX
  5
4344
330
4340
100
AcDbEntity
  8
MODEL
100
AcDbVertex
100
AcDb2dVertex
 10
1454.385700334751
 20
985.3723550717777
 30
0.0
  0
VERTEX
  5
4345
330
4340
100
AcDbEntity
  8
MODEL
100
AcDbVertex
100
AcDb2dVertex
 10
1455.23319438321
 20
984.9486080475481
 30
0.0
  0
VERTEX
  5
4346
330
4340
100
AcDbEntity
  8
MODEL
100
AcDbVertex
100
AcDb2dVertex
 10
1456.080688431669
 20
983.2536199506312
 30
0.0
  0
SEQEND
  5
4347
330
4340
100
AcDbEntity
  8
MODEL
  0
POLYLINE
  5
4348
330
A
100
AcDbEntity
  8
MODEL
100
AcDb2dPolyline
 66
     1
 10
0.0
 20
0.0
 30
0.0
  0
VERTEX
  5
4349
330
4348
100
AcDbEntity
  8
MODEL
100
AcDbVertex
100
AcDb2dVertex
 10
1645.73332000746
 20
867.2606235378189
 30
0.0
  0
VERTEX
  5
434A
330
4348
100
AcDbEntity
  8
MODEL
100
AcDbVertex
100
AcDb2dVertex
 10
1909.469333770459
 20
867.2606235378189
 30
0.0
  0
SEQEND
  5
434B
330
4348
100
AcDbEntity
  8
MODEL
  0
POLYLINE
  5
434C
330
A
100
AcDbEntity
  8
MODEL
100
AcDb2dPolyline
 66
     1
 10
0.0
 20
0.0
 30
0.0
  0
VERTEX
  5
434D
330
434C
100
AcDbEntity
  8
MODEL
100
AcDbVertex
100
AcDb2dVertex
 10
1736.749357675049
 20
860.0638143214369
 30
0.0
  0
VERTEX
  5
434E
330
434C
100
AcDbEntity
  8
MODEL
100
AcDbVertex
100
AcDb2dVertex
 10
1736.749357675049
 20
837.2055906973615
 30
0.0
  0
SEQEND
  5
434F
330
434C
100
AcDbEntity
  8
MODEL
  0
POLYLINE
  5
4350
330
A
100
AcDbEntity
  8
MODEL
100
AcDb2dPolyline
 66
     1
 10
0.0
 20
0.0
 30
0.0
  0
VERTEX
  5
4351
330
4350
100
AcDbEntity
  8
MODEL
100
AcDbVertex
100
AcDb2dVertex
 10
1736.749357675049
 20
860.0638143214369
 30
0.0
  0
VERTEX
  5
4352
330
4350
100
AcDbEntity
  8
MODEL
100
AcDbVertex
100
AcDb2dVertex
 10
1661.818481439382
 20
860.0638143214369
 30
0.0
  0
VERTEX
  5
4353
330
4350
100
AcDbEntity
  8
MODEL
100
AcDbVertex
100
AcDb2dVertex
 10
1661.818481439382
 20
837.2055906973615
 30
0.0
  0
SEQEND
  5
4354
330
4350
100
AcDbEntity
  8
MODEL
  0
POLYLINE
  5
4355
330
A
100
AcDbEntity
  8
MODEL
100
AcDb2dPolyline
 66
     1
 10
0.0
 20
0.0
 30
0.0
  0
VERTEX
  5
4356
330
4355
100
AcDbEntity
  8
MODEL
100
AcDbVertex
100
AcDb2dVertex
 10
1736.749357675049
 20
837.2055906973615
 30
0.0
  0
VERTEX
  5
4357
330
4355
100
AcDbEntity
  8
MODEL
100
AcDbVertex
100
AcDb2dVertex
 10
1661.818481439382
 20
837.2055906973615
 30
0.0
  0
SEQEND
  5
4358
330
4355
100
AcDbEntity
  8
MODEL
  0
POLYLINE
  5
4359
330
A
100
AcDbEntity
  8
MODEL
100
AcDb2dPolyline
 66
     1
 10
0.0
 20
0.0
 30
0.0
  0
VERTEX
  5
435A
330
4359
100
AcDbEntity
  8
MODEL
100
AcDbVertex
100
AcDb2dVertex
 10
1654.621672223001
 20
867.2606235378189
 30
0.0
  0
VERTEX
  5
435B
330
4359
100
AcDbEntity
  8
MODEL
100
AcDbVertex
100
AcDb2dVertex
 10
1656.31666031992
 20
867.2606235378189
 30
0.0
  0
VERTEX
  5
435C
330
4359
100
AcDbEntity
  8
MODEL
100
AcDbVertex
100
AcDb2dVertex
 10
1657.584456294847
 20
866.8368765135897
 30
0.0
  0
VERTEX
  5
435D
330
4359
100
AcDbEntity
  8
MODEL
100
AcDbVertex
100
AcDb2dVertex
 10
1658.855697367536
 20
865.992827562889
 30
0.0
  0
VERTEX
  5
435E
330
4359
100
AcDbEntity
  8
MODEL
100
AcDbVertex
100
AcDb2dVertex
 10
1660.550685464451
 20
864.2978394659722
 30
0.0
  0
VERTEX
  5
435F
330
4359
100
AcDbEntity
  8
MODEL
100
AcDbVertex
100
AcDb2dVertex
 10
1661.394734415156
 20
863.0300434910419
 30
0.0
  0
VERTEX
  5
4360
330
4359
100
AcDbEntity
  8
MODEL
100
AcDbVertex
100
AcDb2dVertex
 10
1661.818481439382
 20
861.335055394125
 30
0.0
  0
VERTEX
  5
4361
330
4359
100
AcDbEntity
  8
MODEL
100
AcDbVertex
100
AcDb2dVertex
 10
1661.818481439382
 20
860.0638143214369
 30
0.0
  0
SEQEND
  5
4362
330
4359
100
AcDbEntity
  8
MODEL
  0
POLYLINE
  5
4363
330
A
100
AcDbEntity
  8
MODEL
100
AcDb2dPolyline
 66
     1
 10
0.0
 20
0.0
 30
0.0
  0
VERTEX
  5
4364
330
4363
100
AcDbEntity
  8
MODEL
100
AcDbVertex
100
AcDb2dVertex
 10
1736.749357675049
 20
860.0638143214369
 30
0.0
  0
VERTEX
  5
4365
330
4363
100
AcDbEntity
  8
MODEL
100
AcDbVertex
100
AcDb2dVertex
 10
1736.749357675049
 20
861.335055394125
 30
0.0
  0
VERTEX
  5
4366
330
4363
100
AcDbEntity
  8
MODEL
100
AcDbVertex
100
AcDb2dVertex
 10
1737.173104699279
 20
863.0300434910419
 30
0.0
  0
VERTEX
  5
4367
330
4363
100
AcDbEntity
  8
MODEL
100
AcDbVertex
100
AcDb2dVertex
 10
1737.596851723508
 20
864.2978394659722
 30
0.0
  0
VERTEX
  5
4368
330
4363
100
AcDbEntity
  8
MODEL
100
AcDbVertex
100
AcDb2dVertex
 10
1738.864647698435
 20
865.1453335144306
 30
0.0
  0
VERTEX
  5
4369
330
4363
100
AcDbEntity
  8
MODEL
100
AcDbVertex
100
AcDb2dVertex
 10
1739.712141746898
 20
865.992827562889
 30
0.0
  0
VERTEX
  5
436A
330
4363
100
AcDbEntity
  8
MODEL
100
AcDbVertex
100
AcDb2dVertex
 10
1740.983382819584
 20
866.8368765135897
 30
0.0
  0
VERTEX
  5
436B
330
4363
100
AcDbEntity
  8
MODEL
100
AcDbVertex
100
AcDb2dVertex
 10
1742.251178794515
 20
867.2606235378189
 30
0.0
  0
VERTEX
  5
436C
330
4363
100
AcDbEntity
  8
MODEL
100
AcDbVertex
100
AcDb2dVertex
 10
1743.94616689143
 20
867.2606235378189
 30
0.0
  0
SEQEND
  5
436D
330
4363
100
AcDbEntity
  8
MODEL
  0
POLYLINE
  5
436E
330
A
100
AcDbEntity
  8
MODEL
100
AcDb2dPolyline
 66
     1
 10
0.0
 20
0.0
 30
0.0
  0
VERTEX
  5
436F
330
436E
100
AcDbEntity
  8
MODEL
100
AcDbVertex
100
AcDb2dVertex
 10
1725.318523314133
 20
837.2055906973615
 30
0.0
  0
VERTEX
  5
4370
330
436E
100
AcDbEntity
  8
MODEL
100
AcDbVertex
100
AcDb2dVertex
 10
1725.318523314133
 20
847.3651839855902
 30
0.0
  0
SEQEND
  5
4371
330
436E
100
AcDbEntity
  8
MODEL
  0
POLYLINE
  5
4372
330
A
100
AcDbEntity
  8
MODEL
100
AcDb2dPolyline
 66
     1
 10
0.0
 20
0.0
 30
0.0
  0
VERTEX
  5
4373
330
4372
100
AcDbEntity
  8
MODEL
100
AcDbVertex
100
AcDb2dVertex
 10
1725.318523314133
 20
857.5247772738194
 30
0.0
  0
VERTEX
  5
4374
330
4372
100
AcDbEntity
  8
MODEL
100
AcDbVertex
100
AcDb2dVertex
 10
1725.318523314133
 20
867.6843705620486
 30
0.0
  0
SEQEND
  5
4375
330
4372
100
AcDbEntity
  8
MODEL
  0
POLYLINE
  5
4376
330
A
100
AcDbEntity
  8
MODEL
100
AcDb2dPolyline
 66
     1
 10
0.0
 20
0.0
 30
0.0
  0
VERTEX
  5
4377
330
4376
100
AcDbEntity
  8
MODEL
100
AcDbVertex
100
AcDb2dVertex
 10
1725.318523314133
 20
869.8031056831946
 30
0.0
  0
VERTEX
  5
4378
330
4376
100
AcDbEntity
  8
MODEL
100
AcDbVertex
100
AcDb2dVertex
 10
1725.318523314133
 20
870.6471546338953
 30
0.0
  0
SEQEND
  5
4379
330
4376
100
AcDbEntity
  8
MODEL
  0
POLYLINE
  5
437A
330
A
100
AcDbEntity
  8
MODEL
100
AcDb2dPolyline
 66
     1
 10
0.0
 20
0.0
 30
0.0
  0
VERTEX
  5
437B
330
437A
100
AcDbEntity
  8
MODEL
100
AcDbVertex
100
AcDb2dVertex
 10
1673.249315800301
 20
837.2055906973615
 30
0.0
  0
VERTEX
  5
437C
330
437A
100
AcDbEntity
  8
MODEL
100
AcDbVertex
100
AcDb2dVertex
 10
1673.249315800301
 20
847.3651839855902
 30
0.0
  0
SEQEND
  5
437D
330
437A
100
AcDbEntity
  8
MODEL
  0
POLYLINE
  5
437E
330
A
100
AcDbEntity
  8
MODEL
100
AcDb2dPolyline
 66
     1
 10
0.0
 20
0.0
 30
0.0
  0
VERTEX
  5
437F
330
437E
100
AcDbEntity
  8
MODEL
100
AcDbVertex
100
AcDb2dVertex
 10
1673.249315800301
 20
857.5247772738194
 30
0.0
  0
VERTEX
  5
4380
330
437E
100
AcDbEntity
  8
MODEL
100
AcDbVertex
100
AcDb2dVertex
 10
1673.249315800301
 20
867.6843705620486
 30
0.0
  0
SEQEND
  5
4381
330
437E
100
AcDbEntity
  8
MODEL
  0
POLYLINE
  5
4382
330
A
100
AcDbEntity
  8
MODEL
100
AcDb2dPolyline
 66
     1
 10
0.0
 20
0.0
 30
0.0
  0
VERTEX
  5
4383
330
4382
100
AcDbEntity
  8
MODEL
100
AcDbVertex
100
AcDb2dVertex
 10
1673.249315800301
 20
870.2268527074239
 30
0.0
  0
VERTEX
  5
4384
330
4382
100
AcDbEntity
  8
MODEL
100
AcDbVertex
100
AcDb2dVertex
 10
1673.249315800301
 20
871.0709016581245
 30
0.0
  0
SEQEND
  5
4385
330
4382
100
AcDbEntity
  8
MODEL
  0
POLYLINE
  5
4386
330
A
100
AcDbEntity
  8
MODEL
100
AcDb2dPolyline
 66
     1
 10
0.0
 20
0.0
 30
0.0
  0
VERTEX
  5
4387
330
4386
100
AcDbEntity
  8
MODEL
100
AcDbVertex
100
AcDb2dVertex
 10
1668.167796607307
 20
881.2304949463537
 30
0.0
  0
VERTEX
  5
4388
330
4386
100
AcDbEntity
  8
MODEL
100
AcDbVertex
100
AcDb2dVertex
 10
1672.825568776068
 20
877.4202168260481
 30
0.0
  0
VERTEX
  5
4389
330
4386
100
AcDbEntity
  8
MODEL
100
AcDbVertex
100
AcDb2dVertex
 10
1672.825568776068
 20
876.9999148995767
 30
0.0
  0
VERTEX
  5
438A
330
4386
100
AcDbEntity
  8
MODEL
100
AcDbVertex
100
AcDb2dVertex
 10
1673.249315800301
 20
876.9999148995767
 30
0.0
  0
VERTEX
  5
438B
330
4386
100
AcDbEntity
  8
MODEL
100
AcDbVertex
100
AcDb2dVertex
 10
1673.249315800301
 20
876.5761678753474
 30
0.0
  0
VERTEX
  5
438C
330
4386
100
AcDbEntity
  8
MODEL
100
AcDbVertex
100
AcDb2dVertex
 10
1673.249315800301
 20
876.1524208511182
 30
0.0
  0
VERTEX
  5
438D
330
4386
100
AcDbEntity
  8
MODEL
100
AcDbVertex
100
AcDb2dVertex
 10
1673.249315800301
 20
875.728673826889
 30
0.0
  0
SEQEND
  5
438E
330
4386
100
AcDbEntity
  8
MODEL
  0
POLYLINE
  5
438F
330
A
100
AcDbEntity
  8
MODEL
100
AcDb2dPolyline
 66
     1
 10
0.0
 20
0.0
 30
0.0
  0
VERTEX
  5
4390
330
438F
100
AcDbEntity
  8
MODEL
100
AcDbVertex
100
AcDb2dVertex
 10
1725.318523314133
 20
837.2055906973615
 30
0.0
  0
VERTEX
  5
4391
330
438F
100
AcDbEntity
  8
MODEL
100
AcDbVertex
100
AcDb2dVertex
 10
1725.318523314133
 20
847.3651839855902
 30
0.0
  0
SEQEND
  5
4392
330
438F
100
AcDbEntity
  8
MODEL
  0
POLYLINE
  5
4393
330
A
100
AcDbEntity
  8
MODEL
100
AcDb2dPolyline
 66
     1
 10
0.0
 20
0.0
 30
0.0
  0
VERTEX
  5
4394
330
4393
100
AcDbEntity
  8
MODEL
100
AcDbVertex
100
AcDb2dVertex
 10
1725.318523314133
 20
857.5247772738194
 30
0.0
  0
VERTEX
  5
4395
330
4393
100
AcDbEntity
  8
MODEL
100
AcDbVertex
100
AcDb2dVertex
 10
1725.318523314133
 20
867.6843705620486
 30
0.0
  0
SEQEND
  5
4396
330
4393
100
AcDbEntity
  8
MODEL
  0
POLYLINE
  5
4397
330
A
100
AcDbEntity
  8
MODEL
100
AcDb2dPolyline
 66
     1
 10
0.0
 20
0.0
 30
0.0
  0
VERTEX
  5
4398
330
4397
100
AcDbEntity
  8
MODEL
100
AcDbVertex
100
AcDb2dVertex
 10
1725.318523314133
 20
870.2268527074239
 30
0.0
  0
VERTEX
  5
4399
330
4397
100
AcDbEntity
  8
MODEL
100
AcDbVertex
100
AcDb2dVertex
 10
1725.318523314133
 20
871.0709016581245
 30
0.0
  0
SEQEND
  5
439A
330
4397
100
AcDbEntity
  8
MODEL
  0
POLYLINE
  5
439B
330
A
100
AcDbEntity
  8
MODEL
100
AcDb2dPolyline
 66
     1
 10
0.0
 20
0.0
 30
0.0
  0
VERTEX
  5
439C
330
439B
100
AcDbEntity
  8
MODEL
100
AcDbVertex
100
AcDb2dVertex
 10
1729.552548458668
 20
880.8101930198823
 30
0.0
  0
VERTEX
  5
439D
330
439B
100
AcDbEntity
  8
MODEL
100
AcDbVertex
100
AcDb2dVertex
 10
1725.742270338363
 20
877.4202168260481
 30
0.0
  0
SEQEND
  5
439E
330
439B
100
AcDbEntity
  8
MODEL
  0
POLYLINE
  5
439F
330
A
100
AcDbEntity
  8
MODEL
100
AcDb2dPolyline
 66
     1
 10
0.0
 20
0.0
 30
0.0
  0
VERTEX
  5
43A0
330
439F
100
AcDbEntity
  8
MODEL
100
AcDbVertex
100
AcDb2dVertex
 10
1725.318523314133
 20
875.728673826889
 30
0.0
  0
VERTEX
  5
43A1
330
439F
100
AcDbEntity
  8
MODEL
100
AcDbVertex
100
AcDb2dVertex
 10
1725.318523314133
 20
876.1524208511182
 30
0.0
  0
VERTEX
  5
43A2
330
439F
100
AcDbEntity
  8
MODEL
100
AcDbVertex
100
AcDb2dVertex
 10
1725.318523314133
 20
876.5761678753474
 30
0.0
  0
VERTEX
  5
43A3
330
439F
100
AcDbEntity
  8
MODEL
100
AcDbVertex
100
AcDb2dVertex
 10
1725.318523314133
 20
876.9999148995767
 30
0.0
  0
VERTEX
  5
43A4
330
439F
100
AcDbEntity
  8
MODEL
100
AcDbVertex
100
AcDb2dVertex
 10
1725.742270338363
 20
876.9999148995767
 30
0.0
  0
VERTEX
  5
43A5
330
439F
100
AcDbEntity
  8
MODEL
100
AcDbVertex
100
AcDb2dVertex
 10
1725.742270338363
 20
877.4202168260481
 30
0.0
  0
SEQEND
  5
43A6
330
439F
100
AcDbEntity
  8
MODEL
  0
POLYLINE
  5
43A7
330
A
100
AcDbEntity
  8
MODEL
100
AcDb2dPolyline
 66
     1
 10
0.0
 20
0.0
 30
0.0
  0
VERTEX
  5
43A8
330
43A7
100
AcDbEntity
  8
MODEL
100
AcDbVertex
100
AcDb2dVertex
 10
1766.807835613264
 20
1009.501819768541
 30
0.0
  0
VERTEX
  5
43A9
330
43A7
100
AcDbEntity
  8
MODEL
100
AcDbVertex
100
AcDb2dVertex
 10
1766.807835613264
 20
1011.196807865459
 30
0.0
  0
VERTEX
  5
43AA
330
43A7
100
AcDbEntity
  8
MODEL
100
AcDbVertex
100
AcDb2dVertex
 10
1767.228137539736
 20
1012.464603840388
 30
0.0
  0
VERTEX
  5
43AB
330
43A7
100
AcDbEntity
  8
MODEL
100
AcDbVertex
100
AcDb2dVertex
 10
1767.651884563965
 20
1013.735844913077
 30
0.0
  0
VERTEX
  5
43AC
330
43A7
100
AcDbEntity
  8
MODEL
100
AcDbVertex
100
AcDb2dVertex
 10
1768.499378612425
 20
1014.583338961535
 30
0.0
  0
VERTEX
  5
43AD
330
43A7
100
AcDbEntity
  8
MODEL
100
AcDbVertex
100
AcDb2dVertex
 10
1769.346872660884
 20
1015.427387912235
 30
0.0
  0
VERTEX
  5
43AE
330
43A7
100
AcDbEntity
  8
MODEL
100
AcDbVertex
100
AcDb2dVertex
 10
1770.614668635815
 20
1016.274881960693
 30
0.0
  0
VERTEX
  5
43AF
330
43A7
100
AcDbEntity
  8
MODEL
100
AcDbVertex
100
AcDb2dVertex
 10
1771.8859097085
 20
1016.698628984923
 30
0.0
  0
VERTEX
  5
43B0
330
43A7
100
AcDbEntity
  8
MODEL
100
AcDbVertex
100
AcDb2dVertex
 10
1772.30965673273
 20
1016.698628984923
 30
0.0
  0
SEQEND
  5
43B1
330
43A7
100
AcDbEntity
  8
MODEL
  0
POLYLINE
  5
43B2
330
A
100
AcDbEntity
  8
MODEL
100
AcDb2dPolyline
 66
     1
 10
0.0
 20
0.0
 30
0.0
  0
VERTEX
  5
43B3
330
43B2
100
AcDbEntity
  8
MODEL
100
AcDbVertex
100
AcDb2dVertex
 10
1773.157150781189
 20
1017.122376009153
 30
0.0
  0
VERTEX
  5
43B4
330
43B2
100
AcDbEntity
  8
MODEL
100
AcDbVertex
100
AcDb2dVertex
 10
1783.316744069419
 20
1017.122376009153
 30
0.0
  0
SEQEND
  5
43B5
330
43B2
100
AcDbEntity
  8
MODEL
  0
POLYLINE
  5
43B6
330
A
100
AcDbEntity
  8
MODEL
100
AcDb2dPolyline
 66
     1
 10
0.0
 20
0.0
 30
0.0
  0
VERTEX
  5
43B7
330
43B6
100
AcDbEntity
  8
MODEL
100
AcDbVertex
100
AcDb2dVertex
 10
1793.476337357646
 20
1017.122376009153
 30
0.0
  0
VERTEX
  5
43B8
330
43B6
100
AcDbEntity
  8
MODEL
100
AcDbVertex
100
AcDb2dVertex
 10
1803.635930645876
 20
1017.122376009153
 30
0.0
  0
SEQEND
  5
43B9
330
43B6
100
AcDbEntity
  8
MODEL
  0
POLYLINE
  5
43BA
330
A
100
AcDbEntity
  8
MODEL
100
AcDb2dPolyline
 66
     1
 10
0.0
 20
0.0
 30
0.0
  0
VERTEX
  5
43BB
330
43BA
100
AcDbEntity
  8
MODEL
100
AcDbVertex
100
AcDb2dVertex
 10
1813.795523934106
 20
1017.122376009153
 30
0.0
  0
VERTEX
  5
43BC
330
43BA
100
AcDbEntity
  8
MODEL
100
AcDbVertex
100
AcDb2dVertex
 10
1823.955117222332
 20
1017.122376009153
 30
0.0
  0
SEQEND
  5
43BD
330
43BA
100
AcDbEntity
  8
MODEL
  0
POLYLINE
  5
43BE
330
A
100
AcDbEntity
  8
MODEL
100
AcDb2dPolyline
 66
     1
 10
0.0
 20
0.0
 30
0.0
  0
VERTEX
  5
43BF
330
43BE
100
AcDbEntity
  8
MODEL
100
AcDbVertex
100
AcDb2dVertex
 10
1834.114710510562
 20
1017.122376009153
 30
0.0
  0
VERTEX
  5
43C0
330
43BE
100
AcDbEntity
  8
MODEL
100
AcDbVertex
100
AcDb2dVertex
 10
1844.274303798789
 20
1017.122376009153
 30
0.0
  0
SEQEND
  5
43C1
330
43BE
100
AcDbEntity
  8
MODEL
  0
POLYLINE
  5
43C2
330
A
100
AcDbEntity
  8
MODEL
100
AcDb2dPolyline
 66
     1
 10
0.0
 20
0.0
 30
0.0
  0
VERTEX
  5
43C3
330
43C2
100
AcDbEntity
  8
MODEL
100
AcDbVertex
100
AcDb2dVertex
 10
1854.437342184781
 20
1017.122376009153
 30
0.0
  0
VERTEX
  5
43C4
330
43C2
100
AcDbEntity
  8
MODEL
100
AcDbVertex
100
AcDb2dVertex
 10
1864.596935473007
 20
1017.122376009153
 30
0.0
  0
SEQEND
  5
43C5
330
43C2
100
AcDbEntity
  8
MODEL
  0
POLYLINE
  5
43C6
330
A
100
AcDbEntity
  8
MODEL
100
AcDb2dPolyline
 66
     1
 10
0.0
 20
0.0
 30
0.0
  0
VERTEX
  5
43C7
330
43C6
100
AcDbEntity
  8
MODEL
100
AcDbVertex
100
AcDb2dVertex
 10
1866.712225496397
 20
1017.122376009153
 30
0.0
  0
VERTEX
  5
43C8
330
43C6
100
AcDbEntity
  8
MODEL
100
AcDbVertex
100
AcDb2dVertex
 10
1867.559719544853
 20
1017.122376009153
 30
0.0
  0
SEQEND
  5
43C9
330
43C6
100
AcDbEntity
  8
MODEL
  0
POLYLINE
  5
43CA
330
A
100
AcDbEntity
  8
MODEL
100
AcDb2dPolyline
 66
     1
 10
0.0
 20
0.0
 30
0.0
  0
VERTEX
  5
43CB
330
43CA
100
AcDbEntity
  8
MODEL
100
AcDbVertex
100
AcDb2dVertex
 10
1872.641238737851
 20
1055.645459138681
 30
0.0
  0
VERTEX
  5
43CC
330
43CA
100
AcDbEntity
  8
MODEL
100
AcDbVertex
100
AcDb2dVertex
 10
1872.217491713621
 20
1052.682675066833
 30
0.0
  0
SEQEND
  5
43CD
330
43CA
100
AcDbEntity
  8
MODEL
  0
POLYLINE
  5
43CE
330
A
100
AcDbEntity
  8
MODEL
100
AcDb2dPolyline
 66
     1
 10
0.0
 20
0.0
 30
0.0
  0
VERTEX
  5
43CF
330
43CE
100
AcDbEntity
  8
MODEL
100
AcDbVertex
100
AcDb2dVertex
 10
1871.369997665158
 20
1042.523081778605
 30
0.0
  0
VERTEX
  5
43D0
330
43CE
100
AcDbEntity
  8
MODEL
100
AcDbVertex
100
AcDb2dVertex
 10
1870.522503616703
 20
1032.363488490375
 30
0.0
  0
SEQEND
  5
43D1
330
43CE
100
AcDbEntity
  8
MODEL
  0
POLYLINE
  5
43D2
330
A
100
AcDbEntity
  8
MODEL
100
AcDb2dPolyline
 66
     1
 10
0.0
 20
0.0
 30
0.0
  0
VERTEX
  5
43D3
330
43D2
100
AcDbEntity
  8
MODEL
100
AcDbVertex
100
AcDb2dVertex
 10
1869.675009568243
 20
1022.200450104388
 30
0.0
  0
VERTEX
  5
43D4
330
43D2
100
AcDbEntity
  8
MODEL
100
AcDbVertex
100
AcDb2dVertex
 10
1869.251262544014
 20
1018.813919008311
 30
0.0
  0
VERTEX
  5
43D5
330
43D2
100
AcDbEntity
  8
MODEL
100
AcDbVertex
100
AcDb2dVertex
 10
1869.251262544014
 20
1018.393617081841
 30
0.0
  0
VERTEX
  5
43D6
330
43D2
100
AcDbEntity
  8
MODEL
100
AcDbVertex
100
AcDb2dVertex
 10
1869.251262544014
 20
1017.969870057611
 30
0.0
  0
VERTEX
  5
43D7
330
43D2
100
AcDbEntity
  8
MODEL
100
AcDbVertex
100
AcDb2dVertex
 10
1868.830960617538
 20
1017.546123033381
 30
0.0
  0
VERTEX
  5
43D8
330
43D2
100
AcDbEntity
  8
MODEL
100
AcDbVertex
100
AcDb2dVertex
 10
1868.407213593312
 20
1017.546123033381
 30
0.0
  0
VERTEX
  5
43D9
330
43D2
100
AcDbEntity
  8
MODEL
100
AcDbVertex
100
AcDb2dVertex
 10
1867.983466569083
 20
1017.122376009153
 30
0.0
  0
VERTEX
  5
43DA
330
43D2
100
AcDbEntity
  8
MODEL
100
AcDbVertex
100
AcDb2dVertex
 10
1867.559719544853
 20
1017.122376009153
 30
0.0
  0
SEQEND
  5
43DB
330
43D2
100
AcDbEntity
  8
MODEL
  0
SPLINE
  5
43DC
330
A
100
AcDbEntity
  8
MODEL
100
AcDbSpline
210
0.0
220
0.0
230
1.0
 70
     8
 71
     3
 72
    14
 73
    10
 74
     0
 42
0.000000001
 43
0.0000000001
 40
0.0
 40
0.0
 40
0.0
 40
0.0
 40
1.0
 40
1.0
 40
1.0
 40
2.0
 40
2.0
 40
2.0
 40
3.0
 40
3.0
 40
3.0
 40
3.0
 10
1088.626561567474
 20
1874.796688342504
 30
0.0
 10
1088.626561567474
 20
1874.796688342504
 30
0.0
 10
1085.663777495625
 20
1874.796688342504
 30
0.0
 10
1085.663777495625
 20
1874.796688342504
 30
0.0
 10
832.3715775858868
 20
1865.786035156555
 30
0.0
 10
578.2267159810576
 20
1865.779144961039
 30
0.0
 10
324.9310709735578
 20
1874.796688342504
 30
0.0
 10
324.9310709735578
 20
1874.796688342504
 30
0.0
 10
321.968286901712
 20
1874.796688342504
 30
0.0
 10
321.968286901712
 20
1874.796688342504
 30
0.0
  0
POLYLINE
  5
43DD
330
A
100
AcDbEntity
  8
MODEL
100
AcDb2dPolyline
 66
     1
 10
0.0
 20
0.0
 30
0.0
  0
VERTEX
  5
43DE
330
43DD
100
AcDbEntity
  8
MODEL
100
AcDbVertex
100
AcDb2dVertex
 10
963.319743366013
 20
2168.165710470611
 30
0.0
  0
VERTEX
  5
43DF
330
43DD
100
AcDbEntity
  8
MODEL
100
AcDbVertex
100
AcDb2dVertex
 10
447.2751051031732
 20
2168.165710470611
 30
0.0
  0
SEQEND
  5
43E0
330
43DD
100
AcDbEntity
  8
MODEL
  0
POLYLINE
  5
43E1
330
A
100
AcDbEntity
  8
MODEL
100
AcDb2dPolyline
 66
     1
 10
0.0
 20
0.0
 30
0.0
  0
VERTEX
  5
43E2
330
43E1
100
AcDbEntity
  8
MODEL
100
AcDbVertex
100
AcDb2dVertex
 10
322.3920339259416
 20
2278.233138739729
 30
0.0
  0
VERTEX
  5
43E3
330
43E1
100
AcDbEntity
  8
MODEL
100
AcDbVertex
100
AcDb2dVertex
 10
1088.202814543245
 20
2278.233138739729
 30
0.0
  0
SEQEND
  5
43E4
330
43E1
100
AcDbEntity
  8
MODEL
  0
POLYLINE
  5
43E5
330
A
100
AcDbEntity
  8
MODEL
100
AcDb2dPolyline
 66
     1
 10
0.0
 20
0.0
 30
0.0
  0
VERTEX
  5
43E6
330
43E5
100
AcDbEntity
  8
MODEL
100
AcDbVertex
100
AcDb2dVertex
 10
294.0285440846415
 20
2285.006200931882
 30
0.0
  0
VERTEX
  5
43E7
330
43E5
100
AcDbEntity
  8
MODEL
100
AcDbVertex
100
AcDb2dVertex
 10
1116.566304384545
 20
2285.006200931882
 30
0.0
  0
SEQEND
  5
43E8
330
43E5
100
AcDbEntity
  8
MODEL
  0
SPLINE
  5
43E9
330
A
100
AcDbEntity
  8
MODEL
100
AcDbSpline
210
0.0
220
0.0
230
1.0
 70
     8
 71
     3
 72
    14
 73
    10
 74
     0
 42
0.000000001
 43
0.0000000001
 40
0.0
 40
0.0
 40
0.0
 40
0.0
 40
1.0
 40
1.0
 40
1.0
 40
2.0
 40
2.0
 40
2.0
 40
3.0
 40
3.0
 40
3.0
 40
3.0
 10
315.195224709561
 20
2271.036329523347
 30
0.0
 10
315.195224709561
 20
2271.036329523347
 30
0.0
 10
315.195224709561
 20
2272.305848047156
 30
0.0
 10
315.195224709561
 20
2272.305848047156
 30
0.0
 10
316.0134354270735
 20
2275.058481155767
 30
0.0
 10
317.8048862612191
 20
2277.184106472429
 30
0.0
 10
320.6987683779039
 20
2277.809391715499
 30
0.0
 10
320.6987683779039
 20
2277.809391715499
 30
0.0
 10
322.3920339259416
 20
2278.233138739729
 30
0.0
 10
322.3920339259416
 20
2278.233138739729
 30
0.0
  0
POLYLINE
  5
43EA
330
A
100
AcDbEntity
  8
MODEL
100
AcDb2dPolyline
 66
     1
 10
0.0
 20
0.0
 30
0.0
  0
VERTEX
  5
43EB
330
43EA
100
AcDbEntity
  8
MODEL
100
AcDbVertex
100
AcDb2dVertex
 10
315.195224709561
 20
2271.036329523347
 30
0.0
  0
VERTEX
  5
43EC
330
43EA
100
AcDbEntity
  8
MODEL
100
AcDbVertex
100
AcDb2dVertex
 10
315.195224709561
 20
1881.569750534657
 30
0.0
  0
SEQEND
  5
43ED
330
43EA
100
AcDbEntity
  8
MODEL
  0
POLYLINE
  5
43EE
330
A
100
AcDbEntity
  8
MODEL
100
AcDb2dPolyline
 66
     1
 10
0.0
 20
0.0
 30
0.0
  0
VERTEX
  5
43EF
330
43EE
100
AcDbEntity
  8
MODEL
100
AcDbVertex
100
AcDb2dVertex
 10
321.968286901712
 20
1874.796688342504
 30
0.0
  0
VERTEX
  5
43F0
330
43EE
100
AcDbEntity
  8
MODEL
100
AcDbVertex
100
AcDb2dVertex
 10
320.6987683779039
 20
1874.796688342504
 30
0.0
  0
VERTEX
  5
43F1
330
43EE
100
AcDbEntity
  8
MODEL
100
AcDbVertex
100
AcDb2dVertex
 10
319.4292498540958
 20
1875.218712817855
 30
0.0
  0
VERTEX
  5
43F2
330
43EE
100
AcDbEntity
  8
MODEL
100
AcDbVertex
100
AcDb2dVertex
 10
318.1580087814068
 20
1876.066206866313
 30
0.0
  0
VERTEX
  5
43F3
330
43EE
100
AcDbEntity
  8
MODEL
100
AcDbVertex
100
AcDb2dVertex
 10
317.3122372818284
 20
1876.911978365893
 30
0.0
  0
VERTEX
  5
43F4
330
43EE
100
AcDbEntity
  8
MODEL
100
AcDbVertex
100
AcDb2dVertex
 10
316.4647432333654
 20
1878.183219438582
 30
0.0
  0
VERTEX
  5
43F5
330
43EE
100
AcDbEntity
  8
MODEL
100
AcDbVertex
100
AcDb2dVertex
 10
315.6189717337907
 20
1879.028990938161
 30
0.0
  0
VERTEX
  5
43F6
330
43EE
100
AcDbEntity
  8
MODEL
100
AcDbVertex
100
AcDb2dVertex
 10
315.195224709561
 20
1880.29850946197
 30
0.0
  0
VERTEX
  5
43F7
330
43EE
100
AcDbEntity
  8
MODEL
100
AcDbVertex
100
AcDb2dVertex
 10
315.195224709561
 20
1881.569750534657
 30
0.0
  0
SEQEND
  5
43F8
330
43EE
100
AcDbEntity
  8
MODEL
  0
POLYLINE
  5
43F9
330
A
100
AcDbEntity
  8
MODEL
100
AcDb2dPolyline
 66
     1
 10
0.0
 20
0.0
 30
0.0
  0
VERTEX
  5
43FA
330
43F9
100
AcDbEntity
  8
MODEL
100
AcDbVertex
100
AcDb2dVertex
 10
310.5391750896738
 20
2278.233138739729
 30
0.0
  0
VERTEX
  5
43FB
330
43F9
100
AcDbEntity
  8
MODEL
100
AcDbVertex
100
AcDb2dVertex
 10
291.9115315123777
 20
2278.233138739729
 30
0.0
  0
SEQEND
  5
43FC
330
43F9
100
AcDbEntity
  8
MODEL
  0
SPLINE
  5
43FD
330
A
100
AcDbEntity
  8
MODEL
100
AcDbSpline
210
0.0
220
0.0
230
1.0
 70
    11
 71
     3
 72
    17
 73
    13
 74
     0
 42
0.000000001
 43
0.0000000001
 40
0.0
 40
0.0
 40
0.0
 40
0.0
 40
1.0
 40
1.0
 40
1.0
 40
2.0
 40
2.0
 40
2.0
 40
3.0
 40
3.0
 40
3.0
 40
4.0
 40
4.0
 40
4.0
 40
4.0
 10
742.7628623524283
 20
2103.396150072052
 30
0.0
 10
742.7628623524283
 20
2124.13908367274
 30
0.0
 10
725.8284843231663
 20
2140.649714677772
 30
0.0
 10
705.0855507224801
 20
2140.649714677772
 30
0.0
 10
684.3426171217902
 20
2140.649714677772
 30
0.0
 10
667.8319861167615
 20
2124.13908367274
 30
0.0
 10
667.8319861167615
 20
2103.396150072052
 30
0.0
 10
667.8319861167615
 20
2082.653216471365
 30
0.0
 10
684.3426171217902
 20
2065.718838442104
 30
0.0
 10
705.0855507224801
 20
2065.718838442104
 30
0.0
 10
725.8284843231663
 20
2065.718838442104
 30
0.0
 10
742.7628623524283
 20
2082.653216471365
 30
0.0
 10
742.7628623524283
 20
2103.396150072052
 30
0.0
  0
SPLINE
  5
43FE
330
A
100
AcDbEntity
  8
MODEL
100
AcDbSpline
210
0.0
220
0.0
230
1.0
 70
    11
 71
     3
 72
    17
 73
    13
 74
     0
 42
0.000000001
 43
0.0000000001
 40
0.0
 40
0.0
 40
0.0
 40
0.0
 40
1.0
 40
1.0
 40
1.0
 40
2.0
 40
2.0
 40
2.0
 40
3.0
 40
3.0
 40
3.0
 40
4.0
 40
4.0
 40
4.0
 40
4.0
 10
731.3320279915092
 20
2103.396150072052
 30
0.0
 10
731.3320279915092
 20
2117.789768504816
 30
0.0
 10
719.479169155245
 20
2129.218880316855
 30
0.0
 10
705.0855507224801
 20
2129.218880316855
 30
0.0
 10
690.6919322897152
 20
2129.218880316855
 30
0.0
 10
679.262820477677
 20
2117.789768504816
 30
0.0
 10
679.262820477677
 20
2103.396150072052
 30
0.0
 10
679.262820477677
 20
2089.002531639288
 30
0.0
 10
690.6919322897152
 20
2077.149672803021
 30
0.0
 10
705.0855507224801
 20
2077.149672803021
 30
0.0
 10
719.479169155245
 20
2077.149672803021
 30
0.0
 10
731.3320279915092
 20
2089.002531639288
 30
0.0
 10
731.3320279915092
 20
2103.396150072052
 30
0.0
  0
SPLINE
  5
43FF
330
A
100
AcDbEntity
  8
MODEL
100
AcDbSpline
210
0.0
220
0.0
230
1.0
 70
     8
 71
     3
 72
    14
 73
    10
 74
     0
 42
0.000000001
 43
0.0000000001
 40
0.0
 40
0.0
 40
0.0
 40
0.0
 40
1.0
 40
1.0
 40
1.0
 40
2.0
 40
2.0
 40
2.0
 40
3.0
 40
3.0
 40
3.0
 40
3.0
 10
284.2909752717637
 20
2280.350151311996
 30
0.0
 10
284.2909752717637
 20
2280.350151311996
 30
0.0
 10
285.1384693202267
 20
2281.619669835805
 30
0.0
 10
285.1384693202267
 20
2281.619669835805
 30
0.0
 10
287.7446857741229
 20
2283.481745173984
 30
0.0
 10
289.0297072378376
 20
2285.242190128302
 30
0.0
 10
292.7590255608334
 20
2285.006200931882
 30
0.0
 10
292.7590255608334
 20
2285.006200931882
 30
0.0
 10
294.0285440846415
 20
2285.006200931882
 30
0.0
 10
294.0285440846415
 20
2285.006200931882
 30
0.0
  0
POLYLINE
  5
4400
330
A
100
AcDbEntity
  8
MODEL
100
AcDb2dPolyline
 66
     1
 10
0.0
 20
0.0
 30
0.0
  0
VERTEX
  5
4401
330
4400
100
AcDbEntity
  8
MODEL
100
AcDbVertex
100
AcDb2dVertex
 10
285.1384693202267
 20
2312.945943748951
 30
0.0
  0
VERTEX
  5
4402
330
4400
100
AcDbEntity
  8
MODEL
100
AcDbVertex
100
AcDb2dVertex
 10
285.1384693202267
 20
2285.006200931882
 30
0.0
  0
SEQEND
  5
4403
330
4400
100
AcDbEntity
  8
MODEL
  0
SPLINE
  5
4404
330
A
100
AcDbEntity
  8
MODEL
100
AcDbSpline
210
0.0
220
0.0
230
1.0
 70
     8
 71
     3
 72
    41
 73
    37
 74
     0
 42
0.000000001
 43
0.0000000001
 40
0.0
 40
0.0
 40
0.0
 40
0.0
 40
1.0
 40
1.0
 40
1.0
 40
2.0
 40
2.0
 40
2.0
 40
3.0
 40
3.0
 40
3.0
 40
4.0
 40
4.0
 40
4.0
 40
5.0
 40
5.0
 40
5.0
 40
6.0
 40
6.0
 40
6.0
 40
7.0
 40
7.0
 40
7.0
 40
8.0
 40
8.0
 40
8.0
 40
9.0
 40
9.0
 40
9.0
 40
10.0
 40
10.0
 40
10.0
 40
11.0
 40
11.0
 40
11.0
 40
12.0
 40
12.0
 40
12.0
 40
12.0
 10
1088.202814543245
 20
2278.233138739729
 30
0.0
 10
1088.202814543245
 20
2278.233138739729
 30
0.0
 10
1089.474055615937
 20
2277.809391715499
 30
0.0
 10
1089.474055615937
 20
2277.809391715499
 30
0.0
 10
1093.604727827732
 20
2276.529537898417
 30
0.0
 10
1093.694300369435
 20
2276.436520258952
 30
0.0
 10
1094.975876735396
 20
2272.305848047156
 30
0.0
 10
1094.975876735396
 20
2272.305848047156
 30
0.0
 10
1095.399623759629
 20
2271.036329523347
 30
0.0
 10
1095.399623759629
 20
2271.036329523347
 30
0.0
 10
1095.399623759629
 20
2271.036329523347
 30
0.0
 10
1095.399623759629
 20
1881.569750534657
 30
0.0
 10
1095.399623759629
 20
1881.569750534657
 30
0.0
 10
1095.399623759629
 20
1881.569750534657
 30
0.0
 10
1094.975876735396
 20
1880.29850946197
 30
0.0
 10
1094.975876735396
 20
1880.29850946197
 30
0.0
 10
1094.975876735396
 20
1880.29850946197
 30
0.0
 10
1094.975876735396
 20
1879.028990938161
 30
0.0
 10
1094.975876735396
 20
1879.028990938161
 30
0.0
 10
1094.975876735396
 20
1879.028990938161
 30
0.0
 10
1094.12838268694
 20
1878.183219438582
 30
0.0
 10
1094.12838268694
 20
1878.183219438582
 30
0.0
 10
1094.12838268694
 20
1878.183219438582
 30
0.0
 10
1093.280888638481
 20
1876.911978365893
 30
0.0
 10
1093.280888638481
 20
1876.911978365893
 30
0.0
 10
1093.280888638481
 20
1876.911978365893
 30
0.0
 10
1092.436839687783
 20
1876.066206866313
 30
0.0
 10
1092.436839687783
 20
1876.066206866313
 30
0.0
 10
1092.436839687783
 20
1876.066206866313
 30
0.0
 10
1091.16559861509
 20
1875.218712817855
 30
0.0
 10
1091.16559861509
 20
1875.218712817855
 30
0.0
 10
1091.16559861509
 20
1875.218712817855
 30
0.0
 10
1089.894357542405
 20
1874.794965793625
 30
0.0
 10
1089.894357542405
 20
1874.794965793625
 30
0.0
 10
1089.894357542405
 20
1874.794965793625
 30
0.0
 10
1088.626561567474
 20
1874.794965793625
 30
0.0
 10
1088.626561567474
 20
1874.794965793625
 30
0.0
  0
POLYLINE
  5
4405
330
A
100
AcDbEntity
  8
MODEL
100
AcDb2dPolyline
 66
     1
 10
0.0
 20
0.0
 30
0.0
  0
VERTEX
  5
4406
330
4405
100
AcDbEntity
  8
MODEL
100
AcDbVertex
100
AcDb2dVertex
 10
1100.05739592839
 20
2278.233138739729
 30
0.0
  0
VERTEX
  5
4407
330
4405
100
AcDbEntity
  8
MODEL
100
AcDbVertex
100
AcDb2dVertex
 10
1118.681594407935
 20
2278.233138739729
 30
0.0
  0
SEQEND
  5
4408
330
4405
100
AcDbEntity
  8
MODEL
  0
SPLINE
  5
4409
330
A
100
AcDbEntity
  8
MODEL
100
AcDbSpline
210
0.0
220
0.0
230
1.0
 70
     8
 71
     3
 72
    14
 73
    10
 74
     0
 42
0.000000001
 43
0.0000000001
 40
0.0
 40
0.0
 40
0.0
 40
0.0
 40
1.0
 40
1.0
 40
1.0
 40
2.0
 40
2.0
 40
2.0
 40
3.0
 40
3.0
 40
3.0
 40
3.0
 10
1116.566304384545
 20
2285.006200931882
 30
0.0
 10
1116.566304384545
 20
2285.006200931882
 30
0.0
 10
1117.834100359476
 20
2285.006200931882
 30
0.0
 10
1117.834100359476
 20
2285.006200931882
 30
0.0
 10
1121.565141231345
 20
2285.242190128302
 30
0.0
 10
1122.850162695067
 20
2283.481745173984
 30
0.0
 10
1125.454656600086
 20
2281.619669835805
 30
0.0
 10
1125.454656600086
 20
2281.619669835805
 30
0.0
 10
1125.878403624312
 20
2280.350151311996
 30
0.0
 10
1125.878403624312
 20
2280.350151311996
 30
0.0
  0
POLYLINE
  5
440A
330
A
100
AcDbEntity
  8
MODEL
100
AcDb2dPolyline
 66
     1
 10
0.0
 20
0.0
 30
0.0
  0
VERTEX
  5
440B
330
440A
100
AcDbEntity
  8
MODEL
100
AcDbVertex
100
AcDb2dVertex
 10
1125.454656600086
 20
2312.945943748951
 30
0.0
  0
VERTEX
  5
440C
330
440A
100
AcDbEntity
  8
MODEL
100
AcDbVertex
100
AcDb2dVertex
 10
1125.454656600086
 20
2285.006200931882
 30
0.0
  0
SEQEND
  5
440D
330
440A
100
AcDbEntity
  8
MODEL
  0
SPLINE
  5
440E
330
A
100
AcDbEntity
  8
MODEL
100
AcDbSpline
210
0.0
220
0.0
230
1.0
 70
    11
 71
     3
 72
   110
 73
   106
 74
     0
 42
0.000000001
 43
0.0000000001
 40
0.0
 40
0.0
 40
0.0
 40
0.0
 40
1.0
 40
1.0
 40
1.0
 40
2.0
 40
2.0
 40
2.0
 40
3.0
 40
3.0
 40
3.0
 40
4.0
 40
4.0
 40
4.0
 40
5.0
 40
5.0
 40
5.0
 40
6.0
 40
6.0
 40
6.0
 40
7.0
 40
7.0
 40
7.0
 40
8.0
 40
8.0
 40
8.0
 40
9.0
 40
9.0
 40
9.0
 40
10.0
 40
10.0
 40
10.0
 40
11.0
 40
11.0
 40
11.0
 40
12.0
 40
12.0
 40
12.0
 40
13.0
 40
13.0
 40
13.0
 40
14.0
 40
14.0
 40
14.0
 40
15.0
 40
15.0
 40
15.0
 40
16.0
 40
16.0
 40
16.0
 40
17.0
 40
17.0
 40
17.0
 40
18.0
 40
18.0
 40
18.0
 40
19.0
 40
19.0
 40
19.0
 40
20.0
 40
20.0
 40
20.0
 40
21.0
 40
21.0
 40
21.0
 40
22.0
 40
22.0
 40
22.0
 40
23.0
 40
23.0
 40
23.0
 40
24.0
 40
24.0
 40
24.0
 40
25.0
 40
25.0
 40
25.0
 40
26.0
 40
26.0
 40
26.0
 40
27.0
 40
27.0
 40
27.0
 40
28.0
 40
28.0
 40
28.0
 40
29.0
 40
29.0
 40
29.0
 40
30.0
 40
30.0
 40
30.0
 40
31.0
 40
31.0
 40
31.0
 40
32.0
 40
32.0
 40
32.0
 40
33.0
 40
33.0
 40
33.0
 40
34.0
 40
34.0
 40
34.0
 40
35.0
 40
35.0
 40
35.0
 40
35.0
 10
1130.11242876885
 20
2307.866147104836
 30
0.0
 10
1130.11242876885
 20
2307.866147104836
 30
0.0
 10
1130.11242876885
 20
2309.135665628645
 30
0.0
 10
1130.11242876885
 20
2309.135665628645
 30
0.0
 10
1130.11242876885
 20
2309.135665628645
 30
0.0
 10
1129.688681744621
 20
2309.983159677104
 30
0.0
 10
1129.688681744621
 20
2309.983159677104
 30
0.0
 10
1129.688681744621
 20
2309.983159677104
 30
0.0
 10
1128.841187696161
 20
2311.676425225142
 30
0.0
 10
1128.841187696161
 20
2311.676425225142
 30
0.0
 10
1128.841187696161
 20
2311.676425225142
 30
0.0
 10
1126.302150648542
 20
2312.945943748951
 30
0.0
 10
1126.302150648542
 20
2312.945943748951
 30
0.0
 10
1126.302150648542
 20
2312.945943748951
 30
0.0
 10
284.2926978206447
 20
2312.945943748951
 30
0.0
 10
284.2926978206447
 20
2312.945943748951
 30
0.0
 10
284.2926978206447
 20
2312.945943748951
 30
0.0
 10
281.7519382241439
 20
2311.676425225142
 30
0.0
 10
281.7519382241439
 20
2311.676425225142
 30
0.0
 10
281.7519382241439
 20
2311.676425225142
 30
0.0
 10
280.9044441756882
 20
2310.828931176683
 30
0.0
 10
280.9044441756882
 20
2310.828931176683
 30
0.0
 10
280.9044441756882
 20
2310.828931176683
 30
0.0
 10
280.4824197003359
 20
2309.983159677104
 30
0.0
 10
280.4824197003359
 20
2309.983159677104
 30
0.0
 10
280.4824197003359
 20
2309.983159677104
 30
0.0
 10
280.4824197003359
 20
1877.335725390122
 30
0.0
 10
280.4824197003359
 20
1877.335725390122
 30
0.0
 10
280.4824197003359
 20
1877.335725390122
 30
0.0
 10
280.9044441756882
 20
1873.101700245587
 30
0.0
 10
280.9044441756882
 20
1873.101700245587
 30
0.0
 10
280.9044441756882
 20
1873.101700245587
 30
0.0
 10
282.1756852483736
 20
1868.445650625702
 30
0.0
 10
282.1756852483736
 20
1868.445650625702
 30
0.0
 10
282.1756852483736
 20
1868.445650625702
 30
0.0
 10
283.4452037721817
 20
1864.635372505397
 30
0.0
 10
283.4452037721817
 20
1864.635372505397
 30
0.0
 10
292.635002041548
 20
1843.346390910072
 30
0.0
 10
310.301463344374
 20
1833.925771090926
 30
0.0
 10
332.9753742384014
 20
1834.57861711606
 30
0.0
 10
332.9753742384014
 20
1834.57861711606
 30
0.0
 10
335.9381583102472
 20
1834.57861711606
 30
0.0
 10
335.9381583102472
 20
1834.57861711606
 30
0.0
 10
335.9381583102472
 20
1834.57861711606
 30
0.0
 10
338.902664930974
 20
1834.154870091831
 30
0.0
 10
338.902664930974
 20
1834.154870091831
 30
0.0
 10
338.902664930974
 20
1834.154870091831
 30
0.0
 10
341.8654490028198
 20
1834.154870091831
 30
0.0
 10
341.8654490028198
 20
1834.154870091831
 30
0.0
 10
376.5679187187666
 20
1833.197132915117
 30
0.0
 10
411.2876139235082
 20
1831.939672233462
 30
0.0
 10
446.0055865793652
 20
1831.192086019983
 30
0.0
 10
446.0055865793652
 20
1831.192086019983
 30
0.0
 10
452.3549017472865
 20
1831.192086019983
 30
0.0
 10
452.3549017472865
 20
1831.192086019983
 30
0.0
 10
452.3549017472865
 20
1831.192086019983
 30
0.0
 10
455.3194083680169
 20
1830.768338995754
 30
0.0
 10
455.3194083680169
 20
1830.768338995754
 30
0.0
 10
527.6871318717599
 20
1829.660740066569
 30
0.0
 10
600.0135142024042
 20
1827.993312751717
 30
0.0
 10
672.4880357366451
 20
1828.229301948136
 30
0.0
 10
672.4880357366451
 20
1828.229301948136
 30
0.0
 10
684.3426171217902
 20
1828.229301948136
 30
0.0
 10
684.3426171217902
 20
1828.229301948136
 30
0.0
 10
756.9222141376517
 20
1828.048434315843
 30
0.0
 10
829.477695469202
 20
1828.356770565181
 30
0.0
 10
901.9349915146518
 20
1829.922567496174
 30
0.0
 10
901.9349915146518
 20
1829.922567496174
 30
0.0
 10
910.8250662790738
 20
1829.922567496174
 30
0.0
 10
910.8250662790738
 20
1829.922567496174
 30
0.0
 10
945.5361487394143
 20
1830.818292913244
 30
0.0
 10
980.2455086508812
 20
1831.48491932941
 30
0.0
 10
1014.965203855616
 20
1832.463327092672
 30
0.0
 10
1014.965203855616
 20
1832.463327092672
 30
0.0
 10
1017.929710476346
 20
1832.463327092672
 30
0.0
 10
1017.929710476346
 20
1832.463327092672
 30
0.0
 10
1017.929710476346
 20
1832.463327092672
 30
0.0
 10
1020.892494548192
 20
1832.885351568022
 30
0.0
 10
1020.892494548192
 20
1832.885351568022
 30
0.0
 10
1020.892494548192
 20
1832.885351568022
 30
0.0
 10
1023.855278620038
 20
1832.885351568022
 30
0.0
 10
1023.855278620038
 20
1832.885351568022
 30
0.0
 10
1038.686424468061
 20
1833.059329004798
 30
0.0
 10
1053.479674240748
 20
1833.894765211105
 30
0.0
 10
1068.307374991018
 20
1834.154870091831
 30
0.0
 10
1068.307374991018
 20
1834.154870091831
 30
0.0
 10
1071.693906087093
 20
1834.154870091831
 30
0.0
 10
1071.693906087093
 20
1834.154870091831
 30
0.0
 10
1071.693906087093
 20
1834.154870091831
 30
0.0
 10
1074.656690158939
 20
1834.57861711606
 30
0.0
 10
1074.656690158939
 20
1834.57861711606
 30
0.0
 10
1098.899843081715
 20
1833.524417202123
 30
0.0
 10
1116.831576911907
 20
1841.782316527958
 30
0.0
 10
1127.149644697005
 20
1864.635372505397
 30
0.0
 10
1127.149644697005
 20
1864.635372505397
 30
0.0
 10
1128.417440671932
 20
1868.445650625702
 30
0.0
 10
1128.417440671932
 20
1868.445650625702
 30
0.0
 10
1128.417440671932
 20
1868.445650625702
 30
0.0
 10
1129.264934720391
 20
1873.101700245587
 30
0.0
 10
1129.264934720391
 20
1873.101700245587
 30
0.0
 10
1129.264934720391
 20
1873.101700245587
 30
0.0
 10
1130.11242876885
 20
1877.335725390122
 30
0.0
 10
1130.11242876885
 20
1877.335725390122
 30
0.0
 10
1130.11242876885
 20
1877.335725390122
 30
0.0
 10
1130.11242876885
 20
2307.866147104836
 30
0.0
 10
1130.11242876885
 20
2307.866147104836
 30
0.0
  0
SPLINE
  5
440F
330
A
100
AcDbEntity
  8
MODEL
100
AcDbSpline
210
0.0
220
0.0
230
1.0
 70
     8
 71
     3
 72
    14
 73
    10
 74
     0
 42
0.000000001
 43
0.0000000001
 40
0.0
 40
0.0
 40
0.0
 40
0.0
 40
1.0
 40
1.0
 40
1.0
 40
2.0
 40
2.0
 40
2.0
 40
3.0
 40
3.0
 40
3.0
 40
3.0
 10
440.078295886789
 20
2160.968901254229
 30
0.0
 10
440.078295886789
 20
2160.968901254229
 30
0.0
 10
440.5020429110223
 20
2162.238419778038
 30
0.0
 10
440.5020429110223
 20
2162.238419778038
 30
0.0
 10
441.4081036213643
 20
2166.203727297453
 30
0.0
 10
442.3710084447152
 20
2166.670538043656
 30
0.0
 10
446.0055865793652
 20
2167.741963446381
 30
0.0
 10
446.0055865793652
 20
2167.741963446381
 30
0.0
 10
447.2751051031732
 20
2168.165710470611
 30
0.0
 10
447.2751051031732
 20
2168.165710470611
 30
0.0
  0
SPLINE
  5
4410
330
A
100
AcDbEntity
  8
MODEL
100
AcDbSpline
210
0.0
220
0.0
230
1.0
 70
     8
 71
     3
 72
    14
 73
    10
 74
     0
 42
0.000000001
 43
0.0000000001
 40
0.0
 40
0.0
 40
0.0
 40
0.0
 40
1.0
 40
1.0
 40
1.0
 40
2.0
 40
2.0
 40
2.0
 40
3.0
 40
3.0
 40
3.0
 40
3.0
 10
963.319743366013
 20
2168.165710470611
 30
0.0
 10
963.319743366013
 20
2168.165710470611
 30
0.0
 10
964.589261889821
 20
2167.741963446381
 30
0.0
 10
964.589261889821
 20
2167.741963446381
 30
0.0
 10
968.22211747559
 20
2166.670538043656
 30
0.0
 10
969.185022298941
 20
2166.203727297453
 30
0.0
 10
970.0928055581676
 20
2162.238419778038
 30
0.0
 10
970.0928055581676
 20
2162.238419778038
 30
0.0
 10
970.0928055581676
 20
2160.968901254229
 30
0.0
 10
970.0928055581676
 20
2160.968901254229
 30
0.0
  0
SPLINE
  5
4411
330
A
100
AcDbEntity
  8
MODEL
100
AcDbSpline
210
0.0
220
0.0
230
1.0
 70
    11
 71
     3
 72
    17
 73
    13
 74
     0
 42
0.000000001
 43
0.0000000001
 40
0.0
 40
0.0
 40
0.0
 40
0.0
 40
1.0
 40
1.0
 40
1.0
 40
2.0
 40
2.0
 40
2.0
 40
3.0
 40
3.0
 40
3.0
 40
4.0
 40
4.0
 40
4.0
 40
4.0
 10
722.8657002513205
 20
2233.3590178934
 30
0.0
 10
722.8657002513205
 20
2243.096586706279
 30
0.0
 10
714.8213969864805
 20
2250.71542039801
 30
0.0
 10
705.0855507224801
 20
2250.71542039801
 30
0.0
 10
695.3479819096024
 20
2250.71542039801
 30
0.0
 10
687.7291482178657
 20
2243.096586706279
 30
0.0
 10
687.7291482178657
 20
2233.3590178934
 30
0.0
 10
687.7291482178657
 20
2223.6231716294
 30
0.0
 10
695.3479819096024
 20
2215.578868364558
 30
0.0
 10
705.0855507224801
 20
2215.578868364558
 30
0.0
 10
714.8213969864805
 20
2215.578868364558
 30
0.0
 10
722.8657002513205
 20
2223.6231716294
 30
0.0
 10
722.8657002513205
 20
2233.3590178934
 30
0.0
  0
SPLINE
  5
4412
330
A
100
AcDbEntity
  8
MODEL
100
AcDbSpline
210
0.0
220
0.0
230
1.0
 70
     8
 71
     3
 72
    14
 73
    10
 74
     0
 42
0.000000001
 43
0.0000000001
 40
0.0
 40
0.0
 40
0.0
 40
0.0
 40
1.0
 40
1.0
 40
1.0
 40
2.0
 40
2.0
 40
2.0
 40
3.0
 40
3.0
 40
3.0
 40
3.0
 10
970.0928055581676
 20
1879.028990938161
 30
0.0
 10
970.0928055581676
 20
1879.028990938161
 30
0.0
 10
970.0928055581676
 20
1877.759472414352
 30
0.0
 10
970.0928055581676
 20
1877.759472414352
 30
0.0
 10
968.9783164334654
 20
1874.107668790912
 30
0.0
 10
968.7578301769568
 20
1873.497886487752
 30
0.0
 10
965.0130089140507
 20
1872.255928746007
 30
0.0
 10
965.0130089140507
 20
1872.255928746007
 30
0.0
 10
963.3180208171357
 20
1871.832181721778
 30
0.0
 10
963.3180208171357
 20
1871.832181721778
 30
0.0
  0
SPLINE
  5
4413
330
A
100
AcDbEntity
  8
MODEL
100
AcDbSpline
210
0.0
220
0.0
230
1.0
 70
     8
 71
     3
 72
    14
 73
    10
 74
     0
 42
0.000000001
 43
0.0000000001
 40
0.0
 40
0.0
 40
0.0
 40
0.0
 40
1.0
 40
1.0
 40
1.0
 40
2.0
 40
2.0
 40
2.0
 40
3.0
 40
3.0
 40
3.0
 40
3.0
 10
446.8513580789436
 20
1871.832181721778
 30
0.0
 10
446.8513580789436
 20
1871.832181721778
 30
0.0
 10
445.5818395551355
 20
1872.255928746007
 30
0.0
 10
445.5818395551355
 20
1872.255928746007
 30
0.0
 10
441.8352957433522
 20
1873.497886487752
 30
0.0
 10
441.6165320357209
 20
1874.107668790912
 30
0.0
 10
440.5020429110223
 20
1877.759472414352
 30
0.0
 10
440.5020429110223
 20
1877.759472414352
 30
0.0
 10
440.078295886789
 20
1879.028990938161
 30
0.0
 10
440.078295886789
 20
1879.028990938161
 30
0.0
  0
POLYLINE
  5
4414
330
A
100
AcDbEntity
  8
MODEL
100
AcDb2dPolyline
 66
     1
 10
0.0
 20
0.0
 30
0.0
  0
VERTEX
  5
4415
330
4414
100
AcDbEntity
  8
MODEL
100
AcDbVertex
100
AcDb2dVertex
 10
440.078295886789
 20
1017.122376009153
 30
0.0
  0
VERTEX
  5
4416
330
4414
100
AcDbEntity
  8
MODEL
100
AcDbVertex
100
AcDb2dVertex
 10
429.9187025985625
 20
1017.122376009153
 30
0.0
  0
SEQEND
  5
4417
330
4414
100
AcDbEntity
  8
MODEL
  0
POLYLINE
  5
4418
330
A
100
AcDbEntity
  8
MODEL
100
AcDb2dPolyline
 66
     1
 10
0.0
 20
0.0
 30
0.0
  0
VERTEX
  5
4419
330
4418
100
AcDbEntity
  8
MODEL
100
AcDbVertex
100
AcDb2dVertex
 10
419.7591093103324
 20
1017.122376009153
 30
0.0
  0
VERTEX
  5
441A
330
4418
100
AcDbEntity
  8
MODEL
100
AcDbVertex
100
AcDb2dVertex
 10
409.597793473225
 20
1017.122376009153
 30
0.0
  0
SEQEND
  5
441B
330
4418
100
AcDbEntity
  8
MODEL
  0
POLYLINE
  5
441C
330
A
100
AcDbEntity
  8
MODEL
100
AcDb2dPolyline
 66
     1
 10
0.0
 20
0.0
 30
0.0
  0
VERTEX
  5
441D
330
441C
100
AcDbEntity
  8
MODEL
100
AcDbVertex
100
AcDb2dVertex
 10
399.4382001849985
 20
1017.122376009153
 30
0.0
  0
VERTEX
  5
441E
330
441C
100
AcDbEntity
  8
MODEL
100
AcDbVertex
100
AcDb2dVertex
 10
389.2786068967685
 20
1017.122376009153
 30
0.0
  0
SEQEND
  5
441F
330
441C
100
AcDbEntity
  8
MODEL
  0
POLYLINE
  5
4420
330
A
100
AcDbEntity
  8
MODEL
100
AcDb2dPolyline
 66
     1
 10
0.0
 20
0.0
 30
0.0
  0
VERTEX
  5
4421
330
4420
100
AcDbEntity
  8
MODEL
100
AcDbVertex
100
AcDb2dVertex
 10
379.119013608542
 20
1017.122376009153
 30
0.0
  0
VERTEX
  5
4422
330
4420
100
AcDbEntity
  8
MODEL
100
AcDbVertex
100
AcDb2dVertex
 10
368.957697771431
 20
1017.122376009153
 30
0.0
  0
SEQEND
  5
4423
330
4420
100
AcDbEntity
  8
MODEL
  0
POLYLINE
  5
4424
330
A
100
AcDbEntity
  8
MODEL
100
AcDb2dPolyline
 66
     1
 10
0.0
 20
0.0
 30
0.0
  0
VERTEX
  5
4425
330
4424
100
AcDbEntity
  8
MODEL
100
AcDbVertex
100
AcDb2dVertex
 10
358.7981044832009
 20
1017.122376009153
 30
0.0
  0
VERTEX
  5
4426
330
4424
100
AcDbEntity
  8
MODEL
100
AcDbVertex
100
AcDb2dVertex
 10
348.6385111949744
 20
1017.122376009153
 30
0.0
  0
SEQEND
  5
4427
330
4424
100
AcDbEntity
  8
MODEL
  0
POLYLINE
  5
4428
330
A
100
AcDbEntity
  8
MODEL
100
AcDb2dPolyline
 66
     1
 10
0.0
 20
0.0
 30
0.0
  0
VERTEX
  5
4429
330
4428
100
AcDbEntity
  8
MODEL
100
AcDbVertex
100
AcDb2dVertex
 10
338.4789179067443
 20
1017.122376009153
 30
0.0
  0
VERTEX
  5
442A
330
4428
100
AcDbEntity
  8
MODEL
100
AcDbVertex
100
AcDb2dVertex
 10
328.3176020696333
 20
1017.122376009153
 30
0.0
  0
SEQEND
  5
442B
330
4428
100
AcDbEntity
  8
MODEL
  0
POLYLINE
  5
442C
330
A
100
AcDbEntity
  8
MODEL
100
AcDb2dPolyline
 66
     1
 10
0.0
 20
0.0
 30
0.0
  0
VERTEX
  5
442D
330
442C
100
AcDbEntity
  8
MODEL
100
AcDbVertex
100
AcDb2dVertex
 10
326.2023120462468
 20
1017.122376009153
 30
0.0
  0
VERTEX
  5
442E
330
442C
100
AcDbEntity
  8
MODEL
100
AcDbVertex
100
AcDb2dVertex
 10
325.3548179977874
 20
1017.122376009153
 30
0.0
  0
VERTEX
  5
442F
330
442C
100
AcDbEntity
  8
MODEL
100
AcDbVertex
100
AcDb2dVertex
 10
324.0852994739794
 20
1017.122376009153
 30
0.0
  0
VERTEX
  5
4430
330
442C
100
AcDbEntity
  8
MODEL
100
AcDbVertex
100
AcDb2dVertex
 10
323.2378054255237
 20
1017.546123033381
 30
0.0
  0
VERTEX
  5
4431
330
442C
100
AcDbEntity
  8
MODEL
100
AcDbVertex
100
AcDb2dVertex
 10
322.3920339259416
 20
1017.969870057611
 30
0.0
  0
VERTEX
  5
4432
330
442C
100
AcDbEntity
  8
MODEL
100
AcDbVertex
100
AcDb2dVertex
 10
321.5445398774823
 20
1018.393617081841
 30
0.0
  0
VERTEX
  5
4433
330
442C
100
AcDbEntity
  8
MODEL
100
AcDbVertex
100
AcDb2dVertex
 10
321.1225154021336
 20
1019.237666032541
 30
0.0
  0
VERTEX
  5
4434
330
442C
100
AcDbEntity
  8
MODEL
100
AcDbVertex
100
AcDb2dVertex
 10
320.6987683779039
 20
1020.085160080999
 30
0.0
  0
VERTEX
  5
4435
330
442C
100
AcDbEntity
  8
MODEL
100
AcDbVertex
100
AcDb2dVertex
 10
320.2750213536742
 20
1021.356401153687
 30
0.0
  0
VERTEX
  5
4436
330
442C
100
AcDbEntity
  8
MODEL
100
AcDbVertex
100
AcDb2dVertex
 10
320.2750213536742
 20
1022.200450104388
 30
0.0
  0
SEQEND
  5
4437
330
442C
100
AcDbEntity
  8
MODEL
  0
POLYLINE
  5
4438
330
A
100
AcDbEntity
  8
MODEL
100
AcDb2dPolyline
 66
     1
 10
0.0
 20
0.0
 30
0.0
  0
VERTEX
  5
4439
330
4438
100
AcDbEntity
  8
MODEL
100
AcDbVertex
100
AcDb2dVertex
 10
309.6916810412145
 20
1027.281969297381
 30
0.0
  0
VERTEX
  5
443A
330
4438
100
AcDbEntity
  8
MODEL
100
AcDbVertex
100
AcDb2dVertex
 10
299.532087752988
 20
1027.281969297381
 30
0.0
  0
SEQEND
  5
443B
330
4438
100
AcDbEntity
  8
MODEL
  0
POLYLINE
  5
443C
330
A
100
AcDbEntity
  8
MODEL
100
AcDb2dPolyline
 66
     1
 10
0.0
 20
0.0
 30
0.0
  0
VERTEX
  5
443D
330
443C
100
AcDbEntity
  8
MODEL
100
AcDbVertex
100
AcDb2dVertex
 10
315.195224709561
 20
1027.281969297381
 30
0.0
  0
VERTEX
  5
443E
330
443C
100
AcDbEntity
  8
MODEL
100
AcDbVertex
100
AcDb2dVertex
 10
316.0409962091358
 20
1026.858222273152
 30
0.0
  0
VERTEX
  5
443F
330
443C
100
AcDbEntity
  8
MODEL
100
AcDbVertex
100
AcDb2dVertex
 10
317.3122372818284
 20
1026.858222273152
 30
0.0
  0
VERTEX
  5
4440
330
443C
100
AcDbEntity
  8
MODEL
100
AcDbVertex
100
AcDb2dVertex
 10
318.1580087814068
 20
1026.434475248922
 30
0.0
  0
VERTEX
  5
4441
330
443C
100
AcDbEntity
  8
MODEL
100
AcDbVertex
100
AcDb2dVertex
 10
319.0055028298661
 20
1025.586981200465
 30
0.0
  0
VERTEX
  5
4442
330
443C
100
AcDbEntity
  8
MODEL
100
AcDbVertex
100
AcDb2dVertex
 10
319.4292498540958
 20
1024.742932249763
 30
0.0
  0
VERTEX
  5
4443
330
443C
100
AcDbEntity
  8
MODEL
100
AcDbVertex
100
AcDb2dVertex
 10
319.8512743294482
 20
1023.895438201305
 30
0.0
  0
VERTEX
  5
4444
330
443C
100
AcDbEntity
  8
MODEL
100
AcDbVertex
100
AcDb2dVertex
 10
320.2750213536742
 20
1023.047944152847
 30
0.0
  0
VERTEX
  5
4445
330
443C
100
AcDbEntity
  8
MODEL
100
AcDbVertex
100
AcDb2dVertex
 10
320.2750213536742
 20
1022.200450104388
 30
0.0
  0
SEQEND
  5
4446
330
443C
100
AcDbEntity
  8
MODEL
  0
POLYLINE
  5
4447
330
A
100
AcDbEntity
  8
MODEL
100
AcDb2dPolyline
 66
     1
 10
0.0
 20
0.0
 30
0.0
  0
VERTEX
  5
4448
330
4447
100
AcDbEntity
  8
MODEL
100
AcDbVertex
100
AcDb2dVertex
 10
679.262820477677
 20
871.4946486823537
 30
0.0
  0
VERTEX
  5
4449
330
4447
100
AcDbEntity
  8
MODEL
100
AcDbVertex
100
AcDb2dVertex
 10
679.262820477677
 20
861.335055394125
 30
0.0
  0
SEQEND
  5
444A
330
4447
100
AcDbEntity
  8
MODEL
  0
POLYLINE
  5
444B
330
A
100
AcDbEntity
  8
MODEL
100
AcDb2dPolyline
 66
     1
 10
0.0
 20
0.0
 30
0.0
  0
VERTEX
  5
444C
330
444B
100
AcDbEntity
  8
MODEL
100
AcDbVertex
100
AcDb2dVertex
 10
679.262820477677
 20
851.1754621058958
 30
0.0
  0
VERTEX
  5
444D
330
444B
100
AcDbEntity
  8
MODEL
100
AcDbVertex
100
AcDb2dVertex
 10
679.262820477677
 20
841.0158688176671
 30
0.0
  0
SEQEND
  5
444E
330
444B
100
AcDbEntity
  8
MODEL
  0
POLYLINE
  5
444F
330
A
100
AcDbEntity
  8
MODEL
100
AcDb2dPolyline
 66
     1
 10
0.0
 20
0.0
 30
0.0
  0
VERTEX
  5
4450
330
444F
100
AcDbEntity
  8
MODEL
100
AcDbVertex
100
AcDb2dVertex
 10
679.262820477677
 20
838.0530847458194
 30
0.0
  0
VERTEX
  5
4451
330
444F
100
AcDbEntity
  8
MODEL
100
AcDbVertex
100
AcDb2dVertex
 10
679.262820477677
 20
837.2055906973615
 30
0.0
  0
SEQEND
  5
4452
330
444F
100
AcDbEntity
  8
MODEL
  0
POLYLINE
  5
4453
330
A
100
AcDbEntity
  8
MODEL
100
AcDb2dPolyline
 66
     1
 10
0.0
 20
0.0
 30
0.0
  0
VERTEX
  5
4454
330
4453
100
AcDbEntity
  8
MODEL
100
AcDbVertex
100
AcDb2dVertex
 10
678.8390734534473
 20
873.189636779271
 30
0.0
  0
VERTEX
  5
4455
330
4453
100
AcDbEntity
  8
MODEL
100
AcDbVertex
100
AcDb2dVertex
 10
674.6050483089125
 20
876.9999148995767
 30
0.0
  0
SEQEND
  5
4456
330
4453
100
AcDbEntity
  8
MODEL
  0
POLYLINE
  5
4457
330
A
100
AcDbEntity
  8
MODEL
100
AcDb2dPolyline
 66
     1
 10
0.0
 20
0.0
 30
0.0
  0
VERTEX
  5
4458
330
4457
100
AcDbEntity
  8
MODEL
100
AcDbVertex
100
AcDb2dVertex
 10
678.8390734534473
 20
873.189636779271
 30
0.0
  0
VERTEX
  5
4459
330
4457
100
AcDbEntity
  8
MODEL
100
AcDbVertex
100
AcDb2dVertex
 10
678.8390734534473
 20
872.7658897550418
 30
0.0
  0
VERTEX
  5
445A
330
4457
100
AcDbEntity
  8
MODEL
100
AcDbVertex
100
AcDb2dVertex
 10
678.8390734534473
 20
872.3421427308122
 30
0.0
  0
VERTEX
  5
445B
330
4457
100
AcDbEntity
  8
MODEL
100
AcDbVertex
100
AcDb2dVertex
 10
679.262820477677
 20
872.3421427308122
 30
0.0
  0
VERTEX
  5
445C
330
4457
100
AcDbEntity
  8
MODEL
100
AcDbVertex
100
AcDb2dVertex
 10
679.262820477677
 20
871.9183957065829
 30
0.0
  0
VERTEX
  5
445D
330
4457
100
AcDbEntity
  8
MODEL
100
AcDbVertex
100
AcDb2dVertex
 10
679.262820477677
 20
871.4946486823537
 30
0.0
  0
SEQEND
  5
445E
330
4457
100
AcDbEntity
  8
MODEL
  0
POLYLINE
  5
445F
330
A
100
AcDbEntity
  8
MODEL
100
AcDb2dPolyline
 66
     1
 10
0.0
 20
0.0
 30
0.0
  0
VERTEX
  5
4460
330
445F
100
AcDbEntity
  8
MODEL
100
AcDbVertex
100
AcDb2dVertex
 10
970.0928055581676
 20
1017.122376009153
 30
0.0
  0
VERTEX
  5
4461
330
445F
100
AcDbEntity
  8
MODEL
100
AcDbVertex
100
AcDb2dVertex
 10
980.252398846394
 20
1017.122376009153
 30
0.0
  0
SEQEND
  5
4462
330
445F
100
AcDbEntity
  8
MODEL
  0
POLYLINE
  5
4463
330
A
100
AcDbEntity
  8
MODEL
100
AcDb2dPolyline
 66
     1
 10
0.0
 20
0.0
 30
0.0
  0
VERTEX
  5
4464
330
4463
100
AcDbEntity
  8
MODEL
100
AcDbVertex
100
AcDb2dVertex
 10
990.4119921346241
 20
1017.122376009153
 30
0.0
  0
VERTEX
  5
4465
330
4463
100
AcDbEntity
  8
MODEL
100
AcDbVertex
100
AcDb2dVertex
 10
1000.571585422851
 20
1017.122376009153
 30
0.0
  0
SEQEND
  5
4466
330
4463
100
AcDbEntity
  8
MODEL
  0
POLYLINE
  5
4467
330
A
100
AcDbEntity
  8
MODEL
100
AcDb2dPolyline
 66
     1
 10
0.0
 20
0.0
 30
0.0
  0
VERTEX
  5
4468
330
4467
100
AcDbEntity
  8
MODEL
100
AcDbVertex
100
AcDb2dVertex
 10
1010.732901259958
 20
1017.122376009153
 30
0.0
  0
VERTEX
  5
4469
330
4467
100
AcDbEntity
  8
MODEL
100
AcDbVertex
100
AcDb2dVertex
 10
1020.892494548192
 20
1017.122376009153
 30
0.0
  0
SEQEND
  5
446A
330
4467
100
AcDbEntity
  8
MODEL
  0
POLYLINE
  5
446B
330
A
100
AcDbEntity
  8
MODEL
100
AcDb2dPolyline
 66
     1
 10
0.0
 20
0.0
 30
0.0
  0
VERTEX
  5
446C
330
446B
100
AcDbEntity
  8
MODEL
100
AcDbVertex
100
AcDb2dVertex
 10
1031.052087836418
 20
1017.122376009153
 30
0.0
  0
VERTEX
  5
446D
330
446B
100
AcDbEntity
  8
MODEL
100
AcDbVertex
100
AcDb2dVertex
 10
1041.211681124648
 20
1017.122376009153
 30
0.0
  0
SEQEND
  5
446E
330
446B
100
AcDbEntity
  8
MODEL
  0
POLYLINE
  5
446F
330
A
100
AcDbEntity
  8
MODEL
100
AcDb2dPolyline
 66
     1
 10
0.0
 20
0.0
 30
0.0
  0
VERTEX
  5
4470
330
446F
100
AcDbEntity
  8
MODEL
100
AcDbVertex
100
AcDb2dVertex
 10
1051.371274412875
 20
1017.122376009153
 30
0.0
  0
VERTEX
  5
4471
330
446F
100
AcDbEntity
  8
MODEL
100
AcDbVertex
100
AcDb2dVertex
 10
1061.530867701105
 20
1017.122376009153
 30
0.0
  0
SEQEND
  5
4472
330
446F
100
AcDbEntity
  8
MODEL
  0
POLYLINE
  5
4473
330
A
100
AcDbEntity
  8
MODEL
100
AcDb2dPolyline
 66
     1
 10
0.0
 20
0.0
 30
0.0
  0
VERTEX
  5
4474
330
4473
100
AcDbEntity
  8
MODEL
100
AcDbVertex
100
AcDb2dVertex
 10
1071.693906087093
 20
1017.122376009153
 30
0.0
  0
VERTEX
  5
4475
330
4473
100
AcDbEntity
  8
MODEL
100
AcDbVertex
100
AcDb2dVertex
 10
1081.853499375323
 20
1017.122376009153
 30
0.0
  0
SEQEND
  5
4476
330
4473
100
AcDbEntity
  8
MODEL
  0
POLYLINE
  5
4477
330
A
100
AcDbEntity
  8
MODEL
100
AcDb2dPolyline
 66
     1
 10
0.0
 20
0.0
 30
0.0
  0
VERTEX
  5
4478
330
4477
100
AcDbEntity
  8
MODEL
100
AcDbVertex
100
AcDb2dVertex
 10
1084.392536422939
 20
1017.122376009153
 30
0.0
  0
VERTEX
  5
4479
330
4477
100
AcDbEntity
  8
MODEL
100
AcDbVertex
100
AcDb2dVertex
 10
1085.240030471399
 20
1017.122376009153
 30
0.0
  0
SEQEND
  5
447A
330
4477
100
AcDbEntity
  8
MODEL
  0
POLYLINE
  5
447B
330
A
100
AcDbEntity
  8
MODEL
100
AcDb2dPolyline
 66
     1
 10
0.0
 20
0.0
 30
0.0
  0
VERTEX
  5
447C
330
447B
100
AcDbEntity
  8
MODEL
100
AcDbVertex
100
AcDb2dVertex
 10
1090.318104566635
 20
1022.200450104388
 30
0.0
  0
VERTEX
  5
447D
330
447B
100
AcDbEntity
  8
MODEL
100
AcDbVertex
100
AcDb2dVertex
 10
1090.318104566635
 20
1021.356401153687
 30
0.0
  0
VERTEX
  5
447E
330
447B
100
AcDbEntity
  8
MODEL
100
AcDbVertex
100
AcDb2dVertex
 10
1089.894357542405
 20
1020.085160080999
 30
0.0
  0
VERTEX
  5
447F
330
447B
100
AcDbEntity
  8
MODEL
100
AcDbVertex
100
AcDb2dVertex
 10
1089.474055615937
 20
1019.237666032541
 30
0.0
  0
VERTEX
  5
4480
330
447B
100
AcDbEntity
  8
MODEL
100
AcDbVertex
100
AcDb2dVertex
 10
1088.626561567474
 20
1018.393617081841
 30
0.0
  0
VERTEX
  5
4481
330
447B
100
AcDbEntity
  8
MODEL
100
AcDbVertex
100
AcDb2dVertex
 10
1088.202814543245
 20
1017.969870057611
 30
0.0
  0
VERTEX
  5
4482
330
447B
100
AcDbEntity
  8
MODEL
100
AcDbVertex
100
AcDb2dVertex
 10
1087.355320494789
 20
1017.546123033381
 30
0.0
  0
VERTEX
  5
4483
330
447B
100
AcDbEntity
  8
MODEL
100
AcDbVertex
100
AcDb2dVertex
 10
1086.0840794221
 20
1017.122376009153
 30
0.0
  0
VERTEX
  5
4484
330
447B
100
AcDbEntity
  8
MODEL
100
AcDbVertex
100
AcDb2dVertex
 10
1085.240030471399
 20
1017.122376009153
 30
0.0
  0
SEQEND
  5
4485
330
447B
100
AcDbEntity
  8
MODEL
  0
POLYLINE
  5
4486
330
A
100
AcDbEntity
  8
MODEL
100
AcDb2dPolyline
 66
     1
 10
0.0
 20
0.0
 30
0.0
  0
VERTEX
  5
4487
330
4486
100
AcDbEntity
  8
MODEL
100
AcDbVertex
100
AcDb2dVertex
 10
1100.901444879094
 20
1027.281969297381
 30
0.0
  0
VERTEX
  5
4488
330
4486
100
AcDbEntity
  8
MODEL
100
AcDbVertex
100
AcDb2dVertex
 10
1111.061038167321
 20
1027.281969297381
 30
0.0
  0
SEQEND
  5
4489
330
4486
100
AcDbEntity
  8
MODEL
  0
POLYLINE
  5
448A
330
A
100
AcDbEntity
  8
MODEL
100
AcDb2dPolyline
 66
     1
 10
0.0
 20
0.0
 30
0.0
  0
VERTEX
  5
448B
330
448A
100
AcDbEntity
  8
MODEL
100
AcDbVertex
100
AcDb2dVertex
 10
1090.318104566635
 20
1022.200450104388
 30
0.0
  0
VERTEX
  5
448C
330
448A
100
AcDbEntity
  8
MODEL
100
AcDbVertex
100
AcDb2dVertex
 10
1090.318104566635
 20
1023.047944152847
 30
0.0
  0
VERTEX
  5
448D
330
448A
100
AcDbEntity
  8
MODEL
100
AcDbVertex
100
AcDb2dVertex
 10
1090.741851590864
 20
1023.895438201305
 30
0.0
  0
VERTEX
  5
448E
330
448A
100
AcDbEntity
  8
MODEL
100
AcDbVertex
100
AcDb2dVertex
 10
1091.16559861509
 20
1024.742932249763
 30
0.0
  0
VERTEX
  5
448F
330
448A
100
AcDbEntity
  8
MODEL
100
AcDbVertex
100
AcDb2dVertex
 10
1091.58934563932
 20
1025.586981200465
 30
0.0
  0
VERTEX
  5
4490
330
448A
100
AcDbEntity
  8
MODEL
100
AcDbVertex
100
AcDb2dVertex
 10
1092.436839687783
 20
1026.434475248922
 30
0.0
  0
VERTEX
  5
4491
330
448A
100
AcDbEntity
  8
MODEL
100
AcDbVertex
100
AcDb2dVertex
 10
1093.280888638481
 20
1026.858222273152
 30
0.0
  0
VERTEX
  5
4492
330
448A
100
AcDbEntity
  8
MODEL
100
AcDbVertex
100
AcDb2dVertex
 10
1094.12838268694
 20
1026.858222273152
 30
0.0
  0
VERTEX
  5
4493
330
448A
100
AcDbEntity
  8
MODEL
100
AcDbVertex
100
AcDb2dVertex
 10
1095.399623759629
 20
1027.281969297381
 30
0.0
  0
SEQEND
  5
4494
330
448A
100
AcDbEntity
  8
MODEL
  0
POLYLINE
  5
4495
330
A
100
AcDbEntity
  8
MODEL
100
AcDb2dPolyline
 66
     1
 10
0.0
 20
0.0
 30
0.0
  0
VERTEX
  5
4496
330
4495
100
AcDbEntity
  8
MODEL
100
AcDbVertex
100
AcDb2dVertex
 10
731.3320279915092
 20
871.4946486823537
 30
0.0
  0
VERTEX
  5
4497
330
4495
100
AcDbEntity
  8
MODEL
100
AcDbVertex
100
AcDb2dVertex
 10
731.3320279915092
 20
861.335055394125
 30
0.0
  0
SEQEND
  5
4498
330
4495
100
AcDbEntity
  8
MODEL
  0
POLYLINE
  5
4499
330
A
100
AcDbEntity
  8
MODEL
100
AcDb2dPolyline
 66
     1
 10
0.0
 20
0.0
 30
0.0
  0
VERTEX
  5
449A
330
4499
100
AcDbEntity
  8
MODEL
100
AcDbVertex
100
AcDb2dVertex
 10
731.3320279915092
 20
851.1754621058958
 30
0.0
  0
VERTEX
  5
449B
330
4499
100
AcDbEntity
  8
MODEL
100
AcDbVertex
100
AcDb2dVertex
 10
731.3320279915092
 20
841.0158688176671
 30
0.0
  0
SEQEND
  5
449C
330
4499
100
AcDbEntity
  8
MODEL
  0
POLYLINE
  5
449D
330
A
100
AcDbEntity
  8
MODEL
100
AcDb2dPolyline
 66
     1
 10
0.0
 20
0.0
 30
0.0
  0
VERTEX
  5
449E
330
449D
100
AcDbEntity
  8
MODEL
100
AcDbVertex
100
AcDb2dVertex
 10
731.3320279915092
 20
838.0530847458194
 30
0.0
  0
VERTEX
  5
449F
330
449D
100
AcDbEntity
  8
MODEL
100
AcDbVertex
100
AcDb2dVertex
 10
731.3320279915092
 20
837.2055906973615
 30
0.0
  0
SEQEND
  5
44A0
330
449D
100
AcDbEntity
  8
MODEL
  0
POLYLINE
  5
44A1
330
A
100
AcDbEntity
  8
MODEL
100
AcDb2dPolyline
 66
     1
 10
0.0
 20
0.0
 30
0.0
  0
VERTEX
  5
44A2
330
44A1
100
AcDbEntity
  8
MODEL
100
AcDbVertex
100
AcDb2dVertex
 10
731.7557750157389
 20
873.189636779271
 30
0.0
  0
VERTEX
  5
44A3
330
44A1
100
AcDbEntity
  8
MODEL
100
AcDbVertex
100
AcDb2dVertex
 10
735.9880776113928
 20
876.9999148995767
 30
0.0
  0
SEQEND
  5
44A4
330
44A1
100
AcDbEntity
  8
MODEL
  0
POLYLINE
  5
44A5
330
A
100
AcDbEntity
  8
MODEL
100
AcDb2dPolyline
 66
     1
 10
0.0
 20
0.0
 30
0.0
  0
VERTEX
  5
44A6
330
44A5
100
AcDbEntity
  8
MODEL
100
AcDbVertex
100
AcDb2dVertex
 10
731.3320279915092
 20
871.4946486823537
 30
0.0
  0
VERTEX
  5
44A7
330
44A5
100
AcDbEntity
  8
MODEL
100
AcDbVertex
100
AcDb2dVertex
 10
731.3320279915092
 20
871.9183957065829
 30
0.0
  0
VERTEX
  5
44A8
330
44A5
100
AcDbEntity
  8
MODEL
100
AcDbVertex
100
AcDb2dVertex
 10
731.3320279915092
 20
872.3421427308122
 30
0.0
  0
VERTEX
  5
44A9
330
44A5
100
AcDbEntity
  8
MODEL
100
AcDbVertex
100
AcDb2dVertex
 10
731.7557750157389
 20
872.7658897550418
 30
0.0
  0
VERTEX
  5
44AA
330
44A5
100
AcDbEntity
  8
MODEL
100
AcDbVertex
100
AcDb2dVertex
 10
731.7557750157389
 20
873.189636779271
 30
0.0
  0
SEQEND
  5
44AB
330
44A5
100
AcDbEntity
  8
MODEL
  0
POLYLINE
  5
44AC
330
A
100
AcDbEntity
  8
MODEL
100
AcDb2dPolyline
 66
     1
 10
0.0
 20
0.0
 30
0.0
  0
VERTEX
  5
44AD
330
44AC
100
AcDbEntity
  8
MODEL
100
AcDbVertex
100
AcDb2dVertex
 10
822.7718126833274
 20
2233.782764917628
 30
0.0
  0
VERTEX
  5
44AE
330
44AC
100
AcDbEntity
  8
MODEL
100
AcDbVertex
100
AcDb2dVertex
 10
821.926041183749
 20
2227.009702725475
 30
0.0
  0
VERTEX
  5
44AF
330
44AC
100
AcDbEntity
  8
MODEL
100
AcDbVertex
100
AcDb2dVertex
 10
820.2327756357113
 20
2224.046918653628
 30
0.0
  0
SEQEND
  5
44B0
330
44AC
100
AcDbEntity
  8
MODEL
  0
POLYLINE
  5
44B1
330
A
100
AcDbEntity
  8
MODEL
100
AcDb2dPolyline
 66
     1
 10
0.0
 20
0.0
 30
0.0
  0
VERTEX
  5
44B2
330
44B1
100
AcDbEntity
  8
MODEL
100
AcDbVertex
100
AcDb2dVertex
 10
812.6122193950973
 20
2217.272133912598
 30
0.0
  0
VERTEX
  5
44B3
330
44B1
100
AcDbEntity
  8
MODEL
100
AcDbVertex
100
AcDb2dVertex
 10
806.262904227176
 20
2215.578868364558
 30
0.0
  0
VERTEX
  5
44B4
330
44B1
100
AcDbEntity
  8
MODEL
100
AcDbVertex
100
AcDb2dVertex
 10
802.8746505822232
 20
2216.002615388789
 30
0.0
  0
SEQEND
  5
44B5
330
44B1
100
AcDbEntity
  8
MODEL
  0
POLYLINE
  5
44B6
330
A
100
AcDbEntity
  8
MODEL
100
AcDb2dPolyline
 66
     1
 10
0.0
 20
0.0
 30
0.0
  0
VERTEX
  5
44B7
330
44B6
100
AcDbEntity
  8
MODEL
100
AcDbVertex
100
AcDb2dVertex
 10
793.9862983666785
 20
2220.236640533324
 30
0.0
  0
VERTEX
  5
44B8
330
44B6
100
AcDbEntity
  8
MODEL
100
AcDbVertex
100
AcDb2dVertex
 10
793.5625513424488
 20
2220.236640533324
 30
0.0
  0
VERTEX
  5
44B9
330
44B6
100
AcDbEntity
  8
MODEL
100
AcDbVertex
100
AcDb2dVertex
 10
789.3285261979177
 20
2225.740184201667
 30
0.0
  0
VERTEX
  5
44BA
330
44B6
100
AcDbEntity
  8
MODEL
100
AcDbVertex
100
AcDb2dVertex
 10
788.4827546983356
 20
2228.279221249284
 30
0.0
  0
SEQEND
  5
44BB
330
44B6
100
AcDbEntity
  8
MODEL
  0
POLYLINE
  5
44BC
330
A
100
AcDbEntity
  8
MODEL
100
AcDb2dPolyline
 66
     1
 10
0.0
 20
0.0
 30
0.0
  0
VERTEX
  5
44BD
330
44BC
100
AcDbEntity
  8
MODEL
100
AcDbVertex
100
AcDb2dVertex
 10
788.904779173688
 20
2238.438814537513
 30
0.0
  0
VERTEX
  5
44BE
330
44BC
100
AcDbEntity
  8
MODEL
100
AcDbVertex
100
AcDb2dVertex
 10
788.904779173688
 20
2238.862561561744
 30
0.0
  0
VERTEX
  5
44BF
330
44BC
100
AcDbEntity
  8
MODEL
100
AcDbVertex
100
AcDb2dVertex
 10
792.2913102697635
 20
2244.789852254317
 30
0.0
  0
VERTEX
  5
44C0
330
44BC
100
AcDbEntity
  8
MODEL
100
AcDbVertex
100
AcDb2dVertex
 10
794.4083228420309
 20
2246.483117802355
 30
0.0
  0
SEQEND
  5
44C1
330
44BC
100
AcDbEntity
  8
MODEL
  0
POLYLINE
  5
44C2
330
A
100
AcDbEntity
  8
MODEL
100
AcDb2dPolyline
 66
     1
 10
0.0
 20
0.0
 30
0.0
  0
VERTEX
  5
44C3
330
44C2
100
AcDbEntity
  8
MODEL
100
AcDbVertex
100
AcDb2dVertex
 10
803.7221446306789
 20
2250.293395922659
 30
0.0
  0
VERTEX
  5
44C4
330
44C2
100
AcDbEntity
  8
MODEL
100
AcDbVertex
100
AcDb2dVertex
 10
804.567916130261
 20
2250.293395922659
 30
0.0
  0
VERTEX
  5
44C5
330
44C2
100
AcDbEntity
  8
MODEL
100
AcDbVertex
100
AcDb2dVertex
 10
811.3427008712893
 20
2249.445901874201
 30
0.0
  0
VERTEX
  5
44C6
330
44C2
100
AcDbEntity
  8
MODEL
100
AcDbVertex
100
AcDb2dVertex
 10
813.4579908946794
 20
2248.176383350392
 30
0.0
  0
SEQEND
  5
44C7
330
44C2
100
AcDbEntity
  8
MODEL
  0
POLYLINE
  5
44C8
330
A
100
AcDbEntity
  8
MODEL
100
AcDb2dPolyline
 66
     1
 10
0.0
 20
0.0
 30
0.0
  0
VERTEX
  5
44C9
330
44C8
100
AcDbEntity
  8
MODEL
100
AcDbVertex
100
AcDb2dVertex
 10
820.6548001110637
 20
2241.403321158239
 30
0.0
  0
VERTEX
  5
44CA
330
44C8
100
AcDbEntity
  8
MODEL
100
AcDbVertex
100
AcDb2dVertex
 10
821.0785471352933
 20
2240.555827109782
 30
0.0
  0
SEQEND
  5
44CB
330
44C8
100
AcDbEntity
  8
MODEL
  0
POLYLINE
  5
44CC
330
A
100
AcDbEntity
  8
MODEL
100
AcDb2dPolyline
 66
     1
 10
0.0
 20
0.0
 30
0.0
  0
VERTEX
  5
44CD
330
44CC
100
AcDbEntity
  8
MODEL
100
AcDbVertex
100
AcDb2dVertex
 10
821.0785471352933
 20
2240.555827109782
 30
0.0
  0
VERTEX
  5
44CE
330
44CC
100
AcDbEntity
  8
MODEL
100
AcDbVertex
100
AcDb2dVertex
 10
822.7718126833274
 20
2233.782764917628
 30
0.0
  0
SEQEND
  5
44CF
330
44CC
100
AcDbEntity
  8
MODEL
  0
POLYLINE
  5
44D0
330
A
100
AcDbEntity
  8
MODEL
100
AcDb2dPolyline
 66
     1
 10
0.0
 20
0.0
 30
0.0
  0
VERTEX
  5
44D1
330
44D0
100
AcDbEntity
  8
MODEL
100
AcDbVertex
100
AcDb2dVertex
 10
622.957865270429
 20
2233.782764917628
 30
0.0
  0
VERTEX
  5
44D2
330
44D0
100
AcDbEntity
  8
MODEL
100
AcDbVertex
100
AcDb2dVertex
 10
621.6883467466209
 20
2227.009702725475
 30
0.0
  0
VERTEX
  5
44D3
330
44D0
100
AcDbEntity
  8
MODEL
100
AcDbVertex
100
AcDb2dVertex
 10
619.9950811985832
 20
2224.046918653628
 30
0.0
  0
SEQEND
  5
44D4
330
44D0
100
AcDbEntity
  8
MODEL
  0
POLYLINE
  5
44D5
330
A
100
AcDbEntity
  8
MODEL
100
AcDb2dPolyline
 66
     1
 10
0.0
 20
0.0
 30
0.0
  0
VERTEX
  5
44D6
330
44D5
100
AcDbEntity
  8
MODEL
100
AcDbVertex
100
AcDb2dVertex
 10
612.7982719821989
 20
2217.272133912598
 30
0.0
  0
VERTEX
  5
44D7
330
44D5
100
AcDbEntity
  8
MODEL
100
AcDbVertex
100
AcDb2dVertex
 10
606.0252097900479
 20
2215.578868364558
 30
0.0
  0
VERTEX
  5
44D8
330
44D5
100
AcDbEntity
  8
MODEL
100
AcDbVertex
100
AcDb2dVertex
 10
603.0624257182021
 20
2216.002615388789
 30
0.0
  0
SEQEND
  5
44D9
330
44D5
100
AcDbEntity
  8
MODEL
  0
POLYLINE
  5
44DA
330
A
100
AcDbEntity
  8
MODEL
100
AcDb2dPolyline
 66
     1
 10
0.0
 20
0.0
 30
0.0
  0
VERTEX
  5
44DB
330
44DA
100
AcDbEntity
  8
MODEL
100
AcDbVertex
100
AcDb2dVertex
 10
593.7486039295504
 20
2219.812893509093
 30
0.0
  0
VERTEX
  5
44DC
330
44DA
100
AcDbEntity
  8
MODEL
100
AcDbVertex
100
AcDb2dVertex
 10
593.3248569053208
 20
2220.236640533324
 30
0.0
  0
VERTEX
  5
44DD
330
44DA
100
AcDbEntity
  8
MODEL
100
AcDbVertex
100
AcDb2dVertex
 10
589.5145787850192
 20
2225.738461652789
 30
0.0
  0
VERTEX
  5
44DE
330
44DA
100
AcDbEntity
  8
MODEL
100
AcDbVertex
100
AcDb2dVertex
 10
588.6688072854372
 20
2228.702968273515
 30
0.0
  0
SEQEND
  5
44DF
330
44DA
100
AcDbEntity
  8
MODEL
  0
POLYLINE
  5
44E0
330
A
100
AcDbEntity
  8
MODEL
100
AcDb2dPolyline
 66
     1
 10
0.0
 20
0.0
 30
0.0
  0
VERTEX
  5
44E1
330
44E0
100
AcDbEntity
  8
MODEL
100
AcDbVertex
100
AcDb2dVertex
 10
588.6688072854372
 20
2238.862561561744
 30
0.0
  0
VERTEX
  5
44E2
330
44E0
100
AcDbEntity
  8
MODEL
100
AcDbVertex
100
AcDb2dVertex
 10
592.4790854057424
 20
2244.789852254317
 30
0.0
  0
VERTEX
  5
44E3
330
44E0
100
AcDbEntity
  8
MODEL
100
AcDbVertex
100
AcDb2dVertex
 10
595.0181224533585
 20
2246.483117802355
 30
0.0
  0
SEQEND
  5
44E4
330
44E0
100
AcDbEntity
  8
MODEL
  0
POLYLINE
  5
44E5
330
A
100
AcDbEntity
  8
MODEL
100
AcDb2dPolyline
 66
     1
 10
0.0
 20
0.0
 30
0.0
  0
VERTEX
  5
44E6
330
44E5
100
AcDbEntity
  8
MODEL
100
AcDbVertex
100
AcDb2dVertex
 10
603.9081972177805
 20
2250.293395922659
 30
0.0
  0
VERTEX
  5
44E7
330
44E5
100
AcDbEntity
  8
MODEL
100
AcDbVertex
100
AcDb2dVertex
 10
604.3319442420102
 20
2250.293395922659
 30
0.0
  0
VERTEX
  5
44E8
330
44E5
100
AcDbEntity
  8
MODEL
100
AcDbVertex
100
AcDb2dVertex
 10
611.1050064341612
 20
2249.445901874201
 30
0.0
  0
VERTEX
  5
44E9
330
44E5
100
AcDbEntity
  8
MODEL
100
AcDbVertex
100
AcDb2dVertex
 10
613.6457660306619
 20
2248.176383350392
 30
0.0
  0
SEQEND
  5
44EA
330
44E5
100
AcDbEntity
  8
MODEL
  0
POLYLINE
  5
44EB
330
A
100
AcDbEntity
  8
MODEL
100
AcDb2dPolyline
 66
     1
 10
0.0
 20
0.0
 30
0.0
  0
VERTEX
  5
44EC
330
44EB
100
AcDbEntity
  8
MODEL
100
AcDbVertex
100
AcDb2dVertex
 10
620.8425752470425
 20
2240.97957413401
 30
0.0
  0
VERTEX
  5
44ED
330
44EB
100
AcDbEntity
  8
MODEL
100
AcDbVertex
100
AcDb2dVertex
 10
621.2645997223913
 20
2240.555827109782
 30
0.0
  0
VERTEX
  5
44EE
330
44EB
100
AcDbEntity
  8
MODEL
100
AcDbVertex
100
AcDb2dVertex
 10
622.957865270429
 20
2233.782764917628
 30
0.0
  0
SEQEND
  5
44EF
330
44EB
100
AcDbEntity
  8
MODEL
  0
POLYLINE
  5
44F0
330
A
100
AcDbEntity
  8
MODEL
100
AcDb2dPolyline
 66
     1
 10
0.0
 20
0.0
 30
0.0
  0
VERTEX
  5
44F1
330
44F0
100
AcDbEntity
  8
MODEL
100
AcDbVertex
100
AcDb2dVertex
 10
565.3851140882539
 20
981.9858239757014
 30
0.0
  0
VERTEX
  5
44F2
330
44F0
100
AcDbEntity
  8
MODEL
100
AcDbVertex
100
AcDb2dVertex
 10
565.3851140882539
 20
977.3280518069373
 30
0.0
  0
SEQEND
  5
44F3
330
44F0
100
AcDbEntity
  8
MODEL
  0
POLYLINE
  5
44F4
330
A
100
AcDbEntity
  8
MODEL
100
AcDb2dPolyline
 66
     1
 10
0.0
 20
0.0
 30
0.0
  0
VERTEX
  5
44F5
330
44F4
100
AcDbEntity
  8
MODEL
100
AcDbVertex
100
AcDb2dVertex
 10
565.3851140882539
 20
967.1684585187077
 30
0.0
  0
VERTEX
  5
44F6
330
44F4
100
AcDbEntity
  8
MODEL
100
AcDbVertex
100
AcDb2dVertex
 10
565.3851140882539
 20
957.0088652304789
 30
0.0
  0
SEQEND
  5
44F7
330
44F4
100
AcDbEntity
  8
MODEL
  0
POLYLINE
  5
44F8
330
A
100
AcDbEntity
  8
MODEL
100
AcDb2dPolyline
 66
     1
 10
0.0
 20
0.0
 30
0.0
  0
VERTEX
  5
44F9
330
44F8
100
AcDbEntity
  8
MODEL
100
AcDbVertex
100
AcDb2dVertex
 10
565.3851140882539
 20
946.8492719422497
 30
0.0
  0
VERTEX
  5
44FA
330
44F8
100
AcDbEntity
  8
MODEL
100
AcDbVertex
100
AcDb2dVertex
 10
565.3851140882539
 20
942.1914997734857
 30
0.0
  0
SEQEND
  5
44FB
330
44F8
100
AcDbEntity
  8
MODEL
  0
POLYLINE
  5
44FC
330
A
100
AcDbEntity
  8
MODEL
100
AcDb2dPolyline
 66
     1
 10
0.0
 20
0.0
 30
0.0
  0
VERTEX
  5
44FD
330
44FC
100
AcDbEntity
  8
MODEL
100
AcDbVertex
100
AcDb2dVertex
 10
585.2822761893617
 20
962.0869393257144
 30
0.0
  0
VERTEX
  5
44FE
330
44FC
100
AcDbEntity
  8
MODEL
100
AcDbVertex
100
AcDb2dVertex
 10
580.6245040205972
 20
962.0869393257144
 30
0.0
  0
SEQEND
  5
44FF
330
44FC
100
AcDbEntity
  8
MODEL
  0
POLYLINE
  5
4500
330
A
100
AcDbEntity
  8
MODEL
100
AcDb2dPolyline
 66
     1
 10
0.0
 20
0.0
 30
0.0
  0
VERTEX
  5
4501
330
4500
100
AcDbEntity
  8
MODEL
100
AcDbVertex
100
AcDb2dVertex
 10
570.4649107323708
 20
962.0869393257144
 30
0.0
  0
VERTEX
  5
4502
330
4500
100
AcDbEntity
  8
MODEL
100
AcDbVertex
100
AcDb2dVertex
 10
560.305317444137
 20
962.0869393257144
 30
0.0
  0
SEQEND
  5
4503
330
4500
100
AcDbEntity
  8
MODEL
  0
POLYLINE
  5
4504
330
A
100
AcDbEntity
  8
MODEL
100
AcDb2dPolyline
 66
     1
 10
0.0
 20
0.0
 30
0.0
  0
VERTEX
  5
4505
330
4504
100
AcDbEntity
  8
MODEL
100
AcDbVertex
100
AcDb2dVertex
 10
550.1457241559106
 20
962.0869393257144
 30
0.0
  0
VERTEX
  5
4506
330
4504
100
AcDbEntity
  8
MODEL
100
AcDbVertex
100
AcDb2dVertex
 10
545.0659275117937
 20
962.0869393257144
 30
0.0
  0
SEQEND
  5
4507
330
4504
100
AcDbEntity
  8
MODEL
  0
POLYLINE
  5
4508
330
A
100
AcDbEntity
  8
MODEL
100
AcDb2dPolyline
 66
     1
 10
0.0
 20
0.0
 30
0.0
  0
VERTEX
  5
4509
330
4508
100
AcDbEntity
  8
MODEL
100
AcDbVertex
100
AcDb2dVertex
 10
845.2080118320514
 20
981.9858239757014
 30
0.0
  0
VERTEX
  5
450A
330
4508
100
AcDbEntity
  8
MODEL
100
AcDbVertex
100
AcDb2dVertex
 10
845.2080118320514
 20
977.3280518069373
 30
0.0
  0
SEQEND
  5
450B
330
4508
100
AcDbEntity
  8
MODEL
  0
POLYLINE
  5
450C
330
A
100
AcDbEntity
  8
MODEL
100
AcDb2dPolyline
 66
     1
 10
0.0
 20
0.0
 30
0.0
  0
VERTEX
  5
450D
330
450C
100
AcDbEntity
  8
MODEL
100
AcDbVertex
100
AcDb2dVertex
 10
845.2080118320514
 20
967.1684585187077
 30
0.0
  0
VERTEX
  5
450E
330
450C
100
AcDbEntity
  8
MODEL
100
AcDbVertex
100
AcDb2dVertex
 10
845.2080118320514
 20
957.0088652304789
 30
0.0
  0
SEQEND
  5
450F
330
450C
100
AcDbEntity
  8
MODEL
  0
POLYLINE
  5
4510
330
A
100
AcDbEntity
  8
MODEL
100
AcDb2dPolyline
 66
     1
 10
0.0
 20
0.0
 30
0.0
  0
VERTEX
  5
4511
330
4510
100
AcDbEntity
  8
MODEL
100
AcDbVertex
100
AcDb2dVertex
 10
845.2080118320514
 20
946.8492719422497
 30
0.0
  0
VERTEX
  5
4512
330
4510
100
AcDbEntity
  8
MODEL
100
AcDbVertex
100
AcDb2dVertex
 10
845.2080118320514
 20
942.1914997734857
 30
0.0
  0
SEQEND
  5
4513
330
4510
100
AcDbEntity
  8
MODEL
  0
POLYLINE
  5
4514
330
A
100
AcDbEntity
  8
MODEL
100
AcDb2dPolyline
 66
     1
 10
0.0
 20
0.0
 30
0.0
  0
VERTEX
  5
4515
330
4514
100
AcDbEntity
  8
MODEL
100
AcDbVertex
100
AcDb2dVertex
 10
865.1051739331629
 20
962.0869393257144
 30
0.0
  0
VERTEX
  5
4516
330
4514
100
AcDbEntity
  8
MODEL
100
AcDbVertex
100
AcDb2dVertex
 10
860.4491243132793
 20
962.0869393257144
 30
0.0
  0
SEQEND
  5
4517
330
4514
100
AcDbEntity
  8
MODEL
  0
POLYLINE
  5
4518
330
A
100
AcDbEntity
  8
MODEL
100
AcDb2dPolyline
 66
     1
 10
0.0
 20
0.0
 30
0.0
  0
VERTEX
  5
4519
330
4518
100
AcDbEntity
  8
MODEL
100
AcDbVertex
100
AcDb2dVertex
 10
850.2895310250492
 20
962.0869393257144
 30
0.0
  0
VERTEX
  5
451A
330
4518
100
AcDbEntity
  8
MODEL
100
AcDbVertex
100
AcDb2dVertex
 10
840.1282151879418
 20
962.0869393257144
 30
0.0
  0
SEQEND
  5
451B
330
4518
100
AcDbEntity
  8
MODEL
  0
POLYLINE
  5
451C
330
A
100
AcDbEntity
  8
MODEL
100
AcDb2dPolyline
 66
     1
 10
0.0
 20
0.0
 30
0.0
  0
VERTEX
  5
451D
330
451C
100
AcDbEntity
  8
MODEL
100
AcDbVertex
100
AcDb2dVertex
 10
829.9686218997081
 20
962.0869393257144
 30
0.0
  0
VERTEX
  5
451E
330
451C
100
AcDbEntity
  8
MODEL
100
AcDbVertex
100
AcDb2dVertex
 10
825.3125722798245
 20
962.0869393257144
 30
0.0
  0
SEQEND
  5
451F
330
451C
100
AcDbEntity
  8
MODEL
  0
POLYLINE
  5
4520
330
A
100
AcDbEntity
  8
MODEL
100
AcDb2dPolyline
 66
     1
 10
0.0
 20
0.0
 30
0.0
  0
VERTEX
  5
4521
330
4520
100
AcDbEntity
  8
MODEL
100
AcDbVertex
100
AcDb2dVertex
 10
575.1226829011316
 20
962.0869393257144
 30
0.0
  0
VERTEX
  5
4522
330
4520
100
AcDbEntity
  8
MODEL
100
AcDbVertex
100
AcDb2dVertex
 10
572.1581762804049
 20
954.8935752070906
 30
0.0
  0
VERTEX
  5
4523
330
4520
100
AcDbEntity
  8
MODEL
100
AcDbVertex
100
AcDb2dVertex
 10
570.0411637081411
 20
954.0460811586318
 30
0.0
  0
SEQEND
  5
4524
330
4520
100
AcDbEntity
  8
MODEL
  0
POLYLINE
  5
4525
330
A
100
AcDbEntity
  8
MODEL
100
AcDb2dPolyline
 66
     1
 10
0.0
 20
0.0
 30
0.0
  0
VERTEX
  5
4526
330
4525
100
AcDbEntity
  8
MODEL
100
AcDbVertex
100
AcDb2dVertex
 10
560.7290644683667
 20
954.0460811586318
 30
0.0
  0
VERTEX
  5
4527
330
4525
100
AcDbEntity
  8
MODEL
100
AcDbVertex
100
AcDb2dVertex
 10
558.1883048718732
 20
954.8935752070906
 30
0.0
  0
VERTEX
  5
4528
330
4525
100
AcDbEntity
  8
MODEL
100
AcDbVertex
100
AcDb2dVertex
 10
555.2255208000238
 20
961.666637399243
 30
0.0
  0
SEQEND
  5
4529
330
4525
100
AcDbEntity
  8
MODEL
  0
POLYLINE
  5
452A
330
A
100
AcDbEntity
  8
MODEL
100
AcDb2dPolyline
 66
     1
 10
0.0
 20
0.0
 30
0.0
  0
VERTEX
  5
452B
330
452A
100
AcDbEntity
  8
MODEL
100
AcDbVertex
100
AcDb2dVertex
 10
559.8815704199073
 20
970.1312425905553
 30
0.0
  0
VERTEX
  5
452C
330
452A
100
AcDbEntity
  8
MODEL
100
AcDbVertex
100
AcDb2dVertex
 10
565.3851140882539
 20
972.2499777117014
 30
0.0
  0
VERTEX
  5
452D
330
452A
100
AcDbEntity
  8
MODEL
100
AcDbVertex
100
AcDb2dVertex
 10
569.195392208559
 20
970.5549896147845
 30
0.0
  0
SEQEND
  5
452E
330
452A
100
AcDbEntity
  8
MODEL
  0
POLYLINE
  5
452F
330
A
100
AcDbEntity
  8
MODEL
100
AcDb2dPolyline
 66
     1
 10
0.0
 20
0.0
 30
0.0
  0
VERTEX
  5
4530
330
452F
100
AcDbEntity
  8
MODEL
100
AcDbVertex
100
AcDb2dVertex
 10
574.6989358769019
 20
962.9344333741733
 30
0.0
  0
VERTEX
  5
4531
330
452F
100
AcDbEntity
  8
MODEL
100
AcDbVertex
100
AcDb2dVertex
 10
575.1226829011316
 20
962.0869393257144
 30
0.0
  0
SEQEND
  5
4532
330
452F
100
AcDbEntity
  8
MODEL
  0
POLYLINE
  5
4533
330
A
100
AcDbEntity
  8
MODEL
100
AcDb2dPolyline
 66
     1
 10
0.0
 20
0.0
 30
0.0
  0
VERTEX
  5
4534
330
4533
100
AcDbEntity
  8
MODEL
100
AcDbVertex
100
AcDb2dVertex
 10
855.3693276691624
 20
962.0869393257144
 30
0.0
  0
VERTEX
  5
4535
330
4533
100
AcDbEntity
  8
MODEL
100
AcDbVertex
100
AcDb2dVertex
 10
852.4048210484393
 20
954.8935752070906
 30
0.0
  0
VERTEX
  5
4536
330
4533
100
AcDbEntity
  8
MODEL
100
AcDbVertex
100
AcDb2dVertex
 10
850.2895310250492
 20
954.0460811586318
 30
0.0
  0
SEQEND
  5
4537
330
4533
100
AcDbEntity
  8
MODEL
  0
POLYLINE
  5
4538
330
A
100
AcDbEntity
  8
MODEL
100
AcDb2dPolyline
 66
     1
 10
0.0
 20
0.0
 30
0.0
  0
VERTEX
  5
4539
330
4538
100
AcDbEntity
  8
MODEL
100
AcDbVertex
100
AcDb2dVertex
 10
840.9757092363975
 20
953.6223341344025
 30
0.0
  0
VERTEX
  5
453A
330
4538
100
AcDbEntity
  8
MODEL
100
AcDbVertex
100
AcDb2dVertex
 10
838.0129251645517
 20
954.8935752070906
 30
0.0
  0
VERTEX
  5
453B
330
4538
100
AcDbEntity
  8
MODEL
100
AcDbVertex
100
AcDb2dVertex
 10
835.8959125922843
 20
961.2428903750138
 30
0.0
  0
SEQEND
  5
453C
330
4538
100
AcDbEntity
  8
MODEL
  0
POLYLINE
  5
453D
330
A
100
AcDbEntity
  8
MODEL
100
AcDb2dPolyline
 66
     1
 10
0.0
 20
0.0
 30
0.0
  0
VERTEX
  5
453E
330
453D
100
AcDbEntity
  8
MODEL
100
AcDbVertex
100
AcDb2dVertex
 10
839.2824436883598
 20
969.7074955663256
 30
0.0
  0
VERTEX
  5
453F
330
453D
100
AcDbEntity
  8
MODEL
100
AcDbVertex
100
AcDb2dVertex
 10
845.2080118320514
 20
972.2499777117014
 30
0.0
  0
VERTEX
  5
4540
330
453D
100
AcDbEntity
  8
MODEL
100
AcDbVertex
100
AcDb2dVertex
 10
848.5962654770115
 20
970.9787366390137
 30
0.0
  0
SEQEND
  5
4541
330
453D
100
AcDbEntity
  8
MODEL
  0
POLYLINE
  5
4542
330
A
100
AcDbEntity
  8
MODEL
100
AcDb2dPolyline
 66
     1
 10
0.0
 20
0.0
 30
0.0
  0
VERTEX
  5
4543
330
4542
100
AcDbEntity
  8
MODEL
100
AcDbVertex
100
AcDb2dVertex
 10
854.5218336207031
 20
963.7819274226317
 30
0.0
  0
VERTEX
  5
4544
330
4542
100
AcDbEntity
  8
MODEL
100
AcDbVertex
100
AcDb2dVertex
 10
855.3693276691624
 20
962.0869393257144
 30
0.0
  0
SEQEND
  5
4545
330
4542
100
AcDbEntity
  8
MODEL
  0
SPLINE
  5
4546
330
A
100
AcDbEntity
  8
MODEL
100
AcDbSpline
210
0.0
220
0.0
230
1.0
 70
     8
 71
     3
 72
    14
 73
    10
 74
     0
 42
0.000000001
 43
0.0000000001
 40
0.0
 40
0.0
 40
0.0
 40
0.0
 40
1.0
 40
1.0
 40
1.0
 40
2.0
 40
2.0
 40
2.0
 40
3.0
 40
3.0
 40
3.0
 40
3.0
 10
1645.73332000746
 20
867.2606235378189
 30
0.0
 10
1645.73332000746
 20
867.2606235378189
 30
0.0
 10
1641.923041887155
 20
867.2606235378189
 30
0.0
 10
1641.923041887155
 20
867.2606235378189
 30
0.0
 10
1565.352299118698
 20
869.7755449011311
 30
0.0
 10
1495.237669548663
 20
913.1183197940468
 30
0.0
 10
1457.77223143083
 20
979.8670888545548
 30
0.0
 10
1457.77223143083
 20
979.8670888545548
 30
0.0
 10
1456.080688431669
 20
983.2536199506312
 30
0.0
 10
1456.080688431669
 20
983.2536199506312
 30
0.0
  0
POLYLINE
  5
4547
330
A
100
AcDbEntity
  8
MODEL
100
AcDb2dPolyline
 66
     1
 10
0.0
 20
0.0
 30
0.0
  0
VERTEX
  5
4548
330
4547
100
AcDbEntity
  8
MODEL
100
AcDbVertex
100
AcDb2dVertex
 10
1729.552548458668
 20
880.8101930198823
 30
0.0
  0
VERTEX
  5
4549
330
4547
100
AcDbEntity
  8
MODEL
100
AcDbVertex
100
AcDb2dVertex
 10
1734.634067651662
 20
882.9254830432706
 30
0.0
  0
VERTEX
  5
454A
330
4547
100
AcDbEntity
  8
MODEL
100
AcDbVertex
100
AcDb2dVertex
 10
1738.864647698435
 20
885.0407730666593
 30
0.0
  0
SEQEND
  5
454B
330
4547
100
AcDbEntity
  8
MODEL
  0
POLYLINE
  5
454C
330
A
100
AcDbEntity
  8
MODEL
100
AcDb2dPolyline
 66
     1
 10
0.0
 20
0.0
 30
0.0
  0
VERTEX
  5
454D
330
454C
100
AcDbEntity
  8
MODEL
100
AcDbVertex
100
AcDb2dVertex
 10
1746.06145691482
 20
891.8138352588117
 30
0.0
  0
VERTEX
  5
454E
330
454C
100
AcDbEntity
  8
MODEL
100
AcDbVertex
100
AcDb2dVertex
 10
1747.332697987505
 20
893.0850763314997
 30
0.0
  0
VERTEX
  5
454F
330
454C
100
AcDbEntity
  8
MODEL
100
AcDbVertex
100
AcDb2dVertex
 10
1750.295482059351
 20
897.7428485002642
 30
0.0
  0
VERTEX
  5
4550
330
454C
100
AcDbEntity
  8
MODEL
100
AcDbVertex
100
AcDb2dVertex
 10
1751.566723132044
 20
900.2818855478818
 30
0.0
  0
SEQEND
  5
4551
330
454C
100
AcDbEntity
  8
MODEL
  0
POLYLINE
  5
4552
330
A
100
AcDbEntity
  8
MODEL
100
AcDb2dPolyline
 66
     1
 10
0.0
 20
0.0
 30
0.0
  0
VERTEX
  5
4553
330
4552
100
AcDbEntity
  8
MODEL
100
AcDbVertex
100
AcDb2dVertex
 10
1754.953254228119
 20
910.0177318118813
 30
0.0
  0
VERTEX
  5
4554
330
4552
100
AcDbEntity
  8
MODEL
100
AcDbVertex
100
AcDb2dVertex
 10
1755.377001252349
 20
912.9805158837285
 30
0.0
  0
VERTEX
  5
4555
330
4552
100
AcDbEntity
  8
MODEL
100
AcDbVertex
100
AcDb2dVertex
 10
1755.800748276575
 20
916.7907940040341
 30
0.0
  0
SEQEND
  5
4556
330
4552
100
AcDbEntity
  8
MODEL
  0
POLYLINE
  5
4557
330
A
100
AcDbEntity
  8
MODEL
100
AcDb2dPolyline
 66
     1
 10
0.0
 20
0.0
 30
0.0
  0
VERTEX
  5
4558
330
4557
100
AcDbEntity
  8
MODEL
100
AcDbVertex
100
AcDb2dVertex
 10
1757.068544251509
 20
926.9503872922633
 30
0.0
  0
VERTEX
  5
4559
330
4557
100
AcDbEntity
  8
MODEL
100
AcDbVertex
100
AcDb2dVertex
 10
1757.916038299965
 20
937.1134256782502
 30
0.0
  0
SEQEND
  5
455A
330
4557
100
AcDbEntity
  8
MODEL
  0
POLYLINE
  5
455B
330
A
100
AcDbEntity
  8
MODEL
100
AcDb2dPolyline
 66
     1
 10
0.0
 20
0.0
 30
0.0
  0
VERTEX
  5
455C
330
455B
100
AcDbEntity
  8
MODEL
100
AcDbVertex
100
AcDb2dVertex
 10
1759.18727937265
 20
947.273018966479
 30
0.0
  0
VERTEX
  5
455D
330
455B
100
AcDbEntity
  8
MODEL
100
AcDbVertex
100
AcDb2dVertex
 10
1760.455075347585
 20
957.0088652304789
 30
0.0
  0
SEQEND
  5
455E
330
455B
100
AcDbEntity
  8
MODEL
  0
POLYLINE
  5
455F
330
A
100
AcDbEntity
  8
MODEL
100
AcDb2dPolyline
 66
     1
 10
0.0
 20
0.0
 30
0.0
  0
VERTEX
  5
4560
330
455F
100
AcDbEntity
  8
MODEL
100
AcDbVertex
100
AcDb2dVertex
 10
1761.30256939604
 20
967.1684585187077
 30
0.0
  0
VERTEX
  5
4561
330
455F
100
AcDbEntity
  8
MODEL
100
AcDbVertex
100
AcDb2dVertex
 10
1762.573810468726
 20
977.3280518069373
 30
0.0
  0
SEQEND
  5
4562
330
455F
100
AcDbEntity
  8
MODEL
  0
POLYLINE
  5
4563
330
A
100
AcDbEntity
  8
MODEL
100
AcDb2dPolyline
 66
     1
 10
0.0
 20
0.0
 30
0.0
  0
VERTEX
  5
4564
330
4563
100
AcDbEntity
  8
MODEL
100
AcDbVertex
100
AcDb2dVertex
 10
1763.84160644366
 20
987.487645095166
 30
0.0
  0
VERTEX
  5
4565
330
4563
100
AcDbEntity
  8
MODEL
100
AcDbVertex
100
AcDb2dVertex
 10
1764.689100492116
 20
997.6472383833952
 30
0.0
  0
SEQEND
  5
4566
330
4563
100
AcDbEntity
  8
MODEL
  0
POLYLINE
  5
4567
330
A
100
AcDbEntity
  8
MODEL
100
AcDb2dPolyline
 66
     1
 10
0.0
 20
0.0
 30
0.0
  0
VERTEX
  5
4568
330
4567
100
AcDbEntity
  8
MODEL
100
AcDbVertex
100
AcDb2dVertex
 10
1765.960341564808
 20
1007.810276769383
 30
0.0
  0
VERTEX
  5
4569
330
4567
100
AcDbEntity
  8
MODEL
100
AcDbVertex
100
AcDb2dVertex
 10
1766.384088589038
 20
1011.61710979193
 30
0.0
  0
SEQEND
  5
456A
330
4567
100
AcDbEntity
  8
MODEL
  0
POLYLINE
  5
456B
330
A
100
AcDbEntity
  8
MODEL
100
AcDb2dPolyline
 66
     1
 10
0.0
 20
0.0
 30
0.0
  0
VERTEX
  5
456C
330
456B
100
AcDbEntity
  8
MODEL
100
AcDbVertex
100
AcDb2dVertex
 10
1668.167796607307
 20
881.2304949463537
 30
0.0
  0
VERTEX
  5
456D
330
456B
100
AcDbEntity
  8
MODEL
100
AcDbVertex
100
AcDb2dVertex
 10
1663.089722512071
 20
882.0779889948126
 30
0.0
  0
VERTEX
  5
456E
330
456B
100
AcDbEntity
  8
MODEL
100
AcDbVertex
100
AcDb2dVertex
 10
1658.008203319077
 20
882.5017360190418
 30
0.0
  0
SEQEND
  5
456F
330
456B
100
AcDbEntity
  8
MODEL
  0
POLYLINE
  5
4570
330
A
100
AcDbEntity
  8
MODEL
100
AcDb2dPolyline
 66
     1
 10
0.0
 20
0.0
 30
0.0
  0
VERTEX
  5
4571
330
4570
100
AcDbEntity
  8
MODEL
100
AcDbVertex
100
AcDb2dVertex
 10
1647.848610030851
 20
884.1967241159587
 30
0.0
  0
VERTEX
  5
4572
330
4570
100
AcDbEntity
  8
MODEL
100
AcDbVertex
100
AcDb2dVertex
 10
1643.614584886312
 20
885.0407730666593
 30
0.0
  0
VERTEX
  5
4573
330
4570
100
AcDbEntity
  8
MODEL
100
AcDbVertex
100
AcDb2dVertex
 10
1638.960257815309
 20
885.8882671151177
 30
0.0
  0
VERTEX
  5
4574
330
4570
100
AcDbEntity
  8
MODEL
100
AcDbVertex
100
AcDb2dVertex
 10
1637.689016742617
 20
885.8882671151177
 30
0.0
  0
SEQEND
  5
4575
330
4570
100
AcDbEntity
  8
MODEL
  0
POLYLINE
  5
4576
330
A
100
AcDbEntity
  8
MODEL
100
AcDb2dPolyline
 66
     1
 10
0.0
 20
0.0
 30
0.0
  0
VERTEX
  5
4577
330
4576
100
AcDbEntity
  8
MODEL
100
AcDbVertex
100
AcDb2dVertex
 10
1627.95317047862
 20
888.4273041627357
 30
0.0
  0
VERTEX
  5
4578
330
4576
100
AcDbEntity
  8
MODEL
100
AcDbVertex
100
AcDb2dVertex
 10
1624.990386406774
 20
888.8510511869649
 30
0.0
  0
VERTEX
  5
4579
330
4576
100
AcDbEntity
  8
MODEL
100
AcDbVertex
100
AcDb2dVertex
 10
1620.332614238006
 20
890.1222922596526
 30
0.0
  0
VERTEX
  5
457A
330
4576
100
AcDbEntity
  8
MODEL
100
AcDbVertex
100
AcDb2dVertex
 10
1618.217324214616
 20
890.9697863081115
 30
0.0
  0
SEQEND
  5
457B
330
4576
100
AcDbEntity
  8
MODEL
  0
POLYLINE
  5
457C
330
A
100
AcDbEntity
  8
MODEL
100
AcDb2dPolyline
 66
     1
 10
0.0
 20
0.0
 30
0.0
  0
VERTEX
  5
457D
330
457C
100
AcDbEntity
  8
MODEL
100
AcDbVertex
100
AcDb2dVertex
 10
1608.478032852861
 20
893.508823355729
 30
0.0
  0
VERTEX
  5
457E
330
457C
100
AcDbEntity
  8
MODEL
100
AcDbVertex
100
AcDb2dVertex
 10
1607.210236877934
 20
893.9325703799586
 30
0.0
  0
VERTEX
  5
457F
330
457C
100
AcDbEntity
  8
MODEL
100
AcDbVertex
100
AcDb2dVertex
 10
1602.976211733395
 20
895.2003663548885
 30
0.0
  0
VERTEX
  5
4580
330
457C
100
AcDbEntity
  8
MODEL
100
AcDbVertex
100
AcDb2dVertex
 10
1598.742186588864
 20
896.4716074275761
 30
0.0
  0
SEQEND
  5
4581
330
457C
100
AcDbEntity
  8
MODEL
  0
POLYLINE
  5
4582
330
A
100
AcDbEntity
  8
MODEL
100
AcDb2dPolyline
 66
     1
 10
0.0
 20
0.0
 30
0.0
  0
VERTEX
  5
4583
330
4582
100
AcDbEntity
  8
MODEL
100
AcDbVertex
100
AcDb2dVertex
 10
1589.43008734909
 20
899.8581385236525
 30
0.0
  0
VERTEX
  5
4584
330
4582
100
AcDbEntity
  8
MODEL
100
AcDbVertex
100
AcDb2dVertex
 10
1586.467303277244
 20
901.1293795963402
 30
0.0
  0
VERTEX
  5
4585
330
4582
100
AcDbEntity
  8
MODEL
100
AcDbVertex
100
AcDb2dVertex
 10
1582.657025156939
 20
902.3971755712705
 30
0.0
  0
VERTEX
  5
4586
330
4582
100
AcDbEntity
  8
MODEL
100
AcDbVertex
100
AcDb2dVertex
 10
1580.114543011561
 20
903.6684166439582
 30
0.0
  0
SEQEND
  5
4587
330
4582
100
AcDbEntity
  8
MODEL
  0
POLYLINE
  5
4588
330
A
100
AcDbEntity
  8
MODEL
100
AcDb2dPolyline
 66
     1
 10
0.0
 20
0.0
 30
0.0
  0
VERTEX
  5
4589
330
4588
100
AcDbEntity
  8
MODEL
100
AcDbVertex
100
AcDb2dVertex
 10
1570.802443771794
 20
907.4786947642638
 30
0.0
  0
VERTEX
  5
458A
330
4588
100
AcDbEntity
  8
MODEL
100
AcDbVertex
100
AcDb2dVertex
 10
1566.992165651488
 20
909.5939847876525
 30
0.0
  0
VERTEX
  5
458B
330
4588
100
AcDbEntity
  8
MODEL
100
AcDbVertex
100
AcDb2dVertex
 10
1563.18188753118
 20
911.2889728845694
 30
0.0
  0
VERTEX
  5
458C
330
4588
100
AcDbEntity
  8
MODEL
100
AcDbVertex
100
AcDb2dVertex
 10
1561.914091556253
 20
912.1364669330278
 30
0.0
  0
SEQEND
  5
458D
330
4588
100
AcDbEntity
  8
MODEL
  0
POLYLINE
  5
458E
330
A
100
AcDbEntity
  8
MODEL
100
AcDb2dPolyline
 66
     1
 10
0.0
 20
0.0
 30
0.0
  0
VERTEX
  5
458F
330
458E
100
AcDbEntity
  8
MODEL
100
AcDbVertex
100
AcDb2dVertex
 10
1553.022294242953
 20
916.7907940040341
 30
0.0
  0
VERTEX
  5
4590
330
458E
100
AcDbEntity
  8
MODEL
100
AcDbVertex
100
AcDb2dVertex
 10
1552.598547218724
 20
917.2145410282633
 30
0.0
  0
VERTEX
  5
4591
330
458E
100
AcDbEntity
  8
MODEL
100
AcDbVertex
100
AcDb2dVertex
 10
1549.212016122644
 20
919.3332761494098
 30
0.0
  0
VERTEX
  5
4592
330
458E
100
AcDbEntity
  8
MODEL
100
AcDbVertex
100
AcDb2dVertex
 10
1545.401738002339
 20
921.4485661727986
 30
0.0
  0
VERTEX
  5
4593
330
458E
100
AcDbEntity
  8
MODEL
100
AcDbVertex
100
AcDb2dVertex
 10
1544.554243953884
 20
922.296060221257
 30
0.0
  0
SEQEND
  5
4594
330
458E
100
AcDbEntity
  8
MODEL
  0
POLYLINE
  5
4595
330
A
100
AcDbEntity
  8
MODEL
100
AcDb2dPolyline
 66
     1
 10
0.0
 20
0.0
 30
0.0
  0
VERTEX
  5
4596
330
4595
100
AcDbEntity
  8
MODEL
100
AcDbVertex
100
AcDb2dVertex
 10
1536.089638762572
 20
927.7978813407217
 30
0.0
  0
VERTEX
  5
4597
330
4595
100
AcDbEntity
  8
MODEL
100
AcDbVertex
100
AcDb2dVertex
 10
1535.665891738342
 20
927.7978813407217
 30
0.0
  0
VERTEX
  5
4598
330
4595
100
AcDbEntity
  8
MODEL
100
AcDbVertex
100
AcDb2dVertex
 10
1532.279360642267
 20
930.3369183883397
 30
0.0
  0
VERTEX
  5
4599
330
4595
100
AcDbEntity
  8
MODEL
100
AcDbVertex
100
AcDb2dVertex
 10
1529.316576570418
 20
932.4556535094857
 30
0.0
  0
VERTEX
  5
459A
330
4595
100
AcDbEntity
  8
MODEL
100
AcDbVertex
100
AcDb2dVertex
 10
1528.045335497729
 20
933.7268945821738
 30
0.0
  0
SEQEND
  5
459B
330
4595
100
AcDbEntity
  8
MODEL
  0
POLYLINE
  5
459C
330
A
100
AcDbEntity
  8
MODEL
100
AcDb2dPolyline
 66
     1
 10
0.0
 20
0.0
 30
0.0
  0
VERTEX
  5
459D
330
459C
100
AcDbEntity
  8
MODEL
100
AcDbVertex
100
AcDb2dVertex
 10
1520.424779257118
 20
940.0762097500974
 30
0.0
  0
VERTEX
  5
459E
330
459C
100
AcDbEntity
  8
MODEL
100
AcDbVertex
100
AcDb2dVertex
 10
1517.461995185269
 20
942.6152467977154
 30
0.0
  0
VERTEX
  5
459F
330
459C
100
AcDbEntity
  8
MODEL
100
AcDbVertex
100
AcDb2dVertex
 10
1514.499211113423
 20
945.1542838453329
 30
0.0
  0
VERTEX
  5
45A0
330
459C
100
AcDbEntity
  8
MODEL
100
AcDbVertex
100
AcDb2dVertex
 10
1512.807668114266
 20
946.8492719422497
 30
0.0
  0
SEQEND
  5
45A1
330
459C
100
AcDbEntity
  8
MODEL
  0
POLYLINE
  5
45A2
330
A
100
AcDbEntity
  8
MODEL
100
AcDb2dPolyline
 66
     1
 10
0.0
 20
0.0
 30
0.0
  0
VERTEX
  5
45A3
330
45A2
100
AcDbEntity
  8
MODEL
100
AcDbVertex
100
AcDb2dVertex
 10
1505.610858897882
 20
953.6223341344025
 30
0.0
  0
VERTEX
  5
45A4
330
45A2
100
AcDbEntity
  8
MODEL
100
AcDbVertex
100
AcDb2dVertex
 10
1503.492123776741
 20
956.1613711820205
 30
0.0
  0
VERTEX
  5
45A5
330
45A2
100
AcDbEntity
  8
MODEL
100
AcDbVertex
100
AcDb2dVertex
 10
1500.953086729121
 20
959.1241552538672
 30
0.0
  0
VERTEX
  5
45A6
330
45A2
100
AcDbEntity
  8
MODEL
100
AcDbVertex
100
AcDb2dVertex
 10
1498.834351607973
 20
961.2428903750138
 30
0.0
  0
SEQEND
  5
45A7
330
45A2
100
AcDbEntity
  8
MODEL
  0
POLYLINE
  5
45A8
330
A
100
AcDbEntity
  8
MODEL
100
AcDb2dPolyline
 66
     1
 10
0.0
 20
0.0
 30
0.0
  0
VERTEX
  5
45A9
330
45A8
100
AcDbEntity
  8
MODEL
100
AcDbVertex
100
AcDb2dVertex
 10
1492.485036440051
 20
969.2837485420964
 30
0.0
  0
VERTEX
  5
45AA
330
45A8
100
AcDbEntity
  8
MODEL
100
AcDbVertex
100
AcDb2dVertex
 10
1491.217240465121
 20
970.9787366390137
 30
0.0
  0
VERTEX
  5
45AB
330
45A8
100
AcDbEntity
  8
MODEL
100
AcDbVertex
100
AcDb2dVertex
 10
1489.098505343976
 20
973.9415207108605
 30
0.0
  0
VERTEX
  5
45AC
330
45A8
100
AcDbEntity
  8
MODEL
100
AcDbVertex
100
AcDb2dVertex
 10
1486.983215320586
 20
977.3280518069373
 30
0.0
  0
VERTEX
  5
45AD
330
45A8
100
AcDbEntity
  8
MODEL
100
AcDbVertex
100
AcDb2dVertex
 10
1486.559468296356
 20
977.7517988311661
 30
0.0
  0
SEQEND
  5
45AE
330
45A8
100
AcDbEntity
  8
MODEL
  0
POLYLINE
  5
45AF
330
A
100
AcDbEntity
  8
MODEL
100
AcDb2dPolyline
 66
     1
 10
0.0
 20
0.0
 30
0.0
  0
VERTEX
  5
45B0
330
45AF
100
AcDbEntity
  8
MODEL
100
AcDbVertex
100
AcDb2dVertex
 10
1481.057647176894
 20
986.2198491202362
 30
0.0
  0
VERTEX
  5
45B1
330
45AF
100
AcDbEntity
  8
MODEL
100
AcDbVertex
100
AcDb2dVertex
 10
1480.633900152664
 20
987.0638980709364
 30
0.0
  0
VERTEX
  5
45B2
330
45AF
100
AcDbEntity
  8
MODEL
100
AcDbVertex
100
AcDb2dVertex
 10
1478.515165031516
 20
990.4504291670132
 30
0.0
  0
VERTEX
  5
45B3
330
45AF
100
AcDbEntity
  8
MODEL
100
AcDbVertex
100
AcDb2dVertex
 10
1476.399875008126
 20
993.8369602630892
 30
0.0
  0
VERTEX
  5
45B4
330
45AF
100
AcDbEntity
  8
MODEL
100
AcDbVertex
100
AcDb2dVertex
 10
1475.976127983896
 20
995.1082013357773
 30
0.0
  0
SEQEND
  5
45B5
330
45AF
100
AcDbEntity
  8
MODEL
  0
POLYLINE
  5
45B6
330
A
100
AcDbEntity
  8
MODEL
100
AcDb2dPolyline
 66
     1
 10
0.0
 20
0.0
 30
0.0
  0
VERTEX
  5
45B7
330
45B6
100
AcDbEntity
  8
MODEL
100
AcDbVertex
100
AcDb2dVertex
 10
1471.318355815132
 20
1003.999998649077
 30
0.0
  0
VERTEX
  5
45B8
330
45B6
100
AcDbEntity
  8
MODEL
100
AcDbVertex
100
AcDb2dVertex
 10
1470.894608790902
 20
1004.844047599777
 30
0.0
  0
VERTEX
  5
45B9
330
45B6
100
AcDbEntity
  8
MODEL
100
AcDbVertex
100
AcDb2dVertex
 10
1469.203065791745
 20
1008.230578695853
 30
0.0
  0
VERTEX
  5
45BA
330
45B6
100
AcDbEntity
  8
MODEL
100
AcDbVertex
100
AcDb2dVertex
 10
1467.508077694827
 20
1012.040856816159
 30
0.0
  0
VERTEX
  5
45BB
330
45B6
100
AcDbEntity
  8
MODEL
100
AcDbVertex
100
AcDb2dVertex
 10
1467.084330670597
 20
1013.312097888846
 30
0.0
  0
SEQEND
  5
45BC
330
45B6
100
AcDbEntity
  8
MODEL
  0
POLYLINE
  5
45BD
330
A
100
AcDbEntity
  8
MODEL
100
AcDb2dPolyline
 66
     1
 10
0.0
 20
0.0
 30
0.0
  0
VERTEX
  5
45BE
330
45BD
100
AcDbEntity
  8
MODEL
100
AcDbVertex
100
AcDb2dVertex
 10
1463.277497648054
 20
1022.624197128617
 30
0.0
  0
VERTEX
  5
45BF
330
45BD
100
AcDbEntity
  8
MODEL
100
AcDbVertex
100
AcDb2dVertex
 10
1462.85375062382
 20
1023.471691177076
 30
0.0
  0
VERTEX
  5
45C0
330
45BD
100
AcDbEntity
  8
MODEL
100
AcDbVertex
100
AcDb2dVertex
 10
1461.582509551131
 20
1027.281969297381
 30
0.0
  0
SEQEND
  5
45C1
330
45BD
100
AcDbEntity
  8
MODEL
  0
POLYLINE
  5
45C2
330
A
100
AcDbEntity
  8
MODEL
100
AcDb2dPolyline
 66
     1
 10
0.0
 20
0.0
 30
0.0
  0
VERTEX
  5
45C3
330
45C2
100
AcDbEntity
  8
MODEL
100
AcDbVertex
100
AcDb2dVertex
 10
440.078295886789
 20
2160.968901254229
 30
0.0
  0
VERTEX
  5
45C4
330
45C2
100
AcDbEntity
  8
MODEL
100
AcDbVertex
100
AcDb2dVertex
 10
440.078295886789
 20
1879.028990938161
 30
0.0
  0
SEQEND
  5
45C5
330
45C2
100
AcDbEntity
  8
MODEL
  0
POLYLINE
  5
45C6
330
A
100
AcDbEntity
  8
MODEL
100
AcDb2dPolyline
 66
     1
 10
0.0
 20
0.0
 30
0.0
  0
VERTEX
  5
45C7
330
45C6
100
AcDbEntity
  8
MODEL
100
AcDbVertex
100
AcDb2dVertex
 10
970.0928055581676
 20
2160.968901254229
 30
0.0
  0
VERTEX
  5
45C8
330
45C6
100
AcDbEntity
  8
MODEL
100
AcDbVertex
100
AcDb2dVertex
 10
970.0928055581676
 20
1879.028990938161
 30
0.0
  0
SEQEND
  5
45C9
330
45C6
100
AcDbEntity
  8
MODEL
  0
POLYLINE
  5
45CA
330
A
100
AcDbEntity
  8
MODEL
100
AcDb2dPolyline
 66
     1
 10
0.0
 20
0.0
 30
0.0
  0
VERTEX
  5
45CB
330
45CA
100
AcDbEntity
  8
MODEL
100
AcDbVertex
100
AcDb2dVertex
 10
735.9880776113928
 20
876.9999148995767
 30
0.0
  0
VERTEX
  5
45CC
330
45CA
100
AcDbEntity
  8
MODEL
100
AcDbVertex
100
AcDb2dVertex
 10
742.3391153281987
 20
876.9999148995767
 30
0.0
  0
VERTEX
  5
45CD
330
45CA
100
AcDbEntity
  8
MODEL
100
AcDbVertex
100
AcDb2dVertex
 10
746.1493934485038
 20
876.5761678753474
 30
0.0
  0
SEQEND
  5
45CE
330
45CA
100
AcDbEntity
  8
MODEL
  0
POLYLINE
  5
45CF
330
A
100
AcDbEntity
  8
MODEL
100
AcDb2dPolyline
 66
     1
 10
0.0
 20
0.0
 30
0.0
  0
VERTEX
  5
45D0
330
45CF
100
AcDbEntity
  8
MODEL
100
AcDbVertex
100
AcDb2dVertex
 10
756.3089867367339
 20
876.5761678753474
 30
0.0
  0
VERTEX
  5
45D1
330
45CF
100
AcDbEntity
  8
MODEL
100
AcDbVertex
100
AcDb2dVertex
 10
760.5412893323878
 20
876.5761678753474
 30
0.0
  0
VERTEX
  5
45D2
330
45CF
100
AcDbEntity
  8
MODEL
100
AcDbVertex
100
AcDb2dVertex
 10
766.4685800249604
 20
876.9999148995767
 30
0.0
  0
SEQEND
  5
45D3
330
45CF
100
AcDbEntity
  8
MODEL
  0
POLYLINE
  5
45D4
330
A
100
AcDbEntity
  8
MODEL
100
AcDb2dPolyline
 66
     1
 10
0.0
 20
0.0
 30
0.0
  0
VERTEX
  5
45D5
330
45D4
100
AcDbEntity
  8
MODEL
100
AcDbVertex
100
AcDb2dVertex
 10
776.6281733131905
 20
877.4202168260481
 30
0.0
  0
VERTEX
  5
45D6
330
45D4
100
AcDbEntity
  8
MODEL
100
AcDbVertex
100
AcDb2dVertex
 10
777.8994143858758
 20
877.4202168260481
 30
0.0
  0
VERTEX
  5
45D7
330
45D4
100
AcDbEntity
  8
MODEL
100
AcDbVertex
100
AcDb2dVertex
 10
783.4029580542224
 20
877.8439638502773
 30
0.0
  0
VERTEX
  5
45D8
330
45D4
100
AcDbEntity
  8
MODEL
100
AcDbVertex
100
AcDb2dVertex
 10
786.7894891502979
 20
878.2677108745065
 30
0.0
  0
SEQEND
  5
45D9
330
45D4
100
AcDbEntity
  8
MODEL
  0
POLYLINE
  5
45DA
330
A
100
AcDbEntity
  8
MODEL
100
AcDb2dPolyline
 66
     1
 10
0.0
 20
0.0
 30
0.0
  0
VERTEX
  5
45DB
330
45DA
100
AcDbEntity
  8
MODEL
100
AcDbVertex
100
AcDb2dVertex
 10
796.9490824385243
 20
878.6914578987357
 30
0.0
  0
VERTEX
  5
45DC
330
45DA
100
AcDbEntity
  8
MODEL
100
AcDbVertex
100
AcDb2dVertex
 10
799.9118665103774
 20
879.115204922965
 30
0.0
  0
VERTEX
  5
45DD
330
45DA
100
AcDbEntity
  8
MODEL
100
AcDbVertex
100
AcDb2dVertex
 10
805.4154101787203
 20
879.9626989714238
 30
0.0
  0
VERTEX
  5
45DE
330
45DA
100
AcDbEntity
  8
MODEL
100
AcDbVertex
100
AcDb2dVertex
 10
807.1086757267544
 20
879.9626989714238
 30
0.0
  0
SEQEND
  5
45DF
330
45DA
100
AcDbEntity
  8
MODEL
  0
POLYLINE
  5
45E0
330
A
100
AcDbEntity
  8
MODEL
100
AcDb2dPolyline
 66
     1
 10
0.0
 20
0.0
 30
0.0
  0
VERTEX
  5
45E1
330
45E0
100
AcDbEntity
  8
MODEL
100
AcDbVertex
100
AcDb2dVertex
 10
817.2682690149882
 20
881.6542419705829
 30
0.0
  0
VERTEX
  5
45E2
330
45E0
100
AcDbEntity
  8
MODEL
100
AcDbVertex
100
AcDb2dVertex
 10
820.6548001110637
 20
882.0779889948126
 30
0.0
  0
VERTEX
  5
45E3
330
45E0
100
AcDbEntity
  8
MODEL
100
AcDbVertex
100
AcDb2dVertex
 10
825.7345967551769
 20
883.3492300675002
 30
0.0
  0
VERTEX
  5
45E4
330
45E0
100
AcDbEntity
  8
MODEL
100
AcDbVertex
100
AcDb2dVertex
 10
827.4295848520956
 20
883.7729770917294
 30
0.0
  0
SEQEND
  5
45E5
330
45E0
100
AcDbEntity
  8
MODEL
  0
POLYLINE
  5
45E6
330
A
100
AcDbEntity
  8
MODEL
100
AcDb2dPolyline
 66
     1
 10
0.0
 20
0.0
 30
0.0
  0
VERTEX
  5
45E7
330
45E6
100
AcDbEntity
  8
MODEL
100
AcDbVertex
100
AcDb2dVertex
 10
837.1654311160923
 20
885.8882671151177
 30
0.0
  0
VERTEX
  5
45E8
330
45E6
100
AcDbEntity
  8
MODEL
100
AcDbVertex
100
AcDb2dVertex
 10
840.5519622121678
 20
886.312014139347
 30
0.0
  0
VERTEX
  5
45E9
330
45E6
100
AcDbEntity
  8
MODEL
100
AcDbVertex
100
AcDb2dVertex
 10
845.2080118320514
 20
887.583255212035
 30
0.0
  0
VERTEX
  5
45EA
330
45E6
100
AcDbEntity
  8
MODEL
100
AcDbVertex
100
AcDb2dVertex
 10
846.9012773800928
 20
888.4273041627357
 30
0.0
  0
SEQEND
  5
45EB
330
45E6
100
AcDbEntity
  8
MODEL
  0
POLYLINE
  5
45EC
330
A
100
AcDbEntity
  8
MODEL
100
AcDb2dPolyline
 66
     1
 10
0.0
 20
0.0
 30
0.0
  0
VERTEX
  5
45ED
330
45EC
100
AcDbEntity
  8
MODEL
100
AcDbVertex
100
AcDb2dVertex
 10
856.6388461929705
 20
891.3935333323407
 30
0.0
  0
VERTEX
  5
45EE
330
45EC
100
AcDbEntity
  8
MODEL
100
AcDbVertex
100
AcDb2dVertex
 10
858.7558587652379
 20
891.8138352588117
 30
0.0
  0
VERTEX
  5
45EF
330
45EC
100
AcDbEntity
  8
MODEL
100
AcDbVertex
100
AcDb2dVertex
 10
862.9881613608954
 20
893.508823355729
 30
0.0
  0
VERTEX
  5
45F0
330
45EC
100
AcDbEntity
  8
MODEL
100
AcDbVertex
100
AcDb2dVertex
 10
866.3746924569709
 20
894.7800644284171
 30
0.0
  0
SEQEND
  5
45F1
330
45EC
100
AcDbEntity
  8
MODEL
  0
POLYLINE
  5
45F2
330
A
100
AcDbEntity
  8
MODEL
100
AcDb2dPolyline
 66
     1
 10
0.0
 20
0.0
 30
0.0
  0
VERTEX
  5
45F3
330
45F2
100
AcDbEntity
  8
MODEL
100
AcDbVertex
100
AcDb2dVertex
 10
875.688514245619
 20
898.5868974509644
 30
0.0
  0
VERTEX
  5
45F4
330
45F2
100
AcDbEntity
  8
MODEL
100
AcDbVertex
100
AcDb2dVertex
 10
879.4987923659278
 20
900.2818855478818
 30
0.0
  0
VERTEX
  5
45F5
330
45F2
100
AcDbEntity
  8
MODEL
100
AcDbVertex
100
AcDb2dVertex
 10
883.3090704862329
 20
902.3971755712705
 30
0.0
  0
VERTEX
  5
45F6
330
45F2
100
AcDbEntity
  8
MODEL
100
AcDbVertex
100
AcDb2dVertex
 10
884.578589010041
 20
903.2446696197289
 30
0.0
  0
SEQEND
  5
45F7
330
45F2
100
AcDbEntity
  8
MODEL
  0
POLYLINE
  5
45F8
330
A
100
AcDbEntity
  8
MODEL
100
AcDb2dPolyline
 66
     1
 10
0.0
 20
0.0
 30
0.0
  0
VERTEX
  5
45F9
330
45F8
100
AcDbEntity
  8
MODEL
100
AcDbVertex
100
AcDb2dVertex
 10
893.468663774463
 20
907.902441788493
 30
0.0
  0
VERTEX
  5
45FA
330
45F8
100
AcDbEntity
  8
MODEL
100
AcDbVertex
100
AcDb2dVertex
 10
894.7381822982711
 20
908.7499358369519
 30
0.0
  0
VERTEX
  5
45FB
330
45F8
100
AcDbEntity
  8
MODEL
100
AcDbVertex
100
AcDb2dVertex
 10
898.5484604185763
 20
910.8652258603402
 30
0.0
  0
VERTEX
  5
45FC
330
45F8
100
AcDbEntity
  8
MODEL
100
AcDbVertex
100
AcDb2dVertex
 10
901.9349915146518
 20
912.9805158837285
 30
0.0
  0
VERTEX
  5
45FD
330
45F8
100
AcDbEntity
  8
MODEL
100
AcDbVertex
100
AcDb2dVertex
 10
902.3587385388814
 20
912.9805158837285
 30
0.0
  0
SEQEND
  5
45FE
330
45F8
100
AcDbEntity
  8
MODEL
  0
POLYLINE
  5
45FF
330
A
100
AcDbEntity
  8
MODEL
100
AcDb2dPolyline
 66
     1
 10
0.0
 20
0.0
 30
0.0
  0
VERTEX
  5
4600
330
45FF
100
AcDbEntity
  8
MODEL
100
AcDbVertex
100
AcDb2dVertex
 10
910.4030418037214
 20
919.3332761494098
 30
0.0
  0
VERTEX
  5
4601
330
45FF
100
AcDbEntity
  8
MODEL
100
AcDbVertex
100
AcDb2dVertex
 10
912.0963073517592
 20
920.6010721243397
 30
0.0
  0
VERTEX
  5
4602
330
45FF
100
AcDbEntity
  8
MODEL
100
AcDbVertex
100
AcDb2dVertex
 10
915.4828384478346
 20
923.1435542697154
 30
0.0
  0
VERTEX
  5
4603
330
45FF
100
AcDbEntity
  8
MODEL
100
AcDbVertex
100
AcDb2dVertex
 10
918.4456225196841
 20
925.6825913173334
 30
0.0
  0
SEQEND
  5
4604
330
45FF
100
AcDbEntity
  8
MODEL
  0
POLYLINE
  5
4605
330
A
100
AcDbEntity
  8
MODEL
100
AcDb2dPolyline
 66
     1
 10
0.0
 20
0.0
 30
0.0
  0
VERTEX
  5
4606
330
4605
100
AcDbEntity
  8
MODEL
100
AcDbVertex
100
AcDb2dVertex
 10
925.6424317360647
 20
932.4556535094857
 30
0.0
  0
VERTEX
  5
4607
330
4605
100
AcDbEntity
  8
MODEL
100
AcDbVertex
100
AcDb2dVertex
 10
927.3356972841061
 20
934.1471965086453
 30
0.0
  0
VERTEX
  5
4608
330
4605
100
AcDbEntity
  8
MODEL
100
AcDbVertex
100
AcDb2dVertex
 10
930.2984813559519
 20
937.1134256782502
 30
0.0
  0
VERTEX
  5
4609
330
4605
100
AcDbEntity
  8
MODEL
100
AcDbVertex
100
AcDb2dVertex
 10
932.4154939282157
 20
940.0762097500974
 30
0.0
  0
SEQEND
  5
460A
330
4605
100
AcDbEntity
  8
MODEL
  0
POLYLINE
  5
460B
330
A
100
AcDbEntity
  8
MODEL
100
AcDb2dPolyline
 66
     1
 10
0.0
 20
0.0
 30
0.0
  0
VERTEX
  5
460C
330
460B
100
AcDbEntity
  8
MODEL
100
AcDbVertex
100
AcDb2dVertex
 10
938.7648090961407
 20
948.1170679171801
 30
0.0
  0
VERTEX
  5
460D
330
460B
100
AcDbEntity
  8
MODEL
100
AcDbVertex
100
AcDb2dVertex
 10
940.4580746441784
 20
949.8120560140969
 30
0.0
  0
VERTEX
  5
460E
330
460B
100
AcDbEntity
  8
MODEL
100
AcDbVertex
100
AcDb2dVertex
 10
942.9988342406791
 20
953.1985871101733
 30
0.0
  0
VERTEX
  5
460F
330
460B
100
AcDbEntity
  8
MODEL
100
AcDbVertex
100
AcDb2dVertex
 10
944.6920997887132
 20
956.1613711820205
 30
0.0
  0
SEQEND
  5
4610
330
460B
100
AcDbEntity
  8
MODEL
  0
POLYLINE
  5
4611
330
A
100
AcDbEntity
  8
MODEL
100
AcDb2dPolyline
 66
     1
 10
0.0
 20
0.0
 30
0.0
  0
VERTEX
  5
4612
330
4611
100
AcDbEntity
  8
MODEL
100
AcDbVertex
100
AcDb2dVertex
 10
950.1956434570561
 20
964.6294214710902
 30
0.0
  0
VERTEX
  5
4613
330
4611
100
AcDbEntity
  8
MODEL
100
AcDbVertex
100
AcDb2dVertex
 10
951.4651619808642
 20
967.5922055429373
 30
0.0
  0
VERTEX
  5
4614
330
4611
100
AcDbEntity
  8
MODEL
100
AcDbVertex
100
AcDb2dVertex
 10
953.5821745531316
 20
970.9787366390137
 30
0.0
  0
VERTEX
  5
4615
330
4611
100
AcDbEntity
  8
MODEL
100
AcDbVertex
100
AcDb2dVertex
 10
954.8516930769397
 20
973.5177736866312
 30
0.0
  0
SEQEND
  5
4616
330
4611
100
AcDbEntity
  8
MODEL
  0
POLYLINE
  5
4617
330
A
100
AcDbEntity
  8
MODEL
100
AcDb2dPolyline
 66
     1
 10
0.0
 20
0.0
 30
0.0
  0
VERTEX
  5
4618
330
4617
100
AcDbEntity
  8
MODEL
100
AcDbVertex
100
AcDb2dVertex
 10
959.0857182214781
 20
982.8333180241598
 30
0.0
  0
VERTEX
  5
4619
330
4617
100
AcDbEntity
  8
MODEL
100
AcDbVertex
100
AcDb2dVertex
 10
960.7789837695159
 20
986.6435961444654
 30
0.0
  0
VERTEX
  5
461A
330
4617
100
AcDbEntity
  8
MODEL
100
AcDbVertex
100
AcDb2dVertex
 10
962.4722493175536
 20
990.8741761912424
 30
0.0
  0
VERTEX
  5
461B
330
4617
100
AcDbEntity
  8
MODEL
100
AcDbVertex
100
AcDb2dVertex
 10
962.8959963417833
 20
992.1454172639301
 30
0.0
  0
SEQEND
  5
461C
330
4617
100
AcDbEntity
  8
MODEL
  0
POLYLINE
  5
461D
330
A
100
AcDbEntity
  8
MODEL
100
AcDb2dPolyline
 66
     1
 10
0.0
 20
0.0
 30
0.0
  0
VERTEX
  5
461E
330
461D
100
AcDbEntity
  8
MODEL
100
AcDbVertex
100
AcDb2dVertex
 10
966.2825274378588
 20
1001.88126352793
 30
0.0
  0
VERTEX
  5
461F
330
461D
100
AcDbEntity
  8
MODEL
100
AcDbVertex
100
AcDb2dVertex
 10
966.7062744620885
 20
1003.576251624847
 30
0.0
  0
VERTEX
  5
4620
330
461D
100
AcDbEntity
  8
MODEL
100
AcDbVertex
100
AcDb2dVertex
 10
967.9757929858965
 20
1008.230578695853
 30
0.0
  0
VERTEX
  5
4621
330
461D
100
AcDbEntity
  8
MODEL
100
AcDbVertex
100
AcDb2dVertex
 10
968.8215644854786
 20
1011.61710979193
 30
0.0
  0
SEQEND
  5
4622
330
461D
100
AcDbEntity
  8
MODEL
  0
POLYLINE
  5
4623
330
A
100
AcDbEntity
  8
MODEL
100
AcDb2dPolyline
 66
     1
 10
0.0
 20
0.0
 30
0.0
  0
VERTEX
  5
4624
330
4623
100
AcDbEntity
  8
MODEL
100
AcDbVertex
100
AcDb2dVertex
 10
674.6050483089125
 20
876.9999148995767
 30
0.0
  0
VERTEX
  5
4625
330
4623
100
AcDbEntity
  8
MODEL
100
AcDbVertex
100
AcDb2dVertex
 10
668.2557331409876
 20
876.9999148995767
 30
0.0
  0
VERTEX
  5
4626
330
4623
100
AcDbEntity
  8
MODEL
100
AcDbVertex
100
AcDb2dVertex
 10
664.445455020686
 20
876.5761678753474
 30
0.0
  0
SEQEND
  5
4627
330
4623
100
AcDbEntity
  8
MODEL
  0
POLYLINE
  5
4628
330
A
100
AcDbEntity
  8
MODEL
100
AcDb2dPolyline
 66
     1
 10
0.0
 20
0.0
 30
0.0
  0
VERTEX
  5
4629
330
4628
100
AcDbEntity
  8
MODEL
100
AcDbVertex
100
AcDb2dVertex
 10
654.2858617324523
 20
876.5761678753474
 30
0.0
  0
VERTEX
  5
462A
330
4628
100
AcDbEntity
  8
MODEL
100
AcDbVertex
100
AcDb2dVertex
 10
650.0518365879211
 20
876.5761678753474
 30
0.0
  0
VERTEX
  5
462B
330
4628
100
AcDbEntity
  8
MODEL
100
AcDbVertex
100
AcDb2dVertex
 10
644.1245458953449
 20
876.9999148995767
 30
0.0
  0
SEQEND
  5
462C
330
4628
100
AcDbEntity
  8
MODEL
  0
POLYLINE
  5
462D
330
A
100
AcDbEntity
  8
MODEL
100
AcDb2dPolyline
 66
     1
 10
0.0
 20
0.0
 30
0.0
  0
VERTEX
  5
462E
330
462D
100
AcDbEntity
  8
MODEL
100
AcDbVertex
100
AcDb2dVertex
 10
633.9649526071184
 20
877.4202168260481
 30
0.0
  0
VERTEX
  5
462F
330
462D
100
AcDbEntity
  8
MODEL
100
AcDbVertex
100
AcDb2dVertex
 10
632.6954340833104
 20
877.4202168260481
 30
0.0
  0
VERTEX
  5
4630
330
462D
100
AcDbEntity
  8
MODEL
100
AcDbVertex
100
AcDb2dVertex
 10
627.1918904149675
 20
877.8439638502773
 30
0.0
  0
VERTEX
  5
4631
330
462D
100
AcDbEntity
  8
MODEL
100
AcDbVertex
100
AcDb2dVertex
 10
623.8053593188883
 20
878.2677108745065
 30
0.0
  0
SEQEND
  5
4632
330
462D
100
AcDbEntity
  8
MODEL
  0
POLYLINE
  5
4633
330
A
100
AcDbEntity
  8
MODEL
100
AcDb2dPolyline
 66
     1
 10
0.0
 20
0.0
 30
0.0
  0
VERTEX
  5
4634
330
4633
100
AcDbEntity
  8
MODEL
100
AcDbVertex
100
AcDb2dVertex
 10
613.6457660306619
 20
878.6914578987357
 30
0.0
  0
VERTEX
  5
4635
330
4633
100
AcDbEntity
  8
MODEL
100
AcDbVertex
100
AcDb2dVertex
 10
610.6812594099315
 20
879.115204922965
 30
0.0
  0
VERTEX
  5
4636
330
4633
100
AcDbEntity
  8
MODEL
100
AcDbVertex
100
AcDb2dVertex
 10
605.1794382904695
 20
879.9626989714238
 30
0.0
  0
VERTEX
  5
4637
330
4633
100
AcDbEntity
  8
MODEL
100
AcDbVertex
100
AcDb2dVertex
 10
603.4844501935509
 20
879.9626989714238
 30
0.0
  0
SEQEND
  5
4638
330
4633
100
AcDbEntity
  8
MODEL
  0
POLYLINE
  5
4639
330
A
100
AcDbEntity
  8
MODEL
100
AcDb2dPolyline
 66
     1
 10
0.0
 20
0.0
 30
0.0
  0
VERTEX
  5
463A
330
4639
100
AcDbEntity
  8
MODEL
100
AcDbVertex
100
AcDb2dVertex
 10
593.3248569053208
 20
881.2304949463537
 30
0.0
  0
VERTEX
  5
463B
330
4639
100
AcDbEntity
  8
MODEL
100
AcDbVertex
100
AcDb2dVertex
 10
589.5145787850192
 20
882.0779889948126
 30
0.0
  0
VERTEX
  5
463C
330
4639
100
AcDbEntity
  8
MODEL
100
AcDbVertex
100
AcDb2dVertex
 10
584.858529165132
 20
883.3492300675002
 30
0.0
  0
VERTEX
  5
463D
330
4639
100
AcDbEntity
  8
MODEL
100
AcDbVertex
100
AcDb2dVertex
 10
583.589010641324
 20
883.7729770917294
 30
0.0
  0
SEQEND
  5
463E
330
4639
100
AcDbEntity
  8
MODEL
  0
POLYLINE
  5
463F
330
A
100
AcDbEntity
  8
MODEL
100
AcDb2dPolyline
 66
     1
 10
0.0
 20
0.0
 30
0.0
  0
VERTEX
  5
4640
330
463F
100
AcDbEntity
  8
MODEL
100
AcDbVertex
100
AcDb2dVertex
 10
573.8514418284462
 20
885.8882671151177
 30
0.0
  0
VERTEX
  5
4641
330
463F
100
AcDbEntity
  8
MODEL
100
AcDbVertex
100
AcDb2dVertex
 10
570.0411637081411
 20
886.312014139347
 30
0.0
  0
VERTEX
  5
4642
330
463F
100
AcDbEntity
  8
MODEL
100
AcDbVertex
100
AcDb2dVertex
 10
565.3851140882539
 20
887.583255212035
 30
0.0
  0
VERTEX
  5
4643
330
463F
100
AcDbEntity
  8
MODEL
100
AcDbVertex
100
AcDb2dVertex
 10
564.1155955644458
 20
888.0035571385065
 30
0.0
  0
SEQEND
  5
4644
330
463F
100
AcDbEntity
  8
MODEL
  0
POLYLINE
  5
4645
330
A
100
AcDbEntity
  8
MODEL
100
AcDb2dPolyline
 66
     1
 10
0.0
 20
0.0
 30
0.0
  0
VERTEX
  5
4646
330
4645
100
AcDbEntity
  8
MODEL
100
AcDbVertex
100
AcDb2dVertex
 10
554.3780267515681
 20
890.9697863081115
 30
0.0
  0
VERTEX
  5
4647
330
4645
100
AcDbEntity
  8
MODEL
100
AcDbVertex
100
AcDb2dVertex
 10
551.8389897039483
 20
891.8138352588117
 30
0.0
  0
VERTEX
  5
4648
330
4645
100
AcDbEntity
  8
MODEL
100
AcDbVertex
100
AcDb2dVertex
 10
547.6049645594098
 20
893.508823355729
 30
0.0
  0
VERTEX
  5
4649
330
4645
100
AcDbEntity
  8
MODEL
100
AcDbVertex
100
AcDb2dVertex
 10
545.0659275117937
 20
894.7800644284171
 30
0.0
  0
SEQEND
  5
464A
330
4645
100
AcDbEntity
  8
MODEL
  0
POLYLINE
  5
464B
330
A
100
AcDbEntity
  8
MODEL
100
AcDb2dPolyline
 66
     1
 10
0.0
 20
0.0
 30
0.0
  0
VERTEX
  5
464C
330
464B
100
AcDbEntity
  8
MODEL
100
AcDbVertex
100
AcDb2dVertex
 10
535.7521057231493
 20
898.166595524493
 30
0.0
  0
VERTEX
  5
464D
330
464B
100
AcDbEntity
  8
MODEL
100
AcDbVertex
100
AcDb2dVertex
 10
534.9046116746863
 20
898.5868974509644
 30
0.0
  0
VERTEX
  5
464E
330
464B
100
AcDbEntity
  8
MODEL
100
AcDbVertex
100
AcDb2dVertex
 10
531.0960561032621
 20
900.2818855478818
 30
0.0
  0
VERTEX
  5
464F
330
464B
100
AcDbEntity
  8
MODEL
100
AcDbVertex
100
AcDb2dVertex
 10
526.8620309587272
 20
902.3971755712705
 30
0.0
  0
VERTEX
  5
4650
330
464B
100
AcDbEntity
  8
MODEL
100
AcDbVertex
100
AcDb2dVertex
 10
526.4382839344976
 20
902.3971755712705
 30
0.0
  0
SEQEND
  5
4651
330
464B
100
AcDbEntity
  8
MODEL
  0
POLYLINE
  5
4652
330
A
100
AcDbEntity
  8
MODEL
100
AcDb2dPolyline
 66
     1
 10
0.0
 20
0.0
 30
0.0
  0
VERTEX
  5
4653
330
4652
100
AcDbEntity
  8
MODEL
100
AcDbVertex
100
AcDb2dVertex
 10
517.5482091700756
 20
907.4786947642638
 30
0.0
  0
VERTEX
  5
4654
330
4652
100
AcDbEntity
  8
MODEL
100
AcDbVertex
100
AcDb2dVertex
 10
515.8549436220378
 20
908.7499358369519
 30
0.0
  0
VERTEX
  5
4655
330
4652
100
AcDbEntity
  8
MODEL
100
AcDbVertex
100
AcDb2dVertex
 10
512.0446655017327
 20
910.8652258603402
 30
0.0
  0
VERTEX
  5
4656
330
4652
100
AcDbEntity
  8
MODEL
100
AcDbVertex
100
AcDb2dVertex
 10
509.0818814298868
 20
912.9805158837285
 30
0.0
  0
SEQEND
  5
4657
330
4652
100
AcDbEntity
  8
MODEL
  0
POLYLINE
  5
4658
330
A
100
AcDbEntity
  8
MODEL
100
AcDb2dPolyline
 66
     1
 10
0.0
 20
0.0
 30
0.0
  0
VERTEX
  5
4659
330
4658
100
AcDbEntity
  8
MODEL
100
AcDbVertex
100
AcDb2dVertex
 10
500.6155536896908
 20
918.4857821009509
 30
0.0
  0
VERTEX
  5
465A
330
4658
100
AcDbEntity
  8
MODEL
100
AcDbVertex
100
AcDb2dVertex
 10
498.4985411174271
 20
920.6010721243397
 30
0.0
  0
VERTEX
  5
465B
330
4658
100
AcDbEntity
  8
MODEL
100
AcDbVertex
100
AcDb2dVertex
 10
495.1120100213516
 20
923.1435542697154
 30
0.0
  0
VERTEX
  5
465C
330
4658
100
AcDbEntity
  8
MODEL
100
AcDbVertex
100
AcDb2dVertex
 10
492.9949974490842
 20
925.2588442931037
 30
0.0
  0
SEQEND
  5
465D
330
4658
100
AcDbEntity
  8
MODEL
  0
POLYLINE
  5
465E
330
A
100
AcDbEntity
  8
MODEL
100
AcDb2dPolyline
 66
     1
 10
0.0
 20
0.0
 30
0.0
  0
VERTEX
  5
465F
330
465E
100
AcDbEntity
  8
MODEL
100
AcDbVertex
100
AcDb2dVertex
 10
485.3744412084702
 20
931.6081594610273
 30
0.0
  0
VERTEX
  5
4660
330
465E
100
AcDbEntity
  8
MODEL
100
AcDbVertex
100
AcDb2dVertex
 10
483.2591511850837
 20
934.1471965086453
 30
0.0
  0
VERTEX
  5
4661
330
465E
100
AcDbEntity
  8
MODEL
100
AcDbVertex
100
AcDb2dVertex
 10
480.294644564357
 20
937.1134256782502
 30
0.0
  0
VERTEX
  5
4662
330
465E
100
AcDbEntity
  8
MODEL
100
AcDbVertex
100
AcDb2dVertex
 10
478.6013790163192
 20
939.2287157016385
 30
0.0
  0
SEQEND
  5
4663
330
465E
100
AcDbEntity
  8
MODEL
  0
POLYLINE
  5
4664
330
A
100
AcDbEntity
  8
MODEL
100
AcDb2dPolyline
 66
     1
 10
0.0
 20
0.0
 30
0.0
  0
VERTEX
  5
4665
330
4664
100
AcDbEntity
  8
MODEL
100
AcDbVertex
100
AcDb2dVertex
 10
472.2520638483979
 20
946.8492719422497
 30
0.0
  0
VERTEX
  5
4666
330
4664
100
AcDbEntity
  8
MODEL
100
AcDbVertex
100
AcDb2dVertex
 10
469.7113042518972
 20
949.8120560140969
 30
0.0
  0
VERTEX
  5
4667
330
4664
100
AcDbEntity
  8
MODEL
100
AcDbVertex
100
AcDb2dVertex
 10
467.5960142285107
 20
953.1985871101733
 30
0.0
  0
VERTEX
  5
4668
330
4664
100
AcDbEntity
  8
MODEL
100
AcDbVertex
100
AcDb2dVertex
 10
466.3247731558217
 20
954.8935752070906
 30
0.0
  0
SEQEND
  5
4669
330
4664
100
AcDbEntity
  8
MODEL
  0
POLYLINE
  5
466A
330
A
100
AcDbEntity
  8
MODEL
100
AcDb2dPolyline
 66
     1
 10
0.0
 20
0.0
 30
0.0
  0
VERTEX
  5
466B
330
466A
100
AcDbEntity
  8
MODEL
100
AcDbVertex
100
AcDb2dVertex
 10
460.8212294874825
 20
963.3581803984025
 30
0.0
  0
VERTEX
  5
466C
330
466A
100
AcDbEntity
  8
MODEL
100
AcDbVertex
100
AcDb2dVertex
 10
460.8212294874825
 20
963.7819274226317
 30
0.0
  0
VERTEX
  5
466D
330
466A
100
AcDbEntity
  8
MODEL
100
AcDbVertex
100
AcDb2dVertex
 10
458.7059394640924
 20
967.5922055429373
 30
0.0
  0
VERTEX
  5
466E
330
466A
100
AcDbEntity
  8
MODEL
100
AcDbVertex
100
AcDb2dVertex
 10
456.5889268918249
 20
970.9787366390137
 30
0.0
  0
VERTEX
  5
466F
330
466A
100
AcDbEntity
  8
MODEL
100
AcDbVertex
100
AcDb2dVertex
 10
456.1651798675953
 20
972.2499777117014
 30
0.0
  0
SEQEND
  5
4670
330
466A
100
AcDbEntity
  8
MODEL
  0
POLYLINE
  5
4671
330
A
100
AcDbEntity
  8
MODEL
100
AcDb2dPolyline
 66
     1
 10
0.0
 20
0.0
 30
0.0
  0
VERTEX
  5
4672
330
4671
100
AcDbEntity
  8
MODEL
100
AcDbVertex
100
AcDb2dVertex
 10
451.9311547230604
 20
981.5620769514717
 30
0.0
  0
VERTEX
  5
4673
330
4671
100
AcDbEntity
  8
MODEL
100
AcDbVertex
100
AcDb2dVertex
 10
451.0853832234784
 20
982.8333180241598
 30
0.0
  0
VERTEX
  5
4674
330
4671
100
AcDbEntity
  8
MODEL
100
AcDbVertex
100
AcDb2dVertex
 10
449.3921176754407
 20
986.6435961444654
 30
0.0
  0
VERTEX
  5
4675
330
4671
100
AcDbEntity
  8
MODEL
100
AcDbVertex
100
AcDb2dVertex
 10
447.6988521274029
 20
990.8741761912424
 30
0.0
  0
SEQEND
  5
4676
330
4671
100
AcDbEntity
  8
MODEL
  0
POLYLINE
  5
4677
330
A
100
AcDbEntity
  8
MODEL
100
AcDb2dPolyline
 66
     1
 10
0.0
 20
0.0
 30
0.0
  0
VERTEX
  5
4678
330
4677
100
AcDbEntity
  8
MODEL
100
AcDbVertex
100
AcDb2dVertex
 10
444.7360680555571
 20
1000.613467553
 30
0.0
  0
VERTEX
  5
4679
330
4677
100
AcDbEntity
  8
MODEL
100
AcDbVertex
100
AcDb2dVertex
 10
443.4648269828681
 20
1003.576251624847
 30
0.0
  0
VERTEX
  5
467A
330
4677
100
AcDbEntity
  8
MODEL
100
AcDbVertex
100
AcDb2dVertex
 10
442.19530845906
 20
1008.230578695853
 30
0.0
  0
VERTEX
  5
467B
330
4677
100
AcDbEntity
  8
MODEL
100
AcDbVertex
100
AcDb2dVertex
 10
441.771561434834
 20
1010.349313816999
 30
0.0
  0
SEQEND
  5
467C
330
4677
100
AcDbEntity
  8
MODEL
  0
POLYLINE
  5
467D
330
A
100
AcDbEntity
  8
MODEL
100
AcDb2dPolyline
 66
     1
 10
0.0
 20
0.0
 30
0.0
  0
VERTEX
  5
467E
330
467D
100
AcDbEntity
  8
MODEL
100
AcDbVertex
100
AcDb2dVertex
 10
1846.816785944167
 20
1017.122376009153
 30
0.0
  0
VERTEX
  5
467F
330
467D
100
AcDbEntity
  8
MODEL
100
AcDbVertex
100
AcDb2dVertex
 10
1846.816785944167
 20
1002.305010552159
 30
0.0
  0
SEQEND
  5
4680
330
467D
100
AcDbEntity
  8
MODEL
  0
POLYLINE
  5
4681
330
A
100
AcDbEntity
  8
MODEL
100
AcDb2dPolyline
 66
     1
 10
0.0
 20
0.0
 30
0.0
  0
VERTEX
  5
4682
330
4681
100
AcDbEntity
  8
MODEL
100
AcDbVertex
100
AcDb2dVertex
 10
1811.680233910716
 20
1017.122376009153
 30
0.0
  0
VERTEX
  5
4683
330
4681
100
AcDbEntity
  8
MODEL
100
AcDbVertex
100
AcDb2dVertex
 10
1811.680233910716
 20
1002.305010552159
 30
0.0
  0
SEQEND
  5
4684
330
4681
100
AcDbEntity
  8
MODEL
  0
DIMENSION
  5
4685
102
{ACAD_XDICTIONARY
360
4686
102
}
330
A
100
AcDbEntity
  8
DIM
100
AcDbDimension
  2
*D7
 10
280.4824197003359
 20
2442.426788002038
 30
0.0
 11
705.2974242345931
 21
2474.431289690172
 31
0.0
 70
    32
 71
     5
 42
849.6300090685145
 73
     0
 74
     0
 75
     0
  3
tfrom線あり
100
AcDbAlignedDimension
 13
1130.11242876885
 23
2312.040173156463
 33
0.0
 14
280.4824197003359
 24
2312.040173156463
 34
0.0
100
AcDbRotatedDimension
  0
DIMENSION
  5
4694
102
{ACAD_XDICTIONARY
360
4695
102
}
330
A
100
AcDbEntity
  8
DIM
100
AcDbDimension
  2
*D8
 10
705.0855507224801
 20
2380.684580584361
 30
0.0
 11
655.1324945064748
 21
2412.689082272494
 31
0.0
 70
    32
 71
     5
 42
99.90611243201056
 73
     0
 74
     0
 75
     0
  3
tfrom線あり
100
AcDbAlignedDimension
 13
605.1794382904695
 23
2276.116126167462
 33
0.0
 14
705.0855507224801
 24
2276.116126167462
 34
0.0
100
AcDbRotatedDimension
  0
DIMENSION
  5
46A3
102
{ACAD_XDICTIONARY
360
46A4
102
}
330
A
100
AcDbEntity
  8
DIM
100
AcDbDimension
  2
*D9
 10
705.0855507224801
 20
2380.684580584361
 30
0.0
 11
755.0386069384854
 21
2412.689082272494
 31
0.0
 70
    32
 71
     5
 42
99.90611243201056
 73
     0
 74
     0
 75
     0
 52
-89.99999999999999
  3
tfrom線あり
100
AcDbAlignedDimension
 13
804.9916631544907
 23
2276.116126167462
 33
0.0
 14
705.0855507224801
 24
2276.116126167462
 34
0.0
 50
180.0
100
AcDbRotatedDimension
  0
DIMENSION
  5
46B2
102
{ACAD_XDICTIONARY
360
46B3
102
}
330
A
100
AcDbEntity
  8
DIM
100
AcDbDimension
  2
*D10
 10
167.9467936429969
 20
2168.165710470611
 30
0.0
 11
135.9422919548638
 21
2240.555827109781
 31
0.0
 70
    32
 71
     5
 42
144.7802332783403
 73
     0
 74
     0
 75
     0
  3
tfrom線あり
100
AcDbAlignedDimension
 13
266.934572767153
 23
2312.945943748951
 33
0.0
 14
255.0817139308888
 24
2168.165710470611
 34
0.0
 50
90.0
100
AcDbRotatedDimension
  0
DIMENSION
  5
46D0
330
A
100
AcDbEntity
  8
DIM
100
AcDbDimension
  2
*D12
 10
167.9467936429969
 20
1863.165710470611
 30
0.0
 11
135.9422919548638
 21
2015.665710470611
 31
0.0
 70
    32
 71
     5
 42
305.0
 73
     0
 74
     0
 75
     0
  3
tfrom線あり
100
AcDbAlignedDimension
 13
255.0817139308888
 23
2168.165710470611
 33
0.0
 14
255.0817139308888
 24
1863.165710470611
 34
0.0
 50
90.0
100
AcDbRotatedDimension
  0
DIMENSION
  5
46DD
102
{ACAD_XDICTIONARY
360
46DE
102
}
330
A
100
AcDbEntity
  8
DIM
100
AcDbDimension
  2
*D13
 10
440.078295886789
 20
1727.899442491897
 30
0.0
 11
377.636760298175
 21
1759.903944180031
 31
0.0
 70
    32
 71
     5
 42
124.883071177228
 73
     0
 74
     0
 75
     0
  3
tfrom線あり
100
AcDbAlignedDimension
 13
315.195224709561
 23
1810.449152419297
 33
0.0
 14
440.078295886789
 24
1806.215127274761
 34
0.0
100
AcDbRotatedDimension
  0
DIMENSION
  5
46EC
102
{ACAD_XDICTIONARY
360
46ED
102
}
330
A
100
AcDbEntity
  8
DIM
100
AcDbDimension
  2
*D14
 10
970.0928055581676
 20
1727.899442491897
 30
0.0
 11
705.0855507224783
 21
1759.903944180031
 31
0.0
 70
    32
 71
     5
 42
530.0145096713786
 73
     0
 74
     0
 75
     0
  3
tfrom線あり
100
AcDbAlignedDimension
 13
440.078295886789
 23
1806.215127274761
 33
0.0
 14
970.0928055581676
 24
1806.215127274761
 34
0.0
100
AcDbRotatedDimension
  0
DIMENSION
  5
46FB
102
{ACAD_XDICTIONARY
360
46FC
102
}
330
A
100
AcDbEntity
  8
DIM
100
AcDbDimension
  2
*D15
 10
1255.695495554727
 20
1828.229301948136
 30
0.0
 11
1223.690993866594
 21
2070.587622848544
 31
0.0
 70
    32
 71
     5
 42
484.7166418008151
 73
     0
 74
     0
 75
     0
  3
tfrom線あり
100
AcDbAlignedDimension
 13
1150.431615345307
 23
2312.945943748951
 33
0.0
 14
1077.195727206555
 24
1828.229301948136
 34
0.0
 50
90.0
100
AcDbRotatedDimension
  0
DIMENSION
  5
470A
102
{ACAD_XDICTIONARY
360
470B
102
}
330
A
100
AcDbEntity
  8
DIM
100
AcDbDimension
  2
*D16
 10
162.7629729705091
 20
962.0869393257144
 30
0.0
 11
130.758471282376
 21
1012.040856816159
 31
0.0
 70
    32
 71
     5
 42
99.90783498088875
 73
     0
 74
     0
 75
     0
  3
tfrom線あり
100
AcDbAlignedDimension
 13
267.3583197913827
 23
1061.994774306603
 33
0.0
 14
520.0889687665763
 24
962.0869393257144
 34
0.0
 50
90.0
100
AcDbRotatedDimension
  0
DIMENSION
  5
4719
102
{ACAD_XDICTIONARY
360
471A
102
}
330
A
100
AcDbEntity
  8
DIM
100
AcDbDimension
  2
*D17
 10
845.2080118320514
 20
1133.352365655982
 30
0.0
 11
705.2965629601526
 21
1165.356867344115
 31
0.0
 70
    32
 71
     5
 42
279.8228977437975
 73
     0
 74
     0
 75
     0
  3
tfrom線あり
100
AcDbAlignedDimension
 13
565.3851140882539
 23
1006.962782720923
 33
0.0
 14
845.2080118320514
 24
1006.962782720923
 34
0.0
100
AcDbRotatedDimension
  0
DIMENSION
  5
4728
102
{ACAD_XDICTIONARY
360
4729
102
}
330
A
100
AcDbEntity
  8
DIM
100
AcDbDimension
  2
*D18
 10
1324.422832513402
 20
1027.281969297381
 30
0.0
 11
1324.422832513402
 21
1116.004027776655
 31
0.0
 70
   160
 71
     5
 42
34.71280500922194
 73
     0
 74
     0
 75
     0
  3
tfrom線あり
100
AcDbAlignedDimension
 13
1406.126770941227
 23
1061.994774306603
 33
0.0
 14
1406.126770941227
 24
1027.281969297381
 34
0.0
 50
90.0
100
AcDbRotatedDimension
1001
ACAD
1000
DSTYLE
1002
{
1070
   172
1070
     1
1002
}
  0
DIMENSION
  5
4738
102
{ACAD_XDICTIONARY
360
4739
102
}
330
A
100
AcDbEntity
  8
DIM
100
AcDbDimension
  2
*D19
 10
1324.422832513402
 20
987.0638980709364
 30
0.0
 11
1324.422832513402
 21
1005.696294081054
 31
0.0
 70
   160
 71
     5
 42
40.21807122644486
 73
     0
 74
     0
 75
     0
  3
tfrom線あり
100
AcDbAlignedDimension
 13
1406.126770941227
 23
1027.281969297381
 33
0.0
 14
1409.089555013073
 24
987.0638980709364
 34
0.0
 50
90.0
100
AcDbRotatedDimension
1001
ACAD
1000
DSTYLE
1002
{
1070
   172
1070
     1
1002
}
  0
DIMENSION
  5
4748
102
{ACAD_XDICTIONARY
360
4749
102
}
330
A
100
AcDbEntity
  8
DIM
100
AcDbDimension
  2
*D20
 10
1324.422832513402
 20
867.2606235378189
 30
0.0
 11
1292.418330825269
 21
927.1622608043776
 31
0.0
 70
    32
 71
     5
 42
119.8032745331175
 73
     0
 74
     0
 75
     0
  3
tfrom線あり
100
AcDbAlignedDimension
 13
1409.089555013073
 23
987.0638980709364
 33
0.0
 14
1570.129524629046
 24
867.2606235378189
 34
0.0
 50
90.0
100
AcDbRotatedDimension
  0
DIMENSION
  5
4757
102
{ACAD_XDICTIONARY
360
4758
102
}
330
A
100
AcDbEntity
  8
DIM
100
AcDbDimension
  2
*D21
 10
1324.422832513402
 20
837.2055906973615
 30
0.0
 11
1324.422832513402
 21
852.2331071175902
 31
0.0
 70
   160
 71
     5
 42
30.05503284045744
 73
     0
 74
     0
 75
     0
  3
tfrom線あり
100
AcDbAlignedDimension
 13
1540.129524629046
 23
867.2606235378189
 33
0.0
 14
1636.841522694161
 24
837.2055906973615
 34
0.0
 50
90.0
100
AcDbRotatedDimension
  0
DIMENSION
  5
4769
102
{ACAD_XDICTIONARY
360
476A
102
}
330
A
100
AcDbEntity
  8
DIM
100
AcDbDimension
  2
*D22
 10
1221.304778094772
 20
837.2055906973615
 30
0.0
 11
1189.300276406639
 21
949.6001825019823
 31
0.0
 70
    32
 71
     5
 42
224.7891836092417
 73
     0
 74
     0
 75
     0
  3
tfrom線あり
100
AcDbAlignedDimension
 13
1112.474620947721
 23
1061.994774306603
 33
0.0
 14
767.7380985487684
 24
837.2055906973615
 34
0.0
 50
90.0
100
AcDbRotatedDimension
  0
DIMENSION
  5
4778
102
{ACAD_XDICTIONARY
360
4779
102
}
330
A
100
AcDbEntity
  8
DIM
100
AcDbDimension
  2
*D23
 10
1909.469333770459
 20
748.4698496551573
 30
0.0
 11
1804.27155118222
 21
780.4743513432903
 31
0.0
 70
    32
 71
     5
 42
210.3955651764772
 73
     0
 74
     0
 75
     0
  3
tfrom線あり
100
AcDbAlignedDimension
 13
1699.073768593982
 23
836.3061003475043
 33
0.0
 14
1909.469333770459
 24
866.3611331879622
 34
0.0
100
AcDbRotatedDimension
  0
DIMENSION
  5
4787
102
{ACAD_XDICTIONARY
360
4788
102
}
330
A
100
AcDbEntity
  8
DIM
100
AcDbDimension
  2
*D24
 10
1909.469333770459
 20
1150.082022489851
 30
0.0
 11
1869.464858605008
 21
1182.082022489851
 31
0.0
 70
    32
 71
     5
 42
80.00895033090274
 73
     0
 74
     0
 75
     0
  3
tfrom線あり
100
AcDbAlignedDimension
 13
1829.460383439556
 23
1052.258928042604
 33
0.0
 14
1909.469333770459
 24
1086.971733051826
 34
0.0
100
AcDbRotatedDimension
  0
DIMENSION
  5
4796
102
{ACAD_XDICTIONARY
360
4797
102
}
330
A
100
AcDbEntity
  8
DIM
100
AcDbDimension
  2
*D25
 10
1697.564692031893
 20
1027.281969297381
 30
0.0
 11
1697.564692031893
 21
1132.322359443686
 31
0.0
 70
   160
 71
     5
 42
145.2039803025687
 73
     0
 74
     0
 75
     0
  3
tfrom線あり
100
AcDbAlignedDimension
 13
1697.802527521293
 23
882.0779889948126
 33
0.0
 14
1697.802527521293
 24
1027.281969297381
 34
0.0
 50
90.0
100
AcDbRotatedDimension
1001
ACAD
1000
DSTYLE
1002
{
1070
     3
1000
<>(深さ)
1070
   172
1070
     1
1002
}
  0
VIEWPORT
  5
349
330
B
100
AcDbEntity
 67
     1
  8
0
100
AcDbViewport
 10
202.5
 20
128.5
 30
0.0
 40
486.0
 41
308.4
 68
     1
 69
     1
 12
202.5
 22
128.5
 13
0.0
 23
0.0
 14
0.5
 24
0.5
 15
0.0
 25
0.0
 16
0.0
 26
0.0
 36
1.0
 17
0.0
 27
0.0
 37
0.0
 42
50.0
 43
0.0
 44
0.0
 45
308.4
 50
0.0
 51
0.0
 72
   100
 90
   557152
  1

281
     0
 71
     1
 74
     0
110
0.0
120
0.0
130
0.0
111
1.0
121
0.0
131
0.0
112
0.0
122
1.0
132
0.0
 79
     0
146
0.0
170
     0
 61
     5
348
26C
292
     1
282
     1
141
0.0
142
0.0
 63
   256
  0
VIEWPORT
  5
34A
330
B
100
AcDbEntity
 67
     1
  8
0
100
AcDbViewport
 10
202.5
 20
128.5
 30
0.0
 40
324.0
 41
205.6
 68
     2
 69
     2
 12
986.6781359294573
 22
1427.077061889956
 13
0.0
 23
0.0
 14
0.5
 24
0.5
 15
0.0
 25
0.0
 16
0.0
 26
0.0
 36
1.0
 17
0.0
 27
0.0
 37
0.0
 42
50.0
 43
0.0
 44
0.0
 45
2890.021615685494
 50
0.0
 51
0.0
 72
   100
 90
   557152
  1

281
     0
 71
     1
 74
     0
110
0.0
120
0.0
130
0.0
111
1.0
121
0.0
131
0.0
112
0.0
122
1.0
132
0.0
 79
     0
146
0.0
170
     0
 61
     5
348
26C
292
     1
282
     1
141
0.0
142
0.0
 63
   256
  0
ENDSEC
  0
SECTION
  2
OBJECTS
  0
DICTIONARY
  5
19
330
0
100
AcDbDictionary
281
     1
  3
ACAD_COLOR
350
674
  3
ACAD_DETAILVIEWSTYLE
350
BBF
  3
ACAD_FIELDLIST
350
146A
  3
ACAD_GROUP
350
1A
  3
ACAD_IMAGE_VARS
350
27B
  3
ACAD_LAYOUT
350
1E
  3
ACAD_MATERIAL
350
263
  3
ACAD_MLEADERSTYLE
350
336
  3
ACAD_MLINESTYLE
350
1B
  3
ACAD_PLOTSETTINGS
350
22
  3
ACAD_PLOTSTYLENAME
350
1F
  3
ACAD_SCALELIST
350
241
  3
ACAD_SECTIONVIEWSTYLE
350
BC0
  3
ACAD_TABLESTYLE
350
278
  3
ACAD_VISUALSTYLE
350
267
  3
ACDB_RECOMPOSE_DATA
350
47B1
  3
AcDbVariableDictionary
350
330
  3
APPDATA
350
27A
  3
DimOffsetDictionary
350
E3E
  0
SUN
  5
904
330
15
100
AcDbSun
 90
        1
290
     0
 63
     7
421
 16777215
 40
1.0
291
     1
 91
  2455826
 92
 54000000
292
     0
 70
     2
 71
   256
280
     1
  0
DICTIONARY
  5
2E1
330
2
100
AcDbDictionary
280
     1
281
     1
  3
ACAD_LAYERSTATES
360
2E2
  3
ACLYDICTIONARY
360
DF9
  0
DICTIONARY
  5
374D
330
A
100
AcDbDictionary
280
     1
281
     1
  3
ACAD_SORTENTS
360
374E
  0
DICTIONARY
  5
1468
330
1466
100
AcDbDictionary
280
     1
281
     1
  3
ACAD_FIELD
360
47AA
  0
DICTIONARY
  5
4686
330
4685
100
AcDbDictionary
280
     1
281
     1
  0
DICTIONARY
  5
4695
330
4694
100
AcDbDictionary
280
     1
281
     1
  0
DICTIONARY
  5
46A4
330
46A3
100
AcDbDictionary
280
     1
281
     1
  3
ACAD_DIMASSOC
360
46A5
  0
DICTIONARY
  5
46B3
330
46B2
100
AcDbDictionary
280
     1
281
     1
  0
DICTIONARY
  5
46DE
330
46DD
100
AcDbDictionary
280
     1
281
     1
  0
DICTIONARY
  5
46ED
330
46EC
100
AcDbDictionary
280
     1
281
     1
  0
DICTIONARY
  5
46FC
330
46FB
100
AcDbDictionary
280
     1
281
     1
  0
DICTIONARY
  5
470B
330
470A
100
AcDbDictionary
280
     1
281
     1
  0
DICTIONARY
  5
471A
330
4719
100
AcDbDictionary
280
     1
281
     1
  0
DICTIONARY
  5
4729
330
4728
100
AcDbDictionary
280
     1
281
     1
  0
DICTIONARY
  5
4739
330
4738
100
AcDbDictionary
280
     1
281
     1
  0
DICTIONARY
  5
4749
330
4748
100
AcDbDictionary
280
     1
281
     1
  0
DICTIONARY
  5
4758
330
4757
100
AcDbDictionary
280
     1
281
     1
  0
DICTIONARY
  5
476A
330
4769
100
AcDbDictionary
280
     1
281
     1
  0
DICTIONARY
  5
4779
330
4778
100
AcDbDictionary
280
     1
281
     1
  0
DICTIONARY
  5
4788
330
4787
100
AcDbDictionary
280
     1
281
     1
  0
DICTIONARY
  5
4797
330
4796
100
AcDbDictionary
280
     1
281
     1
  0
DICTIONARY
  5
674
102
{ACAD_REACTORS
330
19
102
}
330
19
100
AcDbDictionary
281
     1
  0
DICTIONARY
  5
BBF
102
{ACAD_REACTORS
330
19
102
}
330
19
100
AcDbDictionary
281
     1
  0
FIELDLIST
  5
146A
102
{ACAD_REACTORS
330
19
102
}
330
19
100
AcDbIdSet
 90
        2
330
146B
330
1467
100
AcDbFieldList
  0
DICTIONARY
  5
1A
102
{ACAD_REACTORS
330
19
102
}
330
19
100
AcDbDictionary
281
     1
  3
*A1
350
36AC
  3
*A2
350
36BC
  0
RASTERVARIABLES
  5
27B
102
{ACAD_REACTORS
330
19
102
}
330
19
100
AcDbRasterVariables
 90
        0
 70
     1
 71
     1
 72
     1
  0
DICTIONARY
  5
1E
102
{ACAD_REACTORS
330
19
102
}
330
19
100
AcDbDictionary
281
     1
  3
Layout1
350
21
  3
Model
350
20
  0
DICTIONARY
  5
263
102
{ACAD_REACTORS
330
19
102
}
330
19
100
AcDbDictionary
281
     1
  3
ByBlock
350
265
  3
ByLayer
350
264
  3
Global
350
266
  0
DICTIONARY
  5
336
102
{ACAD_REACTORS
330
19
102
}
330
19
100
AcDbDictionary
281
     1
  3
Standard
350
DAB
  0
DICTIONARY
  5
1B
102
{ACAD_REACTORS
330
19
102
}
330
19
100
AcDbDictionary
281
     1
  3
Standard
350
1C
  0
DICTIONARY
  5
22
102
{ACAD_REACTORS
330
19
102
}
330
19
100
AcDbDictionary
281
     1
  0
ACDBDICTIONARYWDFLT
  5
1F
102
{ACAD_REACTORS
330
19
102
}
330
19
100
AcDbDictionary
281
     1
  3
Normal
350
1D
100
AcDbDictionaryWithDefault
340
1D
  0
DICTIONARY
  5
241
102
{ACAD_REACTORS
330
19
102
}
330
19
100
AcDbDictionary
281
     1
  3
A0
350
242
  3
A1
350
243
  3
A2
350
244
  3
A3
350
245
  3
A4
350
246
  3
A5
350
247
  3
A6
350
248
  3
A7
350
249
  3
A8
350
24A
  3
A9
350
24B
  3
B0
350
24C
  3
B1
350
24D
  3
B2
350
24E
  3
B3
350
24F
  3
B4
350
250
  3
B5
350
251
  3
B6
350
252
  3
B7
350
253
  3
B8
350
254
  3
B9
350
255
  3
C0
350
256
  3
C1
350
257
  3
C2
350
258
  3
C3
350
259
  3
C4
350
25A
  3
C5
350
25B
  3
C6
350
25C
  3
C7
350
25D
  3
C8
350
25E
  3
C9
350
25F
  3
D0
350
260
  3
D1
350
261
  3
D2
350
262
  0
DICTIONARY
  5
BC0
102
{ACAD_REACTORS
330
19
102
}
330
19
100
AcDbDictionary
281
     1
  0
DICTIONARY
  5
278
102
{ACAD_REACTORS
330
19
102
}
330
19
100
AcDbDictionary
281
     1
  3
Standard
350
279
  0
DICTIONARY
  5
267
102
{ACAD_REACTORS
330
19
102
}
330
19
100
AcDbDictionary
281
     1
  3
2dWireframe
350
26C
  3
3D Hidden
350
26E
  3
3dWireframe
350
26D
  3
Basic
350
26F
  3
Brighten
350
273
  3
ColorChange
350
277
  3
Conceptual
350
271
  3
Dim
350
272
  3
EdgeColorOff
350
8FE
  3
Facepattern
350
276
  3
Flat
350
268
  3
FlatWithEdges
350
269
  3
Gouraud
350
26A
  3
GouraudWithEdges
350
26B
  3
Hidden
350
8FB
  3
JitterOff
350
8FC
  3
Linepattern
350
275
  3
OverhangOff
350
8FD
  3
Realistic
350
270
  3
Shaded
350
903
  3
Shaded with edges
350
902
  3
Shades of Gray
350
8FF
  3
Sketchy
350
900
  3
Thicken
350
274
  3
Wireframe
350
8FA
  3
X-Ray
350
901
  0
XRECORD
  5
47B1
102
{ACAD_REACTORS
330
19
102
}
330
19
100
AcDbXrecord
280
     1
 90
        1
330
279
  0
DICTIONARY
  5
330
102
{ACAD_REACTORS
330
19
102
}
330
19
100
AcDbDictionary
281
     1
  3
CANNOSCALE
350
331
  3
CMLEADERSTYLE
350
DB1
  3
CTABLESTYLE
350
335
  3
HPTRANSPARENCY
350
D52
  3
XCLIPFRAME
350
896
  0
DICTIONARY
  5
27A
102
{ACAD_REACTORS
330
19
102
}
330
19
100
AcDbDictionary
281
     1
  0
DICTIONARY
  5
E3E
102
{ACAD_REACTORS
330
19
102
}
330
19
100
AcDbDictionary
281
     1
  3
DIMRAILANGLE
350
ECE
  3
DIMRAILFIRSTOFFSET
350
ECC
  3
DIMRAILOFFSET
350
ECD
  3
DIMRAILSENABLED
350
ECF
  0
DICTIONARY
  5
2E2
102
{ACAD_REACTORS
330
2E1
102
}
330
2E1
100
AcDbDictionary
281
     1
  0
DICTIONARY
  5
DF9
102
{ACAD_REACTORS
330
2E1
102
}
330
2E1
100
AcDbDictionary
281
     1
1001
ACAD
1000
<All
  0
SORTENTSTABLE
  5
374E
102
{ACAD_REACTORS
330
374D
102
}
330
374D
100
AcDbSortentsTable
330
A
331
0
  5
35AD
331
0
  5
3733
331
0
  5
3732
331
369B
  5
35AE
331
369C
  5
369A
331
36A7
  5
369B
331
36A8
  5
369C
331
36A9
  5
36A7
331
36AA
  5
36A8
331
36AB
  5
36A9
331
0
  5
36AB
331
0
  5
3728
331
0
  5
3729
331
0
  5
372A
331
0
  5
372B
331
0
  5
372E
331
0
  5
3731
  0
DICTIONARY
  5
47AA
102
{ACAD_REACTORS
330
1468
102
}
330
1468
100
AcDbDictionary
280
     1
281
     1
  3
TEXT
360
1467
  0
DIMASSOC
  5
46A5
102
{ACAD_REACTORS
330
46A4
102
}
330
46A4
100
AcDbDimAssoc
330
46A3
 90
        0
 70
     0
 71
     1
  0
GROUP
  5
36AC
102
{ACAD_REACTORS
330
1A
102
}
330
1A
100
AcDbGroup
300

 70
     1
 71
     1
340
369B
340
369C
340
36A7
340
36A8
340
36A9
340
36AA
340
36AB
  0
GROUP
  5
36BC
102
{ACAD_REACTORS
330
1A
102
}
330
1A
100
AcDbGroup
300

 70
     1
 71
     1
  0
LAYOUT
  5
21
102
{ACAD_REACTORS
330
1E
102
}
330
1E
100
AcDbPlotSettings
  1

  2
none_device
  4
ISO_A3_(420.00_x_297.00_MM)
  6

 40
7.5
 41
20.0
 42
7.5
 43
20.0
 44
420.0
 45
297.0
 46
0.0
 47
0.0
 48
0.0
 49
0.0
140
0.0
141
0.0
142
1.0
143
1.0
 70
     0
 72
     1
 73
     0
 74
     0
  7

 75
     0
 76
     0
 77
     2
 78
   300
147
1.0
148
0.0
149
0.0
100
AcDbLayout
  1
Layout1
 70
     0
 71
     0
 10
-7.5
 20
-20.0
 11
412.5
 21
277.0
 12
0.0
 22
0.0
 32
0.0
 14
0.0
 24
0.0
 34
0.0
 15
0.0
 25
0.0
 35
0.0
146
0.0
 13
0.0
 23
0.0
 33
0.0
 16
0.0
 26
0.0
 36
0.0
 17
0.0
 27
0.0
 37
0.0
 76
     0
330
B
331
349
  0
LAYOUT
  5
20
102
{ACAD_REACTORS
330
1E
102
}
330
1E
100
AcDbPlotSettings
  1

  2
none_device
  4
ISO_A3_(420.00_x_297.00_MM)
  6

 40
7.5
 41
20.0
 42
7.5
 43
20.0
 44
420.0
 45
297.0
 46
0.0
 47
0.0
 48
0.0
 49
0.0
140
0.0
141
0.0
142
1.0
143
1.0
 70
  1024
 72
     1
 73
     0
 74
     0
  7

 75
     0
 76
     0
 77
     2
 78
   300
147
1.0
148
0.0
149
0.0
100
AcDbLayout
  1
Model
 70
     0
 71
     1
 10
0.0
 20
0.0
 11
2100.0
 21
2970.0
 12
0.0
 22
0.0
 32
0.0
 14
0.0
 24
0.0
 34
-0.0000000000000142
 15
2100.0
 25
2970.0
 35
0.0000000000000071
146
0.0
 13
0.0
 23
0.0
 33
0.0
 16
0.0
 26
0.0
 36
0.0
 17
0.0
 27
0.0
 37
0.0
 76
     0
330
A
331
15
  0
MATERIAL
  5
265
102
{ACAD_REACTORS
330
263
102
}
330
263
100
AcDbMaterial
  1
ByBlock
 72
     1
 94
      127
  0
MATERIAL
  5
264
102
{ACAD_REACTORS
330
263
102
}
330
263
100
AcDbMaterial
  1
ByLayer
 72
     1
 94
      127
  0
MATERIAL
  5
266
102
{ACAD_REACTORS
330
263
102
}
330
263
100
AcDbMaterial
  1
Global
 72
     1
 94
      127
  0
MLEADERSTYLE
  5
DAB
102
{ACAD_REACTORS
330
336
102
}
330
336
100
AcDbMLeaderStyle
170
     2
171
     1
172
     0
 90
        2
 40
0.0
 41
0.0
173
     1
 91
-1056964608
340
11
 92
       -2
290
     1
 42
2.0
291
     1
 43
8.0
  3
Standard
341
0
 44
4.0
300

342
17
174
     1
178
     6
175
     1
176
     0
 93
-1056964608
 45
4.0
292
     0
297
     0
 46
4.0
343
0
 94
-1056964608
 47
1.0
 49
1.0
140
1.0
293
     1
141
0.0
294
     1
177
     0
142
1.0
295
     0
296
     0
143
3.75
1001
ACAD_MLEADERVER
1070
     2
  0
MLINESTYLE
  5
1C
102
{ACAD_REACTORS
330
1B
102
}
330
1B
100
AcDbMlineStyle
  2
Standard
 70
     0
  3

 62
     0
 51
90.0
 52
90.0
 71
     2
 49
0.5
 62
   256
  6
BYLAYER
 49
-0.5
 62
   256
  6
BYLAYER
  0
ACDBPLACEHOLDER
  5
1D
102
{ACAD_REACTORS
330
1F
102
}
330
1F
  0
SCALE
  5
242
102
{ACAD_REACTORS
330
241
102
}
330
241
100
AcDbScale
 70
     0
300
1:1
140
1.0
141
1.0
290
     1
  0
SCALE
  5
243
102
{ACAD_REACTORS
330
241
102
}
330
241
100
AcDbScale
 70
     0
300
1:2
140
1.0
141
2.0
290
     0
  0
SCALE
  5
244
102
{ACAD_REACTORS
330
241
102
}
330
241
100
AcDbScale
 70
     0
300
1:4
140
1.0
141
4.0
290
     0
  0
SCALE
  5
245
102
{ACAD_REACTORS
330
241
102
}
330
241
100
AcDbScale
 70
     0
300
1:5
140
1.0
141
5.0
290
     0
  0
SCALE
  5
246
102
{ACAD_REACTORS
330
241
102
}
330
241
100
AcDbScale
 70
     0
300
1:8
140
1.0
141
8.0
290
     0
  0
SCALE
  5
247
102
{ACAD_REACTORS
330
241
102
}
330
241
100
AcDbScale
 70
     0
300
1:10
140
1.0
141
10.0
290
     0
  0
SCALE
  5
248
102
{ACAD_REACTORS
330
241
102
}
330
241
100
AcDbScale
 70
     0
300
1:16
140
1.0
141
16.0
290
     0
  0
SCALE
  5
249
102
{ACAD_REACTORS
330
241
102
}
330
241
100
AcDbScale
 70
     0
300
1:20
140
1.0
141
20.0
290
     0
  0
SCALE
  5
24A
102
{ACAD_REACTORS
330
241
102
}
330
241
100
AcDbScale
 70
     0
300
1:30
140
1.0
141
30.0
290
     0
  0
SCALE
  5
24B
102
{ACAD_REACTORS
330
241
102
}
330
241
100
AcDbScale
 70
     0
300
1:40
140
1.0
141
40.0
290
     0
  0
SCALE
  5
24C
102
{ACAD_REACTORS
330
241
102
}
330
241
100
AcDbScale
 70
     0
300
1:50
140
1.0
141
50.0
290
     0
  0
SCALE
  5
24D
102
{ACAD_REACTORS
330
241
102
}
330
241
100
AcDbScale
 70
     0
300
1:100
140
1.0
141
100.0
290
     0
  0
SCALE
  5
24E
102
{ACAD_REACTORS
330
241
102
}
330
241
100
AcDbScale
 70
     0
300
2:1
140
2.0
141
1.0
290
     0
  0
SCALE
  5
24F
102
{ACAD_REACTORS
330
241
102
}
330
241
100
AcDbScale
 70
     0
300
4:1
140
4.0
141
1.0
290
     0
  0
SCALE
  5
250
102
{ACAD_REACTORS
330
241
102
}
330
241
100
AcDbScale
 70
     0
300
8:1
140
8.0
141
1.0
290
     0
  0
SCALE
  5
251
102
{ACAD_REACTORS
330
241
102
}
330
241
100
AcDbScale
 70
     0
300
10:1
140
10.0
141
1.0
290
     0
  0
SCALE
  5
252
102
{ACAD_REACTORS
330
241
102
}
330
241
100
AcDbScale
 70
     0
300
100:1
140
100.0
141
1.0
290
     0
  0
SCALE
  5
253
102
{ACAD_REACTORS
330
241
102
}
330
241
100
AcDbScale
 70
     0
300
1/128" = 1'-0"
140
0.0078125
141
12.0
290
     0
  0
SCALE
  5
254
102
{ACAD_REACTORS
330
241
102
}
330
241
100
AcDbScale
 70
     0
300
1/64" = 1'-0"
140
0.015625
141
12.0
290
     0
  0
SCALE
  5
255
102
{ACAD_REACTORS
330
241
102
}
330
241
100
AcDbScale
 70
     0
300
1/32" = 1'-0"
140
0.03125
141
12.0
290
     0
  0
SCALE
  5
256
102
{ACAD_REACTORS
330
241
102
}
330
241
100
AcDbScale
 70
     0
300
1/16" = 1'-0"
140
0.0625
141
12.0
290
     0
  0
SCALE
  5
257
102
{ACAD_REACTORS
330
241
102
}
330
241
100
AcDbScale
 70
     0
300
3/32" = 1'-0"
140
0.09375
141
12.0
290
     0
  0
SCALE
  5
258
102
{ACAD_REACTORS
330
241
102
}
330
241
100
AcDbScale
 70
     0
300
1/8" = 1'-0"
140
0.125
141
12.0
290
     0
  0
SCALE
  5
259
102
{ACAD_REACTORS
330
241
102
}
330
241
100
AcDbScale
 70
     0
300
3/16" = 1'-0"
140
0.1875
141
12.0
290
     0
  0
SCALE
  5
25A
102
{ACAD_REACTORS
330
241
102
}
330
241
100
AcDbScale
 70
     0
300
1/4" = 1'-0"
140
0.25
141
12.0
290
     0
  0
SCALE
  5
25B
102
{ACAD_REACTORS
330
241
102
}
330
241
100
AcDbScale
 70
     0
300
3/8" = 1'-0"
140
0.375
141
12.0
290
     0
  0
SCALE
  5
25C
102
{ACAD_REACTORS
330
241
102
}
330
241
100
AcDbScale
 70
     0
300
1/2" = 1'-0"
140
0.5
141
12.0
290
     0
  0
SCALE
  5
25D
102
{ACAD_REACTORS
330
241
102
}
330
241
100
AcDbScale
 70
     0
300
3/4" = 1'-0"
140
0.75
141
12.0
290
     0
  0
SCALE
  5
25E
102
{ACAD_REACTORS
330
241
102
}
330
241
100
AcDbScale
 70
     0
300
1" = 1'-0"
140
1.0
141
12.0
290
     0
  0
SCALE
  5
25F
102
{ACAD_REACTORS
330
241
102
}
330
241
100
AcDbScale
 70
     0
300
1-1/2" = 1'-0"
140
1.5
141
12.0
290
     0
  0
SCALE
  5
260
102
{ACAD_REACTORS
330
241
102
}
330
241
100
AcDbScale
 70
     0
300
3" = 1'-0"
140
3.0
141
12.0
290
     0
  0
SCALE
  5
261
102
{ACAD_REACTORS
330
241
102
}
330
241
100
AcDbScale
 70
     0
300
6" = 1'-0"
140
6.0
141
12.0
290
     0
  0
SCALE
  5
262
102
{ACAD_REACTORS
330
241
102
}
330
241
100
AcDbScale
 70
     0
300
1'-0" = 1'-0"
140
12.0
141
12.0
290
     0
  0
TABLESTYLE
  5
279
102
{ACAD_REACTORS
330
278
102
}
102
{ACAD_XDICTIONARY
360
47AF
102
}
330
278
100
AcDbTableStyle
  3
Standard
 70
     0
 71
     0
 40
0.06
 41
0.06
280
     0
281
     0
  7
Standard
140
4.5
170
     2
 62
     0
 63
   257
283
     0
 90
        4
 91
        0
  1

274
    -2
284
     1
 64
     0
275
    -2
285
     1
 65
     0
276
    -2
286
     1
 66
     0
277
    -2
287
     1
 67
     0
278
    -2
288
     1
 68
     0
279
    -2
289
     1
 69
     0
  7
Standard
140
6.0
170
     5
 62
     0
 63
   257
283
     0
 90
        4
 91
        0
  1

274
    -2
284
     1
 64
     0
275
    -2
285
     1
 65
     0
276
    -2
286
     1
 66
     0
277
    -2
287
     1
 67
     0
278
    -2
288
     1
 68
     0
279
    -2
289
     1
 69
     0
  7
Standard
140
4.5
170
     5
 62
     0
 63
   257
283
     0
 90
        4
 91
        0
  1

274
    -2
284
     1
 64
     0
275
    -2
285
     1
 65
     0
276
    -2
286
     1
 66
     0
277
    -2
287
     1
 67
     0
278
    -2
288
     1
 68
     0
279
    -2
289
     1
 69
     0
  0
VISUALSTYLE
  5
26C
102
{ACAD_REACTORS
330
267
102
}
330
267
100
AcDbVisualStyle
  2
2dWireframe
 70
     4
 71
     0
 72
     2
 73
     0
 90
        0
 40
-0.6
 41
-30.0
 62
     5
 63
     7
421
 16777215
 74
     1
 91
        4
 64
     7
 65
   257
 75
     1
175
     1
 42
1.0
 92
        0
 66
   257
 43
1.0
 76
     1
 77
     6
 78
     2
 67
     7
 79
     5
170
     0
171
     0
290
     0
174
     0
 93
        1
 44
0.0
173
     0
291
     0
 45
0.0
  0
VISUALSTYLE
  5
26E
102
{ACAD_REACTORS
330
267
102
}
330
267
100
AcDbVisualStyle
  2
3D Hidden
 70
     6
 71
     1
 72
     2
 73
     2
 90
        0
 40
-0.6
 41
-30.0
 62
     5
 63
     7
421
 16777215
 74
     2
 91
        2
 64
     7
 65
   257
 75
     2
175
     1
 42
40.0
 92
        0
 66
   257
 43
1.0
 76
     1
 77
     6
 78
     2
 67
     7
 79
     3
170
     0
171
     0
290
     0
174
     0
 93
        1
 44
0.0
173
     0
291
     0
 45
0.0
  0
VISUALSTYLE
  5
26D
102
{ACAD_REACTORS
330
267
102
}
330
267
100
AcDbVisualStyle
  2
3dWireframe
 70
     5
 71
     0
 72
     2
 73
     0
 90
        0
 40
-0.6
 41
-30.0
 62
     5
 63
     7
421
 16777215
 74
     1
 91
        4
 64
     7
 65
   257
 75
     1
175
     1
 42
1.0
 92
        0
 66
   257
 43
1.0
 76
     1
 77
     6
 78
     2
 67
     7
 79
     5
170
     0
171
     0
290
     0
174
     0
 93
        1
 44
0.0
173
     0
291
     0
 45
0.0
  0
VISUALSTYLE
  5
26F
102
{ACAD_REACTORS
330
267
102
}
330
267
100
AcDbVisualStyle
  2
Basic
 70
     7
 71
     1
 72
     0
 73
     1
 90
        0
 40
-0.6
 41
-30.0
 62
     5
 63
     7
421
 16777215
 74
     0
 91
        4
 64
     7
 65
   257
 75
     1
175
     1
 42
1.0
 92
        8
 66
     7
 43
1.0
 76
     1
 77
     6
 78
     2
 67
     7
 79
     5
170
     0
171
     0
290
     0
174
     0
 93
        1
 44
0.0
173
     0
291
     1
 45
0.0
  0
VISUALSTYLE
  5
273
102
{ACAD_REACTORS
330
267
102
}
330
267
100
AcDbVisualStyle
  2
Brighten
 70
    12
 71
     2
 72
     2
 73
     0
 90
        0
 40
-0.6
 41
-30.0
 62
     5
 63
     7
421
 16777215
 74
     1
 91
        4
 64
     7
 65
   257
 75
     1
175
     1
 42
1.0
 92
        8
 66
     7
 43
1.0
 76
     1
 77
     6
 78
     2
 67
     7
 79
     5
170
     0
171
     0
290
     0
174
     0
 93
        1
 44
50.0
173
     0
291
     1
 45
0.0
  0
VISUALSTYLE
  5
277
102
{ACAD_REACTORS
330
267
102
}
330
267
100
AcDbVisualStyle
  2
ColorChange
 70
    16
 71
     2
 72
     2
 73
     3
 90
        0
 40
-0.6
 41
-30.0
 62
     5
 63
     8
421
  8421504
 74
     1
 91
        4
 64
     7
 65
   257
 75
     1
175
     1
 42
1.0
 92
        8
 66
     8
424
  8421504
 43
1.0
 76
     1
 77
     6
 78
     2
 67
     7
 79
     5
170
     0
171
     0
290
     0
174
     0
 93
        1
 44
0.0
173
     0
291
     1
 45
0.0
  0
VISUALSTYLE
  5
271
102
{ACAD_REACTORS
330
267
102
}
330
267
100
AcDbVisualStyle
  2
Conceptual
 70
     9
 71
     3
 72
     2
 73
     0
 90
        0
 40
-0.6
 41
-30.0
 62
     5
 63
     7
421
 16777215
 74
     2
 91
        2
 64
     7
 65
   257
 75
     1
175
     1
 42
40.0
 92
        8
 66
     7
 43
1.0
 76
     1
 77
     6
 78
     2
 67
     7
 79
     3
170
     0
171
     0
290
     0
174
     0
 93
        1
 44
0.0
173
     0
291
     0
 45
0.0
  0
VISUALSTYLE
  5
272
102
{ACAD_REACTORS
330
267
102
}
330
267
100
AcDbVisualStyle
  2
Dim
 70
    11
 71
     2
 72
     2
 73
     0
 90
        0
 40
-0.6
 41
-30.0
 62
     5
 63
     7
421
 16777215
 74
     1
 91
        4
 64
     7
 65
   257
 75
     1
175
     1
 42
1.0
 92
        8
 66
     7
 43
1.0
 76
     1
 77
     6
 78
     2
 67
     7
 79
     5
170
     0
171
     0
290
     0
174
     0
 93
        1
 44
-50.0
173
     0
291
     1
 45
0.0
  0
VISUALSTYLE
  5
8FE
102
{ACAD_REACTORS
330
267
102
}
330
267
100
AcDbVisualStyle
  2
EdgeColorOff
 70
    22
 71
     2
 72
     2
 73
     0
 90
        0
 40
0.6
 41
30.0
 62
     5
 63
     7
421
 16777215
 74
     1
 91
        4
 64
     7
 65
   257
 75
     1
175
     1
 42
1.0
 92
        8
 66
     7
 43
1.0
 76
     1
 77
     6
 78
     2
 67
     7
 79
     5
170
     0
171
     0
290
     0
174
     0
 93
        1
 44
0.0
173
     0
291
     1
 45
0.0
  0
VISUALSTYLE
  5
276
102
{ACAD_REACTORS
330
267
102
}
330
267
100
AcDbVisualStyle
  2
Facepattern
 70
    15
 71
     2
 72
     2
 73
     0
 90
        0
 40
-0.6
 41
-30.0
 62
     5
 63
     7
421
 16777215
 74
     1
 91
        4
 64
     7
 65
   257
 75
     1
175
     1
 42
1.0
 92
        8
 66
     7
 43
1.0
 76
     1
 77
     6
 78
     2
 67
     7
 79
     5
170
     0
171
     0
290
     0
174
     0
 93
        1
 44
0.0
173
     0
291
     1
 45
0.0
  0
VISUALSTYLE
  5
268
102
{ACAD_REACTORS
330
267
102
}
330
267
100
AcDbVisualStyle
  2
Flat
 70
     0
 71
     2
 72
     1
 73
     1
 90
        2
 40
-0.6
 41
30.0
 62
     5
 63
     7
421
 16777215
 74
     0
 91
        4
 64
     7
 65
   257
 75
     1
175
     1
 42
1.0
 92
        8
 66
     7
 43
1.0
 76
     1
 77
     6
 78
     2
 67
     7
 79
     5
170
     0
171
     0
290
     0
174
     0
 93
       13
 44
0.0
173
     0
291
     1
 45
0.0
  0
VISUALSTYLE
  5
269
102
{ACAD_REACTORS
330
267
102
}
330
267
100
AcDbVisualStyle
  2
FlatWithEdges
 70
     1
 71
     2
 72
     1
 73
     1
 90
        2
 40
-0.6
 41
30.0
 62
     5
 63
     7
421
 16777215
 74
     1
 91
        4
 64
     7
 65
   257
 75
     1
175
     1
 42
1.0
 92
        0
 66
   257
 43
1.0
 76
     1
 77
     6
 78
     2
 67
     7
 79
     5
170
     0
171
     0
290
     0
174
     0
 93
       13
 44
0.0
173
     0
291
     1
 45
0.0
  0
VISUALSTYLE
  5
26A
102
{ACAD_REACTORS
330
267
102
}
330
267
100
AcDbVisualStyle
  2
Gouraud
 70
     2
 71
     2
 72
     2
 73
     1
 90
        2
 40
-0.6
 41
30.0
 62
     5
 63
     7
421
 16777215
 74
     0
 91
        4
 64
     7
 65
   257
 75
     1
175
     1
 42
1.0
 92
        0
 66
     7
 43
1.0
 76
     1
 77
     6
 78
     2
 67
     7
 79
     5
170
     0
171
     0
290
     0
174
     0
 93
       13
 44
0.0
173
     0
291
     1
 45
0.0
  0
VISUALSTYLE
  5
26B
102
{ACAD_REACTORS
330
267
102
}
330
267
100
AcDbVisualStyle
  2
GouraudWithEdges
 70
     3
 71
     2
 72
     2
 73
     1
 90
        2
 40
-0.6
 41
30.0
 62
     5
 63
     7
421
 16777215
 74
     1
 91
        4
 64
     7
 65
   257
 75
     1
175
     1
 42
1.0
 92
        0
 66
   257
 43
1.0
 76
     1
 77
     6
 78
     2
 67
     7
 79
     5
170
     0
171
     0
290
     0
174
     0
 93
       13
 44
0.0
173
     0
291
     1
 45
0.0
  0
VISUALSTYLE
  5
8FB
102
{ACAD_REACTORS
330
267
102
}
330
267
100
AcDbVisualStyle
  2
Hidden
 70
     6
 71
     1
 72
     2
 73
     2
 90
        0
 40
0.6
 41
30.0
 62
     5
 63
     7
421
 16777215
 74
     2
 91
        2
 64
     7
 65
   257
 75
     2
175
     1
 42
40.0
 92
        0
 66
   257
 43
1.0
 76
     1
 77
     6
 78
     2
 67
     7
 79
     3
170
     0
171
     0
290
     0
174
     0
 93
        1
 44
0.0
173
     0
291
     0
 45
0.0
  0
VISUALSTYLE
  5
8FC
102
{ACAD_REACTORS
330
267
102
}
330
267
100
AcDbVisualStyle
  2
JitterOff
 70
    20
 71
     2
 72
     2
 73
     0
 90
        0
 40
0.6
 41
30.0
 62
     5
 63
     7
421
 16777215
 74
     1
 91
        4
 64
     7
 65
   257
 75
     1
175
     1
 42
1.0
 92
       10
 66
     7
 43
1.0
 76
     1
 77
     6
 78
     2
 67
     7
 79
     5
170
     0
171
     0
290
     0
174
     0
 93
        1
 44
0.0
173
     0
291
     1
 45
0.0
  0
VISUALSTYLE
  5
275
102
{ACAD_REACTORS
330
267
102
}
330
267
100
AcDbVisualStyle
  2
Linepattern
 70
    14
 71
     2
 72
     2
 73
     0
 90
        0
 40
-0.6
 41
-30.0
 62
     5
 63
     7
421
 16777215
 74
     1
 91
        4
 64
     7
 65
   257
 75
     7
175
     7
 42
1.0
 92
        8
 66
     7
 43
1.0
 76
     1
 77
     6
 78
     2
 67
     7
 79
     5
170
     0
171
     0
290
     0
174
     0
 93
        1
 44
0.0
173
     0
291
     1
 45
0.0
  0
VISUALSTYLE
  5
8FD
102
{ACAD_REACTORS
330
267
102
}
330
267
100
AcDbVisualStyle
  2
OverhangOff
 70
    21
 71
     2
 72
     2
 73
     0
 90
        0
 40
0.6
 41
30.0
 62
     5
 63
     7
421
 16777215
 74
     1
 91
        4
 64
     7
 65
   257
 75
     1
175
     1
 42
1.0
 92
        9
 66
     7
 43
1.0
 76
     1
 77
     6
 78
     2
 67
     7
 79
     5
170
     0
171
     0
290
     0
174
     0
 93
        1
 44
0.0
173
     0
291
     1
 45
0.0
  0
VISUALSTYLE
  5
270
102
{ACAD_REACTORS
330
267
102
}
330
267
100
AcDbVisualStyle
  2
Realistic
 70
     8
 71
     2
 72
     2
 73
     0
 90
        0
 40
-0.6
 41
-30.0
 62
     5
 63
     7
421
 16777215
 74
     1
 91
        0
 64
     7
 65
   257
 75
     1
175
     1
 42
1.0
 92
        8
 66
     8
424
  7895160
 43
1.0
 76
     1
 77
     6
 78
     2
 67
     7
 79
     5
170
     0
171
     0
290
     0
174
     0
 93
       13
 44
0.0
173
     0
291
     0
 45
0.0
  0
VISUALSTYLE
  5
903
102
{ACAD_REACTORS
330
267
102
}
330
267
100
AcDbVisualStyle
  2
Shaded
 70
    27
 71
     2
 72
     2
 73
     1
 90
        2
 40
0.6
 41
30.0
 62
     5
 63
     7
421
 16777215
 74
     0
 91
        4
 64
     7
 65
   257
 75
     1
175
     1
 42
1.0
 92
        8
 66
   257
 43
1.0
 76
     1
 77
     6
 78
     2
 67
     8
425
  7895160
 79
     3
170
     0
171
     0
290
     0
174
     0
 93
        5
 44
0.0
173
     0
291
     0
 45
0.0
  0
VISUALSTYLE
  5
902
102
{ACAD_REACTORS
330
267
102
}
330
267
100
AcDbVisualStyle
  2
Shaded with edges
 70
    26
 71
     2
 72
     2
 73
     1
 90
        2
 40
0.6
 41
30.0
 62
     5
 63
     7
421
 16777215
 74
     1
 91
       10
 64
     7
 65
   257
 75
     2
175
     1
 42
1.0
 92
        8
 66
   257
 43
1.0
 76
     1
 77
     6
 78
     2
 67
     7
 79
     3
170
     0
171
     0
290
     0
174
     0
 93
        5
 44
0.0
173
     0
291
     0
 45
0.0
  0
VISUALSTYLE
  5
8FF
102
{ACAD_REACTORS
330
267
102
}
330
267
100
AcDbVisualStyle
  2
Shades of Gray
 70
    23
 71
     2
 72
     2
 73
     3
 90
        0
 40
0.6
 41
30.0
 62
     5
 63
     7
421
 16777215
 74
     2
 91
        2
 64
     7
 65
     7
 75
     1
175
     1
 42
40.0
 92
        8
 66
     7
 43
1.0
 76
     1
 77
     6
 78
     2
 67
     7
 79
     3
170
     0
171
     0
290
     0
174
     0
 93
        1
 44
0.0
173
     0
291
     0
 45
0.0
  0
VISUALSTYLE
  5
900
102
{ACAD_REACTORS
330
267
102
}
330
267
100
AcDbVisualStyle
  2
Sketchy
 70
    24
 71
     1
 72
     2
 73
     2
 90
        0
 40
0.6
 41
30.0
 62
     5
 63
     7
421
 16777215
 74
     2
 91
        2
 64
     7
 65
     7
 75
     1
175
     1
 42
40.0
 92
       11
 66
     7
 43
1.0
 76
     1
 77
     6
 78
     2
 67
     7
 79
     6
170
     0
171
     0
290
     0
174
     0
 93
        1
 44
0.0
173
     0
291
     0
 45
0.0
  0
VISUALSTYLE
  5
274
102
{ACAD_REACTORS
330
267
102
}
330
267
100
AcDbVisualStyle
  2
Thicken
 70
    13
 71
     2
 72
     2
 73
     0
 90
        0
 40
-0.6
 41
-30.0
 62
     5
 63
     7
421
 16777215
 74
     1
 91
        4
 64
     7
 65
   257
 75
     1
175
     1
 42
1.0
 92
       12
 66
     7
 43
1.0
 76
     1
 77
     6
 78
     2
 67
     7
 79
     5
170
     0
171
     0
290
     0
174
     0
 93
        1
 44
0.0
173
     0
291
     1
 45
0.0
  0
VISUALSTYLE
  5
8FA
102
{ACAD_REACTORS
330
267
102
}
330
267
100
AcDbVisualStyle
  2
Wireframe
 70
     5
 71
     0
 72
     2
 73
     0
 90
        0
 40
0.6
 41
30.0
 62
     5
 63
     7
421
 16777215
 74
     1
 91
        4
 64
     7
 65
   257
 75
     1
175
     1
 42
1.0
 92
        0
 66
   257
 43
1.0
 76
     1
 77
     6
 78
     2
 67
     7
 79
     3
170
     0
171
     0
290
     0
174
     0
 93
        1
 44
0.0
173
     0
291
     0
 45
0.0
  0
VISUALSTYLE
  5
901
102
{ACAD_REACTORS
330
267
102
}
330
267
100
AcDbVisualStyle
  2
X-Ray
 70
    25
 71
     2
 72
     2
 73
     1
 90
        1
 40
0.5
 41
30.0
 62
     5
 63
     7
421
 16777215
 74
     1
 91
        0
 64
     7
 65
   257
 75
     1
175
     1
 42
1.0
 92
        8
 66
     7
 43
1.0
 76
     1
 77
     6
 78
     2
 67
     7
 79
     3
170
     0
171
     0
290
     0
174
     0
 93
       13
 44
0.0
173
     0
291
     0
 45
0.0
  0
DICTIONARYVAR
  5
331
102
{ACAD_REACTORS
330
330
102
}
330
330
100
DictionaryVariables
280
     0
  1
1:1
  0
DICTIONARYVAR
  5
DB1
102
{ACAD_REACTORS
330
330
102
}
330
330
100
DictionaryVariables
280
     0
  1
Standard
  0
DICTIONARYVAR
  5
335
102
{ACAD_REACTORS
330
330
102
}
330
330
100
DictionaryVariables
280
     0
  1
Standard
  0
DICTIONARYVAR
  5
D52
102
{ACAD_REACTORS
330
330
102
}
330
330
100
DictionaryVariables
280
     0
  1
ByLayer
  0
DICTIONARYVAR
  5
896
102
{ACAD_REACTORS
330
330
102
}
330
330
100
DictionaryVariables
280
     0
  1
0
  0
DICTIONARYVAR
  5
ECE
102
{ACAD_REACTORS
330
E3E
102
}
330
E3E
100
DictionaryVariables
280
     0
  1
0.261799
  0
DICTIONARYVAR
  5
ECC
102
{ACAD_REACTORS
330
E3E
102
}
330
E3E
100
DictionaryVariables
280
     0
  1
0.400000
  0
DICTIONARYVAR
  5
ECD
102
{ACAD_REACTORS
330
E3E
102
}
330
E3E
100
DictionaryVariables
280
     0
  1
0.250000
  0
DICTIONARYVAR
  5
ECF
102
{ACAD_REACTORS
330
E3E
102
}
330
E3E
100
DictionaryVariables
280
     0
  1
1
  0
FIELD
  5
1467
102
{ACAD_REACTORS
330
36C0
330
47AA
102
}
330
47AA
100
AcDbField
  1
_text
  2
{%<\_FldIdx 0>%N}
 90
        1
360
146B
 97
        0
 91
       63
 92
        0
 94
       11
 95
        2
 96
        0
300

 93
        1
  6
ACFD_FIELDTEXT_CHECKSUM
 93
        2
 90
        2
140
4475.0
 94
        0
300

302

304
ACVALUE_END
  7
ACFD_FIELD_VALUE
 93
        6
 90
        4
  1
{20201215N}
 94
        0
300

302

304
ACVALUE_END
301
{20201215N}
 98
       11
  0
DICTIONARY
  5
47AF
330
279
100
AcDbDictionary
280
     1
281
     1
  3
ACAD_ROUNDTRIP_2008_TABLESTYLE_CELLSTYLEMAP
360
47B0
  0
FIELD
  5
146B
330
1467
100
AcDbField
  1
AcVar
  2
\AcVar Date \f "yyyyMMdd"
 90
        0
 97
        0
 91
       63
 92
        0
 94
        8
 95
       64
 96
        0
300
Variable not supported
 93
        1
  6
Variable
 93
        2
 90
        4
  1
Date
 94
        0
300

302

304
ACVALUE_END
  7
ACFD_FIELD_VALUE
 93
        6
 90
        8
 92
       16
310
E4070C0000000F0000002E002E000000
 94
        0
300
yyyyMMdd
302

304
ACVALUE_END
301
20201215
 98
        8
  0
CELLSTYLEMAP
  5
47B0
102
{ACAD_REACTORS
330
47AF
102
}
330
47AF
100
AcDbCellStyleMap
 90
        3
300
CELLSTYLE
  1
TABLEFORMAT_BEGIN
 90
        5
170
     1
 91
        0
 92
    32768
 62
   257
 93
        1
300
CONTENTFORMAT
  1
CONTENTFORMAT_BEGIN
 90
        0
 91
        0
 92
        4
 93
        0
300

 40
0.0
140
1.0
 94
        5
 62
     0
340
17
144
6.0
309
CONTENTFORMAT_END
171
     1
301
MARGIN
  1
CELLMARGIN_BEGIN
 40
0.06
 40
0.06
 40
0.06
 40
0.06
 40
0.18
 40
0.18
309
CELLMARGIN_END
 94
        6
 95
        1
302
GRIDFORMAT
  1
GRIDFORMAT_BEGIN
 90
        0
 91
        1
 62
     0
 92
       -2
340
0
 93
        0
 40
0.045
309
GRIDFORMAT_END
 95
        2
302
GRIDFORMAT
  1
GRIDFORMAT_BEGIN
 90
        0
 91
        1
 62
     0
 92
       -2
340
0
 93
        0
 40
0.045
309
GRIDFORMAT_END
 95
        4
302
GRIDFORMAT
  1
GRIDFORMAT_BEGIN
 90
        0
 91
        1
 62
     0
 92
       -2
340
0
 93
        0
 40
0.045
309
GRIDFORMAT_END
 95
        8
302
GRIDFORMAT
  1
GRIDFORMAT_BEGIN
 90
        0
 91
        1
 62
     0
 92
       -2
340
0
 93
        0
 40
0.045
309
GRIDFORMAT_END
 95
       16
302
GRIDFORMAT
  1
GRIDFORMAT_BEGIN
 90
        0
 91
        1
 62
     0
 92
       -2
340
0
 93
        0
 40
0.045
309
GRIDFORMAT_END
 95
       32
302
GRIDFORMAT
  1
GRIDFORMAT_BEGIN
 90
        0
 91
        1
 62
     0
 92
       -2
340
0
 93
        0
 40
0.045
309
GRIDFORMAT_END
309
TABLEFORMAT_END
  1
CELLSTYLE_BEGIN
 90
        1
 91
        1
300
_TITLE
309
CELLSTYLE_END
300
CELLSTYLE
  1
TABLEFORMAT_BEGIN
 90
        5
170
     1
 91
        0
 92
        0
 62
   257
 93
        1
300
CONTENTFORMAT
  1
CONTENTFORMAT_BEGIN
 90
        0
 91
        0
 92
        4
 93
        0
300

 40
0.0
140
1.0
 94
        5
 62
     0
340
17
144
4.5
309
CONTENTFORMAT_END
171
     1
301
MARGIN
  1
CELLMARGIN_BEGIN
 40
0.06
 40
0.06
 40
0.06
 40
0.06
 40
0.18
 40
0.18
309
CELLMARGIN_END
 94
        6
 95
        1
302
GRIDFORMAT
  1
GRIDFORMAT_BEGIN
 90
        0
 91
        1
 62
     0
 92
       -2
340
0
 93
        0
 40
0.045
309
GRIDFORMAT_END
 95
        2
302
GRIDFORMAT
  1
GRIDFORMAT_BEGIN
 90
        0
 91
        1
 62
     0
 92
       -2
340
0
 93
        0
 40
0.045
309
GRIDFORMAT_END
 95
        4
302
GRIDFORMAT
  1
GRIDFORMAT_BEGIN
 90
        0
 91
        1
 62
     0
 92
       -2
340
0
 93
        0
 40
0.045
309
GRIDFORMAT_END
 95
        8
302
GRIDFORMAT
  1
GRIDFORMAT_BEGIN
 90
        0
 91
        1
 62
     0
 92
       -2
340
0
 93
        0
 40
0.045
309
GRIDFORMAT_END
 95
       16
302
GRIDFORMAT
  1
GRIDFORMAT_BEGIN
 90
        0
 91
        1
 62
     0
 92
       -2
340
0
 93
        0
 40
0.045
309
GRIDFORMAT_END
 95
       32
302
GRIDFORMAT
  1
GRIDFORMAT_BEGIN
 90
        0
 91
        1
 62
     0
 92
       -2
340
0
 93
        0
 40
0.045
309
GRIDFORMAT_END
309
TABLEFORMAT_END
  1
CELLSTYLE_BEGIN
 90
        2
 91
        1
300
_HEADER
309
CELLSTYLE_END
300
CELLSTYLE
  1
TABLEFORMAT_BEGIN
 90
        5
170
     1
 91
        0
 92
        0
 62
   257
 93
        1
300
CONTENTFORMAT
  1
CONTENTFORMAT_BEGIN
 90
        0
 91
        0
 92
        4
 93
        0
300

 40
0.0
140
1.0
 94
        2
 62
     0
340
17
144
4.5
309
CONTENTFORMAT_END
171
     1
301
MARGIN
  1
CELLMARGIN_BEGIN
 40
0.06
 40
0.06
 40
0.06
 40
0.06
 40
0.18
 40
0.18
309
CELLMARGIN_END
 94
        6
 95
        1
302
GRIDFORMAT
  1
GRIDFORMAT_BEGIN
 90
        0
 91
        1
 62
     0
 92
       -2
340
0
 93
        0
 40
0.045
309
GRIDFORMAT_END
 95
        2
302
GRIDFORMAT
  1
GRIDFORMAT_BEGIN
 90
        0
 91
        1
 62
     0
 92
       -2
340
0
 93
        0
 40
0.045
309
GRIDFORMAT_END
 95
        4
302
GRIDFORMAT
  1
GRIDFORMAT_BEGIN
 90
        0
 91
        1
 62
     0
 92
       -2
340
0
 93
        0
 40
0.045
309
GRIDFORMAT_END
 95
        8
302
GRIDFORMAT
  1
GRIDFORMAT_BEGIN
 90
        0
 91
        1
 62
     0
 92
       -2
340
0
 93
        0
 40
0.045
309
GRIDFORMAT_END
 95
       16
302
GRIDFORMAT
  1
GRIDFORMAT_BEGIN
 90
        0
 91
        1
 62
     0
 92
       -2
340
0
 93
        0
 40
0.045
309
GRIDFORMAT_END
 95
       32
302
GRIDFORMAT
  1
GRIDFORMAT_BEGIN
 90
        0
 91
        1
 62
     0
 92
       -2
340
0
 93
        0
 40
0.045
309
GRIDFORMAT_END
309
TABLEFORMAT_END
  1
CELLSTYLE_BEGIN
 90
        3
 91
        2
300
_DATA
309
CELLSTYLE_END
  0
ENDSEC
  0
EOF
