  0
SECTION
  2
HEADER
  9
$ACADVER
  1
AC1021
  9
$ACADMAINTVER
 70
    25
  9
$DWGCODEPAGE
  3
ANSI_932
  9
$LASTSAVEDBY
  1
howeNelson
  9
$INSBASE
 10
0.0
 20
0.0
 30
0.0
  9
$EXTMIN
 10
-975.0000000002414
 20
-1402.496623599584
 30
0.0
  9
$EXTMAX
 10
975.0000000002411
 20
1430.857901582273
 30
0.0
  9
$LIMMIN
 10
0.0
 20
0.0
  9
$LIMMAX
 10
0.0
 20
0.0
  9
$ORTHOMODE
 70
     0
  9
$REGENMODE
 70
     1
  9
$FILLMODE
 70
     1
  9
$QTEXTMODE
 70
     0
  9
$MIRRTEXT
 70
     1
  9
$LTSCALE
 40
50.8
  9
$ATTMODE
 70
     1
  9
$TEXTSIZE
 40
0.0
  9
$TRACEWID
 40
1.0
  9
$TEXTSTYLE
  7
Standard
  9
$CLAYER
  8
notes
  9
$CELTYPE
  6
Continuous
  9
$CECOLOR
 62
   256
  9
$CELTSCALE
 40
1.0
  9
$DISPSILH
 70
     0
  9
$DIMSCALE
 40
1.0
  9
$DIMASZ
 40
31.75
  9
$DIMEXO
 40
0.0
  9
$DIMDLI
 40
6.99999999999994
  9
$DIMRND
 40
0.0
  9
$DIMDLE
 40
0.0
  9
$DIMEXE
 40
19.9999999999962
  9
$DIMTP
 40
0.0
  9
$DIMTM
 40
0.0
  9
$DIMTXT
 40
24.4326171875
  9
$DIMCEN
 40
0.0
  9
$DIMTSZ
 40
0.0
  9
$DIMTOL
 70
     0
  9
$DIMLIM
 70
     0
  9
$DIMTIH
 70
     0
  9
$DIMTOH
 70
     0
  9
$DIMSE1
 70
     0
  9
$DIMSE2
 70
     0
  9
$DIMTAD
 70
     1
  9
$DIMZIN
 70
    11
  9
$DIMBLK
  1
VW_FILLEDARROW
  9
$DIMASO
 70
     1
  9
$DIMSHO
 70
     1
  9
$DIMPOST
  1
<>
  9
$DIMAPOST
  1
[]
  9
$DIMALT
 70
     0
  9
$DIMALTD
 70
     1
  9
$DIMALTF
 40
1.0
  9
$DIMLFAC
 40
1.0
  9
$DIMTOFL
 70
     0
  9
$DIMTVP
 40
0.0
  9
$DIMTIX
 70
     1
  9
$DIMSOXD
 70
     0
  9
$DIMSAH
 70
     0
  9
$DIMBLK1
  1

  9
$DIMBLK2
  1

  9
$DIMSTYLE
  2
JIS
  9
$DIMCLRD
 70
     0
  9
$DIMCLRE
 70
     0
  9
$DIMCLRT
 70
     0
  9
$DIMTFAC
 40
1.0
  9
$DIMGAP
 40
1.00000000000108
  9
$DIMJUST
 70
     0
  9
$DIMSD1
 70
     0
  9
$DIMSD2
 70
     0
  9
$DIMTOLJ
 70
     1
  9
$DIMTZIN
 70
    11
  9
$DIMALTZ
 70
    11
  9
$DIMALTTZ
 70
    11
  9
$DIMUPT
 70
     0
  9
$DIMDEC
 70
     1
  9
$DIMTDEC
 70
     1
  9
$DIMALTU
 70
     2
  9
$DIMALTTD
 70
     2
  9
$DIMTXSTY
  7
ＭＳ ゴシック
  9
$DIMAUNIT
 70
     0
  9
$DIMADEC
 70
     2
  9
$DIMALTRND
 40
0.0
  9
$DIMAZIN
 70
     0
  9
$DIMDSEP
 70
    46
  9
$DIMATFIT
 70
     0
  9
$DIMFRAC
 70
     2
  9
$DIMLDRBLK
  1

  9
$DIMLUNIT
 70
     2
  9
$DIMLWD
 70
    -2
  9
$DIMLWE
 70
    -2
  9
$DIMTMOVE
 70
     0
  9
$DIMFXL
 40
1.0
  9
$DIMFXLON
 70
     0
  9
$DIMJOGANG
 40
0.7853981633974483
  9
$DIMTFILL
 70
     0
  9
$DIMTFILLCLR
 70
     0
  9
$DIMARCSYM
 70
     0
  9
$DIMLTYPE
  6

  9
$DIMLTEX1
  6

  9
$DIMLTEX2
  6

  9
$LUNITS
 70
     2
  9
$LUPREC
 70
     4
  9
$SKETCHINC
 40
0.1
  9
$FILLETRAD
 40
0.0
  9
$AUNITS
 70
     0
  9
$AUPREC
 70
     0
  9
$MENU
  1
acad
  9
$ELEVATION
 40
0.0
  9
$PELEVATION
 40
0.0
  9
$THICKNESS
 40
0.0
  9
$LIMCHECK
 70
     0
  9
$CHAMFERA
 40
0.0
  9
$CHAMFERB
 40
0.0
  9
$CHAMFERC
 40
0.0
  9
$CHAMFERD
 40
0.0
  9
$SKPOLY
 70
     0
  9
$TDCREATE
 40
2447893.375
  9
$TDUCREATE
 40
0.0
  9
$TDUPDATE
 40
2457927.610662268
  9
$TDUUPDATE
 40
2457927.235662268
  9
$TDINDWG
 40
0.0042215972
  9
$TDUSRTIMER
 40
2457927.231440706
  9
$USRTIMER
 70
     1
  9
$ANGBASE
 50
0.0
  9
$ANGDIR
 70
     0
  9
$PDMODE
 70
     1
  9
$PDSIZE
 40
-2.0
  9
$PLINEWID
 40
0.0
  9
$SPLFRAME
 70
     0
  9
$SPLINETYPE
 70
     6
  9
$SPLINESEGS
 70
     8
  9
$HANDSEED
  5
280
  9
$SURFTAB1
 70
     6
  9
$SURFTAB2
 70
     6
  9
$SURFTYPE
 70
     6
  9
$SURFU
 70
     6
  9
$SURFV
 70
     6
  9
$UCSBASE
  2

  9
$UCSNAME
  2

  9
$UCSORG
 10
0.0
 20
0.0
 30
0.0
  9
$UCSXDIR
 10
1.0
 20
0.0
 30
0.0
  9
$UCSYDIR
 10
0.0
 20
1.0
 30
0.0
  9
$UCSORTHOREF
  2

  9
$UCSORTHOVIEW
 70
     0
  9
$UCSORGTOP
 10
0.0
 20
0.0
 30
0.0
  9
$UCSORGBOTTOM
 10
0.0
 20
0.0
 30
0.0
  9
$UCSORGLEFT
 10
0.0
 20
0.0
 30
0.0
  9
$UCSORGRIGHT
 10
0.0
 20
0.0
 30
0.0
  9
$UCSORGFRONT
 10
0.0
 20
0.0
 30
0.0
  9
$UCSORGBACK
 10
0.0
 20
0.0
 30
0.0
  9
$PUCSBASE
  2

  9
$PUCSNAME
  2

  9
$PUCSORG
 10
0.0
 20
0.0
 30
0.0
  9
$PUCSXDIR
 10
1.0
 20
0.0
 30
0.0
  9
$PUCSYDIR
 10
0.0
 20
1.0
 30
0.0
  9
$PUCSORTHOREF
  2

  9
$PUCSORTHOVIEW
 70
     0
  9
$PUCSORGTOP
 10
0.0
 20
0.0
 30
0.0
  9
$PUCSORGBOTTOM
 10
0.0
 20
0.0
 30
0.0
  9
$PUCSORGLEFT
 10
0.0
 20
0.0
 30
0.0
  9
$PUCSORGRIGHT
 10
0.0
 20
0.0
 30
0.0
  9
$PUCSORGFRONT
 10
0.0
 20
0.0
 30
0.0
  9
$PUCSORGBACK
 10
0.0
 20
0.0
 30
0.0
  9
$USERI1
 70
     0
  9
$USERI2
 70
     0
  9
$USERI3
 70
     0
  9
$USERI4
 70
     0
  9
$USERI5
 70
     0
  9
$USERR1
 40
0.0
  9
$USERR2
 40
0.0
  9
$USERR3
 40
0.0
  9
$USERR4
 40
0.0
  9
$USERR5
 40
0.0
  9
$WORLDVIEW
 70
     1
  9
$SHADEDGE
 70
     3
  9
$SHADEDIF
 70
    70
  9
$TILEMODE
 70
     1
  9
$MAXACTVP
 70
    64
  9
$PINSBASE
 10
0.0
 20
0.0
 30
0.0
  9
$PLIMCHECK
 70
     0
  9
$PEXTMIN
 10
1.000000000000000E+20
 20
1.000000000000000E+20
 30
1.000000000000000E+20
  9
$PEXTMAX
 10
-1.000000000000000E+20
 20
-1.000000000000000E+20
 30
-1.000000000000000E+20
  9
$PLIMMIN
 10
-95.87226993865028
 20
-25.69999999999999
  9
$PLIMMAX
 10
201.1277300613497
 20
184.3
  9
$UNITMODE
 70
     0
  9
$VISRETAIN
 70
     0
  9
$PLINEGEN
 70
     1
  9
$PSLTSCALE
 70
     0
  9
$TREEDEPTH
 70
  3020
  9
$CMLSTYLE
  2
Standard
  9
$CMLJUST
 70
     0
  9
$CMLSCALE
 40
1.0
  9
$PROXYGRAPHICS
 70
     0
  9
$MEASUREMENT
 70
     1
  9
$CELWEIGHT
370
     0
  9
$ENDCAPS
280
     0
  9
$JOINSTYLE
280
     0
  9
$LWDISPLAY
290
     1
  9
$INSUNITS
 70
     4
  9
$HYPERLINKBASE
  1

  9
$STYLESHEET
  1

  9
$XEDIT
290
     1
  9
$CEPSNTYPE
380
     0
  9
$PSTYLEMODE
290
     1
  9
$FINGERPRINTGUID
  2

  9
$VERSIONGUID
  2

  9
$EXTNAMES
290
     1
  9
$PSVPSCALE
 40
0.0
  9
$OLESTARTUP
290
     0
  9
$SORTENTS
280
   127
  9
$INDEXCTL
280
     0
  9
$HIDETEXT
280
     1
  9
$XCLIPFRAME
290
     0
  9
$HALOGAP
280
     0
  9
$OBSCOLOR
 70
   257
  9
$OBSLTYPE
280
     0
  9
$INTERSECTIONDISPLAY
280
     0
  9
$INTERSECTIONCOLOR
 70
   257
  9
$DIMASSOC
280
     2
  9
$PROJECTNAME
  1

  9
$CAMERADISPLAY
290
     0
  9
$LENSLENGTH
 40
50.0
  9
$CAMERAHEIGHT
 40
0.0
  9
$STEPSPERSEC
 40
2.0
  9
$STEPSIZE
 40
6.0
  9
$3DDWFPREC
 40
2.0
  9
$PSOLWIDTH
 40
0.25
  9
$PSOLHEIGHT
 40
4.0
  9
$LOFTANG1
 40
1.570796326794897
  9
$LOFTANG2
 40
1.570796326794897
  9
$LOFTMAG1
 40
0.0
  9
$LOFTMAG2
 40
0.0
  9
$LOFTPARAM
 70
     7
  9
$LOFTNORMALS
280
     1
  9
$LATITUDE
 40
37.795
  9
$LONGITUDE
 40
-122.394
  9
$NORTHDIRECTION
 40
0.0
  9
$TIMEZONE
 70
 -8000
  9
$LIGHTGLYPHDISPLAY
280
     1
  9
$TILEMODELIGHTSYNCH
280
     1
  9
$SOLIDHIST
280
     0
  9
$SHOWHIST
280
     1
  9
$DWFFRAME
280
     2
  9
$DGNFRAME
280
     2
  9
$REALWORLDSCALE
290
     1
  9
$INTERFERECOLOR
 62
   256
  9
$CSHADOW
280
     0
  9
$SHADOWPLANELOCATION
 40
0.0
  0
ENDSEC
  0
SECTION
  2
CLASSES
  0
CLASS
  1
LWPOLYLINE
  2
AcDbPolyline
  3
ObjectDBX Classes
 90
        0
 91
        1
280
     0
281
     1
  0
CLASS
  1
IMAGE
  2
AcDbRasterImage
  3
ISM
 90
      127
 91
        5
280
     0
281
     1
  0
CLASS
  1
OLE2FRAME
  2
AcDbOle2Frame
  3
ObjectDBX Classes
 90
        0
 91
        1
280
     0
281
     1
  0
CLASS
  1
HATCH
  2
AcDbHatch
  3
ObjectDBX Classes
 90
        0
 91
        1
280
     0
281
     1
  0
CLASS
  1
DICTIONARYVAR
  2
AcDbDictionaryVar
  3
ObjectDBX Classes
 90
        0
 91
        4
280
     0
281
     0
  0
CLASS
  1
RASTERVARIABLES
  2
AcDbRasterVariables
  3
ISM
 90
        0
 91
        4
280
     0
281
     0
  0
CLASS
  1
IMAGEDEF
  2
AcDbRasterImageDef
  3
ISM
 90
        0
 91
        4
280
     0
281
     0
  0
CLASS
  1
IMAGEDEF_REACTOR
  2
AcDbRasterImageDefReactor
  3
ISM
 90
        1
 91
        4
280
     0
281
     0
  0
CLASS
  1
IDBUFFER
  2
AcDbIdBuffer
  3
ObjectDBX Classes
 90
        0
 91
        4
280
     0
281
     0
  0
CLASS
  1
SPATIAL_FILTER
  2
AcDbSpatialFilter
  3
ObjectDBX Classes
 90
        0
 91
        4
280
     0
281
     0
  0
CLASS
  1
XRECORD
  2
AcDbXrecord
  3
ObjectDBX Classes
 90
        0
 91
        1
280
     0
281
     0
  0
CLASS
  1
SORTENTSTABLE
  2
AcDbSortentsTable
  3
ObjectDBX Classes
 90
        0
 91
        4
280
     0
281
     0
  0
CLASS
  1
LAYER_INDEX
  2
AcDbLayerIndex
  3
ObjectDBX Classes
 90
        0
 91
        4
280
     0
281
     0
  0
CLASS
  1
SPATIAL_INDEX
  2
AcDbSpatialIndex
  3
AutoCAD 2000
 90
        0
 91
        4
280
     0
281
     0
  0
CLASS
  1
OBJECT_PTR
  2
CAseDLPNTableRecord
  3
ASE-LPNTableRecord
 90
        1
 91
        4
280
     0
281
     0
  0
CLASS
  1
LAYOUT
  2
AcDbLayout
  3
ObjectDBX Classes
 90
        0
 91
        1
280
     0
281
     0
  0
CLASS
  1
PLOTSETTINGS
  2
AcDbPlotSettings
  3
ObjectDBX Classes
 90
        0
 91
        4
280
     0
281
     0
  0
CLASS
  1
ACDBDICTIONARYWDFLT
  2
AcDbDictionaryWithDefault
  3
ObjectDBX Classes
 90
        0
 91
        4
280
     0
281
     0
  0
CLASS
  1
ACDBPLACEHOLDER
  2
AcDbPlaceHolder
  3
ObjectDBX Classes
 90
        0
 91
        1
280
     0
281
     0
  0
CLASS
  1
SCALE
  2
AcDbScale
  3
ObjectDBX Classes
 90
     1153
 91
        4
280
     0
281
     0
  0
CLASS
  1
VISUALSTYLE
  2
AcDbVisualStyle
  3
ObjectDBX Classes
 90
     4095
 91
        4
280
     0
281
     0
  0
CLASS
  1
MATERIAL
  2
AcDbMaterial
  3
ObjectDBX Classes
 90
     1153
 91
        4
280
     0
281
     0
  0
CLASS
  1
TABLESTYLE
  2
AcDbTableStyle
  3
ObjectDBX Classes
 90
     4095
 91
        4
280
     0
281
     0
  0
CLASS
  1
MLEADERSTYLE
  2
AcDbMLeaderStyle
  3
ACDB_MLEADERSTYLE_CLASS
 90
     4095
 91
        4
280
     0
281
     0
  0
CLASS
  1
SUN
  2
AcDbSun
  3
SCENEOE
 90
     1153
 91
        4
280
     0
281
     0
  0
CLASS
  1
DIMASSOC
  2
AcDbDimAssoc
  3
"AcDbDimAssoc|Product Desc:     AcDim ARX App For Dimension|Company:          Autodesk, Inc.|WEB Address:      www.autodesk.com"
 90
        0
 91
        4
280
     0
281
     0
  0
CLASS
  1
CELLSTYLEMAP
  2
AcDbCellStyleMap
  3
ObjectDBX Classes
 90
     1152
 91
        4
280
     0
281
     0
  0
ENDSEC
  0
SECTION
  2
TABLES
  0
TABLE
  2
VPORT
  5
7
330
0
100
AcDbSymbolTable
 70
     1
  0
VPORT
  5
15
330
7
100
AcDbSymbolTableRecord
100
AcDbViewportTableRecord
  2
*ACTIVE
 70
     0
 10
0.0
 20
0.0
 11
1.0
 21
1.0
 12
-0.0000000000001137
 22
14.18063899134449
 13
0.0
 23
0.0
 14
1.0
 24
1.0
 15
0.0
 25
0.0
 16
0.0
 26
0.0
 36
1.0
 17
0.0
 27
0.0
 37
0.0
 40
2890.021615685494
 41
2.175102599179207
 42
50.0
 43
0.0
 44
0.0
 50
0.0
 51
0.0
 71
    16
 72
  2000
 73
     1
 74
     1
 75
     0
 76
     0
 77
     0
 78
     0
281
     0
 65
     0
110
0.0
120
0.0
130
0.0
111
1.0
121
0.0
131
0.0
112
0.0
122
1.0
132
0.0
 79
     0
146
0.0
348
23B
 60
     3
 61
     5
292
     1
282
     1
141
0.0
142
0.0
 63
   250
361
258
  0
ENDTAB
  0
TABLE
  2
LTYPE
  5
4
330
0
100
AcDbSymbolTable
 70
    15
  0
LTYPE
  5
11
330
4
100
AcDbSymbolTableRecord
100
AcDbLinetypeTableRecord
  2
ByBlock
 70
     0
  3

 72
    65
 73
     0
 40
0.0
  0
LTYPE
  5
12
330
4
100
AcDbSymbolTableRecord
100
AcDbLinetypeTableRecord
  2
ByLayer
 70
     0
  3

 72
    65
 73
     0
 40
0.0
  0
LTYPE
  5
13
330
4
100
AcDbSymbolTableRecord
100
AcDbLinetypeTableRecord
  2
Continuous
 70
     0
  3
Solid line
 72
    65
 73
     0
 40
0.0
  0
LTYPE
  5
3B
330
4
100
AcDbSymbolTableRecord
100
AcDbLinetypeTableRecord
  2
STYLE_01
 70
     0
  3

 72
    65
 73
     2
 40
0.6151574803149606
 49
0.4675196850393701
 74
     0
 49
-0.1476377952755906
 74
     0
  0
LTYPE
  5
3C
330
4
100
AcDbSymbolTableRecord
100
AcDbLinetypeTableRecord
  2
STYLE_02
 70
     0
  3

 72
    65
 73
     4
 40
0.1107283464566929
 49
0.0738188976377953
 74
     0
 49
-0.0123031496062992
 74
     0
 49
0.0123031496062992
 74
     0
 49
-0.0123031496062992
 74
     0
  0
LTYPE
  5
3D
330
4
100
AcDbSymbolTableRecord
100
AcDbLinetypeTableRecord
  2
STYLE_03
 70
     0
  3

 72
    65
 73
     2
 40
1.25
 49
1.04164
 74
     0
 49
-0.2083599999999999
 74
     0
  0
LTYPE
  5
3E
330
4
100
AcDbSymbolTableRecord
100
AcDbLinetypeTableRecord
  2
STYLE_04
 70
     0
  3

 72
    65
 73
     2
 40
1.52771
 49
1.319425
 74
     0
 49
-0.208285
 74
     0
  0
LTYPE
  5
3F
330
4
100
AcDbSymbolTableRecord
100
AcDbLinetypeTableRecord
  2
STYLE_05
 70
     0
  3

 72
    65
 73
     2
 40
0.20828
 49
0.069425
 74
     0
 49
-0.138855
 74
     0
  0
LTYPE
  5
40
330
4
100
AcDbSymbolTableRecord
100
AcDbLinetypeTableRecord
  2
STYLE_06
 70
     0
  3

 72
    65
 73
     4
 40
1.04164
 49
0.625
 74
     0
 49
-0.20828
 74
     0
 49
0.06943
 74
     0
 49
-0.13893
 74
     0
  0
LTYPE
  5
41
330
4
100
AcDbSymbolTableRecord
100
AcDbLinetypeTableRecord
  2
STYLE_07
 70
     0
  3

 72
    65
 73
     6
 40
1.875
 49
0.625
 74
     0
 49
-0.20828
 74
     0
 49
0.6250000000000001
 74
     0
 49
-0.2083599999999999
 74
     0
 49
0.06943
 74
     0
 49
-0.1389299999999999
 74
     0
  0
LTYPE
  5
42
330
4
100
AcDbSymbolTableRecord
100
AcDbLinetypeTableRecord
  2
STYLE_08
 70
     0
  3

 72
    65
 73
     6
 40
1.25
 49
0.625
 74
     0
 49
-0.20828
 74
     0
 49
0.06943
 74
     0
 49
-0.13893
 74
     0
 49
0.0694299999999999
 74
     0
 49
-0.13893
 74
     0
  0
LTYPE
  5
43
330
4
100
AcDbSymbolTableRecord
100
AcDbLinetypeTableRecord
  2
STYLE_09
 70
     0
  3

 72
    65
 73
     4
 40
5.0
 49
3.75
 74
     0
 49
-0.2777849999999998
 74
     0
 49
0.6944300000000003
 74
     0
 49
-0.2777849999999998
 74
     0
  0
LTYPE
  5
44
330
4
100
AcDbSymbolTableRecord
100
AcDbLinetypeTableRecord
  2
STYLE_10
 70
     0
  3

 72
    65
 73
     6
 40
5.9375
 49
3.75
 74
     0
 49
-0.2777849999999998
 74
     0
 49
0.6944300000000003
 74
     0
 49
-0.2777849999999998
 74
     0
 49
0.625
 74
     0
 49
-0.3125
 74
     0
  0
LTYPE
  5
45
330
4
100
AcDbSymbolTableRecord
100
AcDbLinetypeTableRecord
  2
STYLE_11
 70
     0
  3

 72
    65
 73
     2
 40
0.0694444881889764
 49
0.0347222440944882
 74
     0
 49
-0.0347222440944882
 74
     0
  0
LTYPE
  5
46
330
4
100
AcDbSymbolTableRecord
100
AcDbLinetypeTableRecord
  2
STYLE_12
 70
     0
  3

 72
    65
 73
     2
 40
0.3937007874015748
 49
0.1968503937007874
 74
     0
 49
-0.1968503937007874
 74
     0
  0
LTYPE
  5
47
330
4
100
AcDbSymbolTableRecord
100
AcDbLinetypeTableRecord
  2
STYLE_13
 70
     0
  3

 72
    65
 73
     2
 40
0.5905511811023622
 49
0.2952755905511811
 74
     0
 49
-0.2952755905511811
 74
     0
  0
LTYPE
  5
48
330
4
100
AcDbSymbolTableRecord
100
AcDbLinetypeTableRecord
  2
STYLE_14
 70
     0
  3

 72
    65
 73
     2
 40
1.968503937007874
 49
0.9842519685039369
 74
     0
 49
-0.9842519685039369
 74
     0
  0
ENDTAB
  0
TABLE
  2
LAYER
  5
2
102
{ACAD_XDICTIONARY
360
25A
102
}
330
0
100
AcDbSymbolTable
 70
     5
  0
LAYER
  5
14
330
2
100
AcDbSymbolTableRecord
100
AcDbLayerTableRecord
  2
0
 70
     0
 62
     7
  6
Continuous
370
    -3
390
1D
347
252
  0
LAYER
  5
49
330
2
100
AcDbSymbolTableRecord
100
AcDbLayerTableRecord
  2
Defpoints
 70
     0
 62
     7
  6
Continuous
290
     0
370
    -3
390
1D
347
252
  0
LAYER
  5
4A
330
2
100
AcDbSymbolTableRecord
100
AcDbLayerTableRecord
  2
template
 70
     0
 62
     7
  6
Continuous
370
    -3
390
1D
347
252
  0
LAYER
  5
4B
330
2
100
AcDbSymbolTableRecord
100
AcDbLayerTableRecord
  2
notes
 70
     0
 62
     7
  6
Continuous
370
    -3
390
1D
347
252
  0
LAYER
  5
4C
330
2
100
AcDbSymbolTableRecord
100
AcDbLayerTableRecord
  2
FAA70-2225
 70
     0
 62
     7
  6
Continuous
370
    -3
390
1D
347
252
  0
ENDTAB
  0
TABLE
  2
STYLE
  5
3
330
0
100
AcDbSymbolTable
 70
     2
  0
STYLE
  5
17
330
3
100
AcDbSymbolTableRecord
100
AcDbTextStyleTableRecord
  2
Standard
 70
     0
 40
0.0
 41
1.0
 50
0.0
 71
     0
 42
0.0
  3
txt
  4
BIGFONT.SHX
  0
STYLE
  5
3A
330
3
100
AcDbSymbolTableRecord
100
AcDbTextStyleTableRecord
  2
ＭＳ ゴシック
 70
     0
 40
0.0
 41
1.0
 50
0.0
 71
     0
 42
0.0
  3
msgothic.ttc
  4
ＭＳ ゴシック
1001
ACAD
1000
ＭＳ ゴシック
1071
        0
  0
ENDTAB
  0
TABLE
  2
VIEW
  5
5
330
0
100
AcDbSymbolTable
 70
     0
  0
ENDTAB
  0
TABLE
  2
UCS
  5
6
330
0
100
AcDbSymbolTable
 70
     0
  0
ENDTAB
  0
TABLE
  2
APPID
  5
8
330
0
100
AcDbSymbolTable
 70
     2
  0
APPID
  5
16
330
8
100
AcDbSymbolTableRecord
100
AcDbRegAppTableRecord
  2
ACAD
 70
     0
  0
APPID
  5
27E
330
8
100
AcDbSymbolTableRecord
100
AcDbRegAppTableRecord
  2
ACAD_MLEADERVER
 70
     0
  0
ENDTAB
  0
TABLE
  2
DIMSTYLE
  5
9
330
0
100
AcDbSymbolTable
 70
     3
100
AcDbDimStyleTable
  0
DIMSTYLE
105
18
330
9
100
AcDbSymbolTableRecord
100
AcDbDimStyleTableRecord
  2
Standard
 70
     0
178
     0
340
17
  0
DIMSTYLE
105
55
102
{ACAD_REACTORS
330
25E
102
}
330
9
100
AcDbSymbolTableRecord
100
AcDbDimStyleTableRecord
  2
tfrom線あり
 70
     0
  3
<>
  4
[]
 41
3.999755859375
 42
25.0
 43
0.9999999999999999
 44
0.0
 73
     0
 74
     0
 77
     1
 78
    11
140
24.4326171875
141
0.0
143
1.0
147
0.4999999999999999
171
     1
174
     1
178
     0
179
     2
271
     1
272
     1
276
     2
284
    11
285
    11
286
    11
289
     0
340
3A
341
4D
342
4D
  0
DIMSTYLE
105
5A
330
9
100
AcDbSymbolTableRecord
100
AcDbDimStyleTableRecord
  2
JIS
 70
     0
  3
<>
  4
[]
 41
31.75
 42
0.0
 43
6.99999999999994
 44
19.9999999999962
 73
     0
 74
     0
 77
     1
 78
    11
140
24.4326171875
141
0.0
143
1.0
147
1.00000000000108
171
     1
174
     1
178
     0
179
     2
271
     1
272
     1
276
     2
284
    11
285
    11
286
    11
289
     0
340
3A
341
56
342
56
  0
ENDTAB
  0
TABLE
  2
BLOCK_RECORD
  5
1
330
0
100
AcDbSymbolTable
 70
    26
  0
BLOCK_RECORD
  5
A
330
1
100
AcDbSymbolTableRecord
100
AcDbBlockTableRecord
  2
*MODEL_SPACE
340
20
 70
     0
280
     1
281
     0
  0
BLOCK_RECORD
  5
B
330
1
100
AcDbSymbolTableRecord
100
AcDbBlockTableRecord
  2
*PAPER_SPACE
340
21
 70
     0
280
     1
281
     0
  0
BLOCK_RECORD
  5
4D
330
1
100
AcDbSymbolTableRecord
100
AcDbBlockTableRecord
  2
_DOT
340
0
 70
     0
280
     1
281
     0
  0
BLOCK_RECORD
  5
56
330
1
100
AcDbSymbolTableRecord
100
AcDbBlockTableRecord
  2
VW_FILLEDARROW
340
0
102
{BLKREFS
331
268
331
267
102
}
 70
     0
280
     1
281
     0
  0
BLOCK_RECORD
  5
23
330
1
100
AcDbSymbolTableRecord
100
AcDbBlockTableRecord
  2
グループ
340
0
102
{BLKREFS
331
188
102
}
 70
     0
280
     1
281
     0
  0
BLOCK_RECORD
  5
24
330
1
100
AcDbSymbolTableRecord
100
AcDbBlockTableRecord
  2
*D3
340
0
 70
     0
280
     1
281
     0
  0
BLOCK_RECORD
  5
25
330
1
100
AcDbSymbolTableRecord
100
AcDbBlockTableRecord
  2
*D4
340
0
 70
     0
280
     1
281
     0
  0
BLOCK_RECORD
  5
26
330
1
100
AcDbSymbolTableRecord
100
AcDbBlockTableRecord
  2
*D5
340
0
 70
     0
280
     1
281
     0
  0
BLOCK_RECORD
  5
27
330
1
100
AcDbSymbolTableRecord
100
AcDbBlockTableRecord
  2
*D6
340
0
 70
     0
280
     1
281
     0
  0
BLOCK_RECORD
  5
28
330
1
100
AcDbSymbolTableRecord
100
AcDbBlockTableRecord
  2
*D7
340
0
 70
     0
280
     1
281
     0
  0
BLOCK_RECORD
  5
29
330
1
100
AcDbSymbolTableRecord
100
AcDbBlockTableRecord
  2
*D8
340
0
 70
     0
280
     1
281
     0
  0
BLOCK_RECORD
  5
2A
330
1
100
AcDbSymbolTableRecord
100
AcDbBlockTableRecord
  2
*D9
340
0
 70
     0
280
     1
281
     0
  0
BLOCK_RECORD
  5
2B
330
1
100
AcDbSymbolTableRecord
100
AcDbBlockTableRecord
  2
*D10
340
0
 70
     0
280
     1
281
     0
  0
BLOCK_RECORD
  5
2C
330
1
100
AcDbSymbolTableRecord
100
AcDbBlockTableRecord
  2
*D11
340
0
 70
     0
280
     1
281
     0
  0
BLOCK_RECORD
  5
2D
330
1
100
AcDbSymbolTableRecord
100
AcDbBlockTableRecord
  2
*D12
340
0
 70
     0
280
     1
281
     0
  0
BLOCK_RECORD
  5
2E
330
1
100
AcDbSymbolTableRecord
100
AcDbBlockTableRecord
  2
*D13
340
0
 70
     0
280
     1
281
     0
  0
BLOCK_RECORD
  5
2F
330
1
100
AcDbSymbolTableRecord
100
AcDbBlockTableRecord
  2
*D14
340
0
 70
     0
280
     1
281
     0
  0
BLOCK_RECORD
  5
30
330
1
100
AcDbSymbolTableRecord
100
AcDbBlockTableRecord
  2
*D15
340
0
 70
     0
280
     1
281
     0
  0
BLOCK_RECORD
  5
31
330
1
100
AcDbSymbolTableRecord
100
AcDbBlockTableRecord
  2
*D16
340
0
 70
     0
280
     1
281
     0
  0
BLOCK_RECORD
  5
32
330
1
100
AcDbSymbolTableRecord
100
AcDbBlockTableRecord
  2
*D17
340
0
 70
     0
280
     1
281
     0
  0
BLOCK_RECORD
  5
33
330
1
100
AcDbSymbolTableRecord
100
AcDbBlockTableRecord
  2
*D18
340
0
 70
     0
280
     1
281
     0
  0
BLOCK_RECORD
  5
34
330
1
100
AcDbSymbolTableRecord
100
AcDbBlockTableRecord
  2
*D19
340
0
 70
     0
280
     1
281
     0
  0
BLOCK_RECORD
  5
35
330
1
100
AcDbSymbolTableRecord
100
AcDbBlockTableRecord
  2
*D20
340
0
 70
     0
280
     1
281
     0
  0
BLOCK_RECORD
  5
36
330
1
100
AcDbSymbolTableRecord
100
AcDbBlockTableRecord
  2
*D21
340
0
 70
     0
280
     1
281
     0
  0
BLOCK_RECORD
  5
37
330
1
100
AcDbSymbolTableRecord
100
AcDbBlockTableRecord
  2
*D22
340
0
 70
     0
280
     1
281
     0
  0
BLOCK_RECORD
  5
38
330
1
100
AcDbSymbolTableRecord
100
AcDbBlockTableRecord
  2
*D23
340
0
 70
     0
280
     1
281
     0
  0
BLOCK_RECORD
  5
39
330
1
100
AcDbSymbolTableRecord
100
AcDbBlockTableRecord
  2
*D24
340
0
 70
     0
280
     1
281
     0
  0
BLOCK_RECORD
  5
261
330
1
100
AcDbSymbolTableRecord
100
AcDbBlockTableRecord
  2
*D25
340
0
 70
     0
280
     1
281
     0
  0
ENDTAB
  0
ENDSEC
  0
SECTION
  2
BLOCKS
  0
BLOCK
  5
D
330
A
100
AcDbEntity
  8
0
390
1D
100
AcDbBlockBegin
  2
*MODEL_SPACE
 70
     0
 10
0.0
 20
0.0
 30
0.0
  3
*MODEL_SPACE
  1

  0
ENDBLK
  5
E
330
A
100
AcDbEntity
  8
0
390
1D
100
AcDbBlockEnd
  0
BLOCK
  5
F
330
B
100
AcDbEntity
 67
     1
  8
0
390
1D
100
AcDbBlockBegin
  2
*PAPER_SPACE
 70
     0
 10
0.0
 20
0.0
 30
0.0
  3
*PAPER_SPACE
  1

  0
ENDBLK
  5
10
330
B
100
AcDbEntity
 67
     1
  8
0
390
1D
100
AcDbBlockEnd
  0
BLOCK
  5
4E
330
4D
100
AcDbEntity
  8
0
390
1D
100
AcDbBlockBegin
  2
_DOT
 70
     0
 10
0.0
 20
0.0
 30
0.0
  3
_DOT
  1

  0
POLYLINE
  5
4F
330
4D
100
AcDbEntity
  8
0
  6
ByBlock
 62
     0
370
    -2
390
1D
100
AcDb2dPolyline
 66
     1
 10
0.0
 20
0.0
 30
0.0
 70
     1
 40
0.5
 41
0.5
  0
VERTEX
  5
50
330
4F
100
AcDbEntity
  8
0
  6
ByBlock
 62
     0
370
    -2
390
1D
100
AcDbVertex
100
AcDb2dVertex
 10
-0.25
 20
0.0
 30
0.0
 42
1.0
  0
VERTEX
  5
51
330
4F
100
AcDbEntity
  8
0
  6
ByBlock
 62
     0
370
    -2
390
1D
100
AcDbVertex
100
AcDb2dVertex
 10
0.25
 20
0.0
 30
0.0
 42
1.0
  0
SEQEND
  5
52
330
4F
100
AcDbEntity
  8
0
390
1D
  0
LINE
  5
53
330
4D
100
AcDbEntity
  8
0
  6
ByBlock
 62
     0
370
    -2
390
1D
100
AcDbLine
 10
-0.5
 20
0.0
 30
0.0
 11
-1.0
 21
0.0
 31
0.0
  0
ENDBLK
  5
54
330
4D
100
AcDbEntity
  8
0
390
1D
100
AcDbBlockEnd
  0
BLOCK
  5
57
330
56
100
AcDbEntity
  8
0
  6
ByBlock
 62
     0
370
    -2
390
1D
100
AcDbBlockBegin
  2
VW_FILLEDARROW
 70
     0
 10
0.0
 20
0.0
 30
0.0
  3
VW_FILLEDARROW
  1

  0
SOLID
  5
58
330
56
100
AcDbEntity
  8
0
 62
     0
370
    -2
390
1D
100
AcDbTrace
 10
0.0
 20
0.0
 30
0.0
 11
-0.9921874999999999
 21
-0.2658558393652545
 31
0.0
 12
-0.9921874999999999
 22
0.2658558393652548
 32
0.0
 13
-0.9921874999999999
 23
0.2658558393652548
 33
0.0
  0
ENDBLK
  5
59
330
56
100
AcDbEntity
  8
0
390
1D
100
AcDbBlockEnd
  0
BLOCK
  5
5B
330
23
100
AcDbEntity
  8
template
390
1D
100
AcDbBlockBegin
  2
グループ
 70
     0
 10
0.0
 20
0.0
 30
0.0
  3
グループ
  1

  0
LWPOLYLINE
  5
5C
330
23
100
AcDbEntity
  8
0
  6
Continuous
 62
     7
370
    15
390
1D
100
AcDbPolyline
 90
        8
 70
   129
 43
0.0
 10
887.4285078030748
 20
-1309.489721023686
 10
887.4285078030748
 20
-1315.487109717262
 10
877.9273108850715
 20
-1315.487109717262
 10
877.9273108850715
 20
-1339.938072980771
 10
869.5719336232887
 20
-1339.938072980771
 10
869.5719336232887
 20
-1315.487109717262
 10
860.2389766769793
 20
-1315.487109717262
 10
860.2389766769793
 20
-1309.489721023686
  0
LWPOLYLINE
  5
5D
330
23
100
AcDbEntity
  8
0
  6
Continuous
 62
     7
370
    15
390
1D
100
AcDbPolyline
 90
      101
 70
   128
 43
0.0
 10
900.1567996336317
 20
-1310.217969516622
 10
900.1721496624168
 20
-1310.213608759937
 42
-0.0222221607812452
 10
900.4621542390878
 20
-1310.144984294693
 10
900.4779480030738
 20
-1310.141980871597
 42
-0.0146883565588934
 10
900.7406507083056
 20
-1310.099977684646
 42
-0.0127458844187264
 10
901.0052896754536
 20
-1310.072440716574
 10
901.0677447537714
 20
-1310.067547293986
 42
-0.0198099018564238
 10
901.4585938632479
 20
-1310.052462136589
 10
901.510405332692
 20
-1310.052515912254
 42
-0.014761738276327
 10
902.005028793663
 20
-1310.067635937499
 10
902.0777202485461
 20
-1310.072008544387
 42
-0.0162624549002029
 10
902.4678738780058
 20
-1310.108241419659
 10
902.5894062692702
 20
-1310.123527978656
 42
-0.0080020874659354
 10
902.7349853003566
 20
-1310.144210825924
 10
902.7733047709486
 20
-1310.150282103735
 42
-0.0053821929678317
 10
902.8417888762664
 20
-1310.161889627557
 10
902.1153831770678
 20
-1312.34281808327
 42
0.01086677573739
 10
902.0480661069431
 20
-1312.329630968052
 10
902.0105980837475
 20
-1312.323133225456
 42
0.0170663203307341
 10
901.8673812968334
 20
-1312.303303628164
 10
901.7995059641489
 20
-1312.296256457577
 42
0.022016237527672
 10
901.5191265562925
 20
-1312.279574096807
 10
901.4412709892413
 20
-1312.27837472954
 42
0.028260691578763
 10
901.1056346656636
 20
-1312.292178006509
 10
901.0617213918907
 20
-1312.296477996513
 42
0.0169677213689564
 10
900.8157968969324
 20
-1312.329015046065
 42
0.0190576269861447
 10
900.5728889343558
 20
-1312.37916191817
 10
900.5666297462415
 20
-1312.380704892281
 42
0.0213685642848188
 10
900.3162452617622
 20
-1312.453905177386
 10
900.3107553668475
 20
-1312.455768173445
 42
0.0237595297595475
 10
900.0572604819502
 20
-1312.555452695339
 10
900.0521584079191
 20
-1312.557744470818
 42
0.0261857468820483
 10
899.7999876316902
 20
-1312.687280808192
 10
899.789561442602
 20
-1312.693346282661
 42
0.0272553062022719
 10
899.5531316673637
 20
-1312.848718488605
 10
899.5183686538545
 20
-1312.874379636697
 42
0.03259968931689
 10
899.3682133102027
 20
-1313.001127509669
 10
899.3445038810788
 20
-1313.023945538182
 42
0.0138050960634597
 10
899.2526207248695
 20
-1313.117395199733
 42
0.0125280103795566
 10
899.1657781920396
 20
-1313.215558526329
 10
899.1420977471277
 20
-1313.243717024521
 42
0.0205218024740018
 10
899.0169976716155
 20
-1313.405510338748
 10
898.9945313311268
 20
-1313.437170068577
 42
0.0163110129586428
 10
898.8388209518752
 20
-1313.672500503648
 10
898.8360970558246
 20
-1313.676924265632
 42
0.0131897341900631
 10
898.6892965349159
 20
-1313.930056358002
 10
898.6875964395522
 20
-1313.933174597133
 42
0.0107895576063121
 10
898.5498197373457
 20
-1314.199389806759
 10
898.5490868478164
 20
-1314.200884039414
 42
0.0091371507222248
 10
898.4206068991648
 20
-1314.475409237178
 10
898.3908612677576
 20
-1314.542115744332
 42
0.0135418326351088
 10
898.2191473286844
 20
-1314.957053529605
 10
898.1855425202551
 20
-1315.044919671873
 42
0.0092834542406019
 10
898.0143134603309
 20
-1315.518818170188
 10
897.9886963326218
 20
-1315.594059239956
 42
0.0054261043575737
 10
897.8810581843202
 20
-1315.921823213047
 10
897.8635321980961
 20
-1315.977211375424
 42
0.0008225090817605
 10
897.7948621463128
 20
-1316.195480133426
 10
896.8101730143793
 20
-1319.220371426682
 10
900.0427968544532
 20
-1319.220371426682
 10
899.5386044245997
 20
-1321.124849725035
 10
896.2825481426164
 20
-1321.124849725035
 10
890.4533991102626
 20
-1339.93807279104
 10
888.6283014999523
 20
-1339.93807279104
 10
894.4629795354532
 20
-1321.124849725035
 10
892.0578631664129
 20
-1321.124849725035
 10
892.5620555962663
 20
-1319.220371426682
 10
894.9906044072163
 20
-1319.220371426682
 10
895.850759325405
 20
-1316.583958425983
 42
-0.0005863560652156
 10
895.8874940036009
 20
-1316.467132005716
 10
895.9635818372689
 20
-1316.226139706306
 42
-0.0087522378926788
 10
896.1630499807259
 20
-1315.630863619159
 10
896.255314256141
 20
-1315.370723450642
 42
-0.0077400953830428
 10
896.5132479152703
 20
-1314.677718773099
 10
896.529012886849
 20
-1314.637287889713
 42
-0.0082369946330594
 10
896.7760973574611
 20
-1314.033208823517
 42
-0.0085725238362489
 10
897.0433434534679
 20
-1313.437782784221
 10
897.1449730544707
 20
-1313.221361682246
 42
-0.0168109410597172
 10
897.4319174832015
 20
-1312.66015415614
 10
897.5577608736922
 20
-1312.433190123086
 42
-0.0007817726868056
 10
897.6120452237171
 20
-1312.335645878112
 10
897.61217352973
 20
-1312.335416169383
 42
-0.0036626142161349
 10
897.6670613937556
 20
-1312.238818289407
 42
-0.0080221150672844
 10
897.7241856491647
 20
-1312.14353905465
 10
897.7548856005235
 20
-1312.094148105532
 42
-0.0202139325568902
 10
897.8825413403317
 20
-1311.906166504848
 10
897.9366088055178
 20
-1311.833087640609
 42
-0.0249323791798366
 10
898.1957715992382
 20
-1311.517042398454
 10
898.219911413364
 20
-1311.490428125543
 42
-0.0242132121540895
 10
898.559592154907
 20
-1311.150544639338
 10
898.6075037276536
 20
-1311.107035503155
 42
-0.0251017527859385
 10
898.8914854282973
 20
-1310.874042757388
 10
898.8929309051103
 20
-1310.872973499809
 42
-0.0130868069035934
 10
899.1911915550684
 20
-1310.664193031266
 10
899.1927533742123
 20
-1310.663159590991
 42
-0.0290329526388077
 10
899.5038645156044
 20
-1310.482334089362
 10
899.5337100775943
 20
-1310.46723170652
 42
-0.0160250190047949
 10
899.7996144913552
 20
-1310.343215596309
 42
-0.0267600374780309
 10
900.0748905688253
 20
-1310.24246727576
 10
900.1016264883448
 20
-1310.234274716935
 42
-0.0049981587669928
 10
900.1567996336317
 20
-1310.217969516622
 42
-0.0049981587669928
  0
LWPOLYLINE
  5
5E
330
23
100
AcDbEntity
  8
0
  6
Continuous
 62
     7
370
    15
390
1D
100
AcDbPolyline
 90
      118
 70
   128
 43
0.0
 10
919.9711671980787
 20
-1319.29435475451
 10
921.8462891225781
 20
-1319.29435475451
 10
921.0082502169782
 20
-1321.97592128091
 42
-0.0010587229244717
 10
921.0397060325761
 20
-1321.939016747524
 10
921.0979001231822
 20
-1321.871034491379
 42
-0.0071874740413046
 10
921.2482753412742
 20
-1321.700393799356
 10
921.3899981145424
 20
-1321.544157658037
 42
-0.0148118053513779
 10
921.8401274072513
 20
-1321.076543812027
 10
921.9273497421573
 20
-1320.99114649117
 42
-0.0086273358692718
 10
922.2628985431654
 20
-1320.673770857153
 10
922.3067322593917
 20
-1320.63372121282
 42
-0.0103138323115429
 10
922.5647559616248
 20
-1320.407558075482
 10
922.6105303679605
 20
-1320.369076028215
 42
-0.0060206748564274
 10
922.7833784320641
 20
-1320.227281377468
 10
922.7854095629551
 20
-1320.225655671832
 42
-0.0067069027290416
 10
922.9577023776126
 20
-1320.091505038041
 10
922.9602511435459
 20
-1320.089574868161
 42
-0.0076184352049488
 10
923.1311564094099
 20
-1319.964199992922
 42
-0.0089652861668072
 10
923.3061173721434
 20
-1319.84456673259
 10
923.3424690922884
 20
-1319.820655519107
 42
-0.0156916245939222
 10
923.5384285894495
 20
-1319.700393032632
 42
-0.0023299011069693
 10
923.7386906334059
 20
-1319.587215093104
 10
923.7540747658092
 20
-1319.578615098027
 42
-0.0107669341481016
 10
923.9883115909171
 20
-1319.454214964674
 10
924.0105763919853
 20
-1319.442998214727
 42
-0.0078058045897393
 10
924.2941665099372
 20
-1319.305636759089
 10
924.3040735976472
 20
-1319.30102763122
 42
-0.0181829330470019
 10
924.6143830022639
 20
-1319.170163890124
 10
924.6684384448263
 20
-1319.149648770182
 42
-0.0208411536031712
 10
925.0175234122798
 20
-1319.033558307688
 10
925.0318795124078
 20
-1319.029439862734
 42
-0.022279981713889
 10
925.3605993063245
 20
-1318.950798296594
 10
925.369488269567
 20
-1318.949086286008
 42
-0.0215509523880639
 10
925.6859592378414
 20
-1318.902170597475
 10
925.7284411988906
 20
-1318.897733070684
 42
-0.0182545924872353
 10
925.9625499781955
 20
-1318.881889245293
 10
926.0019509945457
 20
-1318.880664700214
 42
-0.0072962856529007
 10
926.1578738742326
 20
-1318.878095371692
 10
926.1869735448086
 20
-1318.878040536288
 42
-0.0059227516318757
 10
926.2847230439495
 20
-1318.879014248078
 10
926.3139652614603
 20
-1318.879652014683
 42
-0.0011833111901854
 10
926.3532165451538
 20
-1318.880601018992
 10
925.5578299495467
 20
-1321.419334964091
 42
0.0143932051598805
 10
925.5314285671955
 20
-1321.409135994045
 10
925.5241565947788
 20
-1321.406564775188
 42
0.0234388603530011
 10
925.4823257288471
 20
-1321.393945539473
 10
925.473644065934
 20
-1321.391764577468
 42
0.019916274298183
 10
925.4133552318523
 20
-1321.379147842132
 10
925.3925412940478
 20
-1321.375650642704
 42
0.0293643550666261
 10
925.2894664352875
 20
-1321.364500597051
 10
925.2647812545683
 20
-1321.363288980032
 42
0.0214606686863714
 10
925.1116403386152
 20
-1321.362350419615
 10
925.1022684277979
 20
-1321.362695331159
 42
0.0167564054173993
 10
924.9307482366868
 20
-1321.374772373527
 10
924.9222884439305
 20
-1321.375653713954
 42
0.0137677553240766
 10
924.7349351306646
 20
-1321.400403022498
 10
924.7275833911579
 20
-1321.401580942466
 42
0.0118497261482254
 10
924.5270856270553
 20
-1321.438598292655
 10
924.5209356198093
 20
-1321.439885155375
 42
0.0106421143889724
 10
924.3100547325253
 20
-1321.48871753095
 10
924.3051459241352
 20
-1321.489964873635
 42
0.0099746379706321
 10
924.0866874549707
 20
-1321.55013940195
 10
924.0251394148024
 20
-1321.56842128058
 42
0.0191613675859732
 10
923.6891549522869
 20
-1321.682398660867
 10
923.6010951795374
 20
-1321.716085571193
 42
0.0205274080144368
 10
923.2157884076407
 20
-1321.881913979018
 10
923.1581391256583
 20
-1321.909581943591
 42
0.0181256912196064
 10
922.8998621849918
 20
-1322.045265762568
 10
922.8469068016844
 20
-1322.075583375779
 42
0.0140709242402873
 10
922.7019518670495
 20
-1322.164078049217
 10
922.6757029984327
 20
-1322.181134867932
 42
0.0086667884395987
 10
922.5867768368885
 20
-1322.241137535816
 42
0.0036408192034625
 10
922.4993435988384
 20
-1322.30331839362
 10
922.4641167243865
 20
-1322.328759339521
 42
0.0052260781272892
 10
922.3078880270106
 20
-1322.444091726144
 10
922.2916811707357
 20
-1322.456319836773
 42
0.0050024435898219
 10
922.1056778276798
 20
-1322.599602405033
 10
922.0903596711618
 20
-1322.611648427481
 42
0.013613871027649
 10
921.8799184028425
 20
-1322.786614932389
 10
921.8462505270429
 20
-1322.816193905109
 42
0.017281518691684
 10
921.5818469853781
 20
-1323.065190577734
 10
921.5792846395377
 20
-1323.067776394879
 42
0.0189403857992159
 10
921.3287028409577
 20
-1323.340581659684
 10
921.2960713474276
 20
-1323.378925591175
 42
0.0185044199499275
 10
921.1041149084426
 20
-1323.622174172303
 42
0.0088565243898951
 10
920.9256548018152
 20
-1323.875690592452
 10
920.9164768221657
 20
-1323.889231972214
 42
0.0157195347234652
 10
920.7332562158285
 20
-1324.178754181534
 10
920.687173273908
 20
-1324.256906378538
 42
0.0095451879775554
 10
920.5220877237631
 20
-1324.549501020907
 10
920.5109398048392
 20
-1324.570171693028
 42
0.0100351706251944
 10
920.3788960556742
 20
-1324.827227253529
 42
0.0086935915418291
 10
920.2565649038802
 20
-1325.089060398933
 10
920.2532441624656
 20
-1325.096502721906
 42
0.0072580174866602
 10
920.1328977105229
 20
-1325.377094713483
 10
920.1296360772144
 20
-1325.385014739506
 42
0.0060005122616345
 10
920.0104354088706
 20
-1325.684624410115
 10
920.0072244305301
 20
-1325.692985938017
 42
0.0049017786975175
 10
919.888324271672
 20
-1326.011914918622
 10
919.8851584652822
 20
-1326.020667855851
 42
0.0039415167599449
 10
919.7657221872311
 20
-1326.359209918249
 10
919.7625910845734
 20
-1326.368313119141
 42
0.0031035838769682
 10
919.6417862988756
 20
-1326.726752980928
 10
919.6386762543499
 20
-1326.736173602289
 42
0.0025070747154479
 10
919.5157749030382
 20
-1327.114820819221
 10
919.4784810066092
 20
-1327.231712484486
 42
0.0029081910283904
 10
919.2864627088076
 20
-1327.845876142747
 10
919.2456595402813
 20
-1327.979099385053
 42
0.0009266453734212
 10
918.9772421659271
 20
-1328.861323845108
 10
918.9563546933473
 20
-1328.930435724142
 42
-0.0005809993666308
 10
918.6790180127348
 20
-1329.844243830852
 10
918.6127362144622
 20
-1330.06172876301
 42
-0.0012018708165088
 10
918.4657519050327
 20
-1330.539891427532
 10
918.4134320534521
 20
-1330.708650568446
 42
-0.0002691059599173
 10
918.3698625722985
 20
-1330.84891818874
 10
915.5369066740093
 20
-1339.93807279104
 10
913.7189177820308
 20
-1339.93807279104
 10
919.9711671980787
 20
-1319.29435475451
  0
SPLINE
  5
5F
330
23
100
AcDbEntity
  8
0
  6
Continuous
 62
     7
370
    15
390
1D
100
AcDbSpline
210
0.0
220
0.0
230
1.0
 70
    15
 71
     2
 72
   782
 73
   779
 74
     0
 42
0.000000001
 43
0.000001
 40
0.0
 40
0.0
 40
0.0
 40
1.0
 40
1.0
 40
2.0
 40
2.0
 40
3.0
 40
3.0
 40
4.0
 40
4.0
 40
5.0
 40
5.0
 40
6.0
 40
6.0
 40
7.0
 40
7.0
 40
8.0
 40
8.0
 40
9.0
 40
9.0
 40
10.0
 40
10.0
 40
11.0
 40
11.0
 40
12.0
 40
12.0
 40
13.0
 40
13.0
 40
14.0
 40
14.0
 40
15.0
 40
15.0
 40
16.0
 40
16.0
 40
17.0
 40
17.0
 40
18.0
 40
18.0
 40
19.0
 40
19.0
 40
20.0
 40
20.0
 40
21.0
 40
21.0
 40
22.0
 40
22.0
 40
23.0
 40
23.0
 40
24.0
 40
24.0
 40
25.0
 40
25.0
 40
26.0
 40
26.0
 40
27.0
 40
27.0
 40
28.0
 40
28.0
 40
29.0
 40
29.0
 40
30.0
 40
30.0
 40
31.0
 40
31.0
 40
32.0
 40
32.0
 40
33.0
 40
33.0
 40
34.0
 40
34.0
 40
35.0
 40
35.0
 40
36.0
 40
36.0
 40
37.0
 40
37.0
 40
38.0
 40
38.0
 40
39.0
 40
39.0
 40
40.0
 40
40.0
 40
41.0
 40
41.0
 40
42.0
 40
42.0
 40
43.0
 40
43.0
 40
44.0
 40
44.0
 40
45.0
 40
45.0
 40
46.0
 40
46.0
 40
47.0
 40
47.0
 40
48.0
 40
48.0
 40
49.0
 40
49.0
 40
50.0
 40
50.0
 40
51.0
 40
51.0
 40
52.0
 40
52.0
 40
53.0
 40
53.0
 40
54.0
 40
54.0
 40
55.0
 40
55.0
 40
56.0
 40
56.0
 40
57.0
 40
57.0
 40
58.0
 40
58.0
 40
59.0
 40
59.0
 40
60.0
 40
60.0
 40
61.0
 40
61.0
 40
62.0
 40
62.0
 40
63.0
 40
63.0
 40
64.0
 40
64.0
 40
65.0
 40
65.0
 40
66.0
 40
66.0
 40
67.0
 40
67.0
 40
68.0
 40
68.0
 40
69.0
 40
69.0
 40
70.0
 40
70.0
 40
71.0
 40
71.0
 40
72.0
 40
72.0
 40
73.0
 40
73.0
 40
74.0
 40
74.0
 40
75.0
 40
75.0
 40
76.0
 40
76.0
 40
77.0
 40
77.0
 40
78.0
 40
78.0
 40
79.0
 40
79.0
 40
80.0
 40
80.0
 40
81.0
 40
81.0
 40
82.0
 40
82.0
 40
83.0
 40
83.0
 40
84.0
 40
84.0
 40
85.0
 40
85.0
 40
86.0
 40
86.0
 40
87.0
 40
87.0
 40
88.0
 40
88.0
 40
89.0
 40
89.0
 40
90.0
 40
90.0
 40
91.0
 40
91.0
 40
92.0
 40
92.0
 40
93.0
 40
93.0
 40
94.0
 40
94.0
 40
95.0
 40
95.0
 40
96.0
 40
96.0
 40
97.0
 40
97.0
 40
98.0
 40
98.0
 40
99.0
 40
99.0
 40
100.0
 40
100.0
 40
101.0
 40
101.0
 40
102.0
 40
102.0
 40
103.0
 40
103.0
 40
104.0
 40
104.0
 40
105.0
 40
105.0
 40
106.0
 40
106.0
 40
107.0
 40
107.0
 40
108.0
 40
108.0
 40
109.0
 40
109.0
 40
110.0
 40
110.0
 40
111.0
 40
111.0
 40
112.0
 40
112.0
 40
113.0
 40
113.0
 40
114.0
 40
114.0
 40
115.0
 40
115.0
 40
116.0
 40
116.0
 40
117.0
 40
117.0
 40
118.0
 40
118.0
 40
119.0
 40
119.0
 40
120.0
 40
120.0
 40
121.0
 40
121.0
 40
122.0
 40
122.0
 40
123.0
 40
123.0
 40
124.0
 40
124.0
 40
125.0
 40
125.0
 40
126.0
 40
126.0
 40
127.0
 40
127.0
 40
128.0
 40
128.0
 40
129.0
 40
129.0
 40
130.0
 40
130.0
 40
131.0
 40
131.0
 40
132.0
 40
132.0
 40
133.0
 40
133.0
 40
134.0
 40
134.0
 40
135.0
 40
135.0
 40
136.0
 40
136.0
 40
137.0
 40
137.0
 40
138.0
 40
138.0
 40
139.0
 40
139.0
 40
140.0
 40
140.0
 40
141.0
 40
141.0
 40
142.0
 40
142.0
 40
143.0
 40
143.0
 40
144.0
 40
144.0
 40
145.0
 40
145.0
 40
146.0
 40
146.0
 40
147.0
 40
147.0
 40
148.0
 40
148.0
 40
149.0
 40
149.0
 40
150.0
 40
150.0
 40
151.0
 40
151.0
 40
152.0
 40
152.0
 40
153.0
 40
153.0
 40
154.0
 40
154.0
 40
155.0
 40
155.0
 40
156.0
 40
156.0
 40
157.0
 40
157.0
 40
158.0
 40
158.0
 40
159.0
 40
159.0
 40
160.0
 40
160.0
 40
161.0
 40
161.0
 40
162.0
 40
162.0
 40
163.0
 40
163.0
 40
164.0
 40
164.0
 40
165.0
 40
165.0
 40
166.0
 40
166.0
 40
167.0
 40
167.0
 40
168.0
 40
168.0
 40
169.0
 40
169.0
 40
170.0
 40
170.0
 40
171.0
 40
171.0
 40
172.0
 40
172.0
 40
173.0
 40
173.0
 40
174.0
 40
174.0
 40
175.0
 40
175.0
 40
176.0
 40
176.0
 40
177.0
 40
177.0
 40
178.0
 40
178.0
 40
179.0
 40
179.0
 40
180.0
 40
180.0
 40
181.0
 40
181.0
 40
182.0
 40
182.0
 40
183.0
 40
183.0
 40
184.0
 40
184.0
 40
185.0
 40
185.0
 40
186.0
 40
186.0
 40
187.0
 40
187.0
 40
188.0
 40
188.0
 40
189.0
 40
189.0
 40
190.0
 40
190.0
 40
191.0
 40
191.0
 40
192.0
 40
192.0
 40
193.0
 40
193.0
 40
194.0
 40
194.0
 40
195.0
 40
195.0
 40
196.0
 40
196.0
 40
197.0
 40
197.0
 40
198.0
 40
198.0
 40
199.0
 40
199.0
 40
200.0
 40
200.0
 40
201.0
 40
201.0
 40
202.0
 40
202.0
 40
203.0
 40
203.0
 40
204.0
 40
204.0
 40
205.0
 40
205.0
 40
206.0
 40
206.0
 40
207.0
 40
207.0
 40
208.0
 40
208.0
 40
209.0
 40
209.0
 40
210.0
 40
210.0
 40
211.0
 40
211.0
 40
212.0
 40
212.0
 40
213.0
 40
213.0
 40
214.0
 40
214.0
 40
215.0
 40
215.0
 40
216.0
 40
216.0
 40
217.0
 40
217.0
 40
218.0
 40
218.0
 40
219.0
 40
219.0
 40
220.0
 40
220.0
 40
221.0
 40
221.0
 40
222.0
 40
222.0
 40
223.0
 40
223.0
 40
224.0
 40
224.0
 40
225.0
 40
225.0
 40
226.0
 40
226.0
 40
227.0
 40
227.0
 40
228.0
 40
228.0
 40
229.0
 40
229.0
 40
230.0
 40
230.0
 40
231.0
 40
231.0
 40
232.0
 40
232.0
 40
233.0
 40
233.0
 40
234.0
 40
234.0
 40
235.0
 40
235.0
 40
236.0
 40
236.0
 40
237.0
 40
237.0
 40
238.0
 40
238.0
 40
239.0
 40
239.0
 40
240.0
 40
240.0
 40
241.0
 40
241.0
 40
242.0
 40
242.0
 40
243.0
 40
243.0
 40
244.0
 40
244.0
 40
245.0
 40
245.0
 40
246.0
 40
246.0
 40
247.0
 40
247.0
 40
248.0
 40
248.0
 40
249.0
 40
249.0
 40
250.0
 40
250.0
 40
251.0
 40
251.0
 40
252.0
 40
252.0
 40
253.0
 40
253.0
 40
254.0
 40
254.0
 40
255.0
 40
255.0
 40
256.0
 40
256.0
 40
257.0
 40
257.0
 40
258.0
 40
258.0
 40
259.0
 40
259.0
 40
260.0
 40
260.0
 40
261.0
 40
261.0
 40
262.0
 40
262.0
 40
263.0
 40
263.0
 40
264.0
 40
264.0
 40
265.0
 40
265.0
 40
266.0
 40
266.0
 40
267.0
 40
267.0
 40
268.0
 40
268.0
 40
269.0
 40
269.0
 40
270.0
 40
270.0
 40
271.0
 40
271.0
 40
272.0
 40
272.0
 40
273.0
 40
273.0
 40
274.0
 40
274.0
 40
275.0
 40
275.0
 40
276.0
 40
276.0
 40
277.0
 40
277.0
 40
278.0
 40
278.0
 40
279.0
 40
279.0
 40
280.0
 40
280.0
 40
281.0
 40
281.0
 40
282.0
 40
282.0
 40
283.0
 40
283.0
 40
284.0
 40
284.0
 40
285.0
 40
285.0
 40
286.0
 40
286.0
 40
287.0
 40
287.0
 40
288.0
 40
288.0
 40
289.0
 40
289.0
 40
290.0
 40
290.0
 40
291.0
 40
291.0
 40
292.0
 40
292.0
 40
293.0
 40
293.0
 40
294.0
 40
294.0
 40
295.0
 40
295.0
 40
296.0
 40
296.0
 40
297.0
 40
297.0
 40
298.0
 40
298.0
 40
299.0
 40
299.0
 40
300.0
 40
300.0
 40
301.0
 40
301.0
 40
302.0
 40
302.0
 40
303.0
 40
303.0
 40
304.0
 40
304.0
 40
305.0
 40
305.0
 40
306.0
 40
306.0
 40
307.0
 40
307.0
 40
308.0
 40
308.0
 40
309.0
 40
309.0
 40
310.0
 40
310.0
 40
311.0
 40
311.0
 40
312.0
 40
312.0
 40
313.0
 40
313.0
 40
314.0
 40
314.0
 40
315.0
 40
315.0
 40
316.0
 40
316.0
 40
317.0
 40
317.0
 40
318.0
 40
318.0
 40
319.0
 40
319.0
 40
320.0
 40
320.0
 40
321.0
 40
321.0
 40
322.0
 40
322.0
 40
323.0
 40
323.0
 40
324.0
 40
324.0
 40
325.0
 40
325.0
 40
326.0
 40
326.0
 40
327.0
 40
327.0
 40
328.0
 40
328.0
 40
329.0
 40
329.0
 40
330.0
 40
330.0
 40
331.0
 40
331.0
 40
332.0
 40
332.0
 40
333.0
 40
333.0
 40
334.0
 40
334.0
 40
335.0
 40
335.0
 40
336.0
 40
336.0
 40
337.0
 40
337.0
 40
338.0
 40
338.0
 40
339.0
 40
339.0
 40
340.0
 40
340.0
 40
341.0
 40
341.0
 40
342.0
 40
342.0
 40
343.0
 40
343.0
 40
344.0
 40
344.0
 40
345.0
 40
345.0
 40
346.0
 40
346.0
 40
347.0
 40
347.0
 40
348.0
 40
348.0
 40
349.0
 40
349.0
 40
350.0
 40
350.0
 40
351.0
 40
351.0
 40
352.0
 40
352.0
 40
353.0
 40
353.0
 40
354.0
 40
354.0
 40
355.0
 40
355.0
 40
356.0
 40
356.0
 40
357.0
 40
357.0
 40
358.0
 40
358.0
 40
359.0
 40
359.0
 40
360.0
 40
360.0
 40
361.0
 40
361.0
 40
362.0
 40
362.0
 40
363.0
 40
363.0
 40
364.0
 40
364.0
 40
365.0
 40
365.0
 40
366.0
 40
366.0
 40
367.0
 40
367.0
 40
368.0
 40
368.0
 40
369.0
 40
369.0
 40
370.0
 40
370.0
 40
371.0
 40
371.0
 40
372.0
 40
372.0
 40
373.0
 40
373.0
 40
374.0
 40
374.0
 40
375.0
 40
375.0
 40
376.0
 40
376.0
 40
377.0
 40
377.0
 40
378.0
 40
378.0
 40
379.0
 40
379.0
 40
380.0
 40
380.0
 40
381.0
 40
381.0
 40
382.0
 40
382.0
 40
383.0
 40
383.0
 40
384.0
 40
384.0
 40
385.0
 40
385.0
 40
386.0
 40
386.0
 40
387.0
 40
387.0
 40
388.0
 40
388.0
 40
389.0
 40
389.0
 40
389.0
 10
930.2998716488113
 20
-1319.283428391147
 30
0.0
 41
1.0
 10
931.1182957575318
 20
-1319.283428391147
 30
0.0
 41
1.0
 10
931.9367198662522
 20
-1319.283428391147
 30
0.0
 41
1.0
 10
931.5229661307355
 20
-1320.626054655397
 30
0.0
 41
1.0
 10
931.1092123952187
 20
-1321.968680919647
 30
0.0
 41
1.0
 10
931.1275518903724
 20
-1321.939980146757
 30
0.0
 41
0.9999957264353334
 10
931.1460588871898
 20
-1321.911387096627
 30
0.0
 41
1.0
 10
931.1764882113409
 20
-1321.86437421823
 30
0.0
 41
1.0
 10
931.206917535492
 20
-1321.817361339833
 30
0.0
 41
1.0
 10
931.2862831805996
 20
-1321.694742532927
 30
0.0
 41
0.9995394069080855
 10
931.3729415721515
 20
-1321.577164471186
 30
0.0
 41
1.0
 10
931.4086984344108
 20
-1321.528649578593
 30
0.0
 41
1.0
 10
931.4444552966701
 20
-1321.480134686
 30
0.0
 41
1.0
 10
931.5781819644887
 20
-1321.298694410873
 30
0.0
 41
0.9994460617143494
 10
931.7236824457757
 20
-1321.126552013224
 30
0.0
 41
1.0
 10
931.72807062675
 20
-1321.121360332842
 30
0.0
 41
1.0
 10
931.7324588077244
 20
-1321.116168652461
 30
0.0
 41
1.0
 10
931.8691829270621
 20
-1320.954409615576
 30
0.0
 41
0.9994359394933763
 10
932.0164571574151
 20
-1320.80219341441
 30
0.0
 41
1.0
 10
932.0188405113706
 20
-1320.799730084035
 30
0.0
 41
1.0
 10
932.0212238653261
 20
-1320.797266753659
 30
0.0
 41
1.0
 10
932.1637313877693
 20
-1320.649977213243
 30
0.0
 41
0.9995293688567944
 10
932.3150030687486
 20
-1320.511704001081
 30
0.0
 41
1.0
 10
932.3342968280126
 20
-1320.49406811543
 30
0.0
 41
1.0
 10
932.3535905872766
 20
-1320.476432229778
 30
0.0
 41
1.0
 10
932.4662747497322
 20
-1320.373430788916
 30
0.0
 41
0.999708761480295
 10
932.5837976386858
 20
-1320.275986508119
 30
0.0
 41
1.0
 10
932.6029637118684
 20
-1320.260094929606
 30
0.0
 41
1.0
 10
932.6221297850508
 20
-1320.244203351092
 30
0.0
 41
1.0
 10
932.701320527651
 20
-1320.178542227313
 30
0.0
 41
0.9999595338700135
 10
932.781679798496
 20
-1320.114316496667
 30
0.0
 41
1.0
 10
932.8620390693584
 20
-1320.050090766006
 30
0.0
 41
0.9999749417504894
 10
932.943299603711
 20
-1319.987009212052
 30
0.0
 41
1.0
 10
932.9642857498648
 20
-1319.970717924758
 30
0.0
 41
1.0
 10
932.9852718960185
 20
-1319.954426637463
 30
0.0
 41
1.0
 10
933.0698397813217
 20
-1319.888777627621
 30
0.0
 41
0.9999792037115057
 10
933.1552473810971
 20
-1319.824224845972
 30
0.0
 41
1.0
 10
933.1760722069567
 20
-1319.808485023754
 30
0.0
 41
1.0
 10
933.1968970328164
 20
-1319.792745201535
 30
0.0
 41
1.0
 10
933.2406549808117
 20
-1319.75967206437
 30
0.0
 41
0.9999993373798038
 10
933.2843366670097
 20
-1319.726498268905
 30
0.0
 41
1.0
 10
933.3280183531507
 20
-1319.693324473482
 30
0.0
 41
0.9999160953816699
 10
933.3725447640684
 20
-1319.661293408285
 30
0.0
 41
1.0
 10
933.4053666514899
 20
-1319.637682252699
 30
0.0
 41
1.0
 10
933.4381885389115
 20
-1319.614071097113
 30
0.0
 41
1.0
 10
933.5483587246692
 20
-1319.534817720745
 30
0.0
 41
0.9980964527231613
 10
933.66744771817
 20
-1319.469730247889
 30
0.0
 41
1.0
 10
933.7044803250972
 20
-1319.449490268296
 30
0.0
 41
1.0
 10
933.7415129320244
 20
-1319.429250288704
 30
0.0
 41
1.0
 10
933.9208399452983
 20
-1319.331240038002
 30
0.0
 41
0.9984572810572789
 10
934.1099285116588
 20
-1319.253717776655
 30
0.0
 41
1.0
 10
934.1135747810539
 20
-1319.252222884317
 30
0.0
 41
1.0
 10
934.117221050449
 20
-1319.25072799198
 30
0.0
 41
1.0
 10
934.2990170780171
 20
-1319.176195515309
 30
0.0
 41
0.9987838528033893
 10
934.487269736577
 20
-1319.119929875143
 30
0.0
 41
1.0
 10
934.4915076857766
 20
-1319.118663221452
 30
0.0
 41
1.0
 10
934.4957456349762
 20
-1319.117396567762
 30
0.0
 41
1.0
 10
934.6755223951371
 20
-1319.063664234977
 30
0.0
 41
0.999065281620722
 10
934.8592683268521
 20
-1319.025660555435
 30
0.0
 41
1.0
 10
934.8644567278818
 20
-1319.024587452329
 30
0.0
 41
1.0
 10
934.8696451289117
 20
-1319.023514349223
 30
0.0
 41
1.0
 10
935.0430142585666
 20
-1318.987656875893
 30
0.0
 41
0.9992909934270359
 10
935.2185900250263
 20
-1318.964946443426
 30
0.0
 41
1.0
 10
935.3941657914828
 20
-1318.94223601096
 30
0.0
 41
0.9994553539448302
 10
935.5708572245744
 20
-1318.931156706754
 30
0.0
 41
1.0
 10
935.6062916323717
 20
-1318.928934818706
 30
0.0
 41
1.0
 10
935.641726040169
 20
-1318.926712930658
 30
0.0
 41
1.0
 10
935.8079518067381
 20
-1318.916289868246
 30
0.0
 41
0.999092809829273
 10
935.974461598641
 20
-1318.920049509481
 30
0.0
 41
1.0
 10
936.0130234339139
 20
-1318.920920201014
 30
0.0
 41
1.0
 10
936.0515852691867
 20
-1318.921790892547
 30
0.0
 41
1.0
 10
936.1409713905447
 20
-1318.923809150715
 30
0.0
 41
0.999838208920621
 10
936.2302270733298
 20
-1318.929041277243
 30
0.0
 41
1.0
 10
936.2306569795473
 20
-1318.929066478146
 30
0.0
 41
1.0
 10
936.2310868857649
 20
-1318.929091679048
 30
0.0
 41
1.0
 10
936.3194827561138
 20
-1318.934273403771
 30
0.0
 41
0.9997558016759435
 10
936.4075633333168
 20
-1318.943355919138
 30
0.0
 41
1.0
 10
936.4080394717428
 20
-1318.94340501662
 30
0.0
 41
1.0
 10
936.4085156101686
 20
-1318.943454114102
 30
0.0
 41
1.0
 10
936.4956439105135
 20
-1318.952438434504
 30
0.0
 41
0.9996565144182056
 10
936.5821817638598
 20
-1318.965975741194
 30
0.0
 41
1.0
 10
936.5826476892364
 20
-1318.966048626925
 30
0.0
 41
1.0
 10
936.5831136146129
 20
-1318.966121512656
 30
0.0
 41
1.0
 10
936.6687196172007
 20
-1318.979513047882
 30
0.0
 41
0.9995321806866535
 10
936.7533466975298
 20
-1318.998113536312
 30
0.0
 41
1.0
 10
936.7537358921034
 20
-1318.998199078778
 30
0.0
 41
1.0
 10
936.754125086677
 20
-1318.998284621244
 30
0.0
 41
1.0
 10
936.8379737778592
 20
-1319.016714024742
 30
0.0
 41
0.9993819199219618
 10
936.920320312054
 20
-1319.040989408002
 30
0.0
 41
1.0
 10
936.9205587455527
 20
-1319.041059697111
 30
0.0
 41
1.0
 10
936.9207971790515
 20
-1319.041129986221
 30
0.0
 41
1.0
 10
937.0026668462502
 20
-1319.065264791263
 30
0.0
 41
0.9992088568505916
 10
937.0823593652384
 20
-1319.095830027057
 30
0.0
 41
1.0
 10
937.1620403561174
 20
-1319.12638962779
 30
0.0
 41
0.9990226101773474
 10
937.2387110260246
 20
-1319.163867059405
 30
0.0
 41
1.0
 10
937.3153701678222
 20
-1319.201338855958
 30
0.0
 41
0.9988424273972117
 10
937.3880737950342
 20
-1319.24600363121
 30
0.0
 41
1.0
 10
937.3883415034139
 20
-1319.246168095283
 30
0.0
 41
1.0
 10
937.3886092117937
 20
-1319.246332559355
 30
0.0
 41
1.0
 10
937.4618482557645
 20
-1319.291326262753
 30
0.0
 41
0.9986928844491282
 10
937.5301111224742
 20
-1319.343561997032
 30
0.0
 41
1.0
 10
937.530692414697
 20
-1319.34400681026
 30
0.0
 41
1.0
 10
937.5312737069198
 20
-1319.344451623488
 30
0.0
 41
1.0
 10
937.600699158075
 20
-1319.397576984224
 30
0.0
 41
0.998600726227902
 10
937.6641253278419
 20
-1319.457737753917
 30
0.0
 41
1.0
 10
937.6650197432991
 20
-1319.458586121752
 30
0.0
 41
1.0
 10
937.6659141587563
 20
-1319.459434489587
 30
0.0
 41
1.0
 10
937.7311291594372
 20
-1319.521291994951
 30
0.0
 41
0.9985581491382038
 10
937.789336771139
 20
-1319.589784485222
 30
0.0
 41
1.0
 10
937.7985952247349
 20
-1319.600678842924
 30
0.0
 41
1.0
 10
937.8078536783307
 20
-1319.611573200626
 30
0.0
 41
1.0
 10
937.8845781972235
 20
-1319.701854406301
 30
0.0
 41
0.9970460233520153
 10
937.946570098383
 20
-1319.802821490482
 30
0.0
 41
1.0
 10
937.9610394634624
 20
-1319.826387949563
 30
0.0
 41
1.0
 10
937.9755088285419
 20
-1319.849954408644
 30
0.0
 41
1.0
 10
938.0152455285546
 20
-1319.914674132677
 30
0.0
 41
0.9988468816636342
 10
938.0485918993063
 20
-1319.982906585105
 30
0.0
 41
1.0
 10
938.0556279217984
 20
-1319.997303506243
 30
0.0
 41
1.0
 10
938.0626639442905
 20
-1320.011700427382
 30
0.0
 41
1.0
 10
938.0819382700581
 20
-1320.051139037533
 30
0.0
 41
0.9998431189996929
 10
938.0998035975529
 20
-1320.091235591973
 30
0.0
 41
1.0
 10
938.1176689250815
 20
-1320.131332146489
 30
0.0
 41
0.9999989990028213
 10
938.1356476485108
 20
-1320.171377984089
 30
0.0
 41
1.0
 10
938.1418199600846
 20
-1320.185126200856
 30
0.0
 41
1.0
 10
938.1479922716583
 20
-1320.198874417623
 30
0.0
 41
1.0
 10
938.1783156182686
 20
-1320.266416688831
 30
0.0
 41
0.9998790356321278
 10
938.2065234984066
 20
-1320.334869440769
 30
0.0
 41
1.0
 10
938.2133586796906
 20
-1320.351456542196
 30
0.0
 41
1.0
 10
938.2201938609745
 20
-1320.368043643622
 30
0.0
 41
1.0
 10
938.2437515233563
 20
-1320.425211598511
 30
0.0
 41
0.9998227574561287
 10
938.2651402717449
 20
-1320.483225906787
 30
0.0
 41
1.0
 10
938.2865290201344
 20
-1320.541240215065
 30
0.0
 41
0.9996797971040683
 10
938.3049553050935
 20
-1320.600262334183
 30
0.0
 41
1.0
 10
938.308859107819
 20
-1320.612766792352
 30
0.0
 41
1.0
 10
938.3127629105445
 20
-1320.62527125052
 30
0.0
 41
1.0
 10
938.3389968009549
 20
-1320.709302285976
 30
0.0
 41
0.9979274938734355
 10
938.3542213244341
 20
-1320.796006644637
 30
0.0
 41
1.0
 10
938.3564450116949
 20
-1320.808670645456
 30
0.0
 41
1.0
 10
938.3586686989557
 20
-1320.821334646275
 30
0.0
 41
1.0
 10
938.3695986386547
 20
-1320.883581153569
 30
0.0
 41
0.9994985982137418
 10
938.3765668038316
 20
-1320.946394654711
 30
0.0
 41
1.0
 10
938.3835349690083
 20
-1321.009208155848
 30
0.0
 41
0.9996372611200992
 10
938.3871108347761
 20
-1321.072305734531
 30
0.0
 41
1.0
 10
938.3872794122656
 20
-1321.075280351615
 30
0.0
 41
1.0
 10
938.387447989755
 20
-1321.0782549687
 30
0.0
 41
1.0
 10
938.3913610105012
 20
-1321.147301781544
 30
0.0
 41
0.9997730630736238
 10
938.3923293239893
 20
-1321.216452605576
 30
0.0
 41
1.0
 10
938.3923864304074
 20
-1321.22053078472
 30
0.0
 41
1.0
 10
938.3924435368256
 20
-1321.224608963864
 30
0.0
 41
1.0
 10
938.3935260631498
 20
-1321.301916146185
 30
0.0
 41
0.9998772614069082
 10
938.392185976418
 20
-1321.379219292753
 30
0.0
 41
1.0
 10
938.3920967132193
 20
-1321.384368456585
 30
0.0
 41
1.0
 10
938.3920074500206
 20
-1321.389517620416
 30
0.0
 41
1.0
 10
938.3904888368914
 20
-1321.477119094651
 30
0.0
 41
0.9999415567326905
 10
938.387076526645
 20
-1321.564667256336
 30
0.0
 41
1.0
 10
938.3868352059699
 20
-1321.570858716068
 30
0.0
 41
1.0
 10
938.3865938852948
 20
-1321.5770501758
 30
0.0
 41
1.0
 10
938.382698933698
 20
-1321.676981256959
 30
0.0
 41
0.9999716810434098
 10
938.3773003505797
 20
-1321.776842395179
 30
0.0
 41
1.0
 10
938.374087551791
 20
-1321.836271644834
 30
0.0
 41
1.0
 10
938.3708747530025
 20
-1321.895700894489
 30
0.0
 41
1.0
 10
938.3628008438498
 20
-1322.045049295772
 30
0.0
 41
0.9999819129906373
 10
938.3529310522329
 20
-1322.194289773485
 30
0.0
 41
1.0
 10
938.3430612606163
 20
-1322.343530251197
 30
0.0
 41
1.0
 10
938.3406219400524
 20
-1322.380723297046
 30
0.0
 41
1.0
 10
938.3633201738828
 20
-1322.341982299718
 30
0.0
 41
0.9999982127994569
 10
938.3861647326473
 20
-1322.303327405744
 30
0.0
 41
1.0
 10
938.4130742925279
 20
-1322.257794191696
 30
0.0
 41
1.0
 10
938.4399838524085
 20
-1322.212260977648
 30
0.0
 41
1.0
 10
938.516647530934
 20
-1322.082539655579
 30
0.0
 41
0.9998609190057378
 10
938.5975948437966
 20
-1321.955447273649
 30
0.0
 41
1.0
 10
938.6272431652792
 20
-1321.90889754069
 30
0.0
 41
1.0
 10
938.6568914867619
 20
-1321.862347807731
 30
0.0
 41
1.0
 10
938.7391637069984
 20
-1321.733175237737
 30
0.0
 41
0.99990676097348
 10
938.8249327164608
 20
-1321.606297548298
 30
0.0
 41
1.0
 10
938.8273374196605
 20
-1321.602740282245
 30
0.0
 41
1.0
 10
938.8297421228601
 20
-1321.599183016192
 30
0.0
 41
1.0
 10
938.9107017259212
 20
-1321.479419858862
 30
0.0
 41
0.9998784952150989
 10
938.9953553356062
 20
-1321.362238642148
 30
0.0
 41
1.0
 10
939.0800089452869
 20
-1321.24505742544
 30
0.0
 41
0.9998532968284253
 10
939.1686265661086
 20
-1321.130844516971
 30
0.0
 41
1.0
 10
939.188588355101
 20
-1321.105117195949
 30
0.0
 41
1.0
 10
939.2085501440936
 20
-1321.079389874927
 30
0.0
 41
1.0
 10
939.3270341938519
 20
-1320.92668426396
 30
0.0
 41
0.9991551975795396
 10
939.4576586434748
 20
-1320.784224701877
 30
0.0
 41
1.0
 10
939.4611682594532
 20
-1320.780397100254
 30
0.0
 41
1.0
 10
939.4646778754316
 20
-1320.776569498631
 30
0.0
 41
1.0
 10
939.5882830930965
 20
-1320.641765139795
 30
0.0
 41
0.9997418144181018
 10
939.7178852327988
 20
-1320.512715729181
 30
0.0
 41
1.0
 10
939.8474873724988
 20
-1320.383666318569
 30
0.0
 41
0.9989238204633436
 10
939.9884899207489
 20
-1320.267181356531
 30
0.0
 41
1.0
 10
940.0337375988888
 20
-1320.229801364922
 30
0.0
 41
1.0
 10
940.0789852770289
 20
-1320.192421373313
 30
0.0
 41
1.0
 10
940.2192253342513
 20
-1320.076566320021
 30
0.0
 41
0.9990825084096853
 10
940.368865266855
 20
-1319.973137322188
 30
0.0
 41
1.0
 10
940.3789106309085
 20
-1319.966194109111
 30
0.0
 41
1.0
 10
940.3889559949621
 20
-1319.959250896034
 30
0.0
 41
1.0
 10
940.518505199454
 20
-1319.869708324358
 30
0.0
 41
0.9998164899825488
 10
940.6513894028352
 20
-1319.785194082839
 30
0.0
 41
1.0
 10
940.6632349633619
 20
-1319.777660316312
 30
0.0
 41
1.0
 10
940.6750805238887
 20
-1319.770126549786
 30
0.0
 41
1.0
 10
940.7842736062125
 20
-1319.700679841322
 30
0.0
 41
0.999747344913069
 10
940.8964775634608
 20
-1319.636210883507
 30
0.0
 41
1.0
 10
941.0086815207092
 20
-1319.571741925692
 30
0.0
 41
0.9999327861147479
 10
941.1223501314688
 20
-1319.509891934012
 30
0.0
 41
1.0
 10
941.1229021340321
 20
-1319.509591575332
 30
0.0
 41
1.0
 10
941.1234541365952
 20
-1319.509291216651
 30
0.0
 41
1.0
 10
941.2382267524795
 20
-1319.446840507612
 30
0.0
 41
0.9996956420483157
 10
941.3559400783207
 20
-1319.390127040636
 30
0.0
 41
1.0
 10
941.3863804832122
 20
-1319.375461063907
 30
0.0
 41
1.0
 10
941.4168208881035
 20
-1319.360795087178
 30
0.0
 41
1.0
 10
941.5197979948473
 20
-1319.311181428734
 30
0.0
 41
0.9998070570175864
 10
941.6246443837905
 20
-1319.265650841832
 30
0.0
 41
1.0
 10
941.7294907727335
 20
-1319.220120254931
 30
0.0
 41
0.999782743614761
 10
941.8361437093431
 20
-1319.178999083619
 30
0.0
 41
1.0
 10
941.8553665589736
 20
-1319.171587509987
 30
0.0
 41
1.0
 10
941.8745894086042
 20
-1319.164175936355
 30
0.0
 41
1.0
 10
942.0196880444776
 20
-1319.108231617778
 30
0.0
 41
0.9988031841976367
 10
942.169558407082
 20
-1319.06673155361
 30
0.0
 41
1.0
 10
942.194475655446
 20
-1319.059831807803
 30
0.0
 41
1.0
 10
942.2193929038101
 20
-1319.052932061996
 30
0.0
 41
1.0
 10
942.3866629294564
 20
-1319.006613919589
 30
0.0
 41
0.9984748040550027
 10
942.5580198381041
 20
-1318.979019687325
 30
0.0
 41
1.0
 10
942.5627589743532
 20
-1318.978256526811
 30
0.0
 41
1.0
 10
942.5674981106023
 20
-1318.977493366298
 30
0.0
 41
1.0
 10
942.7293767467531
 20
-1318.95142545506
 30
0.0
 41
0.9984436495479933
 10
942.8931514904777
 20
-1318.943547501241
 30
0.0
 41
1.0
 10
942.914848698609
 20
-1318.942503814042
 30
0.0
 41
1.0
 10
942.9365459067403
 20
-1318.941460126842
 30
0.0
 41
1.0
 10
943.0569262342024
 20
-1318.935669547423
 30
0.0
 41
0.9987954789335233
 10
943.1772944791123
 20
-1318.941706075165
 30
0.0
 41
1.0
 10
943.1972592716081
 20
-1318.942707319503
 30
0.0
 41
1.0
 10
943.217224064104
 20
-1318.943708563842
 30
0.0
 41
1.0
 10
943.2976627240237
 20
-1318.947742602907
 30
0.0
 41
0.9997941595877502
 10
943.3778715021166
 20
-1318.955036668828
 30
0.0
 41
1.0
 10
943.4580802802146
 20
-1318.96233073475
 30
0.0
 41
0.9998589466236496
 10
943.5379988270732
 20
-1318.9723145892
 30
0.0
 41
1.0
 10
943.5704050288779
 20
-1318.976362946119
 30
0.0
 41
1.0
 10
943.6028112306825
 20
-1318.980411303038
 30
0.0
 41
1.0
 10
943.7475421811531
 20
-1318.998491871326
 30
0.0
 41
0.999349506324908
 10
943.8905934249179
 20
-1319.026957581068
 30
0.0
 41
1.0
 10
943.9235271220716
 20
-1319.033511044283
 30
0.0
 41
1.0
 10
943.9564608192254
 20
-1319.040064507498
 30
0.0
 41
1.0
 10
944.0657546424286
 20
-1319.061812841633
 30
0.0
 41
0.9996788715561211
 10
944.1738062143846
 20
-1319.089070640996
 30
0.0
 41
1.0
 10
944.1758692169242
 20
-1319.089591067569
 30
0.0
 41
1.0
 10
944.1779322194639
 20
-1319.090111494142
 30
0.0
 41
1.0
 10
944.2818577863418
 20
-1319.116328440359
 30
0.0
 41
0.9995480654492639
 10
944.3840200215704
 20
-1319.148743396983
 30
0.0
 41
1.0
 10
944.3857096636996
 20
-1319.149279501897
 30
0.0
 41
1.0
 10
944.3873993058286
 20
-1319.149815606811
 30
0.0
 41
1.0
 10
944.4861822567998
 20
-1319.181158353608
 30
0.0
 41
0.9993867959456058
 10
944.5825294152424
 20
-1319.219337722898
 30
0.0
 41
1.0
 10
944.5837723643266
 20
-1319.219830264793
 30
0.0
 41
1.0
 10
944.5850153134107
 20
-1319.220322806689
 30
0.0
 41
1.0
 10
944.6788765736845
 20
-1319.257517092187
 30
0.0
 41
0.9992050256521701
 10
944.7694762487183
 20
-1319.302070991426
 30
0.0
 41
1.0
 10
944.7702109314317
 20
-1319.302432283887
 30
0.0
 41
1.0
 10
944.7709456141451
 20
-1319.302793576349
 30
0.0
 41
1.0
 10
944.8600759237526
 20
-1319.346624890665
 30
0.0
 41
0.9990222350741896
 10
944.9449859851454
 20
-1319.398158158363
 30
0.0
 41
1.0
 10
944.9451698704281
 20
-1319.398269761268
 30
0.0
 41
1.0
 10
944.9453537557107
 20
-1319.398381364173
 30
0.0
 41
1.0
 10
945.0298960465386
 20
-1319.449691426061
 30
0.0
 41
0.9988642743805378
 10
945.109170581158
 20
-1319.508815613587
 30
0.0
 41
1.0
 10
945.1884451157778
 20
-1319.567939801113
 30
0.0
 41
0.9987681233310948
 10
945.2614689000537
 20
-1319.634630492513
 30
0.0
 41
1.0
 10
945.2617978280193
 20
-1319.634930893727
 30
0.0
 41
1.0
 10
945.2621267559848
 20
-1319.635231294941
 30
0.0
 41
1.0
 10
945.3358083961925
 20
-1319.70252278877
 30
0.0
 41
0.9987496570898327
 10
945.4024022015196
 20
-1319.776835602857
 30
0.0
 41
1.0
 10
945.4031743712801
 20
-1319.777697276215
 30
0.0
 41
1.0
 10
945.4039465410406
 20
-1319.778558949573
 30
0.0
 41
1.0
 10
945.4720846858877
 20
-1319.854595110374
 30
0.0
 41
0.9988147669826568
 10
945.5325069401127
 20
-1319.936896117216
 30
0.0
 41
1.0
 10
945.5336262661909
 20
-1319.93842074857
 30
0.0
 41
1.0
 10
945.5347455922691
 20
-1319.939945379923
 30
0.0
 41
1.0
 10
945.5974064986501
 20
-1320.025295649471
 30
0.0
 41
0.9989452636216534
 10
945.6519734116112
 20
-1320.116034338628
 30
0.0
 41
1.0
 10
945.6533221376967
 20
-1320.118277119655
 30
0.0
 41
1.0
 10
945.6546708637823
 20
-1320.12051990068
 30
0.0
 41
1.0
 10
945.7119352289151
 20
-1320.21574415189
 30
0.0
 41
0.9991046436070149
 10
945.7609444422367
 20
-1320.315468584916
 30
0.0
 41
1.0
 10
945.7624083038266
 20
-1320.318447264989
 30
0.0
 41
1.0
 10
945.7638721654166
 20
-1320.321425945061
 30
0.0
 41
1.0
 10
945.8158091019185
 20
-1320.427107738232
 30
0.0
 41
0.9992763831100686
 10
945.8595622304736
 20
-1320.536431800188
 30
0.0
 41
1.0
 10
945.8610415001368
 20
-1320.540127987721
 30
0.0
 41
1.0
 10
945.8625207698001
 20
-1320.543824175254
 30
0.0
 41
1.0
 10
945.909232437682
 20
-1320.660540612278
 30
0.0
 41
0.9994163472883417
 10
945.9478654688706
 20
-1320.780174200739
 30
0.0
 41
1.0
 10
945.9491036211176
 20
-1320.784008344522
 30
0.0
 41
1.0
 10
945.9503417733646
 20
-1320.787842488306
 30
0.0
 41
1.0
 10
945.9902253343828
 20
-1320.911348549787
 30
0.0
 41
0.9997268055890305
 10
946.0242933902944
 20
-1321.036583581736
 30
0.0
 41
1.0
 10
946.0252235705634
 20
-1321.040002947843
 30
0.0
 41
1.0
 10
946.0261537508323
 20
-1321.04342231395
 30
0.0
 41
1.0
 10
946.0583614462054
 20
-1321.161818613682
 30
0.0
 41
0.9996701318999964
 10
946.0844470629768
 20
-1321.28171256695
 30
0.0
 41
1.0
 10
946.1105326797467
 20
-1321.40160652021
 30
0.0
 41
0.9995785451109173
 10
946.1296162570865
 20
-1321.522812281242
 30
0.0
 41
1.0
 10
946.1338360392606
 20
-1321.549613436009
 30
0.0
 41
1.0
 10
946.1380558214346
 20
-1321.576414590776
 30
0.0
 41
1.0
 10
946.164630797373
 20
-1321.745200564478
 30
0.0
 41
0.9979925101216898
 10
946.1696563832994
 20
-1321.91599189257
 30
0.0
 41
1.0
 10
946.170481195724
 20
-1321.944022616047
 30
0.0
 41
1.0
 10
946.1713060081486
 20
-1321.972053339523
 30
0.0
 41
1.0
 10
946.1746819692261
 20
-1322.086783220655
 30
0.0
 41
0.9995314902262715
 10
946.1710317770873
 20
-1322.201504704414
 30
0.0
 41
1.0
 10
946.1673815849491
 20
-1322.316226188162
 30
0.0
 41
0.9996245486943958
 10
946.1574524898181
 20
-1322.430575459288
 30
0.0
 41
1.0
 10
946.1572894418238
 20
-1322.432453215424
 30
0.0
 41
1.0
 10
946.1571263938295
 20
-1322.43433097156
 30
0.0
 41
1.0
 10
946.1468712027093
 20
-1322.55243575496
 30
0.0
 41
0.9997286095001247
 10
946.131125879138
 20
-1322.669934663854
 30
0.0
 41
1.0
 10
946.130732386488
 20
-1322.672871088554
 30
0.0
 41
1.0
 10
946.1303388938379
 20
-1322.675807513253
 30
0.0
 41
1.0
 10
946.1138065849666
 20
-1322.799179271547
 30
0.0
 41
0.9998265533969509
 10
946.0926911262345
 20
-1322.921849746332
 30
0.0
 41
1.0
 10
946.0920145840967
 20
-1322.925780124843
 30
0.0
 41
1.0
 10
946.0913380419588
 20
-1322.929710503355
 30
0.0
 41
1.0
 10
946.0688694989512
 20
-1323.060241735162
 30
0.0
 41
0.9999022530854565
 10
946.042760034341
 20
-1323.190093703802
 30
0.0
 41
1.0
 10
946.041781393176
 20
-1323.194960846187
 30
0.0
 41
1.0
 10
946.0408027520112
 20
-1323.199827988572
 30
0.0
 41
1.0
 10
946.0127360050691
 20
-1323.339414241992
 30
0.0
 41
0.9999524761934924
 10
945.9819530362328
 20
-1323.478426735163
 30
0.0
 41
1.0
 10
945.9806769290587
 20
-1323.484189494458
 30
0.0
 41
1.0
 10
945.9794008218848
 20
-1323.489952253754
 30
0.0
 41
1.0
 10
945.9460656386982
 20
-1323.640490265527
 30
0.0
 41
0.9999813588737747
 10
945.9108946379008
 20
-1323.79060997819
 30
0.0
 41
1.0
 10
945.9093407124456
 20
-1323.797242568607
 30
0.0
 41
1.0
 10
945.9077867869903
 20
-1323.803875159024
 30
0.0
 41
1.0
 10
945.8695079352854
 20
-1323.967260052507
 30
0.0
 41
0.9999955237628675
 10
945.8302520572996
 20
-1324.130412956136
 30
0.0
 41
1.0
 10
945.8179704216659
 20
-1324.181457146657
 30
0.0
 41
1.0
 10
945.8056887860321
 20
-1324.232501337177
 30
0.0
 41
1.0
 10
945.7418696367791
 20
-1324.497742621845
 30
0.0
 41
0.9999993604332911
 10
945.6774506896319
 20
-1324.762838872443
 30
0.0
 41
1.0
 10
945.6727318540763
 20
-1324.782257780519
 30
0.0
 41
1.0
 10
945.6680130185208
 20
-1324.801676688594
 30
0.0
 41
1.0
 10
945.594156400261
 20
-1325.105610755352
 30
0.0
 41
0.999965991472191
 10
945.5152968043761
 20
-1325.408285301909
 30
0.0
 41
1.0
 10
945.5103441154449
 20
-1325.427294439093
 30
0.0
 41
1.0
 10
945.5053914265138
 20
-1325.446303576278
 30
0.0
 41
1.0
 10
945.4166264527704
 20
-1325.78699639719
 30
0.0
 41
0.9999441976024506
 10
945.3206834198081
 20
-1326.125737822485
 30
0.0
 41
1.0
 10
945.303982901381
 20
-1326.184701535018
 30
0.0
 41
1.0
 10
945.2872823829539
 20
-1326.243665247551
 30
0.0
 41
1.0
 10
945.157938313139
 20
-1326.700334097906
 30
0.0
 41
0.9999625120735777
 10
945.0207055458154
 20
-1327.154694631903
 30
0.0
 41
1.0
 10
944.9849156027323
 20
-1327.27319065853
 30
0.0
 41
1.0
 10
944.9491256596491
 20
-1327.391686685158
 30
0.0
 41
1.0
 10
944.8746054556091
 20
-1327.638413763257
 30
0.0
 41
0.9999793386305091
 10
944.7969194324712
 20
-1327.884162402494
 30
0.0
 41
1.0
 10
944.7192334093337
 20
-1328.12991104173
 30
0.0
 41
1.0
 10
944.708453850463
 20
-1328.163928946105
 30
0.0
 41
1.0
 10
942.8580807971939
 20
-1334.051000868572
 30
0.0
 41
1.0
 10
941.0077077439247
 20
-1339.93807279104
 30
0.0
 41
1.0
 10
940.0464510539011
 20
-1339.93807279104
 30
0.0
 41
1.0
 10
939.0851943638776
 20
-1339.93807279104
 30
0.0
 41
1.0
 10
940.704139142556
 20
-1334.79004428925
 30
0.0
 41
1.0
 10
942.3230839212345
 20
-1329.642015787461
 30
0.0
 41
1.0
 10
942.3682497444047
 20
-1329.497984565204
 30
0.0
 41
1.0
 10
942.4134155675748
 20
-1329.353953342947
 30
0.0
 41
1.0
 10
942.5837199849386
 20
-1328.810862313782
 30
0.0
 41
0.999991165788255
 10
942.749452796626
 20
-1328.266358782395
 30
0.0
 41
1.0
 10
942.7791487401271
 20
-1328.168794842342
 30
0.0
 41
1.0
 10
942.8088446836282
 20
-1328.071230902289
 30
0.0
 41
1.0
 10
942.9151856083066
 20
-1327.72185525103
 30
0.0
 41
0.9999952428160223
 10
943.0193691976312
 20
-1327.371830226682
 30
0.0
 41
1.0
 10
943.0244286679647
 20
-1327.354831952403
 30
0.0
 41
1.0
 10
943.0294881382982
 20
-1327.337833678124
 30
0.0
 41
1.0
 10
943.1235527869537
 20
-1327.02180520234
 30
0.0
 41
0.9999931687505125
 10
943.2152786248298
 20
-1326.705089989061
 30
0.0
 41
1.0
 10
943.220213889289
 20
-1326.688049279791
 30
0.0
 41
1.0
 10
943.2251491537482
 20
-1326.671008570521
 30
0.0
 41
1.0
 10
943.3070044627038
 20
-1326.38837477579
 30
0.0
 41
0.9999893840823655
 10
943.3862516891603
 20
-1326.104998646544
 30
0.0
 41
1.0
 10
943.4654989156154
 20
-1325.821622517305
 30
0.0
 41
0.9999833980059574
 10
943.5414751563534
 20
-1325.53735193429
 30
0.0
 41
1.0
 10
943.5504790930797
 20
-1325.503663055796
 30
0.0
 41
1.0
 10
943.5594830298061
 20
-1325.469974177303
 30
0.0
 41
1.0
 10
943.6284475786715
 20
-1325.21193834501
 30
0.0
 41
0.9999233658066331
 10
943.6910025498906
 20
-1324.952274186291
 30
0.0
 41
1.0
 10
943.7535575211109
 20
-1324.692610027569
 30
0.0
 41
1.0
 10
943.7930409399685
 20
-1324.528803363143
 30
0.0
 41
1.0
 10
943.7980195439475
 20
-1324.508148401265
 30
0.0
 41
1.0
 10
943.8029981479264
 20
-1324.487493439388
 30
0.0
 41
1.0
 10
943.8325243588286
 20
-1324.364996698707
 30
0.0
 41
0.9999868670869415
 10
943.8607934428222
 20
-1324.242203753071
 30
0.0
 41
1.0
 10
943.8646909299814
 20
-1324.225274165648
 30
0.0
 41
1.0
 10
943.8685884171406
 20
-1324.208344578225
 30
0.0
 41
1.0
 10
943.8890625268212
 20
-1324.119410807414
 30
0.0
 41
0.9999778173351102
 10
943.9083501249338
 20
-1324.030212190195
 30
0.0
 41
1.0
 10
943.9276377230512
 20
-1323.941013572955
 30
0.0
 41
0.9999602692864088
 10
943.9453320816825
 20
-1323.851485284526
 30
0.0
 41
1.0
 10
943.9485359137589
 20
-1323.835274829647
 30
0.0
 41
1.0
 10
943.9517397458353
 20
-1323.819064374767
 30
0.0
 41
1.0
 10
943.9758417686221
 20
-1323.697115176565
 30
0.0
 41
0.9995617985320554
 10
943.9926851158408
 20
-1323.573953428858
 30
0.0
 41
1.0
 10
943.9951496057465
 20
-1323.555932611496
 30
0.0
 41
1.0
 10
943.9976140956522
 20
-1323.537911794134
 30
0.0
 41
1.0
 10
944.0178973567007
 20
-1323.389596744431
 30
0.0
 41
0.999112141063986
 10
944.0256227102891
 20
-1323.240100645625
 30
0.0
 41
1.0
 10
944.0265415003137
 20
-1323.222320809048
 30
0.0
 41
1.0
 10
944.0274602903382
 20
-1323.204540972472
 30
0.0
 41
1.0
 10
944.0333480638774
 20
-1323.090604546818
 30
0.0
 41
0.9989792494905241
 10
944.02892897176
 20
-1322.97660171092
 30
0.0
 41
1.0
 10
944.0282809998913
 20
-1322.959885464992
 30
0.0
 41
1.0
 10
944.0276330280226
 20
-1322.943169219064
 30
0.0
 41
1.0
 10
944.0245098796427
 20
-1322.862598875021
 30
0.0
 41
0.9997820295393856
 10
944.018025882267
 20
-1322.782229153278
 30
0.0
 41
1.0
 10
944.0115418848914
 20
-1322.701859431534
 30
0.0
 41
0.9998335105973902
 10
944.0021296893797
 20
-1322.621779815084
 30
0.0
 41
1.0
 10
944.0005347647033
 20
-1322.608210084601
 30
0.0
 41
1.0
 10
943.9989398400269
 20
-1322.594640354117
 30
0.0
 41
1.0
 10
943.9863377951629
 20
-1322.487421276704
 30
0.0
 41
0.9996876457879258
 10
943.9683938823642
 20
-1322.380965848986
 30
0.0
 41
1.0
 10
943.966162219219
 20
-1322.367726113744
 30
0.0
 41
1.0
 10
943.9639305560737
 20
-1322.354486378503
 30
0.0
 41
1.0
 10
943.9501347346522
 20
-1322.272640234542
 30
0.0
 41
0.9995547496494763
 10
943.9314814127599
 20
-1322.191762737352
 30
0.0
 41
1.0
 10
943.9311074558887
 20
-1322.190141326647
 30
0.0
 41
1.0
 10
943.9307334990173
 20
-1322.188519915941
 30
0.0
 41
1.0
 10
943.9128280908677
 20
-1322.110885240163
 30
0.0
 41
0.9994899427175575
 10
943.8900031821879
 20
-1322.034551957327
 30
0.0
 41
1.0
 10
943.889544655447
 20
-1322.033018507537
 30
0.0
 41
1.0
 10
943.889086128706
 20
-1322.031485057748
 30
0.0
 41
1.0
 10
943.8671782735089
 20
-1321.958218674494
 30
0.0
 41
0.9993784877591197
 10
943.840162638402
 20
-1321.886677969333
 30
0.0
 41
1.0
 10
943.8396309474251
 20
-1321.885269986613
 30
0.0
 41
1.0
 10
943.8390992564482
 20
-1321.883862003892
 30
0.0
 41
1.0
 10
943.8131470032953
 20
-1321.815137264174
 30
0.0
 41
0.9992430832254525
 10
943.7819304681361
 20
-1321.748638112106
 30
0.0
 41
1.0
 10
943.7813483520797
 20
-1321.747398056989
 30
0.0
 41
1.0
 10
943.7807662360233
 20
-1321.746158001872
 30
0.0
 41
1.0
 10
943.7507139329771
 20
-1321.682138960038
 30
0.0
 41
0.9990789632797902
 10
943.7152833062
 20
-1321.620932348288
 30
0.0
 41
1.0
 10
943.7146876000179
 20
-1321.619903262429
 30
0.0
 41
1.0
 10
943.7140918938358
 20
-1321.618874176569
 30
0.0
 41
1.0
 10
943.6798526794232
 20
-1321.559725736538
 30
0.0
 41
0.9988874801119577
 10
943.6401934033913
 20
-1321.504066024121
 30
0.0
 41
1.0
 10
943.6396378773268
 20
-1321.503286372445
 30
0.0
 41
1.0
 10
943.6390823512622
 20
-1321.50250672077
 30
0.0
 41
1.0
 10
943.6005341273587
 20
-1321.448406311702
 30
0.0
 41
0.9986762060692644
 10
943.556631656083
 20
-1321.398552597263
 30
0.0
 41
1.0
 10
943.5561876957512
 20
-1321.398048455447
 30
0.0
 41
1.0
 10
943.5557437354194
 20
-1321.397544313631
 30
0.0
 41
1.0
 10
943.5127291848072
 20
-1321.348698882825
 30
0.0
 41
0.9984621642489411
 10
943.464571628029
 20
-1321.304915582353
 30
0.0
 41
1.0
 10
943.4643249935124
 20
-1321.30469135019
 30
0.0
 41
1.0
 10
943.4640783589957
 20
-1321.304467118026
 30
0.0
 41
1.0
 10
943.4164140712512
 20
-1321.261132281882
 30
0.0
 41
0.9982724693850277
 10
943.3639954394098
 20
-1321.223687931365
 30
0.0
 41
1.0
 10
943.311576807568
 20
-1321.186243580846
 30
0.0
 41
0.9981399180157394
 10
943.2549907441745
 20
-1321.155457061403
 30
0.0
 41
1.0
 10
943.2549450820964
 20
-1321.155432218246
 30
0.0
 41
1.0
 10
943.2548994200181
 20
-1321.155407375089
 30
0.0
 41
1.0
 10
943.1982220324678
 20
-1321.124571169331
 30
0.0
 41
0.9980927086836943
 10
943.1381766814015
 20
-1321.100954360479
 30
0.0
 41
1.0
 10
943.1377365116898
 20
-1321.100781234604
 30
0.0
 41
1.0
 10
943.1372963419781
 20
-1321.100608108729
 30
0.0
 41
1.0
 10
943.0763706514875
 20
-1321.076645048126
 30
0.0
 41
0.9981411356561379
 10
943.0129821300873
 20
-1321.06027240662
 30
0.0
 41
1.0
 10
943.0121000133867
 20
-1321.060044564415
 30
0.0
 41
1.0
 10
943.011217896686
 20
-1321.05981672221
 30
0.0
 41
1.0
 10
942.946065141885
 20
-1321.042988396293
 30
0.0
 41
0.9983031812935299
 10
942.8793977128913
 20
-1321.033849035117
 30
0.0
 41
1.0
 10
942.8705266874854
 20
-1321.032632916446
 30
0.0
 41
1.0
 10
942.8616556620793
 20
-1321.031416797774
 30
0.0
 41
1.0
 10
942.8073060195762
 20
-1321.023966067783
 30
0.0
 41
0.9983887708263414
 10
942.7524621702843
 20
-1321.02272139415
 30
0.0
 41
1.0
 10
942.7443987650687
 20
-1321.022538396275
 30
0.0
 41
1.0
 10
942.7363353598531
 20
-1321.0223553984
 30
0.0
 41
1.0
 10
942.6976183209935
 20
-1321.021476720517
 30
0.0
 41
0.999886956307876
 10
942.6588923677888
 20
-1321.021762589876
 30
0.0
 41
1.0
 10
942.6201664145808
 20
-1321.022048459236
 30
0.0
 41
0.9999972320124223
 10
942.5814422353643
 20
-1321.022516558765
 30
0.0
 41
1.0
 10
942.5620892187899
 20
-1321.022750498854
 30
0.0
 41
1.0
 10
942.5427362022153
 20
-1321.022984438944
 30
0.0
 41
1.0
 10
942.4653059898483
 20
-1321.023920418652
 30
0.0
 41
0.99973049450882
 10
942.3880026836143
 20
-1321.028449512437
 30
0.0
 41
1.0
 10
942.3789530419065
 20
-1321.028979718428
 30
0.0
 41
1.0
 10
942.3699034001985
 20
-1321.029509924418
 30
0.0
 41
1.0
 10
942.2745008105535
 20
-1321.035099430183
 30
0.0
 41
0.9997888306415968
 10
942.1794084747122
 20
-1321.044604394672
 30
0.0
 41
1.0
 10
942.1706874131382
 20
-1321.045476109304
 30
0.0
 41
1.0
 10
942.1619663515643
 20
-1321.046347823937
 30
0.0
 41
1.0
 10
942.0494318925757
 20
-1321.05759621769
 30
0.0
 41
0.9984170238191028
 10
941.9388727452242
 20
-1321.081412299626
 30
0.0
 41
1.0
 10
941.902491614238
 20
-1321.089249335432
 30
0.0
 41
1.0
 10
941.8661104832518
 20
-1321.097086371238
 30
0.0
 41
1.0
 10
941.7509194148305
 20
-1321.121900237748
 30
0.0
 41
0.9976592854199005
 10
941.6401912484255
 20
-1321.162198914895
 30
0.0
 41
1.0
 10
941.5294630820209
 20
-1321.202497592042
 30
0.0
 41
0.9993255074352395
 10
941.4219912832305
 20
-1321.250814490534
 30
0.0
 41
1.0
 10
941.4173661043068
 20
-1321.252893866734
 30
0.0
 41
1.0
 10
941.4127409253831
 20
-1321.254973242934
 30
0.0
 41
1.0
 10
941.2960187687468
 20
-1321.307448893825
 30
0.0
 41
0.9976475078275494
 10
941.1875714244364
 20
-1321.375396883484
 30
0.0
 41
1.0
 10
941.1692290303018
 20
-1321.386889362298
 30
0.0
 41
1.0
 10
941.1508866361672
 20
-1321.398381841112
 30
0.0
 41
1.0
 10
941.0666844446151
 20
-1321.451138961881
 30
0.0
 41
0.9995131336407198
 10
940.9859367296561
 20
-1321.509045173835
 30
0.0
 41
1.0
 10
940.9051890147008
 20
-1321.566951385787
 30
0.0
 41
0.9995810107606381
 10
940.8279273669718
 20
-1321.629433068253
 30
0.0
 41
1.0
 10
940.8249573357608
 20
-1321.631834939718
 30
0.0
 41
1.0
 10
940.8219873045498
 20
-1321.634236811183
 30
0.0
 41
1.0
 10
940.7387855943994
 20
-1321.701522236579
 30
0.0
 41
0.9996617837954935
 10
940.6591949072622
 20
-1321.773042692141
 30
0.0
 41
1.0
 10
940.6470641563863
 20
-1321.783943425131
 30
0.0
 41
1.0
 10
940.6349334055103
 20
-1321.79484415812
 30
0.0
 41
1.0
 10
940.5666578781132
 20
-1321.856196773593
 30
0.0
 41
0.9997267750052307
 10
940.5013243698304
 20
-1321.920673310118
 30
0.0
 41
1.0
 10
940.4359908615447
 20
-1321.985149846645
 30
0.0
 41
0.9999667288956335
 10
940.371717918389
 20
-1322.050683653549
 30
0.0
 41
1.0
 10
940.3028904706193
 20
-1322.120861312301
 30
0.0
 41
1.0
 10
940.2340630228498
 20
-1322.191038971054
 30
0.0
 41
1.0
 10
940.0321351841504
 20
-1322.396928095468
 30
0.0
 41
0.9988205335174498
 10
939.8511295671702
 20
-1322.62143232753
 30
0.0
 41
1.0
 10
939.8204896022671
 20
-1322.659435577958
 30
0.0
 41
1.0
 10
939.7898496373641
 20
-1322.697438828385
 30
0.0
 41
1.0
 10
939.5475640905732
 20
-1322.997949561308
 30
0.0
 41
0.9997077826755066
 10
939.3200861394666
 20
-1323.309819355527
 30
0.0
 41
1.0
 10
939.3183627243378
 20
-1323.312182138904
 30
0.0
 41
1.0
 10
939.316639309209
 20
-1323.314544922281
 30
0.0
 41
1.0
 10
939.0857145278422
 20
-1323.631140283258
 30
0.0
 41
0.9989147567078731
 10
938.885251024958
 20
-1323.967849744444
 30
0.0
 41
1.0
 10
938.8605098796531
 20
-1324.009406324993
 30
0.0
 41
1.0
 10
938.8357687343481
 20
-1324.050962905542
 30
0.0
 41
1.0
 10
938.680557435708
 20
-1324.311664289999
 30
0.0
 41
0.9997476598181834
 10
938.5372124481985
 20
-1324.579074038582
 30
0.0
 41
1.0
 10
938.3938674606889
 20
-1324.846483787164
 30
0.0
 41
0.9996258967109621
 10
938.2653592087572
 20
-1325.121331723788
 30
0.0
 41
1.0
 10
938.2521592993053
 20
-1325.149563123889
 30
0.0
 41
1.0
 10
938.2389593898534
 20
-1325.177794523989
 30
0.0
 41
1.0
 10
938.0987506688575
 20
-1325.477666921934
 30
0.0
 41
0.9998735413946722
 10
937.9681493221374
 20
-1325.7818465214
 30
0.0
 41
1.0
 10
937.964706494078
 20
-1325.789865106863
 30
0.0
 41
1.0
 10
937.9612636660187
 20
-1325.797883692325
 30
0.0
 41
1.0
 10
937.8375479754168
 20
-1326.086026120869
 30
0.0
 41
0.9999377418858403
 10
937.7202931732422
 20
-1326.376857588543
 30
0.0
 41
1.0
 10
937.6030383710658
 20
-1326.667689056222
 30
0.0
 41
0.9999508299510196
 10
937.4915744276889
 20
-1326.960788733043
 30
0.0
 41
1.0
 10
937.4884936590269
 20
-1326.968889759005
 30
0.0
 41
1.0
 10
937.4854128903648
 20
-1326.976990784968
 30
0.0
 41
1.0
 10
937.3677874096627
 20
-1327.286292513716
 30
0.0
 41
0.999960922843368
 10
937.2556488067878
 20
-1327.597625529735
 30
0.0
 41
1.0
 10
937.2526927964385
 20
-1327.605832370143
 30
0.0
 41
1.0
 10
937.2497367860892
 20
-1327.614039210552
 30
0.0
 41
1.0
 10
937.1316861625207
 20
-1327.941785907373
 30
0.0
 41
0.9999674607398844
 10
937.0189386364513
 20
-1328.271394527371
 30
0.0
 41
1.0
 10
936.9675402458863
 20
-1328.42165372307
 30
0.0
 41
1.0
 10
936.9161418553213
 20
-1328.57191291877
 30
0.0
 41
1.0
 10
936.800131248564
 20
-1328.911060901271
 30
0.0
 41
0.9999287532305496
 10
936.6922498445942
 20
-1329.252881640244
 30
0.0
 41
1.0
 10
936.6457725884774
 20
-1329.400144184544
 30
0.0
 41
1.0
 10
936.5992953323605
 20
-1329.547406728845
 30
0.0
 41
1.0
 10
936.5843684406389
 20
-1329.594702379171
 30
0.0
 41
0.9999998222956358
 10
936.569497931893
 20
-1329.642015787461
 30
0.0
 41
1.0
 10
934.9488417950976
 20
-1334.79004428925
 30
0.0
 41
1.0
 10
933.3281856583021
 20
-1339.93807279104
 30
0.0
 41
1.0
 10
932.4228772144112
 20
-1339.93807279104
 30
0.0
 41
1.0
 10
931.5175687705203
 20
-1339.93807279104
 30
0.0
 41
1.0
 10
933.3696531819063
 20
-1334.051000868572
 30
0.0
 41
1.0
 10
935.2217375932923
 20
-1328.163928946105
 30
0.0
 41
1.0
 10
935.2318593515951
 20
-1328.131885732655
 30
0.0
 41
1.0
 10
935.3044670204448
 20
-1327.901586190829
 30
0.0
 41
1.0
 10
935.3770746892897
 20
-1327.671286649019
 30
0.0
 41
0.9999825681973007
 10
935.4469577285024
 20
-1327.44014575395
 30
0.0
 41
1.0
 10
935.4952487906652
 20
-1327.280421170448
 30
0.0
 41
1.0
 10
935.543539852828
 20
-1327.120696586945
 30
0.0
 41
1.0
 10
935.6406922061441
 20
-1326.799361365173
 30
0.0
 41
0.9999672528959805
 10
935.7326310117669
 20
-1326.476495819588
 30
0.0
 41
1.0
 10
935.7354198954347
 20
-1326.466701974205
 30
0.0
 41
1.0
 10
935.7382087791025
 20
-1326.456908128822
 30
0.0
 41
1.0
 10
935.8245698173893
 20
-1326.153630274006
 30
0.0
 41
0.9999899749175409
 10
935.9082114269249
 20
-1325.849591185549
 30
0.0
 41
1.0
 10
935.9183173459407
 20
-1325.812855947877
 30
0.0
 41
1.0
 10
935.9284232649566
 20
-1325.776120710205
 30
0.0
 41
1.0
 10
935.9918530364574
 20
-1325.545552097105
 30
0.0
 41
0.9999214200502784
 10
936.0494824648374
 20
-1325.313465754888
 30
0.0
 41
1.0
 10
936.0622483170217
 20
-1325.262054869476
 30
0.0
 41
1.0
 10
936.075014169206
 20
-1325.210643984065
 30
0.0
 41
1.0
 10
936.1071118932207
 20
-1325.081379412656
 30
0.0
 41
0.9999828681658809
 10
936.1376941452105
 20
-1324.951747938211
 30
0.0
 41
1.0
 10
936.1682763972057
 20
-1324.822116463745
 30
0.0
 41
0.9999389844479769
 10
936.1959873859945
 20
-1324.691841007847
 30
0.0
 41
1.0
 10
936.2031251297151
 20
-1324.658284904008
 30
0.0
 41
1.0
 10
936.2102628734356
 20
-1324.624728800169
 30
0.0
 41
1.0
 10
936.2522493496647
 20
-1324.427341136596
 30
0.0
 41
0.9998933699440634
 10
936.2884536140681
 20
-1324.228811528832
 30
0.0
 41
1.0
 10
936.2898264392841
 20
-1324.221283508137
 30
0.0
 41
1.0
 10
936.2911992645002
 20
-1324.213755487442
 30
0.0
 41
1.0
 10
936.330149179335
 20
-1324.000169838291
 30
0.0
 41
0.9996850305193886
 10
936.3583328555935
 20
-1323.784898832856
 30
0.0
 41
1.0
 10
936.3603278889627
 20
-1323.769660478735
 30
0.0
 41
1.0
 10
936.3623229223318
 20
-1323.754422124614
 30
0.0
 41
1.0
 10
936.3897307847909
 20
-1323.545076897459
 30
0.0
 41
0.9994697936707095
 10
936.403455344011
 20
-1323.334391702124
 30
0.0
 41
1.0
 10
936.4039324132607
 20
-1323.327068229914
 30
0.0
 41
1.0
 10
936.4044094825103
 20
-1323.319744757704
 30
0.0
 41
1.0
 10
936.4171799032307
 20
-1323.123706506794
 30
0.0
 41
0.9991804893136803
 10
936.4140515869578
 20
-1322.92727765682
 30
0.0
 41
1.0
 10
936.4139677081357
 20
-1322.922010855407
 30
0.0
 41
1.0
 10
936.4138838293136
 20
-1322.916744053994
 30
0.0
 41
1.0
 10
936.4109232706851
 20
-1322.730848806846
 30
0.0
 41
0.9988448329321524
 10
936.3901317250613
 20
-1322.546096217013
 30
0.0
 41
1.0
 10
936.3885376513583
 20
-1322.531931361242
 30
0.0
 41
1.0
 10
936.3869435776553
 20
-1322.517766505471
 30
0.0
 41
1.0
 10
936.3693401794376
 20
-1322.36134362718
 30
0.0
 41
0.9985503209458704
 10
936.3350239071381
 20
-1322.207719443091
 30
0.0
 41
1.0
 10
936.3274379150673
 20
-1322.173759115692
 30
0.0
 41
1.0
 10
936.3198519229965
 20
-1322.139798788294
 30
0.0
 41
1.0
 10
936.3007076348391
 20
-1322.054095259004
 30
0.0
 41
0.999103678137127
 10
936.2743827731872
 20
-1321.970318171676
 30
0.0
 41
1.0
 10
936.270400547731
 20
-1321.957645009165
 30
0.0
 41
1.0
 10
936.2664183222748
 20
-1321.944971846654
 30
0.0
 41
1.0
 10
936.2480579115359
 20
-1321.886541084351
 30
0.0
 41
0.9998874504367591
 10
936.2279527038577
 20
-1321.828687482128
 30
0.0
 41
1.0
 10
936.2078474961794
 20
-1321.770833879905
 30
0.0
 41
0.9994041637543277
 10
936.1837988832451
 20
-1321.714505176016
 30
0.0
 41
1.0
 10
936.1796020990209
 20
-1321.704675111533
 30
0.0
 41
1.0
 10
936.1754053147966
 20
-1321.694845047051
 30
0.0
 41
1.0
 10
936.1475264838023
 20
-1321.629544881084
 30
0.0
 41
0.999184684070209
 10
936.1144701271093
 20
-1321.566706849804
 30
0.0
 41
1.0
 10
936.1133335207141
 20
-1321.564546233349
 30
0.0
 41
1.0
 10
936.1121969143192
 20
-1321.562385616894
 30
0.0
 41
1.0
 10
936.0814137704162
 20
-1321.503868818523
 30
0.0
 41
0.9989253167921961
 10
936.0453443463612
 20
-1321.448453890133
 30
0.0
 41
1.0
 10
936.0442902216865
 20
-1321.44683439537
 30
0.0
 41
1.0
 10
936.0432360970119
 20
-1321.445214900608
 30
0.0
 41
1.0
 10
936.009274922306
 20
-1321.393038961743
 30
0.0
 41
0.9986467172835135
 10
935.9700777696689
 20
-1321.344672928114
 30
0.0
 41
1.0
 10
935.9692036409676
 20
-1321.343594325835
 30
0.0
 41
1.0
 10
935.9683295122665
 20
-1321.342515723556
 30
0.0
 41
1.0
 10
935.9308806170303
 20
-1321.296306894483
 30
0.0
 41
0.9984001104267284
 10
935.8884538865143
 20
-1321.254621787115
 30
0.0
 41
1.0
 10
935.8878667484048
 20
-1321.254044912234
 30
0.0
 41
1.0
 10
935.8872796102954
 20
-1321.253468037352
 30
0.0
 41
1.0
 10
935.8460271559966
 20
-1321.212936679746
 30
0.0
 41
0.9982442159082056
 10
935.8002710546616
 20
-1321.177568118486
 30
0.0
 41
1.0
 10
935.8000562591996
 20
-1321.177402085843
 30
0.0
 41
1.0
 10
935.7998414637375
 20
-1321.177236053199
 30
0.0
 41
1.0
 10
935.7545149533256
 20
-1321.142199557226
 30
0.0
 41
0.9982450060835437
 10
935.7053639742542
 20
-1321.112767774192
 30
0.0
 41
1.0
 10
935.656212995183
 20
-1321.083335991159
 30
0.0
 41
0.998392263963522
 10
935.6040466890175
 20
-1321.059656356505
 30
0.0
 41
1.0
 10
935.603819811693
 20
-1321.059553371023
 30
0.0
 41
1.0
 10
935.6035929343686
 20
-1321.059450385542
 30
0.0
 41
1.0
 10
935.5509728735549
 20
-1321.035564779925
 30
0.0
 41
0.998651714715001
 10
935.4961599006867
 20
-1321.017263660803
 30
0.0
 41
1.0
 10
935.495481979259
 20
-1321.017037314372
 30
0.0
 41
1.0
 10
935.4948040578313
 20
-1321.01681096794
 30
0.0
 41
1.0
 10
935.4386352421075
 20
-1320.998057155956
 30
0.0
 41
0.9989435598956073
 10
935.3809818549557
 20
-1320.984539453721
 30
0.0
 41
1.0
 10
935.3799017353742
 20
-1320.984286203468
 30
0.0
 41
1.0
 10
935.3788216157927
 20
-1320.984032953215
 30
0.0
 41
1.0
 10
935.3190079894782
 20
-1320.970008750475
 30
0.0
 41
0.9992249241239819
 10
935.2582764805809
 20
-1320.96073340776
 30
0.0
 41
1.0
 10
935.2568627922897
 20
-1320.960517499352
 30
0.0
 41
1.0
 10
935.2554491039986
 20
-1320.960301590944
 30
0.0
 41
1.0
 10
935.1918902185205
 20
-1320.950594431413
 30
0.0
 41
0.9994396597833773
 10
935.1278242819847
 20
-1320.945161509067
 30
0.0
 41
1.0
 10
935.1086836145056
 20
-1320.943538341348
 30
0.0
 41
1.0
 10
935.0895429470265
 20
-1320.94191517363
 30
0.0
 41
1.0
 10
934.9871956755338
 20
-1320.933235915847
 30
0.0
 41
0.9987693403121468
 10
934.8844920519467
 20
-1320.934738979299
 30
0.0
 41
1.0
 10
934.8742377177207
 20
-1320.934889051074
 30
0.0
 41
1.0
 10
934.8639833834948
 20
-1320.935039122848
 30
0.0
 41
1.0
 10
934.7544276173148
 20
-1320.936642467135
 30
0.0
 41
0.9989753644966377
 10
934.6454656172971
 20
-1320.94814547406
 30
0.0
 41
1.0
 10
934.5365036172807
 20
-1320.959648480986
 30
0.0
 41
0.9983190067306238
 10
934.4296048063162
 20
-1320.983683472772
 30
0.0
 41
1.0
 10
934.4207038547092
 20
-1320.985684751335
 30
0.0
 41
1.0
 10
934.4118029031022
 20
-1320.987686029898
 30
0.0
 41
1.0
 10
934.2871021889252
 20
-1321.015723578809
 30
0.0
 41
0.9985539388303672
 10
934.1661324352484
 20
-1321.056987254854
 30
0.0
 41
1.0
 10
934.1637870042869
 20
-1321.057787298671
 30
0.0
 41
1.0
 10
934.1614415733252
 20
-1321.058587342487
 30
0.0
 41
1.0
 10
934.0357809577258
 20
-1321.101451106165
 30
0.0
 41
0.9988468746493592
 10
933.9148106154244
 20
-1321.156169191228
 30
0.0
 41
1.0
 10
933.9116277934367
 20
-1321.157608865787
 30
0.0
 41
1.0
 10
933.908444971449
 20
-1321.159048540347
 30
0.0
 41
1.0
 10
933.7811089851715
 20
-1321.216645974529
 30
0.0
 41
0.9991322885919013
 10
933.6590084011156
 20
-1321.28464130671
 30
0.0
 41
1.0
 10
933.6414063900705
 20
-1321.294443508701
 30
0.0
 41
1.0
 10
933.6238043790255
 20
-1321.304245710691
 30
0.0
 41
1.0
 10
933.5216276979689
 20
-1321.361145826471
 30
0.0
 41
0.999386003784907
 10
933.423686693896
 20
-1321.42506184206
 30
0.0
 41
1.0
 10
933.4180683810437
 20
-1321.428728336755
 30
0.0
 41
1.0
 10
933.4124500681913
 20
-1321.43239483145
 30
0.0
 41
1.0
 10
933.3257456898209
 20
-1321.488977857649
 30
0.0
 41
0.9998821494952946
 10
933.2408193140097
 20
-1321.548196087725
 30
0.0
 41
1.0
 10
933.1558929381994
 20
-1321.6074143178
 30
0.0
 41
0.9997976482743735
 10
933.0734173078005
 20
-1321.670000725838
 30
0.0
 41
1.0
 10
933.058781042992
 20
-1321.681107415621
 30
0.0
 41
1.0
 10
933.0441447781835
 20
-1321.692214105403
 30
0.0
 41
1.0
 10
932.9323966181694
 20
-1321.777013893005
 30
0.0
 41
0.999809163080035
 10
932.8240463401415
 20
-1321.866114243707
 30
0.0
 41
1.0
 10
932.8110405876646
 20
-1321.876809344152
 30
0.0
 41
1.0
 10
932.7980348351878
 20
-1321.887504444598
 30
0.0
 41
1.0
 10
932.6636730522067
 20
-1321.997994996191
 30
0.0
 41
0.9995035112317322
 10
932.5365371744462
 20
-1322.116728813203
 30
0.0
 41
1.0
 10
932.5268898640568
 20
-1322.125738559363
 30
0.0
 41
1.0
 10
932.5172425536673
 20
-1322.134748305522
 30
0.0
 41
1.0
 10
932.3938194909024
 20
-1322.250014677278
 30
0.0
 41
0.9994630424299179
 10
932.2782110851183
 20
-1322.373117420513
 30
0.0
 41
1.0
 10
932.2745282463454
 20
-1322.377039000028
 30
0.0
 41
1.0
 10
932.2708454075724
 20
-1322.380960579542
 30
0.0
 41
1.0
 10
932.1626026793331
 20
-1322.49622016375
 30
0.0
 41
0.9995160693750003
 10
932.0617366498024
 20
-1322.617987581621
 30
0.0
 41
1.0
 10
932.0598029297225
 20
-1322.620322005828
 30
0.0
 41
1.0
 10
932.0578692096426
 20
-1322.622656430035
 30
0.0
 41
1.0
 10
931.9608706202717
 20
-1322.739754999492
 30
0.0
 41
0.999656147051488
 10
931.8701444016045
 20
-1322.861777761943
 30
0.0
 41
1.0
 10
931.8639867356992
 20
-1322.870059550989
 30
0.0
 41
1.0
 10
931.857829069794
 20
-1322.878341340036
 30
0.0
 41
1.0
 10
931.7794181829349
 20
-1322.983800524397
 30
0.0
 41
0.999834905517257
 10
931.7048909010064
 20
-1323.092039108055
 30
0.0
 41
1.0
 10
931.6303636190812
 20
-1323.200277691709
 30
0.0
 41
0.9999728109567746
 10
931.5574407231795
 20
-1323.309603617251
 30
0.0
 41
1.0
 10
931.55612550776
 20
-1323.311575386765
 30
0.0
 41
1.0
 10
931.5548102923406
 20
-1323.313547156279
 30
0.0
 41
1.0
 10
931.4792569655982
 20
-1323.426816620852
 30
0.0
 41
0.9999972147275646
 10
931.4042391552196
 20
-1323.540441463695
 30
0.0
 41
1.0
 10
931.3992676126038
 20
-1323.547971552157
 30
0.0
 41
1.0
 10
931.3942960699882
 20
-1323.55550164062
 30
0.0
 41
1.0
 10
931.3093351743759
 20
-1323.68418666039
 30
0.0
 41
0.9999371979005065
 10
931.2272798249788
 20
-1323.814743574156
 30
0.0
 41
1.0
 10
931.2237709406099
 20
-1323.820326502232
 30
0.0
 41
1.0
 10
931.2202620562412
 20
-1323.825909430308
 30
0.0
 41
1.0
 10
931.1311889381093
 20
-1323.967632200222
 30
0.0
 41
0.9998272025610072
 10
931.0474455472264
 20
-1324.112568076966
 30
0.0
 41
1.0
 10
931.0322303752043
 20
-1324.138901191419
 30
0.0
 41
1.0
 10
931.0170152031824
 20
-1324.165234305873
 30
0.0
 41
1.0
 10
930.9028414682532
 20
-1324.362836411527
 30
0.0
 41
0.9995217214838156
 10
930.8011017786968
 20
-1324.56711873939
 30
0.0
 41
1.0
 10
930.7934582160613
 20
-1324.582466189094
 30
0.0
 41
1.0
 10
930.7858146534257
 20
-1324.597813638798
 30
0.0
 41
1.0
 10
930.6989093608354
 20
-1324.772310096881
 30
0.0
 41
0.9998269762607489
 10
930.6185548945648
 20
-1324.949918383601
 30
0.0
 41
1.0
 10
930.5382004282949
 20
-1325.12752667032
 30
0.0
 41
0.9998944747388798
 10
930.4630396337318
 20
-1325.307394395945
 30
0.0
 41
1.0
 10
930.4580859641385
 20
-1325.319249050867
 30
0.0
 41
1.0
 10
930.4531322945453
 20
-1325.33110370579
 30
0.0
 41
1.0
 10
930.3724852339907
 20
-1325.524100645813
 30
0.0
 41
0.9999506734408782
 10
930.295687705089
 20
-1325.718661450664
 30
0.0
 41
1.0
 10
930.2810877398128
 20
-1325.755649372483
 30
0.0
 41
1.0
 10
930.2664877745366
 20
-1325.792637294303
 30
0.0
 41
1.0
 10
930.2188901761822
 20
-1325.913222255529
 30
0.0
 41
0.9999912393946779
 10
930.1723037321628
 20
-1326.034201458216
 30
0.0
 41
1.0
 10
930.1257172881392
 20
-1326.155180660915
 30
0.0
 41
0.9999927113991551
 10
930.0800559937454
 20
-1326.276512068416
 30
0.0
 41
1.0
 10
930.0660875623481
 20
-1326.313629050414
 30
0.0
 41
1.0
 10
930.0521191309508
 20
-1326.350746032412
 30
0.0
 41
1.0
 10
929.9785209737614
 20
-1326.546311403911
 30
0.0
 41
0.9999487550950048
 10
929.9088973487941
 20
-1326.743326769081
 30
0.0
 41
1.0
 10
929.8853037388535
 20
-1326.810090079384
 30
0.0
 41
1.0
 10
929.8617101289128
 20
-1326.876853389688
 30
0.0
 41
1.0
 10
929.7670244945443
 20
-1327.144787224507
 30
0.0
 41
0.9999808436937928
 10
929.6756629059037
 20
-1327.413872655769
 30
0.0
 41
1.0
 10
929.584301317259
 20
-1327.682958087043
 30
0.0
 41
0.999987393292162
 10
929.4956466085447
 20
-1327.952947442045
 30
0.0
 41
1.0
 10
929.475554251675
 20
-1328.014136774799
 30
0.0
 41
1.0
 10
929.4554618948055
 20
-1328.075326107553
 30
0.0
 41
1.0
 10
929.3266224723498
 20
-1328.467694128068
 30
0.0
 41
0.9999794883025784
 10
929.2028196873914
 20
-1328.861680334347
 30
0.0
 41
1.0
 10
929.1916674279541
 20
-1328.897170944583
 30
0.0
 41
1.0
 10
929.1805151685169
 20
-1328.932661554819
 30
0.0
 41
1.0
 10
929.0379570046205
 20
-1329.386334306902
 30
0.0
 41
0.999998276168228
 10
928.8970845646029
 20
-1329.840533329033
 30
0.0
 41
1.0
 10
927.3089442320303
 20
-1334.889303060036
 30
0.0
 41
1.0
 10
925.7208038994577
 20
-1339.93807279104
 30
0.0
 41
1.0
 10
924.7720532879813
 20
-1339.93807279104
 30
0.0
 41
1.0
 10
923.8233026765049
 20
-1339.93807279104
 30
0.0
 41
1.0
 10
927.061587162658
 20
-1329.610750591093
 30
0.0
 41
1.0
 10
930.2998716488113
 20
-1319.283428391147
 30
0.0
 41
1.0
  0
LWPOLYLINE
  5
60
330
23
100
AcDbEntity
  8
0
  6
Continuous
 62
     7
370
    15
390
1D
100
AcDbPolyline
 90
      232
 70
   128
 43
0.0
 10
904.5963258749842
 20
-1320.367771222662
 42
0.000437080068672
 10
904.543448700908
 20
-1320.436437861924
 10
904.5041644697848
 20
-1320.487544974815
 42
0.0030481992175739
 10
904.3738257526556
 20
-1320.659266667173
 10
904.3353140809152
 20
-1320.710653450948
 42
0.0042058245754892
 10
904.1313290302448
 20
-1320.987659196022
 10
904.0789239077446
 20
-1321.060092042802
 42
0.0120948898743192
 10
903.7828799909852
 20
-1321.490841647348
 10
903.6866874918562
 20
-1321.638322382584
 42
0.0141601263949725
 10
903.3830434449393
 20
-1322.133991719311
 10
903.3435061775153
 20
-1322.20283568674
 42
0.0071131081299427
 10
903.1382338542749
 20
-1322.572338485581
 42
0.0068458791003174
 10
902.943354327425
 20
-1322.947430049071
 10
902.9365424649741
 20
-1322.960991762781
 42
0.0064120880286279
 10
902.738400214936
 20
-1323.368416237687
 10
902.7308655294128
 20
-1323.384428094421
 42
0.0058857236449179
 10
902.5281101375411
 20
-1323.828804205456
 10
902.5199352112471
 20
-1323.84729435909
 42
0.0053189741894369
 10
902.3112308985757
 20
-1324.333257833017
 10
902.3024830928982
 20
-1324.354239711204
 42
0.0047503650418229
 10
902.0865093667484
 20
-1324.886439144411
 10
902.0772411183993
 20
-1324.909915520522
 42
0.0042071762170169
 10
901.8526937346735
 20
-1325.493009114586
 10
901.842944332323
 20
-1325.518975289461
 42
0.0036680086484977
 10
901.6084896890076
 20
-1326.157610674001
 10
901.5982819091631
 20
-1326.186059208337
 42
0.0032573142626997
 10
901.3526496231898
 20
-1326.884911868109
 10
901.2839991023557
 20
-1327.084374952143
 42
0.0026133366648846
 10
900.9355539035978
 20
-1328.114238235815
 10
900.8722971160972
 20
-1328.304469071208
 42
0.0020592950740407
 10
900.65843404713
 20
-1328.956572723821
 10
900.6553822559717
 20
-1328.966009212216
 42
0.0025609928536041
 10
900.453561754481
 20
-1329.601154434597
 10
900.4509703873514
 20
-1329.609456775547
 42
0.003136235624023
 10
900.2614796016774
 20
-1330.230219631717
 10
900.2593485587447
 20
-1330.237360937945
 42
0.003722991802947
 10
900.0825481718236
 20
-1330.846346239902
 10
900.0808695826223
 20
-1330.852293130059
 42
0.004307762370812
 10
899.9171287805522
 20
-1331.452111861845
 42
0.0047654161822918
 10
899.7643000580349
 20
-1332.054797950753
 10
899.729835449197
 20
-1332.196359727898
 42
0.0112969368444821
 10
899.533971091054
 20
-1333.088051888519
 10
899.5059647019568
 20
-1333.23087993462
 42
0.0130056762572012
 10
899.3051274583102
 20
-1334.417821006265
 10
899.2845877081631
 20
-1334.561899119741
 42
0.013872153214435
 10
899.1808847036252
 20
-1335.468728605567
 10
899.1615892157176
 20
-1335.692226327488
 42
0.0071254697007628
 10
899.1282425697948
 20
-1336.15541333634
 10
899.123281595631
 20
-1336.241417330907
 42
0.0028881799200266
 10
899.1081433023417
 20
-1336.533159040742
 42
0.006029729713342
 10
899.0982111025662
 20
-1336.825107976851
 10
899.097148820899
 20
-1336.873500348793
 42
0.0229523164159499
 10
899.1048798486847
 20
-1337.196255195074
 10
899.1091056222049
 20
-1337.256658729087
 42
0.0123673300669651
 10
899.1281842687234
 20
-1337.457779454265
 42
0.0128577674471499
 10
899.1573796591294
 20
-1337.65767730419
 10
899.1645055325167
 20
-1337.699006118788
 42
0.028571785376387
 10
899.2289995342124
 20
-1337.977122270102
 10
899.2426680578786
 20
-1338.023777039578
 42
0.031628309915651
 10
899.358478637793
 20
-1338.342791541405
 10
899.3615273295486
 20
-1338.349777913731
 42
0.0338984824238197
 10
899.5109590405158
 20
-1338.63734387792
 10
899.5132677698862
 20
-1338.641134907196
 42
0.0350228718357741
 10
899.6956280605592
 20
-1338.898186891872
 10
899.6965133123341
 20
-1338.899265969636
 42
0.0347476747524966
 10
899.9109379995743
 20
-1339.126451016857
 42
0.0331337701912438
 10
900.1541813253206
 20
-1339.322579678934
 10
900.1552814238369
 20
-1339.323352382106
 42
0.0305233319079946
 10
900.4238261194099
 20
-1339.488480552198
 10
900.4270561639114
 20
-1339.490204564061
 42
0.0273744481151985
 10
900.7196098754857
 20
-1339.626342707951
 10
900.7247144106233
 20
-1339.628386292421
 42
0.0240964406194192
 10
901.0401914862666
 20
-1339.737370018701
 10
901.046774815479
 20
-1339.739294758377
 42
0.0209636179811545
 10
901.3841749681343
 20
-1339.82276290631
 10
901.3918074285803
 20
-1339.824314819311
 42
0.0181388704692253
 10
901.7501298205788
 20
-1339.883730912524
 10
901.7584106689569
 20
-1339.884797096342
 42
0.0156086547586099
 10
902.1365980331458
 20
-1339.921533282918
 10
902.1797932854778
 20
-1339.924371785397
 42
0.0137148329024564
 10
902.5074664307716
 20
-1339.936892040649
 10
902.5534026207091
 20
-1339.937386473764
 42
0.0051057823885116
 10
902.7895482072898
 20
-1339.937516728173
 42
0.0052256693316559
 10
903.0256454910744
 20
-1339.932767903709
 10
903.0958722748179
 20
-1339.930620937695
 42
0.0161507179048285
 10
903.4716093529192
 20
-1339.906970567368
 10
903.4916223132923
 20
-1339.90506037208
 42
0.0101216737832246
 10
903.9056495347817
 20
-1339.857067441715
 10
903.9397028242097
 20
-1339.852419744905
 42
0.0245291776398438
 10
904.4164924797614
 20
-1339.763344666829
 10
904.5013157952864
 20
-1339.743148746483
 42
0.0143509212558649
 10
904.8579468992244
 20
-1339.647344112705
 42
0.0156557857036023
 10
905.208162963953
 20
-1339.530332896885
 10
905.2156641784463
 20
-1339.527562735132
 42
0.0170137333631044
 10
905.572260174131
 20
-1339.381905120259
 10
905.5793640965352
 20
-1339.378717284697
 42
0.018310536441182
 10
905.9387137646995
 20
-1339.201382242873
 10
905.9456605293402
 20
-1339.197631808
 42
0.0194899958151807
 10
906.30414127032
 20
-1338.985652826112
 10
906.3111551496609
 20
-1338.981127483814
 42
0.020486985295494
 10
906.6651694517564
 20
-1338.731607468727
 10
906.6724350603419
 20
-1338.72602740338
 42
0.0212516938556666
 10
907.018424991448
 20
-1338.436123406487
 10
907.0649416855257
 20
-1338.393656096392
 42
0.0215248918249256
 10
907.3249678544132
 20
-1338.134891817398
 10
907.3699975887915
 20
-1338.08604769605
 42
0.0114578554954825
 10
907.5247897424711
 20
-1337.910224762589
 10
907.5359842784624
 20
-1337.896905999038
 42
0.0061531305135825
 10
907.6624589244522
 20
-1337.742616465738
 42
0.0006325587127649
 10
907.7868374086369
 20
-1337.586613090021
 10
907.8098775436554
 20
-1337.557639569403
 42
0.0041897761555912
 10
907.978332947629
 20
-1337.34212019334
 10
908.0367950675203
 20
-1337.266018846356
 42
0.0092993880040216
 10
908.313406994751
 20
-1336.891740082463
 10
908.3958014879406
 20
-1336.775803078907
 42
0.0159321727083017
 10
908.7424079705853
 20
-1336.253628858148
 10
908.7867641059784
 20
-1336.181949293891
 42
0.0085547317021975
 10
909.0212758713001
 20
-1335.788074344673
 42
0.0084601156888836
 10
909.2422520487365
 20
-1335.386447495652
 10
909.2503675225726
 20
-1335.371087813368
 42
0.0081429654285546
 10
909.4736167930126
 20
-1334.931366300822
 10
909.4824769571941
 20
-1334.913187458807
 42
0.0076574581327635
 10
909.7088844677629
 20
-1334.43000458355
 10
909.7183641084845
 20
-1334.408940105252
 42
0.0070682724198872
 10
909.9488090162903
 20
-1333.876902800473
 10
909.958799300273
 20
-1333.852913611458
 42
0.006455951444835
 10
910.1941325084548
 20
-1333.266601344939
 10
910.2045418666196
 20
-1333.239666419498
 42
0.0058311413908231
 10
910.4455886033822
 20
-1332.593634325114
 10
910.4563436807699
 20
-1332.563749983953
 42
0.0052312425819428
 10
910.7039249588145
 20
-1331.852547570108
 10
910.7149687951905
 20
-1331.819720858049
 42
0.0046680544796336
 10
910.9698972229213
 20
-1331.037894542306
 10
911.0118893729792
 20
-1330.904911304968
 42
0.0041666856445823
 10
911.2151753853636
 20
-1330.241942529997
 10
911.2528378260268
 20
-1330.115361422345
 42
0.0015170975157229
 10
911.3740244044404
 20
-1329.703493070849
 42
-0.0004887993117738
 10
911.4943641775317
 20
-1329.291374658916
 10
911.5708414350586
 20
-1329.030417272866
 42
0.0002583378929462
 10
911.8440560051262
 20
-1328.096360569676
 10
911.9258288547003
 20
-1327.816261310101
 42
0.0006636169672884
 10
912.1196966147108
 20
-1327.148908386517
 10
912.1247932690716
 20
-1327.13127680359
 42
0.0010589131324638
 10
912.3062419699745
 20
-1326.498545460588
 10
912.3112240404694
 20
-1326.481032553517
 42
0.001565552446299
 10
912.4794942476378
 20
-1325.882415874367
 10
912.4843244480555
 20
-1325.865023715422
 42
0.0021640440480012
 10
912.6386144200387
 20
-1325.299996697413
 10
912.6432486394666
 20
-1325.282731967427
 42
0.0028763871851085
 10
912.7827643575217
 20
-1324.750764016572
 10
912.7871502216867
 20
-1324.733640038427
 42
0.0037310511946254
 10
912.9111069135258
 20
-1324.234192444394
 10
912.9151821338141
 20
-1324.217232173151
 42
0.0047652197770852
 10
913.0228060343233
 20
-1323.749754404843
 10
913.0264966336481
 20
-1323.732994849687
 42
0.0060276699303047
 10
913.1170267328002
 20
-1323.296919054549
 10
913.1202454230869
 20
-1323.280417840253
 42
0.0075824337757439
 10
913.1929347325049
 20
-1322.875150675814
 10
913.1955801098862
 20
-1322.858995728357
 42
0.0095130624611646
 10
913.2496953455163
 20
-1322.483906375292
 10
913.2566815693995
 20
-1322.42797281717
 42
0.012105465323273
 10
913.2832728999769
 20
-1322.163076988701
 10
913.284139389736
 20
-1322.151673545777
 42
0.0069050827391867
 10
913.2992282077741
 20
-1321.908732318928
 10
913.3003635074421
 20
-1321.885206061895
 42
0.0169063976686719
 10
913.3031907864229
 20
-1321.689013334582
 10
913.3020201348918
 20
-1321.62867757324
 42
0.0052007732895035
 10
913.2997666862987
 20
-1321.553084183081
 42
0.0054038123299897
 10
913.2798031744611
 20
-1321.433065887079
 10
913.2747173185894
 20
-1321.40440740049
 42
0.011205046046723
 10
913.2393329565314
 20
-1321.228080962153
 10
913.2215079944901
 20
-1321.14853937543
 42
0.0240764468009334
 10
913.1306106283444
 20
-1320.81830233993
 10
913.1120518655309
 20
-1320.761682174936
 42
0.0256812331834335
 10
912.968688945341
 20
-1320.389957968678
 10
912.9632795195195
 20
-1320.377826633688
 42
0.026836050121676
 10
912.7938522786698
 20
-1320.046833499667
 10
912.7883158710343
 20
-1320.037313829354
 42
0.0274670231729367
 10
912.5961148946215
 20
-1319.745026454437
 10
912.5907335946592
 20
-1319.737747306896
 42
0.0275035967098132
 10
912.379160715097
 20
-1319.482231416592
 10
912.3740912141313
 20
-1319.476752328962
 42
0.0269557673522201
 10
912.1466876706909
 20
-1319.256110042999
 10
912.1419446129089
 20
-1319.251980088539
 42
0.02591248022068
 10
911.9023897814775
 20
-1319.064289561386
 10
911.8978589362955
 20
-1319.061104059056
 42
0.0245162153005956
 10
911.6499425832008
 20
-1318.904371049945
 10
911.6454160368772
 20
-1318.901810852745
 42
0.0229282588842563
 10
911.3929964800492
 20
-1318.773942660246
 10
911.388215986213
 20
-1318.771790360484
 42
0.0212984135700765
 10
911.1351780337507
 20
-1318.670591443241
 10
911.1298737487833
 20
-1318.668727880482
 42
0.0197555462347386
 10
910.8800954110582
 20
-1318.591912462517
 42
0.0183511896789388
 10
910.6251666855956
 20
-1318.534329555551
 10
910.5388014888716
 20
-1318.518126765166
 42
0.0338057877144312
 10
910.2532941396117
 20
-1318.484318360026
 10
910.1622887345717
 20
-1318.479738704764
 42
0.0091990524490717
 10
910.0564416259358
 20
-1318.476362848842
 42
0.0028333980789336
 10
909.9505277099402
 20
-1318.475534741326
 10
909.9496122568935
 20
-1318.475532771502
 42
-0.002361982780504
 10
909.8418662417961
 20
-1318.474791930423
 10
909.8054610716117
 20
-1318.47436962396
 42
0.000882459847429
 10
909.6249050816658
 20
-1318.472593845721
 10
909.5810436493559
 20
-1318.472239884196
 42
0.0038132665763906
 10
909.3127607534851
 20
-1318.472120948129
 10
909.2962270986836
 20
-1318.472239714273
 42
0.0060665569335579
 10
908.9949466070974
 20
-1318.478060013694
 10
908.980696275067
 20
-1318.478508321661
 42
0.0080356953336687
 10
908.6512375587239
 20
-1318.494176043728
 10
908.6391675436405
 20
-1318.494944626669
 42
0.0098996399106022
 10
908.2864044589874
 20
-1318.524429855867
 10
908.2763587496149
 20
-1318.525470152065
 42
0.0117740981366489
 10
907.9052018912673
 20
-1318.572762399595
 10
907.8969791947836
 20
-1318.574007516166
 42
0.013743521513845
 10
907.5123903752959
 20
-1318.643104489728
 10
907.5057333361751
 20
-1318.644490385961
 42
0.0158359869388291
 10
907.1127362423716
 20
-1318.739382474442
 10
907.1073230555055
 20
-1318.740872415312
 42
0.0180554124029893
 10
906.7110080108928
 20
-1318.865510431551
 10
906.7064512228097
 20
-1318.867126467817
 42
0.0203657431285382
 10
906.3119737049967
 20
-1319.025386809334
 10
906.307830165991
 20
-1319.027248430775
 42
0.0226819684657288
 10
905.9203941097855
 20
-1319.222891009447
 10
905.9161943187693
 20
-1319.225256601366
 42
0.024863498460645
 10
905.5410123775881
 20
-1319.461883247313
 10
905.4928174488037
 20
-1319.495740289139
 42
0.0267044190884283
 10
905.2185247518876
 20
-1319.711180665007
 42
0.0139303002198896
 10
904.9623575859551
 20
-1319.948419505913
 10
904.9575042002278
 20
-1319.953172168779
 42
0.0283460963446713
 10
904.7134316059995
 20
-1320.220902829225
 10
904.6737631008441
 20
-1320.269704406697
 42
0.0070695364819168
 10
904.5963258749842
 20
-1320.367771222662
 42
0.0070695364819168
  0
LWPOLYLINE
  5
61
330
23
100
AcDbEntity
  8
0
  6
Continuous
 62
     7
370
    15
390
1D
100
AcDbPolyline
 90
      226
 70
   128
 43
0.0
 10
901.0675054377379
 20
-1336.089360028846
 42
-0.0026277636607057
 10
901.0674275539378
 20
-1336.022588103079
 10
901.0676449121698
 20
-1335.96943288566
 42
-0.0088680296727914
 10
901.071421528463
 20
-1335.796417103254
 10
901.0737678875753
 20
-1335.737137077804
 42
-0.0077381705613145
 10
901.0898139983392
 20
-1335.445876581996
 10
901.0906819095115
 20
-1335.43358834832
 42
-0.0068872530533739
 10
901.1173139892604
 20
-1335.118366596244
 10
901.1185182134458
 20
-1335.106125617232
 42
-0.0062130021487007
 10
901.1561119302742
 20
-1334.767255925989
 10
901.1576158338087
 20
-1334.755082054078
 42
-0.0056726929671088
 10
901.2065376933112
 20
-1334.392886831963
 10
901.2083111389554
 20
-1334.380793031719
 42
-0.0052341884495975
 10
901.2689217252145
 20
-1333.995599776206
 10
901.270939713992
 20
-1333.983594846208
 42
-0.0049768450167908
 10
901.3436783954222
 20
-1333.575750278755
 10
901.3679274101402
 20
-1333.44720229577
 42
-0.0089029805623325
 10
901.5050082619357
 20
-1332.785426848344
 10
901.5377536372534
 20
-1332.640395417824
 42
-0.0080318257098789
 10
901.7673022515961
 20
-1331.694685785963
 10
901.7792871780424
 20
-1331.64855515078
 42
-0.0074265721317039
 10
902.063298716895
 20
-1330.618490572391
 10
902.0831782600121
 20
-1330.5503565118
 42
-0.0069711922701489
 10
902.4104828385157
 20
-1329.484088771482
 10
902.4704347856227
 20
-1329.298067413107
 42
-0.0052070422891852
 10
902.6998600108805
 20
-1328.61079533608
 10
902.7171412030167
 20
-1328.560768055567
 42
-0.0009167004448999
 10
902.9202330903422
 20
-1327.976312207309
 42
-0.0025162726942414
 10
903.1273307206061
 20
-1327.393270943143
 10
903.1645553324153
 20
-1327.290121397227
 42
-0.0028212681456475
 10
903.4127312513733
 20
-1326.61439076507
 10
903.4225620141295
 20
-1326.588083320378
 42
-0.0031964916822847
 10
903.6588542717863
 20
-1325.967878558266
 10
903.6684887257826
 20
-1325.94306856813
 42
-0.0036281836451334
 10
903.8935946868864
 20
-1325.37562788723
 10
903.9030330970425
 20
-1325.352330455731
 42
-0.0041269166829688
 10
904.1176507937031
 20
-1324.834889559749
 10
904.1502837501229
 20
-1324.75801111339
 42
-0.0047472213055819
 10
904.3073285556775
 20
-1324.397589645504
 10
904.3142226368876
 20
-1324.382169048168
 42
-0.0025651659997371
 10
904.4625806707359
 20
-1324.054840992424
 42
-0.0057144634995036
 10
904.6163303645062
 20
-1323.730031319064
 10
904.6443610699047
 20
-1323.672522936675
 42
-0.0065388068374285
 10
904.8278280976482
 20
-1323.308290440002
 10
904.8362865534267
 20
-1323.292030860633
 42
-0.007451084301985
 10
905.0124687993045
 20
-1322.96534257951
 10
905.0206484698396
 20
-1322.950701802234
 42
-0.0084648979853902
 10
905.1902823229357
 20
-1322.65879279128
 10
905.1981384494238
 20
-1322.645785799629
 42
-0.0095638542805224
 10
905.361973897018
 20
-1322.385896927651
 10
905.3694488406923
 20
-1322.374527566191
 42
-0.0107191626804486
 10
905.5282504210772
 20
-1322.143916331651
 10
905.5352671548083
 20
-1322.134180239287
 42
-0.0118458573903881
 10
905.6898152533208
 20
-1321.930108043976
 42
-0.0129184518188581
 10
905.8542678769261
 20
-1321.733947527801
 10
905.8844126492861
 20
-1321.699821448905
 42
-0.0217742579635611
 10
906.0610249716208
 20
-1321.516614678656
 10
906.0717705160779
 20
-1321.506397845456
 42
-0.0097266568654902
 10
906.237828134937
 20
-1321.354550271016
 42
-0.018772090571699
 10
906.412175710829
 20
-1321.212481417625
 10
906.4428817015025
 20
-1321.189322335229
 42
-0.0179428207517514
 10
906.6753024214968
 20
-1321.026770158119
 10
906.6789547484071
 20
-1321.024406223234
 42
-0.0170047877699453
 10
906.9147183859429
 20
-1320.882945709079
 10
906.9185013746904
 20
-1320.880847404042
 42
-0.0160190788363567
 10
907.1554099223248
 20
-1320.759196102055
 42
-0.015110286149134
 10
907.3994417047717
 20
-1320.652513326
 10
907.4518282069832
 20
-1320.631473193106
 42
-0.027194544188635
 10
907.8104907660417
 20
-1320.5096083824
 10
907.8795555665323
 20
-1320.490258841133
 42
-0.0237596594021453
 10
908.2953524135521
 20
-1320.394808129152
 10
908.3634152672787
 20
-1320.382553441026
 42
-0.0213715440556681
 10
908.6492901987278
 20
-1320.343606409515
 10
908.7094373649438
 20
-1320.338016694814
 42
-0.0101465655820661
 10
908.8769298969399
 20
-1320.32587315155
 10
908.8862702831378
 20
-1320.325386236553
 42
-0.0100375910882628
 10
909.0354243837007
 20
-1320.320610418628
 10
909.0456836533772
 20
-1320.320487979613
 42
-0.0103625633384215
 10
909.1743916480359
 20
-1320.32161941314
 10
909.1966572993043
 20
-1320.322276771605
 42
-0.0115689250234876
 10
909.2807080368308
 20
-1320.32670627785
 42
-0.0072438037434452
 10
909.3645463162723
 20
-1320.334295477599
 10
909.3813468257428
 20
-1320.336062020323
 42
-0.0217917313138771
 10
909.4979165890545
 20
-1320.353481913044
 10
909.5635166796247
 20
-1320.366228521459
 42
-0.0332943556755175
 10
909.7679088446514
 20
-1320.420268812766
 10
909.7980814132012
 20
-1320.430436889885
 42
-0.0184824084806604
 10
909.936586469667
 20
-1320.482887905271
 42
-0.0198002050700385
 10
910.070660810166
 20
-1320.54577196547
 10
910.0725474475432
 20
-1320.54674975235
 42
-0.0212242342969898
 10
910.2046863899462
 20
-1320.622512491144
 10
910.2065016854885
 20
-1320.623658293352
 42
-0.0226090605795186
 10
910.3350055867112
 20
-1320.713137936917
 10
910.3368500284478
 20
-1320.714550189904
 42
-0.0238457052221405
 10
910.4600321097412
 20
-1320.818546085766
 10
910.4619848382997
 20
-1320.820360963532
 42
-0.0248160564147562
 10
910.5781863456
 20
-1320.93963556474
 10
910.5802899790024
 20
-1320.942020898445
 42
-0.0254109591447604
 10
910.6878951968686
 20
-1321.07730928441
 10
910.6901432187824
 20
-1321.08045083281
 42
-0.0255528488295252
 10
910.787589897579
 20
-1321.232477887044
 10
910.7899209974958
 20
-1321.236559498652
 42
-0.0252146793224302
 10
910.8757020235051
 20
-1321.40606174465
 10
910.8780042626624
 20
-1321.411243826562
 42
-0.0244265635952732
 10
910.9506589564237
 20
-1321.598990398608
 10
910.9599053578925
 20
-1321.626855816947
 42
-0.0231319612898874
 10
911.0058281368844
 20
-1321.790156863748
 42
-0.0112130424360945
 10
911.0404641594221
 20
-1321.956360463933
 10
911.0416666845351
 20
-1321.962857050824
 42
-0.0210527881240268
 10
911.0673531599059
 20
-1322.143912696265
 10
911.0708637547277
 20
-1322.179318244813
 42
-0.0190029892428993
 10
911.0863052282724
 20
-1322.432854091086
 10
911.0871152047164
 20
-1322.468329705454
 42
-0.0137974553661589
 10
911.0855663518807
 20
-1322.793361112188
 10
911.0847208969253
 20
-1322.81947985678
 42
-0.0081336634214535
 10
911.0698615617027
 20
-1323.124827324379
 42
-0.0073526923571413
 10
911.0455530283292
 20
-1323.429575568654
 10
911.0442916045454
 20
-1323.442912243331
 42
-0.0066886138693956
 10
911.0085560184986
 20
-1323.77349828683
 10
911.0068989290289
 20
-1323.787119905819
 42
-0.0061359187351422
 10
910.9590483269767
 20
-1324.143883885928
 10
910.9570108259052
 20
-1324.157778688748
 42
-0.0056698610060989
 10
910.8963604951372
 20
-1324.541057257592
 10
910.8939550618152
 20
-1324.555216376817
 42
-0.0052721077270442
 10
910.8198228610136
 20
-1324.965343716505
 10
910.8170597121738
 20
-1324.979760351881
 42
-0.0049289272182416
 10
910.7287655940738
 20
-1325.417068863003
 10
910.7256530993911
 20
-1325.431737715819
 42
-0.0047415956715274
 10
910.622415107859
 20
-1325.896534473229
 10
910.5876468974991
 20
-1326.046341568613
 42
-0.0084404470902943
 10
910.3976304539281
 20
-1326.806565593141
 10
910.3915037659416
 20
-1326.829429717298
 42
-0.003963594025745
 10
910.1700500816588
 20
-1327.630418581541
 10
910.156673286478
 20
-1327.677350198137
 42
-0.0072475040837424
 10
909.889226398617
 20
-1328.566569914521
 10
909.8190140717925
 20
-1328.788310264484
 42
-0.0051345458826775
 10
909.5322546997287
 20
-1329.66263545231
 10
909.5107284329689
 20
-1329.726061719417
 42
-0.0019150016603337
 10
909.2551950260945
 20
-1330.469610839666
 10
909.2487274216863
 20
-1330.488198304622
 42
-0.0021524362752236
 10
909.0002493706345
 20
-1331.192524126296
 10
908.9910389499375
 20
-1331.218277704598
 42
-0.0024331286818731
 10
908.7547836909021
 20
-1331.868877012716
 10
908.7457357383524
 20
-1331.893420319067
 42
-0.0027449721786554
 10
908.5211211675161
 20
-1332.492550197994
 10
908.5122311601234
 20
-1332.515872787848
 42
-0.0031083229768958
 10
908.2986886735139
 20
-1333.065796825426
 10
908.2899525418453
 20
-1333.087886541266
 42
-0.0035311343282267
 10
908.0869113562464
 20
-1333.590869667014
 10
908.0783260171041
 20
-1333.611712390511
 42
-0.0040245640950515
 10
907.8852142133044
 20
-1334.070021713117
 10
907.8767780997026
 20
-1334.089601081186
 42
-0.0046015135852397
 10
907.6930218065376
 20
-1334.505506110831
 10
907.6847356287051
 20
-1334.523803250293
 42
-0.0052768638270867
 10
907.5097581097536
 20
-1334.899576134553
 10
907.5016258991301
 20
-1334.91656947309
 42
-0.0060672675643335
 10
907.3348462863607
 20
-1335.254485096211
 10
907.3268768058782
 20
-1335.27015035521
 42
-0.0069904648870204
 10
907.1677084118778
 20
-1335.572486161872
 10
907.1599170122726
 20
-1335.586796711089
 42
-0.0080637022769591
 10
907.0077651519211
 20
-1335.855832014252
 10
907.0001761192864
 20
-1335.868759879859
 42
-0.0093006455659528
 10
906.8544354427584
 20
-1336.106774278356
 10
906.8470847760126
 20
-1336.118292247533
 42
-0.0107060778045797
 10
906.7071362325762
 20
-1336.327562564908
 10
906.7000744642934
 20
-1336.337648107479
 42
-0.0122723111405004
 10
906.5652807460986
 20
-1336.520441436963
 10
906.5649545225456
 20
-1336.520861824771
 42
-0.0141836319628715
 10
906.4213729195703
 20
-1336.695431582602
 10
906.4144251639178
 20
-1336.703406582868
 42
-0.0175957477207675
 10
906.2745189958837
 20
-1336.853027471272
 42
-0.0080466359667425
 10
906.1270552308409
 20
-1336.995349999435
 10
906.081020686336
 20
-1337.038370437514
 42
-0.0269600260398421
 10
905.8277404403563
 20
-1337.250693696021
 10
905.7611733040609
 20
-1337.300645110644
 42
-0.0178362839758901
 10
905.5212288144003
 20
-1337.4676630369
 10
905.5139838433965
 20
-1337.472331549107
 42
-0.0174650732648243
 10
905.2776476459585
 20
-1337.613192514064
 42
-0.0169240130160951
 10
905.0321814000989
 20
-1337.737484773842
 10
904.9861952445431
 20
-1337.758846729408
 42
-0.0318883036841081
 10
904.635844388922
 20
-1337.895185038919
 10
904.5674788537572
 20
-1337.916885659394
 42
-0.0284435909899725
 10
904.1914287274673
 20
-1338.013103094869
 10
904.1562705669658
 20
-1338.019996690698
 42
-0.0243909341008827
 10
903.8428271060498
 20
-1338.065717721727
 10
903.7925463792831
 20
-1338.070563268629
 42
-0.0196639292930969
 10
903.5769508017513
 20
-1338.082811554142
 10
903.5251267305882
 20
-1338.083714814879
 42
-0.010050151068206
 10
903.4127034489236
 20
-1338.083414416526
 10
903.381043587591
 20
-1338.082693344641
 42
-0.0019752031155657
 10
903.3319512508982
 20
-1338.081381184431
 10
903.3291909476666
 20
-1338.081296492604
 42
0.0065378752007836
 10
903.2856143729214
 20
-1338.08052960139
 42
-0.0167974694633442
 10
903.2420835499892
 20
-1338.078869702864
 10
903.2380042107275
 20
-1338.078576691969
 42
-0.0081283276274033
 10
903.1864444129924
 20
-1338.074029698331
 10
903.1747048391103
 20
-1338.072801780753
 42
-0.0126703440181839
 10
903.0999865433174
 20
-1338.063066989681
 10
903.0771986756401
 20
-1338.059508733766
 42
-0.0117852088434891
 10
902.9576596898025
 20
-1338.037945738608
 10
902.9022792380447
 20
-1338.026602198374
 42
-0.0251774592302268
 10
902.6754351990384
 20
-1337.968104188941
 10
902.6307160091868
 20
-1337.954137369606
 42
-0.0146525199894823
 10
902.4443230216473
 20
-1337.889870842408
 42
-0.0166929435859923
 10
902.2623453655232
 20
-1337.814063709354
 10
902.2576887342475
 20
-1337.811938808739
 42
-0.0191684358433512
 10
902.072505102998
 20
-1337.718702724949
 10
902.0691725172412
 20
-1337.716861477396
 42
-0.0221181781806163
 10
901.8858622133373
 20
-1337.604727979024
 10
901.8835124093306
 20
-1337.603143681034
 42
-0.0254984685376553
 10
901.7072222589453
 20
-1337.470732531065
 10
901.6847401112437
 20
-1337.451980222129
 42
-0.0292492648804605
 10
901.5599711724003
 20
-1337.334887422485
 42
-0.0159048957498429
 10
901.4461311749496
 20
-1337.206867430885
 10
901.4448123843708
 20
-1337.205285817866
 42
-0.0343813379558831
 10
901.3421751227445
 20
-1337.063414492096
 10
901.3106835913833
 20
-1337.012911100001
 42
-0.0369117275701862
 10
901.2247910894865
 20
-1336.849433859054
 42
-0.0191751379902623
 10
901.1575977039297
 20
-1336.677029253048
 10
901.1558343801701
 20
-1336.671935908373
 42
-0.0378178042228332
 10
901.1060396613857
 20
-1336.482995132291
 10
901.100044365656
 20
-1336.450434514098
 42
-0.0184846046466747
 10
901.079327166361
 20
-1336.30868169355
 42
-0.0179866351308685
 10
901.0689941612874
 20
-1336.165790880468
 10
901.0689377188417
 20
-1336.164233193856
 42
-0.0085497186138666
 10
901.0675054377379
 20
-1336.089360028846
 42
-0.0085497186138666
  0
ENDBLK
  5
62
330
23
100
AcDbEntity
  8
template
390
1D
100
AcDbBlockEnd
  0
BLOCK
  5
63
330
24
100
AcDbEntity
  8
notes
390
1D
100
AcDbBlockBegin
  2
*D3
 70
     1
 10
0.0
 20
0.0
 30
0.0
  3
*D3
  1

  0
LINE
  5
64
330
24
100
AcDbEntity
  8
0
  6
Continuous
 62
     0
370
    -2
390
1D
100
AcDbLine
 10
-177.4248712926686
 20
535.2412048625512
 30
0.0
 11
-177.4248712926686
 21
416.4234002621416
 31
0.0
  0
LINE
  5
65
330
24
100
AcDbEntity
  8
0
  6
Continuous
 62
     0
370
    -2
390
1D
100
AcDbLine
 10
-207.4248712926749
 20
491.4234002621364
 30
0.0
 11
-207.4248712926749
 21
416.4234002621416
 31
0.0
  0
LINE
  5
66
330
24
100
AcDbEntity
  8
0
  6
Continuous
 62
     0
370
    -2
390
1D
100
AcDbLine
 10
-177.4248712926686
 20
416.4234002621416
 30
0.0
 11
-137.2080872852891
 21
416.4234002621416
 31
0.0
  0
LINE
  5
67
330
24
100
AcDbEntity
  8
0
  6
Continuous
 62
     0
370
    -2
390
1D
100
AcDbLine
 10
-177.4248712926686
 20
416.4234002621416
 30
0.0
 11
-207.4248712926749
 21
416.4234002621416
 31
0.0
  0
CIRCLE
  5
68
102
{ACAD_REACTORS
330
69
102
}
330
24
100
AcDbEntity
  8
0
  6
Continuous
 62
     0
370
    -2
390
1D
100
AcDbCircle
 10
-177.4248712926686
 20
416.4234002621416
 30
0.0
 40
1.9998779296875
  0
HATCH
  5
69
330
24
100
AcDbEntity
  8
0
  6
Continuous
 62
     0
370
    -2
390
1D
100
AcDbHatch
 10
0.0
 20
0.0
 30
0.0
210
0.0
220
0.0
230
1.0
  2
SOLID
 70
     1
 71
     1
 91
        1
 92
        1
 93
        1
 72
     2
 10
-177.4248712926686
 20
416.4234002621416
 40
1.9998779296875
 50
0.0
 51
360.0
 73
     0
 97
        1
330
68
 75
     0
 76
     1
 98
        1
 10
0.0
 20
0.0
  0
CIRCLE
  5
6A
102
{ACAD_REACTORS
330
6B
102
}
330
24
100
AcDbEntity
  8
0
  6
Continuous
 62
     0
370
    -2
390
1D
100
AcDbCircle
 10
-207.4248712926749
 20
416.4234002621416
 30
0.0
 40
1.9998779296875
  0
HATCH
  5
6B
330
24
100
AcDbEntity
  8
0
  6
Continuous
 62
     0
370
    -2
390
1D
100
AcDbHatch
 10
0.0
 20
0.0
 30
0.0
210
0.0
220
0.0
230
1.0
  2
SOLID
 70
     1
 71
     1
 91
        1
 92
        1
 93
        1
 72
     2
 10
-207.4248712926749
 20
416.4234002621416
 40
1.9998779296875
 50
0.0
 51
360.0
 73
     0
 97
        1
330
6A
 75
     0
 76
     1
 98
        1
 10
0.0
 20
0.0
  0
MTEXT
  5
6C
330
24
100
AcDbEntity
  8
0
 62
     0
390
1D
100
AcDbMText
 10
-168.9580872852891
 20
450.3010174496416
 30
0.0
 40
24.4326171875
 41
0.0
 46
0.0
 71
     1
 72
     1
  1
30
  7
ＭＳ ゴシック
 73
     1
 44
0.7828267384257843
  0
POINT
  5
6D
330
24
100
AcDbEntity
  8
Defpoints
 62
     0
370
     0
390
1D
100
AcDbPoint
 10
-207.4248712926749
 20
516.4234002621364
 30
0.0
  0
POINT
  5
6E
330
24
100
AcDbEntity
  8
Defpoints
 62
     0
370
     0
390
1D
100
AcDbPoint
 10
-177.4248712926686
 20
560.2412048625512
 30
0.0
  0
POINT
  5
6F
330
24
100
AcDbEntity
  8
Defpoints
 62
     0
370
     0
390
1D
100
AcDbPoint
 10
-177.4248712926686
 20
416.4234002621416
 30
0.0
  0
ENDBLK
  5
70
330
24
100
AcDbEntity
  8
notes
390
1D
100
AcDbBlockEnd
  0
BLOCK
  5
71
330
25
100
AcDbEntity
  8
notes
390
1D
100
AcDbBlockBegin
  2
*D4
 70
     1
 10
0.0
 20
0.0
 30
0.0
  3
*D4
  1

  0
LINE
  5
72
330
25
100
AcDbEntity
  8
0
  6
Continuous
 62
     0
370
    -2
390
1D
100
AcDbLine
 10
-547.424871292675
 20
491.4234002621416
 30
0.0
 11
-547.424871292675
 21
416.4234002621416
 31
0.0
  0
LINE
  5
73
330
25
100
AcDbEntity
  8
0
  6
Continuous
 62
     0
370
    -2
390
1D
100
AcDbLine
 10
-577.4248712926686
 20
535.2412048625523
 30
0.0
 11
-577.4248712926686
 21
416.4234002621416
 31
0.0
  0
LINE
  5
74
330
25
100
AcDbEntity
  8
0
  6
Continuous
 62
     0
370
    -2
390
1D
100
AcDbLine
 10
-577.4248712926686
 20
416.4234002621416
 30
0.0
 11
-616.7080872852891
 21
416.4234002621416
 31
0.0
  0
LINE
  5
75
330
25
100
AcDbEntity
  8
0
  6
Continuous
 62
     0
370
    -2
390
1D
100
AcDbLine
 10
-547.424871292675
 20
416.4234002621416
 30
0.0
 11
-577.4248712926686
 21
416.4234002621416
 31
0.0
  0
CIRCLE
  5
76
102
{ACAD_REACTORS
330
77
102
}
330
25
100
AcDbEntity
  8
0
  6
Continuous
 62
     0
370
    -2
390
1D
100
AcDbCircle
 10
-547.424871292675
 20
416.4234002621416
 30
0.0
 40
1.9998779296875
  0
HATCH
  5
77
330
25
100
AcDbEntity
  8
0
  6
Continuous
 62
     0
370
    -2
390
1D
100
AcDbHatch
 10
0.0
 20
0.0
 30
0.0
210
0.0
220
0.0
230
1.0
  2
SOLID
 70
     1
 71
     1
 91
        1
 92
        1
 93
        1
 72
     2
 10
-547.424871292675
 20
416.4234002621416
 40
1.9998779296875
 50
0.0
 51
360.0
 73
     0
 97
        1
330
76
 75
     0
 76
     1
 98
        1
 10
0.0
 20
0.0
  0
CIRCLE
  5
78
102
{ACAD_REACTORS
330
79
102
}
330
25
100
AcDbEntity
  8
0
  6
Continuous
 62
     0
370
    -2
390
1D
100
AcDbCircle
 10
-577.4248712926686
 20
416.4234002621416
 30
0.0
 40
1.9998779296875
  0
HATCH
  5
79
330
25
100
AcDbEntity
  8
0
  6
Continuous
 62
     0
370
    -2
390
1D
100
AcDbHatch
 10
0.0
 20
0.0
 30
0.0
210
0.0
220
0.0
230
1.0
  2
SOLID
 70
     1
 71
     1
 91
        1
 92
        1
 93
        1
 72
     2
 10
-577.4248712926686
 20
416.4234002621416
 40
1.9998779296875
 50
0.0
 51
360.0
 73
     0
 97
        1
330
78
 75
     0
 76
     1
 98
        1
 10
0.0
 20
0.0
  0
MTEXT
  5
7A
330
25
100
AcDbEntity
  8
0
 62
     0
390
1D
100
AcDbMText
 10
-616.7080872852891
 20
450.3010174496416
 30
0.0
 40
24.4326171875
 41
0.0
 46
0.0
 71
     1
 72
     1
  1
30
  7
ＭＳ ゴシック
 73
     1
 44
0.7828267384257843
  0
POINT
  5
7B
330
25
100
AcDbEntity
  8
Defpoints
 62
     0
370
     0
390
1D
100
AcDbPoint
 10
-577.4248712926686
 20
560.2412048625523
 30
0.0
  0
POINT
  5
7C
330
25
100
AcDbEntity
  8
Defpoints
 62
     0
370
     0
390
1D
100
AcDbPoint
 10
-547.424871292675
 20
516.4234002621416
 30
0.0
  0
POINT
  5
7D
330
25
100
AcDbEntity
  8
Defpoints
 62
     0
370
     0
390
1D
100
AcDbPoint
 10
-547.424871292675
 20
416.4234002621416
 30
0.0
  0
ENDBLK
  5
7E
330
25
100
AcDbEntity
  8
notes
390
1D
100
AcDbBlockEnd
  0
BLOCK
  5
7F
330
26
100
AcDbEntity
  8
notes
390
1D
100
AcDbBlockBegin
  2
*D5
 70
     1
 10
0.0
 20
0.0
 30
0.0
  3
*D5
  1

  0
LINE
  5
80
330
26
100
AcDbEntity
  8
0
  6
Continuous
 62
     0
370
    -2
390
1D
100
AcDbLine
 10
-547.424871292675
 20
491.4234002621416
 30
0.0
 11
-547.424871292675
 21
416.4234002621416
 31
0.0
  0
LINE
  5
81
330
26
100
AcDbEntity
  8
0
  6
Continuous
 62
     0
370
    -2
390
1D
100
AcDbLine
 10
-287.4248712926749
 20
483.3405235823546
 30
0.0
 11
-287.4248712926749
 21
416.4234002621416
 31
0.0
  0
LINE
  5
82
330
26
100
AcDbEntity
  8
0
  6
Continuous
 62
     0
370
    -2
390
1D
100
AcDbLine
 10
-547.424871292675
 20
416.4234002621416
 30
0.0
 11
-287.4248712926749
 21
416.4234002621416
 31
0.0
  0
CIRCLE
  5
83
102
{ACAD_REACTORS
330
84
102
}
330
26
100
AcDbEntity
  8
0
  6
Continuous
 62
     0
370
    -2
390
1D
100
AcDbCircle
 10
-547.424871292675
 20
416.4234002621416
 30
0.0
 40
1.9998779296875
  0
HATCH
  5
84
330
26
100
AcDbEntity
  8
0
  6
Continuous
 62
     0
370
    -2
390
1D
100
AcDbHatch
 10
0.0
 20
0.0
 30
0.0
210
0.0
220
0.0
230
1.0
  2
SOLID
 70
     1
 71
     1
 91
        1
 92
        1
 93
        1
 72
     2
 10
-547.424871292675
 20
416.4234002621416
 40
1.9998779296875
 50
0.0
 51
360.0
 73
     0
 97
        1
330
83
 75
     0
 76
     1
 98
        1
 10
0.0
 20
0.0
  0
CIRCLE
  5
85
102
{ACAD_REACTORS
330
86
102
}
330
26
100
AcDbEntity
  8
0
  6
Continuous
 62
     0
370
    -2
390
1D
100
AcDbCircle
 10
-287.4248712926749
 20
416.4234002621416
 30
0.0
 40
1.9998779296875
  0
HATCH
  5
86
330
26
100
AcDbEntity
  8
0
  6
Continuous
 62
     0
370
    -2
390
1D
100
AcDbHatch
 10
0.0
 20
0.0
 30
0.0
210
0.0
220
0.0
230
1.0
  2
SOLID
 70
     1
 71
     1
 91
        1
 92
        1
 93
        1
 72
     2
 10
-287.4248712926749
 20
416.4234002621416
 40
1.9998779296875
 50
0.0
 51
360.0
 73
     0
 97
        1
330
85
 75
     0
 76
     1
 98
        1
 10
0.0
 20
0.0
  0
MTEXT
  5
87
330
26
100
AcDbEntity
  8
0
 62
     0
390
1D
100
AcDbMText
 10
-441.2373729748505
 20
450.3010174496416
 30
0.0
 40
24.4326171875
 41
0.0
 46
0.0
 71
     1
 72
     1
  1
260
  7
ＭＳ ゴシック
 73
     1
 44
0.7828267384257843
  0
POINT
  5
88
330
26
100
AcDbEntity
  8
Defpoints
 62
     0
370
     0
390
1D
100
AcDbPoint
 10
-287.4248712926749
 20
508.3405235823546
 30
0.0
  0
POINT
  5
89
330
26
100
AcDbEntity
  8
Defpoints
 62
     0
370
     0
390
1D
100
AcDbPoint
 10
-547.424871292675
 20
516.4234002621416
 30
0.0
  0
POINT
  5
8A
330
26
100
AcDbEntity
  8
Defpoints
 62
     0
370
     0
390
1D
100
AcDbPoint
 10
-547.424871292675
 20
416.4234002621416
 30
0.0
  0
ENDBLK
  5
8B
330
26
100
AcDbEntity
  8
notes
390
1D
100
AcDbBlockEnd
  0
BLOCK
  5
8C
330
27
100
AcDbEntity
  8
notes
390
1D
100
AcDbBlockBegin
  2
*D6
 70
     1
 10
0.0
 20
0.0
 30
0.0
  3
*D6
  1

  0
LINE
  5
8D
330
27
100
AcDbEntity
  8
0
  6
Continuous
 62
     0
370
    -2
390
1D
100
AcDbLine
 10
-287.4248712926749
 20
483.3405235823546
 30
0.0
 11
-287.4248712926749
 21
416.4234002621416
 31
0.0
  0
LINE
  5
8E
330
27
100
AcDbEntity
  8
0
  6
Continuous
 62
     0
370
    -2
390
1D
100
AcDbLine
 10
-207.4248712926749
 20
491.4234002621364
 30
0.0
 11
-207.4248712926749
 21
416.4234002621416
 31
0.0
  0
LINE
  5
8F
330
27
100
AcDbEntity
  8
0
  6
Continuous
 62
     0
370
    -2
390
1D
100
AcDbLine
 10
-287.4248712926749
 20
416.4234002621416
 30
0.0
 11
-207.4248712926749
 21
416.4234002621416
 31
0.0
  0
CIRCLE
  5
90
102
{ACAD_REACTORS
330
91
102
}
330
27
100
AcDbEntity
  8
0
  6
Continuous
 62
     0
370
    -2
390
1D
100
AcDbCircle
 10
-287.4248712926749
 20
416.4234002621416
 30
0.0
 40
1.9998779296875
  0
HATCH
  5
91
330
27
100
AcDbEntity
  8
0
  6
Continuous
 62
     0
370
    -2
390
1D
100
AcDbHatch
 10
0.0
 20
0.0
 30
0.0
210
0.0
220
0.0
230
1.0
  2
SOLID
 70
     1
 71
     1
 91
        1
 92
        1
 93
        1
 72
     2
 10
-287.4248712926749
 20
416.4234002621416
 40
1.9998779296875
 50
0.0
 51
360.0
 73
     0
 97
        1
330
90
 75
     0
 76
     1
 98
        1
 10
0.0
 20
0.0
  0
CIRCLE
  5
92
102
{ACAD_REACTORS
330
93
102
}
330
27
100
AcDbEntity
  8
0
  6
Continuous
 62
     0
370
    -2
390
1D
100
AcDbCircle
 10
-207.4248712926749
 20
416.4234002621416
 30
0.0
 40
1.9998779296875
  0
HATCH
  5
93
330
27
100
AcDbEntity
  8
0
  6
Continuous
 62
     0
370
    -2
390
1D
100
AcDbHatch
 10
0.0
 20
0.0
 30
0.0
210
0.0
220
0.0
230
1.0
  2
SOLID
 70
     1
 71
     1
 91
        1
 92
        1
 93
        1
 72
     2
 10
-207.4248712926749
 20
416.4234002621416
 40
1.9998779296875
 50
0.0
 51
360.0
 73
     0
 97
        1
330
92
 75
     0
 76
     1
 98
        1
 10
0.0
 20
0.0
  0
MTEXT
  5
94
330
27
100
AcDbEntity
  8
0
 62
     0
390
1D
100
AcDbMText
 10
-263.2998712926749
 20
450.3010174496416
 30
0.0
 40
24.4326171875
 41
0.0
 46
0.0
 71
     1
 72
     1
  1
80
  7
ＭＳ ゴシック
 73
     1
 44
0.7828267384257843
  0
POINT
  5
95
330
27
100
AcDbEntity
  8
Defpoints
 62
     0
370
     0
390
1D
100
AcDbPoint
 10
-207.4248712926749
 20
516.4234002621364
 30
0.0
  0
POINT
  5
96
330
27
100
AcDbEntity
  8
Defpoints
 62
     0
370
     0
390
1D
100
AcDbPoint
 10
-287.4248712926749
 20
508.3405235823546
 30
0.0
  0
POINT
  5
97
330
27
100
AcDbEntity
  8
Defpoints
 62
     0
370
     0
390
1D
100
AcDbPoint
 10
-287.4248712926749
 20
416.4234002621416
 30
0.0
  0
ENDBLK
  5
98
330
27
100
AcDbEntity
  8
notes
390
1D
100
AcDbBlockEnd
  0
BLOCK
  5
99
330
28
100
AcDbEntity
  8
notes
390
1D
100
AcDbBlockBegin
  2
*D7
 70
     1
 10
0.0
 20
0.0
 30
0.0
  3
*D7
  1

  0
LINE
  5
9A
330
28
100
AcDbEntity
  8
0
  6
Continuous
 62
     0
370
    -2
390
1D
100
AcDbLine
 10
-595.4726969472418
 20
-213.9025765539769
 30
0.0
 11
-631.8525598712854
 21
-213.9025765539769
 31
0.0
  0
LINE
  5
9B
330
28
100
AcDbEntity
  8
0
  6
Continuous
 62
     0
370
    -2
390
1D
100
AcDbLine
 10
-590.8525598712853
 20
-188.9025765539769
 30
0.0
 11
-631.8525598712854
 21
-188.9025765539769
 31
0.0
  0
LINE
  5
9C
330
28
100
AcDbEntity
  8
0
  6
Continuous
 62
     0
370
    -2
390
1D
100
AcDbLine
 10
-631.8525598712854
 20
-188.9025765539769
 30
0.0
 11
-631.8525598712854
 21
-145.1525765539769
 31
0.0
  0
LINE
  5
9D
330
28
100
AcDbEntity
  8
0
  6
Continuous
 62
     0
370
    -2
390
1D
100
AcDbLine
 10
-631.8525598712854
 20
-213.9025765539769
 30
0.0
 11
-631.8525598712854
 21
-188.9025765539769
 31
0.0
  0
CIRCLE
  5
9E
102
{ACAD_REACTORS
330
9F
102
}
330
28
100
AcDbEntity
  8
0
  6
Continuous
 62
     0
370
    -2
390
1D
100
AcDbCircle
 10
-631.8525598712854
 20
-213.9025765539769
 30
0.0
 40
1.9998779296875
  0
HATCH
  5
9F
330
28
100
AcDbEntity
  8
0
  6
Continuous
 62
     0
370
    -2
390
1D
100
AcDbHatch
 10
0.0
 20
0.0
 30
0.0
210
0.0
220
0.0
230
1.0
  2
SOLID
 70
     1
 71
     1
 91
        1
 92
        1
 93
        1
 72
     2
 10
-631.8525598712854
 20
-213.9025765539769
 40
1.9998779296875
 50
0.0
 51
360.0
 73
     0
 97
        1
330
9E
 75
     0
 76
     1
 98
        1
 10
0.0
 20
0.0
  0
CIRCLE
  5
A0
102
{ACAD_REACTORS
330
A1
102
}
330
28
100
AcDbEntity
  8
0
  6
Continuous
 62
     0
370
    -2
390
1D
100
AcDbCircle
 10
-631.8525598712854
 20
-188.9025765539769
 30
0.0
 40
1.9998779296875
  0
HATCH
  5
A1
330
28
100
AcDbEntity
  8
0
  6
Continuous
 62
     0
370
    -2
390
1D
100
AcDbHatch
 10
0.0
 20
0.0
 30
0.0
210
0.0
220
0.0
230
1.0
  2
SOLID
 70
     1
 71
     1
 91
        1
 92
        1
 93
        1
 72
     2
 10
-631.8525598712854
 20
-188.9025765539769
 40
1.9998779296875
 50
0.0
 51
360.0
 73
     0
 97
        1
330
A0
 75
     0
 76
     1
 98
        1
 10
0.0
 20
0.0
  0
MTEXT
  5
A2
330
28
100
AcDbEntity
  8
0
 62
     0
390
1D
100
AcDbMText
 10
-665.7301770587854
 20
-176.9025765539769
 30
0.0
 40
24.4326171875
 41
0.0
 46
0.0
 71
     1
 72
     1
  1
25
  7
ＭＳ ゴシック
 11
0.0
 21
1.0
 31
0.0
 73
     1
 44
0.7828267384257843
  0
POINT
  5
A3
330
28
100
AcDbEntity
  8
Defpoints
 62
     0
370
     0
390
1D
100
AcDbPoint
 10
-565.8525598712853
 20
-188.9025765539769
 30
0.0
  0
POINT
  5
A4
330
28
100
AcDbEntity
  8
Defpoints
 62
     0
370
     0
390
1D
100
AcDbPoint
 10
-570.4726969472418
 20
-213.9025765539769
 30
0.0
  0
POINT
  5
A5
330
28
100
AcDbEntity
  8
Defpoints
 62
     0
370
     0
390
1D
100
AcDbPoint
 10
-631.8525598712854
 20
-213.9025765539769
 30
0.0
  0
ENDBLK
  5
A6
330
28
100
AcDbEntity
  8
notes
390
1D
100
AcDbBlockEnd
  0
BLOCK
  5
A7
330
29
100
AcDbEntity
  8
notes
390
1D
100
AcDbBlockBegin
  2
*D8
 70
     1
 10
0.0
 20
0.0
 30
0.0
  3
*D8
  1

  0
LINE
  5
A8
330
29
100
AcDbEntity
  8
0
  6
Continuous
 62
     0
370
    -2
390
1D
100
AcDbLine
 10
-417.5782243612455
 20
-286.3600462666371
 30
0.0
 11
-417.5782243612455
 21
-135.6151126334704
 31
0.0
  0
LINE
  5
A9
330
29
100
AcDbEntity
  8
0
  6
Continuous
 62
     0
370
    -2
390
1D
100
AcDbLine
 10
-242.5782243612455
 20
-219.0720148695867
 30
0.0
 11
-242.5782243612455
 21
-135.6151126334704
 31
0.0
  0
LINE
  5
AA
330
29
100
AcDbEntity
  8
0
  6
Continuous
 62
     0
370
    -2
390
1D
100
AcDbLine
 10
-417.5782243612455
 20
-135.6151126334704
 30
0.0
 11
-242.5782243612455
 21
-135.6151126334704
 31
0.0
  0
CIRCLE
  5
AB
102
{ACAD_REACTORS
330
AC
102
}
330
29
100
AcDbEntity
  8
0
  6
Continuous
 62
     0
370
    -2
390
1D
100
AcDbCircle
 10
-417.5782243612455
 20
-135.6151126334704
 30
0.0
 40
1.9998779296875
  0
HATCH
  5
AC
330
29
100
AcDbEntity
  8
0
  6
Continuous
 62
     0
370
    -2
390
1D
100
AcDbHatch
 10
0.0
 20
0.0
 30
0.0
210
0.0
220
0.0
230
1.0
  2
SOLID
 70
     1
 71
     1
 91
        1
 92
        1
 93
        1
 72
     2
 10
-417.5782243612455
 20
-135.6151126334704
 40
1.9998779296875
 50
0.0
 51
360.0
 73
     0
 97
        1
330
AB
 75
     0
 76
     1
 98
        1
 10
0.0
 20
0.0
  0
CIRCLE
  5
AD
102
{ACAD_REACTORS
330
AE
102
}
330
29
100
AcDbEntity
  8
0
  6
Continuous
 62
     0
370
    -2
390
1D
100
AcDbCircle
 10
-242.5782243612455
 20
-135.6151126334704
 30
0.0
 40
1.9998779296875
  0
HATCH
  5
AE
330
29
100
AcDbEntity
  8
0
  6
Continuous
 62
     0
370
    -2
390
1D
100
AcDbHatch
 10
0.0
 20
0.0
 30
0.0
210
0.0
220
0.0
230
1.0
  2
SOLID
 70
     1
 71
     1
 91
        1
 92
        1
 93
        1
 72
     2
 10
-242.5782243612455
 20
-135.6151126334704
 40
1.9998779296875
 50
0.0
 51
360.0
 73
     0
 97
        1
330
AD
 75
     0
 76
     1
 98
        1
 10
0.0
 20
0.0
  0
MTEXT
  5
AF
330
29
100
AcDbEntity
  8
0
 62
     0
390
1D
100
AcDbMText
 10
-353.8907260434211
 20
-101.7374954459704
 30
0.0
 40
24.4326171875
 41
0.0
 46
0.0
 71
     1
 72
     1
  1
175
  7
ＭＳ ゴシック
 73
     1
 44
0.7828267384257843
  0
POINT
  5
B0
330
29
100
AcDbEntity
  8
Defpoints
 62
     0
370
     0
390
1D
100
AcDbPoint
 10
-242.5782243612455
 20
-244.0720148695867
 30
0.0
  0
POINT
  5
B1
330
29
100
AcDbEntity
  8
Defpoints
 62
     0
370
     0
390
1D
100
AcDbPoint
 10
-417.5782243612455
 20
-311.3600462666371
 30
0.0
  0
POINT
  5
B2
330
29
100
AcDbEntity
  8
Defpoints
 62
     0
370
     0
390
1D
100
AcDbPoint
 10
-417.5782243612455
 20
-135.6151126334704
 30
0.0
  0
ENDBLK
  5
B3
330
29
100
AcDbEntity
  8
notes
390
1D
100
AcDbBlockEnd
  0
BLOCK
  5
B4
330
2A
100
AcDbEntity
  8
notes
390
1D
100
AcDbBlockBegin
  2
*D9
 70
     1
 10
0.0
 20
0.0
 30
0.0
  3
*D9
  1

  0
LINE
  5
B5
330
2A
100
AcDbEntity
  8
0
  6
Continuous
 62
     0
370
    -2
390
1D
100
AcDbLine
 10
-417.5782243612455
 20
-286.3600462666371
 30
0.0
 11
-417.5782243612455
 21
-135.6151126334704
 31
0.0
  0
LINE
  5
B6
330
2A
100
AcDbEntity
  8
0
  6
Continuous
 62
     0
370
    -2
390
1D
100
AcDbLine
 10
-487.5925945949144
 20
-240.6841171643779
 30
0.0
 11
-487.5925945949144
 21
-135.6151126334704
 31
0.0
  0
LINE
  5
B7
330
2A
100
AcDbEntity
  8
0
  6
Continuous
 62
     0
370
    -2
390
1D
100
AcDbLine
 10
-417.5782243612455
 20
-135.6151126334704
 30
0.0
 11
-487.5925945949144
 21
-135.6151126334704
 31
0.0
  0
CIRCLE
  5
B8
102
{ACAD_REACTORS
330
B9
102
}
330
2A
100
AcDbEntity
  8
0
  6
Continuous
 62
     0
370
    -2
390
1D
100
AcDbCircle
 10
-417.5782243612455
 20
-135.6151126334704
 30
0.0
 40
1.9998779296875
  0
HATCH
  5
B9
330
2A
100
AcDbEntity
  8
0
  6
Continuous
 62
     0
370
    -2
390
1D
100
AcDbHatch
 10
0.0
 20
0.0
 30
0.0
210
0.0
220
0.0
230
1.0
  2
SOLID
 70
     1
 71
     1
 91
        1
 92
        1
 93
        1
 72
     2
 10
-417.5782243612455
 20
-135.6151126334704
 40
1.9998779296875
 50
0.0
 51
360.0
 73
     0
 97
        1
330
B8
 75
     0
 76
     1
 98
        1
 10
0.0
 20
0.0
  0
CIRCLE
  5
BA
102
{ACAD_REACTORS
330
BB
102
}
330
2A
100
AcDbEntity
  8
0
  6
Continuous
 62
     0
370
    -2
390
1D
100
AcDbCircle
 10
-487.5925945949144
 20
-135.6151126334704
 30
0.0
 40
1.9998779296875
  0
HATCH
  5
BB
330
2A
100
AcDbEntity
  8
0
  6
Continuous
 62
     0
370
    -2
390
1D
100
AcDbHatch
 10
0.0
 20
0.0
 30
0.0
210
0.0
220
0.0
230
1.0
  2
SOLID
 70
     1
 71
     1
 91
        1
 92
        1
 93
        1
 72
     2
 10
-487.5925945949144
 20
-135.6151126334704
 40
1.9998779296875
 50
0.0
 51
360.0
 73
     0
 97
        1
330
BA
 75
     0
 76
     1
 98
        1
 10
0.0
 20
0.0
  0
MTEXT
  5
BC
330
2A
100
AcDbEntity
  8
0
 62
     0
390
1D
100
AcDbMText
 10
-468.46040947808
 20
-101.7374954459704
 30
0.0
 40
24.4326171875
 41
0.0
 46
0.0
 71
     1
 72
     1
  1
70
  7
ＭＳ ゴシック
 73
     1
 44
0.7828267384257843
  0
POINT
  5
BD
330
2A
100
AcDbEntity
  8
Defpoints
 62
     0
370
     0
390
1D
100
AcDbPoint
 10
-487.5925945949144
 20
-265.6841171643779
 30
0.0
  0
POINT
  5
BE
330
2A
100
AcDbEntity
  8
Defpoints
 62
     0
370
     0
390
1D
100
AcDbPoint
 10
-417.5782243612455
 20
-311.3600462666371
 30
0.0
  0
POINT
  5
BF
330
2A
100
AcDbEntity
  8
Defpoints
 62
     0
370
     0
390
1D
100
AcDbPoint
 10
-417.5782243612455
 20
-135.6151126334704
 30
0.0
  0
ENDBLK
  5
C0
330
2A
100
AcDbEntity
  8
notes
390
1D
100
AcDbBlockEnd
  0
BLOCK
  5
C1
330
2B
100
AcDbEntity
  8
notes
390
1D
100
AcDbBlockBegin
  2
*D10
 70
     1
 10
0.0
 20
0.0
 30
0.0
  3
*D10
  1

  0
LINE
  5
C2
330
2B
100
AcDbEntity
  8
0
  6
Continuous
 62
     0
370
    -2
390
1D
100
AcDbLine
 10
504.4716475511959
 20
-213.9032680931277
 30
0.0
 11
526.525941673238
 21
-213.9032680931277
 31
0.0
  0
LINE
  5
C3
330
2B
100
AcDbEntity
  8
0
  6
Continuous
 62
     0
370
    -2
390
1D
100
AcDbLine
 10
504.4716475511959
 20
-318.9239241344237
 30
0.0
 11
526.525941673238
 21
-318.9239241344237
 31
0.0
  0
LINE
  5
C4
330
2B
100
AcDbEntity
  8
0
  6
Continuous
 62
     0
370
    -2
390
1D
100
AcDbLine
 10
526.525941673238
 20
-213.9032680931277
 30
0.0
 11
526.525941673238
 21
-57.20320835855304
 31
0.0
  0
LINE
  5
C5
330
2B
100
AcDbEntity
  8
0
  6
Continuous
 62
     0
370
    -2
390
1D
100
AcDbLine
 10
526.525941673238
 20
-213.9032680931277
 30
0.0
 11
526.525941673238
 21
-318.9239241344237
 31
0.0
  0
CIRCLE
  5
C6
102
{ACAD_REACTORS
330
C7
102
}
330
2B
100
AcDbEntity
  8
0
  6
Continuous
 62
     0
370
    -2
390
1D
100
AcDbCircle
 10
526.525941673238
 20
-213.9032680931277
 30
0.0
 40
1.9998779296875
  0
HATCH
  5
C7
330
2B
100
AcDbEntity
  8
0
  6
Continuous
 62
     0
370
    -2
390
1D
100
AcDbHatch
 10
0.0
 20
0.0
 30
0.0
210
0.0
220
0.0
230
1.0
  2
SOLID
 70
     1
 71
     1
 91
        1
 92
        1
 93
        1
 72
     2
 10
526.525941673238
 20
-213.9032680931277
 40
1.9998779296875
 50
0.0
 51
360.0
 73
     0
 97
        1
330
C6
 75
     0
 76
     1
 98
        1
 10
0.0
 20
0.0
  0
CIRCLE
  5
C8
102
{ACAD_REACTORS
330
C9
102
}
330
2B
100
AcDbEntity
  8
0
  6
Continuous
 62
     0
370
    -2
390
1D
100
AcDbCircle
 10
526.525941673238
 20
-318.9239241344237
 30
0.0
 40
1.9998779296875
  0
HATCH
  5
C9
330
2B
100
AcDbEntity
  8
0
  6
Continuous
 62
     0
370
    -2
390
1D
100
AcDbHatch
 10
0.0
 20
0.0
 30
0.0
210
0.0
220
0.0
230
1.0
  2
SOLID
 70
     1
 71
     1
 91
        1
 92
        1
 93
        1
 72
     2
 10
526.525941673238
 20
-318.9239241344237
 40
1.9998779296875
 50
0.0
 51
360.0
 73
     0
 97
        1
330
C8
 75
     0
 76
     1
 98
        1
 10
0.0
 20
0.0
  0
MTEXT
  5
CA
330
2B
100
AcDbEntity
  8
0
 62
     0
390
1D
100
AcDbMText
 10
492.648324485738
 20
-200.078208358553
 30
0.0
 40
24.4326171875
 41
0.0
 46
0.0
 71
     1
 72
     1
  1
105(深さ)
  7
ＭＳ ゴシック
 11
0.0
 21
1.0
 31
0.0
 73
     1
 44
0.7828267384257843
  0
POINT
  5
CB
330
2B
100
AcDbEntity
  8
Defpoints
 62
     0
370
     0
390
1D
100
AcDbPoint
 10
529.4716475511959
 20
-318.9239241344237
 30
0.0
  0
POINT
  5
CC
330
2B
100
AcDbEntity
  8
Defpoints
 62
     0
370
     0
390
1D
100
AcDbPoint
 10
529.4716475511959
 20
-213.9032680931277
 30
0.0
  0
POINT
  5
CD
330
2B
100
AcDbEntity
  8
Defpoints
 62
     0
370
     0
390
1D
100
AcDbPoint
 10
526.525941673238
 20
-213.9032680931277
 30
0.0
  0
ENDBLK
  5
CE
330
2B
100
AcDbEntity
  8
notes
390
1D
100
AcDbBlockEnd
  0
BLOCK
  5
CF
330
2C
100
AcDbEntity
  8
notes
390
1D
100
AcDbBlockBegin
  2
*D11
 70
     1
 10
0.0
 20
0.0
 30
0.0
  3
*D11
  1

  0
LINE
  5
D0
330
2C
100
AcDbEntity
  8
0
  6
Continuous
 62
     0
370
    -2
390
1D
100
AcDbLine
 10
-577.424871292675
 20
786.5506821421064
 30
0.0
 11
-577.424871292675
 21
861.5506821421064
 31
0.0
  0
LINE
  5
D1
330
2C
100
AcDbEntity
  8
0
  6
Continuous
 62
     0
370
    -2
390
1D
100
AcDbLine
 10
-177.4248712926747
 20
786.5506821421064
 30
0.0
 11
-177.4248712926747
 21
861.5506821421064
 31
0.0
  0
LINE
  5
D2
330
2C
100
AcDbEntity
  8
0
  6
Continuous
 62
     0
370
    -2
390
1D
100
AcDbLine
 10
-577.424871292675
 20
861.5506821421064
 30
0.0
 11
-177.4248712926747
 21
861.5506821421064
 31
0.0
  0
CIRCLE
  5
D3
102
{ACAD_REACTORS
330
D4
102
}
330
2C
100
AcDbEntity
  8
0
  6
Continuous
 62
     0
370
    -2
390
1D
100
AcDbCircle
 10
-577.424871292675
 20
861.5506821421064
 30
0.0
 40
1.9998779296875
  0
HATCH
  5
D4
330
2C
100
AcDbEntity
  8
0
  6
Continuous
 62
     0
370
    -2
390
1D
100
AcDbHatch
 10
0.0
 20
0.0
 30
0.0
210
0.0
220
0.0
230
1.0
  2
SOLID
 70
     1
 71
     1
 91
        1
 92
        1
 93
        1
 72
     2
 10
-577.424871292675
 20
861.5506821421064
 40
1.9998779296875
 50
0.0
 51
360.0
 73
     0
 97
        1
330
D3
 75
     0
 76
     1
 98
        1
 10
0.0
 20
0.0
  0
CIRCLE
  5
D5
102
{ACAD_REACTORS
330
D6
102
}
330
2C
100
AcDbEntity
  8
0
  6
Continuous
 62
     0
370
    -2
390
1D
100
AcDbCircle
 10
-177.4248712926747
 20
861.5506821421064
 30
0.0
 40
1.9998779296875
  0
HATCH
  5
D6
330
2C
100
AcDbEntity
  8
0
  6
Continuous
 62
     0
370
    -2
390
1D
100
AcDbHatch
 10
0.0
 20
0.0
 30
0.0
210
0.0
220
0.0
230
1.0
  2
SOLID
 70
     1
 71
     1
 91
        1
 92
        1
 93
        1
 72
     2
 10
-177.4248712926747
 20
861.5506821421064
 40
1.9998779296875
 50
0.0
 51
360.0
 73
     0
 97
        1
330
D5
 75
     0
 76
     1
 98
        1
 10
0.0
 20
0.0
  0
MTEXT
  5
D7
330
2C
100
AcDbEntity
  8
0
 62
     0
390
1D
100
AcDbMText
 10
-401.2373729748504
 20
895.4282993296065
 30
0.0
 40
24.4326171875
 41
0.0
 46
0.0
 71
     1
 72
     1
  1
400
  7
ＭＳ ゴシック
 73
     1
 44
0.7828267384257843
  0
POINT
  5
D8
330
2C
100
AcDbEntity
  8
Defpoints
 62
     0
370
     0
390
1D
100
AcDbPoint
 10
-177.4248712926747
 20
761.5506821421064
 30
0.0
  0
POINT
  5
D9
330
2C
100
AcDbEntity
  8
Defpoints
 62
     0
370
     0
390
1D
100
AcDbPoint
 10
-577.424871292675
 20
761.5506821421064
 30
0.0
  0
POINT
  5
DA
330
2C
100
AcDbEntity
  8
Defpoints
 62
     0
370
     0
390
1D
100
AcDbPoint
 10
-577.424871292675
 20
861.5506821421064
 30
0.0
  0
ENDBLK
  5
DB
330
2C
100
AcDbEntity
  8
notes
390
1D
100
AcDbBlockEnd
  0
BLOCK
  5
DC
330
2D
100
AcDbEntity
  8
notes
390
1D
100
AcDbBlockBegin
  2
*D12
 70
     1
 10
0.0
 20
0.0
 30
0.0
  3
*D12
  1

  0
LINE
  5
DD
330
2D
100
AcDbEntity
  8
0
  6
Continuous
 62
     0
370
    -2
390
1D
100
AcDbLine
 10
-242.4248712926686
 20
789.5939345640121
 30
0.0
 11
-242.4248712926686
 21
814.5939345640121
 31
0.0
  0
LINE
  5
DE
330
2D
100
AcDbEntity
  8
0
  6
Continuous
 62
     0
370
    -2
390
1D
100
AcDbLine
 10
-177.4248712926747
 20
786.5506821421064
 30
0.0
 11
-177.4248712926747
 21
814.5939345640121
 31
0.0
  0
LINE
  5
DF
330
2D
100
AcDbEntity
  8
0
  6
Continuous
 62
     0
370
    -2
390
1D
100
AcDbLine
 10
-242.4248712926686
 20
814.5939345640121
 30
0.0
 11
-177.4248712926747
 21
814.5939345640121
 31
0.0
  0
CIRCLE
  5
E0
102
{ACAD_REACTORS
330
E1
102
}
330
2D
100
AcDbEntity
  8
0
  6
Continuous
 62
     0
370
    -2
390
1D
100
AcDbCircle
 10
-242.4248712926686
 20
814.5939345640121
 30
0.0
 40
1.9998779296875
  0
HATCH
  5
E1
330
2D
100
AcDbEntity
  8
0
  6
Continuous
 62
     0
370
    -2
390
1D
100
AcDbHatch
 10
0.0
 20
0.0
 30
0.0
210
0.0
220
0.0
230
1.0
  2
SOLID
 70
     1
 71
     1
 91
        1
 92
        1
 93
        1
 72
     2
 10
-242.4248712926686
 20
814.5939345640121
 40
1.9998779296875
 50
0.0
 51
360.0
 73
     0
 97
        1
330
E0
 75
     0
 76
     1
 98
        1
 10
0.0
 20
0.0
  0
CIRCLE
  5
E2
102
{ACAD_REACTORS
330
E3
102
}
330
2D
100
AcDbEntity
  8
0
  6
Continuous
 62
     0
370
    -2
390
1D
100
AcDbCircle
 10
-177.4248712926747
 20
814.5939345640121
 30
0.0
 40
1.9998779296875
  0
HATCH
  5
E3
330
2D
100
AcDbEntity
  8
0
  6
Continuous
 62
     0
370
    -2
390
1D
100
AcDbHatch
 10
0.0
 20
0.0
 30
0.0
210
0.0
220
0.0
230
1.0
  2
SOLID
 70
     1
 71
     1
 91
        1
 92
        1
 93
        1
 72
     2
 10
-177.4248712926747
 20
814.5939345640121
 40
1.9998779296875
 50
0.0
 51
360.0
 73
     0
 97
        1
330
E2
 75
     0
 76
     1
 98
        1
 10
0.0
 20
0.0
  0
MTEXT
  5
E4
330
2D
100
AcDbEntity
  8
0
 62
     0
390
1D
100
AcDbMText
 10
-225.7998712926716
 20
848.4715517515122
 30
0.0
 40
24.4326171875
 41
0.0
 46
0.0
 71
     1
 72
     1
  1
65
  7
ＭＳ ゴシック
 73
     1
 44
0.7828267384257843
  0
POINT
  5
E5
330
2D
100
AcDbEntity
  8
Defpoints
 62
     0
370
     0
390
1D
100
AcDbPoint
 10
-177.4248712926747
 20
761.5506821421064
 30
0.0
  0
POINT
  5
E6
330
2D
100
AcDbEntity
  8
Defpoints
 62
     0
370
     0
390
1D
100
AcDbPoint
 10
-242.4248712926686
 20
764.5939345640121
 30
0.0
  0
POINT
  5
E7
330
2D
100
AcDbEntity
  8
Defpoints
 62
     0
370
     0
390
1D
100
AcDbPoint
 10
-242.4248712926686
 20
814.5939345640121
 30
0.0
  0
ENDBLK
  5
E8
330
2D
100
AcDbEntity
  8
notes
390
1D
100
AcDbBlockEnd
  0
BLOCK
  5
E9
330
2E
100
AcDbEntity
  8
notes
390
1D
100
AcDbBlockBegin
  2
*D13
 70
     1
 10
0.0
 20
0.0
 30
0.0
  3
*D13
  1

  0
LINE
  5
EA
330
2E
100
AcDbEntity
  8
0
  6
Continuous
 62
     0
370
    -2
390
1D
100
AcDbLine
 10
-230.6512340943186
 20
699.4979392694542
 30
0.0
 11
-126.528352448804
 21
814.0
 31
0.0
  0
CIRCLE
  5
EB
102
{ACAD_REACTORS
330
EC
102
}
330
2E
100
AcDbEntity
  8
0
  6
Continuous
 62
     0
370
    -2
390
1D
100
AcDbCircle
 10
-230.6512340943186
 20
699.4979392694542
 30
0.0
 40
1.9998779296875
  0
HATCH
  5
EC
330
2E
100
AcDbEntity
  8
0
  6
Continuous
 62
     0
370
    -2
390
1D
100
AcDbHatch
 10
0.0
 20
0.0
 30
0.0
210
0.0
220
0.0
230
1.0
  2
SOLID
 70
     1
 71
     1
 91
        1
 92
        1
 93
        1
 72
     2
 10
-230.6512340943186
 20
699.4979392694542
 40
1.9998779296875
 50
0.0
 51
360.0
 73
     0
 97
        1
330
EB
 75
     0
 76
     1
 98
        1
 10
0.0
 20
0.0
  0
LINE
  5
ED
330
2E
100
AcDbEntity
  8
0
  6
Continuous
 62
     0
370
    -2
390
1D
100
AcDbLine
 10
-126.528352448804
 20
814.0
 30
0.0
 11
-43.02835244880403
 21
814.0
 31
0.0
  0
MTEXT
  5
EE
330
2E
100
AcDbEntity
  8
0
 62
     0
390
1D
100
AcDbMText
 10
-106.528352448804
 20
847.8776171875
 30
0.0
 40
24.4326171875
 41
0.0
 46
0.0
 71
     1
 72
     1
  1
φ35
  7
ＭＳ ゴシック
 73
     1
 44
0.7828267384257843
  0
POINT
  5
EF
330
2E
100
AcDbEntity
  8
Defpoints
 62
     0
370
     0
390
1D
100
AcDbPoint
 10
-254.1985084910185
 20
673.6034250147586
 30
0.0
  0
POINT
  5
F0
330
2E
100
AcDbEntity
  8
Defpoints
 62
     0
370
     0
390
1D
100
AcDbPoint
 10
-230.6512340943186
 20
699.4979392694542
 30
0.0
  0
ENDBLK
  5
F1
330
2E
100
AcDbEntity
  8
notes
390
1D
100
AcDbBlockEnd
  0
BLOCK
  5
F2
330
2F
100
AcDbEntity
  8
notes
390
1D
100
AcDbBlockBegin
  2
*D14
 70
     1
 10
0.0
 20
0.0
 30
0.0
  3
*D14
  1

  0
LINE
  5
F3
330
2F
100
AcDbEntity
  8
0
  6
Continuous
 62
     0
370
    -2
390
1D
100
AcDbLine
 10
-597.424871292675
 20
736.5506821421064
 30
0.0
 11
-672.424871292675
 21
736.5506821421064
 31
0.0
  0
LINE
  5
F4
330
2F
100
AcDbEntity
  8
0
  6
Continuous
 62
     0
370
    -2
390
1D
100
AcDbLine
 10
-595.6507392820457
 20
536.5506821421064
 30
0.0
 11
-672.424871292675
 21
536.5506821421064
 31
0.0
  0
LINE
  5
F5
330
2F
100
AcDbEntity
  8
0
  6
Continuous
 62
     0
370
    -2
390
1D
100
AcDbLine
 10
-672.424871292675
 20
736.5506821421064
 30
0.0
 11
-672.424871292675
 21
536.5506821421064
 31
0.0
  0
CIRCLE
  5
F6
102
{ACAD_REACTORS
330
F7
102
}
330
2F
100
AcDbEntity
  8
0
  6
Continuous
 62
     0
370
    -2
390
1D
100
AcDbCircle
 10
-672.424871292675
 20
736.5506821421064
 30
0.0
 40
1.9998779296875
  0
HATCH
  5
F7
330
2F
100
AcDbEntity
  8
0
  6
Continuous
 62
     0
370
    -2
390
1D
100
AcDbHatch
 10
0.0
 20
0.0
 30
0.0
210
0.0
220
0.0
230
1.0
  2
SOLID
 70
     1
 71
     1
 91
        1
 92
        1
 93
        1
 72
     2
 10
-672.424871292675
 20
736.5506821421064
 40
1.9998779296875
 50
0.0
 51
360.0
 73
     0
 97
        1
330
F6
 75
     0
 76
     1
 98
        1
 10
0.0
 20
0.0
  0
CIRCLE
  5
F8
102
{ACAD_REACTORS
330
F9
102
}
330
2F
100
AcDbEntity
  8
0
  6
Continuous
 62
     0
370
    -2
390
1D
100
AcDbCircle
 10
-672.424871292675
 20
536.5506821421064
 30
0.0
 40
1.9998779296875
  0
HATCH
  5
F9
330
2F
100
AcDbEntity
  8
0
  6
Continuous
 62
     0
370
    -2
390
1D
100
AcDbHatch
 10
0.0
 20
0.0
 30
0.0
210
0.0
220
0.0
230
1.0
  2
SOLID
 70
     1
 71
     1
 91
        1
 92
        1
 93
        1
 72
     2
 10
-672.424871292675
 20
536.5506821421064
 40
1.9998779296875
 50
0.0
 51
360.0
 73
     0
 97
        1
330
F8
 75
     0
 76
     1
 98
        1
 10
0.0
 20
0.0
  0
MTEXT
  5
FA
330
2F
100
AcDbEntity
  8
0
 62
     0
390
1D
100
AcDbMText
 10
-706.302488480175
 20
612.738180459931
 30
0.0
 40
24.4326171875
 41
0.0
 46
0.0
 71
     1
 72
     1
  1
200
  7
ＭＳ ゴシック
 11
0.0
 21
1.0
 31
0.0
 73
     1
 44
0.7828267384257843
  0
POINT
  5
FB
330
2F
100
AcDbEntity
  8
Defpoints
 62
     0
370
     0
390
1D
100
AcDbPoint
 10
-570.6507392820457
 20
536.5506821421064
 30
0.0
  0
POINT
  5
FC
330
2F
100
AcDbEntity
  8
Defpoints
 62
     0
370
     0
390
1D
100
AcDbPoint
 10
-572.424871292675
 20
736.5506821421064
 30
0.0
  0
POINT
  5
FD
330
2F
100
AcDbEntity
  8
Defpoints
 62
     0
370
     0
390
1D
100
AcDbPoint
 10
-672.424871292675
 20
736.5506821421064
 30
0.0
  0
ENDBLK
  5
FE
330
2F
100
AcDbEntity
  8
notes
390
1D
100
AcDbBlockEnd
  0
BLOCK
  5
FF
330
30
100
AcDbEntity
  8
notes
390
1D
100
AcDbBlockBegin
  2
*D15
 70
     1
 10
0.0
 20
0.0
 30
0.0
  3
*D15
  1

  0
LINE
  5
100
330
30
100
AcDbEntity
  8
0
  6
Continuous
 62
     0
370
    -2
390
1D
100
AcDbLine
 10
-602.4248712926686
 20
506.5506821421067
 30
0.0
 11
-672.424871292675
 21
506.5506821421067
 31
0.0
  0
LINE
  5
101
330
30
100
AcDbEntity
  8
0
  6
Continuous
 62
     0
370
    -2
390
1D
100
AcDbLine
 10
-620.6507392820457
 20
536.5506821421064
 30
0.0
 11
-672.424871292675
 21
536.5506821421064
 31
0.0
  0
LINE
  5
102
330
30
100
AcDbEntity
  8
0
  6
Continuous
 62
     0
370
    -2
390
1D
100
AcDbLine
 10
-672.424871292675
 20
506.5506821421067
 30
0.0
 11
-672.424871292675
 21
536.5506821421064
 31
0.0
  0
CIRCLE
  5
103
102
{ACAD_REACTORS
330
104
102
}
330
30
100
AcDbEntity
  8
0
  6
Continuous
 62
     0
370
    -2
390
1D
100
AcDbCircle
 10
-672.424871292675
 20
506.5506821421067
 30
0.0
 40
1.9998779296875
  0
HATCH
  5
104
330
30
100
AcDbEntity
  8
0
  6
Continuous
 62
     0
370
    -2
390
1D
100
AcDbHatch
 10
0.0
 20
0.0
 30
0.0
210
0.0
220
0.0
230
1.0
  2
SOLID
 70
     1
 71
     1
 91
        1
 92
        1
 93
        1
 72
     2
 10
-672.424871292675
 20
506.5506821421067
 40
1.9998779296875
 50
0.0
 51
360.0
 73
     0
 97
        1
330
103
 75
     0
 76
     1
 98
        1
 10
0.0
 20
0.0
  0
CIRCLE
  5
105
102
{ACAD_REACTORS
330
106
102
}
330
30
100
AcDbEntity
  8
0
  6
Continuous
 62
     0
370
    -2
390
1D
100
AcDbCircle
 10
-672.424871292675
 20
536.5506821421064
 30
0.0
 40
1.9998779296875
  0
HATCH
  5
106
330
30
100
AcDbEntity
  8
0
  6
Continuous
 62
     0
370
    -2
390
1D
100
AcDbHatch
 10
0.0
 20
0.0
 30
0.0
210
0.0
220
0.0
230
1.0
  2
SOLID
 70
     1
 71
     1
 91
        1
 92
        1
 93
        1
 72
     2
 10
-672.424871292675
 20
536.5506821421064
 40
1.9998779296875
 50
0.0
 51
360.0
 73
     0
 97
        1
330
105
 75
     0
 76
     1
 98
        1
 10
0.0
 20
0.0
  0
MTEXT
  5
107
330
30
100
AcDbEntity
  8
0
 62
     0
390
1D
100
AcDbMText
 10
-706.302488480175
 20
505.6756821421066
 30
0.0
 40
24.4326171875
 41
0.0
 46
0.0
 71
     1
 72
     1
  1
30
  7
ＭＳ ゴシック
 11
0.0
 21
1.0
 31
0.0
 73
     1
 44
0.7828267384257843
  0
POINT
  5
108
330
30
100
AcDbEntity
  8
Defpoints
 62
     0
370
     0
390
1D
100
AcDbPoint
 10
-595.6507392820457
 20
536.5506821421064
 30
0.0
  0
POINT
  5
109
330
30
100
AcDbEntity
  8
Defpoints
 62
     0
370
     0
390
1D
100
AcDbPoint
 10
-577.4248712926686
 20
506.5506821421067
 30
0.0
  0
POINT
  5
10A
330
30
100
AcDbEntity
  8
Defpoints
 62
     0
370
     0
390
1D
100
AcDbPoint
 10
-672.424871292675
 20
506.5506821421067
 30
0.0
  0
ENDBLK
  5
10B
330
30
100
AcDbEntity
  8
notes
390
1D
100
AcDbBlockEnd
  0
BLOCK
  5
10C
330
31
100
AcDbEntity
  8
notes
390
1D
100
AcDbBlockBegin
  2
*D16
 70
     1
 10
0.0
 20
0.0
 30
0.0
  3
*D16
  1

  0
LINE
  5
10D
330
31
100
AcDbEntity
  8
0
  6
Continuous
 62
     0
370
    -2
390
1D
100
AcDbLine
 10
-602.424871292675
 20
736.5506821421064
 30
0.0
 11
-672.424871292675
 21
736.5506821421064
 31
0.0
  0
LINE
  5
10E
330
31
100
AcDbEntity
  8
0
  6
Continuous
 62
     0
370
    -2
390
1D
100
AcDbLine
 10
-592.424871292675
 20
766.5506821421064
 30
0.0
 11
-672.424871292675
 21
766.5506821421064
 31
0.0
  0
LINE
  5
10F
330
31
100
AcDbEntity
  8
0
  6
Continuous
 62
     0
370
    -2
390
1D
100
AcDbLine
 10
-672.424871292675
 20
736.5506821421064
 30
0.0
 11
-672.424871292675
 21
766.5506821421064
 31
0.0
  0
CIRCLE
  5
110
102
{ACAD_REACTORS
330
111
102
}
330
31
100
AcDbEntity
  8
0
  6
Continuous
 62
     0
370
    -2
390
1D
100
AcDbCircle
 10
-672.424871292675
 20
736.5506821421064
 30
0.0
 40
1.9998779296875
  0
HATCH
  5
111
330
31
100
AcDbEntity
  8
0
  6
Continuous
 62
     0
370
    -2
390
1D
100
AcDbHatch
 10
0.0
 20
0.0
 30
0.0
210
0.0
220
0.0
230
1.0
  2
SOLID
 70
     1
 71
     1
 91
        1
 92
        1
 93
        1
 72
     2
 10
-672.424871292675
 20
736.5506821421064
 40
1.9998779296875
 50
0.0
 51
360.0
 73
     0
 97
        1
330
110
 75
     0
 76
     1
 98
        1
 10
0.0
 20
0.0
  0
CIRCLE
  5
112
102
{ACAD_REACTORS
330
113
102
}
330
31
100
AcDbEntity
  8
0
  6
Continuous
 62
     0
370
    -2
390
1D
100
AcDbCircle
 10
-672.424871292675
 20
766.5506821421064
 30
0.0
 40
1.9998779296875
  0
HATCH
  5
113
330
31
100
AcDbEntity
  8
0
  6
Continuous
 62
     0
370
    -2
390
1D
100
AcDbHatch
 10
0.0
 20
0.0
 30
0.0
210
0.0
220
0.0
230
1.0
  2
SOLID
 70
     1
 71
     1
 91
        1
 92
        1
 93
        1
 72
     2
 10
-672.424871292675
 20
766.5506821421064
 40
1.9998779296875
 50
0.0
 51
360.0
 73
     0
 97
        1
330
112
 75
     0
 76
     1
 98
        1
 10
0.0
 20
0.0
  0
MTEXT
  5
114
330
31
100
AcDbEntity
  8
0
 62
     0
390
1D
100
AcDbMText
 10
-706.302488480175
 20
735.6756821421064
 30
0.0
 40
24.4326171875
 41
0.0
 46
0.0
 71
     1
 72
     1
  1
30
  7
ＭＳ ゴシック
 11
0.0
 21
1.0
 31
0.0
 73
     1
 44
0.7828267384257843
  0
POINT
  5
115
330
31
100
AcDbEntity
  8
Defpoints
 62
     0
370
     0
390
1D
100
AcDbPoint
 10
-567.424871292675
 20
766.5506821421064
 30
0.0
  0
POINT
  5
116
330
31
100
AcDbEntity
  8
Defpoints
 62
     0
370
     0
390
1D
100
AcDbPoint
 10
-577.424871292675
 20
736.5506821421064
 30
0.0
  0
POINT
  5
117
330
31
100
AcDbEntity
  8
Defpoints
 62
     0
370
     0
390
1D
100
AcDbPoint
 10
-672.424871292675
 20
736.5506821421064
 30
0.0
  0
ENDBLK
  5
118
330
31
100
AcDbEntity
  8
notes
390
1D
100
AcDbBlockEnd
  0
BLOCK
  5
119
330
32
100
AcDbEntity
  8
notes
390
1D
100
AcDbBlockBegin
  2
*D17
 70
     1
 10
0.0
 20
0.0
 30
0.0
  3
*D17
  1

  0
LINE
  5
11A
330
32
100
AcDbEntity
  8
0
  6
Continuous
 62
     0
370
    -2
390
1D
100
AcDbLine
 10
642.5783604364811
 20
-383.8569575173091
 30
0.0
 11
642.5783604364811
 21
-454.4901126334705
 31
0.0
  0
LINE
  5
11B
330
32
100
AcDbEntity
  8
0
  6
Continuous
 62
     0
370
    -2
390
1D
100
AcDbLine
 10
537.5783604364813
 20
-404.153545336064
 30
0.0
 11
537.5783604364813
 21
-454.4901126334705
 31
0.0
  0
LINE
  5
11C
330
32
100
AcDbEntity
  8
0
  6
Continuous
 62
     0
370
    -2
390
1D
100
AcDbLine
 10
642.5783604364811
 20
-454.4901126334705
 30
0.0
 11
537.5783604364813
 21
-454.4901126334705
 31
0.0
  0
CIRCLE
  5
11D
102
{ACAD_REACTORS
330
11E
102
}
330
32
100
AcDbEntity
  8
0
  6
Continuous
 62
     0
370
    -2
390
1D
100
AcDbCircle
 10
642.5783604364811
 20
-454.4901126334705
 30
0.0
 40
1.9998779296875
  0
HATCH
  5
11E
330
32
100
AcDbEntity
  8
0
  6
Continuous
 62
     0
370
    -2
390
1D
100
AcDbHatch
 10
0.0
 20
0.0
 30
0.0
210
0.0
220
0.0
230
1.0
  2
SOLID
 70
     1
 71
     1
 91
        1
 92
        1
 93
        1
 72
     2
 10
642.5783604364811
 20
-454.4901126334705
 40
1.9998779296875
 50
0.0
 51
360.0
 73
     0
 97
        1
330
11D
 75
     0
 76
     1
 98
        1
 10
0.0
 20
0.0
  0
CIRCLE
  5
11F
102
{ACAD_REACTORS
330
120
102
}
330
32
100
AcDbEntity
  8
0
  6
Continuous
 62
     0
370
    -2
390
1D
100
AcDbCircle
 10
537.5783604364813
 20
-454.4901126334705
 30
0.0
 40
1.9998779296875
  0
HATCH
  5
120
330
32
100
AcDbEntity
  8
0
  6
Continuous
 62
     0
370
    -2
390
1D
100
AcDbHatch
 10
0.0
 20
0.0
 30
0.0
210
0.0
220
0.0
230
1.0
  2
SOLID
 70
     1
 71
     1
 91
        1
 92
        1
 93
        1
 72
     2
 10
537.5783604364813
 20
-454.4901126334705
 40
1.9998779296875
 50
0.0
 51
360.0
 73
     0
 97
        1
330
11F
 75
     0
 76
     1
 98
        1
 10
0.0
 20
0.0
  0
MTEXT
  5
121
330
32
100
AcDbEntity
  8
0
 62
     0
390
1D
100
AcDbMText
 10
570.4802341348122
 20
-420.6124954459705
 30
0.0
 40
24.4326171875
 41
0.0
 46
0.0
 71
     1
 72
     1
  1
105
  7
ＭＳ ゴシック
 73
     1
 44
0.7828267384257843
  0
POINT
  5
122
330
32
100
AcDbEntity
  8
Defpoints
 62
     0
370
     0
390
1D
100
AcDbPoint
 10
537.5783604364813
 20
-379.153545336064
 30
0.0
  0
POINT
  5
123
330
32
100
AcDbEntity
  8
Defpoints
 62
     0
370
     0
390
1D
100
AcDbPoint
 10
642.5783604364811
 20
-358.8569575173091
 30
0.0
  0
POINT
  5
124
330
32
100
AcDbEntity
  8
Defpoints
 62
     0
370
     0
390
1D
100
AcDbPoint
 10
642.5783604364811
 20
-454.4901126334705
 30
0.0
  0
ENDBLK
  5
125
330
32
100
AcDbEntity
  8
notes
390
1D
100
AcDbBlockEnd
  0
BLOCK
  5
126
330
33
100
AcDbEntity
  8
notes
390
1D
100
AcDbBlockBegin
  2
*D18
 70
     1
 10
0.0
 20
0.0
 30
0.0
  3
*D18
  1

  0
LINE
  5
127
330
33
100
AcDbEntity
  8
0
  6
Continuous
 62
     0
370
    -2
390
1D
100
AcDbLine
 10
-417.5782243612455
 20
-405.4901126334705
 30
0.0
 11
-417.5782243612455
 21
-471.439582320722
 31
0.0
  0
LINE
  5
128
330
33
100
AcDbEntity
  8
0
  6
Continuous
 62
     0
370
    -2
390
1D
100
AcDbLine
 10
-177.5782243612455
 20
-263.8588482553657
 30
0.0
 11
-177.5782243612455
 21
-471.439582320722
 31
0.0
  0
LINE
  5
129
330
33
100
AcDbEntity
  8
0
  6
Continuous
 62
     0
370
    -2
390
1D
100
AcDbLine
 10
-417.5782243612455
 20
-471.439582320722
 30
0.0
 11
-177.5782243612455
 21
-471.439582320722
 31
0.0
  0
CIRCLE
  5
12A
102
{ACAD_REACTORS
330
12B
102
}
330
33
100
AcDbEntity
  8
0
  6
Continuous
 62
     0
370
    -2
390
1D
100
AcDbCircle
 10
-417.5782243612455
 20
-471.439582320722
 30
0.0
 40
1.9998779296875
  0
HATCH
  5
12B
330
33
100
AcDbEntity
  8
0
  6
Continuous
 62
     0
370
    -2
390
1D
100
AcDbHatch
 10
0.0
 20
0.0
 30
0.0
210
0.0
220
0.0
230
1.0
  2
SOLID
 70
     1
 71
     1
 91
        1
 92
        1
 93
        1
 72
     2
 10
-417.5782243612455
 20
-471.439582320722
 40
1.9998779296875
 50
0.0
 51
360.0
 73
     0
 97
        1
330
12A
 75
     0
 76
     1
 98
        1
 10
0.0
 20
0.0
  0
CIRCLE
  5
12C
102
{ACAD_REACTORS
330
12D
102
}
330
33
100
AcDbEntity
  8
0
  6
Continuous
 62
     0
370
    -2
390
1D
100
AcDbCircle
 10
-177.5782243612455
 20
-471.439582320722
 30
0.0
 40
1.9998779296875
  0
HATCH
  5
12D
330
33
100
AcDbEntity
  8
0
  6
Continuous
 62
     0
370
    -2
390
1D
100
AcDbHatch
 10
0.0
 20
0.0
 30
0.0
210
0.0
220
0.0
230
1.0
  2
SOLID
 70
     1
 71
     1
 91
        1
 92
        1
 93
        1
 72
     2
 10
-177.5782243612455
 20
-471.439582320722
 40
1.9998779296875
 50
0.0
 51
360.0
 73
     0
 97
        1
330
12C
 75
     0
 76
     1
 98
        1
 10
0.0
 20
0.0
  0
MTEXT
  5
12E
330
33
100
AcDbEntity
  8
0
 62
     0
390
1D
100
AcDbMText
 10
-316.7705889674646
 20
-437.561965133222
 30
0.0
 40
24.4326171875
 41
0.0
 46
0.0
 71
     1
 72
     1
  1
240
  7
ＭＳ ゴシック
 73
     1
 44
0.7828267384257843
  0
POINT
  5
12F
330
33
100
AcDbEntity
  8
Defpoints
 62
     0
370
     0
390
1D
100
AcDbPoint
 10
-177.5782243612455
 20
-238.8588482553657
 30
0.0
  0
POINT
  5
130
330
33
100
AcDbEntity
  8
Defpoints
 62
     0
370
     0
390
1D
100
AcDbPoint
 10
-417.5782243612455
 20
-380.4901126334705
 30
0.0
  0
POINT
  5
131
330
33
100
AcDbEntity
  8
Defpoints
 62
     0
370
     0
390
1D
100
AcDbPoint
 10
-417.5782243612455
 20
-471.439582320722
 30
0.0
  0
ENDBLK
  5
132
330
33
100
AcDbEntity
  8
notes
390
1D
100
AcDbBlockEnd
  0
BLOCK
  5
133
330
34
100
AcDbEntity
  8
notes
390
1D
100
AcDbBlockBegin
  2
*D19
 70
     1
 10
0.0
 20
0.0
 30
0.0
  3
*D19
  1

  0
LINE
  5
134
330
34
100
AcDbEntity
  8
0
  6
Continuous
 62
     0
370
    -2
390
1D
100
AcDbLine
 10
-417.5782243612455
 20
-405.4901126334705
 30
0.0
 11
-417.5782243612455
 21
-471.439582320722
 31
0.0
  0
LINE
  5
135
330
34
100
AcDbEntity
  8
0
  6
Continuous
 62
     0
370
    -2
390
1D
100
AcDbLine
 10
-577.5782243612456
 20
-281.4901126334704
 30
0.0
 11
-577.5782243612456
 21
-471.439582320722
 31
0.0
  0
LINE
  5
136
330
34
100
AcDbEntity
  8
0
  6
Continuous
 62
     0
370
    -2
390
1D
100
AcDbLine
 10
-417.5782243612455
 20
-471.439582320722
 30
0.0
 11
-577.5782243612456
 21
-471.439582320722
 31
0.0
  0
CIRCLE
  5
137
102
{ACAD_REACTORS
330
138
102
}
330
34
100
AcDbEntity
  8
0
  6
Continuous
 62
     0
370
    -2
390
1D
100
AcDbCircle
 10
-417.5782243612455
 20
-471.439582320722
 30
0.0
 40
1.9998779296875
  0
HATCH
  5
138
330
34
100
AcDbEntity
  8
0
  6
Continuous
 62
     0
370
    -2
390
1D
100
AcDbHatch
 10
0.0
 20
0.0
 30
0.0
210
0.0
220
0.0
230
1.0
  2
SOLID
 70
     1
 71
     1
 91
        1
 92
        1
 93
        1
 72
     2
 10
-417.5782243612455
 20
-471.439582320722
 40
1.9998779296875
 50
0.0
 51
360.0
 73
     0
 97
        1
330
137
 75
     0
 76
     1
 98
        1
 10
0.0
 20
0.0
  0
CIRCLE
  5
139
102
{ACAD_REACTORS
330
13A
102
}
330
34
100
AcDbEntity
  8
0
  6
Continuous
 62
     0
370
    -2
390
1D
100
AcDbCircle
 10
-577.5782243612456
 20
-471.439582320722
 30
0.0
 40
1.9998779296875
  0
HATCH
  5
13A
330
34
100
AcDbEntity
  8
0
  6
Continuous
 62
     0
370
    -2
390
1D
100
AcDbHatch
 10
0.0
 20
0.0
 30
0.0
210
0.0
220
0.0
230
1.0
  2
SOLID
 70
     1
 71
     1
 91
        1
 92
        1
 93
        1
 72
     2
 10
-577.5782243612456
 20
-471.439582320722
 40
1.9998779296875
 50
0.0
 51
360.0
 73
     0
 97
        1
330
139
 75
     0
 76
     1
 98
        1
 10
0.0
 20
0.0
  0
MTEXT
  5
13B
330
34
100
AcDbEntity
  8
0
 62
     0
390
1D
100
AcDbMText
 10
-521.3907260434211
 20
-437.561965133222
 30
0.0
 40
24.4326171875
 41
0.0
 46
0.0
 71
     1
 72
     1
  1
160
  7
ＭＳ ゴシック
 73
     1
 44
0.7828267384257843
  0
POINT
  5
13C
330
34
100
AcDbEntity
  8
Defpoints
 62
     0
370
     0
390
1D
100
AcDbPoint
 10
-577.5782243612456
 20
-256.4901126334704
 30
0.0
  0
POINT
  5
13D
330
34
100
AcDbEntity
  8
Defpoints
 62
     0
370
     0
390
1D
100
AcDbPoint
 10
-417.5782243612455
 20
-380.4901126334705
 30
0.0
  0
POINT
  5
13E
330
34
100
AcDbEntity
  8
Defpoints
 62
     0
370
     0
390
1D
100
AcDbPoint
 10
-417.5782243612455
 20
-471.439582320722
 30
0.0
  0
ENDBLK
  5
13F
330
34
100
AcDbEntity
  8
notes
390
1D
100
AcDbBlockEnd
  0
BLOCK
  5
140
330
35
100
AcDbEntity
  8
notes
390
1D
100
AcDbBlockBegin
  2
*D20
 70
     1
 10
0.0
 20
0.0
 30
0.0
  3
*D20
  1

  0
LINE
  5
141
330
35
100
AcDbEntity
  8
0
  6
Continuous
 62
     0
370
    -2
390
1D
100
AcDbLine
 10
-157.4248712926749
 20
766.5506821421067
 30
0.0
 11
-40.52835244880407
 21
766.5506821421067
 31
0.0
  0
LINE
  5
142
330
35
100
AcDbEntity
  8
0
  6
Continuous
 62
     0
370
    -2
390
1D
100
AcDbLine
 10
-193.9580872852891
 20
506.5506821421067
 30
0.0
 11
-40.52835244880407
 21
506.5506821421067
 31
0.0
  0
LINE
  5
143
330
35
100
AcDbEntity
  8
0
  6
Continuous
 62
     0
370
    -2
390
1D
100
AcDbLine
 10
-40.52835244880407
 20
766.5506821421067
 30
0.0
 11
-40.52835244880407
 21
506.5506821421067
 31
0.0
  0
CIRCLE
  5
144
102
{ACAD_REACTORS
330
145
102
}
330
35
100
AcDbEntity
  8
0
  6
Continuous
 62
     0
370
    -2
390
1D
100
AcDbCircle
 10
-40.52835244880407
 20
766.5506821421067
 30
0.0
 40
1.9998779296875
  0
HATCH
  5
145
330
35
100
AcDbEntity
  8
0
  6
Continuous
 62
     0
370
    -2
390
1D
100
AcDbHatch
 10
0.0
 20
0.0
 30
0.0
210
0.0
220
0.0
230
1.0
  2
SOLID
 70
     1
 71
     1
 91
        1
 92
        1
 93
        1
 72
     2
 10
-40.52835244880407
 20
766.5506821421067
 40
1.9998779296875
 50
0.0
 51
360.0
 73
     0
 97
        1
330
144
 75
     0
 76
     1
 98
        1
 10
0.0
 20
0.0
  0
CIRCLE
  5
146
102
{ACAD_REACTORS
330
147
102
}
330
35
100
AcDbEntity
  8
0
  6
Continuous
 62
     0
370
    -2
390
1D
100
AcDbCircle
 10
-40.52835244880407
 20
506.5506821421067
 30
0.0
 40
1.9998779296875
  0
HATCH
  5
147
330
35
100
AcDbEntity
  8
0
  6
Continuous
 62
     0
370
    -2
390
1D
100
AcDbHatch
 10
0.0
 20
0.0
 30
0.0
210
0.0
220
0.0
230
1.0
  2
SOLID
 70
     1
 71
     1
 91
        1
 92
        1
 93
        1
 72
     2
 10
-40.52835244880407
 20
506.5506821421067
 40
1.9998779296875
 50
0.0
 51
360.0
 73
     0
 97
        1
330
146
 75
     0
 76
     1
 98
        1
 10
0.0
 20
0.0
  0
MTEXT
  5
148
330
35
100
AcDbEntity
  8
0
 62
     0
390
1D
100
AcDbMText
 10
-74.40596963630408
 20
612.7381804599312
 30
0.0
 40
24.4326171875
 41
0.0
 46
0.0
 71
     1
 72
     1
  1
260
  7
ＭＳ ゴシック
 11
0.0
 21
1.0
 31
0.0
 73
     1
 44
0.7828267384257843
  0
POINT
  5
149
330
35
100
AcDbEntity
  8
Defpoints
 62
     0
370
     0
390
1D
100
AcDbPoint
 10
-218.9580872852891
 20
506.5506821421067
 30
0.0
  0
POINT
  5
14A
330
35
100
AcDbEntity
  8
Defpoints
 62
     0
370
     0
390
1D
100
AcDbPoint
 10
-182.4248712926749
 20
766.5506821421067
 30
0.0
  0
POINT
  5
14B
330
35
100
AcDbEntity
  8
Defpoints
 62
     0
370
     0
390
1D
100
AcDbPoint
 10
-40.52835244880407
 20
766.5506821421067
 30
0.0
  0
ENDBLK
  5
14C
330
35
100
AcDbEntity
  8
notes
390
1D
100
AcDbBlockEnd
  0
BLOCK
  5
14D
330
36
100
AcDbEntity
  8
notes
390
1D
100
AcDbBlockBegin
  2
*D21
 70
     1
 10
0.0
 20
0.0
 30
0.0
  3
*D21
  1

  0
LINE
  5
14E
330
36
100
AcDbEntity
  8
0
  6
Continuous
 62
     0
370
    -2
390
1D
100
AcDbLine
 10
-197.7054262488307
 20
-263.9025765539769
 30
0.0
 11
-103.5283524488041
 21
-263.9025765539769
 31
0.0
  0
LINE
  5
14F
330
36
100
AcDbEntity
  8
0
  6
Continuous
 62
     0
370
    -2
390
1D
100
AcDbLine
 10
-157.5782243612455
 20
-188.9025765539769
 30
0.0
 11
-103.5283524488041
 21
-188.9025765539769
 31
0.0
  0
LINE
  5
150
330
36
100
AcDbEntity
  8
0
  6
Continuous
 62
     0
370
    -2
390
1D
100
AcDbLine
 10
-103.5283524488041
 20
-263.9025765539769
 30
0.0
 11
-103.5283524488041
 21
-188.9025765539769
 31
0.0
  0
CIRCLE
  5
151
102
{ACAD_REACTORS
330
152
102
}
330
36
100
AcDbEntity
  8
0
  6
Continuous
 62
     0
370
    -2
390
1D
100
AcDbCircle
 10
-103.5283524488041
 20
-263.9025765539769
 30
0.0
 40
1.9998779296875
  0
HATCH
  5
152
330
36
100
AcDbEntity
  8
0
  6
Continuous
 62
     0
370
    -2
390
1D
100
AcDbHatch
 10
0.0
 20
0.0
 30
0.0
210
0.0
220
0.0
230
1.0
  2
SOLID
 70
     1
 71
     1
 91
        1
 92
        1
 93
        1
 72
     2
 10
-103.5283524488041
 20
-263.9025765539769
 40
1.9998779296875
 50
0.0
 51
360.0
 73
     0
 97
        1
330
151
 75
     0
 76
     1
 98
        1
 10
0.0
 20
0.0
  0
CIRCLE
  5
153
102
{ACAD_REACTORS
330
154
102
}
330
36
100
AcDbEntity
  8
0
  6
Continuous
 62
     0
370
    -2
390
1D
100
AcDbCircle
 10
-103.5283524488041
 20
-188.9025765539769
 30
0.0
 40
1.9998779296875
  0
HATCH
  5
154
330
36
100
AcDbEntity
  8
0
  6
Continuous
 62
     0
370
    -2
390
1D
100
AcDbHatch
 10
0.0
 20
0.0
 30
0.0
210
0.0
220
0.0
230
1.0
  2
SOLID
 70
     1
 71
     1
 91
        1
 92
        1
 93
        1
 72
     2
 10
-103.5283524488041
 20
-188.9025765539769
 40
1.9998779296875
 50
0.0
 51
360.0
 73
     0
 97
        1
330
153
 75
     0
 76
     1
 98
        1
 10
0.0
 20
0.0
  0
MTEXT
  5
155
330
36
100
AcDbEntity
  8
0
 62
     0
390
1D
100
AcDbMText
 10
-137.4059696363041
 20
-242.2775765539769
 30
0.0
 40
24.4326171875
 41
0.0
 46
0.0
 71
     1
 72
     1
  1
75
  7
ＭＳ ゴシック
 11
0.0
 21
1.0
 31
0.0
 73
     1
 44
0.7828267384257843
  0
POINT
  5
156
330
36
100
AcDbEntity
  8
Defpoints
 62
     0
370
     0
390
1D
100
AcDbPoint
 10
-182.5782243612455
 20
-188.9025765539769
 30
0.0
  0
POINT
  5
157
330
36
100
AcDbEntity
  8
Defpoints
 62
     0
370
     0
390
1D
100
AcDbPoint
 10
-222.7054262488307
 20
-263.9025765539769
 30
0.0
  0
POINT
  5
158
330
36
100
AcDbEntity
  8
Defpoints
 62
     0
370
     0
390
1D
100
AcDbPoint
 10
-103.5283524488041
 20
-263.9025765539769
 30
0.0
  0
ENDBLK
  5
159
330
36
100
AcDbEntity
  8
notes
390
1D
100
AcDbBlockEnd
  0
BLOCK
  5
15A
330
37
100
AcDbEntity
  8
notes
390
1D
100
AcDbBlockBegin
  2
*D22
 70
     1
 10
0.0
 20
0.0
 30
0.0
  3
*D22
  1

  0
LINE
  5
15B
330
37
100
AcDbEntity
  8
0
  6
Continuous
 62
     0
370
    -2
390
1D
100
AcDbLine
 10
-152.4248712926686
 20
686.5506821421064
 30
0.0
 11
-103.5283524488041
 21
686.5506821421064
 31
0.0
  0
LINE
  5
15C
330
37
100
AcDbEntity
  8
0
  6
Continuous
 62
     0
370
    -2
390
1D
100
AcDbLine
 10
-157.4248712926749
 20
766.5506821421067
 30
0.0
 11
-103.5283524488041
 21
766.5506821421067
 31
0.0
  0
LINE
  5
15D
330
37
100
AcDbEntity
  8
0
  6
Continuous
 62
     0
370
    -2
390
1D
100
AcDbLine
 10
-103.5283524488041
 20
686.5506821421064
 30
0.0
 11
-103.5283524488041
 21
766.5506821421067
 31
0.0
  0
CIRCLE
  5
15E
102
{ACAD_REACTORS
330
15F
102
}
330
37
100
AcDbEntity
  8
0
  6
Continuous
 62
     0
370
    -2
390
1D
100
AcDbCircle
 10
-103.5283524488041
 20
686.5506821421064
 30
0.0
 40
1.9998779296875
  0
HATCH
  5
15F
330
37
100
AcDbEntity
  8
0
  6
Continuous
 62
     0
370
    -2
390
1D
100
AcDbHatch
 10
0.0
 20
0.0
 30
0.0
210
0.0
220
0.0
230
1.0
  2
SOLID
 70
     1
 71
     1
 91
        1
 92
        1
 93
        1
 72
     2
 10
-103.5283524488041
 20
686.5506821421064
 40
1.9998779296875
 50
0.0
 51
360.0
 73
     0
 97
        1
330
15E
 75
     0
 76
     1
 98
        1
 10
0.0
 20
0.0
  0
CIRCLE
  5
160
102
{ACAD_REACTORS
330
161
102
}
330
37
100
AcDbEntity
  8
0
  6
Continuous
 62
     0
370
    -2
390
1D
100
AcDbCircle
 10
-103.5283524488041
 20
766.5506821421067
 30
0.0
 40
1.9998779296875
  0
HATCH
  5
161
330
37
100
AcDbEntity
  8
0
  6
Continuous
 62
     0
370
    -2
390
1D
100
AcDbHatch
 10
0.0
 20
0.0
 30
0.0
210
0.0
220
0.0
230
1.0
  2
SOLID
 70
     1
 71
     1
 91
        1
 92
        1
 93
        1
 72
     2
 10
-103.5283524488041
 20
766.5506821421067
 40
1.9998779296875
 50
0.0
 51
360.0
 73
     0
 97
        1
330
160
 75
     0
 76
     1
 98
        1
 10
0.0
 20
0.0
  0
MTEXT
  5
162
330
37
100
AcDbEntity
  8
0
 62
     0
390
1D
100
AcDbMText
 10
-137.4059696363041
 20
710.6756821421066
 30
0.0
 40
24.4326171875
 41
0.0
 46
0.0
 71
     1
 72
     1
  1
80
  7
ＭＳ ゴシック
 11
0.0
 21
1.0
 31
0.0
 73
     1
 44
0.7828267384257843
  0
POINT
  5
163
330
37
100
AcDbEntity
  8
Defpoints
 62
     0
370
     0
390
1D
100
AcDbPoint
 10
-182.4248712926749
 20
766.5506821421067
 30
0.0
  0
POINT
  5
164
330
37
100
AcDbEntity
  8
Defpoints
 62
     0
370
     0
390
1D
100
AcDbPoint
 10
-177.4248712926686
 20
686.5506821421064
 30
0.0
  0
POINT
  5
165
330
37
100
AcDbEntity
  8
Defpoints
 62
     0
370
     0
390
1D
100
AcDbPoint
 10
-103.5283524488041
 20
686.5506821421064
 30
0.0
  0
ENDBLK
  5
166
330
37
100
AcDbEntity
  8
notes
390
1D
100
AcDbBlockEnd
  0
BLOCK
  5
167
330
38
100
AcDbEntity
  8
notes
390
1D
100
AcDbBlockBegin
  2
*D23
 70
     1
 10
0.0
 20
0.0
 30
0.0
  3
*D23
  1

  0
LINE
  5
168
330
38
100
AcDbEntity
  8
0
  6
Continuous
 62
     0
370
    -2
390
1D
100
AcDbLine
 10
362.5783604364823
 20
-213.9032680931277
 30
0.0
 11
322.886426191566
 21
-213.9032680931277
 31
0.0
  0
LINE
  5
169
330
38
100
AcDbEntity
  8
0
  6
Continuous
 62
     0
370
    -2
390
1D
100
AcDbLine
 10
362.5783604364823
 20
-248.9023776977577
 30
0.0
 11
322.886426191566
 21
-248.9023776977577
 31
0.0
  0
LINE
  5
16A
330
38
100
AcDbEntity
  8
0
  6
Continuous
 62
     0
370
    -2
390
1D
100
AcDbLine
 10
322.886426191566
 20
-213.9032680931277
 30
0.0
 11
322.886426191566
 21
-248.9023776977577
 31
0.0
  0
CIRCLE
  5
16B
102
{ACAD_REACTORS
330
16C
102
}
330
38
100
AcDbEntity
  8
0
  6
Continuous
 62
     0
370
    -2
390
1D
100
AcDbCircle
 10
322.886426191566
 20
-213.9032680931277
 30
0.0
 40
1.9998779296875
  0
HATCH
  5
16C
330
38
100
AcDbEntity
  8
0
  6
Continuous
 62
     0
370
    -2
390
1D
100
AcDbHatch
 10
0.0
 20
0.0
 30
0.0
210
0.0
220
0.0
230
1.0
  2
SOLID
 70
     1
 71
     1
 91
        1
 92
        1
 93
        1
 72
     2
 10
322.886426191566
 20
-213.9032680931277
 40
1.9998779296875
 50
0.0
 51
360.0
 73
     0
 97
        1
330
16B
 75
     0
 76
     1
 98
        1
 10
0.0
 20
0.0
  0
CIRCLE
  5
16D
102
{ACAD_REACTORS
330
16E
102
}
330
38
100
AcDbEntity
  8
0
  6
Continuous
 62
     0
370
    -2
390
1D
100
AcDbCircle
 10
322.886426191566
 20
-248.9023776977577
 30
0.0
 40
1.9998779296875
  0
HATCH
  5
16E
330
38
100
AcDbEntity
  8
0
  6
Continuous
 62
     0
370
    -2
390
1D
100
AcDbHatch
 10
0.0
 20
0.0
 30
0.0
210
0.0
220
0.0
230
1.0
  2
SOLID
 70
     1
 71
     1
 91
        1
 92
        1
 93
        1
 72
     2
 10
322.886426191566
 20
-248.9023776977577
 40
1.9998779296875
 50
0.0
 51
360.0
 73
     0
 97
        1
330
16D
 75
     0
 76
     1
 98
        1
 10
0.0
 20
0.0
  0
MTEXT
  5
16F
330
38
100
AcDbEntity
  8
0
 62
     0
390
1D
100
AcDbMText
 10
289.0088090040661
 20
-247.2778228954427
 30
0.0
 40
24.4326171875
 41
0.0
 46
0.0
 71
     1
 72
     1
  1
35
  7
ＭＳ ゴシック
 11
0.0
 21
1.0
 31
0.0
 73
     1
 44
0.7828267384257843
  0
POINT
  5
170
330
38
100
AcDbEntity
  8
Defpoints
 62
     0
370
     0
390
1D
100
AcDbPoint
 10
387.5783604364823
 20
-248.9023776977577
 30
0.0
  0
POINT
  5
171
330
38
100
AcDbEntity
  8
Defpoints
 62
     0
370
     0
390
1D
100
AcDbPoint
 10
387.5783604364823
 20
-213.9032680931277
 30
0.0
  0
POINT
  5
172
330
38
100
AcDbEntity
  8
Defpoints
 62
     0
370
     0
390
1D
100
AcDbPoint
 10
322.886426191566
 20
-213.9032680931277
 30
0.0
  0
ENDBLK
  5
173
330
38
100
AcDbEntity
  8
notes
390
1D
100
AcDbBlockEnd
  0
BLOCK
  5
174
330
39
100
AcDbEntity
  8
FAA70-2225
390
1D
100
AcDbBlockBegin
  2
*D24
 70
     1
 10
0.0
 20
0.0
 30
0.0
  3
*D24
  1

  0
LINE
  5
175
330
39
100
AcDbEntity
  8
0
  6
Continuous
 62
     0
370
    -2
390
1D
100
AcDbLine
 10
-592.424871292675
 20
-188.9025765539769
 30
0.0
 11
-668.5283524488041
 21
-188.9025765539769
 31
0.0
  0
LINE
  5
176
330
39
100
AcDbEntity
  8
0
  6
Continuous
 62
     0
370
    -2
390
1D
100
AcDbLine
 10
-533.0207092135207
 20
-283.9025765539769
 30
0.0
 11
-668.5283524488041
 21
-283.9025765539769
 31
0.0
  0
LINE
  5
177
330
39
100
AcDbEntity
  8
0
  6
Continuous
 62
     0
370
    -2
390
1D
100
AcDbLine
 10
-668.5283524488041
 20
-188.9025765539769
 30
0.0
 11
-668.5283524488041
 21
-283.9025765539769
 31
0.0
  0
CIRCLE
  5
178
102
{ACAD_REACTORS
330
179
102
}
330
39
100
AcDbEntity
  8
0
  6
Continuous
 62
     0
370
    -2
390
1D
100
AcDbCircle
 10
-668.5283524488041
 20
-188.9025765539769
 30
0.0
 40
1.9998779296875
  0
HATCH
  5
179
330
39
100
AcDbEntity
  8
0
  6
Continuous
 62
     0
370
    -2
390
1D
100
AcDbHatch
 10
0.0
 20
0.0
 30
0.0
210
0.0
220
0.0
230
1.0
  2
SOLID
 70
     1
 71
     1
 91
        1
 92
        1
 93
        1
 72
     2
 10
-668.5283524488041
 20
-188.9025765539769
 40
1.9998779296875
 50
0.0
 51
360.0
 73
     0
 97
        1
330
178
 75
     0
 76
     1
 98
        1
 10
0.0
 20
0.0
  0
CIRCLE
  5
17A
102
{ACAD_REACTORS
330
17B
102
}
330
39
100
AcDbEntity
  8
0
  6
Continuous
 62
     0
370
    -2
390
1D
100
AcDbCircle
 10
-668.5283524488041
 20
-283.9025765539769
 30
0.0
 40
1.9998779296875
  0
HATCH
  5
17B
330
39
100
AcDbEntity
  8
0
  6
Continuous
 62
     0
370
    -2
390
1D
100
AcDbHatch
 10
0.0
 20
0.0
 30
0.0
210
0.0
220
0.0
230
1.0
  2
SOLID
 70
     1
 71
     1
 91
        1
 92
        1
 93
        1
 72
     2
 10
-668.5283524488041
 20
-283.9025765539769
 40
1.9998779296875
 50
0.0
 51
360.0
 73
     0
 97
        1
330
17A
 75
     0
 76
     1
 98
        1
 10
0.0
 20
0.0
  0
MTEXT
  5
17C
330
39
100
AcDbEntity
  8
0
 62
     0
390
1D
100
AcDbMText
 10
-702.4059696363041
 20
-252.2775765539769
 30
0.0
 40
24.4326171875
 41
0.0
 46
0.0
 71
     1
 72
     1
  1
95
  7
ＭＳ ゴシック
 11
0.0
 21
1.0
 31
0.0
 73
     1
 44
0.7828267384257843
  0
POINT
  5
17D
330
39
100
AcDbEntity
  8
Defpoints
 62
     0
370
     0
390
1D
100
AcDbPoint
 10
-508.0207092135207
 20
-283.9025765539769
 30
0.0
  0
POINT
  5
17E
330
39
100
AcDbEntity
  8
Defpoints
 62
     0
370
     0
390
1D
100
AcDbPoint
 10
-567.424871292675
 20
-188.9025765539769
 30
0.0
  0
POINT
  5
17F
330
39
100
AcDbEntity
  8
Defpoints
 62
     0
370
     0
390
1D
100
AcDbPoint
 10
-668.5283524488041
 20
-188.9025765539769
 30
0.0
  0
ENDBLK
  5
180
330
39
100
AcDbEntity
  8
FAA70-2225
390
1D
100
AcDbBlockEnd
  0
BLOCK
  5
262
330
261
100
AcDbEntity
  8
0
100
AcDbBlockBegin
  2
*D25
 70
     1
 10
0.0
 20
0.0
 30
0.0
  3
*D25
  1

  0
LINE
  5
264
330
261
100
AcDbEntity
  8
notes
  6
Continuous
 62
     0
370
    -2
100
AcDbLine
 10
362.5783604364823
 20
-213.9032680931277
 30
0.0
 11
252.7743089372558
 21
-213.9032680931277
 31
0.0
  0
LINE
  5
265
330
261
100
AcDbEntity
  8
notes
  6
Continuous
 62
     0
370
    -2
100
AcDbLine
 10
475.0773687565412
 20
-378.9032680931276
 30
0.0
 11
252.7743089372558
 21
-378.9032680931276
 31
0.0
  0
LINE
  5
266
330
261
100
AcDbEntity
  8
notes
  6
Continuous
 62
     0
370
    -2
100
AcDbLine
 10
252.7743089372558
 20
-217.9030239525027
 30
0.0
 11
252.7743089372558
 21
-374.9035122337526
 31
0.0
  0
INSERT
  5
267
330
261
100
AcDbEntity
  8
notes
 62
     0
370
    -2
100
AcDbBlockReference
  2
_DOT
 10
252.7743089372558
 20
-213.9032680931277
 30
0.0
 41
3.999755859375
 42
3.999755859375
 43
3.999755859375
 50
90.0
  0
INSERT
  5
268
330
261
100
AcDbEntity
  8
notes
 62
     0
370
    -2
100
AcDbBlockReference
  2
_DOT
 10
252.7743089372558
 20
-378.9032680931276
 30
0.0
 41
3.999755859375
 42
3.999755859375
 43
3.999755859375
 50
270.0
  0
MTEXT
  5
269
330
261
100
AcDbEntity
  8
notes
  6
Continuous
 62
     0
370
     0
100
AcDbMText
 10
230.5580003435058
 20
-296.4032680931276
 30
0.0
 40
24.4326171875
 41
0.0
 46
0.0
 71
     5
 72
     1
  1
\A1;165
  7
ＭＳ ゴシック
 11
0.0
 21
1.0
 31
0.0
 73
     1
 44
1.0
  0
POINT
  5
26A
330
261
100
AcDbEntity
  8
Defpoints
 62
     0
100
AcDbPoint
 10
387.5783604364823
 20
-213.9032680931277
 30
0.0
  0
POINT
  5
26B
330
261
100
AcDbEntity
  8
Defpoints
 62
     0
100
AcDbPoint
 10
500.0773687565412
 20
-378.9032680931276
 30
0.0
  0
POINT
  5
26C
330
261
100
AcDbEntity
  8
Defpoints
 62
     0
100
AcDbPoint
 10
252.7743089372558
 20
-378.9032680931276
 30
0.0
  0
ENDBLK
  5
263
330
261
100
AcDbEntity
  8
0
100
AcDbBlockEnd
  0
ENDSEC
  0
SECTION
  2
ENTITIES
  0
MTEXT
  5
181
330
A
100
AcDbEntity
  8
template
 62
     7
390
1D
100
AcDbMText
 10
-967.9999999997593
 20
-1122.557020292727
 30
0.0
 40
16.28841145833333
 41
0.0
 46
0.0
 71
     1
 72
     1
  1
品名
  7
ＭＳ ゴシック
 73
     1
 44
0.7828267384257843
  0
MTEXT
  5
182
330
A
100
AcDbEntity
  8
template
 62
     7
390
1D
100
AcDbMText
 10
-967.9999999997593
 20
-1207.557020292727
 30
0.0
 40
16.28841145833333
 41
0.0
 46
0.0
 71
     1
 72
     1
  1
仕様
  7
ＭＳ ゴシック
 73
     1
 44
0.7828267384257843
  0
LINE
  5
183
330
A
100
AcDbEntity
  8
template
  6
Continuous
 62
     7
370
     5
390
1D
100
AcDbLine
 10
974.9999999997586
 20
-1199.142098417727
 30
0.0
 11
-975.0000000002414
 21
-1199.142098417727
 31
0.0
  0
LWPOLYLINE
  5
184
330
A
100
AcDbEntity
  8
template
  6
Continuous
 62
     7
370
     5
390
1D
100
AcDbPolyline
 90
        5
 70
   128
 43
0.0
 10
975.0000000002411
 20
1430.857901582273
 10
-974.9999999997593
 20
1430.857901582273
 10
-974.9999999997593
 20
-1369.142098417727
 10
975.0000000002411
 20
-1369.142098417727
 10
975.0000000002411
 20
1430.857901582273
  0
LINE
  5
185
330
A
100
AcDbEntity
  8
template
  6
Continuous
 62
     7
370
     5
390
1D
100
AcDbLine
 10
974.9999999997586
 20
-1114.142098417727
 30
0.0
 11
-975.0000000002414
 21
-1114.142098417727
 31
0.0
  0
LINE
  5
186
330
A
100
AcDbEntity
  8
template
  6
Continuous
 62
     7
370
     5
390
1D
100
AcDbLine
 10
975.0000000002411
 20
-1284.142098417727
 30
0.0
 11
222.0000000002411
 21
-1284.142098417727
 31
0.0
  0
MTEXT
  5
187
330
A
100
AcDbEntity
  8
template
 62
     7
390
1D
100
AcDbMText
 10
251.8714062525007
 20
-1314.052492891035
 30
0.0
 40
24.4326171875
 41
0.0
 46
0.0
 71
     1
 72
     1
  1
大洋金物株式会社 ティーフォルム事業部
  7
ＭＳ ゴシック
 73
     1
 44
0.7828267384257843
  0
INSERT
  5
188
330
A
100
AcDbEntity
  8
template
 62
     7
390
1D
100
AcDbBlockReference
  2
グループ
 10
-0.0000000000001137
 20
-0.139391059026508
 30
0.0
  0
MTEXT
  5
189
330
A
100
AcDbEntity
  8
template
 62
     7
390
1D
100
AcDbMText
 10
784.0000000004999
 20
-1236.139481230227
 30
0.0
 40
24.4326171875
 41
0.0
 46
0.0
 71
     1
 72
     1
  1
1:10
  7
ＭＳ ゴシック
 73
     1
 44
0.7828267384257843
  0
MTEXT
  5
18A
330
A
100
AcDbEntity
  8
template
 62
     7
390
1D
100
AcDbMText
 10
731.0000000004999
 20
-1207.557020292727
 30
0.0
 40
16.28841145833333
 41
0.0
 46
0.0
 71
     1
 72
     1
  1
縮尺
  7
ＭＳ ゴシック
 73
     1
 44
0.7828267384257843
  0
LINE
  5
18B
330
A
100
AcDbEntity
  8
template
  6
Continuous
 62
     7
370
     5
390
1D
100
AcDbLine
 10
724.0000000004999
 20
-1284.142098417727
 30
0.0
 11
724.0000000004999
 21
-1199.142098417727
 31
0.0
  0
MTEXT
  5
18C
330
A
100
AcDbEntity
  8
template
 62
     7
390
1D
100
AcDbMText
 10
480.0000000004999
 20
-1207.557020292727
 30
0.0
 40
16.28841145833333
 41
0.0
 46
0.0
 71
     1
 72
     1
  1
容量
  7
ＭＳ ゴシック
 73
     1
 44
0.7828267384257843
  0
MTEXT
  5
18D
330
A
100
AcDbEntity
  8
template
 62
     7
390
1D
100
AcDbMText
 10
533.0000000004999
 20
-1236.139481230227
 30
0.0
 40
24.4326171875
 41
0.0
 46
0.0
 71
     1
 72
     1
  1
2.7L
  7
ＭＳ ゴシック
 73
     1
 44
0.7828267384257843
  0
LINE
  5
18E
330
A
100
AcDbEntity
  8
template
  6
Continuous
 62
     7
370
     5
390
1D
100
AcDbLine
 10
473.0000000004999
 20
-1284.142098417727
 30
0.0
 11
473.0000000004999
 21
-1199.142098417727
 31
0.0
  0
MTEXT
  5
18F
330
A
100
AcDbEntity
  8
template
 62
     7
390
1D
100
AcDbMText
 10
229.0000000004999
 20
-1122.557020292727
 30
0.0
 40
16.28841145833333
 41
0.0
 46
0.0
 71
     1
 72
     1
  1
品番
  7
ＭＳ ゴシック
 73
     1
 44
0.7828267384257843
  0
MTEXT
  5
190
330
A
100
AcDbEntity
  8
template
 62
     7
390
1D
100
AcDbMText
 10
229.0000000004999
 20
-1207.557020292727
 30
0.0
 40
16.28841145833333
 41
0.0
 46
0.0
 71
     1
 72
     1
  1
重量
  7
ＭＳ ゴシック
 73
     1
 44
0.7828267384257843
  0
MTEXT
  5
191
330
A
100
AcDbEntity
  8
template
 62
     7
390
1D
100
AcDbMText
 10
282.0000000004999
 20
-1151.139481230227
 30
0.0
 40
24.4326171875
 41
0.0
 46
0.0
 71
     1
 72
     1
  1
FAA70-2225
  7
ＭＳ ゴシック
 73
     1
 44
0.7828267384257843
  0
MTEXT
  5
192
330
A
100
AcDbEntity
  8
template
 62
     7
390
1D
100
AcDbMText
 10
282.0000000004999
 20
-1236.139481230227
 30
0.0
 40
24.4326171875
 41
0.0
 46
0.0
 71
     1
 72
     1
  1
7.5kg
  7
ＭＳ ゴシック
 73
     1
 44
0.7828267384257843
  0
LINE
  5
193
330
A
100
AcDbEntity
  8
template
  6
Continuous
 62
     7
370
     5
390
1D
100
AcDbLine
 10
222.0000000004999
 20
-1369.142098417727
 30
0.0
 11
222.0000000004999
 21
-1114.142098417727
 31
0.0
  0
MTEXT
  5
194
330
A
100
AcDbEntity
  8
template
 62
     7
390
1D
100
AcDbMText
 10
-914.9999999997593
 20
-1236.139481230227
 30
0.0
 40
24.4326171875
 41
0.0
 46
0.0
 71
     1
 72
     1
  1
壁掛け/オーバーフロー付き/壁取付ボルト付属/陶器/ホワイト
  7
ＭＳ ゴシック
 73
     1
 44
1.130749733281688
  0
MTEXT
  5
195
330
A
100
AcDbEntity
  8
template
 62
     7
390
1D
100
AcDbMText
 10
-974.999999999556
 20
-1380.995920474584
 30
0.0
 40
21.71788194444445
 41
0.0
 46
0.0
 71
     1
 72
     1
  1
111125SO
  7
ＭＳ ゴシック
 73
     1
 44
0.7828267384257843
  0
MTEXT
  5
196
330
A
100
AcDbEntity
  8
template
 62
     7
390
1D
100
AcDbMText
 10
-914.9999999997591
 20
-1151.139481230227
 30
0.0
 40
24.4326171875
 41
0.0
 46
0.0
 71
     1
 72
     1
  1
手洗器 -DURAVIT,Philippe Starck E3-
  7
ＭＳ ゴシック
 73
     1
 44
0.7828267384257843
  0
DIMENSION
  5
197
330
A
100
AcDbEntity
  8
notes
  6
Continuous
 62
     7
370
     5
390
1D
100
AcDbDimension
  2
*D3
 10
-177.4248712926686
 20
416.4234002621416
 30
0.0
 11
-168.9580872852891
 21
421.4234002621416
 31
0.0
 70
   128
 71
     5
 42
0.0
 73
     0
 74
     0
 75
     0
  3
tfrom線あり
100
AcDbAlignedDimension
 13
-207.4248712926749
 23
516.4234002621364
 33
0.0
 14
-177.4248712926686
 24
560.2412048625512
 34
0.0
100
AcDbRotatedDimension
1001
ACAD
1000
DSTYLE
1002
{
1070
   279
1070
     2
1070
   340
1005
3A
1070
   174
1070
     0
1070
   147
1040
5.0
1002
}
  0
DIMENSION
  5
198
330
A
100
AcDbEntity
  8
notes
  6
Continuous
 62
     7
370
     5
390
1D
100
AcDbDimension
  2
*D4
 10
-547.424871292675
 20
416.4234002621416
 30
0.0
 11
-584.9580872852891
 21
421.4234002621416
 31
0.0
 70
   128
 71
     5
 42
0.0
 73
     0
 74
     0
 75
     0
  3
tfrom線あり
100
AcDbAlignedDimension
 13
-577.4248712926686
 23
560.2412048625523
 33
0.0
 14
-547.424871292675
 24
516.4234002621416
 34
0.0
100
AcDbRotatedDimension
1001
ACAD
1000
DSTYLE
1002
{
1070
   279
1070
     2
1070
   340
1005
3A
1070
   174
1070
     0
1070
   147
1040
5.0
1002
}
  0
DIMENSION
  5
199
330
A
100
AcDbEntity
  8
notes
  6
Continuous
 62
     7
370
     5
390
1D
100
AcDbDimension
  2
*D5
 10
-547.424871292675
 20
416.4234002621416
 30
0.0
 11
-417.424871292675
 21
416.4234002621416
 31
0.0
 70
    32
 71
     5
 42
0.0
 73
     0
 74
     0
 75
     0
  3
tfrom線あり
100
AcDbAlignedDimension
 13
-287.4248712926749
 23
508.3405235823546
 33
0.0
 14
-547.424871292675
 24
516.4234002621416
 34
0.0
100
AcDbRotatedDimension
1001
ACAD
1000
DSTYLE
1002
{
1070
   279
1070
     2
1070
   340
1005
3A
1070
   147
1040
5.0
1002
}
  0
DIMENSION
  5
19A
330
A
100
AcDbEntity
  8
notes
  6
Continuous
 62
     7
370
     5
390
1D
100
AcDbDimension
  2
*D6
 10
-287.4248712926749
 20
416.4234002621416
 30
0.0
 11
-247.4248712926749
 21
416.4234002621416
 31
0.0
 70
    32
 71
     5
 42
0.0
 73
     0
 74
     0
 75
     0
  3
tfrom線あり
100
AcDbAlignedDimension
 13
-207.4248712926749
 23
516.4234002621364
 33
0.0
 14
-287.4248712926749
 24
508.3405235823546
 34
0.0
100
AcDbRotatedDimension
1001
ACAD
1000
DSTYLE
1002
{
1070
   279
1070
     2
1070
   340
1005
3A
1070
   147
1040
5.0
1002
}
  0
DIMENSION
  5
19B
330
A
100
AcDbEntity
  8
notes
  6
Continuous
 62
     7
370
     5
390
1D
100
AcDbDimension
  2
*D7
 10
-631.8525598712854
 20
-213.9025765539769
 30
0.0
 11
-636.8525598712854
 21
-176.9025765539769
 31
0.0
 70
   128
 71
     5
 42
0.0
 73
     0
 74
     0
 75
     0
  3
tfrom線あり
100
AcDbAlignedDimension
 13
-565.8525598712853
 23
-188.9025765539769
 33
0.0
 14
-570.4726969472418
 24
-213.9025765539769
 34
0.0
 50
90.0
100
AcDbRotatedDimension
1001
ACAD
1000
DSTYLE
1002
{
1070
   279
1070
     2
1070
   340
1005
3A
1070
   174
1070
     0
1070
   147
1040
5.0
1002
}
  0
DIMENSION
  5
19C
330
A
100
AcDbEntity
  8
notes
  6
Continuous
 62
     7
370
     5
390
1D
100
AcDbDimension
  2
*D8
 10
-417.5782243612455
 20
-135.6151126334704
 30
0.0
 11
-330.0782243612455
 21
-135.6151126334704
 31
0.0
 70
    32
 71
     5
 42
0.0
 73
     0
 74
     0
 75
     0
  3
tfrom線あり
100
AcDbAlignedDimension
 13
-242.5782243612455
 23
-244.0720148695867
 33
0.0
 14
-417.5782243612455
 24
-311.3600462666371
 34
0.0
100
AcDbRotatedDimension
1001
ACAD
1000
DSTYLE
1002
{
1070
   279
1070
     2
1070
   340
1005
3A
1070
   147
1040
5.0
1002
}
  0
DIMENSION
  5
19D
330
A
100
AcDbEntity
  8
notes
  6
Continuous
 62
     7
370
     5
390
1D
100
AcDbDimension
  2
*D9
 10
-417.5782243612455
 20
-135.6151126334704
 30
0.0
 11
-452.58540947808
 21
-135.6151126334704
 31
0.0
 70
    32
 71
     5
 42
0.0
 73
     0
 74
     0
 75
     0
  3
tfrom線あり
100
AcDbAlignedDimension
 13
-487.5925945949144
 23
-265.6841171643779
 33
0.0
 14
-417.5782243612455
 24
-311.3600462666371
 34
0.0
100
AcDbRotatedDimension
1001
ACAD
1000
DSTYLE
1002
{
1070
   279
1070
     2
1070
   340
1005
3A
1070
   147
1040
5.0
1002
}
  0
DIMENSION
  5
19E
330
A
100
AcDbEntity
  8
notes
  6
Continuous
 62
     7
370
     5
390
1D
100
AcDbDimension
  2
*D10
 10
526.525941673238
 20
-213.9032680931277
 30
0.0
 11
521.525941673238
 21
-200.078208358553
 31
0.0
 70
   128
 71
     5
 42
0.0
 73
     0
 74
     0
 75
     0
  3
tfrom線あり
100
AcDbAlignedDimension
 13
529.4716475511959
 23
-318.9239241344237
 33
0.0
 14
529.4716475511959
 24
-213.9032680931277
 34
0.0
 50
90.0
100
AcDbRotatedDimension
1001
ACAD
1000
DSTYLE
1002
{
1070
   279
1070
     2
1070
   340
1005
3A
1070
     3
1000
<>(深さ)
1070
   174
1070
     0
1070
   147
1040
5.0
1002
}
  0
MTEXT
  5
19F
330
A
100
AcDbEntity
  8
notes
 62
     7
390
1D
100
AcDbMText
 10
-188.2158524488041
 20
-131.9973828125
 30
0.0
 40
24.4326171875
 41
0.0
 46
0.0
 71
     1
 72
     1
  1
壁取付ボルト穴(2ヶ所)
  7
ＭＳ ゴシック
 73
     1
 44
0.7828267384257843
  0
LINE
  5
1A0
330
A
100
AcDbEntity
  8
notes
  6
Continuous
 62
     7
370
     5
390
1D
100
AcDbLine
 10
-149.9494496988426
 20
-167.180574978764
 30
0.0
 11
-243.047454988248
 21
-264.6480807915356
 31
0.0
  0
DIMENSION
  5
1A1
330
A
100
AcDbEntity
  8
notes
  6
Continuous
 62
     7
370
     5
390
1D
100
AcDbDimension
  2
*D11
 10
-577.424871292675
 20
861.5506821421064
 30
0.0
 11
-377.4248712926749
 21
861.5506821421064
 31
0.0
 70
    32
 71
     5
 42
0.0
 73
     0
 74
     0
 75
     0
  3
tfrom線あり
100
AcDbAlignedDimension
 13
-177.4248712926747
 23
761.5506821421064
 33
0.0
 14
-577.424871292675
 24
761.5506821421064
 34
0.0
100
AcDbRotatedDimension
1001
ACAD
1000
DSTYLE
1002
{
1070
   279
1070
     2
1070
   340
1005
3A
1070
   147
1040
5.0
1002
}
  0
DIMENSION
  5
1A2
330
A
100
AcDbEntity
  8
notes
  6
Continuous
 62
     7
370
     5
390
1D
100
AcDbDimension
  2
*D12
 10
-242.4248712926686
 20
814.5939345640121
 30
0.0
 11
-209.9248712926716
 21
814.5939345640121
 31
0.0
 70
    32
 71
     5
 42
0.0
 73
     0
 74
     0
 75
     0
  3
tfrom線あり
100
AcDbAlignedDimension
 13
-177.4248712926747
 23
761.5506821421064
 33
0.0
 14
-242.4248712926686
 24
764.5939345640121
 34
0.0
100
AcDbRotatedDimension
1001
ACAD
1000
DSTYLE
1002
{
1070
   279
1070
     2
1070
   340
1005
3A
1070
   147
1040
5.0
1002
}
  0
DIMENSION
  5
1A3
330
A
100
AcDbEntity
  8
notes
  6
Continuous
 62
     7
370
     5
390
1D
100
AcDbDimension
  2
*D13
 10
-254.1985084910185
 20
673.6034250147586
 30
0.0
 11
-106.5283524488037
 21
813.9999999999997
 31
0.0
 70
     3
 71
     5
 42
0.0
 73
     0
 74
     0
 75
     0
  3
tfrom線あり
100
AcDbDiametricDimension
 15
-230.6512340943186
 25
699.4979392694542
 35
0.0
 40
154.7652945388838
1001
ACAD
1000
DSTYLE
1002
{
1070
   289
1070
     0
1070
   342
1005
4D
1070
   340
1005
3A
1070
    73
1070
     1
1070
    74
1070
     1
1070
    75
1070
     1
1070
    76
1070
     1
1070
     3
1000

1070
   174
1070
     0
1070
   147
1040
5.0
1002
}
  0
DIMENSION
  5
1A4
330
A
100
AcDbEntity
  8
notes
  6
Continuous
 62
     7
370
     5
390
1D
100
AcDbDimension
  2
*D14
 10
-672.424871292675
 20
736.5506821421064
 30
0.0
 11
-672.424871292675
 21
636.5506821421064
 31
0.0
 70
    32
 71
     5
 42
0.0
 73
     0
 74
     0
 75
     0
  3
tfrom線あり
100
AcDbAlignedDimension
 13
-570.6507392820457
 23
536.5506821421064
 33
0.0
 14
-572.424871292675
 24
736.5506821421064
 34
0.0
 50
90.0
100
AcDbRotatedDimension
1001
ACAD
1000
DSTYLE
1002
{
1070
   279
1070
     2
1070
   340
1005
3A
1070
   147
1040
5.0
1002
}
  0
DIMENSION
  5
1A5
330
A
100
AcDbEntity
  8
notes
  6
Continuous
 62
     7
370
     5
390
1D
100
AcDbDimension
  2
*D15
 10
-672.424871292675
 20
506.5506821421067
 30
0.0
 11
-672.424871292675
 21
521.5506821421066
 31
0.0
 70
    32
 71
     5
 42
0.0
 73
     0
 74
     0
 75
     0
  3
tfrom線あり
100
AcDbAlignedDimension
 13
-595.6507392820457
 23
536.5506821421064
 33
0.0
 14
-577.4248712926686
 24
506.5506821421067
 34
0.0
 50
90.0
100
AcDbRotatedDimension
1001
ACAD
1000
DSTYLE
1002
{
1070
   279
1070
     2
1070
   340
1005
3A
1070
   147
1040
5.0
1002
}
  0
DIMENSION
  5
1A6
330
A
100
AcDbEntity
  8
notes
  6
Continuous
 62
     7
370
     5
390
1D
100
AcDbDimension
  2
*D16
 10
-672.424871292675
 20
736.5506821421064
 30
0.0
 11
-672.424871292675
 21
751.5506821421064
 31
0.0
 70
    32
 71
     5
 42
0.0
 73
     0
 74
     0
 75
     0
  3
tfrom線あり
100
AcDbAlignedDimension
 13
-567.424871292675
 23
766.5506821421064
 33
0.0
 14
-577.424871292675
 24
736.5506821421064
 34
0.0
 50
90.0
100
AcDbRotatedDimension
1001
ACAD
1000
DSTYLE
1002
{
1070
   279
1070
     2
1070
   340
1005
3A
1070
   147
1040
5.0
1002
}
  0
DIMENSION
  5
1A7
330
A
100
AcDbEntity
  8
notes
  6
Continuous
 62
     7
370
     5
390
1D
100
AcDbDimension
  2
*D17
 10
642.5783604364811
 20
-454.4901126334705
 30
0.0
 11
594.2927358169877
 21
-449.4901126334705
 31
0.0
 70
   128
 71
     5
 42
0.0
 73
     0
 74
     0
 75
     0
  3
tfrom線あり
100
AcDbAlignedDimension
 13
537.5783604364813
 23
-379.153545336064
 33
0.0
 14
642.5783604364811
 24
-358.8569575173091
 34
0.0
100
AcDbRotatedDimension
1001
ACAD
1000
DSTYLE
1002
{
1070
   279
1070
     2
1070
   340
1005
3A
1070
   147
1040
5.0
1002
}
  0
DIMENSION
  5
1A8
330
A
100
AcDbEntity
  8
notes
  6
Continuous
 62
     7
370
     5
390
1D
100
AcDbDimension
  2
*D18
 10
-417.5782243612455
 20
-471.439582320722
 30
0.0
 11
-292.9580872852891
 21
-466.439582320722
 31
0.0
 70
   128
 71
     5
 42
0.0
 73
     0
 74
     0
 75
     0
  3
tfrom線あり
100
AcDbAlignedDimension
 13
-177.5782243612455
 23
-238.8588482553657
 33
0.0
 14
-417.5782243612455
 24
-380.4901126334705
 34
0.0
100
AcDbRotatedDimension
1001
ACAD
1000
DSTYLE
1002
{
1070
   279
1070
     2
1070
   340
1005
3A
1070
   147
1040
5.0
1002
}
  0
DIMENSION
  5
1A9
330
A
100
AcDbEntity
  8
notes
  6
Continuous
 62
     7
370
     5
390
1D
100
AcDbDimension
  2
*D19
 10
-417.5782243612455
 20
-471.439582320722
 30
0.0
 11
-497.5782243612456
 21
-471.439582320722
 31
0.0
 70
    32
 71
     5
 42
0.0
 73
     0
 74
     0
 75
     0
  3
tfrom線あり
100
AcDbAlignedDimension
 13
-577.5782243612456
 23
-256.4901126334704
 33
0.0
 14
-417.5782243612455
 24
-380.4901126334705
 34
0.0
100
AcDbRotatedDimension
1001
ACAD
1000
DSTYLE
1002
{
1070
   279
1070
     2
1070
   340
1005
3A
1070
   147
1040
5.0
1002
}
  0
DIMENSION
  5
1AA
330
A
100
AcDbEntity
  8
notes
  6
Continuous
 62
     7
370
     5
390
1D
100
AcDbDimension
  2
*D20
 10
-40.52835244880407
 20
766.5506821421067
 30
0.0
 11
-40.52835244880407
 21
636.5506821421067
 31
0.0
 70
    32
 71
     5
 42
0.0
 73
     0
 74
     0
 75
     0
  3
tfrom線あり
100
AcDbAlignedDimension
 13
-218.9580872852891
 23
506.5506821421067
 33
0.0
 14
-182.4248712926749
 24
766.5506821421067
 34
0.0
 50
90.0
100
AcDbRotatedDimension
1001
ACAD
1000
DSTYLE
1002
{
1070
   279
1070
     2
1070
   340
1005
3A
1070
   147
1040
5.0
1002
}
  0
DIMENSION
  5
1AB
330
A
100
AcDbEntity
  8
notes
  6
Continuous
 62
     7
370
     5
390
1D
100
AcDbDimension
  2
*D21
 10
-103.5283524488041
 20
-263.9025765539769
 30
0.0
 11
-103.5283524488041
 21
-226.4025765539769
 31
0.0
 70
    32
 71
     5
 42
0.0
 73
     0
 74
     0
 75
     0
  3
tfrom線あり
100
AcDbAlignedDimension
 13
-182.5782243612455
 23
-188.9025765539769
 33
0.0
 14
-222.7054262488307
 24
-263.9025765539769
 34
0.0
 50
90.0
100
AcDbRotatedDimension
1001
ACAD
1000
DSTYLE
1002
{
1070
   279
1070
     2
1070
   340
1005
3A
1070
   147
1040
5.0
1002
}
  0
DIMENSION
  5
1AC
330
A
100
AcDbEntity
  8
notes
  6
Continuous
 62
     7
370
     5
390
1D
100
AcDbDimension
  2
*D22
 10
-103.5283524488041
 20
686.5506821421064
 30
0.0
 11
-103.5283524488041
 21
726.5506821421066
 31
0.0
 70
    32
 71
     5
 42
0.0
 73
     0
 74
     0
 75
     0
  3
tfrom線あり
100
AcDbAlignedDimension
 13
-182.4248712926749
 23
766.5506821421067
 33
0.0
 14
-177.4248712926686
 24
686.5506821421064
 34
0.0
 50
90.0
100
AcDbRotatedDimension
1001
ACAD
1000
DSTYLE
1002
{
1070
   279
1070
     2
1070
   340
1005
3A
1070
   147
1040
5.0
1002
}
  0
DIMENSION
  5
1AD
330
A
100
AcDbEntity
  8
notes
  6
Continuous
 62
     7
370
     5
390
1D
100
AcDbDimension
  2
*D23
 10
322.886426191566
 20
-213.9032680931277
 30
0.0
 11
322.886426191566
 21
-231.4028228954427
 31
0.0
 70
    32
 71
     5
 42
0.0
 73
     0
 74
     0
 75
     0
  3
tfrom線あり
100
AcDbAlignedDimension
 13
387.5783604364823
 23
-248.9023776977577
 33
0.0
 14
387.5783604364823
 24
-213.9032680931277
 34
0.0
 50
90.0
100
AcDbRotatedDimension
1001
ACAD
1000
DSTYLE
1002
{
1070
   279
1070
     2
1070
   340
1005
3A
1070
   147
1040
5.0
1002
}
  0
ARC
  5
1AE
330
A
100
AcDbEntity
  8
FAA70-2225
  6
Continuous
 62
     7
370
    15
390
1D
100
AcDbCircle
 10
-377.4248712926668
 20
2365.258923127688
 30
0.0
 40
1829.331073695405
100
AcDbArc
 50
264.8734890611111
 51
275.1265109388888
  0
LINE
  5
1AF
330
A
100
AcDbEntity
  8
FAA70-2225
  6
Continuous
 62
     7
370
    15
390
1D
100
AcDbLine
 10
-540.424871292675
 20
731.5506821421064
 30
0.0
 11
-214.4248712926749
 21
731.5506821421064
 31
0.0
  0
LINE
  5
1B0
330
A
100
AcDbEntity
  8
FAA70-2225
  6
Continuous
 62
     7
370
    15
390
1D
100
AcDbLine
 10
-567.424871292675
 20
736.5506821421064
 30
0.0
 11
-187.4248712926749
 21
736.5506821421064
 31
0.0
  0
ARC
  5
1B1
330
A
100
AcDbEntity
  8
FAA70-2225
  6
Continuous
 62
     7
370
    15
390
1D
100
AcDbCircle
 10
-567.424871292675
 20
741.5506821421064
 30
0.0
 40
5.0
100
AcDbArc
 50
180.0
 51
270.0
  0
ARC
  5
1B2
330
A
100
AcDbEntity
  8
FAA70-2225
  6
Continuous
 62
     7
370
    15
390
1D
100
AcDbCircle
 10
-540.424871292675
 20
724.5506821421064
 30
0.0
 40
7.0
100
AcDbArc
 50
90.0
 51
180.0
  0
LINE
  5
1B3
330
A
100
AcDbEntity
  8
FAA70-2225
  6
Continuous
 62
     7
370
    15
390
1D
100
AcDbLine
 10
-547.424871292675
 20
724.5506821421064
 30
0.0
 11
-547.424871292675
 21
550.2303482592419
 31
0.0
  0
ARC
  5
1B4
330
A
100
AcDbEntity
  8
FAA70-2225
  6
Continuous
 62
     7
370
    15
390
1D
100
AcDbCircle
 10
-540.4248712926686
 20
550.2303482592419
 30
0.0
 40
7.0
100
AcDbArc
 50
180.0
 51
266.2307523022199
  0
LINE
  5
1B5
330
A
100
AcDbEntity
  8
FAA70-2225
  6
Continuous
 62
     7
370
    15
390
1D
100
AcDbLine
 10
-547.1629795347707
 20
731.5506821421064
 30
0.0
 11
-571.6815985608613
 21
731.5506821421064
 31
0.0
  0
CIRCLE
  5
1B6
330
A
100
AcDbEntity
  8
FAA70-2225
  6
Continuous
 62
     7
370
    15
390
1D
100
AcDbCircle
 10
-417.4248712926683
 20
661.550682142106
 30
0.0
 40
37.5
  0
CIRCLE
  5
1B7
330
A
100
AcDbEntity
  8
FAA70-2225
  6
Continuous
 62
     7
370
    15
390
1D
100
AcDbCircle
 10
-417.4248712926683
 20
661.550682142106
 30
0.0
 40
26.0
  0
LINE
  5
1B8
330
A
100
AcDbEntity
  8
FAA70-2225
  6
Continuous
 62
     7
370
    15
390
1D
100
AcDbLine
 10
-572.424871292675
 20
766.5506821421064
 30
0.0
 11
-572.424871292675
 21
741.5506821421064
 31
0.0
  0
ARC
  5
1B9
330
A
100
AcDbEntity
  8
FAA70-2225
  6
Continuous
 62
     7
370
    15
390
1D
100
AcDbCircle
 10
-214.4248712926749
 20
724.5506821421064
 30
0.0
 40
7.0
100
AcDbArc
 50
0.0
 51
90.0
  0
LINE
  5
1BA
330
A
100
AcDbEntity
  8
FAA70-2225
  6
Continuous
 62
     7
370
    15
390
1D
100
AcDbLine
 10
-207.4248712926749
 20
724.5506821421064
 30
0.0
 11
-207.4248712926749
 21
550.2303482592419
 31
0.0
  0
ARC
  5
1BB
330
A
100
AcDbEntity
  8
FAA70-2225
  6
Continuous
 62
     7
370
    15
390
1D
100
AcDbCircle
 10
-214.4248712926686
 20
550.2303482592419
 30
0.0
 40
6.99999999999986
100
AcDbArc
 50
273.7692476977727
 51
0.0
  0
LINE
  5
1BC
330
A
100
AcDbEntity
  8
FAA70-2225
  6
Continuous
 62
     7
370
    15
390
1D
100
AcDbLine
 10
-207.6867630505793
 20
731.5506821421064
 30
0.0
 11
-183.9074485413637
 21
731.5506821421064
 31
0.0
  0
LINE
  5
1BD
330
A
100
AcDbEntity
  8
FAA70-2225
  6
Continuous
 62
     7
370
    15
390
1D
100
AcDbLine
 10
-182.4248712926749
 20
766.5506821421064
 30
0.0
 11
-182.4248712926749
 21
741.5506821421064
 31
0.0
  0
ARC
  5
1BE
330
A
100
AcDbEntity
  8
FAA70-2225
  6
Continuous
 62
     7
370
    15
390
1D
100
AcDbCircle
 10
-187.4248712926749
 20
741.5506821421064
 30
0.0
 40
5.0
100
AcDbArc
 50
270.0
 51
0.0
  0
CIRCLE
  5
1BF
330
A
100
AcDbEntity
  8
FAA70-2225
  6
Continuous
 62
     7
370
    15
390
1D
100
AcDbCircle
 10
-242.4248712926686
 20
686.5506821421064
 30
0.0
 40
17.5
  0
ARC
  5
1C0
330
A
100
AcDbEntity
  8
FAA70-2225
  6
Continuous
 62
     7
370
    15
390
1D
100
AcDbCircle
 10
-294.4248712926749
 20
724.5506821421064
 30
0.0
 40
7.0
100
AcDbArc
 50
0.0
 51
90.0
  0
LINE
  5
1C1
330
A
100
AcDbEntity
  8
FAA70-2225
  6
Continuous
 62
     7
370
    15
390
1D
100
AcDbLine
 10
-287.4248712926749
 20
724.5506821421064
 30
0.0
 11
-287.4248712926686
 21
544.8175646983779
 31
0.0
  0
ARC
  5
1C2
330
A
100
AcDbEntity
  8
FAA70-2225
  6
Continuous
 62
     7
370
    15
390
1D
100
AcDbCircle
 10
-294.4248712926686
 20
544.8175646983779
 30
0.0
 40
6.99999999999986
100
AcDbArc
 50
273.7692476977727
 51
0.0
  0
SPLINE
  5
1C3
330
A
100
AcDbEntity
  8
FAA70-2225
  6
Continuous
 62
     7
370
    15
390
1D
100
AcDbSpline
210
0.0
220
0.0
230
1.0
 70
    11
 71
     2
 72
    28
 73
    25
 74
     0
 42
0.000000001
 43
0.000001
 40
0.0
 40
0.0
 40
0.0
 40
1.0
 40
2.0
 40
3.0
 40
4.0
 40
5.0
 40
5.0
 40
6.0
 40
7.0
 40
8.0
 40
9.0
 40
10.0
 40
10.0
 40
11.0
 40
12.0
 40
13.0
 40
14.0
 40
15.0
 40
15.0
 40
16.0
 40
17.0
 40
18.0
 40
19.0
 40
20.0
 40
20.0
 40
20.0
 10
-427.42475506785
 20
721.6017573289522
 30
0.0
 10
-427.389548002697
 20
721.0284979923723
 30
0.0
 10
-426.6942697217053
 20
720.2270260128129
 30
0.0
 10
-425.7469379606908
 20
719.6062554794081
 30
0.0
 10
-423.6323059533498
 20
718.7370587418499
 30
0.0
 10
-419.7391497566292
 20
718.0484844428246
 30
0.0
 10
-417.4311987129254
 20
718.0520558581064
 30
0.0
 10
-415.1216999335471
 20
718.0377501422528
 30
0.0
 10
-411.2201481483383
 20
718.7014529026698
 30
0.0
 10
-409.1098575026327
 20
719.5759771689246
 30
0.0
 10
-408.1602725074909
 20
720.1932954479117
 30
0.0
 10
-407.4620815971624
 20
720.9922314120369
 30
0.0
 10
-407.424788189195
 20
721.5653588028803
 30
0.0
 10
-407.4599952543479
 20
722.1386181394602
 30
0.0
 10
-408.1552735353396
 20
722.9400901190196
 30
0.0
 10
-409.1026052963542
 20
723.5608606524244
 30
0.0
 10
-411.2172373036952
 20
724.4300573899826
 30
0.0
 10
-415.110393500416
 20
725.1186316890079
 30
0.0
 10
-417.4183445441197
 20
725.115060273726
 30
0.0
 10
-419.7278433234979
 20
725.1293659895797
 30
0.0
 10
-423.6293951087069
 20
724.4656632291627
 30
0.0
 10
-425.7396857544123
 20
723.5911389629078
 30
0.0
 10
-426.6892707495543
 20
722.9738206839207
 30
0.0
 10
-427.3874616598826
 20
722.1748847197956
 30
0.0
 10
-427.42475506785
 20
721.6017573289522
 30
0.0
  0
LWPOLYLINE
  5
1C4
330
A
100
AcDbEntity
  8
FAA70-2225
  6
Continuous
 62
     7
370
    15
390
1D
100
AcDbPolyline
 90
        8
 70
   129
 43
0.0
 10
-177.4248712926747
 20
761.5506821421067
 42
0.4142135623731101
 10
-182.4248712926749
 20
766.5506821421064
 10
-572.424871292675
 20
766.5506821421064
 42
0.414213562373095
 10
-577.424871292675
 20
761.5506821421064
 10
-577.4248712926686
 20
560.2412048625522
 42
0.395043131869971
 10
-533.5195842346087
 20
513.3432011544306
 42
0.0479722214345348
 10
-221.3301583507248
 20
513.3432011544311
 42
0.3950431318699454
 10
-177.4248712926686
 20
560.2412048625512
  0
LINE
  5
1C5
330
A
100
AcDbEntity
  8
FAA70-2225
  6
Continuous
 62
     7
370
    15
390
1D
100
AcDbLine
 10
-567.424871292675
 20
-188.9025765539769
 30
0.0
 11
-187.4248712926749
 21
-188.9025765539769
 31
0.0
  0
SPLINE
  5
1C6
330
A
100
AcDbEntity
  8
FAA70-2225
  6
STYLE_12
 62
     7
370
    15
390
1D
100
AcDbSpline
210
0.0
220
0.0
230
1.0
 70
    12
 71
     2
 72
   116
 73
   113
 74
     0
 42
0.000000001
 43
0.000001
 40
0.0
 40
0.0
 40
0.0
 40
1.0
 40
1.0
 40
2.0
 40
2.0
 40
3.0
 40
3.0
 40
4.0
 40
4.0
 40
5.0
 40
5.0
 40
6.0
 40
6.0
 40
7.0
 40
7.0
 40
8.0
 40
8.0
 40
9.0
 40
9.0
 40
10.0
 40
10.0
 40
11.0
 40
11.0
 40
12.0
 40
12.0
 40
13.0
 40
13.0
 40
14.0
 40
14.0
 40
15.0
 40
15.0
 40
16.0
 40
16.0
 40
17.0
 40
17.0
 40
18.0
 40
18.0
 40
19.0
 40
19.0
 40
20.0
 40
20.0
 40
21.0
 40
21.0
 40
22.0
 40
22.0
 40
23.0
 40
23.0
 40
24.0
 40
24.0
 40
25.0
 40
25.0
 40
26.0
 40
26.0
 40
27.0
 40
27.0
 40
28.0
 40
28.0
 40
29.0
 40
29.0
 40
30.0
 40
30.0
 40
31.0
 40
31.0
 40
32.0
 40
32.0
 40
33.0
 40
33.0
 40
34.0
 40
34.0
 40
35.0
 40
35.0
 40
36.0
 40
36.0
 40
37.0
 40
37.0
 40
38.0
 40
38.0
 40
39.0
 40
39.0
 40
40.0
 40
40.0
 40
41.0
 40
41.0
 40
42.0
 40
42.0
 40
43.0
 40
43.0
 40
44.0
 40
44.0
 40
45.0
 40
45.0
 40
46.0
 40
46.0
 40
47.0
 40
47.0
 40
48.0
 40
48.0
 40
49.0
 40
49.0
 40
50.0
 40
50.0
 40
51.0
 40
51.0
 40
52.0
 40
52.0
 40
53.0
 40
53.0
 40
54.0
 40
54.0
 40
55.0
 40
55.0
 40
56.0
 40
56.0
 40
56.0
 10
-541.6186753632804
 20
-217.005190419522
 30
0.0
 41
1.0
 10
-541.5289475888366
 20
-217.6327489827823
 30
0.0
 41
1.0
 10
-541.394336158685
 20
-218.5737707216626
 30
0.0
 41
1.0
 10
-541.2597247284957
 20
-219.514792460806
 30
0.0
 41
0.9999999053644517
 10
-541.1242955376908
 20
-220.4556968575639
 30
0.0
 41
1.0
 10
-541.0566865105892
 20
-220.9254156123065
 30
0.0
 41
1.0
 10
-540.9890774834874
 20
-221.3951343670491
 30
0.0
 41
1.0
 10
-540.7184302384454
 20
-223.2754762735283
 30
0.0
 41
0.9999959271006444
 10
-540.4370541505857
 20
-225.1542426543737
 30
0.0
 41
1.0
 10
-540.3898240877189
 20
-225.4696008461595
 30
0.0
 41
1.0
 10
-540.3425940248521
 20
-225.7849590379452
 30
0.0
 41
1.0
 10
-539.9694375850696
 20
-228.2765487788913
 30
0.0
 41
0.9999863859524649
 10
-539.5702994053712
 20
-230.7641086031542
 30
0.0
 41
1.0
 10
-539.569302750949
 20
-230.7703200798445
 30
0.0
 41
1.0
 10
-539.5683060965267
 20
-230.7765315565348
 30
0.0
 41
1.0
 10
-539.1711612256743
 20
-233.2516684274074
 30
0.0
 41
0.9999712029906387
 10
-538.7364954675382
 20
-235.7204924909487
 30
0.0
 41
1.0
 10
-538.7351460914387
 20
-235.7281567067819
 30
0.0
 41
1.0
 10
-538.7337967153389
 20
-235.7358209226151
 30
0.0
 41
1.0
 10
-538.3018297094026
 20
-238.189316554488
 30
0.0
 41
0.999949598216914
 10
-537.8206862200533
 20
-240.6336441210125
 30
0.0
 41
1.0
 10
-537.81896636058
 20
-240.6423814312202
 30
0.0
 41
1.0
 10
-537.8172465011069
 20
-240.651118741428
 30
0.0
 41
1.0
 10
-537.3395427307033
 20
-243.0779716875401
 30
0.0
 41
0.999920951370504
 10
-536.8009671198635
 20
-245.4920455111253
 30
0.0
 41
1.0
 10
-536.7325145700044
 20
-245.7988724550989
 30
0.0
 41
1.0
 10
-536.6640620201451
 20
-246.1056993990725
 30
0.0
 41
1.0
 10
-536.2623915090222
 20
-247.9061193347171
 30
0.0
 41
0.99988271969268
 10
-535.8057693020545
 20
-249.693393041871
 30
0.0
 41
1.0
 10
-535.8038750378386
 20
-249.7008074176415
 30
0.0
 41
1.0
 10
-535.8019807736225
 20
-249.7082217934121
 30
0.0
 41
1.0
 10
-535.3491470950856
 20
-251.4806667490299
 30
0.0
 41
0.9999635429492134
 10
-534.8661111028281
 20
-253.2451201180073
 30
0.0
 41
1.0
 10
-534.3830751105701
 20
-255.0095734869866
 30
0.0
 41
0.999814339103311
 10
-533.832412573637
 20
-256.7541050090686
 30
0.0
 41
1.0
 10
-533.7401203559185
 20
-257.0464922194816
 30
0.0
 41
1.0
 10
-533.6478281382
 20
-257.3388794298946
 30
0.0
 41
1.0
 10
-532.9227210164901
 20
-259.6360617255242
 30
0.0
 41
0.9997549432280208
 10
-532.0966433545872
 20
-261.8988967910594
 30
0.0
 41
1.0
 10
-532.0943944130884
 20
-261.9050572090425
 30
0.0
 41
1.0
 10
-532.0921454715896
 20
-261.9112176270256
 30
0.0
 41
1.0
 10
-531.2705656926853
 20
-264.1617318565917
 30
0.0
 41
0.9996875731815194
 10
-530.3375438900874
 20
-266.368375902755
 30
0.0
 41
1.0
 10
-530.3360943911197
 20
-266.371804041581
 30
0.0
 41
1.0
 10
-530.334644892152
 20
-266.375232180407
 30
0.0
 41
1.0
 10
-529.4045220874897
 20
-268.5750199489179
 30
0.0
 41
0.9996130105633403
 10
-528.3534997148621
 20
-270.7196753129501
 30
0.0
 41
1.0
 10
-527.3024045833628
 20
-272.8644791445208
 30
0.0
 41
0.9995336645062047
 10
-526.1223428341949
 20
-274.9411203555953
 30
0.0
 41
1.0
 10
-524.9422083261551
 20
-277.0179100342087
 30
0.0
 41
0.9994560876143971
 10
-523.6277396729708
 20
-279.0123886593277
 30
0.0
 41
1.0
 10
-523.6253341672078
 20
-279.0160385978907
 30
0.0
 41
1.0
 10
-523.6229286614447
 20
-279.0196885364536
 30
0.0
 41
1.0
 10
-522.3036489967341
 20
-281.021467038699
 30
0.0
 41
0.9993789772386
 10
-520.8466590198763
 20
-282.9253567973543
 30
0.0
 41
1.0
 10
-520.8423631618484
 20
-282.9309703157955
 30
0.0
 41
1.0
 10
-520.8380673038206
 20
-282.9365838342368
 30
0.0
 41
1.0
 10
-519.3724856109071
 20
-284.8517006297743
 30
0.0
 41
0.9994268292467791
 10
-517.780673205589
 20
-286.6632566751183
 30
0.0
 41
1.0
 10
-517.7734470306012
 20
-286.6714803960416
 30
0.0
 41
1.0
 10
-517.7662208556136
 20
-286.679704116965
 30
0.0
 41
1.0
 10
-516.1599561003189
 20
-288.5077076041567
 30
0.0
 41
0.9994954972594099
 10
-514.4408727164309
 20
-290.2300419307378
 30
0.0
 41
1.0
 10
-514.4306790773568
 20
-290.2402548469086
 30
0.0
 41
1.0
 10
-514.4204854382825
 20
-290.2504677630794
 30
0.0
 41
1.0
 10
-512.6810147762461
 20
-291.993227922002
 30
0.0
 41
0.9995528607903833
 10
-510.8404801129047
 20
-293.6288939357876
 30
0.0
 41
1.0
 10
-510.8295753791917
 20
-293.6385848710788
 30
0.0
 41
1.0
 10
-510.8186706454786
 20
-293.6482758063702
 30
0.0
 41
1.0
 10
-508.9563265147119
 20
-295.3033236907373
 30
0.0
 41
0.9996015853936115
 10
-507.0035583392137
 20
-296.8506457689455
 30
0.0
 41
1.0
 10
-506.9924926238111
 20
-296.8594139504266
 30
0.0
 41
1.0
 10
-506.9814269084087
 20
-296.8681821319079
 30
0.0
 41
1.0
 10
-505.0065273021049
 20
-298.4330405730789
 30
0.0
 41
0.9996422628167044
 10
-502.9507758322335
 20
-299.8900568015418
 30
0.0
 41
1.0
 10
-502.9400773908575
 20
-299.8976393342227
 30
0.0
 41
1.0
 10
-502.9293789494814
 20
-299.9052218669037
 30
0.0
 41
1.0
 10
-500.8522305968587
 20
-301.377403160728
 30
0.0
 41
0.9996756714295147
 10
-498.7028176914826
 20
-302.7419130371641
 30
0.0
 41
1.0
 10
-498.6929753355555
 20
-302.7481612511932
 30
0.0
 41
1.0
 10
-498.6831329796285
 20
-302.7544094652224
 30
0.0
 41
1.0
 10
-496.514035362398
 20
-304.1314157697168
 30
0.0
 41
0.9997026138192601
 10
-494.280377829883
 20
-305.4010239230969
 30
0.0
 41
1.0
 10
-494.2718305938271
 20
-305.4058821614021
 30
0.0
 41
1.0
 10
-494.2632833577712
 20
-305.4107403997075
 30
0.0
 41
1.0
 10
-492.0125313531437
 20
-306.6900650296988
 30
0.0
 41
0.9997238286031523
 10
-489.7041528273334
 20
-307.8622188919604
 30
0.0
 41
1.0
 10
-489.6972854832647
 20
-307.8657060080393
 30
0.0
 41
1.0
 10
-489.6904181391961
 20
-307.8691931241182
 30
0.0
 41
1.0
 10
-487.3683049252473
 20
-309.0483212185383
 30
0.0
 41
0.9997399482680241
 10
-484.9948424925477
 20
-310.1203421707626
 30
0.0
 41
1.0
 10
-484.9899807302156
 20
-310.1225380812657
 30
0.0
 41
1.0
 10
-484.9851189678835
 20
-310.1247339917688
 30
0.0
 41
1.0
 10
-482.6019330105194
 20
-311.2011467649995
 30
0.0
 41
0.9997514521123144
 10
-480.1731323802285
 20
-312.1702531905538
 30
0.0
 41
1.0
 10
-480.1705540169305
 20
-312.1712819734058
 30
0.0
 41
1.0
 10
-480.1679756536324
 20
-312.172310756258
 30
0.0
 41
1.0
 10
-477.7339068581153
 20
-313.1435192122166
 30
0.0
 41
0.9997587599325448
 10
-475.2595334007918
 20
-314.0068921095927
 30
0.0
 41
1.0
 10
-475.2570094283487
 20
-314.0077727945516
 30
0.0
 41
1.0
 10
-475.2544854559058
 20
-314.0086534795104
 30
0.0
 41
1.0
 10
-472.7850485048356
 20
-314.8703094716702
 30
0.0
 41
0.9997619601763312
 10
-470.2803723849755
 20
-315.6234146693255
 30
0.0
 41
1.0
 10
-467.7756962651145
 20
-316.376519866981
 30
0.0
 41
0.9997623190721221
 10
-465.240571277528
 20
-317.0197237238193
 30
0.0
 41
1.0
 10
-464.9328918948572
 20
-317.0977871591814
 30
0.0
 41
1.0
 10
-464.6252125121865
 20
-317.1758505945436
 30
0.0
 41
1.0
 10
-461.4747287592583
 20
-317.9751813221063
 30
0.0
 41
0.9994457908642925
 10
-458.2780399446268
 20
-318.5631082834702
 30
0.0
 41
1.0
 10
-457.9623782094162
 20
-318.6211639953531
 30
0.0
 41
1.0
 10
-457.6467164742056
 20
-318.6792197072359
 30
0.0
 41
1.0
 10
-457.0126565736412
 20
-318.7958344083463
 30
0.0
 41
0.9999836517719134
 10
-456.3773045382844
 20
-318.905190419522
 30
0.0
 41
1.0
  0
LWPOLYLINE
  5
1C7
330
A
100
AcDbEntity
  8
FAA70-2225
  6
STYLE_12
 62
     7
370
    15
390
1D
100
AcDbPolyline
 90
       66
 70
   128
 43
0.0
 10
-276.9922399376094
 20
-224.6176917808067
 42
-0.0002897923082944
 10
-277.1887535940578
 20
-225.8650280159372
 10
-277.2379860600504
 20
-226.1763487010207
 42
-0.0007764314237927
 10
-277.5365905090269
 20
-228.0457487180122
 10
-277.6868373245889
 20
-228.9770749702646
 42
-0.002628652540134
 10
-278.3084393838848
 20
-232.7053958254759
 10
-278.4161945602434
 20
-233.3313967303383
 42
-0.003918187745285
 10
-279.3030191714195
 20
-238.2523985981059
 10
-279.3058841196312
 20
-238.2676122219428
 42
-0.0052212054476135
 10
-280.2764346158245
 20
-243.1411020813281
 10
-280.4060635727719
 20
-243.7582992019591
 42
-0.0066338571233884
 10
-281.2162560228263
 20
-247.376509781721
 10
-281.3609546807751
 20
-247.9847534952198
 42
-0.0038457896973566
 10
-281.9481132069459
 20
-250.3712105297797
 42
-0.0040927246192612
 10
-282.5730833349984
 20
-252.7480355741812
 10
-282.731268619853
 20
-253.330211971545
 42
-0.0094052858592387
 10
-283.7582228189564
 20
-256.8469547591394
 10
-283.9415023964557
 20
-257.4333597221578
 42
-0.0109142848072322
 10
-285.4806479102093
 20
-262.0049495979678
 10
-285.4852537003491
 20
-262.0177022992549
 42
-0.0124231626834167
 10
-287.2260517249916
 20
-266.4869263143397
 10
-287.2291507601273
 20
-266.4943330451168
 42
-0.0139199367704878
 10
-289.196116243099
 20
-270.8507138052087
 42
-0.0153684929944869
 10
-291.4144040453826
 20
-275.083896753095
 42
-0.0166779563387256
 10
-293.8989016236491
 20
-279.1657568296339
 10
-293.903663393822
 20
-279.1730229129121
 42
-0.0179022218371037
 10
-296.6740698191888
 20
-283.0872947526603
 10
-296.6833673309559
 20
-283.0994813979968
 42
-0.017203031630844
 10
-299.7410786927707
 20
-286.8336669129047
 10
-299.7557205291701
 20
-286.8503432148203
 42
-0.016126888189451
 10
-303.0859198276016
 20
-290.4052069333776
 10
-303.1049710994296
 20
-290.4242722376175
 42
-0.0151938605466468
 10
-306.6905905363083
 20
-293.8008431559959
 10
-306.7101051640091
 20
-293.8181320471683
 42
-0.0143747281957821
 10
-310.5291810156327
 20
-297.0104777383087
 10
-310.5479484057578
 20
-297.0252700825657
 42
-0.0136736197347652
 10
-314.5784643429192
 20
-300.027137318725
 10
-314.595351765064
 20
-300.0390110178034
 42
-0.0130908489800104
 10
-318.8151994955308
 20
-302.8438798400642
 10
-318.8291832132268
 20
-302.8526556766714
 42
-0.0126248338495227
 10
-323.2161353837527
 20
-305.4537877142944
 10
-323.2263246014421
 20
-305.4594865060861
 42
-0.0122738787982518
 10
-327.7580332313717
 20
-307.8499693388114
 10
-327.7636532163961
 20
-307.8527597714998
 42
-0.0120329414467475
 10
-332.4180984753667
 20
-310.0257546492994
 10
-332.4231996737709
 20
-310.027988334489
 42
-0.0119095183264985
 10
-337.1665534798395
 20
-311.9717089222266
 10
-337.1775500124072
 20
-311.9759120614219
 42
-0.0118961108024201
 10
-341.9858553524985
 20
-313.6838117672072
 10
-342.0029089548172
 20
-313.6894160017393
 42
-0.0119979719346823
 10
-346.8529277421961
 20
-315.1552932461723
 10
-346.8761054682716
 20
-315.1616958249265
 42
-0.0122190933389246
 10
-351.7447112346281
 20
-316.3793727140107
 42
-0.0125961955021736
 10
-356.6676366500815
 20
-317.3540119967797
 10
-357.2110219899183
 20
-317.4474338902251
 42
-0.0162141793345231
 10
-362.1838627376249
 20
-318.1372425624813
 10
-363.2316994411705
 20
-318.248106066623
 42
-0.0088264376991224
 10
-366.1357528526424
 20
-318.5036153734291
 10
-366.1391849361845
 20
-318.5038563755613
 42
-0.0038821971548447
 10
-369.042292069009
 20
-318.6850735826951
 42
-0.0063604418527884
 10
-371.9483545458399
 20
-318.8067804031923
 10
-372.9167147095944
 20
-318.8350017037062
 42
-0.0044684827879182
 10
-375.8386868517539
 20
-318.894028425363
 10
-376.3227070163234
 20
-318.8994793684501
 42
-0.0015362083651128
 10
-378.2772155358701
 20
-318.9154850392096
 42
-0.0003048866111125
 10
-378.7668746991788
 20
-318.9176917808068
 42
-0.0003048866111125
  0
LINE
  5
1C8
330
A
100
AcDbEntity
  8
FAA70-2225
  6
STYLE_12
 62
     7
370
    15
390
1D
100
AcDbLine
 10
-270.8871972063974
 20
-219.9657396926504
 30
0.0
 11
-218.7720966887333
 21
-219.9657396926504
 31
0.0
  0
LINE
  5
1C9
330
A
100
AcDbEntity
  8
FAA70-2225
  6
STYLE_12
 62
     7
370
    15
390
1D
100
AcDbLine
 10
-215.2365627828006
 20
-218.5012735985832
 30
0.0
 11
-210.6378657381941
 21
-213.9025765539766
 31
0.0
  0
ARC
  5
1CA
330
A
100
AcDbEntity
  8
FAA70-2225
  6
STYLE_12
 62
     7
370
    15
390
1D
100
AcDbCircle
 10
-218.7720966887333
 20
-214.9657396926504
 30
0.0
 40
5.0
100
AcDbArc
 50
270.0
 51
314.9999999999991
  0
LINE
  5
1CB
330
A
100
AcDbEntity
  8
FAA70-2225
  6
STYLE_12
 62
     7
370
    15
390
1D
100
AcDbLine
 10
-439.7646392918012
 20
-335.5427241234212
 30
0.0
 11
-456.3773045382848
 21
-318.9300588769376
 31
0.0
  0
LINE
  5
1CC
330
A
100
AcDbEntity
  8
FAA70-2225
  6
STYLE_12
 62
     7
370
    15
390
1D
100
AcDbLine
 10
-395.3918094306899
 20
-335.5427241234212
 30
0.0
 11
-378.7668746991788
 21
-318.9177893919099
 31
0.0
  0
LINE
  5
1CD
330
A
100
AcDbEntity
  8
FAA70-2225
  6
STYLE_12
 62
     7
370
    15
390
1D
100
AcDbLine
 10
-242.5782243612455
 20
-284.0720148695867
 30
0.0
 11
-242.5782243612455
 21
-244.0720148695867
 31
0.0
  0
LINE
  5
1CE
330
A
100
AcDbEntity
  8
FAA70-2225
  6
STYLE_12
 62
     7
370
    15
390
1D
100
AcDbLine
 10
-262.7054262488307
 20
-263.9025765539769
 30
0.0
 11
-222.7054262488307
 21
-263.9025765539769
 31
0.0
  0
CIRCLE
  5
1CF
330
A
100
AcDbEntity
  8
FAA70-2225
  6
STYLE_12
 62
     7
370
    15
390
1D
100
AcDbCircle
 10
-242.5782243612455
 20
-263.9025765539769
 30
0.0
 40
10.0
  0
LINE
  5
1D0
330
A
100
AcDbEntity
  8
FAA70-2225
  6
STYLE_12
 62
     7
370
    15
390
1D
100
AcDbLine
 10
-487.5925945949144
 20
-305.6841171643779
 30
0.0
 11
-487.5925945949144
 21
-265.6841171643779
 31
0.0
  0
LINE
  5
1D1
330
A
100
AcDbEntity
  8
FAA70-2225
  6
STYLE_12
 62
     7
370
    15
390
1D
100
AcDbLine
 10
-508.0207092135207
 20
-283.9025765539769
 30
0.0
 11
-468.0207092135207
 21
-283.9025765539769
 31
0.0
  0
LINE
  5
1D2
330
A
100
AcDbEntity
  8
FAA70-2225
  6
STYLE_12
 62
     7
370
    15
390
1D
100
AcDbLine
 10
-456.3773045382844
 20
-318.9300588769376
 30
0.0
 11
-378.7668746991788
 21
-318.9177893919099
 31
0.0
  0
LINE
  5
1D3
330
A
100
AcDbEntity
  8
FAA70-2225
  6
Continuous
 62
     7
370
    15
390
1D
100
AcDbLine
 10
-302.9761316643369
 20
-365.0340150156338
 30
0.0
 11
-313.5313924652167
 21
-343.0135616815295
 31
0.0
  0
ARC
  5
1D4
330
A
100
AcDbEntity
  8
FAA70-2225
  6
STYLE_12
 62
     7
370
    15
390
1D
100
AcDbCircle
 10
-545.0191202468817
 20
-217.2299515604374
 30
0.0
 40
3.407864870688927
100
AcDbArc
 50
3.781611005317888
 51
77.52255784151748
  0
ARC
  5
1D5
330
A
100
AcDbEntity
  8
FAA70-2225
  6
STYLE_12
 62
     7
370
    15
390
1D
100
AcDbCircle
 10
-270.9287858016374
 20
-226.2431479259573
 30
0.0
 40
6.277545996553387
100
AcDbArc
 50
89.62041402556837
 51
164.9933129345994
  0
LINE
  5
1D6
330
A
100
AcDbEntity
  8
FAA70-2225
  6
Continuous
 62
     7
370
    15
390
1D
100
AcDbLine
 10
575.0771277991342
 20
-344.7413643796468
 30
0.0
 11
575.0793521164214
 21
-378.9032680931276
 31
0.0
  0
LINE
  5
1D7
330
A
100
AcDbEntity
  8
FAA70-2225
  6
Continuous
 62
     7
370
    15
390
1D
100
AcDbLine
 10
575.0793521164214
 20
-378.9032680931276
 30
0.0
 11
500.0773687565412
 21
-378.9032680931276
 31
0.0
  0
LINE
  5
1D8
102
{ACAD_REACTORS
330
260
102
}
330
A
100
AcDbEntity
  8
FAA70-2225
  6
Continuous
 62
     7
370
    15
390
1D
100
AcDbLine
 10
500.0773687565412
 20
-378.9032680931276
 30
0.0
 11
500.0773687565412
 21
-344.238540016506
 31
0.0
  0
LINE
  5
1D9
102
{ACAD_REACTORS
330
260
102
}
330
A
100
AcDbEntity
  8
FAA70-2225
  6
Continuous
 62
     7
370
    15
390
1D
100
AcDbLine
 10
387.5783604364823
 20
-213.9032680931277
 30
0.0
 11
606.9988031557399
 21
-213.9032680931277
 31
0.0
  0
LINE
  5
1DA
330
A
100
AcDbEntity
  8
FAA70-2225
  6
Continuous
 62
     7
370
    15
390
1D
100
AcDbLine
 10
642.5783604364811
 20
-188.9022680931277
 30
0.0
 11
642.5783604364811
 21
-358.9042680931276
 31
0.0
  0
LINE
  5
1DB
330
A
100
AcDbEntity
  8
FAA70-2225
  6
Continuous
 62
     7
370
    15
390
1D
100
AcDbLine
 10
642.5783604364811
 20
-188.9022680931277
 30
0.0
 11
626.962329239387
 21
-188.9032680931277
 31
0.0
  0
ARC
  5
1DC
330
A
100
AcDbEntity
  8
FAA70-2225
  6
Continuous
 62
     7
370
    15
390
1D
100
AcDbCircle
 10
626.9623293282476
 20
-193.9032683233546
 30
0.0
 40
5.000000230226989
100
AcDbArc
 50
90.00000101826727
 51
174.4077851953103
  0
ARC
  5
1DD
330
A
100
AcDbEntity
  8
FAA70-2225
  6
Continuous
 62
     7
370
    15
390
1D
100
AcDbCircle
 10
606.4803980445665
 20
-199.0254299715261
 30
0.0
 40
14.88686706570163
100
AcDbArc
 50
271.9956133922538
 51
354.484997139189
  0
LINE
  5
1DE
330
A
100
AcDbEntity
  8
FAA70-2225
  6
Continuous
 62
     7
370
    15
390
1D
100
AcDbLine
 10
382.5783604364824
 20
-218.9022680931277
 30
0.0
 11
382.5783604364824
 21
-243.9033776977576
 31
0.0
  0
ARC
  5
1DF
330
A
100
AcDbEntity
  8
FAA70-2225
  6
Continuous
 62
     7
370
    15
390
1D
100
AcDbCircle
 10
387.5783606072514
 20
-218.9032681638626
 30
0.0
 40
5.000000170769082
100
AcDbArc
 50
90.01146111246244
 51
179.9999991894375
  0
ARC
  5
1E0
330
A
100
AcDbEntity
  8
FAA70-2225
  6
Continuous
 62
     7
370
    15
390
1D
100
AcDbCircle
 10
387.5783606780204
 20
-243.9023774562196
 30
0.0
 40
5.00000034158634
100
AcDbArc
 50
180.0114619230177
 51
269.9885380769757
  0
LINE
  5
1E1
330
A
100
AcDbEntity
  8
FAA70-2225
  6
Continuous
 62
     7
370
    15
390
1D
100
AcDbLine
 10
387.5783604364823
 20
-248.9023776977577
 30
0.0
 11
642.5783604364811
 21
-248.9023776977577
 31
0.0
  0
ARC
  5
1E2
330
A
100
AcDbEntity
  8
FAA70-2225
  6
Continuous
 62
     7
370
    15
390
1D
100
AcDbCircle
 10
569.9607528470058
 20
-197.6320922523235
 30
0.0
 40
183.3178999783787
100
AcDbArc
 50
196.2410859414317
 51
214.0336325095784
  0
LINE
  5
1E3
330
A
100
AcDbEntity
  8
FAA70-2225
  6
Continuous
 62
     7
370
    15
390
1D
100
AcDbLine
 10
506.6705256632123
 20
-344.7413643796468
 30
0.0
 11
642.5783604364811
 21
-344.7413643796468
 31
0.0
  0
LINE
  5
1E4
330
A
100
AcDbEntity
  8
FAA70-2225
  6
Continuous
 62
     7
370
    15
390
1D
100
AcDbLine
 10
575.0783103908816
 20
-366.4448471021351
 30
0.0
 11
613.6339659047422
 21
-366.4440607890781
 31
0.0
  0
LINE
  5
1E5
330
A
100
AcDbEntity
  8
FAA70-2225
  6
STYLE_12
 62
     7
370
    15
390
1D
100
AcDbLine
 10
511.5783604364814
 20
-326.2815177383397
 30
0.0
 11
511.5783604364814
 21
-378.9032680931276
 31
0.0
  0
LINE
  5
1E6
330
A
100
AcDbEntity
  8
FAA70-2225
  6
STYLE_12
 62
     7
370
    15
390
1D
100
AcDbLine
 10
563.5783604364814
 20
-326.2815177383397
 30
0.0
 11
563.5783604364814
 21
-378.9032680931276
 31
0.0
  0
LINE
  5
1E7
330
A
100
AcDbEntity
  8
FAA70-2225
  6
STYLE_12
 62
     7
370
    15
390
1D
100
AcDbLine
 10
595.0956263915633
 20
-318.9239241344237
 30
0.0
 11
482.8588469596268
 21
-318.9239241344237
 31
0.0
  0
SPLINE
  5
1E8
330
A
100
AcDbEntity
  8
FAA70-2225
  6
STYLE_12
 62
     7
370
    15
390
1D
100
AcDbSpline
210
0.0
220
0.0
230
1.0
 70
     8
 71
     2
 72
    10
 73
     7
 74
     0
 42
0.000000001
 43
0.000001
 40
0.0
 40
0.0
 40
0.0
 40
1.0
 40
2.0
 40
3.0
 40
4.0
 40
5.0
 40
5.0
 40
5.0
 10
412.8667712553423
 20
-219.4129982557577
 30
0.0
 10
415.2958708319912
 20
-255.5632297340164
 30
0.0
 10
440.6667988411568
 20
-298.7612993287001
 30
0.0
 10
452.7452551375
 20
-309.9328699763636
 30
0.0
 10
462.6035730889181
 20
-314.8096828021052
 30
0.0
 10
469.3105345354688
 20
-318.3368083174518
 30
0.0
 10
482.8588469596268
 20
-318.9239241344237
 30
0.0
  0
LINE
  5
1E9
330
A
100
AcDbEntity
  8
FAA70-2225
  6
STYLE_12
 62
     7
370
    15
390
1D
100
AcDbLine
 10
621.3075801993199
 20
-200.3617205732377
 30
0.0
 11
610.3416494278663
 21
-305.3834639303209
 31
0.0
  0
ARC
  5
1EA
330
A
100
AcDbEntity
  8
FAA70-2225
  6
STYLE_12
 62
     7
370
    15
390
1D
100
AcDbCircle
 10
595.8524170390664
 20
-304.4085874228142
 30
0.0
 40
14.5219915790341
100
AcDbArc
 50
268.265354114171
 51
356.1507794646324
  0
LINE
  5
1EB
330
A
100
AcDbEntity
  8
FAA70-2225
  6
STYLE_12
 62
     7
370
    15
390
1D
100
AcDbLine
 10
621.9861258486434
 20
-193.4160299506414
 30
0.0
 11
621.3075801993199
 21
-200.3617205732377
 31
0.0
  0
ARC
  5
1EC
330
A
100
AcDbEntity
  8
FAA70-2225
  6
Continuous
 62
     7
370
    15
390
1D
100
AcDbCircle
 10
613.9493045460258
 20
-346.7603994303615
 30
0.0
 40
19.68618711034004
100
AcDbArc
 50
269.0821815369612
 51
1.09674334631103
  0
LINE
  5
1ED
330
A
100
AcDbEntity
  8
FAA70-2225
  6
STYLE_12
 62
     7
370
    15
390
1D
100
AcDbLine
 10
511.5783604364814
 20
-326.2815177383397
 30
0.0
 11
503.8588469596268
 21
-318.5620042614853
 31
0.0
  0
LINE
  5
1EE
330
A
100
AcDbEntity
  8
FAA70-2225
  6
STYLE_12
 62
     7
370
    15
390
1D
100
AcDbLine
 10
563.5783604364814
 20
-326.2815177383397
 30
0.0
 11
570.9359540403973
 21
-318.9239241344237
 31
0.0
  0
ARC
  5
1EF
330
A
100
AcDbEntity
  8
FAA70-2225
  6
STYLE_12
 62
     7
370
    15
390
1D
100
AcDbCircle
 10
407.1079440261695
 20
-219.6620953223004
 30
0.0
 40
5.764212036698674
100
AcDbArc
 50
2.476775045804433
 51
87.52322495419556
  0
LINE
  5
1F0
330
A
100
AcDbEntity
  8
FAA70-2225
  6
Continuous
 62
     7
370
    15
390
1D
100
AcDbLine
 10
-577.424871292675
 20
-218.9025765539784
 30
0.0
 11
-577.424871292675
 21
-243.9025765539769
 31
0.0
  0
LINE
  5
1F1
330
A
100
AcDbEntity
  8
FAA70-2225
  6
Continuous
 62
     7
370
    15
390
1D
100
AcDbLine
 10
-177.4248712926353
 20
-218.9025765539767
 30
0.0
 11
-177.4248712926353
 21
-243.9025765539769
 31
0.0
  0
LINE
  5
1F2
330
A
100
AcDbEntity
  8
FAA70-2225
  6
Continuous
 62
     7
370
    15
390
1D
100
AcDbLine
 10
-572.424871292675
 20
-193.9025765539769
 30
0.0
 11
-572.424871292675
 21
-213.9025765539769
 31
0.0
  0
ARC
  5
1F3
330
A
100
AcDbEntity
  8
FAA70-2225
  6
Continuous
 62
     7
370
    15
390
1D
100
AcDbCircle
 10
-466.9694123026216
 20
-243.0204402903502
 30
0.0
 40
101.7301149773148
100
AcDbArc
 50
187.303775654013
 51
270.0
  0
LINE
  5
1F4
330
A
100
AcDbEntity
  8
FAA70-2225
  6
Continuous
 62
     7
370
    15
390
1D
100
AcDbLine
 10
-553.712472094972
 20
-366.4443844973657
 30
0.0
 11
-568.7777978632224
 21
-248.9025765539769
 31
0.0
  0
SPLINE
  5
1F5
330
A
100
AcDbEntity
  8
FAA70-2225
  6
Continuous
 62
     7
370
    15
390
1D
100
AcDbSpline
210
0.0
220
0.0
230
1.0
 70
     8
 71
     2
 72
     9
 73
     6
 74
     0
 42
0.000000001
 43
0.000001
 40
0.0
 40
0.0
 40
0.0
 40
1.0
 40
2.0
 40
2.0
 40
3.0
 40
3.0
 40
3.0
 10
-339.2385738084341
 20
-344.7413643796468
 30
0.0
 10
-300.6538900983523
 20
-344.7413643796468
 30
0.0
 10
-233.8232575185156
 20
-323.1714543889415
 30
0.0
 10
-214.5309156634748
 20
-304.4913643796468
 30
0.0
 10
-196.0831436445858
 20
-286.6290413722535
 30
0.0
 10
-195.2755469355689
 20
-266.1243781311504
 30
0.0
  0
LINE
  5
1F6
330
A
100
AcDbEntity
  8
FAA70-2225
  6
Continuous
 62
     7
370
    15
390
1D
100
AcDbLine
 10
-195.2998569318068
 20
-266.2457357926215
 30
0.0
 11
-194.3944628012374
 21
-248.9025765539769
 31
0.0
  0
LINE
  5
1F7
330
A
100
AcDbEntity
  8
FAA70-2225
  6
Continuous
 62
     7
370
    15
390
1D
100
AcDbLine
 10
-466.9694123026216
 20
-344.7505552676649
 30
0.0
 11
-339.238573808434
 21
-344.7505552676649
 31
0.0
  0
LINE
  5
1F8
330
A
100
AcDbEntity
  8
FAA70-2225
  6
Continuous
 62
     7
370
    15
390
1D
100
AcDbLine
 10
-553.712472094972
 20
-366.4443844973657
 30
0.0
 11
-521.7588020212178
 21
-366.4443844973657
 31
0.0
  0
LINE
  5
1F9
330
A
100
AcDbEntity
  8
FAA70-2225
  6
Continuous
 62
     7
370
    15
390
1D
100
AcDbLine
 10
-306.0797295790842
 20
-366.4443844973657
 30
0.0
 11
-283.7896124791272
 21
-366.4443844973657
 31
0.0
  0
LINE
  5
1FA
330
A
100
AcDbEntity
  8
FAA70-2225
  6
Continuous
 62
     7
370
    15
390
1D
100
AcDbLine
 10
-455.238573808434
 20
-346.728617307012
 30
0.0
 11
-521.758802021218
 21
-366.4443844973657
 31
0.0
  0
LINE
  5
1FB
330
A
100
AcDbEntity
  8
FAA70-2225
  6
Continuous
 62
     7
370
    15
390
1D
100
AcDbLine
 10
-455.238573808434
 20
-378.3507215744437
 30
0.0
 11
-379.238573808434
 21
-378.3507215744437
 31
0.0
  0
LINE
  5
1FC
330
A
100
AcDbEntity
  8
FAA70-2225
  6
Continuous
 62
     7
370
    15
390
1D
100
AcDbLine
 10
-379.238573808434
 20
-344.7505552676649
 30
0.0
 11
-379.238573808434
 21
-378.3507215744437
 31
0.0
  0
LINE
  5
1FD
330
A
100
AcDbEntity
  8
FAA70-2225
  6
Continuous
 62
     7
370
    15
390
1D
100
AcDbLine
 10
-455.238573808434
 20
-344.7505552676649
 30
0.0
 11
-455.238573808434
 21
-378.3507215744437
 31
0.0
  0
LINE
  5
1FE
330
A
100
AcDbEntity
  8
FAA70-2225
  6
Continuous
 62
     7
370
    15
390
1D
100
AcDbLine
 10
-379.238573808434
 20
-346.0279628519656
 30
0.0
 11
-306.0797295790841
 21
-366.4443844973657
 31
0.0
  0
LINE
  5
1FF
330
A
100
AcDbEntity
  8
FAA70-2225
  6
Continuous
 62
     7
370
    15
390
1D
100
AcDbLine
 10
-283.7896124791272
 20
-366.4443844973657
 30
0.0
 11
-275.2490588244526
 21
-337.0960130482805
 31
0.0
  0
ARC
  5
200
330
A
100
AcDbEntity
  8
FAA70-2225
  6
Continuous
 62
     7
370
    15
390
1D
100
AcDbCircle
 10
-567.424871292675
 20
-193.9025765539769
 30
0.0
 40
5.0
100
AcDbArc
 50
90.0
 51
180.0
  0
ARC
  5
201
330
A
100
AcDbEntity
  8
FAA70-2225
  6
Continuous
 62
     7
370
    15
390
1D
100
AcDbCircle
 10
-187.4248712926749
 20
-193.9025765539769
 30
0.0
 40
5.0
100
AcDbArc
 50
0.0
 51
90.0
  0
LINE
  5
202
330
A
100
AcDbEntity
  8
FAA70-2225
  6
Continuous
 62
     7
370
    15
390
1D
100
AcDbLine
 10
-572.424871292675
 20
-213.9025765539769
 30
0.0
 11
-182.4248712926353
 21
-213.9025765539769
 31
0.0
  0
ARC
  5
203
330
A
100
AcDbEntity
  8
FAA70-2225
  6
Continuous
 62
     7
370
    15
390
1D
100
AcDbCircle
 10
-572.424871292675
 20
-218.902576553977
 30
0.0
 40
5.000000000000057
100
AcDbArc
 50
90.0
 51
180.0000000000169
  0
ARC
  5
204
330
A
100
AcDbEntity
  8
FAA70-2225
  6
Continuous
 62
     7
370
    15
390
1D
100
AcDbCircle
 10
-182.4248712926353
 20
-218.9025765539769
 30
0.0
 40
5.0
100
AcDbArc
 50
0.0000000000019327
 51
90.0
  0
LINE
  5
205
330
A
100
AcDbEntity
  8
FAA70-2225
  6
Continuous
 62
     7
370
    15
390
1D
100
AcDbLine
 10
-572.424871292675
 20
-248.9025765539769
 30
0.0
 11
-182.4248712926353
 21
-248.9025765539769
 31
0.0
  0
ARC
  5
206
330
A
100
AcDbEntity
  8
FAA70-2225
  6
Continuous
 62
     7
370
    15
390
1D
100
AcDbCircle
 10
-572.424871292675
 20
-243.9025765539769
 30
0.0
 40
5.0
100
AcDbArc
 50
180.0
 51
270.0
  0
ARC
  5
207
330
A
100
AcDbEntity
  8
FAA70-2225
  6
Continuous
 62
     7
370
    15
390
1D
100
AcDbCircle
 10
-182.4248712926353
 20
-243.9025765539769
 30
0.0
 40
5.0
100
AcDbArc
 50
270.0
 51
0.0
  0
LINE
  5
208
330
A
100
AcDbEntity
  8
FAA70-2225
  6
Continuous
 62
     7
370
    15
390
1D
100
AcDbLine
 10
-182.4248712926749
 20
-193.9025765539769
 30
0.0
 11
-182.4248712926749
 21
-213.9025765539769
 31
0.0
  0
ARC
  5
209
330
A
100
AcDbEntity
  8
FAA70-2225
  6
Continuous
 62
     7
370
    15
390
1D
100
AcDbCircle
 10
512.6963596064114
 20
-222.2521845307644
 30
0.0
 40
122.6373102068162
100
AcDbArc
 50
219.48319851328
 51
267.1836146139434
  0
LINE
  5
20A
330
A
100
AcDbEntity
  8
FAA70-2225
  6
STYLE_12
 62
     7
370
    15
390
1D
100
AcDbLine
 10
633.631885179888
 20
-346.3835937313174
 30
0.0
 11
633.5316808167273
 21
-344.7413643796468
 31
0.0
  0
LINE
  5
20B
330
A
100
AcDbEntity
  8
FAA70-2225
  6
STYLE_12
 62
     7
370
     5
390
1D
100
AcDbLine
 10
-439.7646392918012
 20
-335.5427241234212
 30
0.0
 11
-439.7646392918012
 21
-378.3507215744437
 31
0.0
  0
LINE
  5
20C
330
A
100
AcDbEntity
  8
FAA70-2225
  6
STYLE_12
 62
     7
370
     5
390
1D
100
AcDbLine
 10
-395.3918094306899
 20
-335.5427241234212
 30
0.0
 11
-395.3918094306899
 21
-378.3507215744437
 31
0.0
  0
DIMENSION
  5
20D
330
A
100
AcDbEntity
  8
FAA70-2225
  6
Continuous
 62
     7
370
     5
390
1D
100
AcDbDimension
  2
*D24
 10
-668.5283524488041
 20
-188.9025765539769
 30
0.0
 11
-668.5283524488041
 21
-236.4025765539769
 31
0.0
 70
    32
 71
     5
 42
0.0
 73
     0
 74
     0
 75
     0
  3
tfrom線あり
100
AcDbAlignedDimension
 13
-508.0207092135207
 23
-283.9025765539769
 33
0.0
 14
-567.424871292675
 24
-188.9025765539769
 34
0.0
 50
90.0
100
AcDbRotatedDimension
1001
ACAD
1000
DSTYLE
1002
{
1070
   279
1070
     2
1070
   340
1005
3A
1070
   147
1040
5.0
1002
}
  0
POLYLINE
  5
20E
330
A
100
AcDbEntity
  8
FAA70-2225
  6
STYLE_12
 62
     7
370
     5
390
1D
100
AcDb2dPolyline
 66
     1
 10
0.0
 20
0.0
 30
0.0
 70
     1
 75
     5
  0
VERTEX
  5
20F
330
20E
100
AcDbEntity
  8
FAA70-2225
  6
STYLE_12
 62
     7
370
     5
390
1D
100
AcDbVertex
100
AcDb2dVertex
 10
-504.9304083692289
 20
-263.6953171323401
 30
0.0
  0
VERTEX
  5
210
330
20E
100
AcDbEntity
  8
FAA70-2225
  6
STYLE_12
 62
     7
370
     5
390
1D
100
AcDbVertex
100
AcDb2dVertex
 10
-469.9304083692289
 20
-263.6953171323401
 30
0.0
  0
VERTEX
  5
211
330
20E
100
AcDbEntity
  8
FAA70-2225
  6
STYLE_12
 62
     7
370
     5
390
1D
100
AcDbVertex
100
AcDb2dVertex
 10
-469.9304083692289
 20
-283.9025765539769
 30
0.0
  0
VERTEX
  5
212
330
20E
100
AcDbEntity
  8
FAA70-2225
  6
STYLE_12
 62
     7
370
     5
390
1D
100
AcDbVertex
100
AcDb2dVertex
 10
-504.9304083692289
 20
-283.9025765539769
 30
0.0
  0
SEQEND
  5
213
330
20E
100
AcDbEntity
  8
FAA70-2225
  6
STYLE_12
 62
     7
370
     5
390
1D
  0
DIMENSION
  5
25E
102
{ACAD_REACTORS
330
260
102
}
102
{ACAD_XDICTIONARY
360
25F
102
}
330
A
100
AcDbEntity
  8
notes
  6
Continuous
370
     0
100
AcDbDimension
  2
*D25
 10
252.7743089372558
 20
-378.9032680931276
 30
0.0
 11
230.5580003435058
 21
-296.4032680931276
 31
0.0
 70
    32
 71
     5
 42
165.0
 73
     0
 74
     0
 75
     0
  3
tfrom線あり
100
AcDbAlignedDimension
 13
387.5783604364823
 23
-213.9032680931277
 33
0.0
 14
500.0773687565412
 24
-378.9032680931276
 34
0.0
 50
90.0
100
AcDbRotatedDimension
1001
ACAD
1000
DSTYLE
1002
{
1070
   147
1040
10.0
1002
}
  0
ENDSEC
  0
SECTION
  2
OBJECTS
  0
DICTIONARY
  5
19
330
0
100
AcDbDictionary
281
     1
  3
ACAD_DETAILVIEWSTYLE
350
276
  3
ACAD_GROUP
350
1A
  3
ACAD_IMAGE_VARS
350
259
  3
ACAD_LAYOUT
350
1E
  3
ACAD_MATERIAL
350
24F
  3
ACAD_MLEADERSTYLE
350
255
  3
ACAD_MLINESTYLE
350
1B
  3
ACAD_PLOTSETTINGS
350
22
  3
ACAD_PLOTSTYLENAME
350
1F
  3
ACAD_SCALELIST
350
214
  3
ACAD_SECTIONVIEWSTYLE
350
277
  3
ACAD_TABLESTYLE
350
253
  3
ACAD_VISUALSTYLE
350
236
  3
ACDB_RECOMPOSE_DATA
350
27F
  3
AcDbVariableDictionary
350
26D
  3
APPDATA
350
257
  0
SUN
  5
258
330
15
100
AcDbSun
 90
        1
290
     0
 63
     7
421
 16777215
 40
1.0
291
     1
 91
  2455826
 92
 54000000
292
     0
 70
     2
 71
   256
280
     1
  0
DICTIONARY
  5
25A
330
2
100
AcDbDictionary
280
     1
281
     1
  3
ACAD_LAYERSTATES
360
25B
  0
DICTIONARY
  5
25F
330
25E
100
AcDbDictionary
280
     1
281
     1
  3
ACAD_DIMASSOC
360
260
  0
DICTIONARY
  5
276
102
{ACAD_REACTORS
330
19
102
}
330
19
100
AcDbDictionary
281
     1
  0
DICTIONARY
  5
1A
102
{ACAD_REACTORS
330
19
102
}
330
19
100
AcDbDictionary
281
     1
  0
RASTERVARIABLES
  5
259
102
{ACAD_REACTORS
330
19
102
}
330
19
100
AcDbRasterVariables
 90
        0
 70
     1
 71
     1
 72
     1
  0
DICTIONARY
  5
1E
102
{ACAD_REACTORS
330
19
102
}
330
19
100
AcDbDictionary
281
     1
  3
Layout1
350
21
  3
Model
350
20
  0
DICTIONARY
  5
24F
102
{ACAD_REACTORS
330
19
102
}
330
19
100
AcDbDictionary
281
     1
  3
ByBlock
350
251
  3
ByLayer
350
250
  3
Global
350
252
  0
DICTIONARY
  5
255
102
{ACAD_REACTORS
330
19
102
}
330
19
100
AcDbDictionary
281
     1
  3
Standard
350
256
  0
DICTIONARY
  5
1B
102
{ACAD_REACTORS
330
19
102
}
330
19
100
AcDbDictionary
281
     1
  3
Standard
350
1C
  0
DICTIONARY
  5
22
102
{ACAD_REACTORS
330
19
102
}
330
19
100
AcDbDictionary
281
     1
  0
ACDBDICTIONARYWDFLT
  5
1F
102
{ACAD_REACTORS
330
19
102
}
330
19
100
AcDbDictionary
281
     1
  3
Normal
350
1D
100
AcDbDictionaryWithDefault
340
1D
  0
DICTIONARY
  5
214
102
{ACAD_REACTORS
330
19
102
}
330
19
100
AcDbDictionary
281
     1
  3
A0
350
215
  3
A1
350
216
  3
A2
350
217
  3
A3
350
218
  3
A4
350
219
  3
A5
350
21A
  3
A6
350
21B
  3
A7
350
21C
  3
A8
350
21D
  3
A9
350
21E
  3
B0
350
21F
  3
B1
350
220
  3
B2
350
221
  3
B3
350
222
  3
B4
350
223
  3
B5
350
224
  3
B6
350
225
  3
B7
350
226
  3
B8
350
227
  3
B9
350
228
  3
C0
350
229
  3
C1
350
22A
  3
C2
350
22B
  3
C3
350
22C
  3
C4
350
22D
  3
C5
350
22E
  3
C6
350
22F
  3
C7
350
230
  3
C8
350
231
  3
C9
350
232
  3
D0
350
233
  3
D1
350
234
  3
D2
350
235
  0
DICTIONARY
  5
277
102
{ACAD_REACTORS
330
19
102
}
330
19
100
AcDbDictionary
281
     1
  0
DICTIONARY
  5
253
102
{ACAD_REACTORS
330
19
102
}
330
19
100
AcDbDictionary
281
     1
  3
Standard
350
254
  0
DICTIONARY
  5
236
102
{ACAD_REACTORS
330
19
102
}
330
19
100
AcDbDictionary
281
     1
  3
2dWireframe
350
23B
  3
Basic
350
23E
  3
Brighten
350
242
  3
ColorChange
350
246
  3
Conceptual
350
240
  3
Dim
350
241
  3
EdgeColorOff
350
249
  3
Facepattern
350
245
  3
Flat
350
237
  3
FlatWithEdges
350
238
  3
Gouraud
350
239
  3
GouraudWithEdges
350
23A
  3
Hidden
350
23D
  3
JitterOff
350
247
  3
Linepattern
350
244
  3
OverhangOff
350
248
  3
Realistic
350
23F
  3
Shaded
350
24E
  3
Shaded with edges
350
24D
  3
Shades of Gray
350
24A
  3
Sketchy
350
24B
  3
Thicken
350
243
  3
Wireframe
350
23C
  3
X-Ray
350
24C
  0
XRECORD
  5
27F
102
{ACAD_REACTORS
330
19
102
}
330
19
100
AcDbXrecord
280
     1
 90
        1
330
254
  0
DICTIONARY
  5
26D
102
{ACAD_REACTORS
330
19
102
}
330
19
100
AcDbDictionary
281
     1
  3
CANNOSCALE
350
26E
  3
CMLEADERSTYLE
350
274
  3
CTABLESTYLE
350
273
  3
MSLTSCALE
350
275
  0
DICTIONARY
  5
257
102
{ACAD_REACTORS
330
19
102
}
330
19
100
AcDbDictionary
281
     1
  0
DICTIONARY
  5
25B
102
{ACAD_REACTORS
330
25A
102
}
330
25A
100
AcDbDictionary
281
     1
  0
DIMASSOC
  5
260
102
{ACAD_REACTORS
330
25F
102
}
330
25F
100
AcDbDimAssoc
330
25E
 90
        3
 70
     0
 71
     1
  1
AcDbOsnapPointRef
 72
    13
331
1D9
 73
     0
 91
        0
 40
0.0
 10
0.0
 20
0.0
 30
0.0
 75
     0
  1
AcDbOsnapPointRef
 72
    13
331
1D8
 73
     0
 91
        0
 40
0.0
 10
0.0
 20
0.0
 30
0.0
 75
     0
  0
LAYOUT
  5
21
102
{ACAD_REACTORS
330
1E
102
}
330
1E
100
AcDbPlotSettings
  1

  2

  4

  6

 40
0.0
 41
0.0
 42
0.0
 43
0.0
 44
0.0
 45
0.0
 46
0.0
 47
0.0
 48
0.0
 49
0.0
140
0.0
141
0.0
142
1.0
143
1.0
 70
     0
 72
     0
 73
     0
 74
     0
  7

 75
     0
 76
     0
 77
     2
 78
   300
147
1.0
148
0.0
149
0.0
100
AcDbLayout
  1
Layout1
 70
     0
 71
     0
 10
0.0
 20
0.0
 11
0.0
 21
0.0
 12
0.0
 22
0.0
 32
0.0
 14
0.0
 24
0.0
 34
0.0
 15
0.0
 25
0.0
 35
0.0
146
0.0
 13
0.0
 23
0.0
 33
0.0
 16
0.0
 26
0.0
 36
0.0
 17
0.0
 27
0.0
 37
0.0
 76
     0
330
B
  0
LAYOUT
  5
20
102
{ACAD_REACTORS
330
1E
102
}
330
1E
100
AcDbPlotSettings
  1

  2

  4

  6

 40
0.0
 41
0.0
 42
0.0
 43
0.0
 44
0.0
 45
0.0
 46
0.0
 47
0.0
 48
0.0
 49
0.0
140
0.0
141
0.0
142
1.0
143
1.0
 70
  1024
 72
     0
 73
     0
 74
     0
  7

 75
     0
 76
     0
 77
     2
 78
   300
147
1.0
148
0.0
149
0.0
100
AcDbLayout
  1
Model
 70
     0
 71
     1
 10
0.0
 20
0.0
 11
0.0
 21
0.0
 12
0.0
 22
0.0
 32
0.0
 14
-975.0000000002414
 24
-1402.496623599584
 34
0.0
 15
975.0000000002411
 25
1430.857901582273
 35
0.0
146
0.0
 13
0.0
 23
0.0
 33
0.0
 16
0.0
 26
0.0
 36
0.0
 17
0.0
 27
0.0
 37
0.0
 76
     0
330
A
331
15
  0
MATERIAL
  5
251
102
{ACAD_REACTORS
330
24F
102
}
330
24F
100
AcDbMaterial
  1
ByBlock
 72
     1
 94
      127
  0
MATERIAL
  5
250
102
{ACAD_REACTORS
330
24F
102
}
330
24F
100
AcDbMaterial
  1
ByLayer
 72
     1
 94
      127
  0
MATERIAL
  5
252
102
{ACAD_REACTORS
330
24F
102
}
330
24F
100
AcDbMaterial
  1
Global
 72
     1
 94
      127
  0
MLEADERSTYLE
  5
256
102
{ACAD_REACTORS
330
255
102
}
330
255
100
AcDbMLeaderStyle
170
     2
171
     1
172
     0
 90
        2
 40
0.0
 41
0.0
173
     1
 91
-1056964608
340
11
 92
       -2
290
     1
 42
2.0
291
     1
 43
8.0
  3
Standard
341
0
 44
4.0
300

342
17
174
     1
178
     1
175
     1
176
     0
 93
-1056964608
 45
4.0
292
     0
297
     0
 46
4.0
343
0
 94
-1056964608
 47
1.0
 49
1.0
140
1.0
293
     1
141
0.0
294
     1
177
     0
142
1.0
295
     0
296
     0
143
3.75
1001
ACAD_MLEADERVER
1070
     2
  0
MLINESTYLE
  5
1C
102
{ACAD_REACTORS
330
1B
102
}
330
1B
100
AcDbMlineStyle
  2
Standard
 70
     0
  3

 62
     0
 51
90.0
 52
90.0
 71
     2
 49
0.5
 62
   256
  6
BYLAYER
 49
-0.5
 62
   256
  6
BYLAYER
  0
ACDBPLACEHOLDER
  5
1D
102
{ACAD_REACTORS
330
1F
102
}
330
1F
  0
SCALE
  5
215
102
{ACAD_REACTORS
330
214
102
}
330
214
100
AcDbScale
 70
     0
300
1:1
140
1.0
141
1.0
290
     1
  0
SCALE
  5
216
102
{ACAD_REACTORS
330
214
102
}
330
214
100
AcDbScale
 70
     0
300
1:2
140
1.0
141
2.0
290
     0
  0
SCALE
  5
217
102
{ACAD_REACTORS
330
214
102
}
330
214
100
AcDbScale
 70
     0
300
1:4
140
1.0
141
4.0
290
     0
  0
SCALE
  5
218
102
{ACAD_REACTORS
330
214
102
}
330
214
100
AcDbScale
 70
     0
300
1:5
140
1.0
141
5.0
290
     0
  0
SCALE
  5
219
102
{ACAD_REACTORS
330
214
102
}
330
214
100
AcDbScale
 70
     0
300
1:8
140
1.0
141
8.0
290
     0
  0
SCALE
  5
21A
102
{ACAD_REACTORS
330
214
102
}
330
214
100
AcDbScale
 70
     0
300
1:10
140
1.0
141
10.0
290
     0
  0
SCALE
  5
21B
102
{ACAD_REACTORS
330
214
102
}
330
214
100
AcDbScale
 70
     0
300
1:16
140
1.0
141
16.0
290
     0
  0
SCALE
  5
21C
102
{ACAD_REACTORS
330
214
102
}
330
214
100
AcDbScale
 70
     0
300
1:20
140
1.0
141
20.0
290
     0
  0
SCALE
  5
21D
102
{ACAD_REACTORS
330
214
102
}
330
214
100
AcDbScale
 70
     0
300
1:30
140
1.0
141
30.0
290
     0
  0
SCALE
  5
21E
102
{ACAD_REACTORS
330
214
102
}
330
214
100
AcDbScale
 70
     0
300
1:40
140
1.0
141
40.0
290
     0
  0
SCALE
  5
21F
102
{ACAD_REACTORS
330
214
102
}
330
214
100
AcDbScale
 70
     0
300
1:50
140
1.0
141
50.0
290
     0
  0
SCALE
  5
220
102
{ACAD_REACTORS
330
214
102
}
330
214
100
AcDbScale
 70
     0
300
1:100
140
1.0
141
100.0
290
     0
  0
SCALE
  5
221
102
{ACAD_REACTORS
330
214
102
}
330
214
100
AcDbScale
 70
     0
300
2:1
140
2.0
141
1.0
290
     0
  0
SCALE
  5
222
102
{ACAD_REACTORS
330
214
102
}
330
214
100
AcDbScale
 70
     0
300
4:1
140
4.0
141
1.0
290
     0
  0
SCALE
  5
223
102
{ACAD_REACTORS
330
214
102
}
330
214
100
AcDbScale
 70
     0
300
8:1
140
8.0
141
1.0
290
     0
  0
SCALE
  5
224
102
{ACAD_REACTORS
330
214
102
}
330
214
100
AcDbScale
 70
     0
300
10:1
140
10.0
141
1.0
290
     0
  0
SCALE
  5
225
102
{ACAD_REACTORS
330
214
102
}
330
214
100
AcDbScale
 70
     0
300
100:1
140
100.0
141
1.0
290
     0
  0
SCALE
  5
226
102
{ACAD_REACTORS
330
214
102
}
330
214
100
AcDbScale
 70
     0
300
1/128" = 1'-0"
140
0.0078125
141
12.0
290
     0
  0
SCALE
  5
227
102
{ACAD_REACTORS
330
214
102
}
330
214
100
AcDbScale
 70
     0
300
1/64" = 1'-0"
140
0.015625
141
12.0
290
     0
  0
SCALE
  5
228
102
{ACAD_REACTORS
330
214
102
}
330
214
100
AcDbScale
 70
     0
300
1/32" = 1'-0"
140
0.03125
141
12.0
290
     0
  0
SCALE
  5
229
102
{ACAD_REACTORS
330
214
102
}
330
214
100
AcDbScale
 70
     0
300
1/16" = 1'-0"
140
0.0625
141
12.0
290
     0
  0
SCALE
  5
22A
102
{ACAD_REACTORS
330
214
102
}
330
214
100
AcDbScale
 70
     0
300
3/32" = 1'-0"
140
0.09375
141
12.0
290
     0
  0
SCALE
  5
22B
102
{ACAD_REACTORS
330
214
102
}
330
214
100
AcDbScale
 70
     0
300
1/8" = 1'-0"
140
0.125
141
12.0
290
     0
  0
SCALE
  5
22C
102
{ACAD_REACTORS
330
214
102
}
330
214
100
AcDbScale
 70
     0
300
3/16" = 1'-0"
140
0.1875
141
12.0
290
     0
  0
SCALE
  5
22D
102
{ACAD_REACTORS
330
214
102
}
330
214
100
AcDbScale
 70
     0
300
1/4" = 1'-0"
140
0.25
141
12.0
290
     0
  0
SCALE
  5
22E
102
{ACAD_REACTORS
330
214
102
}
330
214
100
AcDbScale
 70
     0
300
3/8" = 1'-0"
140
0.375
141
12.0
290
     0
  0
SCALE
  5
22F
102
{ACAD_REACTORS
330
214
102
}
330
214
100
AcDbScale
 70
     0
300
1/2" = 1'-0"
140
0.5
141
12.0
290
     0
  0
SCALE
  5
230
102
{ACAD_REACTORS
330
214
102
}
330
214
100
AcDbScale
 70
     0
300
3/4" = 1'-0"
140
0.75
141
12.0
290
     0
  0
SCALE
  5
231
102
{ACAD_REACTORS
330
214
102
}
330
214
100
AcDbScale
 70
     0
300
1" = 1'-0"
140
1.0
141
12.0
290
     0
  0
SCALE
  5
232
102
{ACAD_REACTORS
330
214
102
}
330
214
100
AcDbScale
 70
     0
300
1-1/2" = 1'-0"
140
1.5
141
12.0
290
     0
  0
SCALE
  5
233
102
{ACAD_REACTORS
330
214
102
}
330
214
100
AcDbScale
 70
     0
300
3" = 1'-0"
140
3.0
141
12.0
290
     0
  0
SCALE
  5
234
102
{ACAD_REACTORS
330
214
102
}
330
214
100
AcDbScale
 70
     0
300
6" = 1'-0"
140
6.0
141
12.0
290
     0
  0
SCALE
  5
235
102
{ACAD_REACTORS
330
214
102
}
330
214
100
AcDbScale
 70
     0
300
1'-0" = 1'-0"
140
12.0
141
12.0
290
     0
  0
TABLESTYLE
  5
254
102
{ACAD_REACTORS
330
253
102
}
102
{ACAD_XDICTIONARY
360
27C
102
}
330
253
100
AcDbTableStyle
  3
Standard
 70
     0
 71
     0
 40
0.06
 41
0.06
280
     0
281
     0
  7
Standard
140
4.5
170
     2
 62
     0
 63
   257
283
     0
 90
        4
 91
        0
  1

274
    -2
284
     1
 64
     0
275
    -2
285
     1
 65
     0
276
    -2
286
     1
 66
     0
277
    -2
287
     1
 67
     0
278
    -2
288
     1
 68
     0
279
    -2
289
     1
 69
     0
  7
Standard
140
6.0
170
     5
 62
     0
 63
   257
283
     0
 90
        4
 91
        0
  1

274
    -2
284
     1
 64
     0
275
    -2
285
     1
 65
     0
276
    -2
286
     1
 66
     0
277
    -2
287
     1
 67
     0
278
    -2
288
     1
 68
     0
279
    -2
289
     1
 69
     0
  7
Standard
140
4.5
170
     5
 62
     0
 63
   257
283
     0
 90
        4
 91
        0
  1

274
    -2
284
     1
 64
     0
275
    -2
285
     1
 65
     0
276
    -2
286
     1
 66
     0
277
    -2
287
     1
 67
     0
278
    -2
288
     1
 68
     0
279
    -2
289
     1
 69
     0
  0
VISUALSTYLE
  5
23B
102
{ACAD_REACTORS
330
236
102
}
330
236
100
AcDbVisualStyle
  2
2dWireframe
 70
     4
 71
     0
 72
     2
 73
     0
 90
        0
 40
0.6
 41
30.0
 62
     5
 63
     7
421
 16777215
 74
     1
 91
        4
 64
     7
 65
   257
 75
     1
175
     1
 42
1.0
 92
        0
 66
   257
 43
1.0
 76
     1
 77
     6
 78
     2
 67
     7
 79
     5
170
     0
171
     0
290
     0
174
     0
 93
        1
 44
0.0
173
     0
291
     0
 45
0.0
  0
VISUALSTYLE
  5
23E
102
{ACAD_REACTORS
330
236
102
}
330
236
100
AcDbVisualStyle
  2
Basic
 70
     7
 71
     1
 72
     0
 73
     1
 90
        0
 40
0.6
 41
30.0
 62
     5
 63
     7
421
 16777215
 74
     0
 91
        4
 64
     7
 65
   257
 75
     1
175
     1
 42
1.0
 92
        8
 66
     7
 43
1.0
 76
     1
 77
     6
 78
     2
 67
     7
 79
     5
170
     0
171
     0
290
     0
174
     0
 93
        1
 44
0.0
173
     0
291
     1
 45
0.0
  0
VISUALSTYLE
  5
242
102
{ACAD_REACTORS
330
236
102
}
330
236
100
AcDbVisualStyle
  2
Brighten
 70
    12
 71
     2
 72
     2
 73
     0
 90
        0
 40
0.6
 41
30.0
 62
     5
 63
     7
421
 16777215
 74
     1
 91
        4
 64
     7
 65
   257
 75
     1
175
     1
 42
1.0
 92
        8
 66
     7
 43
1.0
 76
     1
 77
     6
 78
     2
 67
     7
 79
     5
170
     0
171
     0
290
     0
174
     0
 93
        1
 44
50.0
173
     0
291
     1
 45
0.0
  0
VISUALSTYLE
  5
246
102
{ACAD_REACTORS
330
236
102
}
330
236
100
AcDbVisualStyle
  2
ColorChange
 70
    16
 71
     2
 72
     2
 73
     3
 90
        0
 40
0.6
 41
30.0
 62
     5
 63
     8
421
  8421504
 74
     1
 91
        4
 64
     7
 65
   257
 75
     1
175
     1
 42
1.0
 92
        8
 66
     8
424
  8421504
 43
1.0
 76
     1
 77
     6
 78
     2
 67
     7
 79
     5
170
     0
171
     0
290
     0
174
     0
 93
        1
 44
0.0
173
     0
291
     1
 45
0.0
  0
VISUALSTYLE
  5
240
102
{ACAD_REACTORS
330
236
102
}
330
236
100
AcDbVisualStyle
  2
Conceptual
 70
     9
 71
     3
 72
     2
 73
     0
 90
        0
 40
0.6
 41
30.0
 62
     5
 63
     7
421
 16777215
 74
     2
 91
        2
 64
     7
 65
   257
 75
     1
175
     1
 42
179.0
 92
        8
 66
     7
 43
1.0
 76
     1
 77
     6
 78
     2
 67
     7
 79
     3
170
     0
171
     0
290
     0
174
     0
 93
        1
 44
0.0
173
     0
291
     0
 45
0.0
  0
VISUALSTYLE
  5
241
102
{ACAD_REACTORS
330
236
102
}
330
236
100
AcDbVisualStyle
  2
Dim
 70
    11
 71
     2
 72
     2
 73
     0
 90
        0
 40
0.6
 41
30.0
 62
     5
 63
     7
421
 16777215
 74
     1
 91
        4
 64
     7
 65
   257
 75
     1
175
     1
 42
1.0
 92
        8
 66
     7
 43
1.0
 76
     1
 77
     6
 78
     2
 67
     7
 79
     5
170
     0
171
     0
290
     0
174
     0
 93
        1
 44
-50.0
173
     0
291
     1
 45
0.0
  0
VISUALSTYLE
  5
249
102
{ACAD_REACTORS
330
236
102
}
330
236
100
AcDbVisualStyle
  2
EdgeColorOff
 70
    22
 71
     2
 72
     2
 73
     0
 90
        0
 40
0.6
 41
30.0
 62
     5
 63
     7
421
 16777215
 74
     1
 91
        4
 64
     7
 65
   257
 75
     1
175
     1
 42
1.0
 92
        8
 66
     7
 43
1.0
 76
     1
 77
     6
 78
     2
 67
     7
 79
     5
170
     0
171
     0
290
     0
174
     0
 93
        1
 44
0.0
173
     0
291
     1
 45
0.0
  0
VISUALSTYLE
  5
245
102
{ACAD_REACTORS
330
236
102
}
330
236
100
AcDbVisualStyle
  2
Facepattern
 70
    15
 71
     2
 72
     2
 73
     0
 90
        0
 40
0.6
 41
30.0
 62
     5
 63
     7
421
 16777215
 74
     1
 91
        4
 64
     7
 65
   257
 75
     1
175
     1
 42
1.0
 92
        8
 66
     7
 43
1.0
 76
     1
 77
     6
 78
     2
 67
     7
 79
     5
170
     0
171
     0
290
     0
174
     0
 93
        1
 44
0.0
173
     0
291
     1
 45
0.0
  0
VISUALSTYLE
  5
237
102
{ACAD_REACTORS
330
236
102
}
330
236
100
AcDbVisualStyle
  2
Flat
 70
     0
 71
     2
 72
     1
 73
     1
 90
        2
 40
0.6
 41
30.0
 62
     5
 63
     7
421
 16777215
 74
     0
 91
        0
 64
     7
 65
   257
 75
     1
175
     1
 42
1.0
 92
        8
 66
     7
 43
1.0
 76
     1
 77
     6
 78
     2
 67
     7
 79
     5
170
     0
171
     0
290
     0
174
     0
 93
       13
 44
0.0
173
     0
291
     1
 45
0.0
  0
VISUALSTYLE
  5
238
102
{ACAD_REACTORS
330
236
102
}
330
236
100
AcDbVisualStyle
  2
FlatWithEdges
 70
     1
 71
     2
 72
     1
 73
     1
 90
        2
 40
0.6
 41
30.0
 62
     5
 63
     7
421
 16777215
 74
     1
 91
        0
 64
     7
 65
   257
 75
     1
175
     1
 42
1.0
 92
        0
 66
   257
 43
1.0
 76
     1
 77
     6
 78
     2
 67
     7
 79
     5
170
     0
171
     0
290
     0
174
     0
 93
       13
 44
0.0
173
     0
291
     1
 45
0.0
  0
VISUALSTYLE
  5
239
102
{ACAD_REACTORS
330
236
102
}
330
236
100
AcDbVisualStyle
  2
Gouraud
 70
     2
 71
     2
 72
     2
 73
     1
 90
        2
 40
0.6
 41
30.0
 62
     5
 63
     7
421
 16777215
 74
     0
 91
        0
 64
     7
 65
   257
 75
     1
175
     1
 42
1.0
 92
        0
 66
     7
 43
1.0
 76
     1
 77
     6
 78
     2
 67
     7
 79
     5
170
     0
171
     0
290
     0
174
     0
 93
       13
 44
0.0
173
     0
291
     1
 45
0.0
  0
VISUALSTYLE
  5
23A
102
{ACAD_REACTORS
330
236
102
}
330
236
100
AcDbVisualStyle
  2
GouraudWithEdges
 70
     3
 71
     2
 72
     2
 73
     1
 90
        2
 40
0.6
 41
30.0
 62
     5
 63
     7
421
 16777215
 74
     1
 91
        0
 64
     7
 65
   257
 75
     1
175
     1
 42
1.0
 92
        0
 66
   257
 43
1.0
 76
     1
 77
     6
 78
     2
 67
     7
 79
     5
170
     0
171
     0
290
     0
174
     0
 93
       13
 44
0.0
173
     0
291
     1
 45
0.0
  0
VISUALSTYLE
  5
23D
102
{ACAD_REACTORS
330
236
102
}
330
236
100
AcDbVisualStyle
  2
Hidden
 70
     6
 71
     1
 72
     2
 73
     2
 90
        0
 40
0.6
 41
30.0
 62
     5
 63
     7
421
 16777215
 74
     2
 91
        2
 64
     7
 65
   257
 75
     2
175
     1
 42
40.0
 92
        0
 66
   257
 43
1.0
 76
     1
 77
     6
 78
     2
 67
     7
 79
     3
170
     0
171
     0
290
     0
174
     0
 93
        1
 44
0.0
173
     0
291
     0
 45
0.0
  0
VISUALSTYLE
  5
247
102
{ACAD_REACTORS
330
236
102
}
330
236
100
AcDbVisualStyle
  2
JitterOff
 70
    20
 71
     2
 72
     2
 73
     0
 90
        0
 40
0.6
 41
30.0
 62
     5
 63
     7
421
 16777215
 74
     1
 91
        4
 64
     7
 65
   257
 75
     1
175
     1
 42
1.0
 92
       10
 66
     7
 43
1.0
 76
     1
 77
     6
 78
     2
 67
     7
 79
     5
170
     0
171
     0
290
     0
174
     0
 93
        1
 44
0.0
173
     0
291
     1
 45
0.0
  0
VISUALSTYLE
  5
244
102
{ACAD_REACTORS
330
236
102
}
330
236
100
AcDbVisualStyle
  2
Linepattern
 70
    14
 71
     2
 72
     2
 73
     0
 90
        0
 40
0.6
 41
30.0
 62
     5
 63
     7
421
 16777215
 74
     1
 91
        4
 64
     7
 65
   257
 75
     7
175
     7
 42
1.0
 92
        8
 66
     7
 43
1.0
 76
     1
 77
     6
 78
     2
 67
     7
 79
     5
170
     0
171
     0
290
     0
174
     0
 93
        1
 44
0.0
173
     0
291
     1
 45
0.0
  0
VISUALSTYLE
  5
248
102
{ACAD_REACTORS
330
236
102
}
330
236
100
AcDbVisualStyle
  2
OverhangOff
 70
    21
 71
     2
 72
     2
 73
     0
 90
        0
 40
0.6
 41
30.0
 62
     5
 63
     7
421
 16777215
 74
     1
 91
        4
 64
     7
 65
   257
 75
     1
175
     1
 42
1.0
 92
        9
 66
     7
 43
1.0
 76
     1
 77
     6
 78
     2
 67
     7
 79
     5
170
     0
171
     0
290
     0
174
     0
 93
        1
 44
0.0
173
     0
291
     1
 45
0.0
  0
VISUALSTYLE
  5
23F
102
{ACAD_REACTORS
330
236
102
}
330
236
100
AcDbVisualStyle
  2
Realistic
 70
     8
 71
     2
 72
     3
 73
     0
 90
        2
 40
0.6
 41
30.0
 62
     5
 63
     7
421
 16777215
 74
     0
 91
        0
 64
     7
 65
   257
 75
     1
175
     1
 42
1.0
 92
        8
 66
   257
 43
1.0
 76
     1
 77
     6
 78
     2
 67
     7
 79
     3
170
     0
171
     0
290
     0
174
     0
 93
       13
 44
0.0
173
     0
291
     0
 45
0.0
  0
VISUALSTYLE
  5
24E
102
{ACAD_REACTORS
330
236
102
}
330
236
100
AcDbVisualStyle
  2
Shaded
 70
    27
 71
     2
 72
     2
 73
     1
 90
        2
 40
0.6
 41
30.0
 62
     5
 63
     7
421
 16777215
 74
     0
 91
        4
 64
     7
 65
   257
 75
     1
175
     1
 42
1.0
 92
        8
 66
   257
 43
1.0
 76
     1
 77
     6
 78
     2
 67
     8
425
  7895160
 79
     3
170
     0
171
     0
290
     0
174
     0
 93
        5
 44
0.0
173
     0
291
     0
 45
0.0
  0
VISUALSTYLE
  5
24D
102
{ACAD_REACTORS
330
236
102
}
330
236
100
AcDbVisualStyle
  2
Shaded with edges
 70
    26
 71
     2
 72
     2
 73
     1
 90
        2
 40
0.6
 41
30.0
 62
     5
 63
     7
421
 16777215
 74
     1
 91
       10
 64
     7
 65
   257
 75
     2
175
     1
 42
1.0
 92
        8
 66
   257
 43
1.0
 76
     1
 77
     6
 78
     2
 67
     7
 79
     3
170
     0
171
     0
290
     0
174
     0
 93
        5
 44
0.0
173
     0
291
     0
 45
0.0
  0
VISUALSTYLE
  5
24A
102
{ACAD_REACTORS
330
236
102
}
330
236
100
AcDbVisualStyle
  2
Shades of Gray
 70
    23
 71
     2
 72
     2
 73
     3
 90
        0
 40
0.6
 41
30.0
 62
     5
 63
     7
421
 16777215
 74
     2
 91
        2
 64
     7
 65
     7
 75
     1
175
     1
 42
40.0
 92
        8
 66
     7
 43
1.0
 76
     1
 77
     6
 78
     2
 67
     7
 79
     3
170
     0
171
     0
290
     0
174
     0
 93
        1
 44
0.0
173
     0
291
     0
 45
0.0
  0
VISUALSTYLE
  5
24B
102
{ACAD_REACTORS
330
236
102
}
330
236
100
AcDbVisualStyle
  2
Sketchy
 70
    24
 71
     1
 72
     2
 73
     2
 90
        0
 40
0.6
 41
30.0
 62
     5
 63
     7
421
 16777215
 74
     2
 91
        2
 64
     7
 65
     7
 75
     1
175
     1
 42
40.0
 92
       11
 66
     7
 43
1.0
 76
     1
 77
     6
 78
     2
 67
     7
 79
     6
170
     0
171
     0
290
     0
174
     0
 93
        1
 44
0.0
173
     0
291
     0
 45
0.0
  0
VISUALSTYLE
  5
243
102
{ACAD_REACTORS
330
236
102
}
330
236
100
AcDbVisualStyle
  2
Thicken
 70
    13
 71
     2
 72
     2
 73
     0
 90
        0
 40
0.6
 41
30.0
 62
     5
 63
     7
421
 16777215
 74
     1
 91
        4
 64
     7
 65
   257
 75
     1
175
     1
 42
1.0
 92
       12
 66
     7
 43
1.0
 76
     1
 77
     6
 78
     2
 67
     7
 79
     5
170
     0
171
     0
290
     0
174
     0
 93
        1
 44
0.0
173
     0
291
     1
 45
0.0
  0
VISUALSTYLE
  5
23C
102
{ACAD_REACTORS
330
236
102
}
330
236
100
AcDbVisualStyle
  2
Wireframe
 70
     5
 71
     0
 72
     2
 73
     0
 90
        0
 40
0.6
 41
30.0
 62
     5
 63
     7
421
 16777215
 74
     1
 91
        4
 64
     7
 65
   257
 75
     1
175
     1
 42
1.0
 92
        0
 66
   257
 43
1.0
 76
     1
 77
     6
 78
     2
 67
     7
 79
     3
170
     0
171
     0
290
     0
174
     0
 93
        1
 44
0.0
173
     0
291
     0
 45
0.0
  0
VISUALSTYLE
  5
24C
102
{ACAD_REACTORS
330
236
102
}
330
236
100
AcDbVisualStyle
  2
X-Ray
 70
    25
 71
     2
 72
     2
 73
     1
 90
        1
 40
0.5
 41
30.0
 62
     5
 63
     7
421
 16777215
 74
     1
 91
        0
 64
     7
 65
   257
 75
     1
175
     1
 42
1.0
 92
        8
 66
     7
 43
1.0
 76
     1
 77
     6
 78
     2
 67
     7
 79
     3
170
     0
171
     0
290
     0
174
     0
 93
       13
 44
0.0
173
     0
291
     0
 45
0.0
  0
DICTIONARYVAR
  5
26E
102
{ACAD_REACTORS
330
26D
102
}
330
26D
100
DictionaryVariables
280
     0
  1
1:1
  0
DICTIONARYVAR
  5
274
102
{ACAD_REACTORS
330
26D
102
}
330
26D
100
DictionaryVariables
280
     0
  1
Standard
  0
DICTIONARYVAR
  5
273
102
{ACAD_REACTORS
330
26D
102
}
330
26D
100
DictionaryVariables
280
     0
  1
Standard
  0
DICTIONARYVAR
  5
275
102
{ACAD_REACTORS
330
26D
102
}
330
26D
100
DictionaryVariables
280
     0
  1
0
  0
DICTIONARY
  5
27C
330
254
100
AcDbDictionary
280
     1
281
     1
  3
ACAD_ROUNDTRIP_2008_TABLESTYLE_CELLSTYLEMAP
360
27D
  0
CELLSTYLEMAP
  5
27D
102
{ACAD_REACTORS
330
27C
102
}
330
27C
100
AcDbCellStyleMap
 90
        3
300
CELLSTYLE
  1
TABLEFORMAT_BEGIN
 90
        5
170
     1
 91
        0
 92
    32768
 62
   257
 93
        1
300
CONTENTFORMAT
  1
CONTENTFORMAT_BEGIN
 90
        0
 91
        0
 92
        4
 93
        0
300

 40
0.0
140
1.0
 94
        5
 62
     0
340
17
144
6.0
309
CONTENTFORMAT_END
171
     1
301
MARGIN
  1
CELLMARGIN_BEGIN
 40
1.5
 40
1.5
 40
1.5
 40
1.5
 40
1.5
 40
1.5
309
CELLMARGIN_END
 94
        6
 95
        1
302
GRIDFORMAT
  1
GRIDFORMAT_BEGIN
 90
        0
 91
        1
 62
     0
 92
       -2
340
11
 93
        0
 40
0.045
309
GRIDFORMAT_END
 95
        2
302
GRIDFORMAT
  1
GRIDFORMAT_BEGIN
 90
        0
 91
        1
 62
     0
 92
       -2
340
11
 93
        0
 40
0.045
309
GRIDFORMAT_END
 95
        4
302
GRIDFORMAT
  1
GRIDFORMAT_BEGIN
 90
        0
 91
        1
 62
     0
 92
       -2
340
11
 93
        0
 40
0.045
309
GRIDFORMAT_END
 95
        8
302
GRIDFORMAT
  1
GRIDFORMAT_BEGIN
 90
        0
 91
        1
 62
     0
 92
       -2
340
11
 93
        0
 40
0.045
309
GRIDFORMAT_END
 95
       16
302
GRIDFORMAT
  1
GRIDFORMAT_BEGIN
 90
        0
 91
        1
 62
     0
 92
       -2
340
11
 93
        0
 40
0.045
309
GRIDFORMAT_END
 95
       32
302
GRIDFORMAT
  1
GRIDFORMAT_BEGIN
 90
        0
 91
        1
 62
     0
 92
       -2
340
11
 93
        0
 40
0.045
309
GRIDFORMAT_END
309
TABLEFORMAT_END
  1
CELLSTYLE_BEGIN
 90
        1
 91
        1
300
_TITLE
309
CELLSTYLE_END
300
CELLSTYLE
  1
TABLEFORMAT_BEGIN
 90
        5
170
     1
 91
        0
 92
        0
 62
   257
 93
        1
300
CONTENTFORMAT
  1
CONTENTFORMAT_BEGIN
 90
        0
 91
        0
 92
        4
 93
        0
300

 40
0.0
140
1.0
 94
        5
 62
     0
340
17
144
4.5
309
CONTENTFORMAT_END
171
     1
301
MARGIN
  1
CELLMARGIN_BEGIN
 40
1.5
 40
1.5
 40
1.5
 40
1.5
 40
1.5
 40
1.5
309
CELLMARGIN_END
 94
        6
 95
        1
302
GRIDFORMAT
  1
GRIDFORMAT_BEGIN
 90
        0
 91
        1
 62
     0
 92
       -2
340
11
 93
        0
 40
0.045
309
GRIDFORMAT_END
 95
        2
302
GRIDFORMAT
  1
GRIDFORMAT_BEGIN
 90
        0
 91
        1
 62
     0
 92
       -2
340
11
 93
        0
 40
0.045
309
GRIDFORMAT_END
 95
        4
302
GRIDFORMAT
  1
GRIDFORMAT_BEGIN
 90
        0
 91
        1
 62
     0
 92
       -2
340
11
 93
        0
 40
0.045
309
GRIDFORMAT_END
 95
        8
302
GRIDFORMAT
  1
GRIDFORMAT_BEGIN
 90
        0
 91
        1
 62
     0
 92
       -2
340
11
 93
        0
 40
0.045
309
GRIDFORMAT_END
 95
       16
302
GRIDFORMAT
  1
GRIDFORMAT_BEGIN
 90
        0
 91
        1
 62
     0
 92
       -2
340
11
 93
        0
 40
0.045
309
GRIDFORMAT_END
 95
       32
302
GRIDFORMAT
  1
GRIDFORMAT_BEGIN
 90
        0
 91
        1
 62
     0
 92
       -2
340
11
 93
        0
 40
0.045
309
GRIDFORMAT_END
309
TABLEFORMAT_END
  1
CELLSTYLE_BEGIN
 90
        2
 91
        1
300
_HEADER
309
CELLSTYLE_END
300
CELLSTYLE
  1
TABLEFORMAT_BEGIN
 90
        5
170
     1
 91
        0
 92
        0
 62
   257
 93
        1
300
CONTENTFORMAT
  1
CONTENTFORMAT_BEGIN
 90
        0
 91
        0
 92
        4
 93
        0
300

 40
0.0
140
1.0
 94
        2
 62
     0
340
17
144
4.5
309
CONTENTFORMAT_END
171
     1
301
MARGIN
  1
CELLMARGIN_BEGIN
 40
1.5
 40
1.5
 40
1.5
 40
1.5
 40
1.5
 40
1.5
309
CELLMARGIN_END
 94
        6
 95
        1
302
GRIDFORMAT
  1
GRIDFORMAT_BEGIN
 90
        0
 91
        1
 62
     0
 92
       -2
340
11
 93
        0
 40
0.045
309
GRIDFORMAT_END
 95
        2
302
GRIDFORMAT
  1
GRIDFORMAT_BEGIN
 90
        0
 91
        1
 62
     0
 92
       -2
340
11
 93
        0
 40
0.045
309
GRIDFORMAT_END
 95
        4
302
GRIDFORMAT
  1
GRIDFORMAT_BEGIN
 90
        0
 91
        1
 62
     0
 92
       -2
340
11
 93
        0
 40
0.045
309
GRIDFORMAT_END
 95
        8
302
GRIDFORMAT
  1
GRIDFORMAT_BEGIN
 90
        0
 91
        1
 62
     0
 92
       -2
340
11
 93
        0
 40
0.045
309
GRIDFORMAT_END
 95
       16
302
GRIDFORMAT
  1
GRIDFORMAT_BEGIN
 90
        0
 91
        1
 62
     0
 92
       -2
340
11
 93
        0
 40
0.045
309
GRIDFORMAT_END
 95
       32
302
GRIDFORMAT
  1
GRIDFORMAT_BEGIN
 90
        0
 91
        1
 62
     0
 92
       -2
340
11
 93
        0
 40
0.045
309
GRIDFORMAT_END
309
TABLEFORMAT_END
  1
CELLSTYLE_BEGIN
 90
        3
 91
        2
300
_DATA
309
CELLSTYLE_END
  0
ENDSEC
  0
EOF
