  0
SECTION
  2
HEADER
  9
$ACADVER
  1
AC1021
  9
$ACADMAINTVER
 70
    25
  9
$DWGCODEPAGE
  3
ANSI_932
  9
$LASTSAVEDBY
  1
howeNelson
  9
$INSBASE
 10
0.0
 20
0.0
 30
0.0
  9
$EXTMIN
 10
0.0
 20
0.0
 30
0.0
  9
$EXTMAX
 10
2100.0
 20
2970.0
 30
0.0
  9
$LIMMIN
 10
0.0
 20
0.0
  9
$LIMMAX
 10
2100.0
 20
2970.0
  9
$ORTHOMODE
 70
     0
  9
$REGENMODE
 70
     1
  9
$FILLMODE
 70
     1
  9
$QTEXTMODE
 70
     0
  9
$MIRRTEXT
 70
     1
  9
$LTSCALE
 40
50.8
  9
$ATTMODE
 70
     1
  9
$TEXTSIZE
 40
533.0403732820173
  9
$TRACEWID
 40
1.0
  9
$TEXTSTYLE
  7
Standard
  9
$CLAYER
  8
MODEL
  9
$CELTYPE
  6
Continuous
  9
$CECOLOR
 62
   256
  9
$CELTSCALE
 40
1.0
  9
$DISPSILH
 70
     0
  9
$DIMSCALE
 40
1.0
  9
$DIMASZ
 40
6.0
  9
$DIMEXO
 40
25.0
  9
$DIMDLI
 40
25.0
  9
$DIMRND
 40
0.0
  9
$DIMDLE
 40
0.0
  9
$DIMEXE
 40
0.0
  9
$DIMTP
 40
0.0
  9
$DIMTM
 40
0.0
  9
$DIMTXT
 40
24.0
  9
$DIMCEN
 40
0.0
  9
$DIMTSZ
 40
0.0
  9
$DIMTOL
 70
     0
  9
$DIMLIM
 70
     0
  9
$DIMTIH
 70
     0
  9
$DIMTOH
 70
     0
  9
$DIMSE1
 70
     0
  9
$DIMSE2
 70
     0
  9
$DIMTAD
 70
     1
  9
$DIMZIN
 70
    11
  9
$DIMBLK
  1
DOT
  9
$DIMASO
 70
     1
  9
$DIMSHO
 70
     1
  9
$DIMPOST
  1
<>
  9
$DIMAPOST
  1
[]
  9
$DIMALT
 70
     0
  9
$DIMALTD
 70
     1
  9
$DIMALTF
 40
1.0
  9
$DIMLFAC
 40
1.0
  9
$DIMTOFL
 70
     0
  9
$DIMTVP
 40
0.0
  9
$DIMTIX
 70
     1
  9
$DIMSOXD
 70
     0
  9
$DIMSAH
 70
     0
  9
$DIMBLK1
  1

  9
$DIMBLK2
  1

  9
$DIMSTYLE
  2
JIS
  9
$DIMCLRD
 70
     0
  9
$DIMCLRE
 70
     0
  9
$DIMCLRT
 70
     0
  9
$DIMTFAC
 40
1.0
  9
$DIMGAP
 40
15.0
  9
$DIMJUST
 70
     0
  9
$DIMSD1
 70
     0
  9
$DIMSD2
 70
     0
  9
$DIMTOLJ
 70
     1
  9
$DIMTZIN
 70
    11
  9
$DIMALTZ
 70
    11
  9
$DIMALTTZ
 70
    11
  9
$DIMUPT
 70
     0
  9
$DIMDEC
 70
     0
  9
$DIMTDEC
 70
     1
  9
$DIMALTU
 70
     2
  9
$DIMALTTD
 70
     2
  9
$DIMTXSTY
  7
ＭＳ ゴシック
  9
$DIMAUNIT
 70
     0
  9
$DIMADEC
 70
     0
  9
$DIMALTRND
 40
0.0
  9
$DIMAZIN
 70
     0
  9
$DIMDSEP
 70
    46
  9
$DIMATFIT
 70
     0
  9
$DIMFRAC
 70
     2
  9
$DIMLDRBLK
  1
DOT
  9
$DIMLUNIT
 70
     2
  9
$DIMLWD
 70
    -2
  9
$DIMLWE
 70
    -2
  9
$DIMTMOVE
 70
     0
  9
$DIMFXL
 40
1.0
  9
$DIMFXLON
 70
     0
  9
$DIMJOGANG
 40
0.7853981633974483
  9
$DIMTFILL
 70
     0
  9
$DIMTFILLCLR
 70
     0
  9
$DIMARCSYM
 70
     0
  9
$DIMLTYPE
  6

  9
$DIMLTEX1
  6

  9
$DIMLTEX2
  6

  9
$LUNITS
 70
     2
  9
$LUPREC
 70
     0
  9
$SKETCHINC
 40
0.1
  9
$FILLETRAD
 40
0.0
  9
$AUNITS
 70
     0
  9
$AUPREC
 70
     0
  9
$MENU
  1
acad
  9
$ELEVATION
 40
0.0
  9
$PELEVATION
 40
0.0
  9
$THICKNESS
 40
0.0
  9
$LIMCHECK
 70
     0
  9
$CHAMFERA
 40
0.0
  9
$CHAMFERB
 40
0.0
  9
$CHAMFERC
 40
0.0
  9
$CHAMFERD
 40
0.0
  9
$SKPOLY
 70
     0
  9
$TDCREATE
 40
2447893.375
  9
$TDUCREATE
 40
0.0
  9
$TDUPDATE
 40
2457427.723345312
  9
$TDUUPDATE
 40
2457427.348345312
  9
$TDINDWG
 40
0.7946682407
  9
$TDUSRTIMER
 40
2457427.34827853
  9
$USRTIMER
 70
     1
  9
$ANGBASE
 50
0.0
  9
$ANGDIR
 70
     0
  9
$PDMODE
 70
     1
  9
$PDSIZE
 40
-2.0
  9
$PLINEWID
 40
0.0
  9
$SPLFRAME
 70
     0
  9
$SPLINETYPE
 70
     6
  9
$SPLINESEGS
 70
     8
  9
$HANDSEED
  5
98F3
  9
$SURFTAB1
 70
     6
  9
$SURFTAB2
 70
     6
  9
$SURFTYPE
 70
     6
  9
$SURFU
 70
     6
  9
$SURFV
 70
     6
  9
$UCSBASE
  2

  9
$UCSNAME
  2

  9
$UCSORG
 10
0.0
 20
0.0
 30
0.0
  9
$UCSXDIR
 10
1.0
 20
0.0
 30
0.0
  9
$UCSYDIR
 10
0.0
 20
1.0
 30
0.0
  9
$UCSORTHOREF
  2

  9
$UCSORTHOVIEW
 70
     0
  9
$UCSORGTOP
 10
0.0
 20
0.0
 30
0.0
  9
$UCSORGBOTTOM
 10
0.0
 20
0.0
 30
0.0
  9
$UCSORGLEFT
 10
0.0
 20
0.0
 30
0.0
  9
$UCSORGRIGHT
 10
0.0
 20
0.0
 30
0.0
  9
$UCSORGFRONT
 10
0.0
 20
0.0
 30
0.0
  9
$UCSORGBACK
 10
0.0
 20
0.0
 30
0.0
  9
$PUCSBASE
  2

  9
$PUCSNAME
  2

  9
$PUCSORG
 10
0.0
 20
0.0
 30
0.0
  9
$PUCSXDIR
 10
1.0
 20
0.0
 30
0.0
  9
$PUCSYDIR
 10
0.0
 20
1.0
 30
0.0
  9
$PUCSORTHOREF
  2

  9
$PUCSORTHOVIEW
 70
     0
  9
$PUCSORGTOP
 10
0.0
 20
0.0
 30
0.0
  9
$PUCSORGBOTTOM
 10
0.0
 20
0.0
 30
0.0
  9
$PUCSORGLEFT
 10
0.0
 20
0.0
 30
0.0
  9
$PUCSORGRIGHT
 10
0.0
 20
0.0
 30
0.0
  9
$PUCSORGFRONT
 10
0.0
 20
0.0
 30
0.0
  9
$PUCSORGBACK
 10
0.0
 20
0.0
 30
0.0
  9
$USERI1
 70
     0
  9
$USERI2
 70
     0
  9
$USERI3
 70
     0
  9
$USERI4
 70
     0
  9
$USERI5
 70
     0
  9
$USERR1
 40
0.0
  9
$USERR2
 40
0.0
  9
$USERR3
 40
0.0
  9
$USERR4
 40
0.0
  9
$USERR5
 40
0.0
  9
$WORLDVIEW
 70
     1
  9
$SHADEDGE
 70
     3
  9
$SHADEDIF
 70
    70
  9
$TILEMODE
 70
     1
  9
$MAXACTVP
 70
    64
  9
$PINSBASE
 10
0.0
 20
0.0
 30
0.0
  9
$PLIMCHECK
 70
     0
  9
$PEXTMIN
 10
0.0
 20
0.0
 30
0.0
  9
$PEXTMAX
 10
0.0
 20
0.0
 30
0.0
  9
$PLIMMIN
 10
-95.87226993865028
 20
-25.69999999999999
  9
$PLIMMAX
 10
201.1277300613497
 20
184.3
  9
$UNITMODE
 70
     0
  9
$VISRETAIN
 70
     0
  9
$PLINEGEN
 70
     1
  9
$PSLTSCALE
 70
     0
  9
$TREEDEPTH
 70
  3020
  9
$CMLSTYLE
  2
Standard
  9
$CMLJUST
 70
     0
  9
$CMLSCALE
 40
1.0
  9
$PROXYGRAPHICS
 70
     0
  9
$MEASUREMENT
 70
     1
  9
$CELWEIGHT
370
    -1
  9
$ENDCAPS
280
     0
  9
$JOINSTYLE
280
     0
  9
$LWDISPLAY
290
     1
  9
$INSUNITS
 70
     4
  9
$HYPERLINKBASE
  1

  9
$STYLESHEET
  1

  9
$XEDIT
290
     1
  9
$CEPSNTYPE
380
     0
  9
$PSTYLEMODE
290
     1
  9
$FINGERPRINTGUID
  2

  9
$VERSIONGUID
  2

  9
$EXTNAMES
290
     1
  9
$PSVPSCALE
 40
0.0
  9
$OLESTARTUP
290
     0
  9
$SORTENTS
280
   127
  9
$INDEXCTL
280
     0
  9
$HIDETEXT
280
     1
  9
$XCLIPFRAME
290
     0
  9
$HALOGAP
280
     0
  9
$OBSCOLOR
 70
   257
  9
$OBSLTYPE
280
     0
  9
$INTERSECTIONDISPLAY
280
     0
  9
$INTERSECTIONCOLOR
 70
   257
  9
$DIMASSOC
280
     2
  9
$PROJECTNAME
  1

  9
$CAMERADISPLAY
290
     0
  9
$LENSLENGTH
 40
50.0
  9
$CAMERAHEIGHT
 40
0.0
  9
$STEPSPERSEC
 40
2.0
  9
$STEPSIZE
 40
6.0
  9
$3DDWFPREC
 40
2.0
  9
$PSOLWIDTH
 40
0.25
  9
$PSOLHEIGHT
 40
4.0
  9
$LOFTANG1
 40
1.570796326794897
  9
$LOFTANG2
 40
1.570796326794897
  9
$LOFTMAG1
 40
0.0
  9
$LOFTMAG2
 40
0.0
  9
$LOFTPARAM
 70
     7
  9
$LOFTNORMALS
280
     1
  9
$LATITUDE
 40
37.795
  9
$LONGITUDE
 40
-122.394
  9
$NORTHDIRECTION
 40
0.0
  9
$TIMEZONE
 70
 -8000
  9
$LIGHTGLYPHDISPLAY
280
     1
  9
$TILEMODELIGHTSYNCH
280
     1
  9
$SOLIDHIST
280
     1
  9
$SHOWHIST
280
     1
  9
$DWFFRAME
280
     2
  9
$DGNFRAME
280
     2
  9
$REALWORLDSCALE
290
     1
  9
$INTERFERECOLOR
 62
   256
  9
$CSHADOW
280
     0
  9
$SHADOWPLANELOCATION
 40
0.0
  0
ENDSEC
  0
SECTION
  2
CLASSES
  0
CLASS
  1
LWPOLYLINE
  2
AcDbPolyline
  3
ObjectDBX Classes
 90
        0
 91
        1
280
     0
281
     1
  0
CLASS
  1
IMAGE
  2
AcDbRasterImage
  3
ISM
 90
      127
 91
        7
280
     0
281
     1
  0
CLASS
  1
OLE2FRAME
  2
AcDbOle2Frame
  3
ObjectDBX Classes
 90
        0
 91
        1
280
     0
281
     1
  0
CLASS
  1
HATCH
  2
AcDbHatch
  3
ObjectDBX Classes
 90
        0
 91
        1
280
     0
281
     1
  0
CLASS
  1
DICTIONARYVAR
  2
AcDbDictionaryVar
  3
ObjectDBX Classes
 90
        0
 91
        6
280
     0
281
     0
  0
CLASS
  1
RASTERVARIABLES
  2
AcDbRasterVariables
  3
ISM
 90
        0
 91
        8
280
     0
281
     0
  0
CLASS
  1
IMAGEDEF
  2
AcDbRasterImageDef
  3
ISM
 90
        0
 91
        6
280
     0
281
     0
  0
CLASS
  1
IMAGEDEF_REACTOR
  2
AcDbRasterImageDefReactor
  3
ISM
 90
        1
 91
        6
280
     0
281
     0
  0
CLASS
  1
IDBUFFER
  2
AcDbIdBuffer
  3
ObjectDBX Classes
 90
        0
 91
        6
280
     0
281
     0
  0
CLASS
  1
SPATIAL_FILTER
  2
AcDbSpatialFilter
  3
ObjectDBX Classes
 90
        0
 91
        6
280
     0
281
     0
  0
CLASS
  1
XRECORD
  2
AcDbXrecord
  3
ObjectDBX Classes
 90
        0
 91
        1
280
     0
281
     0
  0
CLASS
  1
SORTENTSTABLE
  2
AcDbSortentsTable
  3
ObjectDBX Classes
 90
        0
 91
        6
280
     0
281
     0
  0
CLASS
  1
LAYER_INDEX
  2
AcDbLayerIndex
  3
ObjectDBX Classes
 90
        0
 91
        6
280
     0
281
     0
  0
CLASS
  1
SPATIAL_INDEX
  2
AcDbSpatialIndex
  3
AutoCAD 2000
 90
        0
 91
        6
280
     0
281
     0
  0
CLASS
  1
OBJECT_PTR
  2
CAseDLPNTableRecord
  3
ASE-LPNTableRecord
 90
        1
 91
        6
280
     0
281
     0
  0
CLASS
  1
LAYOUT
  2
AcDbLayout
  3
ObjectDBX Classes
 90
        0
 91
        1
280
     0
281
     0
  0
CLASS
  1
PLOTSETTINGS
  2
AcDbPlotSettings
  3
ObjectDBX Classes
 90
        0
 91
        6
280
     0
281
     0
  0
CLASS
  1
ACDBDICTIONARYWDFLT
  2
AcDbDictionaryWithDefault
  3
ObjectDBX Classes
 90
        0
 91
        8
280
     0
281
     0
  0
CLASS
  1
ACDBPLACEHOLDER
  2
AcDbPlaceHolder
  3
ObjectDBX Classes
 90
        0
 91
        1
280
     0
281
     0
  0
CLASS
  1
SCALE
  2
AcDbScale
  3
ObjectDBX Classes
 90
     1153
 91
        8
280
     0
281
     0
  0
CLASS
  1
MATERIAL
  2
AcDbMaterial
  3
ObjectDBX Classes
 90
     1153
 91
        8
280
     0
281
     0
  0
CLASS
  1
VISUALSTYLE
  2
AcDbVisualStyle
  3
ObjectDBX Classes
 90
     4095
 91
        8
280
     0
281
     0
  0
CLASS
  1
TABLESTYLE
  2
AcDbTableStyle
  3
ObjectDBX Classes
 90
     4095
 91
        8
280
     0
281
     0
  0
CLASS
  1
DIMASSOC
  2
AcDbDimAssoc
  3
"AcDbDimAssoc|Product Desc:     AcDim ARX App For Dimension|Company:          Autodesk, Inc.|WEB Address:      www.autodesk.com"
 90
        0
 91
        6
280
     0
281
     0
  0
CLASS
  1
CELLSTYLEMAP
  2
AcDbCellStyleMap
  3
ObjectDBX Classes
 90
     1152
 91
        6
280
     0
281
     0
  0
CLASS
  1
SUN
  2
AcDbSun
  3
SCENEOE
 90
     1153
 91
        8
280
     0
281
     0
  0
ENDSEC
  0
SECTION
  2
TABLES
  0
TABLE
  2
VPORT
  5
7
330
0
100
AcDbSymbolTable
 70
     1
  0
VPORT
  5
15
330
7
100
AcDbSymbolTableRecord
100
AcDbViewportTableRecord
  2
*ACTIVE
 70
     0
 10
0.0
 20
0.0
 11
1.0
 21
1.0
 12
518.0464231739697
 22
1539.908751102672
 13
0.0
 23
0.0
 14
1.0
 24
1.0
 15
0.0
 25
0.0
 16
0.0
 26
0.0
 36
1.0
 17
531.9535768260303
 27
-54.90875110267189
 37
-796.100446371116
 40
3029.4
 41
1.998773006134969
 42
50.0
 43
0.0
 44
0.0
 50
0.0
 51
0.0
 71
    16
 72
  2000
 73
     1
 74
     1
 75
     0
 76
     0
 77
     0
 78
     0
281
     0
 65
     1
110
0.0
120
0.0
130
0.0
111
1.0
121
0.0
131
0.0
112
0.0
122
1.0
132
0.0
 79
     0
146
0.0
348
26C
 60
     3
 61
     5
292
     1
282
     1
141
0.0
142
0.0
 63
   256
361
BE4
  0
ENDTAB
  0
TABLE
  2
LTYPE
  5
4
330
0
100
AcDbSymbolTable
 70
     7
  0
LTYPE
  5
11
330
4
100
AcDbSymbolTableRecord
100
AcDbLinetypeTableRecord
  2
ByBlock
 70
     0
  3

 72
    65
 73
     0
 40
0.0
  0
LTYPE
  5
12
330
4
100
AcDbSymbolTableRecord
100
AcDbLinetypeTableRecord
  2
ByLayer
 70
     0
  3

 72
    65
 73
     0
 40
0.0
  0
LTYPE
  5
13
330
4
100
AcDbSymbolTableRecord
100
AcDbLinetypeTableRecord
  2
Continuous
 70
     0
  3
Solid line
 72
    65
 73
     0
 40
0.0
  0
LTYPE
  5
1A38
330
4
100
AcDbSymbolTableRecord
100
AcDbLinetypeTableRecord
  2
HIDDEN
 70
     0
  3
Hidden _ _ _ _ _ _ _ _ _ _ _ _ _ _ _ _ _ _ _ _ 
 72
    65
 73
     2
 40
9.524999999999999
 49
6.35
 74
     0
 49
-3.175
 74
     0
  0
LTYPE
  5
2496
330
4
100
AcDbSymbolTableRecord
100
AcDbLinetypeTableRecord
  2
CENTER2
 70
     0
  3
Center (.5x) ___ _ ___ _ ___ _ ___ _ ___ _ ___
 72
    65
 73
     4
 40
1.125
 49
0.75
 74
     0
 49
-0.125
 74
     0
 49
0.125
 74
     0
 49
-0.125
 74
     0
  0
LTYPE
  5
24DB
330
4
100
AcDbSymbolTableRecord
100
AcDbLinetypeTableRecord
  2
AM_DIN_F_W050
 70
     0
  3
__ __ __ __ __ __ __ __ __ __ __ __ __ __ __
 72
    65
 73
     2
 40
6.25
 49
4.75
 74
     0
 49
-1.5
 74
     0
  0
LTYPE
  5
3135
330
4
100
AcDbSymbolTableRecord
100
AcDbLinetypeTableRecord
  2
AM_DIN_G_W050
 70
     0
  3
____ . ____ . ____ . ____ . ____ . ____ . ____
 72
    65
 73
     4
 40
13.75
 49
9.75
 74
     0
 49
-1.5
 74
     0
 49
1.0
 74
     0
 49
-1.5
 74
     0
  0
ENDTAB
  0
TABLE
  2
LAYER
  5
2
102
{ACAD_XDICTIONARY
360
2E1
102
}
330
0
100
AcDbSymbolTable
 70
    10
  0
LAYER
  5
14
330
2
100
AcDbSymbolTableRecord
100
AcDbLayerTableRecord
  2
0
 70
     0
 62
     7
  6
Continuous
370
    -3
390
1D
347
266
  0
LAYER
  5
4A
330
2
100
AcDbSymbolTableRecord
100
AcDbLayerTableRecord
  2
Defpoints
 70
     0
 62
     7
  6
Continuous
290
     0
370
     9
390
1D
347
266
  0
LAYER
  5
4B
330
2
100
AcDbSymbolTableRecord
100
AcDbLayerTableRecord
  2
TEMPLATE
 70
     0
 62
     4
  6
Continuous
290
     0
370
    20
390
1D
347
266
  0
LAYER
  5
4D
330
2
100
AcDbSymbolTableRecord
100
AcDbLayerTableRecord
  2
MODEL
 70
     0
 62
     7
  6
Continuous
370
    20
390
1D
347
266
  0
LAYER
  5
382
330
2
100
AcDbSymbolTableRecord
100
AcDbLayerTableRecord
  2
LOGO
 70
     0
 62
     7
  6
Continuous
370
    -3
390
1D
347
266
  0
LAYER
  5
B7A
330
2
100
AcDbSymbolTableRecord
100
AcDbLayerTableRecord
  2
DIM
 70
     0
 62
     7
  6
Continuous
370
    13
390
1D
347
266
1001
AcAecLayerStandard
1000

1000

  0
LAYER
  5
3B0F
330
2
100
AcDbSymbolTableRecord
100
AcDbLayerTableRecord
  2
_0-7_
 70
     0
 62
     7
  6
Continuous
370
    -3
390
1D
347
266
  0
LAYER
  5
95C1
330
2
100
AcDbSymbolTableRecord
100
AcDbLayerTableRecord
  2
MODEL GRAY
 70
     0
 62
   252
  6
Continuous
370
    20
390
1D
347
266
1001
AcAecLayerStandard
1000

1000

  0
ENDTAB
  0
TABLE
  2
STYLE
  5
3
330
0
100
AcDbSymbolTable
 70
     7
  0
STYLE
  5
17
330
3
100
AcDbSymbolTableRecord
100
AcDbTextStyleTableRecord
  2
Standard
 70
     0
 40
0.0
 41
1.0
 50
0.0
 71
     0
 42
533.0403732820173
  3
txt
  4
BIGFONT.SHX
  0
STYLE
  5
39
330
3
100
AcDbSymbolTableRecord
100
AcDbTextStyleTableRecord
  2
ＭＳ ゴシック
 70
     0
 40
0.0
 41
1.0
 50
0.0
 71
     0
 42
533.0403732820173
  3
msgothic.ttc
  4
ＭＳ ゴシック
1001
ACAD
1000
ＭＳ ゴシック
1071
        0
  0
ENDTAB
  0
TABLE
  2
VIEW
  5
5
330
0
100
AcDbSymbolTable
 70
     0
  0
ENDTAB
  0
TABLE
  2
UCS
  5
6
330
0
100
AcDbSymbolTable
 70
     0
  0
ENDTAB
  0
TABLE
  2
APPID
  5
8
330
0
100
AcDbSymbolTable
 70
    12
  0
APPID
  5
16
330
8
100
AcDbSymbolTableRecord
100
AcDbRegAppTableRecord
  2
ACAD
 70
     0
  0
APPID
  5
5C5
330
8
100
AcDbSymbolTableRecord
100
AcDbRegAppTableRecord
  2
AcAecLayerStandard
 70
     0
  0
APPID
  5
694
330
8
100
AcDbSymbolTableRecord
100
AcDbRegAppTableRecord
  2
ACAD_DSTYLE_DIMJAG
 70
     0
  0
APPID
  5
695
330
8
100
AcDbSymbolTableRecord
100
AcDbRegAppTableRecord
  2
ACAD_DSTYLE_DIMTALN
 70
     0
  0
APPID
  5
69A
330
8
100
AcDbSymbolTableRecord
100
AcDbRegAppTableRecord
  2
ACAD_PSEXT
 70
     0
  0
APPID
  5
2499
330
8
100
AcDbSymbolTableRecord
100
AcDbRegAppTableRecord
  2
GENIUS_GENODEF_13
 70
     0
  0
APPID
  5
249A
330
8
100
AcDbSymbolTableRecord
100
AcDbRegAppTableRecord
  2
GENIUS_GENOBJ-N-FIL_13
 70
     0
  0
APPID
  5
249C
330
8
100
AcDbSymbolTableRecord
100
AcDbRegAppTableRecord
  2
AECBASE
 70
     0
  0
APPID
  5
249D
330
8
100
AcDbSymbolTableRecord
100
AcDbRegAppTableRecord
  2
AEC_2DSECTION_XDATA
 70
     0
  0
APPID
  5
249E
330
8
100
AcDbSymbolTableRecord
100
AcDbRegAppTableRecord
  2
AEC_MASSGROUP_XDADA
 70
     0
  0
APPID
  5
6EA7
330
8
100
AcDbSymbolTableRecord
100
AcDbRegAppTableRecord
  2
GENIUS_GENREC_14
 70
     0
  0
APPID
  5
6EA8
330
8
100
AcDbSymbolTableRecord
100
AcDbRegAppTableRecord
  2
GENIUS_GENOBJ-N-REC_13
 70
     0
  0
ENDTAB
  0
TABLE
  2
DIMSTYLE
  5
9
330
0
100
AcDbSymbolTable
 70
     6
100
AcDbDimStyleTable
  0
DIMSTYLE
105
18
330
9
100
AcDbSymbolTableRecord
100
AcDbDimStyleTableRecord
  2
Standard
 70
     0
178
     0
340
17
  0
DIMSTYLE
105
5C
102
{ACAD_REACTORS
330
43F2
330
43F4
330
43F5
330
4416
330
4417
330
4418
330
441A
330
441C
330
4422
330
4424
330
4426
330
4428
330
442F
330
4431
330
4434
330
98B2
102
}
330
9
100
AcDbSymbolTableRecord
100
AcDbDimStyleTableRecord
  2
JIS
 70
     0
  3
<>
  4
[]
 41
9.0
 42
0.0
 43
6.99999999999994
 44
19.9999999999962
 73
     0
 74
     0
 77
     1
 78
    11
140
24.4326171875
141
0.0
143
1.0
147
10.0
171
     1
174
     1
178
     0
179
     2
271
     1
272
     1
276
     2
284
    11
285
    11
286
    11
289
     0
340
39
341
4E
342
4E
  0
ENDTAB
  0
TABLE
  2
BLOCK_RECORD
  5
1
330
0
100
AcDbSymbolTable
 70
   396
  0
BLOCK_RECORD
  5
A
330
1
100
AcDbSymbolTableRecord
100
AcDbBlockTableRecord
  2
*MODEL_SPACE
340
20
 70
     0
280
     1
281
     0
  0
BLOCK_RECORD
  5
B
330
1
100
AcDbSymbolTableRecord
100
AcDbBlockTableRecord
  2
*PAPER_SPACE
340
21
 70
     0
280
     1
281
     0
  0
BLOCK_RECORD
  5
4E
330
1
100
AcDbSymbolTableRecord
100
AcDbBlockTableRecord
  2
_DOT
340
0
102
{BLKREFS
331
2FBC
331
2FBD
331
2FCE
331
2FCF
331
2FF7
331
2FF8
331
301C
331
301D
331
302D
331
302E
331
303A
331
303B
331
304A
331
304B
331
305C
331
305D
331
30C0
331
30C1
331
3940
331
3941
331
394F
331
3950
331
395E
331
395F
331
3A7D
331
3A7E
331
3A8C
331
3A8D
331
3A99
331
3A9A
331
3AA6
331
3AA7
331
3AFA
331
3AFB
331
3BA0
331
3BA1
331
3BAD
331
3BAE
331
3BBA
331
3BBB
331
3BCB
331
3BCC
331
3BDD
331
3BDE
331
3BEA
331
3BEB
331
3BFA
331
3BFB
331
3C07
331
3C08
331
3C18
331
3C19
331
3C35
331
3C36
331
3C4B
331
3C4C
331
3C5A
331
3C5B
331
3C67
331
3C68
331
3C78
331
3C79
331
3C84
331
3C85
331
3C90
331
3C91
331
3CA8
331
3CA9
331
3CC0
331
3CC1
331
3CCC
331
3CCD
331
3CEC
331
3CED
331
3CFB
331
3CFC
331
3D47
331
3D48
331
3D99
331
3D9A
331
3DAC
331
3DAD
331
3DC2
331
3DC3
331
3DDB
331
3DDC
331
3DE8
331
3DE9
331
3E05
331
3E06
331
3E16
331
3E17
331
3E22
331
3E23
331
3E31
331
3E32
331
3E49
331
3E4A
331
3E55
331
3E56
331
3E67
331
3E68
331
3E73
331
3E74
331
3E84
331
3E85
331
3E96
331
3E97
331
3EA2
331
3EA3
331
402C
331
402D
331
4038
331
4039
331
4044
331
4045
331
4050
331
4051
331
405C
331
405D
331
4068
331
4069
331
4074
331
4075
331
4080
331
4081
331
408C
331
408D
331
4098
331
4099
331
40A4
331
40A5
331
40B0
331
40B1
331
40BC
331
40BD
331
40C8
331
40C9
331
40D4
331
40D5
331
40E0
331
40E1
331
40EC
331
40ED
331
40F8
331
40F9
331
4270
331
4271
331
427C
331
427D
331
4288
331
4289
331
4294
331
4295
331
42A0
331
42A1
331
42AC
331
42AD
331
42B8
331
42B9
331
42C4
331
42C5
331
42D0
331
42D1
331
42DC
331
42DD
331
42E8
331
42E9
331
42F4
331
42F5
331
4300
331
4301
331
430C
331
430D
331
4318
331
4319
331
4324
331
4325
331
4330
331
4331
331
433C
331
433D
331
443B
331
443C
331
4447
331
4448
331
4453
331
4454
331
445F
331
4460
331
446B
331
446C
331
4477
331
4478
331
4483
331
4484
331
448F
331
4490
331
449B
331
449C
331
44A7
331
44A8
331
44B3
331
44B4
331
44BF
331
44C0
331
44CB
331
44CC
331
44D7
331
44D8
331
44E3
331
44E4
331
44EF
331
44F0
331
44FB
331
44FC
331
5244
331
5245
331
5252
331
5253
331
5282
331
5283
331
52A7
331
52A8
331
52B4
331
52B5
331
52CC
331
52CD
331
5333
331
5334
331
5343
331
5344
331
6CC6
331
6CC7
331
6CD2
331
6CD3
331
6CDE
331
6CDF
331
6CEA
331
6CEB
331
6CF6
331
6CF7
331
6D02
331
6D03
331
6D0E
331
6D0F
331
6D1A
331
6D1B
331
6D26
331
6D27
331
6D32
331
6D33
331
6D3E
331
6D3F
331
6D4A
331
6D4B
331
6D56
331
6D57
331
6D62
331
6D63
331
6D6E
331
6D6F
331
6D7A
331
6D7B
331
6D86
331
6D87
331
6D92
331
6D93
331
6D9E
331
6D9F
331
6DAA
331
6DAB
331
6DB6
331
6DB7
331
6DC2
331
6DC3
331
6DCE
331
6DCF
331
6DDA
331
6DDB
331
6DE6
331
6DE7
331
6DF2
331
6DF3
331
6DFE
331
6DFF
331
6E0A
331
6E0B
331
6E16
331
6E17
331
6E22
331
6E23
331
6E2E
331
6E2F
331
6E3A
331
6E3B
331
7246
331
7247
331
7255
331
7256
331
7264
331
7265
331
7274
331
7275
331
728A
331
728B
331
7335
331
7336
331
7344
331
7345
331
7353
331
7354
331
7362
331
7363
331
7371
331
7372
331
7380
331
7381
331
7454
331
7455
331
7463
331
7464
331
7470
331
7471
331
7481
331
7482
331
7490
331
7491
331
749F
331
74A0
331
74AE
331
74AF
331
81B9
331
81BA
331
81C6
331
81C7
331
81DE
331
81DF
331
81F9
331
81FA
331
820B
331
820C
331
821A
331
821B
331
8227
331
8228
331
8246
331
8247
331
8253
331
8254
331
8262
331
8263
331
8271
331
8272
331
8280
331
8281
331
828D
331
828E
331
829C
331
829D
331
82A9
331
82AA
331
82B8
331
82B9
331
82C7
331
82C8
331
82D4
331
82D5
331
82EF
331
82F0
331
8309
331
830A
331
832D
331
832E
331
833C
331
833D
331
8349
331
834A
331
8357
331
8358
331
8365
331
8366
331
8372
331
8373
331
8387
331
8388
331
8394
331
8395
331
83A3
331
83A4
331
83B3
331
83B4
331
83C3
331
83C4
331
83D4
331
83D5
331
83E9
331
83EA
331
83F8
331
83F9
331
840D
331
840E
331
841A
331
841B
331
8431
331
8432
331
8440
331
8441
331
8451
331
8452
331
8461
331
8462
331
8471
331
8472
331
8481
331
8482
331
8490
331
8491
331
84BF
331
84C0
331
84CB
331
84CC
331
84FB
331
84FC
331
850D
331
850E
331
851C
331
851D
331
8546
331
8547
331
8557
331
8558
331
8566
331
8567
331
8573
331
8574
331
8580
331
8581
331
858F
331
8590
331
85AA
331
85AB
331
85B9
331
85BA
331
85C9
331
85CA
331
85D8
331
85D9
331
85E6
331
85E7
331
85FF
331
8600
331
8617
331
8618
331
8629
331
862A
331
8638
331
8639
331
864D
331
864E
331
8667
331
8668
331
8673
331
8674
331
867F
331
8680
331
869A
331
869B
331
86AA
331
86AB
331
86BA
331
86BB
331
86C9
331
86CA
331
86D9
331
86DA
331
86ED
331
86EE
331
86FF
331
8700
331
875A
331
875B
331
8766
331
8767
331
8772
331
8773
331
8781
331
8782
331
8791
331
8792
331
87DB
331
87DC
331
87ED
331
87EE
331
8909
331
890A
331
8915
331
8916
331
8922
331
8923
331
8974
331
8975
331
8980
331
8981
331
898C
331
898D
331
8998
331
8999
331
89AA
331
89AB
331
8B8E
331
8B8F
331
8B9D
331
8B9E
331
8BAC
331
8BAD
331
8CF0
331
8CF1
331
8CFD
331
8CFE
331
8D0A
331
8D0B
331
8D17
331
8D18
331
8D26
331
8D27
331
8D38
331
8D39
331
8D53
331
8D54
331
8D62
331
8D63
331
8D72
331
8D73
331
8D82
331
8D83
331
8D92
331
8D93
331
8DA1
331
8DA2
331
8DB2
331
8DB3
331
8DD2
331
8DD3
331
8DEC
331
8DED
331
8E02
331
8E03
331
8E12
331
8E13
331
8E3C
331
8E3D
331
8E4B
331
8E4C
331
8E5A
331
8E5B
331
8E73
331
8E74
331
8E7F
331
8E80
331
8E8B
331
8E8C
331
8ED7
331
8ED8
331
8EE3
331
8EE4
331
8EF0
331
8EF1
331
8F0D
331
8F0E
331
8F1D
331
8F1E
331
8F97
331
8F98
331
8FA3
331
8FA4
331
8FC4
331
8FC5
331
8FD3
331
8FD4
331
8FE5
331
8FE6
331
8FFD
331
8FFE
331
901B
331
901C
331
902A
331
902B
331
9039
331
903A
331
905E
331
905F
331
9071
331
9072
331
907E
331
907F
331
9090
331
9091
331
909F
331
90A0
331
90AC
331
90AD
331
90C1
331
90C2
331
90D1
331
90D2
331
90E0
331
90E1
331
90EF
331
90F0
331
910C
331
910D
331
9118
331
9119
331
9124
331
9125
331
9148
331
9149
331
9154
331
9155
331
9160
331
9161
331
916C
331
916D
331
917B
331
917C
331
918C
331
918D
331
9198
331
9199
331
91A8
331
91A9
331
91B7
331
91B8
331
91C4
331
91C5
331
91D1
331
91D2
331
91E3
331
91E4
331
91F0
331
91F1
331
921A
331
921B
331
9229
331
922A
331
9293
331
9294
331
92A2
331
92A3
331
92B1
331
92B2
331
92BE
331
92BF
331
92CE
331
92CF
331
92DB
331
92DC
331
92ED
331
92EE
331
92FC
331
92FD
331
9318
331
9319
331
9330
331
9331
331
933D
331
933E
331
934A
331
934B
331
935C
331
935D
331
936B
331
936C
331
9387
331
9388
331
9394
331
9395
331
93A4
331
93A5
331
93E0
331
93E1
331
9536
331
9537
331
954F
331
9550
331
955F
331
9560
102
}
 70
     0
280
     1
281
     0
  0
BLOCK_RECORD
  5
3A5
330
1
100
AcDbSymbolTableRecord
100
AcDbBlockTableRecord
  2
名称未設定-1
340
0
102
{BLKREFS
331
4119
102
}
 70
     1
280
     1
281
     0
  0
BLOCK_RECORD
  5
3A8
330
1
100
AcDbSymbolTableRecord
100
AcDbBlockTableRecord
  2
block 2
340
0
102
{BLKREFS
331
3A7
102
}
 70
     0
280
     1
281
     0
  0
BLOCK_RECORD
  5
3AB
330
1
100
AcDbSymbolTableRecord
100
AcDbBlockTableRecord
  2
block 3
340
0
102
{BLKREFS
331
3AA
102
}
 70
     0
280
     1
281
     0
  0
BLOCK_RECORD
  5
3AE
330
1
100
AcDbSymbolTableRecord
100
AcDbBlockTableRecord
  2
block 4
340
0
102
{BLKREFS
331
3AD
102
}
 70
     0
280
     1
281
     0
  0
BLOCK_RECORD
  5
3BD
330
1
100
AcDbSymbolTableRecord
100
AcDbBlockTableRecord
  2
block 5
340
0
102
{BLKREFS
331
3BC
102
}
 70
     0
280
     1
281
     0
  0
BLOCK_RECORD
  5
4435
330
1
100
AcDbSymbolTableRecord
100
AcDbBlockTableRecord
  2
*D98
340
0
 70
     0
280
     1
281
     0
  0
BLOCK_RECORD
  5
4441
330
1
100
AcDbSymbolTableRecord
100
AcDbBlockTableRecord
  2
*D99
340
0
 70
     0
280
     1
281
     0
  0
BLOCK_RECORD
  5
444D
330
1
100
AcDbSymbolTableRecord
100
AcDbBlockTableRecord
  2
*D100
340
0
 70
     0
280
     1
281
     0
  0
BLOCK_RECORD
  5
4459
330
1
100
AcDbSymbolTableRecord
100
AcDbBlockTableRecord
  2
*D101
340
0
 70
     0
280
     1
281
     0
  0
BLOCK_RECORD
  5
4465
330
1
100
AcDbSymbolTableRecord
100
AcDbBlockTableRecord
  2
*D102
340
0
 70
     0
280
     1
281
     0
  0
BLOCK_RECORD
  5
4471
330
1
100
AcDbSymbolTableRecord
100
AcDbBlockTableRecord
  2
*D103
340
0
 70
     0
280
     1
281
     0
  0
BLOCK_RECORD
  5
447D
330
1
100
AcDbSymbolTableRecord
100
AcDbBlockTableRecord
  2
*D104
340
0
 70
     0
280
     1
281
     0
  0
BLOCK_RECORD
  5
4489
330
1
100
AcDbSymbolTableRecord
100
AcDbBlockTableRecord
  2
*D105
340
0
 70
     0
280
     1
281
     0
  0
BLOCK_RECORD
  5
4495
330
1
100
AcDbSymbolTableRecord
100
AcDbBlockTableRecord
  2
*D106
340
0
 70
     0
280
     1
281
     0
  0
BLOCK_RECORD
  5
44A1
330
1
100
AcDbSymbolTableRecord
100
AcDbBlockTableRecord
  2
*D107
340
0
 70
     0
280
     1
281
     0
  0
BLOCK_RECORD
  5
44AD
330
1
100
AcDbSymbolTableRecord
100
AcDbBlockTableRecord
  2
*D108
340
0
 70
     0
280
     1
281
     0
  0
BLOCK_RECORD
  5
44B9
330
1
100
AcDbSymbolTableRecord
100
AcDbBlockTableRecord
  2
*D109
340
0
 70
     0
280
     1
281
     0
  0
BLOCK_RECORD
  5
44D1
330
1
100
AcDbSymbolTableRecord
100
AcDbBlockTableRecord
  2
*D111
340
0
 70
     0
280
     1
281
     0
  0
BLOCK_RECORD
  5
44DD
330
1
100
AcDbSymbolTableRecord
100
AcDbBlockTableRecord
  2
*D112
340
0
 70
     0
280
     1
281
     0
  0
BLOCK_RECORD
  5
44F5
330
1
100
AcDbSymbolTableRecord
100
AcDbBlockTableRecord
  2
*D114
340
0
 70
     0
280
     1
281
     0
  0
ENDTAB
  0
ENDSEC
  0
SECTION
  2
BLOCKS
  0
BLOCK
  5
D
330
A
100
AcDbEntity
  8
0
390
1D
100
AcDbBlockBegin
  2
*MODEL_SPACE
 70
     0
 10
0.0
 20
0.0
 30
0.0
  3
*MODEL_SPACE
  1
*MODEL_SPACE
  0
ENDBLK
  5
E
330
A
100
AcDbEntity
  8
0
390
1D
100
AcDbBlockEnd
  0
BLOCK
  5
F
330
B
100
AcDbEntity
 67
     1
  8
0
390
1D
100
AcDbBlockBegin
  2
*PAPER_SPACE
 70
     0
 10
0.0
 20
0.0
 30
0.0
  3
*PAPER_SPACE
  1
*PAPER_SPACE
  0
ENDBLK
  5
10
330
B
100
AcDbEntity
 67
     1
  8
0
390
1D
100
AcDbBlockEnd
  0
BLOCK
  5
E45
330
4E
100
AcDbEntity
  8
0
390
1D
100
AcDbBlockBegin
  2
_DOT
 70
     0
 10
0.0
 20
0.0
 30
0.0
  3
_DOT
  1
_DOT
  0
POLYLINE
  5
E47
330
4E
100
AcDbEntity
  8
0
  6
ByBlock
 62
     0
370
    -2
390
1D
100
AcDb2dPolyline
 66
     1
 10
0.0
 20
0.0
 30
0.0
 70
     1
 40
0.5
 41
0.5
  0
VERTEX
  5
E48
330
E47
100
AcDbEntity
  8
0
  6
ByBlock
 62
     0
370
    -2
390
1D
100
AcDbVertex
100
AcDb2dVertex
 10
-0.25
 20
0.0
 30
0.0
 42
1.0
  0
VERTEX
  5
E49
330
E47
100
AcDbEntity
  8
0
  6
ByBlock
 62
     0
370
    -2
390
1D
100
AcDbVertex
100
AcDb2dVertex
 10
0.25
 20
0.0
 30
0.0
 42
1.0
  0
SEQEND
  5
E4A
330
E47
100
AcDbEntity
  8
0
390
1D
  0
LINE
  5
E4B
330
4E
100
AcDbEntity
  8
0
  6
ByBlock
 62
     0
370
    -2
390
1D
100
AcDbLine
 10
-0.5
 20
0.0
 30
0.0
 11
-1.0
 21
0.0
 31
0.0
  0
ENDBLK
  5
E4C
330
4E
100
AcDbEntity
  8
0
390
1D
100
AcDbBlockEnd
  0
BLOCK
  5
3A6
330
3A5
100
AcDbEntity
  8
0
100
AcDbBlockBegin
  2
名称未設定-1
 70
     0
 10
0.0
 20
0.0
 30
0.0
  3
名称未設定-1
  1
名称未設定-1
  0
INSERT
  5
3A7
330
3A5
100
AcDbEntity
  8
LOGO
100
AcDbBlockReference
  2
block 2
 10
0.0
 20
0.0
 30
0.0
  0
ENDBLK
  5
3CC
330
3A5
100
AcDbEntity
  8
0
100
AcDbBlockEnd
  0
BLOCK
  5
3A9
330
3A8
100
AcDbEntity
  8
0
100
AcDbBlockBegin
  2
block 2
 70
     0
 10
0.0
 20
0.0
 30
0.0
  3
block 2
  1
block 2
  0
INSERT
  5
3AA
330
3A8
100
AcDbEntity
  8
LOGO
100
AcDbBlockReference
  2
block 3
 10
0.0
 20
0.0
 30
0.0
  0
ENDBLK
  5
3CB
330
3A8
100
AcDbEntity
  8
0
100
AcDbBlockEnd
  0
BLOCK
  5
3AC
330
3AB
100
AcDbEntity
  8
0
100
AcDbBlockBegin
  2
block 3
 70
     0
 10
0.0
 20
0.0
 30
0.0
  3
block 3
  1
block 3
  0
INSERT
  5
3AD
330
3AB
100
AcDbEntity
  8
LOGO
100
AcDbBlockReference
  2
block 4
 10
0.0
 20
0.0
 30
0.0
  0
ENDBLK
  5
3CA
330
3AB
100
AcDbEntity
  8
0
100
AcDbBlockEnd
  0
BLOCK
  5
3AF
330
3AE
100
AcDbEntity
  8
0
100
AcDbBlockBegin
  2
block 4
 70
     0
 10
0.0
 20
0.0
 30
0.0
  3
block 4
  1
block 4
  0
POLYLINE
  5
3B0
330
3AE
100
AcDbEntity
  8
LOGO
370
     0
100
AcDb2dPolyline
 66
     1
 10
0.0
 20
0.0
 30
0.0
  0
VERTEX
  5
3B1
330
3B0
100
AcDbEntity
  8
LOGO
370
     0
100
AcDbVertex
100
AcDb2dVertex
 10
83.79545727667795
 20
167.6444858234922
 30
0.0
  0
VERTEX
  5
3B2
330
3B0
100
AcDbEntity
  8
LOGO
370
     0
100
AcDbVertex
100
AcDb2dVertex
 10
83.79545727667795
 20
159.7968976406313
 30
0.0
  0
VERTEX
  5
3B3
330
3B0
100
AcDbEntity
  8
LOGO
370
     0
100
AcDbVertex
100
AcDb2dVertex
 10
71.3631329975216
 20
159.7968976406313
 30
0.0
  0
VERTEX
  5
3B4
330
3B0
100
AcDbEntity
  8
LOGO
370
     0
100
AcDbVertex
100
AcDb2dVertex
 10
71.3631329975216
 20
127.8027915271048
 30
0.0
  0
VERTEX
  5
3B5
330
3B0
100
AcDbEntity
  8
LOGO
370
     0
100
AcDbVertex
100
AcDb2dVertex
 10
60.43011526263018
 20
127.8027915271048
 30
0.0
  0
VERTEX
  5
3B6
330
3B0
100
AcDbEntity
  8
LOGO
370
     0
100
AcDbVertex
100
AcDb2dVertex
 10
60.43011526263018
 20
159.7968976406313
 30
0.0
  0
VERTEX
  5
3B7
330
3B0
100
AcDbEntity
  8
LOGO
370
     0
100
AcDbVertex
100
AcDb2dVertex
 10
48.21793273020759
 20
159.7968976406313
 30
0.0
  0
VERTEX
  5
3B8
330
3B0
100
AcDbEntity
  8
LOGO
370
     0
100
AcDbVertex
100
AcDb2dVertex
 10
48.21793273020759
 20
167.6444858234922
 30
0.0
  0
VERTEX
  5
3B9
330
3B0
100
AcDbEntity
  8
LOGO
370
     0
100
AcDbVertex
100
AcDb2dVertex
 10
83.79545727667795
 20
167.6444858234922
 30
0.0
  0
SEQEND
  5
3BA
330
3B0
100
AcDbEntity
  8
LOGO
370
     0
  0
HATCH
  5
3BB
330
3AE
100
AcDbEntity
  8
LOGO
 62
   250
420
  2234388
100
AcDbHatch
 10
0.0
 20
0.0
 30
0.0
210
0.0
220
0.0
230
1.0
  2
SOLID
 70
     1
 71
     0
 91
        1
 92
        1
 93
        8
 72
     1
 10
83.79545727667795
 20
167.6444858234922
 11
83.79545727667795
 21
159.7968976406313
 72
     1
 10
83.79545727667795
 20
159.7968976406313
 11
71.3631329975216
 21
159.7968976406313
 72
     1
 10
71.3631329975216
 20
159.7968976406313
 11
71.3631329975216
 21
127.8027915271048
 72
     1
 10
71.3631329975216
 20
127.8027915271048
 11
60.43011526263018
 21
127.8027915271048
 72
     1
 10
60.43011526263018
 20
127.8027915271048
 11
60.43011526263018
 21
159.7968976406313
 72
     1
 10
60.43011526263018
 20
159.7968976406313
 11
48.21793273020759
 21
159.7968976406313
 72
     1
 10
48.21793273020759
 20
159.7968976406313
 11
48.21793273020759
 21
167.6444858234922
 72
     1
 10
48.21793273020759
 20
167.6444858234922
 11
83.79545727667795
 21
167.6444858234922
 97
        0
 75
     2
 76
     1
 98
        0
  0
INSERT
  5
3BC
330
3AE
100
AcDbEntity
  8
LOGO
100
AcDbBlockReference
  2
block 5
 10
0.0
 20
0.0
 30
0.0
  0
ENDBLK
  5
3C9
330
3AE
100
AcDbEntity
  8
0
100
AcDbBlockEnd
  0
BLOCK
  5
3BE
330
3BD
100
AcDbEntity
  8
0
100
AcDbBlockBegin
  2
block 5
 70
     0
 10
0.0
 20
0.0
 30
0.0
  3
block 5
  1
block 5
  0
SPLINE
  5
3BF
330
3BD
100
AcDbEntity
  8
LOGO
370
     0
100
AcDbSpline
210
0.0
220
0.0
230
1.0
 70
    11
 71
     3
 72
    56
 73
    52
 74
     0
 42
0.000000001
 43
0.0000000001
 40
0.0
 40
0.0
 40
0.0
 40
0.0
 40
1.0
 40
1.0
 40
1.0
 40
2.0
 40
2.0
 40
2.0
 40
3.0
 40
3.0
 40
3.0
 40
4.0
 40
4.0
 40
4.0
 40
5.0
 40
5.0
 40
5.0
 40
6.0
 40
6.0
 40
6.0
 40
7.0
 40
7.0
 40
7.0
 40
8.0
 40
8.0
 40
8.0
 40
9.0
 40
9.0
 40
9.0
 40
10.0
 40
10.0
 40
10.0
 40
11.0
 40
11.0
 40
11.0
 40
12.0
 40
12.0
 40
12.0
 40
13.0
 40
13.0
 40
13.0
 40
14.0
 40
14.0
 40
14.0
 40
15.0
 40
15.0
 40
15.0
 40
16.0
 40
16.0
 40
16.0
 40
17.0
 40
17.0
 40
17.0
 40
17.0
 10
100.4504378777679
 20
166.69157178364
 30
0.0
 10
101.9848844191641
 20
167.1313385124438
 30
0.0
 10
103.9637485713373
 20
166.7649523658846
 30
0.0
 10
103.9637485713373
 20
166.7649523658846
 30
0.0
 10
103.9637485713373
 20
166.7649523658846
 30
0.0
 10
103.0132460999156
 20
163.911205638077
 30
0.0
 10
103.0132460999156
 20
163.911205638077
 30
0.0
 10
103.0132460999156
 20
163.911205638077
 30
0.0
 10
101.0674548862189
 20
164.3601018759394
 30
0.0
 10
99.57090442016032
 20
163.1805004036133
 30
0.0
 10
98.40508333886608
 20
162.258247733807
 30
0.0
 10
97.65301849830304
 20
159.804132345923
 30
0.0
 10
97.3598406791005
 20
158.8699940888517
 30
0.0
 10
97.3598406791005
 20
158.8699940888517
 30
0.0
 10
96.07137411762282
 20
154.9119212747295
 30
0.0
 10
96.07137411762282
 20
154.9119212747295
 30
0.0
 10
96.07137411762282
 20
154.9119212747295
 30
0.0
 10
100.3012651448482
 20
154.9119212747295
 30
0.0
 10
100.3012651448482
 20
154.9119212747295
 30
0.0
 10
100.3012651448482
 20
154.9119212747295
 30
0.0
 10
99.64152892419852
 20
152.4199098115079
 30
0.0
 10
99.64152892419852
 20
152.4199098115079
 30
0.0
 10
99.64152892419852
 20
152.4199098115079
 30
0.0
 10
95.38097652692731
 20
152.4199098115079
 30
0.0
 10
95.38097652692731
 20
152.4199098115079
 30
0.0
 10
95.38097652692731
 20
152.4199098115079
 30
0.0
 10
87.75353009080013
 20
127.8027915271048
 30
0.0
 10
87.75353009080013
 20
127.8027915271048
 30
0.0
 10
87.75353009080013
 20
127.8027915271048
 30
0.0
 10
85.36538832498108
 20
127.8027915271048
 30
0.0
 10
85.36538832498108
 20
127.8027915271048
 30
0.0
 10
85.36538832498108
 20
127.8027915271048
 30
0.0
 10
93.00006946639998
 20
152.4199098115079
 30
0.0
 10
93.00006946639998
 20
152.4199098115079
 30
0.0
 10
93.00006946639998
 20
152.4199098115079
 30
0.0
 10
89.85297266450198
 20
152.4199098115079
 30
0.0
 10
89.85297266450198
 20
152.4199098115079
 30
0.0
 10
89.85297266450198
 20
152.4199098115079
 30
0.0
 10
90.51270888515164
 20
154.9119212747295
 30
0.0
 10
90.51270888515164
 20
154.9119212747295
 30
0.0
 10
90.51270888515164
 20
154.9119212747295
 30
0.0
 10
93.6904670570955
 20
154.9119212747295
 30
0.0
 10
93.6904670570955
 20
154.9119212747295
 30
0.0
 10
93.6904670570955
 20
154.9119212747295
 30
0.0
 10
94.81598049462158
 20
158.3616699146644
 30
0.0
 10
94.81598049462158
 20
158.3616699146644
 30
0.0
 10
95.7237637538445
 20
161.2605474231013
 30
0.0
 10
96.4968436907311
 20
162.8139420021662
 30
0.0
 10
97.15657991138076
 20
163.9844139654337
 30
0.0
 10
97.81183750494507
 20
165.1523021053827
 30
0.0
 10
99.1047826935081
 20
166.3084769129547
 30
0.0
 10
100.4504378777679
 20
166.69157178364
 30
0.0
  0
HATCH
  5
3C0
330
3BD
100
AcDbEntity
  8
LOGO
 62
   250
420
  2234388
100
AcDbHatch
 10
0.0
 20
0.0
 30
0.0
210
0.0
220
0.0
230
1.0
  2
SOLID
 70
     1
 71
     0
 91
        1
 92
        1
 93
        1
 72
     4
 94
        3
 73
     0
 74
     1
 95
       56
 96
       52
 40
0.0
 40
0.0
 40
0.0
 40
0.0
 40
1.0
 40
1.0
 40
1.0
 40
2.0
 40
2.0
 40
2.0
 40
3.0
 40
3.0
 40
3.0
 40
4.0
 40
4.0
 40
4.0
 40
5.0
 40
5.0
 40
5.0
 40
6.0
 40
6.0
 40
6.0
 40
7.0
 40
7.0
 40
7.0
 40
8.0
 40
8.0
 40
8.0
 40
9.0
 40
9.0
 40
9.0
 40
10.0
 40
10.0
 40
10.0
 40
11.0
 40
11.0
 40
11.0
 40
12.0
 40
12.0
 40
12.0
 40
13.0
 40
13.0
 40
13.0
 40
14.0
 40
14.0
 40
14.0
 40
15.0
 40
15.0
 40
15.0
 40
16.0
 40
16.0
 40
16.0
 40
17.0
 40
17.0
 40
17.0
 40
17.0
 10
100.4504378777679
 20
166.69157178364
 10
101.9848844191641
 20
167.1313385124438
 10
103.9637485713373
 20
166.7649523658846
 10
103.9637485713373
 20
166.7649523658846
 10
103.9637485713373
 20
166.7649523658846
 10
103.0132460999156
 20
163.911205638077
 10
103.0132460999156
 20
163.911205638077
 10
103.0132460999156
 20
163.911205638077
 10
101.0674548862189
 20
164.3601018759394
 10
99.57090442016032
 20
163.1805004036133
 10
98.40508333886608
 20
162.258247733807
 10
97.65301849830304
 20
159.804132345923
 10
97.3598406791005
 20
158.8699940888517
 10
97.3598406791005
 20
158.8699940888517
 10
96.07137411762282
 20
154.9119212747295
 10
96.07137411762282
 20
154.9119212747295
 10
96.07137411762282
 20
154.9119212747295
 10
100.3012651448482
 20
154.9119212747295
 10
100.3012651448482
 20
154.9119212747295
 10
100.3012651448482
 20
154.9119212747295
 10
99.64152892419852
 20
152.4199098115079
 10
99.64152892419852
 20
152.4199098115079
 10
99.64152892419852
 20
152.4199098115079
 10
95.38097652692731
 20
152.4199098115079
 10
95.38097652692731
 20
152.4199098115079
 10
95.38097652692731
 20
152.4199098115079
 10
87.75353009080013
 20
127.8027915271048
 10
87.75353009080013
 20
127.8027915271048
 10
87.75353009080013
 20
127.8027915271048
 10
85.36538832498108
 20
127.8027915271048
 10
85.36538832498108
 20
127.8027915271048
 10
85.36538832498108
 20
127.8027915271048
 10
93.00006946639998
 20
152.4199098115079
 10
93.00006946639998
 20
152.4199098115079
 10
93.00006946639998
 20
152.4199098115079
 10
89.85297266450198
 20
152.4199098115079
 10
89.85297266450198
 20
152.4199098115079
 10
89.85297266450198
 20
152.4199098115079
 10
90.51270888515164
 20
154.9119212747295
 10
90.51270888515164
 20
154.9119212747295
 10
90.51270888515164
 20
154.9119212747295
 10
93.6904670570955
 20
154.9119212747295
 10
93.6904670570955
 20
154.9119212747295
 10
93.6904670570955
 20
154.9119212747295
 10
94.81598049462158
 20
158.3616699146644
 10
94.81598049462158
 20
158.3616699146644
 10
95.7237637538445
 20
161.2605474231013
 10
96.4968436907311
 20
162.8139420021662
 10
97.15657991138076
 20
163.9844139654337
 10
97.81183750494507
 20
165.1523021053827
 10
99.1047826935081
 20
166.3084769129547
 10
100.4504378777679
 20
166.69157178364
 97
        0
 75
     2
 76
     1
 98
        0
  0
SPLINE
  5
3C1
330
3BD
100
AcDbEntity
  8
LOGO
370
     0
100
AcDbSpline
210
0.0
220
0.0
230
1.0
 70
    11
 71
     3
 72
    38
 73
    34
 74
     0
 42
0.000000001
 43
0.0000000001
 40
0.0
 40
0.0
 40
0.0
 40
0.0
 40
1.0
 40
1.0
 40
1.0
 40
2.0
 40
2.0
 40
2.0
 40
3.0
 40
3.0
 40
3.0
 40
4.0
 40
4.0
 40
4.0
 40
5.0
 40
5.0
 40
5.0
 40
6.0
 40
6.0
 40
6.0
 40
7.0
 40
7.0
 40
7.0
 40
8.0
 40
8.0
 40
8.0
 40
9.0
 40
9.0
 40
9.0
 40
10.0
 40
10.0
 40
10.0
 40
11.0
 40
11.0
 40
11.0
 40
11.0
 10
126.377554584636
 20
154.8151140277308
 30
0.0
 10
126.377554584636
 20
154.8151140277308
 30
0.0
 10
128.8311532078563
 20
154.8151140277308
 30
0.0
 10
128.8311532078563
 20
154.8151140277308
 30
0.0
 10
128.8311532078563
 20
154.8151140277308
 30
0.0
 10
127.7345785914971
 20
151.3062819612468
 30
0.0
 10
127.7345785914971
 20
151.3062819612468
 30
0.0
 10
128.571392836906
 20
152.2922689395754
 30
0.0
 10
129.8860421413442
 20
153.604506675583
 30
0.0
 10
131.0163787157314
 20
154.2664822097754
 30
0.0
 10
132.7044766171327
 20
155.2500576196734
 30
0.0
 10
133.6642808525008
 20
155.3847609420097
 30
0.0
 10
134.7284715499351
 20
155.3565111403944
 30
0.0
 10
134.7284715499351
 20
155.3565111403944
 30
0.0
 10
133.6877075172549
 20
152.0345756272799
 30
0.0
 10
133.6877075172549
 20
152.0345756272799
 30
0.0
 10
133.011434827367
 20
152.3184516825359
 30
0.0
 10
130.930940291334
 20
151.7768823149844
 30
0.0
 10
129.739280976855
 20
150.9162968950455
 30
0.0
 10
128.66613302525
 20
150.1454562717016
 30
0.0
 10
127.9192358313239
 20
149.4857200510519
 30
0.0
 10
127.0393578639405
 20
147.8282835196966
 30
0.0
 10
126.164647543194
 20
146.1699857139017
 30
0.0
 10
125.4742499524985
 20
143.5262176944419
 30
0.0
 10
124.2822461282437
 20
139.6959580071401
 30
0.0
 10
124.2822461282437
 20
139.6959580071401
 30
0.0
 10
120.5753209406769
 20
127.8027915271048
 30
0.0
 10
120.5753209406769
 20
127.8027915271048
 30
0.0
 10
120.5753209406769
 20
127.8027915271048
 30
0.0
 10
118.1964809388044
 20
127.8027915271048
 30
0.0
 10
118.1964809388044
 20
127.8027915271048
 30
0.0
 10
118.1964809388044
 20
127.8027915271048
 30
0.0
 10
126.377554584636
 20
154.8151140277308
 30
0.0
 10
126.377554584636
 20
154.8151140277308
 30
0.0
  0
HATCH
  5
3C2
330
3BD
100
AcDbEntity
  8
LOGO
 62
   250
420
  2234388
100
AcDbHatch
 10
0.0
 20
0.0
 30
0.0
210
0.0
220
0.0
230
1.0
  2
SOLID
 70
     1
 71
     0
 91
        1
 92
        1
 93
        1
 72
     4
 94
        3
 73
     0
 74
     1
 95
       38
 96
       34
 40
0.0
 40
0.0
 40
0.0
 40
0.0
 40
1.0
 40
1.0
 40
1.0
 40
2.0
 40
2.0
 40
2.0
 40
3.0
 40
3.0
 40
3.0
 40
4.0
 40
4.0
 40
4.0
 40
5.0
 40
5.0
 40
5.0
 40
6.0
 40
6.0
 40
6.0
 40
7.0
 40
7.0
 40
7.0
 40
8.0
 40
8.0
 40
8.0
 40
9.0
 40
9.0
 40
9.0
 40
10.0
 40
10.0
 40
10.0
 40
11.0
 40
11.0
 40
11.0
 40
11.0
 10
126.377554584636
 20
154.8151140277308
 10
126.377554584636
 20
154.8151140277308
 10
128.8311532078563
 20
154.8151140277308
 10
128.8311532078563
 20
154.8151140277308
 10
128.8311532078563
 20
154.8151140277308
 10
127.7345785914971
 20
151.3062819612468
 10
127.7345785914971
 20
151.3062819612468
 10
128.571392836906
 20
152.2922689395754
 10
129.8860421413442
 20
153.604506675583
 10
131.0163787157314
 20
154.2664822097754
 10
132.7044766171327
 20
155.2500576196734
 10
133.6642808525008
 20
155.3847609420097
 10
134.7284715499351
 20
155.3565111403944
 10
134.7284715499351
 20
155.3565111403944
 10
133.6877075172549
 20
152.0345756272799
 10
133.6877075172549
 20
152.0345756272799
 10
133.011434827367
 20
152.3184516825359
 10
130.930940291334
 20
151.7768823149844
 10
129.739280976855
 20
150.9162968950455
 10
128.66613302525
 20
150.1454562717016
 10
127.9192358313239
 20
149.4857200510519
 10
127.0393578639405
 20
147.8282835196966
 10
126.164647543194
 20
146.1699857139017
 10
125.4742499524985
 20
143.5262176944419
 10
124.2822461282437
 20
139.6959580071401
 10
124.2822461282437
 20
139.6959580071401
 10
120.5753209406769
 20
127.8027915271048
 10
120.5753209406769
 20
127.8027915271048
 10
120.5753209406769
 20
127.8027915271048
 10
118.1964809388044
 20
127.8027915271048
 10
118.1964809388044
 20
127.8027915271048
 10
118.1964809388044
 20
127.8027915271048
 10
126.377554584636
 20
154.8151140277308
 10
126.377554584636
 20
154.8151140277308
 97
        0
 75
     2
 76
     1
 98
        0
  0
SPLINE
  5
3C3
330
3BD
100
AcDbEntity
  8
LOGO
370
     0
100
AcDbSpline
210
0.0
220
0.0
230
1.0
 70
    11
 71
     3
 72
   104
 73
   100
 74
     0
 42
0.000000001
 43
0.0000000001
 40
0.0
 40
0.0
 40
0.0
 40
0.0
 40
1.0
 40
1.0
 40
1.0
 40
2.0
 40
2.0
 40
2.0
 40
3.0
 40
3.0
 40
3.0
 40
4.0
 40
4.0
 40
4.0
 40
5.0
 40
5.0
 40
5.0
 40
6.0
 40
6.0
 40
6.0
 40
7.0
 40
7.0
 40
7.0
 40
8.0
 40
8.0
 40
8.0
 40
9.0
 40
9.0
 40
9.0
 40
10.0
 40
10.0
 40
10.0
 40
11.0
 40
11.0
 40
11.0
 40
12.0
 40
12.0
 40
12.0
 40
13.0
 40
13.0
 40
13.0
 40
14.0
 40
14.0
 40
14.0
 40
15.0
 40
15.0
 40
15.0
 40
16.0
 40
16.0
 40
16.0
 40
17.0
 40
17.0
 40
17.0
 40
18.0
 40
18.0
 40
18.0
 40
19.0
 40
19.0
 40
19.0
 40
20.0
 40
20.0
 40
20.0
 40
21.0
 40
21.0
 40
21.0
 40
22.0
 40
22.0
 40
22.0
 40
23.0
 40
23.0
 40
23.0
 40
24.0
 40
24.0
 40
24.0
 40
25.0
 40
25.0
 40
25.0
 40
26.0
 40
26.0
 40
26.0
 40
27.0
 40
27.0
 40
27.0
 40
28.0
 40
28.0
 40
28.0
 40
29.0
 40
29.0
 40
29.0
 40
30.0
 40
30.0
 40
30.0
 40
31.0
 40
31.0
 40
31.0
 40
32.0
 40
32.0
 40
32.0
 40
33.0
 40
33.0
 40
33.0
 40
33.0
 10
139.8926730891197
 20
154.8294111834263
 30
0.0
 10
139.8926730891197
 20
154.8294111834263
 30
0.0
 10
142.0344903652445
 20
154.8294111834263
 30
0.0
 10
142.0344903652445
 20
154.8294111834263
 30
0.0
 10
142.0344903652445
 20
154.8294111834263
 30
0.0
 10
140.9516961399171
 20
151.3157559800812
 30
0.0
 10
140.9516961399171
 20
151.3157559800812
 30
0.0
 10
141.8928968473923
 20
152.7887075264977
 30
0.0
 10
142.7341897198865
 20
153.4484437471474
 30
0.0
 10
143.8552245303272
 20
154.2926649527359
 30
0.0
 10
144.9803934580775
 20
155.1296514530327
 30
0.0
 10
146.3139908001845
 20
155.3044901642492
 30
0.0
 10
147.241066606852
 20
155.3044901642492
 30
0.0
 10
148.3855280820469
 20
155.3044901642492
 30
0.0
 10
149.4969166187653
 20
155.0752189084569
 30
0.0
 10
150.0784491203092
 20
153.8172414621372
 30
0.0
 10
150.5228667310863
 20
152.833838307127
 30
0.0
 10
150.5414702589793
 20
152.7201500811143
 30
0.0
 10
150.4140016419347
 20
150.7765981809602
 30
0.0
 10
151.5818897818837
 20
152.7699317437168
 30
0.0
 10
152.4424752018226
 20
153.6256940267945
 30
0.0
 10
153.9038856707499
 20
154.4507949398263
 30
0.0
 10
155.4455669174378
 20
155.3044901642492
 30
0.0
 10
156.339225275853
 20
155.3659851592288
 30
0.0
 10
157.3748216618963
 20
155.2147453676543
 30
0.0
 10
158.911679771723
 20
154.9877134254046
 30
0.0
 10
159.8859534176746
 20
154.4390816074493
 30
0.0
 10
160.3965169054045
 20
152.7816450760939
 30
0.0
 10
160.9070803931344
 20
151.1219692311958
 30
0.0
 10
160.6328506116007
 20
150.2303779314354
 30
0.0
 10
159.9992971339115
 20
147.597634224801
 30
0.0
 10
159.7105979417943
 20
146.4014962832367
 30
0.0
 10
159.2947746424084
 20
144.9400858143094
 30
0.0
 10
158.7463150793409
 20
143.2092687007094
 30
0.0
 10
158.7463150793409
 20
143.2092687007094
 30
0.0
 10
153.9038856707499
 20
127.8027915271048
 30
0.0
 10
153.9038856707499
 20
127.8027915271048
 30
0.0
 10
153.9038856707499
 20
127.8027915271048
 30
0.0
 10
151.3882752878863
 20
127.8027915271048
 30
0.0
 10
151.3882752878863
 20
127.8027915271048
 30
0.0
 10
151.3882752878863
 20
127.8027915271048
 30
0.0
 10
155.6250565106276
 20
141.2751908193897
 30
0.0
 10
155.6250565106276
 20
141.2751908193897
 30
0.0
 10
156.5094131050963
 20
144.0936252951782
 30
0.0
 10
157.109893644309
 20
146.1506931664571
 30
0.0
 10
157.4220195011804
 20
147.4415712963654
 30
0.0
 10
157.8095929989511
 20
149.0530157726519
 30
0.0
 10
157.9656559273867
 20
149.5826995529385
 30
0.0
 10
157.7816877071116
 20
150.7529992613181
 30
0.0
 10
157.6111553680925
 20
151.8430281919372
 30
0.0
 10
157.0582171779396
 20
152.5547853887321
 30
0.0
 10
156.1170164704645
 20
152.5547853887321
 30
0.0
 10
155.1096698860365
 20
152.5547853887321
 30
0.0
 10
154.2962823053817
 20
152.4412694176073
 30
0.0
 10
153.156643967048
 20
151.2945686288697
 30
0.0
 10
152.0170056287143
 20
150.1476955852443
 30
0.0
 10
151.076149431015
 20
148.7930831468137
 30
0.0
 10
150.3337308641742
 20
147.2290087646991
 30
0.0
 10
149.5957909244188
 20
145.6683794803425
 30
0.0
 10
148.8530278478023
 20
143.6822806228776
 30
0.0
 10
148.0964843801539
 20
141.2751908193897
 30
0.0
 10
148.0964843801539
 20
141.2751908193897
 30
0.0
 10
143.8552245303272
 20
127.8027915271048
 30
0.0
 10
143.8552245303272
 20
127.8027915271048
 30
0.0
 10
143.8552245303272
 20
127.8027915271048
 30
0.0
 10
141.486030802177
 20
127.8027915271048
 30
0.0
 10
141.486030802177
 20
127.8027915271048
 30
0.0
 10
141.486030802177
 20
127.8027915271048
 30
0.0
 10
146.3329388378533
 20
143.2092687007094
 30
0.0
 10
146.3329388378533
 20
143.2092687007094
 30
0.0
 10
146.8483254624444
 20
144.8408669988801
 30
0.0
 10
147.2314203331297
 20
146.1837661049335
 30
0.0
 10
147.4867020769946
 20
147.224185627838
 30
0.0
 10
147.9169947869641
 20
149.0197705792876
 30
0.0
 10
148.0306830129768
 20
150.2400242051577
 30
0.0
 10
147.709255392159
 20
151.3157559800812
 30
0.0
 10
147.3874832615654
 20
152.3916600098926
 30
0.0
 10
146.8245542879144
 20
152.6683013598569
 30
0.0
 10
145.8840425999909
 20
152.6683013598569
 30
0.0
 10
145.0989048209514
 20
152.6683013598569
 30
0.0
 10
144.3282364524954
 20
152.3275811915945
 30
0.0
 10
143.4531816219731
 20
151.6538923250251
 30
0.0
 10
142.34627171234
 20
150.8074318058939
 30
0.0
 10
141.901854101563
 20
150.1097995099067
 30
0.0
 10
141.3578731655808
 20
149.289521733736
 30
0.0
 10
140.6299240093235
 20
148.192602607601
 30
0.0
 10
140.2850697237515
 20
147.455696197173
 30
0.0
 10
139.6652966370942
 20
145.8385673095858
 30
0.0
 10
139.0506911970739
 20
144.2214384219986
 30
0.0
 10
138.463991048893
 20
142.3252566160164
 30
0.0
 10
138.0571250036777
 20
141.0154304484394
 30
0.0
 10
138.0571250036777
 20
141.0154304484394
 30
0.0
 10
133.9009590684727
 20
127.8027915271048
 30
0.0
 10
133.9009590684727
 20
127.8027915271048
 30
0.0
 10
133.9009590684727
 20
127.8027915271048
 30
0.0
 10
131.4180771143097
 20
127.8027915271048
 30
0.0
 10
131.4180771143097
 20
127.8027915271048
 30
0.0
 10
131.4180771143097
 20
127.8027915271048
 30
0.0
 10
139.8926730891197
 20
154.8294111834263
 30
0.0
 10
139.8926730891197
 20
154.8294111834263
 30
0.0
  0
HATCH
  5
3C4
330
3BD
100
AcDbEntity
  8
LOGO
 62
   250
420
  2234388
100
AcDbHatch
 10
0.0
 20
0.0
 30
0.0
210
0.0
220
0.0
230
1.0
  2
SOLID
 70
     1
 71
     0
 91
        1
 92
        1
 93
        1
 72
     4
 94
        3
 73
     0
 74
     1
 95
      104
 96
      100
 40
0.0
 40
0.0
 40
0.0
 40
0.0
 40
1.0
 40
1.0
 40
1.0
 40
2.0
 40
2.0
 40
2.0
 40
3.0
 40
3.0
 40
3.0
 40
4.0
 40
4.0
 40
4.0
 40
5.0
 40
5.0
 40
5.0
 40
6.0
 40
6.0
 40
6.0
 40
7.0
 40
7.0
 40
7.0
 40
8.0
 40
8.0
 40
8.0
 40
9.0
 40
9.0
 40
9.0
 40
10.0
 40
10.0
 40
10.0
 40
11.0
 40
11.0
 40
11.0
 40
12.0
 40
12.0
 40
12.0
 40
13.0
 40
13.0
 40
13.0
 40
14.0
 40
14.0
 40
14.0
 40
15.0
 40
15.0
 40
15.0
 40
16.0
 40
16.0
 40
16.0
 40
17.0
 40
17.0
 40
17.0
 40
18.0
 40
18.0
 40
18.0
 40
19.0
 40
19.0
 40
19.0
 40
20.0
 40
20.0
 40
20.0
 40
21.0
 40
21.0
 40
21.0
 40
22.0
 40
22.0
 40
22.0
 40
23.0
 40
23.0
 40
23.0
 40
24.0
 40
24.0
 40
24.0
 40
25.0
 40
25.0
 40
25.0
 40
26.0
 40
26.0
 40
26.0
 40
27.0
 40
27.0
 40
27.0
 40
28.0
 40
28.0
 40
28.0
 40
29.0
 40
29.0
 40
29.0
 40
30.0
 40
30.0
 40
30.0
 40
31.0
 40
31.0
 40
31.0
 40
32.0
 40
32.0
 40
32.0
 40
33.0
 40
33.0
 40
33.0
 40
33.0
 10
139.8926730891197
 20
154.8294111834263
 10
139.8926730891197
 20
154.8294111834263
 10
142.0344903652445
 20
154.8294111834263
 10
142.0344903652445
 20
154.8294111834263
 10
142.0344903652445
 20
154.8294111834263
 10
140.9516961399171
 20
151.3157559800812
 10
140.9516961399171
 20
151.3157559800812
 10
141.8928968473923
 20
152.7887075264977
 10
142.7341897198865
 20
153.4484437471474
 10
143.8552245303272
 20
154.2926649527359
 10
144.9803934580775
 20
155.1296514530327
 10
146.3139908001845
 20
155.3044901642492
 10
147.241066606852
 20
155.3044901642492
 10
148.3855280820469
 20
155.3044901642492
 10
149.4969166187653
 20
155.0752189084569
 10
150.0784491203092
 20
153.8172414621372
 10
150.5228667310863
 20
152.833838307127
 10
150.5414702589793
 20
152.7201500811143
 10
150.4140016419347
 20
150.7765981809602
 10
151.5818897818837
 20
152.7699317437168
 10
152.4424752018226
 20
153.6256940267945
 10
153.9038856707499
 20
154.4507949398263
 10
155.4455669174378
 20
155.3044901642492
 10
156.339225275853
 20
155.3659851592288
 10
157.3748216618963
 20
155.2147453676543
 10
158.911679771723
 20
154.9877134254046
 10
159.8859534176746
 20
154.4390816074493
 10
160.3965169054045
 20
152.7816450760939
 10
160.9070803931344
 20
151.1219692311958
 10
160.6328506116007
 20
150.2303779314354
 10
159.9992971339115
 20
147.597634224801
 10
159.7105979417943
 20
146.4014962832367
 10
159.2947746424084
 20
144.9400858143094
 10
158.7463150793409
 20
143.2092687007094
 10
158.7463150793409
 20
143.2092687007094
 10
153.9038856707499
 20
127.8027915271048
 10
153.9038856707499
 20
127.8027915271048
 10
153.9038856707499
 20
127.8027915271048
 10
151.3882752878863
 20
127.8027915271048
 10
151.3882752878863
 20
127.8027915271048
 10
151.3882752878863
 20
127.8027915271048
 10
155.6250565106276
 20
141.2751908193897
 10
155.6250565106276
 20
141.2751908193897
 10
156.5094131050963
 20
144.0936252951782
 10
157.109893644309
 20
146.1506931664571
 10
157.4220195011804
 20
147.4415712963654
 10
157.8095929989511
 20
149.0530157726519
 10
157.9656559273867
 20
149.5826995529385
 10
157.7816877071116
 20
150.7529992613181
 10
157.6111553680925
 20
151.8430281919372
 10
157.0582171779396
 20
152.5547853887321
 10
156.1170164704645
 20
152.5547853887321
 10
155.1096698860365
 20
152.5547853887321
 10
154.2962823053817
 20
152.4412694176073
 10
153.156643967048
 20
151.2945686288697
 10
152.0170056287143
 20
150.1476955852443
 10
151.076149431015
 20
148.7930831468137
 10
150.3337308641742
 20
147.2290087646991
 10
149.5957909244188
 20
145.6683794803425
 10
148.8530278478023
 20
143.6822806228776
 10
148.0964843801539
 20
141.2751908193897
 10
148.0964843801539
 20
141.2751908193897
 10
143.8552245303272
 20
127.8027915271048
 10
143.8552245303272
 20
127.8027915271048
 10
143.8552245303272
 20
127.8027915271048
 10
141.486030802177
 20
127.8027915271048
 10
141.486030802177
 20
127.8027915271048
 10
141.486030802177
 20
127.8027915271048
 10
146.3329388378533
 20
143.2092687007094
 10
146.3329388378533
 20
143.2092687007094
 10
146.8483254624444
 20
144.8408669988801
 10
147.2314203331297
 20
146.1837661049335
 10
147.4867020769946
 20
147.224185627838
 10
147.9169947869641
 20
149.0197705792876
 10
148.0306830129768
 20
150.2400242051577
 10
147.709255392159
 20
151.3157559800812
 10
147.3874832615654
 20
152.3916600098926
 10
146.8245542879144
 20
152.6683013598569
 10
145.8840425999909
 20
152.6683013598569
 10
145.0989048209514
 20
152.6683013598569
 10
144.3282364524954
 20
152.3275811915945
 10
143.4531816219731
 20
151.6538923250251
 10
142.34627171234
 20
150.8074318058939
 10
141.901854101563
 20
150.1097995099067
 10
141.3578731655808
 20
149.289521733736
 10
140.6299240093235
 20
148.192602607601
 10
140.2850697237515
 20
147.455696197173
 10
139.6652966370942
 20
145.8385673095858
 10
139.0506911970739
 20
144.2214384219986
 10
138.463991048893
 20
142.3252566160164
 10
138.0571250036777
 20
141.0154304484394
 10
138.0571250036777
 20
141.0154304484394
 10
133.9009590684727
 20
127.8027915271048
 10
133.9009590684727
 20
127.8027915271048
 10
133.9009590684727
 20
127.8027915271048
 10
131.4180771143097
 20
127.8027915271048
 10
131.4180771143097
 20
127.8027915271048
 10
131.4180771143097
 20
127.8027915271048
 10
139.8926730891197
 20
154.8294111834263
 10
139.8926730891197
 20
154.8294111834263
 97
        0
 75
     2
 76
     1
 98
        0
  0
SPLINE
  5
3C5
330
3BD
100
AcDbEntity
  8
LOGO
370
     0
100
AcDbSpline
210
0.0
220
0.0
230
1.0
 70
    11
 71
     3
 72
    29
 73
    25
 74
     0
 42
0.000000001
 43
0.0000000001
 40
0.0
 40
0.0
 40
0.0
 40
0.0
 40
1.0
 40
1.0
 40
1.0
 40
2.0
 40
2.0
 40
2.0
 40
3.0
 40
3.0
 40
3.0
 40
4.0
 40
4.0
 40
4.0
 40
5.0
 40
5.0
 40
5.0
 40
6.0
 40
6.0
 40
6.0
 40
7.0
 40
7.0
 40
7.0
 40
8.0
 40
8.0
 40
8.0
 40
8.0
 10
101.6420971922469
 20
132.8388354296931
 30
0.0
 10
101.630039350094
 20
134.7164137077823
 30
0.0
 10
102.2236296937908
 20
138.0598810818841
 30
0.0
 10
103.7487744712405
 20
142.5378191476827
 30
0.0
 10
105.819967243327
 20
148.5896501242061
 30
0.0
 10
107.0602024361932
 20
150.8074318058939
 30
0.0
 10
108.1522984254671
 20
151.8833358357054
 30
0.0
 10
109.741177511439
 20
153.4532668840085
 30
0.0
 10
111.8740375333931
 20
153.5290590346837
 30
0.0
 10
112.5075910110823
 20
153.4532668840085
 30
0.0
 10
113.4012493694975
 20
153.3490526768302
 30
0.0
 10
114.6683563248758
 20
152.7580461564518
 30
0.0
 10
114.7493161221879
 20
150.7838328862519
 30
0.0
 10
114.8106388622796
 20
149.0909118479895
 30
0.0
 10
114.3186789024427
 20
145.9191825971221
 30
0.0
 10
112.6164561002338
 20
140.9489400617108
 30
0.0
 10
110.6444821435766
 20
135.1746117095912
 30
0.0
 10
109.4669477299053
 20
132.8960240524753
 30
0.0
 10
108.5212683953448
 20
131.9072809959403
 30
0.0
 10
106.7346406980658
 20
130.0538184021569
 30
0.0
 10
104.8222669326213
 20
130.2336525051225
 30
0.0
 10
104.5408024457958
 20
130.2336525051225
 30
0.0
 10
104.1721769856939
 20
130.2336525051225
 30
0.0
 10
101.6465758193322
 20
130.6305277668397
 30
0.0
 10
101.6420971922469
 20
132.8388354296931
 30
0.0
  0
SPLINE
  5
3C6
330
3BD
100
AcDbEntity
  8
LOGO
370
     0
100
AcDbSpline
210
0.0
220
0.0
230
1.0
 70
    11
 71
     3
 72
    32
 73
    28
 74
     0
 42
0.000000001
 43
0.0000000001
 40
0.0
 40
0.0
 40
0.0
 40
0.0
 40
1.0
 40
1.0
 40
1.0
 40
2.0
 40
2.0
 40
2.0
 40
3.0
 40
3.0
 40
3.0
 40
4.0
 40
4.0
 40
4.0
 40
5.0
 40
5.0
 40
5.0
 40
6.0
 40
6.0
 40
6.0
 40
7.0
 40
7.0
 40
7.0
 40
8.0
 40
8.0
 40
8.0
 40
9.0
 40
9.0
 40
9.0
 40
9.0
 10
106.2595617172429
 20
153.4105476718098
 30
0.0
 10
104.8222669326213
 20
151.5474388043041
 30
0.0
 10
103.7177685914188
 20
149.8758773721411
 30
0.0
 10
101.9232171692965
 20
144.6141795664062
 30
0.0
 10
100.2754269116635
 20
139.7999999594306
 30
0.0
 10
99.22777268346732
 20
136.3052927937542
 30
0.0
 10
99.06964269637689
 20
132.039572749846
 30
0.0
 10
98.94665270641765
 20
128.8673267343149
 30
0.0
 10
100.8807305877373
 20
127.8027915271048
 30
0.0
 10
103.7129454545577
 20
127.8027915271048
 30
0.0
 10
104.9352661390825
 20
127.8027915271048
 30
0.0
 10
108.0151835347002
 20
127.8827177950895
 30
0.0
 10
110.2045431598849
 20
130.5926316915021
 30
0.0
 10
111.7417457794874
 20
132.4984597712065
 30
0.0
 10
113.155269389579
 20
134.475256864725
 30
0.0
 10
115.0562743324223
 20
140.9489400617108
 30
0.0
 10
116.6361961642235
 20
146.3680788349845
 30
0.0
 10
117.7282921534974
 20
149.8639917848761
 30
0.0
 10
117.6480213757369
 20
151.8595646611754
 30
0.0
 10
117.6480213757369
 20
151.8595646611754
 30
0.0
 10
117.6480213757369
 20
151.8595646611754
 30
0.0
 10
117.6480213757369
 20
151.8595646611754
 30
0.0
 10
117.13229024137
 20
155.18150017429
 30
0.0
 10
114.7162431837115
 20
155.886194920681
 30
0.0
 10
113.3351034925446
 20
155.886194920681
 30
0.0
 10
111.9829026225447
 20
155.886194920681
 30
0.0
 10
108.3414342923792
 20
156.1251124501957
 30
0.0
 10
106.2595617172429
 20
153.4105476718098
 30
0.0
  0
HATCH
  5
3C7
330
3BD
100
AcDbEntity
  8
LOGO
 62
   250
420
  2234388
100
AcDbHatch
 10
0.0
 20
0.0
 30
0.0
210
0.0
220
0.0
230
1.0
  2
SOLID
 70
     1
 71
     0
 91
        2
 92
        1
 93
        1
 72
     4
 94
        3
 73
     0
 74
     1
 95
       29
 96
       25
 40
0.0
 40
0.0
 40
0.0
 40
0.0
 40
1.0
 40
1.0
 40
1.0
 40
2.0
 40
2.0
 40
2.0
 40
3.0
 40
3.0
 40
3.0
 40
4.0
 40
4.0
 40
4.0
 40
5.0
 40
5.0
 40
5.0
 40
6.0
 40
6.0
 40
6.0
 40
7.0
 40
7.0
 40
7.0
 40
8.0
 40
8.0
 40
8.0
 40
8.0
 10
101.6420971922469
 20
132.8388354296931
 10
101.630039350094
 20
134.7164137077823
 10
102.2236296937908
 20
138.0598810818841
 10
103.7487744712405
 20
142.5378191476827
 10
105.819967243327
 20
148.5896501242061
 10
107.0602024361932
 20
150.8074318058939
 10
108.1522984254671
 20
151.8833358357054
 10
109.741177511439
 20
153.4532668840085
 10
111.8740375333931
 20
153.5290590346837
 10
112.5075910110823
 20
153.4532668840085
 10
113.4012493694975
 20
153.3490526768302
 10
114.6683563248758
 20
152.7580461564518
 10
114.7493161221879
 20
150.7838328862519
 10
114.8106388622796
 20
149.0909118479895
 10
114.3186789024427
 20
145.9191825971221
 10
112.6164561002338
 20
140.9489400617108
 10
110.6444821435766
 20
135.1746117095912
 10
109.4669477299053
 20
132.8960240524753
 10
108.5212683953448
 20
131.9072809959403
 10
106.7346406980658
 20
130.0538184021569
 10
104.8222669326213
 20
130.2336525051225
 10
104.5408024457958
 20
130.2336525051225
 10
104.1721769856939
 20
130.2336525051225
 10
101.6465758193322
 20
130.6305277668397
 10
101.6420971922469
 20
132.8388354296931
 97
        0
 92
        1
 93
        1
 72
     4
 94
        3
 73
     0
 74
     1
 95
       32
 96
       28
 40
0.0
 40
0.0
 40
0.0
 40
0.0
 40
1.0
 40
1.0
 40
1.0
 40
2.0
 40
2.0
 40
2.0
 40
3.0
 40
3.0
 40
3.0
 40
4.0
 40
4.0
 40
4.0
 40
5.0
 40
5.0
 40
5.0
 40
6.0
 40
6.0
 40
6.0
 40
7.0
 40
7.0
 40
7.0
 40
8.0
 40
8.0
 40
8.0
 40
9.0
 40
9.0
 40
9.0
 40
9.0
 10
106.2595617172429
 20
153.4105476718098
 10
104.8222669326213
 20
151.5474388043041
 10
103.7177685914188
 20
149.8758773721411
 10
101.9232171692965
 20
144.6141795664062
 10
100.2754269116635
 20
139.7999999594306
 10
99.22777268346732
 20
136.3052927937542
 10
99.06964269637689
 20
132.039572749846
 10
98.94665270641765
 20
128.8673267343149
 10
100.8807305877373
 20
127.8027915271048
 10
103.7129454545577
 20
127.8027915271048
 10
104.9352661390825
 20
127.8027915271048
 10
108.0151835347002
 20
127.8827177950895
 10
110.2045431598849
 20
130.5926316915021
 10
111.7417457794874
 20
132.4984597712065
 10
113.155269389579
 20
134.475256864725
 10
115.0562743324223
 20
140.9489400617108
 10
116.6361961642235
 20
146.3680788349845
 10
117.7282921534974
 20
149.8639917848761
 10
117.6480213757369
 20
151.8595646611754
 10
117.6480213757369
 20
151.8595646611754
 10
117.6480213757369
 20
151.8595646611754
 10
117.6480213757369
 20
151.8595646611754
 10
117.13229024137
 20
155.18150017429
 10
114.7162431837115
 20
155.886194920681
 10
113.3351034925446
 20
155.886194920681
 10
111.9829026225447
 20
155.886194920681
 10
108.3414342923792
 20
156.1251124501957
 10
106.2595617172429
 20
153.4105476718098
 97
        0
 75
     2
 76
     1
 98
        0
  0
ENDBLK
  5
3C8
330
3BD
100
AcDbEntity
  8
0
100
AcDbBlockEnd
  0
BLOCK
  5
4436
330
4435
100
AcDbEntity
  8
0
100
AcDbBlockBegin
  2
*D98
 70
     1
 10
0.0
 20
0.0
 30
0.0
  3
*D98
  1
*D110
  0
LINE
  5
4438
330
4435
100
AcDbEntity
  8
DIM
  6
Continuous
 62
     0
370
    -2
100
AcDbLine
 10
1639.405242329734
 20
923.9486368925068
 30
0.0
 11
1719.614616410431
 21
923.9486368925068
 31
0.0
  0
LINE
  5
4439
330
4435
100
AcDbEntity
  8
DIM
  6
Continuous
 62
     0
370
    -2
100
AcDbLine
 10
1639.405242329734
 20
1348.948636892507
 30
0.0
 11
1719.614616410431
 21
1348.948636892507
 31
0.0
  0
LINE
  5
443A
330
4435
100
AcDbEntity
  8
DIM
  6
Continuous
 62
     0
370
    -2
100
AcDbLine
 10
1719.614616410431
 20
929.9486368925068
 30
0.0
 11
1719.614616410431
 21
1342.948636892507
 31
0.0
  0
INSERT
  5
443B
330
4435
100
AcDbEntity
  8
DIM
 62
     0
370
    -2
100
AcDbBlockReference
  2
_DOT
 10
1719.614616410431
 20
923.9486368925068
 30
0.0
 41
6.0
 42
6.0
 43
6.0
 50
270.0
  0
INSERT
  5
443C
330
4435
100
AcDbEntity
  8
DIM
 62
     0
370
    -2
100
AcDbBlockReference
  2
_DOT
 10
1719.614616410431
 20
1348.948636892507
 30
0.0
 41
6.0
 42
6.0
 43
6.0
 50
90.0
  0
MTEXT
  5
443D
330
4435
100
AcDbEntity
  8
DIM
  6
Continuous
 62
     0
100
AcDbMText
 10
1692.614616410431
 20
1136.448636892507
 30
0.0
 40
24.0
 41
0.0
 46
0.0
 71
     5
 72
     1
  1
\A1;425
  7
ＭＳ ゴシック
 11
0.0
 21
1.0
 31
0.0
 73
     1
 44
1.0
  0
POINT
  5
443E
330
4435
100
AcDbEntity
  8
Defpoints
 62
     0
100
AcDbPoint
 10
1614.405242329734
 20
923.9486368925068
 30
0.0
  0
POINT
  5
443F
330
4435
100
AcDbEntity
  8
Defpoints
 62
     0
100
AcDbPoint
 10
1614.405242329734
 20
1348.948636892507
 30
0.0
  0
POINT
  5
4440
330
4435
100
AcDbEntity
  8
Defpoints
 62
     0
100
AcDbPoint
 10
1719.614616410431
 20
1348.948636892507
 30
0.0
  0
ENDBLK
  5
4437
330
4435
100
AcDbEntity
  8
0
100
AcDbBlockEnd
  0
BLOCK
  5
4442
330
4441
100
AcDbEntity
  8
0
100
AcDbBlockBegin
  2
*D99
 70
     1
 10
0.0
 20
0.0
 30
0.0
  3
*D99
  1
*D111
  0
LINE
  5
4444
330
4441
100
AcDbEntity
  8
DIM
  6
Continuous
 62
     0
370
    -2
100
AcDbLine
 10
1639.405242329734
 20
923.9486368925068
 30
0.0
 11
1805.159697134206
 21
923.9486368925068
 31
0.0
  0
LINE
  5
4445
330
4441
100
AcDbEntity
  8
DIM
  6
Continuous
 62
     0
370
    -2
100
AcDbLine
 10
1639.405242329734
 20
1373.948636892507
 30
0.0
 11
1805.159697134206
 21
1373.948636892507
 31
0.0
  0
LINE
  5
4446
330
4441
100
AcDbEntity
  8
DIM
  6
Continuous
 62
     0
370
    -2
100
AcDbLine
 10
1805.159697134206
 20
929.9486368925068
 30
0.0
 11
1805.159697134206
 21
1367.948636892507
 31
0.0
  0
INSERT
  5
4447
330
4441
100
AcDbEntity
  8
DIM
 62
     0
370
    -2
100
AcDbBlockReference
  2
_DOT
 10
1805.159697134206
 20
923.9486368925068
 30
0.0
 41
6.0
 42
6.0
 43
6.0
 50
270.0
  0
INSERT
  5
4448
330
4441
100
AcDbEntity
  8
DIM
 62
     0
370
    -2
100
AcDbBlockReference
  2
_DOT
 10
1805.159697134206
 20
1373.948636892507
 30
0.0
 41
6.0
 42
6.0
 43
6.0
 50
90.0
  0
MTEXT
  5
4449
330
4441
100
AcDbEntity
  8
DIM
  6
Continuous
 62
     0
100
AcDbMText
 10
1778.159697134206
 20
1148.948636892507
 30
0.0
 40
24.0
 41
0.0
 46
0.0
 71
     5
 72
     1
  1
\A1;450
  7
ＭＳ ゴシック
 11
0.0
 21
1.0
 31
0.0
 73
     1
 44
1.0
  0
POINT
  5
444A
330
4441
100
AcDbEntity
  8
Defpoints
 62
     0
100
AcDbPoint
 10
1614.405242329734
 20
923.9486368925068
 30
0.0
  0
POINT
  5
444B
330
4441
100
AcDbEntity
  8
Defpoints
 62
     0
100
AcDbPoint
 10
1614.405242329734
 20
1373.948636892507
 30
0.0
  0
POINT
  5
444C
330
4441
100
AcDbEntity
  8
Defpoints
 62
     0
100
AcDbPoint
 10
1805.159697134206
 20
1373.948636892507
 30
0.0
  0
ENDBLK
  5
4443
330
4441
100
AcDbEntity
  8
0
100
AcDbBlockEnd
  0
BLOCK
  5
444E
330
444D
100
AcDbEntity
  8
0
100
AcDbBlockBegin
  2
*D100
 70
     1
 10
0.0
 20
0.0
 30
0.0
  3
*D100
  1
*D112
  0
LINE
  5
4450
330
444D
100
AcDbEntity
  8
DIM
  6
Continuous
 62
     0
370
    -2
100
AcDbLine
 10
901.9585687120098
 20
923.9486368925068
 30
0.0
 11
1077.134057605642
 21
923.9486368925068
 31
0.0
  0
LINE
  5
4451
330
444D
100
AcDbEntity
  8
DIM
  6
Continuous
 62
     0
370
    -2
100
AcDbLine
 10
1023.037802505683
 20
1323.948636892507
 30
0.0
 11
1077.134057605642
 21
1323.948636892507
 31
0.0
  0
LINE
  5
4452
330
444D
100
AcDbEntity
  8
DIM
  6
Continuous
 62
     0
370
    -2
100
AcDbLine
 10
1077.134057605642
 20
929.9486368925068
 30
0.0
 11
1077.134057605642
 21
1317.948636892507
 31
0.0
  0
INSERT
  5
4453
330
444D
100
AcDbEntity
  8
DIM
 62
     0
370
    -2
100
AcDbBlockReference
  2
_DOT
 10
1077.134057605642
 20
923.9486368925068
 30
0.0
 41
6.0
 42
6.0
 43
6.0
 50
270.0
  0
INSERT
  5
4454
330
444D
100
AcDbEntity
  8
DIM
 62
     0
370
    -2
100
AcDbBlockReference
  2
_DOT
 10
1077.134057605642
 20
1323.948636892507
 30
0.0
 41
6.0
 42
6.0
 43
6.0
 50
90.0
  0
MTEXT
  5
4455
330
444D
100
AcDbEntity
  8
DIM
  6
Continuous
 62
     0
100
AcDbMText
 10
1050.134057605642
 20
1123.948636892507
 30
0.0
 40
24.0
 41
0.0
 46
0.0
 71
     5
 72
     1
  1
\A1;400
  7
ＭＳ ゴシック
 11
0.0
 21
1.0
 31
0.0
 73
     1
 44
1.0
  0
POINT
  5
4456
330
444D
100
AcDbEntity
  8
Defpoints
 62
     0
100
AcDbPoint
 10
876.9585687120098
 20
923.9486368925068
 30
0.0
  0
POINT
  5
4457
330
444D
100
AcDbEntity
  8
Defpoints
 62
     0
100
AcDbPoint
 10
998.037802505683
 20
1323.948636892507
 30
0.0
  0
POINT
  5
4458
330
444D
100
AcDbEntity
  8
Defpoints
 62
     0
100
AcDbPoint
 10
1077.134057605642
 20
1323.948636892507
 30
0.0
  0
ENDBLK
  5
444F
330
444D
100
AcDbEntity
  8
0
100
AcDbBlockEnd
  0
BLOCK
  5
445A
330
4459
100
AcDbEntity
  8
0
100
AcDbBlockBegin
  2
*D101
 70
     1
 10
0.0
 20
0.0
 30
0.0
  3
*D101
  1
*D113
  0
LINE
  5
445C
330
4459
100
AcDbEntity
  8
DIM
  6
Continuous
 62
     0
370
    -2
100
AcDbLine
 10
922.8265977159099
 20
2589.511660442301
 30
0.0
 11
1139.296682471436
 21
2589.511660442301
 31
0.0
  0
LINE
  5
445D
330
4459
100
AcDbEntity
  8
DIM
  6
Continuous
 62
     0
370
    -2
100
AcDbLine
 10
922.8265977159099
 20
2229.511660442301
 30
0.0
 11
1139.296682471436
 21
2229.511660442301
 31
0.0
  0
LINE
  5
445E
330
4459
100
AcDbEntity
  8
DIM
  6
Continuous
 62
     0
370
    -2
100
AcDbLine
 10
1139.296682471436
 20
2583.511660442301
 30
0.0
 11
1139.296682471436
 21
2235.511660442301
 31
0.0
  0
INSERT
  5
445F
330
4459
100
AcDbEntity
  8
DIM
 62
     0
370
    -2
100
AcDbBlockReference
  2
_DOT
 10
1139.296682471436
 20
2589.511660442301
 30
0.0
 41
6.0
 42
6.0
 43
6.0
 50
90.0
  0
INSERT
  5
4460
330
4459
100
AcDbEntity
  8
DIM
 62
     0
370
    -2
100
AcDbBlockReference
  2
_DOT
 10
1139.296682471436
 20
2229.511660442301
 30
0.0
 41
6.0
 42
6.0
 43
6.0
 50
270.0
  0
MTEXT
  5
4461
330
4459
100
AcDbEntity
  8
DIM
  6
Continuous
 62
     0
100
AcDbMText
 10
1112.296682471436
 20
2409.511660442301
 30
0.0
 40
24.0
 41
0.0
 46
0.0
 71
     5
 72
     1
  1
\A1;360
  7
ＭＳ ゴシック
 11
0.0
 21
1.0
 31
0.0
 73
     1
 44
1.0
  0
POINT
  5
4462
330
4459
100
AcDbEntity
  8
Defpoints
 62
     0
100
AcDbPoint
 10
897.8265977159099
 20
2589.511660442301
 30
0.0
  0
POINT
  5
4463
330
4459
100
AcDbEntity
  8
Defpoints
 62
     0
100
AcDbPoint
 10
897.8265977159099
 20
2229.511660442301
 30
0.0
  0
POINT
  5
4464
330
4459
100
AcDbEntity
  8
Defpoints
 62
     0
100
AcDbPoint
 10
1139.296682471436
 20
2229.511660442301
 30
0.0
  0
ENDBLK
  5
445B
330
4459
100
AcDbEntity
  8
0
100
AcDbBlockEnd
  0
BLOCK
  5
4466
330
4465
100
AcDbEntity
  8
0
100
AcDbBlockBegin
  2
*D102
 70
     1
 10
0.0
 20
0.0
 30
0.0
  3
*D102
  1
*D114
  0
LINE
  5
4468
330
4465
100
AcDbEntity
  8
DIM
  6
Continuous
 62
     0
370
    -2
100
AcDbLine
 10
256.4630944725131
 20
2614.501083921129
 30
0.0
 11
256.4630944725131
 21
2736.636640821947
 31
0.0
  0
LINE
  5
4469
330
4465
100
AcDbEntity
  8
DIM
  6
Continuous
 62
     0
370
    -2
100
AcDbLine
 10
981.4630944725131
 20
2517.842870255954
 30
0.0
 11
981.4630944725131
 21
2736.636640821947
 31
0.0
  0
LINE
  5
446A
330
4465
100
AcDbEntity
  8
DIM
  6
Continuous
 62
     0
370
    -2
100
AcDbLine
 10
262.4630944725131
 20
2736.636640821947
 30
0.0
 11
975.4630944725131
 21
2736.636640821947
 31
0.0
  0
INSERT
  5
446B
330
4465
100
AcDbEntity
  8
DIM
 62
     0
370
    -2
100
AcDbBlockReference
  2
_DOT
 10
256.4630944725131
 20
2736.636640821947
 30
0.0
 41
6.0
 42
6.0
 43
6.0
 50
180.0
  0
INSERT
  5
446C
330
4465
100
AcDbEntity
  8
DIM
 62
     0
370
    -2
100
AcDbBlockReference
  2
_DOT
 10
981.4630944725131
 20
2736.636640821947
 30
0.0
 41
6.0
 42
6.0
 43
6.0
  0
MTEXT
  5
446D
330
4465
100
AcDbEntity
  8
DIM
  6
Continuous
 62
     0
100
AcDbMText
 10
618.9630944725131
 20
2763.636640821947
 30
0.0
 40
24.0
 41
0.0
 46
0.0
 71
     5
 72
     1
  1
\A1;725
  7
ＭＳ ゴシック
 73
     1
 44
1.0
  0
POINT
  5
446E
330
4465
100
AcDbEntity
  8
Defpoints
 62
     0
100
AcDbPoint
 10
256.4630944725131
 20
2589.501083921129
 30
0.0
  0
POINT
  5
446F
330
4465
100
AcDbEntity
  8
Defpoints
 62
     0
100
AcDbPoint
 10
981.4630944725131
 20
2492.842870255954
 30
0.0
  0
POINT
  5
4470
330
4465
100
AcDbEntity
  8
Defpoints
 62
     0
100
AcDbPoint
 10
981.4630944725131
 20
2736.636640821947
 30
0.0
  0
ENDBLK
  5
4467
330
4465
100
AcDbEntity
  8
0
100
AcDbBlockEnd
  0
BLOCK
  5
4472
330
4471
100
AcDbEntity
  8
0
100
AcDbBlockBegin
  2
*D103
 70
     1
 10
0.0
 20
0.0
 30
0.0
  3
*D103
  1
*D115
  0
LINE
  5
4474
330
4471
100
AcDbEntity
  8
DIM
  6
Continuous
 62
     0
370
    -2
100
AcDbLine
 10
236.5271917691339
 20
2594.500673057904
 30
0.0
 11
174.7067951933532
 21
2594.500673057904
 31
0.0
  0
LINE
  5
4475
330
4471
100
AcDbEntity
  8
DIM
  6
Continuous
 62
     0
370
    -2
100
AcDbLine
 10
236.5271917691339
 20
2224.500673057904
 30
0.0
 11
174.7067951933532
 21
2224.500673057904
 31
0.0
  0
LINE
  5
4476
330
4471
100
AcDbEntity
  8
DIM
  6
Continuous
 62
     0
370
    -2
100
AcDbLine
 10
174.7067951933532
 20
2588.500673057904
 30
0.0
 11
174.7067951933532
 21
2230.500673057904
 31
0.0
  0
INSERT
  5
4477
330
4471
100
AcDbEntity
  8
DIM
 62
     0
370
    -2
100
AcDbBlockReference
  2
_DOT
 10
174.7067951933532
 20
2594.500673057904
 30
0.0
 41
6.0
 42
6.0
 43
6.0
 50
90.0
  0
INSERT
  5
4478
330
4471
100
AcDbEntity
  8
DIM
 62
     0
370
    -2
100
AcDbBlockReference
  2
_DOT
 10
174.7067951933532
 20
2224.500673057904
 30
0.0
 41
6.0
 42
6.0
 43
6.0
 50
270.0
  0
MTEXT
  5
4479
330
4471
100
AcDbEntity
  8
DIM
  6
Continuous
 62
     0
100
AcDbMText
 10
147.7067951933532
 20
2409.500673057904
 30
0.0
 40
24.0
 41
0.0
 46
0.0
 71
     5
 72
     1
  1
\A1;370
  7
ＭＳ ゴシック
 11
7.681543089298381E-17
 21
1.0
 31
0.0
 73
     1
 44
1.0
  0
POINT
  5
447A
330
4471
100
AcDbEntity
  8
Defpoints
 62
     0
100
AcDbPoint
 10
261.5271917691339
 20
2594.500673057904
 30
0.0
  0
POINT
  5
447B
330
4471
100
AcDbEntity
  8
Defpoints
 62
     0
100
AcDbPoint
 10
261.5271917691339
 20
2224.500673057904
 30
0.0
  0
POINT
  5
447C
330
4471
100
AcDbEntity
  8
Defpoints
 62
     0
100
AcDbPoint
 10
174.7067951933532
 20
2224.500673057904
 30
0.0
  0
ENDBLK
  5
4473
330
4471
100
AcDbEntity
  8
0
100
AcDbBlockEnd
  0
BLOCK
  5
447E
330
447D
100
AcDbEntity
  8
0
100
AcDbBlockBegin
  2
*D104
 70
     1
 10
0.0
 20
0.0
 30
0.0
  3
*D104
  1
*D116
  0
LINE
  5
4480
330
447D
100
AcDbEntity
  8
DIM
  6
Continuous
 62
     0
370
    -2
100
AcDbLine
 10
256.2025748585788
 20
898.9486368925068
 30
0.0
 11
256.2025748585788
 21
780.5757811777244
 31
0.0
  0
LINE
  5
4481
330
447D
100
AcDbEntity
  8
DIM
  6
Continuous
 62
     0
370
    -2
100
AcDbLine
 10
487.5909434704331
 20
867.8109645832442
 30
0.0
 11
487.5909434704331
 21
780.5757811777244
 31
0.0
  0
LINE
  5
4482
330
447D
100
AcDbEntity
  8
DIM
  6
Continuous
 62
     0
370
    -2
100
AcDbLine
 10
262.2025748585788
 20
780.5757811777244
 30
0.0
 11
481.5909434704331
 21
780.5757811777244
 31
0.0
  0
INSERT
  5
4483
330
447D
100
AcDbEntity
  8
DIM
 62
     0
370
    -2
100
AcDbBlockReference
  2
_DOT
 10
256.2025748585788
 20
780.5757811777244
 30
0.0
 41
6.0
 42
6.0
 43
6.0
 50
180.0
  0
INSERT
  5
4484
330
447D
100
AcDbEntity
  8
DIM
 62
     0
370
    -2
100
AcDbBlockReference
  2
_DOT
 10
487.5909434704331
 20
780.5757811777244
 30
0.0
 41
6.0
 42
6.0
 43
6.0
  0
MTEXT
  5
4485
330
447D
100
AcDbEntity
  8
DIM
  6
Continuous
 62
     0
100
AcDbMText
 10
371.896759164506
 20
807.5757811777244
 30
0.0
 40
24.0
 41
0.0
 46
0.0
 71
     5
 72
     1
  1
\A1;190-230
  7
ＭＳ ゴシック
 73
     1
 44
1.0
  0
POINT
  5
4486
330
447D
100
AcDbEntity
  8
Defpoints
 62
     0
100
AcDbPoint
 10
256.2025748585788
 20
923.9486368925068
 30
0.0
  0
POINT
  5
4487
330
447D
100
AcDbEntity
  8
Defpoints
 62
     0
100
AcDbPoint
 10
487.5909434704331
 20
892.8109645832442
 30
0.0
  0
POINT
  5
4488
330
447D
100
AcDbEntity
  8
Defpoints
 62
     0
100
AcDbPoint
 10
487.5909434704331
 20
780.5757811777244
 30
0.0
  0
ENDBLK
  5
447F
330
447D
100
AcDbEntity
  8
0
100
AcDbBlockEnd
  0
BLOCK
  5
448A
330
4489
100
AcDbEntity
  8
0
100
AcDbBlockBegin
  2
*D105
 70
     1
 10
0.0
 20
0.0
 30
0.0
  3
*D105
  1
*D117
  0
LINE
  5
448C
330
4489
100
AcDbEntity
  8
DIM
  6
Continuous
 62
     0
370
    -2
100
AcDbLine
 10
561.2139254191679
 20
919.5793585132183
 30
0.0
 11
561.2139254191679
 21
689.0008001151232
 31
0.0
  0
LINE
  5
448D
330
4489
100
AcDbEntity
  8
DIM
  6
Continuous
 62
     0
370
    -2
100
AcDbLine
 10
256.2025748585788
 20
898.9486368925068
 30
0.0
 11
256.2025748585788
 21
689.0008001151232
 31
0.0
  0
LINE
  5
448E
330
4489
100
AcDbEntity
  8
DIM
  6
Continuous
 62
     0
370
    -2
100
AcDbLine
 10
555.2139254191679
 20
689.0008001151232
 30
0.0
 11
262.2025748585788
 21
689.0008001151232
 31
0.0
  0
INSERT
  5
448F
330
4489
100
AcDbEntity
  8
DIM
 62
     0
370
    -2
100
AcDbBlockReference
  2
_DOT
 10
561.2139254191679
 20
689.0008001151232
 30
0.0
 41
6.0
 42
6.0
 43
6.0
  0
INSERT
  5
4490
330
4489
100
AcDbEntity
  8
DIM
 62
     0
370
    -2
100
AcDbBlockReference
  2
_DOT
 10
256.2025748585788
 20
689.0008001151232
 30
0.0
 41
6.0
 42
6.0
 43
6.0
 50
180.0
  0
MTEXT
  5
4491
330
4489
100
AcDbEntity
  8
DIM
  6
Continuous
 62
     0
100
AcDbMText
 10
408.7082501388734
 20
718.0648001151231
 30
0.0
 40
24.0
 41
0.0
 46
0.0
 71
     5
 72
     1
  1
\A1;305(床固定位置)
  7
ＭＳ ゴシック
 73
     1
 44
1.0
  0
POINT
  5
4492
330
4489
100
AcDbEntity
  8
Defpoints
 62
     0
100
AcDbPoint
 10
561.2139254191679
 20
944.5793585132183
 30
0.0
  0
POINT
  5
4493
330
4489
100
AcDbEntity
  8
Defpoints
 62
     0
100
AcDbPoint
 10
256.2025748585788
 20
923.9486368925068
 30
0.0
  0
POINT
  5
4494
330
4489
100
AcDbEntity
  8
Defpoints
 62
     0
100
AcDbPoint
 10
256.2025748585788
 20
689.0008001151232
 30
0.0
  0
ENDBLK
  5
448B
330
4489
100
AcDbEntity
  8
0
100
AcDbBlockEnd
  0
BLOCK
  5
4496
330
4495
100
AcDbEntity
  8
0
100
AcDbBlockBegin
  2
*D106
 70
     1
 10
0.0
 20
0.0
 30
0.0
  3
*D106
  1
*D118
  0
LINE
  5
4498
330
4495
100
AcDbEntity
  8
DIM
  6
Continuous
 62
     0
370
    -2
100
AcDbLine
 10
1244.565217358953
 20
1857.422858213256
 30
0.0
 11
1244.565217358953
 21
1943.910344224437
 31
0.0
  0
LINE
  5
4499
330
4495
100
AcDbEntity
  8
DIM
  6
Continuous
 62
     0
370
    -2
100
AcDbLine
 10
1614.405242329734
 20
1857.422858213256
 30
0.0
 11
1614.405242329734
 21
1943.910344224437
 31
0.0
  0
LINE
  5
449A
330
4495
100
AcDbEntity
  8
DIM
  6
Continuous
 62
     0
370
    -2
100
AcDbLine
 10
1250.565217358953
 20
1943.910344224437
 30
0.0
 11
1608.405242329734
 21
1943.910344224437
 31
0.0
  0
INSERT
  5
449B
330
4495
100
AcDbEntity
  8
DIM
 62
     0
370
    -2
100
AcDbBlockReference
  2
_DOT
 10
1244.565217358953
 20
1943.910344224437
 30
0.0
 41
6.0
 42
6.0
 43
6.0
 50
180.0
  0
INSERT
  5
449C
330
4495
100
AcDbEntity
  8
DIM
 62
     0
370
    -2
100
AcDbBlockReference
  2
_DOT
 10
1614.405242329734
 20
1943.910344224437
 30
0.0
 41
6.0
 42
6.0
 43
6.0
  0
MTEXT
  5
449D
330
4495
100
AcDbEntity
  8
DIM
  6
Continuous
 62
     0
100
AcDbMText
 10
1429.485229844343
 20
1970.910344224437
 30
0.0
 40
24.0
 41
0.0
 46
0.0
 71
     5
 72
     1
  1
\A1;370
  7
ＭＳ ゴシック
 73
     1
 44
1.0
  0
POINT
  5
449E
330
4495
100
AcDbEntity
  8
Defpoints
 62
     0
100
AcDbPoint
 10
1244.565217358953
 20
1832.422858213256
 30
0.0
  0
POINT
  5
449F
330
4495
100
AcDbEntity
  8
Defpoints
 62
     0
100
AcDbPoint
 10
1614.405242329734
 20
1832.422858213256
 30
0.0
  0
POINT
  5
44A0
330
4495
100
AcDbEntity
  8
Defpoints
 62
     0
100
AcDbPoint
 10
1614.405242329734
 20
1943.910344224437
 30
0.0
  0
ENDBLK
  5
4497
330
4495
100
AcDbEntity
  8
0
100
AcDbBlockEnd
  0
BLOCK
  5
44A2
330
44A1
100
AcDbEntity
  8
0
100
AcDbBlockBegin
  2
*D107
 70
     1
 10
0.0
 20
0.0
 30
0.0
  3
*D107
  1
*D119
  0
LINE
  5
44A4
330
44A1
100
AcDbEntity
  8
DIM
  6
Continuous
 62
     0
370
    -2
100
AcDbLine
 10
235.9656155674361
 20
1808.948636892506
 30
0.0
 11
174.7067951933532
 21
1808.948636892506
 31
0.0
  0
LINE
  5
44A5
330
44A1
100
AcDbEntity
  8
DIM
  6
Continuous
 62
     0
370
    -2
100
AcDbLine
 10
231.216321895181
 20
1338.948636892507
 30
0.0
 11
174.7067951933532
 21
1338.948636892507
 31
0.0
  0
LINE
  5
44A6
330
44A1
100
AcDbEntity
  8
DIM
  6
Continuous
 62
     0
370
    -2
100
AcDbLine
 10
174.7067951933532
 20
1802.948636892506
 30
0.0
 11
174.7067951933532
 21
1344.948636892507
 31
0.0
  0
INSERT
  5
44A7
330
44A1
100
AcDbEntity
  8
DIM
 62
     0
370
    -2
100
AcDbBlockReference
  2
_DOT
 10
174.7067951933532
 20
1808.948636892506
 30
0.0
 41
6.0
 42
6.0
 43
6.0
 50
90.0
  0
INSERT
  5
44A8
330
44A1
100
AcDbEntity
  8
DIM
 62
     0
370
    -2
100
AcDbBlockReference
  2
_DOT
 10
174.7067951933532
 20
1338.948636892507
 30
0.0
 41
6.0
 42
6.0
 43
6.0
 50
270.0
  0
MTEXT
  5
44A9
330
44A1
100
AcDbEntity
  8
DIM
  6
Continuous
 62
     0
100
AcDbMText
 10
147.7067951933532
 20
1573.948636892507
 30
0.0
 40
24.0
 41
0.0
 46
0.0
 71
     5
 72
     1
  1
\A1;470
  7
ＭＳ ゴシック
 11
6.047172219234906E-17
 21
1.0
 31
0.0
 73
     1
 44
1.0
  0
POINT
  5
44AA
330
44A1
100
AcDbEntity
  8
Defpoints
 62
     0
100
AcDbPoint
 10
260.9656155674361
 20
1808.948636892506
 30
0.0
  0
POINT
  5
44AB
330
44A1
100
AcDbEntity
  8
Defpoints
 62
     0
100
AcDbPoint
 10
256.216321895181
 20
1338.948636892507
 30
0.0
  0
POINT
  5
44AC
330
44A1
100
AcDbEntity
  8
Defpoints
 62
     0
100
AcDbPoint
 10
174.7067951933532
 20
1338.948636892507
 30
0.0
  0
ENDBLK
  5
44A3
330
44A1
100
AcDbEntity
  8
0
100
AcDbBlockEnd
  0
BLOCK
  5
44AE
330
44AD
100
AcDbEntity
  8
0
100
AcDbBlockBegin
  2
*D108
 70
     1
 10
0.0
 20
0.0
 30
0.0
  3
*D108
  1
*D120
  0
LINE
  5
44B0
330
44AD
100
AcDbEntity
  8
DIM
  6
Continuous
 62
     0
370
    -2
100
AcDbLine
 10
210.9656155674361
 20
1338.948636892506
 30
0.0
 11
174.7067951933532
 21
1338.948636892506
 31
0.0
  0
LINE
  5
44B1
330
44AD
100
AcDbEntity
  8
DIM
  6
Continuous
 62
     0
370
    -2
100
AcDbLine
 10
231.4365687161408
 20
1324.268146710991
 30
0.0
 11
174.7067951933532
 21
1324.268146710991
 31
0.0
  0
LINE
  5
44B2
330
44AD
100
AcDbEntity
  8
DIM
  6
Continuous
 62
     0
370
    -2
100
AcDbLine
 10
174.7067951933532
 20
1332.948636892506
 30
0.0
 11
174.7067951933532
 21
1330.268146710991
 31
0.0
  0
INSERT
  5
44B3
330
44AD
100
AcDbEntity
  8
DIM
 62
     0
370
    -2
100
AcDbBlockReference
  2
_DOT
 10
174.7067951933532
 20
1338.948636892506
 30
0.0
 41
6.0
 42
6.0
 43
6.0
 50
90.0
  0
INSERT
  5
44B4
330
44AD
100
AcDbEntity
  8
DIM
 62
     0
370
    -2
100
AcDbBlockReference
  2
_DOT
 10
174.7067951933532
 20
1324.268146710991
 30
0.0
 41
6.0
 42
6.0
 43
6.0
 50
270.0
  0
MTEXT
  5
44B5
330
44AD
100
AcDbEntity
  8
DIM
  6
Continuous
 62
     0
100
AcDbMText
 10
147.7067951933532
 20
1331.608391801749
 30
0.0
 40
24.0
 41
0.0
 46
0.0
 71
     5
 72
     1
  1
\A1;15
  7
ＭＳ ゴシック
 11
0.0
 21
1.0
 31
0.0
 73
     1
 44
1.0
  0
POINT
  5
44B6
330
44AD
100
AcDbEntity
  8
Defpoints
 62
     0
100
AcDbPoint
 10
235.9656155674361
 20
1338.948636892506
 30
0.0
  0
POINT
  5
44B7
330
44AD
100
AcDbEntity
  8
Defpoints
 62
     0
100
AcDbPoint
 10
256.4365687161408
 20
1324.268146710991
 30
0.0
  0
POINT
  5
44B8
330
44AD
100
AcDbEntity
  8
Defpoints
 62
     0
100
AcDbPoint
 10
174.7067951933532
 20
1324.268146710991
 30
0.0
  0
ENDBLK
  5
44AF
330
44AD
100
AcDbEntity
  8
0
100
AcDbBlockEnd
  0
BLOCK
  5
44BA
330
44B9
100
AcDbEntity
  8
0
100
AcDbBlockBegin
  2
*D109
 70
     1
 10
0.0
 20
0.0
 30
0.0
  3
*D109
  1
*D121
  0
LINE
  5
44BC
330
44B9
100
AcDbEntity
  8
DIM
  6
Continuous
 62
     0
370
    -2
100
AcDbLine
 10
231.216321895181
 20
923.9486368925068
 30
0.0
 11
174.7067951933532
 21
923.9486368925068
 31
0.0
  0
LINE
  5
44BD
330
44B9
100
AcDbEntity
  8
DIM
  6
Continuous
 62
     0
370
    -2
100
AcDbLine
 10
415.9389107587181
 20
1103.948636892506
 30
0.0
 11
174.7067951933532
 21
1103.948636892506
 31
0.0
  0
LINE
  5
44BE
330
44B9
100
AcDbEntity
  8
DIM
  6
Continuous
 62
     0
370
    -2
100
AcDbLine
 10
174.7067951933532
 20
929.9486368925068
 30
0.0
 11
174.7067951933532
 21
1097.948636892506
 31
0.0
  0
INSERT
  5
44BF
330
44B9
100
AcDbEntity
  8
DIM
 62
     0
370
    -2
100
AcDbBlockReference
  2
_DOT
 10
174.7067951933532
 20
923.9486368925068
 30
0.0
 41
6.0
 42
6.0
 43
6.0
 50
270.0
  0
INSERT
  5
44C0
330
44B9
100
AcDbEntity
  8
DIM
 62
     0
370
    -2
100
AcDbBlockReference
  2
_DOT
 10
174.7067951933532
 20
1103.948636892506
 30
0.0
 41
6.0
 42
6.0
 43
6.0
 50
90.0
  0
MTEXT
  5
44C1
330
44B9
100
AcDbEntity
  8
DIM
  6
Continuous
 62
     0
100
AcDbMText
 10
147.7067951933532
 20
1013.948636892506
 30
0.0
 40
24.0
 41
0.0
 46
0.0
 71
     5
 72
     1
  1
\A1;180
  7
ＭＳ ゴシック
 11
0.0
 21
1.0
 31
0.0
 73
     1
 44
1.0
  0
POINT
  5
44C2
330
44B9
100
AcDbEntity
  8
Defpoints
 62
     0
100
AcDbPoint
 10
256.216321895181
 20
923.9486368925068
 30
0.0
  0
POINT
  5
44C3
330
44B9
100
AcDbEntity
  8
Defpoints
 62
     0
100
AcDbPoint
 10
440.9389107587181
 20
1103.948636892506
 30
0.0
  0
POINT
  5
44C4
330
44B9
100
AcDbEntity
  8
Defpoints
 62
     0
100
AcDbPoint
 10
174.7067951933532
 20
1103.948636892506
 30
0.0
  0
ENDBLK
  5
44BB
330
44B9
100
AcDbEntity
  8
0
100
AcDbBlockEnd
  0
BLOCK
  5
44D2
330
44D1
100
AcDbEntity
  8
0
100
AcDbBlockBegin
  2
*D111
 70
     1
 10
0.0
 20
0.0
 30
0.0
  3
*D111
  1
*D123
  0
LINE
  5
44D4
330
44D1
100
AcDbEntity
  8
DIM
  6
Continuous
 62
     0
370
    -2
100
AcDbLine
 10
1639.405242329734
 20
923.9486368925068
 30
0.0
 11
1971.427155732536
 21
923.9486368925068
 31
0.0
  0
LINE
  5
44D5
330
44D1
100
AcDbEntity
  8
DIM
  6
Continuous
 62
     0
370
    -2
100
AcDbLine
 10
1632.405242329734
 20
1808.948636892506
 30
0.0
 11
1971.427155732536
 21
1808.948636892506
 31
0.0
  0
LINE
  5
44D6
330
44D1
100
AcDbEntity
  8
DIM
  6
Continuous
 62
     0
370
    -2
100
AcDbLine
 10
1971.427155732536
 20
929.9486368925068
 30
0.0
 11
1971.427155732536
 21
1802.948636892506
 31
0.0
  0
INSERT
  5
44D7
330
44D1
100
AcDbEntity
  8
DIM
 62
     0
370
    -2
100
AcDbBlockReference
  2
_DOT
 10
1971.427155732536
 20
923.9486368925068
 30
0.0
 41
6.0
 42
6.0
 43
6.0
 50
270.0
  0
INSERT
  5
44D8
330
44D1
100
AcDbEntity
  8
DIM
 62
     0
370
    -2
100
AcDbBlockReference
  2
_DOT
 10
1971.427155732536
 20
1808.948636892506
 30
0.0
 41
6.0
 42
6.0
 43
6.0
 50
90.0
  0
MTEXT
  5
44D9
330
44D1
100
AcDbEntity
  8
DIM
  6
Continuous
 62
     0
100
AcDbMText
 10
1944.427155732536
 20
1369.448636892506
 30
0.0
 40
24.0
 41
0.0
 46
0.0
 71
     5
 72
     1
  1
\A1;885
  7
ＭＳ ゴシック
 11
0.0
 21
1.0
 31
0.0
 73
     1
 44
1.0
  0
POINT
  5
44DA
330
44D1
100
AcDbEntity
  8
Defpoints
 62
     0
100
AcDbPoint
 10
1614.405242329734
 20
923.9486368925068
 30
0.0
  0
POINT
  5
44DB
330
44D1
100
AcDbEntity
  8
Defpoints
 62
     0
100
AcDbPoint
 10
1607.405242329734
 20
1808.948636892506
 30
0.0
  0
POINT
  5
44DC
330
44D1
100
AcDbEntity
  8
Defpoints
 62
     0
100
AcDbPoint
 10
1971.427155732536
 20
1808.948636892506
 30
0.0
  0
ENDBLK
  5
44D3
330
44D1
100
AcDbEntity
  8
0
100
AcDbBlockEnd
  0
BLOCK
  5
44DE
330
44DD
100
AcDbEntity
  8
0
100
AcDbBlockBegin
  2
*D112
 70
     1
 10
0.0
 20
0.0
 30
0.0
  3
*D112
  1
*D124
  0
LINE
  5
44E0
330
44DD
100
AcDbEntity
  8
DIM
  6
Continuous
 62
     0
370
    -2
100
AcDbLine
 10
1639.405242329734
 20
923.9486368925068
 30
0.0
 11
1888.115895454553
 21
923.9486368925068
 31
0.0
  0
LINE
  5
44E1
330
44DD
100
AcDbEntity
  8
DIM
  6
Continuous
 62
     0
370
    -2
100
AcDbLine
 10
1379.73150048633
 20
1743.948636892506
 30
0.0
 11
1888.115895454553
 21
1743.948636892506
 31
0.0
  0
LINE
  5
44E2
330
44DD
100
AcDbEntity
  8
DIM
  6
Continuous
 62
     0
370
    -2
100
AcDbLine
 10
1888.115895454553
 20
929.9486368925068
 30
0.0
 11
1888.115895454553
 21
1737.948636892506
 31
0.0
  0
INSERT
  5
44E3
330
44DD
100
AcDbEntity
  8
DIM
 62
     0
370
    -2
100
AcDbBlockReference
  2
_DOT
 10
1888.115895454553
 20
923.9486368925068
 30
0.0
 41
6.0
 42
6.0
 43
6.0
 50
270.0
  0
INSERT
  5
44E4
330
44DD
100
AcDbEntity
  8
DIM
 62
     0
370
    -2
100
AcDbBlockReference
  2
_DOT
 10
1888.115895454553
 20
1743.948636892506
 30
0.0
 41
6.0
 42
6.0
 43
6.0
 50
90.0
  0
MTEXT
  5
44E5
330
44DD
100
AcDbEntity
  8
DIM
  6
Continuous
 62
     0
100
AcDbMText
 10
1861.115895454553
 20
1333.948636892506
 30
0.0
 40
24.0
 41
0.0
 46
0.0
 71
     5
 72
     1
  1
\A1;820
  7
ＭＳ ゴシック
 11
0.0
 21
1.0
 31
0.0
 73
     1
 44
1.0
  0
POINT
  5
44E6
330
44DD
100
AcDbEntity
  8
Defpoints
 62
     0
100
AcDbPoint
 10
1614.405242329734
 20
923.9486368925068
 30
0.0
  0
POINT
  5
44E7
330
44DD
100
AcDbEntity
  8
Defpoints
 62
     0
100
AcDbPoint
 10
1354.73150048633
 20
1743.948636892506
 30
0.0
  0
POINT
  5
44E8
330
44DD
100
AcDbEntity
  8
Defpoints
 62
     0
100
AcDbPoint
 10
1888.115895454553
 20
1743.948636892506
 30
0.0
  0
ENDBLK
  5
44DF
330
44DD
100
AcDbEntity
  8
0
100
AcDbBlockEnd
  0
BLOCK
  5
44F6
330
44F5
100
AcDbEntity
  8
0
100
AcDbBlockBegin
  2
*D114
 70
     1
 10
0.0
 20
0.0
 30
0.0
  3
*D114
  1
*D126
  0
LINE
  5
44F8
330
44F5
100
AcDbEntity
  8
DIM
  6
Continuous
 62
     0
370
    -2
100
AcDbLine
 10
1304.405242329734
 20
899.1910732346564
 30
0.0
 11
1304.405242329734
 21
850.8143703055339
 31
0.0
  0
LINE
  5
44F9
330
44F5
100
AcDbEntity
  8
DIM
  6
Continuous
 62
     0
370
    -2
100
AcDbLine
 10
1554.405242329734
 20
899.1910732346564
 30
0.0
 11
1554.405242329734
 21
850.8143703055339
 31
0.0
  0
LINE
  5
44FA
330
44F5
100
AcDbEntity
  8
DIM
  6
Continuous
 62
     0
370
    -2
100
AcDbLine
 10
1310.405242329734
 20
850.8143703055339
 30
0.0
 11
1548.405242329734
 21
850.8143703055339
 31
0.0
  0
INSERT
  5
44FB
330
44F5
100
AcDbEntity
  8
DIM
 62
     0
370
    -2
100
AcDbBlockReference
  2
_DOT
 10
1304.405242329734
 20
850.8143703055339
 30
0.0
 41
6.0
 42
6.0
 43
6.0
 50
180.0
  0
INSERT
  5
44FC
330
44F5
100
AcDbEntity
  8
DIM
 62
     0
370
    -2
100
AcDbBlockReference
  2
_DOT
 10
1554.405242329734
 20
850.8143703055339
 30
0.0
 41
6.0
 42
6.0
 43
6.0
  0
MTEXT
  5
44FD
330
44F5
100
AcDbEntity
  8
DIM
  6
Continuous
 62
     0
100
AcDbMText
 10
1429.405242329734
 20
877.8143703055339
 30
0.0
 40
24.0
 41
0.0
 46
0.0
 71
     5
 72
     1
  1
\A1;250
  7
ＭＳ ゴシック
 73
     1
 44
1.0
  0
POINT
  5
44FE
330
44F5
100
AcDbEntity
  8
Defpoints
 62
     0
100
AcDbPoint
 10
1304.405242329734
 20
924.1910732346564
 30
0.0
  0
POINT
  5
44FF
330
44F5
100
AcDbEntity
  8
Defpoints
 62
     0
100
AcDbPoint
 10
1554.405242329734
 20
924.1910732346564
 30
0.0
  0
POINT
  5
4500
330
44F5
100
AcDbEntity
  8
Defpoints
 62
     0
100
AcDbPoint
 10
1554.405242329734
 20
850.8143703055339
 30
0.0
  0
ENDBLK
  5
44F7
330
44F5
100
AcDbEntity
  8
0
100
AcDbBlockEnd
  0
ENDSEC
  0
SECTION
  2
ENTITIES
  0
POINT
  5
3B96
330
A
100
AcDbEntity
  8
_0-7_
 62
     9
100
AcDbPoint
 10
5611.355377587607
 20
1006.191153304715
 30
0.0
  0
MTEXT
  5
4106
330
A
100
AcDbEntity
  8
MODEL
390
1D
100
AcDbMText
 10
79.25470553268497
 20
348.7848719762267
 30
0.0
 40
16.28841145833333
 41
0.0
 46
0.0
 71
     1
 72
     1
  1
品名
  7
ＭＳ ゴシック
 73
     1
 44
0.7828267384257843
  0
MTEXT
  5
4107
330
A
100
AcDbEntity
  8
MODEL
390
1D
100
AcDbMText
 10
79.25470553268497
 20
263.7848719762266
 30
0.0
 40
16.28841145833333
 41
0.0
 46
0.0
 71
     1
 72
     1
  1
仕様
  7
ＭＳ ゴシック
 73
     1
 44
0.7828267384257843
  0
LINE
  5
4108
330
A
100
AcDbEntity
  8
MODEL
390
1D
100
AcDbLine
 10
2022.254705532203
 20
272.1997938512266
 30
0.0
 11
72.25470553220293
 21
272.1997938512266
 31
0.0
  0
LWPOLYLINE
  5
4109
330
A
100
AcDbEntity
  8
MODEL
390
1D
100
AcDbPolyline
 90
        5
 70
   128
 43
0.0
 10
2022.254705532203
 20
2902.199793851227
 10
72.25470553220293
 20
2902.199793851227
 10
72.25470553220293
 20
102.1997938512265
 10
2022.254705532203
 20
102.1997938512265
 10
2022.254705532203
 20
2902.199793851227
  0
LINE
  5
410A
330
A
100
AcDbEntity
  8
MODEL
390
1D
100
AcDbLine
 10
2022.254705532203
 20
357.1997938512265
 30
0.0
 11
72.25470553220293
 21
357.1997938512265
 31
0.0
  0
LINE
  5
410B
330
A
100
AcDbEntity
  8
MODEL
390
1D
100
AcDbLine
 10
2022.254705532685
 20
187.1997938512266
 30
0.0
 11
1269.254705532685
 21
187.1997938512266
 31
0.0
  0
MTEXT
  5
410C
330
A
100
AcDbEntity
  8
MODEL
390
1D
100
AcDbMText
 10
72.25470553288915
 20
90.34597179436945
 30
0.0
 40
21.71788194444445
 41
0.0
 46
21.71788194444445
 71
     1
 72
     1
  1
{160122N}
  7
ＭＳ ゴシック
 73
     1
 44
0.7828267384257843
1001
ACAD
1000
ACAD_MTEXT_DEFINED_HEIGHT_BEGIN
1070
    46
1040
21.71788194444445
1000
ACAD_MTEXT_DEFINED_HEIGHT_END
  0
MTEXT
  5
410D
330
A
100
AcDbEntity
  8
MODEL
390
1D
100
AcDbMText
 10
1299.126111784947
 20
157.2893993779186
 30
0.0
 40
24.4326171875
 41
0.0
 46
0.0
 71
     1
 72
     1
  1
大洋金物株式会社 ティーフォルム事業部
  7
ＭＳ ゴシック
 73
     1
 44
0.7828267384257843
  0
MTEXT
  5
410E
330
A
100
AcDbEntity
  8
MODEL
390
1D
100
AcDbMText
 10
1831.254705532946
 20
235.2024110387265
 30
0.0
 40
24.4326171875
 41
0.0
 46
24.4326171875
 71
     1
 72
     1
  1
{1:10}
  7
ＭＳ ゴシック
 73
     1
 44
0.7828267384257843
1001
ACAD
1000
ACAD_MTEXT_DEFINED_HEIGHT_BEGIN
1070
    46
1040
24.4326171875
1000
ACAD_MTEXT_DEFINED_HEIGHT_END
  0
MTEXT
  5
410F
330
A
100
AcDbEntity
  8
MODEL
390
1D
100
AcDbMText
 10
1778.254705532946
 20
263.7848719762266
 30
0.0
 40
16.28841145833333
 41
0.0
 46
0.0
 71
     1
 72
     1
  1
縮尺
  7
ＭＳ ゴシック
 73
     1
 44
0.7828267384257843
  0
LINE
  5
4110
330
A
100
AcDbEntity
  8
MODEL
390
1D
100
AcDbLine
 10
1771.254705532946
 20
187.1997938512266
 30
0.0
 11
1771.254705532946
 21
272.1997938512266
 31
0.0
  0
MTEXT
  5
4111
330
A
100
AcDbEntity
  8
MODEL
390
1D
100
AcDbMText
 10
1527.254705532946
 20
263.7848719762266
 30
0.0
 40
16.28841145833333
 41
0.0
 46
0.0
 71
     1
 72
     1
  1
容量
  7
ＭＳ ゴシック
 73
     1
 44
0.7828267384257843
  0
LINE
  5
4112
330
A
100
AcDbEntity
  8
MODEL
390
1D
100
AcDbLine
 10
1520.254705532946
 20
187.1997938512266
 30
0.0
 11
1520.254705532946
 21
272.1997938512266
 31
0.0
  0
MTEXT
  5
4113
330
A
100
AcDbEntity
  8
MODEL
390
1D
100
AcDbMText
 10
1276.254705532946
 20
348.7848719762267
 30
0.0
 40
16.28841145833333
 41
0.0
 46
0.0
 71
     1
 72
     1
  1
品番
  7
ＭＳ ゴシック
 73
     1
 44
0.7828267384257843
  0
MTEXT
  5
4114
330
A
100
AcDbEntity
  8
MODEL
390
1D
100
AcDbMText
 10
1276.254705532946
 20
263.7848719762266
 30
0.0
 40
16.28841145833333
 41
0.0
 46
0.0
 71
     1
 72
     1
  1
重量
  7
ＭＳ ゴシック
 73
     1
 44
0.7828267384257843
  0
MTEXT
  5
4115
330
A
100
AcDbEntity
  8
MODEL
390
1D
100
AcDbMText
 10
1329.254705532946
 20
320.2024110387265
 30
0.0
 40
24.4326171875
 41
0.0
 46
24.4326171875
 71
     1
 72
     1
  1
{FAA71-0407}
  7
ＭＳ ゴシック
 73
     1
 44
0.7828267384257843
1001
ACAD
1000
ACAD_MTEXT_DEFINED_HEIGHT_BEGIN
1070
    46
1040
24.4326171875
1000
ACAD_MTEXT_DEFINED_HEIGHT_END
  0
LINE
  5
4116
330
A
100
AcDbEntity
  8
MODEL
390
1D
100
AcDbLine
 10
1269.254705532946
 20
102.1997938512265
 30
0.0
 11
1269.254705532946
 21
357.1997938512265
 31
0.0
  0
MTEXT
  5
4117
330
A
100
AcDbEntity
  8
MODEL
390
1D
100
AcDbMText
 10
132.254705532685
 20
320.2024110387265
 30
0.0
 40
24.4326171875
 41
0.0
 46
24.4326171875
 71
     1
 72
     1
  1
{床置便器 -DURAVIT,Starck2-}
  7
ＭＳ ゴシック
 73
     1
 44
0.7828267384257843
1001
ACAD
1000
ACAD_MTEXT_DEFINED_HEIGHT_BEGIN
1070
    46
1040
24.4326171875
1000
ACAD_MTEXT_DEFINED_HEIGHT_END
  0
MTEXT
  5
4118
330
A
100
AcDbEntity
  8
MODEL
390
1D
100
AcDbMText
 10
132.254705532685
 20
237.2474089396834
 30
0.0
 40
24.4326171875
 41
0.0
 46
80.02949492370524
 71
     1
 72
     1
  1
{ウォッシュダウン式/ソフトクローズ便座,床固定金具付属/\P陶器/ホワイト}
  7
ＭＳ ゴシック
 73
     1
 44
1.304711230709641
1001
ACAD
1000
ACAD_MTEXT_DEFINED_HEIGHT_BEGIN
1070
    46
1040
80.02949492370524
1000
ACAD_MTEXT_DEFINED_HEIGHT_END
  0
INSERT
  5
4119
330
A
100
AcDbEntity
  8
MODEL
100
AcDbBlockReference
  2
名称未設定-1
 10
1870.813956087109
 20
30.99988610145212
 30
0.0
 41
0.762
 42
0.762
 43
0.762
  0
LWPOLYLINE
  5
411A
330
A
100
AcDbEntity
  8
TEMPLATE
  6
Continuous
100
AcDbPolyline
 90
        4
 70
     1
 43
0.0
 10
0.0
 20
0.0
 10
0.0
 20
2970.0
 10
2100.0
 20
2970.0
 10
2100.0
 20
0.0
  0
ARC
  5
4345
330
A
100
AcDbEntity
  8
MODEL
100
AcDbCircle
 10
813.9630944725109
 20
2409.500673057904
 30
0.0
 40
127.5
100
AcDbArc
 50
270.0
 51
90.0
  0
ARC
  5
4346
330
A
100
AcDbEntity
  8
MODEL
100
AcDbCircle
 10
813.9630944725109
 20
2409.500673057904
 30
0.0
 40
121.2543854865548
100
AcDbArc
 50
270.0
 51
90.0
  0
CIRCLE
  5
4348
330
A
100
AcDbEntity
  8
MODEL
100
AcDbCircle
 10
511.4630944725109
 20
2479.500673057904
 30
0.0
 40
7.5
  0
ARC
  5
434A
330
A
100
AcDbEntity
  8
MODEL
100
AcDbCircle
 10
686.441497608726
 20
2409.500673057904
 30
0.0
 40
46.03096119195256
100
AcDbArc
 50
270.0
 51
90.0
  0
LINE
  5
434B
330
A
100
AcDbEntity
  8
MODEL
100
AcDbLine
 10
686.441497608726
 20
2455.531634249857
 30
0.0
 11
589.3742461328052
 21
2455.531634249857
 31
0.0
  0
LINE
  5
434C
330
A
100
AcDbEntity
  8
MODEL
100
AcDbLine
 10
686.441497608726
 20
2363.469711865951
 30
0.0
 11
589.9336835734198
 21
2363.469711865951
 31
0.0
  0
ARC
  5
434D
330
A
100
AcDbEntity
  8
MODEL
100
AcDbCircle
 10
491.2723969727908
 20
2409.500406246617
 30
0.0
 40
120.7389345289058
100
AcDbArc
 50
346.4584912218899
 51
13.54177093563143
  0
CIRCLE
  5
434F
330
A
100
AcDbEntity
  8
MODEL
100
AcDbCircle
 10
511.4630944725109
 20
2339.500673057904
 30
0.0
 40
7.5
  0
ARC
  5
4351
330
A
100
AcDbEntity
  8
MODEL
100
AcDbCircle
 10
693.9630944725109
 20
2409.500673057904
 30
0.0
 40
127.5
100
AcDbArc
 50
90.0
 51
270.0
  0
ARC
  5
4352
330
A
100
AcDbEntity
  8
MODEL
100
AcDbCircle
 10
693.9630944725109
 20
2409.500673057904
 30
0.0
 40
121.2543854865548
100
AcDbArc
 50
90.0
 51
270.0
  0
LINE
  5
4353
330
A
100
AcDbEntity
  8
MODEL
100
AcDbLine
 10
813.9630944725109
 20
2537.000673057904
 30
0.0
 11
693.9630944725109
 21
2537.000673057904
 31
0.0
  0
LINE
  5
4354
330
A
100
AcDbEntity
  8
MODEL
100
AcDbLine
 10
813.9630944725109
 20
2530.755058544458
 30
0.0
 11
693.9630944725109
 21
2530.755058544458
 31
0.0
  0
LINE
  5
4355
330
A
100
AcDbEntity
  8
MODEL
100
AcDbLine
 10
813.9630944725109
 20
2282.000673057904
 30
0.0
 11
693.9630944725109
 21
2282.000673057904
 31
0.0
  0
LINE
  5
4356
330
A
100
AcDbEntity
  8
MODEL
100
AcDbLine
 10
813.9630944725109
 20
2288.24628757135
 30
0.0
 11
693.9630944725109
 21
2288.24628757135
 31
0.0
  0
LWPOLYLINE
  5
4361
330
A
100
AcDbEntity
  8
MODEL
100
AcDbPolyline
 90
        6
 70
     1
 43
0.0
 10
256.4630944725131
 20
2589.501083921128
 42
-0.4179734021179893
 10
261.5271917691271
 20
2594.500673057904
 10
803.127323321808
 20
2589.492979399972
 42
-0.9907966345221302
 10
803.127322892054
 20
2229.508366711861
 10
261.4914537198051
 20
2224.500342620018
 42
-0.4158757949384208
 10
256.4630944725131
 20
2229.50026219468
  0
ARC
  5
4362
330
A
100
AcDbEntity
  8
MODEL
100
AcDbCircle
 10
1403.605700964271
 20
1362.182538249567
 30
0.0
 40
834.7868840601202
100
AcDbArc
 50
187.2870976998779
 51
211.6658874851624
  0
LINE
  5
4363
330
A
100
AcDbEntity
  8
MODEL GRAY
  6
AM_DIN_F_W050
 48
3.0
100
AcDbLine
 10
566.1820467285811
 20
1319.21300763949
 30
0.0
 11
569.568304730929
 21
1256.992063924394
 31
0.0
  0
LINE
  5
4364
330
A
100
AcDbEntity
  8
MODEL GRAY
  6
AM_DIN_F_W050
 48
3.0
100
AcDbLine
 10
357.534535758155
 20
1338.948636892505
 30
0.0
 11
357.534535758155
 21
1333.948636892507
 31
0.0
  0
LINE
  5
4365
330
A
100
AcDbEntity
  8
MODEL GRAY
  6
AM_DIN_F_W050
 48
3.0
100
AcDbLine
 10
928.0054106559342
 20
1277.301677259726
 30
0.0
 11
574.322944607698
 21
1261.636401298207
 31
0.0
  0
ARC
  5
4366
330
A
100
AcDbEntity
  8
MODEL GRAY
  6
AM_DIN_F_W050
 48
3.0
100
AcDbCircle
 10
744.872336365243
 20
1275.527833666036
 30
0.0
 40
224.3259028182857
100
AcDbArc
 50
190.0630188159935
 51
223.2444151766567
  0
ARC
  5
4367
330
A
100
AcDbEntity
  8
MODEL GRAY
  6
AM_DIN_F_W050
 48
3.0
100
AcDbCircle
 10
528.9205072235281
 20
1237.204744836934
 30
0.0
 40
5.0
100
AcDbArc
 50
101.3413833409799
 51
190.0630188159959
1001
GENIUS_GENODEF_13
1002
{
1000
HIER
1070
     0
1002
}
1002
{
1000
MANEDIT
1070
     0
1002
}
1002
{
1000
NOSEL
1070
     0
1002
}
1002
{
1000
BEHIND
1070
     0
1002
}
1002
{
1000
OTHER
1070
     0
1002
}
1002
{
1000
REACTOR
1002
}
1001
GENIUS_GENOBJ-N-FIL_13
1002
{
1000
OWNER
1000
GEN
1002
}
  0
ARC
  5
4368
330
A
100
AcDbEntity
  8
MODEL GRAY
  6
AM_DIN_F_W050
 48
3.0
100
AcDbCircle
 10
625.9239408828971
 20
1006.534645015092
 30
0.0
 40
67.91525629826447
100
AcDbArc
 50
197.1110257485218
 51
260.9429517401122
  0
ARC
  5
4369
330
A
100
AcDbEntity
  8
MODEL GRAY
  6
AM_DIN_F_W050
 48
3.0
100
AcDbCircle
 10
359.207523612587
 20
983.4703875061864
 30
0.0
 40
261.8097300047123
100
AcDbArc
 50
7.332428732381269
 51
31.90484186881725
  0
ARC
  5
436A
330
A
100
AcDbEntity
  8
MODEL GRAY
  6
AM_DIN_F_W050
 48
3.0
100
AcDbCircle
 10
634.198767344345
 20
994.6843690607425
 30
0.0
 40
58.38456124684629
100
AcDbArc
 50
251.0438522119346
 51
342.3659317585841
  0
ARC
  5
436B
330
A
100
AcDbEntity
  8
MODEL GRAY
  6
AM_DIN_F_W050
 48
3.0
100
AcDbCircle
 10
822.0588462867258
 20
1314.956806525543
 30
0.0
 40
160.3100949663002
100
AcDbArc
 50
274.8337749967391
 51
344.0202307530317
  0
ARC
  5
436C
330
A
100
AcDbEntity
  8
MODEL GRAY
  6
AM_DIN_F_W050
 48
3.0
100
AcDbCircle
 10
769.6815228041878
 20
1122.461897254205
 30
0.0
 40
25.0
100
AcDbArc
 50
93.23887287612995
 51
173.2066479285082
1001
GENIUS_GENOBJ-N-FIL_13
1002
{
1000
OWNER
1000
GEN
1002
}
1001
GENIUS_GENODEF_13
1002
{
1000
HIER
1070
     0
1002
}
1002
{
1000
MANEDIT
1070
     0
1002
}
1002
{
1000
NOSEL
1070
     0
1002
}
1002
{
1000
BEHIND
1070
     0
1002
}
1002
{
1000
OTHER
1070
     0
1002
}
1002
{
1000
REACTOR
1002
}
  0
LINE
  5
436D
330
A
100
AcDbEntity
  8
MODEL
100
AcDbLine
 10
306.2025748585788
 20
1251.297132206456
 30
0.0
 11
306.2025748585788
 21
923.9486368925059
 31
0.0
  0
ARC
  5
436E
330
A
100
AcDbEntity
  8
MODEL GRAY
  6
AM_DIN_F_W050
 48
3.0
100
AcDbCircle
 10
542.114900379765
 20
1042.940650698511
 30
0.0
 40
10.0
100
AcDbArc
 50
0.885155096782144
 51
90.0
  0
LINE
  5
436F
330
A
100
AcDbEntity
  8
MODEL GRAY
  6
AM_DIN_F_W050
 48
3.0
100
AcDbLine
 10
486.1808569500708
 20
1052.940650698511
 30
0.0
 11
486.1808569500708
 21
1154.808724677431
 31
0.0
  0
LINE
  5
4370
330
A
100
AcDbEntity
  8
MODEL GRAY
  6
AM_DIN_F_W050
 48
3.0
100
AcDbLine
 10
318.3214073308641
 20
1014.867403116218
 30
0.0
 11
552.657936839204
 21
1031.024225542677
 31
0.0
  0
ARC
  5
4371
330
A
100
AcDbEntity
  8
MODEL GRAY
  6
AM_DIN_F_W050
 48
3.0
100
AcDbCircle
 10
756.1806814232491
 20
1046.247988421214
 30
0.0
 40
204.0913288682397
100
AcDbArc
 50
180.8851550967795
 51
197.0073770695957
  0
LINE
  5
4372
330
A
100
AcDbEntity
  8
MODEL GRAY
  6
AM_DIN_F_W050
 48
3.0
100
AcDbLine
 10
486.1808569500708
 20
1052.940650698511
 30
0.0
 11
542.114900379765
 21
1052.940650698511
 31
0.0
  0
LINE
  5
4373
330
A
100
AcDbEntity
  8
MODEL GRAY
  6
CENTER2
100
AcDbLine
 10
440.9251637221159
 20
1103.948636892506
 30
0.0
 11
531.891467088924
 21
1103.948636892506
 31
0.0
  0
ARC
  5
4374
330
A
100
AcDbEntity
  8
MODEL GRAY
  6
AM_DIN_F_W050
 48
3.0
100
AcDbCircle
 10
530.4499799697778
 20
1169.577409387898
 30
0.0
 40
14.85348564207567
100
AcDbArc
 50
263.8746545076608
 51
24.35525242889267
  0
LINE
  5
4375
330
A
100
AcDbEntity
  8
MODEL
100
AcDbLine
 10
631.7500421136369
 20
1256.297132206455
 30
0.0
 11
311.2025748585788
 21
1256.297132206455
 31
0.0
  0
LINE
  5
4376
330
A
100
AcDbEntity
  8
MODEL
100
AcDbLine
 10
584.6850279998462
 20
1200.200831904999
 30
0.0
 11
306.2025748585788
 21
1200.200831904999
 31
0.0
  0
LINE
  5
4377
330
A
100
AcDbEntity
  8
MODEL GRAY
  6
AM_DIN_F_W050
 48
3.0
100
AcDbLine
 10
262.355215596916
 20
1276.973536303653
 30
0.0
 11
522.6773104037898
 21
1240.077030465467
 31
0.0
  0
ARC
  5
4378
330
A
100
AcDbEntity
  8
MODEL GRAY
  6
AM_DIN_F_W050
 48
3.0
100
AcDbCircle
 10
559.5830812952222
 20
1256.448636892505
 30
0.0
 40
10.0
100
AcDbArc
 50
270.0
 51
3.115142061160149
  0
ARC
  5
4379
330
A
100
AcDbEntity
  8
MODEL GRAY
  6
AM_DIN_F_W050
 48
3.0
100
AcDbCircle
 10
574.051231091752
 20
1266.629013016062
 30
0.0
 40
5.0
100
AcDbArc
 50
183.1151420611499
 51
273.1151420611707
  0
ARC
  5
437A
330
A
100
AcDbEntity
  8
MODEL
100
AcDbCircle
 10
311.2025748585788
 20
1251.297132206456
 30
0.0
 40
5.0
100
AcDbArc
 50
90.0
 51
180.0
  0
LINE
  5
437B
330
A
100
AcDbEntity
  8
MODEL GRAY
  6
AM_DIN_F_W050
 48
3.0
100
AcDbLine
 10
941.3093018810218
 20
1316.874752352373
 30
0.0
 11
936.6481006288659
 21
1283.477608400528
 31
0.0
  0
LINE
  5
437C
330
A
100
AcDbEntity
  8
MODEL GRAY
  6
AM_DIN_F_W050
 48
3.0
100
AcDbLine
 10
972.0534012571629
 20
1280.791488943646
 30
0.0
 11
941.972204965618
 21
1277.800328492933
 31
0.0
  0
ARC
  5
437D
330
A
100
AcDbEntity
  8
MODEL GRAY
  6
AM_DIN_F_W050
 48
3.0
100
AcDbCircle
 10
941.600102075628
 20
1282.786463212259
 30
0.0
 40
5.0
100
AcDbArc
 50
172.0546187742297
 51
274.2679308286174
1001
GENIUS_GENOBJ-N-FIL_13
1002
{
1000
OWNER
1000
GEN
1002
}
1001
GENIUS_GENODEF_13
1002
{
1000
HIER
1070
     0
1002
}
1002
{
1000
MANEDIT
1070
     0
1002
}
1002
{
1000
NOSEL
1070
     0
1002
}
1002
{
1000
BEHIND
1070
     0
1002
}
1002
{
1000
OTHER
1070
     0
1002
}
1002
{
1000
REACTOR
1002
}
  0
ARC
  5
437E
330
A
100
AcDbEntity
  8
MODEL GRAY
  6
AM_DIN_F_W050
 48
3.0
100
AcDbCircle
 10
951.3461232541949
 20
1313.331451221342
 30
0.0
 40
10.64390746775534
100
AcDbArc
 50
94.06079263490138
 51
160.555429246495
  0
ARC
  5
437F
330
A
100
AcDbEntity
  8
MODEL GRAY
  6
AM_DIN_F_W050
 48
3.0
100
AcDbCircle
 10
561.1894350107259
 20
1318.941294123546
 30
0.0
 40
5.0
100
AcDbArc
 50
3.115142061149884
 51
90.0
  0
LINE
  5
4380
330
A
100
AcDbEntity
  8
MODEL GRAY
  6
CENTER2
 48
30.0
100
AcDbLine
 10
312.825082783374
 20
1347.109660364546
 30
0.0
 11
312.7539047584009
 21
1306.15673963012
 31
0.0
  0
LINE
  5
4381
330
A
100
AcDbEntity
  8
MODEL GRAY
  6
AM_DIN_F_W050
 48
3.0
100
AcDbLine
 10
528.8650548478372
 20
1154.808724677431
 30
0.0
 11
486.1808569500708
 21
1154.808724677431
 31
0.0
  0
ARC
  5
4382
330
A
100
AcDbEntity
  8
MODEL GRAY
  6
AM_DIN_F_W050
 48
3.0
100
AcDbCircle
 10
183.9189105949558
 20
1200.144888779545
 30
0.0
 40
565.8935660982658
100
AcDbArc
 50
348.2340764649196
 51
352.4119782139265
  0
LINE
  5
4383
330
A
100
AcDbEntity
  8
MODEL GRAY
  6
AM_DIN_F_W050
 48
3.0
100
AcDbLine
 10
689.839879468208
 20
976.9975481591086
 30
0.0
 11
709.1193590395642
 21
1037.649018001292
 31
0.0
  0
ARC
  5
4384
330
A
100
AcDbEntity
  8
MODEL GRAY
  6
AM_DIN_F_W050
 48
3.0
100
AcDbCircle
 10
698.0725891535071
 20
1084.751359961183
 30
0.0
 40
39.84980668162302
100
AcDbArc
 50
302.5296112962254
 51
0.0
  0
ARC
  5
4385
330
A
100
AcDbEntity
  8
MODEL GRAY
  6
AM_DIN_F_W050
 48
3.0
100
AcDbCircle
 10
732.9446267711378
 20
1030.075602819298
 30
0.0
 40
25.0
100
AcDbArc
 50
122.5296112962237
 51
162.3659317585823
1001
GENIUS_GENODEF_13
1002
{
1000
HIER
1070
     0
1002
}
1002
{
1000
MANEDIT
1070
     0
1002
}
1002
{
1000
NOSEL
1070
     0
1002
}
1002
{
1000
BEHIND
1070
     0
1002
}
1002
{
1000
OTHER
1070
     0
1002
}
1002
{
1000
REACTOR
1002
}
1001
GENIUS_GENOBJ-N-FIL_13
1002
{
1000
OWNER
1000
GEN
1002
}
  0
LINE
  5
4386
330
A
100
AcDbEntity
  8
MODEL GRAY
  6
AM_DIN_F_W050
 48
3.0
100
AcDbLine
 10
347.4353334336088
 20
1318.948636892507
 30
0.0
 11
278.117151269435
 21
1319.069115022336
 31
0.0
  0
LINE
  5
4387
330
A
100
AcDbEntity
  8
MODEL GRAY
  6
AM_DIN_F_W050
 48
3.0
100
AcDbLine
 10
835.761441732714
 20
943.9109923718393
 30
0.0
 11
816.234276872573
 21
1147.844255270798
 31
0.0
  0
ARC
  5
4388
330
A
100
AcDbEntity
  8
MODEL GRAY
  6
AM_DIN_F_W050
 48
3.0
100
AcDbCircle
 10
811.257041908314
 20
1147.367671479055
 30
0.0
 40
5.0
100
AcDbArc
 50
5.469551461570315
 51
96.60691126830002
1001
GENIUS_GENODEF_13
1002
{
1000
HIER
1070
     0
1002
}
1002
{
1000
MANEDIT
1070
     0
1002
}
1002
{
1000
NOSEL
1070
     0
1002
}
1002
{
1000
BEHIND
1070
     0
1002
}
1002
{
1000
OTHER
1070
     0
1002
}
1002
{
1000
REACTOR
1002
}
1001
GENIUS_GENOBJ-N-FIL_13
1002
{
1000
OWNER
1000
GEN
1002
}
  0
ARC
  5
4389
330
A
100
AcDbEntity
  8
MODEL GRAY
  6
AM_DIN_F_W050
 48
3.0
100
AcDbCircle
 10
845.715911661232
 20
944.8641599553234
 30
0.0
 40
10.0
100
AcDbArc
 50
185.4695514615597
 51
270.0
1001
GENIUS_GENODEF_13
1002
{
1000
HIER
1070
     0
1002
}
1002
{
1000
MANEDIT
1070
     0
1002
}
1002
{
1000
NOSEL
1070
     0
1002
}
1002
{
1000
BEHIND
1070
     0
1002
}
1002
{
1000
OTHER
1070
     0
1002
}
1002
{
1000
REACTOR
1002
}
1001
GENIUS_GENOBJ-N-FIL_13
1002
{
1000
OWNER
1000
GEN
1002
}
  0
LINE
  5
438A
330
A
100
AcDbEntity
  8
MODEL GRAY
  6
AM_DIN_F_W050
 48
3.0
100
AcDbLine
 10
845.715911661232
 20
934.8641599553234
 30
0.0
 11
858.039108532802
 21
934.8641599553234
 31
0.0
  0
LINE
  5
438B
330
A
100
AcDbEntity
  8
MODEL GRAY
  6
AM_DIN_F_W050
 48
3.0
100
AcDbLine
 10
294.3046630806361
 20
987.3525233402856
 30
0.0
 11
263.748412617379
 21
987.3525233402856
 31
0.0
  0
ARC
  5
438C
330
A
100
AcDbEntity
  8
MODEL GRAY
  6
AM_DIN_F_W050
 48
3.0
100
AcDbCircle
 10
294.3046630806361
 20
977.3525233402856
 30
0.0
 40
10.0
100
AcDbArc
 50
350.09300326573
 51
90.0
1001
GENIUS_GENODEF_13
1002
{
1000
HIER
1070
     0
1002
}
1002
{
1000
MANEDIT
1070
     0
1002
}
1002
{
1000
NOSEL
1070
     0
1002
}
1002
{
1000
BEHIND
1070
     0
1002
}
1002
{
1000
OTHER
1070
     0
1002
}
1002
{
1000
REACTOR
1002
}
1001
GENIUS_GENOBJ-N-FIL_13
1002
{
1000
OWNER
1000
GEN
1002
}
  0
LINE
  5
438D
330
A
100
AcDbEntity
  8
MODEL GRAY
  6
AM_DIN_F_W050
 48
3.0
100
AcDbLine
 10
309.5727472684798
 20
1006.648827504724
 30
0.0
 11
298.168337966325
 21
941.3515892792752
 31
0.0
  0
ARC
  5
438E
330
A
100
AcDbEntity
  8
MODEL GRAY
  6
AM_DIN_F_W050
 48
3.0
100
AcDbCircle
 10
319.4236305035511
 20
1004.928333538155
 30
0.0
 40
10.0
100
AcDbArc
 50
96.32813133972357
 51
170.0930032657249
1001
GENIUS_GENODEF_13
1002
{
1000
HIER
1070
     0
1002
}
1002
{
1000
MANEDIT
1070
     0
1002
}
1002
{
1000
NOSEL
1070
     0
1002
}
1002
{
1000
BEHIND
1070
     0
1002
}
1002
{
1000
OTHER
1070
     0
1002
}
1002
{
1000
REACTOR
1002
}
1001
GENIUS_GENOBJ-N-FIL_13
1002
{
1000
OWNER
1000
GEN
1002
}
  0
ARC
  5
438F
330
A
100
AcDbEntity
  8
MODEL GRAY
  6
AM_DIN_F_W050
 48
3.0
100
AcDbCircle
 10
288.3174547312551
 20
943.0720832458433
 30
0.0
 40
10.0
100
AcDbArc
 50
270.0
 51
350.09300326573
1001
GENIUS_GENOBJ-N-FIL_13
1002
{
1000
OWNER
1000
GEN
1002
}
1001
GENIUS_GENODEF_13
1002
{
1000
HIER
1070
     0
1002
}
1002
{
1000
MANEDIT
1070
     0
1002
}
1002
{
1000
NOSEL
1070
     0
1002
}
1002
{
1000
BEHIND
1070
     0
1002
}
1002
{
1000
OTHER
1070
     0
1002
}
1002
{
1000
REACTOR
1002
}
  0
LINE
  5
4390
330
A
100
AcDbEntity
  8
MODEL GRAY
  6
AM_DIN_F_W050
 48
3.0
100
AcDbLine
 10
288.3174547312551
 20
933.0720832458433
 30
0.0
 11
262.7785931751691
 21
933.0720832458433
 31
0.0
  0
LINE
  5
4391
330
A
100
AcDbEntity
  8
MODEL GRAY
  6
AM_DIN_F_W050
 48
3.0
100
AcDbLine
 10
263.748412617379
 20
987.3525233402856
 30
0.0
 11
262.7785931751691
 21
933.0720832458433
 31
0.0
  0
LINE
  5
4392
330
A
100
AcDbEntity
  8
MODEL GRAY
  6
AM_DIN_F_W050
 48
3.0
100
AcDbLine
 10
608.8501658990799
 20
923.940650698511
 30
0.0
 11
605.5556747768001
 21
941.7456353460898
 31
0.0
  0
LINE
  5
4393
330
A
100
AcDbEntity
  8
MODEL GRAY
  6
AM_DIN_F_W050
 48
3.0
100
AcDbLine
 10
558.7450895948432
 20
994.5521704223488
 30
0.0
 11
457.4891827906022
 21
994.5521704223488
 31
0.0
  0
LINE
  5
4394
330
A
100
AcDbEntity
  8
MODEL GRAY
  6
AM_DIN_F_W050
 48
3.0
100
AcDbLine
 10
447.5752466816798
 20
985.8613193169417
 30
0.0
 11
439.398537251272
 21
923.940650698511
 31
0.0
  0
ARC
  5
4395
330
A
100
AcDbEntity
  8
MODEL GRAY
  6
AM_DIN_F_W050
 48
3.0
100
AcDbCircle
 10
457.4891827906022
 20
984.5521704223488
 30
0.0
 40
10.0
100
AcDbArc
 50
90.0
 51
172.4775365352821
1001
GENIUS_GENODEF_13
1002
{
1000
HIER
1070
     0
1002
}
1002
{
1000
MANEDIT
1070
     0
1002
}
1002
{
1000
NOSEL
1070
     0
1002
}
1002
{
1000
BEHIND
1070
     0
1002
}
1002
{
1000
OTHER
1070
     0
1002
}
1002
{
1000
REACTOR
1002
}
1001
GENIUS_GENOBJ-N-FIL_13
1002
{
1000
OWNER
1000
GEN
1002
}
  0
LINE
  5
4396
330
A
100
AcDbEntity
  8
MODEL
100
AcDbLine
 10
396.4253967811542
 20
1324.268146710991
 30
0.0
 11
256.4228216795391
 21
1324.268146710991
 31
0.0
  0
LINE
  5
4397
330
A
100
AcDbEntity
  8
MODEL GRAY
  6
AM_DIN_F_W050
 48
3.0
100
AcDbLine
 10
267.9521894495169
 20
1333.948636892507
 30
0.0
 11
267.9521894495169
 21
1338.948636892505
 31
0.0
  0
ARC
  5
4398
330
A
100
AcDbEntity
  8
MODEL GRAY
  6
AM_DIN_F_W050
 48
3.0
100
AcDbCircle
 10
272.9521894495169
 20
1333.948636892507
 30
0.0
 40
5.0
100
AcDbArc
 50
180.0
 51
270.0
1001
GENIUS_GENOBJ-N-FIL_13
1002
{
1000
OWNER
1000
GEN
1002
}
1001
GENIUS_GENODEF_13
1002
{
1000
HIER
1070
     0
1002
}
1002
{
1000
MANEDIT
1070
     0
1002
}
1002
{
1000
NOSEL
1070
     0
1002
}
1002
{
1000
BEHIND
1070
     0
1002
}
1002
{
1000
OTHER
1070
     0
1002
}
1002
{
1000
REACTOR
1002
}
  0
LINE
  5
4399
330
A
100
AcDbEntity
  8
MODEL GRAY
  6
AM_DIN_F_W050
 48
3.0
100
AcDbLine
 10
352.534535758155
 20
1328.948636892507
 30
0.0
 11
272.9521894495169
 21
1328.948636892507
 31
0.0
  0
ARC
  5
439A
330
A
100
AcDbEntity
  8
MODEL GRAY
  6
AM_DIN_F_W050
 48
3.0
100
AcDbCircle
 10
352.534535758155
 20
1333.948636892507
 30
0.0
 40
5.0
100
AcDbArc
 50
270.0
 51
0.0
1001
GENIUS_GENOBJ-N-FIL_13
1002
{
1000
OWNER
1000
GEN
1002
}
1001
GENIUS_GENODEF_13
1002
{
1000
HIER
1070
     0
1002
}
1002
{
1000
MANEDIT
1070
     0
1002
}
1002
{
1000
NOSEL
1070
     0
1002
}
1002
{
1000
BEHIND
1070
     0
1002
}
1002
{
1000
OTHER
1070
     0
1002
}
1002
{
1000
REACTOR
1002
}
  0
LINE
  5
439B
330
A
100
AcDbEntity
  8
MODEL GRAY
  6
AM_DIN_F_W050
 48
3.0
100
AcDbLine
 10
347.4353334336088
 20
1318.948636892507
 30
0.0
 11
347.4353334336088
 21
1328.948636892507
 31
0.0
  0
LINE
  5
439C
330
A
100
AcDbEntity
  8
MODEL GRAY
  6
AM_DIN_F_W050
 48
3.0
100
AcDbLine
 10
278.117151269435
 20
1319.069115022336
 30
0.0
 11
278.1519120672901
 21
1329.0690546065
 31
0.0
  0
LINE
  5
439D
330
A
100
AcDbEntity
  8
MODEL GRAY
  6
AM_DIN_F_W050
 48
3.0
100
AcDbLine
 10
549.5830812952222
 20
1246.448636892506
 30
0.0
 11
527.9372353881909
 21
1242.107109215255
 31
0.0
  0
LINE
  5
439E
330
A
100
AcDbEntity
  8
MODEL GRAY
  6
AM_DIN_F_W050
 48
3.0
100
AcDbLine
 10
835.5674159155869
 20
1155.216876969134
 30
0.0
 11
768.2690504568568
 21
1147.421963797947
 31
0.0
  0
CIRCLE
  5
43A1
330
A
100
AcDbEntity
  8
MODEL
100
AcDbCircle
 10
561.2191247161181
 20
954.0295744014752
 30
0.0
 40
7.5
  0
LWPOLYLINE
  5
43A2
330
A
100
AcDbEntity
  8
MODEL
100
AcDbPolyline
 90
       12
 70
     1
 43
0.0
 10
256.2025748585788
 20
1333.948636892507
 42
-0.4142135623730951
 10
261.2025748585788
 20
1338.948636892507
 10
386.430898556167
 20
1338.948636892507
 10
386.430898556167
 20
1334.268145197515
 42
0.4140524282849322
 10
396.4253967811542
 20
1324.268146710991
 10
977.1670304638692
 20
1323.948636287116
 42
-0.4140524282849312
 10
981.1648297538641
 20
1319.948636892507
 10
981.1648297538641
 20
1318.948636892503
 42
-0.0366830558018664
 10
972.5350545728638
 20
1250.437909231105
 42
-0.0314167023976699
 10
944.2778035889978
 20
1126.630719285086
 42
-0.056466416336493
 10
861.1656733476439
 20
923.9486368925068
 10
256.2025748585788
 20
923.9486368925068
  0
ARC
  5
43A3
330
A
100
AcDbEntity
  8
MODEL
100
AcDbCircle
 10
3508.753351983504
 20
1418.78970531586
 30
0.0
 40
2266.333424246997
100
AcDbArc
 50
182.4931761197612
 51
192.5103534937732
  0
ARC
  5
43A4
330
A
100
AcDbEntity
  8
MODEL
100
AcDbCircle
 10
1301.111038613034
 20
928.9486373836885
 30
0.0
 40
5.0
100
AcDbArc
 50
192.5103534937782
 51
270.0
1001
GENIUS_GENODEF_13
1002
{
1000
HIER
1070
     0
1002
}
1002
{
1000
MANEDIT
1070
     0
1002
}
1002
{
1000
NOSEL
1070
     0
1002
}
1002
{
1000
BEHIND
1070
     0
1002
}
1002
{
1000
OTHER
1070
     0
1002
}
1002
{
1000
REACTOR
1002
}
1001
GENIUS_GENOBJ-N-FIL_13
1002
{
1000
OWNER
1000
GEN
1002
}
  0
ARC
  5
43A5
330
A
100
AcDbEntity
  8
MODEL
100
AcDbCircle
 10
-649.942867324037
 20
1418.78970531586
 30
0.0
 40
2266.333424246997
100
AcDbArc
 50
347.4896465062266
 51
357.5068238802386
  0
ARC
  5
43A6
330
A
100
AcDbEntity
  8
MODEL
100
AcDbCircle
 10
1557.699446046432
 20
928.9486373836885
 30
0.0
 40
5.0
100
AcDbArc
 50
270.0
 51
347.489646506199
1001
GENIUS_GENODEF_13
1002
{
1000
HIER
1070
     0
1002
}
1002
{
1000
MANEDIT
1070
     0
1002
}
1002
{
1000
NOSEL
1070
     0
1002
}
1002
{
1000
BEHIND
1070
     0
1002
}
1002
{
1000
OTHER
1070
     0
1002
}
1002
{
1000
REACTOR
1002
}
1001
GENIUS_GENOBJ-N-FIL_13
1002
{
1000
OWNER
1000
GEN
1002
}
  0
ARC
  5
43A7
330
A
100
AcDbEntity
  8
MODEL
100
AcDbCircle
 10
1881.559781301137
 20
1179.198311973743
 30
0.0
 40
621.7722804609633
100
AcDbArc
 50
189.9802124631635
 51
202.9919344098286
  0
ARC
  5
43A8
330
A
100
AcDbEntity
  8
MODEL
100
AcDbCircle
 10
977.2507033583311
 20
1179.198311973743
 30
0.0
 40
621.7722804609633
100
AcDbArc
 50
337.008065590171
 51
350.0197875368365
  0
LINE
  5
43A9
330
A
100
AcDbEntity
  8
MODEL
100
AcDbLine
 10
1609.405242329734
 20
1323.948636892507
 30
0.0
 11
1249.405242329734
 21
1323.948636892507
 31
0.0
  0
LINE
  5
43AB
330
A
100
AcDbEntity
  8
MODEL GRAY
  6
AM_DIN_F_W050
 48
3.0
100
AcDbLine
 10
486.1808569500708
 20
1154.753428748973
 30
0.0
 11
486.1808569500708
 21
1052.995946626969
 31
0.0
  0
LINE
  5
43AC
330
A
100
AcDbEntity
  8
MODEL
100
AcDbLine
 10
430.264554581544
 20
1047.043443575562
 30
0.0
 11
498.1742768037661
 21
1047.043443575562
 31
0.0
  0
LINE
  5
43AD
330
A
100
AcDbEntity
  8
MODEL
100
AcDbLine
 10
461.1326101371001
 20
1034.69622135334
 30
0.0
 11
429.3826101371001
 21
1034.69622135334
 31
0.0
  0
LINE
  5
43AE
330
A
100
AcDbEntity
  8
MODEL
100
AcDbLine
 10
375.3601340465639
 20
958.6067523850256
 30
0.0
 11
449.5383004765918
 21
947.268638863337
 31
0.0
  0
LINE
  5
43AF
330
A
100
AcDbEntity
  8
MODEL
100
AcDbLine
 10
498.1742768037661
 20
1166.987888020007
 30
0.0
 11
432.910387914877
 21
1166.987888020007
 31
0.0
  0
LINE
  5
43B0
330
A
100
AcDbEntity
  8
MODEL
100
AcDbLine
 10
498.1742768037661
 20
1172.279554686673
 30
0.0
 11
498.1742768037661
 21
1036.460110242229
 31
0.0
  0
LINE
  5
43B1
330
A
100
AcDbEntity
  8
MODEL
100
AcDbLine
 10
521.9867768037661
 20
1172.279554686673
 30
0.0
 11
521.9867768037661
 21
1036.460110242229
 31
0.0
  0
LINE
  5
43B2
330
A
100
AcDbEntity
  8
MODEL GRAY
  6
AM_DIN_G_W050
 48
3.0
100
AcDbLine
 10
487.5909434704331
 20
950.5649998364129
 30
0.0
 11
487.5909434704331
 21
887.6879530866686
 31
0.0
  0
LINE
  5
43B3
330
A
100
AcDbEntity
  8
MODEL
100
AcDbLine
 10
498.1742768037661
 20
1036.460110242229
 30
0.0
 11
521.9867768037661
 21
1036.460110242229
 31
0.0
  0
LINE
  5
43B4
330
A
100
AcDbEntity
  8
MODEL
100
AcDbLine
 10
449.5383004765918
 20
947.268638863337
 30
0.0
 11
482.2992768037661
 21
976.4878880200072
 31
0.0
  0
LINE
  5
43B5
330
A
100
AcDbEntity
  8
MODEL
100
AcDbLine
 10
453.1951101371001
 20
1166.767401908896
 30
0.0
 11
453.1951101371001
 21
1125.756985242229
 31
0.0
  0
LINE
  5
43B6
330
A
100
AcDbEntity
  8
MODEL
100
AcDbLine
 10
462.4555268037661
 20
1166.767401908896
 30
0.0
 11
462.4555268037661
 21
1125.756985242229
 31
0.0
  0
LINE
  5
43B7
330
A
100
AcDbEntity
  8
MODEL
100
AcDbLine
 10
471.7159434704331
 20
1166.767401908896
 30
0.0
 11
471.7159434704331
 21
1125.756985242229
 31
0.0
  0
LINE
  5
43B8
330
A
100
AcDbEntity
  8
MODEL
100
AcDbLine
 10
480.9763601371001
 20
1166.767401908896
 30
0.0
 11
480.9763601371001
 21
1125.756985242229
 31
0.0
  0
LINE
  5
43BA
330
A
100
AcDbEntity
  8
MODEL
100
AcDbLine
 10
480.9763601371001
 20
1081.659763020007
 30
0.0
 11
480.9763601371001
 21
1047.043443575562
 31
0.0
  0
LINE
  5
43BB
330
A
100
AcDbEntity
  8
MODEL
100
AcDbLine
 10
453.1951101371001
 20
1081.659763020007
 30
0.0
 11
453.1951101371001
 21
1047.043443575562
 31
0.0
  0
LINE
  5
43BC
330
A
100
AcDbEntity
  8
MODEL
100
AcDbLine
 10
462.4555268037661
 20
1081.659763020007
 30
0.0
 11
462.4555268037661
 21
1047.043443575562
 31
0.0
  0
LINE
  5
43BD
330
A
100
AcDbEntity
  8
MODEL
100
AcDbLine
 10
471.7159434704331
 20
1081.659763020007
 30
0.0
 11
471.7159434704331
 21
1047.043443575562
 31
0.0
  0
LINE
  5
43BE
330
A
100
AcDbEntity
  8
MODEL
100
AcDbLine
 10
498.1742768037661
 20
1172.279554686673
 30
0.0
 11
521.9867768037661
 21
1172.279554686673
 31
0.0
  0
LINE
  5
43BF
330
A
100
AcDbEntity
  8
MODEL
100
AcDbLine
 10
424.0909434704331
 20
1044.397610242229
 30
0.0
 11
386.1673323593218
 21
1083.203165797785
 31
0.0
  0
LINE
  5
43C0
330
A
100
AcDbEntity
  8
MODEL
100
AcDbLine
 10
422.327054581544
 20
1041.751776908896
 30
0.0
 11
320.3922220671079
 21
1041.751776908896
 31
0.0
  0
LINE
  5
43C1
330
A
100
AcDbEntity
  8
MODEL
100
AcDbLine
 10
424.0909434704331
 20
1037.342054686673
 30
0.0
 11
386.1673323593218
 21
1000.300388020007
 31
0.0
  0
LINE
  5
43C2
330
A
100
AcDbEntity
  8
MODEL
100
AcDbLine
 10
264.8850767574509
 20
1177.57122135334
 30
0.0
 11
414.389554581544
 21
1177.57122135334
 31
0.0
  0
LINE
  5
43C3
330
A
100
AcDbEntity
  8
MODEL
100
AcDbLine
 10
264.8850767574509
 20
1187.280810628705
 30
0.0
 11
414.389554581544
 21
1187.271653112452
 31
0.0
  0
LINE
  5
43C4
330
A
100
AcDbEntity
  8
MODEL
100
AcDbLine
 10
414.389554581544
 20
1191.682332464452
 30
0.0
 11
414.389554581544
 21
1153.298576425803
 31
0.0
  0
LINE
  5
43C5
330
A
100
AcDbEntity
  8
MODEL
100
AcDbLine
 10
439.9659434704331
 20
1189.208753905423
 30
0.0
 11
439.9659434704331
 21
1173.161499131118
 31
0.0
  0
LINE
  5
43C6
330
A
100
AcDbEntity
  8
MODEL
100
AcDbLine
 10
427.6187212482109
 20
1191.682332464452
 30
0.0
 11
427.6187212482109
 21
1163.076656135949
 31
0.0
  0
LINE
  5
43C7
330
A
100
AcDbEntity
  8
MODEL
100
AcDbLine
 10
439.9659434704331
 20
1173.161499131118
 30
0.0
 11
427.6187212482109
 21
1173.161499131118
 31
0.0
  0
POLYLINE
  5
43C8
330
A
100
AcDbEntity
  8
MODEL
100
AcDb2dPolyline
 66
     1
 10
0.0
 20
0.0
 30
0.0
 70
     1
  0
VERTEX
  5
43C9
330
43C8
100
AcDbEntity
  8
MODEL
100
AcDbVertex
100
AcDb2dVertex
 10
423.443265519044
 20
1179.052612412368
 30
0.0
  0
VERTEX
  5
43CA
330
43C8
100
AcDbEntity
  8
MODEL
100
AcDbVertex
100
AcDb2dVertex
 10
418.5650103107109
 20
1179.052612412368
 30
0.0
  0
VERTEX
  5
43CB
330
43C8
100
AcDbEntity
  8
MODEL
100
AcDbVertex
100
AcDb2dVertex
 10
418.5650103107109
 20
1167.332397568618
 30
0.0
  0
VERTEX
  5
43CC
330
43C8
100
AcDbEntity
  8
MODEL
100
AcDbVertex
100
AcDb2dVertex
 10
423.443265519044
 20
1171.673217881118
 30
0.0
  0
VERTEX
  5
43CD
330
43C8
100
AcDbEntity
  8
MODEL
100
AcDbVertex
100
AcDb2dVertex
 10
423.443265519044
 20
1179.052612412368
 30
0.0
  0
SEQEND
  5
43CE
330
43C8
100
AcDbEntity
  8
MODEL
  0
LINE
  5
43CF
330
A
100
AcDbEntity
  8
MODEL
100
AcDbLine
 10
427.6187212482109
 20
1163.076656135949
 30
0.0
 11
414.389554581544
 21
1163.076656135949
 31
0.0
  0
LINE
  5
43D0
330
A
100
AcDbEntity
  8
MODEL
100
AcDbLine
 10
414.389554581544
 20
1191.682332464452
 30
0.0
 11
427.6187212482109
 21
1191.682332464452
 31
0.0
  0
LINE
  5
43D1
330
A
100
AcDbEntity
  8
MODEL
100
AcDbLine
 10
264.8850767574509
 20
1207.557332464452
 30
0.0
 11
264.8850767574509
 21
1156.404554686673
 31
0.0
  0
LINE
  5
43D2
330
A
100
AcDbEntity
  8
MODEL
100
AcDbLine
 10
264.8850767574509
 20
1156.404554686673
 30
0.0
 11
256.2025748585788
 21
1156.404554686673
 31
0.0
  0
LINE
  5
43D3
330
A
100
AcDbEntity
  8
MODEL
100
AcDbLine
 10
256.2025748585788
 20
1207.557332464451
 30
0.0
 11
264.8850767574509
 21
1207.557332464452
 31
0.0
  0
LINE
  5
43D4
330
A
100
AcDbEntity
  8
MODEL
100
AcDbLine
 10
432.910387914877
 20
1166.987888020007
 30
0.0
 11
412.6256656926548
 21
1151.994832464452
 31
0.0
  0
LINE
  5
43D5
330
A
100
AcDbEntity
  8
MODEL
100
AcDbLine
 10
439.9659434704331
 20
1189.208753905423
 30
0.0
 11
427.6187212482109
 21
1189.208753905423
 31
0.0
  0
ARC
  5
43D6
330
A
100
AcDbEntity
  8
MODEL
100
AcDbCircle
 10
430.3527490259889
 20
1038.312193575562
 30
0.0
 40
8.731695415125929
100
AcDbArc
 50
90.57872556560828
 51
156.8014094863495
  0
ARC
  5
43D7
330
A
100
AcDbEntity
  8
MODEL
100
AcDbCircle
 10
429.8235823593218
 20
1042.192749131118
 30
0.0
 40
7.509486348863371
100
AcDbArc
 50
183.3664606634259
 51
266.6335393365671
  0
LINE
  5
43D8
330
A
100
AcDbEntity
  8
MODEL
100
AcDbLine
 10
503.0249712482109
 20
1011.545179686673
 30
0.0
 11
537.5909434704331
 21
941.7569193139593
 31
0.0
  0
ARC
  5
43D9
330
A
100
AcDbEntity
  8
MODEL
100
AcDbCircle
 10
408.932110518499
 20
1036.663283496177
 30
0.0
 40
88.68598881557335
100
AcDbArc
 50
175.9970842889985
 51
227.7378817567803
  0
ARC
  5
43DA
330
A
100
AcDbEntity
  8
MODEL
100
AcDbCircle
 10
382.9148796862169
 20
1008.032715383435
 30
0.0
 40
50.0
100
AcDbArc
 50
227.7378817567787
 51
261.3096163213753
  0
LINE
  5
43DB
330
A
100
AcDbEntity
  8
MODEL
100
AcDbLine
 10
437.5909434704331
 20
949.0947892865584
 30
0.0
 11
437.5909434704331
 21
905.8057174290057
 31
0.0
  0
LINE
  5
43DC
330
A
100
AcDbEntity
  8
MODEL
100
AcDbLine
 10
537.5909434704331
 20
941.7569193139593
 30
0.0
 11
537.5909434704331
 21
905.8057174290057
 31
0.0
  0
ARC
  5
43DD
330
A
100
AcDbEntity
  8
MODEL
100
AcDbCircle
 10
462.029400485249
 20
986.8408515732731
 30
0.0
 40
47.86377178739123
100
AcDbArc
 50
31.07357416474507
 51
91.07357416474376
  0
ARC
  5
43DE
330
A
100
AcDbEntity
  8
MODEL
100
AcDbCircle
 10
427.2919664581932
 20
1046.019965597738
 30
0.0
 40
106.9849184958455
100
AcDbArc
 50
97.87935038412178
 51
182.286435508423
  0
ARC
  5
43DF
330
A
100
AcDbEntity
  8
MODEL
100
AcDbCircle
 10
751.6000996288572
 20
1142.818005594147
 30
0.0
 40
337.3125505604036
100
AcDbArc
 50
178.5908924320121
 51
196.5407572833251
  0
LINE
  5
43E0
330
A
100
AcDbEntity
  8
MODEL
100
AcDbLine
 10
537.5909434704331
 20
905.8057174290057
 30
0.0
 11
437.5909434704331
 21
905.8057174290057
 31
0.0
  0
POLYLINE
  5
43E1
330
A
100
AcDbEntity
  8
MODEL
 62
   252
370
    70
100
AcDb2dPolyline
 66
     1
 10
0.0
 20
0.0
 30
0.0
  0
VERTEX
  5
43E2
330
43E1
100
AcDbEntity
  8
MODEL
 62
   252
370
    70
100
AcDbVertex
100
AcDb2dVertex
 10
429.8793728213182
 20
861.7541939476496
 30
0.0
  0
VERTEX
  5
43E3
330
43E1
100
AcDbEntity
  8
MODEL
 62
   252
370
    70
100
AcDbVertex
100
AcDb2dVertex
 10
429.8793728213182
 20
923.9486368925068
 30
0.0
  0
VERTEX
  5
43E4
330
43E1
100
AcDbEntity
  8
MODEL
 62
   252
370
    70
100
AcDbVertex
100
AcDb2dVertex
 10
537.4121062610639
 20
923.9486368925068
 30
0.0
  0
VERTEX
  5
43E5
330
43E1
100
AcDbEntity
  8
MODEL
 62
   252
370
    70
100
AcDbVertex
100
AcDb2dVertex
 10
537.4121062610639
 20
861.7541939476496
 30
0.0
  0
SEQEND
  5
43E6
330
43E1
100
AcDbEntity
  8
MODEL
 62
   252
370
    70
  0
LINE
  5
43E8
330
A
100
AcDbEntity
  8
MODEL GRAY
  6
CENTER2
100
AcDbLine
 10
312.8388298199761
 20
1360.127543904563
 30
0.0
 11
312.7676517950031
 21
1306.156739630121
 31
0.0
  0
LINE
  5
43E9
330
A
100
AcDbEntity
  8
MODEL GRAY
  6
AM_DIN_F_W050
 48
3.0
100
AcDbLine
 10
332.8388298199761
 20
1798.013267290261
 30
0.0
 11
332.8388298199761
 21
1808.948636892506
 31
0.0
  0
LINE
  5
43EA
330
A
100
AcDbEntity
  8
MODEL GRAY
  6
AM_DIN_F_W050
 48
3.0
100
AcDbLine
 10
292.8388298199761
 20
1798.013267290261
 30
0.0
 11
292.8388298199761
 21
1808.948636892506
 31
0.0
  0
LWPOLYLINE
  5
43EB
330
A
100
AcDbEntity
  8
MODEL
100
AcDbPolyline
 90
        6
 70
     1
 43
0.0
 10
256.216321895181
 20
1808.948636892506
 10
390.6903288747772
 20
1808.948636892506
 42
-0.4142135623730951
 10
400.6903288747772
 20
1798.948636892506
 10
400.6903288747772
 20
1348.948636892507
 42
-0.4142135623730949
 10
390.6903288747772
 20
1338.948636892507
 10
256.216321895181
 20
1338.948636892507
  0
ARC
  5
43EC
330
A
100
AcDbEntity
  8
MODEL
  6
HIDDEN
 48
0.05
100
AcDbCircle
 10
552.8406276021642
 20
-65257.07751579202
 30
0.0
 40
66606.34746100979
100
AcDbArc
 50
89.6544640488065
 51
90.04151290379484
  0
ARC
  5
43ED
330
A
100
AcDbEntity
  8
MODEL
  6
HIDDEN
 48
0.05
100
AcDbCircle
 10
954.433864942333
 20
1328.138466919594
 30
0.0
 40
19.92045418771487
100
AcDbArc
 50
358.9988199463345
 51
89.74144391198159
1001
GENIUS_GENODEF_13
1002
{
1000
HIER
1070
     0
1002
}
1002
{
1000
MANEDIT
1070
     0
1002
}
1002
{
1000
NOSEL
1070
     0
1002
}
1002
{
1000
BEHIND
1070
     0
1002
}
1002
{
1000
OTHER
1070
     0
1002
}
1002
{
1000
REACTOR
1002
}
1001
GENIUS_GENOBJ-N-FIL_13
1002
{
1000
OWNER
1000
GEN
1002
}
  0
ARC
  5
43EE
330
A
100
AcDbEntity
  8
MODEL
  6
HIDDEN
 48
0.05
100
AcDbCircle
 10
1664.356666991396
 20
-63299.51839111043
 30
0.0
 40
64648.89396766764
100
AcDbArc
 50
90.20822869242167
 51
90.34820213813343
  0
ARC
  5
43EF
330
A
100
AcDbEntity
  8
MODEL
  6
HIDDEN
 48
0.05
100
AcDbCircle
 10
1271.561444392042
 20
1328.257737682896
 30
0.0
 40
19.92420504036188
100
AcDbArc
 50
90.26280052414914
 51
181.3214734100135
1001
GENIUS_GENODEF_13
1002
{
1000
HIER
1070
     0
1002
}
1002
{
1000
MANEDIT
1070
     0
1002
}
1002
{
1000
NOSEL
1070
     0
1002
}
1002
{
1000
BEHIND
1070
     0
1002
}
1002
{
1000
OTHER
1070
     0
1002
}
1002
{
1000
REACTOR
1002
}
1001
GENIUS_GENOBJ-N-FIL_13
1002
{
1000
OWNER
1000
GEN
1002
}
  0
ARC
  5
43F0
330
A
100
AcDbEntity
  8
MODEL
  6
HIDDEN
 48
0.05
100
AcDbCircle
 10
1194.453817668294
 20
-63299.51839111043
 30
0.0
 40
64648.89396766764
100
AcDbArc
 50
89.65179786186816
 51
89.79177130757832
  0
ARC
  5
43F1
330
A
100
AcDbEntity
  8
MODEL
  6
HIDDEN
 48
0.05
100
AcDbCircle
 10
1587.249040267644
 20
1328.257737682896
 30
0.0
 40
19.92420504036195
100
AcDbArc
 50
358.6785265899866
 51
89.73719947585087
1001
GENIUS_GENODEF_13
1002
{
1000
HIER
1070
     0
1002
}
1002
{
1000
MANEDIT
1070
     0
1002
}
1002
{
1000
NOSEL
1070
     0
1002
}
1002
{
1000
BEHIND
1070
     0
1002
}
1002
{
1000
OTHER
1070
     0
1002
}
1002
{
1000
REACTOR
1002
}
1001
GENIUS_GENOBJ-N-FIL_13
1002
{
1000
OWNER
1000
GEN
1002
}
  0
DIMENSION
  5
43F2
330
A
100
AcDbEntity
  8
DIM
  6
Continuous
100
AcDbDimension
  2
*D98
 10
1719.614616410431
 20
1348.948636892507
 30
0.0
 11
1719.614616410431
 21
1136.448636892507
 31
0.0
 70
   160
 71
     5
 42
425.0000000000002
 73
     0
 74
     0
 75
     0
  3
JIS
100
AcDbAlignedDimension
 13
1614.405242329734
 23
923.9486368925068
 33
0.0
 14
1614.405242329734
 24
1348.948636892507
 34
0.0
 50
90.0
100
AcDbRotatedDimension
1001
ACAD
1000
DSTYLE
1002
{
1070
   179
1070
     0
1070
    41
1040
6.0
1070
   271
1070
     0
1070
    43
1040
25.0
1070
    44
1040
0.0
1070
    42
1040
25.0
1070
   147
1040
15.0
1070
   140
1040
24.0
1002
}
  0
DIMENSION
  5
43F4
330
A
100
AcDbEntity
  8
DIM
  6
Continuous
100
AcDbDimension
  2
*D99
 10
1805.159697134206
 20
1373.948636892507
 30
0.0
 11
1805.159697134206
 21
1148.948636892507
 31
0.0
 70
   160
 71
     5
 42
450.0000000000002
 73
     0
 74
     0
 75
     0
  3
JIS
100
AcDbAlignedDimension
 13
1614.405242329734
 23
923.9486368925068
 33
0.0
 14
1614.405242329734
 24
1373.948636892507
 34
0.0
 50
90.0
100
AcDbRotatedDimension
1001
ACAD
1000
DSTYLE
1002
{
1070
   179
1070
     0
1070
    41
1040
6.0
1070
   271
1070
     0
1070
    43
1040
25.0
1070
    44
1040
0.0
1070
    42
1040
25.0
1070
   147
1040
15.0
1070
   140
1040
24.0
1002
}
  0
DIMENSION
  5
43F5
330
A
100
AcDbEntity
  8
DIM
  6
Continuous
100
AcDbDimension
  2
*D100
 10
1077.134057605642
 20
1323.948636892507
 30
0.0
 11
1077.134057605642
 21
1123.948636892507
 31
0.0
 70
   160
 71
     5
 42
400.0000000000002
 73
     0
 74
     0
 75
     0
  3
JIS
100
AcDbAlignedDimension
 13
876.9585687120098
 23
923.9486368925068
 33
0.0
 14
998.037802505683
 24
1323.948636892507
 34
0.0
 50
90.0
100
AcDbRotatedDimension
1001
ACAD
1000
DSTYLE
1002
{
1070
   179
1070
     0
1070
    41
1040
6.0
1070
   271
1070
     0
1070
    43
1040
25.0
1070
    44
1040
0.0
1070
    42
1040
25.0
1070
   147
1040
15.0
1070
   140
1040
24.0
1002
}
  0
ARC
  5
43F6
330
A
100
AcDbEntity
  8
MODEL
100
AcDbCircle
 10
1602.213702664739
 20
1363.089433124278
 30
0.0
 40
10.00000000000016
100
AcDbArc
 50
4.090039844937923
 51
89.6385600992558
  0
ARC
  5
43F7
330
A
100
AcDbEntity
  8
MODEL
100
AcDbCircle
 10
1194.453817669345
 20
-63274.51839110721
 30
0.0
 40
64648.89396766442
100
AcDbArc
 50
89.63856009925873
 51
89.79177130757968
  0
ARC
  5
43F8
330
A
100
AcDbEntity
  8
MODEL
100
AcDbCircle
 10
1664.356666994443
 20
-63274.51839111417
 30
0.0
 40
64648.8939676714
100
AcDbArc
 50
90.20822869242498
 51
90.3614399007451
  0
ARC
  5
43F9
330
A
100
AcDbEntity
  8
MODEL
100
AcDbCircle
 10
1256.596781994729
 20
1363.089433124271
 30
0.0
 40
9.999999999999197
100
AcDbArc
 50
90.36143990074426
 51
175.9099601550199
  0
LINE
  5
43FA
330
A
100
AcDbEntity
  8
MODEL
100
AcDbLine
 10
1246.622250026763
 20
1363.802673630692
 30
0.0
 11
1244.405242329734
 21
1327.798245323326
 31
0.0
  0
LINE
  5
43FB
330
A
100
AcDbEntity
  8
MODEL
100
AcDbLine
 10
1244.405242329734
 20
1327.798245323326
 30
0.0
 11
1614.405242329734
 21
1327.798245323326
 31
0.0
  0
LINE
  5
43FC
330
A
100
AcDbEntity
  8
MODEL
100
AcDbLine
 10
1614.405242329734
 20
1327.798245323326
 30
0.0
 11
1612.188234632707
 21
1363.802673630692
 31
0.0
  0
ARC
  5
43FD
330
A
100
AcDbEntity
  8
MODEL
100
AcDbCircle
 10
560.394204280376
 20
-63536.81617481633
 30
0.0
 40
64910.771393476
100
AcDbArc
 50
89.63892116839106
 51
89.97419817021047
  0
ARC
  5
43FE
330
A
100
AcDbEntity
  8
MODEL
100
AcDbCircle
 10
969.3970344557029
 20
1362.666443715886
 30
0.0
 40
10.00000000000037
100
AcDbArc
 50
4.090039844979505
 51
89.6385600992558
  0
LINE
  5
43FF
330
A
100
AcDbEntity
  8
MODEL
100
AcDbLine
 10
979.3715664236711
 20
1363.379684222306
 30
0.0
 11
981.588574120698
 21
1327.790396841131
 31
0.0
  0
LINE
  5
4400
330
A
100
AcDbEntity
  8
MODEL
100
AcDbLine
 10
981.588574120698
 20
1327.790396841131
 30
0.0
 11
589.625268638461
 21
1327.790396841131
 31
0.0
  0
LINE
  5
4401
330
A
100
AcDbEntity
  8
MODEL
100
AcDbLine
 10
589.625268638461
 20
1327.790396841131
 30
0.0
 11
511.7045227132689
 21
1327.790396841131
 31
0.0
  0
ARC
  5
4402
330
A
100
AcDbEntity
  8
MODEL
100
AcDbCircle
 10
511.7045227132699
 20
1361.005376340755
 30
0.0
 40
33.21497949962388
100
AcDbArc
 50
223.9963195808562
 51
269.9999999999968
  0
ARC
  5
4403
330
A
100
AcDbEntity
  8
MODEL
100
AcDbCircle
 10
492.887666718806
 20
1342.468528455481
 30
0.0
 40
6.807654640225526
100
AcDbArc
 50
170.8535952085864
 51
221.7679216839849
  0
ARC
  5
4404
330
A
100
AcDbEntity
  8
MODEL
100
AcDbCircle
 10
541.3219882930248
 20
1343.24880647382
 30
0.0
 40
55.15624549882194
100
AcDbArc
 50
152.8399075466418
 51
179.686438129268
  0
ARC
  5
4405
330
A
100
AcDbEntity
  8
MODEL
100
AcDbCircle
 10
501.1909280354348
 20
1363.952469852234
 30
0.0
 40
10.00000000001228
100
AcDbArc
 50
89.99654829731442
 51
153.4232188316421
  0
ARC
  5
4406
330
A
100
AcDbEntity
  8
MODEL
100
AcDbCircle
 10
538.0794031051109
 20
-167720.8663136956
 30
0.0
 40
169094.8228070567
100
AcDbArc
 50
89.982534293226
 51
90.01249901917252
  0
ARC
  5
4407
330
A
100
AcDbEntity
  8
MODEL
100
AcDbCircle
 10
1609.405242329734
 20
1318.948636892506
 30
0.0
 40
5.00000000000023
100
AcDbArc
 50
0.000000000010422
 51
90.0
  0
LINE
  5
4408
330
A
100
AcDbEntity
  8
MODEL
100
AcDbLine
 10
1614.405242329734
 20
1345.948636892507
 30
0.0
 11
1614.405242329732
 21
1801.948636892507
 31
0.0
  0
ARC
  5
4409
330
A
100
AcDbEntity
  8
MODEL
100
AcDbCircle
 10
1607.405242329732
 20
1801.948636892507
 30
0.0
 40
7.0
100
AcDbArc
 50
0.0
 51
90.0
  0
LINE
  5
440A
330
A
100
AcDbEntity
  8
MODEL
100
AcDbLine
 10
1607.405242329732
 20
1808.948636892507
 30
0.0
 11
1251.565217358955
 21
1808.948636892507
 31
0.0
  0
ARC
  5
440B
330
A
100
AcDbEntity
  8
MODEL
100
AcDbCircle
 10
1251.565217358955
 20
1801.948636892507
 30
0.0
 40
7.0
100
AcDbArc
 50
90.0
 51
180.0
  0
LINE
  5
440C
330
A
100
AcDbEntity
  8
MODEL
100
AcDbLine
 10
1244.565217358955
 20
1801.948636892507
 30
0.0
 11
1244.565217358955
 21
1345.948636892507
 31
0.0
  0
ARC
  5
440D
330
A
100
AcDbEntity
  8
MODEL
100
AcDbCircle
 10
1249.405242329734
 20
1318.948636892507
 30
0.0
 40
5.0
100
AcDbArc
 50
90.0
 51
180.0
  0
LINE
  5
440E
330
A
100
AcDbEntity
  8
MODEL
100
AcDbLine
 10
1244.405242329734
 20
1318.948636892507
 30
0.0
 11
1244.405242329734
 21
923.9486368925068
 31
0.0
  0
LINE
  5
440F
330
A
100
AcDbEntity
  8
MODEL
100
AcDbLine
 10
1244.405242329734
 20
923.9486368925068
 30
0.0
 11
1614.405242329734
 21
923.9486368925068
 31
0.0
  0
LINE
  5
4410
330
A
100
AcDbEntity
  8
MODEL
100
AcDbLine
 10
1614.405242329734
 20
923.9486368925068
 30
0.0
 11
1614.405242329734
 21
1318.948636892507
 31
0.0
  0
ARC
  5
4411
330
A
100
AcDbEntity
  8
MODEL
100
AcDbCircle
 10
1251.565217358955
 20
1345.948636892507
 30
0.0
 40
7.0
100
AcDbArc
 50
180.0
 51
206.9841411195504
  0
LINE
  5
4412
330
A
100
AcDbEntity
  8
MODEL
100
AcDbLine
 10
1250.40830714257
 20
1327.798245323326
 30
0.0
 11
1249.405242329734
 21
1323.948636892507
 31
0.0
  0
ARC
  5
4413
330
A
100
AcDbEntity
  8
MODEL
100
AcDbCircle
 10
1607.405242329734
 20
1345.948636892507
 30
0.0
 40
6.999999999999996
100
AcDbArc
 50
330.531978612423
 51
0.0
  0
LINE
  5
4414
330
A
100
AcDbEntity
  8
MODEL
100
AcDbLine
 10
1609.405242329734
 20
1323.948636892507
 30
0.0
 11
1608.402177516898
 21
1327.798245323326
 31
0.0
  0
CIRCLE
  5
4415
330
A
100
AcDbEntity
  8
MODEL
100
AcDbCircle
 10
312.8388298199761
 20
2408.728636708412
 30
0.0
 40
20.0
  0
DIMENSION
  5
4416
330
A
100
AcDbEntity
  8
DIM
  6
Continuous
100
AcDbDimension
  2
*D101
 10
1139.296682471436
 20
2229.511660442301
 30
0.0
 11
1112.296682471436
 21
2409.511660442301
 31
0.0
 70
    32
 71
     5
 42
360.0
 73
     0
 74
     0
 75
     0
  3
JIS
100
AcDbAlignedDimension
 13
897.8265977159099
 23
2589.511660442301
 33
0.0
 14
897.8265977159099
 24
2229.511660442301
 34
0.0
 50
90.0
100
AcDbRotatedDimension
1001
ACAD
1000
DSTYLE
1002
{
1070
   179
1070
     0
1070
    41
1040
6.0
1070
   271
1070
     0
1070
    43
1040
25.0
1070
    44
1040
0.0
1070
    42
1040
25.0
1070
   147
1040
15.0
1070
   140
1040
24.0
1002
}
  0
DIMENSION
  5
4417
330
A
100
AcDbEntity
  8
DIM
  6
Continuous
100
AcDbDimension
  2
*D102
 10
981.4630944725131
 20
2736.636640821947
 30
0.0
 11
618.9630944725131
 21
2763.636640821947
 31
0.0
 70
    32
 71
     5
 42
725.0
 73
     0
 74
     0
 75
     0
  3
JIS
100
AcDbAlignedDimension
 13
256.4630944725131
 23
2589.501083921129
 33
0.0
 14
981.4630944725131
 24
2492.842870255954
 34
0.0
100
AcDbRotatedDimension
1001
ACAD
1000
DSTYLE
1002
{
1070
   179
1070
     0
1070
    41
1040
6.0
1070
   271
1070
     0
1070
    43
1040
25.0
1070
    44
1040
0.0
1070
    42
1040
25.0
1070
   147
1040
15.0
1070
   140
1040
24.0
1002
}
  0
DIMENSION
  5
4418
330
A
100
AcDbEntity
  8
DIM
  6
Continuous
100
AcDbDimension
  2
*D103
 10
174.7067951933532
 20
2224.500673057904
 30
0.0
 11
147.7067951933532
 21
2409.500673057904
 31
0.0
 70
    32
 71
     5
 42
370.0
 73
     0
 74
     0
 75
     0
  3
JIS
100
AcDbAlignedDimension
 13
261.5271917691339
 23
2594.500673057904
 33
0.0
 14
261.5271917691339
 24
2224.500673057904
 34
0.0
 50
90.0
100
AcDbRotatedDimension
1001
ACAD
1000
DSTYLE
1002
{
1070
   179
1070
     0
1070
    41
1040
6.0
1070
   271
1070
     0
1070
    43
1040
25.0
1070
    44
1040
0.0
1070
    42
1040
25.0
1070
   147
1040
15.0
1070
   140
1040
24.0
1002
}
  0
DIMENSION
  5
441A
330
A
100
AcDbEntity
  8
DIM
  6
Continuous
100
AcDbDimension
  2
*D104
 10
487.5909434704331
 20
780.5757811777244
 30
0.0
 11
371.896759164506
 21
807.5757811777244
 31
0.0
 70
    32
  1
190-230
 71
     5
 42
231.3883686118543
 73
     0
 74
     0
 75
     0
  3
JIS
100
AcDbAlignedDimension
 13
256.2025748585788
 23
923.9486368925068
 33
0.0
 14
487.5909434704331
 24
892.8109645832442
 34
0.0
100
AcDbRotatedDimension
1001
ACAD
1000
DSTYLE
1002
{
1070
   179
1070
     0
1070
    41
1040
6.0
1070
   271
1070
     0
1070
    43
1040
25.0
1070
    44
1040
0.0
1070
    42
1040
25.0
1070
   147
1040
15.0
1070
   140
1040
24.0
1002
}
  0
DIMENSION
  5
441C
330
A
100
AcDbEntity
  8
DIM
  6
Continuous
100
AcDbDimension
  2
*D105
 10
256.2025748585788
 20
689.0008001151232
 30
0.0
 11
408.7082501388734
 21
718.0648001151231
 31
0.0
 70
    32
 71
     5
 42
305.0113505605891
 73
     0
 74
     0
 75
     0
  3
JIS
100
AcDbAlignedDimension
 13
561.2139254191679
 23
944.5793585132183
 33
0.0
 14
256.2025748585788
 24
923.9486368925068
 34
0.0
100
AcDbRotatedDimension
1001
ACAD
1000
DSTYLE
1002
{
1070
     3
1000
<>(床固定位置)
1070
   179
1070
     0
1070
    41
1040
6.0
1070
   271
1070
     0
1070
    43
1040
25.0
1070
    44
1040
0.0
1070
    42
1040
25.0
1070
   147
1040
15.0
1070
   140
1040
24.0
1002
}
  0
LINE
  5
441E
330
A
100
AcDbEntity
  8
DIM
  6
CENTER2
 48
30.0
100
AcDbLine
 10
1329.73150048633
 20
1764.991626124131
 30
0.0
 11
1329.73150048633
 21
1722.905647660882
 31
0.0
  0
LINE
  5
441F
330
A
100
AcDbEntity
  8
DIM
  6
CENTER2
 48
30.0
100
AcDbLine
 10
1308.688511254706
 20
1743.948636892507
 30
0.0
 11
1350.774489717954
 21
1743.948636892507
 31
0.0
  0
DIMENSION
  5
4422
330
A
100
AcDbEntity
  8
DIM
  6
Continuous
100
AcDbDimension
  2
*D106
 10
1614.405242329734
 20
1943.910344224437
 30
0.0
 11
1429.485229844343
 21
1970.910344224437
 31
0.0
 70
    32
 71
     5
 42
369.8400249707811
 73
     0
 74
     0
 75
     0
  3
JIS
100
AcDbAlignedDimension
 13
1244.565217358953
 23
1832.422858213256
 33
0.0
 14
1614.405242329734
 24
1832.422858213256
 34
0.0
100
AcDbRotatedDimension
1001
ACAD
1000
DSTYLE
1002
{
1070
   179
1070
     0
1070
    41
1040
6.0
1070
   271
1070
     0
1070
    43
1040
25.0
1070
    44
1040
0.0
1070
    42
1040
25.0
1070
   147
1040
15.0
1070
   140
1040
24.0
1002
}
  0
DIMENSION
  5
4424
330
A
100
AcDbEntity
  8
DIM
  6
Continuous
100
AcDbDimension
  2
*D107
 10
174.7067951933532
 20
1338.948636892507
 30
0.0
 11
147.7067951933532
 21
1573.948636892507
 31
0.0
 70
    32
 71
     5
 42
469.9999999999991
 73
     0
 74
     0
 75
     0
  3
JIS
100
AcDbAlignedDimension
 13
260.9656155674361
 23
1808.948636892506
 33
0.0
 14
256.216321895181
 24
1338.948636892507
 34
0.0
 50
90.0
100
AcDbRotatedDimension
1001
ACAD
1000
DSTYLE
1002
{
1070
   179
1070
     0
1070
    41
1040
6.0
1070
   271
1070
     0
1070
    43
1040
25.0
1070
    44
1040
0.0
1070
    42
1040
25.0
1070
   147
1040
15.0
1070
   140
1040
24.0
1002
}
  0
DIMENSION
  5
4426
330
A
100
AcDbEntity
  8
DIM
  6
Continuous
100
AcDbDimension
  2
*D108
 10
174.7067951933532
 20
1324.268146710991
 30
0.0
 11
174.7067951933532
 21
1331.608391801749
 31
0.0
 70
   160
 71
     5
 42
14.6804901815151
 73
     0
 74
     0
 75
     0
  3
JIS
100
AcDbAlignedDimension
 13
235.9656155674361
 23
1338.948636892506
 33
0.0
 14
256.4365687161408
 24
1324.268146710991
 34
0.0
 50
90.0
100
AcDbRotatedDimension
1001
ACAD
1000
DSTYLE
1002
{
1070
   179
1070
     0
1070
    41
1040
6.0
1070
   271
1070
     0
1070
    43
1040
25.0
1070
    44
1040
0.0
1070
    42
1040
25.0
1070
   147
1040
15.0
1070
   140
1040
24.0
1002
}
  0
DIMENSION
  5
4428
330
A
100
AcDbEntity
  8
DIM
  6
Continuous
100
AcDbDimension
  2
*D109
 10
174.7067951933532
 20
1103.948636892506
 30
0.0
 11
147.7067951933532
 21
1013.948636892506
 31
0.0
 70
    32
 71
     5
 42
179.9999999999993
 73
     0
 74
     0
 75
     0
  3
JIS
100
AcDbAlignedDimension
 13
256.216321895181
 23
923.9486368925068
 33
0.0
 14
440.9389107587181
 24
1103.948636892506
 34
0.0
 50
90.0
100
AcDbRotatedDimension
1001
ACAD
1000
DSTYLE
1002
{
1070
   179
1070
     0
1070
    41
1040
6.0
1070
   271
1070
     0
1070
    43
1040
25.0
1070
    44
1040
0.0
1070
    42
1040
25.0
1070
   147
1040
15.0
1070
   140
1040
24.0
1002
}
  0
DIMENSION
  5
442F
330
A
100
AcDbEntity
  8
DIM
  6
Continuous
100
AcDbDimension
  2
*D111
 10
1971.427155732536
 20
1808.948636892506
 30
0.0
 11
1971.427155732536
 21
1369.448636892506
 31
0.0
 70
   160
 71
     5
 42
884.9999999999993
 73
     0
 74
     0
 75
     0
  3
JIS
100
AcDbAlignedDimension
 13
1614.405242329734
 23
923.9486368925068
 33
0.0
 14
1607.405242329734
 24
1808.948636892506
 34
0.0
 50
90.0
100
AcDbRotatedDimension
1001
ACAD
1000
DSTYLE
1002
{
1070
   179
1070
     0
1070
    41
1040
6.0
1070
   271
1070
     0
1070
    43
1040
25.0
1070
    44
1040
0.0
1070
    42
1040
25.0
1070
   147
1040
15.0
1070
   140
1040
24.0
1002
}
  0
DIMENSION
  5
4431
330
A
100
AcDbEntity
  8
DIM
  6
Continuous
100
AcDbDimension
  2
*D112
 10
1888.115895454553
 20
1743.948636892506
 30
0.0
 11
1888.115895454553
 21
1333.948636892506
 31
0.0
 70
   160
 71
     5
 42
819.9999999999993
 73
     0
 74
     0
 75
     0
  3
JIS
100
AcDbAlignedDimension
 13
1614.405242329734
 23
923.9486368925068
 33
0.0
 14
1354.73150048633
 24
1743.948636892506
 34
0.0
 50
90.0
100
AcDbRotatedDimension
1001
ACAD
1000
DSTYLE
1002
{
1070
   179
1070
     0
1070
    41
1040
6.0
1070
   271
1070
     0
1070
    43
1040
25.0
1070
    44
1040
0.0
1070
    42
1040
25.0
1070
   147
1040
15.0
1070
   140
1040
24.0
1002
}
  0
DIMENSION
  5
4434
330
A
100
AcDbEntity
  8
DIM
  6
Continuous
100
AcDbDimension
  2
*D114
 10
1554.405242329734
 20
850.8143703055339
 30
0.0
 11
1429.405242329734
 21
877.8143703055339
 31
0.0
 70
    32
 71
     5
 42
250.0
 73
     0
 74
     0
 75
     0
  3
JIS
100
AcDbAlignedDimension
 13
1304.405242329734
 23
924.1910732346564
 33
0.0
 14
1554.405242329734
 24
924.1910732346564
 34
0.0
100
AcDbRotatedDimension
1001
ACAD
1000
DSTYLE
1002
{
1070
   179
1070
     0
1070
    41
1040
6.0
1070
   271
1070
     0
1070
    43
1040
25.0
1070
    44
1040
0.0
1070
    42
1040
25.0
1070
   147
1040
15.0
1070
   140
1040
24.0
1002
}
  0
LWPOLYLINE
  5
4544
330
A
100
AcDbEntity
  8
MODEL
100
AcDbPolyline
 90
        8
 70
     1
 43
0.0
 10
256.4630944725131
 20
2589.501083921128
 42
-0.4179734021184865
 10
261.5271917691339
 20
2594.500673057904
 10
386.065882177862
 20
2593.349174796006
 42
-0.3931695728347132
 10
395.953502466461
 20
2583.980517929177
 42
-0.0315772403976919
 10
395.953502466461
 20
2235.020828186631
 42
-0.3931695728347254
 10
386.065882177862
 20
2225.652171319802
 10
261.4914537198028
 20
2224.500342620017
 42
-0.4158757949383307
 10
256.4630944725131
 20
2229.500262194679
  0
MTEXT
  5
97E9
330
A
100
AcDbEntity
  8
MODEL
390
1D
100
AcDbMText
 10
692.5825035838948
 20
799.7252080483529
 30
0.0
 40
24.4326171875
 41
0.0
 46
24.4326171875
 71
     1
 72
     1
  1
{VP100に直接接続}
  7
ＭＳ ゴシック
 73
     1
 44
0.7828267384257843
1001
ACAD
1000
ACAD_MTEXT_DEFINED_HEIGHT_BEGIN
1070
    46
1040
24.4326171875
1000
ACAD_MTEXT_DEFINED_HEIGHT_END
  0
LINE
  5
97EA
330
A
100
AcDbEntity
  8
DIM
  6
Continuous
100
AcDbLine
 10
545.59634103791
 20
892.851415420078
 30
0.0
 11
679.3936347565182
 21
761.2536668510892
 31
0.0
  0
LINE
  5
97EB
330
A
100
AcDbEntity
  8
DIM
  6
Continuous
100
AcDbLine
 10
679.3936347565182
 20
761.2536668510892
 30
0.0
 11
936.0574216085929
 21
761.2536668510892
 31
0.0
  0
LEADER
  5
98B2
330
A
100
AcDbEntity
  8
DIM
  6
Continuous
100
AcDbLeader
  3
JIS
 76
     3
 10
1329.73150048633
 20
1743.948636892507
 30
0.0
 10
1152.101233461245
 20
1905.457980913033
 30
0.0
 10
853.7275925758499
 20
1905.457980913033
 30
0.0
1001
ACAD
1000
DSTYLE
1002
{
1070
   179
1070
     0
1070
    41
1040
6.0
1070
   271
1070
     0
1070
    43
1040
25.0
1070
    44
1040
0.0
1070
    42
1040
25.0
1070
   147
1040
15.0
1070
   140
1040
24.0
1002
}
  0
MTEXT
  5
98B3
330
A
100
AcDbEntity
  8
MODEL
390
1D
100
AcDbMText
 10
861.953636413818
 20
1950.299594184359
 30
0.0
 40
24.4326171875
 41
0.0
 46
24.4326171875
 71
     1
 72
     1
  1
{タンク給水位置G1/2}
  7
ＭＳ ゴシック
 73
     1
 44
0.7828267384257843
1001
ACAD
1000
ACAD_MTEXT_DEFINED_HEIGHT_BEGIN
1070
    46
1040
24.4326171875
1000
ACAD_MTEXT_DEFINED_HEIGHT_END
  0
VIEWPORT
  5
349
330
B
100
AcDbEntity
 67
     1
  8
0
100
AcDbViewport
 10
202.5
 20
128.5
 30
0.0
 40
486.0
 41
308.4
 68
     1
 69
     1
 12
202.5
 22
128.5
 13
0.0
 23
0.0
 14
0.5
 24
0.5
 15
0.0
 25
0.0
 16
0.0
 26
0.0
 36
1.0
 17
0.0
 27
0.0
 37
0.0
 42
50.0
 43
0.0
 44
0.0
 45
308.4
 50
0.0
 51
0.0
 72
   100
 90
   557152
  1

281
     0
 71
     1
 74
     0
110
0.0
120
0.0
130
0.0
111
1.0
121
0.0
131
0.0
112
0.0
122
1.0
132
0.0
 79
     0
146
0.0
170
     0
 61
     5
348
26C
292
     1
282
     1
141
0.0
142
0.0
 63
   256
  0
VIEWPORT
  5
34A
330
B
100
AcDbEntity
 67
     1
  8
0
100
AcDbViewport
 10
202.5
 20
128.5
 30
0.0
 40
324.0
 41
205.6
 68
     2
 69
     2
 12
986.6781359294573
 22
1427.077061889956
 13
0.0
 23
0.0
 14
0.5
 24
0.5
 15
0.0
 25
0.0
 16
0.0
 26
0.0
 36
1.0
 17
0.0
 27
0.0
 37
0.0
 42
50.0
 43
0.0
 44
0.0
 45
2890.021615685494
 50
0.0
 51
0.0
 72
   100
 90
   557152
  1

281
     0
 71
     1
 74
     0
110
0.0
120
0.0
130
0.0
111
1.0
121
0.0
131
0.0
112
0.0
122
1.0
132
0.0
 79
     0
146
0.0
170
     0
 61
     5
348
26C
292
     1
282
     1
141
0.0
142
0.0
 63
   256
  0
ENDSEC
  0
SECTION
  2
OBJECTS
  0
DICTIONARY
  5
19
330
0
100
AcDbDictionary
281
     1
  3
ACAD_COLOR
350
38F
  3
ACAD_DETAILVIEWSTYLE
350
BE8
  3
ACAD_GROUP
350
1A
  3
ACAD_IMAGE_VARS
350
27B
  3
ACAD_LAYOUT
350
1E
  3
ACAD_MATERIAL
350
263
  3
ACAD_MLEADERSTYLE
350
336
  3
ACAD_MLINESTYLE
350
1B
  3
ACAD_PLOTSETTINGS
350
22
  3
ACAD_PLOTSTYLENAME
350
1F
  3
ACAD_SCALELIST
350
241
  3
ACAD_SECTIONVIEWSTYLE
350
BE9
  3
ACAD_TABLESTYLE
350
278
  3
ACAD_VISUALSTYLE
350
267
  3
AcadDim
350
94E3
  3
ACDB_RECOMPOSE_DATA
350
98F2
  3
AcDbVariableDictionary
350
330
  3
APPDATA
350
27A
  0
SUN
  5
BE4
330
15
100
AcDbSun
 90
        1
290
     0
 63
     7
421
 16777215
 40
1.0
291
     1
 91
  2455826
 92
 54000000
292
     0
 70
     2
 71
   256
280
     1
  0
DICTIONARY
  5
2E1
330
2
100
AcDbDictionary
280
     1
281
     1
  3
ACAD_LAYERSTATES
360
2E2
  3
ACLYDICTIONARY
360
95C2
  0
DICTIONARY
  5
38F
102
{ACAD_REACTORS
330
19
102
}
330
19
100
AcDbDictionary
281
     1
  0
DICTIONARY
  5
BE8
102
{ACAD_REACTORS
330
19
102
}
330
19
100
AcDbDictionary
281
     1
  0
DICTIONARY
  5
1A
102
{ACAD_REACTORS
330
19
102
}
330
19
100
AcDbDictionary
281
     1
  0
RASTERVARIABLES
  5
27B
102
{ACAD_REACTORS
330
19
102
}
330
19
100
AcDbRasterVariables
 90
        0
 70
     1
 71
     1
 72
     1
  0
DICTIONARY
  5
1E
102
{ACAD_REACTORS
330
19
102
}
330
19
100
AcDbDictionary
281
     1
  3
Layout1
350
21
  3
Model
350
20
  0
DICTIONARY
  5
263
102
{ACAD_REACTORS
330
19
102
}
330
19
100
AcDbDictionary
281
     1
  3
ByLayer
350
264
  3
Global
350
266
  0
DICTIONARY
  5
336
102
{ACAD_REACTORS
330
19
102
}
330
19
100
AcDbDictionary
281
     1
  0
DICTIONARY
  5
1B
102
{ACAD_REACTORS
330
19
102
}
330
19
100
AcDbDictionary
281
     1
  3
Standard
350
1C
  0
DICTIONARY
  5
22
102
{ACAD_REACTORS
330
19
102
}
330
19
100
AcDbDictionary
281
     1
  0
ACDBDICTIONARYWDFLT
  5
1F
102
{ACAD_REACTORS
330
19
102
}
330
19
100
AcDbDictionary
281
     1
  3
Normal
350
1D
100
AcDbDictionaryWithDefault
340
1D
  0
DICTIONARY
  5
241
102
{ACAD_REACTORS
330
19
102
}
330
19
100
AcDbDictionary
281
     1
  3
A0
350
242
  3
A1
350
243
  3
A2
350
244
  3
A3
350
245
  3
A4
350
246
  3
A5
350
247
  3
A6
350
248
  3
A7
350
249
  3
A8
350
24A
  3
A9
350
24B
  3
B0
350
24C
  3
B1
350
24D
  3
B2
350
24E
  3
B3
350
24F
  3
B4
350
250
  3
B5
350
251
  3
B6
350
252
  3
B7
350
253
  3
B8
350
254
  3
B9
350
255
  3
C0
350
256
  3
C1
350
257
  3
C2
350
258
  3
C3
350
259
  3
C4
350
25A
  3
C5
350
25B
  3
C6
350
25C
  3
C7
350
25D
  3
C8
350
25E
  3
C9
350
25F
  3
D0
350
260
  3
D1
350
261
  3
D2
350
262
  0
DICTIONARY
  5
BE9
102
{ACAD_REACTORS
330
19
102
}
330
19
100
AcDbDictionary
281
     1
  0
DICTIONARY
  5
278
102
{ACAD_REACTORS
330
19
102
}
330
19
100
AcDbDictionary
281
     1
  3
Standard
350
279
  0
DICTIONARY
  5
267
102
{ACAD_REACTORS
330
19
102
}
330
19
100
AcDbDictionary
281
     1
  3
2dWireframe
350
26C
  3
3D Hidden
350
26E
  3
3dWireframe
350
26D
  3
Basic
350
26F
  3
Brighten
350
273
  3
ColorChange
350
277
  3
Conceptual
350
271
  3
Dim
350
272
  3
EdgeColorOff
350
BDE
  3
Facepattern
350
276
  3
Flat
350
268
  3
FlatWithEdges
350
269
  3
Gouraud
350
26A
  3
GouraudWithEdges
350
26B
  3
Hidden
350
BDB
  3
JitterOff
350
BDC
  3
Linepattern
350
275
  3
OverhangOff
350
BDD
  3
Realistic
350
270
  3
Shaded
350
BE3
  3
Shaded with edges
350
BE2
  3
Shades of Gray
350
BDF
  3
Sketchy
350
BE0
  3
Thicken
350
274
  3
Wireframe
350
BDA
  3
X-Ray
350
BE1
  0
XRECORD
  5
94E3
102
{ACAD_REACTORS
330
19
102
}
330
19
100
AcDbXrecord
280
     1
340
0
 72
     0
 71
     0
 70
     0
 69
     0
 68
     1
 67
     3
 66
     0
 65
     0
 64
     0
 63
     3
 62
     1
 61
     0
 60
     0
 40
0.0
  0
XRECORD
  5
98F2
102
{ACAD_REACTORS
330
19
102
}
330
19
100
AcDbXrecord
280
     1
 90
        1
330
279
  0
DICTIONARY
  5
330
102
{ACAD_REACTORS
330
19
102
}
330
19
100
AcDbDictionary
281
     1
  3
CANNOSCALE
350
331
  3
CTABLESTYLE
350
335
  3
HPTRANSPARENCY
350
C00
  3
XCLIPFRAME
350
64A
  0
DICTIONARY
  5
27A
102
{ACAD_REACTORS
330
19
102
}
330
19
100
AcDbDictionary
281
     1
  0
DICTIONARY
  5
2E2
102
{ACAD_REACTORS
330
2E1
102
}
330
2E1
100
AcDbDictionary
281
     1
  3
ARGON_LAYERP_13
350
95B0
  3
ARGON_LAYERP_14
350
C3A
  3
ARGON_LAYERP_3
350
96C0
  0
DICTIONARY
  5
95C2
102
{ACAD_REACTORS
330
2E1
102
}
330
2E1
100
AcDbDictionary
281
     1
1001
ACAD
1000
<All
  0
LAYOUT
  5
21
102
{ACAD_REACTORS
330
1E
102
}
330
1E
100
AcDbPlotSettings
  1

  2
none_device
  4
ISO_A3_(420.00_x_297.00_MM)
  6

 40
7.5
 41
20.0
 42
7.5
 43
20.0
 44
420.0
 45
297.0
 46
0.0
 47
0.0
 48
0.0
 49
0.0
140
0.0
141
0.0
142
1.0
143
1.0
 70
     0
 72
     1
 73
     0
 74
     0
  7

 75
     0
 76
     0
 77
     2
 78
   300
147
1.0
148
0.0
149
0.0
100
AcDbLayout
  1
Layout1
 70
     0
 71
     0
 10
0.0
 20
0.0
 11
0.0
 21
0.0
 12
0.0
 22
0.0
 32
0.0
 14
0.0
 24
0.0
 34
0.0
 15
0.0
 25
0.0
 35
0.0
146
0.0
 13
0.0
 23
0.0
 33
0.0
 16
0.0
 26
0.0
 36
0.0
 17
0.0
 27
0.0
 37
0.0
 76
     0
330
B
331
349
  0
LAYOUT
  5
20
102
{ACAD_REACTORS
330
1E
102
}
330
1E
100
AcDbPlotSettings
  1

  2
none_device
  4
ISO_A3_(420.00_x_297.00_MM)
  6

 40
7.5
 41
20.0
 42
7.5
 43
20.0
 44
420.0
 45
297.0
 46
0.0
 47
0.0
 48
0.0
 49
0.0
140
0.0
141
0.0
142
1.0
143
1.0
 70
  1024
 72
     1
 73
     0
 74
     0
  7

 75
     0
 76
     0
 77
     2
 78
   300
147
1.0
148
0.0
149
0.0
100
AcDbLayout
  1
Model
 70
     0
 71
     1
 10
0.0
 20
0.0
 11
2100.0
 21
2970.0
 12
0.0
 22
0.0
 32
0.0
 14
0.0
 24
0.0
 34
0.0
 15
2100.0
 25
2970.0
 35
0.0
146
0.0
 13
0.0
 23
0.0
 33
0.0
 16
0.0
 26
0.0
 36
0.0
 17
0.0
 27
0.0
 37
0.0
 76
     0
330
A
331
15
  0
MATERIAL
  5
264
102
{ACAD_REACTORS
330
263
102
}
330
263
100
AcDbMaterial
  1
ByLayer
 72
     1
 94
      127
  0
MATERIAL
  5
266
102
{ACAD_REACTORS
330
263
102
}
330
263
100
AcDbMaterial
  1
Global
 72
     1
 94
      127
  0
MLINESTYLE
  5
1C
102
{ACAD_REACTORS
330
1B
102
}
330
1B
100
AcDbMlineStyle
  2
Standard
 70
     0
  3

 62
     0
 51
90.0
 52
90.0
 71
     2
 49
0.5
 62
   256
  6
BYLAYER
 49
-0.5
 62
   256
  6
BYLAYER
  0
ACDBPLACEHOLDER
  5
1D
102
{ACAD_REACTORS
330
1F
102
}
330
1F
  0
SCALE
  5
242
102
{ACAD_REACTORS
330
241
102
}
330
241
100
AcDbScale
 70
     0
300
1:1
140
1.0
141
1.0
290
     1
  0
SCALE
  5
243
102
{ACAD_REACTORS
330
241
102
}
330
241
100
AcDbScale
 70
     0
300
1:2
140
1.0
141
2.0
290
     0
  0
SCALE
  5
244
102
{ACAD_REACTORS
330
241
102
}
330
241
100
AcDbScale
 70
     0
300
1:4
140
1.0
141
4.0
290
     0
  0
SCALE
  5
245
102
{ACAD_REACTORS
330
241
102
}
330
241
100
AcDbScale
 70
     0
300
1:5
140
1.0
141
5.0
290
     0
  0
SCALE
  5
246
102
{ACAD_REACTORS
330
241
102
}
330
241
100
AcDbScale
 70
     0
300
1:8
140
1.0
141
8.0
290
     0
  0
SCALE
  5
247
102
{ACAD_REACTORS
330
241
102
}
330
241
100
AcDbScale
 70
     0
300
1:10
140
1.0
141
10.0
290
     0
  0
SCALE
  5
248
102
{ACAD_REACTORS
330
241
102
}
330
241
100
AcDbScale
 70
     0
300
1:16
140
1.0
141
16.0
290
     0
  0
SCALE
  5
249
102
{ACAD_REACTORS
330
241
102
}
330
241
100
AcDbScale
 70
     0
300
1:20
140
1.0
141
20.0
290
     0
  0
SCALE
  5
24A
102
{ACAD_REACTORS
330
241
102
}
330
241
100
AcDbScale
 70
     0
300
1:30
140
1.0
141
30.0
290
     0
  0
SCALE
  5
24B
102
{ACAD_REACTORS
330
241
102
}
330
241
100
AcDbScale
 70
     0
300
1:40
140
1.0
141
40.0
290
     0
  0
SCALE
  5
24C
102
{ACAD_REACTORS
330
241
102
}
330
241
100
AcDbScale
 70
     0
300
1:50
140
1.0
141
50.0
290
     0
  0
SCALE
  5
24D
102
{ACAD_REACTORS
330
241
102
}
330
241
100
AcDbScale
 70
     0
300
1:100
140
1.0
141
100.0
290
     0
  0
SCALE
  5
24E
102
{ACAD_REACTORS
330
241
102
}
330
241
100
AcDbScale
 70
     0
300
2:1
140
2.0
141
1.0
290
     0
  0
SCALE
  5
24F
102
{ACAD_REACTORS
330
241
102
}
330
241
100
AcDbScale
 70
     0
300
4:1
140
4.0
141
1.0
290
     0
  0
SCALE
  5
250
102
{ACAD_REACTORS
330
241
102
}
330
241
100
AcDbScale
 70
     0
300
8:1
140
8.0
141
1.0
290
     0
  0
SCALE
  5
251
102
{ACAD_REACTORS
330
241
102
}
330
241
100
AcDbScale
 70
     0
300
10:1
140
10.0
141
1.0
290
     0
  0
SCALE
  5
252
102
{ACAD_REACTORS
330
241
102
}
330
241
100
AcDbScale
 70
     0
300
100:1
140
100.0
141
1.0
290
     0
  0
SCALE
  5
253
102
{ACAD_REACTORS
330
241
102
}
330
241
100
AcDbScale
 70
     0
300
1/128" = 1'-0"
140
0.0078125
141
12.0
290
     0
  0
SCALE
  5
254
102
{ACAD_REACTORS
330
241
102
}
330
241
100
AcDbScale
 70
     0
300
1/64" = 1'-0"
140
0.015625
141
12.0
290
     0
  0
SCALE
  5
255
102
{ACAD_REACTORS
330
241
102
}
330
241
100
AcDbScale
 70
     0
300
1/32" = 1'-0"
140
0.03125
141
12.0
290
     0
  0
SCALE
  5
256
102
{ACAD_REACTORS
330
241
102
}
330
241
100
AcDbScale
 70
     0
300
1/16" = 1'-0"
140
0.0625
141
12.0
290
     0
  0
SCALE
  5
257
102
{ACAD_REACTORS
330
241
102
}
330
241
100
AcDbScale
 70
     0
300
3/32" = 1'-0"
140
0.09375
141
12.0
290
     0
  0
SCALE
  5
258
102
{ACAD_REACTORS
330
241
102
}
330
241
100
AcDbScale
 70
     0
300
1/8" = 1'-0"
140
0.125
141
12.0
290
     0
  0
SCALE
  5
259
102
{ACAD_REACTORS
330
241
102
}
330
241
100
AcDbScale
 70
     0
300
3/16" = 1'-0"
140
0.1875
141
12.0
290
     0
  0
SCALE
  5
25A
102
{ACAD_REACTORS
330
241
102
}
330
241
100
AcDbScale
 70
     0
300
1/4" = 1'-0"
140
0.25
141
12.0
290
     0
  0
SCALE
  5
25B
102
{ACAD_REACTORS
330
241
102
}
330
241
100
AcDbScale
 70
     0
300
3/8" = 1'-0"
140
0.375
141
12.0
290
     0
  0
SCALE
  5
25C
102
{ACAD_REACTORS
330
241
102
}
330
241
100
AcDbScale
 70
     0
300
1/2" = 1'-0"
140
0.5
141
12.0
290
     0
  0
SCALE
  5
25D
102
{ACAD_REACTORS
330
241
102
}
330
241
100
AcDbScale
 70
     0
300
3/4" = 1'-0"
140
0.75
141
12.0
290
     0
  0
SCALE
  5
25E
102
{ACAD_REACTORS
330
241
102
}
330
241
100
AcDbScale
 70
     0
300
1" = 1'-0"
140
1.0
141
12.0
290
     0
  0
SCALE
  5
25F
102
{ACAD_REACTORS
330
241
102
}
330
241
100
AcDbScale
 70
     0
300
1-1/2" = 1'-0"
140
1.5
141
12.0
290
     0
  0
SCALE
  5
260
102
{ACAD_REACTORS
330
241
102
}
330
241
100
AcDbScale
 70
     0
300
3" = 1'-0"
140
3.0
141
12.0
290
     0
  0
SCALE
  5
261
102
{ACAD_REACTORS
330
241
102
}
330
241
100
AcDbScale
 70
     0
300
6" = 1'-0"
140
6.0
141
12.0
290
     0
  0
SCALE
  5
262
102
{ACAD_REACTORS
330
241
102
}
330
241
100
AcDbScale
 70
     0
300
1'-0" = 1'-0"
140
12.0
141
12.0
290
     0
  0
TABLESTYLE
  5
279
102
{ACAD_REACTORS
330
278
102
}
102
{ACAD_XDICTIONARY
360
98F0
102
}
330
278
100
AcDbTableStyle
  3
Standard
 70
     0
 71
     0
 40
0.06
 41
0.06
280
     0
281
     0
  7
Standard
140
4.5
170
     2
 62
     0
 63
   257
283
     0
 90
        4
 91
        0
  1

274
    -2
284
     1
 64
     0
275
    -2
285
     1
 65
     0
276
    -2
286
     1
 66
     0
277
    -2
287
     1
 67
     0
278
    -2
288
     1
 68
     0
279
    -2
289
     1
 69
     0
  7
Standard
140
6.0
170
     5
 62
     0
 63
   257
283
     0
 90
        4
 91
        0
  1

274
    -2
284
     1
 64
     0
275
    -2
285
     1
 65
     0
276
    -2
286
     1
 66
     0
277
    -2
287
     1
 67
     0
278
    -2
288
     1
 68
     0
279
    -2
289
     1
 69
     0
  7
Standard
140
4.5
170
     5
 62
     0
 63
   257
283
     0
 90
        4
 91
        0
  1

274
    -2
284
     1
 64
     0
275
    -2
285
     1
 65
     0
276
    -2
286
     1
 66
     0
277
    -2
287
     1
 67
     0
278
    -2
288
     1
 68
     0
279
    -2
289
     1
 69
     0
  0
VISUALSTYLE
  5
26C
102
{ACAD_REACTORS
330
267
102
}
330
267
100
AcDbVisualStyle
  2
2dWireframe
 70
     4
 71
     0
 72
     2
 73
     0
 90
        0
 40
-0.6
 41
-30.0
 62
     5
 63
     7
421
 16777215
 74
     1
 91
        4
 64
     7
 65
   257
 75
     1
175
     1
 42
1.0
 92
        0
 66
   257
 43
1.0
 76
     1
 77
     6
 78
     2
 67
     7
 79
     5
170
     0
171
     0
290
     0
174
     0
 93
        1
 44
0.0
173
     0
291
     0
 45
0.0
  0
VISUALSTYLE
  5
26E
102
{ACAD_REACTORS
330
267
102
}
330
267
100
AcDbVisualStyle
  2
3D Hidden
 70
     6
 71
     1
 72
     2
 73
     2
 90
        0
 40
-0.6
 41
-30.0
 62
     5
 63
     7
421
 16777215
 74
     2
 91
        2
 64
     7
 65
   257
 75
     2
175
     1
 42
40.0
 92
        0
 66
   257
 43
1.0
 76
     1
 77
     6
 78
     2
 67
     7
 79
     3
170
     0
171
     0
290
     0
174
     0
 93
        1
 44
0.0
173
     0
291
     0
 45
0.0
  0
VISUALSTYLE
  5
26D
102
{ACAD_REACTORS
330
267
102
}
330
267
100
AcDbVisualStyle
  2
3dWireframe
 70
     5
 71
     0
 72
     2
 73
     0
 90
        0
 40
-0.6
 41
-30.0
 62
     5
 63
     7
421
 16777215
 74
     1
 91
        4
 64
     7
 65
   257
 75
     1
175
     1
 42
1.0
 92
        0
 66
   257
 43
1.0
 76
     1
 77
     6
 78
     2
 67
     7
 79
     5
170
     0
171
     0
290
     0
174
     0
 93
        1
 44
0.0
173
     0
291
     0
 45
0.0
  0
VISUALSTYLE
  5
26F
102
{ACAD_REACTORS
330
267
102
}
330
267
100
AcDbVisualStyle
  2
Basic
 70
     7
 71
     1
 72
     0
 73
     1
 90
        0
 40
-0.6
 41
-30.0
 62
     5
 63
     7
421
 16777215
 74
     0
 91
        4
 64
     7
 65
   257
 75
     1
175
     1
 42
1.0
 92
        8
 66
     7
 43
1.0
 76
     1
 77
     6
 78
     2
 67
     7
 79
     5
170
     0
171
     0
290
     0
174
     0
 93
        1
 44
0.0
173
     0
291
     1
 45
0.0
  0
VISUALSTYLE
  5
273
102
{ACAD_REACTORS
330
267
102
}
330
267
100
AcDbVisualStyle
  2
Brighten
 70
    12
 71
     2
 72
     2
 73
     0
 90
        0
 40
-0.6
 41
-30.0
 62
     5
 63
     7
421
 16777215
 74
     1
 91
        4
 64
     7
 65
   257
 75
     1
175
     1
 42
1.0
 92
        8
 66
     7
 43
1.0
 76
     1
 77
     6
 78
     2
 67
     7
 79
     5
170
     0
171
     0
290
     0
174
     0
 93
        1
 44
50.0
173
     0
291
     1
 45
0.0
  0
VISUALSTYLE
  5
277
102
{ACAD_REACTORS
330
267
102
}
330
267
100
AcDbVisualStyle
  2
ColorChange
 70
    16
 71
     2
 72
     2
 73
     3
 90
        0
 40
-0.6
 41
-30.0
 62
     5
 63
     8
421
  8421504
 74
     1
 91
        4
 64
     7
 65
   257
 75
     1
175
     1
 42
1.0
 92
        8
 66
     8
424
  8421504
 43
1.0
 76
     1
 77
     6
 78
     2
 67
     7
 79
     5
170
     0
171
     0
290
     0
174
     0
 93
        1
 44
0.0
173
     0
291
     1
 45
0.0
  0
VISUALSTYLE
  5
271
102
{ACAD_REACTORS
330
267
102
}
330
267
100
AcDbVisualStyle
  2
Conceptual
 70
     9
 71
     3
 72
     2
 73
     0
 90
        0
 40
-0.6
 41
-30.0
 62
     5
 63
     7
421
 16777215
 74
     2
 91
        2
 64
     7
 65
   257
 75
     1
175
     1
 42
40.0
 92
        8
 66
     7
 43
1.0
 76
     1
 77
     6
 78
     2
 67
     7
 79
     3
170
     0
171
     0
290
     0
174
     0
 93
        1
 44
0.0
173
     0
291
     0
 45
0.0
  0
VISUALSTYLE
  5
272
102
{ACAD_REACTORS
330
267
102
}
330
267
100
AcDbVisualStyle
  2
Dim
 70
    11
 71
     2
 72
     2
 73
     0
 90
        0
 40
-0.6
 41
-30.0
 62
     5
 63
     7
421
 16777215
 74
     1
 91
        4
 64
     7
 65
   257
 75
     1
175
     1
 42
1.0
 92
        8
 66
     7
 43
1.0
 76
     1
 77
     6
 78
     2
 67
     7
 79
     5
170
     0
171
     0
290
     0
174
     0
 93
        1
 44
-50.0
173
     0
291
     1
 45
0.0
  0
VISUALSTYLE
  5
BDE
102
{ACAD_REACTORS
330
267
102
}
330
267
100
AcDbVisualStyle
  2
EdgeColorOff
 70
    22
 71
     2
 72
     2
 73
     0
 90
        0
 40
0.6
 41
30.0
 62
     5
 63
     7
421
 16777215
 74
     1
 91
        4
 64
     7
 65
   257
 75
     1
175
     1
 42
1.0
 92
        8
 66
     7
 43
1.0
 76
     1
 77
     6
 78
     2
 67
     7
 79
     5
170
     0
171
     0
290
     0
174
     0
 93
        1
 44
0.0
173
     0
291
     1
 45
0.0
  0
VISUALSTYLE
  5
276
102
{ACAD_REACTORS
330
267
102
}
330
267
100
AcDbVisualStyle
  2
Facepattern
 70
    15
 71
     2
 72
     2
 73
     0
 90
        0
 40
-0.6
 41
-30.0
 62
     5
 63
     7
421
 16777215
 74
     1
 91
        4
 64
     7
 65
   257
 75
     1
175
     1
 42
1.0
 92
        8
 66
     7
 43
1.0
 76
     1
 77
     6
 78
     2
 67
     7
 79
     5
170
     0
171
     0
290
     0
174
     0
 93
        1
 44
0.0
173
     0
291
     1
 45
0.0
  0
VISUALSTYLE
  5
268
102
{ACAD_REACTORS
330
267
102
}
330
267
100
AcDbVisualStyle
  2
Flat
 70
     0
 71
     2
 72
     1
 73
     1
 90
        2
 40
-0.6
 41
30.0
 62
     5
 63
     7
421
 16777215
 74
     0
 91
        4
 64
     7
 65
   257
 75
     1
175
     1
 42
1.0
 92
        8
 66
     7
 43
1.0
 76
     1
 77
     6
 78
     2
 67
     7
 79
     5
170
     0
171
     0
290
     0
174
     0
 93
       13
 44
0.0
173
     0
291
     1
 45
0.0
  0
VISUALSTYLE
  5
269
102
{ACAD_REACTORS
330
267
102
}
330
267
100
AcDbVisualStyle
  2
FlatWithEdges
 70
     1
 71
     2
 72
     1
 73
     1
 90
        2
 40
-0.6
 41
30.0
 62
     5
 63
     7
421
 16777215
 74
     1
 91
        4
 64
     7
 65
   257
 75
     1
175
     1
 42
1.0
 92
        0
 66
   257
 43
1.0
 76
     1
 77
     6
 78
     2
 67
     7
 79
     5
170
     0
171
     0
290
     0
174
     0
 93
       13
 44
0.0
173
     0
291
     1
 45
0.0
  0
VISUALSTYLE
  5
26A
102
{ACAD_REACTORS
330
267
102
}
330
267
100
AcDbVisualStyle
  2
Gouraud
 70
     2
 71
     2
 72
     2
 73
     1
 90
        2
 40
-0.6
 41
30.0
 62
     5
 63
     7
421
 16777215
 74
     0
 91
        4
 64
     7
 65
   257
 75
     1
175
     1
 42
1.0
 92
        0
 66
     7
 43
1.0
 76
     1
 77
     6
 78
     2
 67
     7
 79
     5
170
     0
171
     0
290
     0
174
     0
 93
       13
 44
0.0
173
     0
291
     1
 45
0.0
  0
VISUALSTYLE
  5
26B
102
{ACAD_REACTORS
330
267
102
}
330
267
100
AcDbVisualStyle
  2
GouraudWithEdges
 70
     3
 71
     2
 72
     2
 73
     1
 90
        2
 40
-0.6
 41
30.0
 62
     5
 63
     7
421
 16777215
 74
     1
 91
        4
 64
     7
 65
   257
 75
     1
175
     1
 42
1.0
 92
        0
 66
   257
 43
1.0
 76
     1
 77
     6
 78
     2
 67
     7
 79
     5
170
     0
171
     0
290
     0
174
     0
 93
       13
 44
0.0
173
     0
291
     1
 45
0.0
  0
VISUALSTYLE
  5
BDB
102
{ACAD_REACTORS
330
267
102
}
330
267
100
AcDbVisualStyle
  2
Hidden
 70
     6
 71
     1
 72
     2
 73
     2
 90
        0
 40
0.6
 41
30.0
 62
     5
 63
     7
421
 16777215
 74
     2
 91
        2
 64
     7
 65
   257
 75
     2
175
     1
 42
40.0
 92
        0
 66
   257
 43
1.0
 76
     1
 77
     6
 78
     2
 67
     7
 79
     3
170
     0
171
     0
290
     0
174
     0
 93
        1
 44
0.0
173
     0
291
     0
 45
0.0
  0
VISUALSTYLE
  5
BDC
102
{ACAD_REACTORS
330
267
102
}
330
267
100
AcDbVisualStyle
  2
JitterOff
 70
    20
 71
     2
 72
     2
 73
     0
 90
        0
 40
0.6
 41
30.0
 62
     5
 63
     7
421
 16777215
 74
     1
 91
        4
 64
     7
 65
   257
 75
     1
175
     1
 42
1.0
 92
       10
 66
     7
 43
1.0
 76
     1
 77
     6
 78
     2
 67
     7
 79
     5
170
     0
171
     0
290
     0
174
     0
 93
        1
 44
0.0
173
     0
291
     1
 45
0.0
  0
VISUALSTYLE
  5
275
102
{ACAD_REACTORS
330
267
102
}
330
267
100
AcDbVisualStyle
  2
Linepattern
 70
    14
 71
     2
 72
     2
 73
     0
 90
        0
 40
-0.6
 41
-30.0
 62
     5
 63
     7
421
 16777215
 74
     1
 91
        4
 64
     7
 65
   257
 75
     7
175
     7
 42
1.0
 92
        8
 66
     7
 43
1.0
 76
     1
 77
     6
 78
     2
 67
     7
 79
     5
170
     0
171
     0
290
     0
174
     0
 93
        1
 44
0.0
173
     0
291
     1
 45
0.0
  0
VISUALSTYLE
  5
BDD
102
{ACAD_REACTORS
330
267
102
}
330
267
100
AcDbVisualStyle
  2
OverhangOff
 70
    21
 71
     2
 72
     2
 73
     0
 90
        0
 40
0.6
 41
30.0
 62
     5
 63
     7
421
 16777215
 74
     1
 91
        4
 64
     7
 65
   257
 75
     1
175
     1
 42
1.0
 92
        9
 66
     7
 43
1.0
 76
     1
 77
     6
 78
     2
 67
     7
 79
     5
170
     0
171
     0
290
     0
174
     0
 93
        1
 44
0.0
173
     0
291
     1
 45
0.0
  0
VISUALSTYLE
  5
270
102
{ACAD_REACTORS
330
267
102
}
330
267
100
AcDbVisualStyle
  2
Realistic
 70
     8
 71
     2
 72
     2
 73
     0
 90
        0
 40
-0.6
 41
-30.0
 62
     5
 63
     7
421
 16777215
 74
     1
 91
        0
 64
     7
 65
   257
 75
     1
175
     1
 42
1.0
 92
        8
 66
     8
424
  7895160
 43
1.0
 76
     1
 77
     6
 78
     2
 67
     7
 79
     5
170
     0
171
     0
290
     0
174
     0
 93
       13
 44
0.0
173
     0
291
     0
 45
0.0
  0
VISUALSTYLE
  5
BE3
102
{ACAD_REACTORS
330
267
102
}
330
267
100
AcDbVisualStyle
  2
Shaded
 70
    27
 71
     2
 72
     2
 73
     1
 90
        2
 40
0.6
 41
30.0
 62
     5
 63
     7
421
 16777215
 74
     0
 91
        4
 64
     7
 65
   257
 75
     1
175
     1
 42
1.0
 92
        8
 66
   257
 43
1.0
 76
     1
 77
     6
 78
     2
 67
     8
425
  7895160
 79
     3
170
     0
171
     0
290
     0
174
     0
 93
        5
 44
0.0
173
     0
291
     0
 45
0.0
  0
VISUALSTYLE
  5
BE2
102
{ACAD_REACTORS
330
267
102
}
330
267
100
AcDbVisualStyle
  2
Shaded with edges
 70
    26
 71
     2
 72
     2
 73
     1
 90
        2
 40
0.6
 41
30.0
 62
     5
 63
     7
421
 16777215
 74
     1
 91
       10
 64
     7
 65
   257
 75
     2
175
     1
 42
1.0
 92
        8
 66
   257
 43
1.0
 76
     1
 77
     6
 78
     2
 67
     7
 79
     3
170
     0
171
     0
290
     0
174
     0
 93
        5
 44
0.0
173
     0
291
     0
 45
0.0
  0
VISUALSTYLE
  5
BDF
102
{ACAD_REACTORS
330
267
102
}
330
267
100
AcDbVisualStyle
  2
Shades of Gray
 70
    23
 71
     2
 72
     2
 73
     3
 90
        0
 40
0.6
 41
30.0
 62
     5
 63
     7
421
 16777215
 74
     2
 91
        2
 64
     7
 65
     7
 75
     1
175
     1
 42
40.0
 92
        8
 66
     7
 43
1.0
 76
     1
 77
     6
 78
     2
 67
     7
 79
     3
170
     0
171
     0
290
     0
174
     0
 93
        1
 44
0.0
173
     0
291
     0
 45
0.0
  0
VISUALSTYLE
  5
BE0
102
{ACAD_REACTORS
330
267
102
}
330
267
100
AcDbVisualStyle
  2
Sketchy
 70
    24
 71
     1
 72
     2
 73
     2
 90
        0
 40
0.6
 41
30.0
 62
     5
 63
     7
421
 16777215
 74
     2
 91
        2
 64
     7
 65
     7
 75
     1
175
     1
 42
40.0
 92
       11
 66
     7
 43
1.0
 76
     1
 77
     6
 78
     2
 67
     7
 79
     6
170
     0
171
     0
290
     0
174
     0
 93
        1
 44
0.0
173
     0
291
     0
 45
0.0
  0
VISUALSTYLE
  5
274
102
{ACAD_REACTORS
330
267
102
}
330
267
100
AcDbVisualStyle
  2
Thicken
 70
    13
 71
     2
 72
     2
 73
     0
 90
        0
 40
-0.6
 41
-30.0
 62
     5
 63
     7
421
 16777215
 74
     1
 91
        4
 64
     7
 65
   257
 75
     1
175
     1
 42
1.0
 92
       12
 66
     7
 43
1.0
 76
     1
 77
     6
 78
     2
 67
     7
 79
     5
170
     0
171
     0
290
     0
174
     0
 93
        1
 44
0.0
173
     0
291
     1
 45
0.0
  0
VISUALSTYLE
  5
BDA
102
{ACAD_REACTORS
330
267
102
}
330
267
100
AcDbVisualStyle
  2
Wireframe
 70
     5
 71
     0
 72
     2
 73
     0
 90
        0
 40
0.6
 41
30.0
 62
     5
 63
     7
421
 16777215
 74
     1
 91
        4
 64
     7
 65
   257
 75
     1
175
     1
 42
1.0
 92
        0
 66
   257
 43
1.0
 76
     1
 77
     6
 78
     2
 67
     7
 79
     3
170
     0
171
     0
290
     0
174
     0
 93
        1
 44
0.0
173
     0
291
     0
 45
0.0
  0
VISUALSTYLE
  5
BE1
102
{ACAD_REACTORS
330
267
102
}
330
267
100
AcDbVisualStyle
  2
X-Ray
 70
    25
 71
     2
 72
     2
 73
     1
 90
        1
 40
0.5
 41
30.0
 62
     5
 63
     7
421
 16777215
 74
     1
 91
        0
 64
     7
 65
   257
 75
     1
175
     1
 42
1.0
 92
        8
 66
     7
 43
1.0
 76
     1
 77
     6
 78
     2
 67
     7
 79
     3
170
     0
171
     0
290
     0
174
     0
 93
       13
 44
0.0
173
     0
291
     0
 45
0.0
  0
DICTIONARYVAR
  5
331
102
{ACAD_REACTORS
330
330
102
}
330
330
100
DictionaryVariables
280
     0
  1
1:1
  0
DICTIONARYVAR
  5
335
102
{ACAD_REACTORS
330
330
102
}
330
330
100
DictionaryVariables
280
     0
  1
Standard
  0
DICTIONARYVAR
  5
C00
102
{ACAD_REACTORS
330
330
102
}
330
330
100
DictionaryVariables
280
     0
  1
ByLayer
  0
DICTIONARYVAR
  5
64A
102
{ACAD_REACTORS
330
330
102
}
330
330
100
DictionaryVariables
280
     0
  1
0
  0
XRECORD
  5
95B0
102
{ACAD_REACTORS
330
2E2
102
}
330
2E2
100
AcDbXrecord
280
     1
 91
     1023
301

290
     0
302
MODEL
330
14
 90
        8
 62
     7
370
    -3
331
13
  1
Color_7
330
4A
 90
        0
 62
     7
370
     9
331
13
  1
Color_7
330
4B
 90
        0
 62
     4
370
    20
331
13
  1
Color_4
330
4D
 90
        8
 62
     7
370
    20
331
13
  1
Color_7
330
382
 90
        8
 62
     7
370
    -3
331
13
  1
Color_7
330
B7A
 90
        9
 62
     7
370
    13
331
13
  1
Color_7
330
0
 90
        8
 62
     7
370
    -3
331
13
  1
Color_7
330
3B0F
 90
        8
 62
     7
370
    -3
331
13
  1
Color_7
330
0
 90
        8
 62
   254
370
    -3
331
13
  1
Color_254
  0
XRECORD
  5
C3A
102
{ACAD_REACTORS
330
2E2
102
}
330
2E2
100
AcDbXrecord
280
     1
 91
     1023
301

290
     0
302
MODEL GRAY
330
14
 90
        8
 62
     7
370
    -3
331
13
  1
Color_7
330
4A
 90
        0
 62
     7
370
     9
331
13
  1
Color_7
330
4B
 90
        0
 62
     4
370
    20
331
13
  1
Color_4
330
4D
 90
        8
 62
     7
370
    20
331
13
  1
Color_7
330
382
 90
        8
 62
     7
370
    -3
331
13
  1
Color_7
330
B7A
 90
        9
 62
     7
370
    13
331
13
  1
Color_7
330
0
 90
        8
 62
     7
370
    -3
331
13
  1
Color_7
330
3B0F
 90
        8
 62
     7
370
    -3
331
13
  1
Color_7
330
0
 90
        8
 62
   254
370
    -3
331
13
  1
Color_254
330
95C1
 90
        8
 62
   252
370
    20
331
13
  1
Color_252
  0
XRECORD
  5
96C0
102
{ACAD_REACTORS
330
2E2
102
}
330
2E2
100
AcDbXrecord
280
     1
 91
     1023
301

290
     0
302
MODEL GRAY
330
14
 90
        8
 62
     7
370
    -3
331
13
  1
Color_7
330
4A
 90
        0
 62
     7
370
     9
331
13
  1
Color_7
330
4B
 90
        0
 62
     4
370
    20
331
13
  1
Color_4
330
4D
 90
        8
 62
     7
370
    20
331
13
  1
Color_7
330
382
 90
        8
 62
     7
370
    -3
331
13
  1
Color_7
330
B7A
 90
        8
 62
     7
370
    13
331
13
  1
Color_7
330
0
 90
        8
 62
     7
370
    -3
331
13
  1
Color_7
330
3B0F
 90
        8
 62
     7
370
    -3
331
13
  1
Color_7
330
0
 90
        8
 62
   254
370
    -3
331
13
  1
Color_254
330
95C1
 90
        8
 62
   252
370
    20
331
13
  1
Color_252
  0
DICTIONARY
  5
98F0
330
279
100
AcDbDictionary
280
     1
281
     1
  3
ACAD_ROUNDTRIP_2008_TABLESTYLE_CELLSTYLEMAP
360
98F1
  0
CELLSTYLEMAP
  5
98F1
102
{ACAD_REACTORS
330
98F0
102
}
330
98F0
100
AcDbCellStyleMap
 90
        3
300
CELLSTYLE
  1
TABLEFORMAT_BEGIN
 90
        5
170
     1
 91
        0
 92
    32768
 62
   257
 93
        1
300
CONTENTFORMAT
  1
CONTENTFORMAT_BEGIN
 90
        0
 91
        0
 92
        4
 93
        0
300

 40
0.0
140
1.0
 94
        5
 62
     0
340
17
144
6.0
309
CONTENTFORMAT_END
171
     1
301
MARGIN
  1
CELLMARGIN_BEGIN
 40
0.06
 40
0.06
 40
0.06
 40
0.06
 40
0.18
 40
0.18
309
CELLMARGIN_END
 94
        6
 95
        1
302
GRIDFORMAT
  1
GRIDFORMAT_BEGIN
 90
        0
 91
        1
 62
     0
 92
       -2
340
0
 93
        0
 40
0.045
309
GRIDFORMAT_END
 95
        2
302
GRIDFORMAT
  1
GRIDFORMAT_BEGIN
 90
        0
 91
        1
 62
     0
 92
       -2
340
0
 93
        0
 40
0.045
309
GRIDFORMAT_END
 95
        4
302
GRIDFORMAT
  1
GRIDFORMAT_BEGIN
 90
        0
 91
        1
 62
     0
 92
       -2
340
0
 93
        0
 40
0.045
309
GRIDFORMAT_END
 95
        8
302
GRIDFORMAT
  1
GRIDFORMAT_BEGIN
 90
        0
 91
        1
 62
     0
 92
       -2
340
0
 93
        0
 40
0.045
309
GRIDFORMAT_END
 95
       16
302
GRIDFORMAT
  1
GRIDFORMAT_BEGIN
 90
        0
 91
        1
 62
     0
 92
       -2
340
0
 93
        0
 40
0.045
309
GRIDFORMAT_END
 95
       32
302
GRIDFORMAT
  1
GRIDFORMAT_BEGIN
 90
        0
 91
        1
 62
     0
 92
       -2
340
0
 93
        0
 40
0.045
309
GRIDFORMAT_END
309
TABLEFORMAT_END
  1
CELLSTYLE_BEGIN
 90
        1
 91
        1
300
_TITLE
309
CELLSTYLE_END
300
CELLSTYLE
  1
TABLEFORMAT_BEGIN
 90
        5
170
     1
 91
        0
 92
        0
 62
   257
 93
        1
300
CONTENTFORMAT
  1
CONTENTFORMAT_BEGIN
 90
        0
 91
        0
 92
        4
 93
        0
300

 40
0.0
140
1.0
 94
        5
 62
     0
340
17
144
4.5
309
CONTENTFORMAT_END
171
     1
301
MARGIN
  1
CELLMARGIN_BEGIN
 40
0.06
 40
0.06
 40
0.06
 40
0.06
 40
0.18
 40
0.18
309
CELLMARGIN_END
 94
        6
 95
        1
302
GRIDFORMAT
  1
GRIDFORMAT_BEGIN
 90
        0
 91
        1
 62
     0
 92
       -2
340
0
 93
        0
 40
0.045
309
GRIDFORMAT_END
 95
        2
302
GRIDFORMAT
  1
GRIDFORMAT_BEGIN
 90
        0
 91
        1
 62
     0
 92
       -2
340
0
 93
        0
 40
0.045
309
GRIDFORMAT_END
 95
        4
302
GRIDFORMAT
  1
GRIDFORMAT_BEGIN
 90
        0
 91
        1
 62
     0
 92
       -2
340
0
 93
        0
 40
0.045
309
GRIDFORMAT_END
 95
        8
302
GRIDFORMAT
  1
GRIDFORMAT_BEGIN
 90
        0
 91
        1
 62
     0
 92
       -2
340
0
 93
        0
 40
0.045
309
GRIDFORMAT_END
 95
       16
302
GRIDFORMAT
  1
GRIDFORMAT_BEGIN
 90
        0
 91
        1
 62
     0
 92
       -2
340
0
 93
        0
 40
0.045
309
GRIDFORMAT_END
 95
       32
302
GRIDFORMAT
  1
GRIDFORMAT_BEGIN
 90
        0
 91
        1
 62
     0
 92
       -2
340
0
 93
        0
 40
0.045
309
GRIDFORMAT_END
309
TABLEFORMAT_END
  1
CELLSTYLE_BEGIN
 90
        2
 91
        1
300
_HEADER
309
CELLSTYLE_END
300
CELLSTYLE
  1
TABLEFORMAT_BEGIN
 90
        5
170
     1
 91
        0
 92
        0
 62
   257
 93
        1
300
CONTENTFORMAT
  1
CONTENTFORMAT_BEGIN
 90
        0
 91
        0
 92
        4
 93
        0
300

 40
0.0
140
1.0
 94
        2
 62
     0
340
17
144
4.5
309
CONTENTFORMAT_END
171
     1
301
MARGIN
  1
CELLMARGIN_BEGIN
 40
0.06
 40
0.06
 40
0.06
 40
0.06
 40
0.18
 40
0.18
309
CELLMARGIN_END
 94
        6
 95
        1
302
GRIDFORMAT
  1
GRIDFORMAT_BEGIN
 90
        0
 91
        1
 62
     0
 92
       -2
340
0
 93
        0
 40
0.045
309
GRIDFORMAT_END
 95
        2
302
GRIDFORMAT
  1
GRIDFORMAT_BEGIN
 90
        0
 91
        1
 62
     0
 92
       -2
340
0
 93
        0
 40
0.045
309
GRIDFORMAT_END
 95
        4
302
GRIDFORMAT
  1
GRIDFORMAT_BEGIN
 90
        0
 91
        1
 62
     0
 92
       -2
340
0
 93
        0
 40
0.045
309
GRIDFORMAT_END
 95
        8
302
GRIDFORMAT
  1
GRIDFORMAT_BEGIN
 90
        0
 91
        1
 62
     0
 92
       -2
340
0
 93
        0
 40
0.045
309
GRIDFORMAT_END
 95
       16
302
GRIDFORMAT
  1
GRIDFORMAT_BEGIN
 90
        0
 91
        1
 62
     0
 92
       -2
340
0
 93
        0
 40
0.045
309
GRIDFORMAT_END
 95
       32
302
GRIDFORMAT
  1
GRIDFORMAT_BEGIN
 90
        0
 91
        1
 62
     0
 92
       -2
340
0
 93
        0
 40
0.045
309
GRIDFORMAT_END
309
TABLEFORMAT_END
  1
CELLSTYLE_BEGIN
 90
        3
 91
        2
300
_DATA
309
CELLSTYLE_END
  0
ENDSEC
  0
EOF
