  0
SECTION
  2
HEADER
  9
$ACADVER
  1
AC1021
  9
$ACADMAINTVER
 70
    25
  9
$DWGCODEPAGE
  3
ANSI_932
  9
$LASTSAVEDBY
  1
howeNelson
  9
$INSBASE
 10
0.0
 20
0.0
 30
0.0
  9
$EXTMIN
 10
0.0
 20
0.0
 30
0.0
  9
$EXTMAX
 10
2100.0
 20
2970.0
 30
0.0
  9
$LIMMIN
 10
0.0
 20
0.0
  9
$LIMMAX
 10
2100.0
 20
2970.0
  9
$ORTHOMODE
 70
     0
  9
$REGENMODE
 70
     1
  9
$FILLMODE
 70
     1
  9
$QTEXTMODE
 70
     0
  9
$MIRRTEXT
 70
     1
  9
$LTSCALE
 40
50.8
  9
$ATTMODE
 70
     1
  9
$TEXTSIZE
 40
533.0403732820173
  9
$TRACEWID
 40
1.0
  9
$TEXTSTYLE
  7
Standard
  9
$CLAYER
  8
MODEL
  9
$CELTYPE
  6
Continuous
  9
$CECOLOR
 62
   256
  9
$CELTSCALE
 40
1.0
  9
$DISPSILH
 70
     0
  9
$DIMSCALE
 40
1.0
  9
$DIMASZ
 40
6.0
  9
$DIMEXO
 40
25.0
  9
$DIMDLI
 40
25.0
  9
$DIMRND
 40
0.0
  9
$DIMDLE
 40
0.0
  9
$DIMEXE
 40
0.0
  9
$DIMTP
 40
0.0
  9
$DIMTM
 40
0.0
  9
$DIMTXT
 40
24.0
  9
$DIMCEN
 40
0.0
  9
$DIMTSZ
 40
0.0
  9
$DIMTOL
 70
     0
  9
$DIMLIM
 70
     0
  9
$DIMTIH
 70
     0
  9
$DIMTOH
 70
     0
  9
$DIMSE1
 70
     0
  9
$DIMSE2
 70
     0
  9
$DIMTAD
 70
     1
  9
$DIMZIN
 70
    11
  9
$DIMBLK
  1
DOT
  9
$DIMASO
 70
     1
  9
$DIMSHO
 70
     1
  9
$DIMPOST
  1
<>
  9
$DIMAPOST
  1
[]
  9
$DIMALT
 70
     0
  9
$DIMALTD
 70
     1
  9
$DIMALTF
 40
1.0
  9
$DIMLFAC
 40
1.0
  9
$DIMTOFL
 70
     0
  9
$DIMTVP
 40
0.0
  9
$DIMTIX
 70
     1
  9
$DIMSOXD
 70
     0
  9
$DIMSAH
 70
     0
  9
$DIMBLK1
  1

  9
$DIMBLK2
  1

  9
$DIMSTYLE
  2
JIS
  9
$DIMCLRD
 70
     0
  9
$DIMCLRE
 70
     0
  9
$DIMCLRT
 70
     0
  9
$DIMTFAC
 40
1.0
  9
$DIMGAP
 40
15.0
  9
$DIMJUST
 70
     0
  9
$DIMSD1
 70
     0
  9
$DIMSD2
 70
     0
  9
$DIMTOLJ
 70
     1
  9
$DIMTZIN
 70
    11
  9
$DIMALTZ
 70
    11
  9
$DIMALTTZ
 70
    11
  9
$DIMUPT
 70
     0
  9
$DIMDEC
 70
     0
  9
$DIMTDEC
 70
     1
  9
$DIMALTU
 70
     2
  9
$DIMALTTD
 70
     2
  9
$DIMTXSTY
  7
ＭＳ ゴシック
  9
$DIMAUNIT
 70
     0
  9
$DIMADEC
 70
     0
  9
$DIMALTRND
 40
0.0
  9
$DIMAZIN
 70
     0
  9
$DIMDSEP
 70
    46
  9
$DIMATFIT
 70
     0
  9
$DIMFRAC
 70
     2
  9
$DIMLDRBLK
  1
DOT
  9
$DIMLUNIT
 70
     2
  9
$DIMLWD
 70
    -2
  9
$DIMLWE
 70
    -2
  9
$DIMTMOVE
 70
     0
  9
$DIMFXL
 40
1.0
  9
$DIMFXLON
 70
     0
  9
$DIMJOGANG
 40
0.7853981633974483
  9
$DIMTFILL
 70
     0
  9
$DIMTFILLCLR
 70
     0
  9
$DIMARCSYM
 70
     0
  9
$DIMLTYPE
  6

  9
$DIMLTEX1
  6

  9
$DIMLTEX2
  6

  9
$LUNITS
 70
     2
  9
$LUPREC
 70
     0
  9
$SKETCHINC
 40
0.1
  9
$FILLETRAD
 40
0.0
  9
$AUNITS
 70
     0
  9
$AUPREC
 70
     0
  9
$MENU
  1
acad
  9
$ELEVATION
 40
0.0
  9
$PELEVATION
 40
0.0
  9
$THICKNESS
 40
0.0
  9
$LIMCHECK
 70
     0
  9
$CHAMFERA
 40
0.0
  9
$CHAMFERB
 40
0.0
  9
$CHAMFERC
 40
0.0
  9
$CHAMFERD
 40
0.0
  9
$SKPOLY
 70
     0
  9
$TDCREATE
 40
2447893.375
  9
$TDUCREATE
 40
0.0
  9
$TDUPDATE
 40
2458054.591388021
  9
$TDUUPDATE
 40
2458054.216388021
  9
$TDINDWG
 40
0.7960804977
  9
$TDUSRTIMER
 40
2458054.215416759
  9
$USRTIMER
 70
     1
  9
$ANGBASE
 50
0.0
  9
$ANGDIR
 70
     0
  9
$PDMODE
 70
     1
  9
$PDSIZE
 40
-2.0
  9
$PLINEWID
 40
0.0
  9
$SPLFRAME
 70
     0
  9
$SPLINETYPE
 70
     6
  9
$SPLINESEGS
 70
     8
  9
$HANDSEED
  5
9924
  9
$SURFTAB1
 70
     6
  9
$SURFTAB2
 70
     6
  9
$SURFTYPE
 70
     6
  9
$SURFU
 70
     6
  9
$SURFV
 70
     6
  9
$UCSBASE
  2

  9
$UCSNAME
  2

  9
$UCSORG
 10
0.0
 20
0.0
 30
0.0
  9
$UCSXDIR
 10
1.0
 20
0.0
 30
0.0
  9
$UCSYDIR
 10
0.0
 20
1.0
 30
0.0
  9
$UCSORTHOREF
  2

  9
$UCSORTHOVIEW
 70
     0
  9
$UCSORGTOP
 10
0.0
 20
0.0
 30
0.0
  9
$UCSORGBOTTOM
 10
0.0
 20
0.0
 30
0.0
  9
$UCSORGLEFT
 10
0.0
 20
0.0
 30
0.0
  9
$UCSORGRIGHT
 10
0.0
 20
0.0
 30
0.0
  9
$UCSORGFRONT
 10
0.0
 20
0.0
 30
0.0
  9
$UCSORGBACK
 10
0.0
 20
0.0
 30
0.0
  9
$PUCSBASE
  2

  9
$PUCSNAME
  2

  9
$PUCSORG
 10
0.0
 20
0.0
 30
0.0
  9
$PUCSXDIR
 10
1.0
 20
0.0
 30
0.0
  9
$PUCSYDIR
 10
0.0
 20
1.0
 30
0.0
  9
$PUCSORTHOREF
  2

  9
$PUCSORTHOVIEW
 70
     0
  9
$PUCSORGTOP
 10
0.0
 20
0.0
 30
0.0
  9
$PUCSORGBOTTOM
 10
0.0
 20
0.0
 30
0.0
  9
$PUCSORGLEFT
 10
0.0
 20
0.0
 30
0.0
  9
$PUCSORGRIGHT
 10
0.0
 20
0.0
 30
0.0
  9
$PUCSORGFRONT
 10
0.0
 20
0.0
 30
0.0
  9
$PUCSORGBACK
 10
0.0
 20
0.0
 30
0.0
  9
$USERI1
 70
     0
  9
$USERI2
 70
     0
  9
$USERI3
 70
     0
  9
$USERI4
 70
     0
  9
$USERI5
 70
     0
  9
$USERR1
 40
0.0
  9
$USERR2
 40
0.0
  9
$USERR3
 40
0.0
  9
$USERR4
 40
0.0
  9
$USERR5
 40
0.0
  9
$WORLDVIEW
 70
     1
  9
$SHADEDGE
 70
     3
  9
$SHADEDIF
 70
    70
  9
$TILEMODE
 70
     1
  9
$MAXACTVP
 70
    64
  9
$PINSBASE
 10
0.0
 20
0.0
 30
0.0
  9
$PLIMCHECK
 70
     0
  9
$PEXTMIN
 10
0.0
 20
0.0
 30
0.0
  9
$PEXTMAX
 10
0.0
 20
0.0
 30
0.0
  9
$PLIMMIN
 10
-7.5
 20
-20.0
  9
$PLIMMAX
 10
412.5
 20
277.0
  9
$UNITMODE
 70
     0
  9
$VISRETAIN
 70
     0
  9
$PLINEGEN
 70
     1
  9
$PSLTSCALE
 70
     0
  9
$TREEDEPTH
 70
  3020
  9
$CMLSTYLE
  2
Standard
  9
$CMLJUST
 70
     0
  9
$CMLSCALE
 40
1.0
  9
$PROXYGRAPHICS
 70
     0
  9
$MEASUREMENT
 70
     1
  9
$CELWEIGHT
370
    -1
  9
$ENDCAPS
280
     0
  9
$JOINSTYLE
280
     0
  9
$LWDISPLAY
290
     1
  9
$INSUNITS
 70
     4
  9
$HYPERLINKBASE
  1

  9
$STYLESHEET
  1

  9
$XEDIT
290
     1
  9
$CEPSNTYPE
380
     0
  9
$PSTYLEMODE
290
     1
  9
$FINGERPRINTGUID
  2

  9
$VERSIONGUID
  2

  9
$EXTNAMES
290
     1
  9
$PSVPSCALE
 40
0.0
  9
$OLESTARTUP
290
     0
  9
$SORTENTS
280
   127
  9
$INDEXCTL
280
     0
  9
$HIDETEXT
280
     1
  9
$XCLIPFRAME
290
     0
  9
$HALOGAP
280
     0
  9
$OBSCOLOR
 70
   257
  9
$OBSLTYPE
280
     0
  9
$INTERSECTIONDISPLAY
280
     0
  9
$INTERSECTIONCOLOR
 70
   257
  9
$DIMASSOC
280
     2
  9
$PROJECTNAME
  1

  9
$CAMERADISPLAY
290
     0
  9
$LENSLENGTH
 40
50.0
  9
$CAMERAHEIGHT
 40
0.0
  9
$STEPSPERSEC
 40
2.0
  9
$STEPSIZE
 40
6.0
  9
$3DDWFPREC
 40
2.0
  9
$PSOLWIDTH
 40
0.25
  9
$PSOLHEIGHT
 40
4.0
  9
$LOFTANG1
 40
1.570796326794897
  9
$LOFTANG2
 40
1.570796326794897
  9
$LOFTMAG1
 40
0.0
  9
$LOFTMAG2
 40
0.0
  9
$LOFTPARAM
 70
     7
  9
$LOFTNORMALS
280
     1
  9
$LATITUDE
 40
37.795
  9
$LONGITUDE
 40
-122.394
  9
$NORTHDIRECTION
 40
0.0
  9
$TIMEZONE
 70
 -8000
  9
$LIGHTGLYPHDISPLAY
280
     1
  9
$TILEMODELIGHTSYNCH
280
     1
  9
$SOLIDHIST
280
     1
  9
$SHOWHIST
280
     1
  9
$DWFFRAME
280
     2
  9
$DGNFRAME
280
     2
  9
$REALWORLDSCALE
290
     1
  9
$INTERFERECOLOR
 62
   256
  9
$CSHADOW
280
     0
  9
$SHADOWPLANELOCATION
 40
0.0
  0
ENDSEC
  0
SECTION
  2
CLASSES
  0
CLASS
  1
LWPOLYLINE
  2
AcDbPolyline
  3
ObjectDBX Classes
 90
        0
 91
        1
280
     0
281
     1
  0
CLASS
  1
IMAGE
  2
AcDbRasterImage
  3
ISM
 90
      127
 91
       11
280
     0
281
     1
  0
CLASS
  1
OLE2FRAME
  2
AcDbOle2Frame
  3
ObjectDBX Classes
 90
        0
 91
        1
280
     0
281
     1
  0
CLASS
  1
HATCH
  2
AcDbHatch
  3
ObjectDBX Classes
 90
        0
 91
        1
280
     0
281
     1
  0
CLASS
  1
DICTIONARYVAR
  2
AcDbDictionaryVar
  3
ObjectDBX Classes
 90
        0
 91
       10
280
     0
281
     0
  0
CLASS
  1
RASTERVARIABLES
  2
AcDbRasterVariables
  3
ISM
 90
        0
 91
       10
280
     0
281
     0
  0
CLASS
  1
IMAGEDEF
  2
AcDbRasterImageDef
  3
ISM
 90
        0
 91
       10
280
     0
281
     0
  0
CLASS
  1
IMAGEDEF_REACTOR
  2
AcDbRasterImageDefReactor
  3
ISM
 90
        1
 91
       10
280
     0
281
     0
  0
CLASS
  1
IDBUFFER
  2
AcDbIdBuffer
  3
ObjectDBX Classes
 90
        0
 91
       10
280
     0
281
     0
  0
CLASS
  1
SPATIAL_FILTER
  2
AcDbSpatialFilter
  3
ObjectDBX Classes
 90
        0
 91
       10
280
     0
281
     0
  0
CLASS
  1
XRECORD
  2
AcDbXrecord
  3
ObjectDBX Classes
 90
        0
 91
        1
280
     0
281
     0
  0
CLASS
  1
SORTENTSTABLE
  2
AcDbSortentsTable
  3
ObjectDBX Classes
 90
        0
 91
       10
280
     0
281
     0
  0
CLASS
  1
LAYER_INDEX
  2
AcDbLayerIndex
  3
ObjectDBX Classes
 90
        0
 91
       10
280
     0
281
     0
  0
CLASS
  1
SPATIAL_INDEX
  2
AcDbSpatialIndex
  3
AutoCAD 2000
 90
        0
 91
       10
280
     0
281
     0
  0
CLASS
  1
OBJECT_PTR
  2
CAseDLPNTableRecord
  3
ASE-LPNTableRecord
 90
        1
 91
       10
280
     0
281
     0
  0
CLASS
  1
LAYOUT
  2
AcDbLayout
  3
ObjectDBX Classes
 90
        0
 91
        1
280
     0
281
     0
  0
CLASS
  1
PLOTSETTINGS
  2
AcDbPlotSettings
  3
ObjectDBX Classes
 90
        0
 91
       10
280
     0
281
     0
  0
CLASS
  1
ACDBDICTIONARYWDFLT
  2
AcDbDictionaryWithDefault
  3
ObjectDBX Classes
 90
        0
 91
       10
280
     0
281
     0
  0
CLASS
  1
ACDBPLACEHOLDER
  2
AcDbPlaceHolder
  3
ObjectDBX Classes
 90
        0
 91
        1
280
     0
281
     0
  0
CLASS
  1
SCALE
  2
AcDbScale
  3
ObjectDBX Classes
 90
     1153
 91
       10
280
     0
281
     0
  0
CLASS
  1
MATERIAL
  2
AcDbMaterial
  3
ObjectDBX Classes
 90
     1153
 91
       10
280
     0
281
     0
  0
CLASS
  1
VISUALSTYLE
  2
AcDbVisualStyle
  3
ObjectDBX Classes
 90
     4095
 91
       10
280
     0
281
     0
  0
CLASS
  1
TABLESTYLE
  2
AcDbTableStyle
  3
ObjectDBX Classes
 90
     4095
 91
       10
280
     0
281
     0
  0
CLASS
  1
DIMASSOC
  2
AcDbDimAssoc
  3
"AcDbDimAssoc|Product Desc:     AcDim ARX App For Dimension|Company:          Autodesk, Inc.|WEB Address:      www.autodesk.com"
 90
        0
 91
       10
280
     0
281
     0
  0
CLASS
  1
CELLSTYLEMAP
  2
AcDbCellStyleMap
  3
ObjectDBX Classes
 90
     1152
 91
       10
280
     0
281
     0
  0
CLASS
  1
SUN
  2
AcDbSun
  3
SCENEOE
 90
     1153
 91
       10
280
     0
281
     0
  0
CLASS
  1
MLEADERSTYLE
  2
AcDbMLeaderStyle
  3
ACDB_MLEADERSTYLE_CLASS
 90
     4095
 91
       10
280
     0
281
     0
  0
ENDSEC
  0
SECTION
  2
TABLES
  0
TABLE
  2
VPORT
  5
7
330
0
100
AcDbSymbolTable
 70
     1
  0
VPORT
  5
15
330
7
100
AcDbSymbolTableRecord
100
AcDbViewportTableRecord
  2
*ACTIVE
 70
     0
 10
0.0
 20
0.0
 11
1.0
 21
1.0
 12
518.0464231739697
 22
1539.908751102672
 13
0.0
 23
0.0
 14
1.0
 24
1.0
 15
0.0
 25
0.0
 16
0.0
 26
0.0
 36
1.0
 17
531.9535768260303
 27
-54.90875110267189
 37
-796.100446371116
 40
3029.4
 41
2.178082191780822
 42
50.0
 43
0.0
 44
0.0
 50
0.0
 51
0.0
 71
    16
 72
  2000
 73
     1
 74
     1
 75
     0
 76
     0
 77
     0
 78
     0
281
     0
 65
     1
110
0.0
120
0.0
130
0.0
111
1.0
121
0.0
131
0.0
112
0.0
122
1.0
132
0.0
 79
     0
146
0.0
348
26C
 60
     3
 61
     5
292
     1
282
     1
141
0.0
142
0.0
 63
   256
361
BE4
  0
ENDTAB
  0
TABLE
  2
LTYPE
  5
4
330
0
100
AcDbSymbolTable
 70
     7
  0
LTYPE
  5
11
330
4
100
AcDbSymbolTableRecord
100
AcDbLinetypeTableRecord
  2
ByBlock
 70
     0
  3

 72
    65
 73
     0
 40
0.0
  0
LTYPE
  5
12
330
4
100
AcDbSymbolTableRecord
100
AcDbLinetypeTableRecord
  2
ByLayer
 70
     0
  3

 72
    65
 73
     0
 40
0.0
  0
LTYPE
  5
13
330
4
100
AcDbSymbolTableRecord
100
AcDbLinetypeTableRecord
  2
Continuous
 70
     0
  3
Solid line
 72
    65
 73
     0
 40
0.0
  0
LTYPE
  5
1A38
330
4
100
AcDbSymbolTableRecord
100
AcDbLinetypeTableRecord
  2
HIDDEN
 70
     0
  3
Hidden _ _ _ _ _ _ _ _ _ _ _ _ _ _ _ _ _ _ _ _ 
 72
    65
 73
     2
 40
9.524999999999999
 49
6.35
 74
     0
 49
-3.175
 74
     0
  0
LTYPE
  5
2496
330
4
100
AcDbSymbolTableRecord
100
AcDbLinetypeTableRecord
  2
CENTER2
 70
     0
  3
Center (.5x) ___ _ ___ _ ___ _ ___ _ ___ _ ___
 72
    65
 73
     4
 40
1.125
 49
0.75
 74
     0
 49
-0.125
 74
     0
 49
0.125
 74
     0
 49
-0.125
 74
     0
  0
LTYPE
  5
24DB
330
4
100
AcDbSymbolTableRecord
100
AcDbLinetypeTableRecord
  2
AM_DIN_F_W050
 70
     0
  3
__ __ __ __ __ __ __ __ __ __ __ __ __ __ __
 72
    65
 73
     2
 40
6.25
 49
4.75
 74
     0
 49
-1.5
 74
     0
  0
LTYPE
  5
3135
330
4
100
AcDbSymbolTableRecord
100
AcDbLinetypeTableRecord
  2
AM_DIN_G_W050
 70
     0
  3
____ . ____ . ____ . ____ . ____ . ____ . ____
 72
    65
 73
     4
 40
13.75
 49
9.75
 74
     0
 49
-1.5
 74
     0
 49
1.0
 74
     0
 49
-1.5
 74
     0
  0
LTYPE
  5
4558
330
4
100
AcDbSymbolTableRecord
100
AcDbLinetypeTableRecord
  2
CENTER
 70
     0
  3
Center ____ _ ____ _ ____ _ ____ _ ____ _ ____
 72
    65
 73
     4
 40
50.8
 49
31.75
 74
     0
 49
-6.35
 74
     0
 49
6.35
 74
     0
 49
-6.35
 74
     0
  0
LTYPE
  5
4559
330
4
100
AcDbSymbolTableRecord
100
AcDbLinetypeTableRecord
  2
DASHED
 70
     0
  3
Dashed __ __ __ __ __ __ __ __ __ __ __ __ __ _
 72
    65
 73
     2
 40
19.05
 49
12.7
 74
     0
 49
-6.35
 74
     0
  0
ENDTAB
  0
TABLE
  2
LAYER
  5
2
102
{ACAD_XDICTIONARY
360
2E1
102
}
330
0
100
AcDbSymbolTable
 70
     9
  0
LAYER
  5
14
330
2
100
AcDbSymbolTableRecord
100
AcDbLayerTableRecord
  2
0
 70
     0
 62
     7
  6
Continuous
370
    -3
390
1D
347
266
  0
LAYER
  5
4A
330
2
100
AcDbSymbolTableRecord
100
AcDbLayerTableRecord
  2
Defpoints
 70
     0
 62
     7
  6
Continuous
290
     0
370
     9
390
1D
347
266
  0
LAYER
  5
4B
330
2
100
AcDbSymbolTableRecord
100
AcDbLayerTableRecord
  2
TEMPLATE
 70
     0
 62
     4
  6
Continuous
290
     0
370
    20
390
1D
347
266
  0
LAYER
  5
4D
330
2
100
AcDbSymbolTableRecord
100
AcDbLayerTableRecord
  2
MODEL
 70
     0
 62
     7
  6
Continuous
370
    20
390
1D
347
266
  0
LAYER
  5
382
330
2
100
AcDbSymbolTableRecord
100
AcDbLayerTableRecord
  2
LOGO
 70
     0
 62
     7
  6
Continuous
370
    -3
390
1D
347
266
  0
LAYER
  5
B7A
330
2
100
AcDbSymbolTableRecord
100
AcDbLayerTableRecord
  2
DIM
 70
     0
 62
     7
  6
Continuous
370
    13
390
1D
347
266
1001
AcAecLayerStandard
1000

1000

  0
LAYER
  5
3B0F
330
2
100
AcDbSymbolTableRecord
100
AcDbLayerTableRecord
  2
_0-7_
 70
     0
 62
     7
  6
Continuous
370
    -3
390
1D
347
266
  0
LAYER
  5
4556
330
2
100
AcDbSymbolTableRecord
100
AcDbLayerTableRecord
  2
LY_1
 70
     0
 62
   254
  6
Continuous
370
    -3
390
1D
347
266
  0
LAYER
  5
95C1
330
2
100
AcDbSymbolTableRecord
100
AcDbLayerTableRecord
  2
MODEL GRAY
 70
     0
 62
   252
  6
Continuous
370
    20
390
1D
347
266
1001
AcAecLayerStandard
1000

1000

  0
ENDTAB
  0
TABLE
  2
STYLE
  5
3
330
0
100
AcDbSymbolTable
 70
     3
  0
STYLE
  5
17
330
3
100
AcDbSymbolTableRecord
100
AcDbTextStyleTableRecord
  2
Standard
 70
     0
 40
0.0
 41
1.0
 50
0.0
 71
     0
 42
533.0403732820173
  3
txt
  4
BIGFONT.SHX
  0
STYLE
  5
39
330
3
100
AcDbSymbolTableRecord
100
AcDbTextStyleTableRecord
  2
ＭＳ ゴシック
 70
     0
 40
0.0
 41
1.0
 50
0.0
 71
     0
 42
533.0403732820173
  3
msgothic.ttc
  4
ＭＳ ゴシック
1001
ACAD
1000
ＭＳ ゴシック
1071
        0
  0
STYLE
  5
455B
330
3
100
AcDbSymbolTableRecord
100
AcDbTextStyleTableRecord
  2
MX_NOTE_STANDARD
 70
     0
 40
0.0
 41
1.0
 50
0.0
 71
     0
 42
533.0403732820173
  3
txt.shx
  4
extfont.shx
  0
ENDTAB
  0
TABLE
  2
VIEW
  5
5
330
0
100
AcDbSymbolTable
 70
     0
  0
ENDTAB
  0
TABLE
  2
UCS
  5
6
330
0
100
AcDbSymbolTable
 70
     0
  0
ENDTAB
  0
TABLE
  2
APPID
  5
8
330
0
100
AcDbSymbolTable
 70
    13
  0
APPID
  5
16
330
8
100
AcDbSymbolTableRecord
100
AcDbRegAppTableRecord
  2
ACAD
 70
     0
  0
APPID
  5
5C5
330
8
100
AcDbSymbolTableRecord
100
AcDbRegAppTableRecord
  2
AcAecLayerStandard
 70
     0
  0
APPID
  5
694
330
8
100
AcDbSymbolTableRecord
100
AcDbRegAppTableRecord
  2
ACAD_DSTYLE_DIMJAG
 70
     0
  0
APPID
  5
695
330
8
100
AcDbSymbolTableRecord
100
AcDbRegAppTableRecord
  2
ACAD_DSTYLE_DIMTALN
 70
     0
  0
APPID
  5
69A
330
8
100
AcDbSymbolTableRecord
100
AcDbRegAppTableRecord
  2
ACAD_PSEXT
 70
     0
  0
APPID
  5
2499
330
8
100
AcDbSymbolTableRecord
100
AcDbRegAppTableRecord
  2
GENIUS_GENODEF_13
 70
     0
  0
APPID
  5
249A
330
8
100
AcDbSymbolTableRecord
100
AcDbRegAppTableRecord
  2
GENIUS_GENOBJ-N-FIL_13
 70
     0
  0
APPID
  5
249C
330
8
100
AcDbSymbolTableRecord
100
AcDbRegAppTableRecord
  2
AECBASE
 70
     0
  0
APPID
  5
249D
330
8
100
AcDbSymbolTableRecord
100
AcDbRegAppTableRecord
  2
AEC_2DSECTION_XDATA
 70
     0
  0
APPID
  5
249E
330
8
100
AcDbSymbolTableRecord
100
AcDbRegAppTableRecord
  2
AEC_MASSGROUP_XDADA
 70
     0
  0
APPID
  5
6EA7
330
8
100
AcDbSymbolTableRecord
100
AcDbRegAppTableRecord
  2
GENIUS_GENREC_14
 70
     0
  0
APPID
  5
6EA8
330
8
100
AcDbSymbolTableRecord
100
AcDbRegAppTableRecord
  2
GENIUS_GENOBJ-N-REC_13
 70
     0
  0
APPID
  5
9920
330
8
100
AcDbSymbolTableRecord
100
AcDbRegAppTableRecord
  2
ACAD_MLEADERVER
 70
     0
  0
ENDTAB
  0
TABLE
  2
DIMSTYLE
  5
9
330
0
100
AcDbSymbolTable
 70
     2
100
AcDbDimStyleTable
  0
DIMSTYLE
105
18
330
9
100
AcDbSymbolTableRecord
100
AcDbDimStyleTableRecord
  2
Standard
 70
     0
178
     0
340
17
  0
DIMSTYLE
105
5C
102
{ACAD_REACTORS
330
90A5
330
90D7
330
90E6
330
90FF
330
9101
330
9103
330
9343
330
9353
330
9362
330
938D
330
9904
102
}
330
9
100
AcDbSymbolTableRecord
100
AcDbDimStyleTableRecord
  2
JIS
 70
     0
  3
<>
  4
[]
 41
9.0
 42
0.0
 43
6.99999999999994
 44
19.9999999999962
 73
     0
 74
     0
 77
     1
 78
    11
140
24.4326171875
141
0.0
143
1.0
147
10.0
171
     1
174
     1
178
     0
179
     2
271
     1
272
     1
276
     2
284
    11
285
    11
286
    11
289
     0
340
39
341
4E
342
4E
  0
ENDTAB
  0
TABLE
  2
BLOCK_RECORD
  5
1
330
0
100
AcDbSymbolTable
 70
    19
  0
BLOCK_RECORD
  5
A
330
1
100
AcDbSymbolTableRecord
100
AcDbBlockTableRecord
  2
*MODEL_SPACE
340
20
 70
     0
280
     1
281
     0
  0
BLOCK_RECORD
  5
B
330
1
100
AcDbSymbolTableRecord
100
AcDbBlockTableRecord
  2
*PAPER_SPACE
340
21
 70
     0
280
     1
281
     0
  0
BLOCK_RECORD
  5
4E
330
1
100
AcDbSymbolTableRecord
100
AcDbBlockTableRecord
  2
_DOT
340
0
102
{BLKREFS
331
90AC
331
90AD
331
90E0
331
90E1
331
90EF
331
90F0
331
910C
331
910D
331
9118
331
9119
331
9124
331
9125
331
934A
331
934B
331
935C
331
935D
331
936B
331
936C
331
9394
331
9395
331
990E
331
990D
102
}
 70
     0
280
     1
281
     0
  0
BLOCK_RECORD
  5
3A5
330
1
100
AcDbSymbolTableRecord
100
AcDbBlockTableRecord
  2
名称未設定-1
340
0
102
{BLKREFS
331
7BC0
102
}
 70
     1
280
     1
281
     0
  0
BLOCK_RECORD
  5
3A8
330
1
100
AcDbSymbolTableRecord
100
AcDbBlockTableRecord
  2
block 2
340
0
102
{BLKREFS
331
3A7
102
}
 70
     0
280
     1
281
     0
  0
BLOCK_RECORD
  5
3AB
330
1
100
AcDbSymbolTableRecord
100
AcDbBlockTableRecord
  2
block 3
340
0
102
{BLKREFS
331
3AA
102
}
 70
     0
280
     1
281
     0
  0
BLOCK_RECORD
  5
3AE
330
1
100
AcDbSymbolTableRecord
100
AcDbBlockTableRecord
  2
block 4
340
0
102
{BLKREFS
331
3AD
102
}
 70
     0
280
     1
281
     0
  0
BLOCK_RECORD
  5
3BD
330
1
100
AcDbSymbolTableRecord
100
AcDbBlockTableRecord
  2
block 5
340
0
102
{BLKREFS
331
3BC
102
}
 70
     0
280
     1
281
     0
  0
BLOCK_RECORD
  5
455C
330
1
100
AcDbSymbolTableRecord
100
AcDbBlockTableRecord
  2
_OPEN30
340
0
 70
     0
280
     1
281
     0
  0
BLOCK_RECORD
  5
7148
330
1
100
AcDbSymbolTableRecord
100
AcDbBlockTableRecord
  2
12313
340
0
 70
     4
280
     1
281
     0
  0
BLOCK_RECORD
  5
90A6
330
1
100
AcDbSymbolTableRecord
100
AcDbBlockTableRecord
  2
*D8
340
0
 70
     0
280
     1
281
     0
  0
BLOCK_RECORD
  5
90DA
330
1
100
AcDbSymbolTableRecord
100
AcDbBlockTableRecord
  2
*D9
340
0
 70
     0
280
     1
281
     0
  0
BLOCK_RECORD
  5
90E9
330
1
100
AcDbSymbolTableRecord
100
AcDbBlockTableRecord
  2
*D10
340
0
 70
     0
280
     1
281
     0
  0
BLOCK_RECORD
  5
9106
330
1
100
AcDbSymbolTableRecord
100
AcDbBlockTableRecord
  2
*D11
340
0
 70
     0
280
     1
281
     0
  0
BLOCK_RECORD
  5
9112
330
1
100
AcDbSymbolTableRecord
100
AcDbBlockTableRecord
  2
*D12
340
0
 70
     0
280
     1
281
     0
  0
BLOCK_RECORD
  5
911E
330
1
100
AcDbSymbolTableRecord
100
AcDbBlockTableRecord
  2
*D13
340
0
 70
     0
280
     1
281
     0
  0
BLOCK_RECORD
  5
9344
330
1
100
AcDbSymbolTableRecord
100
AcDbBlockTableRecord
  2
*D14
340
0
 70
     0
280
     1
281
     0
  0
BLOCK_RECORD
  5
9356
330
1
100
AcDbSymbolTableRecord
100
AcDbBlockTableRecord
  2
*D15
340
0
 70
     0
280
     1
281
     0
  0
BLOCK_RECORD
  5
9365
330
1
100
AcDbSymbolTableRecord
100
AcDbBlockTableRecord
  2
*D16
340
0
 70
     0
280
     1
281
     0
  0
BLOCK_RECORD
  5
938E
330
1
100
AcDbSymbolTableRecord
100
AcDbBlockTableRecord
  2
*D17
340
0
 70
     0
280
     1
281
     0
  0
BLOCK_RECORD
  5
9907
330
1
100
AcDbSymbolTableRecord
100
AcDbBlockTableRecord
  2
*D18
340
0
 70
     0
280
     1
281
     0
  0
ENDTAB
  0
ENDSEC
  0
SECTION
  2
BLOCKS
  0
BLOCK
  5
D
330
A
100
AcDbEntity
  8
0
390
1D
100
AcDbBlockBegin
  2
*MODEL_SPACE
 70
     0
 10
0.0
 20
0.0
 30
0.0
  3
*MODEL_SPACE
  1
*MODEL_SPACE
  0
ENDBLK
  5
E
330
A
100
AcDbEntity
  8
0
390
1D
100
AcDbBlockEnd
  0
BLOCK
  5
F
330
B
100
AcDbEntity
 67
     1
  8
0
390
1D
100
AcDbBlockBegin
  2
*PAPER_SPACE
 70
     0
 10
0.0
 20
0.0
 30
0.0
  3
*PAPER_SPACE
  1
*PAPER_SPACE
  0
ENDBLK
  5
10
330
B
100
AcDbEntity
 67
     1
  8
0
390
1D
100
AcDbBlockEnd
  0
BLOCK
  5
E45
330
4E
100
AcDbEntity
  8
0
390
1D
100
AcDbBlockBegin
  2
_DOT
 70
     0
 10
0.0
 20
0.0
 30
0.0
  3
_DOT
  1
_DOT
  0
POLYLINE
  5
E47
330
4E
100
AcDbEntity
  8
0
  6
ByBlock
 62
     0
370
    -2
390
1D
100
AcDb2dPolyline
 66
     1
 10
0.0
 20
0.0
 30
0.0
 70
     1
 40
0.5
 41
0.5
  0
VERTEX
  5
E48
330
E47
100
AcDbEntity
  8
0
  6
ByBlock
 62
     0
370
    -2
390
1D
100
AcDbVertex
100
AcDb2dVertex
 10
-0.25
 20
0.0
 30
0.0
 42
1.0
  0
VERTEX
  5
E49
330
E47
100
AcDbEntity
  8
0
  6
ByBlock
 62
     0
370
    -2
390
1D
100
AcDbVertex
100
AcDb2dVertex
 10
0.25
 20
0.0
 30
0.0
 42
1.0
  0
SEQEND
  5
E4A
330
E47
100
AcDbEntity
  8
0
390
1D
  0
LINE
  5
E4B
330
4E
100
AcDbEntity
  8
0
  6
ByBlock
 62
     0
370
    -2
390
1D
100
AcDbLine
 10
-0.5
 20
0.0
 30
0.0
 11
-1.0
 21
0.0
 31
0.0
  0
ENDBLK
  5
E4C
330
4E
100
AcDbEntity
  8
0
390
1D
100
AcDbBlockEnd
  0
BLOCK
  5
3A6
330
3A5
100
AcDbEntity
  8
0
100
AcDbBlockBegin
  2
名称未設定-1
 70
     0
 10
0.0
 20
0.0
 30
0.0
  3
名称未設定-1
  1
名称未設定-1
  0
INSERT
  5
3A7
330
3A5
100
AcDbEntity
  8
LOGO
100
AcDbBlockReference
  2
block 2
 10
0.0
 20
0.0
 30
0.0
  0
ENDBLK
  5
3CC
330
3A5
100
AcDbEntity
  8
0
100
AcDbBlockEnd
  0
BLOCK
  5
3A9
330
3A8
100
AcDbEntity
  8
0
100
AcDbBlockBegin
  2
block 2
 70
     0
 10
0.0
 20
0.0
 30
0.0
  3
block 2
  1
block 2
  0
INSERT
  5
3AA
330
3A8
100
AcDbEntity
  8
LOGO
100
AcDbBlockReference
  2
block 3
 10
0.0
 20
0.0
 30
0.0
  0
ENDBLK
  5
3CB
330
3A8
100
AcDbEntity
  8
0
100
AcDbBlockEnd
  0
BLOCK
  5
3AC
330
3AB
100
AcDbEntity
  8
0
100
AcDbBlockBegin
  2
block 3
 70
     0
 10
0.0
 20
0.0
 30
0.0
  3
block 3
  1
block 3
  0
INSERT
  5
3AD
330
3AB
100
AcDbEntity
  8
LOGO
100
AcDbBlockReference
  2
block 4
 10
0.0
 20
0.0
 30
0.0
  0
ENDBLK
  5
3CA
330
3AB
100
AcDbEntity
  8
0
100
AcDbBlockEnd
  0
BLOCK
  5
3AF
330
3AE
100
AcDbEntity
  8
0
100
AcDbBlockBegin
  2
block 4
 70
     0
 10
0.0
 20
0.0
 30
0.0
  3
block 4
  1
block 4
  0
POLYLINE
  5
3B0
330
3AE
100
AcDbEntity
  8
LOGO
370
     0
100
AcDb2dPolyline
 66
     1
 10
0.0
 20
0.0
 30
0.0
  0
VERTEX
  5
3B1
330
3B0
100
AcDbEntity
  8
LOGO
370
     0
100
AcDbVertex
100
AcDb2dVertex
 10
83.79545727667795
 20
167.6444858234922
 30
0.0
  0
VERTEX
  5
3B2
330
3B0
100
AcDbEntity
  8
LOGO
370
     0
100
AcDbVertex
100
AcDb2dVertex
 10
83.79545727667795
 20
159.7968976406313
 30
0.0
  0
VERTEX
  5
3B3
330
3B0
100
AcDbEntity
  8
LOGO
370
     0
100
AcDbVertex
100
AcDb2dVertex
 10
71.3631329975216
 20
159.7968976406313
 30
0.0
  0
VERTEX
  5
3B4
330
3B0
100
AcDbEntity
  8
LOGO
370
     0
100
AcDbVertex
100
AcDb2dVertex
 10
71.3631329975216
 20
127.8027915271048
 30
0.0
  0
VERTEX
  5
3B5
330
3B0
100
AcDbEntity
  8
LOGO
370
     0
100
AcDbVertex
100
AcDb2dVertex
 10
60.43011526263018
 20
127.8027915271048
 30
0.0
  0
VERTEX
  5
3B6
330
3B0
100
AcDbEntity
  8
LOGO
370
     0
100
AcDbVertex
100
AcDb2dVertex
 10
60.43011526263018
 20
159.7968976406313
 30
0.0
  0
VERTEX
  5
3B7
330
3B0
100
AcDbEntity
  8
LOGO
370
     0
100
AcDbVertex
100
AcDb2dVertex
 10
48.21793273020759
 20
159.7968976406313
 30
0.0
  0
VERTEX
  5
3B8
330
3B0
100
AcDbEntity
  8
LOGO
370
     0
100
AcDbVertex
100
AcDb2dVertex
 10
48.21793273020759
 20
167.6444858234922
 30
0.0
  0
VERTEX
  5
3B9
330
3B0
100
AcDbEntity
  8
LOGO
370
     0
100
AcDbVertex
100
AcDb2dVertex
 10
83.79545727667795
 20
167.6444858234922
 30
0.0
  0
SEQEND
  5
3BA
330
3B0
100
AcDbEntity
  8
LOGO
370
     0
  0
HATCH
  5
3BB
330
3AE
100
AcDbEntity
  8
LOGO
 62
   250
420
  2234388
100
AcDbHatch
 10
0.0
 20
0.0
 30
0.0
210
0.0
220
0.0
230
1.0
  2
SOLID
 70
     1
 71
     0
 91
        1
 92
        1
 93
        8
 72
     1
 10
83.79545727667795
 20
167.6444858234922
 11
83.79545727667795
 21
159.7968976406313
 72
     1
 10
83.79545727667795
 20
159.7968976406313
 11
71.3631329975216
 21
159.7968976406313
 72
     1
 10
71.3631329975216
 20
159.7968976406313
 11
71.3631329975216
 21
127.8027915271048
 72
     1
 10
71.3631329975216
 20
127.8027915271048
 11
60.43011526263018
 21
127.8027915271048
 72
     1
 10
60.43011526263018
 20
127.8027915271048
 11
60.43011526263018
 21
159.7968976406313
 72
     1
 10
60.43011526263018
 20
159.7968976406313
 11
48.21793273020759
 21
159.7968976406313
 72
     1
 10
48.21793273020759
 20
159.7968976406313
 11
48.21793273020759
 21
167.6444858234922
 72
     1
 10
48.21793273020759
 20
167.6444858234922
 11
83.79545727667795
 21
167.6444858234922
 97
        0
 75
     2
 76
     1
 98
        0
  0
INSERT
  5
3BC
330
3AE
100
AcDbEntity
  8
LOGO
100
AcDbBlockReference
  2
block 5
 10
0.0
 20
0.0
 30
0.0
  0
ENDBLK
  5
3C9
330
3AE
100
AcDbEntity
  8
0
100
AcDbBlockEnd
  0
BLOCK
  5
3BE
330
3BD
100
AcDbEntity
  8
0
100
AcDbBlockBegin
  2
block 5
 70
     0
 10
0.0
 20
0.0
 30
0.0
  3
block 5
  1
block 5
  0
SPLINE
  5
3BF
330
3BD
100
AcDbEntity
  8
LOGO
370
     0
100
AcDbSpline
210
0.0
220
0.0
230
1.0
 70
    11
 71
     3
 72
    56
 73
    52
 74
     0
 42
0.000000001
 43
0.0000000001
 40
0.0
 40
0.0
 40
0.0
 40
0.0
 40
1.0
 40
1.0
 40
1.0
 40
2.0
 40
2.0
 40
2.0
 40
3.0
 40
3.0
 40
3.0
 40
4.0
 40
4.0
 40
4.0
 40
5.0
 40
5.0
 40
5.0
 40
6.0
 40
6.0
 40
6.0
 40
7.0
 40
7.0
 40
7.0
 40
8.0
 40
8.0
 40
8.0
 40
9.0
 40
9.0
 40
9.0
 40
10.0
 40
10.0
 40
10.0
 40
11.0
 40
11.0
 40
11.0
 40
12.0
 40
12.0
 40
12.0
 40
13.0
 40
13.0
 40
13.0
 40
14.0
 40
14.0
 40
14.0
 40
15.0
 40
15.0
 40
15.0
 40
16.0
 40
16.0
 40
16.0
 40
17.0
 40
17.0
 40
17.0
 40
17.0
 10
100.4504378777679
 20
166.69157178364
 30
0.0
 10
101.9848844191641
 20
167.1313385124438
 30
0.0
 10
103.9637485713373
 20
166.7649523658846
 30
0.0
 10
103.9637485713373
 20
166.7649523658846
 30
0.0
 10
103.9637485713373
 20
166.7649523658846
 30
0.0
 10
103.0132460999156
 20
163.911205638077
 30
0.0
 10
103.0132460999156
 20
163.911205638077
 30
0.0
 10
103.0132460999156
 20
163.911205638077
 30
0.0
 10
101.0674548862189
 20
164.3601018759394
 30
0.0
 10
99.57090442016032
 20
163.1805004036133
 30
0.0
 10
98.40508333886608
 20
162.258247733807
 30
0.0
 10
97.65301849830304
 20
159.804132345923
 30
0.0
 10
97.3598406791005
 20
158.8699940888517
 30
0.0
 10
97.3598406791005
 20
158.8699940888517
 30
0.0
 10
96.07137411762282
 20
154.9119212747295
 30
0.0
 10
96.07137411762282
 20
154.9119212747295
 30
0.0
 10
96.07137411762282
 20
154.9119212747295
 30
0.0
 10
100.3012651448482
 20
154.9119212747295
 30
0.0
 10
100.3012651448482
 20
154.9119212747295
 30
0.0
 10
100.3012651448482
 20
154.9119212747295
 30
0.0
 10
99.64152892419852
 20
152.4199098115079
 30
0.0
 10
99.64152892419852
 20
152.4199098115079
 30
0.0
 10
99.64152892419852
 20
152.4199098115079
 30
0.0
 10
95.38097652692731
 20
152.4199098115079
 30
0.0
 10
95.38097652692731
 20
152.4199098115079
 30
0.0
 10
95.38097652692731
 20
152.4199098115079
 30
0.0
 10
87.75353009080013
 20
127.8027915271048
 30
0.0
 10
87.75353009080013
 20
127.8027915271048
 30
0.0
 10
87.75353009080013
 20
127.8027915271048
 30
0.0
 10
85.36538832498108
 20
127.8027915271048
 30
0.0
 10
85.36538832498108
 20
127.8027915271048
 30
0.0
 10
85.36538832498108
 20
127.8027915271048
 30
0.0
 10
93.00006946639998
 20
152.4199098115079
 30
0.0
 10
93.00006946639998
 20
152.4199098115079
 30
0.0
 10
93.00006946639998
 20
152.4199098115079
 30
0.0
 10
89.85297266450198
 20
152.4199098115079
 30
0.0
 10
89.85297266450198
 20
152.4199098115079
 30
0.0
 10
89.85297266450198
 20
152.4199098115079
 30
0.0
 10
90.51270888515164
 20
154.9119212747295
 30
0.0
 10
90.51270888515164
 20
154.9119212747295
 30
0.0
 10
90.51270888515164
 20
154.9119212747295
 30
0.0
 10
93.6904670570955
 20
154.9119212747295
 30
0.0
 10
93.6904670570955
 20
154.9119212747295
 30
0.0
 10
93.6904670570955
 20
154.9119212747295
 30
0.0
 10
94.81598049462158
 20
158.3616699146644
 30
0.0
 10
94.81598049462158
 20
158.3616699146644
 30
0.0
 10
95.7237637538445
 20
161.2605474231013
 30
0.0
 10
96.4968436907311
 20
162.8139420021662
 30
0.0
 10
97.15657991138076
 20
163.9844139654337
 30
0.0
 10
97.81183750494507
 20
165.1523021053827
 30
0.0
 10
99.1047826935081
 20
166.3084769129547
 30
0.0
 10
100.4504378777679
 20
166.69157178364
 30
0.0
  0
HATCH
  5
3C0
330
3BD
100
AcDbEntity
  8
LOGO
 62
   250
420
  2234388
100
AcDbHatch
 10
0.0
 20
0.0
 30
0.0
210
0.0
220
0.0
230
1.0
  2
SOLID
 70
     1
 71
     0
 91
        1
 92
        1
 93
        1
 72
     4
 94
        3
 73
     0
 74
     1
 95
       56
 96
       52
 40
0.0
 40
0.0
 40
0.0
 40
0.0
 40
1.0
 40
1.0
 40
1.0
 40
2.0
 40
2.0
 40
2.0
 40
3.0
 40
3.0
 40
3.0
 40
4.0
 40
4.0
 40
4.0
 40
5.0
 40
5.0
 40
5.0
 40
6.0
 40
6.0
 40
6.0
 40
7.0
 40
7.0
 40
7.0
 40
8.0
 40
8.0
 40
8.0
 40
9.0
 40
9.0
 40
9.0
 40
10.0
 40
10.0
 40
10.0
 40
11.0
 40
11.0
 40
11.0
 40
12.0
 40
12.0
 40
12.0
 40
13.0
 40
13.0
 40
13.0
 40
14.0
 40
14.0
 40
14.0
 40
15.0
 40
15.0
 40
15.0
 40
16.0
 40
16.0
 40
16.0
 40
17.0
 40
17.0
 40
17.0
 40
17.0
 10
100.4504378777679
 20
166.69157178364
 10
101.9848844191641
 20
167.1313385124438
 10
103.9637485713373
 20
166.7649523658846
 10
103.9637485713373
 20
166.7649523658846
 10
103.9637485713373
 20
166.7649523658846
 10
103.0132460999156
 20
163.911205638077
 10
103.0132460999156
 20
163.911205638077
 10
103.0132460999156
 20
163.911205638077
 10
101.0674548862189
 20
164.3601018759394
 10
99.57090442016032
 20
163.1805004036133
 10
98.40508333886608
 20
162.258247733807
 10
97.65301849830304
 20
159.804132345923
 10
97.3598406791005
 20
158.8699940888517
 10
97.3598406791005
 20
158.8699940888517
 10
96.07137411762282
 20
154.9119212747295
 10
96.07137411762282
 20
154.9119212747295
 10
96.07137411762282
 20
154.9119212747295
 10
100.3012651448482
 20
154.9119212747295
 10
100.3012651448482
 20
154.9119212747295
 10
100.3012651448482
 20
154.9119212747295
 10
99.64152892419852
 20
152.4199098115079
 10
99.64152892419852
 20
152.4199098115079
 10
99.64152892419852
 20
152.4199098115079
 10
95.38097652692731
 20
152.4199098115079
 10
95.38097652692731
 20
152.4199098115079
 10
95.38097652692731
 20
152.4199098115079
 10
87.75353009080013
 20
127.8027915271048
 10
87.75353009080013
 20
127.8027915271048
 10
87.75353009080013
 20
127.8027915271048
 10
85.36538832498108
 20
127.8027915271048
 10
85.36538832498108
 20
127.8027915271048
 10
85.36538832498108
 20
127.8027915271048
 10
93.00006946639998
 20
152.4199098115079
 10
93.00006946639998
 20
152.4199098115079
 10
93.00006946639998
 20
152.4199098115079
 10
89.85297266450198
 20
152.4199098115079
 10
89.85297266450198
 20
152.4199098115079
 10
89.85297266450198
 20
152.4199098115079
 10
90.51270888515164
 20
154.9119212747295
 10
90.51270888515164
 20
154.9119212747295
 10
90.51270888515164
 20
154.9119212747295
 10
93.6904670570955
 20
154.9119212747295
 10
93.6904670570955
 20
154.9119212747295
 10
93.6904670570955
 20
154.9119212747295
 10
94.81598049462158
 20
158.3616699146644
 10
94.81598049462158
 20
158.3616699146644
 10
95.7237637538445
 20
161.2605474231013
 10
96.4968436907311
 20
162.8139420021662
 10
97.15657991138076
 20
163.9844139654337
 10
97.81183750494507
 20
165.1523021053827
 10
99.1047826935081
 20
166.3084769129547
 10
100.4504378777679
 20
166.69157178364
 97
        0
 75
     2
 76
     1
 98
        0
  0
SPLINE
  5
3C1
330
3BD
100
AcDbEntity
  8
LOGO
370
     0
100
AcDbSpline
210
0.0
220
0.0
230
1.0
 70
    11
 71
     3
 72
    38
 73
    34
 74
     0
 42
0.000000001
 43
0.0000000001
 40
0.0
 40
0.0
 40
0.0
 40
0.0
 40
1.0
 40
1.0
 40
1.0
 40
2.0
 40
2.0
 40
2.0
 40
3.0
 40
3.0
 40
3.0
 40
4.0
 40
4.0
 40
4.0
 40
5.0
 40
5.0
 40
5.0
 40
6.0
 40
6.0
 40
6.0
 40
7.0
 40
7.0
 40
7.0
 40
8.0
 40
8.0
 40
8.0
 40
9.0
 40
9.0
 40
9.0
 40
10.0
 40
10.0
 40
10.0
 40
11.0
 40
11.0
 40
11.0
 40
11.0
 10
126.377554584636
 20
154.8151140277308
 30
0.0
 10
126.377554584636
 20
154.8151140277308
 30
0.0
 10
128.8311532078563
 20
154.8151140277308
 30
0.0
 10
128.8311532078563
 20
154.8151140277308
 30
0.0
 10
128.8311532078563
 20
154.8151140277308
 30
0.0
 10
127.7345785914971
 20
151.3062819612468
 30
0.0
 10
127.7345785914971
 20
151.3062819612468
 30
0.0
 10
128.571392836906
 20
152.2922689395754
 30
0.0
 10
129.8860421413442
 20
153.604506675583
 30
0.0
 10
131.0163787157314
 20
154.2664822097754
 30
0.0
 10
132.7044766171327
 20
155.2500576196734
 30
0.0
 10
133.6642808525008
 20
155.3847609420097
 30
0.0
 10
134.7284715499351
 20
155.3565111403944
 30
0.0
 10
134.7284715499351
 20
155.3565111403944
 30
0.0
 10
133.6877075172549
 20
152.0345756272799
 30
0.0
 10
133.6877075172549
 20
152.0345756272799
 30
0.0
 10
133.011434827367
 20
152.3184516825359
 30
0.0
 10
130.930940291334
 20
151.7768823149844
 30
0.0
 10
129.739280976855
 20
150.9162968950455
 30
0.0
 10
128.66613302525
 20
150.1454562717016
 30
0.0
 10
127.9192358313239
 20
149.4857200510519
 30
0.0
 10
127.0393578639405
 20
147.8282835196966
 30
0.0
 10
126.164647543194
 20
146.1699857139017
 30
0.0
 10
125.4742499524985
 20
143.5262176944419
 30
0.0
 10
124.2822461282437
 20
139.6959580071401
 30
0.0
 10
124.2822461282437
 20
139.6959580071401
 30
0.0
 10
120.5753209406769
 20
127.8027915271048
 30
0.0
 10
120.5753209406769
 20
127.8027915271048
 30
0.0
 10
120.5753209406769
 20
127.8027915271048
 30
0.0
 10
118.1964809388044
 20
127.8027915271048
 30
0.0
 10
118.1964809388044
 20
127.8027915271048
 30
0.0
 10
118.1964809388044
 20
127.8027915271048
 30
0.0
 10
126.377554584636
 20
154.8151140277308
 30
0.0
 10
126.377554584636
 20
154.8151140277308
 30
0.0
  0
HATCH
  5
3C2
330
3BD
100
AcDbEntity
  8
LOGO
 62
   250
420
  2234388
100
AcDbHatch
 10
0.0
 20
0.0
 30
0.0
210
0.0
220
0.0
230
1.0
  2
SOLID
 70
     1
 71
     0
 91
        1
 92
        1
 93
        1
 72
     4
 94
        3
 73
     0
 74
     1
 95
       38
 96
       34
 40
0.0
 40
0.0
 40
0.0
 40
0.0
 40
1.0
 40
1.0
 40
1.0
 40
2.0
 40
2.0
 40
2.0
 40
3.0
 40
3.0
 40
3.0
 40
4.0
 40
4.0
 40
4.0
 40
5.0
 40
5.0
 40
5.0
 40
6.0
 40
6.0
 40
6.0
 40
7.0
 40
7.0
 40
7.0
 40
8.0
 40
8.0
 40
8.0
 40
9.0
 40
9.0
 40
9.0
 40
10.0
 40
10.0
 40
10.0
 40
11.0
 40
11.0
 40
11.0
 40
11.0
 10
126.377554584636
 20
154.8151140277308
 10
126.377554584636
 20
154.8151140277308
 10
128.8311532078563
 20
154.8151140277308
 10
128.8311532078563
 20
154.8151140277308
 10
128.8311532078563
 20
154.8151140277308
 10
127.7345785914971
 20
151.3062819612468
 10
127.7345785914971
 20
151.3062819612468
 10
128.571392836906
 20
152.2922689395754
 10
129.8860421413442
 20
153.604506675583
 10
131.0163787157314
 20
154.2664822097754
 10
132.7044766171327
 20
155.2500576196734
 10
133.6642808525008
 20
155.3847609420097
 10
134.7284715499351
 20
155.3565111403944
 10
134.7284715499351
 20
155.3565111403944
 10
133.6877075172549
 20
152.0345756272799
 10
133.6877075172549
 20
152.0345756272799
 10
133.011434827367
 20
152.3184516825359
 10
130.930940291334
 20
151.7768823149844
 10
129.739280976855
 20
150.9162968950455
 10
128.66613302525
 20
150.1454562717016
 10
127.9192358313239
 20
149.4857200510519
 10
127.0393578639405
 20
147.8282835196966
 10
126.164647543194
 20
146.1699857139017
 10
125.4742499524985
 20
143.5262176944419
 10
124.2822461282437
 20
139.6959580071401
 10
124.2822461282437
 20
139.6959580071401
 10
120.5753209406769
 20
127.8027915271048
 10
120.5753209406769
 20
127.8027915271048
 10
120.5753209406769
 20
127.8027915271048
 10
118.1964809388044
 20
127.8027915271048
 10
118.1964809388044
 20
127.8027915271048
 10
118.1964809388044
 20
127.8027915271048
 10
126.377554584636
 20
154.8151140277308
 10
126.377554584636
 20
154.8151140277308
 97
        0
 75
     2
 76
     1
 98
        0
  0
SPLINE
  5
3C3
330
3BD
100
AcDbEntity
  8
LOGO
370
     0
100
AcDbSpline
210
0.0
220
0.0
230
1.0
 70
    11
 71
     3
 72
   104
 73
   100
 74
     0
 42
0.000000001
 43
0.0000000001
 40
0.0
 40
0.0
 40
0.0
 40
0.0
 40
1.0
 40
1.0
 40
1.0
 40
2.0
 40
2.0
 40
2.0
 40
3.0
 40
3.0
 40
3.0
 40
4.0
 40
4.0
 40
4.0
 40
5.0
 40
5.0
 40
5.0
 40
6.0
 40
6.0
 40
6.0
 40
7.0
 40
7.0
 40
7.0
 40
8.0
 40
8.0
 40
8.0
 40
9.0
 40
9.0
 40
9.0
 40
10.0
 40
10.0
 40
10.0
 40
11.0
 40
11.0
 40
11.0
 40
12.0
 40
12.0
 40
12.0
 40
13.0
 40
13.0
 40
13.0
 40
14.0
 40
14.0
 40
14.0
 40
15.0
 40
15.0
 40
15.0
 40
16.0
 40
16.0
 40
16.0
 40
17.0
 40
17.0
 40
17.0
 40
18.0
 40
18.0
 40
18.0
 40
19.0
 40
19.0
 40
19.0
 40
20.0
 40
20.0
 40
20.0
 40
21.0
 40
21.0
 40
21.0
 40
22.0
 40
22.0
 40
22.0
 40
23.0
 40
23.0
 40
23.0
 40
24.0
 40
24.0
 40
24.0
 40
25.0
 40
25.0
 40
25.0
 40
26.0
 40
26.0
 40
26.0
 40
27.0
 40
27.0
 40
27.0
 40
28.0
 40
28.0
 40
28.0
 40
29.0
 40
29.0
 40
29.0
 40
30.0
 40
30.0
 40
30.0
 40
31.0
 40
31.0
 40
31.0
 40
32.0
 40
32.0
 40
32.0
 40
33.0
 40
33.0
 40
33.0
 40
33.0
 10
139.8926730891197
 20
154.8294111834263
 30
0.0
 10
139.8926730891197
 20
154.8294111834263
 30
0.0
 10
142.0344903652445
 20
154.8294111834263
 30
0.0
 10
142.0344903652445
 20
154.8294111834263
 30
0.0
 10
142.0344903652445
 20
154.8294111834263
 30
0.0
 10
140.9516961399171
 20
151.3157559800812
 30
0.0
 10
140.9516961399171
 20
151.3157559800812
 30
0.0
 10
141.8928968473923
 20
152.7887075264977
 30
0.0
 10
142.7341897198865
 20
153.4484437471474
 30
0.0
 10
143.8552245303272
 20
154.2926649527359
 30
0.0
 10
144.9803934580775
 20
155.1296514530327
 30
0.0
 10
146.3139908001845
 20
155.3044901642492
 30
0.0
 10
147.241066606852
 20
155.3044901642492
 30
0.0
 10
148.3855280820469
 20
155.3044901642492
 30
0.0
 10
149.4969166187653
 20
155.0752189084569
 30
0.0
 10
150.0784491203092
 20
153.8172414621372
 30
0.0
 10
150.5228667310863
 20
152.833838307127
 30
0.0
 10
150.5414702589793
 20
152.7201500811143
 30
0.0
 10
150.4140016419347
 20
150.7765981809602
 30
0.0
 10
151.5818897818837
 20
152.7699317437168
 30
0.0
 10
152.4424752018226
 20
153.6256940267945
 30
0.0
 10
153.9038856707499
 20
154.4507949398263
 30
0.0
 10
155.4455669174378
 20
155.3044901642492
 30
0.0
 10
156.339225275853
 20
155.3659851592288
 30
0.0
 10
157.3748216618963
 20
155.2147453676543
 30
0.0
 10
158.911679771723
 20
154.9877134254046
 30
0.0
 10
159.8859534176746
 20
154.4390816074493
 30
0.0
 10
160.3965169054045
 20
152.7816450760939
 30
0.0
 10
160.9070803931344
 20
151.1219692311958
 30
0.0
 10
160.6328506116007
 20
150.2303779314354
 30
0.0
 10
159.9992971339115
 20
147.597634224801
 30
0.0
 10
159.7105979417943
 20
146.4014962832367
 30
0.0
 10
159.2947746424084
 20
144.9400858143094
 30
0.0
 10
158.7463150793409
 20
143.2092687007094
 30
0.0
 10
158.7463150793409
 20
143.2092687007094
 30
0.0
 10
153.9038856707499
 20
127.8027915271048
 30
0.0
 10
153.9038856707499
 20
127.8027915271048
 30
0.0
 10
153.9038856707499
 20
127.8027915271048
 30
0.0
 10
151.3882752878863
 20
127.8027915271048
 30
0.0
 10
151.3882752878863
 20
127.8027915271048
 30
0.0
 10
151.3882752878863
 20
127.8027915271048
 30
0.0
 10
155.6250565106276
 20
141.2751908193897
 30
0.0
 10
155.6250565106276
 20
141.2751908193897
 30
0.0
 10
156.5094131050963
 20
144.0936252951782
 30
0.0
 10
157.109893644309
 20
146.1506931664571
 30
0.0
 10
157.4220195011804
 20
147.4415712963654
 30
0.0
 10
157.8095929989511
 20
149.0530157726519
 30
0.0
 10
157.9656559273867
 20
149.5826995529385
 30
0.0
 10
157.7816877071116
 20
150.7529992613181
 30
0.0
 10
157.6111553680925
 20
151.8430281919372
 30
0.0
 10
157.0582171779396
 20
152.5547853887321
 30
0.0
 10
156.1170164704645
 20
152.5547853887321
 30
0.0
 10
155.1096698860365
 20
152.5547853887321
 30
0.0
 10
154.2962823053817
 20
152.4412694176073
 30
0.0
 10
153.156643967048
 20
151.2945686288697
 30
0.0
 10
152.0170056287143
 20
150.1476955852443
 30
0.0
 10
151.076149431015
 20
148.7930831468137
 30
0.0
 10
150.3337308641742
 20
147.2290087646991
 30
0.0
 10
149.5957909244188
 20
145.6683794803425
 30
0.0
 10
148.8530278478023
 20
143.6822806228776
 30
0.0
 10
148.0964843801539
 20
141.2751908193897
 30
0.0
 10
148.0964843801539
 20
141.2751908193897
 30
0.0
 10
143.8552245303272
 20
127.8027915271048
 30
0.0
 10
143.8552245303272
 20
127.8027915271048
 30
0.0
 10
143.8552245303272
 20
127.8027915271048
 30
0.0
 10
141.486030802177
 20
127.8027915271048
 30
0.0
 10
141.486030802177
 20
127.8027915271048
 30
0.0
 10
141.486030802177
 20
127.8027915271048
 30
0.0
 10
146.3329388378533
 20
143.2092687007094
 30
0.0
 10
146.3329388378533
 20
143.2092687007094
 30
0.0
 10
146.8483254624444
 20
144.8408669988801
 30
0.0
 10
147.2314203331297
 20
146.1837661049335
 30
0.0
 10
147.4867020769946
 20
147.224185627838
 30
0.0
 10
147.9169947869641
 20
149.0197705792876
 30
0.0
 10
148.0306830129768
 20
150.2400242051577
 30
0.0
 10
147.709255392159
 20
151.3157559800812
 30
0.0
 10
147.3874832615654
 20
152.3916600098926
 30
0.0
 10
146.8245542879144
 20
152.6683013598569
 30
0.0
 10
145.8840425999909
 20
152.6683013598569
 30
0.0
 10
145.0989048209514
 20
152.6683013598569
 30
0.0
 10
144.3282364524954
 20
152.3275811915945
 30
0.0
 10
143.4531816219731
 20
151.6538923250251
 30
0.0
 10
142.34627171234
 20
150.8074318058939
 30
0.0
 10
141.901854101563
 20
150.1097995099067
 30
0.0
 10
141.3578731655808
 20
149.289521733736
 30
0.0
 10
140.6299240093235
 20
148.192602607601
 30
0.0
 10
140.2850697237515
 20
147.455696197173
 30
0.0
 10
139.6652966370942
 20
145.8385673095858
 30
0.0
 10
139.0506911970739
 20
144.2214384219986
 30
0.0
 10
138.463991048893
 20
142.3252566160164
 30
0.0
 10
138.0571250036777
 20
141.0154304484394
 30
0.0
 10
138.0571250036777
 20
141.0154304484394
 30
0.0
 10
133.9009590684727
 20
127.8027915271048
 30
0.0
 10
133.9009590684727
 20
127.8027915271048
 30
0.0
 10
133.9009590684727
 20
127.8027915271048
 30
0.0
 10
131.4180771143097
 20
127.8027915271048
 30
0.0
 10
131.4180771143097
 20
127.8027915271048
 30
0.0
 10
131.4180771143097
 20
127.8027915271048
 30
0.0
 10
139.8926730891197
 20
154.8294111834263
 30
0.0
 10
139.8926730891197
 20
154.8294111834263
 30
0.0
  0
HATCH
  5
3C4
330
3BD
100
AcDbEntity
  8
LOGO
 62
   250
420
  2234388
100
AcDbHatch
 10
0.0
 20
0.0
 30
0.0
210
0.0
220
0.0
230
1.0
  2
SOLID
 70
     1
 71
     0
 91
        1
 92
        1
 93
        1
 72
     4
 94
        3
 73
     0
 74
     1
 95
      104
 96
      100
 40
0.0
 40
0.0
 40
0.0
 40
0.0
 40
1.0
 40
1.0
 40
1.0
 40
2.0
 40
2.0
 40
2.0
 40
3.0
 40
3.0
 40
3.0
 40
4.0
 40
4.0
 40
4.0
 40
5.0
 40
5.0
 40
5.0
 40
6.0
 40
6.0
 40
6.0
 40
7.0
 40
7.0
 40
7.0
 40
8.0
 40
8.0
 40
8.0
 40
9.0
 40
9.0
 40
9.0
 40
10.0
 40
10.0
 40
10.0
 40
11.0
 40
11.0
 40
11.0
 40
12.0
 40
12.0
 40
12.0
 40
13.0
 40
13.0
 40
13.0
 40
14.0
 40
14.0
 40
14.0
 40
15.0
 40
15.0
 40
15.0
 40
16.0
 40
16.0
 40
16.0
 40
17.0
 40
17.0
 40
17.0
 40
18.0
 40
18.0
 40
18.0
 40
19.0
 40
19.0
 40
19.0
 40
20.0
 40
20.0
 40
20.0
 40
21.0
 40
21.0
 40
21.0
 40
22.0
 40
22.0
 40
22.0
 40
23.0
 40
23.0
 40
23.0
 40
24.0
 40
24.0
 40
24.0
 40
25.0
 40
25.0
 40
25.0
 40
26.0
 40
26.0
 40
26.0
 40
27.0
 40
27.0
 40
27.0
 40
28.0
 40
28.0
 40
28.0
 40
29.0
 40
29.0
 40
29.0
 40
30.0
 40
30.0
 40
30.0
 40
31.0
 40
31.0
 40
31.0
 40
32.0
 40
32.0
 40
32.0
 40
33.0
 40
33.0
 40
33.0
 40
33.0
 10
139.8926730891197
 20
154.8294111834263
 10
139.8926730891197
 20
154.8294111834263
 10
142.0344903652445
 20
154.8294111834263
 10
142.0344903652445
 20
154.8294111834263
 10
142.0344903652445
 20
154.8294111834263
 10
140.9516961399171
 20
151.3157559800812
 10
140.9516961399171
 20
151.3157559800812
 10
141.8928968473923
 20
152.7887075264977
 10
142.7341897198865
 20
153.4484437471474
 10
143.8552245303272
 20
154.2926649527359
 10
144.9803934580775
 20
155.1296514530327
 10
146.3139908001845
 20
155.3044901642492
 10
147.241066606852
 20
155.3044901642492
 10
148.3855280820469
 20
155.3044901642492
 10
149.4969166187653
 20
155.0752189084569
 10
150.0784491203092
 20
153.8172414621372
 10
150.5228667310863
 20
152.833838307127
 10
150.5414702589793
 20
152.7201500811143
 10
150.4140016419347
 20
150.7765981809602
 10
151.5818897818837
 20
152.7699317437168
 10
152.4424752018226
 20
153.6256940267945
 10
153.9038856707499
 20
154.4507949398263
 10
155.4455669174378
 20
155.3044901642492
 10
156.339225275853
 20
155.3659851592288
 10
157.3748216618963
 20
155.2147453676543
 10
158.911679771723
 20
154.9877134254046
 10
159.8859534176746
 20
154.4390816074493
 10
160.3965169054045
 20
152.7816450760939
 10
160.9070803931344
 20
151.1219692311958
 10
160.6328506116007
 20
150.2303779314354
 10
159.9992971339115
 20
147.597634224801
 10
159.7105979417943
 20
146.4014962832367
 10
159.2947746424084
 20
144.9400858143094
 10
158.7463150793409
 20
143.2092687007094
 10
158.7463150793409
 20
143.2092687007094
 10
153.9038856707499
 20
127.8027915271048
 10
153.9038856707499
 20
127.8027915271048
 10
153.9038856707499
 20
127.8027915271048
 10
151.3882752878863
 20
127.8027915271048
 10
151.3882752878863
 20
127.8027915271048
 10
151.3882752878863
 20
127.8027915271048
 10
155.6250565106276
 20
141.2751908193897
 10
155.6250565106276
 20
141.2751908193897
 10
156.5094131050963
 20
144.0936252951782
 10
157.109893644309
 20
146.1506931664571
 10
157.4220195011804
 20
147.4415712963654
 10
157.8095929989511
 20
149.0530157726519
 10
157.9656559273867
 20
149.5826995529385
 10
157.7816877071116
 20
150.7529992613181
 10
157.6111553680925
 20
151.8430281919372
 10
157.0582171779396
 20
152.5547853887321
 10
156.1170164704645
 20
152.5547853887321
 10
155.1096698860365
 20
152.5547853887321
 10
154.2962823053817
 20
152.4412694176073
 10
153.156643967048
 20
151.2945686288697
 10
152.0170056287143
 20
150.1476955852443
 10
151.076149431015
 20
148.7930831468137
 10
150.3337308641742
 20
147.2290087646991
 10
149.5957909244188
 20
145.6683794803425
 10
148.8530278478023
 20
143.6822806228776
 10
148.0964843801539
 20
141.2751908193897
 10
148.0964843801539
 20
141.2751908193897
 10
143.8552245303272
 20
127.8027915271048
 10
143.8552245303272
 20
127.8027915271048
 10
143.8552245303272
 20
127.8027915271048
 10
141.486030802177
 20
127.8027915271048
 10
141.486030802177
 20
127.8027915271048
 10
141.486030802177
 20
127.8027915271048
 10
146.3329388378533
 20
143.2092687007094
 10
146.3329388378533
 20
143.2092687007094
 10
146.8483254624444
 20
144.8408669988801
 10
147.2314203331297
 20
146.1837661049335
 10
147.4867020769946
 20
147.224185627838
 10
147.9169947869641
 20
149.0197705792876
 10
148.0306830129768
 20
150.2400242051577
 10
147.709255392159
 20
151.3157559800812
 10
147.3874832615654
 20
152.3916600098926
 10
146.8245542879144
 20
152.6683013598569
 10
145.8840425999909
 20
152.6683013598569
 10
145.0989048209514
 20
152.6683013598569
 10
144.3282364524954
 20
152.3275811915945
 10
143.4531816219731
 20
151.6538923250251
 10
142.34627171234
 20
150.8074318058939
 10
141.901854101563
 20
150.1097995099067
 10
141.3578731655808
 20
149.289521733736
 10
140.6299240093235
 20
148.192602607601
 10
140.2850697237515
 20
147.455696197173
 10
139.6652966370942
 20
145.8385673095858
 10
139.0506911970739
 20
144.2214384219986
 10
138.463991048893
 20
142.3252566160164
 10
138.0571250036777
 20
141.0154304484394
 10
138.0571250036777
 20
141.0154304484394
 10
133.9009590684727
 20
127.8027915271048
 10
133.9009590684727
 20
127.8027915271048
 10
133.9009590684727
 20
127.8027915271048
 10
131.4180771143097
 20
127.8027915271048
 10
131.4180771143097
 20
127.8027915271048
 10
131.4180771143097
 20
127.8027915271048
 10
139.8926730891197
 20
154.8294111834263
 10
139.8926730891197
 20
154.8294111834263
 97
        0
 75
     2
 76
     1
 98
        0
  0
SPLINE
  5
3C5
330
3BD
100
AcDbEntity
  8
LOGO
370
     0
100
AcDbSpline
210
0.0
220
0.0
230
1.0
 70
    11
 71
     3
 72
    29
 73
    25
 74
     0
 42
0.000000001
 43
0.0000000001
 40
0.0
 40
0.0
 40
0.0
 40
0.0
 40
1.0
 40
1.0
 40
1.0
 40
2.0
 40
2.0
 40
2.0
 40
3.0
 40
3.0
 40
3.0
 40
4.0
 40
4.0
 40
4.0
 40
5.0
 40
5.0
 40
5.0
 40
6.0
 40
6.0
 40
6.0
 40
7.0
 40
7.0
 40
7.0
 40
8.0
 40
8.0
 40
8.0
 40
8.0
 10
101.6420971922469
 20
132.8388354296931
 30
0.0
 10
101.630039350094
 20
134.7164137077823
 30
0.0
 10
102.2236296937908
 20
138.0598810818841
 30
0.0
 10
103.7487744712405
 20
142.5378191476827
 30
0.0
 10
105.819967243327
 20
148.5896501242061
 30
0.0
 10
107.0602024361932
 20
150.8074318058939
 30
0.0
 10
108.1522984254671
 20
151.8833358357054
 30
0.0
 10
109.741177511439
 20
153.4532668840085
 30
0.0
 10
111.8740375333931
 20
153.5290590346837
 30
0.0
 10
112.5075910110823
 20
153.4532668840085
 30
0.0
 10
113.4012493694975
 20
153.3490526768302
 30
0.0
 10
114.6683563248758
 20
152.7580461564518
 30
0.0
 10
114.7493161221879
 20
150.7838328862519
 30
0.0
 10
114.8106388622796
 20
149.0909118479895
 30
0.0
 10
114.3186789024427
 20
145.9191825971221
 30
0.0
 10
112.6164561002338
 20
140.9489400617108
 30
0.0
 10
110.6444821435766
 20
135.1746117095912
 30
0.0
 10
109.4669477299053
 20
132.8960240524753
 30
0.0
 10
108.5212683953448
 20
131.9072809959403
 30
0.0
 10
106.7346406980658
 20
130.0538184021569
 30
0.0
 10
104.8222669326213
 20
130.2336525051225
 30
0.0
 10
104.5408024457958
 20
130.2336525051225
 30
0.0
 10
104.1721769856939
 20
130.2336525051225
 30
0.0
 10
101.6465758193322
 20
130.6305277668397
 30
0.0
 10
101.6420971922469
 20
132.8388354296931
 30
0.0
  0
SPLINE
  5
3C6
330
3BD
100
AcDbEntity
  8
LOGO
370
     0
100
AcDbSpline
210
0.0
220
0.0
230
1.0
 70
    11
 71
     3
 72
    32
 73
    28
 74
     0
 42
0.000000001
 43
0.0000000001
 40
0.0
 40
0.0
 40
0.0
 40
0.0
 40
1.0
 40
1.0
 40
1.0
 40
2.0
 40
2.0
 40
2.0
 40
3.0
 40
3.0
 40
3.0
 40
4.0
 40
4.0
 40
4.0
 40
5.0
 40
5.0
 40
5.0
 40
6.0
 40
6.0
 40
6.0
 40
7.0
 40
7.0
 40
7.0
 40
8.0
 40
8.0
 40
8.0
 40
9.0
 40
9.0
 40
9.0
 40
9.0
 10
106.2595617172429
 20
153.4105476718098
 30
0.0
 10
104.8222669326213
 20
151.5474388043041
 30
0.0
 10
103.7177685914188
 20
149.8758773721411
 30
0.0
 10
101.9232171692965
 20
144.6141795664062
 30
0.0
 10
100.2754269116635
 20
139.7999999594306
 30
0.0
 10
99.22777268346732
 20
136.3052927937542
 30
0.0
 10
99.06964269637689
 20
132.039572749846
 30
0.0
 10
98.94665270641765
 20
128.8673267343149
 30
0.0
 10
100.8807305877373
 20
127.8027915271048
 30
0.0
 10
103.7129454545577
 20
127.8027915271048
 30
0.0
 10
104.9352661390825
 20
127.8027915271048
 30
0.0
 10
108.0151835347002
 20
127.8827177950895
 30
0.0
 10
110.2045431598849
 20
130.5926316915021
 30
0.0
 10
111.7417457794874
 20
132.4984597712065
 30
0.0
 10
113.155269389579
 20
134.475256864725
 30
0.0
 10
115.0562743324223
 20
140.9489400617108
 30
0.0
 10
116.6361961642235
 20
146.3680788349845
 30
0.0
 10
117.7282921534974
 20
149.8639917848761
 30
0.0
 10
117.6480213757369
 20
151.8595646611754
 30
0.0
 10
117.6480213757369
 20
151.8595646611754
 30
0.0
 10
117.6480213757369
 20
151.8595646611754
 30
0.0
 10
117.6480213757369
 20
151.8595646611754
 30
0.0
 10
117.13229024137
 20
155.18150017429
 30
0.0
 10
114.7162431837115
 20
155.886194920681
 30
0.0
 10
113.3351034925446
 20
155.886194920681
 30
0.0
 10
111.9829026225447
 20
155.886194920681
 30
0.0
 10
108.3414342923792
 20
156.1251124501957
 30
0.0
 10
106.2595617172429
 20
153.4105476718098
 30
0.0
  0
HATCH
  5
3C7
330
3BD
100
AcDbEntity
  8
LOGO
 62
   250
420
  2234388
100
AcDbHatch
 10
0.0
 20
0.0
 30
0.0
210
0.0
220
0.0
230
1.0
  2
SOLID
 70
     1
 71
     0
 91
        2
 92
        1
 93
        1
 72
     4
 94
        3
 73
     0
 74
     1
 95
       29
 96
       25
 40
0.0
 40
0.0
 40
0.0
 40
0.0
 40
1.0
 40
1.0
 40
1.0
 40
2.0
 40
2.0
 40
2.0
 40
3.0
 40
3.0
 40
3.0
 40
4.0
 40
4.0
 40
4.0
 40
5.0
 40
5.0
 40
5.0
 40
6.0
 40
6.0
 40
6.0
 40
7.0
 40
7.0
 40
7.0
 40
8.0
 40
8.0
 40
8.0
 40
8.0
 10
101.6420971922469
 20
132.8388354296931
 10
101.630039350094
 20
134.7164137077823
 10
102.2236296937908
 20
138.0598810818841
 10
103.7487744712405
 20
142.5378191476827
 10
105.819967243327
 20
148.5896501242061
 10
107.0602024361932
 20
150.8074318058939
 10
108.1522984254671
 20
151.8833358357054
 10
109.741177511439
 20
153.4532668840085
 10
111.8740375333931
 20
153.5290590346837
 10
112.5075910110823
 20
153.4532668840085
 10
113.4012493694975
 20
153.3490526768302
 10
114.6683563248758
 20
152.7580461564518
 10
114.7493161221879
 20
150.7838328862519
 10
114.8106388622796
 20
149.0909118479895
 10
114.3186789024427
 20
145.9191825971221
 10
112.6164561002338
 20
140.9489400617108
 10
110.6444821435766
 20
135.1746117095912
 10
109.4669477299053
 20
132.8960240524753
 10
108.5212683953448
 20
131.9072809959403
 10
106.7346406980658
 20
130.0538184021569
 10
104.8222669326213
 20
130.2336525051225
 10
104.5408024457958
 20
130.2336525051225
 10
104.1721769856939
 20
130.2336525051225
 10
101.6465758193322
 20
130.6305277668397
 10
101.6420971922469
 20
132.8388354296931
 97
        0
 92
        1
 93
        1
 72
     4
 94
        3
 73
     0
 74
     1
 95
       32
 96
       28
 40
0.0
 40
0.0
 40
0.0
 40
0.0
 40
1.0
 40
1.0
 40
1.0
 40
2.0
 40
2.0
 40
2.0
 40
3.0
 40
3.0
 40
3.0
 40
4.0
 40
4.0
 40
4.0
 40
5.0
 40
5.0
 40
5.0
 40
6.0
 40
6.0
 40
6.0
 40
7.0
 40
7.0
 40
7.0
 40
8.0
 40
8.0
 40
8.0
 40
9.0
 40
9.0
 40
9.0
 40
9.0
 10
106.2595617172429
 20
153.4105476718098
 10
104.8222669326213
 20
151.5474388043041
 10
103.7177685914188
 20
149.8758773721411
 10
101.9232171692965
 20
144.6141795664062
 10
100.2754269116635
 20
139.7999999594306
 10
99.22777268346732
 20
136.3052927937542
 10
99.06964269637689
 20
132.039572749846
 10
98.94665270641765
 20
128.8673267343149
 10
100.8807305877373
 20
127.8027915271048
 10
103.7129454545577
 20
127.8027915271048
 10
104.9352661390825
 20
127.8027915271048
 10
108.0151835347002
 20
127.8827177950895
 10
110.2045431598849
 20
130.5926316915021
 10
111.7417457794874
 20
132.4984597712065
 10
113.155269389579
 20
134.475256864725
 10
115.0562743324223
 20
140.9489400617108
 10
116.6361961642235
 20
146.3680788349845
 10
117.7282921534974
 20
149.8639917848761
 10
117.6480213757369
 20
151.8595646611754
 10
117.6480213757369
 20
151.8595646611754
 10
117.6480213757369
 20
151.8595646611754
 10
117.6480213757369
 20
151.8595646611754
 10
117.13229024137
 20
155.18150017429
 10
114.7162431837115
 20
155.886194920681
 10
113.3351034925446
 20
155.886194920681
 10
111.9829026225447
 20
155.886194920681
 10
108.3414342923792
 20
156.1251124501957
 10
106.2595617172429
 20
153.4105476718098
 97
        0
 75
     2
 76
     1
 98
        0
  0
ENDBLK
  5
3C8
330
3BD
100
AcDbEntity
  8
0
100
AcDbBlockEnd
  0
BLOCK
  5
455D
330
455C
100
AcDbEntity
  8
0
  6
ByBlock
 62
     0
100
AcDbBlockBegin
  2
_OPEN30
 70
     0
 10
0.0
 20
0.0
 30
0.0
  3
_OPEN30
  1
_OPEN30
  0
LINE
  5
455E
330
455C
100
AcDbEntity
  8
0
  6
ByBlock
 62
     0
100
AcDbLine
 10
-1.0
 20
0.267949
 30
0.0
 11
0.0
 21
0.0
 31
0.0
  0
LINE
  5
455F
330
455C
100
AcDbEntity
  8
0
  6
ByBlock
 62
     0
100
AcDbLine
 10
0.0
 20
0.0
 30
0.0
 11
-1.0
 21
-0.267949
 31
0.0
  0
LINE
  5
4560
330
455C
100
AcDbEntity
  8
0
  6
ByBlock
 62
     0
100
AcDbLine
 10
0.0
 20
0.0
 30
0.0
 11
-1.0
 21
0.0
 31
0.0
  0
ENDBLK
  5
4561
330
455C
100
AcDbEntity
  8
0
  6
ByBlock
 62
     0
100
AcDbBlockEnd
  0
BLOCK
  5
719A
330
7148
100
AcDbEntity
  8
0
100
AcDbBlockBegin
  2
12313
 70
     0
 10
0.0
 20
0.0
 30
0.0
  3
12313
  1
12313
  0
LINE
  5
7149
330
7148
100
AcDbEntity
  8
0
  6
AM_DIN_F_W050
 62
     6
 48
5.0
100
AcDbLine
 10
1753.970394400511
 20
-1844.289773333095
 30
0.0
 11
1753.970394400511
 21
-1820.229806970247
 31
0.0
  0
ARC
  5
714A
330
7148
100
AcDbEntity
  8
0
  6
AM_DIN_F_W050
 62
     6
 48
5.0
100
AcDbCircle
 10
1748.970394400511
 20
-1820.229806970247
 30
0.0
 40
5.0
100
AcDbArc
 50
0.0
 51
90.0
  0
ARC
  5
714B
330
7148
100
AcDbEntity
  8
0
  6
AM_DIN_F_W050
 62
     6
 48
5.0
100
AcDbCircle
 10
1403.970394400511
 20
-1820.229806970247
 30
0.0
 40
5.0
100
AcDbArc
 50
90.0
 51
180.0
  0
LINE
  5
714C
330
7148
100
AcDbEntity
  8
0
  6
AM_DIN_F_W050
 62
     6
 48
5.0
100
AcDbLine
 10
1398.970394400511
 20
-1820.229806970247
 30
0.0
 11
1398.970394400511
 21
-1844.289773333093
 31
0.0
  0
LINE
  5
714D
330
7148
100
AcDbEntity
  8
0
100
AcDbLine
 10
1402.490437701525
 20
-1891.690629126967
 30
0.0
 11
1750.450351099496
 21
-1891.690629126967
 31
0.0
  0
LINE
  5
714E
330
7148
100
AcDbEntity
  8
0
  6
AM_DIN_G_W050
 62
     4
 48
3.0
100
AcDbLine
 10
1576.470394400511
 20
-1971.229806970247
 30
0.0
 11
1576.470394400511
 21
-2083.229806970246
 31
0.0
  0
LINE
  5
714F
330
7148
100
AcDbEntity
  8
0
  6
AM_DIN_G_W050
 62
     4
 48
3.0
100
AcDbLine
 10
1543.970394400511
 20
-1895.229806970247
 30
0.0
 11
1608.970394400511
 21
-1895.229806970247
 31
0.0
  0
LINE
  5
7150
330
7148
100
AcDbEntity
  8
0
  6
AM_DIN_G_W050
 62
     4
 48
3.0
100
AcDbLine
 10
1520.470394400511
 20
-2027.229806970247
 30
0.0
 11
1632.470394400511
 21
-2027.229806970247
 31
0.0
  0
LINE
  5
7151
330
7148
100
AcDbEntity
  8
0
  6
AM_DIN_G_W050
 62
     4
 48
3.0
100
AcDbLine
 10
1476.470394400511
 20
-1930.229806970247
 30
0.0
 11
1496.470394400511
 21
-1930.229806970247
 31
0.0
  0
LINE
  5
7152
330
7148
100
AcDbEntity
  8
0
  6
AM_DIN_G_W050
 62
     4
 48
3.0
100
AcDbLine
 10
1486.470394400511
 20
-1920.229806970247
 30
0.0
 11
1486.470394400511
 21
-1940.229806970247
 31
0.0
  0
LINE
  5
7153
330
7148
100
AcDbEntity
  8
0
  6
AM_DIN_G_W050
 62
     4
 48
3.0
100
AcDbLine
 10
1576.47039440051
 20
-1868.506701543803
 30
0.0
 11
1576.470394400511
 21
-1927.729806970247
 31
0.0
  0
LINE
  5
7154
330
7148
100
AcDbEntity
  8
0
  6
AM_DIN_G_W050
 62
     4
 48
3.0
100
AcDbLine
 10
1676.470394400511
 20
-1930.229806970247
 30
0.0
 11
1656.47039440051
 21
-1930.229806970247
 31
0.0
  0
LINE
  5
7155
330
7148
100
AcDbEntity
  8
0
  6
AM_DIN_G_W050
 62
     4
 48
3.0
100
AcDbLine
 10
1666.47039440051
 20
-1920.229806970247
 30
0.0
 11
1666.47039440051
 21
-1940.229806970247
 31
0.0
  0
SPLINE
  5
7156
330
7148
100
AcDbEntity
  8
0
 62
     7
100
AcDbSpline
210
0.0
220
0.0
230
1.0
 70
    24
 71
     3
 72
     8
 73
     4
 74
     0
 42
0.000000001
 43
0.0000000001
 40
6.0
 40
6.0
 40
6.0
 40
6.0
 40
7.0
 40
7.0
 40
7.0
 40
7.0
 10
1392.078109244261
 20
-1840.746837135177
 30
0.0
 10
1392.078109244261
 20
-1840.746837135177
 30
0.0
 10
1760.862679556761
 20
-1840.746837135177
 30
0.0
 10
1760.862679556761
 20
-1840.746837135177
 30
0.0
  0
LINE
  5
7157
330
7148
100
AcDbEntity
  8
0
100
AcDbLine
 10
1436.844040428106
 20
-1844.289773333094
 30
0.0
 11
1436.844040428106
 21
-1844.289773333094
 31
0.0
  0
LINE
  5
7158
330
7148
100
AcDbEntity
  8
0
100
AcDbLine
 10
1405.454990418897
 20
-1844.289773333094
 30
0.0
 11
1487.587819259452
 21
-1844.289773333094
 31
0.0
  0
LINE
  5
7159
330
7148
100
AcDbEntity
  8
0
  6
AM_DIN_F_W050
 62
     6
 48
5.0
100
AcDbLine
 10
1464.725667129451
 20
-1840.746837135177
 30
0.0
 11
1464.725667129451
 21
-1829.739629037594
 31
0.0
  0
ARC
  5
715A
330
7148
100
AcDbEntity
  8
0
  6
AM_DIN_F_W050
 62
     6
 48
5.0
100
AcDbCircle
 10
1445.483741721042
 20
-1835.243233086386
 30
0.0
 40
20.01352919773626
100
AcDbArc
 50
15.96166732376556
 51
90.0
  0
LINE
  5
715B
330
7148
100
AcDbEntity
  8
0
100
AcDbLine
 10
1758.452479903983
 20
-1794.598405060524
 30
0.0
 11
1394.488308897038
 21
-1794.598405060524
 31
0.0
  0
ARC
  5
715C
330
7148
100
AcDbEntity
  8
0
100
AcDbCircle
 10
1394.488308897038
 20
-1797.598405060524
 30
0.0
 40
3.0
100
AcDbArc
 50
90.0
 51
180.0
  0
ARC
  5
715D
330
7148
100
AcDbEntity
  8
0
100
AcDbCircle
 10
1436.844040428106
 20
-1846.289773333094
 30
0.0
 40
2.0
100
AcDbArc
 50
0.0
 51
90.0
  0
LINE
  5
715E
330
7148
100
AcDbEntity
  8
0
100
AcDbLine
 10
1438.844040428106
 20
-1846.289773333094
 30
0.0
 11
1438.844040428106
 21
-1848.229806970246
 31
0.0
  0
ARC
  5
715F
330
7148
100
AcDbEntity
  8
0
100
AcDbCircle
 10
1440.844040428106
 20
-1848.229806970246
 30
0.0
 40
2.0
100
AcDbArc
 50
180.0
 51
270.0
  0
LINE
  5
7160
330
7148
100
AcDbEntity
  8
0
100
AcDbLine
 10
1421.488308897038
 20
-1684.022625166861
 30
0.0
 11
1424.289236331192
 21
-1684.022625166861
 31
0.0
  0
LINE
  5
7161
330
7148
100
AcDbEntity
  8
0
100
AcDbLine
 10
1391.488308897038
 20
-1739.782801761914
 30
0.0
 11
1391.488308897038
 21
-1746.450683706358
 31
0.0
  0
LINE
  5
7162
330
7148
100
AcDbEntity
  8
0
100
AcDbLine
 10
1421.488308897038
 20
-1739.782801761914
 30
0.0
 11
1421.488308897038
 21
-1742.450683706358
 31
0.0
  0
LINE
  5
7163
330
7148
100
AcDbEntity
  8
0
100
AcDbLine
 10
1424.289236331192
 20
-1739.782801761914
 30
0.0
 11
1424.289236331192
 21
-1742.450683706358
 31
0.0
  0
LINE
  5
7164
330
7148
100
AcDbEntity
  8
0
100
AcDbLine
 10
1716.096748372915
 20
-1844.289773333094
 30
0.0
 11
1716.096748372915
 21
-1844.289773333094
 31
0.0
  0
LINE
  5
7165
330
7148
100
AcDbEntity
  8
0
100
AcDbLine
 10
1747.485798382124
 20
-1844.289773333094
 30
0.0
 11
1665.35296954157
 21
-1844.289773333094
 31
0.0
  0
LINE
  5
7166
330
7148
100
AcDbEntity
  8
0
  6
AM_DIN_F_W050
 62
     6
 48
5.0
100
AcDbLine
 10
1688.215121671571
 20
-1840.746837135177
 30
0.0
 11
1688.215121671571
 21
-1829.739629037594
 31
0.0
  0
ARC
  5
7167
330
7148
100
AcDbEntity
  8
0
  6
AM_DIN_F_W050
 62
     6
 48
5.0
100
AcDbCircle
 10
1707.45704707998
 20
-1835.243233086386
 30
0.0
 40
20.01352919773626
100
AcDbArc
 50
90.0
 51
164.0383326762311
  0
ARC
  5
7168
330
7148
100
AcDbEntity
  8
0
100
AcDbCircle
 10
1758.452479903983
 20
-1797.598405060524
 30
0.0
 40
3.0
100
AcDbArc
 50
0.0
 51
90.0
  0
ARC
  5
7169
330
7148
100
AcDbEntity
  8
0
100
AcDbCircle
 10
1716.096748372915
 20
-1846.289773333094
 30
0.0
 40
2.0
100
AcDbArc
 50
90.0
 51
180.0
  0
LINE
  5
716A
330
7148
100
AcDbEntity
  8
0
100
AcDbLine
 10
1714.096748372915
 20
-1846.289773333094
 30
0.0
 11
1714.096748372915
 21
-1848.229806970246
 31
0.0
  0
ARC
  5
716B
330
7148
100
AcDbEntity
  8
0
100
AcDbCircle
 10
1712.096748372915
 20
-1848.229806970246
 30
0.0
 40
2.0
100
AcDbArc
 50
270.0
 51
0.0
  0
LINE
  5
716C
330
7148
100
AcDbEntity
  8
0
100
AcDbLine
 10
1731.452479903983
 20
-1684.022625166861
 30
0.0
 11
1728.651552469829
 21
-1684.022625166861
 31
0.0
  0
LINE
  5
716D
330
7148
100
AcDbEntity
  8
0
100
AcDbLine
 10
1761.452479903983
 20
-1739.782801761914
 30
0.0
 11
1761.452479903983
 21
-1746.450683706358
 31
0.0
  0
LINE
  5
716E
330
7148
100
AcDbEntity
  8
0
100
AcDbLine
 10
1731.452479903983
 20
-1739.782801761914
 30
0.0
 11
1731.452479903983
 21
-1742.450683706358
 31
0.0
  0
LINE
  5
716F
330
7148
100
AcDbEntity
  8
0
100
AcDbLine
 10
1728.65155246983
 20
-1739.782801761914
 30
0.0
 11
1728.65155246983
 21
-1742.450683706358
 31
0.0
  0
LINE
  5
7170
330
7148
100
AcDbEntity
  8
0
100
AcDbLine
 10
1421.488308897039
 20
-1813.813769643858
 30
0.0
 11
1421.488308897039
 21
-1815.22970388865
 31
0.0
  0
LINE
  5
7171
330
7148
100
AcDbEntity
  8
0
100
AcDbLine
 10
1424.289236331192
 20
-1813.813769643858
 30
0.0
 11
1424.289236331191
 21
-1815.22970388865
 31
0.0
  0
LINE
  5
7172
330
7148
100
AcDbEntity
  8
0
100
AcDbLine
 10
1728.65155246983
 20
-1813.813769643858
 30
0.0
 11
1728.65155246983
 21
-1815.22970388865
 31
0.0
  0
LINE
  5
7173
330
7148
100
AcDbEntity
  8
0
100
AcDbLine
 10
1731.452479903983
 20
-1813.813769643858
 30
0.0
 11
1731.452479903983
 21
-1815.22970388865
 31
0.0
  0
ARC
  5
7174
330
7148
100
AcDbEntity
  8
0
  6
AM_DIN_F_W050
 62
     6
 48
5.0
100
AcDbCircle
 10
1572.108766143832
 20
-1867.774558908178
 30
0.0
 40
4.375531244894843
100
AcDbArc
 50
90.04437288428903
 51
190.3565215435098
  0
ARC
  5
7175
330
7148
100
AcDbEntity
  8
0
  6
AM_DIN_F_W050
 62
     6
 48
5.0
100
AcDbCircle
 10
1574.02114179316
 20
-1866.92256258655
 30
0.0
 40
6.428948941176667
100
AcDbArc
 50
194.7663545145586
 51
222.470940303528
  0
ARC
  5
7176
330
7148
100
AcDbEntity
  8
0
  6
AM_DIN_F_W050
 62
     6
 48
5.0
100
AcDbCircle
 10
1571.177226189325
 20
-1867.207837480001
 30
0.0
 40
4.477892765286671
100
AcDbArc
 50
180.0187719584281
 51
244.9185718649441
  0
LINE
  5
7177
330
7148
100
AcDbEntity
  8
0
  6
AM_DIN_F_W050
 62
     6
 48
5.0
100
AcDbLine
 10
1572.10537750118
 20
-1863.399028975455
 30
0.0
 11
1580.835411299842
 21
-1863.399028975455
 31
0.0
  0
ARC
  5
7178
330
7148
100
AcDbEntity
  8
0
  6
AM_DIN_F_W050
 62
     6
 48
5.0
100
AcDbCircle
 10
1580.83202265719
 20
-1867.774558908178
 30
0.0
 40
4.375531244894843
100
AcDbArc
 50
349.6434784564902
 51
89.95562711570203
  0
ARC
  5
7179
330
7148
100
AcDbEntity
  8
0
  6
AM_DIN_F_W050
 62
     6
 48
5.0
100
AcDbCircle
 10
1578.919647007861
 20
-1866.92256258655
 30
0.0
 40
6.428948941176667
100
AcDbArc
 50
317.5290596964735
 51
345.2336454854415
  0
ARC
  5
717A
330
7148
100
AcDbEntity
  8
0
  6
AM_DIN_F_W050
 62
     6
 48
5.0
100
AcDbCircle
 10
1581.763562611696
 20
-1867.207837480001
 30
0.0
 40
4.477892765286671
100
AcDbArc
 50
295.0814281350558
 51
359.9812280415719
  0
LINE
  5
717B
330
7148
100
AcDbEntity
  8
0
100
AcDbLine
 10
1560.381017692152
 20
-1844.289773333094
 30
0.0
 11
1592.559771108869
 21
-1844.289773333094
 31
0.0
  0
ARC
  5
717C
330
7148
100
AcDbEntity
  8
0
  6
AM_DIN_F_W050
 62
     6
 48
5.0
100
AcDbCircle
 10
1576.470394400511
 20
-1861.705852329147
 30
0.0
 40
11.96095076826119
100
AcDbArc
 50
233.0414148521999
 51
306.9585851477992
  0
LINE
  5
717D
330
7148
100
AcDbEntity
  8
0
100
AcDbLine
 10
1409.454990418897
 20
-1850.229806970246
 30
0.0
 11
1483.587819259452
 21
-1850.229806970247
 31
0.0
  0
ARC
  5
717E
330
7148
100
AcDbEntity
  8
0
100
AcDbCircle
 10
1483.587819259452
 20
-1848.229806970247
 30
0.0
 40
2.0
100
AcDbArc
 50
270.0
 51
0.0
  0
LINE
  5
717F
330
7148
100
AcDbEntity
  8
0
100
AcDbLine
 10
1485.587819259452
 20
-1848.229806970247
 30
0.0
 11
1485.587819259452
 21
-1846.289773333094
 31
0.0
  0
ARC
  5
7180
330
7148
100
AcDbEntity
  8
0
100
AcDbCircle
 10
1487.587819259452
 20
-1846.289773333094
 30
0.0
 40
2.000000000000028
100
AcDbArc
 50
90.0
 51
180.0
  0
LINE
  5
7181
330
7148
100
AcDbEntity
  8
0
100
AcDbLine
 10
1487.587819259452
 20
-1844.289773333094
 30
0.0
 11
1560.381017692152
 21
-1844.289773333094
 31
0.0
  0
ARC
  5
7182
330
7148
100
AcDbEntity
  8
0
100
AcDbCircle
 10
1560.381017692152
 20
-1847.289773333094
 30
0.0
 40
3.0
100
AcDbArc
 50
0.0
 51
90.0
  0
LINE
  5
7183
330
7148
100
AcDbEntity
  8
0
  6
AM_DIN_F_W050
 62
     6
 48
5.0
100
AcDbLine
 10
1563.381017692152
 20
-1850.229806970247
 30
0.0
 11
1563.381017692152
 21
-1861.801882708094
 31
0.0
  0
ARC
  5
7184
330
7148
100
AcDbEntity
  8
0
  6
AM_DIN_F_W050
 62
     6
 48
5.0
100
AcDbCircle
 10
1576.652778752901
 20
-1861.801882708094
 30
0.0
 40
13.27176106074927
100
AcDbArc
 50
180.0
 51
269.212600156732
  0
ARC
  5
7185
330
7148
100
AcDbEntity
  8
0
  6
AM_DIN_F_W050
 62
     6
 48
5.0
100
AcDbCircle
 10
1576.28801004812
 20
-1861.801882708094
 30
0.0
 40
13.27176106074932
100
AcDbArc
 50
270.787399843267
 51
0.0
  0
LINE
  5
7186
330
7148
100
AcDbEntity
  8
0
  6
AM_DIN_F_W050
 62
     6
 48
5.0
100
AcDbLine
 10
1589.559771108869
 20
-1861.801882708094
 30
0.0
 11
1589.559771108869
 21
-1850.229806970247
 31
0.0
  0
ARC
  5
7187
330
7148
100
AcDbEntity
  8
0
100
AcDbCircle
 10
1592.559771108869
 20
-1847.289773333094
 30
0.0
 40
3.0
100
AcDbArc
 50
90.0
 51
180.0
  0
LINE
  5
7188
330
7148
100
AcDbEntity
  8
0
100
AcDbLine
 10
1592.559771108869
 20
-1844.289773333094
 30
0.0
 11
1665.35296954157
 21
-1844.289773333094
 31
0.0
  0
ARC
  5
7189
330
7148
100
AcDbEntity
  8
0
100
AcDbCircle
 10
1665.35296954157
 20
-1846.289773333094
 30
0.0
 40
2.0
100
AcDbArc
 50
0.0
 51
90.0
  0
LINE
  5
718A
330
7148
100
AcDbEntity
  8
0
100
AcDbLine
 10
1667.35296954157
 20
-1846.289773333094
 30
0.0
 11
1667.35296954157
 21
-1848.229806970247
 31
0.0
  0
ARC
  5
718B
330
7148
100
AcDbEntity
  8
0
100
AcDbCircle
 10
1669.35296954157
 20
-1848.229806970247
 30
0.0
 40
2.0
100
AcDbArc
 50
180.0
 51
270.0
  0
LINE
  5
718C
330
7148
100
AcDbEntity
  8
0
100
AcDbLine
 10
1669.35296954157
 20
-1850.229806970247
 30
0.0
 11
1743.485798382124
 21
-1850.229806970246
 31
0.0
  0
LWPOLYLINE
  5
718D
330
7148
100
AcDbEntity
  8
0
100
AcDbPolyline
 90
        8
 70
     1
 43
0.0
 10
1761.452479903983
 20
-1746.450683706358
 42
0.4142135623730951
 10
1757.452479903983
 20
-1742.450683706358
 10
1395.488308897038
 20
-1742.450683706358
 42
0.4142135623730951
 10
1391.488308897038
 20
-1746.450683706358
 10
1391.488308897038
 20
-1797.598405060524
 10
1391.488308897038
 20
-1813.813769643858
 10
1761.452479903983
 20
-1813.813769643858
 10
1761.452479903983
 20
-1797.598405060524
  0
LWPOLYLINE
  5
718E
330
7148
100
AcDbEntity
  8
0
100
AcDbPolyline
 90
        6
 70
     1
 43
0.0
 10
1421.488308897038
 20
-1684.022625166861
 42
0.4142135623730951
 10
1417.488308897038
 20
-1680.022625166861
 10
1395.488308897039
 20
-1680.022625166861
 42
0.4142135623730951
 10
1391.488308897039
 20
-1684.022625166861
 10
1391.488308897038
 20
-1739.782801761914
 10
1421.488308897038
 20
-1739.782801761914
  0
LWPOLYLINE
  5
718F
330
7148
100
AcDbEntity
  8
0
100
AcDbPolyline
 90
        6
 70
     1
 43
0.0
 10
1761.452479903983
 20
-1684.022625166861
 42
0.4142135623730951
 10
1757.452479903983
 20
-1680.022625166861
 10
1735.452479903983
 20
-1680.022625166861
 42
0.4142135623730951
 10
1731.452479903983
 20
-1684.022625166861
 10
1731.452479903983
 20
-1739.782801761914
 10
1761.452479903983
 20
-1739.782801761914
  0
LWPOLYLINE
  5
7190
330
7148
100
AcDbEntity
  8
0
100
AcDbPolyline
 90
        6
 70
     1
 43
0.0
 10
1728.651552469829
 20
-1684.022625166861
 42
0.4142135623730951
 10
1724.651552469829
 20
-1680.022625166861
 10
1428.289236331192
 20
-1680.022625166861
 42
0.4142135623730951
 10
1424.289236331192
 20
-1684.022625166861
 10
1424.289236331192
 20
-1739.782801761914
 10
1728.65155246983
 20
-1739.782801761914
  0
LINE
  5
7191
330
7148
100
AcDbEntity
  8
0
  6
AM_DIN_F_W050
 62
     6
 48
5.0
100
AcDbLine
 10
1563.381017692152
 20
-1861.801882708094
 30
0.0
 11
1589.559771108869
 21
-1861.801882708094
 31
0.0
  0
LINE
  5
7192
330
7148
100
AcDbEntity
  8
0
100
AcDbLine
 10
1563.381017692152
 20
-1847.289773333094
 30
0.0
 11
1563.381017692152
 21
-1850.229806970247
 31
0.0
  0
LINE
  5
7193
330
7148
100
AcDbEntity
  8
0
100
AcDbLine
 10
1589.559771108869
 20
-1847.289773333094
 30
0.0
 11
1589.559771108869
 21
-1850.229806970247
 31
0.0
  0
LINE
  5
7194
330
7148
100
AcDbEntity
  8
0
  6
Continuous
100
AcDbLine
 10
1398.970394400511
 20
-1844.289773333093
 30
0.0
 11
1398.970394400511
 21
-1850.521603037749
 31
0.0
  0
LINE
  5
7195
330
7148
100
AcDbEntity
  8
0
  6
Continuous
100
AcDbLine
 10
1753.970394400511
 20
-1844.289773333095
 30
0.0
 11
1753.970394400511
 21
-1850.229806970247
 31
0.0
  0
LINE
  5
7196
330
7148
100
AcDbEntity
  8
0
  6
AM_DIN_G_W050
 62
     4
 48
3.0
100
AcDbLine
 10
1576.470394400511
 20
-1671.19981784758
 30
0.0
 11
1576.470394400511
 21
-1720.730114631809
 31
0.0
  0
LWPOLYLINE
  5
7197
330
7148
100
AcDbEntity
  8
0
  6
Continuous
100
AcDbPolyline
 90
       21
 70
   129
 43
0.0
 10
1761.470394400491
 20
-1818.22970388865
 42
0.414213562373012
 10
1758.470394400492
 20
-1815.22970388865
 10
1394.470394400492
 20
-1815.22970388865
 42
0.4142135623730951
 10
1391.470394400492
 20
-1818.22970388865
 10
1391.470394400491
 20
-1840.746837135072
 10
1392.078109244241
 20
-1840.746837135072
 10
1392.078109244241
 20
-1842.289773332988
 42
0.4142135623733115
 10
1394.078109244242
 20
-1844.289773332988
 10
1405.454990418879
 20
-1844.289773333094
 42
-0.4142135623730951
 10
1407.454990418879
 20
-1846.289773333094
 10
1407.454990418879
 20
-1848.229806970246
 42
0.4142135623730951
 10
1409.454990418879
 20
-1850.229806970246
 10
1743.485798382105
 20
-1850.229806970246
 42
0.4142135623730951
 10
1745.485798382105
 20
-1848.229806970246
 10
1745.485798382105
 20
-1846.289773333094
 42
-0.4142135623730951
 10
1747.485798382105
 20
-1844.289773333094
 10
1757.217727667871
 20
-1844.289773333096
 10
1758.862679556741
 20
-1844.289773332988
 42
0.4142135623730951
 10
1760.862679556741
 20
-1842.289773332988
 10
1760.862679556741
 20
-1840.746837135072
 10
1761.470394400491
 20
-1840.746837135072
  0
LINE
  5
7198
330
7148
100
AcDbEntity
  8
0
100
AcDbLine
 10
1521.079622263948
 20
-2154.53987138607
 30
0.0
 11
1631.86115727961
 21
-2154.53987138607
 31
0.0
  0
LWPOLYLINE
  5
7199
330
7148
100
AcDbEntity
  8
0
100
AcDbPolyline
 90
       16
 70
     1
 43
0.0
 10
1748.982249052909
 20
-1895.216165619104
 42
-0.4139729327967471
 10
1753.971166124927
 20
-1890.229806910691
 42
0.4141683565246619
 10
1758.970394400492
 20
-1885.229806970246
 10
1758.970394400492
 20
-1857.229806970246
 42
0.4142135623730951
 10
1751.970394400492
 20
-1850.229806970246
 10
1400.970394400492
 20
-1850.229806970246
 42
0.4142135623730951
 10
1393.970394400492
 20
-1857.229806970246
 10
1393.970394400492
 20
-1885.229806970246
 42
0.4142135623730942
 10
1398.970394400492
 20
-1890.229806970246
 42
-0.4140189505856541
 10
1403.958537610805
 20
-1895.214641470403
 42
0.1422768381526114
 10
1476.761355309798
 20
-2145.264690128352
 42
0.2566256354437959
 10
1493.642654517655
 20
-2154.53987138607
 10
1521.079622263925
 20
-2154.53987138607
 42
0.5623541704931903
 10
1631.861157279587
 20
-2154.53987138607
 10
1659.298125025845
 20
-2154.53987138607
 42
0.2566256408623072
 10
1676.179424451789
 20
-2145.264689785073
 42
0.1422760065677378
  0
ENDBLK
  5
719B
330
7148
100
AcDbEntity
  8
0
100
AcDbBlockEnd
  0
BLOCK
  5
90A7
330
90A6
100
AcDbEntity
  8
0
100
AcDbBlockBegin
  2
*D8
 70
     1
 10
0.0
 20
0.0
 30
0.0
  3
*D8
  1
*D375
  0
LINE
  5
90A9
330
90A6
100
AcDbEntity
  8
DIM
  6
Continuous
 62
     0
370
    -2
100
AcDbLine
 10
1451.971923698504
 20
1462.621346602509
 30
0.0
 11
1451.971923698504
 21
1501.304319817989
 31
0.0
  0
LINE
  5
90AA
330
90A6
100
AcDbEntity
  8
DIM
  6
Continuous
 62
     0
370
    -2
100
AcDbLine
 10
1631.971923698504
 20
1462.621346602509
 30
0.0
 11
1631.971923698504
 21
1501.304319817989
 31
0.0
  0
LINE
  5
90AB
330
90A6
100
AcDbEntity
  8
DIM
  6
Continuous
 62
     0
370
    -2
100
AcDbLine
 10
1457.971923698504
 20
1501.304319817989
 30
0.0
 11
1625.971923698504
 21
1501.304319817989
 31
0.0
  0
INSERT
  5
90AC
330
90A6
100
AcDbEntity
  8
DIM
 62
     0
370
    -2
100
AcDbBlockReference
  2
_DOT
 10
1451.971923698504
 20
1501.304319817989
 30
0.0
 41
6.0
 42
6.0
 43
6.0
 50
180.0
  0
INSERT
  5
90AD
330
90A6
100
AcDbEntity
  8
DIM
 62
     0
370
    -2
100
AcDbBlockReference
  2
_DOT
 10
1631.971923698504
 20
1501.304319817989
 30
0.0
 41
6.0
 42
6.0
 43
6.0
  0
MTEXT
  5
90AE
330
90A6
100
AcDbEntity
  8
DIM
  6
Continuous
 62
     0
100
AcDbMText
 10
1541.971923698504
 20
1528.304319817989
 30
0.0
 40
24.0
 41
0.0
 46
0.0
 71
     5
 72
     1
  1
\A1;180
  7
ＭＳ ゴシック
 73
     1
 44
1.0
  0
POINT
  5
90AF
330
90A6
100
AcDbEntity
  8
Defpoints
 62
     0
100
AcDbPoint
 10
1451.971923698504
 20
1437.621346602509
 30
0.0
  0
POINT
  5
90B0
330
90A6
100
AcDbEntity
  8
Defpoints
 62
     0
100
AcDbPoint
 10
1631.971923698504
 20
1437.621346602509
 30
0.0
  0
POINT
  5
90B1
330
90A6
100
AcDbEntity
  8
Defpoints
 62
     0
100
AcDbPoint
 10
1631.971923698504
 20
1501.304319817989
 30
0.0
  0
ENDBLK
  5
90A8
330
90A6
100
AcDbEntity
  8
0
100
AcDbBlockEnd
  0
BLOCK
  5
90DB
330
90DA
100
AcDbEntity
  8
0
100
AcDbBlockBegin
  2
*D9
 70
     1
 10
0.0
 20
0.0
 30
0.0
  3
*D9
  1
*D378
  0
LINE
  5
90DD
330
90DA
100
AcDbEntity
  8
DIM
  6
Continuous
 62
     0
370
    -2
100
AcDbLine
 10
281.0066443648811
 20
1332.628956186029
 30
0.0
 11
252.3256055187012
 21
1332.628956186029
 31
0.0
  0
LINE
  5
90DE
330
90DA
100
AcDbEntity
  8
DIM
  6
Continuous
 62
     0
370
    -2
100
AcDbLine
 10
280.7977552885882
 20
1197.139483174975
 30
0.0
 11
252.3256055187012
 21
1197.139483174975
 31
0.0
  0
LINE
  5
90DF
330
90DA
100
AcDbEntity
  8
DIM
  6
Continuous
 62
     0
370
    -2
100
AcDbLine
 10
252.3256055187012
 20
1326.628956186029
 30
0.0
 11
252.3256055187012
 21
1203.139483174975
 31
0.0
  0
INSERT
  5
90E0
330
90DA
100
AcDbEntity
  8
DIM
 62
     0
370
    -2
100
AcDbBlockReference
  2
_DOT
 10
252.3256055187012
 20
1332.628956186029
 30
0.0
 41
6.0
 42
6.0
 43
6.0
 50
90.0
  0
INSERT
  5
90E1
330
90DA
100
AcDbEntity
  8
DIM
 62
     0
370
    -2
100
AcDbBlockReference
  2
_DOT
 10
252.3256055187012
 20
1197.139483174975
 30
0.0
 41
6.0
 42
6.0
 43
6.0
 50
270.0
  0
MTEXT
  5
90E2
330
90DA
100
AcDbEntity
  8
DIM
  6
Continuous
 62
     0
100
AcDbMText
 10
225.3256055187012
 20
1264.884219680502
 30
0.0
 40
24.0
 41
0.0
 46
0.0
 71
     5
 72
     1
  1
\A1;135
  7
ＭＳ ゴシック
 11
0.0
 21
1.0
 31
0.0
 73
     1
 44
1.0
  0
POINT
  5
90E3
330
90DA
100
AcDbEntity
  8
Defpoints
 62
     0
100
AcDbPoint
 10
306.0066443648811
 20
1332.628956186029
 30
0.0
  0
POINT
  5
90E4
330
90DA
100
AcDbEntity
  8
Defpoints
 62
     0
100
AcDbPoint
 10
305.7977552885882
 20
1197.139483174975
 30
0.0
  0
POINT
  5
90E5
330
90DA
100
AcDbEntity
  8
Defpoints
 62
     0
100
AcDbPoint
 10
252.3256055187012
 20
1197.139483174975
 30
0.0
  0
ENDBLK
  5
90DC
330
90DA
100
AcDbEntity
  8
0
100
AcDbBlockEnd
  0
BLOCK
  5
90EA
330
90E9
100
AcDbEntity
  8
0
100
AcDbBlockBegin
  2
*D10
 70
     1
 10
0.0
 20
0.0
 30
0.0
  3
*D10
  1
*D379
  0
LINE
  5
90EC
330
90E9
100
AcDbEntity
  8
DIM
  6
Continuous
 62
     0
370
    -2
100
AcDbLine
 10
281.0066443648811
 20
1332.628956186029
 30
0.0
 11
252.3256055187012
 21
1332.628956186029
 31
0.0
  0
LINE
  5
90ED
330
90E9
100
AcDbEntity
  8
DIM
  6
Continuous
 62
     0
370
    -2
100
AcDbLine
 10
291.773193614777
 20
1377.144032370176
 30
0.0
 11
252.3256055187012
 21
1377.144032370176
 31
0.0
  0
LINE
  5
90EE
330
90E9
100
AcDbEntity
  8
DIM
  6
Continuous
 62
     0
370
    -2
100
AcDbLine
 10
252.3256055187012
 20
1338.628956186029
 30
0.0
 11
252.3256055187012
 21
1371.144032370176
 31
0.0
  0
INSERT
  5
90EF
330
90E9
100
AcDbEntity
  8
DIM
 62
     0
370
    -2
100
AcDbBlockReference
  2
_DOT
 10
252.3256055187012
 20
1332.628956186029
 30
0.0
 41
6.0
 42
6.0
 43
6.0
 50
270.0
  0
INSERT
  5
90F0
330
90E9
100
AcDbEntity
  8
DIM
 62
     0
370
    -2
100
AcDbBlockReference
  2
_DOT
 10
252.3256055187012
 20
1377.144032370176
 30
0.0
 41
6.0
 42
6.0
 43
6.0
 50
90.0
  0
MTEXT
  5
90F1
330
90E9
100
AcDbEntity
  8
DIM
  6
Continuous
 62
     0
100
AcDbMText
 10
225.3256055187012
 20
1354.886494278102
 30
0.0
 40
24.0
 41
0.0
 46
0.0
 71
     5
 72
     1
  1
\A1;45
  7
ＭＳ ゴシック
 11
0.0
 21
1.0
 31
0.0
 73
     1
 44
1.0
  0
POINT
  5
90F2
330
90E9
100
AcDbEntity
  8
Defpoints
 62
     0
100
AcDbPoint
 10
306.0066443648811
 20
1332.628956186029
 30
0.0
  0
POINT
  5
90F3
330
90E9
100
AcDbEntity
  8
Defpoints
 62
     0
100
AcDbPoint
 10
316.773193614777
 20
1377.144032370176
 30
0.0
  0
POINT
  5
90F4
330
90E9
100
AcDbEntity
  8
Defpoints
 62
     0
100
AcDbPoint
 10
252.3256055187012
 20
1377.144032370176
 30
0.0
  0
ENDBLK
  5
90EB
330
90E9
100
AcDbEntity
  8
0
100
AcDbBlockEnd
  0
BLOCK
  5
9107
330
9106
100
AcDbEntity
  8
0
100
AcDbBlockBegin
  2
*D11
 70
     1
 10
0.0
 20
0.0
 30
0.0
  3
*D11
  1
*D380
  0
LINE
  5
9109
330
9106
100
AcDbEntity
  8
DIM
  6
Continuous
 62
     0
370
    -2
100
AcDbLine
 10
862.835496262373
 20
2524.468821522978
 30
0.0
 11
1066.877272919306
 21
2524.468821522978
 31
0.0
  0
LINE
  5
910A
330
9106
100
AcDbEntity
  8
DIM
  6
Continuous
 62
     0
370
    -2
100
AcDbLine
 10
862.8340306017308
 20
2164.468821528945
 30
0.0
 11
1066.877272919306
 21
2164.468821528945
 31
0.0
  0
LINE
  5
910B
330
9106
100
AcDbEntity
  8
DIM
  6
Continuous
 62
     0
370
    -2
100
AcDbLine
 10
1066.877272919306
 20
2518.468821522978
 30
0.0
 11
1066.877272919306
 21
2170.468821528945
 31
0.0
  0
INSERT
  5
910C
330
9106
100
AcDbEntity
  8
DIM
 62
     0
370
    -2
100
AcDbBlockReference
  2
_DOT
 10
1066.877272919306
 20
2524.468821522978
 30
0.0
 41
6.0
 42
6.0
 43
6.0
 50
90.0
  0
INSERT
  5
910D
330
9106
100
AcDbEntity
  8
DIM
 62
     0
370
    -2
100
AcDbBlockReference
  2
_DOT
 10
1066.877272919306
 20
2164.468821528945
 30
0.0
 41
6.0
 42
6.0
 43
6.0
 50
270.0
  0
MTEXT
  5
910E
330
9106
100
AcDbEntity
  8
DIM
  6
Continuous
 62
     0
100
AcDbMText
 10
1039.877272919306
 20
2344.468821525961
 30
0.0
 40
24.0
 41
0.0
 46
0.0
 71
     5
 72
     1
  1
\A1;360
  7
ＭＳ ゴシック
 11
0.0
 21
1.0
 31
0.0
 73
     1
 44
1.0
  0
POINT
  5
910F
330
9106
100
AcDbEntity
  8
Defpoints
 62
     0
100
AcDbPoint
 10
837.835496262373
 20
2524.468821522978
 30
0.0
  0
POINT
  5
9110
330
9106
100
AcDbEntity
  8
Defpoints
 62
     0
100
AcDbPoint
 10
837.8340306017308
 20
2164.468821528945
 30
0.0
  0
POINT
  5
9111
330
9106
100
AcDbEntity
  8
Defpoints
 62
     0
100
AcDbPoint
 10
1066.877272919306
 20
2164.468821528945
 30
0.0
  0
ENDBLK
  5
9108
330
9106
100
AcDbEntity
  8
0
100
AcDbBlockEnd
  0
BLOCK
  5
9113
330
9112
100
AcDbEntity
  8
0
100
AcDbBlockBegin
  2
*D12
 70
     1
 10
0.0
 20
0.0
 30
0.0
  3
*D12
  1
*D381
  0
LINE
  5
9115
330
9112
100
AcDbEntity
  8
DIM
  6
Continuous
 62
     0
370
    -2
100
AcDbLine
 10
311.7616734456878
 20
2570.05154395497
 30
0.0
 11
311.7616734456878
 21
2640.302368548801
 31
0.0
  0
LINE
  5
9116
330
9112
100
AcDbEntity
  8
DIM
  6
Continuous
 62
     0
370
    -2
100
AcDbLine
 10
931.7639979467358
 20
2428.896707508691
 30
0.0
 11
931.7639979467358
 21
2640.302368548801
 31
0.0
  0
LINE
  5
9117
330
9112
100
AcDbEntity
  8
DIM
  6
Continuous
 62
     0
370
    -2
100
AcDbLine
 10
317.7616734456878
 20
2640.302368548801
 30
0.0
 11
925.7639979467358
 21
2640.302368548801
 31
0.0
  0
INSERT
  5
9118
330
9112
100
AcDbEntity
  8
DIM
 62
     0
370
    -2
100
AcDbBlockReference
  2
_DOT
 10
311.7616734456878
 20
2640.302368548801
 30
0.0
 41
6.0
 42
6.0
 43
6.0
 50
180.0
  0
INSERT
  5
9119
330
9112
100
AcDbEntity
  8
DIM
 62
     0
370
    -2
100
AcDbBlockReference
  2
_DOT
 10
931.7639979467358
 20
2640.302368548801
 30
0.0
 41
6.0
 42
6.0
 43
6.0
  0
MTEXT
  5
911A
330
9112
100
AcDbEntity
  8
DIM
  6
Continuous
 62
     0
100
AcDbMText
 10
621.7628356962118
 20
2667.302368548801
 30
0.0
 40
24.0
 41
0.0
 46
0.0
 71
     5
 72
     1
  1
\A1;620
  7
ＭＳ ゴシック
 73
     1
 44
1.0
  0
POINT
  5
911B
330
9112
100
AcDbEntity
  8
Defpoints
 62
     0
100
AcDbPoint
 10
311.7616734456878
 20
2545.05154395497
 30
0.0
  0
POINT
  5
911C
330
9112
100
AcDbEntity
  8
Defpoints
 62
     0
100
AcDbPoint
 10
931.7639979467358
 20
2403.896707508691
 30
0.0
  0
POINT
  5
911D
330
9112
100
AcDbEntity
  8
Defpoints
 62
     0
100
AcDbPoint
 10
931.7639979467358
 20
2640.302368548801
 30
0.0
  0
ENDBLK
  5
9114
330
9112
100
AcDbEntity
  8
0
100
AcDbBlockEnd
  0
BLOCK
  5
911F
330
911E
100
AcDbEntity
  8
0
100
AcDbBlockBegin
  2
*D13
 70
     1
 10
0.0
 20
0.0
 30
0.0
  3
*D13
  1
*D382
  0
LINE
  5
9121
330
911E
100
AcDbEntity
  8
DIM
  6
Continuous
 62
     0
370
    -2
100
AcDbLine
 10
291.847931745051
 20
2531.969882150847
 30
0.0
 11
180.1919253726842
 21
2531.969882150847
 31
0.0
  0
LINE
  5
9122
330
911E
100
AcDbEntity
  8
DIM
  6
Continuous
 62
     0
370
    -2
100
AcDbLine
 10
291.8479317450519
 20
2156.969916357923
 30
0.0
 11
180.1919253726842
 21
2156.969916357923
 31
0.0
  0
LINE
  5
9123
330
911E
100
AcDbEntity
  8
DIM
  6
Continuous
 62
     0
370
    -2
100
AcDbLine
 10
180.1919253726842
 20
2525.969882150847
 30
0.0
 11
180.1919253726842
 21
2162.969916357923
 31
0.0
  0
INSERT
  5
9124
330
911E
100
AcDbEntity
  8
DIM
 62
     0
370
    -2
100
AcDbBlockReference
  2
_DOT
 10
180.1919253726842
 20
2531.969882150847
 30
0.0
 41
6.0
 42
6.0
 43
6.0
 50
90.0
  0
INSERT
  5
9125
330
911E
100
AcDbEntity
  8
DIM
 62
     0
370
    -2
100
AcDbBlockReference
  2
_DOT
 10
180.1919253726842
 20
2156.969916357923
 30
0.0
 41
6.0
 42
6.0
 43
6.0
 50
270.0
  0
MTEXT
  5
9126
330
911E
100
AcDbEntity
  8
DIM
  6
Continuous
 62
     0
100
AcDbMText
 10
153.1919253726842
 20
2344.469899254385
 30
0.0
 40
24.0
 41
0.0
 46
0.0
 71
     5
 72
     1
  1
\A1;375
  7
ＭＳ ゴシック
 11
7.579123206133455E-17
 21
1.0
 31
0.0
 73
     1
 44
1.0
  0
POINT
  5
9127
330
911E
100
AcDbEntity
  8
Defpoints
 62
     0
100
AcDbPoint
 10
316.847931745051
 20
2531.969882150847
 30
0.0
  0
POINT
  5
9128
330
911E
100
AcDbEntity
  8
Defpoints
 62
     0
100
AcDbPoint
 10
316.8479317450519
 20
2156.969916357923
 30
0.0
  0
POINT
  5
9129
330
911E
100
AcDbEntity
  8
Defpoints
 62
     0
100
AcDbPoint
 10
180.1919253726842
 20
2156.969916357923
 30
0.0
  0
ENDBLK
  5
9120
330
911E
100
AcDbEntity
  8
0
100
AcDbBlockEnd
  0
BLOCK
  5
9345
330
9344
100
AcDbEntity
  8
0
100
AcDbBlockBegin
  2
*D14
 70
     1
 10
0.0
 20
0.0
 30
0.0
  3
*D14
  1
*D409
  0
LINE
  5
9347
330
9344
100
AcDbEntity
  8
DIM
  6
Continuous
 62
     0
370
    -2
100
AcDbLine
 10
962.0832944377571
 20
1377.119166358829
 30
0.0
 11
1009.568781713449
 21
1377.119166358829
 31
0.0
  0
LINE
  5
9348
330
9344
100
AcDbEntity
  8
DIM
  6
Continuous
 62
     0
370
    -2
100
AcDbLine
 10
654.8680956508169
 20
1042.119166358829
 30
0.0
 11
1009.568781713449
 21
1042.119166358829
 31
0.0
  0
LINE
  5
9349
330
9344
100
AcDbEntity
  8
DIM
  6
Continuous
 62
     0
370
    -2
100
AcDbLine
 10
1009.568781713449
 20
1371.119166358829
 30
0.0
 11
1009.568781713449
 21
1048.119166358829
 31
0.0
  0
INSERT
  5
934A
330
9344
100
AcDbEntity
  8
DIM
 62
     0
370
    -2
100
AcDbBlockReference
  2
_DOT
 10
1009.568781713449
 20
1377.119166358829
 30
0.0
 41
6.0
 42
6.0
 43
6.0
 50
90.0
  0
INSERT
  5
934B
330
9344
100
AcDbEntity
  8
DIM
 62
     0
370
    -2
100
AcDbBlockReference
  2
_DOT
 10
1009.568781713449
 20
1042.119166358829
 30
0.0
 41
6.0
 42
6.0
 43
6.0
 50
270.0
  0
MTEXT
  5
934C
330
9344
100
AcDbEntity
  8
DIM
  6
Continuous
 62
     0
100
AcDbMText
 10
982.568781713449
 20
1209.619166358829
 30
0.0
 40
24.0
 41
0.0
 46
0.0
 71
     5
 72
     1
  1
\A1;335
  7
ＭＳ ゴシック
 11
0.0
 21
1.0
 31
0.0
 73
     1
 44
1.0
  0
POINT
  5
934D
330
9344
100
AcDbEntity
  8
Defpoints
 62
     0
100
AcDbPoint
 10
937.0832944377571
 20
1377.119166358829
 30
0.0
  0
POINT
  5
934E
330
9344
100
AcDbEntity
  8
Defpoints
 62
     0
100
AcDbPoint
 10
629.8680956508169
 20
1042.119166358829
 30
0.0
  0
POINT
  5
934F
330
9344
100
AcDbEntity
  8
Defpoints
 62
     0
100
AcDbPoint
 10
1009.568781713449
 20
1042.119166358829
 30
0.0
  0
ENDBLK
  5
9346
330
9344
100
AcDbEntity
  8
0
100
AcDbBlockEnd
  0
BLOCK
  5
9357
330
9356
100
AcDbEntity
  8
0
100
AcDbBlockBegin
  2
*D15
 70
     1
 10
0.0
 20
0.0
 30
0.0
  3
*D15
  1
*D410
  0
LINE
  5
9359
330
9356
100
AcDbEntity
  8
DIM
  6
Continuous
 62
     0
370
    -2
100
AcDbLine
 10
1566.448408072798
 20
1042.25960417364
 30
0.0
 11
1942.649605270093
 21
1042.25960417364
 31
0.0
  0
LINE
  5
935A
330
9356
100
AcDbEntity
  8
DIM
  6
Continuous
 62
     0
370
    -2
100
AcDbLine
 10
1759.55656162472
 20
1427.270562834107
 30
0.0
 11
1942.649605270093
 21
1427.270562834107
 31
0.0
  0
LINE
  5
935B
330
9356
100
AcDbEntity
  8
DIM
  6
Continuous
 62
     0
370
    -2
100
AcDbLine
 10
1942.649605270093
 20
1048.25960417364
 30
0.0
 11
1942.649605270093
 21
1421.270562834107
 31
0.0
  0
INSERT
  5
935C
330
9356
100
AcDbEntity
  8
DIM
 62
     0
370
    -2
100
AcDbBlockReference
  2
_DOT
 10
1942.649605270093
 20
1042.25960417364
 30
0.0
 41
6.0
 42
6.0
 43
6.0
 50
270.0
  0
INSERT
  5
935D
330
9356
100
AcDbEntity
  8
DIM
 62
     0
370
    -2
100
AcDbBlockReference
  2
_DOT
 10
1942.649605270093
 20
1427.270562834107
 30
0.0
 41
6.0
 42
6.0
 43
6.0
 50
90.0
  0
MTEXT
  5
935E
330
9356
100
AcDbEntity
  8
DIM
  6
Continuous
 62
     0
100
AcDbMText
 10
1915.649605270093
 20
1234.765083503873
 30
0.0
 40
24.0
 41
0.0
 46
0.0
 71
     5
 72
     1
  1
\A1;385
  7
ＭＳ ゴシック
 11
0.0
 21
1.0
 31
0.0
 73
     1
 44
1.0
  0
POINT
  5
935F
330
9356
100
AcDbEntity
  8
Defpoints
 62
     0
100
AcDbPoint
 10
1541.448408072798
 20
1042.25960417364
 30
0.0
  0
POINT
  5
9360
330
9356
100
AcDbEntity
  8
Defpoints
 62
     0
100
AcDbPoint
 10
1734.55656162472
 20
1427.270562834107
 30
0.0
  0
POINT
  5
9361
330
9356
100
AcDbEntity
  8
Defpoints
 62
     0
100
AcDbPoint
 10
1942.649605270093
 20
1427.270562834107
 30
0.0
  0
ENDBLK
  5
9358
330
9356
100
AcDbEntity
  8
0
100
AcDbBlockEnd
  0
BLOCK
  5
9366
330
9365
100
AcDbEntity
  8
0
100
AcDbBlockBegin
  2
*D16
 70
     1
 10
0.0
 20
0.0
 30
0.0
  3
*D16
  1
*D411
  0
LINE
  5
9368
330
9365
100
AcDbEntity
  8
DIM
  6
Continuous
 62
     0
370
    -2
100
AcDbLine
 10
1566.448408072798
 20
1042.25960417364
 30
0.0
 11
1852.835744155002
 21
1042.25960417364
 31
0.0
  0
LINE
  5
9369
330
9365
100
AcDbEntity
  8
DIM
  6
Continuous
 62
     0
370
    -2
100
AcDbLine
 10
1758.271249292852
 20
1402.259604173639
 30
0.0
 11
1852.835744155002
 21
1402.259604173639
 31
0.0
  0
LINE
  5
936A
330
9365
100
AcDbEntity
  8
DIM
  6
Continuous
 62
     0
370
    -2
100
AcDbLine
 10
1852.835744155002
 20
1048.25960417364
 30
0.0
 11
1852.835744155002
 21
1396.259604173639
 31
0.0
  0
INSERT
  5
936B
330
9365
100
AcDbEntity
  8
DIM
 62
     0
370
    -2
100
AcDbBlockReference
  2
_DOT
 10
1852.835744155002
 20
1042.25960417364
 30
0.0
 41
6.0
 42
6.0
 43
6.0
 50
270.0
  0
INSERT
  5
936C
330
9365
100
AcDbEntity
  8
DIM
 62
     0
370
    -2
100
AcDbBlockReference
  2
_DOT
 10
1852.835744155002
 20
1402.259604173639
 30
0.0
 41
6.0
 42
6.0
 43
6.0
 50
90.0
  0
MTEXT
  5
936D
330
9365
100
AcDbEntity
  8
DIM
  6
Continuous
 62
     0
100
AcDbMText
 10
1825.835744155002
 20
1222.259604173639
 30
0.0
 40
24.0
 41
0.0
 46
0.0
 71
     5
 72
     1
  1
\A1;360
  7
ＭＳ ゴシック
 11
0.0
 21
1.0
 31
0.0
 73
     1
 44
1.0
  0
POINT
  5
936E
330
9365
100
AcDbEntity
  8
Defpoints
 62
     0
100
AcDbPoint
 10
1541.448408072798
 20
1042.25960417364
 30
0.0
  0
POINT
  5
936F
330
9365
100
AcDbEntity
  8
Defpoints
 62
     0
100
AcDbPoint
 10
1733.271249292852
 20
1402.259604173639
 30
0.0
  0
POINT
  5
9370
330
9365
100
AcDbEntity
  8
Defpoints
 62
     0
100
AcDbPoint
 10
1852.835744155002
 20
1402.259604173639
 30
0.0
  0
ENDBLK
  5
9367
330
9365
100
AcDbEntity
  8
0
100
AcDbBlockEnd
  0
BLOCK
  5
938F
330
938E
100
AcDbEntity
  8
0
100
AcDbBlockBegin
  2
*D17
 70
     1
 10
0.0
 20
0.0
 30
0.0
  3
*D17
  1
*D413
  0
LINE
  5
9391
330
938E
100
AcDbEntity
  8
DIM
  6
Continuous
 62
     0
370
    -2
100
AcDbLine
 10
1340.948412701541
 20
1377.129200093971
 30
0.0
 11
1272.4481273626
 21
1377.129200093971
 31
0.0
  0
LINE
  5
9392
330
938E
100
AcDbEntity
  8
DIM
  6
Continuous
 62
     0
370
    -2
100
AcDbLine
 10
1340.948412701541
 20
1297.129200093972
 30
0.0
 11
1272.4481273626
 21
1297.129200093972
 31
0.0
  0
LINE
  5
9393
330
938E
100
AcDbEntity
  8
DIM
  6
Continuous
 62
     0
370
    -2
100
AcDbLine
 10
1272.4481273626
 20
1371.129200093971
 30
0.0
 11
1272.4481273626
 21
1303.129200093972
 31
0.0
  0
INSERT
  5
9394
330
938E
100
AcDbEntity
  8
DIM
 62
     0
370
    -2
100
AcDbBlockReference
  2
_DOT
 10
1272.4481273626
 20
1377.129200093971
 30
0.0
 41
6.0
 42
6.0
 43
6.0
 50
90.0
  0
INSERT
  5
9395
330
938E
100
AcDbEntity
  8
DIM
 62
     0
370
    -2
100
AcDbBlockReference
  2
_DOT
 10
1272.4481273626
 20
1297.129200093972
 30
0.0
 41
6.0
 42
6.0
 43
6.0
 50
270.0
  0
MTEXT
  5
9396
330
938E
100
AcDbEntity
  8
DIM
  6
Continuous
 62
     0
100
AcDbMText
 10
1245.4481273626
 20
1337.129200093972
 30
0.0
 40
24.0
 41
0.0
 46
0.0
 71
     5
 72
     1
  1
\A1;80
  7
ＭＳ ゴシック
 11
0.0
 21
1.0
 31
0.0
 73
     1
 44
1.0
  0
POINT
  5
9397
330
938E
100
AcDbEntity
  8
Defpoints
 62
     0
100
AcDbPoint
 10
1365.948412701541
 20
1377.129200093971
 30
0.0
  0
POINT
  5
9398
330
938E
100
AcDbEntity
  8
Defpoints
 62
     0
100
AcDbPoint
 10
1365.948412701541
 20
1297.129200093972
 30
0.0
  0
POINT
  5
9399
330
938E
100
AcDbEntity
  8
Defpoints
 62
     0
100
AcDbPoint
 10
1272.4481273626
 20
1297.129200093972
 30
0.0
  0
ENDBLK
  5
9390
330
938E
100
AcDbEntity
  8
0
100
AcDbBlockEnd
  0
BLOCK
  5
9908
330
9907
100
AcDbEntity
  8
0
100
AcDbBlockBegin
  2
*D18
 70
     1
 10
0.0
 20
0.0
 30
0.0
  3
*D18
  1

  0
LINE
  5
990A
330
9907
100
AcDbEntity
  8
MODEL
  6
Continuous
 62
     0
370
    -2
100
AcDbLine
 10
1783.271249292852
 20
1402.259604173639
 30
0.0
 11
1794.969054394115
 21
1402.259604173639
 31
0.0
  0
LINE
  5
990B
330
9907
100
AcDbEntity
  8
MODEL
  6
Continuous
 62
     0
370
    -2
100
AcDbLine
 10
1666.82850592324
 20
1296.377389024943
 30
0.0
 11
1794.969054394115
 21
1296.377389024943
 31
0.0
  0
LINE
  5
990C
330
9907
100
AcDbEntity
  8
MODEL
  6
Continuous
 62
     0
370
    -2
100
AcDbLine
 10
1794.969054394115
 20
1396.259604173639
 30
0.0
 11
1794.969054394115
 21
1302.377389024943
 31
0.0
  0
INSERT
  5
990D
330
9907
100
AcDbEntity
  8
MODEL
 62
     0
370
    -2
100
AcDbBlockReference
  2
_DOT
 10
1794.969054394115
 20
1402.259604173639
 30
0.0
 41
6.0
 42
6.0
 43
6.0
 50
90.0
  0
INSERT
  5
990E
330
9907
100
AcDbEntity
  8
MODEL
 62
     0
370
    -2
100
AcDbBlockReference
  2
_DOT
 10
1794.969054394115
 20
1296.377389024943
 30
0.0
 41
6.0
 42
6.0
 43
6.0
 50
270.0
  0
MTEXT
  5
990F
330
9907
100
AcDbEntity
  8
MODEL
  6
Continuous
 62
     0
100
AcDbMText
 10
1767.969054394115
 20
1349.318496599291
 30
0.0
 40
24.0
 41
0.0
 46
0.0
 71
     5
 72
     1
  1
\A1;105
  7
ＭＳ ゴシック
 11
0.0
 21
1.0
 31
0.0
 73
     1
 44
1.0
  0
POINT
  5
9910
330
9907
100
AcDbEntity
  8
Defpoints
 62
     0
100
AcDbPoint
 10
1758.271249292852
 20
1402.259604173639
 30
0.0
  0
POINT
  5
9911
330
9907
100
AcDbEntity
  8
Defpoints
 62
     0
100
AcDbPoint
 10
1641.82850592324
 20
1296.377389024943
 30
0.0
  0
POINT
  5
9912
330
9907
100
AcDbEntity
  8
Defpoints
 62
     0
100
AcDbPoint
 10
1794.969054394115
 20
1296.377389024943
 30
0.0
  0
ENDBLK
  5
9909
330
9907
100
AcDbEntity
  8
0
100
AcDbBlockEnd
  0
ENDSEC
  0
SECTION
  2
ENTITIES
  0
POINT
  5
3B96
330
A
100
AcDbEntity
  8
_0-7_
 62
     9
100
AcDbPoint
 10
5611.355377587607
 20
1006.191153304715
 30
0.0
  0
MTEXT
  5
7BAD
330
A
100
AcDbEntity
  8
MODEL
390
1D
100
AcDbMText
 10
79.25470553268497
 20
348.784871976226
 30
0.0
 40
16.28841145833333
 41
0.0
 46
0.0
 71
     1
 72
     1
  1
品名
  7
ＭＳ ゴシック
 73
     1
 44
0.7828267384257843
  0
MTEXT
  5
7BAE
330
A
100
AcDbEntity
  8
MODEL
390
1D
100
AcDbMText
 10
79.25470553268497
 20
263.784871976226
 30
0.0
 40
16.28841145833333
 41
0.0
 46
0.0
 71
     1
 72
     1
  1
仕様
  7
ＭＳ ゴシック
 73
     1
 44
0.7828267384257843
  0
LINE
  5
7BAF
330
A
100
AcDbEntity
  8
MODEL
390
1D
100
AcDbLine
 10
2022.254705532203
 20
272.1997938512268
 30
0.0
 11
72.25470553220293
 21
272.1997938512268
 31
0.0
  0
LWPOLYLINE
  5
7BB0
330
A
100
AcDbEntity
  8
MODEL
390
1D
100
AcDbPolyline
 90
        5
 70
   128
 43
0.0
 10
2022.254705532203
 20
2902.199793851227
 10
72.25470553220293
 20
2902.199793851227
 10
72.25470553220293
 20
102.1997938512268
 10
2022.254705532203
 20
102.1997938512268
 10
2022.254705532203
 20
2902.199793851227
  0
LINE
  5
7BB1
330
A
100
AcDbEntity
  8
MODEL
390
1D
100
AcDbLine
 10
2022.254705532203
 20
357.1997938512268
 30
0.0
 11
72.25470553220293
 21
357.1997938512268
 31
0.0
  0
LINE
  5
7BB2
330
A
100
AcDbEntity
  8
MODEL
390
1D
100
AcDbLine
 10
2022.254705532685
 20
187.1997938512268
 30
0.0
 11
1269.254705532685
 21
187.1997938512268
 31
0.0
  0
MTEXT
  5
7BB3
330
A
100
AcDbEntity
  8
MODEL
390
1D
100
AcDbMText
 10
72.25470553288915
 20
90.34597179436969
 30
0.0
 40
21.71788194444445
 41
0.0
 46
21.71788194444445
 71
     1
 72
     1
  1
{160122N}
  7
ＭＳ ゴシック
 73
     1
 44
0.7828267384257843
1001
ACAD
1000
ACAD_MTEXT_DEFINED_HEIGHT_BEGIN
1070
    46
1040
21.71788194444445
1000
ACAD_MTEXT_DEFINED_HEIGHT_END
  0
MTEXT
  5
7BB4
330
A
100
AcDbEntity
  8
MODEL
390
1D
100
AcDbMText
 10
1299.126111784947
 20
157.289399377918
 30
0.0
 40
24.4326171875
 41
0.0
 46
0.0
 71
     1
 72
     1
  1
大洋金物株式会社 ティーフォルム事業部
  7
ＭＳ ゴシック
 73
     1
 44
0.7828267384257843
  0
MTEXT
  5
7BB5
330
A
100
AcDbEntity
  8
MODEL
390
1D
100
AcDbMText
 10
1831.254705532946
 20
235.2024110387265
 30
0.0
 40
24.4326171875
 41
0.0
 46
24.4326171875
 71
     1
 72
     1
  1
{1:10}
  7
ＭＳ ゴシック
 73
     1
 44
0.7828267384257843
1001
ACAD
1000
ACAD_MTEXT_DEFINED_HEIGHT_BEGIN
1070
    46
1040
24.4326171875
1000
ACAD_MTEXT_DEFINED_HEIGHT_END
  0
MTEXT
  5
7BB6
330
A
100
AcDbEntity
  8
MODEL
390
1D
100
AcDbMText
 10
1778.254705532946
 20
263.784871976226
 30
0.0
 40
16.28841145833333
 41
0.0
 46
0.0
 71
     1
 72
     1
  1
縮尺
  7
ＭＳ ゴシック
 73
     1
 44
0.7828267384257843
  0
LINE
  5
7BB7
330
A
100
AcDbEntity
  8
MODEL
390
1D
100
AcDbLine
 10
1771.254705532946
 20
187.1997938512268
 30
0.0
 11
1771.254705532946
 21
272.1997938512268
 31
0.0
  0
MTEXT
  5
7BB8
330
A
100
AcDbEntity
  8
MODEL
390
1D
100
AcDbMText
 10
1527.254705532946
 20
263.784871976226
 30
0.0
 40
16.28841145833333
 41
0.0
 46
0.0
 71
     1
 72
     1
  1
容量
  7
ＭＳ ゴシック
 73
     1
 44
0.7828267384257843
  0
LINE
  5
7BB9
330
A
100
AcDbEntity
  8
MODEL
390
1D
100
AcDbLine
 10
1520.254705532946
 20
187.1997938512268
 30
0.0
 11
1520.254705532946
 21
272.1997938512268
 31
0.0
  0
MTEXT
  5
7BBA
330
A
100
AcDbEntity
  8
MODEL
390
1D
100
AcDbMText
 10
1276.254705532946
 20
348.784871976226
 30
0.0
 40
16.28841145833333
 41
0.0
 46
0.0
 71
     1
 72
     1
  1
品番
  7
ＭＳ ゴシック
 73
     1
 44
0.7828267384257843
  0
MTEXT
  5
7BBB
330
A
100
AcDbEntity
  8
MODEL
390
1D
100
AcDbMText
 10
1276.254705532946
 20
263.784871976226
 30
0.0
 40
16.28841145833333
 41
0.0
 46
0.0
 71
     1
 72
     1
  1
重量
  7
ＭＳ ゴシック
 73
     1
 44
0.7828267384257843
  0
MTEXT
  5
7BBC
330
A
100
AcDbEntity
  8
MODEL
390
1D
100
AcDbMText
 10
1329.254705532946
 20
320.2024110387265
 30
0.0
 40
24.4326171875
 41
0.0
 46
24.4326171875
 71
     1
 72
     1
  1
{FAA71-0408}
  7
ＭＳ ゴシック
 73
     1
 44
0.7828267384257843
1001
ACAD
1000
ACAD_MTEXT_DEFINED_HEIGHT_BEGIN
1070
    46
1040
24.4326171875
1000
ACAD_MTEXT_DEFINED_HEIGHT_END
  0
LINE
  5
7BBD
330
A
100
AcDbEntity
  8
MODEL
390
1D
100
AcDbLine
 10
1269.254705532946
 20
102.1997938512268
 30
0.0
 11
1269.254705532946
 21
357.1997938512268
 31
0.0
  0
MTEXT
  5
7BBE
330
A
100
AcDbEntity
  8
MODEL
390
1D
100
AcDbMText
 10
132.254705532685
 20
320.2024110387265
 30
0.0
 40
24.4326171875
 41
0.0
 46
24.4326171875
 71
     1
 72
     1
  1
{壁掛便器 -DURAVIT,Starck2-}
  7
ＭＳ ゴシック
 73
     1
 44
0.7828267384257843
1001
ACAD
1000
ACAD_MTEXT_DEFINED_HEIGHT_BEGIN
1070
    46
1040
24.4326171875
1000
ACAD_MTEXT_DEFINED_HEIGHT_END
  0
MTEXT
  5
7BBF
330
A
100
AcDbEntity
  8
MODEL
390
1D
100
AcDbMText
 10
132.254705532685
 20
237.2474089396837
 30
0.0
 40
24.4326171875
 41
0.0
 46
80.02949492370524
 71
     1
 72
     1
  1
{ウォッシュダウン式/ソフトクローズ便座,壁固定金具付属/\P陶器/ホワイト}
  7
ＭＳ ゴシック
 73
     1
 44
1.304711230709641
1001
ACAD
1000
ACAD_MTEXT_DEFINED_HEIGHT_BEGIN
1070
    46
1040
80.02949492370524
1000
ACAD_MTEXT_DEFINED_HEIGHT_END
  0
INSERT
  5
7BC0
330
A
100
AcDbEntity
  8
MODEL
100
AcDbBlockReference
  2
名称未設定-1
 10
1870.813956087109
 20
30.99988610145192
 30
0.0
 41
0.762
 42
0.762
 43
0.762
  0
LWPOLYLINE
  5
7BC1
330
A
100
AcDbEntity
  8
TEMPLATE
  6
Continuous
100
AcDbPolyline
 90
        4
 70
     1
 43
0.0
 10
0.0
 20
0.0
 10
0.0
 20
2970.0
 10
2100.0
 20
2970.0
 10
2100.0
 20
0.0
  0
ARC
  5
7D5D
330
A
100
AcDbEntity
  8
MODEL
100
AcDbCircle
 10
761.7640084502
 20
2344.468738321756
 30
0.0
 40
130.0
100
AcDbArc
 50
270.0
 51
90.0
  0
ARC
  5
7D5E
330
A
100
AcDbEntity
  8
MODEL
100
AcDbCircle
 10
761.7640084502
 20
2344.468738321756
 30
0.0
 40
125.0
100
AcDbArc
 50
270.0
 51
90.0
  0
CIRCLE
  5
7D61
330
A
100
AcDbEntity
  8
MODEL
100
AcDbCircle
 10
461.7640082185198
 20
2414.838519895972
 30
0.0
 40
8.0
  0
ARC
  5
7D62
330
A
100
AcDbEntity
  8
MODEL
100
AcDbCircle
 10
621.2872306787758
 20
2344.470184945551
 30
0.0
 40
41.01930045553468
100
AcDbArc
 50
270.0
 51
90.0
  0
LINE
  5
7D63
330
A
100
AcDbEntity
  8
MODEL
100
AcDbLine
 10
621.2872306787758
 20
2385.489485401086
 30
0.0
 11
548.726402810009
 21
2385.489485401086
 31
0.0
  0
LINE
  5
7D64
330
A
100
AcDbEntity
  8
MODEL
100
AcDbLine
 10
544.0402447402471
 20
2376.760458086947
 30
0.0
 11
544.0402447402471
 21
2312.179911804156
 31
0.0
  0
LINE
  5
7D65
330
A
100
AcDbEntity
  8
MODEL
100
AcDbLine
 10
621.2872306787758
 20
2303.450884490017
 30
0.0
 11
548.726402810009
 21
2303.450884490017
 31
0.0
  0
ARC
  5
7D67
330
A
100
AcDbEntity
  8
MODEL
100
AcDbCircle
 10
603.016257992916
 20
2344.470184945551
 30
0.0
 40
34.0
100
AcDbArc
 50
270.0
 51
90.0
  0
ARC
  5
7D68
330
A
100
AcDbEntity
  8
MODEL
100
AcDbCircle
 10
548.151157455965
 20
2400.699164771203
 30
0.0
 40
15.22055366138513
100
AcDbArc
 50
216.8767668068239
 51
272.1659515902977
  0
ARC
  5
7D69
330
A
100
AcDbEntity
  8
MODEL
100
AcDbCircle
 10
548.151157455965
 20
2288.240633737568
 30
0.0
 40
15.22055366138513
100
AcDbArc
 50
87.83404840970239
 51
143.1232331931713
  0
CIRCLE
  5
7D6C
330
A
100
AcDbEntity
  8
MODEL
100
AcDbCircle
 10
461.7640082185208
 20
2274.101278612799
 30
0.0
 40
8.0
  0
ARC
  5
7D6D
330
A
100
AcDbEntity
  8
MODEL
100
AcDbCircle
 10
651.7640084502
 20
2344.468738321756
 30
0.0
 40
130.0
100
AcDbArc
 50
90.0
 51
270.0
  0
ARC
  5
7D6E
330
A
100
AcDbEntity
  8
MODEL
100
AcDbCircle
 10
651.7640084502
 20
2344.468738321756
 30
0.0
 40
125.0
100
AcDbArc
 50
90.0
 51
270.0
  0
LINE
  5
7D6F
330
A
100
AcDbEntity
  8
MODEL
100
AcDbLine
 10
761.7640084502
 20
2474.468738321756
 30
0.0
 11
651.7640084502
 21
2474.468738321756
 31
0.0
  0
LINE
  5
7D70
330
A
100
AcDbEntity
  8
MODEL
100
AcDbLine
 10
761.7640084502
 20
2469.468738321756
 30
0.0
 11
651.7640084502
 21
2469.468738321756
 31
0.0
  0
LINE
  5
7D71
330
A
100
AcDbEntity
  8
MODEL
100
AcDbLine
 10
761.7640084502
 20
2214.468738321756
 30
0.0
 11
651.7640084502
 21
2214.468738321756
 31
0.0
  0
LINE
  5
7D72
330
A
100
AcDbEntity
  8
MODEL
100
AcDbLine
 10
761.7640084502
 20
2219.468738321756
 30
0.0
 11
651.7640084502
 21
2219.468738321756
 31
0.0
  0
LWPOLYLINE
  5
7D73
330
A
100
AcDbEntity
  8
MODEL
100
AcDbPolyline
 90
        6
 70
     1
 43
0.0
 10
311.7616734456878
 20
2526.970626255637
 42
-0.4192757825701598
 10
316.847931745051
 20
2531.969882150847
 10
751.7654740390321
 20
2524.468821522978
 42
-1.000332364236854
 10
751.6429114832899
 20
2164.468862263555
 10
316.8479317450519
 20
2156.969916357923
 42
-0.4192757825701667
 10
311.7616734456888
 20
2161.969172253133
  0
LINE
  5
7DDA
330
A
100
AcDbEntity
  8
MODEL GRAY
  6
AM_DIN_F_W050
 48
3.0
100
AcDbLine
 10
878.3475494667509
 20
1328.120760978642
 30
0.0
 11
535.950670758386
 21
1312.099753025544
 31
0.0
  0
ARC
  5
7DDB
330
A
100
AcDbEntity
  8
MODEL GRAY
  6
AM_DIN_F_W050
 48
3.0
100
AcDbCircle
 10
513.9417316659678
 20
1370.140495501573
 30
0.0
 40
7.0
100
AcDbArc
 50
13.45562695896318
 51
90.0
1001
GENIUS_GENODEF_13
1002
{
1000
HIER
1070
     0
1002
}
1002
{
1000
MANEDIT
1070
     0
1002
}
1002
{
1000
NOSEL
1070
     0
1002
}
1002
{
1000
BEHIND
1070
     0
1002
}
1002
{
1000
OTHER
1070
     0
1002
}
1002
{
1000
REACTOR
1002
}
1001
GENIUS_GENOBJ-N-FIL_13
1002
{
1000
OWNER
1000
GEN
1002
}
  0
LINE
  5
7DDC
330
A
100
AcDbEntity
  8
MODEL GRAY
  6
AM_DIN_F_W050
 48
3.0
100
AcDbLine
 10
529.5655976738371
 20
1321.59119137529
 30
0.0
 11
520.7495846189831
 21
1371.76934115728
 31
0.0
  0
ARC
  5
7DDD
330
A
100
AcDbEntity
  8
MODEL GRAY
  6
AM_DIN_F_W050
 48
3.0
100
AcDbCircle
 10
522.7577447208209
 20
1319.962345719583
 30
0.0
 40
7.0
100
AcDbArc
 50
279.438172100525
 51
13.45562695896318
1001
GENIUS_GENOBJ-N-FIL_13
1002
{
1000
OWNER
1000
GEN
1002
}
1001
GENIUS_GENODEF_13
1002
{
1000
HIER
1070
     0
1002
}
1002
{
1000
MANEDIT
1070
     0
1002
}
1002
{
1000
NOSEL
1070
     0
1002
}
1002
{
1000
BEHIND
1070
     0
1002
}
1002
{
1000
OTHER
1070
     0
1002
}
1002
{
1000
REACTOR
1002
}
  0
LINE
  5
7DDE
330
A
100
AcDbEntity
  8
MODEL GRAY
  6
AM_DIN_F_W050
 48
3.0
100
AcDbLine
 10
515.066188723285
 20
1299.541666889118
 30
0.0
 11
517.0906342478652
 21
1313.057103808191
 31
0.0
  0
ARC
  5
7DDF
330
A
100
AcDbEntity
  8
MODEL GRAY
  6
AM_DIN_F_W050
 48
3.0
100
AcDbCircle
 10
715.3867616127991
 20
1433.005341542633
 30
0.0
 40
223.431813313225
100
AcDbArc
 50
269.0096584002863
 51
328.281339497375
  0
ARC
  5
7DE0
330
A
100
AcDbEntity
  8
MODEL GRAY
  6
AM_DIN_F_W050
 48
3.0
100
AcDbCircle
 10
711.1793199936742
 20
1189.609891363329
 30
0.0
 40
20.0
100
AcDbArc
 50
89.00965840028697
 51
170.0661622555127
1001
GENIUS_GENODEF_13
1002
{
1000
HIER
1070
     0
1002
}
1002
{
1000
MANEDIT
1070
     0
1002
}
1002
{
1000
NOSEL
1070
     0
1002
}
1002
{
1000
BEHIND
1070
     0
1002
}
1002
{
1000
OTHER
1070
     0
1002
}
1002
{
1000
REACTOR
1002
}
1001
GENIUS_GENOBJ-N-FIL_13
1002
{
1000
OWNER
1000
GEN
1002
}
  0
ARC
  5
7DE1
330
A
100
AcDbEntity
  8
MODEL GRAY
  6
AM_DIN_F_W050
 48
3.0
100
AcDbCircle
 10
898.7962321813038
 20
1370.135209827851
 30
0.0
 40
6.999999999999979
100
AcDbArc
 50
90.0
 51
166.5443730410368
1001
GENIUS_GENODEF_13
1002
{
1000
HIER
1070
     0
1002
}
1002
{
1000
MANEDIT
1070
     0
1002
}
1002
{
1000
NOSEL
1070
     0
1002
}
1002
{
1000
BEHIND
1070
     0
1002
}
1002
{
1000
OTHER
1070
     0
1002
}
1002
{
1000
REACTOR
1002
}
1001
GENIUS_GENOBJ-N-FIL_13
1002
{
1000
OWNER
1000
GEN
1002
}
  0
LINE
  5
7DE2
330
A
100
AcDbEntity
  8
MODEL GRAY
  6
AM_DIN_F_W050
 48
3.0
100
AcDbLine
 10
885.3825512911089
 20
1332.634374445082
 30
0.0
 11
891.988379228289
 21
1371.764055483558
 31
0.0
  0
ARC
  5
7DE3
330
A
100
AcDbEntity
  8
MODEL GRAY
  6
AM_DIN_F_W050
 48
3.0
100
AcDbCircle
 10
892.1904042441251
 20
1331.005528789377
 30
0.0
 40
7.0
100
AcDbArc
 50
166.5443730410522
 51
260.5618278994785
1001
GENIUS_GENOBJ-N-FIL_13
1002
{
1000
OWNER
1000
GEN
1002
}
1001
GENIUS_GENODEF_13
1002
{
1000
HIER
1070
     0
1002
}
1002
{
1000
MANEDIT
1070
     0
1002
}
1002
{
1000
NOSEL
1070
     0
1002
}
1002
{
1000
BEHIND
1070
     0
1002
}
1002
{
1000
OTHER
1070
     0
1002
}
1002
{
1000
REACTOR
1002
}
  0
LINE
  5
7DE4
330
A
100
AcDbEntity
  8
MODEL GRAY
  6
AM_DIN_F_W050
 48
3.0
100
AcDbLine
 10
891.0425217827392
 20
1324.100286877983
 30
0.0
 11
919.812684535772
 21
1315.536351351753
 31
0.0
  0
LINE
  5
7DE5
330
A
100
AcDbEntity
  8
MODEL GRAY
  6
AM_DIN_G_W050
 48
2.0
100
AcDbLine
 10
461.7762802206312
 20
1368.076121680844
 30
0.0
 11
461.7762802206312
 21
1383.292044572596
 31
0.0
  0
LINE
  5
7DE6
330
A
100
AcDbEntity
  8
MODEL GRAY
  6
AM_DIN_F_W050
 48
3.0
100
AcDbLine
 10
384.7322872169279
 20
1146.067762262119
 30
0.0
 11
337.0402210697298
 21
1146.067762262119
 31
0.0
  0
LINE
  5
7DE7
330
A
100
AcDbEntity
  8
MODEL GRAY
  6
AM_DIN_F_W050
 48
3.0
100
AcDbLine
 10
486.6293162357738
 20
1247.720151510235
 30
0.0
 11
337.0402210697298
 21
1248.067437355141
 31
0.0
  0
ARC
  5
7DE8
330
A
100
AcDbEntity
  8
MODEL GRAY
  6
AM_DIN_F_W050
 48
3.0
100
AcDbCircle
 10
562.5041239238649
 20
1110.799540467367
 30
0.0
 40
91.8317066255688
100
AcDbArc
 50
341.8158769261969
 51
4.3427029745777
  0
ARC
  5
7DE9
330
A
100
AcDbEntity
  8
MODEL GRAY
  6
AM_DIN_F_W050
 48
3.0
100
AcDbCircle
 10
406.509450561648
 20
1120.548124954996
 30
0.0
 40
162.6606985099661
100
AcDbArc
 50
359.3015851140082
 51
41.38855048602997
  0
LINE
  5
7DEA
330
A
100
AcDbEntity
  8
MODEL GRAY
  6
AM_DIN_F_W050
 48
3.0
100
AcDbLine
 10
513.9933598927778
 20
1135.374370708911
 30
0.0
 11
522.2240433963279
 21
1082.141466893492
 31
0.0
  0
ARC
  5
7DEB
330
A
100
AcDbEntity
  8
MODEL GRAY
  6
AM_DIN_F_W050
 48
3.0
100
AcDbCircle
 10
603.8793572259019
 20
1299.865212276702
 30
0.0
 40
104.0507502199659
100
AcDbArc
 50
182.4663471072039
 51
223.6126167953782
1001
GENIUS_GENODEF_13
1002
{
1000
HIER
1070
     0
1002
}
1002
{
1000
MANEDIT
1070
     0
1002
}
1002
{
1000
NOSEL
1070
     0
1002
}
1002
{
1000
BEHIND
1070
     0
1002
}
1002
{
1000
OTHER
1070
     0
1002
}
1002
{
1000
REACTOR
1002
}
1001
GENIUS_GENOBJ-N-FIL_13
1002
{
1000
OWNER
1000
GEN
1002
}
  0
LINE
  5
7DEC
102
{ACAD_REACTORS
330
90D9
102
}
330
A
100
AcDbEntity
  8
MODEL GRAY
  6
CENTER2
100
AcDbLine
 10
485.375349902311
 20
1197.139483174975
 30
0.0
 11
305.7977552885882
 21
1197.139483174975
 31
0.0
  0
ARC
  5
7DED
330
A
100
AcDbEntity
  8
MODEL GRAY
  6
AM_DIN_F_W050
 48
3.0
100
AcDbCircle
 10
583.8052125456711
 20
1211.917755753089
 30
0.0
 40
109.3128147625259
100
AcDbArc
 50
314.2353405078667
 51
350.0661622555144
  0
ARC
  5
7DEE
330
A
100
AcDbEntity
  8
MODEL GRAY
  6
AM_DIN_F_W050
 48
3.0
100
AcDbCircle
 10
674.014758852627
 20
1119.267651506518
 30
0.0
 40
20.0
100
AcDbArc
 50
134.2353405078675
 51
184.3427029745757
1001
GENIUS_GENODEF_13
1002
{
1000
HIER
1070
     0
1002
}
1002
{
1000
MANEDIT
1070
     0
1002
}
1002
{
1000
NOSEL
1070
     0
1002
}
1002
{
1000
BEHIND
1070
     0
1002
}
1002
{
1000
OTHER
1070
     0
1002
}
1002
{
1000
REACTOR
1002
}
1001
GENIUS_GENOBJ-N-FIL_13
1002
{
1000
OWNER
1000
GEN
1002
}
  0
LINE
  5
7DEF
330
A
100
AcDbEntity
  8
MODEL GRAY
  6
AM_DIN_F_W050
 48
3.0
100
AcDbLine
 10
337.0402210697298
 20
1146.473001845989
 30
0.0
 11
337.0402210697298
 21
1248.067437355141
 31
0.0
  0
LINE
  5
7DF0
330
A
100
AcDbEntity
  8
MODEL GRAY
  6
AM_DIN_F_W050
 48
3.0
100
AcDbLine
 10
506.1238577651252
 20
1295.031659504068
 30
0.0
 11
377.8711924907288
 21
1302.396779093928
 31
0.0
  0
ARC
  5
7DF1
330
A
100
AcDbEntity
  8
MODEL GRAY
  6
AM_DIN_F_W050
 48
3.0
100
AcDbCircle
 10
506.6971795837358
 20
1305.01521108115
 30
0.0
 40
10.0
100
AcDbArc
 50
266.7133057201535
 51
326.8142962932611
1001
GENIUS_GENODEF_13
1002
{
1000
HIER
1070
     0
1002
}
1002
{
1000
MANEDIT
1070
     0
1002
}
1002
{
1000
NOSEL
1070
     0
1002
}
1002
{
1000
BEHIND
1070
     0
1002
}
1002
{
1000
OTHER
1070
     0
1002
}
1002
{
1000
REACTOR
1002
}
1001
GENIUS_GENOBJ-N-FIL_13
1002
{
1000
OWNER
1000
GEN
1002
}
  0
LINE
  5
7DF2
330
A
100
AcDbEntity
  8
MODEL GRAY
  6
AM_DIN_F_W050
 48
3.0
100
AcDbLine
 10
375.4711294775821
 20
1302.472013621558
 30
0.0
 11
337.0402210697298
 21
1302.449056568837
 31
0.0
  0
LINE
  5
7DF3
330
A
100
AcDbEntity
  8
MODEL GRAY
  6
AM_DIN_F_W050
 48
3.0
100
AcDbLine
 10
337.0402210697298
 20
1302.444849050114
 30
0.0
 11
337.0402210697298
 21
1359.908243451071
 31
0.0
  0
LINE
  5
7DF4
102
{ACAD_REACTORS
330
90D9
330
90E8
102
}
330
A
100
AcDbEntity
  8
MODEL GRAY
  6
CENTER2
 48
30.0
100
AcDbLine
 10
397.0500342562868
 20
1332.628956186029
 30
0.0
 11
306.0066443648811
 21
1332.628956186029
 31
0.0
  0
LINE
  5
7DF5
330
A
100
AcDbEntity
  8
MODEL GRAY
  6
AM_DIN_F_W050
 48
3.0
100
AcDbLine
 10
311.7755779658651
 20
1359.910172322714
 30
0.0
 11
369.0214475315729
 21
1359.905801790577
 31
0.0
  0
LINE
  5
7DF6
330
A
100
AcDbEntity
  8
MODEL GRAY
  6
AM_DIN_F_W050
 48
3.0
100
AcDbLine
 10
369.0214475315729
 20
1359.905801790577
 30
0.0
 11
369.0214475315729
 21
1302.397454742582
 31
0.0
  0
LINE
  5
7DF7
330
A
100
AcDbEntity
  8
MODEL GRAY
  6
AM_DIN_F_W050
 48
3.0
100
AcDbLine
 10
375.9160025843589
 20
1146.067762262119
 30
0.0
 11
375.9160025843589
 21
1086.652879391317
 31
0.0
  0
ARC
  5
7DF8
330
A
100
AcDbEntity
  8
MODEL GRAY
  6
AM_DIN_F_W050
 48
3.0
100
AcDbCircle
 10
365.9160025843589
 20
1111.875555315768
 30
0.0
 40
10.0
100
AcDbArc
 50
269.9956256574104
 51
0.0
1001
GENIUS_GENOBJ-N-FIL_13
1002
{
1000
OWNER
1000
GEN
1002
}
1001
GENIUS_GENODEF_13
1002
{
1000
HIER
1070
     0
1002
}
1002
{
1000
MANEDIT
1070
     0
1002
}
1002
{
1000
NOSEL
1070
     0
1002
}
1002
{
1000
BEHIND
1070
     0
1002
}
1002
{
1000
OTHER
1070
     0
1002
}
1002
{
1000
REACTOR
1002
}
  0
LINE
  5
7DF9
330
A
100
AcDbEntity
  8
MODEL GRAY
  6
AM_DIN_F_W050
 48
3.0
100
AcDbLine
 10
375.9160025843589
 20
1086.652879391317
 30
0.0
 11
311.756927522636
 21
1086.652879391317
 31
0.0
  0
LINE
  5
7DFA
330
A
100
AcDbEntity
  8
MODEL GRAY
  6
AM_DIN_F_W050
 48
3.0
100
AcDbLine
 10
365.9152391175521
 20
1101.875555344914
 30
0.0
 11
311.7572490587618
 21
1090.864406633766
 31
0.0
  0
LINE
  5
7DFB
330
A
100
AcDbEntity
  8
MODEL GRAY
  6
AM_DIN_F_W050
 48
3.0
100
AcDbLine
 10
497.4624560294828
 20
1148.408362960243
 30
0.0
 11
384.7322872169279
 21
1146.067762262119
 31
0.0
  0
ARC
  5
7DFC
330
A
100
AcDbEntity
  8
MODEL GRAY
  6
AM_DIN_F_W050
 48
3.0
100
AcDbCircle
 10
497.4624560294828
 20
1131.408362960243
 30
0.0
 40
17.0
100
AcDbArc
 50
13.49111501413163
 51
93.25504309438087
1001
GENIUS_GENODEF_13
1002
{
1000
HIER
1070
     0
1002
}
1002
{
1000
MANEDIT
1070
     0
1002
}
1002
{
1000
NOSEL
1070
     0
1002
}
1002
{
1000
BEHIND
1070
     0
1002
}
1002
{
1000
OTHER
1070
     0
1002
}
1002
{
1000
REACTOR
1002
}
1001
GENIUS_GENOBJ-N-FIL_13
1002
{
1000
OWNER
1000
GEN
1002
}
  0
ARC
  5
7DFD
330
A
100
AcDbEntity
  8
MODEL GRAY
  6
AM_DIN_F_W050
 48
3.0
100
AcDbCircle
 10
482.4052725723459
 20
1273.459898152134
 30
0.0
 40
26.08403922056086
100
AcDbArc
 50
279.3195061571657
 51
337.1832364811473
  0
LINE
  5
7DFE
330
A
100
AcDbEntity
  8
MODEL GRAY
  6
AM_DIN_F_W050
 48
3.0
100
AcDbLine
 10
652.1583816284488
 20
1090.920495792019
 30
0.0
 11
806.9035122114819
 21
1090.920495792019
 31
0.0
  0
LINE
  5
7DFF
330
A
100
AcDbEntity
  8
MODEL GRAY
  6
AM_DIN_F_W050
 48
3.0
100
AcDbLine
 10
806.9035122114819
 20
1090.920495792019
 30
0.0
 11
816.9848617883499
 21
1082.141466893492
 31
0.0
  0
LINE
  5
7E09
330
A
100
AcDbEntity
  8
MODEL
100
AcDbLine
 10
649.749623296605
 20
1082.141466893492
 30
0.0
 11
522.2240433963279
 21
1082.141466893492
 31
0.0
  0
LINE
  5
7E0A
330
A
100
AcDbEntity
  8
MODEL GRAY
  6
AM_DIN_F_W050
 48
3.0
100
AcDbLine
 10
523.9056271822069
 20
1313.057103808191
 30
0.0
 11
517.0906342478652
 21
1313.057103808191
 31
0.0
  0
ARC
  5
7E0B
330
A
100
AcDbEntity
  8
MODEL
100
AcDbCircle
 10
1087.285056517561
 20
1393.25536645572
 30
0.0
 40
530.0025384726641
100
AcDbArc
 50
186.7076663620131
 51
212.2000459260507
  0
LINE
  5
7E0C
330
A
100
AcDbEntity
  8
MODEL
100
AcDbLine
 10
364.8330428517938
 20
1082.141466893492
 30
0.0
 11
364.8330428517938
 21
1324.349148425197
 31
0.0
  0
LINE
  5
7E0D
330
A
100
AcDbEntity
  8
MODEL
100
AcDbLine
 10
587.9775739864749
 20
1331.349148425197
 30
0.0
 11
371.8330428517938
 21
1331.349148425197
 31
0.0
  0
ARC
  5
7E0E
330
A
100
AcDbEntity
  8
MODEL
100
AcDbCircle
 10
371.8330428517938
 20
1324.349148425197
 30
0.0
 40
7.0
100
AcDbArc
 50
90.0
 51
180.0
  0
LINE
  5
7F38
330
A
100
AcDbEntity
  8
MODEL GRAY
  6
CENTER2
100
AcDbLine
 10
1441.82850592324
 20
1296.377389024943
 30
0.0
 11
1461.82850592324
 21
1296.377389024943
 31
0.0
  0
LINE
  5
7F39
330
A
100
AcDbEntity
  8
MODEL GRAY
  6
CENTER2
100
AcDbLine
 10
1451.82850592324
 20
1306.377389024943
 30
0.0
 11
1451.82850592324
 21
1286.377389024943
 31
0.0
  0
CIRCLE
  5
7F3A
330
A
100
AcDbEntity
  8
MODEL GRAY
  6
AM_DIN_F_W050
 48
4.0
100
AcDbCircle
 10
1451.751146952644
 20
1297.261606104941
 30
0.0
 40
7.579809740149905
  0
LINE
  5
7F3C
330
A
100
AcDbEntity
  8
MODEL GRAY
  6
CENTER2
100
AcDbLine
 10
1451.82850592324
 20
1312.471992697898
 30
0.0
 11
1451.82850592324
 21
1281.786407490046
 31
0.0
  0
LINE
  5
7F46
102
{ACAD_REACTORS
330
9906
102
}
330
A
100
AcDbEntity
  8
MODEL GRAY
  6
CENTER2
100
AcDbLine
 10
1641.82850592324
 20
1296.377389024943
 30
0.0
 11
1621.82850592324
 21
1296.377389024943
 31
0.0
  0
LINE
  5
7F47
330
A
100
AcDbEntity
  8
MODEL GRAY
  6
CENTER2
100
AcDbLine
 10
1631.82850592324
 20
1306.377389024943
 30
0.0
 11
1631.82850592324
 21
1286.377389024943
 31
0.0
  0
CIRCLE
  5
7F48
330
A
100
AcDbEntity
  8
MODEL GRAY
  6
AM_DIN_F_W050
 48
4.0
100
AcDbCircle
 10
1631.905864893836
 20
1297.261606104941
 30
0.0
 40
7.579809740149905
  0
LINE
  5
7F4A
330
A
100
AcDbEntity
  8
MODEL GRAY
  6
CENTER2
100
AcDbLine
 10
1631.82850592324
 20
1312.471992697898
 30
0.0
 11
1631.82850592324
 21
1281.786407490046
 31
0.0
  0
LINE
  5
7F54
330
A
100
AcDbEntity
  8
MODEL GRAY
  6
CENTER2
100
AcDbLine
 10
1541.827182818427
 20
1257.667881429854
 30
0.0
 11
1541.827182818427
 21
1139.623066231648
 31
0.0
  0
CIRCLE
  5
7F55
330
A
100
AcDbEntity
  8
MODEL GRAY
  6
HIDDEN
 48
0.05
100
AcDbCircle
 10
1541.988006018432
 20
1198.139052824325
 30
0.0
 40
51.0
  0
LINE
  5
7F56
330
A
100
AcDbEntity
  8
MODEL GRAY
  6
CENTER2
100
AcDbLine
 10
1483.6104981419
 20
1197.21715032051
 30
0.0
 11
1600.836079104168
 21
1197.035538900203
 31
0.0
  0
CIRCLE
  5
7F57
330
A
100
AcDbEntity
  8
MODEL GRAY
  6
HIDDEN
 48
0.05
100
AcDbCircle
 10
1541.827182818427
 20
1198.645473830751
 30
0.0
 40
44.33402038571233
  0
LINE
  5
7F58
330
A
100
AcDbEntity
  8
MODEL GRAY
  6
CENTER2
100
AcDbLine
 10
1541.971923698432
 20
1374.252655813139
 30
0.0
 11
1541.971923698432
 21
1291.621285174395
 31
0.0
  0
CIRCLE
  5
7F59
330
A
100
AcDbEntity
  8
MODEL GRAY
  6
HIDDEN
 48
0.05
100
AcDbCircle
 10
1542.084499938434
 20
1332.58247578927
 30
0.0
 40
32.5
  0
LINE
  5
7F5A
330
A
100
AcDbEntity
  8
MODEL GRAY
  6
CENTER2
100
AcDbLine
 10
1501.78332615193
 20
1331.936271683724
 30
0.0
 11
1584.504950426686
 21
1331.799271070311
 31
0.0
  0
CIRCLE
  5
7F5B
330
A
100
AcDbEntity
  8
MODEL GRAY
  6
HIDDEN
 48
0.05
100
AcDbCircle
 10
1541.971923698432
 20
1332.936970493767
 30
0.0
 40
27.5
  0
LINE
  5
7F5C
330
A
100
AcDbEntity
  8
MODEL
100
AcDbLine
 10
1490.802579024395
 20
1082.129200093972
 30
0.0
 11
1592.0942371212
 21
1082.129200093972
 31
0.0
  0
ARC
  5
7F5D
330
A
100
AcDbEntity
  8
MODEL
100
AcDbCircle
 10
2694.617755113875
 20
1545.536423420484
 30
0.0
 40
1350.829304928125
100
AcDbArc
 50
187.2927867319035
 51
200.0630420596591
  0
LINE
  5
7F5E
330
A
100
AcDbEntity
  8
MODEL
100
AcDbLine
 10
1360.752256615367
 20
1332.129200093972
 30
0.0
 11
1354.327182818427
 21
1332.129200093972
 31
0.0
  0
ARC
  5
7F5F
330
A
100
AcDbEntity
  8
MODEL
100
AcDbCircle
 10
389.0366105229809
 20
1545.536423420484
 30
0.0
 40
1350.829304928125
100
AcDbArc
 50
339.9369579403411
 51
352.7072132680967
  0
LINE
  5
7F60
330
A
100
AcDbEntity
  8
MODEL
100
AcDbLine
 10
1722.902109021488
 20
1332.129200093972
 30
0.0
 11
1729.327182818427
 21
1332.129200093972
 31
0.0
  0
LWPOLYLINE
  5
7F61
330
A
100
AcDbEntity
  8
MODEL
100
AcDbPolyline
 90
        8
 70
     1
 43
0.0
 10
1729.327182818427
 20
1372.129200093971
 42
0.4142135623730951
 10
1724.327182818427
 20
1377.129200093971
 10
1359.327182818427
 20
1377.129200093971
 42
0.4142135623730951
 10
1354.327182818427
 20
1372.129200093971
 10
1354.327182818427
 20
1082.129200093972
 10
1490.802579024395
 20
1082.129200093972
 42
0.7872236800039243
 10
1592.0942371212
 20
1082.129200093972
 10
1729.327182818427
 20
1082.129200093972
  0
ARC
  5
84D7
330
A
100
AcDbEntity
  8
MODEL
  6
HIDDEN
 48
0.05
100
AcDbCircle
 10
512.073180978327
 20
-63246.31948003139
 30
0.0
 40
64648.89396766764
100
AcDbArc
 50
89.65179786186727
 51
89.99682757573292
  0
ARC
  5
84D8
330
A
100
AcDbEntity
  8
MODEL
  6
HIDDEN
 48
0.05
100
AcDbCircle
 10
904.869896461511
 20
1381.46039286118
 30
0.0
 40
19.92045418771487
100
AcDbArc
 50
358.9988199463345
 51
89.74144391198159
1001
GENIUS_GENODEF_13
1002
{
1000
HIER
1070
     0
1002
}
1002
{
1000
MANEDIT
1070
     0
1002
}
1002
{
1000
NOSEL
1070
     0
1002
}
1002
{
1000
BEHIND
1070
     0
1002
}
1002
{
1000
OTHER
1070
     0
1002
}
1002
{
1000
REACTOR
1002
}
1001
GENIUS_GENOBJ-N-FIL_13
1002
{
1000
OWNER
1000
GEN
1002
}
  0
ARC
  5
84D9
330
A
100
AcDbEntity
  8
MODEL
100
AcDbCircle
 10
510.830235799554
 20
-63483.49424887475
 30
0.0
 40
64910.771393476
100
AcDbArc
 50
89.63892116839106
 51
89.97419817021047
  0
ARC
  5
84DA
330
A
100
AcDbEntity
  8
MODEL
100
AcDbCircle
 10
919.8330659748799
 20
1415.988369657473
 30
0.0
 40
10.00000000000037
100
AcDbArc
 50
4.090039844979505
 51
89.6385600992558
  0
LINE
  5
84DB
330
A
100
AcDbEntity
  8
MODEL
100
AcDbLine
 10
929.807597942849
 20
1416.701610163893
 30
0.0
 11
932.024605639876
 21
1381.112322782717
 31
0.0
  0
ARC
  5
84DC
330
A
100
AcDbEntity
  8
MODEL
100
AcDbCircle
 10
477.6491162745651
 20
1414.327302282341
 30
0.0
 40
33.21497949962388
100
AcDbArc
 50
223.9963195808562
 51
269.9999999999968
  0
ARC
  5
84DD
330
A
100
AcDbEntity
  8
MODEL
100
AcDbCircle
 10
458.8322602801009
 20
1395.790454397067
 30
0.0
 40
6.807654640225526
100
AcDbArc
 50
170.8535952085788
 51
221.7679216839849
  0
ARC
  5
84DE
330
A
100
AcDbEntity
  8
MODEL
100
AcDbCircle
 10
507.2665818543201
 20
1396.570732415406
 30
0.0
 40
55.15624549882194
100
AcDbArc
 50
152.8399075466418
 51
179.686438129268
  0
ARC
  5
84DF
330
A
100
AcDbEntity
  8
MODEL
100
AcDbCircle
 10
467.135521596731
 20
1417.274395793819
 30
0.0
 40
10.00000000001228
100
AcDbArc
 50
89.99654829731442
 51
153.4232188316421
  0
ARC
  5
84E0
330
A
100
AcDbEntity
  8
MODEL
100
AcDbCircle
 10
496.9364971064001
 20
-125327.3862867868
 30
0.0
 40
126754.6641856377
100
AcDbArc
 50
89.9805066798077
 51
90.01347039678069
  0
ARC
  5
84E1
330
A
100
AcDbEntity
  8
MODEL
  6
HIDDEN
 48
0.05
100
AcDbCircle
 10
1776.778602851103
 20
-63246.19646516885
 30
0.0
 40
64648.89396766764
100
AcDbArc
 50
90.20822869242167
 51
90.34820213813343
  0
ARC
  5
84E2
330
A
100
AcDbEntity
  8
MODEL
  6
HIDDEN
 48
0.05
100
AcDbCircle
 10
1383.983380251748
 20
1381.579663624483
 30
0.0
 40
19.92420504036188
100
AcDbArc
 50
90.26280052414914
 51
181.3214734100135
1001
GENIUS_GENODEF_13
1002
{
1000
HIER
1070
     0
1002
}
1002
{
1000
MANEDIT
1070
     0
1002
}
1002
{
1000
NOSEL
1070
     0
1002
}
1002
{
1000
BEHIND
1070
     0
1002
}
1002
{
1000
OTHER
1070
     0
1002
}
1002
{
1000
REACTOR
1002
}
1001
GENIUS_GENOBJ-N-FIL_13
1002
{
1000
OWNER
1000
GEN
1002
}
  0
ARC
  5
84E3
330
A
100
AcDbEntity
  8
MODEL
100
AcDbCircle
 10
1713.16641123498
 20
-48437.33438730225
 30
0.0
 40
49864.89931771591
100
AcDbArc
 50
90.19687263727624
 51
90.38976305983707
  0
ARC
  5
84E4
330
A
100
AcDbEntity
  8
MODEL
100
AcDbCircle
 10
1374.018717854435
 20
1416.411359065859
 30
0.0
 40
9.999999999999197
100
AcDbArc
 50
90.36143990074426
 51
175.9099601550199
  0
LINE
  5
84E5
330
A
100
AcDbEntity
  8
MODEL
100
AcDbLine
 10
1364.044185886469
 20
1417.124599572279
 30
0.0
 11
1361.82717818944
 21
1381.120171264913
 31
0.0
  0
ARC
  5
84E6
330
A
100
AcDbEntity
  8
MODEL
  6
HIDDEN
 48
0.05
100
AcDbCircle
 10
1306.875753527777
 20
-63246.19646516885
 30
0.0
 40
64648.89396766764
100
AcDbArc
 50
89.65179786186657
 51
89.79177130757834
  0
ARC
  5
84E7
330
A
100
AcDbEntity
  8
MODEL
100
AcDbCircle
 10
1370.487945143899
 20
-48437.33438730225
 30
0.0
 40
49864.89931771591
100
AcDbArc
 50
89.61023694016295
 51
89.80312736272377
  0
ARC
  5
84E8
330
A
100
AcDbEntity
  8
MODEL
  6
HIDDEN
 48
0.05
100
AcDbCircle
 10
1699.670976127131
 20
1381.579663624483
 30
0.0
 40
19.92420504036188
100
AcDbArc
 50
358.6785265899866
 51
89.73719947585086
1001
GENIUS_GENODEF_13
1002
{
1000
HIER
1070
     0
1002
}
1002
{
1000
MANEDIT
1070
     0
1002
}
1002
{
1000
NOSEL
1070
     0
1002
}
1002
{
1000
BEHIND
1070
     0
1002
}
1002
{
1000
OTHER
1070
     0
1002
}
1002
{
1000
REACTOR
1002
}
1001
GENIUS_GENOBJ-N-FIL_13
1002
{
1000
OWNER
1000
GEN
1002
}
  0
ARC
  5
84E9
330
A
100
AcDbEntity
  8
MODEL
100
AcDbCircle
 10
1709.635638524444
 20
1416.411359065859
 30
0.0
 40
9.999999999999197
100
AcDbArc
 50
4.090039844980063
 51
89.63856009925576
  0
LINE
  5
84EA
330
A
100
AcDbEntity
  8
MODEL
100
AcDbLine
 10
1719.61017049241
 20
1417.124599572279
 30
0.0
 11
1721.82717818944
 21
1381.120171264913
 31
0.0
  0
LINE
  5
84EB
330
A
100
AcDbEntity
  8
MODEL
100
AcDbLine
 10
540.061300157638
 20
1381.112322782717
 30
0.0
 11
477.6491162745629
 21
1381.112322782717
 31
0.0
  0
LINE
  5
84EC
330
A
100
AcDbEntity
  8
MODEL
100
AcDbLine
 10
932.024605639876
 20
1381.112322782717
 30
0.0
 11
540.061300157638
 21
1381.112322782717
 31
0.0
  0
LINE
  5
84ED
330
A
100
AcDbEntity
  8
MODEL
100
AcDbLine
 10
1721.82717818944
 20
1381.120171264913
 30
0.0
 11
1541.82717818944
 21
1381.120171264913
 31
0.0
  0
LINE
  5
84EE
330
A
100
AcDbEntity
  8
MODEL
100
AcDbLine
 10
1361.82717818944
 20
1381.120171264913
 30
0.0
 11
1541.82717818944
 21
1381.120171264913
 31
0.0
  0
DIMENSION
  5
90A5
330
A
100
AcDbEntity
  8
DIM
  6
Continuous
100
AcDbDimension
  2
*D8
 10
1631.971923698504
 20
1501.304319817989
 30
0.0
 11
1541.971923698504
 21
1528.304319817989
 31
0.0
 70
    32
 71
     5
 42
180.0
 73
     0
 74
     0
 75
     0
  3
JIS
100
AcDbAlignedDimension
 13
1451.971923698504
 23
1437.621346602509
 33
0.0
 14
1631.971923698504
 24
1437.621346602509
 34
0.0
100
AcDbRotatedDimension
1001
ACAD
1000
DSTYLE
1002
{
1070
   179
1070
     0
1070
    41
1040
6.0
1070
   271
1070
     0
1070
    43
1040
25.0
1070
    44
1040
0.0
1070
    42
1040
25.0
1070
   147
1040
15.0
1070
   140
1040
24.0
1002
}
  0
DIMENSION
  5
90D7
102
{ACAD_REACTORS
330
90D9
102
}
102
{ACAD_XDICTIONARY
360
90D8
102
}
330
A
100
AcDbEntity
  8
DIM
  6
Continuous
100
AcDbDimension
  2
*D9
 10
252.3256055187012
 20
1197.139483174975
 30
0.0
 11
225.3256055187012
 21
1264.884219680502
 31
0.0
 70
    32
 71
     5
 42
135.4894730110536
 73
     0
 74
     0
 75
     0
  3
JIS
100
AcDbAlignedDimension
 13
306.0066443648811
 23
1332.628956186029
 33
0.0
 14
305.7977552885882
 24
1197.139483174975
 34
0.0
 50
90.0
100
AcDbRotatedDimension
1001
ACAD
1000
DSTYLE
1002
{
1070
   179
1070
     0
1070
    41
1040
6.0
1070
   271
1070
     0
1070
    43
1040
25.0
1070
    44
1040
0.0
1070
    42
1040
25.0
1070
   147
1040
15.0
1070
   140
1040
24.0
1002
}
  0
DIMENSION
  5
90E6
102
{ACAD_REACTORS
330
90E8
102
}
102
{ACAD_XDICTIONARY
360
90E7
102
}
330
A
100
AcDbEntity
  8
DIM
  6
Continuous
100
AcDbDimension
  2
*D10
 10
252.3256055187012
 20
1377.144032370176
 30
0.0
 11
252.3256055187012
 21
1354.886494278102
 31
0.0
 70
   160
 71
     5
 42
44.5150761841478
 73
     0
 74
     0
 75
     0
  3
JIS
100
AcDbAlignedDimension
 13
306.0066443648811
 23
1332.628956186029
 33
0.0
 14
316.773193614777
 24
1377.144032370176
 34
0.0
 50
90.0
100
AcDbRotatedDimension
1001
ACAD
1000
DSTYLE
1002
{
1070
   179
1070
     0
1070
    41
1040
6.0
1070
   271
1070
     0
1070
    43
1040
25.0
1070
    44
1040
0.0
1070
    42
1040
25.0
1070
   147
1040
15.0
1070
   140
1040
24.0
1002
}
  0
DIMENSION
  5
90FF
330
A
100
AcDbEntity
  8
DIM
  6
Continuous
100
AcDbDimension
  2
*D11
 10
1066.877272919306
 20
2164.468821528945
 30
0.0
 11
1066.877272919306
 21
2344.468821525961
 31
0.0
 70
   160
 71
     5
 42
359.9999999940328
 73
     0
 74
     0
 75
     0
  3
JIS
100
AcDbAlignedDimension
 13
837.835496262373
 23
2524.468821522978
 33
0.0
 14
837.8340306017308
 24
2164.468821528945
 34
0.0
 50
90.0
100
AcDbRotatedDimension
1001
ACAD
1000
DSTYLE
1002
{
1070
   179
1070
     0
1070
    41
1040
6.0
1070
   271
1070
     0
1070
    43
1040
25.0
1070
    44
1040
0.0
1070
    42
1040
25.0
1070
   147
1040
15.0
1070
   140
1040
24.0
1002
}
  0
DIMENSION
  5
9101
330
A
100
AcDbEntity
  8
DIM
  6
Continuous
100
AcDbDimension
  2
*D12
 10
931.7639979467358
 20
2640.302368548801
 30
0.0
 11
621.7628356962118
 21
2667.302368548801
 31
0.0
 70
    32
 71
     5
 42
620.002324501048
 73
     0
 74
     0
 75
     0
  3
JIS
100
AcDbAlignedDimension
 13
311.7616734456878
 23
2545.05154395497
 33
0.0
 14
931.7639979467358
 24
2403.896707508691
 34
0.0
100
AcDbRotatedDimension
1001
ACAD
1000
DSTYLE
1002
{
1070
   179
1070
     0
1070
    41
1040
6.0
1070
   271
1070
     0
1070
    43
1040
25.0
1070
    44
1040
0.0
1070
    42
1040
25.0
1070
   147
1040
15.0
1070
   140
1040
24.0
1002
}
  0
DIMENSION
  5
9103
330
A
100
AcDbEntity
  8
DIM
  6
Continuous
100
AcDbDimension
  2
*D13
 10
180.1919253726842
 20
2156.969916357923
 30
0.0
 11
180.1919253726842
 21
2344.469899254385
 31
0.0
 70
   160
 71
     5
 42
374.9999657929238
 73
     0
 74
     0
 75
     0
  3
JIS
100
AcDbAlignedDimension
 13
316.847931745051
 23
2531.969882150847
 33
0.0
 14
316.8479317450519
 24
2156.969916357923
 34
0.0
 50
90.0
100
AcDbRotatedDimension
1001
ACAD
1000
DSTYLE
1002
{
1070
   179
1070
     0
1070
    41
1040
6.0
1070
   271
1070
     0
1070
    43
1040
25.0
1070
    44
1040
0.0
1070
    42
1040
25.0
1070
   147
1040
15.0
1070
   140
1040
24.0
1002
}
  0
ARC
  5
931E
330
A
100
AcDbEntity
  8
MODEL
100
AcDbCircle
 10
316.7727859775841
 20
1372.144032386793
 30
0.0
 40
5.000000000000043
100
AcDbArc
 50
89.99532882184455
 51
179.9963618054375
  0
LINE
  5
931F
330
A
100
AcDbEntity
  8
MODEL
100
AcDbLine
 10
316.773193614777
 20
1377.144032370176
 30
0.0
 11
926.776688310305
 21
1377.09430034748
 31
0.0
  0
ARC
  5
9320
330
A
100
AcDbEntity
  8
MODEL
100
AcDbCircle
 10
926.7761301503278
 20
1372.094300378635
 30
0.0
 40
4.999999999999666
100
AcDbArc
 50
350.711609808711
 51
89.99360395780074
  0
ARC
  5
9321
330
A
100
AcDbEntity
  8
MODEL
100
AcDbCircle
 10
159.8759421510731
 20
1497.523312505714
 30
0.0
 40
782.0896572702375
100
AcDbArc
 50
327.9189794877677
 51
350.7113315651503
  0
LINE
  5
9322
330
A
100
AcDbEntity
  8
MODEL
100
AcDbLine
 10
822.5388687924101
 20
1082.141466893492
 30
0.0
 11
649.749623296605
 21
1082.141466893492
 31
0.0
  0
ARC
  5
9323
330
A
100
AcDbEntity
  8
MODEL
100
AcDbCircle
 10
587.8410418943158
 20
1109.978596831479
 30
0.0
 40
67.8791444733074
100
AcDbArc
 50
239.5486656185116
 51
335.7889824231449
  0
ARC
  5
9324
330
A
100
AcDbEntity
  8
MODEL
100
AcDbCircle
 10
589.263610291835
 20
1119.936547365664
 30
0.0
 40
76.95954546016334
100
AcDbArc
 50
209.4131187488866
 51
242.2578511630693
  0
LINE
  5
9325
330
A
100
AcDbEntity
  8
MODEL
100
AcDbLine
 10
522.2240433963289
 20
1082.141466893492
 30
0.0
 11
311.7543712471438
 21
1082.141466893492
 31
0.0
  0
LINE
  5
9326
330
A
100
AcDbEntity
  8
MODEL
100
AcDbLine
 10
311.7543712471438
 20
1082.141466893492
 30
0.0
 11
311.7727859876641
 21
1372.144349879162
 31
0.0
  0
DIMENSION
  5
9343
330
A
100
AcDbEntity
  8
DIM
  6
Continuous
100
AcDbDimension
  2
*D14
 10
1009.568781713449
 20
1042.119166358829
 30
0.0
 11
982.568781713449
 21
1209.619166358829
 31
0.0
 70
    32
 71
     5
 42
335.0
 73
     0
 74
     0
 75
     0
  3
JIS
100
AcDbAlignedDimension
 13
937.0832944377571
 23
1377.119166358829
 33
0.0
 14
629.8680956508169
 24
1042.119166358829
 34
0.0
 50
90.0
100
AcDbRotatedDimension
1001
ACAD
1000
DSTYLE
1002
{
1070
   179
1070
     0
1070
    41
1040
6.0
1070
   271
1070
     0
1070
    43
1040
25.0
1070
    44
1040
0.0
1070
    42
1040
25.0
1070
   147
1040
15.0
1070
   140
1040
24.0
1002
}
  0
DIMENSION
  5
9353
330
A
100
AcDbEntity
  8
DIM
  6
Continuous
100
AcDbDimension
  2
*D15
 10
1942.649605270093
 20
1427.270562834107
 30
0.0
 11
1942.649605270093
 21
1234.765083503873
 31
0.0
 70
   160
 71
     5
 42
385.0109586604672
 73
     0
 74
     0
 75
     0
  3
JIS
100
AcDbAlignedDimension
 13
1541.448408072798
 23
1042.25960417364
 33
0.0
 14
1734.55656162472
 24
1427.270562834107
 34
0.0
 50
90.0
100
AcDbRotatedDimension
1001
ACAD
1000
DSTYLE
1002
{
1070
   179
1070
     0
1070
    41
1040
6.0
1070
   271
1070
     0
1070
    43
1040
25.0
1070
    44
1040
0.0
1070
    42
1040
25.0
1070
   147
1040
15.0
1070
   140
1040
24.0
1002
}
  0
DIMENSION
  5
9362
330
A
100
AcDbEntity
  8
DIM
  6
Continuous
100
AcDbDimension
  2
*D16
 10
1852.835744155002
 20
1402.259604173639
 30
0.0
 11
1852.835744155002
 21
1222.259604173639
 31
0.0
 70
   160
 71
     5
 42
359.9999999999991
 73
     0
 74
     0
 75
     0
  3
JIS
100
AcDbAlignedDimension
 13
1541.448408072798
 23
1042.25960417364
 33
0.0
 14
1733.271249292852
 24
1402.259604173639
 34
0.0
 50
90.0
100
AcDbRotatedDimension
1001
ACAD
1000
DSTYLE
1002
{
1070
   179
1070
     0
1070
    41
1040
6.0
1070
   271
1070
     0
1070
    43
1040
25.0
1070
    44
1040
0.0
1070
    42
1040
25.0
1070
   147
1040
15.0
1070
   140
1040
24.0
1002
}
  0
DIMENSION
  5
938D
330
A
100
AcDbEntity
  8
DIM
  6
Continuous
100
AcDbDimension
  2
*D17
 10
1272.4481273626
 20
1297.129200093972
 30
0.0
 11
1245.4481273626
 21
1337.129200093972
 31
0.0
 70
    32
 71
     5
 42
79.99999999999909
 73
     0
 74
     0
 75
     0
  3
JIS
100
AcDbAlignedDimension
 13
1365.948412701541
 23
1377.129200093971
 33
0.0
 14
1365.948412701541
 24
1297.129200093972
 34
0.0
 50
90.0
100
AcDbRotatedDimension
1001
ACAD
1000
DSTYLE
1002
{
1070
   179
1070
     0
1070
    41
1040
6.0
1070
   271
1070
     0
1070
    43
1040
25.0
1070
    44
1040
0.0
1070
    42
1040
25.0
1070
   147
1040
15.0
1070
   140
1040
24.0
1002
}
  0
LINE
  5
9705
330
A
100
AcDbEntity
  8
DIM
  6
Continuous
100
AcDbLine
 10
342.8435806474699
 20
991.8967134315662
 30
0.0
 11
342.8435806474699
 21
1146.067762262117
 31
0.0
  0
MTEXT
  5
9706
330
A
100
AcDbEntity
  8
MODEL
390
1D
100
AcDbMText
 10
244.2679743942331
 20
970.8791308325071
 30
0.0
 40
24.4326171875
 41
0.0
 46
24.4326171875
 71
     1
 72
     1
  1
{排水管差込口}
  7
ＭＳ ゴシック
 73
     1
 44
0.7828267384257843
1001
ACAD
1000
ACAD_MTEXT_DEFINED_HEIGHT_BEGIN
1070
    46
1040
24.4326171875
1000
ACAD_MTEXT_DEFINED_HEIGHT_END
  0
LINE
  5
9707
330
A
100
AcDbEntity
  8
DIM
  6
Continuous
100
AcDbLine
 10
344.9749008014769
 20
1359.907987056647
 30
0.0
 11
344.9749008014769
 21
1470.180390636838
 31
0.0
  0
MTEXT
  5
9708
330
A
100
AcDbEntity
  8
MODEL
390
1D
100
AcDbMText
 10
244.2679743942331
 20
1528.277433280568
 30
0.0
 40
24.4326171875
 41
0.0
 46
24.4326171875
 71
     1
 72
     1
  1
{洗浄管差込口}
  7
ＭＳ ゴシック
 73
     1
 44
0.7828267384257843
1001
ACAD
1000
ACAD_MTEXT_DEFINED_HEIGHT_BEGIN
1070
    46
1040
24.4326171875
1000
ACAD_MTEXT_DEFINED_HEIGHT_END
  0
LINE
  5
9773
330
A
100
AcDbEntity
  8
DIM
  6
Continuous
100
AcDbLine
 10
1631.824290337664
 20
1295.139052824326
 30
0.0
 11
1439.315376910194
 21
788.0058091465198
 31
0.0
  0
LINE
  5
9774
330
A
100
AcDbEntity
  8
DIM
  6
Continuous
100
AcDbLine
 10
1259.315376910194
 20
788.0058091465198
 30
0.0
 11
1733.901726126705
 21
788.0058091465198
 31
0.0
  0
LINE
  5
9775
330
A
100
AcDbEntity
  8
DIM
  6
Continuous
100
AcDbLine
 10
1451.824290337664
 20
1295.139052824326
 30
0.0
 11
1259.315376910194
 21
788.0058091465198
 31
0.0
  0
MTEXT
  5
9776
330
A
100
AcDbEntity
  8
MODEL
390
1D
100
AcDbMText
 10
1468.935576557192
 20
828.6355120521948
 30
0.0
 40
24.4326171875
 41
0.0
 46
24.4326171875
 71
     1
 72
     1
  1
{壁取付ボルト位置}
  7
ＭＳ ゴシック
 73
     1
 44
0.7828267384257843
1001
ACAD
1000
ACAD_MTEXT_DEFINED_HEIGHT_BEGIN
1070
    46
1040
24.4326171875
1000
ACAD_MTEXT_DEFINED_HEIGHT_END
  0
DIMENSION
  5
9904
102
{ACAD_REACTORS
330
9906
102
}
102
{ACAD_XDICTIONARY
360
9905
102
}
330
A
100
AcDbEntity
  8
MODEL
  6
Continuous
100
AcDbDimension
  2
*D18
 10
1794.969054394115
 20
1296.377389024943
 30
0.0
 11
1767.969054394115
 21
1349.318496599291
 31
0.0
 70
    32
  1
105
 71
     5
 42
105.8822151486959
 73
     0
 74
     0
 75
     0
  3
JIS
100
AcDbAlignedDimension
 13
1758.271249292852
 23
1402.259604173639
 33
0.0
 14
1641.82850592324
 24
1296.377389024943
 34
0.0
 50
90.0
100
AcDbRotatedDimension
1001
ACAD
1000
DSTYLE
1002
{
1070
   144
1040
1.0
1070
   179
1070
     0
1070
    41
1040
6.0
1070
   271
1070
     0
1070
    43
1040
25.0
1070
    44
1040
0.0
1070
    42
1040
25.0
1070
   147
1040
15.0
1070
   140
1040
24.0
1002
}
  0
VIEWPORT
  5
349
330
B
100
AcDbEntity
 67
     1
  8
0
100
AcDbViewport
 10
202.5
 20
128.5
 30
0.0
 40
486.0
 41
308.4
 68
     1
 69
     1
 12
202.5
 22
128.5
 13
0.0
 23
0.0
 14
0.5
 24
0.5
 15
0.0
 25
0.0
 16
0.0
 26
0.0
 36
1.0
 17
0.0
 27
0.0
 37
0.0
 42
50.0
 43
0.0
 44
0.0
 45
308.4
 50
0.0
 51
0.0
 72
   100
 90
   557152
  1

281
     0
 71
     1
 74
     0
110
0.0
120
0.0
130
0.0
111
1.0
121
0.0
131
0.0
112
0.0
122
1.0
132
0.0
 79
     0
146
0.0
170
     0
 61
     5
348
26C
292
     1
282
     1
141
0.0
142
0.0
 63
   256
  0
VIEWPORT
  5
34A
330
B
100
AcDbEntity
 67
     1
  8
0
100
AcDbViewport
 10
202.5
 20
128.5
 30
0.0
 40
324.0
 41
205.6
 68
     2
 69
     2
 12
986.6781359294573
 22
1427.077061889956
 13
0.0
 23
0.0
 14
0.5
 24
0.5
 15
0.0
 25
0.0
 16
0.0
 26
0.0
 36
1.0
 17
0.0
 27
0.0
 37
0.0
 42
50.0
 43
0.0
 44
0.0
 45
2890.021615685494
 50
0.0
 51
0.0
 72
   100
 90
   557152
  1

281
     0
 71
     1
 74
     0
110
0.0
120
0.0
130
0.0
111
1.0
121
0.0
131
0.0
112
0.0
122
1.0
132
0.0
 79
     0
146
0.0
170
     0
 61
     5
348
26C
292
     1
282
     1
141
0.0
142
0.0
 63
   256
  0
ENDSEC
  0
SECTION
  2
OBJECTS
  0
DICTIONARY
  5
19
330
0
100
AcDbDictionary
281
     1
  3
ACAD_COLOR
350
38F
  3
ACAD_DETAILVIEWSTYLE
350
BE8
  3
ACAD_GROUP
350
1A
  3
ACAD_IMAGE_VARS
350
27B
  3
ACAD_LAYOUT
350
1E
  3
ACAD_MATERIAL
350
263
  3
ACAD_MLEADERSTYLE
350
336
  3
ACAD_MLINESTYLE
350
1B
  3
ACAD_PLOTSETTINGS
350
22
  3
ACAD_PLOTSTYLENAME
350
1F
  3
ACAD_SCALELIST
350
241
  3
ACAD_SECTIONVIEWSTYLE
350
BE9
  3
ACAD_TABLESTYLE
350
278
  3
ACAD_VISUALSTYLE
350
267
  3
AcadDim
350
94E3
  3
ACDB_RECOMPOSE_DATA
350
9923
  3
AcDbVariableDictionary
350
330
  3
APPDATA
350
27A
  0
SUN
  5
BE4
330
15
100
AcDbSun
 90
        1
290
     0
 63
     7
421
 16777215
 40
1.0
291
     1
 91
  2455826
 92
 54000000
292
     0
 70
     2
 71
   256
280
     1
  0
DICTIONARY
  5
2E1
330
2
100
AcDbDictionary
280
     1
281
     1
  3
ACAD_LAYERSTATES
360
2E2
  3
ACLYDICTIONARY
360
95C2
  0
DICTIONARY
  5
90D8
330
90D7
100
AcDbDictionary
280
     1
281
     1
  3
ACAD_DIMASSOC
360
90D9
  0
DICTIONARY
  5
90E7
330
90E6
100
AcDbDictionary
280
     1
281
     1
  3
ACAD_DIMASSOC
360
90E8
  0
DICTIONARY
  5
9905
330
9904
100
AcDbDictionary
280
     1
281
     1
  3
ACAD_DIMASSOC
360
9906
  0
DICTIONARY
  5
38F
102
{ACAD_REACTORS
330
19
102
}
330
19
100
AcDbDictionary
281
     1
  0
DICTIONARY
  5
BE8
102
{ACAD_REACTORS
330
19
102
}
330
19
100
AcDbDictionary
281
     1
  0
DICTIONARY
  5
1A
102
{ACAD_REACTORS
330
19
102
}
330
19
100
AcDbDictionary
281
     1
  0
RASTERVARIABLES
  5
27B
102
{ACAD_REACTORS
330
19
102
}
330
19
100
AcDbRasterVariables
 90
        0
 70
     1
 71
     1
 72
     1
  0
DICTIONARY
  5
1E
102
{ACAD_REACTORS
330
19
102
}
330
19
100
AcDbDictionary
281
     1
  3
Layout1
350
21
  3
Model
350
20
  0
DICTIONARY
  5
263
102
{ACAD_REACTORS
330
19
102
}
330
19
100
AcDbDictionary
281
     1
  3
ByBlock
350
9902
  3
ByLayer
350
264
  3
Global
350
266
  0
DICTIONARY
  5
336
102
{ACAD_REACTORS
330
19
102
}
330
19
100
AcDbDictionary
281
     1
  3
Standard
350
9903
  0
DICTIONARY
  5
1B
102
{ACAD_REACTORS
330
19
102
}
330
19
100
AcDbDictionary
281
     1
  3
Standard
350
1C
  0
DICTIONARY
  5
22
102
{ACAD_REACTORS
330
19
102
}
330
19
100
AcDbDictionary
281
     1
  0
ACDBDICTIONARYWDFLT
  5
1F
102
{ACAD_REACTORS
330
19
102
}
330
19
100
AcDbDictionary
281
     1
  3
Normal
350
1D
100
AcDbDictionaryWithDefault
340
1D
  0
DICTIONARY
  5
241
102
{ACAD_REACTORS
330
19
102
}
330
19
100
AcDbDictionary
281
     1
  3
A0
350
242
  3
A1
350
243
  3
A2
350
244
  3
A3
350
245
  3
A4
350
246
  3
A5
350
247
  3
A6
350
248
  3
A7
350
249
  3
A8
350
24A
  3
A9
350
24B
  3
B0
350
24C
  3
B1
350
24D
  3
B2
350
24E
  3
B3
350
24F
  3
B4
350
250
  3
B5
350
251
  3
B6
350
252
  3
B7
350
253
  3
B8
350
254
  3
B9
350
255
  3
C0
350
256
  3
C1
350
257
  3
C2
350
258
  3
C3
350
259
  3
C4
350
25A
  3
C5
350
25B
  3
C6
350
25C
  3
C7
350
25D
  3
C8
350
25E
  3
C9
350
25F
  3
D0
350
260
  3
D1
350
261
  3
D2
350
262
  0
DICTIONARY
  5
BE9
102
{ACAD_REACTORS
330
19
102
}
330
19
100
AcDbDictionary
281
     1
  0
DICTIONARY
  5
278
102
{ACAD_REACTORS
330
19
102
}
330
19
100
AcDbDictionary
281
     1
  3
Standard
350
279
  0
DICTIONARY
  5
267
102
{ACAD_REACTORS
330
19
102
}
330
19
100
AcDbDictionary
281
     1
  3
2dWireframe
350
26C
  3
3D Hidden
350
26E
  3
3dWireframe
350
26D
  3
Basic
350
26F
  3
Brighten
350
273
  3
ColorChange
350
277
  3
Conceptual
350
271
  3
Dim
350
272
  3
EdgeColorOff
350
BDE
  3
Facepattern
350
276
  3
Flat
350
268
  3
FlatWithEdges
350
269
  3
Gouraud
350
26A
  3
GouraudWithEdges
350
26B
  3
Hidden
350
BDB
  3
JitterOff
350
BDC
  3
Linepattern
350
275
  3
OverhangOff
350
BDD
  3
Realistic
350
270
  3
Shaded
350
BE3
  3
Shaded with edges
350
BE2
  3
Shades of Gray
350
BDF
  3
Sketchy
350
BE0
  3
Thicken
350
274
  3
Wireframe
350
BDA
  3
X-Ray
350
BE1
  0
XRECORD
  5
94E3
102
{ACAD_REACTORS
330
19
102
}
330
19
100
AcDbXrecord
280
     1
340
0
 72
     0
 71
     0
 70
     0
 69
     0
 68
     1
 67
     3
 66
     0
 65
     0
 64
     0
 63
     3
 62
     1
 61
     0
 60
     0
 40
0.0
  0
XRECORD
  5
9923
102
{ACAD_REACTORS
330
19
102
}
330
19
100
AcDbXrecord
280
     1
 90
        1
330
279
  0
DICTIONARY
  5
330
102
{ACAD_REACTORS
330
19
102
}
330
19
100
AcDbDictionary
281
     1
  3
CANNOSCALE
350
331
  3
CMLEADERSTYLE
350
9917
  3
CTABLESTYLE
350
335
  3
HPTRANSPARENCY
350
C00
  3
XCLIPFRAME
350
64A
  0
DICTIONARY
  5
27A
102
{ACAD_REACTORS
330
19
102
}
330
19
100
AcDbDictionary
281
     1
  0
DICTIONARY
  5
2E2
102
{ACAD_REACTORS
330
2E1
102
}
330
2E1
100
AcDbDictionary
281
     1
  0
DICTIONARY
  5
95C2
102
{ACAD_REACTORS
330
2E1
102
}
330
2E1
100
AcDbDictionary
281
     1
1001
ACAD
1000
<All
  0
DIMASSOC
  5
90D9
102
{ACAD_REACTORS
330
90D8
102
}
330
90D8
100
AcDbDimAssoc
330
90D7
 90
        3
 70
     0
 71
     1
  1
AcDbOsnapPointRef
 72
     1
331
7DF4
 73
     0
 91
        0
 40
0.0
 10
0.0
 20
0.0
 30
0.0
 75
     0
  1
AcDbOsnapPointRef
 72
     1
331
7DEC
 73
     0
 91
        0
 40
0.0
 10
0.0
 20
0.0
 30
0.0
 75
     0
  0
DIMASSOC
  5
90E8
102
{ACAD_REACTORS
330
90E7
102
}
330
90E7
100
AcDbDimAssoc
330
90E6
 90
        1
 70
     0
 71
     1
  1
AcDbOsnapPointRef
 72
     1
331
7DF4
 73
     0
 91
        0
 40
0.0
 10
0.0
 20
0.0
 30
0.0
 75
     0
  0
DIMASSOC
  5
9906
102
{ACAD_REACTORS
330
9905
102
}
330
9905
100
AcDbDimAssoc
330
9904
 90
        2
 70
     0
 71
     1
  1
AcDbOsnapPointRef
 72
    13
331
7F46
 73
     0
 91
        0
 40
0.0
 10
0.0
 20
0.0
 30
0.0
 75
     0
  0
LAYOUT
  5
21
102
{ACAD_REACTORS
330
1E
102
}
330
1E
100
AcDbPlotSettings
  1

  2
none_device
  4
ISO_A3_(420.00_x_297.00_MM)
  6

 40
7.5
 41
20.0
 42
7.5
 43
20.0
 44
420.0
 45
297.0
 46
0.0
 47
0.0
 48
0.0
 49
0.0
140
0.0
141
0.0
142
1.0
143
1.0
 70
     0
 72
     1
 73
     0
 74
     0
  7

 75
     0
 76
     0
 77
     2
 78
   300
147
1.0
148
0.0
149
0.0
100
AcDbLayout
  1
Layout1
 70
     0
 71
     0
 10
0.0
 20
0.0
 11
0.0
 21
0.0
 12
0.0
 22
0.0
 32
0.0
 14
0.0
 24
0.0
 34
0.0
 15
0.0
 25
0.0
 35
0.0
146
0.0
 13
0.0
 23
0.0
 33
0.0
 16
0.0
 26
0.0
 36
0.0
 17
0.0
 27
0.0
 37
0.0
 76
     0
330
B
331
349
  0
LAYOUT
  5
20
102
{ACAD_REACTORS
330
1E
102
}
330
1E
100
AcDbPlotSettings
  1

  2
none_device
  4
ISO_A3_(420.00_x_297.00_MM)
  6

 40
7.5
 41
20.0
 42
7.5
 43
20.0
 44
420.0
 45
297.0
 46
0.0
 47
0.0
 48
0.0
 49
0.0
140
0.0
141
0.0
142
1.0
143
1.0
 70
  1024
 72
     1
 73
     0
 74
     0
  7

 75
     0
 76
     0
 77
     2
 78
   300
147
1.0
148
0.0
149
0.0
100
AcDbLayout
  1
Model
 70
     0
 71
     1
 10
0.0
 20
0.0
 11
2100.0
 21
2970.0
 12
0.0
 22
0.0
 32
0.0
 14
0.0
 24
0.0
 34
0.0
 15
2100.0
 25
2970.0
 35
0.0
146
0.0
 13
0.0
 23
0.0
 33
0.0
 16
0.0
 26
0.0
 36
0.0
 17
0.0
 27
0.0
 37
0.0
 76
     0
330
A
331
15
  0
MATERIAL
  5
9902
102
{ACAD_REACTORS
330
263
102
}
330
263
100
AcDbMaterial
  1
ByBlock
 72
     1
 94
      127
  0
MATERIAL
  5
264
102
{ACAD_REACTORS
330
263
102
}
330
263
100
AcDbMaterial
  1
ByLayer
 72
     1
 94
      127
  0
MATERIAL
  5
266
102
{ACAD_REACTORS
330
263
102
}
330
263
100
AcDbMaterial
  1
Global
 72
     1
 94
      127
  0
MLEADERSTYLE
  5
9903
102
{ACAD_REACTORS
330
336
102
}
330
336
100
AcDbMLeaderStyle
170
     2
171
     1
172
     0
 90
        2
 40
0.0
 41
0.0
173
     1
 91
-1056964608
340
11
 92
       -2
290
     1
 42
2.0
291
     1
 43
8.0
  3
Standard
341
0
 44
4.0
300

342
17
174
     1
178
     1
175
     1
176
     0
 93
-1056964608
 45
4.0
292
     0
297
     0
 46
4.0
343
0
 94
-1056964608
 47
1.0
 49
1.0
140
1.0
293
     1
141
0.0
294
     1
177
     0
142
1.0
295
     0
296
     0
143
3.75
1001
ACAD_MLEADERVER
1070
     2
  0
MLINESTYLE
  5
1C
102
{ACAD_REACTORS
330
1B
102
}
330
1B
100
AcDbMlineStyle
  2
Standard
 70
     0
  3

 62
     0
 51
90.0
 52
90.0
 71
     2
 49
0.5
 62
   256
  6
BYLAYER
 49
-0.5
 62
   256
  6
BYLAYER
  0
ACDBPLACEHOLDER
  5
1D
102
{ACAD_REACTORS
330
1F
102
}
330
1F
  0
SCALE
  5
242
102
{ACAD_REACTORS
330
241
102
}
330
241
100
AcDbScale
 70
     0
300
1:1
140
1.0
141
1.0
290
     1
  0
SCALE
  5
243
102
{ACAD_REACTORS
330
241
102
}
330
241
100
AcDbScale
 70
     0
300
1:2
140
1.0
141
2.0
290
     0
  0
SCALE
  5
244
102
{ACAD_REACTORS
330
241
102
}
330
241
100
AcDbScale
 70
     0
300
1:4
140
1.0
141
4.0
290
     0
  0
SCALE
  5
245
102
{ACAD_REACTORS
330
241
102
}
330
241
100
AcDbScale
 70
     0
300
1:5
140
1.0
141
5.0
290
     0
  0
SCALE
  5
246
102
{ACAD_REACTORS
330
241
102
}
330
241
100
AcDbScale
 70
     0
300
1:8
140
1.0
141
8.0
290
     0
  0
SCALE
  5
247
102
{ACAD_REACTORS
330
241
102
}
330
241
100
AcDbScale
 70
     0
300
1:10
140
1.0
141
10.0
290
     0
  0
SCALE
  5
248
102
{ACAD_REACTORS
330
241
102
}
330
241
100
AcDbScale
 70
     0
300
1:16
140
1.0
141
16.0
290
     0
  0
SCALE
  5
249
102
{ACAD_REACTORS
330
241
102
}
330
241
100
AcDbScale
 70
     0
300
1:20
140
1.0
141
20.0
290
     0
  0
SCALE
  5
24A
102
{ACAD_REACTORS
330
241
102
}
330
241
100
AcDbScale
 70
     0
300
1:30
140
1.0
141
30.0
290
     0
  0
SCALE
  5
24B
102
{ACAD_REACTORS
330
241
102
}
330
241
100
AcDbScale
 70
     0
300
1:40
140
1.0
141
40.0
290
     0
  0
SCALE
  5
24C
102
{ACAD_REACTORS
330
241
102
}
330
241
100
AcDbScale
 70
     0
300
1:50
140
1.0
141
50.0
290
     0
  0
SCALE
  5
24D
102
{ACAD_REACTORS
330
241
102
}
330
241
100
AcDbScale
 70
     0
300
1:100
140
1.0
141
100.0
290
     0
  0
SCALE
  5
24E
102
{ACAD_REACTORS
330
241
102
}
330
241
100
AcDbScale
 70
     0
300
2:1
140
2.0
141
1.0
290
     0
  0
SCALE
  5
24F
102
{ACAD_REACTORS
330
241
102
}
330
241
100
AcDbScale
 70
     0
300
4:1
140
4.0
141
1.0
290
     0
  0
SCALE
  5
250
102
{ACAD_REACTORS
330
241
102
}
330
241
100
AcDbScale
 70
     0
300
8:1
140
8.0
141
1.0
290
     0
  0
SCALE
  5
251
102
{ACAD_REACTORS
330
241
102
}
330
241
100
AcDbScale
 70
     0
300
10:1
140
10.0
141
1.0
290
     0
  0
SCALE
  5
252
102
{ACAD_REACTORS
330
241
102
}
330
241
100
AcDbScale
 70
     0
300
100:1
140
100.0
141
1.0
290
     0
  0
SCALE
  5
253
102
{ACAD_REACTORS
330
241
102
}
330
241
100
AcDbScale
 70
     0
300
1/128" = 1'-0"
140
0.0078125
141
12.0
290
     0
  0
SCALE
  5
254
102
{ACAD_REACTORS
330
241
102
}
330
241
100
AcDbScale
 70
     0
300
1/64" = 1'-0"
140
0.015625
141
12.0
290
     0
  0
SCALE
  5
255
102
{ACAD_REACTORS
330
241
102
}
330
241
100
AcDbScale
 70
     0
300
1/32" = 1'-0"
140
0.03125
141
12.0
290
     0
  0
SCALE
  5
256
102
{ACAD_REACTORS
330
241
102
}
330
241
100
AcDbScale
 70
     0
300
1/16" = 1'-0"
140
0.0625
141
12.0
290
     0
  0
SCALE
  5
257
102
{ACAD_REACTORS
330
241
102
}
330
241
100
AcDbScale
 70
     0
300
3/32" = 1'-0"
140
0.09375
141
12.0
290
     0
  0
SCALE
  5
258
102
{ACAD_REACTORS
330
241
102
}
330
241
100
AcDbScale
 70
     0
300
1/8" = 1'-0"
140
0.125
141
12.0
290
     0
  0
SCALE
  5
259
102
{ACAD_REACTORS
330
241
102
}
330
241
100
AcDbScale
 70
     0
300
3/16" = 1'-0"
140
0.1875
141
12.0
290
     0
  0
SCALE
  5
25A
102
{ACAD_REACTORS
330
241
102
}
330
241
100
AcDbScale
 70
     0
300
1/4" = 1'-0"
140
0.25
141
12.0
290
     0
  0
SCALE
  5
25B
102
{ACAD_REACTORS
330
241
102
}
330
241
100
AcDbScale
 70
     0
300
3/8" = 1'-0"
140
0.375
141
12.0
290
     0
  0
SCALE
  5
25C
102
{ACAD_REACTORS
330
241
102
}
330
241
100
AcDbScale
 70
     0
300
1/2" = 1'-0"
140
0.5
141
12.0
290
     0
  0
SCALE
  5
25D
102
{ACAD_REACTORS
330
241
102
}
330
241
100
AcDbScale
 70
     0
300
3/4" = 1'-0"
140
0.75
141
12.0
290
     0
  0
SCALE
  5
25E
102
{ACAD_REACTORS
330
241
102
}
330
241
100
AcDbScale
 70
     0
300
1" = 1'-0"
140
1.0
141
12.0
290
     0
  0
SCALE
  5
25F
102
{ACAD_REACTORS
330
241
102
}
330
241
100
AcDbScale
 70
     0
300
1-1/2" = 1'-0"
140
1.5
141
12.0
290
     0
  0
SCALE
  5
260
102
{ACAD_REACTORS
330
241
102
}
330
241
100
AcDbScale
 70
     0
300
3" = 1'-0"
140
3.0
141
12.0
290
     0
  0
SCALE
  5
261
102
{ACAD_REACTORS
330
241
102
}
330
241
100
AcDbScale
 70
     0
300
6" = 1'-0"
140
6.0
141
12.0
290
     0
  0
SCALE
  5
262
102
{ACAD_REACTORS
330
241
102
}
330
241
100
AcDbScale
 70
     0
300
1'-0" = 1'-0"
140
12.0
141
12.0
290
     0
  0
TABLESTYLE
  5
279
102
{ACAD_REACTORS
330
278
102
}
102
{ACAD_XDICTIONARY
360
9921
102
}
330
278
100
AcDbTableStyle
  3
Standard
 70
     0
 71
     0
 40
0.06
 41
0.06
280
     0
281
     0
  7
Standard
140
4.5
170
     2
 62
     0
 63
   257
283
     0
 90
        4
 91
        0
  1

274
    -2
284
     1
 64
     0
275
    -2
285
     1
 65
     0
276
    -2
286
     1
 66
     0
277
    -2
287
     1
 67
     0
278
    -2
288
     1
 68
     0
279
    -2
289
     1
 69
     0
  7
Standard
140
6.0
170
     5
 62
     0
 63
   257
283
     0
 90
        4
 91
        0
  1

274
    -2
284
     1
 64
     0
275
    -2
285
     1
 65
     0
276
    -2
286
     1
 66
     0
277
    -2
287
     1
 67
     0
278
    -2
288
     1
 68
     0
279
    -2
289
     1
 69
     0
  7
Standard
140
4.5
170
     5
 62
     0
 63
   257
283
     0
 90
        4
 91
        0
  1

274
    -2
284
     1
 64
     0
275
    -2
285
     1
 65
     0
276
    -2
286
     1
 66
     0
277
    -2
287
     1
 67
     0
278
    -2
288
     1
 68
     0
279
    -2
289
     1
 69
     0
  0
VISUALSTYLE
  5
26C
102
{ACAD_REACTORS
330
267
102
}
330
267
100
AcDbVisualStyle
  2
2dWireframe
 70
     4
 71
     0
 72
     2
 73
     0
 90
        0
 40
-0.6
 41
-30.0
 62
     5
 63
     7
421
 16777215
 74
     1
 91
        4
 64
     7
 65
   257
 75
     1
175
     1
 42
1.0
 92
        0
 66
   257
 43
1.0
 76
     1
 77
     6
 78
     2
 67
     7
 79
     5
170
     0
171
     0
290
     0
174
     0
 93
        1
 44
0.0
173
     0
291
     0
 45
0.0
  0
VISUALSTYLE
  5
26E
102
{ACAD_REACTORS
330
267
102
}
330
267
100
AcDbVisualStyle
  2
3D Hidden
 70
     6
 71
     1
 72
     2
 73
     2
 90
        0
 40
-0.6
 41
-30.0
 62
     5
 63
     7
421
 16777215
 74
     2
 91
        2
 64
     7
 65
   257
 75
     2
175
     1
 42
40.0
 92
        0
 66
   257
 43
1.0
 76
     1
 77
     6
 78
     2
 67
     7
 79
     3
170
     0
171
     0
290
     0
174
     0
 93
        1
 44
0.0
173
     0
291
     0
 45
0.0
  0
VISUALSTYLE
  5
26D
102
{ACAD_REACTORS
330
267
102
}
330
267
100
AcDbVisualStyle
  2
3dWireframe
 70
     5
 71
     0
 72
     2
 73
     0
 90
        0
 40
-0.6
 41
-30.0
 62
     5
 63
     7
421
 16777215
 74
     1
 91
        4
 64
     7
 65
   257
 75
     1
175
     1
 42
1.0
 92
        0
 66
   257
 43
1.0
 76
     1
 77
     6
 78
     2
 67
     7
 79
     5
170
     0
171
     0
290
     0
174
     0
 93
        1
 44
0.0
173
     0
291
     0
 45
0.0
  0
VISUALSTYLE
  5
26F
102
{ACAD_REACTORS
330
267
102
}
330
267
100
AcDbVisualStyle
  2
Basic
 70
     7
 71
     1
 72
     0
 73
     1
 90
        0
 40
-0.6
 41
-30.0
 62
     5
 63
     7
421
 16777215
 74
     0
 91
        4
 64
     7
 65
   257
 75
     1
175
     1
 42
1.0
 92
        8
 66
     7
 43
1.0
 76
     1
 77
     6
 78
     2
 67
     7
 79
     5
170
     0
171
     0
290
     0
174
     0
 93
        1
 44
0.0
173
     0
291
     1
 45
0.0
  0
VISUALSTYLE
  5
273
102
{ACAD_REACTORS
330
267
102
}
330
267
100
AcDbVisualStyle
  2
Brighten
 70
    12
 71
     2
 72
     2
 73
     0
 90
        0
 40
-0.6
 41
-30.0
 62
     5
 63
     7
421
 16777215
 74
     1
 91
        4
 64
     7
 65
   257
 75
     1
175
     1
 42
1.0
 92
        8
 66
     7
 43
1.0
 76
     1
 77
     6
 78
     2
 67
     7
 79
     5
170
     0
171
     0
290
     0
174
     0
 93
        1
 44
50.0
173
     0
291
     1
 45
0.0
  0
VISUALSTYLE
  5
277
102
{ACAD_REACTORS
330
267
102
}
330
267
100
AcDbVisualStyle
  2
ColorChange
 70
    16
 71
     2
 72
     2
 73
     3
 90
        0
 40
-0.6
 41
-30.0
 62
     5
 63
     8
421
  8421504
 74
     1
 91
        4
 64
     7
 65
   257
 75
     1
175
     1
 42
1.0
 92
        8
 66
     8
424
  8421504
 43
1.0
 76
     1
 77
     6
 78
     2
 67
     7
 79
     5
170
     0
171
     0
290
     0
174
     0
 93
        1
 44
0.0
173
     0
291
     1
 45
0.0
  0
VISUALSTYLE
  5
271
102
{ACAD_REACTORS
330
267
102
}
330
267
100
AcDbVisualStyle
  2
Conceptual
 70
     9
 71
     3
 72
     2
 73
     0
 90
        0
 40
-0.6
 41
-30.0
 62
     5
 63
     7
421
 16777215
 74
     2
 91
        2
 64
     7
 65
   257
 75
     1
175
     1
 42
40.0
 92
        8
 66
     7
 43
1.0
 76
     1
 77
     6
 78
     2
 67
     7
 79
     3
170
     0
171
     0
290
     0
174
     0
 93
        1
 44
0.0
173
     0
291
     0
 45
0.0
  0
VISUALSTYLE
  5
272
102
{ACAD_REACTORS
330
267
102
}
330
267
100
AcDbVisualStyle
  2
Dim
 70
    11
 71
     2
 72
     2
 73
     0
 90
        0
 40
-0.6
 41
-30.0
 62
     5
 63
     7
421
 16777215
 74
     1
 91
        4
 64
     7
 65
   257
 75
     1
175
     1
 42
1.0
 92
        8
 66
     7
 43
1.0
 76
     1
 77
     6
 78
     2
 67
     7
 79
     5
170
     0
171
     0
290
     0
174
     0
 93
        1
 44
-50.0
173
     0
291
     1
 45
0.0
  0
VISUALSTYLE
  5
BDE
102
{ACAD_REACTORS
330
267
102
}
330
267
100
AcDbVisualStyle
  2
EdgeColorOff
 70
    22
 71
     2
 72
     2
 73
     0
 90
        0
 40
0.6
 41
30.0
 62
     5
 63
     7
421
 16777215
 74
     1
 91
        4
 64
     7
 65
   257
 75
     1
175
     1
 42
1.0
 92
        8
 66
     7
 43
1.0
 76
     1
 77
     6
 78
     2
 67
     7
 79
     5
170
     0
171
     0
290
     0
174
     0
 93
        1
 44
0.0
173
     0
291
     1
 45
0.0
  0
VISUALSTYLE
  5
276
102
{ACAD_REACTORS
330
267
102
}
330
267
100
AcDbVisualStyle
  2
Facepattern
 70
    15
 71
     2
 72
     2
 73
     0
 90
        0
 40
-0.6
 41
-30.0
 62
     5
 63
     7
421
 16777215
 74
     1
 91
        4
 64
     7
 65
   257
 75
     1
175
     1
 42
1.0
 92
        8
 66
     7
 43
1.0
 76
     1
 77
     6
 78
     2
 67
     7
 79
     5
170
     0
171
     0
290
     0
174
     0
 93
        1
 44
0.0
173
     0
291
     1
 45
0.0
  0
VISUALSTYLE
  5
268
102
{ACAD_REACTORS
330
267
102
}
330
267
100
AcDbVisualStyle
  2
Flat
 70
     0
 71
     2
 72
     1
 73
     1
 90
        2
 40
-0.6
 41
30.0
 62
     5
 63
     7
421
 16777215
 74
     0
 91
        4
 64
     7
 65
   257
 75
     1
175
     1
 42
1.0
 92
        8
 66
     7
 43
1.0
 76
     1
 77
     6
 78
     2
 67
     7
 79
     5
170
     0
171
     0
290
     0
174
     0
 93
       13
 44
0.0
173
     0
291
     1
 45
0.0
  0
VISUALSTYLE
  5
269
102
{ACAD_REACTORS
330
267
102
}
330
267
100
AcDbVisualStyle
  2
FlatWithEdges
 70
     1
 71
     2
 72
     1
 73
     1
 90
        2
 40
-0.6
 41
30.0
 62
     5
 63
     7
421
 16777215
 74
     1
 91
        4
 64
     7
 65
   257
 75
     1
175
     1
 42
1.0
 92
        0
 66
   257
 43
1.0
 76
     1
 77
     6
 78
     2
 67
     7
 79
     5
170
     0
171
     0
290
     0
174
     0
 93
       13
 44
0.0
173
     0
291
     1
 45
0.0
  0
VISUALSTYLE
  5
26A
102
{ACAD_REACTORS
330
267
102
}
330
267
100
AcDbVisualStyle
  2
Gouraud
 70
     2
 71
     2
 72
     2
 73
     1
 90
        2
 40
-0.6
 41
30.0
 62
     5
 63
     7
421
 16777215
 74
     0
 91
        4
 64
     7
 65
   257
 75
     1
175
     1
 42
1.0
 92
        0
 66
     7
 43
1.0
 76
     1
 77
     6
 78
     2
 67
     7
 79
     5
170
     0
171
     0
290
     0
174
     0
 93
       13
 44
0.0
173
     0
291
     1
 45
0.0
  0
VISUALSTYLE
  5
26B
102
{ACAD_REACTORS
330
267
102
}
330
267
100
AcDbVisualStyle
  2
GouraudWithEdges
 70
     3
 71
     2
 72
     2
 73
     1
 90
        2
 40
-0.6
 41
30.0
 62
     5
 63
     7
421
 16777215
 74
     1
 91
        4
 64
     7
 65
   257
 75
     1
175
     1
 42
1.0
 92
        0
 66
   257
 43
1.0
 76
     1
 77
     6
 78
     2
 67
     7
 79
     5
170
     0
171
     0
290
     0
174
     0
 93
       13
 44
0.0
173
     0
291
     1
 45
0.0
  0
VISUALSTYLE
  5
BDB
102
{ACAD_REACTORS
330
267
102
}
330
267
100
AcDbVisualStyle
  2
Hidden
 70
     6
 71
     1
 72
     2
 73
     2
 90
        0
 40
0.6
 41
30.0
 62
     5
 63
     7
421
 16777215
 74
     2
 91
        2
 64
     7
 65
   257
 75
     2
175
     1
 42
40.0
 92
        0
 66
   257
 43
1.0
 76
     1
 77
     6
 78
     2
 67
     7
 79
     3
170
     0
171
     0
290
     0
174
     0
 93
        1
 44
0.0
173
     0
291
     0
 45
0.0
  0
VISUALSTYLE
  5
BDC
102
{ACAD_REACTORS
330
267
102
}
330
267
100
AcDbVisualStyle
  2
JitterOff
 70
    20
 71
     2
 72
     2
 73
     0
 90
        0
 40
0.6
 41
30.0
 62
     5
 63
     7
421
 16777215
 74
     1
 91
        4
 64
     7
 65
   257
 75
     1
175
     1
 42
1.0
 92
       10
 66
     7
 43
1.0
 76
     1
 77
     6
 78
     2
 67
     7
 79
     5
170
     0
171
     0
290
     0
174
     0
 93
        1
 44
0.0
173
     0
291
     1
 45
0.0
  0
VISUALSTYLE
  5
275
102
{ACAD_REACTORS
330
267
102
}
330
267
100
AcDbVisualStyle
  2
Linepattern
 70
    14
 71
     2
 72
     2
 73
     0
 90
        0
 40
-0.6
 41
-30.0
 62
     5
 63
     7
421
 16777215
 74
     1
 91
        4
 64
     7
 65
   257
 75
     7
175
     7
 42
1.0
 92
        8
 66
     7
 43
1.0
 76
     1
 77
     6
 78
     2
 67
     7
 79
     5
170
     0
171
     0
290
     0
174
     0
 93
        1
 44
0.0
173
     0
291
     1
 45
0.0
  0
VISUALSTYLE
  5
BDD
102
{ACAD_REACTORS
330
267
102
}
330
267
100
AcDbVisualStyle
  2
OverhangOff
 70
    21
 71
     2
 72
     2
 73
     0
 90
        0
 40
0.6
 41
30.0
 62
     5
 63
     7
421
 16777215
 74
     1
 91
        4
 64
     7
 65
   257
 75
     1
175
     1
 42
1.0
 92
        9
 66
     7
 43
1.0
 76
     1
 77
     6
 78
     2
 67
     7
 79
     5
170
     0
171
     0
290
     0
174
     0
 93
        1
 44
0.0
173
     0
291
     1
 45
0.0
  0
VISUALSTYLE
  5
270
102
{ACAD_REACTORS
330
267
102
}
330
267
100
AcDbVisualStyle
  2
Realistic
 70
     8
 71
     2
 72
     2
 73
     0
 90
        0
 40
-0.6
 41
-30.0
 62
     5
 63
     7
421
 16777215
 74
     1
 91
        0
 64
     7
 65
   257
 75
     1
175
     1
 42
1.0
 92
        8
 66
     8
424
  7895160
 43
1.0
 76
     1
 77
     6
 78
     2
 67
     7
 79
     5
170
     0
171
     0
290
     0
174
     0
 93
       13
 44
0.0
173
     0
291
     0
 45
0.0
  0
VISUALSTYLE
  5
BE3
102
{ACAD_REACTORS
330
267
102
}
330
267
100
AcDbVisualStyle
  2
Shaded
 70
    27
 71
     2
 72
     2
 73
     1
 90
        2
 40
0.6
 41
30.0
 62
     5
 63
     7
421
 16777215
 74
     0
 91
        4
 64
     7
 65
   257
 75
     1
175
     1
 42
1.0
 92
        8
 66
   257
 43
1.0
 76
     1
 77
     6
 78
     2
 67
     8
425
  7895160
 79
     3
170
     0
171
     0
290
     0
174
     0
 93
        5
 44
0.0
173
     0
291
     0
 45
0.0
  0
VISUALSTYLE
  5
BE2
102
{ACAD_REACTORS
330
267
102
}
330
267
100
AcDbVisualStyle
  2
Shaded with edges
 70
    26
 71
     2
 72
     2
 73
     1
 90
        2
 40
0.6
 41
30.0
 62
     5
 63
     7
421
 16777215
 74
     1
 91
       10
 64
     7
 65
   257
 75
     2
175
     1
 42
1.0
 92
        8
 66
   257
 43
1.0
 76
     1
 77
     6
 78
     2
 67
     7
 79
     3
170
     0
171
     0
290
     0
174
     0
 93
        5
 44
0.0
173
     0
291
     0
 45
0.0
  0
VISUALSTYLE
  5
BDF
102
{ACAD_REACTORS
330
267
102
}
330
267
100
AcDbVisualStyle
  2
Shades of Gray
 70
    23
 71
     2
 72
     2
 73
     3
 90
        0
 40
0.6
 41
30.0
 62
     5
 63
     7
421
 16777215
 74
     2
 91
        2
 64
     7
 65
     7
 75
     1
175
     1
 42
40.0
 92
        8
 66
     7
 43
1.0
 76
     1
 77
     6
 78
     2
 67
     7
 79
     3
170
     0
171
     0
290
     0
174
     0
 93
        1
 44
0.0
173
     0
291
     0
 45
0.0
  0
VISUALSTYLE
  5
BE0
102
{ACAD_REACTORS
330
267
102
}
330
267
100
AcDbVisualStyle
  2
Sketchy
 70
    24
 71
     1
 72
     2
 73
     2
 90
        0
 40
0.6
 41
30.0
 62
     5
 63
     7
421
 16777215
 74
     2
 91
        2
 64
     7
 65
     7
 75
     1
175
     1
 42
40.0
 92
       11
 66
     7
 43
1.0
 76
     1
 77
     6
 78
     2
 67
     7
 79
     6
170
     0
171
     0
290
     0
174
     0
 93
        1
 44
0.0
173
     0
291
     0
 45
0.0
  0
VISUALSTYLE
  5
274
102
{ACAD_REACTORS
330
267
102
}
330
267
100
AcDbVisualStyle
  2
Thicken
 70
    13
 71
     2
 72
     2
 73
     0
 90
        0
 40
-0.6
 41
-30.0
 62
     5
 63
     7
421
 16777215
 74
     1
 91
        4
 64
     7
 65
   257
 75
     1
175
     1
 42
1.0
 92
       12
 66
     7
 43
1.0
 76
     1
 77
     6
 78
     2
 67
     7
 79
     5
170
     0
171
     0
290
     0
174
     0
 93
        1
 44
0.0
173
     0
291
     1
 45
0.0
  0
VISUALSTYLE
  5
BDA
102
{ACAD_REACTORS
330
267
102
}
330
267
100
AcDbVisualStyle
  2
Wireframe
 70
     5
 71
     0
 72
     2
 73
     0
 90
        0
 40
0.6
 41
30.0
 62
     5
 63
     7
421
 16777215
 74
     1
 91
        4
 64
     7
 65
   257
 75
     1
175
     1
 42
1.0
 92
        0
 66
   257
 43
1.0
 76
     1
 77
     6
 78
     2
 67
     7
 79
     3
170
     0
171
     0
290
     0
174
     0
 93
        1
 44
0.0
173
     0
291
     0
 45
0.0
  0
VISUALSTYLE
  5
BE1
102
{ACAD_REACTORS
330
267
102
}
330
267
100
AcDbVisualStyle
  2
X-Ray
 70
    25
 71
     2
 72
     2
 73
     1
 90
        1
 40
0.5
 41
30.0
 62
     5
 63
     7
421
 16777215
 74
     1
 91
        0
 64
     7
 65
   257
 75
     1
175
     1
 42
1.0
 92
        8
 66
     7
 43
1.0
 76
     1
 77
     6
 78
     2
 67
     7
 79
     3
170
     0
171
     0
290
     0
174
     0
 93
       13
 44
0.0
173
     0
291
     0
 45
0.0
  0
DICTIONARYVAR
  5
331
102
{ACAD_REACTORS
330
330
102
}
330
330
100
DictionaryVariables
280
     0
  1
1:1
  0
DICTIONARYVAR
  5
9917
102
{ACAD_REACTORS
330
330
102
}
330
330
100
DictionaryVariables
280
     0
  1
Standard
  0
DICTIONARYVAR
  5
335
102
{ACAD_REACTORS
330
330
102
}
330
330
100
DictionaryVariables
280
     0
  1
Standard
  0
DICTIONARYVAR
  5
C00
102
{ACAD_REACTORS
330
330
102
}
330
330
100
DictionaryVariables
280
     0
  1
ByLayer
  0
DICTIONARYVAR
  5
64A
102
{ACAD_REACTORS
330
330
102
}
330
330
100
DictionaryVariables
280
     0
  1
0
  0
DICTIONARY
  5
9921
330
279
100
AcDbDictionary
280
     1
281
     1
  3
ACAD_ROUNDTRIP_2008_TABLESTYLE_CELLSTYLEMAP
360
9922
  0
CELLSTYLEMAP
  5
9922
102
{ACAD_REACTORS
330
9921
102
}
330
9921
100
AcDbCellStyleMap
 90
        3
300
CELLSTYLE
  1
TABLEFORMAT_BEGIN
 90
        5
170
     1
 91
        0
 92
    32768
 62
   257
 93
        1
300
CONTENTFORMAT
  1
CONTENTFORMAT_BEGIN
 90
        0
 91
        0
 92
        4
 93
        0
300

 40
0.0
140
1.0
 94
        5
 62
     0
340
17
144
6.0
309
CONTENTFORMAT_END
171
     1
301
MARGIN
  1
CELLMARGIN_BEGIN
 40
0.06
 40
0.06
 40
0.06
 40
0.06
 40
0.18
 40
0.18
309
CELLMARGIN_END
 94
        6
 95
        1
302
GRIDFORMAT
  1
GRIDFORMAT_BEGIN
 90
        0
 91
        1
 62
     0
 92
       -2
340
0
 93
        0
 40
0.045
309
GRIDFORMAT_END
 95
        2
302
GRIDFORMAT
  1
GRIDFORMAT_BEGIN
 90
        0
 91
        1
 62
     0
 92
       -2
340
0
 93
        0
 40
0.045
309
GRIDFORMAT_END
 95
        4
302
GRIDFORMAT
  1
GRIDFORMAT_BEGIN
 90
        0
 91
        1
 62
     0
 92
       -2
340
0
 93
        0
 40
0.045
309
GRIDFORMAT_END
 95
        8
302
GRIDFORMAT
  1
GRIDFORMAT_BEGIN
 90
        0
 91
        1
 62
     0
 92
       -2
340
0
 93
        0
 40
0.045
309
GRIDFORMAT_END
 95
       16
302
GRIDFORMAT
  1
GRIDFORMAT_BEGIN
 90
        0
 91
        1
 62
     0
 92
       -2
340
0
 93
        0
 40
0.045
309
GRIDFORMAT_END
 95
       32
302
GRIDFORMAT
  1
GRIDFORMAT_BEGIN
 90
        0
 91
        1
 62
     0
 92
       -2
340
0
 93
        0
 40
0.045
309
GRIDFORMAT_END
309
TABLEFORMAT_END
  1
CELLSTYLE_BEGIN
 90
        1
 91
        1
300
_TITLE
309
CELLSTYLE_END
300
CELLSTYLE
  1
TABLEFORMAT_BEGIN
 90
        5
170
     1
 91
        0
 92
        0
 62
   257
 93
        1
300
CONTENTFORMAT
  1
CONTENTFORMAT_BEGIN
 90
        0
 91
        0
 92
        4
 93
        0
300

 40
0.0
140
1.0
 94
        5
 62
     0
340
17
144
4.5
309
CONTENTFORMAT_END
171
     1
301
MARGIN
  1
CELLMARGIN_BEGIN
 40
0.06
 40
0.06
 40
0.06
 40
0.06
 40
0.18
 40
0.18
309
CELLMARGIN_END
 94
        6
 95
        1
302
GRIDFORMAT
  1
GRIDFORMAT_BEGIN
 90
        0
 91
        1
 62
     0
 92
       -2
340
0
 93
        0
 40
0.045
309
GRIDFORMAT_END
 95
        2
302
GRIDFORMAT
  1
GRIDFORMAT_BEGIN
 90
        0
 91
        1
 62
     0
 92
       -2
340
0
 93
        0
 40
0.045
309
GRIDFORMAT_END
 95
        4
302
GRIDFORMAT
  1
GRIDFORMAT_BEGIN
 90
        0
 91
        1
 62
     0
 92
       -2
340
0
 93
        0
 40
0.045
309
GRIDFORMAT_END
 95
        8
302
GRIDFORMAT
  1
GRIDFORMAT_BEGIN
 90
        0
 91
        1
 62
     0
 92
       -2
340
0
 93
        0
 40
0.045
309
GRIDFORMAT_END
 95
       16
302
GRIDFORMAT
  1
GRIDFORMAT_BEGIN
 90
        0
 91
        1
 62
     0
 92
       -2
340
0
 93
        0
 40
0.045
309
GRIDFORMAT_END
 95
       32
302
GRIDFORMAT
  1
GRIDFORMAT_BEGIN
 90
        0
 91
        1
 62
     0
 92
       -2
340
0
 93
        0
 40
0.045
309
GRIDFORMAT_END
309
TABLEFORMAT_END
  1
CELLSTYLE_BEGIN
 90
        2
 91
        1
300
_HEADER
309
CELLSTYLE_END
300
CELLSTYLE
  1
TABLEFORMAT_BEGIN
 90
        5
170
     1
 91
        0
 92
        0
 62
   257
 93
        1
300
CONTENTFORMAT
  1
CONTENTFORMAT_BEGIN
 90
        0
 91
        0
 92
        4
 93
        0
300

 40
0.0
140
1.0
 94
        2
 62
     0
340
17
144
4.5
309
CONTENTFORMAT_END
171
     1
301
MARGIN
  1
CELLMARGIN_BEGIN
 40
0.06
 40
0.06
 40
0.06
 40
0.06
 40
0.18
 40
0.18
309
CELLMARGIN_END
 94
        6
 95
        1
302
GRIDFORMAT
  1
GRIDFORMAT_BEGIN
 90
        0
 91
        1
 62
     0
 92
       -2
340
0
 93
        0
 40
0.045
309
GRIDFORMAT_END
 95
        2
302
GRIDFORMAT
  1
GRIDFORMAT_BEGIN
 90
        0
 91
        1
 62
     0
 92
       -2
340
0
 93
        0
 40
0.045
309
GRIDFORMAT_END
 95
        4
302
GRIDFORMAT
  1
GRIDFORMAT_BEGIN
 90
        0
 91
        1
 62
     0
 92
       -2
340
0
 93
        0
 40
0.045
309
GRIDFORMAT_END
 95
        8
302
GRIDFORMAT
  1
GRIDFORMAT_BEGIN
 90
        0
 91
        1
 62
     0
 92
       -2
340
0
 93
        0
 40
0.045
309
GRIDFORMAT_END
 95
       16
302
GRIDFORMAT
  1
GRIDFORMAT_BEGIN
 90
        0
 91
        1
 62
     0
 92
       -2
340
0
 93
        0
 40
0.045
309
GRIDFORMAT_END
 95
       32
302
GRIDFORMAT
  1
GRIDFORMAT_BEGIN
 90
        0
 91
        1
 62
     0
 92
       -2
340
0
 93
        0
 40
0.045
309
GRIDFORMAT_END
309
TABLEFORMAT_END
  1
CELLSTYLE_BEGIN
 90
        3
 91
        2
300
_DATA
309
CELLSTYLE_END
  0
ENDSEC
  0
EOF
