  0
SECTION
  2
HEADER
  9
$ACADVER
  1
AC1021
  9
$ACADMAINTVER
 70
    25
  9
$DWGCODEPAGE
  3
ANSI_932
  9
$LASTSAVEDBY
  1
howeNelson
  9
$INSBASE
 10
0.0
 20
0.0
 30
0.0
  9
$EXTMIN
 10
0.0
 20
0.0
 30
0.0
  9
$EXTMAX
 10
2100.0
 20
2970.0
 30
0.0
  9
$LIMMIN
 10
0.0
 20
0.0
  9
$LIMMAX
 10
2100.0
 20
2970.0
  9
$ORTHOMODE
 70
     0
  9
$REGENMODE
 70
     1
  9
$FILLMODE
 70
     1
  9
$QTEXTMODE
 70
     0
  9
$MIRRTEXT
 70
     1
  9
$LTSCALE
 40
50.8
  9
$ATTMODE
 70
     1
  9
$TEXTSIZE
 40
533.0403732820173
  9
$TRACEWID
 40
1.0
  9
$TEXTSTYLE
  7
Standard
  9
$CLAYER
  8
MODEL
  9
$CELTYPE
  6
Continuous
  9
$CECOLOR
 62
   256
  9
$CELTSCALE
 40
1.0
  9
$DISPSILH
 70
     0
  9
$DIMSCALE
 40
1.0
  9
$DIMASZ
 40
6.0
  9
$DIMEXO
 40
25.0
  9
$DIMDLI
 40
25.0
  9
$DIMRND
 40
0.0
  9
$DIMDLE
 40
0.0
  9
$DIMEXE
 40
0.0
  9
$DIMTP
 40
0.0
  9
$DIMTM
 40
0.0
  9
$DIMTXT
 40
24.0
  9
$DIMCEN
 40
0.0
  9
$DIMTSZ
 40
0.0
  9
$DIMTOL
 70
     0
  9
$DIMLIM
 70
     0
  9
$DIMTIH
 70
     0
  9
$DIMTOH
 70
     0
  9
$DIMSE1
 70
     0
  9
$DIMSE2
 70
     0
  9
$DIMTAD
 70
     1
  9
$DIMZIN
 70
    11
  9
$DIMBLK
  1
DOT
  9
$DIMASO
 70
     1
  9
$DIMSHO
 70
     1
  9
$DIMPOST
  1
<>
  9
$DIMAPOST
  1
[]
  9
$DIMALT
 70
     0
  9
$DIMALTD
 70
     1
  9
$DIMALTF
 40
1.0
  9
$DIMLFAC
 40
1.0
  9
$DIMTOFL
 70
     0
  9
$DIMTVP
 40
0.0
  9
$DIMTIX
 70
     1
  9
$DIMSOXD
 70
     0
  9
$DIMSAH
 70
     0
  9
$DIMBLK1
  1

  9
$DIMBLK2
  1

  9
$DIMSTYLE
  2
JIS
  9
$DIMCLRD
 70
     0
  9
$DIMCLRE
 70
     0
  9
$DIMCLRT
 70
     0
  9
$DIMTFAC
 40
1.0
  9
$DIMGAP
 40
15.0
  9
$DIMJUST
 70
     0
  9
$DIMSD1
 70
     0
  9
$DIMSD2
 70
     0
  9
$DIMTOLJ
 70
     1
  9
$DIMTZIN
 70
    11
  9
$DIMALTZ
 70
    11
  9
$DIMALTTZ
 70
    11
  9
$DIMUPT
 70
     0
  9
$DIMDEC
 70
     0
  9
$DIMTDEC
 70
     1
  9
$DIMALTU
 70
     2
  9
$DIMALTTD
 70
     2
  9
$DIMTXSTY
  7
ＭＳ ゴシック
  9
$DIMAUNIT
 70
     0
  9
$DIMADEC
 70
     0
  9
$DIMALTRND
 40
0.0
  9
$DIMAZIN
 70
     0
  9
$DIMDSEP
 70
    46
  9
$DIMATFIT
 70
     0
  9
$DIMFRAC
 70
     2
  9
$DIMLDRBLK
  1
DOT
  9
$DIMLUNIT
 70
     2
  9
$DIMLWD
 70
    -2
  9
$DIMLWE
 70
    -2
  9
$DIMTMOVE
 70
     0
  9
$DIMFXL
 40
1.0
  9
$DIMFXLON
 70
     0
  9
$DIMJOGANG
 40
0.7853981633974483
  9
$DIMTFILL
 70
     0
  9
$DIMTFILLCLR
 70
     0
  9
$DIMARCSYM
 70
     0
  9
$DIMLTYPE
  6

  9
$DIMLTEX1
  6

  9
$DIMLTEX2
  6

  9
$LUNITS
 70
     2
  9
$LUPREC
 70
     0
  9
$SKETCHINC
 40
0.1
  9
$FILLETRAD
 40
0.0
  9
$AUNITS
 70
     0
  9
$AUPREC
 70
     0
  9
$MENU
  1
acad
  9
$ELEVATION
 40
0.0
  9
$PELEVATION
 40
0.0
  9
$THICKNESS
 40
0.0
  9
$LIMCHECK
 70
     0
  9
$CHAMFERA
 40
0.0
  9
$CHAMFERB
 40
0.0
  9
$CHAMFERC
 40
0.0
  9
$CHAMFERD
 40
0.0
  9
$SKPOLY
 70
     0
  9
$TDCREATE
 40
2447893.375
  9
$TDUCREATE
 40
0.0
  9
$TDUPDATE
 40
2458759.570585868
  9
$TDUUPDATE
 40
2458759.195585868
  9
$TDINDWG
 40
0.0
  9
$TDUSRTIMER
 40
0.0
  9
$USRTIMER
 70
     1
  9
$ANGBASE
 50
0.0
  9
$ANGDIR
 70
     0
  9
$PDMODE
 70
     1
  9
$PDSIZE
 40
-2.0
  9
$PLINEWID
 40
0.0
  9
$SPLFRAME
 70
     0
  9
$SPLINETYPE
 70
     6
  9
$SPLINESEGS
 70
     8
  9
$HANDSEED
  5
9A63
  9
$SURFTAB1
 70
     6
  9
$SURFTAB2
 70
     6
  9
$SURFTYPE
 70
     6
  9
$SURFU
 70
     6
  9
$SURFV
 70
     6
  9
$UCSBASE
  2

  9
$UCSNAME
  2

  9
$UCSORG
 10
0.0
 20
0.0
 30
0.0
  9
$UCSXDIR
 10
1.0
 20
0.0
 30
0.0
  9
$UCSYDIR
 10
0.0
 20
1.0
 30
0.0
  9
$UCSORTHOREF
  2

  9
$UCSORTHOVIEW
 70
     0
  9
$UCSORGTOP
 10
0.0
 20
0.0
 30
0.0
  9
$UCSORGBOTTOM
 10
0.0
 20
0.0
 30
0.0
  9
$UCSORGLEFT
 10
0.0
 20
0.0
 30
0.0
  9
$UCSORGRIGHT
 10
0.0
 20
0.0
 30
0.0
  9
$UCSORGFRONT
 10
0.0
 20
0.0
 30
0.0
  9
$UCSORGBACK
 10
0.0
 20
0.0
 30
0.0
  9
$PUCSBASE
  2

  9
$PUCSNAME
  2

  9
$PUCSORG
 10
0.0
 20
0.0
 30
0.0
  9
$PUCSXDIR
 10
1.0
 20
0.0
 30
0.0
  9
$PUCSYDIR
 10
0.0
 20
1.0
 30
0.0
  9
$PUCSORTHOREF
  2

  9
$PUCSORTHOVIEW
 70
     0
  9
$PUCSORGTOP
 10
0.0
 20
0.0
 30
0.0
  9
$PUCSORGBOTTOM
 10
0.0
 20
0.0
 30
0.0
  9
$PUCSORGLEFT
 10
0.0
 20
0.0
 30
0.0
  9
$PUCSORGRIGHT
 10
0.0
 20
0.0
 30
0.0
  9
$PUCSORGFRONT
 10
0.0
 20
0.0
 30
0.0
  9
$PUCSORGBACK
 10
0.0
 20
0.0
 30
0.0
  9
$USERI1
 70
     0
  9
$USERI2
 70
     0
  9
$USERI3
 70
     0
  9
$USERI4
 70
     0
  9
$USERI5
 70
     0
  9
$USERR1
 40
0.0
  9
$USERR2
 40
0.0
  9
$USERR3
 40
0.0
  9
$USERR4
 40
0.0
  9
$USERR5
 40
0.0
  9
$WORLDVIEW
 70
     1
  9
$SHADEDGE
 70
     3
  9
$SHADEDIF
 70
    70
  9
$TILEMODE
 70
     1
  9
$MAXACTVP
 70
    64
  9
$PINSBASE
 10
0.0
 20
0.0
 30
0.0
  9
$PLIMCHECK
 70
     0
  9
$PEXTMIN
 10
0.0
 20
0.0
 30
0.0
  9
$PEXTMAX
 10
0.0
 20
0.0
 30
0.0
  9
$PLIMMIN
 10
-7.5
 20
-20.0
  9
$PLIMMAX
 10
412.5
 20
277.0
  9
$UNITMODE
 70
     0
  9
$VISRETAIN
 70
     0
  9
$PLINEGEN
 70
     1
  9
$PSLTSCALE
 70
     0
  9
$TREEDEPTH
 70
  3020
  9
$CMLSTYLE
  2
Standard
  9
$CMLJUST
 70
     0
  9
$CMLSCALE
 40
1.0
  9
$PROXYGRAPHICS
 70
     0
  9
$MEASUREMENT
 70
     1
  9
$CELWEIGHT
370
    -1
  9
$ENDCAPS
280
     0
  9
$JOINSTYLE
280
     0
  9
$LWDISPLAY
290
     1
  9
$INSUNITS
 70
     4
  9
$HYPERLINKBASE
  1

  9
$STYLESHEET
  1

  9
$XEDIT
290
     1
  9
$CEPSNTYPE
380
     0
  9
$PSTYLEMODE
290
     1
  9
$FINGERPRINTGUID
  2

  9
$VERSIONGUID
  2

  9
$EXTNAMES
290
     1
  9
$PSVPSCALE
 40
0.0
  9
$OLESTARTUP
290
     0
  9
$SORTENTS
280
   127
  9
$INDEXCTL
280
     0
  9
$HIDETEXT
280
     1
  9
$XCLIPFRAME
290
     0
  9
$HALOGAP
280
     0
  9
$OBSCOLOR
 70
   257
  9
$OBSLTYPE
280
     0
  9
$INTERSECTIONDISPLAY
280
     0
  9
$INTERSECTIONCOLOR
 70
   257
  9
$DIMASSOC
280
     2
  9
$PROJECTNAME
  1

  9
$CAMERADISPLAY
290
     0
  9
$LENSLENGTH
 40
50.0
  9
$CAMERAHEIGHT
 40
0.0
  9
$STEPSPERSEC
 40
2.0
  9
$STEPSIZE
 40
6.0
  9
$3DDWFPREC
 40
2.0
  9
$PSOLWIDTH
 40
0.25
  9
$PSOLHEIGHT
 40
4.0
  9
$LOFTANG1
 40
1.570796326794897
  9
$LOFTANG2
 40
1.570796326794897
  9
$LOFTMAG1
 40
0.0
  9
$LOFTMAG2
 40
0.0
  9
$LOFTPARAM
 70
     7
  9
$LOFTNORMALS
280
     1
  9
$LATITUDE
 40
37.795
  9
$LONGITUDE
 40
-122.394
  9
$NORTHDIRECTION
 40
0.0
  9
$TIMEZONE
 70
 -8000
  9
$LIGHTGLYPHDISPLAY
280
     1
  9
$TILEMODELIGHTSYNCH
280
     1
  9
$SOLIDHIST
280
     1
  9
$SHOWHIST
280
     1
  9
$DWFFRAME
280
     2
  9
$DGNFRAME
280
     2
  9
$REALWORLDSCALE
290
     1
  9
$INTERFERECOLOR
 62
   256
  9
$CSHADOW
280
     0
  9
$SHADOWPLANELOCATION
 40
0.0
  0
ENDSEC
  0
SECTION
  2
CLASSES
  0
CLASS
  1
LWPOLYLINE
  2
AcDbPolyline
  3
ObjectDBX Classes
 90
        0
 91
        1
280
     0
281
     1
  0
CLASS
  1
IMAGE
  2
AcDbRasterImage
  3
ISM
 90
      127
 91
        9
280
     0
281
     1
  0
CLASS
  1
OLE2FRAME
  2
AcDbOle2Frame
  3
ObjectDBX Classes
 90
        0
 91
        1
280
     0
281
     1
  0
CLASS
  1
HATCH
  2
AcDbHatch
  3
ObjectDBX Classes
 90
        0
 91
        1
280
     0
281
     1
  0
CLASS
  1
DICTIONARYVAR
  2
AcDbDictionaryVar
  3
ObjectDBX Classes
 90
        0
 91
        8
280
     0
281
     0
  0
CLASS
  1
RASTERVARIABLES
  2
AcDbRasterVariables
  3
ISM
 90
        0
 91
        8
280
     0
281
     0
  0
CLASS
  1
IMAGEDEF
  2
AcDbRasterImageDef
  3
ISM
 90
        0
 91
        8
280
     0
281
     0
  0
CLASS
  1
IMAGEDEF_REACTOR
  2
AcDbRasterImageDefReactor
  3
ISM
 90
        1
 91
        8
280
     0
281
     0
  0
CLASS
  1
IDBUFFER
  2
AcDbIdBuffer
  3
ObjectDBX Classes
 90
        0
 91
        8
280
     0
281
     0
  0
CLASS
  1
SPATIAL_FILTER
  2
AcDbSpatialFilter
  3
ObjectDBX Classes
 90
        0
 91
        8
280
     0
281
     0
  0
CLASS
  1
XRECORD
  2
AcDbXrecord
  3
ObjectDBX Classes
 90
        0
 91
        1
280
     0
281
     0
  0
CLASS
  1
SORTENTSTABLE
  2
AcDbSortentsTable
  3
ObjectDBX Classes
 90
        0
 91
        8
280
     0
281
     0
  0
CLASS
  1
LAYER_INDEX
  2
AcDbLayerIndex
  3
ObjectDBX Classes
 90
        0
 91
        8
280
     0
281
     0
  0
CLASS
  1
SPATIAL_INDEX
  2
AcDbSpatialIndex
  3
AutoCAD 2000
 90
        0
 91
        8
280
     0
281
     0
  0
CLASS
  1
OBJECT_PTR
  2
CAseDLPNTableRecord
  3
ASE-LPNTableRecord
 90
        1
 91
        8
280
     0
281
     0
  0
CLASS
  1
LAYOUT
  2
AcDbLayout
  3
ObjectDBX Classes
 90
        0
 91
        1
280
     0
281
     0
  0
CLASS
  1
PLOTSETTINGS
  2
AcDbPlotSettings
  3
ObjectDBX Classes
 90
        0
 91
        8
280
     0
281
     0
  0
CLASS
  1
ACDBDICTIONARYWDFLT
  2
AcDbDictionaryWithDefault
  3
ObjectDBX Classes
 90
        0
 91
        8
280
     0
281
     0
  0
CLASS
  1
ACDBPLACEHOLDER
  2
AcDbPlaceHolder
  3
ObjectDBX Classes
 90
        0
 91
        1
280
     0
281
     0
  0
CLASS
  1
SCALE
  2
AcDbScale
  3
ObjectDBX Classes
 90
     1153
 91
        8
280
     0
281
     0
  0
CLASS
  1
MATERIAL
  2
AcDbMaterial
  3
ObjectDBX Classes
 90
     1153
 91
        8
280
     0
281
     0
  0
CLASS
  1
VISUALSTYLE
  2
AcDbVisualStyle
  3
ObjectDBX Classes
 90
     4095
 91
        8
280
     0
281
     0
  0
CLASS
  1
TABLESTYLE
  2
AcDbTableStyle
  3
ObjectDBX Classes
 90
     4095
 91
        8
280
     0
281
     0
  0
CLASS
  1
DIMASSOC
  2
AcDbDimAssoc
  3
"AcDbDimAssoc|Product Desc:     AcDim ARX App For Dimension|Company:          Autodesk, Inc.|WEB Address:      www.autodesk.com"
 90
        0
 91
        7
280
     0
281
     0
  0
CLASS
  1
CELLSTYLEMAP
  2
AcDbCellStyleMap
  3
ObjectDBX Classes
 90
     1152
 91
        7
280
     0
281
     0
  0
CLASS
  1
SUN
  2
AcDbSun
  3
SCENEOE
 90
     1153
 91
        7
280
     0
281
     0
  0
CLASS
  1
MLEADERSTYLE
  2
AcDbMLeaderStyle
  3
ACDB_MLEADERSTYLE_CLASS
 90
     4095
 91
        8
280
     0
281
     0
  0
ENDSEC
  0
SECTION
  2
TABLES
  0
TABLE
  2
VPORT
  5
7
330
0
100
AcDbSymbolTable
 70
     1
  0
VPORT
  5
15
330
7
100
AcDbSymbolTableRecord
100
AcDbViewportTableRecord
  2
*ACTIVE
 70
     0
 10
0.0
 20
0.0
 11
1.0
 21
1.0
 12
518.0464231739697
 22
1539.908751102672
 13
0.0
 23
0.0
 14
1.0
 24
1.0
 15
0.0
 25
0.0
 16
0.0
 26
0.0
 36
1.0
 17
531.9535768260303
 27
-54.90875110267189
 37
-796.100446371116
 40
3029.4
 41
2.310294117647059
 42
50.0
 43
0.0
 44
0.0
 50
0.0
 51
0.0
 71
    16
 72
  2000
 73
     1
 74
     1
 75
     0
 76
     0
 77
     0
 78
     0
281
     0
 65
     1
110
0.0
120
0.0
130
0.0
111
1.0
121
0.0
131
0.0
112
0.0
122
1.0
132
0.0
 79
     0
146
0.0
348
26C
 60
     3
 61
     5
292
     1
282
     1
141
0.0
142
0.0
 63
   256
361
BE4
  0
ENDTAB
  0
TABLE
  2
LTYPE
  5
4
330
0
100
AcDbSymbolTable
 70
     5
  0
LTYPE
  5
11
330
4
100
AcDbSymbolTableRecord
100
AcDbLinetypeTableRecord
  2
ByBlock
 70
     0
  3

 72
    65
 73
     0
 40
0.0
  0
LTYPE
  5
12
330
4
100
AcDbSymbolTableRecord
100
AcDbLinetypeTableRecord
  2
ByLayer
 70
     0
  3

 72
    65
 73
     0
 40
0.0
  0
LTYPE
  5
13
330
4
100
AcDbSymbolTableRecord
100
AcDbLinetypeTableRecord
  2
Continuous
 70
     0
  3
Solid line
 72
    65
 73
     0
 40
0.0
  0
LTYPE
  5
1A38
330
4
100
AcDbSymbolTableRecord
100
AcDbLinetypeTableRecord
  2
HIDDEN
 70
     0
  3
Hidden _ _ _ _ _ _ _ _ _ _ _ _ _ _ _ _ _ _ _ _ 
 72
    65
 73
     2
 40
9.524999999999999
 49
6.35
 74
     0
 49
-3.175
 74
     0
  0
LTYPE
  5
2496
330
4
100
AcDbSymbolTableRecord
100
AcDbLinetypeTableRecord
  2
CENTER2
 70
     0
  3
Center (.5x) ___ _ ___ _ ___ _ ___ _ ___ _ ___
 72
    65
 73
     4
 40
1.125
 49
0.75
 74
     0
 49
-0.125
 74
     0
 49
0.125
 74
     0
 49
-0.125
 74
     0
  0
LTYPE
  5
24DB
330
4
100
AcDbSymbolTableRecord
100
AcDbLinetypeTableRecord
  2
AM_DIN_F_W050
 70
     0
  3
__ __ __ __ __ __ __ __ __ __ __ __ __ __ __
 72
    65
 73
     2
 40
6.25
 49
4.75
 74
     0
 49
-1.5
 74
     0
  0
LTYPE
  5
3135
330
4
100
AcDbSymbolTableRecord
100
AcDbLinetypeTableRecord
  2
AM_DIN_G_W050
 70
     0
  3
____ . ____ . ____ . ____ . ____ . ____ . ____
 72
    65
 73
     4
 40
13.75
 49
9.75
 74
     0
 49
-1.5
 74
     0
 49
1.0
 74
     0
 49
-1.5
 74
     0
  0
ENDTAB
  0
TABLE
  2
LAYER
  5
2
102
{ACAD_XDICTIONARY
360
2E1
102
}
330
0
100
AcDbSymbolTable
 70
     8
  0
LAYER
  5
14
330
2
100
AcDbSymbolTableRecord
100
AcDbLayerTableRecord
  2
0
 70
     0
 62
     7
  6
Continuous
370
    -3
390
1D
347
266
  0
LAYER
  5
4A
330
2
100
AcDbSymbolTableRecord
100
AcDbLayerTableRecord
  2
Defpoints
 70
     0
 62
     7
  6
Continuous
290
     0
370
     9
390
1D
347
266
  0
LAYER
  5
4B
330
2
100
AcDbSymbolTableRecord
100
AcDbLayerTableRecord
  2
TEMPLATE
 70
     0
 62
     4
  6
Continuous
290
     0
370
    20
390
1D
347
266
  0
LAYER
  5
4D
330
2
100
AcDbSymbolTableRecord
100
AcDbLayerTableRecord
  2
MODEL
 70
     0
 62
     7
  6
Continuous
370
    20
390
1D
347
266
  0
LAYER
  5
382
330
2
100
AcDbSymbolTableRecord
100
AcDbLayerTableRecord
  2
LOGO
 70
     0
 62
     7
  6
Continuous
370
    -3
390
1D
347
266
  0
LAYER
  5
B7A
330
2
100
AcDbSymbolTableRecord
100
AcDbLayerTableRecord
  2
DIM
 70
     0
 62
     7
  6
Continuous
370
    13
390
1D
347
266
1001
AcAecLayerStandard
1000

1000

  0
LAYER
  5
3B0F
330
2
100
AcDbSymbolTableRecord
100
AcDbLayerTableRecord
  2
_0-7_
 70
     0
 62
     7
  6
Continuous
370
    -3
390
1D
347
266
  0
LAYER
  5
95C1
330
2
100
AcDbSymbolTableRecord
100
AcDbLayerTableRecord
  2
MODEL GRAY
 70
     0
 62
   252
  6
Continuous
370
    20
390
1D
347
266
1001
AcAecLayerStandard
1000

1000

  0
ENDTAB
  0
TABLE
  2
STYLE
  5
3
330
0
100
AcDbSymbolTable
 70
     2
  0
STYLE
  5
17
330
3
100
AcDbSymbolTableRecord
100
AcDbTextStyleTableRecord
  2
Standard
 70
     0
 40
0.0
 41
1.0
 50
0.0
 71
     0
 42
533.0403732820173
  3
txt
  4
BIGFONT.SHX
  0
STYLE
  5
39
330
3
100
AcDbSymbolTableRecord
100
AcDbTextStyleTableRecord
  2
ＭＳ ゴシック
 70
     0
 40
0.0
 41
1.0
 50
0.0
 71
     0
 42
533.0403732820173
  3
msgothic.ttc
  4
ＭＳ ゴシック
1001
ACAD
1000
ＭＳ ゴシック
1071
        0
  0
ENDTAB
  0
TABLE
  2
VIEW
  5
5
330
0
100
AcDbSymbolTable
 70
     0
  0
ENDTAB
  0
TABLE
  2
UCS
  5
6
330
0
100
AcDbSymbolTable
 70
     0
  0
ENDTAB
  0
TABLE
  2
APPID
  5
8
330
0
100
AcDbSymbolTable
 70
    13
  0
APPID
  5
16
330
8
100
AcDbSymbolTableRecord
100
AcDbRegAppTableRecord
  2
ACAD
 70
     0
  0
APPID
  5
5C5
330
8
100
AcDbSymbolTableRecord
100
AcDbRegAppTableRecord
  2
AcAecLayerStandard
 70
     0
  0
APPID
  5
694
330
8
100
AcDbSymbolTableRecord
100
AcDbRegAppTableRecord
  2
ACAD_DSTYLE_DIMJAG
 70
     0
  0
APPID
  5
695
330
8
100
AcDbSymbolTableRecord
100
AcDbRegAppTableRecord
  2
ACAD_DSTYLE_DIMTALN
 70
     0
  0
APPID
  5
69A
330
8
100
AcDbSymbolTableRecord
100
AcDbRegAppTableRecord
  2
ACAD_PSEXT
 70
     0
  0
APPID
  5
2499
330
8
100
AcDbSymbolTableRecord
100
AcDbRegAppTableRecord
  2
GENIUS_GENODEF_13
 70
     0
  0
APPID
  5
249A
330
8
100
AcDbSymbolTableRecord
100
AcDbRegAppTableRecord
  2
GENIUS_GENOBJ-N-FIL_13
 70
     0
  0
APPID
  5
249C
330
8
100
AcDbSymbolTableRecord
100
AcDbRegAppTableRecord
  2
AECBASE
 70
     0
  0
APPID
  5
249D
330
8
100
AcDbSymbolTableRecord
100
AcDbRegAppTableRecord
  2
AEC_2DSECTION_XDATA
 70
     0
  0
APPID
  5
249E
330
8
100
AcDbSymbolTableRecord
100
AcDbRegAppTableRecord
  2
AEC_MASSGROUP_XDADA
 70
     0
  0
APPID
  5
6EA7
330
8
100
AcDbSymbolTableRecord
100
AcDbRegAppTableRecord
  2
GENIUS_GENREC_14
 70
     0
  0
APPID
  5
6EA8
330
8
100
AcDbSymbolTableRecord
100
AcDbRegAppTableRecord
  2
GENIUS_GENOBJ-N-REC_13
 70
     0
  0
APPID
  5
9946
330
8
100
AcDbSymbolTableRecord
100
AcDbRegAppTableRecord
  2
ACAD_MLEADERVER
 70
     0
  0
ENDTAB
  0
TABLE
  2
DIMSTYLE
  5
9
330
0
100
AcDbSymbolTable
 70
     2
100
AcDbDimStyleTable
  0
DIMSTYLE
105
18
330
9
100
AcDbSymbolTableRecord
100
AcDbDimStyleTableRecord
  2
Standard
 70
     0
178
     0
340
17
  0
DIMSTYLE
105
5C
102
{ACAD_REACTORS
330
9012
330
9021
330
9030
330
9057
330
90B8
330
90C8
330
9181
330
9183
330
9184
330
91BD
330
91E9
330
9220
330
92C5
330
92D4
330
93D7
330
94E2
330
9797
330
992E
330
998E
330
99A6
330
99B3
330
99C0
330
99CD
330
99DA
330
9A00
330
9A0C
330
9A0D
330
9A0E
330
9A0F
330
9A10
102
}
330
9
100
AcDbSymbolTableRecord
100
AcDbDimStyleTableRecord
  2
JIS
 70
     0
  3
<>
  4
[]
 41
9.0
 42
0.0
 43
6.99999999999994
 44
19.9999999999962
 73
     0
 74
     0
 77
     1
 78
    11
140
24.4326171875
141
0.0
143
1.0
147
10.0
171
     1
174
     1
178
     0
179
     2
271
     1
272
     1
276
     2
284
    11
285
    11
286
    11
289
     0
340
39
341
4E
342
4E
  0
ENDTAB
  0
TABLE
  2
BLOCK_RECORD
  5
1
330
0
100
AcDbSymbolTable
 70
    34
  0
BLOCK_RECORD
  5
A
330
1
100
AcDbSymbolTableRecord
100
AcDbBlockTableRecord
  2
*MODEL_SPACE
340
20
 70
     0
280
     1
281
     0
  0
BLOCK_RECORD
  5
B
330
1
100
AcDbSymbolTableRecord
100
AcDbBlockTableRecord
  2
*PAPER_SPACE
340
21
 70
     0
280
     1
281
     0
  0
BLOCK_RECORD
  5
4E
330
1
100
AcDbSymbolTableRecord
100
AcDbBlockTableRecord
  2
_DOT
340
0
102
{BLKREFS
331
901B
331
901C
331
902A
331
902B
331
9039
331
903A
331
905E
331
905F
331
90C1
331
90C2
331
90D1
331
90D2
331
918C
331
918D
331
9198
331
9199
331
91C4
331
91C5
331
91F0
331
91F1
331
9229
331
922A
331
92CE
331
92CF
331
92DB
331
92DC
331
93E0
331
93E1
331
9937
331
9938
331
9A18
331
9A19
331
9A24
331
9A25
331
9A30
331
9A31
331
9A3C
331
9A3D
331
9A48
331
9A49
331
9A54
331
9A55
102
}
 70
     0
280
     1
281
     0
  0
BLOCK_RECORD
  5
3A5
330
1
100
AcDbSymbolTableRecord
100
AcDbBlockTableRecord
  2
名称未設定-1
340
0
102
{BLKREFS
331
7BAB
102
}
 70
     1
280
     1
281
     0
  0
BLOCK_RECORD
  5
3A8
330
1
100
AcDbSymbolTableRecord
100
AcDbBlockTableRecord
  2
block 2
340
0
102
{BLKREFS
331
3A7
102
}
 70
     0
280
     1
281
     0
  0
BLOCK_RECORD
  5
3AB
330
1
100
AcDbSymbolTableRecord
100
AcDbBlockTableRecord
  2
block 3
340
0
102
{BLKREFS
331
3AA
102
}
 70
     0
280
     1
281
     0
  0
BLOCK_RECORD
  5
3AE
330
1
100
AcDbSymbolTableRecord
100
AcDbBlockTableRecord
  2
block 4
340
0
102
{BLKREFS
331
3AD
102
}
 70
     0
280
     1
281
     0
  0
BLOCK_RECORD
  5
3BD
330
1
100
AcDbSymbolTableRecord
100
AcDbBlockTableRecord
  2
block 5
340
0
102
{BLKREFS
331
3BC
102
}
 70
     0
280
     1
281
     0
  0
BLOCK_RECORD
  5
9015
330
1
100
AcDbSymbolTableRecord
100
AcDbBlockTableRecord
  2
*D6
340
0
 70
     0
280
     1
281
     0
  0
BLOCK_RECORD
  5
9024
330
1
100
AcDbSymbolTableRecord
100
AcDbBlockTableRecord
  2
*D7
340
0
 70
     0
280
     1
281
     0
  0
BLOCK_RECORD
  5
9033
330
1
100
AcDbSymbolTableRecord
100
AcDbBlockTableRecord
  2
*D8
340
0
 70
     0
280
     1
281
     0
  0
BLOCK_RECORD
  5
9058
330
1
100
AcDbSymbolTableRecord
100
AcDbBlockTableRecord
  2
*D9
340
0
 70
     0
280
     1
281
     0
  0
BLOCK_RECORD
  5
90BB
330
1
100
AcDbSymbolTableRecord
100
AcDbBlockTableRecord
  2
*D10
340
0
 70
     0
280
     1
281
     0
  0
BLOCK_RECORD
  5
90CB
330
1
100
AcDbSymbolTableRecord
100
AcDbBlockTableRecord
  2
*D11
340
0
 70
     0
280
     1
281
     0
  0
BLOCK_RECORD
  5
9186
330
1
100
AcDbSymbolTableRecord
100
AcDbBlockTableRecord
  2
*D12
340
0
 70
     0
280
     1
281
     0
  0
BLOCK_RECORD
  5
9192
330
1
100
AcDbSymbolTableRecord
100
AcDbBlockTableRecord
  2
*D13
340
0
 70
     0
280
     1
281
     0
  0
BLOCK_RECORD
  5
91BE
330
1
100
AcDbSymbolTableRecord
100
AcDbBlockTableRecord
  2
*D14
340
0
 70
     0
280
     1
281
     0
  0
BLOCK_RECORD
  5
91EA
330
1
100
AcDbSymbolTableRecord
100
AcDbBlockTableRecord
  2
*D15
340
0
 70
     0
280
     1
281
     0
  0
BLOCK_RECORD
  5
9223
330
1
100
AcDbSymbolTableRecord
100
AcDbBlockTableRecord
  2
*D16
340
0
 70
     0
280
     1
281
     0
  0
BLOCK_RECORD
  5
92C8
330
1
100
AcDbSymbolTableRecord
100
AcDbBlockTableRecord
  2
*D17
340
0
 70
     0
280
     1
281
     0
  0
BLOCK_RECORD
  5
92D5
330
1
100
AcDbSymbolTableRecord
100
AcDbBlockTableRecord
  2
*D18
340
0
 70
     0
280
     1
281
     0
  0
BLOCK_RECORD
  5
93DA
330
1
100
AcDbSymbolTableRecord
100
AcDbBlockTableRecord
  2
*D19
340
0
 70
     0
280
     1
281
     0
  0
BLOCK_RECORD
  5
9931
330
1
100
AcDbSymbolTableRecord
100
AcDbBlockTableRecord
  2
*D20
340
0
 70
     0
280
     1
281
     0
  0
BLOCK_RECORD
  5
998F
330
1
100
AcDbSymbolTableRecord
100
AcDbBlockTableRecord
  2
*D22
340
0
 70
     0
280
     1
281
     0
  0
BLOCK_RECORD
  5
99A7
330
1
100
AcDbSymbolTableRecord
100
AcDbBlockTableRecord
  2
*D23
340
0
 70
     0
280
     1
281
     0
  0
BLOCK_RECORD
  5
99B4
330
1
100
AcDbSymbolTableRecord
100
AcDbBlockTableRecord
  2
*D24
340
0
 70
     0
280
     1
281
     0
  0
BLOCK_RECORD
  5
99C1
330
1
100
AcDbSymbolTableRecord
100
AcDbBlockTableRecord
  2
*D25
340
0
 70
     0
280
     1
281
     0
  0
BLOCK_RECORD
  5
99CE
330
1
100
AcDbSymbolTableRecord
100
AcDbBlockTableRecord
  2
*D26
340
0
 70
     0
280
     1
281
     0
  0
BLOCK_RECORD
  5
99DB
330
1
100
AcDbSymbolTableRecord
100
AcDbBlockTableRecord
  2
*D27
340
0
 70
     0
280
     1
281
     0
  0
BLOCK_RECORD
  5
9A12
330
1
100
AcDbSymbolTableRecord
100
AcDbBlockTableRecord
  2
*D28
340
0
 70
     0
280
     1
281
     0
  0
BLOCK_RECORD
  5
9A1E
330
1
100
AcDbSymbolTableRecord
100
AcDbBlockTableRecord
  2
*D29
340
0
 70
     0
280
     1
281
     0
  0
BLOCK_RECORD
  5
9A2A
330
1
100
AcDbSymbolTableRecord
100
AcDbBlockTableRecord
  2
*D30
340
0
 70
     0
280
     1
281
     0
  0
BLOCK_RECORD
  5
9A36
330
1
100
AcDbSymbolTableRecord
100
AcDbBlockTableRecord
  2
*D31
340
0
 70
     0
280
     1
281
     0
  0
BLOCK_RECORD
  5
9A42
330
1
100
AcDbSymbolTableRecord
100
AcDbBlockTableRecord
  2
*D32
340
0
 70
     0
280
     1
281
     0
  0
BLOCK_RECORD
  5
9A4E
330
1
100
AcDbSymbolTableRecord
100
AcDbBlockTableRecord
  2
*D33
340
0
 70
     0
280
     1
281
     0
  0
ENDTAB
  0
ENDSEC
  0
SECTION
  2
BLOCKS
  0
BLOCK
  5
D
330
A
100
AcDbEntity
  8
0
390
1D
100
AcDbBlockBegin
  2
*MODEL_SPACE
 70
     0
 10
0.0
 20
0.0
 30
0.0
  3
*MODEL_SPACE
  1
*MODEL_SPACE
  0
ENDBLK
  5
E
330
A
100
AcDbEntity
  8
0
390
1D
100
AcDbBlockEnd
  0
BLOCK
  5
F
330
B
100
AcDbEntity
 67
     1
  8
0
390
1D
100
AcDbBlockBegin
  2
*PAPER_SPACE
 70
     0
 10
0.0
 20
0.0
 30
0.0
  3
*PAPER_SPACE
  1
*PAPER_SPACE
  0
ENDBLK
  5
10
330
B
100
AcDbEntity
 67
     1
  8
0
390
1D
100
AcDbBlockEnd
  0
BLOCK
  5
E45
330
4E
100
AcDbEntity
  8
0
390
1D
100
AcDbBlockBegin
  2
_DOT
 70
     0
 10
0.0
 20
0.0
 30
0.0
  3
_DOT
  1
_DOT
  0
POLYLINE
  5
E47
330
4E
100
AcDbEntity
  8
0
  6
ByBlock
 62
     0
370
    -2
390
1D
100
AcDb2dPolyline
 66
     1
 10
0.0
 20
0.0
 30
0.0
 70
     1
 40
0.5
 41
0.5
  0
VERTEX
  5
E48
330
E47
100
AcDbEntity
  8
0
  6
ByBlock
 62
     0
370
    -2
390
1D
100
AcDbVertex
100
AcDb2dVertex
 10
-0.25
 20
0.0
 30
0.0
 42
1.0
  0
VERTEX
  5
E49
330
E47
100
AcDbEntity
  8
0
  6
ByBlock
 62
     0
370
    -2
390
1D
100
AcDbVertex
100
AcDb2dVertex
 10
0.25
 20
0.0
 30
0.0
 42
1.0
  0
SEQEND
  5
E4A
330
E47
100
AcDbEntity
  8
0
390
1D
  0
LINE
  5
E4B
330
4E
100
AcDbEntity
  8
0
  6
ByBlock
 62
     0
370
    -2
390
1D
100
AcDbLine
 10
-0.5
 20
0.0
 30
0.0
 11
-1.0
 21
0.0
 31
0.0
  0
ENDBLK
  5
E4C
330
4E
100
AcDbEntity
  8
0
390
1D
100
AcDbBlockEnd
  0
BLOCK
  5
3A6
330
3A5
100
AcDbEntity
  8
0
100
AcDbBlockBegin
  2
名称未設定-1
 70
     0
 10
0.0
 20
0.0
 30
0.0
  3
名称未設定-1
  1
名称未設定-1
  0
INSERT
  5
3A7
330
3A5
100
AcDbEntity
  8
LOGO
100
AcDbBlockReference
  2
block 2
 10
0.0
 20
0.0
 30
0.0
  0
ENDBLK
  5
3CC
330
3A5
100
AcDbEntity
  8
0
100
AcDbBlockEnd
  0
BLOCK
  5
3A9
330
3A8
100
AcDbEntity
  8
0
100
AcDbBlockBegin
  2
block 2
 70
     0
 10
0.0
 20
0.0
 30
0.0
  3
block 2
  1
block 2
  0
INSERT
  5
3AA
330
3A8
100
AcDbEntity
  8
LOGO
100
AcDbBlockReference
  2
block 3
 10
0.0
 20
0.0
 30
0.0
  0
ENDBLK
  5
3CB
330
3A8
100
AcDbEntity
  8
0
100
AcDbBlockEnd
  0
BLOCK
  5
3AC
330
3AB
100
AcDbEntity
  8
0
100
AcDbBlockBegin
  2
block 3
 70
     0
 10
0.0
 20
0.0
 30
0.0
  3
block 3
  1
block 3
  0
INSERT
  5
3AD
330
3AB
100
AcDbEntity
  8
LOGO
100
AcDbBlockReference
  2
block 4
 10
0.0
 20
0.0
 30
0.0
  0
ENDBLK
  5
3CA
330
3AB
100
AcDbEntity
  8
0
100
AcDbBlockEnd
  0
BLOCK
  5
3AF
330
3AE
100
AcDbEntity
  8
0
100
AcDbBlockBegin
  2
block 4
 70
     0
 10
0.0
 20
0.0
 30
0.0
  3
block 4
  1
block 4
  0
POLYLINE
  5
3B0
330
3AE
100
AcDbEntity
  8
LOGO
370
     0
100
AcDb2dPolyline
 66
     1
 10
0.0
 20
0.0
 30
0.0
  0
VERTEX
  5
3B1
330
3B0
100
AcDbEntity
  8
LOGO
370
     0
100
AcDbVertex
100
AcDb2dVertex
 10
83.79545727667795
 20
167.6444858234922
 30
0.0
  0
VERTEX
  5
3B2
330
3B0
100
AcDbEntity
  8
LOGO
370
     0
100
AcDbVertex
100
AcDb2dVertex
 10
83.79545727667795
 20
159.7968976406313
 30
0.0
  0
VERTEX
  5
3B3
330
3B0
100
AcDbEntity
  8
LOGO
370
     0
100
AcDbVertex
100
AcDb2dVertex
 10
71.3631329975216
 20
159.7968976406313
 30
0.0
  0
VERTEX
  5
3B4
330
3B0
100
AcDbEntity
  8
LOGO
370
     0
100
AcDbVertex
100
AcDb2dVertex
 10
71.3631329975216
 20
127.8027915271048
 30
0.0
  0
VERTEX
  5
3B5
330
3B0
100
AcDbEntity
  8
LOGO
370
     0
100
AcDbVertex
100
AcDb2dVertex
 10
60.43011526263018
 20
127.8027915271048
 30
0.0
  0
VERTEX
  5
3B6
330
3B0
100
AcDbEntity
  8
LOGO
370
     0
100
AcDbVertex
100
AcDb2dVertex
 10
60.43011526263018
 20
159.7968976406313
 30
0.0
  0
VERTEX
  5
3B7
330
3B0
100
AcDbEntity
  8
LOGO
370
     0
100
AcDbVertex
100
AcDb2dVertex
 10
48.21793273020759
 20
159.7968976406313
 30
0.0
  0
VERTEX
  5
3B8
330
3B0
100
AcDbEntity
  8
LOGO
370
     0
100
AcDbVertex
100
AcDb2dVertex
 10
48.21793273020759
 20
167.6444858234922
 30
0.0
  0
VERTEX
  5
3B9
330
3B0
100
AcDbEntity
  8
LOGO
370
     0
100
AcDbVertex
100
AcDb2dVertex
 10
83.79545727667795
 20
167.6444858234922
 30
0.0
  0
SEQEND
  5
3BA
330
3B0
100
AcDbEntity
  8
LOGO
370
     0
  0
HATCH
  5
3BB
330
3AE
100
AcDbEntity
  8
LOGO
 62
   250
420
  2234388
100
AcDbHatch
 10
0.0
 20
0.0
 30
0.0
210
0.0
220
0.0
230
1.0
  2
SOLID
 70
     1
 71
     0
 91
        1
 92
        1
 93
        8
 72
     1
 10
83.79545727667795
 20
167.6444858234922
 11
83.79545727667795
 21
159.7968976406313
 72
     1
 10
83.79545727667795
 20
159.7968976406313
 11
71.3631329975216
 21
159.7968976406313
 72
     1
 10
71.3631329975216
 20
159.7968976406313
 11
71.3631329975216
 21
127.8027915271048
 72
     1
 10
71.3631329975216
 20
127.8027915271048
 11
60.43011526263018
 21
127.8027915271048
 72
     1
 10
60.43011526263018
 20
127.8027915271048
 11
60.43011526263018
 21
159.7968976406313
 72
     1
 10
60.43011526263018
 20
159.7968976406313
 11
48.21793273020759
 21
159.7968976406313
 72
     1
 10
48.21793273020759
 20
159.7968976406313
 11
48.21793273020759
 21
167.6444858234922
 72
     1
 10
48.21793273020759
 20
167.6444858234922
 11
83.79545727667795
 21
167.6444858234922
 97
        0
 75
     2
 76
     1
 98
        0
  0
INSERT
  5
3BC
330
3AE
100
AcDbEntity
  8
LOGO
100
AcDbBlockReference
  2
block 5
 10
0.0
 20
0.0
 30
0.0
  0
ENDBLK
  5
3C9
330
3AE
100
AcDbEntity
  8
0
100
AcDbBlockEnd
  0
BLOCK
  5
3BE
330
3BD
100
AcDbEntity
  8
0
100
AcDbBlockBegin
  2
block 5
 70
     0
 10
0.0
 20
0.0
 30
0.0
  3
block 5
  1
block 5
  0
SPLINE
  5
3BF
330
3BD
100
AcDbEntity
  8
LOGO
370
     0
100
AcDbSpline
210
0.0
220
0.0
230
1.0
 70
    11
 71
     3
 72
    56
 73
    52
 74
     0
 42
0.000000001
 43
0.0000000001
 40
0.0
 40
0.0
 40
0.0
 40
0.0
 40
1.0
 40
1.0
 40
1.0
 40
2.0
 40
2.0
 40
2.0
 40
3.0
 40
3.0
 40
3.0
 40
4.0
 40
4.0
 40
4.0
 40
5.0
 40
5.0
 40
5.0
 40
6.0
 40
6.0
 40
6.0
 40
7.0
 40
7.0
 40
7.0
 40
8.0
 40
8.0
 40
8.0
 40
9.0
 40
9.0
 40
9.0
 40
10.0
 40
10.0
 40
10.0
 40
11.0
 40
11.0
 40
11.0
 40
12.0
 40
12.0
 40
12.0
 40
13.0
 40
13.0
 40
13.0
 40
14.0
 40
14.0
 40
14.0
 40
15.0
 40
15.0
 40
15.0
 40
16.0
 40
16.0
 40
16.0
 40
17.0
 40
17.0
 40
17.0
 40
17.0
 10
100.4504378777679
 20
166.69157178364
 30
0.0
 10
101.9848844191641
 20
167.1313385124438
 30
0.0
 10
103.9637485713373
 20
166.7649523658846
 30
0.0
 10
103.9637485713373
 20
166.7649523658846
 30
0.0
 10
103.9637485713373
 20
166.7649523658846
 30
0.0
 10
103.0132460999156
 20
163.911205638077
 30
0.0
 10
103.0132460999156
 20
163.911205638077
 30
0.0
 10
103.0132460999156
 20
163.911205638077
 30
0.0
 10
101.0674548862189
 20
164.3601018759394
 30
0.0
 10
99.57090442016032
 20
163.1805004036133
 30
0.0
 10
98.40508333886608
 20
162.258247733807
 30
0.0
 10
97.65301849830304
 20
159.804132345923
 30
0.0
 10
97.3598406791005
 20
158.8699940888517
 30
0.0
 10
97.3598406791005
 20
158.8699940888517
 30
0.0
 10
96.07137411762282
 20
154.9119212747295
 30
0.0
 10
96.07137411762282
 20
154.9119212747295
 30
0.0
 10
96.07137411762282
 20
154.9119212747295
 30
0.0
 10
100.3012651448482
 20
154.9119212747295
 30
0.0
 10
100.3012651448482
 20
154.9119212747295
 30
0.0
 10
100.3012651448482
 20
154.9119212747295
 30
0.0
 10
99.64152892419852
 20
152.4199098115079
 30
0.0
 10
99.64152892419852
 20
152.4199098115079
 30
0.0
 10
99.64152892419852
 20
152.4199098115079
 30
0.0
 10
95.38097652692731
 20
152.4199098115079
 30
0.0
 10
95.38097652692731
 20
152.4199098115079
 30
0.0
 10
95.38097652692731
 20
152.4199098115079
 30
0.0
 10
87.75353009080013
 20
127.8027915271048
 30
0.0
 10
87.75353009080013
 20
127.8027915271048
 30
0.0
 10
87.75353009080013
 20
127.8027915271048
 30
0.0
 10
85.36538832498108
 20
127.8027915271048
 30
0.0
 10
85.36538832498108
 20
127.8027915271048
 30
0.0
 10
85.36538832498108
 20
127.8027915271048
 30
0.0
 10
93.00006946639998
 20
152.4199098115079
 30
0.0
 10
93.00006946639998
 20
152.4199098115079
 30
0.0
 10
93.00006946639998
 20
152.4199098115079
 30
0.0
 10
89.85297266450198
 20
152.4199098115079
 30
0.0
 10
89.85297266450198
 20
152.4199098115079
 30
0.0
 10
89.85297266450198
 20
152.4199098115079
 30
0.0
 10
90.51270888515164
 20
154.9119212747295
 30
0.0
 10
90.51270888515164
 20
154.9119212747295
 30
0.0
 10
90.51270888515164
 20
154.9119212747295
 30
0.0
 10
93.6904670570955
 20
154.9119212747295
 30
0.0
 10
93.6904670570955
 20
154.9119212747295
 30
0.0
 10
93.6904670570955
 20
154.9119212747295
 30
0.0
 10
94.81598049462158
 20
158.3616699146644
 30
0.0
 10
94.81598049462158
 20
158.3616699146644
 30
0.0
 10
95.7237637538445
 20
161.2605474231013
 30
0.0
 10
96.4968436907311
 20
162.8139420021662
 30
0.0
 10
97.15657991138076
 20
163.9844139654337
 30
0.0
 10
97.81183750494507
 20
165.1523021053827
 30
0.0
 10
99.1047826935081
 20
166.3084769129547
 30
0.0
 10
100.4504378777679
 20
166.69157178364
 30
0.0
  0
HATCH
  5
3C0
330
3BD
100
AcDbEntity
  8
LOGO
 62
   250
420
  2234388
100
AcDbHatch
 10
0.0
 20
0.0
 30
0.0
210
0.0
220
0.0
230
1.0
  2
SOLID
 70
     1
 71
     0
 91
        1
 92
        1
 93
        1
 72
     4
 94
        3
 73
     0
 74
     1
 95
       56
 96
       52
 40
0.0
 40
0.0
 40
0.0
 40
0.0
 40
1.0
 40
1.0
 40
1.0
 40
2.0
 40
2.0
 40
2.0
 40
3.0
 40
3.0
 40
3.0
 40
4.0
 40
4.0
 40
4.0
 40
5.0
 40
5.0
 40
5.0
 40
6.0
 40
6.0
 40
6.0
 40
7.0
 40
7.0
 40
7.0
 40
8.0
 40
8.0
 40
8.0
 40
9.0
 40
9.0
 40
9.0
 40
10.0
 40
10.0
 40
10.0
 40
11.0
 40
11.0
 40
11.0
 40
12.0
 40
12.0
 40
12.0
 40
13.0
 40
13.0
 40
13.0
 40
14.0
 40
14.0
 40
14.0
 40
15.0
 40
15.0
 40
15.0
 40
16.0
 40
16.0
 40
16.0
 40
17.0
 40
17.0
 40
17.0
 40
17.0
 10
100.4504378777679
 20
166.69157178364
 10
101.9848844191641
 20
167.1313385124438
 10
103.9637485713373
 20
166.7649523658846
 10
103.9637485713373
 20
166.7649523658846
 10
103.9637485713373
 20
166.7649523658846
 10
103.0132460999156
 20
163.911205638077
 10
103.0132460999156
 20
163.911205638077
 10
103.0132460999156
 20
163.911205638077
 10
101.0674548862189
 20
164.3601018759394
 10
99.57090442016032
 20
163.1805004036133
 10
98.40508333886608
 20
162.258247733807
 10
97.65301849830304
 20
159.804132345923
 10
97.3598406791005
 20
158.8699940888517
 10
97.3598406791005
 20
158.8699940888517
 10
96.07137411762282
 20
154.9119212747295
 10
96.07137411762282
 20
154.9119212747295
 10
96.07137411762282
 20
154.9119212747295
 10
100.3012651448482
 20
154.9119212747295
 10
100.3012651448482
 20
154.9119212747295
 10
100.3012651448482
 20
154.9119212747295
 10
99.64152892419852
 20
152.4199098115079
 10
99.64152892419852
 20
152.4199098115079
 10
99.64152892419852
 20
152.4199098115079
 10
95.38097652692731
 20
152.4199098115079
 10
95.38097652692731
 20
152.4199098115079
 10
95.38097652692731
 20
152.4199098115079
 10
87.75353009080013
 20
127.8027915271048
 10
87.75353009080013
 20
127.8027915271048
 10
87.75353009080013
 20
127.8027915271048
 10
85.36538832498108
 20
127.8027915271048
 10
85.36538832498108
 20
127.8027915271048
 10
85.36538832498108
 20
127.8027915271048
 10
93.00006946639998
 20
152.4199098115079
 10
93.00006946639998
 20
152.4199098115079
 10
93.00006946639998
 20
152.4199098115079
 10
89.85297266450198
 20
152.4199098115079
 10
89.85297266450198
 20
152.4199098115079
 10
89.85297266450198
 20
152.4199098115079
 10
90.51270888515164
 20
154.9119212747295
 10
90.51270888515164
 20
154.9119212747295
 10
90.51270888515164
 20
154.9119212747295
 10
93.6904670570955
 20
154.9119212747295
 10
93.6904670570955
 20
154.9119212747295
 10
93.6904670570955
 20
154.9119212747295
 10
94.81598049462158
 20
158.3616699146644
 10
94.81598049462158
 20
158.3616699146644
 10
95.7237637538445
 20
161.2605474231013
 10
96.4968436907311
 20
162.8139420021662
 10
97.15657991138076
 20
163.9844139654337
 10
97.81183750494507
 20
165.1523021053827
 10
99.1047826935081
 20
166.3084769129547
 10
100.4504378777679
 20
166.69157178364
 97
        0
 75
     2
 76
     1
 98
        0
  0
SPLINE
  5
3C1
330
3BD
100
AcDbEntity
  8
LOGO
370
     0
100
AcDbSpline
210
0.0
220
0.0
230
1.0
 70
    11
 71
     3
 72
    38
 73
    34
 74
     0
 42
0.000000001
 43
0.0000000001
 40
0.0
 40
0.0
 40
0.0
 40
0.0
 40
1.0
 40
1.0
 40
1.0
 40
2.0
 40
2.0
 40
2.0
 40
3.0
 40
3.0
 40
3.0
 40
4.0
 40
4.0
 40
4.0
 40
5.0
 40
5.0
 40
5.0
 40
6.0
 40
6.0
 40
6.0
 40
7.0
 40
7.0
 40
7.0
 40
8.0
 40
8.0
 40
8.0
 40
9.0
 40
9.0
 40
9.0
 40
10.0
 40
10.0
 40
10.0
 40
11.0
 40
11.0
 40
11.0
 40
11.0
 10
126.377554584636
 20
154.8151140277308
 30
0.0
 10
126.377554584636
 20
154.8151140277308
 30
0.0
 10
128.8311532078563
 20
154.8151140277308
 30
0.0
 10
128.8311532078563
 20
154.8151140277308
 30
0.0
 10
128.8311532078563
 20
154.8151140277308
 30
0.0
 10
127.7345785914971
 20
151.3062819612468
 30
0.0
 10
127.7345785914971
 20
151.3062819612468
 30
0.0
 10
128.571392836906
 20
152.2922689395754
 30
0.0
 10
129.8860421413442
 20
153.604506675583
 30
0.0
 10
131.0163787157314
 20
154.2664822097754
 30
0.0
 10
132.7044766171327
 20
155.2500576196734
 30
0.0
 10
133.6642808525008
 20
155.3847609420097
 30
0.0
 10
134.7284715499351
 20
155.3565111403944
 30
0.0
 10
134.7284715499351
 20
155.3565111403944
 30
0.0
 10
133.6877075172549
 20
152.0345756272799
 30
0.0
 10
133.6877075172549
 20
152.0345756272799
 30
0.0
 10
133.011434827367
 20
152.3184516825359
 30
0.0
 10
130.930940291334
 20
151.7768823149844
 30
0.0
 10
129.739280976855
 20
150.9162968950455
 30
0.0
 10
128.66613302525
 20
150.1454562717016
 30
0.0
 10
127.9192358313239
 20
149.4857200510519
 30
0.0
 10
127.0393578639405
 20
147.8282835196966
 30
0.0
 10
126.164647543194
 20
146.1699857139017
 30
0.0
 10
125.4742499524985
 20
143.5262176944419
 30
0.0
 10
124.2822461282437
 20
139.6959580071401
 30
0.0
 10
124.2822461282437
 20
139.6959580071401
 30
0.0
 10
120.5753209406769
 20
127.8027915271048
 30
0.0
 10
120.5753209406769
 20
127.8027915271048
 30
0.0
 10
120.5753209406769
 20
127.8027915271048
 30
0.0
 10
118.1964809388044
 20
127.8027915271048
 30
0.0
 10
118.1964809388044
 20
127.8027915271048
 30
0.0
 10
118.1964809388044
 20
127.8027915271048
 30
0.0
 10
126.377554584636
 20
154.8151140277308
 30
0.0
 10
126.377554584636
 20
154.8151140277308
 30
0.0
  0
HATCH
  5
3C2
330
3BD
100
AcDbEntity
  8
LOGO
 62
   250
420
  2234388
100
AcDbHatch
 10
0.0
 20
0.0
 30
0.0
210
0.0
220
0.0
230
1.0
  2
SOLID
 70
     1
 71
     0
 91
        1
 92
        1
 93
        1
 72
     4
 94
        3
 73
     0
 74
     1
 95
       38
 96
       34
 40
0.0
 40
0.0
 40
0.0
 40
0.0
 40
1.0
 40
1.0
 40
1.0
 40
2.0
 40
2.0
 40
2.0
 40
3.0
 40
3.0
 40
3.0
 40
4.0
 40
4.0
 40
4.0
 40
5.0
 40
5.0
 40
5.0
 40
6.0
 40
6.0
 40
6.0
 40
7.0
 40
7.0
 40
7.0
 40
8.0
 40
8.0
 40
8.0
 40
9.0
 40
9.0
 40
9.0
 40
10.0
 40
10.0
 40
10.0
 40
11.0
 40
11.0
 40
11.0
 40
11.0
 10
126.377554584636
 20
154.8151140277308
 10
126.377554584636
 20
154.8151140277308
 10
128.8311532078563
 20
154.8151140277308
 10
128.8311532078563
 20
154.8151140277308
 10
128.8311532078563
 20
154.8151140277308
 10
127.7345785914971
 20
151.3062819612468
 10
127.7345785914971
 20
151.3062819612468
 10
128.571392836906
 20
152.2922689395754
 10
129.8860421413442
 20
153.604506675583
 10
131.0163787157314
 20
154.2664822097754
 10
132.7044766171327
 20
155.2500576196734
 10
133.6642808525008
 20
155.3847609420097
 10
134.7284715499351
 20
155.3565111403944
 10
134.7284715499351
 20
155.3565111403944
 10
133.6877075172549
 20
152.0345756272799
 10
133.6877075172549
 20
152.0345756272799
 10
133.011434827367
 20
152.3184516825359
 10
130.930940291334
 20
151.7768823149844
 10
129.739280976855
 20
150.9162968950455
 10
128.66613302525
 20
150.1454562717016
 10
127.9192358313239
 20
149.4857200510519
 10
127.0393578639405
 20
147.8282835196966
 10
126.164647543194
 20
146.1699857139017
 10
125.4742499524985
 20
143.5262176944419
 10
124.2822461282437
 20
139.6959580071401
 10
124.2822461282437
 20
139.6959580071401
 10
120.5753209406769
 20
127.8027915271048
 10
120.5753209406769
 20
127.8027915271048
 10
120.5753209406769
 20
127.8027915271048
 10
118.1964809388044
 20
127.8027915271048
 10
118.1964809388044
 20
127.8027915271048
 10
118.1964809388044
 20
127.8027915271048
 10
126.377554584636
 20
154.8151140277308
 10
126.377554584636
 20
154.8151140277308
 97
        0
 75
     2
 76
     1
 98
        0
  0
SPLINE
  5
3C3
330
3BD
100
AcDbEntity
  8
LOGO
370
     0
100
AcDbSpline
210
0.0
220
0.0
230
1.0
 70
    11
 71
     3
 72
   104
 73
   100
 74
     0
 42
0.000000001
 43
0.0000000001
 40
0.0
 40
0.0
 40
0.0
 40
0.0
 40
1.0
 40
1.0
 40
1.0
 40
2.0
 40
2.0
 40
2.0
 40
3.0
 40
3.0
 40
3.0
 40
4.0
 40
4.0
 40
4.0
 40
5.0
 40
5.0
 40
5.0
 40
6.0
 40
6.0
 40
6.0
 40
7.0
 40
7.0
 40
7.0
 40
8.0
 40
8.0
 40
8.0
 40
9.0
 40
9.0
 40
9.0
 40
10.0
 40
10.0
 40
10.0
 40
11.0
 40
11.0
 40
11.0
 40
12.0
 40
12.0
 40
12.0
 40
13.0
 40
13.0
 40
13.0
 40
14.0
 40
14.0
 40
14.0
 40
15.0
 40
15.0
 40
15.0
 40
16.0
 40
16.0
 40
16.0
 40
17.0
 40
17.0
 40
17.0
 40
18.0
 40
18.0
 40
18.0
 40
19.0
 40
19.0
 40
19.0
 40
20.0
 40
20.0
 40
20.0
 40
21.0
 40
21.0
 40
21.0
 40
22.0
 40
22.0
 40
22.0
 40
23.0
 40
23.0
 40
23.0
 40
24.0
 40
24.0
 40
24.0
 40
25.0
 40
25.0
 40
25.0
 40
26.0
 40
26.0
 40
26.0
 40
27.0
 40
27.0
 40
27.0
 40
28.0
 40
28.0
 40
28.0
 40
29.0
 40
29.0
 40
29.0
 40
30.0
 40
30.0
 40
30.0
 40
31.0
 40
31.0
 40
31.0
 40
32.0
 40
32.0
 40
32.0
 40
33.0
 40
33.0
 40
33.0
 40
33.0
 10
139.8926730891197
 20
154.8294111834263
 30
0.0
 10
139.8926730891197
 20
154.8294111834263
 30
0.0
 10
142.0344903652445
 20
154.8294111834263
 30
0.0
 10
142.0344903652445
 20
154.8294111834263
 30
0.0
 10
142.0344903652445
 20
154.8294111834263
 30
0.0
 10
140.9516961399171
 20
151.3157559800812
 30
0.0
 10
140.9516961399171
 20
151.3157559800812
 30
0.0
 10
141.8928968473923
 20
152.7887075264977
 30
0.0
 10
142.7341897198865
 20
153.4484437471474
 30
0.0
 10
143.8552245303272
 20
154.2926649527359
 30
0.0
 10
144.9803934580775
 20
155.1296514530327
 30
0.0
 10
146.3139908001845
 20
155.3044901642492
 30
0.0
 10
147.241066606852
 20
155.3044901642492
 30
0.0
 10
148.3855280820469
 20
155.3044901642492
 30
0.0
 10
149.4969166187653
 20
155.0752189084569
 30
0.0
 10
150.0784491203092
 20
153.8172414621372
 30
0.0
 10
150.5228667310863
 20
152.833838307127
 30
0.0
 10
150.5414702589793
 20
152.7201500811143
 30
0.0
 10
150.4140016419347
 20
150.7765981809602
 30
0.0
 10
151.5818897818837
 20
152.7699317437168
 30
0.0
 10
152.4424752018226
 20
153.6256940267945
 30
0.0
 10
153.9038856707499
 20
154.4507949398263
 30
0.0
 10
155.4455669174378
 20
155.3044901642492
 30
0.0
 10
156.339225275853
 20
155.3659851592288
 30
0.0
 10
157.3748216618963
 20
155.2147453676543
 30
0.0
 10
158.911679771723
 20
154.9877134254046
 30
0.0
 10
159.8859534176746
 20
154.4390816074493
 30
0.0
 10
160.3965169054045
 20
152.7816450760939
 30
0.0
 10
160.9070803931344
 20
151.1219692311958
 30
0.0
 10
160.6328506116007
 20
150.2303779314354
 30
0.0
 10
159.9992971339115
 20
147.597634224801
 30
0.0
 10
159.7105979417943
 20
146.4014962832367
 30
0.0
 10
159.2947746424084
 20
144.9400858143094
 30
0.0
 10
158.7463150793409
 20
143.2092687007094
 30
0.0
 10
158.7463150793409
 20
143.2092687007094
 30
0.0
 10
153.9038856707499
 20
127.8027915271048
 30
0.0
 10
153.9038856707499
 20
127.8027915271048
 30
0.0
 10
153.9038856707499
 20
127.8027915271048
 30
0.0
 10
151.3882752878863
 20
127.8027915271048
 30
0.0
 10
151.3882752878863
 20
127.8027915271048
 30
0.0
 10
151.3882752878863
 20
127.8027915271048
 30
0.0
 10
155.6250565106276
 20
141.2751908193897
 30
0.0
 10
155.6250565106276
 20
141.2751908193897
 30
0.0
 10
156.5094131050963
 20
144.0936252951782
 30
0.0
 10
157.109893644309
 20
146.1506931664571
 30
0.0
 10
157.4220195011804
 20
147.4415712963654
 30
0.0
 10
157.8095929989511
 20
149.0530157726519
 30
0.0
 10
157.9656559273867
 20
149.5826995529385
 30
0.0
 10
157.7816877071116
 20
150.7529992613181
 30
0.0
 10
157.6111553680925
 20
151.8430281919372
 30
0.0
 10
157.0582171779396
 20
152.5547853887321
 30
0.0
 10
156.1170164704645
 20
152.5547853887321
 30
0.0
 10
155.1096698860365
 20
152.5547853887321
 30
0.0
 10
154.2962823053817
 20
152.4412694176073
 30
0.0
 10
153.156643967048
 20
151.2945686288697
 30
0.0
 10
152.0170056287143
 20
150.1476955852443
 30
0.0
 10
151.076149431015
 20
148.7930831468137
 30
0.0
 10
150.3337308641742
 20
147.2290087646991
 30
0.0
 10
149.5957909244188
 20
145.6683794803425
 30
0.0
 10
148.8530278478023
 20
143.6822806228776
 30
0.0
 10
148.0964843801539
 20
141.2751908193897
 30
0.0
 10
148.0964843801539
 20
141.2751908193897
 30
0.0
 10
143.8552245303272
 20
127.8027915271048
 30
0.0
 10
143.8552245303272
 20
127.8027915271048
 30
0.0
 10
143.8552245303272
 20
127.8027915271048
 30
0.0
 10
141.486030802177
 20
127.8027915271048
 30
0.0
 10
141.486030802177
 20
127.8027915271048
 30
0.0
 10
141.486030802177
 20
127.8027915271048
 30
0.0
 10
146.3329388378533
 20
143.2092687007094
 30
0.0
 10
146.3329388378533
 20
143.2092687007094
 30
0.0
 10
146.8483254624444
 20
144.8408669988801
 30
0.0
 10
147.2314203331297
 20
146.1837661049335
 30
0.0
 10
147.4867020769946
 20
147.224185627838
 30
0.0
 10
147.9169947869641
 20
149.0197705792876
 30
0.0
 10
148.0306830129768
 20
150.2400242051577
 30
0.0
 10
147.709255392159
 20
151.3157559800812
 30
0.0
 10
147.3874832615654
 20
152.3916600098926
 30
0.0
 10
146.8245542879144
 20
152.6683013598569
 30
0.0
 10
145.8840425999909
 20
152.6683013598569
 30
0.0
 10
145.0989048209514
 20
152.6683013598569
 30
0.0
 10
144.3282364524954
 20
152.3275811915945
 30
0.0
 10
143.4531816219731
 20
151.6538923250251
 30
0.0
 10
142.34627171234
 20
150.8074318058939
 30
0.0
 10
141.901854101563
 20
150.1097995099067
 30
0.0
 10
141.3578731655808
 20
149.289521733736
 30
0.0
 10
140.6299240093235
 20
148.192602607601
 30
0.0
 10
140.2850697237515
 20
147.455696197173
 30
0.0
 10
139.6652966370942
 20
145.8385673095858
 30
0.0
 10
139.0506911970739
 20
144.2214384219986
 30
0.0
 10
138.463991048893
 20
142.3252566160164
 30
0.0
 10
138.0571250036777
 20
141.0154304484394
 30
0.0
 10
138.0571250036777
 20
141.0154304484394
 30
0.0
 10
133.9009590684727
 20
127.8027915271048
 30
0.0
 10
133.9009590684727
 20
127.8027915271048
 30
0.0
 10
133.9009590684727
 20
127.8027915271048
 30
0.0
 10
131.4180771143097
 20
127.8027915271048
 30
0.0
 10
131.4180771143097
 20
127.8027915271048
 30
0.0
 10
131.4180771143097
 20
127.8027915271048
 30
0.0
 10
139.8926730891197
 20
154.8294111834263
 30
0.0
 10
139.8926730891197
 20
154.8294111834263
 30
0.0
  0
HATCH
  5
3C4
330
3BD
100
AcDbEntity
  8
LOGO
 62
   250
420
  2234388
100
AcDbHatch
 10
0.0
 20
0.0
 30
0.0
210
0.0
220
0.0
230
1.0
  2
SOLID
 70
     1
 71
     0
 91
        1
 92
        1
 93
        1
 72
     4
 94
        3
 73
     0
 74
     1
 95
      104
 96
      100
 40
0.0
 40
0.0
 40
0.0
 40
0.0
 40
1.0
 40
1.0
 40
1.0
 40
2.0
 40
2.0
 40
2.0
 40
3.0
 40
3.0
 40
3.0
 40
4.0
 40
4.0
 40
4.0
 40
5.0
 40
5.0
 40
5.0
 40
6.0
 40
6.0
 40
6.0
 40
7.0
 40
7.0
 40
7.0
 40
8.0
 40
8.0
 40
8.0
 40
9.0
 40
9.0
 40
9.0
 40
10.0
 40
10.0
 40
10.0
 40
11.0
 40
11.0
 40
11.0
 40
12.0
 40
12.0
 40
12.0
 40
13.0
 40
13.0
 40
13.0
 40
14.0
 40
14.0
 40
14.0
 40
15.0
 40
15.0
 40
15.0
 40
16.0
 40
16.0
 40
16.0
 40
17.0
 40
17.0
 40
17.0
 40
18.0
 40
18.0
 40
18.0
 40
19.0
 40
19.0
 40
19.0
 40
20.0
 40
20.0
 40
20.0
 40
21.0
 40
21.0
 40
21.0
 40
22.0
 40
22.0
 40
22.0
 40
23.0
 40
23.0
 40
23.0
 40
24.0
 40
24.0
 40
24.0
 40
25.0
 40
25.0
 40
25.0
 40
26.0
 40
26.0
 40
26.0
 40
27.0
 40
27.0
 40
27.0
 40
28.0
 40
28.0
 40
28.0
 40
29.0
 40
29.0
 40
29.0
 40
30.0
 40
30.0
 40
30.0
 40
31.0
 40
31.0
 40
31.0
 40
32.0
 40
32.0
 40
32.0
 40
33.0
 40
33.0
 40
33.0
 40
33.0
 10
139.8926730891197
 20
154.8294111834263
 10
139.8926730891197
 20
154.8294111834263
 10
142.0344903652445
 20
154.8294111834263
 10
142.0344903652445
 20
154.8294111834263
 10
142.0344903652445
 20
154.8294111834263
 10
140.9516961399171
 20
151.3157559800812
 10
140.9516961399171
 20
151.3157559800812
 10
141.8928968473923
 20
152.7887075264977
 10
142.7341897198865
 20
153.4484437471474
 10
143.8552245303272
 20
154.2926649527359
 10
144.9803934580775
 20
155.1296514530327
 10
146.3139908001845
 20
155.3044901642492
 10
147.241066606852
 20
155.3044901642492
 10
148.3855280820469
 20
155.3044901642492
 10
149.4969166187653
 20
155.0752189084569
 10
150.0784491203092
 20
153.8172414621372
 10
150.5228667310863
 20
152.833838307127
 10
150.5414702589793
 20
152.7201500811143
 10
150.4140016419347
 20
150.7765981809602
 10
151.5818897818837
 20
152.7699317437168
 10
152.4424752018226
 20
153.6256940267945
 10
153.9038856707499
 20
154.4507949398263
 10
155.4455669174378
 20
155.3044901642492
 10
156.339225275853
 20
155.3659851592288
 10
157.3748216618963
 20
155.2147453676543
 10
158.911679771723
 20
154.9877134254046
 10
159.8859534176746
 20
154.4390816074493
 10
160.3965169054045
 20
152.7816450760939
 10
160.9070803931344
 20
151.1219692311958
 10
160.6328506116007
 20
150.2303779314354
 10
159.9992971339115
 20
147.597634224801
 10
159.7105979417943
 20
146.4014962832367
 10
159.2947746424084
 20
144.9400858143094
 10
158.7463150793409
 20
143.2092687007094
 10
158.7463150793409
 20
143.2092687007094
 10
153.9038856707499
 20
127.8027915271048
 10
153.9038856707499
 20
127.8027915271048
 10
153.9038856707499
 20
127.8027915271048
 10
151.3882752878863
 20
127.8027915271048
 10
151.3882752878863
 20
127.8027915271048
 10
151.3882752878863
 20
127.8027915271048
 10
155.6250565106276
 20
141.2751908193897
 10
155.6250565106276
 20
141.2751908193897
 10
156.5094131050963
 20
144.0936252951782
 10
157.109893644309
 20
146.1506931664571
 10
157.4220195011804
 20
147.4415712963654
 10
157.8095929989511
 20
149.0530157726519
 10
157.9656559273867
 20
149.5826995529385
 10
157.7816877071116
 20
150.7529992613181
 10
157.6111553680925
 20
151.8430281919372
 10
157.0582171779396
 20
152.5547853887321
 10
156.1170164704645
 20
152.5547853887321
 10
155.1096698860365
 20
152.5547853887321
 10
154.2962823053817
 20
152.4412694176073
 10
153.156643967048
 20
151.2945686288697
 10
152.0170056287143
 20
150.1476955852443
 10
151.076149431015
 20
148.7930831468137
 10
150.3337308641742
 20
147.2290087646991
 10
149.5957909244188
 20
145.6683794803425
 10
148.8530278478023
 20
143.6822806228776
 10
148.0964843801539
 20
141.2751908193897
 10
148.0964843801539
 20
141.2751908193897
 10
143.8552245303272
 20
127.8027915271048
 10
143.8552245303272
 20
127.8027915271048
 10
143.8552245303272
 20
127.8027915271048
 10
141.486030802177
 20
127.8027915271048
 10
141.486030802177
 20
127.8027915271048
 10
141.486030802177
 20
127.8027915271048
 10
146.3329388378533
 20
143.2092687007094
 10
146.3329388378533
 20
143.2092687007094
 10
146.8483254624444
 20
144.8408669988801
 10
147.2314203331297
 20
146.1837661049335
 10
147.4867020769946
 20
147.224185627838
 10
147.9169947869641
 20
149.0197705792876
 10
148.0306830129768
 20
150.2400242051577
 10
147.709255392159
 20
151.3157559800812
 10
147.3874832615654
 20
152.3916600098926
 10
146.8245542879144
 20
152.6683013598569
 10
145.8840425999909
 20
152.6683013598569
 10
145.0989048209514
 20
152.6683013598569
 10
144.3282364524954
 20
152.3275811915945
 10
143.4531816219731
 20
151.6538923250251
 10
142.34627171234
 20
150.8074318058939
 10
141.901854101563
 20
150.1097995099067
 10
141.3578731655808
 20
149.289521733736
 10
140.6299240093235
 20
148.192602607601
 10
140.2850697237515
 20
147.455696197173
 10
139.6652966370942
 20
145.8385673095858
 10
139.0506911970739
 20
144.2214384219986
 10
138.463991048893
 20
142.3252566160164
 10
138.0571250036777
 20
141.0154304484394
 10
138.0571250036777
 20
141.0154304484394
 10
133.9009590684727
 20
127.8027915271048
 10
133.9009590684727
 20
127.8027915271048
 10
133.9009590684727
 20
127.8027915271048
 10
131.4180771143097
 20
127.8027915271048
 10
131.4180771143097
 20
127.8027915271048
 10
131.4180771143097
 20
127.8027915271048
 10
139.8926730891197
 20
154.8294111834263
 10
139.8926730891197
 20
154.8294111834263
 97
        0
 75
     2
 76
     1
 98
        0
  0
SPLINE
  5
3C5
330
3BD
100
AcDbEntity
  8
LOGO
370
     0
100
AcDbSpline
210
0.0
220
0.0
230
1.0
 70
    11
 71
     3
 72
    29
 73
    25
 74
     0
 42
0.000000001
 43
0.0000000001
 40
0.0
 40
0.0
 40
0.0
 40
0.0
 40
1.0
 40
1.0
 40
1.0
 40
2.0
 40
2.0
 40
2.0
 40
3.0
 40
3.0
 40
3.0
 40
4.0
 40
4.0
 40
4.0
 40
5.0
 40
5.0
 40
5.0
 40
6.0
 40
6.0
 40
6.0
 40
7.0
 40
7.0
 40
7.0
 40
8.0
 40
8.0
 40
8.0
 40
8.0
 10
101.6420971922469
 20
132.8388354296931
 30
0.0
 10
101.630039350094
 20
134.7164137077823
 30
0.0
 10
102.2236296937908
 20
138.0598810818841
 30
0.0
 10
103.7487744712405
 20
142.5378191476827
 30
0.0
 10
105.819967243327
 20
148.5896501242061
 30
0.0
 10
107.0602024361932
 20
150.8074318058939
 30
0.0
 10
108.1522984254671
 20
151.8833358357054
 30
0.0
 10
109.741177511439
 20
153.4532668840085
 30
0.0
 10
111.8740375333931
 20
153.5290590346837
 30
0.0
 10
112.5075910110823
 20
153.4532668840085
 30
0.0
 10
113.4012493694975
 20
153.3490526768302
 30
0.0
 10
114.6683563248758
 20
152.7580461564518
 30
0.0
 10
114.7493161221879
 20
150.7838328862519
 30
0.0
 10
114.8106388622796
 20
149.0909118479895
 30
0.0
 10
114.3186789024427
 20
145.9191825971221
 30
0.0
 10
112.6164561002338
 20
140.9489400617108
 30
0.0
 10
110.6444821435766
 20
135.1746117095912
 30
0.0
 10
109.4669477299053
 20
132.8960240524753
 30
0.0
 10
108.5212683953448
 20
131.9072809959403
 30
0.0
 10
106.7346406980658
 20
130.0538184021569
 30
0.0
 10
104.8222669326213
 20
130.2336525051225
 30
0.0
 10
104.5408024457958
 20
130.2336525051225
 30
0.0
 10
104.1721769856939
 20
130.2336525051225
 30
0.0
 10
101.6465758193322
 20
130.6305277668397
 30
0.0
 10
101.6420971922469
 20
132.8388354296931
 30
0.0
  0
SPLINE
  5
3C6
330
3BD
100
AcDbEntity
  8
LOGO
370
     0
100
AcDbSpline
210
0.0
220
0.0
230
1.0
 70
    11
 71
     3
 72
    32
 73
    28
 74
     0
 42
0.000000001
 43
0.0000000001
 40
0.0
 40
0.0
 40
0.0
 40
0.0
 40
1.0
 40
1.0
 40
1.0
 40
2.0
 40
2.0
 40
2.0
 40
3.0
 40
3.0
 40
3.0
 40
4.0
 40
4.0
 40
4.0
 40
5.0
 40
5.0
 40
5.0
 40
6.0
 40
6.0
 40
6.0
 40
7.0
 40
7.0
 40
7.0
 40
8.0
 40
8.0
 40
8.0
 40
9.0
 40
9.0
 40
9.0
 40
9.0
 10
106.2595617172429
 20
153.4105476718098
 30
0.0
 10
104.8222669326213
 20
151.5474388043041
 30
0.0
 10
103.7177685914188
 20
149.8758773721411
 30
0.0
 10
101.9232171692965
 20
144.6141795664062
 30
0.0
 10
100.2754269116635
 20
139.7999999594306
 30
0.0
 10
99.22777268346732
 20
136.3052927937542
 30
0.0
 10
99.06964269637689
 20
132.039572749846
 30
0.0
 10
98.94665270641765
 20
128.8673267343149
 30
0.0
 10
100.8807305877373
 20
127.8027915271048
 30
0.0
 10
103.7129454545577
 20
127.8027915271048
 30
0.0
 10
104.9352661390825
 20
127.8027915271048
 30
0.0
 10
108.0151835347002
 20
127.8827177950895
 30
0.0
 10
110.2045431598849
 20
130.5926316915021
 30
0.0
 10
111.7417457794874
 20
132.4984597712065
 30
0.0
 10
113.155269389579
 20
134.475256864725
 30
0.0
 10
115.0562743324223
 20
140.9489400617108
 30
0.0
 10
116.6361961642235
 20
146.3680788349845
 30
0.0
 10
117.7282921534974
 20
149.8639917848761
 30
0.0
 10
117.6480213757369
 20
151.8595646611754
 30
0.0
 10
117.6480213757369
 20
151.8595646611754
 30
0.0
 10
117.6480213757369
 20
151.8595646611754
 30
0.0
 10
117.6480213757369
 20
151.8595646611754
 30
0.0
 10
117.13229024137
 20
155.18150017429
 30
0.0
 10
114.7162431837115
 20
155.886194920681
 30
0.0
 10
113.3351034925446
 20
155.886194920681
 30
0.0
 10
111.9829026225447
 20
155.886194920681
 30
0.0
 10
108.3414342923792
 20
156.1251124501957
 30
0.0
 10
106.2595617172429
 20
153.4105476718098
 30
0.0
  0
HATCH
  5
3C7
330
3BD
100
AcDbEntity
  8
LOGO
 62
   250
420
  2234388
100
AcDbHatch
 10
0.0
 20
0.0
 30
0.0
210
0.0
220
0.0
230
1.0
  2
SOLID
 70
     1
 71
     0
 91
        2
 92
        1
 93
        1
 72
     4
 94
        3
 73
     0
 74
     1
 95
       29
 96
       25
 40
0.0
 40
0.0
 40
0.0
 40
0.0
 40
1.0
 40
1.0
 40
1.0
 40
2.0
 40
2.0
 40
2.0
 40
3.0
 40
3.0
 40
3.0
 40
4.0
 40
4.0
 40
4.0
 40
5.0
 40
5.0
 40
5.0
 40
6.0
 40
6.0
 40
6.0
 40
7.0
 40
7.0
 40
7.0
 40
8.0
 40
8.0
 40
8.0
 40
8.0
 10
101.6420971922469
 20
132.8388354296931
 10
101.630039350094
 20
134.7164137077823
 10
102.2236296937908
 20
138.0598810818841
 10
103.7487744712405
 20
142.5378191476827
 10
105.819967243327
 20
148.5896501242061
 10
107.0602024361932
 20
150.8074318058939
 10
108.1522984254671
 20
151.8833358357054
 10
109.741177511439
 20
153.4532668840085
 10
111.8740375333931
 20
153.5290590346837
 10
112.5075910110823
 20
153.4532668840085
 10
113.4012493694975
 20
153.3490526768302
 10
114.6683563248758
 20
152.7580461564518
 10
114.7493161221879
 20
150.7838328862519
 10
114.8106388622796
 20
149.0909118479895
 10
114.3186789024427
 20
145.9191825971221
 10
112.6164561002338
 20
140.9489400617108
 10
110.6444821435766
 20
135.1746117095912
 10
109.4669477299053
 20
132.8960240524753
 10
108.5212683953448
 20
131.9072809959403
 10
106.7346406980658
 20
130.0538184021569
 10
104.8222669326213
 20
130.2336525051225
 10
104.5408024457958
 20
130.2336525051225
 10
104.1721769856939
 20
130.2336525051225
 10
101.6465758193322
 20
130.6305277668397
 10
101.6420971922469
 20
132.8388354296931
 97
        0
 92
        1
 93
        1
 72
     4
 94
        3
 73
     0
 74
     1
 95
       32
 96
       28
 40
0.0
 40
0.0
 40
0.0
 40
0.0
 40
1.0
 40
1.0
 40
1.0
 40
2.0
 40
2.0
 40
2.0
 40
3.0
 40
3.0
 40
3.0
 40
4.0
 40
4.0
 40
4.0
 40
5.0
 40
5.0
 40
5.0
 40
6.0
 40
6.0
 40
6.0
 40
7.0
 40
7.0
 40
7.0
 40
8.0
 40
8.0
 40
8.0
 40
9.0
 40
9.0
 40
9.0
 40
9.0
 10
106.2595617172429
 20
153.4105476718098
 10
104.8222669326213
 20
151.5474388043041
 10
103.7177685914188
 20
149.8758773721411
 10
101.9232171692965
 20
144.6141795664062
 10
100.2754269116635
 20
139.7999999594306
 10
99.22777268346732
 20
136.3052927937542
 10
99.06964269637689
 20
132.039572749846
 10
98.94665270641765
 20
128.8673267343149
 10
100.8807305877373
 20
127.8027915271048
 10
103.7129454545577
 20
127.8027915271048
 10
104.9352661390825
 20
127.8027915271048
 10
108.0151835347002
 20
127.8827177950895
 10
110.2045431598849
 20
130.5926316915021
 10
111.7417457794874
 20
132.4984597712065
 10
113.155269389579
 20
134.475256864725
 10
115.0562743324223
 20
140.9489400617108
 10
116.6361961642235
 20
146.3680788349845
 10
117.7282921534974
 20
149.8639917848761
 10
117.6480213757369
 20
151.8595646611754
 10
117.6480213757369
 20
151.8595646611754
 10
117.6480213757369
 20
151.8595646611754
 10
117.6480213757369
 20
151.8595646611754
 10
117.13229024137
 20
155.18150017429
 10
114.7162431837115
 20
155.886194920681
 10
113.3351034925446
 20
155.886194920681
 10
111.9829026225447
 20
155.886194920681
 10
108.3414342923792
 20
156.1251124501957
 10
106.2595617172429
 20
153.4105476718098
 97
        0
 75
     2
 76
     1
 98
        0
  0
ENDBLK
  5
3C8
330
3BD
100
AcDbEntity
  8
0
100
AcDbBlockEnd
  0
BLOCK
  5
9016
330
9015
100
AcDbEntity
  8
0
100
AcDbBlockBegin
  2
*D6
 70
     1
 10
0.0
 20
0.0
 30
0.0
  3
*D6
  1
*D367
  0
LINE
  5
9018
330
9015
100
AcDbEntity
  8
DIM
  6
Continuous
 62
     0
370
    -2
100
AcDbLine
 10
285.6533381079915
 20
2286.944882150848
 30
0.0
 11
174.7722122678914
 21
2286.944882150848
 31
0.0
  0
LINE
  5
9019
330
9015
100
AcDbEntity
  8
DIM
  6
Continuous
 62
     0
370
    -2
100
AcDbLine
 10
285.6533381079925
 20
1911.944916357924
 30
0.0
 11
174.7722122678914
 21
1911.944916357924
 31
0.0
  0
LINE
  5
901A
330
9015
100
AcDbEntity
  8
DIM
  6
Continuous
 62
     0
370
    -2
100
AcDbLine
 10
174.7722122678914
 20
2280.944882150848
 30
0.0
 11
174.7722122678914
 21
1917.944916357924
 31
0.0
  0
INSERT
  5
901B
330
9015
100
AcDbEntity
  8
DIM
 62
     0
370
    -2
100
AcDbBlockReference
  2
_DOT
 10
174.7722122678914
 20
2286.944882150848
 30
0.0
 41
6.0
 42
6.0
 43
6.0
 50
90.0
  0
INSERT
  5
901C
330
9015
100
AcDbEntity
  8
DIM
 62
     0
370
    -2
100
AcDbBlockReference
  2
_DOT
 10
174.7722122678914
 20
1911.944916357924
 30
0.0
 41
6.0
 42
6.0
 43
6.0
 50
270.0
  0
MTEXT
  5
901D
330
9015
100
AcDbEntity
  8
DIM
  6
Continuous
 62
     0
100
AcDbMText
 10
147.7722122678914
 20
2099.444899254385
 30
0.0
 40
24.0
 41
0.0
 46
0.0
 71
     5
 72
     1
  1
\A1;375
  7
ＭＳ ゴシック
 11
7.579123206133445E-17
 21
1.0
 31
0.0
 73
     1
 44
1.0
  0
POINT
  5
901E
330
9015
100
AcDbEntity
  8
Defpoints
 62
     0
100
AcDbPoint
 10
310.6533381079915
 20
2286.944882150848
 30
0.0
  0
POINT
  5
901F
330
9015
100
AcDbEntity
  8
Defpoints
 62
     0
100
AcDbPoint
 10
310.6533381079925
 20
1911.944916357924
 30
0.0
  0
POINT
  5
9020
330
9015
100
AcDbEntity
  8
Defpoints
 62
     0
100
AcDbPoint
 10
174.7722122678914
 20
1911.944916357924
 30
0.0
  0
ENDBLK
  5
9017
330
9015
100
AcDbEntity
  8
0
100
AcDbBlockEnd
  0
BLOCK
  5
9025
330
9024
100
AcDbEntity
  8
0
100
AcDbBlockBegin
  2
*D7
 70
     1
 10
0.0
 20
0.0
 30
0.0
  3
*D7
  1
*D368
  0
LINE
  5
9027
330
9024
100
AcDbEntity
  8
DIM
  6
Continuous
 62
     0
370
    -2
100
AcDbLine
 10
856.6409026253141
 20
2279.443821522978
 30
0.0
 11
1061.513594985213
 21
2279.443821522978
 31
0.0
  0
LINE
  5
9028
330
9024
100
AcDbEntity
  8
DIM
  6
Continuous
 62
     0
370
    -2
100
AcDbLine
 10
856.6394369646717
 20
1919.443821528946
 30
0.0
 11
1061.513594985213
 21
1919.443821528946
 31
0.0
  0
LINE
  5
9029
330
9024
100
AcDbEntity
  8
DIM
  6
Continuous
 62
     0
370
    -2
100
AcDbLine
 10
1061.513594985213
 20
2273.443821522978
 30
0.0
 11
1061.513594985213
 21
1925.443821528946
 31
0.0
  0
INSERT
  5
902A
330
9024
100
AcDbEntity
  8
DIM
 62
     0
370
    -2
100
AcDbBlockReference
  2
_DOT
 10
1061.513594985213
 20
2279.443821522978
 30
0.0
 41
6.0
 42
6.0
 43
6.0
 50
90.0
  0
INSERT
  5
902B
330
9024
100
AcDbEntity
  8
DIM
 62
     0
370
    -2
100
AcDbBlockReference
  2
_DOT
 10
1061.513594985213
 20
1919.443821528946
 30
0.0
 41
6.0
 42
6.0
 43
6.0
 50
270.0
  0
MTEXT
  5
902C
330
9024
100
AcDbEntity
  8
DIM
  6
Continuous
 62
     0
100
AcDbMText
 10
1034.513594985213
 20
2099.443821525961
 30
0.0
 40
24.0
 41
0.0
 46
0.0
 71
     5
 72
     1
  1
\A1;360
  7
ＭＳ ゴシック
 11
0.0
 21
1.0
 31
0.0
 73
     1
 44
1.0
  0
POINT
  5
902D
330
9024
100
AcDbEntity
  8
Defpoints
 62
     0
100
AcDbPoint
 10
831.6409026253141
 20
2279.443821522978
 30
0.0
  0
POINT
  5
902E
330
9024
100
AcDbEntity
  8
Defpoints
 62
     0
100
AcDbPoint
 10
831.6394369646717
 20
1919.443821528946
 30
0.0
  0
POINT
  5
902F
330
9024
100
AcDbEntity
  8
Defpoints
 62
     0
100
AcDbPoint
 10
1061.513594985213
 20
1919.443821528946
 30
0.0
  0
ENDBLK
  5
9026
330
9024
100
AcDbEntity
  8
0
100
AcDbBlockEnd
  0
BLOCK
  5
9034
330
9033
100
AcDbEntity
  8
0
100
AcDbBlockBegin
  2
*D8
 70
     1
 10
0.0
 20
0.0
 30
0.0
  3
*D8
  1
*D369
  0
LINE
  5
9036
330
9033
100
AcDbEntity
  8
DIM
  6
Continuous
 62
     0
370
    -2
100
AcDbLine
 10
305.5670798086293
 20
2325.026543954971
 30
0.0
 11
305.5670798086293
 21
2395.277368548802
 31
0.0
  0
LINE
  5
9037
330
9033
100
AcDbEntity
  8
DIM
  6
Continuous
 62
     0
370
    -2
100
AcDbLine
 10
925.5694043096767
 20
2183.871707508691
 30
0.0
 11
925.5694043096767
 21
2395.277368548802
 31
0.0
  0
LINE
  5
9038
330
9033
100
AcDbEntity
  8
DIM
  6
Continuous
 62
     0
370
    -2
100
AcDbLine
 10
311.5670798086293
 20
2395.277368548802
 30
0.0
 11
919.5694043096767
 21
2395.277368548802
 31
0.0
  0
INSERT
  5
9039
330
9033
100
AcDbEntity
  8
DIM
 62
     0
370
    -2
100
AcDbBlockReference
  2
_DOT
 10
305.5670798086293
 20
2395.277368548802
 30
0.0
 41
6.0
 42
6.0
 43
6.0
 50
180.0
  0
INSERT
  5
903A
330
9033
100
AcDbEntity
  8
DIM
 62
     0
370
    -2
100
AcDbBlockReference
  2
_DOT
 10
925.5694043096767
 20
2395.277368548802
 30
0.0
 41
6.0
 42
6.0
 43
6.0
  0
MTEXT
  5
903B
330
9033
100
AcDbEntity
  8
DIM
  6
Continuous
 62
     0
100
AcDbMText
 10
615.5682420591529
 20
2422.277368548802
 30
0.0
 40
24.0
 41
0.0
 46
0.0
 71
     5
 72
     1
  1
\A1;620
  7
ＭＳ ゴシック
 73
     1
 44
1.0
  0
POINT
  5
903C
330
9033
100
AcDbEntity
  8
Defpoints
 62
     0
100
AcDbPoint
 10
305.5670798086293
 20
2300.026543954971
 30
0.0
  0
POINT
  5
903D
330
9033
100
AcDbEntity
  8
Defpoints
 62
     0
100
AcDbPoint
 10
925.5694043096767
 20
2158.871707508691
 30
0.0
  0
POINT
  5
903E
330
9033
100
AcDbEntity
  8
Defpoints
 62
     0
100
AcDbPoint
 10
925.5694043096767
 20
2395.277368548802
 30
0.0
  0
ENDBLK
  5
9035
330
9033
100
AcDbEntity
  8
0
100
AcDbBlockEnd
  0
BLOCK
  5
9059
330
9058
100
AcDbEntity
  8
0
100
AcDbBlockBegin
  2
*D9
 70
     1
 10
0.0
 20
0.0
 30
0.0
  3
*D9
  1
*D370
  0
LINE
  5
905B
330
9058
100
AcDbEntity
  8
DIM
  6
Continuous
 62
     0
370
    -2
100
AcDbLine
 10
1394.119971262969
 20
1425.855748918698
 30
0.0
 11
1394.119971262969
 21
1464.538722134178
 31
0.0
  0
LINE
  5
905C
330
9058
100
AcDbEntity
  8
DIM
  6
Continuous
 62
     0
370
    -2
100
AcDbLine
 10
1574.119971262969
 20
1425.855748918698
 30
0.0
 11
1574.119971262969
 21
1464.538722134178
 31
0.0
  0
LINE
  5
905D
330
9058
100
AcDbEntity
  8
DIM
  6
Continuous
 62
     0
370
    -2
100
AcDbLine
 10
1400.119971262969
 20
1464.538722134178
 30
0.0
 11
1568.119971262969
 21
1464.538722134178
 31
0.0
  0
INSERT
  5
905E
330
9058
100
AcDbEntity
  8
DIM
 62
     0
370
    -2
100
AcDbBlockReference
  2
_DOT
 10
1394.119971262969
 20
1464.538722134178
 30
0.0
 41
6.0
 42
6.0
 43
6.0
 50
180.0
  0
INSERT
  5
905F
330
9058
100
AcDbEntity
  8
DIM
 62
     0
370
    -2
100
AcDbBlockReference
  2
_DOT
 10
1574.119971262969
 20
1464.538722134178
 30
0.0
 41
6.0
 42
6.0
 43
6.0
  0
MTEXT
  5
9060
330
9058
100
AcDbEntity
  8
DIM
  6
Continuous
 62
     0
100
AcDbMText
 10
1484.119971262969
 20
1491.538722134178
 30
0.0
 40
24.0
 41
0.0
 46
0.0
 71
     5
 72
     1
  1
\A1;180
  7
ＭＳ ゴシック
 73
     1
 44
1.0
  0
POINT
  5
9061
330
9058
100
AcDbEntity
  8
Defpoints
 62
     0
100
AcDbPoint
 10
1394.119971262969
 20
1400.855748918698
 30
0.0
  0
POINT
  5
9062
330
9058
100
AcDbEntity
  8
Defpoints
 62
     0
100
AcDbPoint
 10
1574.119971262969
 20
1400.855748918698
 30
0.0
  0
POINT
  5
9063
330
9058
100
AcDbEntity
  8
Defpoints
 62
     0
100
AcDbPoint
 10
1574.119971262969
 20
1464.538722134178
 30
0.0
  0
ENDBLK
  5
905A
330
9058
100
AcDbEntity
  8
0
100
AcDbBlockEnd
  0
BLOCK
  5
90BC
330
90BB
100
AcDbEntity
  8
0
100
AcDbBlockBegin
  2
*D10
 70
     1
 10
0.0
 20
0.0
 30
0.0
  3
*D10
  1
*D376
  0
LINE
  5
90BE
330
90BB
100
AcDbEntity
  8
DIM
  6
Continuous
 62
     0
370
    -2
100
AcDbLine
 10
285.5785999777185
 20
1234.584032370179
 30
0.0
 11
236.1980150871338
 21
1234.584032370179
 31
0.0
  0
LINE
  5
90BF
330
90BB
100
AcDbEntity
  8
DIM
  6
Continuous
 62
     0
370
    -2
100
AcDbLine
 10
267.5525418570084
 20
1190.068956186027
 30
0.0
 11
236.1980150871338
 21
1190.068956186027
 31
0.0
  0
LINE
  5
90C0
330
90BB
100
AcDbEntity
  8
DIM
  6
Continuous
 62
     0
370
    -2
100
AcDbLine
 10
236.1980150871338
 20
1228.584032370179
 30
0.0
 11
236.1980150871338
 21
1196.068956186027
 31
0.0
  0
INSERT
  5
90C1
330
90BB
100
AcDbEntity
  8
DIM
 62
     0
370
    -2
100
AcDbBlockReference
  2
_DOT
 10
236.1980150871338
 20
1234.584032370179
 30
0.0
 41
6.0
 42
6.0
 43
6.0
 50
90.0
  0
INSERT
  5
90C2
330
90BB
100
AcDbEntity
  8
DIM
 62
     0
370
    -2
100
AcDbBlockReference
  2
_DOT
 10
236.1980150871338
 20
1190.068956186027
 30
0.0
 41
6.0
 42
6.0
 43
6.0
 50
270.0
  0
MTEXT
  5
90C3
330
90BB
100
AcDbEntity
  8
DIM
  6
Continuous
 62
     0
100
AcDbMText
 10
209.1980150871338
 20
1212.326494278102
 30
0.0
 40
24.0
 41
0.0
 46
0.0
 71
     5
 72
     1
  1
\A1;45
  7
ＭＳ ゴシック
 11
0.0
 21
1.0
 31
0.0
 73
     1
 44
1.0
  0
POINT
  5
90C4
330
90BB
100
AcDbEntity
  8
Defpoints
 62
     0
100
AcDbPoint
 10
310.5785999777185
 20
1234.584032370179
 30
0.0
  0
POINT
  5
90C5
330
90BB
100
AcDbEntity
  8
Defpoints
 62
     0
100
AcDbPoint
 10
292.5525418570084
 20
1190.068956186027
 30
0.0
  0
POINT
  5
90C6
330
90BB
100
AcDbEntity
  8
Defpoints
 62
     0
100
AcDbPoint
 10
236.1980150871338
 20
1190.068956186027
 30
0.0
  0
ENDBLK
  5
90BD
330
90BB
100
AcDbEntity
  8
0
100
AcDbBlockEnd
  0
BLOCK
  5
90CC
330
90CB
100
AcDbEntity
  8
0
100
AcDbBlockBegin
  2
*D11
 70
     1
 10
0.0
 20
0.0
 30
0.0
  3
*D11
  1
*D377
  0
LINE
  5
90CE
330
90CB
100
AcDbEntity
  8
DIM
  6
Continuous
 62
     0
370
    -2
100
AcDbLine
 10
267.5525418570084
 20
1190.068956186027
 30
0.0
 11
236.4069041634272
 21
1190.068956186027
 31
0.0
  0
LINE
  5
90CF
330
90CB
100
AcDbEntity
  8
DIM
  6
Continuous
 62
     0
370
    -2
100
AcDbLine
 10
274.6031616515296
 20
1054.579483174977
 30
0.0
 11
236.4069041634272
 21
1054.579483174977
 31
0.0
  0
LINE
  5
90D0
330
90CB
100
AcDbEntity
  8
DIM
  6
Continuous
 62
     0
370
    -2
100
AcDbLine
 10
236.4069041634272
 20
1184.068956186027
 30
0.0
 11
236.4069041634272
 21
1060.579483174977
 31
0.0
  0
INSERT
  5
90D1
330
90CB
100
AcDbEntity
  8
DIM
 62
     0
370
    -2
100
AcDbBlockReference
  2
_DOT
 10
236.4069041634272
 20
1190.068956186027
 30
0.0
 41
6.0
 42
6.0
 43
6.0
 50
90.0
  0
INSERT
  5
90D2
330
90CB
100
AcDbEntity
  8
DIM
 62
     0
370
    -2
100
AcDbBlockReference
  2
_DOT
 10
236.4069041634272
 20
1054.579483174977
 30
0.0
 41
6.0
 42
6.0
 43
6.0
 50
270.0
  0
MTEXT
  5
90D3
330
90CB
100
AcDbEntity
  8
DIM
  6
Continuous
 62
     0
100
AcDbMText
 10
209.4069041634272
 20
1122.324219680502
 30
0.0
 40
24.0
 41
0.0
 46
0.0
 71
     5
 72
     1
  1
\A1;135
  7
ＭＳ ゴシック
 11
0.0
 21
1.0
 31
0.0
 73
     1
 44
1.0
  0
POINT
  5
90D4
330
90CB
100
AcDbEntity
  8
Defpoints
 62
     0
100
AcDbPoint
 10
292.5525418570084
 20
1190.068956186027
 30
0.0
  0
POINT
  5
90D5
330
90CB
100
AcDbEntity
  8
Defpoints
 62
     0
100
AcDbPoint
 10
299.6031616515296
 20
1054.579483174977
 30
0.0
  0
POINT
  5
90D6
330
90CB
100
AcDbEntity
  8
Defpoints
 62
     0
100
AcDbPoint
 10
236.4069041634272
 20
1054.579483174977
 30
0.0
  0
ENDBLK
  5
90CD
330
90CB
100
AcDbEntity
  8
0
100
AcDbBlockEnd
  0
BLOCK
  5
9187
330
9186
100
AcDbEntity
  8
0
100
AcDbBlockBegin
  2
*D12
 70
     1
 10
0.0
 20
0.0
 30
0.0
  3
*D12
  1
*D388
  0
LINE
  5
9189
330
9186
100
AcDbEntity
  8
DIM
  6
Continuous
 62
     0
370
    -2
100
AcDbLine
 10
1483.596455637262
 20
874.5466767184218
 30
0.0
 11
1483.596455637262
 21
766.0957069764711
 31
0.0
  0
LINE
  5
918A
330
9186
100
AcDbEntity
  8
DIM
  6
Continuous
 62
     0
370
    -2
100
AcDbLine
 10
1218.61755563726
 20
984.9069633217889
 30
0.0
 11
1218.61755563726
 21
766.0957069764711
 31
0.0
  0
LINE
  5
918B
330
9186
100
AcDbEntity
  8
DIM
  6
Continuous
 62
     0
370
    -2
100
AcDbLine
 10
1477.596455637262
 20
766.0957069764711
 30
0.0
 11
1224.61755563726
 21
766.0957069764711
 31
0.0
  0
INSERT
  5
918C
330
9186
100
AcDbEntity
  8
DIM
 62
     0
370
    -2
100
AcDbBlockReference
  2
_DOT
 10
1483.596455637262
 20
766.0957069764711
 30
0.0
 41
6.0
 42
6.0
 43
6.0
  0
INSERT
  5
918D
330
9186
100
AcDbEntity
  8
DIM
 62
     0
370
    -2
100
AcDbBlockReference
  2
_DOT
 10
1218.61755563726
 20
766.0957069764711
 30
0.0
 41
6.0
 42
6.0
 43
6.0
 50
180.0
  0
MTEXT
  5
918E
330
9186
100
AcDbEntity
  8
DIM
  6
Continuous
 62
     0
100
AcDbMText
 10
1351.107005637261
 20
793.0957069764711
 30
0.0
 40
24.0
 41
0.0
 46
0.0
 71
     5
 72
     1
  1
\A1;265-300
  7
ＭＳ ゴシック
 73
     1
 44
1.0
  0
POINT
  5
918F
330
9186
100
AcDbEntity
  8
Defpoints
 62
     0
100
AcDbPoint
 10
1483.596455637262
 20
899.5466767184218
 30
0.0
  0
POINT
  5
9190
330
9186
100
AcDbEntity
  8
Defpoints
 62
     0
100
AcDbPoint
 10
1218.61755563726
 20
1009.906963321789
 30
0.0
  0
POINT
  5
9191
330
9186
100
AcDbEntity
  8
Defpoints
 62
     0
100
AcDbPoint
 10
1218.61755563726
 20
766.0957069764711
 30
0.0
  0
ENDBLK
  5
9188
330
9186
100
AcDbEntity
  8
0
100
AcDbBlockEnd
  0
BLOCK
  5
9193
330
9192
100
AcDbEntity
  8
0
100
AcDbBlockBegin
  2
*D13
 70
     1
 10
0.0
 20
0.0
 30
0.0
  3
*D13
  1
*D389
  0
LINE
  5
9195
330
9192
100
AcDbEntity
  8
DIM
  6
Continuous
 62
     0
370
    -2
100
AcDbLine
 10
1233.596455637262
 20
839.4149953409972
 30
0.0
 11
1160.476599541046
 21
839.4149953409972
 31
0.0
  0
LINE
  5
9196
330
9192
100
AcDbEntity
  8
DIM
  6
Continuous
 62
     0
370
    -2
100
AcDbLine
 10
1193.596455637262
 20
1039.414995340997
 30
0.0
 11
1160.476599541046
 21
1039.414995340997
 31
0.0
  0
LINE
  5
9197
330
9192
100
AcDbEntity
  8
DIM
  6
Continuous
 62
     0
370
    -2
100
AcDbLine
 10
1160.476599541046
 20
845.4149953409972
 30
0.0
 11
1160.476599541046
 21
1033.414995340997
 31
0.0
  0
INSERT
  5
9198
330
9192
100
AcDbEntity
  8
DIM
 62
     0
370
    -2
100
AcDbBlockReference
  2
_DOT
 10
1160.476599541046
 20
839.4149953409972
 30
0.0
 41
6.0
 42
6.0
 43
6.0
 50
270.0
  0
INSERT
  5
9199
330
9192
100
AcDbEntity
  8
DIM
 62
     0
370
    -2
100
AcDbBlockReference
  2
_DOT
 10
1160.476599541046
 20
1039.414995340997
 30
0.0
 41
6.0
 42
6.0
 43
6.0
 50
90.0
  0
MTEXT
  5
919A
330
9192
100
AcDbEntity
  8
DIM
  6
Continuous
 62
     0
100
AcDbMText
 10
1133.476599541046
 20
934.4149953409969
 30
0.0
 40
24.0
 41
0.0
 46
0.0
 71
     5
 72
     1
  1
\A1;200-250
  7
ＭＳ ゴシック
 11
0.0
 21
1.0
 31
0.0
 73
     1
 44
1.0
  0
POINT
  5
919B
330
9192
100
AcDbEntity
  8
Defpoints
 62
     0
100
AcDbPoint
 10
1258.596455637262
 20
839.4149953409972
 30
0.0
  0
POINT
  5
919C
330
9192
100
AcDbEntity
  8
Defpoints
 62
     0
100
AcDbPoint
 10
1218.596455637262
 20
1039.414995340997
 30
0.0
  0
POINT
  5
919D
330
9192
100
AcDbEntity
  8
Defpoints
 62
     0
100
AcDbPoint
 10
1160.476599541046
 20
1039.414995340997
 30
0.0
  0
ENDBLK
  5
9194
330
9192
100
AcDbEntity
  8
0
100
AcDbBlockEnd
  0
BLOCK
  5
91BF
330
91BE
100
AcDbEntity
  8
0
100
AcDbBlockBegin
  2
*D14
 70
     1
 10
0.0
 20
0.0
 30
0.0
  3
*D14
  1
*D392
  0
LINE
  5
91C1
330
91BE
100
AcDbEntity
  8
DIM
  6
Continuous
 62
     0
370
    -2
100
AcDbLine
 10
1276.475230382892
 20
1234.56920009397
 30
0.0
 11
1105.342419967659
 21
1234.56920009397
 31
0.0
  0
LINE
  5
91C2
330
91BE
100
AcDbEntity
  8
DIM
  6
Continuous
 62
     0
370
    -2
100
AcDbLine
 10
1276.475230382892
 20
1154.56920009397
 30
0.0
 11
1105.342419967659
 21
1154.56920009397
 31
0.0
  0
LINE
  5
91C3
330
91BE
100
AcDbEntity
  8
DIM
  6
Continuous
 62
     0
370
    -2
100
AcDbLine
 10
1105.342419967659
 20
1228.56920009397
 30
0.0
 11
1105.342419967659
 21
1160.56920009397
 31
0.0
  0
INSERT
  5
91C4
330
91BE
100
AcDbEntity
  8
DIM
 62
     0
370
    -2
100
AcDbBlockReference
  2
_DOT
 10
1105.342419967659
 20
1234.56920009397
 30
0.0
 41
6.0
 42
6.0
 43
6.0
 50
90.0
  0
INSERT
  5
91C5
330
91BE
100
AcDbEntity
  8
DIM
 62
     0
370
    -2
100
AcDbBlockReference
  2
_DOT
 10
1105.342419967659
 20
1154.56920009397
 30
0.0
 41
6.0
 42
6.0
 43
6.0
 50
270.0
  0
MTEXT
  5
91C6
330
91BE
100
AcDbEntity
  8
DIM
  6
Continuous
 62
     0
100
AcDbMText
 10
1078.342419967659
 20
1194.56920009397
 30
0.0
 40
24.0
 41
0.0
 46
0.0
 71
     5
 72
     1
  1
\A1;80
  7
ＭＳ ゴシック
 11
0.0
 21
1.0
 31
0.0
 73
     1
 44
1.0
  0
POINT
  5
91C7
330
91BE
100
AcDbEntity
  8
Defpoints
 62
     0
100
AcDbPoint
 10
1301.475230382892
 20
1234.56920009397
 30
0.0
  0
POINT
  5
91C8
330
91BE
100
AcDbEntity
  8
Defpoints
 62
     0
100
AcDbPoint
 10
1301.475230382892
 20
1154.56920009397
 30
0.0
  0
POINT
  5
91C9
330
91BE
100
AcDbEntity
  8
Defpoints
 62
     0
100
AcDbPoint
 10
1105.342419967659
 20
1154.56920009397
 30
0.0
  0
ENDBLK
  5
91C0
330
91BE
100
AcDbEntity
  8
0
100
AcDbBlockEnd
  0
BLOCK
  5
91EB
330
91EA
100
AcDbEntity
  8
0
100
AcDbBlockBegin
  2
*D15
 70
     1
 10
0.0
 20
0.0
 30
0.0
  3
*D15
  1
*D395
  0
LINE
  5
91ED
330
91EA
100
AcDbEntity
  8
DIM
  6
Continuous
 62
     0
370
    -2
100
AcDbLine
 10
1508.596455637262
 20
899.5466767184218
 30
0.0
 11
1843.766789001389
 21
899.5466767184218
 31
0.0
  0
LINE
  5
91EE
330
91EA
100
AcDbEntity
  8
DIM
  6
Continuous
 62
     0
370
    -2
100
AcDbLine
 10
1696.475230382892
 20
1269.56920009397
 30
0.0
 11
1843.766789001389
 21
1269.56920009397
 31
0.0
  0
LINE
  5
91EF
330
91EA
100
AcDbEntity
  8
DIM
  6
Continuous
 62
     0
370
    -2
100
AcDbLine
 10
1843.766789001389
 20
905.5466767184218
 30
0.0
 11
1843.766789001389
 21
1263.56920009397
 31
0.0
  0
INSERT
  5
91F0
330
91EA
100
AcDbEntity
  8
DIM
 62
     0
370
    -2
100
AcDbBlockReference
  2
_DOT
 10
1843.766789001389
 20
899.5466767184218
 30
0.0
 41
6.0
 42
6.0
 43
6.0
 50
270.0
  0
INSERT
  5
91F1
330
91EA
100
AcDbEntity
  8
DIM
 62
     0
370
    -2
100
AcDbBlockReference
  2
_DOT
 10
1843.766789001389
 20
1269.56920009397
 30
0.0
 41
6.0
 42
6.0
 43
6.0
 50
90.0
  0
MTEXT
  5
91F2
330
91EA
100
AcDbEntity
  8
DIM
  6
Continuous
 62
     0
100
AcDbMText
 10
1816.766789001389
 20
1084.557938406196
 30
0.0
 40
24.0
 41
0.0
 46
0.0
 71
     5
 72
     1
  1
\A1;370
  7
ＭＳ ゴシック
 11
0.0
 21
1.0
 31
0.0
 73
     1
 44
1.0
  0
POINT
  5
91F3
330
91EA
100
AcDbEntity
  8
Defpoints
 62
     0
100
AcDbPoint
 10
1483.596455637262
 20
899.5466767184218
 30
0.0
  0
POINT
  5
91F4
330
91EA
100
AcDbEntity
  8
Defpoints
 62
     0
100
AcDbPoint
 10
1671.475230382892
 20
1269.56920009397
 30
0.0
  0
POINT
  5
91F5
330
91EA
100
AcDbEntity
  8
Defpoints
 62
     0
100
AcDbPoint
 10
1843.766789001389
 20
1269.56920009397
 30
0.0
  0
ENDBLK
  5
91EC
330
91EA
100
AcDbEntity
  8
0
100
AcDbBlockEnd
  0
BLOCK
  5
9224
330
9223
100
AcDbEntity
  8
0
100
AcDbBlockBegin
  2
*D16
 70
     1
 10
0.0
 20
0.0
 30
0.0
  3
*D16
  1
*D397
  0
LINE
  5
9226
330
9223
100
AcDbEntity
  8
DIM
  6
Continuous
 62
     0
370
    -2
100
AcDbLine
 10
1508.596455637262
 20
899.5466767184218
 30
0.0
 11
1974.364941990427
 21
899.5466767184218
 31
0.0
  0
LINE
  5
9227
330
9223
100
AcDbEntity
  8
DIM
  6
Continuous
 62
     0
370
    -2
100
AcDbLine
 10
1694.304977195658
 20
1404.776381897356
 30
0.0
 11
1974.364941990427
 21
1404.776381897356
 31
0.0
  0
LINE
  5
9228
330
9223
100
AcDbEntity
  8
DIM
  6
Continuous
 62
     0
370
    -2
100
AcDbLine
 10
1974.364941990427
 20
905.5466767184218
 30
0.0
 11
1974.364941990427
 21
1398.776381897356
 31
0.0
  0
INSERT
  5
9229
330
9223
100
AcDbEntity
  8
DIM
 62
     0
370
    -2
100
AcDbBlockReference
  2
_DOT
 10
1974.364941990427
 20
899.5466767184218
 30
0.0
 41
6.0
 42
6.0
 43
6.0
 50
270.0
  0
INSERT
  5
922A
330
9223
100
AcDbEntity
  8
DIM
 62
     0
370
    -2
100
AcDbBlockReference
  2
_DOT
 10
1974.364941990427
 20
1404.776381897356
 30
0.0
 41
6.0
 42
6.0
 43
6.0
 50
90.0
  0
MTEXT
  5
922B
330
9223
100
AcDbEntity
  8
DIM
  6
Continuous
 62
     0
100
AcDbMText
 10
1947.364941990427
 20
1152.161529307889
 30
0.0
 40
24.0
 41
0.0
 46
0.0
 71
     5
 72
     1
  1
\A1;505
  7
ＭＳ ゴシック
 11
0.0
 21
1.0
 31
0.0
 73
     1
 44
1.0
  0
POINT
  5
922C
330
9223
100
AcDbEntity
  8
Defpoints
 62
     0
100
AcDbPoint
 10
1483.596455637262
 20
899.5466767184218
 30
0.0
  0
POINT
  5
922D
330
9223
100
AcDbEntity
  8
Defpoints
 62
     0
100
AcDbPoint
 10
1669.304977195658
 20
1404.776381897356
 30
0.0
  0
POINT
  5
922E
330
9223
100
AcDbEntity
  8
Defpoints
 62
     0
100
AcDbPoint
 10
1974.364941990427
 20
1404.776381897356
 30
0.0
  0
ENDBLK
  5
9225
330
9223
100
AcDbEntity
  8
0
100
AcDbBlockEnd
  0
BLOCK
  5
92C9
330
92C8
100
AcDbEntity
  8
0
100
AcDbBlockBegin
  2
*D17
 70
     1
 10
0.0
 20
0.0
 30
0.0
  3
*D17
  1
*D402
  0
LINE
  5
92CB
330
92C8
100
AcDbEntity
  8
DIM
  6
Continuous
 62
     0
370
    -2
100
AcDbLine
 10
611.5736168058573
 20
899.6996041736379
 30
0.0
 11
1003.09509035533
 21
899.6996041736379
 31
0.0
  0
LINE
  5
92CC
330
92C8
100
AcDbEntity
  8
DIM
  6
Continuous
 62
     0
370
    -2
100
AcDbLine
 10
945.5820946732459
 20
1234.534300347482
 30
0.0
 11
1003.09509035533
 21
1234.534300347482
 31
0.0
  0
LINE
  5
92CD
330
92C8
100
AcDbEntity
  8
DIM
  6
Continuous
 62
     0
370
    -2
100
AcDbLine
 10
1003.09509035533
 20
905.6996041736379
 30
0.0
 11
1003.09509035533
 21
1228.534300347482
 31
0.0
  0
INSERT
  5
92CE
330
92C8
100
AcDbEntity
  8
DIM
 62
     0
370
    -2
100
AcDbBlockReference
  2
_DOT
 10
1003.09509035533
 20
899.6996041736379
 30
0.0
 41
6.0
 42
6.0
 43
6.0
 50
270.0
  0
INSERT
  5
92CF
330
92C8
100
AcDbEntity
  8
DIM
 62
     0
370
    -2
100
AcDbBlockReference
  2
_DOT
 10
1003.09509035533
 20
1234.534300347482
 30
0.0
 41
6.0
 42
6.0
 43
6.0
 50
90.0
  0
MTEXT
  5
92D0
330
92C8
100
AcDbEntity
  8
DIM
  6
Continuous
 62
     0
100
AcDbMText
 10
976.09509035533
 20
1067.11695226056
 30
0.0
 40
24.0
 41
0.0
 46
0.0
 71
     5
 72
     1
  1
\A1;335
  7
ＭＳ ゴシック
 11
0.0
 21
1.0
 31
0.0
 73
     1
 44
1.0
  0
POINT
  5
92D1
330
92C8
100
AcDbEntity
  8
Defpoints
 62
     0
100
AcDbPoint
 10
586.5736168058573
 20
899.6996041736379
 30
0.0
  0
POINT
  5
92D2
330
92C8
100
AcDbEntity
  8
Defpoints
 62
     0
100
AcDbPoint
 10
920.5820946732459
 20
1234.534300347482
 30
0.0
  0
POINT
  5
92D3
330
92C8
100
AcDbEntity
  8
Defpoints
 62
     0
100
AcDbPoint
 10
1003.09509035533
 20
1234.534300347482
 30
0.0
  0
ENDBLK
  5
92CA
330
92C8
100
AcDbEntity
  8
0
100
AcDbBlockEnd
  0
BLOCK
  5
92D6
330
92D5
100
AcDbEntity
  8
0
100
AcDbBlockBegin
  2
*D18
 70
     1
 10
0.0
 20
0.0
 30
0.0
  3
*D18
  1
*D403
  0
LINE
  5
92D8
330
92D5
100
AcDbEntity
  8
DIM
  6
Continuous
 62
     0
370
    -2
100
AcDbLine
 10
285.5785999777185
 20
1234.584032370179
 30
0.0
 11
236.1980150871338
 21
1234.584032370179
 31
0.0
  0
LINE
  5
92D9
330
92D5
100
AcDbEntity
  8
DIM
  6
Continuous
 62
     0
370
    -2
100
AcDbLine
 10
403.226086012576
 20
1404.584032370179
 30
0.0
 11
236.1980150871338
 21
1404.584032370179
 31
0.0
  0
LINE
  5
92DA
330
92D5
100
AcDbEntity
  8
DIM
  6
Continuous
 62
     0
370
    -2
100
AcDbLine
 10
236.1980150871338
 20
1240.584032370179
 30
0.0
 11
236.1980150871338
 21
1398.584032370179
 31
0.0
  0
INSERT
  5
92DB
330
92D5
100
AcDbEntity
  8
DIM
 62
     0
370
    -2
100
AcDbBlockReference
  2
_DOT
 10
236.1980150871338
 20
1234.584032370179
 30
0.0
 41
6.0
 42
6.0
 43
6.0
 50
270.0
  0
INSERT
  5
92DC
330
92D5
100
AcDbEntity
  8
DIM
 62
     0
370
    -2
100
AcDbBlockReference
  2
_DOT
 10
236.1980150871338
 20
1404.584032370179
 30
0.0
 41
6.0
 42
6.0
 43
6.0
 50
90.0
  0
MTEXT
  5
92DD
330
92D5
100
AcDbEntity
  8
DIM
  6
Continuous
 62
     0
100
AcDbMText
 10
209.1980150871338
 20
1319.584032370179
 30
0.0
 40
24.0
 41
0.0
 46
0.0
 71
     5
 72
     1
  1
\A1;170
  7
ＭＳ ゴシック
 11
0.0
 21
1.0
 31
0.0
 73
     1
 44
1.0
  0
POINT
  5
92DE
330
92D5
100
AcDbEntity
  8
Defpoints
 62
     0
100
AcDbPoint
 10
310.5785999777185
 20
1234.584032370179
 30
0.0
  0
POINT
  5
92DF
330
92D5
100
AcDbEntity
  8
Defpoints
 62
     0
100
AcDbPoint
 10
428.226086012576
 20
1404.584032370179
 30
0.0
  0
POINT
  5
92E0
330
92D5
100
AcDbEntity
  8
Defpoints
 62
     0
100
AcDbPoint
 10
236.1980150871338
 20
1404.584032370179
 30
0.0
  0
ENDBLK
  5
92D7
330
92D5
100
AcDbEntity
  8
0
100
AcDbBlockEnd
  0
BLOCK
  5
93DB
330
93DA
100
AcDbEntity
  8
0
100
AcDbBlockBegin
  2
*D19
 70
     1
 10
0.0
 20
0.0
 30
0.0
  3
*D19
  1
*D392
  0
LINE
  5
93DD
330
93DA
100
AcDbEntity
  8
DIM
  6
Continuous
 62
     0
370
    -2
100
AcDbLine
 10
1508.596455637262
 20
899.5466767184218
 30
0.0
 11
1909.739051851522
 21
899.5466767184218
 31
0.0
  0
LINE
  5
93DE
330
93DA
100
AcDbEntity
  8
DIM
  6
Continuous
 62
     0
370
    -2
100
AcDbLine
 10
1697.059381641704
 20
1289.546676718422
 30
0.0
 11
1909.739051851522
 21
1289.546676718422
 31
0.0
  0
LINE
  5
93DF
330
93DA
100
AcDbEntity
  8
DIM
  6
Continuous
 62
     0
370
    -2
100
AcDbLine
 10
1909.739051851522
 20
905.5466767184218
 30
0.0
 11
1909.739051851522
 21
1283.546676718422
 31
0.0
  0
INSERT
  5
93E0
330
93DA
100
AcDbEntity
  8
DIM
 62
     0
370
    -2
100
AcDbBlockReference
  2
_DOT
 10
1909.739051851522
 20
899.5466767184218
 30
0.0
 41
6.0
 42
6.0
 43
6.0
 50
270.0
  0
INSERT
  5
93E1
330
93DA
100
AcDbEntity
  8
DIM
 62
     0
370
    -2
100
AcDbBlockReference
  2
_DOT
 10
1909.739051851522
 20
1289.546676718422
 30
0.0
 41
6.0
 42
6.0
 43
6.0
 50
90.0
  0
MTEXT
  5
93E2
330
93DA
100
AcDbEntity
  8
DIM
  6
Continuous
 62
     0
100
AcDbMText
 10
1882.739051851522
 20
1094.546676718422
 30
0.0
 40
24.0
 41
0.0
 46
0.0
 71
     5
 72
     1
  1
\A1;390
  7
ＭＳ ゴシック
 11
0.0
 21
1.0
 31
0.0
 73
     1
 44
1.0
  0
POINT
  5
93E3
330
93DA
100
AcDbEntity
  8
Defpoints
 62
     0
100
AcDbPoint
 10
1483.596455637262
 20
899.5466767184218
 30
0.0
  0
POINT
  5
93E4
330
93DA
100
AcDbEntity
  8
Defpoints
 62
     0
100
AcDbPoint
 10
1672.059381641704
 20
1289.546676718422
 30
0.0
  0
POINT
  5
93E5
330
93DA
100
AcDbEntity
  8
Defpoints
 62
     0
100
AcDbPoint
 10
1909.739051851522
 20
1289.546676718422
 30
0.0
  0
ENDBLK
  5
93DC
330
93DA
100
AcDbEntity
  8
0
100
AcDbBlockEnd
  0
BLOCK
  5
9932
330
9931
100
AcDbEntity
  8
0
100
AcDbBlockBegin
  2
*D20
 70
     1
 10
0.0
 20
0.0
 30
0.0
  3
*D20
  1

  0
LINE
  5
9934
330
9931
100
AcDbEntity
  8
MODEL
  6
Continuous
 62
     0
370
    -2
100
AcDbLine
 10
1721.475230382892
 20
1269.56920009397
 30
0.0
 11
1775.911248668054
 21
1269.56920009397
 31
0.0
  0
LINE
  5
9935
330
9931
100
AcDbEntity
  8
MODEL
  6
Continuous
 62
     0
370
    -2
100
AcDbLine
 10
1608.976553487704
 20
1153.817389024941
 30
0.0
 11
1775.911248668054
 21
1153.817389024941
 31
0.0
  0
LINE
  5
9936
330
9931
100
AcDbEntity
  8
MODEL
  6
Continuous
 62
     0
370
    -2
100
AcDbLine
 10
1775.911248668054
 20
1263.56920009397
 30
0.0
 11
1775.911248668054
 21
1159.817389024941
 31
0.0
  0
INSERT
  5
9937
330
9931
100
AcDbEntity
  8
MODEL
 62
     0
370
    -2
100
AcDbBlockReference
  2
_DOT
 10
1775.911248668054
 20
1269.56920009397
 30
0.0
 41
6.0
 42
6.0
 43
6.0
 50
90.0
  0
INSERT
  5
9938
330
9931
100
AcDbEntity
  8
MODEL
 62
     0
370
    -2
100
AcDbBlockReference
  2
_DOT
 10
1775.911248668054
 20
1153.817389024941
 30
0.0
 41
6.0
 42
6.0
 43
6.0
 50
270.0
  0
MTEXT
  5
9939
330
9931
100
AcDbEntity
  8
MODEL
  6
Continuous
 62
     0
100
AcDbMText
 10
1748.911248668054
 20
1211.693294559455
 30
0.0
 40
24.0
 41
0.0
 46
0.0
 71
     5
 72
     1
  1
\A1;115
  7
ＭＳ ゴシック
 11
0.0
 21
1.0
 31
0.0
 73
     1
 44
1.0
  0
POINT
  5
993A
330
9931
100
AcDbEntity
  8
Defpoints
 62
     0
100
AcDbPoint
 10
1696.475230382892
 20
1269.56920009397
 30
0.0
  0
POINT
  5
993B
330
9931
100
AcDbEntity
  8
Defpoints
 62
     0
100
AcDbPoint
 10
1583.976553487704
 20
1153.817389024941
 30
0.0
  0
POINT
  5
993C
330
9931
100
AcDbEntity
  8
Defpoints
 62
     0
100
AcDbPoint
 10
1775.911248668054
 20
1153.817389024941
 30
0.0
  0
ENDBLK
  5
9933
330
9931
100
AcDbEntity
  8
0
100
AcDbBlockEnd
  0
BLOCK
  5
9990
330
998F
100
AcDbEntity
  8
0
100
AcDbBlockBegin
  2
*D22
 70
     1
 10
0.0
 20
0.0
 30
0.0
  3
*D22
  1

  0
LINE
  5
9991
330
998F
100
AcDbEntity
  8
DIM
  6
Continuous
 62
     0
370
    -2
100
AcDbLine
 10
511.6434266434983
 20
184.6804742655997
 30
0.0
 11
511.6434266434983
 21
237.2004442655973
 31
0.0
  0
LINE
  5
9992
330
998F
100
AcDbEntity
  8
DIM
  6
Continuous
 62
     0
370
    -2
100
AcDbLine
 10
577.6434266435019
 20
184.6804742655997
 30
0.0
 11
577.6434266435019
 21
237.2004442655973
 31
0.0
  0
LINE
  5
9993
330
998F
100
AcDbEntity
  8
DIM
  6
Continuous
 62
     0
370
    -2
100
AcDbLine
 10
520.6434266434983
 20
237.2004442655973
 30
0.0
 11
568.6434266435019
 21
237.2004442655973
 31
0.0
  0
INSERT
  5
9994
330
998F
100
AcDbEntity
  8
DIM
 62
     0
370
    -2
100
AcDbBlockReference
  2
_DOT
 10
511.6434266434983
 20
237.2004442655973
 30
0.0
 41
9.0
 42
9.0
 43
9.0
 50
180.0
  0
INSERT
  5
9995
330
998F
100
AcDbEntity
  8
DIM
 62
     0
370
    -2
100
AcDbBlockReference
  2
_DOT
 10
577.6434266435019
 20
237.2004442655973
 30
0.0
 41
9.0
 42
9.0
 43
9.0
  0
MTEXT
  5
9996
330
998F
100
AcDbEntity
  8
DIM
  6
Continuous
 62
     0
100
AcDbMText
 10
542.8916825856761
 20
259.4167528593473
 30
0.0
 40
24.4326171875
 41
0.0
 46
0.0
 71
     5
 72
     1
  1
\A1;\A1;33
  7
ＭＳ ゴシック
 73
     1
 44
0.96
  0
POINT
  5
9997
330
998F
100
AcDbEntity
  8
Defpoints
 62
     0
100
AcDbPoint
 10
511.6434266434983
 20
184.6804742655997
 30
0.0
  0
POINT
  5
9998
330
998F
100
AcDbEntity
  8
Defpoints
 62
     0
100
AcDbPoint
 10
577.6434266435019
 20
184.6804742655997
 30
0.0
  0
POINT
  5
9999
330
998F
100
AcDbEntity
  8
Defpoints
 62
     0
100
AcDbPoint
 10
577.6434266435019
 20
237.2004442655973
 30
0.0
  0
ENDBLK
  5
999A
330
998F
100
AcDbEntity
  8
0
100
AcDbBlockEnd
  0
BLOCK
  5
99A8
330
99A7
100
AcDbEntity
  8
0
100
AcDbBlockBegin
  2
*D23
 70
     1
 10
0.0
 20
0.0
 30
0.0
  3
*D23
  1

  0
LINE
  5
99A9
330
99A7
100
AcDbEntity
  8
DIM
  6
Continuous
 62
     0
370
    -2
100
AcDbLine
 10
146.9502366434997
 20
180.0011351859205
 30
0.0
 11
146.9502366434997
 21
232.7226927935046
 31
0.0
  0
LINE
  5
99AA
330
99A7
100
AcDbEntity
  8
DIM
  6
Continuous
 62
     0
370
    -2
100
AcDbLine
 10
246.9502366434992
 20
176.5163348389444
 30
0.0
 11
246.9502366434992
 21
232.7226927935046
 31
0.0
  0
LINE
  5
99AB
330
99A7
100
AcDbEntity
  8
DIM
  6
Continuous
 62
     0
370
    -2
100
AcDbLine
 10
155.9502366434997
 20
232.7226927935046
 30
0.0
 11
237.9502366434992
 21
232.7226927935046
 31
0.0
  0
INSERT
  5
99AC
330
99A7
100
AcDbEntity
  8
DIM
 62
     0
370
    -2
100
AcDbBlockReference
  2
_DOT
 10
146.9502366434997
 20
232.7226927935046
 30
0.0
 41
9.0
 42
9.0
 43
9.0
 50
180.0
  0
INSERT
  5
99AD
330
99A7
100
AcDbEntity
  8
DIM
 62
     0
370
    -2
100
AcDbBlockReference
  2
_DOT
 10
246.9502366434992
 20
232.7226927935046
 30
0.0
 41
9.0
 42
9.0
 43
9.0
  0
MTEXT
  5
99AE
330
99A7
100
AcDbEntity
  8
DIM
  6
Continuous
 62
     0
100
AcDbMText
 10
196.9502366434997
 20
254.9390013872546
 30
0.0
 40
24.4326171875
 41
0.0
 46
0.0
 71
     5
 72
     1
  1
\A1;\A1;50
  7
ＭＳ ゴシック
 73
     1
 44
0.96
  0
POINT
  5
99AF
330
99A7
100
AcDbEntity
  8
Defpoints
 62
     0
100
AcDbPoint
 10
146.9502366434997
 20
180.0011351859205
 30
0.0
  0
POINT
  5
99B0
330
99A7
100
AcDbEntity
  8
Defpoints
 62
     0
100
AcDbPoint
 10
246.9502366434992
 20
176.5163348389444
 30
0.0
  0
POINT
  5
99B1
330
99A7
100
AcDbEntity
  8
Defpoints
 62
     0
100
AcDbPoint
 10
246.9502366434992
 20
232.7226927935046
 30
0.0
  0
ENDBLK
  5
99B2
330
99A7
100
AcDbEntity
  8
0
100
AcDbBlockEnd
  0
BLOCK
  5
99B5
330
99B4
100
AcDbEntity
  8
0
100
AcDbBlockBegin
  2
*D24
 70
     1
 10
0.0
 20
0.0
 30
0.0
  3
*D24
  1

  0
LINE
  5
99B6
330
99B4
100
AcDbEntity
  8
DIM
  6
Continuous
 62
     0
370
    -2
100
AcDbLine
 10
246.9502366434997
 20
217.5011351859205
 30
0.0
 11
246.9502366434997
 21
232.7226927935046
 31
0.0
  0
LINE
  5
99B7
330
99B4
100
AcDbEntity
  8
DIM
  6
Continuous
 62
     0
370
    -2
100
AcDbLine
 10
346.9502366434997
 20
180.0011351859205
 30
0.0
 11
346.9502366434997
 21
232.7226927935046
 31
0.0
  0
LINE
  5
99B8
330
99B4
100
AcDbEntity
  8
DIM
  6
Continuous
 62
     0
370
    -2
100
AcDbLine
 10
255.9502366434997
 20
232.7226927935046
 30
0.0
 11
337.9502366434997
 21
232.7226927935046
 31
0.0
  0
INSERT
  5
99B9
330
99B4
100
AcDbEntity
  8
DIM
 62
     0
370
    -2
100
AcDbBlockReference
  2
_DOT
 10
246.9502366434997
 20
232.7226927935046
 30
0.0
 41
9.0
 42
9.0
 43
9.0
 50
180.0
  0
INSERT
  5
99BA
330
99B4
100
AcDbEntity
  8
DIM
 62
     0
370
    -2
100
AcDbBlockReference
  2
_DOT
 10
346.9502366434997
 20
232.7226927935046
 30
0.0
 41
9.0
 42
9.0
 43
9.0
  0
MTEXT
  5
99BB
330
99B4
100
AcDbEntity
  8
DIM
  6
Continuous
 62
     0
100
AcDbMText
 10
296.9502366434997
 20
254.9390013872546
 30
0.0
 40
24.4326171875
 41
0.0
 46
0.0
 71
     5
 72
     1
  1
\A1;\A1;50
  7
ＭＳ ゴシック
 73
     1
 44
0.96
  0
POINT
  5
99BC
330
99B4
100
AcDbEntity
  8
Defpoints
 62
     0
100
AcDbPoint
 10
246.9502366434997
 20
217.5011351859205
 30
0.0
  0
POINT
  5
99BD
330
99B4
100
AcDbEntity
  8
Defpoints
 62
     0
100
AcDbPoint
 10
346.9502366434997
 20
180.0011351859205
 30
0.0
  0
POINT
  5
99BE
330
99B4
100
AcDbEntity
  8
Defpoints
 62
     0
100
AcDbPoint
 10
346.9502366434997
 20
232.7226927935046
 30
0.0
  0
ENDBLK
  5
99BF
330
99B4
100
AcDbEntity
  8
0
100
AcDbBlockEnd
  0
BLOCK
  5
99C2
330
99C1
100
AcDbEntity
  8
0
100
AcDbBlockBegin
  2
*D25
 70
     1
 10
0.0
 20
0.0
 30
0.0
  3
*D25
  1

  0
LINE
  5
99C3
330
99C1
100
AcDbEntity
  8
DIM
  6
Continuous
 62
     0
370
    -2
100
AcDbLine
 10
610.2857407459003
 20
114.4999999999995
 30
0.0
 11
687.5205582449496
 21
114.4999999999995
 31
0.0
  0
LINE
  5
99C4
330
99C1
100
AcDbEntity
  8
DIM
  6
Continuous
 62
     0
370
    -2
100
AcDbLine
 10
610.2857407459003
 20
54.49999999999955
 30
0.0
 11
687.5205582449496
 21
54.49999999999955
 31
0.0
  0
LINE
  5
99C5
330
99C1
100
AcDbEntity
  8
DIM
  6
Continuous
 62
     0
370
    -2
100
AcDbLine
 10
687.5205582449496
 20
105.4999999999995
 30
0.0
 11
687.5205582449496
 21
63.49999999999955
 31
0.0
  0
INSERT
  5
99C6
330
99C1
100
AcDbEntity
  8
DIM
 62
     0
370
    -2
100
AcDbBlockReference
  2
_DOT
 10
687.5205582449496
 20
114.4999999999995
 30
0.0
 41
9.0
 42
9.0
 43
9.0
 50
90.0
  0
INSERT
  5
99C7
330
99C1
100
AcDbEntity
  8
DIM
 62
     0
370
    -2
100
AcDbBlockReference
  2
_DOT
 10
687.5205582449496
 20
54.49999999999955
 30
0.0
 41
9.0
 42
9.0
 43
9.0
 50
270.0
  0
MTEXT
  5
99C8
330
99C1
100
AcDbEntity
  8
DIM
  6
Continuous
 62
     0
100
AcDbMText
 10
665.3042496511996
 20
84.49999999999955
 30
0.0
 40
24.4326171875
 41
0.0
 46
0.0
 71
     5
 72
     1
  1
\A1;\A1;30
  7
ＭＳ ゴシック
 11
0.0
 21
1.0
 31
0.0
 73
     1
 44
0.96
  0
POINT
  5
99C9
330
99C1
100
AcDbEntity
  8
Defpoints
 62
     0
100
AcDbPoint
 10
610.2857407459003
 20
114.4999999999995
 30
0.0
  0
POINT
  5
99CA
330
99C1
100
AcDbEntity
  8
Defpoints
 62
     0
100
AcDbPoint
 10
610.2857407459003
 20
54.49999999999955
 30
0.0
  0
POINT
  5
99CB
330
99C1
100
AcDbEntity
  8
Defpoints
 62
     0
100
AcDbPoint
 10
687.5205582449496
 20
54.49999999999954
 30
0.0
  0
ENDBLK
  5
99CC
330
99C1
100
AcDbEntity
  8
0
100
AcDbBlockEnd
  0
BLOCK
  5
99CF
330
99CE
100
AcDbEntity
  8
0
100
AcDbBlockBegin
  2
*D26
 70
     1
 10
0.0
 20
0.0
 30
0.0
  3
*D26
  1

  0
LINE
  5
99D0
330
99CE
100
AcDbEntity
  8
DIM
  6
Continuous
 62
     0
370
    -2
100
AcDbLine
 10
92.00173718750034
 20
4.5
 30
0.0
 11
34.43261718750023
 21
4.5
 31
0.0
  0
LINE
  5
99D1
330
99CE
100
AcDbEntity
  8
DIM
  6
Continuous
 62
     0
370
    -2
100
AcDbLine
 10
92.00173718750034
 20
164.5000000000002
 30
0.0
 11
34.43261718750023
 21
164.5000000000002
 31
0.0
  0
LINE
  5
99D2
330
99CE
100
AcDbEntity
  8
DIM
  6
Continuous
 62
     0
370
    -2
100
AcDbLine
 10
34.43261718750023
 20
13.5
 30
0.0
 11
34.43261718750023
 21
155.5000000000002
 31
0.0
  0
INSERT
  5
99D3
330
99CE
100
AcDbEntity
  8
DIM
 62
     0
370
    -2
100
AcDbBlockReference
  2
_DOT
 10
34.43261718750023
 20
4.5
 30
0.0
 41
9.0
 42
9.0
 43
9.0
 50
270.0
  0
INSERT
  5
99D4
330
99CE
100
AcDbEntity
  8
DIM
 62
     0
370
    -2
100
AcDbBlockReference
  2
_DOT
 10
34.43261718750023
 20
164.5000000000002
 30
0.0
 41
9.0
 42
9.0
 43
9.0
 50
90.0
  0
MTEXT
  5
99D5
330
99CE
100
AcDbEntity
  8
DIM
  6
Continuous
 62
     0
100
AcDbMText
 10
12.21630859375023
 20
84.5
 30
0.0
 40
24.4326171875
 41
0.0
 46
0.0
 71
     5
 72
     1
  1
\A1;\A1;80
  7
ＭＳ ゴシック
 11
4.440892098500620E-17
 21
1.0
 31
0.0
 73
     1
 44
0.96
  0
POINT
  5
99D6
330
99CE
100
AcDbEntity
  8
Defpoints
 62
     0
100
AcDbPoint
 10
92.00173718750034
 20
4.5
 30
0.0
  0
POINT
  5
99D7
330
99CE
100
AcDbEntity
  8
Defpoints
 62
     0
100
AcDbPoint
 10
92.00173718750034
 20
164.5000000000002
 30
0.0
  0
POINT
  5
99D8
330
99CE
100
AcDbEntity
  8
Defpoints
 62
     0
100
AcDbPoint
 10
34.43261718750023
 20
164.5000000000002
 30
0.0
  0
ENDBLK
  5
99D9
330
99CE
100
AcDbEntity
  8
0
100
AcDbBlockEnd
  0
BLOCK
  5
99DC
330
99DB
100
AcDbEntity
  8
0
100
AcDbBlockBegin
  2
*D27
 70
     1
 10
0.0
 20
0.0
 30
0.0
  3
*D27
  1

  0
LINE
  5
99DD
330
99DB
100
AcDbEntity
  8
DIM
  6
Continuous
 62
     0
370
    -2
100
AcDbLine
 10
106.9502366435001
 20
176.4961708134399
 30
0.0
 11
106.9502366435001
 21
287.7331707915848
 31
0.0
  0
LINE
  5
99DE
330
99DB
100
AcDbEntity
  8
DIM
  6
Continuous
 62
     0
370
    -2
100
AcDbLine
 10
386.9502366435001
 20
176.4961708134399
 30
0.0
 11
386.9502366435001
 21
287.7331707915848
 31
0.0
  0
LINE
  5
99DF
330
99DB
100
AcDbEntity
  8
DIM
  6
Continuous
 62
     0
370
    -2
100
AcDbLine
 10
115.9502366435001
 20
287.7331707915848
 30
0.0
 11
377.9502366435001
 21
287.7331707915848
 31
0.0
  0
INSERT
  5
99E0
330
99DB
100
AcDbEntity
  8
DIM
 62
     0
370
    -2
100
AcDbBlockReference
  2
_DOT
 10
106.9502366435001
 20
287.7331707915848
 30
0.0
 41
9.0
 42
9.0
 43
9.0
 50
180.0
  0
INSERT
  5
99E1
330
99DB
100
AcDbEntity
  8
DIM
 62
     0
370
    -2
100
AcDbBlockReference
  2
_DOT
 10
386.9502366435001
 20
287.7331707915848
 30
0.0
 41
9.0
 42
9.0
 43
9.0
  0
MTEXT
  5
99E2
330
99DB
100
AcDbEntity
  8
DIM
  6
Continuous
 62
     0
100
AcDbMText
 10
246.9502366434992
 20
309.9494793853348
 30
0.0
 40
24.4326171875
 41
0.0
 46
0.0
 71
     5
 72
     1
  1
\A1;\A1;140
  7
ＭＳ ゴシック
 73
     1
 44
0.96
  0
POINT
  5
99E3
330
99DB
100
AcDbEntity
  8
Defpoints
 62
     0
100
AcDbPoint
 10
106.9502366435001
 20
176.4961708134399
 30
0.0
  0
POINT
  5
99E4
330
99DB
100
AcDbEntity
  8
Defpoints
 62
     0
100
AcDbPoint
 10
386.9502366435001
 20
176.4961708134399
 30
0.0
  0
POINT
  5
99E5
330
99DB
100
AcDbEntity
  8
Defpoints
 62
     0
100
AcDbPoint
 10
386.9502366435001
 20
287.7331707915848
 30
0.0
  0
ENDBLK
  5
99E6
330
99DB
100
AcDbEntity
  8
0
100
AcDbBlockEnd
  0
BLOCK
  5
9A13
330
9A12
100
AcDbEntity
  8
0
100
AcDbBlockBegin
  2
*D28
 70
     1
 10
0.0
 20
0.0
 30
0.0
  3
*D28
  1

  0
LINE
  5
9A15
330
9A12
100
AcDbEntity
  8
DIM
  6
Continuous
 62
     0
370
    -2
100
AcDbLine
 10
1719.795926643498
 20
2124.0904742656
 30
0.0
 11
1719.795926643498
 21
2176.610444265597
 31
0.0
  0
LINE
  5
9A16
330
9A12
100
AcDbEntity
  8
DIM
  6
Continuous
 62
     0
370
    -2
100
AcDbLine
 10
1785.795926643502
 20
2124.0904742656
 30
0.0
 11
1785.795926643502
 21
2176.610444265597
 31
0.0
  0
LINE
  5
9A17
330
9A12
100
AcDbEntity
  8
DIM
  6
Continuous
 62
     0
370
    -2
100
AcDbLine
 10
1728.795926643498
 20
2176.610444265597
 30
0.0
 11
1776.795926643502
 21
2176.610444265597
 31
0.0
  0
INSERT
  5
9A18
330
9A12
100
AcDbEntity
  8
DIM
 62
     0
370
    -2
100
AcDbBlockReference
  2
_DOT
 10
1719.795926643498
 20
2176.610444265597
 30
0.0
 41
9.0
 42
9.0
 43
9.0
 50
180.0
  0
INSERT
  5
9A19
330
9A12
100
AcDbEntity
  8
DIM
 62
     0
370
    -2
100
AcDbBlockReference
  2
_DOT
 10
1785.795926643502
 20
2176.610444265597
 30
0.0
 41
9.0
 42
9.0
 43
9.0
  0
MTEXT
  5
9A1A
330
9A12
100
AcDbEntity
  8
DIM
  6
Continuous
 62
     0
100
AcDbMText
 10
1751.044182585676
 20
2198.826752859347
 30
0.0
 40
24.4326171875
 41
0.0
 46
0.0
 71
     5
 72
     1
  1
\A1;\A1;33
  7
ＭＳ ゴシック
 73
     1
 44
0.96
  0
POINT
  5
9A1B
330
9A12
100
AcDbEntity
  8
Defpoints
 62
     0
100
AcDbPoint
 10
1719.795926643498
 20
2124.0904742656
 30
0.0
  0
POINT
  5
9A1C
330
9A12
100
AcDbEntity
  8
Defpoints
 62
     0
100
AcDbPoint
 10
1785.795926643502
 20
2124.0904742656
 30
0.0
  0
POINT
  5
9A1D
330
9A12
100
AcDbEntity
  8
Defpoints
 62
     0
100
AcDbPoint
 10
1785.795926643502
 20
2176.610444265597
 30
0.0
  0
ENDBLK
  5
9A14
330
9A12
100
AcDbEntity
  8
0
100
AcDbBlockEnd
  0
BLOCK
  5
9A1F
330
9A1E
100
AcDbEntity
  8
0
100
AcDbBlockBegin
  2
*D29
 70
     1
 10
0.0
 20
0.0
 30
0.0
  3
*D29
  1

  0
LINE
  5
9A21
330
9A1E
100
AcDbEntity
  8
DIM
  6
Continuous
 62
     0
370
    -2
100
AcDbLine
 10
1355.1027366435
 20
2119.411135185921
 30
0.0
 11
1355.1027366435
 21
2172.132692793505
 31
0.0
  0
LINE
  5
9A22
330
9A1E
100
AcDbEntity
  8
DIM
  6
Continuous
 62
     0
370
    -2
100
AcDbLine
 10
1455.102736643499
 20
2115.926334838945
 30
0.0
 11
1455.102736643499
 21
2172.132692793505
 31
0.0
  0
LINE
  5
9A23
330
9A1E
100
AcDbEntity
  8
DIM
  6
Continuous
 62
     0
370
    -2
100
AcDbLine
 10
1364.1027366435
 20
2172.132692793505
 30
0.0
 11
1446.102736643499
 21
2172.132692793505
 31
0.0
  0
INSERT
  5
9A24
330
9A1E
100
AcDbEntity
  8
DIM
 62
     0
370
    -2
100
AcDbBlockReference
  2
_DOT
 10
1355.1027366435
 20
2172.132692793505
 30
0.0
 41
9.0
 42
9.0
 43
9.0
 50
180.0
  0
INSERT
  5
9A25
330
9A1E
100
AcDbEntity
  8
DIM
 62
     0
370
    -2
100
AcDbBlockReference
  2
_DOT
 10
1455.102736643499
 20
2172.132692793505
 30
0.0
 41
9.0
 42
9.0
 43
9.0
  0
MTEXT
  5
9A26
330
9A1E
100
AcDbEntity
  8
DIM
  6
Continuous
 62
     0
100
AcDbMText
 10
1405.1027366435
 20
2194.349001387255
 30
0.0
 40
24.4326171875
 41
0.0
 46
0.0
 71
     5
 72
     1
  1
\A1;\A1;50
  7
ＭＳ ゴシック
 73
     1
 44
0.96
  0
POINT
  5
9A27
330
9A1E
100
AcDbEntity
  8
Defpoints
 62
     0
100
AcDbPoint
 10
1355.1027366435
 20
2119.411135185921
 30
0.0
  0
POINT
  5
9A28
330
9A1E
100
AcDbEntity
  8
Defpoints
 62
     0
100
AcDbPoint
 10
1455.102736643499
 20
2115.926334838945
 30
0.0
  0
POINT
  5
9A29
330
9A1E
100
AcDbEntity
  8
Defpoints
 62
     0
100
AcDbPoint
 10
1455.102736643499
 20
2172.132692793505
 30
0.0
  0
ENDBLK
  5
9A20
330
9A1E
100
AcDbEntity
  8
0
100
AcDbBlockEnd
  0
BLOCK
  5
9A2B
330
9A2A
100
AcDbEntity
  8
0
100
AcDbBlockBegin
  2
*D30
 70
     1
 10
0.0
 20
0.0
 30
0.0
  3
*D30
  1

  0
LINE
  5
9A2D
330
9A2A
100
AcDbEntity
  8
DIM
  6
Continuous
 62
     0
370
    -2
100
AcDbLine
 10
1455.1027366435
 20
2156.911135185921
 30
0.0
 11
1455.1027366435
 21
2172.132692793505
 31
0.0
  0
LINE
  5
9A2E
330
9A2A
100
AcDbEntity
  8
DIM
  6
Continuous
 62
     0
370
    -2
100
AcDbLine
 10
1555.1027366435
 20
2119.411135185921
 30
0.0
 11
1555.1027366435
 21
2172.132692793505
 31
0.0
  0
LINE
  5
9A2F
330
9A2A
100
AcDbEntity
  8
DIM
  6
Continuous
 62
     0
370
    -2
100
AcDbLine
 10
1464.1027366435
 20
2172.132692793505
 30
0.0
 11
1546.1027366435
 21
2172.132692793505
 31
0.0
  0
INSERT
  5
9A30
330
9A2A
100
AcDbEntity
  8
DIM
 62
     0
370
    -2
100
AcDbBlockReference
  2
_DOT
 10
1455.1027366435
 20
2172.132692793505
 30
0.0
 41
9.0
 42
9.0
 43
9.0
 50
180.0
  0
INSERT
  5
9A31
330
9A2A
100
AcDbEntity
  8
DIM
 62
     0
370
    -2
100
AcDbBlockReference
  2
_DOT
 10
1555.1027366435
 20
2172.132692793505
 30
0.0
 41
9.0
 42
9.0
 43
9.0
  0
MTEXT
  5
9A32
330
9A2A
100
AcDbEntity
  8
DIM
  6
Continuous
 62
     0
100
AcDbMText
 10
1505.1027366435
 20
2194.349001387255
 30
0.0
 40
24.4326171875
 41
0.0
 46
0.0
 71
     5
 72
     1
  1
\A1;\A1;50
  7
ＭＳ ゴシック
 73
     1
 44
0.96
  0
POINT
  5
9A33
330
9A2A
100
AcDbEntity
  8
Defpoints
 62
     0
100
AcDbPoint
 10
1455.1027366435
 20
2156.911135185921
 30
0.0
  0
POINT
  5
9A34
330
9A2A
100
AcDbEntity
  8
Defpoints
 62
     0
100
AcDbPoint
 10
1555.1027366435
 20
2119.411135185921
 30
0.0
  0
POINT
  5
9A35
330
9A2A
100
AcDbEntity
  8
Defpoints
 62
     0
100
AcDbPoint
 10
1555.1027366435
 20
2172.132692793505
 30
0.0
  0
ENDBLK
  5
9A2C
330
9A2A
100
AcDbEntity
  8
0
100
AcDbBlockEnd
  0
BLOCK
  5
9A37
330
9A36
100
AcDbEntity
  8
0
100
AcDbBlockBegin
  2
*D31
 70
     1
 10
0.0
 20
0.0
 30
0.0
  3
*D31
  1

  0
LINE
  5
9A39
330
9A36
100
AcDbEntity
  8
DIM
  6
Continuous
 62
     0
370
    -2
100
AcDbLine
 10
1818.4382407459
 20
2053.909999999999
 30
0.0
 11
1895.67305824495
 21
2053.909999999999
 31
0.0
  0
LINE
  5
9A3A
330
9A36
100
AcDbEntity
  8
DIM
  6
Continuous
 62
     0
370
    -2
100
AcDbLine
 10
1818.4382407459
 20
1993.909999999999
 30
0.0
 11
1895.67305824495
 21
1993.909999999999
 31
0.0
  0
LINE
  5
9A3B
330
9A36
100
AcDbEntity
  8
DIM
  6
Continuous
 62
     0
370
    -2
100
AcDbLine
 10
1895.67305824495
 20
2044.909999999999
 30
0.0
 11
1895.67305824495
 21
2002.909999999999
 31
0.0
  0
INSERT
  5
9A3C
330
9A36
100
AcDbEntity
  8
DIM
 62
     0
370
    -2
100
AcDbBlockReference
  2
_DOT
 10
1895.67305824495
 20
2053.909999999999
 30
0.0
 41
9.0
 42
9.0
 43
9.0
 50
90.0
  0
INSERT
  5
9A3D
330
9A36
100
AcDbEntity
  8
DIM
 62
     0
370
    -2
100
AcDbBlockReference
  2
_DOT
 10
1895.67305824495
 20
1993.909999999999
 30
0.0
 41
9.0
 42
9.0
 43
9.0
 50
270.0
  0
MTEXT
  5
9A3E
330
9A36
100
AcDbEntity
  8
DIM
  6
Continuous
 62
     0
100
AcDbMText
 10
1873.4567496512
 20
2023.909999999999
 30
0.0
 40
24.4326171875
 41
0.0
 46
0.0
 71
     5
 72
     1
  1
\A1;\A1;30
  7
ＭＳ ゴシック
 11
0.0
 21
1.0
 31
0.0
 73
     1
 44
0.96
  0
POINT
  5
9A3F
330
9A36
100
AcDbEntity
  8
Defpoints
 62
     0
100
AcDbPoint
 10
1818.4382407459
 20
2053.909999999999
 30
0.0
  0
POINT
  5
9A40
330
9A36
100
AcDbEntity
  8
Defpoints
 62
     0
100
AcDbPoint
 10
1818.4382407459
 20
1993.909999999999
 30
0.0
  0
POINT
  5
9A41
330
9A36
100
AcDbEntity
  8
Defpoints
 62
     0
100
AcDbPoint
 10
1895.67305824495
 20
1993.909999999999
 30
0.0
  0
ENDBLK
  5
9A38
330
9A36
100
AcDbEntity
  8
0
100
AcDbBlockEnd
  0
BLOCK
  5
9A43
330
9A42
100
AcDbEntity
  8
0
100
AcDbBlockBegin
  2
*D32
 70
     1
 10
0.0
 20
0.0
 30
0.0
  3
*D32
  1

  0
LINE
  5
9A45
330
9A42
100
AcDbEntity
  8
DIM
  6
Continuous
 62
     0
370
    -2
100
AcDbLine
 10
1300.1542371875
 20
1943.91
 30
0.0
 11
1242.5851171875
 21
1943.91
 31
0.0
  0
LINE
  5
9A46
330
9A42
100
AcDbEntity
  8
DIM
  6
Continuous
 62
     0
370
    -2
100
AcDbLine
 10
1300.1542371875
 20
2103.91
 30
0.0
 11
1242.5851171875
 21
2103.91
 31
0.0
  0
LINE
  5
9A47
330
9A42
100
AcDbEntity
  8
DIM
  6
Continuous
 62
     0
370
    -2
100
AcDbLine
 10
1242.5851171875
 20
1952.91
 30
0.0
 11
1242.5851171875
 21
2094.91
 31
0.0
  0
INSERT
  5
9A48
330
9A42
100
AcDbEntity
  8
DIM
 62
     0
370
    -2
100
AcDbBlockReference
  2
_DOT
 10
1242.5851171875
 20
1943.91
 30
0.0
 41
9.0
 42
9.0
 43
9.0
 50
270.0
  0
INSERT
  5
9A49
330
9A42
100
AcDbEntity
  8
DIM
 62
     0
370
    -2
100
AcDbBlockReference
  2
_DOT
 10
1242.5851171875
 20
2103.91
 30
0.0
 41
9.0
 42
9.0
 43
9.0
 50
90.0
  0
MTEXT
  5
9A4A
330
9A42
100
AcDbEntity
  8
DIM
  6
Continuous
 62
     0
100
AcDbMText
 10
1220.36880859375
 20
2023.91
 30
0.0
 40
24.4326171875
 41
0.0
 46
0.0
 71
     5
 72
     1
  1
\A1;\A1;80
  7
ＭＳ ゴシック
 11
0.0
 21
1.0
 31
0.0
 73
     1
 44
0.96
  0
POINT
  5
9A4B
330
9A42
100
AcDbEntity
  8
Defpoints
 62
     0
100
AcDbPoint
 10
1300.1542371875
 20
1943.91
 30
0.0
  0
POINT
  5
9A4C
330
9A42
100
AcDbEntity
  8
Defpoints
 62
     0
100
AcDbPoint
 10
1300.1542371875
 20
2103.91
 30
0.0
  0
POINT
  5
9A4D
330
9A42
100
AcDbEntity
  8
Defpoints
 62
     0
100
AcDbPoint
 10
1242.5851171875
 20
2103.91
 30
0.0
  0
ENDBLK
  5
9A44
330
9A42
100
AcDbEntity
  8
0
100
AcDbBlockEnd
  0
BLOCK
  5
9A4F
330
9A4E
100
AcDbEntity
  8
0
100
AcDbBlockBegin
  2
*D33
 70
     1
 10
0.0
 20
0.0
 30
0.0
  3
*D33
  1

  0
LINE
  5
9A51
330
9A4E
100
AcDbEntity
  8
DIM
  6
Continuous
 62
     0
370
    -2
100
AcDbLine
 10
1315.1027366435
 20
2115.90617081344
 30
0.0
 11
1315.1027366435
 21
2227.143170791585
 31
0.0
  0
LINE
  5
9A52
330
9A4E
100
AcDbEntity
  8
DIM
  6
Continuous
 62
     0
370
    -2
100
AcDbLine
 10
1595.1027366435
 20
2115.90617081344
 30
0.0
 11
1595.1027366435
 21
2227.143170791585
 31
0.0
  0
LINE
  5
9A53
330
9A4E
100
AcDbEntity
  8
DIM
  6
Continuous
 62
     0
370
    -2
100
AcDbLine
 10
1324.1027366435
 20
2227.143170791585
 30
0.0
 11
1586.1027366435
 21
2227.143170791585
 31
0.0
  0
INSERT
  5
9A54
330
9A4E
100
AcDbEntity
  8
DIM
 62
     0
370
    -2
100
AcDbBlockReference
  2
_DOT
 10
1315.1027366435
 20
2227.143170791585
 30
0.0
 41
9.0
 42
9.0
 43
9.0
 50
180.0
  0
INSERT
  5
9A55
330
9A4E
100
AcDbEntity
  8
DIM
 62
     0
370
    -2
100
AcDbBlockReference
  2
_DOT
 10
1595.1027366435
 20
2227.143170791585
 30
0.0
 41
9.0
 42
9.0
 43
9.0
  0
MTEXT
  5
9A56
330
9A4E
100
AcDbEntity
  8
DIM
  6
Continuous
 62
     0
100
AcDbMText
 10
1455.102736643499
 20
2249.359479385335
 30
0.0
 40
24.4326171875
 41
0.0
 46
0.0
 71
     5
 72
     1
  1
\A1;\A1;140
  7
ＭＳ ゴシック
 73
     1
 44
0.96
  0
POINT
  5
9A57
330
9A4E
100
AcDbEntity
  8
Defpoints
 62
     0
100
AcDbPoint
 10
1315.1027366435
 20
2115.90617081344
 30
0.0
  0
POINT
  5
9A58
330
9A4E
100
AcDbEntity
  8
Defpoints
 62
     0
100
AcDbPoint
 10
1595.1027366435
 20
2115.90617081344
 30
0.0
  0
POINT
  5
9A59
330
9A4E
100
AcDbEntity
  8
Defpoints
 62
     0
100
AcDbPoint
 10
1595.1027366435
 20
2227.143170791585
 30
0.0
  0
ENDBLK
  5
9A50
330
9A4E
100
AcDbEntity
  8
0
100
AcDbBlockEnd
  0
ENDSEC
  0
SECTION
  2
ENTITIES
  0
POINT
  5
3B96
330
A
100
AcDbEntity
  8
_0-7_
 62
     9
100
AcDbPoint
 10
5611.355377587607
 20
1006.191153304715
 30
0.0
  0
MTEXT
  5
7B98
330
A
100
AcDbEntity
  8
MODEL
390
1D
100
AcDbMText
 10
79.2547055326859
 20
348.784871976226
 30
0.0
 40
16.28841145833333
 41
0.0
 46
0.0
 71
     1
 72
     1
  1
品名
  7
ＭＳ ゴシック
 73
     1
 44
0.7828267384257843
  0
MTEXT
  5
7B99
330
A
100
AcDbEntity
  8
MODEL
390
1D
100
AcDbMText
 10
79.2547055326859
 20
263.784871976226
 30
0.0
 40
16.28841145833333
 41
0.0
 46
0.0
 71
     1
 72
     1
  1
仕様
  7
ＭＳ ゴシック
 73
     1
 44
0.7828267384257843
  0
LINE
  5
7B9A
330
A
100
AcDbEntity
  8
MODEL
390
1D
100
AcDbLine
 10
2022.254705532204
 20
272.1997938512268
 30
0.0
 11
72.25470553220384
 21
272.1997938512268
 31
0.0
  0
LWPOLYLINE
  5
7B9B
330
A
100
AcDbEntity
  8
MODEL
390
1D
100
AcDbPolyline
 90
        5
 70
   128
 43
0.0
 10
2022.254705532204
 20
2902.199793851227
 10
72.25470553220384
 20
2902.199793851227
 10
72.25470553220384
 20
102.1997938512268
 10
2022.254705532204
 20
102.1997938512268
 10
2022.254705532204
 20
2902.199793851227
  0
LINE
  5
7B9C
330
A
100
AcDbEntity
  8
MODEL
390
1D
100
AcDbLine
 10
2022.254705532204
 20
357.1997938512268
 30
0.0
 11
72.25470553220384
 21
357.1997938512268
 31
0.0
  0
LINE
  5
7B9D
330
A
100
AcDbEntity
  8
MODEL
390
1D
100
AcDbLine
 10
2022.254705532686
 20
187.1997938512268
 30
0.0
 11
1269.254705532686
 21
187.1997938512268
 31
0.0
  0
MTEXT
  5
7B9E
330
A
100
AcDbEntity
  8
MODEL
390
1D
100
AcDbMText
 10
72.2547055328896
 20
90.34597179436969
 30
0.0
 40
21.71788194444445
 41
0.0
 46
21.71788194444445
 71
     1
 72
     1
  1
{160122N}
  7
ＭＳ ゴシック
 73
     1
 44
0.7828267384257843
1001
ACAD
1000
ACAD_MTEXT_DEFINED_HEIGHT_BEGIN
1070
    46
1040
21.71788194444445
1000
ACAD_MTEXT_DEFINED_HEIGHT_END
  0
MTEXT
  5
7B9F
330
A
100
AcDbEntity
  8
MODEL
390
1D
100
AcDbMText
 10
1299.126111784947
 20
157.289399377918
 30
0.0
 40
24.4326171875
 41
0.0
 46
0.0
 71
     1
 72
     1
  1
大洋金物株式会社 ティーフォルム事業部
  7
ＭＳ ゴシック
 73
     1
 44
0.7828267384257843
  0
MTEXT
  5
7BA0
330
A
100
AcDbEntity
  8
MODEL
390
1D
100
AcDbMText
 10
1831.254705532946
 20
235.2024110387265
 30
0.0
 40
24.4326171875
 41
0.0
 46
24.4326171875
 71
     1
 72
     1
  1
{1:10}
  7
ＭＳ ゴシック
 73
     1
 44
0.7828267384257843
1001
ACAD
1000
ACAD_MTEXT_DEFINED_HEIGHT_BEGIN
1070
    46
1040
24.4326171875
1000
ACAD_MTEXT_DEFINED_HEIGHT_END
  0
MTEXT
  5
7BA1
330
A
100
AcDbEntity
  8
MODEL
390
1D
100
AcDbMText
 10
1778.254705532946
 20
263.784871976226
 30
0.0
 40
16.28841145833333
 41
0.0
 46
0.0
 71
     1
 72
     1
  1
縮尺
  7
ＭＳ ゴシック
 73
     1
 44
0.7828267384257843
  0
LINE
  5
7BA2
330
A
100
AcDbEntity
  8
MODEL
390
1D
100
AcDbLine
 10
1771.254705532946
 20
187.1997938512268
 30
0.0
 11
1771.254705532946
 21
272.1997938512268
 31
0.0
  0
MTEXT
  5
7BA3
330
A
100
AcDbEntity
  8
MODEL
390
1D
100
AcDbMText
 10
1527.254705532946
 20
263.784871976226
 30
0.0
 40
16.28841145833333
 41
0.0
 46
0.0
 71
     1
 72
     1
  1
容量
  7
ＭＳ ゴシック
 73
     1
 44
0.7828267384257843
  0
LINE
  5
7BA4
330
A
100
AcDbEntity
  8
MODEL
390
1D
100
AcDbLine
 10
1520.254705532946
 20
187.1997938512268
 30
0.0
 11
1520.254705532946
 21
272.1997938512268
 31
0.0
  0
MTEXT
  5
7BA5
330
A
100
AcDbEntity
  8
MODEL
390
1D
100
AcDbMText
 10
1276.254705532946
 20
348.784871976226
 30
0.0
 40
16.28841145833333
 41
0.0
 46
0.0
 71
     1
 72
     1
  1
品番
  7
ＭＳ ゴシック
 73
     1
 44
0.7828267384257843
  0
MTEXT
  5
7BA6
330
A
100
AcDbEntity
  8
MODEL
390
1D
100
AcDbMText
 10
1276.254705532946
 20
263.784871976226
 30
0.0
 40
16.28841145833333
 41
0.0
 46
0.0
 71
     1
 72
     1
  1
重量
  7
ＭＳ ゴシック
 73
     1
 44
0.7828267384257843
  0
MTEXT
  5
7BA7
330
A
100
AcDbEntity
  8
MODEL
390
1D
100
AcDbMText
 10
1329.254705532946
 20
320.2024110387265
 30
0.0
 40
24.4326171875
 41
0.0
 46
24.4326171875
 71
     1
 72
     1
  1
{FAA71-0410}
  7
ＭＳ ゴシック
 73
     1
 44
0.7828267384257843
1001
ACAD
1000
ACAD_MTEXT_DEFINED_HEIGHT_BEGIN
1070
    46
1040
24.4326171875
1000
ACAD_MTEXT_DEFINED_HEIGHT_END
  0
LINE
  5
7BA8
330
A
100
AcDbEntity
  8
MODEL
390
1D
100
AcDbLine
 10
1269.254705532946
 20
102.1997938512268
 30
0.0
 11
1269.254705532946
 21
357.1997938512268
 31
0.0
  0
MTEXT
  5
7BA9
330
A
100
AcDbEntity
  8
MODEL
390
1D
100
AcDbMText
 10
132.2547055326858
 20
320.2024110387265
 30
0.0
 40
24.4326171875
 41
0.0
 46
24.4326171875
 71
     1
 72
     1
  1
{壁掛便器 -DURAVIT,Starck2-}
  7
ＭＳ ゴシック
 73
     1
 44
0.7828267384257843
1001
ACAD
1000
ACAD_MTEXT_DEFINED_HEIGHT_BEGIN
1070
    46
1040
24.4326171875
1000
ACAD_MTEXT_DEFINED_HEIGHT_END
  0
MTEXT
  5
7BAA
330
A
100
AcDbEntity
  8
MODEL
390
1D
100
AcDbMText
 10
132.2547055326858
 20
237.2474089396837
 30
0.0
 40
24.4326171875
 41
0.0
 46
96.15049283854167
 71
     1
 72
     1
  1
{\pxsm1;ウォッシュダウン式/センソウォッシュ(温水洗浄便座),壁固定金具,\P\W0.945946;ワイヤレスリモコン\W1;付属/\P陶器/ホワイト}
  7
ＭＳ ゴシック
 73
     1
 44
1.304711230709641
1001
ACAD
1000
ACAD_MTEXT_DEFINED_HEIGHT_BEGIN
1070
    46
1040
96.15049283854167
1000
ACAD_MTEXT_DEFINED_HEIGHT_END
  0
INSERT
  5
7BAB
330
A
100
AcDbEntity
  8
MODEL
100
AcDbBlockReference
  2
名称未設定-1
 10
1870.813956087109
 20
30.99988610145192
 30
0.0
 41
0.762
 42
0.762
 43
0.762
  0
LWPOLYLINE
  5
7BAC
330
A
100
AcDbEntity
  8
TEMPLATE
  6
Continuous
100
AcDbPolyline
 90
        4
 70
     1
 43
0.0
 10
0.0
 20
0.0
 10
0.0
 20
2970.0
 10
2100.0
 20
2970.0
 10
2100.0
 20
0.0
  0
LINE
  5
7E90
330
A
100
AcDbEntity
  8
MODEL GRAY
  6
AM_DIN_F_W050
 48
3.0
100
AcDbLine
 10
872.1529558296919
 20
1185.560760978642
 30
0.0
 11
529.7560771213269
 21
1169.539753025546
 31
0.0
  0
ARC
  5
7E91
330
A
100
AcDbEntity
  8
MODEL GRAY
  6
AM_DIN_F_W050
 48
3.0
100
AcDbCircle
 10
507.7471380289093
 20
1227.580495501575
 30
0.0
 40
7.0
100
AcDbArc
 50
13.45562695896328
 51
90.0
1001
GENIUS_GENODEF_13
1002
{
1000
HIER
1070
     0
1002
}
1002
{
1000
MANEDIT
1070
     0
1002
}
1002
{
1000
NOSEL
1070
     0
1002
}
1002
{
1000
BEHIND
1070
     0
1002
}
1002
{
1000
OTHER
1070
     0
1002
}
1002
{
1000
REACTOR
1002
}
1001
GENIUS_GENOBJ-N-FIL_13
1002
{
1000
OWNER
1000
GEN
1002
}
  0
LINE
  5
7E92
330
A
100
AcDbEntity
  8
MODEL GRAY
  6
AM_DIN_F_W050
 48
3.0
100
AcDbLine
 10
523.3710040367781
 20
1179.031191375292
 30
0.0
 11
514.5549909819241
 21
1229.209341157282
 31
0.0
  0
ARC
  5
7E93
330
A
100
AcDbEntity
  8
MODEL GRAY
  6
AM_DIN_F_W050
 48
3.0
100
AcDbCircle
 10
516.5631510837624
 20
1177.402345719583
 30
0.0
 40
7.0
100
AcDbArc
 50
279.4381721005229
 51
13.45562695897852
1001
GENIUS_GENOBJ-N-FIL_13
1002
{
1000
OWNER
1000
GEN
1002
}
1001
GENIUS_GENODEF_13
1002
{
1000
HIER
1070
     0
1002
}
1002
{
1000
MANEDIT
1070
     0
1002
}
1002
{
1000
NOSEL
1070
     0
1002
}
1002
{
1000
BEHIND
1070
     0
1002
}
1002
{
1000
OTHER
1070
     0
1002
}
1002
{
1000
REACTOR
1002
}
  0
LINE
  5
7E94
330
A
100
AcDbEntity
  8
MODEL GRAY
  6
AM_DIN_F_W050
 48
3.0
100
AcDbLine
 10
508.8715950862264
 20
1156.981666889118
 30
0.0
 11
510.8960406108066
 21
1170.497103808193
 31
0.0
  0
ARC
  5
7E95
330
A
100
AcDbEntity
  8
MODEL GRAY
  6
AM_DIN_F_W050
 48
3.0
100
AcDbCircle
 10
709.1921679757401
 20
1290.445341542634
 30
0.0
 40
223.431813313225
100
AcDbArc
 50
269.0096584002863
 51
328.2813394973745
  0
ARC
  5
7E96
330
A
100
AcDbEntity
  8
MODEL GRAY
  6
AM_DIN_F_W050
 48
3.0
100
AcDbCircle
 10
704.9847263566156
 20
1047.049891363327
 30
0.0
 40
20.0
100
AcDbArc
 50
89.00965840028697
 51
170.0661622555127
1001
GENIUS_GENODEF_13
1002
{
1000
HIER
1070
     0
1002
}
1002
{
1000
MANEDIT
1070
     0
1002
}
1002
{
1000
NOSEL
1070
     0
1002
}
1002
{
1000
BEHIND
1070
     0
1002
}
1002
{
1000
OTHER
1070
     0
1002
}
1002
{
1000
REACTOR
1002
}
1001
GENIUS_GENOBJ-N-FIL_13
1002
{
1000
OWNER
1000
GEN
1002
}
  0
ARC
  5
7E97
330
A
100
AcDbEntity
  8
MODEL GRAY
  6
AM_DIN_F_W050
 48
3.0
100
AcDbCircle
 10
892.6016385442457
 20
1227.575209827853
 30
0.0
 40
6.999999999999979
100
AcDbArc
 50
90.0
 51
166.5443730410368
1001
GENIUS_GENODEF_13
1002
{
1000
HIER
1070
     0
1002
}
1002
{
1000
MANEDIT
1070
     0
1002
}
1002
{
1000
NOSEL
1070
     0
1002
}
1002
{
1000
BEHIND
1070
     0
1002
}
1002
{
1000
OTHER
1070
     0
1002
}
1002
{
1000
REACTOR
1002
}
1001
GENIUS_GENOBJ-N-FIL_13
1002
{
1000
OWNER
1000
GEN
1002
}
  0
LINE
  5
7E98
330
A
100
AcDbEntity
  8
MODEL GRAY
  6
AM_DIN_F_W050
 48
3.0
100
AcDbLine
 10
879.1879576540508
 20
1190.074374445084
 30
0.0
 11
885.79378559123
 21
1229.20405548356
 31
0.0
  0
ARC
  5
7E99
330
A
100
AcDbEntity
  8
MODEL GRAY
  6
AM_DIN_F_W050
 48
3.0
100
AcDbCircle
 10
885.9958106070666
 20
1188.445528789376
 30
0.0
 40
7.0
100
AcDbArc
 50
166.5443730410215
 51
260.5618278994771
1001
GENIUS_GENOBJ-N-FIL_13
1002
{
1000
OWNER
1000
GEN
1002
}
1001
GENIUS_GENODEF_13
1002
{
1000
HIER
1070
     0
1002
}
1002
{
1000
MANEDIT
1070
     0
1002
}
1002
{
1000
NOSEL
1070
     0
1002
}
1002
{
1000
BEHIND
1070
     0
1002
}
1002
{
1000
OTHER
1070
     0
1002
}
1002
{
1000
REACTOR
1002
}
  0
LINE
  5
7E9A
330
A
100
AcDbEntity
  8
MODEL GRAY
  6
AM_DIN_F_W050
 48
3.0
100
AcDbLine
 10
884.8479281456806
 20
1181.540286877985
 30
0.0
 11
913.6180908987129
 21
1172.976351351753
 31
0.0
  0
LINE
  5
7E9B
330
A
100
AcDbEntity
  8
MODEL GRAY
  6
AM_DIN_G_W050
 48
2.0
100
AcDbLine
 10
455.5816865835726
 20
1225.516121680846
 30
0.0
 11
455.5816865835726
 21
1240.732044572598
 31
0.0
  0
LINE
  5
7E9C
330
A
100
AcDbEntity
  8
MODEL GRAY
  6
AM_DIN_F_W050
 48
3.0
100
AcDbLine
 10
378.5376935798698
 20
1003.507762262117
 30
0.0
 11
330.8456274326703
 21
1003.507762262117
 31
0.0
  0
LINE
  5
7E9D
330
A
100
AcDbEntity
  8
MODEL GRAY
  6
AM_DIN_F_W050
 48
3.0
100
AcDbLine
 10
480.4347225987152
 20
1105.160151510237
 30
0.0
 11
330.8456274326703
 21
1105.507437355143
 31
0.0
  0
ARC
  5
7E9E
330
A
100
AcDbEntity
  8
MODEL GRAY
  6
AM_DIN_F_W050
 48
3.0
100
AcDbCircle
 10
556.3095302868063
 20
968.2395404673689
 30
0.0
 40
91.8317066255688
100
AcDbArc
 50
341.8158769261969
 51
4.342702974577706
  0
ARC
  5
7E9F
330
A
100
AcDbEntity
  8
MODEL GRAY
  6
AM_DIN_F_W050
 48
3.0
100
AcDbCircle
 10
400.3148569245899
 20
977.9881249549978
 30
0.0
 40
162.6606985099661
100
AcDbArc
 50
359.3015851140082
 51
41.38855048602997
  0
LINE
  5
7EA0
330
A
100
AcDbEntity
  8
MODEL GRAY
  6
AM_DIN_F_W050
 48
3.0
100
AcDbLine
 10
507.7987662557192
 20
992.8143707089109
 30
0.0
 11
516.0294497592698
 21
939.5814668934938
 31
0.0
  0
ARC
  5
7EA1
330
A
100
AcDbEntity
  8
MODEL GRAY
  6
AM_DIN_F_W050
 48
3.0
100
AcDbCircle
 10
597.6847635888438
 20
1157.3052122767
 30
0.0
 40
104.0507502199659
100
AcDbArc
 50
182.4663471072039
 51
223.6126167953769
1001
GENIUS_GENODEF_13
1002
{
1000
HIER
1070
     0
1002
}
1002
{
1000
MANEDIT
1070
     0
1002
}
1002
{
1000
NOSEL
1070
     0
1002
}
1002
{
1000
BEHIND
1070
     0
1002
}
1002
{
1000
OTHER
1070
     0
1002
}
1002
{
1000
REACTOR
1002
}
1001
GENIUS_GENOBJ-N-FIL_13
1002
{
1000
OWNER
1000
GEN
1002
}
  0
LINE
  5
7EA2
102
{ACAD_REACTORS
330
90CA
102
}
330
A
100
AcDbEntity
  8
MODEL GRAY
  6
CENTER2
100
AcDbLine
 10
479.1807562652533
 20
1054.579483174977
 30
0.0
 11
299.6031616515296
 21
1054.579483174977
 31
0.0
  0
ARC
  5
7EA3
330
A
100
AcDbEntity
  8
MODEL GRAY
  6
AM_DIN_F_W050
 48
3.0
100
AcDbCircle
 10
577.6106189086125
 20
1069.357755753091
 30
0.0
 40
109.3128147625259
100
AcDbArc
 50
314.2353405078666
 51
350.0661622555126
  0
ARC
  5
7EA4
330
A
100
AcDbEntity
  8
MODEL GRAY
  6
AM_DIN_F_W050
 48
3.0
100
AcDbCircle
 10
667.8201652155689
 20
976.7076515065198
 30
0.0
 40
20.0
100
AcDbArc
 50
134.235340507868
 51
184.3427029745757
1001
GENIUS_GENODEF_13
1002
{
1000
HIER
1070
     0
1002
}
1002
{
1000
MANEDIT
1070
     0
1002
}
1002
{
1000
NOSEL
1070
     0
1002
}
1002
{
1000
BEHIND
1070
     0
1002
}
1002
{
1000
OTHER
1070
     0
1002
}
1002
{
1000
REACTOR
1002
}
1001
GENIUS_GENOBJ-N-FIL_13
1002
{
1000
OWNER
1000
GEN
1002
}
  0
LINE
  5
7EA5
330
A
100
AcDbEntity
  8
MODEL GRAY
  6
AM_DIN_F_W050
 48
3.0
100
AcDbLine
 10
330.8456274326703
 20
1003.91300184599
 30
0.0
 11
330.8456274326703
 21
1105.507437355143
 31
0.0
  0
LINE
  5
7EA6
330
A
100
AcDbEntity
  8
MODEL GRAY
  6
AM_DIN_F_W050
 48
3.0
100
AcDbLine
 10
499.9292641280666
 20
1152.471659504069
 30
0.0
 11
371.6765988536703
 21
1159.83677909393
 31
0.0
  0
ARC
  5
7EA7
330
A
100
AcDbEntity
  8
MODEL GRAY
  6
AM_DIN_F_W050
 48
3.0
100
AcDbCircle
 10
500.5025859466772
 20
1162.455211081152
 30
0.0
 40
10.0
100
AcDbArc
 50
266.7133057201534
 51
326.8142962932493
1001
GENIUS_GENODEF_13
1002
{
1000
HIER
1070
     0
1002
}
1002
{
1000
MANEDIT
1070
     0
1002
}
1002
{
1000
NOSEL
1070
     0
1002
}
1002
{
1000
BEHIND
1070
     0
1002
}
1002
{
1000
OTHER
1070
     0
1002
}
1002
{
1000
REACTOR
1002
}
1001
GENIUS_GENOBJ-N-FIL_13
1002
{
1000
OWNER
1000
GEN
1002
}
  0
LINE
  5
7EA8
330
A
100
AcDbEntity
  8
MODEL GRAY
  6
AM_DIN_F_W050
 48
3.0
100
AcDbLine
 10
369.2765358405244
 20
1159.91201362156
 30
0.0
 11
330.8456274326703
 21
1159.889056568837
 31
0.0
  0
LINE
  5
7EA9
330
A
100
AcDbEntity
  8
MODEL GRAY
  6
AM_DIN_F_W050
 48
3.0
100
AcDbLine
 10
330.8456274326703
 20
1159.884849050114
 30
0.0
 11
330.8456274326703
 21
1217.348243451069
 31
0.0
  0
LINE
  5
7EAA
102
{ACAD_REACTORS
330
90BA
330
90CA
102
}
330
A
100
AcDbEntity
  8
MODEL GRAY
  6
CENTER2
100
AcDbLine
 10
399.0486742119859
 20
1190.068956186027
 30
0.0
 11
292.5525418570084
 21
1190.068956186027
 31
0.0
  0
LINE
  5
7EAB
330
A
100
AcDbEntity
  8
MODEL GRAY
  6
AM_DIN_F_W050
 48
3.0
100
AcDbLine
 10
305.5809843288065
 20
1217.350172322716
 30
0.0
 11
362.8268538945143
 21
1217.345801790579
 31
0.0
  0
LINE
  5
7EAC
330
A
100
AcDbEntity
  8
MODEL GRAY
  6
AM_DIN_F_W050
 48
3.0
100
AcDbLine
 10
362.8268538945143
 20
1217.345801790579
 30
0.0
 11
362.8268538945143
 21
1159.837454742584
 31
0.0
  0
LINE
  5
7EAD
330
A
100
AcDbEntity
  8
MODEL GRAY
  6
AM_DIN_F_W050
 48
3.0
100
AcDbLine
 10
369.7214089473003
 20
1003.507762262117
 30
0.0
 11
369.7214089473003
 21
944.0928793913179
 31
0.0
  0
ARC
  5
7EAE
330
A
100
AcDbEntity
  8
MODEL GRAY
  6
AM_DIN_F_W050
 48
3.0
100
AcDbCircle
 10
359.7214089473003
 20
969.3155553157699
 30
0.0
 40
10.0
100
AcDbArc
 50
269.9956256574104
 51
0.0
1001
GENIUS_GENOBJ-N-FIL_13
1002
{
1000
OWNER
1000
GEN
1002
}
1001
GENIUS_GENODEF_13
1002
{
1000
HIER
1070
     0
1002
}
1002
{
1000
MANEDIT
1070
     0
1002
}
1002
{
1000
NOSEL
1070
     0
1002
}
1002
{
1000
BEHIND
1070
     0
1002
}
1002
{
1000
OTHER
1070
     0
1002
}
1002
{
1000
REACTOR
1002
}
  0
LINE
  5
7EAF
330
A
100
AcDbEntity
  8
MODEL GRAY
  6
AM_DIN_F_W050
 48
3.0
100
AcDbLine
 10
369.7214089473003
 20
944.0928793913179
 30
0.0
 11
305.562333885577
 21
944.0928793913179
 31
0.0
  0
LINE
  5
7EB0
330
A
100
AcDbEntity
  8
MODEL GRAY
  6
AM_DIN_F_W050
 48
3.0
100
AcDbLine
 10
359.7206454804931
 20
959.3155553449137
 30
0.0
 11
305.5626554217037
 21
948.3044066337668
 31
0.0
  0
LINE
  5
7EB1
330
A
100
AcDbEntity
  8
MODEL GRAY
  6
AM_DIN_F_W050
 48
3.0
100
AcDbLine
 10
491.2678623924243
 20
1005.848362960245
 30
0.0
 11
378.5376935798698
 21
1003.507762262117
 31
0.0
  0
ARC
  5
7EB2
330
A
100
AcDbEntity
  8
MODEL GRAY
  6
AM_DIN_F_W050
 48
3.0
100
AcDbCircle
 10
491.2678623924243
 20
988.8483629602449
 30
0.0
 40
17.0
100
AcDbArc
 50
13.49111501412517
 51
93.25504309438097
1001
GENIUS_GENODEF_13
1002
{
1000
HIER
1070
     0
1002
}
1002
{
1000
MANEDIT
1070
     0
1002
}
1002
{
1000
NOSEL
1070
     0
1002
}
1002
{
1000
BEHIND
1070
     0
1002
}
1002
{
1000
OTHER
1070
     0
1002
}
1002
{
1000
REACTOR
1002
}
1001
GENIUS_GENOBJ-N-FIL_13
1002
{
1000
OWNER
1000
GEN
1002
}
  0
ARC
  5
7EB3
330
A
100
AcDbEntity
  8
MODEL GRAY
  6
AM_DIN_F_W050
 48
3.0
100
AcDbCircle
 10
476.2106789352878
 20
1130.899898152136
 30
0.0
 40
26.08403922056086
100
AcDbArc
 50
279.3195061571652
 51
337.1832364811474
  0
LINE
  5
7EB4
330
A
100
AcDbEntity
  8
MODEL GRAY
  6
AM_DIN_F_W050
 48
3.0
100
AcDbLine
 10
645.9637879913902
 20
948.3604957920209
 30
0.0
 11
800.7089185744229
 21
948.3604957920209
 31
0.0
  0
LINE
  5
7EB5
330
A
100
AcDbEntity
  8
MODEL GRAY
  6
AM_DIN_F_W050
 48
3.0
100
AcDbLine
 10
800.7089185744229
 20
948.3604957920209
 30
0.0
 11
810.7902681512918
 21
939.5814668934938
 31
0.0
  0
LINE
  5
7EBF
330
A
100
AcDbEntity
  8
MODEL
100
AcDbLine
 10
643.5550296595469
 20
939.5814668934938
 30
0.0
 11
516.0294497592698
 21
939.5814668934938
 31
0.0
  0
LINE
  5
7EC0
330
A
100
AcDbEntity
  8
MODEL GRAY
  6
AM_DIN_F_W050
 48
3.0
100
AcDbLine
 10
517.7110335451483
 20
1170.497103808193
 30
0.0
 11
510.8960406108066
 21
1170.497103808193
 31
0.0
  0
ARC
  5
7EC1
330
A
100
AcDbEntity
  8
MODEL
100
AcDbCircle
 10
1081.090462880501
 20
1250.695366455722
 30
0.0
 40
530.0025384726641
100
AcDbArc
 50
186.7076663620131
 51
212.2000459260506
  0
LINE
  5
7EC2
330
A
100
AcDbEntity
  8
MODEL
100
AcDbLine
 10
358.6384492147357
 20
939.5814668934938
 30
0.0
 11
358.6384492147357
 21
1181.789148425199
 31
0.0
  0
LINE
  5
7EC3
330
A
100
AcDbEntity
  8
MODEL
100
AcDbLine
 10
581.7829803494163
 20
1188.789148425199
 30
0.0
 11
365.6384492147357
 21
1188.789148425199
 31
0.0
  0
ARC
  5
7EC4
330
A
100
AcDbEntity
  8
MODEL
100
AcDbCircle
 10
365.6384492147357
 20
1181.789148425199
 30
0.0
 40
7.0
100
AcDbArc
 50
90.0
 51
180.0
  0
LINE
  5
7EC6
330
A
100
AcDbEntity
  8
MODEL
 62
     7
100
AcDbLine
 10
442.5455652521654
 20
1269.034394100381
 30
0.0
 11
442.593107569874
 21
1235.519127173298
 31
0.0
  0
LINE
  5
7EC7
330
A
100
AcDbEntity
  8
MODEL
 62
     7
100
AcDbLine
 10
426.5465418146654
 20
1269.034394100381
 30
0.0
 11
426.439743854596
 21
1235.519127173298
 31
0.0
  0
LINE
  5
7EC8
330
A
100
AcDbEntity
  8
MODEL
 62
     7
100
AcDbLine
 10
426.5465418146654
 20
1269.034394100381
 30
0.0
 11
442.5455652521654
 21
1269.034394100381
 31
0.0
  0
SPLINE
  5
7EC9
330
A
100
AcDbEntity
  8
MODEL
 62
     7
100
AcDbSpline
210
0.0
220
0.0
230
1.0
 70
    24
 71
     3
 72
     8
 73
     4
 74
     0
 42
0.000000001
 43
0.0000000001
 40
6.0
 40
6.0
 40
6.0
 40
6.0
 40
7.0
 40
7.0
 40
7.0
 40
7.0
 10
924.8975183771648
 20
1244.024378909409
 30
0.0
 10
924.8975183771648
 20
1244.024378909409
 30
0.0
 10
582.1633531032879
 20
1244.024378909409
 30
0.0
 10
582.1633531032879
 20
1244.024378909409
 30
0.0
  0
LINE
  5
7ECB
330
A
100
AcDbEntity
  8
MODEL
100
AcDbLine
 10
868.2912765151863
 20
1240.481442711492
 30
0.0
 11
868.2912765151863
 21
1240.481442711492
 31
0.0
  0
LINE
  5
7ECC
330
A
100
AcDbEntity
  8
MODEL
100
AcDbLine
 10
868.2912765151863
 20
1240.481442711492
 30
0.0
 11
829.3878083619742
 21
1240.481442711492
 31
0.0
  0
LINE
  5
7ECD
330
A
100
AcDbEntity
  8
MODEL
100
AcDbLine
 10
652.8003816041622
 20
1240.481442711492
 30
0.0
 11
629.0723868124954
 21
1240.481442711492
 31
0.0
  0
LINE
  5
7ED2
330
A
100
AcDbEntity
  8
MODEL
100
AcDbLine
 10
448.2230826132767
 20
1319.252861982325
 30
0.0
 11
414.7774066150126
 21
1380.204869360799
 31
0.0
  0
LINE
  5
7ED3
330
A
100
AcDbEntity
  8
MODEL
100
AcDbLine
 10
522.5834016236935
 20
1235.528773440659
 30
0.0
 11
522.5999380820261
 21
1252.834177086493
 31
0.0
  0
LINE
  5
7ED4
330
A
100
AcDbEntity
  8
MODEL
100
AcDbLine
 10
522.5999380820261
 20
1252.834177086493
 30
0.0
 11
523.97859923067
 21
1252.834177086493
 31
0.0
  0
LWPOLYLINE
  5
7EDD
330
A
100
AcDbEntity
  8
MODEL
100
AcDbPolyline
 90
        7
 70
     1
 43
0.0
 10
481.2314728230853
 20
1327.83141554408
 42
0.0837070981806584
 10
494.9809520794228
 20
1342.320532338229
 42
0.2770541093488471
 10
585.8723820399249
 20
1290.172810984062
 10
922.4873187243878
 20
1290.172810984062
 42
-0.4142135623730951
 10
925.4873187243878
 20
1287.172810984062
 10
925.4873187243878
 20
1270.957446400729
 10
586.0531673484278
 20
1270.957446400729
 42
-0.2634342591832366
  0
LWPOLYLINE
  5
7EDE
330
A
100
AcDbEntity
  8
MODEL
100
AcDbPolyline
 90
       27
 70
     1
 43
0.0
 10
456.3933353356127
 20
1316.842567403869
 42
0.108528751123663
 10
480.0865339762498
 20
1326.991804969293
 42
0.2631763854424925
 10
586.065900207593
 20
1269.541512155939
 10
922.5052332209156
 20
1269.541512155939
 42
-0.4142135623730951
 10
925.5052332209156
 20
1266.541512155939
 10
925.5052332209156
 20
1244.024378909409
 10
924.8975183771648
 20
1244.024378909409
 10
924.8975183771648
 20
1242.481442711492
 42
-0.4142135623730951
 10
922.8975183771648
 20
1240.481442711492
 10
868.2912765151863
 20
1240.481442711492
 42
0.4142135623730951
 10
866.2912765151863
 20
1238.481442711492
 10
866.2912765151863
 20
1236.541409074339
 42
-0.4142135623730951
 10
864.2912765151863
 20
1234.541409074339
 10
833.3878083619742
 20
1234.541409074339
 42
-0.4142135623730951
 10
831.3878083619742
 20
1236.541409074339
 10
831.3878083619742
 20
1238.481442711492
 42
0.4142135623731033
 10
829.3878083619742
 20
1240.481442711492
 10
652.8003816041622
 20
1240.481442711492
 42
0.4142135623730951
 10
650.8003816041622
 20
1238.481442711492
 10
650.8003816041622
 20
1236.541409074339
 42
-0.4142135623730951
 10
648.8003816041622
 20
1234.541409074339
 10
633.0723868124954
 20
1234.541409074339
 42
-0.4142135623730951
 10
631.0723868124954
 20
1236.541409074339
 10
631.0723868124954
 20
1238.481442711492
 42
0.4142135623730951
 10
629.0723868124954
 20
1240.481442711492
 10
581.8726441898001
 20
1240.481442711492
 10
582.1629936392386
 20
1244.019998038602
 42
-0.2625390149727633
  0
LWPOLYLINE
  5
7EDF
330
A
100
AcDbEntity
  8
MODEL
100
AcDbPolyline
 90
       12
 70
     1
 43
0.0
 10
414.7774066150126
 20
1380.204869360799
 10
457.8679719361929
 20
1404.748590877725
 10
493.3173154691798
 20
1344.988414282673
 42
-0.2397977434577256
 10
448.2230826132767
 20
1319.252861982325
 10
452.1026764473794
 20
1316.183715997758
 42
0.2619497781080974
 10
581.8734949396652
 20
1240.49181099521
 10
581.8734949396652
 20
1235.528773440659
 10
519.0793784604479
 20
1235.528773440659
 42
-0.3693434541613143
 10
518.4878721098042
 20
1235.013387155937
 10
416.3834205133211
 20
1235.013387155937
 42
-0.3743005145197273
 10
415.9431392216087
 20
1235.519127173298
 10
410.3463248007769
 20
1235.519127173298
  0
LINE
  5
8010
330
A
100
AcDbEntity
  8
MODEL GRAY
  6
CENTER2
100
AcDbLine
 10
1383.976553487704
 20
1153.817389024941
 30
0.0
 11
1403.976553487704
 21
1153.817389024941
 31
0.0
  0
LINE
  5
8011
330
A
100
AcDbEntity
  8
MODEL GRAY
  6
CENTER2
100
AcDbLine
 10
1393.976553487704
 20
1163.817389024941
 30
0.0
 11
1393.976553487704
 21
1143.817389024941
 31
0.0
  0
CIRCLE
  5
8012
330
A
100
AcDbEntity
  8
MODEL GRAY
  6
AM_DIN_F_W050
 48
4.0
100
AcDbCircle
 10
1393.976553487704
 20
1153.817389024941
 30
0.0
 40
7.579809740149905
  0
LINE
  5
8014
330
A
100
AcDbEntity
  8
MODEL GRAY
  6
CENTER2
100
AcDbLine
 10
1393.976553487704
 20
1169.911992697896
 30
0.0
 11
1393.976553487704
 21
1139.226407490044
 31
0.0
  0
LINE
  5
801E
102
{ACAD_REACTORS
330
9930
102
}
330
A
100
AcDbEntity
  8
MODEL GRAY
  6
CENTER2
100
AcDbLine
 10
1583.976553487704
 20
1153.817389024941
 30
0.0
 11
1563.976553487704
 21
1153.817389024941
 31
0.0
  0
LINE
  5
801F
330
A
100
AcDbEntity
  8
MODEL GRAY
  6
CENTER2
100
AcDbLine
 10
1573.976553487704
 20
1163.817389024941
 30
0.0
 11
1573.976553487704
 21
1143.817389024941
 31
0.0
  0
CIRCLE
  5
8020
330
A
100
AcDbEntity
  8
MODEL GRAY
  6
AM_DIN_F_W050
 48
4.0
100
AcDbCircle
 10
1573.976553487704
 20
1153.817389024941
 30
0.0
 40
7.579809740149905
  0
LINE
  5
8022
330
A
100
AcDbEntity
  8
MODEL GRAY
  6
CENTER2
100
AcDbLine
 10
1573.976553487704
 20
1169.911992697896
 30
0.0
 11
1573.976553487704
 21
1139.226407490044
 31
0.0
  0
LINE
  5
802C
330
A
100
AcDbEntity
  8
MODEL GRAY
  6
CENTER2
100
AcDbLine
 10
1483.975230382892
 20
1115.107881429854
 30
0.0
 11
1483.975230382892
 21
997.0630662316469
 31
0.0
  0
CIRCLE
  5
802D
330
A
100
AcDbEntity
  8
MODEL GRAY
  6
HIDDEN
 48
0.05
100
AcDbCircle
 10
1484.136053582896
 20
1055.579052824325
 30
0.0
 40
51.0
  0
LINE
  5
802E
330
A
100
AcDbEntity
  8
MODEL GRAY
  6
CENTER2
100
AcDbLine
 10
1425.758545706364
 20
1054.657150320508
 30
0.0
 11
1542.984126668633
 21
1054.475538900202
 31
0.0
  0
CIRCLE
  5
802F
330
A
100
AcDbEntity
  8
MODEL GRAY
  6
HIDDEN
 48
0.05
100
AcDbCircle
 10
1483.975230382892
 20
1056.085473830749
 30
0.0
 40
44.33402038571233
  0
LINE
  5
8030
330
A
100
AcDbEntity
  8
MODEL GRAY
  6
CENTER2
100
AcDbLine
 10
1484.119971262896
 20
1227.410093425961
 30
0.0
 11
1484.119971262896
 21
1149.061285174393
 31
0.0
  0
CIRCLE
  5
8031
330
A
100
AcDbEntity
  8
MODEL GRAY
  6
HIDDEN
 48
0.05
100
AcDbCircle
 10
1484.232547502898
 20
1190.022475789268
 30
0.0
 40
32.5
  0
LINE
  5
8032
330
A
100
AcDbEntity
  8
MODEL GRAY
  6
CENTER2
100
AcDbLine
 10
1443.931373716394
 20
1189.376271683724
 30
0.0
 11
1526.65299799115
 21
1189.239271070311
 31
0.0
  0
CIRCLE
  5
8033
330
A
100
AcDbEntity
  8
MODEL GRAY
  6
HIDDEN
 48
0.05
100
AcDbCircle
 10
1484.119971262896
 20
1190.376970493765
 30
0.0
 40
27.5
  0
LINE
  5
8034
330
A
100
AcDbEntity
  8
MODEL
100
AcDbLine
 10
1432.950626588859
 20
939.5692000939698
 30
0.0
 11
1534.242284685664
 21
939.5692000939698
 31
0.0
  0
ARC
  5
8035
330
A
100
AcDbEntity
  8
MODEL
100
AcDbCircle
 10
2636.765802678339
 20
1402.976423420484
 30
0.0
 40
1350.829304928125
100
AcDbArc
 50
187.2927867319035
 51
200.063042059659
  0
LINE
  5
8036
330
A
100
AcDbEntity
  8
MODEL
100
AcDbLine
 10
1302.900304179831
 20
1189.56920009397
 30
0.0
 11
1296.475230382892
 21
1189.56920009397
 31
0.0
  0
ARC
  5
8037
330
A
100
AcDbEntity
  8
MODEL
100
AcDbCircle
 10
331.1846580874455
 20
1402.976423420484
 30
0.0
 40
1350.829304928125
100
AcDbArc
 50
339.9369579403411
 51
352.7072132680967
  0
LINE
  5
8038
330
A
100
AcDbEntity
  8
MODEL
100
AcDbLine
 10
1665.050156585952
 20
1189.56920009397
 30
0.0
 11
1671.475230382892
 21
1189.56920009397
 31
0.0
  0
SPLINE
  5
803A
330
A
100
AcDbEntity
  8
MODEL
 62
     7
100
AcDbSpline
210
0.0
220
0.0
230
1.0
 70
    24
 71
     3
 72
     8
 73
     4
 74
     0
 42
0.000000001
 43
0.0000000001
 40
6.0
 40
6.0
 40
6.0
 40
6.0
 40
6.080746399409962
 40
6.080746399409962
 40
6.080746399409962
 40
6.080746399409962
 10
1299.765779723319
 20
1244.05216992904
 30
0.0
 10
1299.765779723319
 20
1244.05216992904
 30
0.0
 10
1302.170248121367
 20
1244.05216992904
 30
0.0
 10
1306.590880586189
 20
1244.05216992904
 30
0.0
  0
SPLINE
  5
803B
330
A
100
AcDbEntity
  8
MODEL
 62
     7
100
AcDbSpline
210
0.0
220
0.0
230
1.0
 70
    24
 71
     3
 72
     8
 73
     4
 74
     0
 42
0.000000001
 43
0.0000000001
 40
6.499910991652358
 40
6.499910991652358
 40
6.499910991652358
 40
6.499910991652358
 40
6.499931136640182
 40
6.499931136640182
 40
6.499931136640182
 40
6.499931136640182
 10
1484.10882752223
 20
1244.05216992904
 30
0.0
 10
1484.112542102452
 20
1244.05216992904
 30
0.0
 10
1484.1162566827
 20
1244.05216992904
 30
0.0
 10
1484.119971262969
 20
1244.05216992904
 30
0.0
  0
SPLINE
  5
803C
330
A
100
AcDbEntity
  8
MODEL
 62
     7
100
AcDbSpline
210
0.0
220
0.0
230
1.0
 70
    24
 71
     3
 72
     8
 73
     4
 74
     0
 42
0.000000001
 43
0.0000000001
 40
6.918790935564049
 40
6.918790935564049
 40
6.918790935564049
 40
6.918790935564049
 40
7.0
 40
7.0
 40
7.0
 40
7.0
 10
1661.649061939602
 20
1244.05216992904
 30
0.0
 10
1666.1182481936
 20
1244.05216992904
 30
0.0
 10
1668.550350035819
 20
1244.05216992904
 30
0.0
 10
1668.550350035819
 20
1244.05216992904
 30
0.0
  0
LINE
  5
803D
330
A
100
AcDbEntity
  8
MODEL
100
AcDbLine
 10
1344.531710907164
 20
1240.509233731123
 30
0.0
 11
1344.531710907164
 21
1240.509233731123
 31
0.0
  0
LINE
  5
803E
330
A
100
AcDbEntity
  8
MODEL
100
AcDbLine
 10
1313.142660897956
 20
1240.509233731123
 30
0.0
 11
1395.27548973851
 21
1240.509233731123
 31
0.0
  0
LINE
  5
8041
330
A
100
AcDbEntity
  8
MODEL
100
AcDbLine
 10
1666.140150383041
 20
1290.200602003693
 30
0.0
 11
1302.175979376097
 21
1290.200602003693
 31
0.0
  0
ARC
  5
8042
330
A
100
AcDbEntity
  8
MODEL
100
AcDbCircle
 10
1302.175979376097
 20
1287.200602003693
 30
0.0
 40
3.0
100
AcDbArc
 50
90.0
 51
180.0
  0
ARC
  5
8043
330
A
100
AcDbEntity
  8
MODEL
100
AcDbCircle
 10
1344.531710907164
 20
1238.509233731123
 30
0.0
 40
2.0
100
AcDbArc
 50
0.0
 51
90.0
  0
LINE
  5
8044
330
A
100
AcDbEntity
  8
MODEL
100
AcDbLine
 10
1346.531710907164
 20
1238.509233731123
 30
0.0
 11
1346.531710907164
 21
1236.56920009397
 31
0.0
  0
ARC
  5
8045
330
A
100
AcDbEntity
  8
MODEL
100
AcDbCircle
 10
1348.531710907164
 20
1236.56920009397
 30
0.0
 40
2.0
100
AcDbArc
 50
180.0
 51
270.0
  0
LINE
  5
8046
330
A
100
AcDbEntity
  8
MODEL
100
AcDbLine
 10
1329.175979376097
 20
1400.776381897356
 30
0.0
 11
1331.976906810251
 21
1400.776381897356
 31
0.0
  0
LINE
  5
8047
330
A
100
AcDbEntity
  8
MODEL
100
AcDbLine
 10
1299.175979376097
 20
1345.016205302305
 30
0.0
 11
1299.175979376097
 21
1338.348323357858
 31
0.0
  0
LINE
  5
8048
330
A
100
AcDbEntity
  8
MODEL
100
AcDbLine
 10
1329.175979376097
 20
1345.016205302305
 30
0.0
 11
1329.175979376097
 21
1342.348323357858
 31
0.0
  0
LINE
  5
8049
330
A
100
AcDbEntity
  8
MODEL
100
AcDbLine
 10
1331.97690681025
 20
1345.016205302305
 30
0.0
 11
1331.97690681025
 21
1342.348323357858
 31
0.0
  0
LINE
  5
804A
330
A
100
AcDbEntity
  8
MODEL
100
AcDbLine
 10
1623.784418851974
 20
1240.509233731123
 30
0.0
 11
1623.784418851974
 21
1240.509233731123
 31
0.0
  0
LINE
  5
804B
330
A
100
AcDbEntity
  8
MODEL
100
AcDbLine
 10
1655.173468861182
 20
1240.509233731123
 30
0.0
 11
1573.040640020628
 21
1240.509233731123
 31
0.0
  0
ARC
  5
804E
330
A
100
AcDbEntity
  8
MODEL
100
AcDbCircle
 10
1666.140150383041
 20
1287.200602003693
 30
0.0
 40
3.0
100
AcDbArc
 50
0.0
 51
90.0
  0
ARC
  5
804F
330
A
100
AcDbEntity
  8
MODEL
100
AcDbCircle
 10
1623.784418851974
 20
1238.509233731123
 30
0.0
 40
2.0
100
AcDbArc
 50
90.0
 51
180.0
  0
LINE
  5
8050
330
A
100
AcDbEntity
  8
MODEL
100
AcDbLine
 10
1621.784418851974
 20
1238.509233731123
 30
0.0
 11
1621.784418851974
 21
1236.56920009397
 31
0.0
  0
ARC
  5
8051
330
A
100
AcDbEntity
  8
MODEL
100
AcDbCircle
 10
1619.784418851974
 20
1236.56920009397
 30
0.0
 40
2.0
100
AcDbArc
 50
270.0
 51
0.0
  0
LINE
  5
8052
330
A
100
AcDbEntity
  8
MODEL
100
AcDbLine
 10
1639.140150383041
 20
1400.776381897356
 30
0.0
 11
1636.339222948888
 21
1400.776381897356
 31
0.0
  0
LINE
  5
8053
330
A
100
AcDbEntity
  8
MODEL
100
AcDbLine
 10
1669.140150383041
 20
1345.016205302305
 30
0.0
 11
1669.140150383041
 21
1338.348323357858
 31
0.0
  0
LINE
  5
8054
330
A
100
AcDbEntity
  8
MODEL
100
AcDbLine
 10
1639.140150383041
 20
1345.016205302305
 30
0.0
 11
1639.140150383041
 21
1342.348323357858
 31
0.0
  0
LINE
  5
8055
330
A
100
AcDbEntity
  8
MODEL
100
AcDbLine
 10
1636.339222948888
 20
1345.016205302305
 30
0.0
 11
1636.339222948888
 21
1342.348323357858
 31
0.0
  0
LINE
  5
8056
330
A
100
AcDbEntity
  8
MODEL
100
AcDbLine
 10
1329.175979376097
 20
1270.98523742036
 30
0.0
 11
1329.175979376097
 21
1269.569303175567
 31
0.0
  0
LINE
  5
8057
330
A
100
AcDbEntity
  8
MODEL
100
AcDbLine
 10
1331.97690681025
 20
1270.98523742036
 30
0.0
 11
1331.97690681025
 21
1269.569303175567
 31
0.0
  0
LINE
  5
8058
330
A
100
AcDbEntity
  8
MODEL
100
AcDbLine
 10
1636.339222948888
 20
1270.98523742036
 30
0.0
 11
1636.339222948888
 21
1269.569303175567
 31
0.0
  0
LINE
  5
8059
330
A
100
AcDbEntity
  8
MODEL
100
AcDbLine
 10
1639.140150383041
 20
1270.98523742036
 30
0.0
 11
1639.140150383041
 21
1269.569303175567
 31
0.0
  0
LINE
  5
8061
330
A
100
AcDbEntity
  8
MODEL
100
AcDbLine
 10
1468.06868817121
 20
1240.509233731123
 30
0.0
 11
1500.247441587928
 21
1240.509233731123
 31
0.0
  0
ARC
  5
8063
330
A
100
AcDbEntity
  8
MODEL
100
AcDbCircle
 10
1666.158064879569
 20
1266.569303175567
 30
0.0
 40
3.0
100
AcDbArc
 50
0.0
 51
90.0
  0
LINE
  5
8064
330
A
100
AcDbEntity
  8
MODEL
100
AcDbLine
 10
1666.158064879569
 20
1269.569303175567
 30
0.0
 11
1302.158064879569
 21
1269.569303175567
 31
0.0
  0
ARC
  5
8065
330
A
100
AcDbEntity
  8
MODEL
100
AcDbCircle
 10
1302.158064879569
 20
1266.569303175567
 30
0.0
 40
3.0
100
AcDbArc
 50
90.0
 51
180.0
  0
LINE
  5
8066
330
A
100
AcDbEntity
  8
MODEL
100
AcDbLine
 10
1303.410731612191
 20
1240.509233731125
 30
0.0
 11
1313.142660897956
 21
1240.509233731123
 31
0.0
  0
ARC
  5
8067
330
A
100
AcDbEntity
  8
MODEL
100
AcDbCircle
 10
1313.142660897956
 20
1238.509233731123
 30
0.0
 40
2.0
100
AcDbArc
 50
0.0
 51
90.0
  0
LINE
  5
8068
330
A
100
AcDbEntity
  8
MODEL
100
AcDbLine
 10
1315.142660897956
 20
1238.509233731123
 30
0.0
 11
1315.142660897956
 21
1236.56920009397
 31
0.0
  0
ARC
  5
8069
330
A
100
AcDbEntity
  8
MODEL
100
AcDbCircle
 10
1317.142660897956
 20
1236.56920009397
 30
0.0
 40
2.0
100
AcDbArc
 50
180.0
 51
270.0
  0
LINE
  5
806A
330
A
100
AcDbEntity
  8
MODEL
100
AcDbLine
 10
1317.142660897956
 20
1234.56920009397
 30
0.0
 11
1391.27548973851
 21
1234.56920009397
 31
0.0
  0
ARC
  5
806B
330
A
100
AcDbEntity
  8
MODEL
100
AcDbCircle
 10
1391.27548973851
 20
1236.56920009397
 30
0.0
 40
2.0
100
AcDbArc
 50
270.0
 51
0.0
  0
LINE
  5
806C
330
A
100
AcDbEntity
  8
MODEL
100
AcDbLine
 10
1393.27548973851
 20
1236.56920009397
 30
0.0
 11
1393.27548973851
 21
1238.509233731123
 31
0.0
  0
ARC
  5
806D
330
A
100
AcDbEntity
  8
MODEL
100
AcDbCircle
 10
1395.27548973851
 20
1238.509233731123
 30
0.0
 40
2.000000000000028
100
AcDbArc
 50
90.0
 51
180.0
  0
LINE
  5
806E
330
A
100
AcDbEntity
  8
MODEL
100
AcDbLine
 10
1395.27548973851
 20
1240.509233731123
 30
0.0
 11
1468.06868817121
 21
1240.509233731123
 31
0.0
  0
ARC
  5
806F
330
A
100
AcDbEntity
  8
MODEL
100
AcDbCircle
 10
1468.06868817121
 20
1237.509233731123
 30
0.0
 40
3.0
100
AcDbArc
 50
0.0
 51
90.0
  0
ARC
  5
8074
330
A
100
AcDbEntity
  8
MODEL
100
AcDbCircle
 10
1500.247441587928
 20
1237.509233731123
 30
0.0
 40
3.0
100
AcDbArc
 50
90.0
 51
180.0
  0
LINE
  5
8075
330
A
100
AcDbEntity
  8
MODEL
100
AcDbLine
 10
1500.247441587928
 20
1240.509233731123
 30
0.0
 11
1573.040640020628
 21
1240.509233731123
 31
0.0
  0
ARC
  5
8076
330
A
100
AcDbEntity
  8
MODEL
100
AcDbCircle
 10
1573.040640020628
 20
1238.509233731123
 30
0.0
 40
2.0
100
AcDbArc
 50
0.0
 51
90.0
  0
LINE
  5
8077
330
A
100
AcDbEntity
  8
MODEL
100
AcDbLine
 10
1575.040640020628
 20
1238.509233731123
 30
0.0
 11
1575.040640020628
 21
1236.56920009397
 31
0.0
  0
ARC
  5
8078
330
A
100
AcDbEntity
  8
MODEL
100
AcDbCircle
 10
1577.040640020628
 20
1236.56920009397
 30
0.0
 40
2.0
100
AcDbArc
 50
180.0
 51
270.0
  0
LINE
  5
8079
330
A
100
AcDbEntity
  8
MODEL
100
AcDbLine
 10
1577.040640020628
 20
1234.56920009397
 30
0.0
 11
1651.173468861182
 21
1234.56920009397
 31
0.0
  0
ARC
  5
807A
330
A
100
AcDbEntity
  8
MODEL
100
AcDbCircle
 10
1651.173468861182
 20
1236.56920009397
 30
0.0
 40
2.0
100
AcDbArc
 50
270.0
 51
0.0
  0
LINE
  5
807B
330
A
100
AcDbEntity
  8
MODEL
100
AcDbLine
 10
1653.173468861182
 20
1236.56920009397
 30
0.0
 11
1653.173468861182
 21
1238.509233731123
 31
0.0
  0
ARC
  5
807C
330
A
100
AcDbEntity
  8
MODEL
100
AcDbCircle
 10
1655.173468861182
 20
1238.509233731123
 30
0.0
 40
2.0
100
AcDbArc
 50
90.0
 51
180.0
  0
LINE
  5
807D
330
A
100
AcDbEntity
  8
MODEL
100
AcDbLine
 10
1655.173468861182
 20
1240.509233731123
 30
0.0
 11
1664.905398146948
 21
1240.509233731121
 31
0.0
  0
LWPOLYLINE
  5
807E
330
A
100
AcDbEntity
  8
MODEL
100
AcDbPolyline
 90
        8
 70
     1
 43
0.0
 10
1669.140150383041
 20
1338.348323357858
 42
0.4142135623730951
 10
1665.140150383041
 20
1342.348323357858
 10
1303.175979376097
 20
1342.348323357858
 42
0.4142135623730951
 10
1299.175979376097
 20
1338.348323357858
 10
1299.175979376097
 20
1287.200602003693
 10
1299.175979376097
 20
1270.98523742036
 10
1669.140150383041
 20
1270.98523742036
 10
1669.140150383041
 20
1287.200602003693
  0
LWPOLYLINE
  5
807F
330
A
100
AcDbEntity
  8
MODEL
100
AcDbPolyline
 90
        6
 70
     1
 43
0.0
 10
1329.175979376097
 20
1400.776381897356
 42
0.4142135623730951
 10
1325.175979376097
 20
1404.776381897356
 10
1303.175979376097
 20
1404.776381897356
 42
0.4142135623730951
 10
1299.175979376097
 20
1400.776381897356
 10
1299.175979376097
 20
1345.016205302305
 10
1329.175979376097
 20
1345.016205302305
  0
LWPOLYLINE
  5
8080
330
A
100
AcDbEntity
  8
MODEL
100
AcDbPolyline
 90
        6
 70
     1
 43
0.0
 10
1669.140150383041
 20
1400.776381897356
 42
0.4142135623730951
 10
1665.140150383041
 20
1404.776381897356
 10
1643.140150383041
 20
1404.776381897356
 42
0.4142135623730951
 10
1639.140150383041
 20
1400.776381897356
 10
1639.140150383041
 20
1345.016205302305
 10
1669.140150383041
 20
1345.016205302305
  0
LWPOLYLINE
  5
8081
330
A
100
AcDbEntity
  8
MODEL
100
AcDbPolyline
 90
        6
 70
     1
 43
0.0
 10
1636.339222948888
 20
1400.776381897356
 42
0.4142135623730951
 10
1632.339222948888
 20
1404.776381897356
 10
1335.976906810251
 20
1404.776381897356
 42
0.4142135623730951
 10
1331.976906810251
 20
1400.776381897356
 10
1331.97690681025
 20
1345.016205302305
 10
1636.339222948888
 20
1345.016205302303
  0
LINE
  5
8083
330
A
100
AcDbEntity
  8
MODEL
100
AcDbLine
 10
1471.06868817121
 20
1237.509233731123
 30
0.0
 11
1471.06868817121
 21
1234.56920009397
 31
0.0
  0
LINE
  5
8084
330
A
100
AcDbEntity
  8
MODEL
100
AcDbLine
 10
1497.247441587928
 20
1237.509233731123
 30
0.0
 11
1497.247441587928
 21
1234.56920009397
 31
0.0
  0
LINE
  5
8085
330
A
100
AcDbEntity
  8
MODEL
100
AcDbLine
 10
1664.905398146947
 20
1240.509233731227
 30
0.0
 11
1666.550350035818
 21
1240.509233731228
 31
0.0
  0
ARC
  5
8086
330
A
100
AcDbEntity
  8
MODEL
100
AcDbCircle
 10
1666.550350035818
 20
1242.509233731228
 30
0.0
 40
2.0
100
AcDbArc
 50
270.0
 51
0.0
  0
LINE
  5
8087
330
A
100
AcDbEntity
  8
MODEL
100
AcDbLine
 10
1668.550350035818
 20
1242.509233731228
 30
0.0
 11
1668.550350035818
 21
1244.052169929145
 31
0.0
  0
LINE
  5
8088
330
A
100
AcDbEntity
  8
MODEL
100
AcDbLine
 10
1668.550350035818
 20
1244.052169929145
 30
0.0
 11
1669.158064879568
 21
1244.052169929145
 31
0.0
  0
LINE
  5
8089
330
A
100
AcDbEntity
  8
MODEL
100
AcDbLine
 10
1669.158064879568
 20
1244.052169929145
 30
0.0
 11
1669.158064879568
 21
1266.569303175672
 31
0.0
  0
LINE
  5
808A
330
A
100
AcDbEntity
  8
MODEL
100
AcDbLine
 10
1299.158064879569
 20
1266.569303175567
 30
0.0
 11
1299.158064879568
 21
1244.052169929145
 31
0.0
  0
LINE
  5
808B
330
A
100
AcDbEntity
  8
MODEL
100
AcDbLine
 10
1299.158064879568
 20
1244.052169929145
 30
0.0
 11
1299.765779723318
 21
1244.052169929145
 31
0.0
  0
LINE
  5
808C
330
A
100
AcDbEntity
  8
MODEL
100
AcDbLine
 10
1299.765779723318
 20
1244.052169929145
 30
0.0
 11
1299.765779723318
 21
1242.509233731228
 31
0.0
  0
ARC
  5
808D
330
A
100
AcDbEntity
  8
MODEL
100
AcDbCircle
 10
1301.765779723318
 20
1242.509233731228
 30
0.0
 40
1.999999999999772
100
AcDbArc
 50
180.0
 51
270.0
  0
LINE
  5
808E
330
A
100
AcDbEntity
  8
MODEL
100
AcDbLine
 10
1301.765779723318
 20
1240.509233731228
 30
0.0
 11
1303.410731612189
 21
1240.50923373123
 31
0.0
  0
LINE
  5
808F
330
A
100
AcDbEntity
  8
MODEL
100
AcDbLine
 10
1306.590880586189
 20
1244.05216992904
 30
0.0
 11
1661.649061939602
 21
1244.05216992904
 31
0.0
  0
ARC
  5
80B1
330
A
100
AcDbEntity
  8
MODEL
100
AcDbCircle
 10
755.5694148131414
 20
2099.443738321757
 30
0.0
 40
130.0
100
AcDbArc
 50
270.0
 51
90.0
  0
ARC
  5
80B2
330
A
100
AcDbEntity
  8
MODEL
100
AcDbCircle
 10
755.5694148131414
 20
2099.443738321757
 30
0.0
 40
125.0
100
AcDbArc
 50
270.0
 51
90.0
  0
CIRCLE
  5
80B5
330
A
100
AcDbEntity
  8
MODEL
100
AcDbCircle
 10
455.5694145814613
 20
2169.813519895973
 30
0.0
 40
8.0
  0
ARC
  5
80B6
330
A
100
AcDbEntity
  8
MODEL
100
AcDbCircle
 10
615.0926370417172
 20
2099.445184945552
 30
0.0
 40
41.01930045553468
100
AcDbArc
 50
270.0
 51
90.0
  0
LINE
  5
80B7
330
A
100
AcDbEntity
  8
MODEL
100
AcDbLine
 10
615.0926370417172
 20
2140.464485401087
 30
0.0
 11
542.5318091729504
 21
2140.464485401087
 31
0.0
  0
LINE
  5
80B8
330
A
100
AcDbEntity
  8
MODEL
100
AcDbLine
 10
537.8456511031881
 20
2131.735458086948
 30
0.0
 11
537.8456511031881
 21
2067.154911804156
 31
0.0
  0
LINE
  5
80B9
330
A
100
AcDbEntity
  8
MODEL
100
AcDbLine
 10
615.0926370417172
 20
2058.425884490017
 30
0.0
 11
542.5318091729504
 21
2058.425884490017
 31
0.0
  0
ARC
  5
80BB
330
A
100
AcDbEntity
  8
MODEL
100
AcDbCircle
 10
596.821664355857
 20
2099.445184945552
 30
0.0
 40
34.0
100
AcDbArc
 50
270.0
 51
90.0
  0
ARC
  5
80BC
330
A
100
AcDbEntity
  8
MODEL
100
AcDbCircle
 10
541.9565638189059
 20
2155.674164771204
 30
0.0
 40
15.22055366138513
100
AcDbArc
 50
216.8767668068282
 51
272.1659515902976
  0
ARC
  5
80BD
330
A
100
AcDbEntity
  8
MODEL
100
AcDbCircle
 10
541.9565638189059
 20
2043.215633737569
 30
0.0
 40
15.22055366138513
100
AcDbArc
 50
87.8340484097024
 51
143.1232331931715
  0
CIRCLE
  5
80C0
330
A
100
AcDbEntity
  8
MODEL
100
AcDbCircle
 10
455.5694145814622
 20
2029.076278612799
 30
0.0
 40
8.0
  0
ARC
  5
80C1
330
A
100
AcDbEntity
  8
MODEL
100
AcDbCircle
 10
645.5694148131414
 20
2099.443738321757
 30
0.0
 40
130.0
100
AcDbArc
 50
90.0
 51
270.0
  0
ARC
  5
80C2
330
A
100
AcDbEntity
  8
MODEL
100
AcDbCircle
 10
645.5694148131414
 20
2099.443738321757
 30
0.0
 40
125.0
100
AcDbArc
 50
90.0
 51
270.0
  0
LINE
  5
80C3
330
A
100
AcDbEntity
  8
MODEL
100
AcDbLine
 10
755.5694148131414
 20
2229.443738321757
 30
0.0
 11
645.5694148131414
 21
2229.443738321757
 31
0.0
  0
LINE
  5
80C4
330
A
100
AcDbEntity
  8
MODEL
100
AcDbLine
 10
755.5694148131414
 20
2224.443738321757
 30
0.0
 11
645.5694148131414
 21
2224.443738321757
 31
0.0
  0
LINE
  5
80C5
330
A
100
AcDbEntity
  8
MODEL
100
AcDbLine
 10
755.5694148131414
 20
1969.443738321757
 30
0.0
 11
645.5694148131414
 21
1969.443738321757
 31
0.0
  0
LINE
  5
80C6
330
A
100
AcDbEntity
  8
MODEL
100
AcDbLine
 10
755.5694148131414
 20
1974.443738321757
 30
0.0
 11
645.5694148131414
 21
1974.443738321757
 31
0.0
  0
LWPOLYLINE
  5
80C7
102
{ACAD_REACTORS
330
9014
102
}
330
A
100
AcDbEntity
  8
MODEL
100
AcDbPolyline
 90
        6
 70
     1
 43
0.0
 10
305.5670798086293
 20
2281.945626255637
 42
-0.4192757825701598
 10
310.6533381079915
 20
2286.944882150848
 10
745.5708804019731
 20
2279.443821522978
 42
-1.000332364236854
 10
745.4483178462305
 20
1919.443862263555
 10
310.6533381079925
 20
1911.944916357924
 42
-0.4192757825701667
 10
305.5670798086302
 20
1916.944172253133
  0
DIMENSION
  5
9012
102
{ACAD_REACTORS
330
9014
102
}
102
{ACAD_XDICTIONARY
360
9013
102
}
330
A
100
AcDbEntity
  8
DIM
  6
Continuous
100
AcDbDimension
  2
*D6
 10
174.7722122678914
 20
1911.944916357924
 30
0.0
 11
174.7722122678914
 21
2099.444899254385
 31
0.0
 70
   160
 71
     5
 42
374.9999657929243
 73
     0
 74
     0
 75
     0
  3
JIS
100
AcDbAlignedDimension
 13
310.6533381079915
 23
2286.944882150848
 33
0.0
 14
310.6533381079925
 24
1911.944916357924
 34
0.0
 50
90.0
100
AcDbRotatedDimension
1001
ACAD
1000
DSTYLE
1002
{
1070
   179
1070
     0
1070
    41
1040
6.0
1070
   271
1070
     0
1070
    43
1040
25.0
1070
    44
1040
0.0
1070
    42
1040
25.0
1070
   147
1040
15.0
1070
   140
1040
24.0
1002
}
  0
DIMENSION
  5
9021
330
A
100
AcDbEntity
  8
DIM
  6
Continuous
100
AcDbDimension
  2
*D7
 10
1061.513594985213
 20
1919.443821528946
 30
0.0
 11
1061.513594985213
 21
2099.443821525961
 31
0.0
 70
   160
 71
     5
 42
359.9999999940319
 73
     0
 74
     0
 75
     0
  3
JIS
100
AcDbAlignedDimension
 13
831.6409026253141
 23
2279.443821522978
 33
0.0
 14
831.6394369646717
 24
1919.443821528946
 34
0.0
 50
90.0
100
AcDbRotatedDimension
1001
ACAD
1000
DSTYLE
1002
{
1070
   179
1070
     0
1070
    41
1040
6.0
1070
   271
1070
     0
1070
    43
1040
25.0
1070
    44
1040
0.0
1070
    42
1040
25.0
1070
   147
1040
15.0
1070
   140
1040
24.0
1002
}
  0
DIMENSION
  5
9030
330
A
100
AcDbEntity
  8
DIM
  6
Continuous
100
AcDbDimension
  2
*D8
 10
925.5694043096767
 20
2395.277368548802
 30
0.0
 11
615.5682420591529
 21
2422.277368548802
 31
0.0
 70
    32
 71
     5
 42
620.0023245010474
 73
     0
 74
     0
 75
     0
  3
JIS
100
AcDbAlignedDimension
 13
305.5670798086293
 23
2300.026543954971
 33
0.0
 14
925.5694043096767
 24
2158.871707508691
 34
0.0
100
AcDbRotatedDimension
1001
ACAD
1000
DSTYLE
1002
{
1070
   179
1070
     0
1070
    41
1040
6.0
1070
   271
1070
     0
1070
    43
1040
25.0
1070
    44
1040
0.0
1070
    42
1040
25.0
1070
   147
1040
15.0
1070
   140
1040
24.0
1002
}
  0
DIMENSION
  5
9057
330
A
100
AcDbEntity
  8
DIM
  6
Continuous
100
AcDbDimension
  2
*D9
 10
1574.119971262969
 20
1464.538722134178
 30
0.0
 11
1484.119971262969
 21
1491.538722134178
 31
0.0
 70
    32
 71
     5
 42
180.0
 73
     0
 74
     0
 75
     0
  3
JIS
100
AcDbAlignedDimension
 13
1394.119971262969
 23
1400.855748918698
 33
0.0
 14
1574.119971262969
 24
1400.855748918698
 34
0.0
100
AcDbRotatedDimension
1001
ACAD
1000
DSTYLE
1002
{
1070
   179
1070
     0
1070
    41
1040
6.0
1070
   271
1070
     0
1070
    43
1040
25.0
1070
    44
1040
0.0
1070
    42
1040
25.0
1070
   147
1040
15.0
1070
   140
1040
24.0
1002
}
  0
DIMENSION
  5
90B8
102
{ACAD_REACTORS
330
90BA
102
}
102
{ACAD_XDICTIONARY
360
90B9
102
}
330
A
100
AcDbEntity
  8
DIM
  6
Continuous
100
AcDbDimension
  2
*D10
 10
236.1980150871338
 20
1190.068956186027
 30
0.0
 11
236.1980150871338
 21
1212.326494278102
 31
0.0
 70
   160
 71
     5
 42
44.51507618415212
 73
     0
 74
     0
 75
     0
  3
JIS
100
AcDbAlignedDimension
 13
310.5785999777185
 23
1234.584032370179
 33
0.0
 14
292.5525418570084
 24
1190.068956186027
 34
0.0
 50
90.0
100
AcDbRotatedDimension
1001
ACAD
1000
DSTYLE
1002
{
1070
   179
1070
     0
1070
    41
1040
6.0
1070
   271
1070
     0
1070
    43
1040
25.0
1070
    44
1040
0.0
1070
    42
1040
25.0
1070
   147
1040
15.0
1070
   140
1040
24.0
1002
}
  0
DIMENSION
  5
90C8
102
{ACAD_REACTORS
330
90CA
102
}
102
{ACAD_XDICTIONARY
360
90C9
102
}
330
A
100
AcDbEntity
  8
DIM
  6
Continuous
100
AcDbDimension
  2
*D11
 10
236.4069041634272
 20
1054.579483174977
 30
0.0
 11
209.4069041634272
 21
1122.324219680502
 31
0.0
 70
    32
 71
     5
 42
135.48947301105
 73
     0
 74
     0
 75
     0
  3
JIS
100
AcDbAlignedDimension
 13
292.5525418570084
 23
1190.068956186027
 33
0.0
 14
299.6031616515296
 24
1054.579483174977
 34
0.0
 50
90.0
100
AcDbRotatedDimension
1001
ACAD
1000
DSTYLE
1002
{
1070
   179
1070
     0
1070
    41
1040
6.0
1070
   271
1070
     0
1070
    43
1040
25.0
1070
    44
1040
0.0
1070
    42
1040
25.0
1070
   147
1040
15.0
1070
   140
1040
24.0
1002
}
  0
DIMENSION
  5
9181
330
A
100
AcDbEntity
  8
DIM
  6
Continuous
100
AcDbDimension
  2
*D12
 10
1218.61755563726
 20
766.0957069764711
 30
0.0
 11
1351.107005637261
 21
793.0957069764711
 31
0.0
 70
    32
  1
265-300
 71
     5
 42
264.9789000000019
 73
     0
 74
     0
 75
     0
  3
JIS
100
AcDbAlignedDimension
 13
1483.596455637262
 23
899.5466767184218
 33
0.0
 14
1218.61755563726
 24
1009.906963321789
 34
0.0
100
AcDbRotatedDimension
1001
ACAD
1000
DSTYLE
1002
{
1070
   179
1070
     0
1070
    41
1040
6.0
1070
   271
1070
     0
1070
    43
1040
25.0
1070
    44
1040
0.0
1070
    42
1040
25.0
1070
   147
1040
15.0
1070
   140
1040
24.0
1002
}
  0
DIMENSION
  5
9183
330
A
100
AcDbEntity
  8
DIM
  6
Continuous
100
AcDbDimension
  2
*D13
 10
1160.476599541046
 20
1039.414995340997
 30
0.0
 11
1160.476599541046
 21
934.4149953409969
 31
0.0
 70
   160
  1
200-250
 71
     5
 42
199.9999999999998
 73
     0
 74
     0
 75
     0
  3
JIS
100
AcDbAlignedDimension
 13
1258.596455637262
 23
839.4149953409972
 33
0.0
 14
1218.596455637262
 24
1039.414995340997
 34
0.0
 50
90.0
100
AcDbRotatedDimension
1001
ACAD
1000
DSTYLE
1002
{
1070
   179
1070
     0
1070
    41
1040
6.0
1070
   271
1070
     0
1070
    43
1040
25.0
1070
    44
1040
0.0
1070
    42
1040
25.0
1070
   147
1040
15.0
1070
   140
1040
24.0
1002
}
  0
LEADER
  5
9184
330
A
100
AcDbEntity
  8
DIM
  6
Continuous
100
AcDbLeader
  3
JIS
 76
     3
 10
1218.596455637262
 20
1039.414995340997
 30
0.0
 10
1156.363322031436
 20
1382.120224480944
 30
0.0
 10
764.5397205993291
 20
1382.120224480944
 30
0.0
1001
ACAD
1000
DSTYLE
1002
{
1070
   179
1070
     0
1070
    41
1040
6.0
1070
   271
1070
     0
1070
    43
1040
25.0
1070
    44
1040
0.0
1070
    42
1040
25.0
1070
   147
1040
15.0
1070
   140
1040
24.0
1002
}
  0
DIMENSION
  5
91BD
330
A
100
AcDbEntity
  8
DIM
  6
Continuous
100
AcDbDimension
  2
*D14
 10
1105.342419967659
 20
1154.56920009397
 30
0.0
 11
1105.342419967659
 21
1194.56920009397
 31
0.0
 70
   160
 71
     5
 42
80.0
 73
     0
 74
     0
 75
     0
  3
JIS
100
AcDbAlignedDimension
 13
1301.475230382892
 23
1234.56920009397
 33
0.0
 14
1301.475230382892
 24
1154.56920009397
 34
0.0
 50
90.0
100
AcDbRotatedDimension
1001
ACAD
1000
DSTYLE
1002
{
1070
   179
1070
     0
1070
    41
1040
6.0
1070
   271
1070
     0
1070
    43
1040
25.0
1070
    44
1040
0.0
1070
    42
1040
25.0
1070
   147
1040
15.0
1070
   140
1040
24.0
1002
}
  0
DIMENSION
  5
91E9
330
A
100
AcDbEntity
  8
DIM
  6
Continuous
100
AcDbDimension
  2
*D15
 10
1843.766789001389
 20
1269.56920009397
 30
0.0
 11
1843.766789001389
 21
1084.557938406196
 31
0.0
 70
   160
 71
     5
 42
370.022523375548
 73
     0
 74
     0
 75
     0
  3
JIS
100
AcDbAlignedDimension
 13
1483.596455637262
 23
899.5466767184218
 33
0.0
 14
1671.475230382892
 24
1269.56920009397
 34
0.0
 50
90.0
100
AcDbRotatedDimension
1001
ACAD
1000
DSTYLE
1002
{
1070
   179
1070
     0
1070
    41
1040
6.0
1070
   271
1070
     0
1070
    43
1040
25.0
1070
    44
1040
0.0
1070
    42
1040
25.0
1070
   147
1040
15.0
1070
   140
1040
24.0
1002
}
  0
ARC
  5
91F8
330
A
100
AcDbEntity
  8
MODEL
100
AcDbCircle
 10
1666.475230382892
 20
1229.56920009397
 30
0.0
 40
5.0
100
AcDbArc
 50
0.0
 51
90.0
  0
LINE
  5
91F9
330
A
100
AcDbEntity
  8
MODEL
100
AcDbLine
 10
1666.475230382892
 20
1234.56920009397
 30
0.0
 11
1301.475230382892
 21
1234.56920009397
 31
0.0
  0
ARC
  5
91FA
330
A
100
AcDbEntity
  8
MODEL
100
AcDbCircle
 10
1301.475230382892
 20
1229.56920009397
 30
0.0
 40
5.0
100
AcDbArc
 50
90.0
 51
180.0
  0
LINE
  5
91FB
330
A
100
AcDbEntity
  8
MODEL
100
AcDbLine
 10
1296.475230382892
 20
1229.56920009397
 30
0.0
 11
1296.475230382892
 21
939.5692000939698
 31
0.0
  0
LINE
  5
91FC
330
A
100
AcDbEntity
  8
MODEL
100
AcDbLine
 10
1296.475230382892
 20
939.5692000939698
 30
0.0
 11
1432.950626588859
 21
939.5692000939698
 31
0.0
  0
ARC
  5
91FD
330
A
100
AcDbEntity
  8
MODEL
100
AcDbCircle
 10
1483.596455637262
 20
951.6023946731268
 30
0.0
 40
52.05571795470532
100
AcDbArc
 50
193.3653695456316
 51
346.6346304543682
  0
LINE
  5
91FE
330
A
100
AcDbEntity
  8
MODEL
100
AcDbLine
 10
1534.242284685664
 20
939.5692000939698
 30
0.0
 11
1671.475230382892
 21
939.5692000939698
 31
0.0
  0
LINE
  5
91FF
330
A
100
AcDbEntity
  8
MODEL
100
AcDbLine
 10
1671.475230382892
 20
939.5692000939698
 30
0.0
 11
1671.475230382892
 21
1229.56920009397
 31
0.0
  0
ARC
  5
9207
330
A
100
AcDbEntity
  8
MODEL
100
AcDbCircle
 10
310.5781923405249
 20
1229.584032386796
 30
0.0
 40
5.000000000000043
100
AcDbArc
 50
89.99532882184259
 51
179.9963618054375
  0
LINE
  5
9208
102
{ACAD_REACTORS
330
92C7
102
}
330
A
100
AcDbEntity
  8
MODEL
100
AcDbLine
 10
310.5785999777185
 20
1234.584032370179
 30
0.0
 11
920.5820946732459
 21
1234.534300347482
 31
0.0
  0
ARC
  5
9209
330
A
100
AcDbEntity
  8
MODEL
100
AcDbCircle
 10
920.5815365132698
 20
1229.534300378636
 30
0.0
 40
4.999999999999666
100
AcDbArc
 50
350.7116098087213
 51
89.99360395780205
  0
ARC
  5
920A
330
A
100
AcDbEntity
  8
MODEL
100
AcDbCircle
 10
153.6813485140168
 20
1354.963312505718
 30
0.0
 40
782.0896572702353
100
AcDbArc
 50
327.9189794877676
 51
350.7113315651503
  0
LINE
  5
920B
330
A
100
AcDbEntity
  8
MODEL
100
AcDbLine
 10
816.3442751553515
 20
939.5814668934938
 30
0.0
 11
643.5550296595469
 21
939.5814668934938
 31
0.0
  0
ARC
  5
920C
102
{ACAD_REACTORS
330
92C7
102
}
330
A
100
AcDbEntity
  8
MODEL
100
AcDbCircle
 10
586.5736168058573
 20
960.3467762827738
 30
0.0
 40
60.6471721091371
100
AcDbArc
 50
229.5725658503321
 51
339.9771212329833
  0
ARC
  5
920D
330
A
100
AcDbEntity
  8
MODEL
100
AcDbCircle
 10
653.8932800493777
 20
1077.122075704604
 30
0.0
 40
194.7404805745086
100
AcDbArc
 50
224.9327562832603
 51
236.7944841529943
  0
LINE
  5
920E
330
A
100
AcDbEntity
  8
MODEL
100
AcDbLine
 10
516.0294497592707
 20
939.5814668934938
 30
0.0
 11
305.5597776100852
 21
939.5814668934938
 31
0.0
  0
LINE
  5
920F
330
A
100
AcDbEntity
  8
MODEL
100
AcDbLine
 10
305.5597776100852
 20
939.5814668934938
 30
0.0
 11
305.578192350605
 21
1229.584349879165
 31
0.0
  0
DIMENSION
  5
9220
330
A
100
AcDbEntity
  8
DIM
  6
Continuous
100
AcDbDimension
  2
*D16
 10
1974.364941990427
 20
1404.776381897356
 30
0.0
 11
1947.364941990427
 21
1152.161529307889
 31
0.0
 70
    32
 71
     5
 42
505.229705178934
 73
     0
 74
     0
 75
     0
  3
JIS
100
AcDbAlignedDimension
 13
1483.596455637262
 23
899.5466767184218
 33
0.0
 14
1669.304977195658
 24
1404.776381897356
 34
0.0
 50
90.0
100
AcDbRotatedDimension
1001
ACAD
1000
DSTYLE
1002
{
1070
   179
1070
     0
1070
    41
1040
6.0
1070
   271
1070
     0
1070
    43
1040
25.0
1070
    44
1040
0.0
1070
    42
1040
25.0
1070
   147
1040
15.0
1070
   140
1040
24.0
1002
}
  0
MTEXT
  5
9247
330
A
100
AcDbEntity
  8
MODEL
390
1D
100
AcDbMText
 10
770.1406460046171
 20
1431.402571893769
 30
0.0
 40
24.4326171875
 41
0.0
 46
24.4326171875
 71
     1
 72
     1
  1
{センソウォッシュ給水位置}
  7
ＭＳ ゴシック
 73
     1
 44
0.7828267384257843
1001
ACAD
1000
ACAD_MTEXT_DEFINED_HEIGHT_BEGIN
1070
    46
1040
24.4326171875
1000
ACAD_MTEXT_DEFINED_HEIGHT_END
  0
CIRCLE
  5
9248
330
A
100
AcDbEntity
  8
MODEL
  6
Continuous
100
AcDbCircle
 10
1218.596455637262
 20
1039.414995340997
 30
0.0
 40
6.5
  0
SPLINE
  5
9249
330
A
100
AcDbEntity
  8
MODEL
  6
CENTER2
100
AcDbSpline
210
0.0
220
0.0
230
1.0
 70
  1064
 71
     3
 72
    10
 73
     6
 74
     4
 42
0.000000001
 43
0.0000000001
 44
0.0
 40
0.0
 40
0.0
 40
0.0
 40
0.0
 40
28.72261790611757
 40
57.92014971541573
 40
85.68208658858575
 40
85.68208658858575
 40
85.68208658858575
 40
85.68208658858575
 10
1225.096455637262
 20
1039.414995340997
 30
0.0
 10
1235.311364890965
 20
1038.723685967275
 30
0.0
 10
1255.910081736264
 20
1037.329636770348
 30
0.0
 10
1274.00522838571
 20
1064.498795493813
 30
0.0
 10
1276.419667316168
 20
1083.161957448103
 30
0.0
 10
1277.596460265997
 20
1092.258347144383
 30
0.0
 11
1225.096455637262
 21
1039.414995340997
 31
0.0
 11
1253.683694456976
 21
1042.200413809641
 31
0.0
 11
1271.78202022668
 21
1065.112124092565
 31
0.0
 11
1277.596460265997
 21
1092.258347144383
 31
0.0
  0
LINE
  5
924A
330
A
100
AcDbEntity
  8
MODEL
  6
CENTER2
100
AcDbLine
 10
1277.596460265997
 20
1216.731087103446
 30
0.0
 11
1277.596460265997
 21
1092.258347144383
 31
0.0
  0
LINE
  5
924B
330
A
100
AcDbEntity
  8
MODEL
  6
Continuous
100
AcDbLine
 10
1271.963580265993
 20
1234.156531799383
 30
0.0
 11
1283.229340266002
 21
1234.156531799383
 31
0.0
  0
LINE
  5
924C
330
A
100
AcDbEntity
  8
MODEL
  6
Continuous
100
AcDbLine
 10
1270.596460265997
 20
1206.348961799383
 30
0.0
 11
1270.596460265997
 21
1214.299171799384
 31
0.0
  0
LINE
  5
924D
330
A
100
AcDbEntity
  8
MODEL
  6
Continuous
100
AcDbLine
 10
1284.596460265997
 20
1206.334141799385
 30
0.0
 11
1284.596460265997
 21
1214.299171799384
 31
0.0
  0
LWPOLYLINE
  5
924E
330
A
100
AcDbEntity
  8
MODEL
  6
Continuous
100
AcDbPolyline
 90
       15
 70
     0
 43
0.0
 10
1283.229340266002
 20
1234.156531799383
 10
1283.764140265996
 20
1234.085151799385
 10
1284.29894026599
 20
1233.907021799383
 10
1284.762370265994
 20
1233.621731799385
 10
1285.190210265997
 20
1233.300851799384
 10
1285.546670266
 20
1232.873201799384
 10
1285.796180266002
 20
1232.409581799383
 10
1285.974510265997
 20
1231.874981799383
 10
1286.045690265996
 20
1231.340181799383
 10
1286.010100265996
 20
1230.805381799385
 10
1285.903140265992
 20
1230.270581799383
 10
1285.689220265997
 20
1229.771571799384
 10
1285.368340265998
 20
1229.308141799383
 10
1285.011870265999
 20
1228.951481799384
 10
1284.548450265999
 20
1228.630601799383
  0
LWPOLYLINE
  5
924F
330
A
100
AcDbEntity
  8
MODEL
  6
Continuous
100
AcDbPolyline
 90
       15
 70
     0
 43
0.0
 10
1271.963580265993
 20
1234.156531799383
 10
1271.428780265992
 20
1234.085151799385
 10
1270.893980265998
 20
1233.907021799383
 10
1270.430550265994
 20
1233.621731799385
 10
1270.002710265997
 20
1233.300851799384
 10
1269.646250266002
 20
1232.873201799384
 10
1269.396740265993
 20
1232.409581799383
 10
1269.218410265998
 20
1231.874981799383
 10
1269.147230265999
 20
1231.340181799383
 10
1269.182820265991
 20
1230.805381799385
 10
1269.289780266003
 20
1230.270581799383
 10
1269.503700265998
 20
1229.771571799384
 10
1269.824580265997
 20
1229.308141799383
 10
1270.181040265993
 20
1228.951481799384
 10
1270.644470265996
 20
1228.630601799383
  0
LINE
  5
9250
330
A
100
AcDbEntity
  8
MODEL
  6
Continuous
100
AcDbLine
 10
1271.571520266002
 20
1208.488151799383
 30
0.0
 11
1270.596460265997
 21
1209.544321799383
 31
0.0
  0
LINE
  5
9251
330
A
100
AcDbEntity
  8
MODEL
  6
Continuous
100
AcDbLine
 10
1273.710520265997
 20
1208.488151799383
 30
0.0
 11
1270.596460265997
 21
1211.645391799384
 31
0.0
  0
LINE
  5
9252
330
A
100
AcDbEntity
  8
MODEL
  6
Continuous
100
AcDbLine
 10
1275.849520266
 20
1208.488151799383
 30
0.0
 11
1272.640920266002
 21
1211.696551799383
 31
0.0
  0
LINE
  5
9253
330
A
100
AcDbEntity
  8
MODEL
  6
Continuous
100
AcDbLine
 10
1271.571520266002
 20
1212.766151799383
 30
0.0
 11
1270.596460265997
 21
1213.822321799383
 31
0.0
  0
LINE
  5
9254
330
A
100
AcDbEntity
  8
MODEL
  6
Continuous
100
AcDbLine
 10
1278.008910265994
 20
1208.508811799383
 30
0.0
 11
1274.779920265998
 21
1211.696551799383
 31
0.0
  0
LINE
  5
9255
330
A
100
AcDbEntity
  8
MODEL
  6
Continuous
100
AcDbLine
 10
1273.710520265997
 20
1212.766151799383
 30
0.0
 11
1272.213080265998
 21
1214.299171799384
 31
0.0
  0
LINE
  5
9256
330
A
100
AcDbEntity
  8
MODEL
  6
Continuous
100
AcDbLine
 10
1277.596460265997
 20
1211.054991799383
 30
0.0
 11
1276.919110265999
 21
1211.696551799383
 31
0.0
  0
LINE
  5
9257
330
A
100
AcDbEntity
  8
MODEL
  6
Continuous
100
AcDbLine
 10
1275.849520266
 20
1212.766151799383
 30
0.0
 11
1274.352080265994
 21
1214.299171799384
 31
0.0
  0
LINE
  5
9258
330
A
100
AcDbEntity
  8
MODEL
  6
Continuous
100
AcDbLine
 10
1278.006410265999
 20
1212.784041799384
 30
0.0
 11
1276.491270265995
 21
1214.299171799384
 31
0.0
  0
LINE
  5
9259
330
A
100
AcDbEntity
  8
MODEL
  6
Continuous
100
AcDbLine
 10
1279.043290265998
 20
1213.820921799384
 30
0.0
 11
1275.849520266
 21
1210.627151799382
 31
0.0
  0
LINE
  5
925A
330
A
100
AcDbEntity
  8
MODEL
  6
Continuous
100
AcDbLine
 10
1276.936910266001
 20
1213.853541799384
 30
0.0
 11
1273.710520265997
 21
1210.627151799382
 31
0.0
  0
LINE
  5
925B
330
A
100
AcDbEntity
  8
MODEL
  6
Continuous
100
AcDbLine
 10
1274.779920265998
 20
1213.835751799384
 30
0.0
 11
1271.571520266002
 21
1210.627151799382
 31
0.0
  0
LINE
  5
925C
330
A
100
AcDbEntity
  8
MODEL
  6
Continuous
100
AcDbLine
 10
1272.640920266002
 20
1213.835751799384
 30
0.0
 11
1270.596460265997
 21
1211.791021799384
 31
0.0
  0
LINE
  5
925D
330
A
100
AcDbEntity
  8
MODEL
  6
Continuous
100
AcDbLine
 10
1269.147230265999
 20
1214.299171799384
 30
0.0
 11
1277.596460265997
 21
1214.299171799384
 31
0.0
  0
LWPOLYLINE
  5
925E
330
A
100
AcDbEntity
  8
MODEL
  6
Continuous
100
AcDbPolyline
 90
        4
 70
     0
 43
0.0
 10
1269.147230265999
 20
1214.299171799384
 10
1269.147230265999
 20
1216.010331799383
 10
1270.644470265996
 20
1218.862461799382
 10
1270.644470265996
 20
1228.595011799383
  0
LWPOLYLINE
  5
925F
330
A
100
AcDbEntity
  8
MODEL
  6
Continuous
100
AcDbPolyline
 90
        4
 70
     1
 43
0.0
 10
1271.749660265998
 20
1228.595011799383
 10
1271.749660265998
 20
1218.862461799382
 10
1274.138360266001
 20
1218.862461799382
 10
1274.138360266001
 20
1228.595011799383
  0
LWPOLYLINE
  5
9260
330
A
100
AcDbEntity
  8
MODEL
  6
Continuous
100
AcDbPolyline
 90
        4
 70
     0
 43
0.0
 10
1277.596460265997
 20
1228.595011799383
 10
1275.778150265995
 20
1228.595011799383
 10
1275.778150265995
 20
1218.862461799382
 10
1277.596460265997
 20
1218.862461799382
  0
LWPOLYLINE
  5
9261
330
A
100
AcDbEntity
  8
MODEL
  6
Continuous
100
AcDbPolyline
 90
        4
 70
     0
 43
0.0
 10
1286.045690265996
 20
1214.299171799384
 10
1286.045690265996
 20
1216.010331799383
 10
1284.548450265999
 20
1218.862461799382
 10
1284.548450265999
 20
1228.595011799383
  0
LWPOLYLINE
  5
9262
330
A
100
AcDbEntity
  8
MODEL
  6
Continuous
100
AcDbPolyline
 90
        4
 70
     1
 43
0.0
 10
1283.443260265997
 20
1228.595011799383
 10
1283.443260265997
 20
1218.862461799382
 10
1281.054560266001
 20
1218.862461799382
 10
1281.054560266001
 20
1228.595011799383
  0
LWPOLYLINE
  5
9263
330
A
100
AcDbEntity
  8
MODEL
  6
Continuous
100
AcDbPolyline
 90
        4
 70
     0
 43
0.0
 10
1277.596460265997
 20
1228.595011799383
 10
1279.414770266
 20
1228.595011799383
 10
1279.414770266
 20
1218.862461799382
 10
1277.596460265997
 20
1218.862461799382
  0
LINE
  5
9264
330
A
100
AcDbEntity
  8
MODEL
  6
Continuous
100
AcDbLine
 10
1286.045690265996
 20
1214.299171799384
 30
0.0
 11
1277.596460265997
 21
1214.299171799384
 31
0.0
  0
LINE
  5
9265
330
A
100
AcDbEntity
  8
MODEL
  6
Continuous
100
AcDbLine
 10
1280.105620265999
 20
1208.465871799384
 30
0.0
 11
1277.596460265997
 21
1211.009821799383
 31
0.0
  0
LINE
  5
9266
330
A
100
AcDbEntity
  8
MODEL
  6
Continuous
100
AcDbLine
 10
1283.342070266003
 20
1209.563191799383
 30
0.0
 11
1281.189160265999
 21
1211.688601799383
 31
0.0
  0
LINE
  5
9267
330
A
100
AcDbEntity
  8
MODEL
  6
Continuous
100
AcDbLine
 10
1280.100330265998
 20
1212.738771799382
 30
0.0
 11
1278.576140266001
 21
1214.299171799384
 31
0.0
  0
LINE
  5
9268
330
A
100
AcDbEntity
  8
MODEL
  6
Continuous
100
AcDbLine
 10
1281.182390265999
 20
1213.820831799384
 30
0.0
 11
1280.715140265997
 21
1214.299171799384
 31
0.0
  0
LINE
  5
9269
330
A
100
AcDbEntity
  8
MODEL
  6
Continuous
100
AcDbLine
 10
1283.799730265996
 20
1214.299171799384
 30
0.0
 11
1280.112850266002
 21
1210.612301799383
 31
0.0
  0
LINE
  5
926A
330
A
100
AcDbEntity
  8
MODEL
  6
Continuous
100
AcDbLine
 10
1281.660730266
 20
1214.299171799384
 30
0.0
 11
1278.017630265999
 21
1210.656071799383
 31
0.0
  0
LINE
  5
926B
330
A
100
AcDbEntity
  8
MODEL
  6
Continuous
100
AcDbLine
 10
1276.932770265996
 20
1209.571211799384
 30
0.0
 11
1276.429330265996
 21
1209.067771799383
 31
0.0
  0
LINE
  5
926C
330
A
100
AcDbEntity
  8
MODEL
  6
Continuous
100
AcDbLine
 10
1284.596460265997
 20
1210.530601799384
 30
0.0
 11
1283.350500265997
 21
1211.710751799384
 31
0.0
  0
LINE
  5
926D
330
A
100
AcDbEntity
  8
MODEL
  6
Continuous
100
AcDbLine
 10
1282.251980265998
 20
1212.751231799384
 30
0.0
 11
1281.189750266002
 21
1213.828191799382
 31
0.0
  0
LINE
  5
926E
330
A
100
AcDbEntity
  8
MODEL
  6
Continuous
100
AcDbLine
 10
1284.596460265997
 20
1210.817661799383
 30
0.0
 11
1282.252110265998
 21
1208.473171799383
 31
0.0
  0
LINE
  5
926F
330
A
100
AcDbEntity
  8
MODEL
  6
Continuous
100
AcDbLine
 10
1284.596460265997
 20
1212.956711799384
 30
0.0
 11
1282.265630265999
 21
1210.625881799383
 31
0.0
  0
LINE
  5
9270
330
A
100
AcDbEntity
  8
MODEL
  6
Continuous
100
AcDbLine
 10
1284.596460265997
 20
1212.516181799384
 30
0.0
 11
1283.306660265999
 21
1213.805911799383
 31
0.0
  0
LINE
  5
9271
330
A
100
AcDbEntity
  8
MODEL
  6
Continuous
100
AcDbLine
 10
1282.252010265993
 20
1208.473261799384
 30
0.0
 11
1279.043320265994
 21
1211.681761799385
 31
0.0
  0
LINE
  5
9272
330
A
100
AcDbEntity
  8
MODEL
  6
Continuous
100
AcDbLine
 10
1284.596460265997
 20
1208.238111799384
 30
0.0
 11
1283.306660265999
 21
1209.527911799383
 31
0.0
  0
LINE
  5
9273
330
A
100
AcDbEntity
  8
MODEL
  6
Continuous
100
AcDbLine
 10
1284.596460265997
 20
1208.678881799383
 30
0.0
 11
1282.252030265993
 21
1206.334141799385
 31
0.0
  0
LINE
  5
9274
330
A
100
AcDbEntity
  8
MODEL
  6
Continuous
100
AcDbLine
 10
1281.182480265993
 20
1209.542731799383
 30
0.0
 11
1277.973890265998
 21
1206.334141799385
 31
0.0
  0
LINE
  5
9275
330
A
100
AcDbEntity
  8
MODEL
  6
Continuous
100
AcDbLine
 10
1282.929330265996
 20
1209.150581799383
 30
0.0
 11
1280.112890265994
 21
1206.334141799385
 31
0.0
  0
LINE
  5
9276
330
A
100
AcDbEntity
  8
MODEL
  6
Continuous
100
AcDbLine
 10
1272.640920266002
 20
1209.557551799383
 30
0.0
 11
1270.596460265997
 21
1207.513091799382
 31
0.0
  0
LINE
  5
9277
330
A
100
AcDbEntity
  8
MODEL
  6
Continuous
100
AcDbLine
 10
1274.779920265998
 20
1209.557551799383
 30
0.0
 11
1271.571520266002
 21
1206.348961799383
 31
0.0
  0
LINE
  5
9278
330
A
100
AcDbEntity
  8
MODEL
  6
Continuous
100
AcDbLine
 10
1276.919110265999
 20
1209.557551799383
 30
0.0
 11
1273.710520265997
 21
1206.348961799383
 31
0.0
  0
LINE
  5
9279
330
A
100
AcDbEntity
  8
MODEL
  6
Continuous
100
AcDbLine
 10
1279.043390265988
 20
1209.542831799384
 30
0.0
 11
1275.849520266
 21
1206.348961799383
 31
0.0
  0
ARC
  5
927A
330
A
100
AcDbEntity
  8
MODEL
  6
Continuous
100
AcDbCircle
 10
1285.596460265997
 20
1257.156531799384
 30
0.0
 40
3.0
100
AcDbArc
 50
90.0
 51
180.0
  0
ARC
  5
927B
330
A
100
AcDbEntity
  8
MODEL
  6
Continuous
100
AcDbCircle
 10
1277.596460265997
 20
1265.156531799383
 30
0.0
 40
5.0
100
AcDbArc
 50
90.0
 51
180.0
  0
LINE
  5
927C
330
A
100
AcDbEntity
  8
MODEL
  6
Continuous
100
AcDbLine
 10
1282.596460265997
 20
1234.156531799383
 30
0.0
 11
1282.596460265997
 21
1257.156531799384
 31
0.0
  0
LINE
  5
927D
330
A
100
AcDbEntity
  8
MODEL
  6
Continuous
100
AcDbLine
 10
1272.596460265997
 20
1234.156531799383
 30
0.0
 11
1282.596460265997
 21
1234.156531799383
 31
0.0
  0
LINE
  5
927E
330
A
100
AcDbEntity
  8
MODEL
  6
Continuous
100
AcDbLine
 10
1272.596460265997
 20
1265.156531799383
 30
0.0
 11
1272.596460265997
 21
1234.156531799383
 31
0.0
  0
LINE
  5
927F
330
A
100
AcDbEntity
  8
MODEL
  6
Continuous
100
AcDbLine
 10
1298.596460265997
 20
1270.156531799383
 30
0.0
 11
1277.596460265997
 21
1270.156531799383
 31
0.0
  0
LINE
  5
9280
330
A
100
AcDbEntity
  8
MODEL
  6
Continuous
100
AcDbLine
 10
1285.596460265997
 20
1260.156531799383
 30
0.0
 11
1298.596460265997
 21
1260.156531799383
 31
0.0
  0
DIMENSION
  5
92C5
102
{ACAD_REACTORS
330
92C7
102
}
102
{ACAD_XDICTIONARY
360
92C6
102
}
330
A
100
AcDbEntity
  8
DIM
  6
Continuous
100
AcDbDimension
  2
*D17
 10
1003.09509035533
 20
1234.534300347482
 30
0.0
 11
976.09509035533
 21
1067.11695226056
 31
0.0
 70
    32
 71
     5
 42
334.8346961738439
 73
     0
 74
     0
 75
     0
  3
JIS
100
AcDbAlignedDimension
 13
586.5736168058573
 23
899.6996041736379
 33
0.0
 14
920.5820946732459
 24
1234.534300347482
 34
0.0
 50
90.0
100
AcDbRotatedDimension
1001
ACAD
1000
DSTYLE
1002
{
1070
   179
1070
     0
1070
    41
1040
6.0
1070
   271
1070
     0
1070
    43
1040
25.0
1070
    44
1040
0.0
1070
    42
1040
25.0
1070
   147
1040
15.0
1070
   140
1040
24.0
1002
}
  0
DIMENSION
  5
92D4
330
A
100
AcDbEntity
  8
DIM
  6
Continuous
100
AcDbDimension
  2
*D18
 10
236.1980150871338
 20
1404.584032370179
 30
0.0
 11
209.1980150871338
 21
1319.584032370179
 31
0.0
 70
    32
 71
     5
 42
170.0
 73
     0
 74
     0
 75
     0
  3
JIS
100
AcDbAlignedDimension
 13
310.5785999777185
 23
1234.584032370179
 33
0.0
 14
428.226086012576
 24
1404.584032370179
 34
0.0
 50
90.0
100
AcDbRotatedDimension
1001
ACAD
1000
DSTYLE
1002
{
1070
   179
1070
     0
1070
    41
1040
6.0
1070
   271
1070
     0
1070
    43
1040
25.0
1070
    44
1040
0.0
1070
    42
1040
25.0
1070
   147
1040
15.0
1070
   140
1040
24.0
1002
}
  0
DIMENSION
  5
93D7
330
A
100
AcDbEntity
  8
DIM
  6
Continuous
100
AcDbDimension
  2
*D19
 10
1909.739051851522
 20
1289.546676718422
 30
0.0
 11
1909.739051851522
 21
1094.546676718422
 31
0.0
 70
   160
 71
     5
 42
390.0
 73
     0
 74
     0
 75
     0
  3
JIS
100
AcDbAlignedDimension
 13
1483.596455637262
 23
899.5466767184218
 33
0.0
 14
1672.059381641704
 24
1289.546676718422
 34
0.0
 50
90.0
100
AcDbRotatedDimension
1001
ACAD
1000
DSTYLE
1002
{
1070
   179
1070
     0
1070
    41
1040
6.0
1070
   271
1070
     0
1070
    43
1040
25.0
1070
    44
1040
0.0
1070
    42
1040
25.0
1070
   147
1040
15.0
1070
   140
1040
24.0
1002
}
  0
LINE
  5
94B6
330
A
100
AcDbEntity
  8
MODEL
  6
Continuous
100
AcDbLine
 10
1756.565514956976
 20
1057.519992913523
 30
0.0
 11
1757.442849551702
 21
1051.378620232859
 31
0.0
  0
LINE
  5
94B7
330
A
100
AcDbEntity
  8
MODEL
  6
Continuous
100
AcDbLine
 10
1750.565484439397
 20
1057.519992913523
 30
0.0
 11
1756.565514956976
 21
1057.519992913523
 31
0.0
  0
LINE
  5
94B8
330
A
100
AcDbEntity
  8
MODEL
  6
Continuous
100
AcDbLine
 10
1743.688119327093
 20
1051.378650750437
 30
0.0
 11
1744.565453921819
 21
1057.519992913523
 31
0.0
  0
LINE
  5
94B9
330
A
100
AcDbEntity
  8
MODEL
  6
Continuous
100
AcDbLine
 10
1744.565453921819
 20
1057.519992913523
 30
0.0
 11
1750.565484439397
 21
1057.519992913523
 31
0.0
  0
LINE
  5
94BA
330
A
100
AcDbEntity
  8
MODEL
  6
Continuous
100
AcDbLine
 10
1715.565484439397
 20
1117.308851968144
 30
0.0
 11
1715.565484439397
 21
1067.308859597538
 31
0.0
  0
LINE
  5
94BB
330
A
100
AcDbEntity
  8
MODEL
  6
Continuous
100
AcDbLine
 10
1736.315484439397
 20
1050.269947137156
 30
0.0
 11
1764.815484439397
 21
1050.269947137156
 31
0.0
  0
LINE
  5
94BC
330
A
100
AcDbEntity
  8
MODEL
  6
Continuous
100
AcDbLine
 10
1736.315484439397
 20
1084.869945611277
 30
0.0
 11
1736.315484439397
 21
1050.269947137156
 31
0.0
  0
LINE
  5
94BD
330
A
100
AcDbEntity
  8
MODEL
  6
Continuous
100
AcDbLine
 10
1764.815484439397
 20
1084.869945611277
 30
0.0
 11
1764.815484439397
 21
1050.269947137156
 31
0.0
  0
LINE
  5
94BE
330
A
100
AcDbEntity
  8
MODEL
  6
Continuous
100
AcDbLine
 10
1743.115487491155
 20
1073.219959344187
 30
0.0
 11
1745.315499698187
 21
1073.219959344187
 31
0.0
  0
LINE
  5
94BF
330
A
100
AcDbEntity
  8
MODEL
  6
Continuous
100
AcDbLine
 10
1743.115487491155
 20
1081.91994103364
 30
0.0
 11
1745.315499698187
 21
1081.91994103364
 31
0.0
  0
LINE
  5
94C0
330
A
100
AcDbEntity
  8
MODEL
  6
Continuous
100
AcDbLine
 10
1739.26548138764
 20
1050.820026482859
 30
0.0
 11
1739.26548138764
 21
1070.66994103364
 31
0.0
  0
LINE
  5
94C1
330
A
100
AcDbEntity
  8
MODEL
  6
Continuous
100
AcDbLine
 10
1745.315499698187
 20
1081.91994103364
 30
0.0
 11
1745.315499698187
 21
1073.219959344187
 31
0.0
  0
LINE
  5
94C2
330
A
100
AcDbEntity
  8
MODEL
  6
Continuous
100
AcDbLine
 10
1761.865502749944
 20
1070.66994103364
 30
0.0
 11
1761.865502749944
 21
1050.82001122407
 31
0.0
  0
LINE
  5
94C3
330
A
100
AcDbEntity
  8
MODEL
  6
Continuous
100
AcDbLine
 10
1785.565499698187
 20
1017.308859597538
 30
0.0
 11
1785.565499698187
 21
1117.308851968144
 31
0.0
  0
LINE
  5
94C4
330
A
100
AcDbEntity
  8
MODEL
  6
Continuous
100
AcDbLine
 10
1775.565499698187
 20
1007.308859597538
 30
0.0
 11
1750.565484439397
 21
1007.308859597538
 31
0.0
  0
LINE
  5
94C5
330
A
100
AcDbEntity
  8
MODEL
  6
Continuous
100
AcDbLine
 10
1750.565484439397
 20
1007.308859597538
 30
0.0
 11
1725.565484439397
 21
1007.308859597538
 31
0.0
  0
LINE
  5
94C6
330
A
100
AcDbEntity
  8
MODEL
  6
Continuous
100
AcDbLine
 10
1715.565484439397
 20
1067.308859597538
 30
0.0
 11
1715.565484439397
 21
1017.308859597538
 31
0.0
  0
LINE
  5
94C7
330
A
100
AcDbEntity
  8
MODEL
  6
Continuous
100
AcDbLine
 10
1725.565484439397
 20
1127.308851968144
 30
0.0
 11
1775.565484439397
 21
1127.308851968144
 31
0.0
  0
LINE
  5
94C8
330
A
100
AcDbEntity
  8
MODEL
  6
Continuous
100
AcDbLine
 10
1755.815469180608
 20
1074.069950188913
 30
0.0
 11
1755.815469180608
 21
1081.069950188912
 31
0.0
  0
LINE
  5
94C9
330
A
100
AcDbEntity
  8
MODEL
  6
Continuous
100
AcDbLine
 10
1758.01548138764
 20
1074.069950188913
 30
0.0
 11
1758.01548138764
 21
1081.069950188912
 31
0.0
  0
LINE
  5
94CA
330
A
100
AcDbEntity
  8
MODEL
  6
Continuous
100
AcDbLine
 10
1758.01548138764
 20
1081.069950188912
 30
0.0
 11
1755.815469180608
 21
1081.069950188912
 31
0.0
  0
LINE
  5
94CB
330
A
100
AcDbEntity
  8
MODEL
  6
Continuous
100
AcDbLine
 10
1758.01548138764
 20
1074.069950188913
 30
0.0
 11
1755.815469180608
 21
1074.069950188913
 31
0.0
  0
LINE
  5
94CC
330
A
100
AcDbEntity
  8
MODEL
  6
Continuous
100
AcDbLine
 10
1739.26548138764
 20
1070.66994103364
 30
0.0
 11
1761.865502749944
 21
1070.66994103364
 31
0.0
  0
LINE
  5
94CD
330
A
100
AcDbEntity
  8
MODEL
  6
Continuous
100
AcDbLine
 10
1739.565560733343
 20
1050.520008172312
 30
0.0
 11
1761.565408145452
 21
1050.520008172312
 31
0.0
  0
LINE
  5
94CE
330
A
100
AcDbEntity
  8
MODEL
  6
Continuous
100
AcDbLine
 10
1743.115487491155
 20
1081.91994103364
 30
0.0
 11
1743.115487491155
 21
1073.219959344187
 31
0.0
  0
ARC
  5
94CF
330
A
100
AcDbEntity
  8
MODEL
  6
Continuous
100
AcDbCircle
 10
1761.565408145452
 20
1050.820072259226
 30
0.0
 40
0.3000000119209289
100
AcDbArc
 50
270.0001068115048
 51
0.0000152585630699
  0
ARC
  5
94D0
330
A
100
AcDbEntity
  8
MODEL
  6
Continuous
100
AcDbCircle
 10
1739.565560733343
 20
1050.820072259226
 30
0.0
 40
0.3000000119209289
100
AcDbArc
 50
179.999954223616
 51
269.9998321533744
  0
ARC
  5
94D1
330
A
100
AcDbEntity
  8
MODEL
  6
Continuous
100
AcDbCircle
 10
1775.565484439397
 20
1117.308851968144
 30
0.0
 40
10.0
100
AcDbArc
 50
0.0
 51
90.0
  0
ARC
  5
94D2
330
A
100
AcDbEntity
  8
MODEL
  6
Continuous
100
AcDbCircle
 10
1725.565484439397
 20
1117.308851968144
 30
0.0
 40
10.0
100
AcDbArc
 50
90.0
 51
180.0
  0
ARC
  5
94D3
330
A
100
AcDbEntity
  8
MODEL
  6
Continuous
100
AcDbCircle
 10
1775.565499698187
 20
1017.308859597538
 30
0.0
 40
10.0
100
AcDbArc
 50
270.0
 51
0.0
  0
ARC
  5
94D4
330
A
100
AcDbEntity
  8
MODEL
  6
Continuous
100
AcDbCircle
 10
1725.565484439397
 20
1017.308859597538
 30
0.0
 40
10.0
100
AcDbArc
 50
180.0
 51
270.0
  0
LINE
  5
94D6
330
A
100
AcDbEntity
  8
MODEL
  6
Continuous
100
AcDbLine
 10
1736.315484439397
 20
1084.869945611277
 30
0.0
 11
1764.815484439397
 21
1084.869945611277
 31
0.0
  0
SPLINE
  5
94DE
330
A
100
AcDbEntity
  8
MODEL
  6
CENTER2
100
AcDbSpline
210
0.0
220
0.0
230
1.0
 70
  1064
 71
     3
 72
    14
 73
    10
 74
     8
 42
0.000000001
 43
0.0000000001
 44
0.0
 40
0.0
 40
0.0
 40
0.0
 40
0.0
 40
15.40944549321843
 40
80.20767133915855
 40
185.9916242865027
 40
263.5190444085937
 40
309.952527940608
 40
323.8596800270586
 40
379.151825893655
 40
379.151825893655
 40
379.151825893655
 40
379.151825893655
 10
1673.80561296856
 20
1264.158690528442
 30
0.0
 10
1679.456182143374
 20
1264.380639205476
 30
0.0
 10
1708.867947508463
 20
1265.535903783263
 30
0.0
 10
1678.662168650569
 20
1172.247474577332
 30
0.0
 10
1677.402468895935
 20
1105.196245323522
 30
0.0
 10
1678.177405453904
 20
1027.198413942235
 30
0.0
 10
1709.660109149802
 20
980.4160181949972
 30
0.0
 10
1751.776052170233
 20
987.637424905965
 30
0.0
 10
1751.103151009091
 20
1016.3445336086
 30
0.0
 10
1750.565484439397
 20
1039.282304492799
 30
0.0
 11
1673.80561296856
 21
1264.158690528442
 31
0.0
 11
1689.190947560647
 21
1263.297011993256
 31
0.0
 11
1689.190947560647
 21
1198.498786147316
 31
0.0
 11
1677.774848973038
 21
1093.332644285004
 31
0.0
 11
1689.190947560647
 21
1016.650354518558
 31
0.0
 11
1721.942392090376
 21
983.7351411038778
 31
0.0
 11
1735.657587566997
 21
986.0378117693738
 31
0.0
 11
1750.565484439397
 21
1039.282304492799
 31
0.0
  0
LEADER
  5
94E2
330
A
100
AcDbEntity
  8
DIM
  6
Continuous
100
AcDbLeader
  3
JIS
 76
     3
 10
1728.075593189849
 20
983.8894777929647
 30
0.0
 10
1697.38624177097
 20
745.9607873383422
 30
0.0
 10
2000.697086156234
 20
745.9607873383422
 30
0.0
1001
ACAD
1000
DSTYLE
1002
{
1070
   179
1070
     0
1070
    41
1040
6.0
1070
   271
1070
     0
1070
    43
1040
25.0
1070
    44
1040
0.0
1070
    42
1040
25.0
1070
   147
1040
15.0
1070
   140
1040
24.0
1002
}
  0
MTEXT
  5
94E4
330
A
100
AcDbEntity
  8
MODEL
390
1D
100
AcDbMText
 10
1710.279510333742
 20
785.4173376469855
 30
0.0
 40
24.4326171875
 41
0.0
 46
24.4326171875
 71
     1
 72
     1
  1
{電源コードL = 1200}
  7
ＭＳ ゴシック
 73
     1
 44
0.7828267384257843
1001
ACAD
1000
ACAD_MTEXT_DEFINED_HEIGHT_BEGIN
1070
    46
1040
24.4326171875
1000
ACAD_MTEXT_DEFINED_HEIGHT_END
  0
LINE
  5
96C1
330
A
100
AcDbEntity
  8
DIM
  6
Continuous
100
AcDbLine
 10
344.974900801478
 20
1217.347987056647
 30
0.0
 11
344.974900801478
 21
1448.472569927668
 31
0.0
  0
LINE
  5
96C2
330
A
100
AcDbEntity
  8
DIM
  6
Continuous
100
AcDbLine
 10
342.8435806474707
 20
849.3367134315661
 30
0.0
 11
342.8435806474707
 21
1003.507762262117
 31
0.0
  0
MTEXT
  5
96F2
330
A
100
AcDbEntity
  8
MODEL
390
1D
100
AcDbMText
 10
244.2679743942336
 20
828.319130832507
 30
0.0
 40
24.4326171875
 41
0.0
 46
24.4326171875
 71
     1
 72
     1
  1
{排水管差込口}
  7
ＭＳ ゴシック
 73
     1
 44
0.7828267384257843
1001
ACAD
1000
ACAD_MTEXT_DEFINED_HEIGHT_BEGIN
1070
    46
1040
24.4326171875
1000
ACAD_MTEXT_DEFINED_HEIGHT_END
  0
MTEXT
  5
96F6
330
A
100
AcDbEntity
  8
MODEL
390
1D
100
AcDbMText
 10
244.2679743942336
 20
1506.890977291016
 30
0.0
 40
24.4326171875
 41
0.0
 46
24.4326171875
 71
     1
 72
     1
  1
{洗浄管差込口}
  7
ＭＳ ゴシック
 73
     1
 44
0.7828267384257843
1001
ACAD
1000
ACAD_MTEXT_DEFINED_HEIGHT_BEGIN
1070
    46
1040
24.4326171875
1000
ACAD_MTEXT_DEFINED_HEIGHT_END
  0
LINE
  5
976F
330
A
100
AcDbEntity
  8
DIM
  6
Continuous
100
AcDbLine
 10
1573.972337902129
 20
1152.579052824326
 30
0.0
 11
1381.463424474659
 21
645.4458091465197
 31
0.0
  0
LINE
  5
9770
330
A
100
AcDbEntity
  8
DIM
  6
Continuous
100
AcDbLine
 10
1201.463424474659
 20
645.4458091465197
 30
0.0
 11
1676.04977369117
 21
645.4458091465197
 31
0.0
  0
LINE
  5
9771
330
A
100
AcDbEntity
  8
DIM
  6
Continuous
100
AcDbLine
 10
1393.972337902129
 20
1152.579052824326
 30
0.0
 11
1201.463424474659
 21
645.4458091465197
 31
0.0
  0
MTEXT
  5
9772
330
A
100
AcDbEntity
  8
MODEL
390
1D
100
AcDbMText
 10
1411.083624121657
 20
686.0755120521947
 30
0.0
 40
24.4326171875
 41
0.0
 46
24.4326171875
 71
     1
 72
     1
  1
{壁取付ボルト位置}
  7
ＭＳ ゴシック
 73
     1
 44
0.7828267384257843
1001
ACAD
1000
ACAD_MTEXT_DEFINED_HEIGHT_BEGIN
1070
    46
1040
24.4326171875
1000
ACAD_MTEXT_DEFINED_HEIGHT_END
  0
MTEXT
  5
9796
330
A
100
AcDbEntity
  8
MODEL
390
1D
100
AcDbMText
 10
979.7429911926065
 20
772.257467105873
 30
0.0
 40
24.4326171875
 41
0.0
 46
24.4326171875
 71
     1
 72
     1
  1
{給水ホース}
  7
ＭＳ ゴシック
 73
     1
 44
0.7828267384257843
1001
ACAD
1000
ACAD_MTEXT_DEFINED_HEIGHT_BEGIN
1070
    46
1040
24.4326171875
1000
ACAD_MTEXT_DEFINED_HEIGHT_END
  0
LEADER
  5
9797
330
A
100
AcDbEntity
  8
DIM
  6
Continuous
100
AcDbLeader
  3
JIS
 76
     3
 10
1264.176261420914
 20
1051.319156296252
 30
0.0
 10
1155.369956414729
 20
732.8009167972298
 30
0.0
 10
967.9682192569328
 20
732.8009167972298
 30
0.0
1001
ACAD
1000
DSTYLE
1002
{
1070
   179
1070
     0
1070
    41
1040
6.0
1070
   271
1070
     0
1070
    43
1040
25.0
1070
    44
1040
0.0
1070
    42
1040
25.0
1070
   147
1040
15.0
1070
   140
1040
24.0
1002
}
  0
SPLINE
  5
97F8
330
A
100
AcDbEntity
  8
DIM
  6
CENTER2
100
AcDbSpline
210
0.0
220
0.0
230
1.0
 70
  1064
 71
     3
 72
    10
 73
     6
 74
     4
 42
0.000000001
 43
0.0000000001
 44
0.0
 40
0.0
 40
0.0
 40
0.0
 40
0.0
 40
109.4727349848163
 40
180.2603495335513
 40
260.1743786096956
 40
260.1743786096956
 40
260.1743786096956
 40
260.1743786096956
 10
299.8896729973748
 20
1034.441886125325
 30
0.0
 10
341.0415426416883
 20
1036.752094689366
 30
0.0
 10
408.803167552877
 20
1040.556137799344
 30
0.0
 10
436.1585389222946
 20
1133.934313501295
 30
0.0
 10
435.1617246430959
 20
1183.293296467788
 30
0.0
 10
434.633134221815
 20
1209.467365343716
 30
0.0
 11
299.8896729973748
 21
1034.441886125325
 31
0.0
 11
405.3438123404696
 21
1063.830730955685
 31
0.0
 11
431.4830051082794
 21
1129.615447835425
 31
0.0
 11
434.633134221815
 21
1209.467365343716
 31
0.0
  0
LINE
  5
97F9
330
A
100
AcDbEntity
  8
MODEL
  6
Continuous
100
AcDbLine
 10
436.080064221806
 20
1204.711025343716
 30
0.0
 11
432.8861942218177
 21
1201.517155343717
 31
0.0
  0
LINE
  5
97FA
330
A
100
AcDbEntity
  8
MODEL
  6
Continuous
100
AcDbLine
 10
433.9557842218169
 20
1204.725745343717
 30
0.0
 11
430.7471942218149
 21
1201.517155343717
 31
0.0
  0
LINE
  5
97FB
330
A
100
AcDbEntity
  8
MODEL
  6
Continuous
100
AcDbLine
 10
431.8165942218152
 20
1204.725745343717
 30
0.0
 11
428.6081942218193
 21
1201.517155343717
 31
0.0
  0
LINE
  5
97FC
330
A
100
AcDbEntity
  8
MODEL
  6
Continuous
100
AcDbLine
 10
429.6775942218196
 20
1204.725745343717
 30
0.0
 11
427.633134221815
 21
1202.681285343716
 31
0.0
  0
LINE
  5
97FD
330
A
100
AcDbEntity
  8
MODEL
  6
Continuous
100
AcDbLine
 10
439.9660042218134
 20
1204.318775343717
 30
0.0
 11
437.149564221811
 21
1201.502335343717
 31
0.0
  0
LINE
  5
97FE
330
A
100
AcDbEntity
  8
MODEL
  6
Continuous
100
AcDbLine
 10
438.2191542218102
 20
1204.710925343717
 30
0.0
 11
435.0105642218155
 21
1201.502335343717
 31
0.0
  0
LINE
  5
97FF
330
A
100
AcDbEntity
  8
MODEL
  6
Continuous
100
AcDbLine
 10
441.633134221815
 20
1203.847075343715
 30
0.0
 11
439.2887042218104
 21
1201.502335343717
 31
0.0
  0
LINE
  5
9800
330
A
100
AcDbEntity
  8
MODEL
  6
Continuous
100
AcDbLine
 10
441.633134221815
 20
1203.406305343718
 30
0.0
 11
440.3433342218164
 21
1204.696105343717
 31
0.0
  0
LINE
  5
9801
330
A
100
AcDbEntity
  8
MODEL
  6
Continuous
100
AcDbLine
 10
439.2886842218109
 20
1203.641455343717
 30
0.0
 11
436.0799942218114
 21
1206.849955343717
 31
0.0
  0
LINE
  5
9802
330
A
100
AcDbEntity
  8
MODEL
  6
Continuous
100
AcDbLine
 10
441.633134221815
 20
1207.684375343716
 30
0.0
 11
440.3433342218164
 21
1208.974105343717
 31
0.0
  0
LINE
  5
9803
330
A
100
AcDbEntity
  8
MODEL
  6
Continuous
100
AcDbLine
 10
441.633134221815
 20
1208.124905343714
 30
0.0
 11
439.302304221816
 21
1205.794075343716
 31
0.0
  0
LINE
  5
9804
330
A
100
AcDbEntity
  8
MODEL
  6
Continuous
100
AcDbLine
 10
441.633134221815
 20
1205.985855343717
 30
0.0
 11
439.2887842218156
 21
1203.641365343717
 31
0.0
  0
LINE
  5
9805
330
A
100
AcDbEntity
  8
MODEL
  6
Continuous
100
AcDbLine
 10
439.2886542218153
 20
1207.919425343718
 30
0.0
 11
438.2264242218193
 21
1208.996385343716
 31
0.0
  0
LINE
  5
9806
330
A
100
AcDbEntity
  8
MODEL
  6
Continuous
100
AcDbLine
 10
441.633134221815
 20
1205.698795343718
 30
0.0
 11
440.3871742218148
 21
1206.878945343718
 31
0.0
  0
LINE
  5
9807
330
A
100
AcDbEntity
  8
MODEL
  6
Continuous
100
AcDbLine
 10
433.9694442218138
 20
1204.739405343718
 30
0.0
 11
433.4660042218134
 21
1204.235965343717
 31
0.0
  0
LINE
  5
9808
330
A
100
AcDbEntity
  8
MODEL
  6
Continuous
100
AcDbLine
 10
438.6974042218176
 20
1209.467365343716
 30
0.0
 11
435.0543042218164
 21
1205.824265343717
 31
0.0
  0
LINE
  5
9809
330
A
100
AcDbEntity
  8
MODEL
  6
Continuous
100
AcDbLine
 10
440.8364042218132
 20
1209.467365343716
 30
0.0
 11
437.1495242218048
 21
1205.780495343717
 31
0.0
  0
LINE
  5
980A
330
A
100
AcDbEntity
  8
MODEL
  6
Continuous
100
AcDbLine
 10
438.2190542218127
 20
1208.989025343716
 30
0.0
 11
437.7518142218146
 21
1209.467365343716
 31
0.0
  0
LINE
  5
980B
330
A
100
AcDbEntity
  8
MODEL
  6
Continuous
100
AcDbLine
 10
437.1370042218082
 20
1207.906965343716
 30
0.0
 11
435.612814221819
 21
1209.467365343716
 31
0.0
  0
LINE
  5
980C
330
A
100
AcDbEntity
  8
MODEL
  6
Continuous
100
AcDbLine
 10
440.3787442218204
 20
1204.731385343717
 30
0.0
 11
438.2258342218161
 21
1206.856795343715
 31
0.0
  0
LINE
  5
980D
330
A
100
AcDbEntity
  8
MODEL
  6
Continuous
100
AcDbLine
 10
437.1422942218164
 20
1203.634065343718
 30
0.0
 11
434.633134221815
 21
1206.178015343717
 31
0.0
  0
LINE
  5
980E
330
A
100
AcDbEntity
  8
MODEL
  6
Continuous
100
AcDbLine
 10
443.0823642218134
 20
1209.467365343716
 30
0.0
 11
434.633134221815
 21
1209.467365343716
 31
0.0
  0
LWPOLYLINE
  5
980F
330
A
100
AcDbEntity
  8
MODEL
  6
Continuous
100
AcDbPolyline
 90
        4
 70
     0
 43
0.0
 10
434.633134221815
 20
1223.763205343717
 10
436.4514442218174
 20
1223.763205343717
 10
436.4514442218174
 20
1214.030655343716
 10
434.633134221815
 20
1214.030655343716
  0
LWPOLYLINE
  5
9810
330
A
100
AcDbEntity
  8
MODEL
  6
Continuous
100
AcDbPolyline
 90
        4
 70
     1
 43
0.0
 10
440.4799342218144
 20
1223.763205343717
 10
440.4799342218144
 20
1214.030655343716
 10
438.0912342218185
 20
1214.030655343716
 10
438.0912342218185
 20
1223.763205343717
  0
LWPOLYLINE
  5
9811
330
A
100
AcDbEntity
  8
MODEL
  6
Continuous
100
AcDbPolyline
 90
        4
 70
     0
 43
0.0
 10
443.0823642218134
 20
1209.467365343716
 10
443.0823642218134
 20
1211.178525343717
 10
441.5851242218164
 20
1214.030655343716
 10
441.5851242218164
 20
1223.763205343717
  0
LWPOLYLINE
  5
9812
330
A
100
AcDbEntity
  8
MODEL
  6
Continuous
100
AcDbPolyline
 90
        4
 70
     0
 43
0.0
 10
434.633134221815
 20
1223.763205343717
 10
432.8148242218126
 20
1223.763205343717
 10
432.8148242218126
 20
1214.030655343716
 10
434.633134221815
 20
1214.030655343716
  0
LWPOLYLINE
  5
9813
330
A
100
AcDbEntity
  8
MODEL
  6
Continuous
100
AcDbPolyline
 90
        4
 70
     1
 43
0.0
 10
428.7863342218084
 20
1223.763205343717
 10
428.7863342218084
 20
1214.030655343716
 10
431.1750342218188
 20
1214.030655343716
 10
431.1750342218188
 20
1223.763205343717
  0
LWPOLYLINE
  5
9814
330
A
100
AcDbEntity
  8
MODEL
  6
Continuous
100
AcDbPolyline
 90
        4
 70
     0
 43
0.0
 10
426.1839042218167
 20
1209.467365343716
 10
426.1839042218167
 20
1211.178525343717
 10
427.6811442218136
 20
1214.030655343716
 10
427.6811442218136
 20
1223.763205343717
  0
LINE
  5
9815
330
A
100
AcDbEntity
  8
MODEL
  6
Continuous
100
AcDbLine
 10
426.1839042218167
 20
1209.467365343716
 30
0.0
 11
434.633134221815
 21
1209.467365343716
 31
0.0
  0
LINE
  5
9816
330
A
100
AcDbEntity
  8
MODEL
  6
Continuous
100
AcDbLine
 10
429.6775942218196
 20
1209.003945343716
 30
0.0
 11
427.633134221815
 21
1206.959215343716
 31
0.0
  0
LINE
  5
9817
330
A
100
AcDbEntity
  8
MODEL
  6
Continuous
100
AcDbLine
 10
431.8165942218152
 20
1209.003945343716
 30
0.0
 11
428.6081942218193
 21
1205.795345343716
 31
0.0
  0
LINE
  5
9818
330
A
100
AcDbEntity
  8
MODEL
  6
Continuous
100
AcDbLine
 10
433.9735842218183
 20
1209.021735343718
 30
0.0
 11
430.7471942218149
 21
1205.795345343716
 31
0.0
  0
LINE
  5
9819
330
A
100
AcDbEntity
  8
MODEL
  6
Continuous
100
AcDbLine
 10
436.0799642218158
 20
1208.989115343716
 30
0.0
 11
432.8861942218177
 21
1205.795345343716
 31
0.0
  0
LINE
  5
981A
330
A
100
AcDbEntity
  8
MODEL
  6
Continuous
100
AcDbLine
 10
435.0430842218161
 20
1207.952235343718
 30
0.0
 11
433.527944221813
 21
1209.467365343716
 31
0.0
  0
LINE
  5
981B
330
A
100
AcDbEntity
  8
MODEL
  6
Continuous
100
AcDbLine
 10
432.8861942218177
 20
1207.934345343715
 30
0.0
 11
431.3887542218113
 21
1209.467365343716
 31
0.0
  0
LINE
  5
981C
330
A
100
AcDbEntity
  8
MODEL
  6
Continuous
100
AcDbLine
 10
434.633134221815
 20
1206.223185343716
 30
0.0
 11
433.9557842218169
 21
1206.864745343716
 31
0.0
  0
LINE
  5
981D
330
A
100
AcDbEntity
  8
MODEL
  6
Continuous
100
AcDbLine
 10
430.7471942218149
 20
1207.934345343715
 30
0.0
 11
429.2497542218157
 21
1209.467365343716
 31
0.0
  0
LINE
  5
981E
330
A
100
AcDbEntity
  8
MODEL
  6
Continuous
100
AcDbLine
 10
435.0455842218112
 20
1203.677005343717
 30
0.0
 11
431.8165942218152
 21
1206.864745343716
 31
0.0
  0
LINE
  5
981F
330
A
100
AcDbEntity
  8
MODEL
  6
Continuous
100
AcDbLine
 10
428.6081942218193
 20
1207.934345343715
 30
0.0
 11
427.633134221815
 21
1208.990515343717
 31
0.0
  0
LINE
  5
9820
330
A
100
AcDbEntity
  8
MODEL
  6
Continuous
100
AcDbLine
 10
432.8861942218177
 20
1203.656345343717
 30
0.0
 11
429.6775942218196
 21
1206.864745343716
 31
0.0
  0
LINE
  5
9821
330
A
100
AcDbEntity
  8
MODEL
  6
Continuous
100
AcDbLine
 10
430.7471942218149
 20
1203.656345343717
 30
0.0
 11
427.633134221815
 21
1206.813585343716
 31
0.0
  0
LINE
  5
9822
330
A
100
AcDbEntity
  8
MODEL
  6
Continuous
100
AcDbLine
 10
428.6081942218193
 20
1203.656345343717
 30
0.0
 11
427.633134221815
 21
1204.712515343717
 31
0.0
  0
LINE
  5
9823
330
A
100
AcDbEntity
  8
MODEL
  6
Continuous
100
AcDbLine
 10
441.633134221815
 20
1201.502335343717
 30
0.0
 11
441.633134221815
 21
1209.467365343716
 31
0.0
  0
LINE
  5
9824
330
A
100
AcDbEntity
  8
MODEL
  6
Continuous
100
AcDbLine
 10
427.633134221815
 20
1201.517155343717
 30
0.0
 11
427.633134221815
 21
1209.467365343716
 31
0.0
  0
ARC
  5
9825
330
A
100
AcDbEntity
  8
MODEL
  6
Continuous
100
AcDbCircle
 10
437.633134221815
 20
1253.324725343716
 30
0.0
 40
2.0
100
AcDbArc
 50
0.0
 51
90.0
  0
LINE
  5
9826
330
A
100
AcDbEntity
  8
MODEL
  6
Continuous
100
AcDbLine
 10
437.633134221815
 20
1255.324725343716
 30
0.0
 11
431.633134221815
 21
1255.324725343716
 31
0.0
  0
ARC
  5
9827
330
A
100
AcDbEntity
  8
MODEL
  6
Continuous
100
AcDbCircle
 10
434.633134221815
 20
1250.324725343716
 30
0.0
 40
8.25
100
AcDbArc
 50
307.3052010000285
 51
232.6947990000135
  0
ARC
  5
9828
330
A
100
AcDbEntity
  8
MODEL
  6
Continuous
100
AcDbCircle
 10
434.633134221815
 20
1257.830275343718
 30
0.0
 40
5.0
100
AcDbArc
 50
60.00000000000011
 51
119.9999999999999
  0
LINE
  5
9829
330
A
100
AcDbEntity
  8
MODEL
  6
Continuous
100
AcDbLine
 10
443.633134221815
 20
1258.407625343715
 30
0.0
 11
437.133134221815
 21
1262.160405343716
 31
0.0
  0
ARC
  5
982A
330
A
100
AcDbEntity
  8
MODEL
  6
Continuous
100
AcDbCircle
 10
431.633134221815
 20
1253.324725343716
 30
0.0
 40
2.0
100
AcDbArc
 50
90.0
 51
180.0
  0
LINE
  5
982B
330
A
100
AcDbEntity
  8
MODEL
  6
Continuous
100
AcDbLine
 10
429.633134221815
 20
1253.324725343716
 30
0.0
 11
429.633134221815
 21
1229.324725343716
 31
0.0
  0
LINE
  5
982C
330
A
100
AcDbEntity
  8
MODEL
  6
Continuous
100
AcDbLine
 10
439.633134221815
 20
1229.324725343716
 30
0.0
 11
439.633134221815
 21
1253.324725343716
 31
0.0
  0
ARC
  5
982D
330
A
100
AcDbEntity
  8
MODEL
  6
Continuous
100
AcDbCircle
 10
428.133134221815
 20
1254.077495343717
 30
0.0
 40
5.0
100
AcDbArc
 50
119.9999999999999
 51
180.0
  0
ARC
  5
982E
330
A
100
AcDbEntity
  8
MODEL
  6
Continuous
100
AcDbCircle
 10
428.133134221815
 20
1246.571945343717
 30
0.0
 40
5.0
100
AcDbArc
 50
180.0
 51
240.0000000000001
  0
ARC
  5
982F
330
A
100
AcDbEntity
  8
MODEL
  6
Continuous
100
AcDbCircle
 10
441.133134221815
 20
1246.571945343717
 30
0.0
 40
5.0
100
AcDbArc
 50
299.9999999999998
 51
0.0
  0
ARC
  5
9830
330
A
100
AcDbEntity
  8
MODEL
  6
Continuous
100
AcDbCircle
 10
441.133134221815
 20
1254.077495343717
 30
0.0
 40
5.0
100
AcDbArc
 50
0.0
 51
60.00000000000011
  0
LINE
  5
9831
330
A
100
AcDbEntity
  8
MODEL
  6
Continuous
100
AcDbLine
 10
446.133134221815
 20
1246.571945343717
 30
0.0
 11
446.133134221815
 21
1254.077495343717
 31
0.0
  0
LINE
  5
9832
330
A
100
AcDbEntity
  8
MODEL
  6
Continuous
100
AcDbLine
 10
439.633134221815
 20
1239.932415343717
 30
0.0
 11
443.633134221815
 21
1242.241815343717
 31
0.0
  0
LINE
  5
9833
330
A
100
AcDbEntity
  8
MODEL
  6
Continuous
100
AcDbLine
 10
425.633134221815
 20
1242.241815343717
 30
0.0
 11
429.633134221815
 21
1239.932415343717
 31
0.0
  0
LINE
  5
9834
330
A
100
AcDbEntity
  8
MODEL
  6
Continuous
100
AcDbLine
 10
423.133134221815
 20
1254.077495343717
 30
0.0
 11
423.133134221815
 21
1246.571945343717
 31
0.0
  0
LINE
  5
9835
330
A
100
AcDbEntity
  8
MODEL
  6
Continuous
100
AcDbLine
 10
432.133134221815
 20
1262.160405343716
 30
0.0
 11
425.633134221815
 21
1258.407625343715
 31
0.0
  0
LINE
  5
9836
330
A
100
AcDbEntity
  8
DIM
  6
Continuous
100
AcDbLine
 10
434.633134221815
 20
1229.324725343716
 30
0.0
 11
434.633134221815
 21
1246.021824255736
 31
0.0
  0
LWPOLYLINE
  5
9837
330
A
100
AcDbEntity
  8
MODEL
  6
Continuous
100
AcDbPolyline
 90
       15
 70
     0
 43
0.0
 10
429.0002542218103
 20
1229.324725343716
 10
428.4654542218091
 20
1229.253345343718
 10
427.9306542218151
 20
1229.075215343716
 10
427.4672242218117
 20
1228.789925343718
 10
427.039384221815
 20
1228.469045343718
 10
426.682924221805
 20
1228.041395343718
 10
426.4334142218108
 20
1227.577775343715
 10
426.2550842218157
 20
1227.043175343716
 10
426.1839042218167
 20
1226.508375343717
 10
426.2194942218089
 20
1225.973575343717
 10
426.3264542218208
 20
1225.438775343716
 10
426.5403742218082
 20
1224.939765343717
 10
426.8612542218148
 20
1224.476335343717
 10
427.2177142218102
 20
1224.119675343717
 10
427.6811442218136
 20
1223.798795343715
  0
LWPOLYLINE
  5
9838
330
A
100
AcDbEntity
  8
MODEL
  6
Continuous
100
AcDbPolyline
 90
       15
 70
     0
 43
0.0
 10
440.2660142218197
 20
1229.324725343716
 10
440.8008142218137
 20
1229.253345343718
 10
441.3356142218077
 20
1229.075215343716
 10
441.7990442218111
 20
1228.789925343718
 10
442.226884221815
 20
1228.469045343718
 10
442.5833442218177
 20
1228.041395343718
 10
442.8328542218192
 20
1227.577775343715
 10
443.0111842218144
 20
1227.043175343716
 10
443.0823642218134
 20
1226.508375343717
 10
443.0467742218139
 20
1225.973575343717
 10
442.9398142218092
 20
1225.438775343716
 10
442.7258942218145
 20
1224.939765343717
 10
442.4050142218152
 20
1224.476335343717
 10
442.0485442218164
 20
1224.119675343717
 10
441.5851242218164
 20
1223.798795343715
  0
LINE
  5
9839
330
A
100
AcDbEntity
  8
MODEL
  6
Continuous
100
AcDbLine
 10
429.0002542218103
 20
1229.324725343716
 30
0.0
 11
440.2660142218197
 21
1229.324725343716
 31
0.0
  0
DIMENSION
  5
992E
102
{ACAD_REACTORS
330
9930
102
}
102
{ACAD_XDICTIONARY
360
992F
102
}
330
A
100
AcDbEntity
  8
MODEL
  6
Continuous
100
AcDbDimension
  2
*D20
 10
1775.911248668054
 20
1153.817389024941
 30
0.0
 11
1748.911248668054
 21
1211.693294559455
 31
0.0
 70
    32
  1
115
 71
     5
 42
115.7518110690289
 73
     0
 74
     0
 75
     0
  3
JIS
100
AcDbAlignedDimension
 13
1696.475230382892
 23
1269.56920009397
 33
0.0
 14
1583.976553487704
 24
1153.817389024941
 34
0.0
 50
90.0
100
AcDbRotatedDimension
1001
ACAD
1000
DSTYLE
1002
{
1070
   144
1040
1.0
1070
   179
1070
     0
1070
    41
1040
6.0
1070
   271
1070
     0
1070
    43
1040
25.0
1070
    44
1040
0.0
1070
    42
1040
25.0
1070
   147
1040
15.0
1070
   140
1040
24.0
1002
}
  0
LINE
  5
99EB
330
A
100
AcDbEntity
  8
MODEL
390
1D
100
AcDbLine
 10
1315.1027366435
 20
1943.909999999999
 30
0.0
 11
1595.1027366435
 21
1943.909999999999
 31
0.0
  0
LINE
  5
99EC
330
A
100
AcDbEntity
  8
MODEL
390
1D
100
AcDbLine
 10
1595.1027366435
 20
1943.909999999999
 30
0.0
 11
1595.1027366435
 21
2103.91
 31
0.0
  0
LINE
  5
99ED
330
A
100
AcDbEntity
  8
MODEL
390
1D
100
AcDbLine
 10
1595.1027366435
 20
2103.91
 30
0.0
 11
1315.1027366435
 21
2103.91
 31
0.0
  0
LINE
  5
99EE
330
A
100
AcDbEntity
  8
MODEL
390
1D
100
AcDbLine
 10
1315.1027366435
 20
2103.91
 30
0.0
 11
1315.1027366435
 21
1943.909999999999
 31
0.0
  0
LINE
  5
99EF
330
A
100
AcDbEntity
  8
MODEL
390
1D
100
AcDbLine
 10
1315.1027366435
 20
1963.909999999999
 30
0.0
 11
1595.1027366435
 21
1963.909999999999
 31
0.0
  0
LINE
  5
99F0
330
A
100
AcDbEntity
  8
MODEL
390
1D
100
AcDbLine
 10
1317.1027366435
 20
2101.91
 30
0.0
 11
1317.1027366435
 21
1965.909999999998
 31
0.0
  0
LINE
  5
99F1
330
A
100
AcDbEntity
  8
MODEL
390
1D
100
AcDbLine
 10
1593.1027366435
 20
2101.91
 30
0.0
 11
1317.1027366435
 21
2101.91
 31
0.0
  0
LINE
  5
99F2
330
A
100
AcDbEntity
  8
MODEL
390
1D
100
AcDbLine
 10
1593.1027366435
 20
1965.909999999998
 30
0.0
 11
1593.1027366435
 21
2101.91
 31
0.0
  0
LINE
  5
99F3
330
A
100
AcDbEntity
  8
MODEL
390
1D
100
AcDbLine
 10
1317.1027366435
 20
1965.909999999998
 30
0.0
 11
1593.1027366435
 21
1965.909999999998
 31
0.0
  0
LINE
  5
99F4
330
A
100
AcDbEntity
  8
MODEL
390
1D
100
AcDbLine
 10
1317.1027366435
 20
2033.909999999999
 30
0.0
 11
1593.1027366435
 21
2033.909999999999
 31
0.0
  0
LINE
  5
99F5
330
A
100
AcDbEntity
  8
MODEL
390
1D
100
AcDbLine
 10
1455.1027366435
 20
2101.91
 30
0.0
 11
1455.1027366435
 21
1965.909999999998
 31
0.0
  0
LINE
  5
99F6
330
A
100
AcDbEntity
  8
MODEL
390
1D
100
AcDbLine
 10
1524.102736643497
 20
2101.91
 30
0.0
 11
1524.102736643497
 21
1965.909999999998
 31
0.0
  0
LINE
  5
99F7
330
A
100
AcDbEntity
  8
MODEL
390
1D
100
AcDbLine
 10
1386.1027366435
 20
2101.91
 30
0.0
 11
1386.1027366435
 21
1965.909999999998
 31
0.0
  0
LINE
  5
99F8
330
A
100
AcDbEntity
  8
MODEL
390
1D
100
AcDbLine
 10
1719.795926643498
 20
1943.909999999999
 30
0.0
 11
1785.795926643502
 21
1943.909999999999
 31
0.0
  0
LINE
  5
99F9
330
A
100
AcDbEntity
  8
MODEL
390
1D
100
AcDbLine
 10
1785.795926643502
 20
1943.909999999999
 30
0.0
 11
1785.795926643502
 21
2103.91
 31
0.0
  0
LINE
  5
99FA
330
A
100
AcDbEntity
  8
MODEL
390
1D
100
AcDbLine
 10
1785.795926643502
 20
2103.91
 30
0.0
 11
1719.795926643498
 21
2103.91
 31
0.0
  0
LINE
  5
99FB
330
A
100
AcDbEntity
  8
MODEL
390
1D
100
AcDbLine
 10
1719.795926643498
 20
2103.91
 30
0.0
 11
1719.795926643498
 21
1943.909999999999
 31
0.0
  0
LINE
  5
99FC
330
A
100
AcDbEntity
  8
MODEL
390
1D
100
AcDbLine
 10
1719.795926643498
 20
1963.909999999999
 30
0.0
 11
1763.795926643498
 21
1963.909999999999
 31
0.0
  0
LINE
  5
99FD
330
A
100
AcDbEntity
  8
MODEL
390
1D
100
AcDbLine
 10
1763.795926643498
 20
1963.909999999999
 30
0.0
 11
1763.795926643498
 21
2103.91
 31
0.0
  0
LINE
  5
99FE
330
A
100
AcDbEntity
  8
MODEL
390
1D
100
AcDbLine
 10
1763.795926643498
 20
2033.909999999999
 30
0.0
 11
1719.795926643498
 21
2033.909999999999
 31
0.0
  0
LINE
  5
99FF
330
A
100
AcDbEntity
  8
MODEL
390
1D
100
AcDbLine
 10
1763.795926643498
 20
1998.909999999999
 30
0.0
 11
1719.795926643498
 21
1998.909999999999
 31
0.0
  0
DIMENSION
  5
9A00
330
A
100
AcDbEntity
  8
DIM
  6
Continuous
390
1D
100
AcDbDimension
  2
*D28
 10
1785.795926643502
 20
2176.610444265597
 30
0.0
 11
1751.044182585676
 21
2176.610444265597
 31
0.0
 70
   160
  1
\A1;<>
 71
     5
 41
0.96
 42
33.00000000000182
 73
     0
 74
     0
 75
     0
  3
JIS
100
AcDbAlignedDimension
 13
1719.795926643498
 23
2124.0904742656
 33
0.0
 14
1785.795926643502
 24
2124.0904742656
 34
0.0
100
AcDbRotatedDimension
1001
ACAD
1000
DSTYLE
1002
{
1070
   144
1040
0.5
1070
    44
1040
0.0
1002
}
  0
CIRCLE
  5
9A01
330
A
100
AcDbEntity
  8
MODEL
390
1D
100
AcDbCircle
 10
1455.1027366435
 20
1993.909999999999
 30
0.0
 40
4.5
  0
CIRCLE
  5
9A02
330
A
100
AcDbEntity
  8
MODEL
390
1D
100
AcDbCircle
 10
1555.1027366435
 20
2053.909999999999
 30
0.0
 40
4.5
  0
CIRCLE
  5
9A03
330
A
100
AcDbEntity
  8
MODEL
390
1D
100
AcDbCircle
 10
1355.1027366435
 20
2053.909999999999
 30
0.0
 40
4.5
  0
LINE
  5
9A04
330
A
100
AcDbEntity
  8
MODEL
390
1D
100
AcDbLine
 10
1777.8186366435
 20
2053.909999999999
 30
0.0
 11
1793.773216643501
 21
2053.909999999999
 31
0.0
  0
LINE
  5
9A05
330
A
100
AcDbEntity
  8
MODEL
390
1D
100
AcDbLine
 10
1777.8186366435
 20
1993.909999999999
 30
0.0
 11
1793.773216643501
 21
1993.909999999999
 31
0.0
  0
LINE
  5
9A06
330
A
100
AcDbEntity
  8
MODEL
390
1D
100
AcDbLine
 10
1365.6027366435
 20
2053.909999999999
 30
0.0
 11
1344.6027366435
 21
2053.909999999999
 31
0.0
  0
LINE
  5
9A07
330
A
100
AcDbEntity
  8
MODEL
390
1D
100
AcDbLine
 10
1355.1027366435
 20
2064.41
 30
0.0
 11
1355.1027366435
 21
2043.409999999998
 31
0.0
  0
LINE
  5
9A08
330
A
100
AcDbEntity
  8
MODEL
390
1D
100
AcDbLine
 10
1565.6027366435
 20
2053.909999999999
 30
0.0
 11
1544.6027366435
 21
2053.909999999999
 31
0.0
  0
LINE
  5
9A09
330
A
100
AcDbEntity
  8
MODEL
390
1D
100
AcDbLine
 10
1555.1027366435
 20
2064.41
 30
0.0
 11
1555.1027366435
 21
2043.409999999998
 31
0.0
  0
LINE
  5
9A0A
330
A
100
AcDbEntity
  8
MODEL
390
1D
100
AcDbLine
 10
1465.6027366435
 20
1993.909999999999
 30
0.0
 11
1444.6027366435
 21
1993.909999999999
 31
0.0
  0
LINE
  5
9A0B
330
A
100
AcDbEntity
  8
MODEL
390
1D
100
AcDbLine
 10
1455.1027366435
 20
2004.409999999999
 30
0.0
 11
1455.1027366435
 21
1983.409999999998
 31
0.0
  0
DIMENSION
  5
9A0C
330
A
100
AcDbEntity
  8
DIM
  6
Continuous
390
1D
100
AcDbDimension
  2
*D29
 10
1455.102736643499
 20
2172.132692793505
 30
0.0
 11
1405.1027366435
 21
2172.132692793505
 31
0.0
 70
   160
  1
\A1;<>
 71
     5
 41
0.96
 42
49.99999999999977
 73
     0
 74
     0
 75
     0
  3
JIS
100
AcDbAlignedDimension
 13
1355.1027366435
 23
2119.411135185921
 33
0.0
 14
1455.102736643499
 24
2115.926334838945
 34
0.0
100
AcDbRotatedDimension
1001
ACAD
1000
DSTYLE
1002
{
1070
   144
1040
0.5
1070
    44
1040
0.0
1002
}
  0
DIMENSION
  5
9A0D
330
A
100
AcDbEntity
  8
DIM
  6
Continuous
390
1D
100
AcDbDimension
  2
*D30
 10
1555.1027366435
 20
2172.132692793505
 30
0.0
 11
1505.1027366435
 21
2172.132692793505
 31
0.0
 70
   160
  1
\A1;<>
 71
     5
 41
0.96
 42
50.0
 73
     0
 74
     0
 75
     0
  3
JIS
100
AcDbAlignedDimension
 13
1455.1027366435
 23
2156.911135185921
 33
0.0
 14
1555.1027366435
 24
2119.411135185921
 34
0.0
100
AcDbRotatedDimension
1001
ACAD
1000
DSTYLE
1002
{
1070
   144
1040
0.5
1070
    44
1040
0.0
1002
}
  0
DIMENSION
  5
9A0E
330
A
100
AcDbEntity
  8
DIM
  6
Continuous
390
1D
100
AcDbDimension
  2
*D31
 10
1895.67305824495
 20
1993.909999999999
 30
0.0
 11
1895.67305824495
 21
2023.909999999999
 31
0.0
 70
   160
  1
\A1;<>
 71
     5
 41
0.96
 42
30.0
 73
     0
 74
     0
 75
     0
  3
JIS
100
AcDbAlignedDimension
 13
1818.4382407459
 23
2053.909999999999
 33
0.0
 14
1818.4382407459
 24
1993.909999999999
 34
0.0
 50
90.0
100
AcDbRotatedDimension
1001
ACAD
1000
DSTYLE
1002
{
1070
   144
1040
0.5
1070
    44
1040
0.0
1002
}
  0
DIMENSION
  5
9A0F
330
A
100
AcDbEntity
  8
DIM
  6
Continuous
390
1D
100
AcDbDimension
  2
*D32
 10
1242.5851171875
 20
2103.91
 30
0.0
 11
1242.5851171875
 21
2023.91
 31
0.0
 70
   160
  1
\A1;<>
 71
     5
 41
0.96
 42
80.00000000000023
 73
     0
 74
     0
 75
     0
  3
JIS
100
AcDbAlignedDimension
 13
1300.1542371875
 23
1943.91
 33
0.0
 14
1300.1542371875
 24
2103.91
 34
0.0
 50
90.0
100
AcDbRotatedDimension
1001
ACAD
1000
DSTYLE
1002
{
1070
   144
1040
0.5
1070
    44
1040
0.0
1002
}
  0
DIMENSION
  5
9A10
330
A
100
AcDbEntity
  8
DIM
  6
Continuous
390
1D
100
AcDbDimension
  2
*D33
 10
1595.1027366435
 20
2227.143170791585
 30
0.0
 11
1455.102736643499
 21
2227.143170791585
 31
0.0
 70
   160
  1
\A1;<>
 71
     5
 41
0.96
 42
140.0
 73
     0
 74
     0
 75
     0
  3
JIS
100
AcDbAlignedDimension
 13
1315.1027366435
 23
2115.90617081344
 33
0.0
 14
1595.1027366435
 24
2115.90617081344
 34
0.0
100
AcDbRotatedDimension
1001
ACAD
1000
DSTYLE
1002
{
1070
   144
1040
0.5
1070
    44
1040
0.0
1002
}
  0
MTEXT
  5
9A11
330
A
100
AcDbEntity
  8
DIM
  6
Continuous
390
1D
100
AcDbMText
 10
1324.429306643498
 20
2361.983539999998
 30
0.0
 40
25.0
 41
0.0
 46
27.925
 71
     1
 72
     1
  1
{\W0.945946;ワイヤレスリモコン(1:2)}
  7
ＭＳ ゴシック
 73
     1
 44
0.96
1001
ACAD
1000
ACAD_MTEXT_DEFINED_HEIGHT_BEGIN
1070
    46
1040
27.925
1000
ACAD_MTEXT_DEFINED_HEIGHT_END
  0
VIEWPORT
  5
349
330
B
100
AcDbEntity
 67
     1
  8
0
100
AcDbViewport
 10
202.5
 20
128.5
 30
0.0
 40
486.0
 41
308.4
 68
     1
 69
     1
 12
202.5
 22
128.5
 13
0.0
 23
0.0
 14
0.5
 24
0.5
 15
0.0
 25
0.0
 16
0.0
 26
0.0
 36
1.0
 17
0.0
 27
0.0
 37
0.0
 42
50.0
 43
0.0
 44
0.0
 45
308.4
 50
0.0
 51
0.0
 72
   100
 90
   557152
  1

281
     0
 71
     1
 74
     0
110
0.0
120
0.0
130
0.0
111
1.0
121
0.0
131
0.0
112
0.0
122
1.0
132
0.0
 79
     0
146
0.0
170
     0
 61
     5
348
26C
292
     1
282
     1
141
0.0
142
0.0
 63
   256
  0
VIEWPORT
  5
34A
330
B
100
AcDbEntity
 67
     1
  8
0
100
AcDbViewport
 10
202.5
 20
128.5
 30
0.0
 40
324.0
 41
205.6
 68
     2
 69
     2
 12
986.6781359294573
 22
1427.077061889956
 13
0.0
 23
0.0
 14
0.5
 24
0.5
 15
0.0
 25
0.0
 16
0.0
 26
0.0
 36
1.0
 17
0.0
 27
0.0
 37
0.0
 42
50.0
 43
0.0
 44
0.0
 45
2890.021615685494
 50
0.0
 51
0.0
 72
   100
 90
   557152
  1

281
     0
 71
     1
 74
     0
110
0.0
120
0.0
130
0.0
111
1.0
121
0.0
131
0.0
112
0.0
122
1.0
132
0.0
 79
     0
146
0.0
170
     0
 61
     5
348
26C
292
     1
282
     1
141
0.0
142
0.0
 63
   256
  0
ENDSEC
  0
SECTION
  2
OBJECTS
  0
DICTIONARY
  5
19
330
0
100
AcDbDictionary
281
     1
  3
ACAD_COLOR
350
38F
  3
ACAD_DETAILVIEWSTYLE
350
BE8
  3
ACAD_GROUP
350
1A
  3
ACAD_IMAGE_VARS
350
27B
  3
ACAD_LAYOUT
350
1E
  3
ACAD_MATERIAL
350
263
  3
ACAD_MLEADERSTYLE
350
336
  3
ACAD_MLINESTYLE
350
1B
  3
ACAD_PLOTSETTINGS
350
22
  3
ACAD_PLOTSTYLENAME
350
1F
  3
ACAD_SCALELIST
350
241
  3
ACAD_SECTIONVIEWSTYLE
350
BE9
  3
ACAD_TABLESTYLE
350
278
  3
ACAD_VISUALSTYLE
350
267
  3
AcadDim
350
94E3
  3
ACDB_RECOMPOSE_DATA
350
9A62
  3
AcDbVariableDictionary
350
330
  3
APPDATA
350
27A
  0
SUN
  5
BE4
330
15
100
AcDbSun
 90
        1
290
     0
 63
     7
421
 16777215
 40
1.0
291
     1
 91
  2455826
 92
 54000000
292
     0
 70
     2
 71
   256
280
     1
  0
DICTIONARY
  5
2E1
330
2
100
AcDbDictionary
280
     1
281
     1
  3
ACAD_LAYERSTATES
360
2E2
  3
ACLYDICTIONARY
360
95C2
  0
DICTIONARY
  5
9013
330
9012
100
AcDbDictionary
280
     1
281
     1
  3
ACAD_DIMASSOC
360
9014
  0
DICTIONARY
  5
90B9
330
90B8
100
AcDbDictionary
280
     1
281
     1
  3
ACAD_DIMASSOC
360
90BA
  0
DICTIONARY
  5
90C9
330
90C8
100
AcDbDictionary
280
     1
281
     1
  3
ACAD_DIMASSOC
360
90CA
  0
DICTIONARY
  5
92C6
330
92C5
100
AcDbDictionary
280
     1
281
     1
  3
ACAD_DIMASSOC
360
92C7
  0
DICTIONARY
  5
992F
330
992E
100
AcDbDictionary
280
     1
281
     1
  3
ACAD_DIMASSOC
360
9930
  0
DICTIONARY
  5
38F
102
{ACAD_REACTORS
330
19
102
}
330
19
100
AcDbDictionary
281
     1
  0
DICTIONARY
  5
BE8
102
{ACAD_REACTORS
330
19
102
}
330
19
100
AcDbDictionary
281
     1
  0
DICTIONARY
  5
1A
102
{ACAD_REACTORS
330
19
102
}
330
19
100
AcDbDictionary
281
     1
  0
RASTERVARIABLES
  5
27B
102
{ACAD_REACTORS
330
19
102
}
330
19
100
AcDbRasterVariables
 90
        0
 70
     1
 71
     1
 72
     1
  0
DICTIONARY
  5
1E
102
{ACAD_REACTORS
330
19
102
}
330
19
100
AcDbDictionary
281
     1
  3
Layout1
350
21
  3
Model
350
20
  0
DICTIONARY
  5
263
102
{ACAD_REACTORS
330
19
102
}
330
19
100
AcDbDictionary
281
     1
  3
ByBlock
350
992C
  3
ByLayer
350
264
  3
Global
350
266
  0
DICTIONARY
  5
336
102
{ACAD_REACTORS
330
19
102
}
330
19
100
AcDbDictionary
281
     1
  3
Standard
350
992D
  0
DICTIONARY
  5
1B
102
{ACAD_REACTORS
330
19
102
}
330
19
100
AcDbDictionary
281
     1
  3
Standard
350
1C
  0
DICTIONARY
  5
22
102
{ACAD_REACTORS
330
19
102
}
330
19
100
AcDbDictionary
281
     1
  0
ACDBDICTIONARYWDFLT
  5
1F
102
{ACAD_REACTORS
330
19
102
}
330
19
100
AcDbDictionary
281
     1
  3
Normal
350
1D
100
AcDbDictionaryWithDefault
340
1D
  0
DICTIONARY
  5
241
102
{ACAD_REACTORS
330
19
102
}
330
19
100
AcDbDictionary
281
     1
  3
A0
350
242
  3
A1
350
243
  3
A2
350
244
  3
A3
350
245
  3
A4
350
246
  3
A5
350
247
  3
A6
350
248
  3
A7
350
249
  3
A8
350
24A
  3
A9
350
24B
  3
B0
350
24C
  3
B1
350
24D
  3
B2
350
24E
  3
B3
350
24F
  3
B4
350
250
  3
B5
350
251
  3
B6
350
252
  3
B7
350
253
  3
B8
350
254
  3
B9
350
255
  3
C0
350
256
  3
C1
350
257
  3
C2
350
258
  3
C3
350
259
  3
C4
350
25A
  3
C5
350
25B
  3
C6
350
25C
  3
C7
350
25D
  3
C8
350
25E
  3
C9
350
25F
  3
D0
350
260
  3
D1
350
261
  3
D2
350
262
  0
DICTIONARY
  5
BE9
102
{ACAD_REACTORS
330
19
102
}
330
19
100
AcDbDictionary
281
     1
  0
DICTIONARY
  5
278
102
{ACAD_REACTORS
330
19
102
}
330
19
100
AcDbDictionary
281
     1
  3
Standard
350
279
  0
DICTIONARY
  5
267
102
{ACAD_REACTORS
330
19
102
}
330
19
100
AcDbDictionary
281
     1
  3
2dWireframe
350
26C
  3
3D Hidden
350
26E
  3
3dWireframe
350
26D
  3
Basic
350
26F
  3
Brighten
350
273
  3
ColorChange
350
277
  3
Conceptual
350
271
  3
Dim
350
272
  3
EdgeColorOff
350
BDE
  3
Facepattern
350
276
  3
Flat
350
268
  3
FlatWithEdges
350
269
  3
Gouraud
350
26A
  3
GouraudWithEdges
350
26B
  3
Hidden
350
BDB
  3
JitterOff
350
BDC
  3
Linepattern
350
275
  3
OverhangOff
350
BDD
  3
Realistic
350
270
  3
Shaded
350
BE3
  3
Shaded with edges
350
BE2
  3
Shades of Gray
350
BDF
  3
Sketchy
350
BE0
  3
Thicken
350
274
  3
Wireframe
350
BDA
  3
X-Ray
350
BE1
  0
XRECORD
  5
94E3
102
{ACAD_REACTORS
330
19
102
}
330
19
100
AcDbXrecord
280
     1
340
0
 72
     0
 71
     0
 70
     0
 69
     0
 68
     1
 67
     3
 66
     0
 65
     0
 64
     0
 63
     3
 62
     1
 61
     0
 60
     0
 40
0.0
  0
XRECORD
  5
9A62
102
{ACAD_REACTORS
330
19
102
}
330
19
100
AcDbXrecord
280
     1
 90
        1
330
279
  0
DICTIONARY
  5
330
102
{ACAD_REACTORS
330
19
102
}
330
19
100
AcDbDictionary
281
     1
  3
CANNOSCALE
350
331
  3
CMLEADERSTYLE
350
9941
  3
CTABLESTYLE
350
335
  3
HPTRANSPARENCY
350
C00
  3
XCLIPFRAME
350
64A
  0
DICTIONARY
  5
27A
102
{ACAD_REACTORS
330
19
102
}
330
19
100
AcDbDictionary
281
     1
  0
DICTIONARY
  5
2E2
102
{ACAD_REACTORS
330
2E1
102
}
330
2E1
100
AcDbDictionary
281
     1
  0
DICTIONARY
  5
95C2
102
{ACAD_REACTORS
330
2E1
102
}
330
2E1
100
AcDbDictionary
281
     1
1001
ACAD
1000
<All
  0
DIMASSOC
  5
9014
102
{ACAD_REACTORS
330
9013
102
}
330
9013
100
AcDbDimAssoc
330
9012
 90
        3
 70
     0
 71
     1
  1
AcDbOsnapPointRef
 72
    13
331
80C7
 73
     2
 91
        2
 40
0.0
 10
0.0
 20
0.0
 30
0.0
 75
     0
  1
AcDbOsnapPointRef
 72
     1
331
80C7
 73
     2
 91
        4
 40
1.0
 10
0.0
 20
0.0
 30
0.0
 75
     0
  0
DIMASSOC
  5
90BA
102
{ACAD_REACTORS
330
90B9
102
}
330
90B9
100
AcDbDimAssoc
330
90B8
 90
        2
 70
     0
 71
     1
  1
AcDbOsnapPointRef
 72
     1
331
7EAA
 73
     0
 91
        0
 40
0.0
 10
0.0
 20
0.0
 30
0.0
 75
     0
  0
DIMASSOC
  5
90CA
102
{ACAD_REACTORS
330
90C9
102
}
330
90C9
100
AcDbDimAssoc
330
90C8
 90
        3
 70
     0
 71
     1
  1
AcDbOsnapPointRef
 72
     1
331
7EAA
 73
     0
 91
        0
 40
0.0
 10
0.0
 20
0.0
 30
0.0
 75
     0
  1
AcDbOsnapPointRef
 72
     1
331
7EA2
 73
     0
 91
        0
 40
0.0
 10
0.0
 20
0.0
 30
0.0
 75
     0
  0
DIMASSOC
  5
92C7
102
{ACAD_REACTORS
330
92C6
102
}
330
92C6
100
AcDbDimAssoc
330
92C5
 90
        3
 70
     0
 71
     1
  1
AcDbOsnapPointRef
 72
     5
331
920C
 73
     0
 91
        0
 40
4.71238898038469
 10
0.0
 20
0.0
 30
0.0
 75
     0
  1
AcDbOsnapPointRef
 72
     1
331
9208
 73
     0
 91
        0
 40
0.0
 10
0.0
 20
0.0
 30
0.0
 75
     0
  0
DIMASSOC
  5
9930
102
{ACAD_REACTORS
330
992F
102
}
330
992F
100
AcDbDimAssoc
330
992E
 90
        2
 70
     0
 71
     1
  1
AcDbOsnapPointRef
 72
    13
331
801E
 73
     0
 91
        0
 40
0.0
 10
0.0
 20
0.0
 30
0.0
 75
     0
  0
LAYOUT
  5
21
102
{ACAD_REACTORS
330
1E
102
}
330
1E
100
AcDbPlotSettings
  1

  2
none_device
  4
ISO_A3_(420.00_x_297.00_MM)
  6

 40
7.5
 41
20.0
 42
7.5
 43
20.0
 44
420.0
 45
297.0
 46
0.0
 47
0.0
 48
0.0
 49
0.0
140
0.0
141
0.0
142
1.0
143
1.0
 70
     0
 72
     1
 73
     0
 74
     0
  7

 75
     0
 76
     0
 77
     2
 78
   300
147
1.0
148
0.0
149
0.0
100
AcDbLayout
  1
Layout1
 70
     0
 71
     0
 10
0.0
 20
0.0
 11
0.0
 21
0.0
 12
0.0
 22
0.0
 32
0.0
 14
0.0
 24
0.0
 34
0.0
 15
0.0
 25
0.0
 35
0.0
146
0.0
 13
0.0
 23
0.0
 33
0.0
 16
0.0
 26
0.0
 36
0.0
 17
0.0
 27
0.0
 37
0.0
 76
     0
330
B
331
349
  0
LAYOUT
  5
20
102
{ACAD_REACTORS
330
1E
102
}
330
1E
100
AcDbPlotSettings
  1

  2
none_device
  4
ISO_A3_(420.00_x_297.00_MM)
  6

 40
7.5
 41
20.0
 42
7.5
 43
20.0
 44
420.0
 45
297.0
 46
0.0
 47
0.0
 48
0.0
 49
0.0
140
0.0
141
0.0
142
1.0
143
1.0
 70
  1024
 72
     1
 73
     0
 74
     0
  7

 75
     0
 76
     0
 77
     2
 78
   300
147
1.0
148
0.0
149
0.0
100
AcDbLayout
  1
Model
 70
     0
 71
     1
 10
0.0
 20
0.0
 11
2100.0
 21
2970.0
 12
0.0
 22
0.0
 32
0.0
 14
0.0
 24
0.0
 34
0.0
 15
2100.0
 25
2970.0
 35
0.0
146
0.0
 13
0.0
 23
0.0
 33
0.0
 16
0.0
 26
0.0
 36
0.0
 17
0.0
 27
0.0
 37
0.0
 76
     0
330
A
331
15
  0
MATERIAL
  5
992C
102
{ACAD_REACTORS
330
263
102
}
330
263
100
AcDbMaterial
  1
ByBlock
 72
     1
 94
      127
  0
MATERIAL
  5
264
102
{ACAD_REACTORS
330
263
102
}
330
263
100
AcDbMaterial
  1
ByLayer
 72
     1
 94
      127
  0
MATERIAL
  5
266
102
{ACAD_REACTORS
330
263
102
}
330
263
100
AcDbMaterial
  1
Global
 72
     1
 94
      127
  0
MLEADERSTYLE
  5
992D
102
{ACAD_REACTORS
330
336
102
}
330
336
100
AcDbMLeaderStyle
170
     2
171
     1
172
     0
 90
        2
 40
0.0
 41
0.0
173
     1
 91
-1056964608
340
11
 92
       -2
290
     1
 42
2.0
291
     1
 43
8.0
  3
Standard
341
0
 44
4.0
300

342
17
174
     1
178
     1
175
     1
176
     0
 93
-1056964608
 45
4.0
292
     0
297
     0
 46
4.0
343
0
 94
-1056964608
 47
1.0
 49
1.0
140
1.0
293
     1
141
0.0
294
     1
177
     0
142
1.0
295
     0
296
     0
143
3.75
1001
ACAD_MLEADERVER
1070
     2
  0
MLINESTYLE
  5
1C
102
{ACAD_REACTORS
330
1B
102
}
330
1B
100
AcDbMlineStyle
  2
Standard
 70
     0
  3

 62
     0
 51
90.0
 52
90.0
 71
     2
 49
0.5
 62
   256
  6
BYLAYER
 49
-0.5
 62
   256
  6
BYLAYER
  0
ACDBPLACEHOLDER
  5
1D
102
{ACAD_REACTORS
330
1F
102
}
330
1F
  0
SCALE
  5
242
102
{ACAD_REACTORS
330
241
102
}
330
241
100
AcDbScale
 70
     0
300
1:1
140
1.0
141
1.0
290
     1
  0
SCALE
  5
243
102
{ACAD_REACTORS
330
241
102
}
330
241
100
AcDbScale
 70
     0
300
1:2
140
1.0
141
2.0
290
     0
  0
SCALE
  5
244
102
{ACAD_REACTORS
330
241
102
}
330
241
100
AcDbScale
 70
     0
300
1:4
140
1.0
141
4.0
290
     0
  0
SCALE
  5
245
102
{ACAD_REACTORS
330
241
102
}
330
241
100
AcDbScale
 70
     0
300
1:5
140
1.0
141
5.0
290
     0
  0
SCALE
  5
246
102
{ACAD_REACTORS
330
241
102
}
330
241
100
AcDbScale
 70
     0
300
1:8
140
1.0
141
8.0
290
     0
  0
SCALE
  5
247
102
{ACAD_REACTORS
330
241
102
}
330
241
100
AcDbScale
 70
     0
300
1:10
140
1.0
141
10.0
290
     0
  0
SCALE
  5
248
102
{ACAD_REACTORS
330
241
102
}
330
241
100
AcDbScale
 70
     0
300
1:16
140
1.0
141
16.0
290
     0
  0
SCALE
  5
249
102
{ACAD_REACTORS
330
241
102
}
330
241
100
AcDbScale
 70
     0
300
1:20
140
1.0
141
20.0
290
     0
  0
SCALE
  5
24A
102
{ACAD_REACTORS
330
241
102
}
330
241
100
AcDbScale
 70
     0
300
1:30
140
1.0
141
30.0
290
     0
  0
SCALE
  5
24B
102
{ACAD_REACTORS
330
241
102
}
330
241
100
AcDbScale
 70
     0
300
1:40
140
1.0
141
40.0
290
     0
  0
SCALE
  5
24C
102
{ACAD_REACTORS
330
241
102
}
330
241
100
AcDbScale
 70
     0
300
1:50
140
1.0
141
50.0
290
     0
  0
SCALE
  5
24D
102
{ACAD_REACTORS
330
241
102
}
330
241
100
AcDbScale
 70
     0
300
1:100
140
1.0
141
100.0
290
     0
  0
SCALE
  5
24E
102
{ACAD_REACTORS
330
241
102
}
330
241
100
AcDbScale
 70
     0
300
2:1
140
2.0
141
1.0
290
     0
  0
SCALE
  5
24F
102
{ACAD_REACTORS
330
241
102
}
330
241
100
AcDbScale
 70
     0
300
4:1
140
4.0
141
1.0
290
     0
  0
SCALE
  5
250
102
{ACAD_REACTORS
330
241
102
}
330
241
100
AcDbScale
 70
     0
300
8:1
140
8.0
141
1.0
290
     0
  0
SCALE
  5
251
102
{ACAD_REACTORS
330
241
102
}
330
241
100
AcDbScale
 70
     0
300
10:1
140
10.0
141
1.0
290
     0
  0
SCALE
  5
252
102
{ACAD_REACTORS
330
241
102
}
330
241
100
AcDbScale
 70
     0
300
100:1
140
100.0
141
1.0
290
     0
  0
SCALE
  5
253
102
{ACAD_REACTORS
330
241
102
}
330
241
100
AcDbScale
 70
     0
300
1/128" = 1'-0"
140
0.0078125
141
12.0
290
     0
  0
SCALE
  5
254
102
{ACAD_REACTORS
330
241
102
}
330
241
100
AcDbScale
 70
     0
300
1/64" = 1'-0"
140
0.015625
141
12.0
290
     0
  0
SCALE
  5
255
102
{ACAD_REACTORS
330
241
102
}
330
241
100
AcDbScale
 70
     0
300
1/32" = 1'-0"
140
0.03125
141
12.0
290
     0
  0
SCALE
  5
256
102
{ACAD_REACTORS
330
241
102
}
330
241
100
AcDbScale
 70
     0
300
1/16" = 1'-0"
140
0.0625
141
12.0
290
     0
  0
SCALE
  5
257
102
{ACAD_REACTORS
330
241
102
}
330
241
100
AcDbScale
 70
     0
300
3/32" = 1'-0"
140
0.09375
141
12.0
290
     0
  0
SCALE
  5
258
102
{ACAD_REACTORS
330
241
102
}
330
241
100
AcDbScale
 70
     0
300
1/8" = 1'-0"
140
0.125
141
12.0
290
     0
  0
SCALE
  5
259
102
{ACAD_REACTORS
330
241
102
}
330
241
100
AcDbScale
 70
     0
300
3/16" = 1'-0"
140
0.1875
141
12.0
290
     0
  0
SCALE
  5
25A
102
{ACAD_REACTORS
330
241
102
}
330
241
100
AcDbScale
 70
     0
300
1/4" = 1'-0"
140
0.25
141
12.0
290
     0
  0
SCALE
  5
25B
102
{ACAD_REACTORS
330
241
102
}
330
241
100
AcDbScale
 70
     0
300
3/8" = 1'-0"
140
0.375
141
12.0
290
     0
  0
SCALE
  5
25C
102
{ACAD_REACTORS
330
241
102
}
330
241
100
AcDbScale
 70
     0
300
1/2" = 1'-0"
140
0.5
141
12.0
290
     0
  0
SCALE
  5
25D
102
{ACAD_REACTORS
330
241
102
}
330
241
100
AcDbScale
 70
     0
300
3/4" = 1'-0"
140
0.75
141
12.0
290
     0
  0
SCALE
  5
25E
102
{ACAD_REACTORS
330
241
102
}
330
241
100
AcDbScale
 70
     0
300
1" = 1'-0"
140
1.0
141
12.0
290
     0
  0
SCALE
  5
25F
102
{ACAD_REACTORS
330
241
102
}
330
241
100
AcDbScale
 70
     0
300
1-1/2" = 1'-0"
140
1.5
141
12.0
290
     0
  0
SCALE
  5
260
102
{ACAD_REACTORS
330
241
102
}
330
241
100
AcDbScale
 70
     0
300
3" = 1'-0"
140
3.0
141
12.0
290
     0
  0
SCALE
  5
261
102
{ACAD_REACTORS
330
241
102
}
330
241
100
AcDbScale
 70
     0
300
6" = 1'-0"
140
6.0
141
12.0
290
     0
  0
SCALE
  5
262
102
{ACAD_REACTORS
330
241
102
}
330
241
100
AcDbScale
 70
     0
300
1'-0" = 1'-0"
140
12.0
141
12.0
290
     0
  0
TABLESTYLE
  5
279
102
{ACAD_REACTORS
330
278
102
}
102
{ACAD_XDICTIONARY
360
9A60
102
}
330
278
100
AcDbTableStyle
  3
Standard
 70
     0
 71
     0
 40
0.06
 41
0.06
280
     0
281
     0
  7
Standard
140
4.5
170
     2
 62
     0
 63
   257
283
     0
 90
        4
 91
        0
  1

274
    -2
284
     1
 64
     0
275
    -2
285
     1
 65
     0
276
    -2
286
     1
 66
     0
277
    -2
287
     1
 67
     0
278
    -2
288
     1
 68
     0
279
    -2
289
     1
 69
     0
  7
Standard
140
6.0
170
     5
 62
     0
 63
   257
283
     0
 90
        4
 91
        0
  1

274
    -2
284
     1
 64
     0
275
    -2
285
     1
 65
     0
276
    -2
286
     1
 66
     0
277
    -2
287
     1
 67
     0
278
    -2
288
     1
 68
     0
279
    -2
289
     1
 69
     0
  7
Standard
140
4.5
170
     5
 62
     0
 63
   257
283
     0
 90
        4
 91
        0
  1

274
    -2
284
     1
 64
     0
275
    -2
285
     1
 65
     0
276
    -2
286
     1
 66
     0
277
    -2
287
     1
 67
     0
278
    -2
288
     1
 68
     0
279
    -2
289
     1
 69
     0
  0
VISUALSTYLE
  5
26C
102
{ACAD_REACTORS
330
267
102
}
330
267
100
AcDbVisualStyle
  2
2dWireframe
 70
     4
 71
     0
 72
     2
 73
     0
 90
        0
 40
-0.6
 41
-30.0
 62
     5
 63
     7
421
 16777215
 74
     1
 91
        4
 64
     7
 65
   257
 75
     1
175
     1
 42
1.0
 92
        0
 66
   257
 43
1.0
 76
     1
 77
     6
 78
     2
 67
     7
 79
     5
170
     0
171
     0
290
     0
174
     0
 93
        1
 44
0.0
173
     0
291
     0
 45
0.0
  0
VISUALSTYLE
  5
26E
102
{ACAD_REACTORS
330
267
102
}
330
267
100
AcDbVisualStyle
  2
3D Hidden
 70
     6
 71
     1
 72
     2
 73
     2
 90
        0
 40
-0.6
 41
-30.0
 62
     5
 63
     7
421
 16777215
 74
     2
 91
        2
 64
     7
 65
   257
 75
     2
175
     1
 42
40.0
 92
        0
 66
   257
 43
1.0
 76
     1
 77
     6
 78
     2
 67
     7
 79
     3
170
     0
171
     0
290
     0
174
     0
 93
        1
 44
0.0
173
     0
291
     0
 45
0.0
  0
VISUALSTYLE
  5
26D
102
{ACAD_REACTORS
330
267
102
}
330
267
100
AcDbVisualStyle
  2
3dWireframe
 70
     5
 71
     0
 72
     2
 73
     0
 90
        0
 40
-0.6
 41
-30.0
 62
     5
 63
     7
421
 16777215
 74
     1
 91
        4
 64
     7
 65
   257
 75
     1
175
     1
 42
1.0
 92
        0
 66
   257
 43
1.0
 76
     1
 77
     6
 78
     2
 67
     7
 79
     5
170
     0
171
     0
290
     0
174
     0
 93
        1
 44
0.0
173
     0
291
     0
 45
0.0
  0
VISUALSTYLE
  5
26F
102
{ACAD_REACTORS
330
267
102
}
330
267
100
AcDbVisualStyle
  2
Basic
 70
     7
 71
     1
 72
     0
 73
     1
 90
        0
 40
-0.6
 41
-30.0
 62
     5
 63
     7
421
 16777215
 74
     0
 91
        4
 64
     7
 65
   257
 75
     1
175
     1
 42
1.0
 92
        8
 66
     7
 43
1.0
 76
     1
 77
     6
 78
     2
 67
     7
 79
     5
170
     0
171
     0
290
     0
174
     0
 93
        1
 44
0.0
173
     0
291
     1
 45
0.0
  0
VISUALSTYLE
  5
273
102
{ACAD_REACTORS
330
267
102
}
330
267
100
AcDbVisualStyle
  2
Brighten
 70
    12
 71
     2
 72
     2
 73
     0
 90
        0
 40
-0.6
 41
-30.0
 62
     5
 63
     7
421
 16777215
 74
     1
 91
        4
 64
     7
 65
   257
 75
     1
175
     1
 42
1.0
 92
        8
 66
     7
 43
1.0
 76
     1
 77
     6
 78
     2
 67
     7
 79
     5
170
     0
171
     0
290
     0
174
     0
 93
        1
 44
50.0
173
     0
291
     1
 45
0.0
  0
VISUALSTYLE
  5
277
102
{ACAD_REACTORS
330
267
102
}
330
267
100
AcDbVisualStyle
  2
ColorChange
 70
    16
 71
     2
 72
     2
 73
     3
 90
        0
 40
-0.6
 41
-30.0
 62
     5
 63
     8
421
  8421504
 74
     1
 91
        4
 64
     7
 65
   257
 75
     1
175
     1
 42
1.0
 92
        8
 66
     8
424
  8421504
 43
1.0
 76
     1
 77
     6
 78
     2
 67
     7
 79
     5
170
     0
171
     0
290
     0
174
     0
 93
        1
 44
0.0
173
     0
291
     1
 45
0.0
  0
VISUALSTYLE
  5
271
102
{ACAD_REACTORS
330
267
102
}
330
267
100
AcDbVisualStyle
  2
Conceptual
 70
     9
 71
     3
 72
     2
 73
     0
 90
        0
 40
-0.6
 41
-30.0
 62
     5
 63
     7
421
 16777215
 74
     2
 91
        2
 64
     7
 65
   257
 75
     1
175
     1
 42
40.0
 92
        8
 66
     7
 43
1.0
 76
     1
 77
     6
 78
     2
 67
     7
 79
     3
170
     0
171
     0
290
     0
174
     0
 93
        1
 44
0.0
173
     0
291
     0
 45
0.0
  0
VISUALSTYLE
  5
272
102
{ACAD_REACTORS
330
267
102
}
330
267
100
AcDbVisualStyle
  2
Dim
 70
    11
 71
     2
 72
     2
 73
     0
 90
        0
 40
-0.6
 41
-30.0
 62
     5
 63
     7
421
 16777215
 74
     1
 91
        4
 64
     7
 65
   257
 75
     1
175
     1
 42
1.0
 92
        8
 66
     7
 43
1.0
 76
     1
 77
     6
 78
     2
 67
     7
 79
     5
170
     0
171
     0
290
     0
174
     0
 93
        1
 44
-50.0
173
     0
291
     1
 45
0.0
  0
VISUALSTYLE
  5
BDE
102
{ACAD_REACTORS
330
267
102
}
330
267
100
AcDbVisualStyle
  2
EdgeColorOff
 70
    22
 71
     2
 72
     2
 73
     0
 90
        0
 40
0.6
 41
30.0
 62
     5
 63
     7
421
 16777215
 74
     1
 91
        4
 64
     7
 65
   257
 75
     1
175
     1
 42
1.0
 92
        8
 66
     7
 43
1.0
 76
     1
 77
     6
 78
     2
 67
     7
 79
     5
170
     0
171
     0
290
     0
174
     0
 93
        1
 44
0.0
173
     0
291
     1
 45
0.0
  0
VISUALSTYLE
  5
276
102
{ACAD_REACTORS
330
267
102
}
330
267
100
AcDbVisualStyle
  2
Facepattern
 70
    15
 71
     2
 72
     2
 73
     0
 90
        0
 40
-0.6
 41
-30.0
 62
     5
 63
     7
421
 16777215
 74
     1
 91
        4
 64
     7
 65
   257
 75
     1
175
     1
 42
1.0
 92
        8
 66
     7
 43
1.0
 76
     1
 77
     6
 78
     2
 67
     7
 79
     5
170
     0
171
     0
290
     0
174
     0
 93
        1
 44
0.0
173
     0
291
     1
 45
0.0
  0
VISUALSTYLE
  5
268
102
{ACAD_REACTORS
330
267
102
}
330
267
100
AcDbVisualStyle
  2
Flat
 70
     0
 71
     2
 72
     1
 73
     1
 90
        2
 40
-0.6
 41
30.0
 62
     5
 63
     7
421
 16777215
 74
     0
 91
        4
 64
     7
 65
   257
 75
     1
175
     1
 42
1.0
 92
        8
 66
     7
 43
1.0
 76
     1
 77
     6
 78
     2
 67
     7
 79
     5
170
     0
171
     0
290
     0
174
     0
 93
       13
 44
0.0
173
     0
291
     1
 45
0.0
  0
VISUALSTYLE
  5
269
102
{ACAD_REACTORS
330
267
102
}
330
267
100
AcDbVisualStyle
  2
FlatWithEdges
 70
     1
 71
     2
 72
     1
 73
     1
 90
        2
 40
-0.6
 41
30.0
 62
     5
 63
     7
421
 16777215
 74
     1
 91
        4
 64
     7
 65
   257
 75
     1
175
     1
 42
1.0
 92
        0
 66
   257
 43
1.0
 76
     1
 77
     6
 78
     2
 67
     7
 79
     5
170
     0
171
     0
290
     0
174
     0
 93
       13
 44
0.0
173
     0
291
     1
 45
0.0
  0
VISUALSTYLE
  5
26A
102
{ACAD_REACTORS
330
267
102
}
330
267
100
AcDbVisualStyle
  2
Gouraud
 70
     2
 71
     2
 72
     2
 73
     1
 90
        2
 40
-0.6
 41
30.0
 62
     5
 63
     7
421
 16777215
 74
     0
 91
        4
 64
     7
 65
   257
 75
     1
175
     1
 42
1.0
 92
        0
 66
     7
 43
1.0
 76
     1
 77
     6
 78
     2
 67
     7
 79
     5
170
     0
171
     0
290
     0
174
     0
 93
       13
 44
0.0
173
     0
291
     1
 45
0.0
  0
VISUALSTYLE
  5
26B
102
{ACAD_REACTORS
330
267
102
}
330
267
100
AcDbVisualStyle
  2
GouraudWithEdges
 70
     3
 71
     2
 72
     2
 73
     1
 90
        2
 40
-0.6
 41
30.0
 62
     5
 63
     7
421
 16777215
 74
     1
 91
        4
 64
     7
 65
   257
 75
     1
175
     1
 42
1.0
 92
        0
 66
   257
 43
1.0
 76
     1
 77
     6
 78
     2
 67
     7
 79
     5
170
     0
171
     0
290
     0
174
     0
 93
       13
 44
0.0
173
     0
291
     1
 45
0.0
  0
VISUALSTYLE
  5
BDB
102
{ACAD_REACTORS
330
267
102
}
330
267
100
AcDbVisualStyle
  2
Hidden
 70
     6
 71
     1
 72
     2
 73
     2
 90
        0
 40
0.6
 41
30.0
 62
     5
 63
     7
421
 16777215
 74
     2
 91
        2
 64
     7
 65
   257
 75
     2
175
     1
 42
40.0
 92
        0
 66
   257
 43
1.0
 76
     1
 77
     6
 78
     2
 67
     7
 79
     3
170
     0
171
     0
290
     0
174
     0
 93
        1
 44
0.0
173
     0
291
     0
 45
0.0
  0
VISUALSTYLE
  5
BDC
102
{ACAD_REACTORS
330
267
102
}
330
267
100
AcDbVisualStyle
  2
JitterOff
 70
    20
 71
     2
 72
     2
 73
     0
 90
        0
 40
0.6
 41
30.0
 62
     5
 63
     7
421
 16777215
 74
     1
 91
        4
 64
     7
 65
   257
 75
     1
175
     1
 42
1.0
 92
       10
 66
     7
 43
1.0
 76
     1
 77
     6
 78
     2
 67
     7
 79
     5
170
     0
171
     0
290
     0
174
     0
 93
        1
 44
0.0
173
     0
291
     1
 45
0.0
  0
VISUALSTYLE
  5
275
102
{ACAD_REACTORS
330
267
102
}
330
267
100
AcDbVisualStyle
  2
Linepattern
 70
    14
 71
     2
 72
     2
 73
     0
 90
        0
 40
-0.6
 41
-30.0
 62
     5
 63
     7
421
 16777215
 74
     1
 91
        4
 64
     7
 65
   257
 75
     7
175
     7
 42
1.0
 92
        8
 66
     7
 43
1.0
 76
     1
 77
     6
 78
     2
 67
     7
 79
     5
170
     0
171
     0
290
     0
174
     0
 93
        1
 44
0.0
173
     0
291
     1
 45
0.0
  0
VISUALSTYLE
  5
BDD
102
{ACAD_REACTORS
330
267
102
}
330
267
100
AcDbVisualStyle
  2
OverhangOff
 70
    21
 71
     2
 72
     2
 73
     0
 90
        0
 40
0.6
 41
30.0
 62
     5
 63
     7
421
 16777215
 74
     1
 91
        4
 64
     7
 65
   257
 75
     1
175
     1
 42
1.0
 92
        9
 66
     7
 43
1.0
 76
     1
 77
     6
 78
     2
 67
     7
 79
     5
170
     0
171
     0
290
     0
174
     0
 93
        1
 44
0.0
173
     0
291
     1
 45
0.0
  0
VISUALSTYLE
  5
270
102
{ACAD_REACTORS
330
267
102
}
330
267
100
AcDbVisualStyle
  2
Realistic
 70
     8
 71
     2
 72
     2
 73
     0
 90
        0
 40
-0.6
 41
-30.0
 62
     5
 63
     7
421
 16777215
 74
     1
 91
        0
 64
     7
 65
   257
 75
     1
175
     1
 42
1.0
 92
        8
 66
     8
424
  7895160
 43
1.0
 76
     1
 77
     6
 78
     2
 67
     7
 79
     5
170
     0
171
     0
290
     0
174
     0
 93
       13
 44
0.0
173
     0
291
     0
 45
0.0
  0
VISUALSTYLE
  5
BE3
102
{ACAD_REACTORS
330
267
102
}
330
267
100
AcDbVisualStyle
  2
Shaded
 70
    27
 71
     2
 72
     2
 73
     1
 90
        2
 40
0.6
 41
30.0
 62
     5
 63
     7
421
 16777215
 74
     0
 91
        4
 64
     7
 65
   257
 75
     1
175
     1
 42
1.0
 92
        8
 66
   257
 43
1.0
 76
     1
 77
     6
 78
     2
 67
     8
425
  7895160
 79
     3
170
     0
171
     0
290
     0
174
     0
 93
        5
 44
0.0
173
     0
291
     0
 45
0.0
  0
VISUALSTYLE
  5
BE2
102
{ACAD_REACTORS
330
267
102
}
330
267
100
AcDbVisualStyle
  2
Shaded with edges
 70
    26
 71
     2
 72
     2
 73
     1
 90
        2
 40
0.6
 41
30.0
 62
     5
 63
     7
421
 16777215
 74
     1
 91
       10
 64
     7
 65
   257
 75
     2
175
     1
 42
1.0
 92
        8
 66
   257
 43
1.0
 76
     1
 77
     6
 78
     2
 67
     7
 79
     3
170
     0
171
     0
290
     0
174
     0
 93
        5
 44
0.0
173
     0
291
     0
 45
0.0
  0
VISUALSTYLE
  5
BDF
102
{ACAD_REACTORS
330
267
102
}
330
267
100
AcDbVisualStyle
  2
Shades of Gray
 70
    23
 71
     2
 72
     2
 73
     3
 90
        0
 40
0.6
 41
30.0
 62
     5
 63
     7
421
 16777215
 74
     2
 91
        2
 64
     7
 65
     7
 75
     1
175
     1
 42
40.0
 92
        8
 66
     7
 43
1.0
 76
     1
 77
     6
 78
     2
 67
     7
 79
     3
170
     0
171
     0
290
     0
174
     0
 93
        1
 44
0.0
173
     0
291
     0
 45
0.0
  0
VISUALSTYLE
  5
BE0
102
{ACAD_REACTORS
330
267
102
}
330
267
100
AcDbVisualStyle
  2
Sketchy
 70
    24
 71
     1
 72
     2
 73
     2
 90
        0
 40
0.6
 41
30.0
 62
     5
 63
     7
421
 16777215
 74
     2
 91
        2
 64
     7
 65
     7
 75
     1
175
     1
 42
40.0
 92
       11
 66
     7
 43
1.0
 76
     1
 77
     6
 78
     2
 67
     7
 79
     6
170
     0
171
     0
290
     0
174
     0
 93
        1
 44
0.0
173
     0
291
     0
 45
0.0
  0
VISUALSTYLE
  5
274
102
{ACAD_REACTORS
330
267
102
}
330
267
100
AcDbVisualStyle
  2
Thicken
 70
    13
 71
     2
 72
     2
 73
     0
 90
        0
 40
-0.6
 41
-30.0
 62
     5
 63
     7
421
 16777215
 74
     1
 91
        4
 64
     7
 65
   257
 75
     1
175
     1
 42
1.0
 92
       12
 66
     7
 43
1.0
 76
     1
 77
     6
 78
     2
 67
     7
 79
     5
170
     0
171
     0
290
     0
174
     0
 93
        1
 44
0.0
173
     0
291
     1
 45
0.0
  0
VISUALSTYLE
  5
BDA
102
{ACAD_REACTORS
330
267
102
}
330
267
100
AcDbVisualStyle
  2
Wireframe
 70
     5
 71
     0
 72
     2
 73
     0
 90
        0
 40
0.6
 41
30.0
 62
     5
 63
     7
421
 16777215
 74
     1
 91
        4
 64
     7
 65
   257
 75
     1
175
     1
 42
1.0
 92
        0
 66
   257
 43
1.0
 76
     1
 77
     6
 78
     2
 67
     7
 79
     3
170
     0
171
     0
290
     0
174
     0
 93
        1
 44
0.0
173
     0
291
     0
 45
0.0
  0
VISUALSTYLE
  5
BE1
102
{ACAD_REACTORS
330
267
102
}
330
267
100
AcDbVisualStyle
  2
X-Ray
 70
    25
 71
     2
 72
     2
 73
     1
 90
        1
 40
0.5
 41
30.0
 62
     5
 63
     7
421
 16777215
 74
     1
 91
        0
 64
     7
 65
   257
 75
     1
175
     1
 42
1.0
 92
        8
 66
     7
 43
1.0
 76
     1
 77
     6
 78
     2
 67
     7
 79
     3
170
     0
171
     0
290
     0
174
     0
 93
       13
 44
0.0
173
     0
291
     0
 45
0.0
  0
DICTIONARYVAR
  5
331
102
{ACAD_REACTORS
330
330
102
}
330
330
100
DictionaryVariables
280
     0
  1
1:1
  0
DICTIONARYVAR
  5
9941
102
{ACAD_REACTORS
330
330
102
}
330
330
100
DictionaryVariables
280
     0
  1
Standard
  0
DICTIONARYVAR
  5
335
102
{ACAD_REACTORS
330
330
102
}
330
330
100
DictionaryVariables
280
     0
  1
Standard
  0
DICTIONARYVAR
  5
C00
102
{ACAD_REACTORS
330
330
102
}
330
330
100
DictionaryVariables
280
     0
  1
ByLayer
  0
DICTIONARYVAR
  5
64A
102
{ACAD_REACTORS
330
330
102
}
330
330
100
DictionaryVariables
280
     0
  1
0
  0
DICTIONARY
  5
9A60
330
279
100
AcDbDictionary
280
     1
281
     1
  3
ACAD_ROUNDTRIP_2008_TABLESTYLE_CELLSTYLEMAP
360
9A61
  0
CELLSTYLEMAP
  5
9A61
102
{ACAD_REACTORS
330
9A60
102
}
330
9A60
100
AcDbCellStyleMap
 90
        3
300
CELLSTYLE
  1
TABLEFORMAT_BEGIN
 90
        5
170
     1
 91
        0
 92
    32768
 62
   257
 93
        1
300
CONTENTFORMAT
  1
CONTENTFORMAT_BEGIN
 90
        0
 91
        0
 92
        4
 93
        0
300

 40
0.0
140
1.0
 94
        5
 62
     0
340
17
144
6.0
309
CONTENTFORMAT_END
171
     1
301
MARGIN
  1
CELLMARGIN_BEGIN
 40
0.06
 40
0.06
 40
0.06
 40
0.06
 40
0.18
 40
0.18
309
CELLMARGIN_END
 94
        6
 95
        1
302
GRIDFORMAT
  1
GRIDFORMAT_BEGIN
 90
        0
 91
        1
 62
     0
 92
       -2
340
0
 93
        0
 40
0.045
309
GRIDFORMAT_END
 95
        2
302
GRIDFORMAT
  1
GRIDFORMAT_BEGIN
 90
        0
 91
        1
 62
     0
 92
       -2
340
0
 93
        0
 40
0.045
309
GRIDFORMAT_END
 95
        4
302
GRIDFORMAT
  1
GRIDFORMAT_BEGIN
 90
        0
 91
        1
 62
     0
 92
       -2
340
0
 93
        0
 40
0.045
309
GRIDFORMAT_END
 95
        8
302
GRIDFORMAT
  1
GRIDFORMAT_BEGIN
 90
        0
 91
        1
 62
     0
 92
       -2
340
0
 93
        0
 40
0.045
309
GRIDFORMAT_END
 95
       16
302
GRIDFORMAT
  1
GRIDFORMAT_BEGIN
 90
        0
 91
        1
 62
     0
 92
       -2
340
0
 93
        0
 40
0.045
309
GRIDFORMAT_END
 95
       32
302
GRIDFORMAT
  1
GRIDFORMAT_BEGIN
 90
        0
 91
        1
 62
     0
 92
       -2
340
0
 93
        0
 40
0.045
309
GRIDFORMAT_END
309
TABLEFORMAT_END
  1
CELLSTYLE_BEGIN
 90
        1
 91
        1
300
_TITLE
309
CELLSTYLE_END
300
CELLSTYLE
  1
TABLEFORMAT_BEGIN
 90
        5
170
     1
 91
        0
 92
        0
 62
   257
 93
        1
300
CONTENTFORMAT
  1
CONTENTFORMAT_BEGIN
 90
        0
 91
        0
 92
        4
 93
        0
300

 40
0.0
140
1.0
 94
        5
 62
     0
340
17
144
4.5
309
CONTENTFORMAT_END
171
     1
301
MARGIN
  1
CELLMARGIN_BEGIN
 40
0.06
 40
0.06
 40
0.06
 40
0.06
 40
0.18
 40
0.18
309
CELLMARGIN_END
 94
        6
 95
        1
302
GRIDFORMAT
  1
GRIDFORMAT_BEGIN
 90
        0
 91
        1
 62
     0
 92
       -2
340
0
 93
        0
 40
0.045
309
GRIDFORMAT_END
 95
        2
302
GRIDFORMAT
  1
GRIDFORMAT_BEGIN
 90
        0
 91
        1
 62
     0
 92
       -2
340
0
 93
        0
 40
0.045
309
GRIDFORMAT_END
 95
        4
302
GRIDFORMAT
  1
GRIDFORMAT_BEGIN
 90
        0
 91
        1
 62
     0
 92
       -2
340
0
 93
        0
 40
0.045
309
GRIDFORMAT_END
 95
        8
302
GRIDFORMAT
  1
GRIDFORMAT_BEGIN
 90
        0
 91
        1
 62
     0
 92
       -2
340
0
 93
        0
 40
0.045
309
GRIDFORMAT_END
 95
       16
302
GRIDFORMAT
  1
GRIDFORMAT_BEGIN
 90
        0
 91
        1
 62
     0
 92
       -2
340
0
 93
        0
 40
0.045
309
GRIDFORMAT_END
 95
       32
302
GRIDFORMAT
  1
GRIDFORMAT_BEGIN
 90
        0
 91
        1
 62
     0
 92
       -2
340
0
 93
        0
 40
0.045
309
GRIDFORMAT_END
309
TABLEFORMAT_END
  1
CELLSTYLE_BEGIN
 90
        2
 91
        1
300
_HEADER
309
CELLSTYLE_END
300
CELLSTYLE
  1
TABLEFORMAT_BEGIN
 90
        5
170
     1
 91
        0
 92
        0
 62
   257
 93
        1
300
CONTENTFORMAT
  1
CONTENTFORMAT_BEGIN
 90
        0
 91
        0
 92
        4
 93
        0
300

 40
0.0
140
1.0
 94
        2
 62
     0
340
17
144
4.5
309
CONTENTFORMAT_END
171
     1
301
MARGIN
  1
CELLMARGIN_BEGIN
 40
0.06
 40
0.06
 40
0.06
 40
0.06
 40
0.18
 40
0.18
309
CELLMARGIN_END
 94
        6
 95
        1
302
GRIDFORMAT
  1
GRIDFORMAT_BEGIN
 90
        0
 91
        1
 62
     0
 92
       -2
340
0
 93
        0
 40
0.045
309
GRIDFORMAT_END
 95
        2
302
GRIDFORMAT
  1
GRIDFORMAT_BEGIN
 90
        0
 91
        1
 62
     0
 92
       -2
340
0
 93
        0
 40
0.045
309
GRIDFORMAT_END
 95
        4
302
GRIDFORMAT
  1
GRIDFORMAT_BEGIN
 90
        0
 91
        1
 62
     0
 92
       -2
340
0
 93
        0
 40
0.045
309
GRIDFORMAT_END
 95
        8
302
GRIDFORMAT
  1
GRIDFORMAT_BEGIN
 90
        0
 91
        1
 62
     0
 92
       -2
340
0
 93
        0
 40
0.045
309
GRIDFORMAT_END
 95
       16
302
GRIDFORMAT
  1
GRIDFORMAT_BEGIN
 90
        0
 91
        1
 62
     0
 92
       -2
340
0
 93
        0
 40
0.045
309
GRIDFORMAT_END
 95
       32
302
GRIDFORMAT
  1
GRIDFORMAT_BEGIN
 90
        0
 91
        1
 62
     0
 92
       -2
340
0
 93
        0
 40
0.045
309
GRIDFORMAT_END
309
TABLEFORMAT_END
  1
CELLSTYLE_BEGIN
 90
        3
 91
        2
300
_DATA
309
CELLSTYLE_END
  0
ENDSEC
  0
EOF
