  0
SECTION
  2
HEADER
  9
$ACADVER
  1
AC1021
  9
$ACADMAINTVER
 70
    25
  9
$DWGCODEPAGE
  3
ANSI_932
  9
$LASTSAVEDBY
  1
howeNelson
  9
$INSBASE
 10
0.0
 20
0.0
 30
0.0
  9
$EXTMIN
 10
0.0
 20
0.0
 30
0.0
  9
$EXTMAX
 10
2100.0
 20
2970.0
 30
0.0
  9
$LIMMIN
 10
0.0
 20
0.0
  9
$LIMMAX
 10
2100.0
 20
2970.0
  9
$ORTHOMODE
 70
     0
  9
$REGENMODE
 70
     1
  9
$FILLMODE
 70
     1
  9
$QTEXTMODE
 70
     0
  9
$MIRRTEXT
 70
     1
  9
$LTSCALE
 40
50.8
  9
$ATTMODE
 70
     1
  9
$TEXTSIZE
 40
533.0403732820173
  9
$TRACEWID
 40
1.0
  9
$TEXTSTYLE
  7
Standard
  9
$CLAYER
  8
MODEL
  9
$CELTYPE
  6
Continuous
  9
$CECOLOR
 62
   256
  9
$CELTSCALE
 40
1.0
  9
$DISPSILH
 70
     0
  9
$DIMSCALE
 40
1.0
  9
$DIMASZ
 40
6.0
  9
$DIMEXO
 40
25.0
  9
$DIMDLI
 40
25.0
  9
$DIMRND
 40
0.0
  9
$DIMDLE
 40
0.0
  9
$DIMEXE
 40
0.0
  9
$DIMTP
 40
0.0
  9
$DIMTM
 40
0.0
  9
$DIMTXT
 40
24.0
  9
$DIMCEN
 40
0.0
  9
$DIMTSZ
 40
0.0
  9
$DIMTOL
 70
     0
  9
$DIMLIM
 70
     0
  9
$DIMTIH
 70
     0
  9
$DIMTOH
 70
     0
  9
$DIMSE1
 70
     0
  9
$DIMSE2
 70
     0
  9
$DIMTAD
 70
     1
  9
$DIMZIN
 70
    11
  9
$DIMBLK
  1
DOT
  9
$DIMASO
 70
     1
  9
$DIMSHO
 70
     1
  9
$DIMPOST
  1
<>
  9
$DIMAPOST
  1
[]
  9
$DIMALT
 70
     0
  9
$DIMALTD
 70
     1
  9
$DIMALTF
 40
1.0
  9
$DIMLFAC
 40
1.0
  9
$DIMTOFL
 70
     0
  9
$DIMTVP
 40
0.0
  9
$DIMTIX
 70
     1
  9
$DIMSOXD
 70
     0
  9
$DIMSAH
 70
     0
  9
$DIMBLK1
  1

  9
$DIMBLK2
  1

  9
$DIMSTYLE
  2
JIS
  9
$DIMCLRD
 70
     0
  9
$DIMCLRE
 70
     0
  9
$DIMCLRT
 70
     0
  9
$DIMTFAC
 40
1.0
  9
$DIMGAP
 40
15.0
  9
$DIMJUST
 70
     0
  9
$DIMSD1
 70
     0
  9
$DIMSD2
 70
     0
  9
$DIMTOLJ
 70
     1
  9
$DIMTZIN
 70
    11
  9
$DIMALTZ
 70
    11
  9
$DIMALTTZ
 70
    11
  9
$DIMUPT
 70
     0
  9
$DIMDEC
 70
     0
  9
$DIMTDEC
 70
     1
  9
$DIMALTU
 70
     2
  9
$DIMALTTD
 70
     2
  9
$DIMTXSTY
  7
ＭＳ ゴシック
  9
$DIMAUNIT
 70
     0
  9
$DIMADEC
 70
     0
  9
$DIMALTRND
 40
0.0
  9
$DIMAZIN
 70
     0
  9
$DIMDSEP
 70
    46
  9
$DIMATFIT
 70
     0
  9
$DIMFRAC
 70
     2
  9
$DIMLDRBLK
  1
DOT
  9
$DIMLUNIT
 70
     2
  9
$DIMLWD
 70
    -2
  9
$DIMLWE
 70
    -2
  9
$DIMTMOVE
 70
     0
  9
$DIMFXL
 40
1.0
  9
$DIMFXLON
 70
     0
  9
$DIMJOGANG
 40
0.7853981633974483
  9
$DIMTFILL
 70
     0
  9
$DIMTFILLCLR
 70
     0
  9
$DIMARCSYM
 70
     0
  9
$DIMLTYPE
  6

  9
$DIMLTEX1
  6

  9
$DIMLTEX2
  6

  9
$LUNITS
 70
     2
  9
$LUPREC
 70
     0
  9
$SKETCHINC
 40
0.1
  9
$FILLETRAD
 40
0.0
  9
$AUNITS
 70
     0
  9
$AUPREC
 70
     0
  9
$MENU
  1
acad
  9
$ELEVATION
 40
0.0
  9
$PELEVATION
 40
0.0
  9
$THICKNESS
 40
0.0
  9
$LIMCHECK
 70
     0
  9
$CHAMFERA
 40
0.0
  9
$CHAMFERB
 40
0.0
  9
$CHAMFERC
 40
0.0
  9
$CHAMFERD
 40
0.0
  9
$SKPOLY
 70
     0
  9
$TDCREATE
 40
2447893.375
  9
$TDUCREATE
 40
0.0
  9
$TDUPDATE
 40
2458759.570587014
  9
$TDUUPDATE
 40
2458759.195587014
  9
$TDINDWG
 40
0.0
  9
$TDUSRTIMER
 40
0.0
  9
$USRTIMER
 70
     1
  9
$ANGBASE
 50
0.0
  9
$ANGDIR
 70
     0
  9
$PDMODE
 70
     1
  9
$PDSIZE
 40
-2.0
  9
$PLINEWID
 40
0.0
  9
$SPLFRAME
 70
     0
  9
$SPLINETYPE
 70
     6
  9
$SPLINESEGS
 70
     8
  9
$HANDSEED
  5
9A15
  9
$SURFTAB1
 70
     6
  9
$SURFTAB2
 70
     6
  9
$SURFTYPE
 70
     6
  9
$SURFU
 70
     6
  9
$SURFV
 70
     6
  9
$UCSBASE
  2

  9
$UCSNAME
  2

  9
$UCSORG
 10
0.0
 20
0.0
 30
0.0
  9
$UCSXDIR
 10
1.0
 20
0.0
 30
0.0
  9
$UCSYDIR
 10
0.0
 20
1.0
 30
0.0
  9
$UCSORTHOREF
  2

  9
$UCSORTHOVIEW
 70
     0
  9
$UCSORGTOP
 10
0.0
 20
0.0
 30
0.0
  9
$UCSORGBOTTOM
 10
0.0
 20
0.0
 30
0.0
  9
$UCSORGLEFT
 10
0.0
 20
0.0
 30
0.0
  9
$UCSORGRIGHT
 10
0.0
 20
0.0
 30
0.0
  9
$UCSORGFRONT
 10
0.0
 20
0.0
 30
0.0
  9
$UCSORGBACK
 10
0.0
 20
0.0
 30
0.0
  9
$PUCSBASE
  2

  9
$PUCSNAME
  2

  9
$PUCSORG
 10
0.0
 20
0.0
 30
0.0
  9
$PUCSXDIR
 10
1.0
 20
0.0
 30
0.0
  9
$PUCSYDIR
 10
0.0
 20
1.0
 30
0.0
  9
$PUCSORTHOREF
  2

  9
$PUCSORTHOVIEW
 70
     0
  9
$PUCSORGTOP
 10
0.0
 20
0.0
 30
0.0
  9
$PUCSORGBOTTOM
 10
0.0
 20
0.0
 30
0.0
  9
$PUCSORGLEFT
 10
0.0
 20
0.0
 30
0.0
  9
$PUCSORGRIGHT
 10
0.0
 20
0.0
 30
0.0
  9
$PUCSORGFRONT
 10
0.0
 20
0.0
 30
0.0
  9
$PUCSORGBACK
 10
0.0
 20
0.0
 30
0.0
  9
$USERI1
 70
     0
  9
$USERI2
 70
     0
  9
$USERI3
 70
     0
  9
$USERI4
 70
     0
  9
$USERI5
 70
     0
  9
$USERR1
 40
0.0
  9
$USERR2
 40
0.0
  9
$USERR3
 40
0.0
  9
$USERR4
 40
0.0
  9
$USERR5
 40
0.0
  9
$WORLDVIEW
 70
     1
  9
$SHADEDGE
 70
     3
  9
$SHADEDIF
 70
    70
  9
$TILEMODE
 70
     1
  9
$MAXACTVP
 70
    64
  9
$PINSBASE
 10
0.0
 20
0.0
 30
0.0
  9
$PLIMCHECK
 70
     0
  9
$PEXTMIN
 10
0.0
 20
0.0
 30
0.0
  9
$PEXTMAX
 10
0.0
 20
0.0
 30
0.0
  9
$PLIMMIN
 10
-7.5
 20
-20.0
  9
$PLIMMAX
 10
412.5
 20
277.0
  9
$UNITMODE
 70
     0
  9
$VISRETAIN
 70
     0
  9
$PLINEGEN
 70
     1
  9
$PSLTSCALE
 70
     0
  9
$TREEDEPTH
 70
  3020
  9
$CMLSTYLE
  2
Standard
  9
$CMLJUST
 70
     0
  9
$CMLSCALE
 40
1.0
  9
$PROXYGRAPHICS
 70
     0
  9
$MEASUREMENT
 70
     1
  9
$CELWEIGHT
370
    -1
  9
$ENDCAPS
280
     0
  9
$JOINSTYLE
280
     0
  9
$LWDISPLAY
290
     1
  9
$INSUNITS
 70
     4
  9
$HYPERLINKBASE
  1

  9
$STYLESHEET
  1

  9
$XEDIT
290
     1
  9
$CEPSNTYPE
380
     0
  9
$PSTYLEMODE
290
     1
  9
$FINGERPRINTGUID
  2

  9
$VERSIONGUID
  2

  9
$EXTNAMES
290
     1
  9
$PSVPSCALE
 40
0.0
  9
$OLESTARTUP
290
     0
  9
$SORTENTS
280
   127
  9
$INDEXCTL
280
     0
  9
$HIDETEXT
280
     1
  9
$XCLIPFRAME
290
     0
  9
$HALOGAP
280
     0
  9
$OBSCOLOR
 70
   257
  9
$OBSLTYPE
280
     0
  9
$INTERSECTIONDISPLAY
280
     0
  9
$INTERSECTIONCOLOR
 70
   257
  9
$DIMASSOC
280
     2
  9
$PROJECTNAME
  1

  9
$CAMERADISPLAY
290
     0
  9
$LENSLENGTH
 40
50.0
  9
$CAMERAHEIGHT
 40
0.0
  9
$STEPSPERSEC
 40
2.0
  9
$STEPSIZE
 40
6.0
  9
$3DDWFPREC
 40
2.0
  9
$PSOLWIDTH
 40
0.25
  9
$PSOLHEIGHT
 40
4.0
  9
$LOFTANG1
 40
1.570796326794897
  9
$LOFTANG2
 40
1.570796326794897
  9
$LOFTMAG1
 40
0.0
  9
$LOFTMAG2
 40
0.0
  9
$LOFTPARAM
 70
     7
  9
$LOFTNORMALS
280
     1
  9
$LATITUDE
 40
37.795
  9
$LONGITUDE
 40
-122.394
  9
$NORTHDIRECTION
 40
0.0
  9
$TIMEZONE
 70
 -8000
  9
$LIGHTGLYPHDISPLAY
280
     1
  9
$TILEMODELIGHTSYNCH
280
     1
  9
$SOLIDHIST
280
     1
  9
$SHOWHIST
280
     1
  9
$DWFFRAME
280
     2
  9
$DGNFRAME
280
     2
  9
$REALWORLDSCALE
290
     1
  9
$INTERFERECOLOR
 62
   256
  9
$CSHADOW
280
     0
  9
$SHADOWPLANELOCATION
 40
0.0
  0
ENDSEC
  0
SECTION
  2
CLASSES
  0
CLASS
  1
LWPOLYLINE
  2
AcDbPolyline
  3
ObjectDBX Classes
 90
        0
 91
        1
280
     0
281
     1
  0
CLASS
  1
IMAGE
  2
AcDbRasterImage
  3
ISM
 90
      127
 91
        9
280
     0
281
     1
  0
CLASS
  1
OLE2FRAME
  2
AcDbOle2Frame
  3
ObjectDBX Classes
 90
        0
 91
        1
280
     0
281
     1
  0
CLASS
  1
HATCH
  2
AcDbHatch
  3
ObjectDBX Classes
 90
        0
 91
        1
280
     0
281
     1
  0
CLASS
  1
DICTIONARYVAR
  2
AcDbDictionaryVar
  3
ObjectDBX Classes
 90
        0
 91
        8
280
     0
281
     0
  0
CLASS
  1
RASTERVARIABLES
  2
AcDbRasterVariables
  3
ISM
 90
        0
 91
        8
280
     0
281
     0
  0
CLASS
  1
IMAGEDEF
  2
AcDbRasterImageDef
  3
ISM
 90
        0
 91
        8
280
     0
281
     0
  0
CLASS
  1
IMAGEDEF_REACTOR
  2
AcDbRasterImageDefReactor
  3
ISM
 90
        1
 91
        8
280
     0
281
     0
  0
CLASS
  1
IDBUFFER
  2
AcDbIdBuffer
  3
ObjectDBX Classes
 90
        0
 91
        8
280
     0
281
     0
  0
CLASS
  1
SPATIAL_FILTER
  2
AcDbSpatialFilter
  3
ObjectDBX Classes
 90
        0
 91
        8
280
     0
281
     0
  0
CLASS
  1
XRECORD
  2
AcDbXrecord
  3
ObjectDBX Classes
 90
        0
 91
        1
280
     0
281
     0
  0
CLASS
  1
SORTENTSTABLE
  2
AcDbSortentsTable
  3
ObjectDBX Classes
 90
        0
 91
        8
280
     0
281
     0
  0
CLASS
  1
LAYER_INDEX
  2
AcDbLayerIndex
  3
ObjectDBX Classes
 90
        0
 91
        8
280
     0
281
     0
  0
CLASS
  1
SPATIAL_INDEX
  2
AcDbSpatialIndex
  3
AutoCAD 2000
 90
        0
 91
        8
280
     0
281
     0
  0
CLASS
  1
OBJECT_PTR
  2
CAseDLPNTableRecord
  3
ASE-LPNTableRecord
 90
        1
 91
        8
280
     0
281
     0
  0
CLASS
  1
LAYOUT
  2
AcDbLayout
  3
ObjectDBX Classes
 90
        0
 91
        1
280
     0
281
     0
  0
CLASS
  1
PLOTSETTINGS
  2
AcDbPlotSettings
  3
ObjectDBX Classes
 90
        0
 91
        8
280
     0
281
     0
  0
CLASS
  1
ACDBDICTIONARYWDFLT
  2
AcDbDictionaryWithDefault
  3
ObjectDBX Classes
 90
        0
 91
        8
280
     0
281
     0
  0
CLASS
  1
ACDBPLACEHOLDER
  2
AcDbPlaceHolder
  3
ObjectDBX Classes
 90
        0
 91
        1
280
     0
281
     0
  0
CLASS
  1
SCALE
  2
AcDbScale
  3
ObjectDBX Classes
 90
     1153
 91
        8
280
     0
281
     0
  0
CLASS
  1
MATERIAL
  2
AcDbMaterial
  3
ObjectDBX Classes
 90
     1153
 91
        8
280
     0
281
     0
  0
CLASS
  1
VISUALSTYLE
  2
AcDbVisualStyle
  3
ObjectDBX Classes
 90
     4095
 91
        8
280
     0
281
     0
  0
CLASS
  1
TABLESTYLE
  2
AcDbTableStyle
  3
ObjectDBX Classes
 90
     4095
 91
        8
280
     0
281
     0
  0
CLASS
  1
DIMASSOC
  2
AcDbDimAssoc
  3
"AcDbDimAssoc|Product Desc:     AcDim ARX App For Dimension|Company:          Autodesk, Inc.|WEB Address:      www.autodesk.com"
 90
        0
 91
        7
280
     0
281
     0
  0
CLASS
  1
CELLSTYLEMAP
  2
AcDbCellStyleMap
  3
ObjectDBX Classes
 90
     1152
 91
        7
280
     0
281
     0
  0
CLASS
  1
SUN
  2
AcDbSun
  3
SCENEOE
 90
     1153
 91
        7
280
     0
281
     0
  0
CLASS
  1
MLEADERSTYLE
  2
AcDbMLeaderStyle
  3
ACDB_MLEADERSTYLE_CLASS
 90
     4095
 91
        8
280
     0
281
     0
  0
ENDSEC
  0
SECTION
  2
TABLES
  0
TABLE
  2
VPORT
  5
7
330
0
100
AcDbSymbolTable
 70
     1
  0
VPORT
  5
15
330
7
100
AcDbSymbolTableRecord
100
AcDbViewportTableRecord
  2
*ACTIVE
 70
     0
 10
0.0
 20
0.0
 11
1.0
 21
1.0
 12
518.0464231739697
 22
1539.908751102672
 13
0.0
 23
0.0
 14
1.0
 24
1.0
 15
0.0
 25
0.0
 16
0.0
 26
0.0
 36
1.0
 17
531.9535768260303
 27
-54.90875110267189
 37
-796.100446371116
 40
3029.4
 41
2.310294117647059
 42
50.0
 43
0.0
 44
0.0
 50
0.0
 51
0.0
 71
    16
 72
  2000
 73
     1
 74
     1
 75
     0
 76
     0
 77
     0
 78
     0
281
     0
 65
     1
110
0.0
120
0.0
130
0.0
111
1.0
121
0.0
131
0.0
112
0.0
122
1.0
132
0.0
 79
     0
146
0.0
348
26C
 60
     3
 61
     5
292
     1
282
     1
141
0.0
142
0.0
 63
   256
361
BE4
  0
ENDTAB
  0
TABLE
  2
LTYPE
  5
4
330
0
100
AcDbSymbolTable
 70
     3
  0
LTYPE
  5
11
330
4
100
AcDbSymbolTableRecord
100
AcDbLinetypeTableRecord
  2
ByBlock
 70
     0
  3

 72
    65
 73
     0
 40
0.0
  0
LTYPE
  5
12
330
4
100
AcDbSymbolTableRecord
100
AcDbLinetypeTableRecord
  2
ByLayer
 70
     0
  3

 72
    65
 73
     0
 40
0.0
  0
LTYPE
  5
13
330
4
100
AcDbSymbolTableRecord
100
AcDbLinetypeTableRecord
  2
Continuous
 70
     0
  3
Solid line
 72
    65
 73
     0
 40
0.0
  0
LTYPE
  5
2496
330
4
100
AcDbSymbolTableRecord
100
AcDbLinetypeTableRecord
  2
CENTER2
 70
     0
  3
Center (.5x) ___ _ ___ _ ___ _ ___ _ ___ _ ___
 72
    65
 73
     4
 40
1.125
 49
0.75
 74
     0
 49
-0.125
 74
     0
 49
0.125
 74
     0
 49
-0.125
 74
     0
  0
LTYPE
  5
24DB
330
4
100
AcDbSymbolTableRecord
100
AcDbLinetypeTableRecord
  2
AM_DIN_F_W050
 70
     0
  3
__ __ __ __ __ __ __ __ __ __ __ __ __ __ __
 72
    65
 73
     2
 40
6.25
 49
4.75
 74
     0
 49
-1.5
 74
     0
  0
ENDTAB
  0
TABLE
  2
LAYER
  5
2
102
{ACAD_XDICTIONARY
360
2E1
102
}
330
0
100
AcDbSymbolTable
 70
     8
  0
LAYER
  5
14
330
2
100
AcDbSymbolTableRecord
100
AcDbLayerTableRecord
  2
0
 70
     0
 62
     7
  6
Continuous
370
    -3
390
1D
347
266
  0
LAYER
  5
4A
330
2
100
AcDbSymbolTableRecord
100
AcDbLayerTableRecord
  2
Defpoints
 70
     0
 62
     7
  6
Continuous
290
     0
370
     9
390
1D
347
266
  0
LAYER
  5
4B
330
2
100
AcDbSymbolTableRecord
100
AcDbLayerTableRecord
  2
TEMPLATE
 70
     0
 62
     4
  6
Continuous
290
     0
370
    20
390
1D
347
266
  0
LAYER
  5
4D
330
2
100
AcDbSymbolTableRecord
100
AcDbLayerTableRecord
  2
MODEL
 70
     0
 62
     7
  6
Continuous
370
    20
390
1D
347
266
  0
LAYER
  5
382
330
2
100
AcDbSymbolTableRecord
100
AcDbLayerTableRecord
  2
LOGO
 70
     0
 62
     7
  6
Continuous
370
    -3
390
1D
347
266
  0
LAYER
  5
B7A
330
2
100
AcDbSymbolTableRecord
100
AcDbLayerTableRecord
  2
DIM
 70
     0
 62
     7
  6
Continuous
370
    13
390
1D
347
266
1001
AcAecLayerStandard
1000

1000

  0
LAYER
  5
3B0F
330
2
100
AcDbSymbolTableRecord
100
AcDbLayerTableRecord
  2
_0-7_
 70
     0
 62
     7
  6
Continuous
370
    -3
390
1D
347
266
  0
LAYER
  5
95C1
330
2
100
AcDbSymbolTableRecord
100
AcDbLayerTableRecord
  2
MODEL GRAY
 70
     0
 62
   252
  6
Continuous
370
    20
390
1D
347
266
1001
AcAecLayerStandard
1000

1000

  0
ENDTAB
  0
TABLE
  2
STYLE
  5
3
330
0
100
AcDbSymbolTable
 70
     2
  0
STYLE
  5
17
330
3
100
AcDbSymbolTableRecord
100
AcDbTextStyleTableRecord
  2
Standard
 70
     0
 40
0.0
 41
1.0
 50
0.0
 71
     0
 42
533.0403732820173
  3
txt
  4
BIGFONT.SHX
  0
STYLE
  5
39
330
3
100
AcDbSymbolTableRecord
100
AcDbTextStyleTableRecord
  2
ＭＳ ゴシック
 70
     0
 40
0.0
 41
1.0
 50
0.0
 71
     0
 42
533.0403732820173
  3
msgothic.ttc
  4
ＭＳ ゴシック
1001
ACAD
1000
ＭＳ ゴシック
1071
        0
  0
ENDTAB
  0
TABLE
  2
VIEW
  5
5
330
0
100
AcDbSymbolTable
 70
     0
  0
ENDTAB
  0
TABLE
  2
UCS
  5
6
330
0
100
AcDbSymbolTable
 70
     0
  0
ENDTAB
  0
TABLE
  2
APPID
  5
8
330
0
100
AcDbSymbolTable
 70
    13
  0
APPID
  5
16
330
8
100
AcDbSymbolTableRecord
100
AcDbRegAppTableRecord
  2
ACAD
 70
     0
  0
APPID
  5
5C5
330
8
100
AcDbSymbolTableRecord
100
AcDbRegAppTableRecord
  2
AcAecLayerStandard
 70
     0
  0
APPID
  5
694
330
8
100
AcDbSymbolTableRecord
100
AcDbRegAppTableRecord
  2
ACAD_DSTYLE_DIMJAG
 70
     0
  0
APPID
  5
695
330
8
100
AcDbSymbolTableRecord
100
AcDbRegAppTableRecord
  2
ACAD_DSTYLE_DIMTALN
 70
     0
  0
APPID
  5
69A
330
8
100
AcDbSymbolTableRecord
100
AcDbRegAppTableRecord
  2
ACAD_PSEXT
 70
     0
  0
APPID
  5
2499
330
8
100
AcDbSymbolTableRecord
100
AcDbRegAppTableRecord
  2
GENIUS_GENODEF_13
 70
     0
  0
APPID
  5
249A
330
8
100
AcDbSymbolTableRecord
100
AcDbRegAppTableRecord
  2
GENIUS_GENOBJ-N-FIL_13
 70
     0
  0
APPID
  5
249C
330
8
100
AcDbSymbolTableRecord
100
AcDbRegAppTableRecord
  2
AECBASE
 70
     0
  0
APPID
  5
249D
330
8
100
AcDbSymbolTableRecord
100
AcDbRegAppTableRecord
  2
AEC_2DSECTION_XDATA
 70
     0
  0
APPID
  5
249E
330
8
100
AcDbSymbolTableRecord
100
AcDbRegAppTableRecord
  2
AEC_MASSGROUP_XDADA
 70
     0
  0
APPID
  5
6EA7
330
8
100
AcDbSymbolTableRecord
100
AcDbRegAppTableRecord
  2
GENIUS_GENREC_14
 70
     0
  0
APPID
  5
6EA8
330
8
100
AcDbSymbolTableRecord
100
AcDbRegAppTableRecord
  2
GENIUS_GENOBJ-N-REC_13
 70
     0
  0
APPID
  5
9A11
330
8
100
AcDbSymbolTableRecord
100
AcDbRegAppTableRecord
  2
ACAD_MLEADERVER
 70
     0
  0
ENDTAB
  0
TABLE
  2
DIMSTYLE
  5
9
330
0
100
AcDbSymbolTable
 70
     2
100
AcDbDimStyleTable
  0
DIMSTYLE
105
18
330
9
100
AcDbSymbolTableRecord
100
AcDbDimStyleTableRecord
  2
Standard
 70
     0
178
     0
340
17
  0
DIMSTYLE
105
5C
102
{ACAD_REACTORS
330
3FCC
330
3FCD
330
3FFF
330
4004
330
4007
330
400A
330
400B
330
400E
330
400F
330
4012
330
4014
330
4019
330
401C
330
401E
330
4020
330
4023
330
4024
330
4025
330
4526
330
96AC
330
9782
330
9938
330
9950
330
995D
330
996A
330
9977
330
9984
330
99AA
330
99B6
330
99B7
330
99B8
330
99B9
330
99BA
102
}
330
9
100
AcDbSymbolTableRecord
100
AcDbDimStyleTableRecord
  2
JIS
 70
     0
  3
<>
  4
[]
 41
9.0
 42
0.0
 43
6.99999999999994
 44
19.9999999999962
 73
     0
 74
     0
 77
     1
 78
    11
140
24.4326171875
141
0.0
143
1.0
147
10.0
171
     1
174
     1
178
     0
179
     2
271
     1
272
     1
276
     2
284
    11
285
    11
286
    11
289
     0
340
39
341
4E
342
4E
  0
ENDTAB
  0
TABLE
  2
BLOCK_RECORD
  5
1
330
0
100
AcDbSymbolTable
 70
    36
  0
BLOCK_RECORD
  5
A
330
1
100
AcDbSymbolTableRecord
100
AcDbBlockTableRecord
  2
*MODEL_SPACE
340
20
 70
     0
280
     1
281
     0
  0
BLOCK_RECORD
  5
B
330
1
100
AcDbSymbolTableRecord
100
AcDbBlockTableRecord
  2
*PAPER_SPACE
340
21
 70
     0
280
     1
281
     0
  0
BLOCK_RECORD
  5
4E
330
1
100
AcDbSymbolTableRecord
100
AcDbBlockTableRecord
  2
_DOT
340
0
102
{BLKREFS
331
402C
331
402D
331
4038
331
4039
331
4044
331
4045
331
405C
331
405D
331
4068
331
4069
331
4074
331
4075
331
4080
331
4081
331
408C
331
408D
331
4098
331
4099
331
40A4
331
40A5
331
40B0
331
40B1
331
40BC
331
40BD
331
40C8
331
40C9
331
40D4
331
40D5
331
40E0
331
40E1
331
40EC
331
40ED
331
40F8
331
40F9
331
99C2
331
99C3
331
99CE
331
99CF
331
99DA
331
99DB
331
99E6
331
99E7
331
99F2
331
99F3
331
99FE
331
99FF
102
}
 70
     0
280
     1
281
     0
  0
BLOCK_RECORD
  5
3A5
330
1
100
AcDbSymbolTableRecord
100
AcDbBlockTableRecord
  2
名称未設定-1
340
0
102
{BLKREFS
331
3D0
102
}
 70
     1
280
     1
281
     0
  0
BLOCK_RECORD
  5
3A8
330
1
100
AcDbSymbolTableRecord
100
AcDbBlockTableRecord
  2
block 2
340
0
102
{BLKREFS
331
3A7
102
}
 70
     0
280
     1
281
     0
  0
BLOCK_RECORD
  5
3AB
330
1
100
AcDbSymbolTableRecord
100
AcDbBlockTableRecord
  2
block 3
340
0
102
{BLKREFS
331
3AA
102
}
 70
     0
280
     1
281
     0
  0
BLOCK_RECORD
  5
3AE
330
1
100
AcDbSymbolTableRecord
100
AcDbBlockTableRecord
  2
block 4
340
0
102
{BLKREFS
331
3AD
102
}
 70
     0
280
     1
281
     0
  0
BLOCK_RECORD
  5
3BD
330
1
100
AcDbSymbolTableRecord
100
AcDbBlockTableRecord
  2
block 5
340
0
102
{BLKREFS
331
3BC
102
}
 70
     0
280
     1
281
     0
  0
BLOCK_RECORD
  5
4026
330
1
100
AcDbSymbolTableRecord
100
AcDbBlockTableRecord
  2
*D6
340
0
 70
     0
280
     1
281
     0
  0
BLOCK_RECORD
  5
4032
330
1
100
AcDbSymbolTableRecord
100
AcDbBlockTableRecord
  2
*D7
340
0
 70
     0
280
     1
281
     0
  0
BLOCK_RECORD
  5
403E
330
1
100
AcDbSymbolTableRecord
100
AcDbBlockTableRecord
  2
*D8
340
0
 70
     0
280
     1
281
     0
  0
BLOCK_RECORD
  5
4056
330
1
100
AcDbSymbolTableRecord
100
AcDbBlockTableRecord
  2
*D9
340
0
 70
     0
280
     1
281
     0
  0
BLOCK_RECORD
  5
4062
330
1
100
AcDbSymbolTableRecord
100
AcDbBlockTableRecord
  2
*D10
340
0
 70
     0
280
     1
281
     0
  0
BLOCK_RECORD
  5
406E
330
1
100
AcDbSymbolTableRecord
100
AcDbBlockTableRecord
  2
*D11
340
0
 70
     0
280
     1
281
     0
  0
BLOCK_RECORD
  5
407A
330
1
100
AcDbSymbolTableRecord
100
AcDbBlockTableRecord
  2
*D12
340
0
 70
     0
280
     1
281
     0
  0
BLOCK_RECORD
  5
4086
330
1
100
AcDbSymbolTableRecord
100
AcDbBlockTableRecord
  2
*D13
340
0
 70
     0
280
     1
281
     0
  0
BLOCK_RECORD
  5
4092
330
1
100
AcDbSymbolTableRecord
100
AcDbBlockTableRecord
  2
*D14
340
0
 70
     0
280
     1
281
     0
  0
BLOCK_RECORD
  5
409E
330
1
100
AcDbSymbolTableRecord
100
AcDbBlockTableRecord
  2
*D15
340
0
 70
     0
280
     1
281
     0
  0
BLOCK_RECORD
  5
40AA
330
1
100
AcDbSymbolTableRecord
100
AcDbBlockTableRecord
  2
*D16
340
0
 70
     0
280
     1
281
     0
  0
BLOCK_RECORD
  5
40B6
330
1
100
AcDbSymbolTableRecord
100
AcDbBlockTableRecord
  2
*D17
340
0
 70
     0
280
     1
281
     0
  0
BLOCK_RECORD
  5
40C2
330
1
100
AcDbSymbolTableRecord
100
AcDbBlockTableRecord
  2
*D18
340
0
 70
     0
280
     1
281
     0
  0
BLOCK_RECORD
  5
40CE
330
1
100
AcDbSymbolTableRecord
100
AcDbBlockTableRecord
  2
*D19
340
0
 70
     0
280
     1
281
     0
  0
BLOCK_RECORD
  5
40DA
330
1
100
AcDbSymbolTableRecord
100
AcDbBlockTableRecord
  2
*D20
340
0
 70
     0
280
     1
281
     0
  0
BLOCK_RECORD
  5
40E6
330
1
100
AcDbSymbolTableRecord
100
AcDbBlockTableRecord
  2
*D21
340
0
 70
     0
280
     1
281
     0
  0
BLOCK_RECORD
  5
40F2
330
1
100
AcDbSymbolTableRecord
100
AcDbBlockTableRecord
  2
*D22
340
0
 70
     0
280
     1
281
     0
  0
BLOCK_RECORD
  5
9939
330
1
100
AcDbSymbolTableRecord
100
AcDbBlockTableRecord
  2
*D24
340
0
 70
     0
280
     1
281
     0
  0
BLOCK_RECORD
  5
9951
330
1
100
AcDbSymbolTableRecord
100
AcDbBlockTableRecord
  2
*D25
340
0
 70
     0
280
     1
281
     0
  0
BLOCK_RECORD
  5
995E
330
1
100
AcDbSymbolTableRecord
100
AcDbBlockTableRecord
  2
*D26
340
0
 70
     0
280
     1
281
     0
  0
BLOCK_RECORD
  5
996B
330
1
100
AcDbSymbolTableRecord
100
AcDbBlockTableRecord
  2
*D27
340
0
 70
     0
280
     1
281
     0
  0
BLOCK_RECORD
  5
9978
330
1
100
AcDbSymbolTableRecord
100
AcDbBlockTableRecord
  2
*D28
340
0
 70
     0
280
     1
281
     0
  0
BLOCK_RECORD
  5
9985
330
1
100
AcDbSymbolTableRecord
100
AcDbBlockTableRecord
  2
*D29
340
0
 70
     0
280
     1
281
     0
  0
BLOCK_RECORD
  5
99BC
330
1
100
AcDbSymbolTableRecord
100
AcDbBlockTableRecord
  2
*D30
340
0
 70
     0
280
     1
281
     0
  0
BLOCK_RECORD
  5
99C8
330
1
100
AcDbSymbolTableRecord
100
AcDbBlockTableRecord
  2
*D31
340
0
 70
     0
280
     1
281
     0
  0
BLOCK_RECORD
  5
99D4
330
1
100
AcDbSymbolTableRecord
100
AcDbBlockTableRecord
  2
*D32
340
0
 70
     0
280
     1
281
     0
  0
BLOCK_RECORD
  5
99E0
330
1
100
AcDbSymbolTableRecord
100
AcDbBlockTableRecord
  2
*D33
340
0
 70
     0
280
     1
281
     0
  0
BLOCK_RECORD
  5
99EC
330
1
100
AcDbSymbolTableRecord
100
AcDbBlockTableRecord
  2
*D34
340
0
 70
     0
280
     1
281
     0
  0
BLOCK_RECORD
  5
99F8
330
1
100
AcDbSymbolTableRecord
100
AcDbBlockTableRecord
  2
*D35
340
0
 70
     0
280
     1
281
     0
  0
ENDTAB
  0
ENDSEC
  0
SECTION
  2
BLOCKS
  0
BLOCK
  5
D
330
A
100
AcDbEntity
  8
0
390
1D
100
AcDbBlockBegin
  2
*MODEL_SPACE
 70
     0
 10
0.0
 20
0.0
 30
0.0
  3
*MODEL_SPACE
  1
*MODEL_SPACE
  0
ENDBLK
  5
E
330
A
100
AcDbEntity
  8
0
390
1D
100
AcDbBlockEnd
  0
BLOCK
  5
F
330
B
100
AcDbEntity
 67
     1
  8
0
390
1D
100
AcDbBlockBegin
  2
*PAPER_SPACE
 70
     0
 10
0.0
 20
0.0
 30
0.0
  3
*PAPER_SPACE
  1
*PAPER_SPACE
  0
ENDBLK
  5
10
330
B
100
AcDbEntity
 67
     1
  8
0
390
1D
100
AcDbBlockEnd
  0
BLOCK
  5
E45
330
4E
100
AcDbEntity
  8
0
390
1D
100
AcDbBlockBegin
  2
_DOT
 70
     0
 10
0.0
 20
0.0
 30
0.0
  3
_DOT
  1
_DOT
  0
POLYLINE
  5
E47
330
4E
100
AcDbEntity
  8
0
  6
ByBlock
 62
     0
370
    -2
390
1D
100
AcDb2dPolyline
 66
     1
 10
0.0
 20
0.0
 30
0.0
 70
     1
 40
0.5
 41
0.5
  0
VERTEX
  5
E48
330
E47
100
AcDbEntity
  8
0
  6
ByBlock
 62
     0
370
    -2
390
1D
100
AcDbVertex
100
AcDb2dVertex
 10
-0.25
 20
0.0
 30
0.0
 42
1.0
  0
VERTEX
  5
E49
330
E47
100
AcDbEntity
  8
0
  6
ByBlock
 62
     0
370
    -2
390
1D
100
AcDbVertex
100
AcDb2dVertex
 10
0.25
 20
0.0
 30
0.0
 42
1.0
  0
SEQEND
  5
E4A
330
E47
100
AcDbEntity
  8
0
390
1D
  0
LINE
  5
E4B
330
4E
100
AcDbEntity
  8
0
  6
ByBlock
 62
     0
370
    -2
390
1D
100
AcDbLine
 10
-0.5
 20
0.0
 30
0.0
 11
-1.0
 21
0.0
 31
0.0
  0
ENDBLK
  5
E4C
330
4E
100
AcDbEntity
  8
0
390
1D
100
AcDbBlockEnd
  0
BLOCK
  5
3A6
330
3A5
100
AcDbEntity
  8
0
100
AcDbBlockBegin
  2
名称未設定-1
 70
     0
 10
0.0
 20
0.0
 30
0.0
  3
名称未設定-1
  1
名称未設定-1
  0
INSERT
  5
3A7
330
3A5
100
AcDbEntity
  8
LOGO
100
AcDbBlockReference
  2
block 2
 10
0.0
 20
0.0
 30
0.0
  0
ENDBLK
  5
3CC
330
3A5
100
AcDbEntity
  8
0
100
AcDbBlockEnd
  0
BLOCK
  5
3A9
330
3A8
100
AcDbEntity
  8
0
100
AcDbBlockBegin
  2
block 2
 70
     0
 10
0.0
 20
0.0
 30
0.0
  3
block 2
  1
block 2
  0
INSERT
  5
3AA
330
3A8
100
AcDbEntity
  8
LOGO
100
AcDbBlockReference
  2
block 3
 10
0.0
 20
0.0
 30
0.0
  0
ENDBLK
  5
3CB
330
3A8
100
AcDbEntity
  8
0
100
AcDbBlockEnd
  0
BLOCK
  5
3AC
330
3AB
100
AcDbEntity
  8
0
100
AcDbBlockBegin
  2
block 3
 70
     0
 10
0.0
 20
0.0
 30
0.0
  3
block 3
  1
block 3
  0
INSERT
  5
3AD
330
3AB
100
AcDbEntity
  8
LOGO
100
AcDbBlockReference
  2
block 4
 10
0.0
 20
0.0
 30
0.0
  0
ENDBLK
  5
3CA
330
3AB
100
AcDbEntity
  8
0
100
AcDbBlockEnd
  0
BLOCK
  5
3AF
330
3AE
100
AcDbEntity
  8
0
100
AcDbBlockBegin
  2
block 4
 70
     0
 10
0.0
 20
0.0
 30
0.0
  3
block 4
  1
block 4
  0
POLYLINE
  5
3B0
330
3AE
100
AcDbEntity
  8
LOGO
370
     0
100
AcDb2dPolyline
 66
     1
 10
0.0
 20
0.0
 30
0.0
  0
VERTEX
  5
3B1
330
3B0
100
AcDbEntity
  8
LOGO
370
     0
100
AcDbVertex
100
AcDb2dVertex
 10
83.79545727667795
 20
167.6444858234922
 30
0.0
  0
VERTEX
  5
3B2
330
3B0
100
AcDbEntity
  8
LOGO
370
     0
100
AcDbVertex
100
AcDb2dVertex
 10
83.79545727667795
 20
159.7968976406313
 30
0.0
  0
VERTEX
  5
3B3
330
3B0
100
AcDbEntity
  8
LOGO
370
     0
100
AcDbVertex
100
AcDb2dVertex
 10
71.3631329975216
 20
159.7968976406313
 30
0.0
  0
VERTEX
  5
3B4
330
3B0
100
AcDbEntity
  8
LOGO
370
     0
100
AcDbVertex
100
AcDb2dVertex
 10
71.3631329975216
 20
127.8027915271048
 30
0.0
  0
VERTEX
  5
3B5
330
3B0
100
AcDbEntity
  8
LOGO
370
     0
100
AcDbVertex
100
AcDb2dVertex
 10
60.43011526263018
 20
127.8027915271048
 30
0.0
  0
VERTEX
  5
3B6
330
3B0
100
AcDbEntity
  8
LOGO
370
     0
100
AcDbVertex
100
AcDb2dVertex
 10
60.43011526263018
 20
159.7968976406313
 30
0.0
  0
VERTEX
  5
3B7
330
3B0
100
AcDbEntity
  8
LOGO
370
     0
100
AcDbVertex
100
AcDb2dVertex
 10
48.21793273020759
 20
159.7968976406313
 30
0.0
  0
VERTEX
  5
3B8
330
3B0
100
AcDbEntity
  8
LOGO
370
     0
100
AcDbVertex
100
AcDb2dVertex
 10
48.21793273020759
 20
167.6444858234922
 30
0.0
  0
VERTEX
  5
3B9
330
3B0
100
AcDbEntity
  8
LOGO
370
     0
100
AcDbVertex
100
AcDb2dVertex
 10
83.79545727667795
 20
167.6444858234922
 30
0.0
  0
SEQEND
  5
3BA
330
3B0
100
AcDbEntity
  8
LOGO
370
     0
  0
HATCH
  5
3BB
330
3AE
100
AcDbEntity
  8
LOGO
 62
   250
420
  2234388
100
AcDbHatch
 10
0.0
 20
0.0
 30
0.0
210
0.0
220
0.0
230
1.0
  2
SOLID
 70
     1
 71
     0
 91
        1
 92
        1
 93
        8
 72
     1
 10
83.79545727667795
 20
167.6444858234922
 11
83.79545727667795
 21
159.7968976406313
 72
     1
 10
83.79545727667795
 20
159.7968976406313
 11
71.3631329975216
 21
159.7968976406313
 72
     1
 10
71.3631329975216
 20
159.7968976406313
 11
71.3631329975216
 21
127.8027915271048
 72
     1
 10
71.3631329975216
 20
127.8027915271048
 11
60.43011526263018
 21
127.8027915271048
 72
     1
 10
60.43011526263018
 20
127.8027915271048
 11
60.43011526263018
 21
159.7968976406313
 72
     1
 10
60.43011526263018
 20
159.7968976406313
 11
48.21793273020759
 21
159.7968976406313
 72
     1
 10
48.21793273020759
 20
159.7968976406313
 11
48.21793273020759
 21
167.6444858234922
 72
     1
 10
48.21793273020759
 20
167.6444858234922
 11
83.79545727667795
 21
167.6444858234922
 97
        0
 75
     2
 76
     1
 98
        0
  0
INSERT
  5
3BC
330
3AE
100
AcDbEntity
  8
LOGO
100
AcDbBlockReference
  2
block 5
 10
0.0
 20
0.0
 30
0.0
  0
ENDBLK
  5
3C9
330
3AE
100
AcDbEntity
  8
0
100
AcDbBlockEnd
  0
BLOCK
  5
3BE
330
3BD
100
AcDbEntity
  8
0
100
AcDbBlockBegin
  2
block 5
 70
     0
 10
0.0
 20
0.0
 30
0.0
  3
block 5
  1
block 5
  0
SPLINE
  5
3BF
330
3BD
100
AcDbEntity
  8
LOGO
370
     0
100
AcDbSpline
210
0.0
220
0.0
230
1.0
 70
    11
 71
     3
 72
    56
 73
    52
 74
     0
 42
0.000000001
 43
0.0000000001
 40
0.0
 40
0.0
 40
0.0
 40
0.0
 40
1.0
 40
1.0
 40
1.0
 40
2.0
 40
2.0
 40
2.0
 40
3.0
 40
3.0
 40
3.0
 40
4.0
 40
4.0
 40
4.0
 40
5.0
 40
5.0
 40
5.0
 40
6.0
 40
6.0
 40
6.0
 40
7.0
 40
7.0
 40
7.0
 40
8.0
 40
8.0
 40
8.0
 40
9.0
 40
9.0
 40
9.0
 40
10.0
 40
10.0
 40
10.0
 40
11.0
 40
11.0
 40
11.0
 40
12.0
 40
12.0
 40
12.0
 40
13.0
 40
13.0
 40
13.0
 40
14.0
 40
14.0
 40
14.0
 40
15.0
 40
15.0
 40
15.0
 40
16.0
 40
16.0
 40
16.0
 40
17.0
 40
17.0
 40
17.0
 40
17.0
 10
100.4504378777679
 20
166.69157178364
 30
0.0
 10
101.9848844191641
 20
167.1313385124438
 30
0.0
 10
103.9637485713373
 20
166.7649523658846
 30
0.0
 10
103.9637485713373
 20
166.7649523658846
 30
0.0
 10
103.9637485713373
 20
166.7649523658846
 30
0.0
 10
103.0132460999156
 20
163.911205638077
 30
0.0
 10
103.0132460999156
 20
163.911205638077
 30
0.0
 10
103.0132460999156
 20
163.911205638077
 30
0.0
 10
101.0674548862189
 20
164.3601018759394
 30
0.0
 10
99.57090442016032
 20
163.1805004036133
 30
0.0
 10
98.40508333886608
 20
162.258247733807
 30
0.0
 10
97.65301849830304
 20
159.804132345923
 30
0.0
 10
97.3598406791005
 20
158.8699940888517
 30
0.0
 10
97.3598406791005
 20
158.8699940888517
 30
0.0
 10
96.07137411762282
 20
154.9119212747295
 30
0.0
 10
96.07137411762282
 20
154.9119212747295
 30
0.0
 10
96.07137411762282
 20
154.9119212747295
 30
0.0
 10
100.3012651448482
 20
154.9119212747295
 30
0.0
 10
100.3012651448482
 20
154.9119212747295
 30
0.0
 10
100.3012651448482
 20
154.9119212747295
 30
0.0
 10
99.64152892419852
 20
152.4199098115079
 30
0.0
 10
99.64152892419852
 20
152.4199098115079
 30
0.0
 10
99.64152892419852
 20
152.4199098115079
 30
0.0
 10
95.38097652692731
 20
152.4199098115079
 30
0.0
 10
95.38097652692731
 20
152.4199098115079
 30
0.0
 10
95.38097652692731
 20
152.4199098115079
 30
0.0
 10
87.75353009080013
 20
127.8027915271048
 30
0.0
 10
87.75353009080013
 20
127.8027915271048
 30
0.0
 10
87.75353009080013
 20
127.8027915271048
 30
0.0
 10
85.36538832498108
 20
127.8027915271048
 30
0.0
 10
85.36538832498108
 20
127.8027915271048
 30
0.0
 10
85.36538832498108
 20
127.8027915271048
 30
0.0
 10
93.00006946639998
 20
152.4199098115079
 30
0.0
 10
93.00006946639998
 20
152.4199098115079
 30
0.0
 10
93.00006946639998
 20
152.4199098115079
 30
0.0
 10
89.85297266450198
 20
152.4199098115079
 30
0.0
 10
89.85297266450198
 20
152.4199098115079
 30
0.0
 10
89.85297266450198
 20
152.4199098115079
 30
0.0
 10
90.51270888515164
 20
154.9119212747295
 30
0.0
 10
90.51270888515164
 20
154.9119212747295
 30
0.0
 10
90.51270888515164
 20
154.9119212747295
 30
0.0
 10
93.6904670570955
 20
154.9119212747295
 30
0.0
 10
93.6904670570955
 20
154.9119212747295
 30
0.0
 10
93.6904670570955
 20
154.9119212747295
 30
0.0
 10
94.81598049462158
 20
158.3616699146644
 30
0.0
 10
94.81598049462158
 20
158.3616699146644
 30
0.0
 10
95.7237637538445
 20
161.2605474231013
 30
0.0
 10
96.4968436907311
 20
162.8139420021662
 30
0.0
 10
97.15657991138076
 20
163.9844139654337
 30
0.0
 10
97.81183750494507
 20
165.1523021053827
 30
0.0
 10
99.1047826935081
 20
166.3084769129547
 30
0.0
 10
100.4504378777679
 20
166.69157178364
 30
0.0
  0
HATCH
  5
3C0
330
3BD
100
AcDbEntity
  8
LOGO
 62
   250
420
  2234388
100
AcDbHatch
 10
0.0
 20
0.0
 30
0.0
210
0.0
220
0.0
230
1.0
  2
SOLID
 70
     1
 71
     0
 91
        1
 92
        1
 93
        1
 72
     4
 94
        3
 73
     0
 74
     1
 95
       56
 96
       52
 40
0.0
 40
0.0
 40
0.0
 40
0.0
 40
1.0
 40
1.0
 40
1.0
 40
2.0
 40
2.0
 40
2.0
 40
3.0
 40
3.0
 40
3.0
 40
4.0
 40
4.0
 40
4.0
 40
5.0
 40
5.0
 40
5.0
 40
6.0
 40
6.0
 40
6.0
 40
7.0
 40
7.0
 40
7.0
 40
8.0
 40
8.0
 40
8.0
 40
9.0
 40
9.0
 40
9.0
 40
10.0
 40
10.0
 40
10.0
 40
11.0
 40
11.0
 40
11.0
 40
12.0
 40
12.0
 40
12.0
 40
13.0
 40
13.0
 40
13.0
 40
14.0
 40
14.0
 40
14.0
 40
15.0
 40
15.0
 40
15.0
 40
16.0
 40
16.0
 40
16.0
 40
17.0
 40
17.0
 40
17.0
 40
17.0
 10
100.4504378777679
 20
166.69157178364
 10
101.9848844191641
 20
167.1313385124438
 10
103.9637485713373
 20
166.7649523658846
 10
103.9637485713373
 20
166.7649523658846
 10
103.9637485713373
 20
166.7649523658846
 10
103.0132460999156
 20
163.911205638077
 10
103.0132460999156
 20
163.911205638077
 10
103.0132460999156
 20
163.911205638077
 10
101.0674548862189
 20
164.3601018759394
 10
99.57090442016032
 20
163.1805004036133
 10
98.40508333886608
 20
162.258247733807
 10
97.65301849830304
 20
159.804132345923
 10
97.3598406791005
 20
158.8699940888517
 10
97.3598406791005
 20
158.8699940888517
 10
96.07137411762282
 20
154.9119212747295
 10
96.07137411762282
 20
154.9119212747295
 10
96.07137411762282
 20
154.9119212747295
 10
100.3012651448482
 20
154.9119212747295
 10
100.3012651448482
 20
154.9119212747295
 10
100.3012651448482
 20
154.9119212747295
 10
99.64152892419852
 20
152.4199098115079
 10
99.64152892419852
 20
152.4199098115079
 10
99.64152892419852
 20
152.4199098115079
 10
95.38097652692731
 20
152.4199098115079
 10
95.38097652692731
 20
152.4199098115079
 10
95.38097652692731
 20
152.4199098115079
 10
87.75353009080013
 20
127.8027915271048
 10
87.75353009080013
 20
127.8027915271048
 10
87.75353009080013
 20
127.8027915271048
 10
85.36538832498108
 20
127.8027915271048
 10
85.36538832498108
 20
127.8027915271048
 10
85.36538832498108
 20
127.8027915271048
 10
93.00006946639998
 20
152.4199098115079
 10
93.00006946639998
 20
152.4199098115079
 10
93.00006946639998
 20
152.4199098115079
 10
89.85297266450198
 20
152.4199098115079
 10
89.85297266450198
 20
152.4199098115079
 10
89.85297266450198
 20
152.4199098115079
 10
90.51270888515164
 20
154.9119212747295
 10
90.51270888515164
 20
154.9119212747295
 10
90.51270888515164
 20
154.9119212747295
 10
93.6904670570955
 20
154.9119212747295
 10
93.6904670570955
 20
154.9119212747295
 10
93.6904670570955
 20
154.9119212747295
 10
94.81598049462158
 20
158.3616699146644
 10
94.81598049462158
 20
158.3616699146644
 10
95.7237637538445
 20
161.2605474231013
 10
96.4968436907311
 20
162.8139420021662
 10
97.15657991138076
 20
163.9844139654337
 10
97.81183750494507
 20
165.1523021053827
 10
99.1047826935081
 20
166.3084769129547
 10
100.4504378777679
 20
166.69157178364
 97
        0
 75
     2
 76
     1
 98
        0
  0
SPLINE
  5
3C1
330
3BD
100
AcDbEntity
  8
LOGO
370
     0
100
AcDbSpline
210
0.0
220
0.0
230
1.0
 70
    11
 71
     3
 72
    38
 73
    34
 74
     0
 42
0.000000001
 43
0.0000000001
 40
0.0
 40
0.0
 40
0.0
 40
0.0
 40
1.0
 40
1.0
 40
1.0
 40
2.0
 40
2.0
 40
2.0
 40
3.0
 40
3.0
 40
3.0
 40
4.0
 40
4.0
 40
4.0
 40
5.0
 40
5.0
 40
5.0
 40
6.0
 40
6.0
 40
6.0
 40
7.0
 40
7.0
 40
7.0
 40
8.0
 40
8.0
 40
8.0
 40
9.0
 40
9.0
 40
9.0
 40
10.0
 40
10.0
 40
10.0
 40
11.0
 40
11.0
 40
11.0
 40
11.0
 10
126.377554584636
 20
154.8151140277308
 30
0.0
 10
126.377554584636
 20
154.8151140277308
 30
0.0
 10
128.8311532078563
 20
154.8151140277308
 30
0.0
 10
128.8311532078563
 20
154.8151140277308
 30
0.0
 10
128.8311532078563
 20
154.8151140277308
 30
0.0
 10
127.7345785914971
 20
151.3062819612468
 30
0.0
 10
127.7345785914971
 20
151.3062819612468
 30
0.0
 10
128.571392836906
 20
152.2922689395754
 30
0.0
 10
129.8860421413442
 20
153.604506675583
 30
0.0
 10
131.0163787157314
 20
154.2664822097754
 30
0.0
 10
132.7044766171327
 20
155.2500576196734
 30
0.0
 10
133.6642808525008
 20
155.3847609420097
 30
0.0
 10
134.7284715499351
 20
155.3565111403944
 30
0.0
 10
134.7284715499351
 20
155.3565111403944
 30
0.0
 10
133.6877075172549
 20
152.0345756272799
 30
0.0
 10
133.6877075172549
 20
152.0345756272799
 30
0.0
 10
133.011434827367
 20
152.3184516825359
 30
0.0
 10
130.930940291334
 20
151.7768823149844
 30
0.0
 10
129.739280976855
 20
150.9162968950455
 30
0.0
 10
128.66613302525
 20
150.1454562717016
 30
0.0
 10
127.9192358313239
 20
149.4857200510519
 30
0.0
 10
127.0393578639405
 20
147.8282835196966
 30
0.0
 10
126.164647543194
 20
146.1699857139017
 30
0.0
 10
125.4742499524985
 20
143.5262176944419
 30
0.0
 10
124.2822461282437
 20
139.6959580071401
 30
0.0
 10
124.2822461282437
 20
139.6959580071401
 30
0.0
 10
120.5753209406769
 20
127.8027915271048
 30
0.0
 10
120.5753209406769
 20
127.8027915271048
 30
0.0
 10
120.5753209406769
 20
127.8027915271048
 30
0.0
 10
118.1964809388044
 20
127.8027915271048
 30
0.0
 10
118.1964809388044
 20
127.8027915271048
 30
0.0
 10
118.1964809388044
 20
127.8027915271048
 30
0.0
 10
126.377554584636
 20
154.8151140277308
 30
0.0
 10
126.377554584636
 20
154.8151140277308
 30
0.0
  0
HATCH
  5
3C2
330
3BD
100
AcDbEntity
  8
LOGO
 62
   250
420
  2234388
100
AcDbHatch
 10
0.0
 20
0.0
 30
0.0
210
0.0
220
0.0
230
1.0
  2
SOLID
 70
     1
 71
     0
 91
        1
 92
        1
 93
        1
 72
     4
 94
        3
 73
     0
 74
     1
 95
       38
 96
       34
 40
0.0
 40
0.0
 40
0.0
 40
0.0
 40
1.0
 40
1.0
 40
1.0
 40
2.0
 40
2.0
 40
2.0
 40
3.0
 40
3.0
 40
3.0
 40
4.0
 40
4.0
 40
4.0
 40
5.0
 40
5.0
 40
5.0
 40
6.0
 40
6.0
 40
6.0
 40
7.0
 40
7.0
 40
7.0
 40
8.0
 40
8.0
 40
8.0
 40
9.0
 40
9.0
 40
9.0
 40
10.0
 40
10.0
 40
10.0
 40
11.0
 40
11.0
 40
11.0
 40
11.0
 10
126.377554584636
 20
154.8151140277308
 10
126.377554584636
 20
154.8151140277308
 10
128.8311532078563
 20
154.8151140277308
 10
128.8311532078563
 20
154.8151140277308
 10
128.8311532078563
 20
154.8151140277308
 10
127.7345785914971
 20
151.3062819612468
 10
127.7345785914971
 20
151.3062819612468
 10
128.571392836906
 20
152.2922689395754
 10
129.8860421413442
 20
153.604506675583
 10
131.0163787157314
 20
154.2664822097754
 10
132.7044766171327
 20
155.2500576196734
 10
133.6642808525008
 20
155.3847609420097
 10
134.7284715499351
 20
155.3565111403944
 10
134.7284715499351
 20
155.3565111403944
 10
133.6877075172549
 20
152.0345756272799
 10
133.6877075172549
 20
152.0345756272799
 10
133.011434827367
 20
152.3184516825359
 10
130.930940291334
 20
151.7768823149844
 10
129.739280976855
 20
150.9162968950455
 10
128.66613302525
 20
150.1454562717016
 10
127.9192358313239
 20
149.4857200510519
 10
127.0393578639405
 20
147.8282835196966
 10
126.164647543194
 20
146.1699857139017
 10
125.4742499524985
 20
143.5262176944419
 10
124.2822461282437
 20
139.6959580071401
 10
124.2822461282437
 20
139.6959580071401
 10
120.5753209406769
 20
127.8027915271048
 10
120.5753209406769
 20
127.8027915271048
 10
120.5753209406769
 20
127.8027915271048
 10
118.1964809388044
 20
127.8027915271048
 10
118.1964809388044
 20
127.8027915271048
 10
118.1964809388044
 20
127.8027915271048
 10
126.377554584636
 20
154.8151140277308
 10
126.377554584636
 20
154.8151140277308
 97
        0
 75
     2
 76
     1
 98
        0
  0
SPLINE
  5
3C3
330
3BD
100
AcDbEntity
  8
LOGO
370
     0
100
AcDbSpline
210
0.0
220
0.0
230
1.0
 70
    11
 71
     3
 72
   104
 73
   100
 74
     0
 42
0.000000001
 43
0.0000000001
 40
0.0
 40
0.0
 40
0.0
 40
0.0
 40
1.0
 40
1.0
 40
1.0
 40
2.0
 40
2.0
 40
2.0
 40
3.0
 40
3.0
 40
3.0
 40
4.0
 40
4.0
 40
4.0
 40
5.0
 40
5.0
 40
5.0
 40
6.0
 40
6.0
 40
6.0
 40
7.0
 40
7.0
 40
7.0
 40
8.0
 40
8.0
 40
8.0
 40
9.0
 40
9.0
 40
9.0
 40
10.0
 40
10.0
 40
10.0
 40
11.0
 40
11.0
 40
11.0
 40
12.0
 40
12.0
 40
12.0
 40
13.0
 40
13.0
 40
13.0
 40
14.0
 40
14.0
 40
14.0
 40
15.0
 40
15.0
 40
15.0
 40
16.0
 40
16.0
 40
16.0
 40
17.0
 40
17.0
 40
17.0
 40
18.0
 40
18.0
 40
18.0
 40
19.0
 40
19.0
 40
19.0
 40
20.0
 40
20.0
 40
20.0
 40
21.0
 40
21.0
 40
21.0
 40
22.0
 40
22.0
 40
22.0
 40
23.0
 40
23.0
 40
23.0
 40
24.0
 40
24.0
 40
24.0
 40
25.0
 40
25.0
 40
25.0
 40
26.0
 40
26.0
 40
26.0
 40
27.0
 40
27.0
 40
27.0
 40
28.0
 40
28.0
 40
28.0
 40
29.0
 40
29.0
 40
29.0
 40
30.0
 40
30.0
 40
30.0
 40
31.0
 40
31.0
 40
31.0
 40
32.0
 40
32.0
 40
32.0
 40
33.0
 40
33.0
 40
33.0
 40
33.0
 10
139.8926730891197
 20
154.8294111834263
 30
0.0
 10
139.8926730891197
 20
154.8294111834263
 30
0.0
 10
142.0344903652445
 20
154.8294111834263
 30
0.0
 10
142.0344903652445
 20
154.8294111834263
 30
0.0
 10
142.0344903652445
 20
154.8294111834263
 30
0.0
 10
140.9516961399171
 20
151.3157559800812
 30
0.0
 10
140.9516961399171
 20
151.3157559800812
 30
0.0
 10
141.8928968473923
 20
152.7887075264977
 30
0.0
 10
142.7341897198865
 20
153.4484437471474
 30
0.0
 10
143.8552245303272
 20
154.2926649527359
 30
0.0
 10
144.9803934580775
 20
155.1296514530327
 30
0.0
 10
146.3139908001845
 20
155.3044901642492
 30
0.0
 10
147.241066606852
 20
155.3044901642492
 30
0.0
 10
148.3855280820469
 20
155.3044901642492
 30
0.0
 10
149.4969166187653
 20
155.0752189084569
 30
0.0
 10
150.0784491203092
 20
153.8172414621372
 30
0.0
 10
150.5228667310863
 20
152.833838307127
 30
0.0
 10
150.5414702589793
 20
152.7201500811143
 30
0.0
 10
150.4140016419347
 20
150.7765981809602
 30
0.0
 10
151.5818897818837
 20
152.7699317437168
 30
0.0
 10
152.4424752018226
 20
153.6256940267945
 30
0.0
 10
153.9038856707499
 20
154.4507949398263
 30
0.0
 10
155.4455669174378
 20
155.3044901642492
 30
0.0
 10
156.339225275853
 20
155.3659851592288
 30
0.0
 10
157.3748216618963
 20
155.2147453676543
 30
0.0
 10
158.911679771723
 20
154.9877134254046
 30
0.0
 10
159.8859534176746
 20
154.4390816074493
 30
0.0
 10
160.3965169054045
 20
152.7816450760939
 30
0.0
 10
160.9070803931344
 20
151.1219692311958
 30
0.0
 10
160.6328506116007
 20
150.2303779314354
 30
0.0
 10
159.9992971339115
 20
147.597634224801
 30
0.0
 10
159.7105979417943
 20
146.4014962832367
 30
0.0
 10
159.2947746424084
 20
144.9400858143094
 30
0.0
 10
158.7463150793409
 20
143.2092687007094
 30
0.0
 10
158.7463150793409
 20
143.2092687007094
 30
0.0
 10
153.9038856707499
 20
127.8027915271048
 30
0.0
 10
153.9038856707499
 20
127.8027915271048
 30
0.0
 10
153.9038856707499
 20
127.8027915271048
 30
0.0
 10
151.3882752878863
 20
127.8027915271048
 30
0.0
 10
151.3882752878863
 20
127.8027915271048
 30
0.0
 10
151.3882752878863
 20
127.8027915271048
 30
0.0
 10
155.6250565106276
 20
141.2751908193897
 30
0.0
 10
155.6250565106276
 20
141.2751908193897
 30
0.0
 10
156.5094131050963
 20
144.0936252951782
 30
0.0
 10
157.109893644309
 20
146.1506931664571
 30
0.0
 10
157.4220195011804
 20
147.4415712963654
 30
0.0
 10
157.8095929989511
 20
149.0530157726519
 30
0.0
 10
157.9656559273867
 20
149.5826995529385
 30
0.0
 10
157.7816877071116
 20
150.7529992613181
 30
0.0
 10
157.6111553680925
 20
151.8430281919372
 30
0.0
 10
157.0582171779396
 20
152.5547853887321
 30
0.0
 10
156.1170164704645
 20
152.5547853887321
 30
0.0
 10
155.1096698860365
 20
152.5547853887321
 30
0.0
 10
154.2962823053817
 20
152.4412694176073
 30
0.0
 10
153.156643967048
 20
151.2945686288697
 30
0.0
 10
152.0170056287143
 20
150.1476955852443
 30
0.0
 10
151.076149431015
 20
148.7930831468137
 30
0.0
 10
150.3337308641742
 20
147.2290087646991
 30
0.0
 10
149.5957909244188
 20
145.6683794803425
 30
0.0
 10
148.8530278478023
 20
143.6822806228776
 30
0.0
 10
148.0964843801539
 20
141.2751908193897
 30
0.0
 10
148.0964843801539
 20
141.2751908193897
 30
0.0
 10
143.8552245303272
 20
127.8027915271048
 30
0.0
 10
143.8552245303272
 20
127.8027915271048
 30
0.0
 10
143.8552245303272
 20
127.8027915271048
 30
0.0
 10
141.486030802177
 20
127.8027915271048
 30
0.0
 10
141.486030802177
 20
127.8027915271048
 30
0.0
 10
141.486030802177
 20
127.8027915271048
 30
0.0
 10
146.3329388378533
 20
143.2092687007094
 30
0.0
 10
146.3329388378533
 20
143.2092687007094
 30
0.0
 10
146.8483254624444
 20
144.8408669988801
 30
0.0
 10
147.2314203331297
 20
146.1837661049335
 30
0.0
 10
147.4867020769946
 20
147.224185627838
 30
0.0
 10
147.9169947869641
 20
149.0197705792876
 30
0.0
 10
148.0306830129768
 20
150.2400242051577
 30
0.0
 10
147.709255392159
 20
151.3157559800812
 30
0.0
 10
147.3874832615654
 20
152.3916600098926
 30
0.0
 10
146.8245542879144
 20
152.6683013598569
 30
0.0
 10
145.8840425999909
 20
152.6683013598569
 30
0.0
 10
145.0989048209514
 20
152.6683013598569
 30
0.0
 10
144.3282364524954
 20
152.3275811915945
 30
0.0
 10
143.4531816219731
 20
151.6538923250251
 30
0.0
 10
142.34627171234
 20
150.8074318058939
 30
0.0
 10
141.901854101563
 20
150.1097995099067
 30
0.0
 10
141.3578731655808
 20
149.289521733736
 30
0.0
 10
140.6299240093235
 20
148.192602607601
 30
0.0
 10
140.2850697237515
 20
147.455696197173
 30
0.0
 10
139.6652966370942
 20
145.8385673095858
 30
0.0
 10
139.0506911970739
 20
144.2214384219986
 30
0.0
 10
138.463991048893
 20
142.3252566160164
 30
0.0
 10
138.0571250036777
 20
141.0154304484394
 30
0.0
 10
138.0571250036777
 20
141.0154304484394
 30
0.0
 10
133.9009590684727
 20
127.8027915271048
 30
0.0
 10
133.9009590684727
 20
127.8027915271048
 30
0.0
 10
133.9009590684727
 20
127.8027915271048
 30
0.0
 10
131.4180771143097
 20
127.8027915271048
 30
0.0
 10
131.4180771143097
 20
127.8027915271048
 30
0.0
 10
131.4180771143097
 20
127.8027915271048
 30
0.0
 10
139.8926730891197
 20
154.8294111834263
 30
0.0
 10
139.8926730891197
 20
154.8294111834263
 30
0.0
  0
HATCH
  5
3C4
330
3BD
100
AcDbEntity
  8
LOGO
 62
   250
420
  2234388
100
AcDbHatch
 10
0.0
 20
0.0
 30
0.0
210
0.0
220
0.0
230
1.0
  2
SOLID
 70
     1
 71
     0
 91
        1
 92
        1
 93
        1
 72
     4
 94
        3
 73
     0
 74
     1
 95
      104
 96
      100
 40
0.0
 40
0.0
 40
0.0
 40
0.0
 40
1.0
 40
1.0
 40
1.0
 40
2.0
 40
2.0
 40
2.0
 40
3.0
 40
3.0
 40
3.0
 40
4.0
 40
4.0
 40
4.0
 40
5.0
 40
5.0
 40
5.0
 40
6.0
 40
6.0
 40
6.0
 40
7.0
 40
7.0
 40
7.0
 40
8.0
 40
8.0
 40
8.0
 40
9.0
 40
9.0
 40
9.0
 40
10.0
 40
10.0
 40
10.0
 40
11.0
 40
11.0
 40
11.0
 40
12.0
 40
12.0
 40
12.0
 40
13.0
 40
13.0
 40
13.0
 40
14.0
 40
14.0
 40
14.0
 40
15.0
 40
15.0
 40
15.0
 40
16.0
 40
16.0
 40
16.0
 40
17.0
 40
17.0
 40
17.0
 40
18.0
 40
18.0
 40
18.0
 40
19.0
 40
19.0
 40
19.0
 40
20.0
 40
20.0
 40
20.0
 40
21.0
 40
21.0
 40
21.0
 40
22.0
 40
22.0
 40
22.0
 40
23.0
 40
23.0
 40
23.0
 40
24.0
 40
24.0
 40
24.0
 40
25.0
 40
25.0
 40
25.0
 40
26.0
 40
26.0
 40
26.0
 40
27.0
 40
27.0
 40
27.0
 40
28.0
 40
28.0
 40
28.0
 40
29.0
 40
29.0
 40
29.0
 40
30.0
 40
30.0
 40
30.0
 40
31.0
 40
31.0
 40
31.0
 40
32.0
 40
32.0
 40
32.0
 40
33.0
 40
33.0
 40
33.0
 40
33.0
 10
139.8926730891197
 20
154.8294111834263
 10
139.8926730891197
 20
154.8294111834263
 10
142.0344903652445
 20
154.8294111834263
 10
142.0344903652445
 20
154.8294111834263
 10
142.0344903652445
 20
154.8294111834263
 10
140.9516961399171
 20
151.3157559800812
 10
140.9516961399171
 20
151.3157559800812
 10
141.8928968473923
 20
152.7887075264977
 10
142.7341897198865
 20
153.4484437471474
 10
143.8552245303272
 20
154.2926649527359
 10
144.9803934580775
 20
155.1296514530327
 10
146.3139908001845
 20
155.3044901642492
 10
147.241066606852
 20
155.3044901642492
 10
148.3855280820469
 20
155.3044901642492
 10
149.4969166187653
 20
155.0752189084569
 10
150.0784491203092
 20
153.8172414621372
 10
150.5228667310863
 20
152.833838307127
 10
150.5414702589793
 20
152.7201500811143
 10
150.4140016419347
 20
150.7765981809602
 10
151.5818897818837
 20
152.7699317437168
 10
152.4424752018226
 20
153.6256940267945
 10
153.9038856707499
 20
154.4507949398263
 10
155.4455669174378
 20
155.3044901642492
 10
156.339225275853
 20
155.3659851592288
 10
157.3748216618963
 20
155.2147453676543
 10
158.911679771723
 20
154.9877134254046
 10
159.8859534176746
 20
154.4390816074493
 10
160.3965169054045
 20
152.7816450760939
 10
160.9070803931344
 20
151.1219692311958
 10
160.6328506116007
 20
150.2303779314354
 10
159.9992971339115
 20
147.597634224801
 10
159.7105979417943
 20
146.4014962832367
 10
159.2947746424084
 20
144.9400858143094
 10
158.7463150793409
 20
143.2092687007094
 10
158.7463150793409
 20
143.2092687007094
 10
153.9038856707499
 20
127.8027915271048
 10
153.9038856707499
 20
127.8027915271048
 10
153.9038856707499
 20
127.8027915271048
 10
151.3882752878863
 20
127.8027915271048
 10
151.3882752878863
 20
127.8027915271048
 10
151.3882752878863
 20
127.8027915271048
 10
155.6250565106276
 20
141.2751908193897
 10
155.6250565106276
 20
141.2751908193897
 10
156.5094131050963
 20
144.0936252951782
 10
157.109893644309
 20
146.1506931664571
 10
157.4220195011804
 20
147.4415712963654
 10
157.8095929989511
 20
149.0530157726519
 10
157.9656559273867
 20
149.5826995529385
 10
157.7816877071116
 20
150.7529992613181
 10
157.6111553680925
 20
151.8430281919372
 10
157.0582171779396
 20
152.5547853887321
 10
156.1170164704645
 20
152.5547853887321
 10
155.1096698860365
 20
152.5547853887321
 10
154.2962823053817
 20
152.4412694176073
 10
153.156643967048
 20
151.2945686288697
 10
152.0170056287143
 20
150.1476955852443
 10
151.076149431015
 20
148.7930831468137
 10
150.3337308641742
 20
147.2290087646991
 10
149.5957909244188
 20
145.6683794803425
 10
148.8530278478023
 20
143.6822806228776
 10
148.0964843801539
 20
141.2751908193897
 10
148.0964843801539
 20
141.2751908193897
 10
143.8552245303272
 20
127.8027915271048
 10
143.8552245303272
 20
127.8027915271048
 10
143.8552245303272
 20
127.8027915271048
 10
141.486030802177
 20
127.8027915271048
 10
141.486030802177
 20
127.8027915271048
 10
141.486030802177
 20
127.8027915271048
 10
146.3329388378533
 20
143.2092687007094
 10
146.3329388378533
 20
143.2092687007094
 10
146.8483254624444
 20
144.8408669988801
 10
147.2314203331297
 20
146.1837661049335
 10
147.4867020769946
 20
147.224185627838
 10
147.9169947869641
 20
149.0197705792876
 10
148.0306830129768
 20
150.2400242051577
 10
147.709255392159
 20
151.3157559800812
 10
147.3874832615654
 20
152.3916600098926
 10
146.8245542879144
 20
152.6683013598569
 10
145.8840425999909
 20
152.6683013598569
 10
145.0989048209514
 20
152.6683013598569
 10
144.3282364524954
 20
152.3275811915945
 10
143.4531816219731
 20
151.6538923250251
 10
142.34627171234
 20
150.8074318058939
 10
141.901854101563
 20
150.1097995099067
 10
141.3578731655808
 20
149.289521733736
 10
140.6299240093235
 20
148.192602607601
 10
140.2850697237515
 20
147.455696197173
 10
139.6652966370942
 20
145.8385673095858
 10
139.0506911970739
 20
144.2214384219986
 10
138.463991048893
 20
142.3252566160164
 10
138.0571250036777
 20
141.0154304484394
 10
138.0571250036777
 20
141.0154304484394
 10
133.9009590684727
 20
127.8027915271048
 10
133.9009590684727
 20
127.8027915271048
 10
133.9009590684727
 20
127.8027915271048
 10
131.4180771143097
 20
127.8027915271048
 10
131.4180771143097
 20
127.8027915271048
 10
131.4180771143097
 20
127.8027915271048
 10
139.8926730891197
 20
154.8294111834263
 10
139.8926730891197
 20
154.8294111834263
 97
        0
 75
     2
 76
     1
 98
        0
  0
SPLINE
  5
3C5
330
3BD
100
AcDbEntity
  8
LOGO
370
     0
100
AcDbSpline
210
0.0
220
0.0
230
1.0
 70
    11
 71
     3
 72
    29
 73
    25
 74
     0
 42
0.000000001
 43
0.0000000001
 40
0.0
 40
0.0
 40
0.0
 40
0.0
 40
1.0
 40
1.0
 40
1.0
 40
2.0
 40
2.0
 40
2.0
 40
3.0
 40
3.0
 40
3.0
 40
4.0
 40
4.0
 40
4.0
 40
5.0
 40
5.0
 40
5.0
 40
6.0
 40
6.0
 40
6.0
 40
7.0
 40
7.0
 40
7.0
 40
8.0
 40
8.0
 40
8.0
 40
8.0
 10
101.6420971922469
 20
132.8388354296931
 30
0.0
 10
101.630039350094
 20
134.7164137077823
 30
0.0
 10
102.2236296937908
 20
138.0598810818841
 30
0.0
 10
103.7487744712405
 20
142.5378191476827
 30
0.0
 10
105.819967243327
 20
148.5896501242061
 30
0.0
 10
107.0602024361932
 20
150.8074318058939
 30
0.0
 10
108.1522984254671
 20
151.8833358357054
 30
0.0
 10
109.741177511439
 20
153.4532668840085
 30
0.0
 10
111.8740375333931
 20
153.5290590346837
 30
0.0
 10
112.5075910110823
 20
153.4532668840085
 30
0.0
 10
113.4012493694975
 20
153.3490526768302
 30
0.0
 10
114.6683563248758
 20
152.7580461564518
 30
0.0
 10
114.7493161221879
 20
150.7838328862519
 30
0.0
 10
114.8106388622796
 20
149.0909118479895
 30
0.0
 10
114.3186789024427
 20
145.9191825971221
 30
0.0
 10
112.6164561002338
 20
140.9489400617108
 30
0.0
 10
110.6444821435766
 20
135.1746117095912
 30
0.0
 10
109.4669477299053
 20
132.8960240524753
 30
0.0
 10
108.5212683953448
 20
131.9072809959403
 30
0.0
 10
106.7346406980658
 20
130.0538184021569
 30
0.0
 10
104.8222669326213
 20
130.2336525051225
 30
0.0
 10
104.5408024457958
 20
130.2336525051225
 30
0.0
 10
104.1721769856939
 20
130.2336525051225
 30
0.0
 10
101.6465758193322
 20
130.6305277668397
 30
0.0
 10
101.6420971922469
 20
132.8388354296931
 30
0.0
  0
SPLINE
  5
3C6
330
3BD
100
AcDbEntity
  8
LOGO
370
     0
100
AcDbSpline
210
0.0
220
0.0
230
1.0
 70
    11
 71
     3
 72
    32
 73
    28
 74
     0
 42
0.000000001
 43
0.0000000001
 40
0.0
 40
0.0
 40
0.0
 40
0.0
 40
1.0
 40
1.0
 40
1.0
 40
2.0
 40
2.0
 40
2.0
 40
3.0
 40
3.0
 40
3.0
 40
4.0
 40
4.0
 40
4.0
 40
5.0
 40
5.0
 40
5.0
 40
6.0
 40
6.0
 40
6.0
 40
7.0
 40
7.0
 40
7.0
 40
8.0
 40
8.0
 40
8.0
 40
9.0
 40
9.0
 40
9.0
 40
9.0
 10
106.2595617172429
 20
153.4105476718098
 30
0.0
 10
104.8222669326213
 20
151.5474388043041
 30
0.0
 10
103.7177685914188
 20
149.8758773721411
 30
0.0
 10
101.9232171692965
 20
144.6141795664062
 30
0.0
 10
100.2754269116635
 20
139.7999999594306
 30
0.0
 10
99.22777268346732
 20
136.3052927937542
 30
0.0
 10
99.06964269637689
 20
132.039572749846
 30
0.0
 10
98.94665270641765
 20
128.8673267343149
 30
0.0
 10
100.8807305877373
 20
127.8027915271048
 30
0.0
 10
103.7129454545577
 20
127.8027915271048
 30
0.0
 10
104.9352661390825
 20
127.8027915271048
 30
0.0
 10
108.0151835347002
 20
127.8827177950895
 30
0.0
 10
110.2045431598849
 20
130.5926316915021
 30
0.0
 10
111.7417457794874
 20
132.4984597712065
 30
0.0
 10
113.155269389579
 20
134.475256864725
 30
0.0
 10
115.0562743324223
 20
140.9489400617108
 30
0.0
 10
116.6361961642235
 20
146.3680788349845
 30
0.0
 10
117.7282921534974
 20
149.8639917848761
 30
0.0
 10
117.6480213757369
 20
151.8595646611754
 30
0.0
 10
117.6480213757369
 20
151.8595646611754
 30
0.0
 10
117.6480213757369
 20
151.8595646611754
 30
0.0
 10
117.6480213757369
 20
151.8595646611754
 30
0.0
 10
117.13229024137
 20
155.18150017429
 30
0.0
 10
114.7162431837115
 20
155.886194920681
 30
0.0
 10
113.3351034925446
 20
155.886194920681
 30
0.0
 10
111.9829026225447
 20
155.886194920681
 30
0.0
 10
108.3414342923792
 20
156.1251124501957
 30
0.0
 10
106.2595617172429
 20
153.4105476718098
 30
0.0
  0
HATCH
  5
3C7
330
3BD
100
AcDbEntity
  8
LOGO
 62
   250
420
  2234388
100
AcDbHatch
 10
0.0
 20
0.0
 30
0.0
210
0.0
220
0.0
230
1.0
  2
SOLID
 70
     1
 71
     0
 91
        2
 92
        1
 93
        1
 72
     4
 94
        3
 73
     0
 74
     1
 95
       29
 96
       25
 40
0.0
 40
0.0
 40
0.0
 40
0.0
 40
1.0
 40
1.0
 40
1.0
 40
2.0
 40
2.0
 40
2.0
 40
3.0
 40
3.0
 40
3.0
 40
4.0
 40
4.0
 40
4.0
 40
5.0
 40
5.0
 40
5.0
 40
6.0
 40
6.0
 40
6.0
 40
7.0
 40
7.0
 40
7.0
 40
8.0
 40
8.0
 40
8.0
 40
8.0
 10
101.6420971922469
 20
132.8388354296931
 10
101.630039350094
 20
134.7164137077823
 10
102.2236296937908
 20
138.0598810818841
 10
103.7487744712405
 20
142.5378191476827
 10
105.819967243327
 20
148.5896501242061
 10
107.0602024361932
 20
150.8074318058939
 10
108.1522984254671
 20
151.8833358357054
 10
109.741177511439
 20
153.4532668840085
 10
111.8740375333931
 20
153.5290590346837
 10
112.5075910110823
 20
153.4532668840085
 10
113.4012493694975
 20
153.3490526768302
 10
114.6683563248758
 20
152.7580461564518
 10
114.7493161221879
 20
150.7838328862519
 10
114.8106388622796
 20
149.0909118479895
 10
114.3186789024427
 20
145.9191825971221
 10
112.6164561002338
 20
140.9489400617108
 10
110.6444821435766
 20
135.1746117095912
 10
109.4669477299053
 20
132.8960240524753
 10
108.5212683953448
 20
131.9072809959403
 10
106.7346406980658
 20
130.0538184021569
 10
104.8222669326213
 20
130.2336525051225
 10
104.5408024457958
 20
130.2336525051225
 10
104.1721769856939
 20
130.2336525051225
 10
101.6465758193322
 20
130.6305277668397
 10
101.6420971922469
 20
132.8388354296931
 97
        0
 92
        1
 93
        1
 72
     4
 94
        3
 73
     0
 74
     1
 95
       32
 96
       28
 40
0.0
 40
0.0
 40
0.0
 40
0.0
 40
1.0
 40
1.0
 40
1.0
 40
2.0
 40
2.0
 40
2.0
 40
3.0
 40
3.0
 40
3.0
 40
4.0
 40
4.0
 40
4.0
 40
5.0
 40
5.0
 40
5.0
 40
6.0
 40
6.0
 40
6.0
 40
7.0
 40
7.0
 40
7.0
 40
8.0
 40
8.0
 40
8.0
 40
9.0
 40
9.0
 40
9.0
 40
9.0
 10
106.2595617172429
 20
153.4105476718098
 10
104.8222669326213
 20
151.5474388043041
 10
103.7177685914188
 20
149.8758773721411
 10
101.9232171692965
 20
144.6141795664062
 10
100.2754269116635
 20
139.7999999594306
 10
99.22777268346732
 20
136.3052927937542
 10
99.06964269637689
 20
132.039572749846
 10
98.94665270641765
 20
128.8673267343149
 10
100.8807305877373
 20
127.8027915271048
 10
103.7129454545577
 20
127.8027915271048
 10
104.9352661390825
 20
127.8027915271048
 10
108.0151835347002
 20
127.8827177950895
 10
110.2045431598849
 20
130.5926316915021
 10
111.7417457794874
 20
132.4984597712065
 10
113.155269389579
 20
134.475256864725
 10
115.0562743324223
 20
140.9489400617108
 10
116.6361961642235
 20
146.3680788349845
 10
117.7282921534974
 20
149.8639917848761
 10
117.6480213757369
 20
151.8595646611754
 10
117.6480213757369
 20
151.8595646611754
 10
117.6480213757369
 20
151.8595646611754
 10
117.6480213757369
 20
151.8595646611754
 10
117.13229024137
 20
155.18150017429
 10
114.7162431837115
 20
155.886194920681
 10
113.3351034925446
 20
155.886194920681
 10
111.9829026225447
 20
155.886194920681
 10
108.3414342923792
 20
156.1251124501957
 10
106.2595617172429
 20
153.4105476718098
 97
        0
 75
     2
 76
     1
 98
        0
  0
ENDBLK
  5
3C8
330
3BD
100
AcDbEntity
  8
0
100
AcDbBlockEnd
  0
BLOCK
  5
4027
330
4026
100
AcDbEntity
  8
0
100
AcDbBlockBegin
  2
*D6
 70
     1
 10
0.0
 20
0.0
 30
0.0
  3
*D6
  1
*D74
  0
LINE
  5
4029
330
4026
100
AcDbEntity
  8
DIM
  6
Continuous
 62
     0
370
    -2
100
AcDbLine
 10
837.8120201629358
 20
768.0236368925061
 30
0.0
 11
1003.016415889149
 21
768.0236368925061
 31
0.0
  0
LINE
  5
402A
330
4026
100
AcDbEntity
  8
DIM
  6
Continuous
 62
     0
370
    -2
100
AcDbLine
 10
970.1639072667717
 20
1168.023636892506
 30
0.0
 11
1003.016415889149
 21
1168.023636892506
 31
0.0
  0
LINE
  5
402B
330
4026
100
AcDbEntity
  8
DIM
  6
Continuous
 62
     0
370
    -2
100
AcDbLine
 10
1003.016415889149
 20
774.0236368925061
 30
0.0
 11
1003.016415889149
 21
1162.023636892506
 31
0.0
  0
INSERT
  5
402C
330
4026
100
AcDbEntity
  8
DIM
 62
     0
370
    -2
100
AcDbBlockReference
  2
_DOT
 10
1003.016415889149
 20
768.0236368925061
 30
0.0
 41
6.0
 42
6.0
 43
6.0
 50
270.0
  0
INSERT
  5
402D
330
4026
100
AcDbEntity
  8
DIM
 62
     0
370
    -2
100
AcDbBlockReference
  2
_DOT
 10
1003.016415889149
 20
1168.023636892506
 30
0.0
 41
6.0
 42
6.0
 43
6.0
 50
90.0
  0
MTEXT
  5
402E
330
4026
100
AcDbEntity
  8
DIM
  6
Continuous
 62
     0
100
AcDbMText
 10
976.016415889149
 20
968.0236368925061
 30
0.0
 40
24.0
 41
0.0
 46
0.0
 71
     5
 72
     1
  1
\A1;400
  7
ＭＳ ゴシック
 11
0.0
 21
1.0
 31
0.0
 73
     1
 44
1.0
  0
POINT
  5
402F
330
4026
100
AcDbEntity
  8
Defpoints
 62
     0
100
AcDbPoint
 10
812.8120201629358
 20
768.0236368925061
 30
0.0
  0
POINT
  5
4030
330
4026
100
AcDbEntity
  8
Defpoints
 62
     0
100
AcDbPoint
 10
945.1639072667717
 20
1168.023636892506
 30
0.0
  0
POINT
  5
4031
330
4026
100
AcDbEntity
  8
Defpoints
 62
     0
100
AcDbPoint
 10
1003.016415889149
 20
1168.023636892506
 30
0.0
  0
ENDBLK
  5
4028
330
4026
100
AcDbEntity
  8
0
100
AcDbBlockEnd
  0
BLOCK
  5
4033
330
4032
100
AcDbEntity
  8
0
100
AcDbBlockBegin
  2
*D7
 70
     1
 10
0.0
 20
0.0
 30
0.0
  3
*D7
  1
*D75
  0
LINE
  5
4035
330
4032
100
AcDbEntity
  8
DIM
  6
Continuous
 62
     0
370
    -2
100
AcDbLine
 10
1200.594751851499
 20
768.0236368925064
 30
0.0
 11
1102.474895755283
 21
768.0236368925064
 31
0.0
  0
LINE
  5
4036
330
4032
100
AcDbEntity
  8
DIM
  6
Continuous
 62
     0
370
    -2
100
AcDbLine
 10
1135.594751851499
 20
978.0236368925061
 30
0.0
 11
1102.474895755283
 21
978.0236368925061
 31
0.0
  0
LINE
  5
4037
330
4032
100
AcDbEntity
  8
DIM
  6
Continuous
 62
     0
370
    -2
100
AcDbLine
 10
1102.474895755283
 20
774.0236368925064
 30
0.0
 11
1102.474895755283
 21
972.0236368925061
 31
0.0
  0
INSERT
  5
4038
330
4032
100
AcDbEntity
  8
DIM
 62
     0
370
    -2
100
AcDbBlockReference
  2
_DOT
 10
1102.474895755283
 20
768.0236368925064
 30
0.0
 41
6.0
 42
6.0
 43
6.0
 50
270.0
  0
INSERT
  5
4039
330
4032
100
AcDbEntity
  8
DIM
 62
     0
370
    -2
100
AcDbBlockReference
  2
_DOT
 10
1102.474895755283
 20
978.0236368925061
 30
0.0
 41
6.0
 42
6.0
 43
6.0
 50
90.0
  0
MTEXT
  5
403A
330
4032
100
AcDbEntity
  8
DIM
  6
Continuous
 62
     0
100
AcDbMText
 10
1075.474895755283
 20
873.0236368925061
 30
0.0
 40
24.0
 41
0.0
 46
0.0
 71
     5
 72
     1
  1
\A1;210-230
  7
ＭＳ ゴシック
 11
0.0
 21
1.0
 31
0.0
 73
     1
 44
1.0
  0
POINT
  5
403B
330
4032
100
AcDbEntity
  8
Defpoints
 62
     0
100
AcDbPoint
 10
1225.594751851499
 20
768.0236368925064
 30
0.0
  0
POINT
  5
403C
330
4032
100
AcDbEntity
  8
Defpoints
 62
     0
100
AcDbPoint
 10
1160.594751851499
 20
978.0236368925061
 30
0.0
  0
POINT
  5
403D
330
4032
100
AcDbEntity
  8
Defpoints
 62
     0
100
AcDbPoint
 10
1102.474895755283
 20
978.0236368925061
 30
0.0
  0
ENDBLK
  5
4034
330
4032
100
AcDbEntity
  8
0
100
AcDbBlockEnd
  0
BLOCK
  5
403F
330
403E
100
AcDbEntity
  8
0
100
AcDbBlockBegin
  2
*D8
 70
     1
 10
0.0
 20
0.0
 30
0.0
  3
*D8
  1
*D76
  0
LINE
  5
4041
330
403E
100
AcDbEntity
  8
DIM
  6
Continuous
 62
     0
370
    -2
100
AcDbLine
 10
1410.594751851499
 20
669.8893703055339
 30
0.0
 11
1410.594751851499
 21
565.088434355767
 31
0.0
  0
LINE
  5
4042
330
403E
100
AcDbEntity
  8
DIM
  6
Continuous
 62
     0
370
    -2
100
AcDbLine
 10
1160.615851851497
 20
919.9371277733351
 30
0.0
 11
1160.615851851497
 21
565.088434355767
 31
0.0
  0
LINE
  5
4043
330
403E
100
AcDbEntity
  8
DIM
  6
Continuous
 62
     0
370
    -2
100
AcDbLine
 10
1404.594751851499
 20
565.088434355767
 30
0.0
 11
1166.615851851497
 21
565.088434355767
 31
0.0
  0
INSERT
  5
4044
330
403E
100
AcDbEntity
  8
DIM
 62
     0
370
    -2
100
AcDbBlockReference
  2
_DOT
 10
1410.594751851499
 20
565.088434355767
 30
0.0
 41
6.0
 42
6.0
 43
6.0
  0
INSERT
  5
4045
330
403E
100
AcDbEntity
  8
DIM
 62
     0
370
    -2
100
AcDbBlockReference
  2
_DOT
 10
1160.615851851497
 20
565.088434355767
 30
0.0
 41
6.0
 42
6.0
 43
6.0
 50
180.0
  0
MTEXT
  5
4046
330
403E
100
AcDbEntity
  8
DIM
  6
Continuous
 62
     0
100
AcDbMText
 10
1285.605301851498
 20
592.088434355767
 30
0.0
 40
24.0
 41
0.0
 46
0.0
 71
     5
 72
     1
  1
\A1;250-300
  7
ＭＳ ゴシック
 73
     1
 44
1.0
  0
POINT
  5
4047
330
403E
100
AcDbEntity
  8
Defpoints
 62
     0
100
AcDbPoint
 10
1410.594751851499
 20
694.8893703055339
 30
0.0
  0
POINT
  5
4048
330
403E
100
AcDbEntity
  8
Defpoints
 62
     0
100
AcDbPoint
 10
1160.615851851497
 20
944.9371277733351
 30
0.0
  0
POINT
  5
4049
330
403E
100
AcDbEntity
  8
Defpoints
 62
     0
100
AcDbPoint
 10
1160.615851851497
 20
565.088434355767
 30
0.0
  0
ENDBLK
  5
4040
330
403E
100
AcDbEntity
  8
0
100
AcDbBlockEnd
  0
BLOCK
  5
4057
330
4056
100
AcDbEntity
  8
0
100
AcDbBlockBegin
  2
*D9
 70
     1
 10
0.0
 20
0.0
 30
0.0
  3
*D9
  1
*D78
  0
LINE
  5
4059
330
4056
100
AcDbEntity
  8
DIM
 62
     0
370
    -2
100
AcDbLine
 10
182.8489216738712
 20
768.0236368925064
 30
0.0
 11
155.2980832684102
 21
768.0236368925064
 31
0.0
  0
LINE
  5
405A
330
4056
100
AcDbEntity
  8
DIM
 62
     0
370
    -2
100
AcDbLine
 10
400.6998863049357
 20
948.0236368925061
 30
0.0
 11
155.2980832684102
 21
948.0236368925061
 31
0.0
  0
LINE
  5
405B
330
4056
100
AcDbEntity
  8
DIM
 62
     0
370
    -2
100
AcDbLine
 10
155.2980832684102
 20
774.0236368925064
 30
0.0
 11
155.2980832684102
 21
942.0236368925061
 31
0.0
  0
INSERT
  5
405C
330
4056
100
AcDbEntity
  8
DIM
 62
     0
370
    -2
100
AcDbBlockReference
  2
_DOT
 10
155.2980832684102
 20
768.0236368925064
 30
0.0
 41
6.0
 42
6.0
 43
6.0
 50
270.0
  0
INSERT
  5
405D
330
4056
100
AcDbEntity
  8
DIM
 62
     0
370
    -2
100
AcDbBlockReference
  2
_DOT
 10
155.2980832684102
 20
948.0236368925061
 30
0.0
 41
6.0
 42
6.0
 43
6.0
 50
90.0
  0
MTEXT
  5
405E
330
4056
100
AcDbEntity
  8
DIM
  6
Continuous
 62
     0
100
AcDbMText
 10
128.2980832684102
 20
858.023636892506
 30
0.0
 40
24.0
 41
0.0
 46
0.0
 71
     5
 72
     1
  1
\A1;180
  7
ＭＳ ゴシック
 11
0.0
 21
1.0
 31
0.0
 73
     1
 44
1.0
  0
POINT
  5
405F
330
4056
100
AcDbEntity
  8
Defpoints
 62
     0
100
AcDbPoint
 10
207.8489216738712
 20
768.0236368925064
 30
0.0
  0
POINT
  5
4060
330
4056
100
AcDbEntity
  8
Defpoints
 62
     0
100
AcDbPoint
 10
425.6998863049357
 20
948.0236368925061
 30
0.0
  0
POINT
  5
4061
330
4056
100
AcDbEntity
  8
Defpoints
 62
     0
100
AcDbPoint
 10
155.2980832684102
 20
948.0236368925061
 30
0.0
  0
ENDBLK
  5
4058
330
4056
100
AcDbEntity
  8
0
100
AcDbBlockEnd
  0
BLOCK
  5
4063
330
4062
100
AcDbEntity
  8
0
100
AcDbBlockBegin
  2
*D10
 70
     1
 10
0.0
 20
0.0
 30
0.0
  3
*D10
  1
*D79
  0
LINE
  5
4065
330
4062
100
AcDbEntity
  8
DIM
  6
Continuous
 62
     0
370
    -2
100
AcDbLine
 10
207.8489216738712
 20
743.0236368925064
 30
0.0
 11
207.8489216738712
 21
624.6507811777244
 31
0.0
  0
LINE
  5
4066
330
4062
100
AcDbEntity
  8
DIM
  6
Continuous
 62
     0
370
    -2
100
AcDbLine
 10
439.2372902857246
 20
711.8859645832442
 30
0.0
 11
439.2372902857246
 21
624.6507811777244
 31
0.0
  0
LINE
  5
4067
330
4062
100
AcDbEntity
  8
DIM
  6
Continuous
 62
     0
370
    -2
100
AcDbLine
 10
213.8489216738712
 20
624.6507811777244
 30
0.0
 11
433.2372902857246
 21
624.6507811777244
 31
0.0
  0
INSERT
  5
4068
330
4062
100
AcDbEntity
  8
DIM
 62
     0
370
    -2
100
AcDbBlockReference
  2
_DOT
 10
207.8489216738712
 20
624.6507811777244
 30
0.0
 41
6.0
 42
6.0
 43
6.0
 50
180.0
  0
INSERT
  5
4069
330
4062
100
AcDbEntity
  8
DIM
 62
     0
370
    -2
100
AcDbBlockReference
  2
_DOT
 10
439.2372902857246
 20
624.6507811777244
 30
0.0
 41
6.0
 42
6.0
 43
6.0
  0
MTEXT
  5
406A
330
4062
100
AcDbEntity
  8
DIM
  6
Continuous
 62
     0
100
AcDbMText
 10
323.5431059797979
 20
651.6507811777244
 30
0.0
 40
24.0
 41
0.0
 46
0.0
 71
     5
 72
     1
  1
\A1;190-230
  7
ＭＳ ゴシック
 73
     1
 44
1.0
  0
POINT
  5
406B
330
4062
100
AcDbEntity
  8
Defpoints
 62
     0
100
AcDbPoint
 10
207.8489216738712
 20
768.0236368925064
 30
0.0
  0
POINT
  5
406C
330
4062
100
AcDbEntity
  8
Defpoints
 62
     0
100
AcDbPoint
 10
439.2372902857246
 20
736.8859645832442
 30
0.0
  0
POINT
  5
406D
330
4062
100
AcDbEntity
  8
Defpoints
 62
     0
100
AcDbPoint
 10
439.2372902857246
 20
624.6507811777244
 30
0.0
  0
ENDBLK
  5
4064
330
4062
100
AcDbEntity
  8
0
100
AcDbBlockEnd
  0
BLOCK
  5
406F
330
406E
100
AcDbEntity
  8
0
100
AcDbBlockBegin
  2
*D11
 70
     1
 10
0.0
 20
0.0
 30
0.0
  3
*D11
  1
*D80
  0
LINE
  5
4071
330
406E
100
AcDbEntity
  8
DIM
  6
Continuous
 62
     0
370
    -2
100
AcDbLine
 10
207.8489216738712
 20
2484.515366529308
 30
0.0
 11
207.8489216738712
 21
2606.650923430125
 31
0.0
  0
LINE
  5
4072
330
406E
100
AcDbEntity
  8
DIM
  6
Continuous
 62
     0
370
    -2
100
AcDbLine
 10
932.8489216738712
 20
2387.857152864133
 30
0.0
 11
932.8489216738712
 21
2606.650923430125
 31
0.0
  0
LINE
  5
4073
330
406E
100
AcDbEntity
  8
DIM
  6
Continuous
 62
     0
370
    -2
100
AcDbLine
 10
213.8489216738712
 20
2606.650923430125
 30
0.0
 11
926.8489216738712
 21
2606.650923430125
 31
0.0
  0
INSERT
  5
4074
330
406E
100
AcDbEntity
  8
DIM
 62
     0
370
    -2
100
AcDbBlockReference
  2
_DOT
 10
207.8489216738712
 20
2606.650923430125
 30
0.0
 41
6.0
 42
6.0
 43
6.0
 50
180.0
  0
INSERT
  5
4075
330
406E
100
AcDbEntity
  8
DIM
 62
     0
370
    -2
100
AcDbBlockReference
  2
_DOT
 10
932.8489216738712
 20
2606.650923430125
 30
0.0
 41
6.0
 42
6.0
 43
6.0
  0
MTEXT
  5
4076
330
406E
100
AcDbEntity
  8
DIM
  6
Continuous
 62
     0
100
AcDbMText
 10
570.3489216738712
 20
2633.650923430125
 30
0.0
 40
24.0
 41
0.0
 46
0.0
 71
     5
 72
     1
  1
\A1;725
  7
ＭＳ ゴシック
 73
     1
 44
1.0
  0
POINT
  5
4077
330
406E
100
AcDbEntity
  8
Defpoints
 62
     0
100
AcDbPoint
 10
207.8489216738712
 20
2459.515366529308
 30
0.0
  0
POINT
  5
4078
330
406E
100
AcDbEntity
  8
Defpoints
 62
     0
100
AcDbPoint
 10
932.8489216738712
 20
2362.857152864133
 30
0.0
  0
POINT
  5
4079
330
406E
100
AcDbEntity
  8
Defpoints
 62
     0
100
AcDbPoint
 10
932.8489216738712
 20
2606.650923430125
 30
0.0
  0
ENDBLK
  5
4070
330
406E
100
AcDbEntity
  8
0
100
AcDbBlockEnd
  0
BLOCK
  5
407B
330
407A
100
AcDbEntity
  8
0
100
AcDbBlockBegin
  2
*D12
 70
     1
 10
0.0
 20
0.0
 30
0.0
  3
*D12
  1
*D81
  0
LINE
  5
407D
330
407A
100
AcDbEntity
  8
DIM
  6
Continuous
 62
     0
370
    -2
100
AcDbLine
 10
187.9130189704924
 20
2464.514955666083
 30
0.0
 11
155.2980832684102
 21
2464.514955666083
 31
0.0
  0
LINE
  5
407E
330
407A
100
AcDbEntity
  8
DIM
  6
Continuous
 62
     0
370
    -2
100
AcDbLine
 10
187.9130189704924
 20
2094.514955666083
 30
0.0
 11
155.2980832684102
 21
2094.514955666083
 31
0.0
  0
LINE
  5
407F
330
407A
100
AcDbEntity
  8
DIM
  6
Continuous
 62
     0
370
    -2
100
AcDbLine
 10
155.2980832684102
 20
2458.514955666083
 30
0.0
 11
155.2980832684102
 21
2100.514955666083
 31
0.0
  0
INSERT
  5
4080
330
407A
100
AcDbEntity
  8
DIM
 62
     0
370
    -2
100
AcDbBlockReference
  2
_DOT
 10
155.2980832684102
 20
2464.514955666083
 30
0.0
 41
6.0
 42
6.0
 43
6.0
 50
90.0
  0
INSERT
  5
4081
330
407A
100
AcDbEntity
  8
DIM
 62
     0
370
    -2
100
AcDbBlockReference
  2
_DOT
 10
155.2980832684102
 20
2094.514955666083
 30
0.0
 41
6.0
 42
6.0
 43
6.0
 50
270.0
  0
MTEXT
  5
4082
330
407A
100
AcDbEntity
  8
DIM
  6
Continuous
 62
     0
100
AcDbMText
 10
128.2980832684102
 20
2279.514955666083
 30
0.0
 40
24.0
 41
0.0
 46
0.0
 71
     5
 72
     1
  1
\A1;370
  7
ＭＳ ゴシック
 11
7.681543089298381E-17
 21
1.0
 31
0.0
 73
     1
 44
1.0
  0
POINT
  5
4083
330
407A
100
AcDbEntity
  8
Defpoints
 62
     0
100
AcDbPoint
 10
212.9130189704924
 20
2464.514955666083
 30
0.0
  0
POINT
  5
4084
330
407A
100
AcDbEntity
  8
Defpoints
 62
     0
100
AcDbPoint
 10
212.9130189704924
 20
2094.514955666083
 30
0.0
  0
POINT
  5
4085
330
407A
100
AcDbEntity
  8
Defpoints
 62
     0
100
AcDbPoint
 10
155.2980832684102
 20
2094.514955666083
 30
0.0
  0
ENDBLK
  5
407C
330
407A
100
AcDbEntity
  8
0
100
AcDbBlockEnd
  0
BLOCK
  5
4087
330
4086
100
AcDbEntity
  8
0
100
AcDbBlockBegin
  2
*D13
 70
     1
 10
0.0
 20
0.0
 30
0.0
  3
*D13
  1
*D82
  0
LINE
  5
4089
330
4086
100
AcDbEntity
  8
DIM
  6
Continuous
 62
     0
370
    -2
100
AcDbLine
 10
874.212424917268
 20
2459.525943050481
 30
0.0
 11
1090.682509672794
 21
2459.525943050481
 31
0.0
  0
LINE
  5
408A
330
4086
100
AcDbEntity
  8
DIM
  6
Continuous
 62
     0
370
    -2
100
AcDbLine
 10
874.212424917268
 20
2099.525943050481
 30
0.0
 11
1090.682509672794
 21
2099.525943050481
 31
0.0
  0
LINE
  5
408B
330
4086
100
AcDbEntity
  8
DIM
  6
Continuous
 62
     0
370
    -2
100
AcDbLine
 10
1090.682509672794
 20
2453.525943050481
 30
0.0
 11
1090.682509672794
 21
2105.525943050481
 31
0.0
  0
INSERT
  5
408C
330
4086
100
AcDbEntity
  8
DIM
 62
     0
370
    -2
100
AcDbBlockReference
  2
_DOT
 10
1090.682509672794
 20
2459.525943050481
 30
0.0
 41
6.0
 42
6.0
 43
6.0
 50
90.0
  0
INSERT
  5
408D
330
4086
100
AcDbEntity
  8
DIM
 62
     0
370
    -2
100
AcDbBlockReference
  2
_DOT
 10
1090.682509672794
 20
2099.525943050481
 30
0.0
 41
6.0
 42
6.0
 43
6.0
 50
270.0
  0
MTEXT
  5
408E
330
4086
100
AcDbEntity
  8
DIM
  6
Continuous
 62
     0
100
AcDbMText
 10
1063.682509672794
 20
2279.525943050481
 30
0.0
 40
24.0
 41
0.0
 46
0.0
 71
     5
 72
     1
  1
\A1;360
  7
ＭＳ ゴシック
 11
0.0
 21
1.0
 31
0.0
 73
     1
 44
1.0
  0
POINT
  5
408F
330
4086
100
AcDbEntity
  8
Defpoints
 62
     0
100
AcDbPoint
 10
849.212424917268
 20
2459.525943050481
 30
0.0
  0
POINT
  5
4090
330
4086
100
AcDbEntity
  8
Defpoints
 62
     0
100
AcDbPoint
 10
849.212424917268
 20
2099.525943050481
 30
0.0
  0
POINT
  5
4091
330
4086
100
AcDbEntity
  8
Defpoints
 62
     0
100
AcDbPoint
 10
1090.682509672794
 20
2099.525943050481
 30
0.0
  0
ENDBLK
  5
4088
330
4086
100
AcDbEntity
  8
0
100
AcDbBlockEnd
  0
BLOCK
  5
4093
330
4092
100
AcDbEntity
  8
0
100
AcDbBlockBegin
  2
*D14
 70
     1
 10
0.0
 20
0.0
 30
0.0
  3
*D14
  1
*D83
  0
LINE
  5
4095
330
4092
100
AcDbEntity
  8
DIM
  6
Continuous
 62
     0
370
    -2
100
AcDbLine
 10
512.8602722344599
 20
763.654358513218
 30
0.0
 11
512.8602722344599
 21
533.0758001151231
 31
0.0
  0
LINE
  5
4096
330
4092
100
AcDbEntity
  8
DIM
  6
Continuous
 62
     0
370
    -2
100
AcDbLine
 10
207.8489216738712
 20
743.0236368925064
 30
0.0
 11
207.8489216738712
 21
533.0758001151231
 31
0.0
  0
LINE
  5
4097
330
4092
100
AcDbEntity
  8
DIM
  6
Continuous
 62
     0
370
    -2
100
AcDbLine
 10
506.8602722344599
 20
533.0758001151231
 30
0.0
 11
213.8489216738712
 21
533.0758001151231
 31
0.0
  0
INSERT
  5
4098
330
4092
100
AcDbEntity
  8
DIM
 62
     0
370
    -2
100
AcDbBlockReference
  2
_DOT
 10
512.8602722344599
 20
533.0758001151231
 30
0.0
 41
6.0
 42
6.0
 43
6.0
  0
INSERT
  5
4099
330
4092
100
AcDbEntity
  8
DIM
 62
     0
370
    -2
100
AcDbBlockReference
  2
_DOT
 10
207.8489216738712
 20
533.0758001151231
 30
0.0
 41
6.0
 42
6.0
 43
6.0
 50
180.0
  0
MTEXT
  5
409A
330
4092
100
AcDbEntity
  8
DIM
  6
Continuous
 62
     0
100
AcDbMText
 10
360.3545969541656
 20
562.1398001151231
 30
0.0
 40
24.0
 41
0.0
 46
0.0
 71
     5
 72
     1
  1
\A1;305(床固定位置)
  7
ＭＳ ゴシック
 73
     1
 44
1.0
  0
POINT
  5
409B
330
4092
100
AcDbEntity
  8
Defpoints
 62
     0
100
AcDbPoint
 10
512.8602722344599
 20
788.654358513218
 30
0.0
  0
POINT
  5
409C
330
4092
100
AcDbEntity
  8
Defpoints
 62
     0
100
AcDbPoint
 10
207.8489216738712
 20
768.0236368925064
 30
0.0
  0
POINT
  5
409D
330
4092
100
AcDbEntity
  8
Defpoints
 62
     0
100
AcDbPoint
 10
207.8489216738712
 20
533.0758001151231
 30
0.0
  0
ENDBLK
  5
4094
330
4092
100
AcDbEntity
  8
0
100
AcDbBlockEnd
  0
BLOCK
  5
409F
330
409E
100
AcDbEntity
  8
0
100
AcDbBlockBegin
  2
*D15
 70
     1
 10
0.0
 20
0.0
 30
0.0
  3
*D15
  1
*D84
  0
LINE
  5
40A1
330
409E
100
AcDbEntity
  8
DIM
  6
Continuous
 62
     0
370
    -2
100
AcDbLine
 10
1225.754726880718
 20
1701.497858213255
 30
0.0
 11
1225.754726880718
 21
1787.985344224437
 31
0.0
  0
LINE
  5
40A2
330
409E
100
AcDbEntity
  8
DIM
  6
Continuous
 62
     0
370
    -2
100
AcDbLine
 10
1595.594751851499
 20
1701.497858213255
 30
0.0
 11
1595.594751851499
 21
1787.985344224437
 31
0.0
  0
LINE
  5
40A3
330
409E
100
AcDbEntity
  8
DIM
  6
Continuous
 62
     0
370
    -2
100
AcDbLine
 10
1231.754726880718
 20
1787.985344224437
 30
0.0
 11
1589.594751851499
 21
1787.985344224437
 31
0.0
  0
INSERT
  5
40A4
330
409E
100
AcDbEntity
  8
DIM
 62
     0
370
    -2
100
AcDbBlockReference
  2
_DOT
 10
1225.754726880718
 20
1787.985344224437
 30
0.0
 41
6.0
 42
6.0
 43
6.0
 50
180.0
  0
INSERT
  5
40A5
330
409E
100
AcDbEntity
  8
DIM
 62
     0
370
    -2
100
AcDbBlockReference
  2
_DOT
 10
1595.594751851499
 20
1787.985344224437
 30
0.0
 41
6.0
 42
6.0
 43
6.0
  0
MTEXT
  5
40A6
330
409E
100
AcDbEntity
  8
DIM
  6
Continuous
 62
     0
100
AcDbMText
 10
1410.674739366108
 20
1814.985344224437
 30
0.0
 40
24.0
 41
0.0
 46
0.0
 71
     5
 72
     1
  1
\A1;370
  7
ＭＳ ゴシック
 73
     1
 44
1.0
  0
POINT
  5
40A7
330
409E
100
AcDbEntity
  8
Defpoints
 62
     0
100
AcDbPoint
 10
1225.754726880718
 20
1676.497858213255
 30
0.0
  0
POINT
  5
40A8
330
409E
100
AcDbEntity
  8
Defpoints
 62
     0
100
AcDbPoint
 10
1595.594751851499
 20
1676.497858213255
 30
0.0
  0
POINT
  5
40A9
330
409E
100
AcDbEntity
  8
Defpoints
 62
     0
100
AcDbPoint
 10
1595.594751851499
 20
1787.985344224437
 30
0.0
  0
ENDBLK
  5
40A0
330
409E
100
AcDbEntity
  8
0
100
AcDbBlockEnd
  0
BLOCK
  5
40AB
330
40AA
100
AcDbEntity
  8
0
100
AcDbBlockBegin
  2
*D16
 70
     1
 10
0.0
 20
0.0
 30
0.0
  3
*D16
  1
*D85
  0
LINE
  5
40AD
330
40AA
100
AcDbEntity
  8
DIM
  6
Continuous
 62
     0
370
    -2
100
AcDbLine
 10
1620.594751851499
 20
768.0236368925064
 30
0.0
 11
1991.355839517678
 21
768.0236368925064
 31
0.0
  0
LINE
  5
40AE
330
40AA
100
AcDbEntity
  8
DIM
  6
Continuous
 62
     0
370
    -2
100
AcDbLine
 10
1613.594751851499
 20
1653.023636892506
 30
0.0
 11
1991.355839517678
 21
1653.023636892506
 31
0.0
  0
LINE
  5
40AF
330
40AA
100
AcDbEntity
  8
DIM
  6
Continuous
 62
     0
370
    -2
100
AcDbLine
 10
1991.355839517678
 20
774.0236368925064
 30
0.0
 11
1991.355839517678
 21
1647.023636892506
 31
0.0
  0
INSERT
  5
40B0
330
40AA
100
AcDbEntity
  8
DIM
 62
     0
370
    -2
100
AcDbBlockReference
  2
_DOT
 10
1991.355839517678
 20
768.0236368925064
 30
0.0
 41
6.0
 42
6.0
 43
6.0
 50
270.0
  0
INSERT
  5
40B1
330
40AA
100
AcDbEntity
  8
DIM
 62
     0
370
    -2
100
AcDbBlockReference
  2
_DOT
 10
1991.355839517678
 20
1653.023636892506
 30
0.0
 41
6.0
 42
6.0
 43
6.0
 50
90.0
  0
MTEXT
  5
40B2
330
40AA
100
AcDbEntity
  8
DIM
  6
Continuous
 62
     0
100
AcDbMText
 10
1964.355839517678
 20
1210.523636892506
 30
0.0
 40
24.0
 41
0.0
 46
0.0
 71
     5
 72
     1
  1
\A1;885
  7
ＭＳ ゴシック
 11
0.0
 21
1.0
 31
0.0
 73
     1
 44
1.0
  0
POINT
  5
40B3
330
40AA
100
AcDbEntity
  8
Defpoints
 62
     0
100
AcDbPoint
 10
1595.594751851499
 20
768.0236368925064
 30
0.0
  0
POINT
  5
40B4
330
40AA
100
AcDbEntity
  8
Defpoints
 62
     0
100
AcDbPoint
 10
1588.594751851499
 20
1653.023636892506
 30
0.0
  0
POINT
  5
40B5
330
40AA
100
AcDbEntity
  8
Defpoints
 62
     0
100
AcDbPoint
 10
1991.355839517678
 20
1653.023636892506
 30
0.0
  0
ENDBLK
  5
40AC
330
40AA
100
AcDbEntity
  8
0
100
AcDbBlockEnd
  0
BLOCK
  5
40B7
330
40B6
100
AcDbEntity
  8
0
100
AcDbBlockBegin
  2
*D17
 70
     1
 10
0.0
 20
0.0
 30
0.0
  3
*D17
  1
*D86
  0
LINE
  5
40B9
330
40B6
100
AcDbEntity
  8
DIM
  6
Continuous
 62
     0
370
    -2
100
AcDbLine
 10
1620.594751851499
 20
768.0236368925064
 30
0.0
 11
1910.131560889258
 21
768.0236368925064
 31
0.0
  0
LINE
  5
40BA
330
40B6
100
AcDbEntity
  8
DIM
  6
Continuous
 62
     0
370
    -2
100
AcDbLine
 10
1360.921010008095
 20
1588.023636892506
 30
0.0
 11
1910.131560889258
 21
1588.023636892506
 31
0.0
  0
LINE
  5
40BB
330
40B6
100
AcDbEntity
  8
DIM
  6
Continuous
 62
     0
370
    -2
100
AcDbLine
 10
1910.131560889258
 20
774.0236368925064
 30
0.0
 11
1910.131560889258
 21
1582.023636892506
 31
0.0
  0
INSERT
  5
40BC
330
40B6
100
AcDbEntity
  8
DIM
 62
     0
370
    -2
100
AcDbBlockReference
  2
_DOT
 10
1910.131560889258
 20
768.0236368925064
 30
0.0
 41
6.0
 42
6.0
 43
6.0
 50
270.0
  0
INSERT
  5
40BD
330
40B6
100
AcDbEntity
  8
DIM
 62
     0
370
    -2
100
AcDbBlockReference
  2
_DOT
 10
1910.131560889258
 20
1588.023636892506
 30
0.0
 41
6.0
 42
6.0
 43
6.0
 50
90.0
  0
MTEXT
  5
40BE
330
40B6
100
AcDbEntity
  8
DIM
  6
Continuous
 62
     0
100
AcDbMText
 10
1883.131560889258
 20
1178.023636892506
 30
0.0
 40
24.0
 41
0.0
 46
0.0
 71
     5
 72
     1
  1
\A1;820
  7
ＭＳ ゴシック
 11
0.0
 21
1.0
 31
0.0
 73
     1
 44
1.0
  0
POINT
  5
40BF
330
40B6
100
AcDbEntity
  8
Defpoints
 62
     0
100
AcDbPoint
 10
1595.594751851499
 20
768.0236368925064
 30
0.0
  0
POINT
  5
40C0
330
40B6
100
AcDbEntity
  8
Defpoints
 62
     0
100
AcDbPoint
 10
1335.921010008095
 20
1588.023636892506
 30
0.0
  0
POINT
  5
40C1
330
40B6
100
AcDbEntity
  8
Defpoints
 62
     0
100
AcDbPoint
 10
1910.131560889258
 20
1588.023636892506
 30
0.0
  0
ENDBLK
  5
40B8
330
40B6
100
AcDbEntity
  8
0
100
AcDbBlockEnd
  0
BLOCK
  5
40C3
330
40C2
100
AcDbEntity
  8
0
100
AcDbBlockBegin
  2
*D18
 70
     1
 10
0.0
 20
0.0
 30
0.0
  3
*D18
  1
*D87
  0
LINE
  5
40C5
330
40C2
100
AcDbEntity
  8
DIM
  6
Continuous
 62
     0
370
    -2
100
AcDbLine
 10
187.5982153461264
 20
1653.023636892506
 30
0.0
 11
155.2980832684102
 21
1653.023636892506
 31
0.0
  0
LINE
  5
40C6
330
40C2
100
AcDbEntity
  8
DIM
  6
Continuous
 62
     0
370
    -2
100
AcDbLine
 10
182.8489216738712
 20
1183.023636892506
 30
0.0
 11
155.2980832684102
 21
1183.023636892506
 31
0.0
  0
LINE
  5
40C7
330
40C2
100
AcDbEntity
  8
DIM
  6
Continuous
 62
     0
370
    -2
100
AcDbLine
 10
155.2980832684102
 20
1647.023636892506
 30
0.0
 11
155.2980832684102
 21
1189.023636892506
 31
0.0
  0
INSERT
  5
40C8
330
40C2
100
AcDbEntity
  8
DIM
 62
     0
370
    -2
100
AcDbBlockReference
  2
_DOT
 10
155.2980832684102
 20
1653.023636892506
 30
0.0
 41
6.0
 42
6.0
 43
6.0
 50
90.0
  0
INSERT
  5
40C9
330
40C2
100
AcDbEntity
  8
DIM
 62
     0
370
    -2
100
AcDbBlockReference
  2
_DOT
 10
155.2980832684102
 20
1183.023636892506
 30
0.0
 41
6.0
 42
6.0
 43
6.0
 50
270.0
  0
MTEXT
  5
40CA
330
40C2
100
AcDbEntity
  8
DIM
  6
Continuous
 62
     0
100
AcDbMText
 10
128.2980832684102
 20
1418.023636892506
 30
0.0
 40
24.0
 41
0.0
 46
0.0
 71
     5
 72
     1
  1
\A1;470
  7
ＭＳ ゴシック
 11
6.047172219234895E-17
 21
1.0
 31
0.0
 73
     1
 44
1.0
  0
POINT
  5
40CB
330
40C2
100
AcDbEntity
  8
Defpoints
 62
     0
100
AcDbPoint
 10
212.5982153461264
 20
1653.023636892506
 30
0.0
  0
POINT
  5
40CC
330
40C2
100
AcDbEntity
  8
Defpoints
 62
     0
100
AcDbPoint
 10
207.8489216738712
 20
1183.023636892506
 30
0.0
  0
POINT
  5
40CD
330
40C2
100
AcDbEntity
  8
Defpoints
 62
     0
100
AcDbPoint
 10
155.2980832684102
 20
1183.023636892506
 30
0.0
  0
ENDBLK
  5
40C4
330
40C2
100
AcDbEntity
  8
0
100
AcDbBlockEnd
  0
BLOCK
  5
40CF
330
40CE
100
AcDbEntity
  8
0
100
AcDbBlockBegin
  2
*D19
 70
     1
 10
0.0
 20
0.0
 30
0.0
  3
*D19
  1
*D88
  0
LINE
  5
40D1
330
40CE
100
AcDbEntity
  8
DIM
  6
Continuous
 62
     0
370
    -2
100
AcDbLine
 10
162.5982153461264
 20
1183.023636892506
 30
0.0
 11
155.2980832684102
 21
1183.023636892506
 31
0.0
  0
LINE
  5
40D2
330
40CE
100
AcDbEntity
  8
DIM
  6
Continuous
 62
     0
370
    -2
100
AcDbLine
 10
183.069168494831
 20
1168.343146710991
 30
0.0
 11
155.2980832684102
 21
1168.343146710991
 31
0.0
  0
LINE
  5
40D3
330
40CE
100
AcDbEntity
  8
DIM
  6
Continuous
 62
     0
370
    -2
100
AcDbLine
 10
155.2980832684102
 20
1177.023636892506
 30
0.0
 11
155.2980832684102
 21
1174.343146710991
 31
0.0
  0
INSERT
  5
40D4
330
40CE
100
AcDbEntity
  8
DIM
 62
     0
370
    -2
100
AcDbBlockReference
  2
_DOT
 10
155.2980832684102
 20
1183.023636892506
 30
0.0
 41
6.0
 42
6.0
 43
6.0
 50
90.0
  0
INSERT
  5
40D5
330
40CE
100
AcDbEntity
  8
DIM
 62
     0
370
    -2
100
AcDbBlockReference
  2
_DOT
 10
155.2980832684102
 20
1168.343146710991
 30
0.0
 41
6.0
 42
6.0
 43
6.0
 50
270.0
  0
MTEXT
  5
40D6
330
40CE
100
AcDbEntity
  8
DIM
  6
Continuous
 62
     0
100
AcDbMText
 10
128.2980832684102
 20
1175.683391801749
 30
0.0
 40
24.0
 41
0.0
 46
0.0
 71
     5
 72
     1
  1
\A1;15
  7
ＭＳ ゴシック
 11
0.0
 21
1.0
 31
0.0
 73
     1
 44
1.0
  0
POINT
  5
40D7
330
40CE
100
AcDbEntity
  8
Defpoints
 62
     0
100
AcDbPoint
 10
187.5982153461264
 20
1183.023636892506
 30
0.0
  0
POINT
  5
40D8
330
40CE
100
AcDbEntity
  8
Defpoints
 62
     0
100
AcDbPoint
 10
208.069168494831
 20
1168.343146710991
 30
0.0
  0
POINT
  5
40D9
330
40CE
100
AcDbEntity
  8
Defpoints
 62
     0
100
AcDbPoint
 10
155.2980832684102
 20
1168.343146710991
 30
0.0
  0
ENDBLK
  5
40D0
330
40CE
100
AcDbEntity
  8
0
100
AcDbBlockEnd
  0
BLOCK
  5
40DB
330
40DA
100
AcDbEntity
  8
0
100
AcDbBlockBegin
  2
*D20
 70
     1
 10
0.0
 20
0.0
 30
0.0
  3
*D20
  1
*D89
  0
LINE
  5
40DD
330
40DA
100
AcDbEntity
  8
DIM
  6
Continuous
 62
     0
370
    -2
100
AcDbLine
 10
1620.594751851499
 20
768.0236368925064
 30
0.0
 11
1765.138423657905
 21
768.0236368925064
 31
0.0
  0
LINE
  5
40DE
330
40DA
100
AcDbEntity
  8
DIM
  6
Continuous
 62
     0
370
    -2
100
AcDbLine
 10
1620.594751851499
 20
1203.023636892506
 30
0.0
 11
1765.138423657905
 21
1203.023636892506
 31
0.0
  0
LINE
  5
40DF
330
40DA
100
AcDbEntity
  8
DIM
  6
Continuous
 62
     0
370
    -2
100
AcDbLine
 10
1765.138423657905
 20
774.0236368925064
 30
0.0
 11
1765.138423657905
 21
1197.023636892506
 31
0.0
  0
INSERT
  5
40E0
330
40DA
100
AcDbEntity
  8
DIM
 62
     0
370
    -2
100
AcDbBlockReference
  2
_DOT
 10
1765.138423657905
 20
768.0236368925064
 30
0.0
 41
6.0
 42
6.0
 43
6.0
 50
270.0
  0
INSERT
  5
40E1
330
40DA
100
AcDbEntity
  8
DIM
 62
     0
370
    -2
100
AcDbBlockReference
  2
_DOT
 10
1765.138423657905
 20
1203.023636892506
 30
0.0
 41
6.0
 42
6.0
 43
6.0
 50
90.0
  0
MTEXT
  5
40E2
330
40DA
100
AcDbEntity
  8
DIM
  6
Continuous
 62
     0
100
AcDbMText
 10
1738.138423657905
 20
985.5236368925063
 30
0.0
 40
24.0
 41
0.0
 46
0.0
 71
     5
 72
     1
  1
\A1;435
  7
ＭＳ ゴシック
 11
0.0
 21
1.0
 31
0.0
 73
     1
 44
1.0
  0
POINT
  5
40E3
330
40DA
100
AcDbEntity
  8
Defpoints
 62
     0
100
AcDbPoint
 10
1595.594751851499
 20
768.0236368925064
 30
0.0
  0
POINT
  5
40E4
330
40DA
100
AcDbEntity
  8
Defpoints
 62
     0
100
AcDbPoint
 10
1595.594751851499
 20
1203.023636892506
 30
0.0
  0
POINT
  5
40E5
330
40DA
100
AcDbEntity
  8
Defpoints
 62
     0
100
AcDbPoint
 10
1765.138423657905
 20
1203.023636892506
 30
0.0
  0
ENDBLK
  5
40DC
330
40DA
100
AcDbEntity
  8
0
100
AcDbBlockEnd
  0
BLOCK
  5
40E7
330
40E6
100
AcDbEntity
  8
0
100
AcDbBlockBegin
  2
*D21
 70
     1
 10
0.0
 20
0.0
 30
0.0
  3
*D21
  1
*D90
  0
LINE
  5
40E9
330
40E6
100
AcDbEntity
  8
DIM
  6
Continuous
 62
     0
370
    -2
100
AcDbLine
 10
1620.594751851499
 20
768.0236368925064
 30
0.0
 11
1838.276554827702
 21
768.0236368925064
 31
0.0
  0
LINE
  5
40EA
330
40E6
100
AcDbEntity
  8
DIM
  6
Continuous
 62
     0
370
    -2
100
AcDbLine
 10
1620.594751851499
 20
1223.023636892506
 30
0.0
 11
1838.276554827702
 21
1223.023636892506
 31
0.0
  0
LINE
  5
40EB
330
40E6
100
AcDbEntity
  8
DIM
  6
Continuous
 62
     0
370
    -2
100
AcDbLine
 10
1838.276554827702
 20
774.0236368925064
 30
0.0
 11
1838.276554827702
 21
1217.023636892506
 31
0.0
  0
INSERT
  5
40EC
330
40E6
100
AcDbEntity
  8
DIM
 62
     0
370
    -2
100
AcDbBlockReference
  2
_DOT
 10
1838.276554827702
 20
768.0236368925064
 30
0.0
 41
6.0
 42
6.0
 43
6.0
 50
270.0
  0
INSERT
  5
40ED
330
40E6
100
AcDbEntity
  8
DIM
 62
     0
370
    -2
100
AcDbBlockReference
  2
_DOT
 10
1838.276554827702
 20
1223.023636892506
 30
0.0
 41
6.0
 42
6.0
 43
6.0
 50
90.0
  0
MTEXT
  5
40EE
330
40E6
100
AcDbEntity
  8
DIM
  6
Continuous
 62
     0
100
AcDbMText
 10
1811.276554827702
 20
995.5236368925063
 30
0.0
 40
24.0
 41
0.0
 46
0.0
 71
     5
 72
     1
  1
\A1;455
  7
ＭＳ ゴシック
 11
0.0
 21
1.0
 31
0.0
 73
     1
 44
1.0
  0
POINT
  5
40EF
330
40E6
100
AcDbEntity
  8
Defpoints
 62
     0
100
AcDbPoint
 10
1595.594751851499
 20
768.0236368925064
 30
0.0
  0
POINT
  5
40F0
330
40E6
100
AcDbEntity
  8
Defpoints
 62
     0
100
AcDbPoint
 10
1595.594751851499
 20
1223.023636892506
 30
0.0
  0
POINT
  5
40F1
330
40E6
100
AcDbEntity
  8
Defpoints
 62
     0
100
AcDbPoint
 10
1838.276554827702
 20
1223.023636892506
 30
0.0
  0
ENDBLK
  5
40E8
330
40E6
100
AcDbEntity
  8
0
100
AcDbBlockEnd
  0
BLOCK
  5
40F3
330
40F2
100
AcDbEntity
  8
0
100
AcDbBlockBegin
  2
*D22
 70
     1
 10
0.0
 20
0.0
 30
0.0
  3
*D22
  1
*D91
  0
LINE
  5
40F5
330
40F2
100
AcDbEntity
  8
DIM
  6
Continuous
 62
     0
370
    -2
100
AcDbLine
 10
1285.594751851499
 20
743.2660732346567
 30
0.0
 11
1285.594751851499
 21
694.8893703055339
 31
0.0
  0
LINE
  5
40F6
330
40F2
100
AcDbEntity
  8
DIM
  6
Continuous
 62
     0
370
    -2
100
AcDbLine
 10
1535.594751851499
 20
743.2660732346567
 30
0.0
 11
1535.594751851499
 21
694.8893703055339
 31
0.0
  0
LINE
  5
40F7
330
40F2
100
AcDbEntity
  8
DIM
  6
Continuous
 62
     0
370
    -2
100
AcDbLine
 10
1291.594751851499
 20
694.8893703055339
 30
0.0
 11
1529.594751851499
 21
694.8893703055339
 31
0.0
  0
INSERT
  5
40F8
330
40F2
100
AcDbEntity
  8
DIM
 62
     0
370
    -2
100
AcDbBlockReference
  2
_DOT
 10
1285.594751851499
 20
694.8893703055339
 30
0.0
 41
6.0
 42
6.0
 43
6.0
 50
180.0
  0
INSERT
  5
40F9
330
40F2
100
AcDbEntity
  8
DIM
 62
     0
370
    -2
100
AcDbBlockReference
  2
_DOT
 10
1535.594751851499
 20
694.8893703055339
 30
0.0
 41
6.0
 42
6.0
 43
6.0
  0
MTEXT
  5
40FA
330
40F2
100
AcDbEntity
  8
DIM
  6
Continuous
 62
     0
100
AcDbMText
 10
1410.594751851499
 20
721.8893703055339
 30
0.0
 40
24.0
 41
0.0
 46
0.0
 71
     5
 72
     1
  1
\A1;250
  7
ＭＳ ゴシック
 73
     1
 44
1.0
  0
POINT
  5
40FB
330
40F2
100
AcDbEntity
  8
Defpoints
 62
     0
100
AcDbPoint
 10
1285.594751851499
 20
768.2660732346567
 30
0.0
  0
POINT
  5
40FC
330
40F2
100
AcDbEntity
  8
Defpoints
 62
     0
100
AcDbPoint
 10
1535.594751851499
 20
768.2660732346567
 30
0.0
  0
POINT
  5
40FD
330
40F2
100
AcDbEntity
  8
Defpoints
 62
     0
100
AcDbPoint
 10
1535.594751851499
 20
694.8893703055339
 30
0.0
  0
ENDBLK
  5
40F4
330
40F2
100
AcDbEntity
  8
0
100
AcDbBlockEnd
  0
BLOCK
  5
993A
330
9939
100
AcDbEntity
  8
0
100
AcDbBlockBegin
  2
*D24
 70
     1
 10
0.0
 20
0.0
 30
0.0
  3
*D24
  1

  0
LINE
  5
993B
330
9939
100
AcDbEntity
  8
DIM
  6
Continuous
 62
     0
370
    -2
100
AcDbLine
 10
511.6434266434983
 20
184.6804742656
 30
0.0
 11
511.6434266434983
 21
237.2004442655975
 31
0.0
  0
LINE
  5
993C
330
9939
100
AcDbEntity
  8
DIM
  6
Continuous
 62
     0
370
    -2
100
AcDbLine
 10
577.6434266435019
 20
184.6804742656
 30
0.0
 11
577.6434266435019
 21
237.2004442655975
 31
0.0
  0
LINE
  5
993D
330
9939
100
AcDbEntity
  8
DIM
  6
Continuous
 62
     0
370
    -2
100
AcDbLine
 10
520.6434266434983
 20
237.2004442655975
 30
0.0
 11
568.6434266435019
 21
237.2004442655975
 31
0.0
  0
INSERT
  5
993E
330
9939
100
AcDbEntity
  8
DIM
 62
     0
370
    -2
100
AcDbBlockReference
  2
_DOT
 10
511.6434266434983
 20
237.2004442655975
 30
0.0
 41
9.0
 42
9.0
 43
9.0
 50
180.0
  0
INSERT
  5
993F
330
9939
100
AcDbEntity
  8
DIM
 62
     0
370
    -2
100
AcDbBlockReference
  2
_DOT
 10
577.6434266435019
 20
237.2004442655975
 30
0.0
 41
9.0
 42
9.0
 43
9.0
  0
MTEXT
  5
9940
330
9939
100
AcDbEntity
  8
DIM
  6
Continuous
 62
     0
100
AcDbMText
 10
542.8916825856761
 20
259.4167528593475
 30
0.0
 40
24.4326171875
 41
0.0
 46
0.0
 71
     5
 72
     1
  1
\A1;\A1;33
  7
ＭＳ ゴシック
 73
     1
 44
0.96
  0
POINT
  5
9941
330
9939
100
AcDbEntity
  8
Defpoints
 62
     0
100
AcDbPoint
 10
511.6434266434983
 20
184.6804742656
 30
0.0
  0
POINT
  5
9942
330
9939
100
AcDbEntity
  8
Defpoints
 62
     0
100
AcDbPoint
 10
577.6434266435019
 20
184.6804742656
 30
0.0
  0
POINT
  5
9943
330
9939
100
AcDbEntity
  8
Defpoints
 62
     0
100
AcDbPoint
 10
577.6434266435019
 20
237.2004442655975
 30
0.0
  0
ENDBLK
  5
9944
330
9939
100
AcDbEntity
  8
0
100
AcDbBlockEnd
  0
BLOCK
  5
9952
330
9951
100
AcDbEntity
  8
0
100
AcDbBlockBegin
  2
*D25
 70
     1
 10
0.0
 20
0.0
 30
0.0
  3
*D25
  1

  0
LINE
  5
9953
330
9951
100
AcDbEntity
  8
DIM
  6
Continuous
 62
     0
370
    -2
100
AcDbLine
 10
146.9502366434997
 20
180.0011351859207
 30
0.0
 11
146.9502366434997
 21
232.7226927935048
 31
0.0
  0
LINE
  5
9954
330
9951
100
AcDbEntity
  8
DIM
  6
Continuous
 62
     0
370
    -2
100
AcDbLine
 10
246.9502366434992
 20
176.5163348389447
 30
0.0
 11
246.9502366434992
 21
232.7226927935048
 31
0.0
  0
LINE
  5
9955
330
9951
100
AcDbEntity
  8
DIM
  6
Continuous
 62
     0
370
    -2
100
AcDbLine
 10
155.9502366434997
 20
232.7226927935048
 30
0.0
 11
237.9502366434992
 21
232.7226927935048
 31
0.0
  0
INSERT
  5
9956
330
9951
100
AcDbEntity
  8
DIM
 62
     0
370
    -2
100
AcDbBlockReference
  2
_DOT
 10
146.9502366434997
 20
232.7226927935048
 30
0.0
 41
9.0
 42
9.0
 43
9.0
 50
180.0
  0
INSERT
  5
9957
330
9951
100
AcDbEntity
  8
DIM
 62
     0
370
    -2
100
AcDbBlockReference
  2
_DOT
 10
246.9502366434992
 20
232.7226927935048
 30
0.0
 41
9.0
 42
9.0
 43
9.0
  0
MTEXT
  5
9958
330
9951
100
AcDbEntity
  8
DIM
  6
Continuous
 62
     0
100
AcDbMText
 10
196.9502366434997
 20
254.9390013872548
 30
0.0
 40
24.4326171875
 41
0.0
 46
0.0
 71
     5
 72
     1
  1
\A1;\A1;50
  7
ＭＳ ゴシック
 73
     1
 44
0.96
  0
POINT
  5
9959
330
9951
100
AcDbEntity
  8
Defpoints
 62
     0
100
AcDbPoint
 10
146.9502366434997
 20
180.0011351859207
 30
0.0
  0
POINT
  5
995A
330
9951
100
AcDbEntity
  8
Defpoints
 62
     0
100
AcDbPoint
 10
246.9502366434992
 20
176.5163348389447
 30
0.0
  0
POINT
  5
995B
330
9951
100
AcDbEntity
  8
Defpoints
 62
     0
100
AcDbPoint
 10
246.9502366434992
 20
232.7226927935048
 30
0.0
  0
ENDBLK
  5
995C
330
9951
100
AcDbEntity
  8
0
100
AcDbBlockEnd
  0
BLOCK
  5
995F
330
995E
100
AcDbEntity
  8
0
100
AcDbBlockBegin
  2
*D26
 70
     1
 10
0.0
 20
0.0
 30
0.0
  3
*D26
  1

  0
LINE
  5
9960
330
995E
100
AcDbEntity
  8
DIM
  6
Continuous
 62
     0
370
    -2
100
AcDbLine
 10
246.9502366434997
 20
217.5011351859207
 30
0.0
 11
246.9502366434997
 21
232.7226927935048
 31
0.0
  0
LINE
  5
9961
330
995E
100
AcDbEntity
  8
DIM
  6
Continuous
 62
     0
370
    -2
100
AcDbLine
 10
346.9502366434997
 20
180.0011351859207
 30
0.0
 11
346.9502366434997
 21
232.7226927935048
 31
0.0
  0
LINE
  5
9962
330
995E
100
AcDbEntity
  8
DIM
  6
Continuous
 62
     0
370
    -2
100
AcDbLine
 10
255.9502366434997
 20
232.7226927935048
 30
0.0
 11
337.9502366434997
 21
232.7226927935048
 31
0.0
  0
INSERT
  5
9963
330
995E
100
AcDbEntity
  8
DIM
 62
     0
370
    -2
100
AcDbBlockReference
  2
_DOT
 10
246.9502366434997
 20
232.7226927935048
 30
0.0
 41
9.0
 42
9.0
 43
9.0
 50
180.0
  0
INSERT
  5
9964
330
995E
100
AcDbEntity
  8
DIM
 62
     0
370
    -2
100
AcDbBlockReference
  2
_DOT
 10
346.9502366434997
 20
232.7226927935048
 30
0.0
 41
9.0
 42
9.0
 43
9.0
  0
MTEXT
  5
9965
330
995E
100
AcDbEntity
  8
DIM
  6
Continuous
 62
     0
100
AcDbMText
 10
296.9502366434997
 20
254.9390013872548
 30
0.0
 40
24.4326171875
 41
0.0
 46
0.0
 71
     5
 72
     1
  1
\A1;\A1;50
  7
ＭＳ ゴシック
 73
     1
 44
0.96
  0
POINT
  5
9966
330
995E
100
AcDbEntity
  8
Defpoints
 62
     0
100
AcDbPoint
 10
246.9502366434997
 20
217.5011351859207
 30
0.0
  0
POINT
  5
9967
330
995E
100
AcDbEntity
  8
Defpoints
 62
     0
100
AcDbPoint
 10
346.9502366434997
 20
180.0011351859207
 30
0.0
  0
POINT
  5
9968
330
995E
100
AcDbEntity
  8
Defpoints
 62
     0
100
AcDbPoint
 10
346.9502366434997
 20
232.7226927935048
 30
0.0
  0
ENDBLK
  5
9969
330
995E
100
AcDbEntity
  8
0
100
AcDbBlockEnd
  0
BLOCK
  5
996C
330
996B
100
AcDbEntity
  8
0
100
AcDbBlockBegin
  2
*D27
 70
     1
 10
0.0
 20
0.0
 30
0.0
  3
*D27
  1

  0
LINE
  5
996D
330
996B
100
AcDbEntity
  8
DIM
  6
Continuous
 62
     0
370
    -2
100
AcDbLine
 10
610.2857407459003
 20
114.4999999999995
 30
0.0
 11
687.5205582449496
 21
114.4999999999995
 31
0.0
  0
LINE
  5
996E
330
996B
100
AcDbEntity
  8
DIM
  6
Continuous
 62
     0
370
    -2
100
AcDbLine
 10
610.2857407459003
 20
54.49999999999955
 30
0.0
 11
687.5205582449496
 21
54.49999999999955
 31
0.0
  0
LINE
  5
996F
330
996B
100
AcDbEntity
  8
DIM
  6
Continuous
 62
     0
370
    -2
100
AcDbLine
 10
687.5205582449496
 20
105.4999999999995
 30
0.0
 11
687.5205582449496
 21
63.49999999999955
 31
0.0
  0
INSERT
  5
9970
330
996B
100
AcDbEntity
  8
DIM
 62
     0
370
    -2
100
AcDbBlockReference
  2
_DOT
 10
687.5205582449496
 20
114.4999999999995
 30
0.0
 41
9.0
 42
9.0
 43
9.0
 50
90.0
  0
INSERT
  5
9971
330
996B
100
AcDbEntity
  8
DIM
 62
     0
370
    -2
100
AcDbBlockReference
  2
_DOT
 10
687.5205582449496
 20
54.49999999999955
 30
0.0
 41
9.0
 42
9.0
 43
9.0
 50
270.0
  0
MTEXT
  5
9972
330
996B
100
AcDbEntity
  8
DIM
  6
Continuous
 62
     0
100
AcDbMText
 10
665.3042496511996
 20
84.49999999999955
 30
0.0
 40
24.4326171875
 41
0.0
 46
0.0
 71
     5
 72
     1
  1
\A1;\A1;30
  7
ＭＳ ゴシック
 11
0.0
 21
1.0
 31
0.0
 73
     1
 44
0.96
  0
POINT
  5
9973
330
996B
100
AcDbEntity
  8
Defpoints
 62
     0
100
AcDbPoint
 10
610.2857407459003
 20
114.4999999999995
 30
0.0
  0
POINT
  5
9974
330
996B
100
AcDbEntity
  8
Defpoints
 62
     0
100
AcDbPoint
 10
610.2857407459003
 20
54.49999999999955
 30
0.0
  0
POINT
  5
9975
330
996B
100
AcDbEntity
  8
Defpoints
 62
     0
100
AcDbPoint
 10
687.5205582449496
 20
54.49999999999954
 30
0.0
  0
ENDBLK
  5
9976
330
996B
100
AcDbEntity
  8
0
100
AcDbBlockEnd
  0
BLOCK
  5
9979
330
9978
100
AcDbEntity
  8
0
100
AcDbBlockBegin
  2
*D28
 70
     1
 10
0.0
 20
0.0
 30
0.0
  3
*D28
  1

  0
LINE
  5
997A
330
9978
100
AcDbEntity
  8
DIM
  6
Continuous
 62
     0
370
    -2
100
AcDbLine
 10
92.00173718750034
 20
4.5
 30
0.0
 11
34.43261718750023
 21
4.5
 31
0.0
  0
LINE
  5
997B
330
9978
100
AcDbEntity
  8
DIM
  6
Continuous
 62
     0
370
    -2
100
AcDbLine
 10
92.00173718750034
 20
164.5000000000005
 30
0.0
 11
34.43261718750023
 21
164.5000000000005
 31
0.0
  0
LINE
  5
997C
330
9978
100
AcDbEntity
  8
DIM
  6
Continuous
 62
     0
370
    -2
100
AcDbLine
 10
34.43261718750023
 20
13.5
 30
0.0
 11
34.43261718750023
 21
155.5000000000005
 31
0.0
  0
INSERT
  5
997D
330
9978
100
AcDbEntity
  8
DIM
 62
     0
370
    -2
100
AcDbBlockReference
  2
_DOT
 10
34.43261718750023
 20
4.5
 30
0.0
 41
9.0
 42
9.0
 43
9.0
 50
270.0
  0
INSERT
  5
997E
330
9978
100
AcDbEntity
  8
DIM
 62
     0
370
    -2
100
AcDbBlockReference
  2
_DOT
 10
34.43261718750023
 20
164.5000000000005
 30
0.0
 41
9.0
 42
9.0
 43
9.0
 50
90.0
  0
MTEXT
  5
997F
330
9978
100
AcDbEntity
  8
DIM
  6
Continuous
 62
     0
100
AcDbMText
 10
12.21630859375023
 20
84.5
 30
0.0
 40
24.4326171875
 41
0.0
 46
0.0
 71
     5
 72
     1
  1
\A1;\A1;80
  7
ＭＳ ゴシック
 11
4.440892098500613E-17
 21
1.0
 31
0.0
 73
     1
 44
0.96
  0
POINT
  5
9980
330
9978
100
AcDbEntity
  8
Defpoints
 62
     0
100
AcDbPoint
 10
92.00173718750034
 20
4.5
 30
0.0
  0
POINT
  5
9981
330
9978
100
AcDbEntity
  8
Defpoints
 62
     0
100
AcDbPoint
 10
92.00173718750034
 20
164.5000000000005
 30
0.0
  0
POINT
  5
9982
330
9978
100
AcDbEntity
  8
Defpoints
 62
     0
100
AcDbPoint
 10
34.43261718750023
 20
164.5000000000005
 30
0.0
  0
ENDBLK
  5
9983
330
9978
100
AcDbEntity
  8
0
100
AcDbBlockEnd
  0
BLOCK
  5
9986
330
9985
100
AcDbEntity
  8
0
100
AcDbBlockBegin
  2
*D29
 70
     1
 10
0.0
 20
0.0
 30
0.0
  3
*D29
  1

  0
LINE
  5
9987
330
9985
100
AcDbEntity
  8
DIM
  6
Continuous
 62
     0
370
    -2
100
AcDbLine
 10
106.9502366435001
 20
176.4961708134401
 30
0.0
 11
106.9502366435001
 21
287.7331707915851
 31
0.0
  0
LINE
  5
9988
330
9985
100
AcDbEntity
  8
DIM
  6
Continuous
 62
     0
370
    -2
100
AcDbLine
 10
386.9502366435001
 20
176.4961708134401
 30
0.0
 11
386.9502366435001
 21
287.7331707915851
 31
0.0
  0
LINE
  5
9989
330
9985
100
AcDbEntity
  8
DIM
  6
Continuous
 62
     0
370
    -2
100
AcDbLine
 10
115.9502366435001
 20
287.7331707915851
 30
0.0
 11
377.9502366435001
 21
287.7331707915851
 31
0.0
  0
INSERT
  5
998A
330
9985
100
AcDbEntity
  8
DIM
 62
     0
370
    -2
100
AcDbBlockReference
  2
_DOT
 10
106.9502366435001
 20
287.7331707915851
 30
0.0
 41
9.0
 42
9.0
 43
9.0
 50
180.0
  0
INSERT
  5
998B
330
9985
100
AcDbEntity
  8
DIM
 62
     0
370
    -2
100
AcDbBlockReference
  2
_DOT
 10
386.9502366435001
 20
287.7331707915851
 30
0.0
 41
9.0
 42
9.0
 43
9.0
  0
MTEXT
  5
998C
330
9985
100
AcDbEntity
  8
DIM
  6
Continuous
 62
     0
100
AcDbMText
 10
246.9502366434992
 20
309.9494793853351
 30
0.0
 40
24.4326171875
 41
0.0
 46
0.0
 71
     5
 72
     1
  1
\A1;\A1;140
  7
ＭＳ ゴシック
 73
     1
 44
0.96
  0
POINT
  5
998D
330
9985
100
AcDbEntity
  8
Defpoints
 62
     0
100
AcDbPoint
 10
106.9502366435001
 20
176.4961708134401
 30
0.0
  0
POINT
  5
998E
330
9985
100
AcDbEntity
  8
Defpoints
 62
     0
100
AcDbPoint
 10
386.9502366435001
 20
176.4961708134401
 30
0.0
  0
POINT
  5
998F
330
9985
100
AcDbEntity
  8
Defpoints
 62
     0
100
AcDbPoint
 10
386.9502366435001
 20
287.7331707915851
 30
0.0
  0
ENDBLK
  5
9990
330
9985
100
AcDbEntity
  8
0
100
AcDbBlockEnd
  0
BLOCK
  5
99BD
330
99BC
100
AcDbEntity
  8
0
100
AcDbBlockBegin
  2
*D30
 70
     1
 10
0.0
 20
0.0
 30
0.0
  3
*D30
  1

  0
LINE
  5
99BF
330
99BC
100
AcDbEntity
  8
DIM
  6
Continuous
 62
     0
370
    -2
100
AcDbLine
 10
1728.705926643498
 20
2284.4704742656
 30
0.0
 11
1728.705926643498
 21
2336.990444265598
 31
0.0
  0
LINE
  5
99C0
330
99BC
100
AcDbEntity
  8
DIM
  6
Continuous
 62
     0
370
    -2
100
AcDbLine
 10
1794.705926643502
 20
2284.4704742656
 30
0.0
 11
1794.705926643502
 21
2336.990444265598
 31
0.0
  0
LINE
  5
99C1
330
99BC
100
AcDbEntity
  8
DIM
  6
Continuous
 62
     0
370
    -2
100
AcDbLine
 10
1737.705926643498
 20
2336.990444265598
 30
0.0
 11
1785.705926643502
 21
2336.990444265598
 31
0.0
  0
INSERT
  5
99C2
330
99BC
100
AcDbEntity
  8
DIM
 62
     0
370
    -2
100
AcDbBlockReference
  2
_DOT
 10
1728.705926643498
 20
2336.990444265598
 30
0.0
 41
9.0
 42
9.0
 43
9.0
 50
180.0
  0
INSERT
  5
99C3
330
99BC
100
AcDbEntity
  8
DIM
 62
     0
370
    -2
100
AcDbBlockReference
  2
_DOT
 10
1794.705926643502
 20
2336.990444265598
 30
0.0
 41
9.0
 42
9.0
 43
9.0
  0
MTEXT
  5
99C4
330
99BC
100
AcDbEntity
  8
DIM
  6
Continuous
 62
     0
100
AcDbMText
 10
1759.954182585676
 20
2359.206752859348
 30
0.0
 40
24.4326171875
 41
0.0
 46
0.0
 71
     5
 72
     1
  1
\A1;\A1;33
  7
ＭＳ ゴシック
 73
     1
 44
0.96
  0
POINT
  5
99C5
330
99BC
100
AcDbEntity
  8
Defpoints
 62
     0
100
AcDbPoint
 10
1728.705926643498
 20
2284.4704742656
 30
0.0
  0
POINT
  5
99C6
330
99BC
100
AcDbEntity
  8
Defpoints
 62
     0
100
AcDbPoint
 10
1794.705926643502
 20
2284.4704742656
 30
0.0
  0
POINT
  5
99C7
330
99BC
100
AcDbEntity
  8
Defpoints
 62
     0
100
AcDbPoint
 10
1794.705926643502
 20
2336.990444265598
 30
0.0
  0
ENDBLK
  5
99BE
330
99BC
100
AcDbEntity
  8
0
100
AcDbBlockEnd
  0
BLOCK
  5
99C9
330
99C8
100
AcDbEntity
  8
0
100
AcDbBlockBegin
  2
*D31
 70
     1
 10
0.0
 20
0.0
 30
0.0
  3
*D31
  1

  0
LINE
  5
99CB
330
99C8
100
AcDbEntity
  8
DIM
  6
Continuous
 62
     0
370
    -2
100
AcDbLine
 10
1364.0127366435
 20
2279.791135185921
 30
0.0
 11
1364.0127366435
 21
2332.512692793505
 31
0.0
  0
LINE
  5
99CC
330
99C8
100
AcDbEntity
  8
DIM
  6
Continuous
 62
     0
370
    -2
100
AcDbLine
 10
1464.012736643499
 20
2276.306334838945
 30
0.0
 11
1464.012736643499
 21
2332.512692793505
 31
0.0
  0
LINE
  5
99CD
330
99C8
100
AcDbEntity
  8
DIM
  6
Continuous
 62
     0
370
    -2
100
AcDbLine
 10
1373.0127366435
 20
2332.512692793505
 30
0.0
 11
1455.012736643499
 21
2332.512692793505
 31
0.0
  0
INSERT
  5
99CE
330
99C8
100
AcDbEntity
  8
DIM
 62
     0
370
    -2
100
AcDbBlockReference
  2
_DOT
 10
1364.0127366435
 20
2332.512692793505
 30
0.0
 41
9.0
 42
9.0
 43
9.0
 50
180.0
  0
INSERT
  5
99CF
330
99C8
100
AcDbEntity
  8
DIM
 62
     0
370
    -2
100
AcDbBlockReference
  2
_DOT
 10
1464.012736643499
 20
2332.512692793505
 30
0.0
 41
9.0
 42
9.0
 43
9.0
  0
MTEXT
  5
99D0
330
99C8
100
AcDbEntity
  8
DIM
  6
Continuous
 62
     0
100
AcDbMText
 10
1414.0127366435
 20
2354.729001387255
 30
0.0
 40
24.4326171875
 41
0.0
 46
0.0
 71
     5
 72
     1
  1
\A1;\A1;50
  7
ＭＳ ゴシック
 73
     1
 44
0.96
  0
POINT
  5
99D1
330
99C8
100
AcDbEntity
  8
Defpoints
 62
     0
100
AcDbPoint
 10
1364.0127366435
 20
2279.791135185921
 30
0.0
  0
POINT
  5
99D2
330
99C8
100
AcDbEntity
  8
Defpoints
 62
     0
100
AcDbPoint
 10
1464.012736643499
 20
2276.306334838945
 30
0.0
  0
POINT
  5
99D3
330
99C8
100
AcDbEntity
  8
Defpoints
 62
     0
100
AcDbPoint
 10
1464.012736643499
 20
2332.512692793505
 30
0.0
  0
ENDBLK
  5
99CA
330
99C8
100
AcDbEntity
  8
0
100
AcDbBlockEnd
  0
BLOCK
  5
99D5
330
99D4
100
AcDbEntity
  8
0
100
AcDbBlockBegin
  2
*D32
 70
     1
 10
0.0
 20
0.0
 30
0.0
  3
*D32
  1

  0
LINE
  5
99D7
330
99D4
100
AcDbEntity
  8
DIM
  6
Continuous
 62
     0
370
    -2
100
AcDbLine
 10
1464.0127366435
 20
2317.291135185921
 30
0.0
 11
1464.0127366435
 21
2332.512692793505
 31
0.0
  0
LINE
  5
99D8
330
99D4
100
AcDbEntity
  8
DIM
  6
Continuous
 62
     0
370
    -2
100
AcDbLine
 10
1564.0127366435
 20
2279.791135185921
 30
0.0
 11
1564.0127366435
 21
2332.512692793505
 31
0.0
  0
LINE
  5
99D9
330
99D4
100
AcDbEntity
  8
DIM
  6
Continuous
 62
     0
370
    -2
100
AcDbLine
 10
1473.0127366435
 20
2332.512692793505
 30
0.0
 11
1555.0127366435
 21
2332.512692793505
 31
0.0
  0
INSERT
  5
99DA
330
99D4
100
AcDbEntity
  8
DIM
 62
     0
370
    -2
100
AcDbBlockReference
  2
_DOT
 10
1464.0127366435
 20
2332.512692793505
 30
0.0
 41
9.0
 42
9.0
 43
9.0
 50
180.0
  0
INSERT
  5
99DB
330
99D4
100
AcDbEntity
  8
DIM
 62
     0
370
    -2
100
AcDbBlockReference
  2
_DOT
 10
1564.0127366435
 20
2332.512692793505
 30
0.0
 41
9.0
 42
9.0
 43
9.0
  0
MTEXT
  5
99DC
330
99D4
100
AcDbEntity
  8
DIM
  6
Continuous
 62
     0
100
AcDbMText
 10
1514.0127366435
 20
2354.729001387255
 30
0.0
 40
24.4326171875
 41
0.0
 46
0.0
 71
     5
 72
     1
  1
\A1;\A1;50
  7
ＭＳ ゴシック
 73
     1
 44
0.96
  0
POINT
  5
99DD
330
99D4
100
AcDbEntity
  8
Defpoints
 62
     0
100
AcDbPoint
 10
1464.0127366435
 20
2317.291135185921
 30
0.0
  0
POINT
  5
99DE
330
99D4
100
AcDbEntity
  8
Defpoints
 62
     0
100
AcDbPoint
 10
1564.0127366435
 20
2279.791135185921
 30
0.0
  0
POINT
  5
99DF
330
99D4
100
AcDbEntity
  8
Defpoints
 62
     0
100
AcDbPoint
 10
1564.0127366435
 20
2332.512692793505
 30
0.0
  0
ENDBLK
  5
99D6
330
99D4
100
AcDbEntity
  8
0
100
AcDbBlockEnd
  0
BLOCK
  5
99E1
330
99E0
100
AcDbEntity
  8
0
100
AcDbBlockBegin
  2
*D33
 70
     1
 10
0.0
 20
0.0
 30
0.0
  3
*D33
  1

  0
LINE
  5
99E3
330
99E0
100
AcDbEntity
  8
DIM
  6
Continuous
 62
     0
370
    -2
100
AcDbLine
 10
1827.3482407459
 20
2214.29
 30
0.0
 11
1904.58305824495
 21
2214.29
 31
0.0
  0
LINE
  5
99E4
330
99E0
100
AcDbEntity
  8
DIM
  6
Continuous
 62
     0
370
    -2
100
AcDbLine
 10
1827.3482407459
 20
2154.29
 30
0.0
 11
1904.58305824495
 21
2154.29
 31
0.0
  0
LINE
  5
99E5
330
99E0
100
AcDbEntity
  8
DIM
  6
Continuous
 62
     0
370
    -2
100
AcDbLine
 10
1904.58305824495
 20
2205.29
 30
0.0
 11
1904.58305824495
 21
2163.29
 31
0.0
  0
INSERT
  5
99E6
330
99E0
100
AcDbEntity
  8
DIM
 62
     0
370
    -2
100
AcDbBlockReference
  2
_DOT
 10
1904.58305824495
 20
2214.29
 30
0.0
 41
9.0
 42
9.0
 43
9.0
 50
90.0
  0
INSERT
  5
99E7
330
99E0
100
AcDbEntity
  8
DIM
 62
     0
370
    -2
100
AcDbBlockReference
  2
_DOT
 10
1904.58305824495
 20
2154.29
 30
0.0
 41
9.0
 42
9.0
 43
9.0
 50
270.0
  0
MTEXT
  5
99E8
330
99E0
100
AcDbEntity
  8
DIM
  6
Continuous
 62
     0
100
AcDbMText
 10
1882.3667496512
 20
2184.29
 30
0.0
 40
24.4326171875
 41
0.0
 46
0.0
 71
     5
 72
     1
  1
\A1;\A1;30
  7
ＭＳ ゴシック
 11
0.0
 21
1.0
 31
0.0
 73
     1
 44
0.96
  0
POINT
  5
99E9
330
99E0
100
AcDbEntity
  8
Defpoints
 62
     0
100
AcDbPoint
 10
1827.3482407459
 20
2214.29
 30
0.0
  0
POINT
  5
99EA
330
99E0
100
AcDbEntity
  8
Defpoints
 62
     0
100
AcDbPoint
 10
1827.3482407459
 20
2154.29
 30
0.0
  0
POINT
  5
99EB
330
99E0
100
AcDbEntity
  8
Defpoints
 62
     0
100
AcDbPoint
 10
1904.58305824495
 20
2154.29
 30
0.0
  0
ENDBLK
  5
99E2
330
99E0
100
AcDbEntity
  8
0
100
AcDbBlockEnd
  0
BLOCK
  5
99ED
330
99EC
100
AcDbEntity
  8
0
100
AcDbBlockBegin
  2
*D34
 70
     1
 10
0.0
 20
0.0
 30
0.0
  3
*D34
  1

  0
LINE
  5
99EF
330
99EC
100
AcDbEntity
  8
DIM
  6
Continuous
 62
     0
370
    -2
100
AcDbLine
 10
1309.0642371875
 20
2104.29
 30
0.0
 11
1251.4951171875
 21
2104.29
 31
0.0
  0
LINE
  5
99F0
330
99EC
100
AcDbEntity
  8
DIM
  6
Continuous
 62
     0
370
    -2
100
AcDbLine
 10
1309.0642371875
 20
2264.290000000001
 30
0.0
 11
1251.4951171875
 21
2264.290000000001
 31
0.0
  0
LINE
  5
99F1
330
99EC
100
AcDbEntity
  8
DIM
  6
Continuous
 62
     0
370
    -2
100
AcDbLine
 10
1251.4951171875
 20
2113.29
 30
0.0
 11
1251.4951171875
 21
2255.290000000001
 31
0.0
  0
INSERT
  5
99F2
330
99EC
100
AcDbEntity
  8
DIM
 62
     0
370
    -2
100
AcDbBlockReference
  2
_DOT
 10
1251.4951171875
 20
2104.29
 30
0.0
 41
9.0
 42
9.0
 43
9.0
 50
270.0
  0
INSERT
  5
99F3
330
99EC
100
AcDbEntity
  8
DIM
 62
     0
370
    -2
100
AcDbBlockReference
  2
_DOT
 10
1251.4951171875
 20
2264.290000000001
 30
0.0
 41
9.0
 42
9.0
 43
9.0
 50
90.0
  0
MTEXT
  5
99F4
330
99EC
100
AcDbEntity
  8
DIM
  6
Continuous
 62
     0
100
AcDbMText
 10
1229.27880859375
 20
2184.29
 30
0.0
 40
24.4326171875
 41
0.0
 46
0.0
 71
     5
 72
     1
  1
\A1;\A1;80
  7
ＭＳ ゴシック
 11
0.0
 21
1.0
 31
0.0
 73
     1
 44
0.96
  0
POINT
  5
99F5
330
99EC
100
AcDbEntity
  8
Defpoints
 62
     0
100
AcDbPoint
 10
1309.0642371875
 20
2104.29
 30
0.0
  0
POINT
  5
99F6
330
99EC
100
AcDbEntity
  8
Defpoints
 62
     0
100
AcDbPoint
 10
1309.0642371875
 20
2264.290000000001
 30
0.0
  0
POINT
  5
99F7
330
99EC
100
AcDbEntity
  8
Defpoints
 62
     0
100
AcDbPoint
 10
1251.4951171875
 20
2264.290000000001
 30
0.0
  0
ENDBLK
  5
99EE
330
99EC
100
AcDbEntity
  8
0
100
AcDbBlockEnd
  0
BLOCK
  5
99F9
330
99F8
100
AcDbEntity
  8
0
100
AcDbBlockBegin
  2
*D35
 70
     1
 10
0.0
 20
0.0
 30
0.0
  3
*D35
  1

  0
LINE
  5
99FB
330
99F8
100
AcDbEntity
  8
DIM
  6
Continuous
 62
     0
370
    -2
100
AcDbLine
 10
1324.0127366435
 20
2276.286170813441
 30
0.0
 11
1324.0127366435
 21
2387.523170791585
 31
0.0
  0
LINE
  5
99FC
330
99F8
100
AcDbEntity
  8
DIM
  6
Continuous
 62
     0
370
    -2
100
AcDbLine
 10
1604.0127366435
 20
2276.286170813441
 30
0.0
 11
1604.0127366435
 21
2387.523170791585
 31
0.0
  0
LINE
  5
99FD
330
99F8
100
AcDbEntity
  8
DIM
  6
Continuous
 62
     0
370
    -2
100
AcDbLine
 10
1333.0127366435
 20
2387.523170791585
 30
0.0
 11
1595.0127366435
 21
2387.523170791585
 31
0.0
  0
INSERT
  5
99FE
330
99F8
100
AcDbEntity
  8
DIM
 62
     0
370
    -2
100
AcDbBlockReference
  2
_DOT
 10
1324.0127366435
 20
2387.523170791585
 30
0.0
 41
9.0
 42
9.0
 43
9.0
 50
180.0
  0
INSERT
  5
99FF
330
99F8
100
AcDbEntity
  8
DIM
 62
     0
370
    -2
100
AcDbBlockReference
  2
_DOT
 10
1604.0127366435
 20
2387.523170791585
 30
0.0
 41
9.0
 42
9.0
 43
9.0
  0
MTEXT
  5
9A00
330
99F8
100
AcDbEntity
  8
DIM
  6
Continuous
 62
     0
100
AcDbMText
 10
1464.012736643499
 20
2409.739479385335
 30
0.0
 40
24.4326171875
 41
0.0
 46
0.0
 71
     5
 72
     1
  1
\A1;\A1;140
  7
ＭＳ ゴシック
 73
     1
 44
0.96
  0
POINT
  5
9A01
330
99F8
100
AcDbEntity
  8
Defpoints
 62
     0
100
AcDbPoint
 10
1324.0127366435
 20
2276.286170813441
 30
0.0
  0
POINT
  5
9A02
330
99F8
100
AcDbEntity
  8
Defpoints
 62
     0
100
AcDbPoint
 10
1604.0127366435
 20
2276.286170813441
 30
0.0
  0
POINT
  5
9A03
330
99F8
100
AcDbEntity
  8
Defpoints
 62
     0
100
AcDbPoint
 10
1604.0127366435
 20
2387.523170791585
 30
0.0
  0
ENDBLK
  5
99FA
330
99F8
100
AcDbEntity
  8
0
100
AcDbBlockEnd
  0
ENDSEC
  0
SECTION
  2
ENTITIES
  0
MTEXT
  5
177
330
A
100
AcDbEntity
  8
MODEL
390
1D
100
AcDbMText
 10
79.2547055326859
 20
348.7848719762267
 30
0.0
 40
16.28841145833333
 41
0.0
 46
0.0
 71
     1
 72
     1
  1
品名
  7
ＭＳ ゴシック
 73
     1
 44
0.7828267384257843
  0
MTEXT
  5
178
330
A
100
AcDbEntity
  8
MODEL
390
1D
100
AcDbMText
 10
79.2547055326859
 20
263.7848719762266
 30
0.0
 40
16.28841145833333
 41
0.0
 46
0.0
 71
     1
 72
     1
  1
仕様
  7
ＭＳ ゴシック
 73
     1
 44
0.7828267384257843
  0
LINE
  5
179
330
A
100
AcDbEntity
  8
MODEL
390
1D
100
AcDbLine
 10
2022.254705532204
 20
272.1997938512266
 30
0.0
 11
72.25470553220384
 21
272.1997938512266
 31
0.0
  0
LWPOLYLINE
  5
17A
330
A
100
AcDbEntity
  8
MODEL
390
1D
100
AcDbPolyline
 90
        5
 70
   128
 43
0.0
 10
2022.254705532204
 20
2902.199793851227
 10
72.25470553220384
 20
2902.199793851227
 10
72.25470553220384
 20
102.1997938512265
 10
2022.254705532204
 20
102.1997938512265
 10
2022.254705532204
 20
2902.199793851227
  0
LINE
  5
17B
330
A
100
AcDbEntity
  8
MODEL
390
1D
100
AcDbLine
 10
2022.254705532204
 20
357.1997938512265
 30
0.0
 11
72.25470553220384
 21
357.1997938512265
 31
0.0
  0
LINE
  5
17C
330
A
100
AcDbEntity
  8
MODEL
390
1D
100
AcDbLine
 10
2022.254705532686
 20
187.1997938512266
 30
0.0
 11
1269.254705532686
 21
187.1997938512266
 31
0.0
  0
MTEXT
  5
17D
330
A
100
AcDbEntity
  8
MODEL
390
1D
100
AcDbMText
 10
72.2547055328896
 20
90.34597179436945
 30
0.0
 40
21.71788194444445
 41
0.0
 46
21.71788194444445
 71
     1
 72
     1
  1
{160122N}
  7
ＭＳ ゴシック
 73
     1
 44
0.7828267384257843
1001
ACAD
1000
ACAD_MTEXT_DEFINED_HEIGHT_BEGIN
1070
    46
1040
21.71788194444445
1000
ACAD_MTEXT_DEFINED_HEIGHT_END
  0
MTEXT
  5
17E
330
A
100
AcDbEntity
  8
MODEL
390
1D
100
AcDbMText
 10
1299.126111784947
 20
157.2893993779186
 30
0.0
 40
24.4326171875
 41
0.0
 46
0.0
 71
     1
 72
     1
  1
大洋金物株式会社 ティーフォルム事業部
  7
ＭＳ ゴシック
 73
     1
 44
0.7828267384257843
  0
MTEXT
  5
180
330
A
100
AcDbEntity
  8
MODEL
390
1D
100
AcDbMText
 10
1831.254705532946
 20
235.2024110387265
 30
0.0
 40
24.4326171875
 41
0.0
 46
24.4326171875
 71
     1
 72
     1
  1
{1:10}
  7
ＭＳ ゴシック
 73
     1
 44
0.7828267384257843
1001
ACAD
1000
ACAD_MTEXT_DEFINED_HEIGHT_BEGIN
1070
    46
1040
24.4326171875
1000
ACAD_MTEXT_DEFINED_HEIGHT_END
  0
MTEXT
  5
181
330
A
100
AcDbEntity
  8
MODEL
390
1D
100
AcDbMText
 10
1778.254705532946
 20
263.7848719762266
 30
0.0
 40
16.28841145833333
 41
0.0
 46
0.0
 71
     1
 72
     1
  1
縮尺
  7
ＭＳ ゴシック
 73
     1
 44
0.7828267384257843
  0
LINE
  5
182
330
A
100
AcDbEntity
  8
MODEL
390
1D
100
AcDbLine
 10
1771.254705532946
 20
187.1997938512266
 30
0.0
 11
1771.254705532946
 21
272.1997938512266
 31
0.0
  0
MTEXT
  5
183
330
A
100
AcDbEntity
  8
MODEL
390
1D
100
AcDbMText
 10
1527.254705532946
 20
263.7848719762266
 30
0.0
 40
16.28841145833333
 41
0.0
 46
0.0
 71
     1
 72
     1
  1
容量
  7
ＭＳ ゴシック
 73
     1
 44
0.7828267384257843
  0
LINE
  5
184
330
A
100
AcDbEntity
  8
MODEL
390
1D
100
AcDbLine
 10
1520.254705532946
 20
187.1997938512266
 30
0.0
 11
1520.254705532946
 21
272.1997938512266
 31
0.0
  0
MTEXT
  5
185
330
A
100
AcDbEntity
  8
MODEL
390
1D
100
AcDbMText
 10
1276.254705532946
 20
348.7848719762267
 30
0.0
 40
16.28841145833333
 41
0.0
 46
0.0
 71
     1
 72
     1
  1
品番
  7
ＭＳ ゴシック
 73
     1
 44
0.7828267384257843
  0
MTEXT
  5
186
330
A
100
AcDbEntity
  8
MODEL
390
1D
100
AcDbMText
 10
1276.254705532946
 20
263.7848719762266
 30
0.0
 40
16.28841145833333
 41
0.0
 46
0.0
 71
     1
 72
     1
  1
重量
  7
ＭＳ ゴシック
 73
     1
 44
0.7828267384257843
  0
MTEXT
  5
187
330
A
100
AcDbEntity
  8
MODEL
390
1D
100
AcDbMText
 10
1329.254705532946
 20
320.2024110387265
 30
0.0
 40
24.4326171875
 41
0.0
 46
24.4326171875
 71
     1
 72
     1
  1
{FAA71-0412}
  7
ＭＳ ゴシック
 73
     1
 44
0.7828267384257843
1001
ACAD
1000
ACAD_MTEXT_DEFINED_HEIGHT_BEGIN
1070
    46
1040
24.4326171875
1000
ACAD_MTEXT_DEFINED_HEIGHT_END
  0
LINE
  5
188
330
A
100
AcDbEntity
  8
MODEL
390
1D
100
AcDbLine
 10
1269.254705532946
 20
102.1997938512265
 30
0.0
 11
1269.254705532946
 21
357.1997938512265
 31
0.0
  0
MTEXT
  5
189
330
A
100
AcDbEntity
  8
MODEL
390
1D
100
AcDbMText
 10
132.2547055326858
 20
320.2024110387265
 30
0.0
 40
24.4326171875
 41
0.0
 46
24.4326171875
 71
     1
 72
     1
  1
{床置便器 -DURAVIT,Starck2-}
  7
ＭＳ ゴシック
 73
     1
 44
0.7828267384257843
1001
ACAD
1000
ACAD_MTEXT_DEFINED_HEIGHT_BEGIN
1070
    46
1040
24.4326171875
1000
ACAD_MTEXT_DEFINED_HEIGHT_END
  0
MTEXT
  5
18A
330
A
100
AcDbEntity
  8
MODEL
390
1D
100
AcDbMText
 10
132.2547055326858
 20
237.2474089396834
 30
0.0
 40
24.4326171875
 41
0.0
 46
96.15049283854167
 71
     1
 72
     1
  1
{\pxsm1;ウォッシュダウン式/センソウォッシュ(温水洗浄便座),床固定金具,\P\W0.945946;ワイヤレスリモコン\W1;付属/\P陶器/ホワイト}
  7
ＭＳ ゴシック
 73
     1
 44
1.304711230709641
1001
ACAD
1000
ACAD_MTEXT_DEFINED_HEIGHT_BEGIN
1070
    46
1040
96.15049283854167
1000
ACAD_MTEXT_DEFINED_HEIGHT_END
  0
INSERT
  5
3D0
330
A
100
AcDbEntity
  8
MODEL
100
AcDbBlockReference
  2
名称未設定-1
 10
1870.813956087109
 20
30.99988610145212
 30
0.0
 41
0.762
 42
0.762
 43
0.762
  0
LWPOLYLINE
  5
20FE
330
A
100
AcDbEntity
  8
TEMPLATE
  6
Continuous
100
AcDbPolyline
 90
        4
 70
     1
 43
0.0
 10
0.0
 20
0.0
 10
0.0
 20
2970.0
 10
2100.0
 20
2970.0
 10
2100.0
 20
0.0
  0
POINT
  5
3B96
330
A
100
AcDbEntity
  8
_0-7_
 62
     9
100
AcDbPoint
 10
5611.355377587607
 20
1006.191153304715
 30
0.0
  0
CIRCLE
  5
3ED8
330
A
100
AcDbEntity
  8
MODEL
  6
AM_DIN_F_W050
 48
5.0
100
AcDbCircle
 10
463.5592818892387
 20
2349.533636708413
 30
0.0
 40
7.5
  0
CIRCLE
  5
3EDB
330
A
100
AcDbEntity
  8
MODEL
  6
AM_DIN_F_W050
 48
5.0
100
AcDbCircle
 10
463.5592818892387
 20
2209.533636708413
 30
0.0
 40
7.5
  0
LINE
  5
3EDD
330
A
100
AcDbEntity
  8
MODEL
  6
AM_DIN_F_W050
 48
5.0
100
AcDbLine
 10
422.4957076704745
 20
2462.58227120857
 30
0.0
 11
755.2235107385363
 21
2459.525943050481
 31
0.0
  0
ARC
  5
3EDE
330
A
100
AcDbEntity
  8
MODEL
  6
AM_DIN_F_W050
 48
5.0
100
AcDbCircle
 10
753.5592818892251
 20
2279.533636708413
 30
0.0
 40
180.0000000000001
100
AcDbArc
 50
270.5297479064213
 51
89.47025195677742
  0
LINE
  5
3EDF
330
A
100
AcDbEntity
  8
MODEL
  6
AM_DIN_F_W050
 48
5.0
100
AcDbLine
 10
755.223510308781
 20
2099.54133036237
 30
0.0
 11
422.4957076704754
 21
2096.464892950302
 31
0.0
  0
LINE
  5
3EE0
330
A
100
AcDbEntity
  8
MODEL
100
AcDbLine
 10
422.4957076704745
 20
2462.58227120857
 30
0.0
 11
337.4517093792197
 21
2463.363457404185
 31
0.0
  0
LINE
  5
3EE1
330
A
100
AcDbEntity
  8
MODEL
100
AcDbLine
 10
422.4957076704754
 20
2096.464892950302
 30
0.0
 11
338.1620695945899
 21
2095.685134970311
 31
0.0
  0
LWPOLYLINE
  5
3EE2
102
{ACAD_REACTORS
330
400D
102
}
330
A
100
AcDbEntity
  8
MODEL
100
AcDbPolyline
 90
        8
 70
     1
 43
0.0
 10
207.8489216738712
 20
2459.515366529308
 42
-0.4179734021184865
 10
212.9130189704924
 20
2464.514955666083
 10
337.4517093792197
 20
2463.363457404185
 42
-0.3931695728347132
 10
347.3393296678191
 20
2453.994800537356
 42
-0.0315772403976919
 10
347.3393296678191
 20
2105.035110794811
 42
-0.3931695728347254
 10
337.4517093792197
 20
2095.666453927982
 10
212.8772809211609
 20
2094.514625228196
 42
-0.4158757949383307
 10
207.8489216738712
 20
2099.514544802859
  0
CIRCLE
  5
3EE3
330
A
100
AcDbEntity
  8
MODEL
100
AcDbCircle
 10
264.9350172367035
 20
2279.533636708413
 30
0.0
 40
20.0
  0
ARC
  5
3EE4
330
A
100
AcDbEntity
  8
MODEL
100
AcDbCircle
 10
1355.252047779561
 20
1206.257538249566
 30
0.0
 40
834.7868840601202
100
AcDbArc
 50
187.2870976998779
 51
211.6658874851624
  0
LINE
  5
3EE5
330
A
100
AcDbEntity
  8
MODEL GRAY
 48
0.05
100
AcDbLine
 10
517.8283935438726
 20
1163.288007639491
 30
0.0
 11
521.2146515462214
 21
1101.067063924395
 31
0.0
  0
LINE
  5
3EE6
330
A
100
AcDbEntity
  8
MODEL GRAY
 48
0.05
100
AcDbLine
 10
309.1808825734474
 20
1183.023636892506
 30
0.0
 11
309.1808825734474
 21
1178.023636892506
 31
0.0
  0
LINE
  5
3EE7
330
A
100
AcDbEntity
  8
MODEL GRAY
 48
0.05
100
AcDbLine
 10
879.6517574712248
 20
1121.376677259727
 30
0.0
 11
525.9692914229895
 21
1105.711401298208
 31
0.0
  0
ARC
  5
3EE8
330
A
100
AcDbEntity
  8
MODEL GRAY
 48
0.05
100
AcDbCircle
 10
696.5186831805354
 20
1119.602833666037
 30
0.0
 40
224.3259028182857
100
AcDbArc
 50
190.0630188159939
 51
223.2444151766567
  0
ARC
  5
3EE9
330
A
100
AcDbEntity
  8
MODEL GRAY
 48
0.05
100
AcDbCircle
 10
480.5668540388201
 20
1081.279744836934
 30
0.0
 40
5.0
100
AcDbArc
 50
101.3413833409799
 51
190.0630188159928
1001
GENIUS_GENODEF_13
1002
{
1000
HIER
1070
     0
1002
}
1002
{
1000
MANEDIT
1070
     0
1002
}
1002
{
1000
NOSEL
1070
     0
1002
}
1002
{
1000
BEHIND
1070
     0
1002
}
1002
{
1000
OTHER
1070
     0
1002
}
1002
{
1000
REACTOR
1002
}
1001
GENIUS_GENOBJ-N-FIL_13
1002
{
1000
OWNER
1000
GEN
1002
}
  0
ARC
  5
3EEA
330
A
100
AcDbEntity
  8
MODEL GRAY
 48
0.05
100
AcDbCircle
 10
577.5702876981891
 20
850.6096450150931
 30
0.0
 40
67.91525629826447
100
AcDbArc
 50
197.1110257485221
 51
260.9429517401123
  0
ARC
  5
3EEB
330
A
100
AcDbEntity
  8
MODEL GRAY
 48
0.05
100
AcDbCircle
 10
310.8538704278794
 20
827.5453875061862
 30
0.0
 40
261.8097300047123
100
AcDbArc
 50
7.332428732381368
 51
31.90484186881772
  0
ARC
  5
3EEC
330
A
100
AcDbEntity
  8
MODEL GRAY
 48
0.05
100
AcDbCircle
 10
585.8451141596374
 20
838.7593690607432
 30
0.0
 40
58.38456124684629
100
AcDbArc
 50
251.0438522119327
 51
342.3659317585835
  0
ARC
  5
3EED
330
A
100
AcDbEntity
  8
MODEL GRAY
 48
0.05
100
AcDbCircle
 10
773.7051931020183
 20
1159.031806525543
 30
0.0
 40
160.3100949663002
100
AcDbArc
 50
274.8337749967387
 51
344.0202307530321
  0
ARC
  5
3EEE
330
A
100
AcDbEntity
  8
MODEL GRAY
 48
0.05
100
AcDbCircle
 10
721.3278696194798
 20
966.5368972542051
 30
0.0
 40
25.0
100
AcDbArc
 50
93.23887287612995
 51
173.2066479285076
1001
GENIUS_GENOBJ-N-FIL_13
1002
{
1000
OWNER
1000
GEN
1002
}
1001
GENIUS_GENODEF_13
1002
{
1000
HIER
1070
     0
1002
}
1002
{
1000
MANEDIT
1070
     0
1002
}
1002
{
1000
NOSEL
1070
     0
1002
}
1002
{
1000
BEHIND
1070
     0
1002
}
1002
{
1000
OTHER
1070
     0
1002
}
1002
{
1000
REACTOR
1002
}
  0
LINE
  5
3EEF
330
A
100
AcDbEntity
  8
MODEL
100
AcDbLine
 10
257.8489216738712
 20
1095.372132206457
 30
0.0
 11
257.8489216738712
 21
768.0236368925061
 31
0.0
  0
ARC
  5
3EF0
330
A
100
AcDbEntity
  8
MODEL GRAY
 48
0.05
100
AcDbCircle
 10
493.7612471950556
 20
887.015650698512
 30
0.0
 40
10.0
100
AcDbArc
 50
0.8851550967795337
 51
90.0
  0
LINE
  5
3EF1
330
A
100
AcDbEntity
  8
MODEL GRAY
 48
0.05
100
AcDbLine
 10
437.8272037653628
 20
897.015650698512
 30
0.0
 11
437.8272037653619
 21
998.8837246774301
 31
0.0
  0
LINE
  5
3EF2
330
A
100
AcDbEntity
  8
MODEL GRAY
 48
0.05
100
AcDbLine
 10
269.9677541461556
 20
858.9424031162181
 30
0.0
 11
504.304283654496
 21
875.0992255426781
 31
0.0
  0
ARC
  5
3EF3
330
A
100
AcDbEntity
  8
MODEL GRAY
 48
0.05
100
AcDbCircle
 10
707.8270282385397
 20
890.322988421214
 30
0.0
 40
204.0913288682397
100
AcDbArc
 50
180.8851550967796
 51
197.007377069596
  0
LINE
  5
3EF4
330
A
100
AcDbEntity
  8
MODEL GRAY
 48
0.05
100
AcDbLine
 10
437.8272037653628
 20
897.015650698512
 30
0.0
 11
493.7612471950556
 21
897.015650698512
 31
0.0
  0
ARC
  5
3EF6
330
A
100
AcDbEntity
  8
MODEL GRAY
 48
0.05
100
AcDbCircle
 10
482.0963267850689
 20
1013.652409387898
 30
0.0
 40
14.85348564207567
100
AcDbArc
 50
263.8746545076573
 51
24.35525242889205
  0
LINE
  5
3EF7
330
A
100
AcDbEntity
  8
MODEL
100
AcDbLine
 10
583.3963889289284
 20
1100.372132206457
 30
0.0
 11
262.8489216738712
 21
1100.372132206457
 31
0.0
  0
LINE
  5
3EF8
330
A
100
AcDbEntity
  8
MODEL
100
AcDbLine
 10
536.3313748151381
 20
1044.275831904998
 30
0.0
 11
257.8489216738712
 21
1044.275831904998
 31
0.0
  0
LINE
  5
3EF9
330
A
100
AcDbEntity
  8
MODEL GRAY
 48
0.05
100
AcDbLine
 10
214.0015624122084
 20
1121.048536303654
 30
0.0
 11
474.3236572190822
 21
1084.152030465467
 31
0.0
  0
ARC
  5
3EFA
330
A
100
AcDbEntity
  8
MODEL GRAY
 48
0.05
100
AcDbCircle
 10
511.2294281105137
 20
1100.523636892506
 30
0.0
 40
10.0
100
AcDbArc
 50
270.0
 51
3.115142061157583
  0
ARC
  5
3EFB
330
A
100
AcDbEntity
  8
MODEL GRAY
 48
0.05
100
AcDbCircle
 10
525.6975779070449
 20
1110.704013016062
 30
0.0
 40
5.0
100
AcDbArc
 50
183.1151420611575
 51
273.1151420611602
  0
ARC
  5
3EFC
330
A
100
AcDbEntity
  8
MODEL
100
AcDbCircle
 10
262.8489216738712
 20
1095.372132206457
 30
0.0
 40
5.0
100
AcDbArc
 50
90.0
 51
180.0
  0
LINE
  5
3EFD
330
A
100
AcDbEntity
  8
MODEL GRAY
 48
0.05
100
AcDbLine
 10
892.9556486963143
 20
1160.949752352373
 30
0.0
 11
888.2944474441579
 21
1127.55260840053
 31
0.0
  0
LINE
  5
3EFE
330
A
100
AcDbEntity
  8
MODEL GRAY
 48
0.05
100
AcDbLine
 10
923.6997480724553
 20
1124.866488943645
 30
0.0
 11
893.6185517809104
 21
1121.875328492933
 31
0.0
  0
ARC
  5
3EFF
330
A
100
AcDbEntity
  8
MODEL GRAY
 48
0.05
100
AcDbCircle
 10
893.2464488909195
 20
1126.861463212258
 30
0.0
 40
5.0
100
AcDbArc
 50
172.054618774209
 51
274.2679308286174
1001
GENIUS_GENOBJ-N-FIL_13
1002
{
1000
OWNER
1000
GEN
1002
}
1001
GENIUS_GENODEF_13
1002
{
1000
HIER
1070
     0
1002
}
1002
{
1000
MANEDIT
1070
     0
1002
}
1002
{
1000
NOSEL
1070
     0
1002
}
1002
{
1000
BEHIND
1070
     0
1002
}
1002
{
1000
OTHER
1070
     0
1002
}
1002
{
1000
REACTOR
1002
}
  0
ARC
  5
3F00
330
A
100
AcDbEntity
  8
MODEL GRAY
 48
0.05
100
AcDbCircle
 10
902.9924700694869
 20
1157.406451221343
 30
0.0
 40
10.64390746775534
100
AcDbArc
 50
94.0607926348965
 51
160.5554292465003
  0
ARC
  5
3F01
330
A
100
AcDbEntity
  8
MODEL GRAY
 48
0.05
100
AcDbCircle
 10
512.8357818260179
 20
1163.016294123547
 30
0.0
 40
5.0
100
AcDbArc
 50
3.115142061157547
 51
90.0
  0
LINE
  5
3F02
330
A
100
AcDbEntity
  8
MODEL GRAY
100
AcDbLine
 10
264.4714295986664
 20
1204.202543904563
 30
0.0
 11
264.4002515736934
 21
1150.231739630121
 31
0.0
  0
LINE
  5
3F03
330
A
100
AcDbEntity
  8
MODEL GRAY
 48
0.05
100
AcDbLine
 10
480.5114016631292
 20
998.8837246774301
 30
0.0
 11
437.8272037653619
 21
998.8837246774301
 31
0.0
  0
ARC
  5
3F04
330
A
100
AcDbEntity
  8
MODEL GRAY
 48
0.05
100
AcDbCircle
 10
135.5652574102492
 20
1044.219888779545
 30
0.0
 40
565.8935660982658
100
AcDbArc
 50
348.2340764649197
 51
352.4119782139265
  0
LINE
  5
3F05
330
A
100
AcDbEntity
  8
MODEL GRAY
 48
0.05
100
AcDbLine
 10
641.4862262835
 20
821.0725481591089
 30
0.0
 11
660.7657058548562
 21
881.7240180012911
 31
0.0
  0
ARC
  5
3F06
330
A
100
AcDbEntity
  8
MODEL GRAY
 48
0.05
100
AcDbCircle
 10
649.7189359687986
 20
928.8263599611842
 30
0.0
 40
39.84980668162302
100
AcDbArc
 50
302.5296112962239
 51
0.0
  0
ARC
  5
3F07
330
A
100
AcDbEntity
  8
MODEL GRAY
 48
0.05
100
AcDbCircle
 10
684.5909735864302
 20
874.150602819298
 30
0.0
 40
25.0
100
AcDbArc
 50
122.5296112962233
 51
162.3659317585825
1001
GENIUS_GENODEF_13
1002
{
1000
HIER
1070
     0
1002
}
1002
{
1000
MANEDIT
1070
     0
1002
}
1002
{
1000
NOSEL
1070
     0
1002
}
1002
{
1000
BEHIND
1070
     0
1002
}
1002
{
1000
OTHER
1070
     0
1002
}
1002
{
1000
REACTOR
1002
}
1001
GENIUS_GENOBJ-N-FIL_13
1002
{
1000
OWNER
1000
GEN
1002
}
  0
LINE
  5
3F08
330
A
100
AcDbEntity
  8
MODEL GRAY
 48
0.05
100
AcDbLine
 10
299.0816802489003
 20
1163.023636892506
 30
0.0
 11
229.7634980847274
 21
1163.144115022337
 31
0.0
  0
LINE
  5
3F09
330
A
100
AcDbEntity
  8
MODEL GRAY
 48
0.05
100
AcDbLine
 10
787.4077885480042
 20
787.9859923718398
 30
0.0
 11
767.880623687865
 21
991.919255270798
 31
0.0
  0
ARC
  5
3F0A
330
A
100
AcDbEntity
  8
MODEL GRAY
 48
0.05
100
AcDbCircle
 10
762.903388723606
 20
991.4426714790561
 30
0.0
 40
5.0
100
AcDbArc
 50
5.469551461559693
 51
96.60691126830002
1001
GENIUS_GENODEF_13
1002
{
1000
HIER
1070
     0
1002
}
1002
{
1000
MANEDIT
1070
     0
1002
}
1002
{
1000
NOSEL
1070
     0
1002
}
1002
{
1000
BEHIND
1070
     0
1002
}
1002
{
1000
OTHER
1070
     0
1002
}
1002
{
1000
REACTOR
1002
}
1001
GENIUS_GENOBJ-N-FIL_13
1002
{
1000
OWNER
1000
GEN
1002
}
  0
ARC
  5
3F0B
330
A
100
AcDbEntity
  8
MODEL GRAY
 48
0.05
100
AcDbCircle
 10
797.362258476524
 20
788.9391599553242
 30
0.0
 40
10.0
100
AcDbArc
 50
185.4695514615609
 51
270.0
1001
GENIUS_GENODEF_13
1002
{
1000
HIER
1070
     0
1002
}
1002
{
1000
MANEDIT
1070
     0
1002
}
1002
{
1000
NOSEL
1070
     0
1002
}
1002
{
1000
BEHIND
1070
     0
1002
}
1002
{
1000
OTHER
1070
     0
1002
}
1002
{
1000
REACTOR
1002
}
1001
GENIUS_GENOBJ-N-FIL_13
1002
{
1000
OWNER
1000
GEN
1002
}
  0
LINE
  5
3F0C
330
A
100
AcDbEntity
  8
MODEL GRAY
 48
0.05
100
AcDbLine
 10
797.362258476524
 20
778.9391599553242
 30
0.0
 11
809.685455348093
 21
778.9391599553242
 31
0.0
  0
LINE
  5
3F0D
330
A
100
AcDbEntity
  8
MODEL GRAY
 48
0.05
100
AcDbLine
 10
245.9510098959286
 20
831.4275233402857
 30
0.0
 11
215.3947594326714
 21
831.4275233402857
 31
0.0
  0
ARC
  5
3F0E
330
A
100
AcDbEntity
  8
MODEL GRAY
 48
0.05
100
AcDbCircle
 10
245.9510098959286
 20
821.4275233402857
 30
0.0
 40
10.0
100
AcDbArc
 50
350.0930032657276
 51
90.0
1001
GENIUS_GENODEF_13
1002
{
1000
HIER
1070
     0
1002
}
1002
{
1000
MANEDIT
1070
     0
1002
}
1002
{
1000
NOSEL
1070
     0
1002
}
1002
{
1000
BEHIND
1070
     0
1002
}
1002
{
1000
OTHER
1070
     0
1002
}
1002
{
1000
REACTOR
1002
}
1001
GENIUS_GENOBJ-N-FIL_13
1002
{
1000
OWNER
1000
GEN
1002
}
  0
LINE
  5
3F0F
330
A
100
AcDbEntity
  8
MODEL GRAY
 48
0.05
100
AcDbLine
 10
261.2190940837722
 20
850.7238275047231
 30
0.0
 11
249.8146847816174
 21
785.426589279275
 31
0.0
  0
ARC
  5
3F10
330
A
100
AcDbEntity
  8
MODEL GRAY
 48
0.05
100
AcDbCircle
 10
271.069977318843
 20
849.0033335381551
 30
0.0
 40
10.0
100
AcDbArc
 50
96.32813133972357
 51
170.0930032657263
1001
GENIUS_GENODEF_13
1002
{
1000
HIER
1070
     0
1002
}
1002
{
1000
MANEDIT
1070
     0
1002
}
1002
{
1000
NOSEL
1070
     0
1002
}
1002
{
1000
BEHIND
1070
     0
1002
}
1002
{
1000
OTHER
1070
     0
1002
}
1002
{
1000
REACTOR
1002
}
1001
GENIUS_GENOBJ-N-FIL_13
1002
{
1000
OWNER
1000
GEN
1002
}
  0
ARC
  5
3F11
330
A
100
AcDbEntity
  8
MODEL GRAY
 48
0.05
100
AcDbCircle
 10
239.9638015465457
 20
787.1470832458438
 30
0.0
 40
10.0
100
AcDbArc
 50
270.0
 51
350.0930032657276
1001
GENIUS_GENOBJ-N-FIL_13
1002
{
1000
OWNER
1000
GEN
1002
}
1001
GENIUS_GENODEF_13
1002
{
1000
HIER
1070
     0
1002
}
1002
{
1000
MANEDIT
1070
     0
1002
}
1002
{
1000
NOSEL
1070
     0
1002
}
1002
{
1000
BEHIND
1070
     0
1002
}
1002
{
1000
OTHER
1070
     0
1002
}
1002
{
1000
REACTOR
1002
}
  0
LINE
  5
3F12
330
A
100
AcDbEntity
  8
MODEL GRAY
 48
0.05
100
AcDbLine
 10
239.9638015465457
 20
777.1470832458438
 30
0.0
 11
214.4249399904606
 21
777.1470832458438
 31
0.0
  0
LINE
  5
3F13
330
A
100
AcDbEntity
  8
MODEL GRAY
 48
0.05
100
AcDbLine
 10
215.3947594326714
 20
831.4275233402857
 30
0.0
 11
214.4249399904606
 21
777.1470832458438
 31
0.0
  0
LINE
  5
3F14
330
A
100
AcDbEntity
  8
MODEL GRAY
 48
0.05
100
AcDbLine
 10
560.4965127143719
 20
768.0156506985118
 30
0.0
 11
557.2020215920916
 21
785.8206353460901
 31
0.0
  0
LINE
  5
3F15
330
A
100
AcDbEntity
  8
MODEL GRAY
 48
0.05
100
AcDbLine
 10
510.3914364101352
 20
838.6271704223489
 30
0.0
 11
409.1355296058941
 21
838.6271704223489
 31
0.0
  0
LINE
  5
3F16
330
A
100
AcDbEntity
  8
MODEL GRAY
 48
0.05
100
AcDbLine
 10
399.2215934969722
 20
829.936319316942
 30
0.0
 11
391.0448840665636
 21
768.0156506985118
 31
0.0
  0
ARC
  5
3F17
330
A
100
AcDbEntity
  8
MODEL GRAY
 48
0.05
100
AcDbCircle
 10
409.1355296058941
 20
828.6271704223489
 30
0.0
 40
10.0
100
AcDbArc
 50
90.0
 51
172.4775365352808
1001
GENIUS_GENODEF_13
1002
{
1000
HIER
1070
     0
1002
}
1002
{
1000
MANEDIT
1070
     0
1002
}
1002
{
1000
NOSEL
1070
     0
1002
}
1002
{
1000
BEHIND
1070
     0
1002
}
1002
{
1000
OTHER
1070
     0
1002
}
1002
{
1000
REACTOR
1002
}
1001
GENIUS_GENOBJ-N-FIL_13
1002
{
1000
OWNER
1000
GEN
1002
}
  0
LINE
  5
3F18
102
{ACAD_REACTORS
330
4022
102
}
330
A
100
AcDbEntity
  8
MODEL
100
AcDbLine
 10
348.0717435964457
 20
1168.343146710991
 30
0.0
 11
208.069168494831
 21
1168.343146710991
 31
0.0
  0
LINE
  5
3F19
330
A
100
AcDbEntity
  8
MODEL GRAY
 48
3.0
100
AcDbLine
 10
219.5985362648075
 20
1178.023636892506
 30
0.0
 11
219.5985362648075
 21
1183.023636892506
 31
0.0
  0
ARC
  5
3F1A
330
A
100
AcDbEntity
  8
MODEL GRAY
 48
0.05
100
AcDbCircle
 10
224.5985362648075
 20
1178.023636892506
 30
0.0
 40
5.0
100
AcDbArc
 50
180.0
 51
270.0
1001
GENIUS_GENOBJ-N-FIL_13
1002
{
1000
OWNER
1000
GEN
1002
}
1001
GENIUS_GENODEF_13
1002
{
1000
HIER
1070
     0
1002
}
1002
{
1000
MANEDIT
1070
     0
1002
}
1002
{
1000
NOSEL
1070
     0
1002
}
1002
{
1000
BEHIND
1070
     0
1002
}
1002
{
1000
OTHER
1070
     0
1002
}
1002
{
1000
REACTOR
1002
}
  0
LINE
  5
3F1B
330
A
100
AcDbEntity
  8
MODEL GRAY
 48
0.05
100
AcDbLine
 10
304.1808825734474
 20
1173.023636892506
 30
0.0
 11
224.5985362648075
 21
1173.023636892506
 31
0.0
  0
ARC
  5
3F1C
330
A
100
AcDbEntity
  8
MODEL GRAY
 48
0.05
100
AcDbCircle
 10
304.1808825734474
 20
1178.023636892506
 30
0.0
 40
5.0
100
AcDbArc
 50
270.0
 51
0.0
1001
GENIUS_GENOBJ-N-FIL_13
1002
{
1000
OWNER
1000
GEN
1002
}
1001
GENIUS_GENODEF_13
1002
{
1000
HIER
1070
     0
1002
}
1002
{
1000
MANEDIT
1070
     0
1002
}
1002
{
1000
NOSEL
1070
     0
1002
}
1002
{
1000
BEHIND
1070
     0
1002
}
1002
{
1000
OTHER
1070
     0
1002
}
1002
{
1000
REACTOR
1002
}
  0
LINE
  5
3F1D
330
A
100
AcDbEntity
  8
MODEL GRAY
 48
0.05
100
AcDbLine
 10
299.0816802489003
 20
1163.023636892506
 30
0.0
 11
299.0816802489003
 21
1173.023636892506
 31
0.0
  0
LINE
  5
3F1E
330
A
100
AcDbEntity
  8
MODEL GRAY
 48
0.05
100
AcDbLine
 10
229.7634980847274
 20
1163.144115022337
 30
0.0
 11
229.7982588825812
 21
1173.144054606501
 31
0.0
  0
LINE
  5
3F1F
330
A
100
AcDbEntity
  8
MODEL GRAY
 48
0.05
100
AcDbLine
 10
501.2294281105137
 20
1090.523636892506
 30
0.0
 11
479.5835822034828
 21
1086.182109215255
 31
0.0
  0
LINE
  5
3F20
330
A
100
AcDbEntity
  8
MODEL GRAY
 48
0.05
100
AcDbLine
 10
787.213762730878
 20
999.2918769691341
 30
0.0
 11
719.9153972721492
 21
991.496963797947
 31
0.0
  0
CIRCLE
  5
3F23
330
A
100
AcDbEntity
  8
MODEL
100
AcDbCircle
 10
512.865471531411
 20
798.1045744014746
 30
0.0
 40
7.5
  0
LWPOLYLINE
  5
3F24
102
{ACAD_REACTORS
330
4006
330
4009
330
4011
102
}
330
A
100
AcDbEntity
  8
MODEL
100
AcDbPolyline
 90
       12
 70
     1
 43
0.0
 10
207.8489216738712
 20
1178.023636892506
 42
-0.4142135623730951
 10
212.8489216738712
 20
1183.023636892506
 10
338.0772453714585
 20
1183.023636892507
 10
338.0772453714585
 20
1178.343145197515
 42
0.4140524282849322
 10
348.0717435964457
 20
1168.343146710992
 10
928.8133772791612
 20
1168.023636287116
 42
-0.4140524282849312
 10
932.811176569156
 20
1164.023636892507
 10
932.811176569156
 20
1163.023636892503
 42
-0.0366830558018664
 10
924.1814013881562
 20
1094.512909231104
 42
-0.0314167023976699
 10
895.9241504042898
 20
970.7057192850859
 42
-0.056466416336493
 10
812.8120201629358
 20
768.0236368925064
 10
207.8489216738712
 20
768.0236368925064
  0
LINE
  5
3F25
330
A
100
AcDbEntity
  8
MODEL GRAY
 48
3.0
100
AcDbLine
 10
284.4714295986664
 20
1642.08826729026
 30
0.0
 11
284.4714295986664
 21
1653.023636892506
 31
0.0
  0
LINE
  5
3F26
330
A
100
AcDbEntity
  8
MODEL GRAY
 48
3.0
100
AcDbLine
 10
244.4714295986664
 20
1642.08826729026
 30
0.0
 11
244.4714295986664
 21
1653.023636892506
 31
0.0
  0
LWPOLYLINE
  5
3F27
330
A
100
AcDbEntity
  8
MODEL
100
AcDbPolyline
 90
        6
 70
     1
 43
0.0
 10
207.8489216738712
 20
1653.023636892506
 10
342.3229286534674
 20
1653.023636892506
 42
-0.4142135623730951
 10
352.3229286534674
 20
1643.023636892506
 10
352.3229286534674
 20
1193.023636892506
 42
-0.4142135623730949
 10
342.3229286534674
 20
1183.023636892507
 10
207.8489216738712
 20
1183.023636892506
  0
SPLINE
  5
3F2B
330
A
100
AcDbEntity
  8
MODEL
100
AcDbSpline
210
0.0
220
0.0
230
1.0
 70
    24
 71
     3
 72
     8
 73
     4
 74
     0
 42
0.000000001
 43
0.0000000001
 40
6.0
 40
6.0
 40
6.0
 40
6.0
 40
7.0
 40
7.0
 40
7.0
 40
7.0
 10
932.6831554917576
 20
1177.537821193567
 30
0.0
 10
932.6831554917576
 20
1177.537821193567
 30
0.0
 10
589.9489902178798
 20
1177.537821193567
 30
0.0
 10
589.9489902178798
 20
1177.537821193567
 30
0.0
  0
LINE
  5
3F2C
330
A
100
AcDbEntity
  8
MODEL
100
AcDbLine
 10
876.0769136297781
 20
1173.994884995651
 30
0.0
 11
876.0769136297781
 21
1173.994884995651
 31
0.0
  0
LINE
  5
3F2D
330
A
100
AcDbEntity
  8
MODEL
100
AcDbLine
 10
876.0769136297781
 20
1173.994884995651
 30
0.0
 11
837.173445476566
 21
1173.994884995651
 31
0.0
  0
LINE
  5
3F2E
330
A
100
AcDbEntity
  8
MODEL
100
AcDbLine
 10
660.5860187187541
 20
1173.994884995651
 30
0.0
 11
636.8580239270873
 21
1173.99488499565
 31
0.0
  0
LINE
  5
3F2F
330
A
100
AcDbEntity
  8
MODEL
100
AcDbLine
 10
456.0087197278685
 20
1252.766304266484
 30
0.0
 11
422.5630437296045
 21
1313.718311644956
 31
0.0
  0
LINE
  5
3F30
330
A
100
AcDbEntity
  8
MODEL
100
AcDbLine
 10
530.3690387382853
 20
1169.042215724817
 30
0.0
 11
530.3855751966189
 21
1186.347619370651
 31
0.0
  0
LINE
  5
3F31
330
A
100
AcDbEntity
  8
MODEL
100
AcDbLine
 10
530.3855751966189
 20
1186.347619370651
 30
0.0
 11
531.7642363452619
 21
1186.347619370651
 31
0.0
  0
LINE
  5
3F32
330
A
100
AcDbEntity
  8
MODEL
100
AcDbLine
 10
526.8650155750388
 20
1169.042215724817
 30
0.0
 11
423.7287763362006
 21
1169.032569457456
 31
0.0
  0
LWPOLYLINE
  5
3F33
330
A
100
AcDbEntity
  8
MODEL
100
AcDbPolyline
 90
        7
 70
     1
 43
0.0
 10
489.0171099376771
 20
1261.344857828238
 42
0.0837070981806584
 10
502.7665891940146
 20
1275.833974622386
 42
0.2770541093488471
 10
593.6580191545168
 20
1223.68625326822
 10
930.2729558389788
 20
1223.68625326822
 42
-0.4142135623730951
 10
933.2729558389788
 20
1220.68625326822
 10
933.2729558389788
 20
1204.470888684887
 10
593.8388044630196
 20
1204.470888684887
 42
-0.2634342591832366
  0
LWPOLYLINE
  5
3F34
330
A
100
AcDbEntity
  8
MODEL
100
AcDbPolyline
 90
       27
 70
     1
 43
0.0
 10
464.1789724502046
 20
1250.356009688027
 42
0.108528751123663
 10
487.8721710908417
 20
1260.50524725345
 42
0.2631763854424925
 10
593.8515373221849
 20
1203.054954440095
 10
930.2908703355074
 20
1203.054954440095
 42
-0.4142135623730951
 10
933.2908703355074
 20
1200.054954440095
 10
933.2908703355074
 20
1177.537821193567
 10
932.6831554917576
 20
1177.537821193567
 10
932.6831554917576
 20
1175.994884995651
 42
-0.4142135623730951
 10
930.6831554917576
 20
1173.994884995651
 10
876.0769136297781
 20
1173.994884995651
 42
0.4142135623730951
 10
874.0769136297781
 20
1171.994884995651
 10
874.0769136297781
 20
1170.054851358498
 42
-0.4142135623730951
 10
872.0769136297781
 20
1168.054851358498
 10
841.173445476566
 20
1168.054851358498
 42
-0.4142135623730951
 10
839.173445476566
 20
1170.054851358498
 10
839.173445476566
 20
1171.994884995651
 42
0.4142135623731033
 10
837.173445476566
 20
1173.994884995651
 10
660.5860187187541
 20
1173.994884995651
 42
0.4142135623730951
 10
658.5860187187541
 20
1171.994884995651
 10
658.5860187187541
 20
1170.054851358498
 42
-0.4142135623730951
 10
656.5860187187541
 20
1168.054851358498
 10
640.8580239270873
 20
1168.054851358498
 42
-0.4142135623730951
 10
638.8580239270873
 20
1170.054851358498
 10
638.8580239270873
 20
1171.99488499565
 42
0.4142135623730951
 10
636.8580239270873
 20
1173.99488499565
 10
589.658281304392
 20
1173.99488499565
 10
589.9486307538305
 20
1177.533440322759
 42
-0.2625390149727633
  0
LWPOLYLINE
  5
3F35
330
A
100
AcDbEntity
  8
MODEL
100
AcDbPolyline
 90
       12
 70
     1
 43
0.0
 10
422.5630437296045
 20
1313.718311644956
 10
465.6536090507848
 20
1338.262033161883
 10
501.1029525837716
 20
1278.501856566831
 42
-0.2397977434577256
 10
456.0087197278685
 20
1252.766304266484
 10
459.8883135619712
 20
1249.697158281916
 42
0.2619497781080974
 10
589.659132054257
 20
1174.005253279367
 10
589.659132054257
 20
1169.042215724817
 10
526.8650155750388
 20
1169.042215724817
 42
-0.3693434541613143
 10
526.2735092243961
 20
1168.526829440095
 10
424.1690576279129
 20
1168.526829440095
 42
-0.3743005145197273
 10
423.7287763362006
 20
1169.032569457456
 10
418.1319619153678
 20
1169.032569457456
  0
ARC
  5
3F36
330
A
100
AcDbEntity
  8
MODEL
100
AcDbCircle
 10
3489.94286150527
 20
1262.86470531586
 30
0.0
 40
2266.333424246997
100
AcDbArc
 50
182.4931761197611
 51
192.5103534937732
  0
ARC
  5
3F37
330
A
100
AcDbEntity
  8
MODEL
100
AcDbCircle
 10
1282.300548134802
 20
773.0236373836879
 30
0.0
 40
5.0
100
AcDbArc
 50
192.5103534937687
 51
270.0
1001
GENIUS_GENODEF_13
1002
{
1000
HIER
1070
     0
1002
}
1002
{
1000
MANEDIT
1070
     0
1002
}
1002
{
1000
NOSEL
1070
     0
1002
}
1002
{
1000
BEHIND
1070
     0
1002
}
1002
{
1000
OTHER
1070
     0
1002
}
1002
{
1000
REACTOR
1002
}
1001
GENIUS_GENOBJ-N-FIL_13
1002
{
1000
OWNER
1000
GEN
1002
}
  0
ARC
  5
3F38
330
A
100
AcDbEntity
  8
MODEL
100
AcDbCircle
 10
-668.7533578022712
 20
1262.86470531586
 30
0.0
 40
2266.333424246997
100
AcDbArc
 50
347.4896465062266
 51
357.5068238802386
  0
ARC
  5
3F39
330
A
100
AcDbEntity
  8
MODEL
100
AcDbCircle
 10
1538.888955568197
 20
773.0236373836879
 30
0.0
 40
5.0
100
AcDbArc
 50
270.0
 51
347.4896465062047
1001
GENIUS_GENODEF_13
1002
{
1000
HIER
1070
     0
1002
}
1002
{
1000
MANEDIT
1070
     0
1002
}
1002
{
1000
NOSEL
1070
     0
1002
}
1002
{
1000
BEHIND
1070
     0
1002
}
1002
{
1000
OTHER
1070
     0
1002
}
1002
{
1000
REACTOR
1002
}
1001
GENIUS_GENOBJ-N-FIL_13
1002
{
1000
OWNER
1000
GEN
1002
}
  0
ARC
  5
3F3A
330
A
100
AcDbEntity
  8
MODEL
100
AcDbCircle
 10
1862.749290822902
 20
1023.273311973743
 30
0.0
 40
621.7722804609633
100
AcDbArc
 50
189.9802124631636
 51
202.9919344098288
  0
ARC
  5
3F3B
330
A
100
AcDbEntity
  8
MODEL
100
AcDbCircle
 10
958.4402128800966
 20
1023.273311973743
 30
0.0
 40
621.7722804609633
100
AcDbArc
 50
337.0080655901711
 51
350.0197875368365
  0
LINE
  5
3F3C
330
A
100
AcDbEntity
  8
MODEL
100
AcDbLine
 10
1590.594751851499
 20
1168.023636892506
 30
0.0
 11
1230.594751851499
 21
1168.023636892506
 31
0.0
  0
LINE
  5
3F3D
330
A
100
AcDbEntity
  8
MODEL
100
AcDbLine
 10
1234.503194089958
 20
1183.023636892506
 30
0.0
 11
1586.686309613041
 21
1183.023636892506
 31
0.0
  0
LWPOLYLINE
  5
3F3E
102
{ACAD_REACTORS
330
4016
330
401B
102
}
330
A
100
AcDbEntity
  8
MODEL
100
AcDbPolyline
 90
       16
 70
     1
 43
0.0
 10
1595.594751851499
 20
1163.023636892506
 42
0.4142135623730681
 10
1590.594751851499
 20
1168.023636892506
 10
1586.686309613041
 20
1183.023636892506
 10
1588.594751851499
 20
1183.023636892506
 42
0.4142135623730955
 10
1595.594751851499
 20
1190.023636892506
 10
1595.594751851499
 20
1646.023636892506
 42
0.4142135623730951
 10
1588.594751851499
 20
1653.023636892506
 10
1232.754726880718
 20
1653.023636892506
 42
0.4142135623730951
 10
1225.754726880718
 20
1646.023636892506
 10
1225.754726880718
 20
1190.023636892506
 42
0.4142135623730951
 10
1232.754726880718
 20
1183.023636892506
 10
1234.503194089958
 20
1183.023636892506
 10
1230.594751851499
 20
1168.023636892506
 42
0.4142135623730951
 10
1225.594751851499
 20
1163.023636892506
 10
1225.594751851499
 20
768.0236368925064
 10
1595.594751851499
 20
768.0236368925064
  0
SPLINE
  5
3F3F
330
A
100
AcDbEntity
  8
MODEL
 62
     7
100
AcDbSpline
210
0.0
220
0.0
230
1.0
 70
    24
 71
     3
 72
     8
 73
     4
 74
     0
 42
0.000000001
 43
0.0000000001
 40
6.0
 40
6.0
 40
6.0
 40
6.0
 40
6.080746399409962
 40
6.080746399409962
 40
6.080746399409962
 40
6.080746399409962
 10
1226.240560311923
 20
1177.506606727576
 30
0.0
 10
1226.240560311923
 20
1177.506606727576
 30
0.0
 10
1228.645028709971
 20
1177.506606727576
 30
0.0
 10
1233.065661174792
 20
1177.506606727576
 30
0.0
  0
SPLINE
  5
3F40
330
A
100
AcDbEntity
  8
MODEL
 62
     7
100
AcDbSpline
210
0.0
220
0.0
230
1.0
 70
    24
 71
     3
 72
     8
 73
     4
 74
     0
 42
0.000000001
 43
0.0000000001
 40
6.499910991652358
 40
6.499910991652358
 40
6.499910991652358
 40
6.499910991652358
 40
6.499931136640182
 40
6.499931136640182
 40
6.499931136640182
 40
6.499931136640182
 10
1410.583608110835
 20
1177.506606727576
 30
0.0
 10
1410.587322691056
 20
1177.506606727576
 30
0.0
 10
1410.591037271305
 20
1177.506606727576
 30
0.0
 10
1410.594751851572
 20
1177.506606727576
 30
0.0
  0
SPLINE
  5
3F41
330
A
100
AcDbEntity
  8
MODEL
 62
     7
100
AcDbSpline
210
0.0
220
0.0
230
1.0
 70
    24
 71
     3
 72
     8
 73
     4
 74
     0
 42
0.000000001
 43
0.0000000001
 40
6.918790935564049
 40
6.918790935564049
 40
6.918790935564049
 40
6.918790935564049
 40
7.0
 40
7.0
 40
7.0
 40
7.0
 10
1588.123842528207
 20
1177.506606727576
 30
0.0
 10
1592.593028782204
 20
1177.506606727576
 30
0.0
 10
1595.025130624422
 20
1177.506606727576
 30
0.0
 10
1595.025130624422
 20
1177.506606727576
 30
0.0
  0
LINE
  5
3F42
330
A
100
AcDbEntity
  8
MODEL
100
AcDbLine
 10
1271.006491495768
 20
1173.963670529659
 30
0.0
 11
1271.006491495768
 21
1173.963670529659
 31
0.0
  0
LINE
  5
3F43
330
A
100
AcDbEntity
  8
MODEL
100
AcDbLine
 10
1239.617441486561
 20
1173.963670529659
 30
0.0
 11
1321.750270327114
 21
1173.963670529659
 31
0.0
  0
LINE
  5
3F44
330
A
100
AcDbEntity
  8
MODEL
100
AcDbLine
 10
1592.614930971645
 20
1223.655038802229
 30
0.0
 11
1228.650759964702
 21
1223.655038802229
 31
0.0
  0
ARC
  5
3F45
330
A
100
AcDbEntity
  8
MODEL
100
AcDbCircle
 10
1228.650759964702
 20
1220.655038802229
 30
0.0
 40
3.0
100
AcDbArc
 50
90.0
 51
180.0
  0
ARC
  5
3F46
330
A
100
AcDbEntity
  8
MODEL
100
AcDbCircle
 10
1271.006491495768
 20
1171.963670529659
 30
0.0
 40
2.0
100
AcDbArc
 50
0.0
 51
90.0
  0
LINE
  5
3F47
330
A
100
AcDbEntity
  8
MODEL
100
AcDbLine
 10
1273.006491495768
 20
1171.963670529659
 30
0.0
 11
1273.006491495768
 21
1170.023636892506
 31
0.0
  0
ARC
  5
3F48
330
A
100
AcDbEntity
  8
MODEL
100
AcDbCircle
 10
1275.006491495768
 20
1170.023636892506
 30
0.0
 40
2.0
100
AcDbArc
 50
180.0
 51
270.0
  0
LINE
  5
3F49
330
A
100
AcDbEntity
  8
MODEL
100
AcDbLine
 10
1255.650759964702
 20
1334.230818695891
 30
0.0
 11
1258.451687398855
 21
1334.230818695891
 31
0.0
  0
LINE
  5
3F4A
330
A
100
AcDbEntity
  8
MODEL
100
AcDbLine
 10
1225.650759964702
 20
1278.47064210084
 30
0.0
 11
1225.650759964702
 21
1271.802760156395
 31
0.0
  0
LINE
  5
3F4B
330
A
100
AcDbEntity
  8
MODEL
100
AcDbLine
 10
1255.650759964702
 20
1278.47064210084
 30
0.0
 11
1255.650759964702
 21
1275.802760156395
 31
0.0
  0
LINE
  5
3F4C
330
A
100
AcDbEntity
  8
MODEL
100
AcDbLine
 10
1258.451687398855
 20
1278.47064210084
 30
0.0
 11
1258.451687398855
 21
1275.802760156395
 31
0.0
  0
LINE
  5
3F4D
330
A
100
AcDbEntity
  8
MODEL
100
AcDbLine
 10
1550.259199440578
 20
1173.963670529659
 30
0.0
 11
1550.259199440578
 21
1173.963670529659
 31
0.0
  0
LINE
  5
3F4E
330
A
100
AcDbEntity
  8
MODEL
100
AcDbLine
 10
1581.648249449788
 20
1173.963670529659
 30
0.0
 11
1499.515420609231
 21
1173.963670529659
 31
0.0
  0
ARC
  5
3F4F
330
A
100
AcDbEntity
  8
MODEL
100
AcDbCircle
 10
1592.614930971645
 20
1220.655038802229
 30
0.0
 40
3.0
100
AcDbArc
 50
0.0
 51
90.0
  0
ARC
  5
3F50
330
A
100
AcDbEntity
  8
MODEL
100
AcDbCircle
 10
1550.259199440578
 20
1171.963670529659
 30
0.0
 40
2.0
100
AcDbArc
 50
90.0
 51
180.0
  0
LINE
  5
3F51
330
A
100
AcDbEntity
  8
MODEL
100
AcDbLine
 10
1548.259199440578
 20
1171.963670529659
 30
0.0
 11
1548.259199440578
 21
1170.023636892506
 31
0.0
  0
ARC
  5
3F52
330
A
100
AcDbEntity
  8
MODEL
100
AcDbCircle
 10
1546.259199440578
 20
1170.023636892506
 30
0.0
 40
2.0
100
AcDbArc
 50
270.0
 51
0.0
  0
LINE
  5
3F53
330
A
100
AcDbEntity
  8
MODEL
100
AcDbLine
 10
1565.614930971645
 20
1334.230818695891
 30
0.0
 11
1562.814003537492
 21
1334.230818695891
 31
0.0
  0
LINE
  5
3F54
330
A
100
AcDbEntity
  8
MODEL
100
AcDbLine
 10
1595.614930971645
 20
1278.47064210084
 30
0.0
 11
1595.614930971645
 21
1271.802760156395
 31
0.0
  0
LINE
  5
3F55
330
A
100
AcDbEntity
  8
MODEL
100
AcDbLine
 10
1565.614930971645
 20
1278.47064210084
 30
0.0
 11
1565.614930971645
 21
1275.802760156395
 31
0.0
  0
LINE
  5
3F56
330
A
100
AcDbEntity
  8
MODEL
100
AcDbLine
 10
1562.814003537492
 20
1278.47064210084
 30
0.0
 11
1562.814003537492
 21
1275.802760156395
 31
0.0
  0
LINE
  5
3F57
330
A
100
AcDbEntity
  8
MODEL
100
AcDbLine
 10
1255.650759964702
 20
1204.439674218895
 30
0.0
 11
1255.650759964702
 21
1203.023739974104
 31
0.0
  0
LINE
  5
3F58
330
A
100
AcDbEntity
  8
MODEL
100
AcDbLine
 10
1258.451687398855
 20
1204.439674218895
 30
0.0
 11
1258.451687398855
 21
1203.023739974104
 31
0.0
  0
LINE
  5
3F59
330
A
100
AcDbEntity
  8
MODEL
100
AcDbLine
 10
1562.814003537492
 20
1204.439674218895
 30
0.0
 11
1562.814003537492
 21
1203.023739974104
 31
0.0
  0
LINE
  5
3F5A
330
A
100
AcDbEntity
  8
MODEL
100
AcDbLine
 10
1565.614930971647
 20
1204.439674218895
 30
0.0
 11
1565.614930971647
 21
1203.023739974104
 31
0.0
  0
LINE
  5
3F5B
330
A
100
AcDbEntity
  8
MODEL
100
AcDbLine
 10
1394.543468759814
 20
1173.963670529659
 30
0.0
 11
1426.722222176531
 21
1173.963670529659
 31
0.0
  0
ARC
  5
3F5C
330
A
100
AcDbEntity
  8
MODEL
100
AcDbCircle
 10
1592.632845468172
 20
1200.023739974104
 30
0.0
 40
3.0
100
AcDbArc
 50
0.0
 51
90.0
  0
LINE
  5
3F5D
330
A
100
AcDbEntity
  8
MODEL
100
AcDbLine
 10
1592.632845468172
 20
1203.023739974104
 30
0.0
 11
1228.632845468172
 21
1203.023739974104
 31
0.0
  0
ARC
  5
3F5E
330
A
100
AcDbEntity
  8
MODEL
100
AcDbCircle
 10
1228.632845468172
 20
1200.023739974104
 30
0.0
 40
3.0
100
AcDbArc
 50
90.0
 51
180.0
  0
LINE
  5
3F5F
330
A
100
AcDbEntity
  8
MODEL
100
AcDbLine
 10
1229.885512200794
 20
1173.96367052966
 30
0.0
 11
1239.617441486561
 21
1173.963670529659
 31
0.0
  0
ARC
  5
3F60
330
A
100
AcDbEntity
  8
MODEL
100
AcDbCircle
 10
1239.617441486561
 20
1171.963670529659
 30
0.0
 40
2.0
100
AcDbArc
 50
0.0
 51
90.0
  0
LINE
  5
3F61
330
A
100
AcDbEntity
  8
MODEL
100
AcDbLine
 10
1241.617441486561
 20
1171.963670529659
 30
0.0
 11
1241.617441486561
 21
1170.023636892506
 31
0.0
  0
ARC
  5
3F62
330
A
100
AcDbEntity
  8
MODEL
100
AcDbCircle
 10
1243.617441486561
 20
1170.023636892506
 30
0.0
 40
2.0
100
AcDbArc
 50
180.0
 51
270.0
  0
LINE
  5
3F63
330
A
100
AcDbEntity
  8
MODEL
100
AcDbLine
 10
1243.617441486561
 20
1168.023636892507
 30
0.0
 11
1317.750270327114
 21
1168.023636892506
 31
0.0
  0
ARC
  5
3F64
330
A
100
AcDbEntity
  8
MODEL
100
AcDbCircle
 10
1317.750270327114
 20
1170.023636892506
 30
0.0
 40
2.0
100
AcDbArc
 50
270.0
 51
0.0
  0
LINE
  5
3F65
330
A
100
AcDbEntity
  8
MODEL
100
AcDbLine
 10
1319.750270327114
 20
1170.023636892506
 30
0.0
 11
1319.750270327114
 21
1171.963670529659
 31
0.0
  0
ARC
  5
3F66
330
A
100
AcDbEntity
  8
MODEL
100
AcDbCircle
 10
1321.750270327114
 20
1171.963670529659
 30
0.0
 40
2.000000000000028
100
AcDbArc
 50
90.0
 51
180.0000000000065
  0
LINE
  5
3F67
330
A
100
AcDbEntity
  8
MODEL
100
AcDbLine
 10
1321.750270327114
 20
1173.963670529659
 30
0.0
 11
1394.543468759814
 21
1173.963670529659
 31
0.0
  0
ARC
  5
3F68
330
A
100
AcDbEntity
  8
MODEL
100
AcDbCircle
 10
1394.543468759814
 20
1170.963670529659
 30
0.0
 40
3.0
100
AcDbArc
 50
0.0
 51
90.0
  0
ARC
  5
3F69
330
A
100
AcDbEntity
  8
MODEL
100
AcDbCircle
 10
1426.722222176531
 20
1170.963670529659
 30
0.0
 40
3.0
100
AcDbArc
 50
90.0
 51
180.0
  0
LINE
  5
3F6A
330
A
100
AcDbEntity
  8
MODEL
100
AcDbLine
 10
1426.722222176531
 20
1173.963670529659
 30
0.0
 11
1499.515420609231
 21
1173.963670529659
 31
0.0
  0
ARC
  5
3F6B
330
A
100
AcDbEntity
  8
MODEL
100
AcDbCircle
 10
1499.515420609231
 20
1171.963670529659
 30
0.0
 40
2.0
100
AcDbArc
 50
359.9999999999935
 51
90.0
  0
LINE
  5
3F6C
330
A
100
AcDbEntity
  8
MODEL
100
AcDbLine
 10
1501.515420609231
 20
1171.963670529659
 30
0.0
 11
1501.515420609231
 21
1170.023636892506
 31
0.0
  0
ARC
  5
3F6D
330
A
100
AcDbEntity
  8
MODEL
100
AcDbCircle
 10
1503.515420609231
 20
1170.023636892506
 30
0.0
 40
2.0
100
AcDbArc
 50
180.0
 51
270.0
  0
LINE
  5
3F6E
330
A
100
AcDbEntity
  8
MODEL
100
AcDbLine
 10
1503.515420609231
 20
1168.023636892506
 30
0.0
 11
1577.648249449788
 21
1168.023636892507
 31
0.0
  0
ARC
  5
3F6F
330
A
100
AcDbEntity
  8
MODEL
100
AcDbCircle
 10
1577.648249449788
 20
1170.023636892506
 30
0.0
 40
2.0
100
AcDbArc
 50
270.0
 51
0.0
  0
LINE
  5
3F70
330
A
100
AcDbEntity
  8
MODEL
100
AcDbLine
 10
1579.648249449788
 20
1170.023636892506
 30
0.0
 11
1579.648249449788
 21
1171.963670529659
 31
0.0
  0
ARC
  5
3F71
330
A
100
AcDbEntity
  8
MODEL
100
AcDbCircle
 10
1581.648249449788
 20
1171.963670529659
 30
0.0
 40
2.0
100
AcDbArc
 50
90.0
 51
180.0
  0
LINE
  5
3F72
330
A
100
AcDbEntity
  8
MODEL
100
AcDbLine
 10
1581.648249449788
 20
1173.963670529659
 30
0.0
 11
1591.380178735552
 21
1173.963670529657
 31
0.0
  0
LWPOLYLINE
  5
3F73
330
A
100
AcDbEntity
  8
MODEL
100
AcDbPolyline
 90
        8
 70
     1
 43
0.0
 10
1595.614930971645
 20
1271.802760156395
 42
0.4142135623730951
 10
1591.614930971645
 20
1275.802760156395
 10
1229.650759964702
 20
1275.802760156395
 42
0.4142135623730951
 10
1225.650759964702
 20
1271.802760156395
 10
1225.650759964702
 20
1220.655038802229
 10
1225.650759964702
 20
1204.439674218895
 10
1595.614930971645
 20
1204.439674218895
 10
1595.614930971645
 20
1220.655038802229
  0
LWPOLYLINE
  5
3F74
330
A
100
AcDbEntity
  8
MODEL
100
AcDbPolyline
 90
        6
 70
     1
 43
0.0
 10
1255.650759964702
 20
1334.230818695891
 42
0.4142135623730951
 10
1251.650759964702
 20
1338.230818695891
 10
1229.650759964702
 20
1338.230818695891
 42
0.4142135623730951
 10
1225.650759964702
 20
1334.230818695891
 10
1225.650759964702
 20
1278.47064210084
 10
1255.650759964702
 20
1278.47064210084
  0
LWPOLYLINE
  5
3F75
330
A
100
AcDbEntity
  8
MODEL
100
AcDbPolyline
 90
        6
 70
     1
 43
0.0
 10
1595.614930971645
 20
1334.230818695891
 42
0.4142135623730951
 10
1591.614930971645
 20
1338.230818695891
 10
1569.614930971647
 20
1338.230818695891
 42
0.4142135623730951
 10
1565.614930971647
 20
1334.230818695891
 10
1565.614930971645
 20
1278.47064210084
 10
1595.614930971645
 20
1278.47064210084
  0
LWPOLYLINE
  5
3F76
330
A
100
AcDbEntity
  8
MODEL
100
AcDbPolyline
 90
        6
 70
     1
 43
0.0
 10
1562.814003537492
 20
1334.230818695891
 42
0.4142135623730951
 10
1558.814003537492
 20
1338.230818695891
 10
1262.451687398855
 20
1338.230818695891
 42
0.4142135623730951
 10
1258.451687398855
 20
1334.230818695891
 10
1258.451687398855
 20
1278.47064210084
 10
1562.814003537492
 20
1278.470642100839
  0
LINE
  5
3F77
330
A
100
AcDbEntity
  8
MODEL
100
AcDbLine
 10
1397.543468759814
 20
1170.963670529659
 30
0.0
 11
1397.543468759814
 21
1168.023636892506
 31
0.0
  0
LINE
  5
3F78
330
A
100
AcDbEntity
  8
MODEL
100
AcDbLine
 10
1423.722222176531
 20
1170.963670529659
 30
0.0
 11
1423.722222176531
 21
1168.023636892506
 31
0.0
  0
LINE
  5
3F79
330
A
100
AcDbEntity
  8
MODEL
100
AcDbLine
 10
1591.380178735551
 20
1173.963670529763
 30
0.0
 11
1593.025130624422
 21
1173.963670529765
 31
0.0
  0
ARC
  5
3F7A
330
A
100
AcDbEntity
  8
MODEL
100
AcDbCircle
 10
1593.025130624422
 20
1175.963670529765
 30
0.0
 40
2.0
100
AcDbArc
 50
270.0
 51
0.0
  0
LINE
  5
3F7B
330
A
100
AcDbEntity
  8
MODEL
100
AcDbLine
 10
1595.025130624422
 20
1175.963670529765
 30
0.0
 11
1595.025130624422
 21
1177.506606727681
 31
0.0
  0
LINE
  5
3F7C
330
A
100
AcDbEntity
  8
MODEL
100
AcDbLine
 10
1595.025130624422
 20
1177.506606727681
 30
0.0
 11
1595.632845468172
 21
1177.506606727681
 31
0.0
  0
LINE
  5
3F7D
330
A
100
AcDbEntity
  8
MODEL
100
AcDbLine
 10
1595.632845468172
 20
1177.506606727681
 30
0.0
 11
1595.632845468172
 21
1200.023739974209
 31
0.0
  0
LINE
  5
3F7E
330
A
100
AcDbEntity
  8
MODEL
100
AcDbLine
 10
1225.632845468172
 20
1200.023739974104
 30
0.0
 11
1225.632845468172
 21
1177.506606727681
 31
0.0
  0
LINE
  5
3F7F
330
A
100
AcDbEntity
  8
MODEL
100
AcDbLine
 10
1225.632845468172
 20
1177.506606727681
 30
0.0
 11
1226.240560311923
 21
1177.506606727681
 31
0.0
  0
LINE
  5
3F80
330
A
100
AcDbEntity
  8
MODEL
100
AcDbLine
 10
1226.240560311923
 20
1177.506606727681
 30
0.0
 11
1226.240560311923
 21
1175.963670529765
 31
0.0
  0
ARC
  5
3F81
330
A
100
AcDbEntity
  8
MODEL
100
AcDbCircle
 10
1228.240560311921
 20
1175.963670529765
 30
0.0
 40
1.999999999999772
100
AcDbArc
 50
180.0
 51
270.0000000000521
  0
LINE
  5
3F82
330
A
100
AcDbEntity
  8
MODEL
100
AcDbLine
 10
1228.240560311923
 20
1173.963670529765
 30
0.0
 11
1229.885512200793
 21
1173.963670529766
 31
0.0
  0
LINE
  5
3F83
330
A
100
AcDbEntity
  8
MODEL
  6
CENTER2
100
AcDbLine
 10
498.716151612291
 20
947.9524192916131
 30
0.0
 11
437.8272037653628
 21
947.9496876879709
 31
0.0
  0
LINE
  5
3F84
330
A
100
AcDbEntity
  8
MODEL
100
AcDbLine
 10
381.9109013968359
 20
890.8439619001701
 30
0.0
 11
449.8206236190586
 21
890.8439619001701
 31
0.0
  0
LINE
  5
3F85
330
A
100
AcDbEntity
  8
MODEL
100
AcDbLine
 10
412.7789569523916
 20
878.4967396779471
 30
0.0
 11
381.0289569523916
 21
878.4967396779471
 31
0.0
  0
LINE
  5
3F86
330
A
100
AcDbEntity
  8
MODEL
100
AcDbLine
 10
327.0064808618558
 20
802.4072707096327
 30
0.0
 11
401.1846472918828
 21
791.0691571879445
 31
0.0
  0
LINE
  5
3F87
330
A
100
AcDbEntity
  8
MODEL
100
AcDbLine
 10
449.8206236190586
 20
1010.788406344614
 30
0.0
 11
384.5567347301699
 21
1010.788406344614
 31
0.0
  0
LINE
  5
3F88
330
A
100
AcDbEntity
  8
MODEL
100
AcDbLine
 10
449.8206236190586
 20
1016.080073011281
 30
0.0
 11
449.8206236190586
 21
880.260628566836
 31
0.0
  0
LINE
  5
3F89
330
A
100
AcDbEntity
  8
MODEL
100
AcDbLine
 10
473.6331236190586
 20
1016.080073011281
 30
0.0
 11
473.6331236190586
 21
880.260628566836
 31
0.0
  0
LINE
  5
3F8A
102
{ACAD_REACTORS
330
4009
102
}
330
A
100
AcDbEntity
  8
MODEL GRAY
100
AcDbLine
 10
439.2372902857246
 20
794.3655181610202
 30
0.0
 11
439.2372902857246
 21
736.8859645832442
 31
0.0
  0
LINE
  5
3F8B
330
A
100
AcDbEntity
  8
MODEL
100
AcDbLine
 10
449.8206236190586
 20
880.260628566836
 30
0.0
 11
473.6331236190586
 21
880.260628566836
 31
0.0
  0
LINE
  5
3F8C
330
A
100
AcDbEntity
  8
MODEL
100
AcDbLine
 10
401.1846472918828
 20
791.0691571879445
 30
0.0
 11
433.9456236190586
 21
820.288406344614
 31
0.0
  0
LINE
  5
3F8D
330
A
100
AcDbEntity
  8
MODEL
100
AcDbLine
 10
404.8414569523916
 20
1010.567920233503
 30
0.0
 11
404.8414569523916
 21
969.557503566836
 31
0.0
  0
LINE
  5
3F8E
330
A
100
AcDbEntity
  8
MODEL
100
AcDbLine
 10
414.1018736190586
 20
1010.567920233503
 30
0.0
 11
414.1018736190586
 21
969.557503566836
 31
0.0
  0
LINE
  5
3F8F
330
A
100
AcDbEntity
  8
MODEL
100
AcDbLine
 10
423.3622902857246
 20
1010.567920233503
 30
0.0
 11
423.3622902857246
 21
969.557503566836
 31
0.0
  0
LINE
  5
3F90
330
A
100
AcDbEntity
  8
MODEL
100
AcDbLine
 10
432.6227069523916
 20
1010.567920233503
 30
0.0
 11
432.6227069523916
 21
969.557503566836
 31
0.0
  0
LINE
  5
3F92
330
A
100
AcDbEntity
  8
MODEL
100
AcDbLine
 10
432.6227069523916
 20
925.460281344614
 30
0.0
 11
432.6227069523916
 21
890.8439619001701
 31
0.0
  0
LINE
  5
3F93
330
A
100
AcDbEntity
  8
MODEL
100
AcDbLine
 10
404.8414569523916
 20
925.460281344614
 30
0.0
 11
404.8414569523916
 21
890.8439619001701
 31
0.0
  0
LINE
  5
3F94
330
A
100
AcDbEntity
  8
MODEL
100
AcDbLine
 10
414.1018736190586
 20
925.460281344614
 30
0.0
 11
414.1018736190586
 21
890.8439619001701
 31
0.0
  0
LINE
  5
3F95
330
A
100
AcDbEntity
  8
MODEL
100
AcDbLine
 10
423.3622902857246
 20
925.460281344614
 30
0.0
 11
423.3622902857246
 21
890.8439619001701
 31
0.0
  0
LINE
  5
3F96
330
A
100
AcDbEntity
  8
MODEL
100
AcDbLine
 10
449.8206236190586
 20
1016.080073011281
 30
0.0
 11
473.6331236190586
 21
1016.080073011281
 31
0.0
  0
LINE
  5
3F97
330
A
100
AcDbEntity
  8
MODEL
100
AcDbLine
 10
375.7372902857246
 20
888.198128566836
 30
0.0
 11
337.8136791746138
 21
927.0036841223921
 31
0.0
  0
LINE
  5
3F98
330
A
100
AcDbEntity
  8
MODEL
100
AcDbLine
 10
373.9734013968359
 20
885.552295233503
 30
0.0
 11
272.0385688824008
 21
885.552295233503
 31
0.0
  0
LINE
  5
3F99
330
A
100
AcDbEntity
  8
MODEL
100
AcDbLine
 10
375.7372902857246
 20
881.142573011281
 30
0.0
 11
337.8136791746138
 21
844.100906344614
 31
0.0
  0
LINE
  5
3F9A
330
A
100
AcDbEntity
  8
MODEL
100
AcDbLine
 10
216.5314235727428
 20
1021.371739677947
 30
0.0
 11
366.0359013968359
 21
1021.371739677947
 31
0.0
  0
LINE
  5
3F9B
330
A
100
AcDbEntity
  8
MODEL
100
AcDbLine
 10
216.5337808539425
 20
1031.081087155498
 30
0.0
 11
366.0359013968359
 21
1031.072171437059
 31
0.0
  0
LINE
  5
3F9C
330
A
100
AcDbEntity
  8
MODEL
100
AcDbLine
 10
366.0359013968359
 20
1035.482850789059
 30
0.0
 11
366.0359013968359
 21
997.099094750411
 31
0.0
  0
LINE
  5
3F9D
330
A
100
AcDbEntity
  8
MODEL
100
AcDbLine
 10
391.6122902857246
 20
1033.009272230031
 30
0.0
 11
391.6122902857246
 21
1016.962017455725
 31
0.0
  0
LINE
  5
3F9E
330
A
100
AcDbEntity
  8
MODEL
100
AcDbLine
 10
379.265068063502
 20
1035.482850789059
 30
0.0
 11
379.265068063502
 21
1006.877174460556
 31
0.0
  0
LINE
  5
3F9F
330
A
100
AcDbEntity
  8
MODEL
100
AcDbLine
 10
391.6122902857246
 20
1016.962017455725
 30
0.0
 11
379.265068063502
 21
1016.962017455725
 31
0.0
  0
POLYLINE
  5
3FA0
330
A
100
AcDbEntity
  8
MODEL
100
AcDb2dPolyline
 66
     1
 10
0.0
 20
0.0
 30
0.0
 70
     1
  0
VERTEX
  5
3FA1
330
3FA0
100
AcDbEntity
  8
MODEL
100
AcDbVertex
100
AcDb2dVertex
 10
375.0896123343359
 20
1022.853130736975
 30
0.0
  0
VERTEX
  5
3FA2
330
3FA0
100
AcDbEntity
  8
MODEL
100
AcDbVertex
100
AcDb2dVertex
 10
370.211357126002
 20
1022.853130736975
 30
0.0
  0
VERTEX
  5
3FA3
330
3FA0
100
AcDbEntity
  8
MODEL
100
AcDbVertex
100
AcDb2dVertex
 10
370.211357126002
 20
1011.132915893225
 30
0.0
  0
VERTEX
  5
3FA4
330
3FA0
100
AcDbEntity
  8
MODEL
100
AcDbVertex
100
AcDb2dVertex
 10
375.0896123343359
 20
1015.473736205725
 30
0.0
  0
VERTEX
  5
3FA5
330
3FA0
100
AcDbEntity
  8
MODEL
100
AcDbVertex
100
AcDb2dVertex
 10
375.0896123343359
 20
1022.853130736975
 30
0.0
  0
SEQEND
  5
3FA6
330
3FA0
100
AcDbEntity
  8
MODEL
  0
LINE
  5
3FA7
330
A
100
AcDbEntity
  8
MODEL
100
AcDbLine
 10
379.265068063502
 20
1006.877174460556
 30
0.0
 11
366.0359013968359
 21
1006.877174460556
 31
0.0
  0
LINE
  5
3FA8
330
A
100
AcDbEntity
  8
MODEL
100
AcDbLine
 10
366.0359013968359
 20
1035.482850789059
 30
0.0
 11
379.265068063502
 21
1035.482850789059
 31
0.0
  0
LINE
  5
3FA9
330
A
100
AcDbEntity
  8
MODEL
100
AcDbLine
 10
216.5314235727428
 20
1051.357850789059
 30
0.0
 11
216.5314235727428
 21
1000.205073011281
 31
0.0
  0
LINE
  5
3FAA
330
A
100
AcDbEntity
  8
MODEL
100
AcDbLine
 10
216.5314235727428
 20
1000.205073011281
 30
0.0
 11
207.8489216738712
 21
1000.205073011281
 31
0.0
  0
LINE
  5
3FAB
330
A
100
AcDbEntity
  8
MODEL
100
AcDbLine
 10
207.8489216738712
 20
1051.357850789058
 30
0.0
 11
216.5314235727428
 21
1051.357850789059
 31
0.0
  0
LINE
  5
3FAC
330
A
100
AcDbEntity
  8
MODEL
100
AcDbLine
 10
384.5567347301699
 20
1010.788406344614
 30
0.0
 11
364.2720125079472
 21
995.7953507890591
 31
0.0
  0
LINE
  5
3FAD
330
A
100
AcDbEntity
  8
MODEL
100
AcDbLine
 10
391.6122902857246
 20
1033.009272230031
 30
0.0
 11
379.265068063502
 21
1033.009272230031
 31
0.0
  0
ARC
  5
3FAE
330
A
100
AcDbEntity
  8
MODEL
100
AcDbCircle
 10
381.9990958412805
 20
882.112711900169
 30
0.0
 40
8.731695415125929
100
AcDbArc
 50
90.57872556560828
 51
156.8014094863521
  0
ARC
  5
3FAF
330
A
100
AcDbEntity
  8
MODEL
100
AcDbCircle
 10
381.4699291746133
 20
885.9932674557251
 30
0.0
 40
7.509486348863371
100
AcDbArc
 50
183.3664606634294
 51
266.633539336574
  0
LINE
  5
3FB0
330
A
100
AcDbEntity
  8
MODEL
100
AcDbLine
 10
454.671318063502
 20
855.345698011281
 30
0.0
 11
489.2372902857246
 21
785.5574376385664
 31
0.0
  0
ARC
  5
3FB1
330
A
100
AcDbEntity
  8
MODEL
100
AcDbCircle
 10
360.5784573337919
 20
880.463801820784
 30
0.0
 40
88.68598881557335
100
AcDbArc
 50
175.9970842889988
 51
227.7378817567794
  0
ARC
  5
3FB2
330
A
100
AcDbEntity
  8
MODEL
100
AcDbCircle
 10
334.5612265015088
 20
851.833233708042
 30
0.0
 40
50.0
100
AcDbArc
 50
227.7378817567792
 51
261.3096163213759
  0
LINE
  5
3FB3
330
A
100
AcDbEntity
  8
MODEL
100
AcDbLine
 10
389.2372902857246
 20
792.8953076111657
 30
0.0
 11
389.2372902857246
 21
749.606235753613
 31
0.0
  0
LINE
  5
3FB4
330
A
100
AcDbEntity
  8
MODEL
100
AcDbLine
 10
489.2372902857246
 20
785.5574376385664
 30
0.0
 11
489.2372902857246
 21
749.606235753613
 31
0.0
  0
ARC
  5
3FB5
330
A
100
AcDbEntity
  8
MODEL
100
AcDbCircle
 10
413.6757473005423
 20
830.6413698978804
 30
0.0
 40
47.86377178739123
100
AcDbArc
 50
31.0735741647462
 51
91.07357416474484
  0
ARC
  5
3FB6
330
A
100
AcDbEntity
  8
MODEL
100
AcDbCircle
 10
378.9383132734852
 20
889.820483922346
 30
0.0
 40
106.9849184958455
100
AcDbArc
 50
97.87935038412178
 51
182.2864355084235
  0
ARC
  5
3FB7
330
A
100
AcDbEntity
  8
MODEL
100
AcDbCircle
 10
703.2464464441496
 20
986.6185239187541
 30
0.0
 40
337.3125505604036
100
AcDbArc
 50
178.5908924320121
 51
196.540757283325
  0
LINE
  5
3FB8
330
A
100
AcDbEntity
  8
MODEL
100
AcDbLine
 10
489.2372902857246
 20
749.606235753613
 30
0.0
 11
389.2372902857246
 21
749.606235753613
 31
0.0
  0
POLYLINE
  5
3FB9
330
A
100
AcDbEntity
  8
MODEL
 62
   252
370
    70
100
AcDb2dPolyline
 66
     1
 10
0.0
 20
0.0
 30
0.0
  0
VERTEX
  5
3FBA
330
3FB9
100
AcDbEntity
  8
MODEL
 62
   252
370
    70
100
AcDbVertex
100
AcDb2dVertex
 10
385.4709235658515
 20
705.8291939476496
 30
0.0
  0
VERTEX
  5
3FBB
330
3FB9
100
AcDbEntity
  8
MODEL
 62
   252
370
    70
100
AcDbVertex
100
AcDb2dVertex
 10
385.4709235658515
 20
768.0236368925064
 30
0.0
  0
VERTEX
  5
3FBC
330
3FB9
100
AcDbEntity
  8
MODEL
 62
   252
370
    70
100
AcDbVertex
100
AcDb2dVertex
 10
493.0036570055977
 20
768.0236368925064
 30
0.0
  0
VERTEX
  5
3FBD
330
3FB9
100
AcDbEntity
  8
MODEL
 62
   252
370
    70
100
AcDbVertex
100
AcDb2dVertex
 10
493.0036570055977
 20
705.8291939476496
 30
0.0
  0
SEQEND
  5
3FBE
330
3FB9
100
AcDbEntity
  8
MODEL
 62
   252
370
    70
  0
ARC
  5
3FC0
330
A
100
AcDbEntity
  8
MODEL
100
AcDbCircle
 10
766.0592818892387
 20
2279.533636708412
 30
0.0
 40
127.5
100
AcDbArc
 50
270.0
 51
90.0
  0
ARC
  5
3FC1
330
A
100
AcDbEntity
  8
MODEL
100
AcDbCircle
 10
766.0592818892387
 20
2279.533636708412
 30
0.0
 40
121.2543854865548
100
AcDbArc
 50
270.0
 51
90.0
  0
ARC
  5
3FC2
330
A
100
AcDbEntity
  8
MODEL
100
AcDbCircle
 10
638.5376850254529
 20
2279.533636708412
 30
0.0
 40
46.03096119195256
100
AcDbArc
 50
270.0
 51
90.0
  0
LINE
  5
3FC3
330
A
100
AcDbEntity
  8
MODEL
100
AcDbLine
 10
638.5376850254529
 20
2325.564597900364
 30
0.0
 11
541.4704335495321
 21
2325.564597900364
 31
0.0
  0
LINE
  5
3FC4
330
A
100
AcDbEntity
  8
MODEL
100
AcDbLine
 10
638.5376850254529
 20
2233.502675516459
 30
0.0
 11
542.0298709901476
 21
2233.502675516459
 31
0.0
  0
ARC
  5
3FC5
330
A
100
AcDbEntity
  8
MODEL
100
AcDbCircle
 10
443.3685843895187
 20
2279.533369897125
 30
0.0
 40
120.7389345289058
100
AcDbArc
 50
346.4584912218899
 51
13.54177093563187
  0
ARC
  5
3FC6
330
A
100
AcDbEntity
  8
MODEL
100
AcDbCircle
 10
646.0592818892387
 20
2279.533636708412
 30
0.0
 40
127.5
100
AcDbArc
 50
90.0
 51
270.0
  0
ARC
  5
3FC7
330
A
100
AcDbEntity
  8
MODEL
100
AcDbCircle
 10
646.0592818892387
 20
2279.533636708412
 30
0.0
 40
121.2543854865548
100
AcDbArc
 50
90.0
 51
270.0
  0
LINE
  5
3FC8
330
A
100
AcDbEntity
  8
MODEL
100
AcDbLine
 10
766.0592818892387
 20
2407.033636708412
 30
0.0
 11
646.0592818892387
 21
2407.033636708412
 31
0.0
  0
LINE
  5
3FC9
330
A
100
AcDbEntity
  8
MODEL
100
AcDbLine
 10
766.0592818892387
 20
2400.788022194966
 30
0.0
 11
646.0592818892387
 21
2400.788022194966
 31
0.0
  0
LINE
  5
3FCA
330
A
100
AcDbEntity
  8
MODEL
100
AcDbLine
 10
766.0592818892387
 20
2152.033636708412
 30
0.0
 11
646.0592818892387
 21
2152.033636708412
 31
0.0
  0
LINE
  5
3FCB
330
A
100
AcDbEntity
  8
MODEL
100
AcDbLine
 10
766.0592818892387
 20
2158.279251221857
 30
0.0
 11
646.0592818892387
 21
2158.279251221857
 31
0.0
  0
DIMENSION
  5
3FCC
330
A
100
AcDbEntity
  8
DIM
  6
Continuous
100
AcDbDimension
  2
*D6
 10
1003.016415889149
 20
1168.023636892506
 30
0.0
 11
976.016415889149
 21
968.0236368925061
 31
0.0
 70
    32
 71
     5
 42
400.0
 73
     0
 74
     0
 75
     0
  3
JIS
100
AcDbAlignedDimension
 13
812.8120201629358
 23
768.0236368925061
 33
0.0
 14
945.1639072667717
 24
1168.023636892506
 34
0.0
 50
90.0
100
AcDbRotatedDimension
1001
ACAD
1000
DSTYLE
1002
{
1070
   179
1070
     0
1070
    41
1040
6.0
1070
   271
1070
     0
1070
    43
1040
25.0
1070
    44
1040
0.0
1070
    42
1040
25.0
1070
   147
1040
15.0
1070
   140
1040
24.0
1002
}
  0
DIMENSION
  5
3FCD
330
A
100
AcDbEntity
  8
DIM
  6
Continuous
100
AcDbDimension
  2
*D7
 10
1102.474895755283
 20
978.0236368925061
 30
0.0
 11
1102.474895755283
 21
873.0236368925061
 31
0.0
 70
   160
  1
210-230
 71
     5
 42
209.9999999999998
 73
     0
 74
     0
 75
     0
  3
JIS
100
AcDbAlignedDimension
 13
1225.594751851499
 23
768.0236368925064
 33
0.0
 14
1160.594751851499
 24
978.0236368925061
 34
0.0
 50
90.0
100
AcDbRotatedDimension
1001
ACAD
1000
DSTYLE
1002
{
1070
   179
1070
     0
1070
    41
1040
6.0
1070
   271
1070
     0
1070
    43
1040
25.0
1070
    44
1040
0.0
1070
    42
1040
25.0
1070
   147
1040
15.0
1070
   140
1040
24.0
1002
}
  0
DIMENSION
  5
3FFF
330
A
100
AcDbEntity
  8
DIM
  6
Continuous
100
AcDbDimension
  2
*D8
 10
1160.615851851497
 20
565.088434355767
 30
0.0
 11
1285.605301851498
 21
592.088434355767
 31
0.0
 70
    32
  1
250-300
 71
     5
 42
249.9789000000021
 73
     0
 74
     0
 75
     0
  3
JIS
100
AcDbAlignedDimension
 13
1410.594751851499
 23
694.8893703055339
 33
0.0
 14
1160.615851851497
 24
944.9371277733351
 34
0.0
100
AcDbRotatedDimension
1001
ACAD
1000
DSTYLE
1002
{
1070
   179
1070
     0
1070
    41
1040
6.0
1070
   271
1070
     0
1070
    43
1040
25.0
1070
    44
1040
0.0
1070
    42
1040
25.0
1070
   147
1040
15.0
1070
   140
1040
24.0
1002
}
  0
DIMENSION
  5
4004
102
{ACAD_REACTORS
330
4006
102
}
102
{ACAD_XDICTIONARY
360
4005
102
}
330
A
100
AcDbEntity
  8
DIM
100
AcDbDimension
  2
*D9
 10
155.2980832684102
 20
948.0236368925061
 30
0.0
 11
155.2980832684102
 21
858.023636892506
 31
0.0
 70
   160
 71
     5
 42
179.9999999999998
 73
     0
 74
     0
 75
     0
  3
JIS
100
AcDbAlignedDimension
 13
207.8489216738712
 23
768.0236368925064
 33
0.0
 14
425.6998863049357
 24
948.0236368925061
 34
0.0
 50
90.0
100
AcDbRotatedDimension
1001
ACAD
1000
DSTYLE
1002
{
1070
   179
1070
     0
1070
    41
1040
6.0
1070
   271
1070
     0
1070
    43
1040
25.0
1070
    44
1040
0.0
1070
    42
1040
25.0
1070
   147
1040
15.0
1070
   140
1040
24.0
1002
}
  0
DIMENSION
  5
4007
102
{ACAD_REACTORS
330
4009
102
}
102
{ACAD_XDICTIONARY
360
4008
102
}
330
A
100
AcDbEntity
  8
DIM
  6
Continuous
100
AcDbDimension
  2
*D10
 10
439.2372902857246
 20
624.6507811777244
 30
0.0
 11
323.5431059797979
 21
651.6507811777244
 31
0.0
 70
    32
  1
190-230
 71
     5
 42
231.3883686118534
 73
     0
 74
     0
 75
     0
  3
JIS
100
AcDbAlignedDimension
 13
207.8489216738712
 23
768.0236368925064
 33
0.0
 14
439.2372902857246
 24
736.8859645832442
 34
0.0
100
AcDbRotatedDimension
1001
ACAD
1000
DSTYLE
1002
{
1070
   179
1070
     0
1070
    41
1040
6.0
1070
   271
1070
     0
1070
    43
1040
25.0
1070
    44
1040
0.0
1070
    42
1040
25.0
1070
   147
1040
15.0
1070
   140
1040
24.0
1002
}
  0
DIMENSION
  5
400A
330
A
100
AcDbEntity
  8
DIM
  6
Continuous
100
AcDbDimension
  2
*D11
 10
932.8489216738712
 20
2606.650923430125
 30
0.0
 11
570.3489216738712
 21
2633.650923430125
 31
0.0
 70
    32
 71
     5
 42
725.0
 73
     0
 74
     0
 75
     0
  3
JIS
100
AcDbAlignedDimension
 13
207.8489216738712
 23
2459.515366529308
 33
0.0
 14
932.8489216738712
 24
2362.857152864133
 34
0.0
100
AcDbRotatedDimension
1001
ACAD
1000
DSTYLE
1002
{
1070
   179
1070
     0
1070
    41
1040
6.0
1070
   271
1070
     0
1070
    43
1040
25.0
1070
    44
1040
0.0
1070
    42
1040
25.0
1070
   147
1040
15.0
1070
   140
1040
24.0
1002
}
  0
DIMENSION
  5
400B
102
{ACAD_REACTORS
330
400D
102
}
102
{ACAD_XDICTIONARY
360
400C
102
}
330
A
100
AcDbEntity
  8
DIM
  6
Continuous
100
AcDbDimension
  2
*D12
 10
155.2980832684102
 20
2094.514955666083
 30
0.0
 11
128.2980832684102
 21
2279.514955666083
 31
0.0
 70
    32
 71
     5
 42
370.0
 73
     0
 74
     0
 75
     0
  3
JIS
100
AcDbAlignedDimension
 13
212.9130189704924
 23
2464.514955666083
 33
0.0
 14
212.9130189704924
 24
2094.514955666083
 34
0.0
 50
90.0
100
AcDbRotatedDimension
1001
ACAD
1000
DSTYLE
1002
{
1070
   179
1070
     0
1070
    41
1040
6.0
1070
   271
1070
     0
1070
    43
1040
25.0
1070
    44
1040
0.0
1070
    42
1040
25.0
1070
   147
1040
15.0
1070
   140
1040
24.0
1002
}
  0
DIMENSION
  5
400E
330
A
100
AcDbEntity
  8
DIM
  6
Continuous
100
AcDbDimension
  2
*D13
 10
1090.682509672794
 20
2099.525943050481
 30
0.0
 11
1063.682509672794
 21
2279.525943050481
 31
0.0
 70
    32
 71
     5
 42
360.0
 73
     0
 74
     0
 75
     0
  3
JIS
100
AcDbAlignedDimension
 13
849.212424917268
 23
2459.525943050481
 33
0.0
 14
849.212424917268
 24
2099.525943050481
 34
0.0
 50
90.0
100
AcDbRotatedDimension
1001
ACAD
1000
DSTYLE
1002
{
1070
   179
1070
     0
1070
    41
1040
6.0
1070
   271
1070
     0
1070
    43
1040
25.0
1070
    44
1040
0.0
1070
    42
1040
25.0
1070
   147
1040
15.0
1070
   140
1040
24.0
1002
}
  0
DIMENSION
  5
400F
102
{ACAD_REACTORS
330
4011
102
}
102
{ACAD_XDICTIONARY
360
4010
102
}
330
A
100
AcDbEntity
  8
DIM
  6
Continuous
100
AcDbDimension
  2
*D14
 10
207.8489216738712
 20
533.0758001151231
 30
0.0
 11
360.3545969541656
 21
562.1398001151231
 31
0.0
 70
    32
 71
     5
 42
305.0113505605887
 73
     0
 74
     0
 75
     0
  3
JIS
100
AcDbAlignedDimension
 13
512.8602722344599
 23
788.654358513218
 33
0.0
 14
207.8489216738712
 24
768.0236368925064
 34
0.0
100
AcDbRotatedDimension
1001
ACAD
1000
DSTYLE
1002
{
1070
     3
1000
<>(床固定位置)
1070
   179
1070
     0
1070
    41
1040
6.0
1070
   271
1070
     0
1070
    43
1040
25.0
1070
    44
1040
0.0
1070
    42
1040
25.0
1070
   147
1040
15.0
1070
   140
1040
24.0
1002
}
  0
DIMENSION
  5
4012
330
A
100
AcDbEntity
  8
DIM
  6
Continuous
100
AcDbDimension
  2
*D15
 10
1595.594751851499
 20
1787.985344224437
 30
0.0
 11
1410.674739366108
 21
1814.985344224437
 31
0.0
 70
    32
 71
     5
 42
369.8400249707811
 73
     0
 74
     0
 75
     0
  3
JIS
100
AcDbAlignedDimension
 13
1225.754726880718
 23
1676.497858213255
 33
0.0
 14
1595.594751851499
 24
1676.497858213255
 34
0.0
100
AcDbRotatedDimension
1001
ACAD
1000
DSTYLE
1002
{
1070
   179
1070
     0
1070
    41
1040
6.0
1070
   271
1070
     0
1070
    43
1040
25.0
1070
    44
1040
0.0
1070
    42
1040
25.0
1070
   147
1040
15.0
1070
   140
1040
24.0
1002
}
  0
DIMENSION
  5
4014
102
{ACAD_REACTORS
330
4016
102
}
102
{ACAD_XDICTIONARY
360
4015
102
}
330
A
100
AcDbEntity
  8
DIM
  6
Continuous
100
AcDbDimension
  2
*D16
 10
1991.355839517678
 20
1653.023636892506
 30
0.0
 11
1991.355839517678
 21
1210.523636892506
 31
0.0
 70
   160
 71
     5
 42
884.9999999999998
 73
     0
 74
     0
 75
     0
  3
JIS
100
AcDbAlignedDimension
 13
1595.594751851499
 23
768.0236368925064
 33
0.0
 14
1588.594751851499
 24
1653.023636892506
 34
0.0
 50
90.0
100
AcDbRotatedDimension
1001
ACAD
1000
DSTYLE
1002
{
1070
   179
1070
     0
1070
    41
1040
6.0
1070
   271
1070
     0
1070
    43
1040
25.0
1070
    44
1040
0.0
1070
    42
1040
25.0
1070
   147
1040
15.0
1070
   140
1040
24.0
1002
}
  0
LINE
  5
4017
330
A
100
AcDbEntity
  8
DIM
  6
CENTER2
 48
30.0
100
AcDbLine
 10
1310.921010008095
 20
1609.066626124131
 30
0.0
 11
1310.921010008095
 21
1566.980647660881
 31
0.0
  0
LINE
  5
4018
330
A
100
AcDbEntity
  8
DIM
  6
CENTER2
 48
30.0
100
AcDbLine
 10
1289.878020776471
 20
1588.023636892506
 30
0.0
 11
1331.96399923972
 21
1588.023636892506
 31
0.0
  0
DIMENSION
  5
4019
102
{ACAD_REACTORS
330
401B
102
}
102
{ACAD_XDICTIONARY
360
401A
102
}
330
A
100
AcDbEntity
  8
DIM
  6
Continuous
100
AcDbDimension
  2
*D17
 10
1910.131560889258
 20
1588.023636892506
 30
0.0
 11
1910.131560889258
 21
1178.023636892506
 31
0.0
 70
   160
 71
     5
 42
819.9999999999998
 73
     0
 74
     0
 75
     0
  3
JIS
100
AcDbAlignedDimension
 13
1595.594751851499
 23
768.0236368925064
 33
0.0
 14
1335.921010008095
 24
1588.023636892506
 34
0.0
 50
90.0
100
AcDbRotatedDimension
1001
ACAD
1000
DSTYLE
1002
{
1070
   179
1070
     0
1070
    41
1040
6.0
1070
   271
1070
     0
1070
    43
1040
25.0
1070
    44
1040
0.0
1070
    42
1040
25.0
1070
   147
1040
15.0
1070
   140
1040
24.0
1002
}
  0
LEADER
  5
401C
330
A
100
AcDbEntity
  8
DIM
  6
Continuous
100
AcDbLeader
  3
JIS
 76
     3
 10
1310.921010008095
 20
1588.023636892506
 30
0.0
 10
1133.29074298301
 20
1749.532980913032
 30
0.0
 10
834.9171020976145
 20
1749.532980913032
 30
0.0
1001
ACAD
1000
DSTYLE
1002
{
1070
   179
1070
     0
1070
    41
1040
6.0
1070
   271
1070
     0
1070
    43
1040
25.0
1070
    44
1040
0.0
1070
    42
1040
25.0
1070
   147
1040
15.0
1070
   140
1040
24.0
1002
}
  0
MTEXT
  5
401D
330
A
100
AcDbEntity
  8
MODEL
390
1D
100
AcDbMText
 10
843.1431459355829
 20
1794.374594184358
 30
0.0
 40
24.4326171875
 41
0.0
 46
24.4326171875
 71
     1
 72
     1
  1
{タンク給水位置G1/2}
  7
ＭＳ ゴシック
 73
     1
 44
0.7828267384257843
1001
ACAD
1000
ACAD_MTEXT_DEFINED_HEIGHT_BEGIN
1070
    46
1040
24.4326171875
1000
ACAD_MTEXT_DEFINED_HEIGHT_END
  0
DIMENSION
  5
401E
330
A
100
AcDbEntity
  8
DIM
  6
Continuous
100
AcDbDimension
  2
*D18
 10
155.2980832684102
 20
1183.023636892506
 30
0.0
 11
128.2980832684102
 21
1418.023636892506
 31
0.0
 70
    32
 71
     5
 42
470.0
 73
     0
 74
     0
 75
     0
  3
JIS
100
AcDbAlignedDimension
 13
212.5982153461264
 23
1653.023636892506
 33
0.0
 14
207.8489216738712
 24
1183.023636892506
 34
0.0
 50
90.0
100
AcDbRotatedDimension
1001
ACAD
1000
DSTYLE
1002
{
1070
   179
1070
     0
1070
    41
1040
6.0
1070
   271
1070
     0
1070
    43
1040
25.0
1070
    44
1040
0.0
1070
    42
1040
25.0
1070
   147
1040
15.0
1070
   140
1040
24.0
1002
}
  0
DIMENSION
  5
4020
102
{ACAD_REACTORS
330
4022
102
}
102
{ACAD_XDICTIONARY
360
4021
102
}
330
A
100
AcDbEntity
  8
DIM
  6
Continuous
100
AcDbDimension
  2
*D19
 10
155.2980832684102
 20
1168.343146710991
 30
0.0
 11
155.2980832684102
 21
1175.683391801749
 31
0.0
 70
   160
 71
     5
 42
14.6804901815151
 73
     0
 74
     0
 75
     0
  3
JIS
100
AcDbAlignedDimension
 13
187.5982153461264
 23
1183.023636892506
 33
0.0
 14
208.069168494831
 24
1168.343146710991
 34
0.0
 50
90.0
100
AcDbRotatedDimension
1001
ACAD
1000
DSTYLE
1002
{
1070
   179
1070
     0
1070
    41
1040
6.0
1070
   271
1070
     0
1070
    43
1040
25.0
1070
    44
1040
0.0
1070
    42
1040
25.0
1070
   147
1040
15.0
1070
   140
1040
24.0
1002
}
  0
DIMENSION
  5
4023
330
A
100
AcDbEntity
  8
DIM
  6
Continuous
100
AcDbDimension
  2
*D20
 10
1765.138423657905
 20
1203.023636892506
 30
0.0
 11
1738.138423657905
 21
985.5236368925063
 31
0.0
 70
    32
 71
     5
 42
434.9999999999998
 73
     0
 74
     0
 75
     0
  3
JIS
100
AcDbAlignedDimension
 13
1595.594751851499
 23
768.0236368925064
 33
0.0
 14
1595.594751851499
 24
1203.023636892506
 34
0.0
 50
90.0
100
AcDbRotatedDimension
1001
ACAD
1000
DSTYLE
1002
{
1070
   179
1070
     0
1070
    41
1040
6.0
1070
   271
1070
     0
1070
    43
1040
25.0
1070
    44
1040
0.0
1070
    42
1040
25.0
1070
   147
1040
15.0
1070
   140
1040
24.0
1002
}
  0
DIMENSION
  5
4024
330
A
100
AcDbEntity
  8
DIM
  6
Continuous
100
AcDbDimension
  2
*D21
 10
1838.276554827702
 20
1223.023636892506
 30
0.0
 11
1811.276554827702
 21
995.5236368925063
 31
0.0
 70
    32
 71
     5
 42
454.9999999999998
 73
     0
 74
     0
 75
     0
  3
JIS
100
AcDbAlignedDimension
 13
1595.594751851499
 23
768.0236368925064
 33
0.0
 14
1595.594751851499
 24
1223.023636892506
 34
0.0
 50
90.0
100
AcDbRotatedDimension
1001
ACAD
1000
DSTYLE
1002
{
1070
   179
1070
     0
1070
    41
1040
6.0
1070
   271
1070
     0
1070
    43
1040
25.0
1070
    44
1040
0.0
1070
    42
1040
25.0
1070
   147
1040
15.0
1070
   140
1040
24.0
1002
}
  0
DIMENSION
  5
4025
330
A
100
AcDbEntity
  8
DIM
  6
Continuous
100
AcDbDimension
  2
*D22
 10
1535.594751851499
 20
694.8893703055339
 30
0.0
 11
1410.594751851499
 21
721.8893703055339
 31
0.0
 70
    32
 71
     5
 42
250.0
 73
     0
 74
     0
 75
     0
  3
JIS
100
AcDbAlignedDimension
 13
1285.594751851499
 23
768.2660732346567
 33
0.0
 14
1535.594751851499
 24
768.2660732346567
 34
0.0
100
AcDbRotatedDimension
1001
ACAD
1000
DSTYLE
1002
{
1070
   179
1070
     0
1070
    41
1040
6.0
1070
   271
1070
     0
1070
    43
1040
25.0
1070
    44
1040
0.0
1070
    42
1040
25.0
1070
   147
1040
15.0
1070
   140
1040
24.0
1002
}
  0
LEADER
  5
4526
330
A
100
AcDbEntity
  8
DIM
  6
Continuous
100
AcDbLeader
  3
JIS
 76
     3
 10
1160.000365580953
 20
978.118500375009
 30
0.0
 10
1040.072234673513
 20
1277.050543488259
 30
0.0
 10
648.2486332414067
 20
1277.050543488259
 30
0.0
1001
ACAD
1000
DSTYLE
1002
{
1070
   179
1070
     0
1070
    41
1040
6.0
1070
   271
1070
     0
1070
    43
1040
25.0
1070
    44
1040
0.0
1070
    42
1040
25.0
1070
   147
1040
15.0
1070
   140
1040
24.0
1002
}
  0
MTEXT
  5
4527
330
A
100
AcDbEntity
  8
MODEL
390
1D
100
AcDbMText
 10
659.9294854060767
 20
1321.183604926965
 30
0.0
 40
24.4326171875
 41
0.0
 46
24.4326171875
 71
     1
 72
     1
  1
{センソウォッシュ給水位置}
  7
ＭＳ ゴシック
 73
     1
 44
0.7828267384257843
1001
ACAD
1000
ACAD_MTEXT_DEFINED_HEIGHT_BEGIN
1070
    46
1040
24.4326171875
1000
ACAD_MTEXT_DEFINED_HEIGHT_END
  0
LINE
  5
555A
330
A
100
AcDbEntity
  8
MODEL
  6
Continuous
100
AcDbLine
 10
1198.999965468168
 20
1162.580258695891
 30
0.0
 11
1210.265725468177
 21
1162.580258695891
 31
0.0
  0
LINE
  5
555B
330
A
100
AcDbEntity
  8
MODEL
  6
Continuous
100
AcDbLine
 10
1197.632845468172
 20
1134.772688695891
 30
0.0
 11
1197.632845468172
 21
1142.722898695891
 31
0.0
  0
LINE
  5
555C
330
A
100
AcDbEntity
  8
MODEL
  6
Continuous
100
AcDbLine
 10
1211.632845468172
 20
1134.757868695891
 30
0.0
 11
1211.632845468172
 21
1142.722898695891
 31
0.0
  0
LWPOLYLINE
  5
555D
330
A
100
AcDbEntity
  8
MODEL
  6
Continuous
100
AcDbPolyline
 90
       15
 70
     0
 43
0.0
 10
1210.265725468177
 20
1162.580258695891
 10
1210.800525468171
 20
1162.508878695892
 10
1211.335325468165
 20
1162.330748695891
 10
1211.798755468169
 20
1162.045458695892
 10
1212.226595468172
 20
1161.724578695892
 10
1212.583055468175
 20
1161.296928695891
 10
1212.832565468177
 20
1160.833308695891
 10
1213.010895468172
 20
1160.298708695891
 10
1213.082075468171
 20
1159.763908695891
 10
1213.046485468171
 20
1159.229108695892
 10
1212.939525468167
 20
1158.694308695891
 10
1212.725605468172
 20
1158.195298695891
 10
1212.404725468173
 20
1157.731868695891
 10
1212.048255468174
 20
1157.375208695892
 10
1211.584835468174
 20
1157.054328695891
  0
LWPOLYLINE
  5
555E
330
A
100
AcDbEntity
  8
MODEL
  6
Continuous
100
AcDbPolyline
 90
       15
 70
     0
 43
0.0
 10
1198.999965468168
 20
1162.580258695891
 10
1198.465165468167
 20
1162.508878695892
 10
1197.930365468173
 20
1162.330748695891
 10
1197.466935468169
 20
1162.045458695892
 10
1197.039095468172
 20
1161.724578695892
 10
1196.682635468177
 20
1161.296928695891
 10
1196.433125468168
 20
1160.833308695891
 10
1196.254795468173
 20
1160.298708695891
 10
1196.183615468174
 20
1159.763908695891
 10
1196.219205468166
 20
1159.229108695892
 10
1196.326165468178
 20
1158.694308695891
 10
1196.540085468173
 20
1158.195298695891
 10
1196.860965468172
 20
1157.731868695891
 10
1197.217425468168
 20
1157.375208695892
 10
1197.680855468171
 20
1157.054328695891
  0
LINE
  5
555F
330
A
100
AcDbEntity
  8
MODEL
  6
Continuous
100
AcDbLine
 10
1198.607905468177
 20
1136.911878695891
 30
0.0
 11
1197.632845468172
 21
1137.968048695891
 31
0.0
  0
LINE
  5
5560
330
A
100
AcDbEntity
  8
MODEL
  6
Continuous
100
AcDbLine
 10
1200.746905468172
 20
1136.911878695891
 30
0.0
 11
1197.632845468172
 21
1140.069118695891
 31
0.0
  0
LINE
  5
5561
330
A
100
AcDbEntity
  8
MODEL
  6
Continuous
100
AcDbLine
 10
1202.885905468175
 20
1136.911878695891
 30
0.0
 11
1199.677305468177
 21
1140.120278695891
 31
0.0
  0
LINE
  5
5562
330
A
100
AcDbEntity
  8
MODEL
  6
Continuous
100
AcDbLine
 10
1198.607905468177
 20
1141.189878695891
 30
0.0
 11
1197.632845468172
 21
1142.246048695891
 31
0.0
  0
LINE
  5
5563
330
A
100
AcDbEntity
  8
MODEL
  6
Continuous
100
AcDbLine
 10
1205.045295468169
 20
1136.932538695891
 30
0.0
 11
1201.816305468173
 21
1140.120278695891
 31
0.0
  0
LINE
  5
5564
330
A
100
AcDbEntity
  8
MODEL
  6
Continuous
100
AcDbLine
 10
1200.746905468172
 20
1141.189878695891
 30
0.0
 11
1199.249465468173
 21
1142.722898695891
 31
0.0
  0
LINE
  5
5565
330
A
100
AcDbEntity
  8
MODEL
  6
Continuous
100
AcDbLine
 10
1204.632845468172
 20
1139.478718695891
 30
0.0
 11
1203.955495468174
 21
1140.120278695891
 31
0.0
  0
LINE
  5
5566
330
A
100
AcDbEntity
  8
MODEL
  6
Continuous
100
AcDbLine
 10
1202.885905468175
 20
1141.189878695891
 30
0.0
 11
1201.388465468169
 21
1142.722898695891
 31
0.0
  0
LINE
  5
5567
330
A
100
AcDbEntity
  8
MODEL
  6
Continuous
100
AcDbLine
 10
1205.042795468174
 20
1141.207768695891
 30
0.0
 11
1203.52765546817
 21
1142.722898695891
 31
0.0
  0
LINE
  5
5568
330
A
100
AcDbEntity
  8
MODEL
  6
Continuous
100
AcDbLine
 10
1206.079675468173
 20
1142.244648695891
 30
0.0
 11
1202.885905468175
 21
1139.050878695891
 31
0.0
  0
LINE
  5
5569
330
A
100
AcDbEntity
  8
MODEL
  6
Continuous
100
AcDbLine
 10
1203.973295468176
 20
1142.277268695891
 30
0.0
 11
1200.746905468172
 21
1139.050878695891
 31
0.0
  0
LINE
  5
556A
330
A
100
AcDbEntity
  8
MODEL
  6
Continuous
100
AcDbLine
 10
1201.816305468173
 20
1142.259478695891
 30
0.0
 11
1198.607905468177
 21
1139.050878695891
 31
0.0
  0
LINE
  5
556B
330
A
100
AcDbEntity
  8
MODEL
  6
Continuous
100
AcDbLine
 10
1199.677305468177
 20
1142.259478695891
 30
0.0
 11
1197.632845468172
 21
1140.214748695892
 31
0.0
  0
LINE
  5
556C
330
A
100
AcDbEntity
  8
MODEL
  6
Continuous
100
AcDbLine
 10
1196.183615468174
 20
1142.722898695891
 30
0.0
 11
1204.632845468172
 21
1142.722898695891
 31
0.0
  0
LWPOLYLINE
  5
556D
330
A
100
AcDbEntity
  8
MODEL
  6
Continuous
100
AcDbPolyline
 90
        4
 70
     0
 43
0.0
 10
1196.183615468174
 20
1142.722898695891
 10
1196.183615468174
 20
1144.434058695891
 10
1197.680855468171
 20
1147.286188695891
 10
1197.680855468171
 20
1157.018738695891
  0
LWPOLYLINE
  5
556E
330
A
100
AcDbEntity
  8
MODEL
  6
Continuous
100
AcDbPolyline
 90
        4
 70
     1
 43
0.0
 10
1198.786045468173
 20
1157.018738695891
 10
1198.786045468173
 20
1147.286188695891
 10
1201.174745468176
 20
1147.286188695891
 10
1201.174745468176
 20
1157.018738695891
  0
LWPOLYLINE
  5
556F
330
A
100
AcDbEntity
  8
MODEL
  6
Continuous
100
AcDbPolyline
 90
        4
 70
     0
 43
0.0
 10
1204.632845468172
 20
1157.018738695891
 10
1202.81453546817
 20
1157.018738695891
 10
1202.81453546817
 20
1147.286188695891
 10
1204.632845468172
 20
1147.286188695891
  0
LWPOLYLINE
  5
5570
330
A
100
AcDbEntity
  8
MODEL
  6
Continuous
100
AcDbPolyline
 90
        4
 70
     0
 43
0.0
 10
1213.082075468171
 20
1142.722898695891
 10
1213.082075468171
 20
1144.434058695891
 10
1211.584835468174
 20
1147.286188695891
 10
1211.584835468174
 20
1157.018738695891
  0
LWPOLYLINE
  5
5571
330
A
100
AcDbEntity
  8
MODEL
  6
Continuous
100
AcDbPolyline
 90
        4
 70
     1
 43
0.0
 10
1210.479645468172
 20
1157.018738695891
 10
1210.479645468172
 20
1147.286188695891
 10
1208.090945468176
 20
1147.286188695891
 10
1208.090945468176
 20
1157.018738695891
  0
LWPOLYLINE
  5
5572
330
A
100
AcDbEntity
  8
MODEL
  6
Continuous
100
AcDbPolyline
 90
        4
 70
     0
 43
0.0
 10
1204.632845468172
 20
1157.018738695891
 10
1206.451155468175
 20
1157.018738695891
 10
1206.451155468175
 20
1147.286188695891
 10
1204.632845468172
 20
1147.286188695891
  0
LINE
  5
5573
330
A
100
AcDbEntity
  8
MODEL
  6
Continuous
100
AcDbLine
 10
1213.082075468171
 20
1142.722898695891
 30
0.0
 11
1204.632845468172
 21
1142.722898695891
 31
0.0
  0
LINE
  5
5574
330
A
100
AcDbEntity
  8
MODEL
  6
Continuous
100
AcDbLine
 10
1207.142005468174
 20
1136.889598695891
 30
0.0
 11
1204.632845468172
 21
1139.433548695891
 31
0.0
  0
LINE
  5
5575
330
A
100
AcDbEntity
  8
MODEL
  6
Continuous
100
AcDbLine
 10
1210.378455468178
 20
1137.986918695891
 30
0.0
 11
1208.225545468174
 21
1140.112328695891
 31
0.0
  0
LINE
  5
5576
330
A
100
AcDbEntity
  8
MODEL
  6
Continuous
100
AcDbLine
 10
1207.136715468173
 20
1141.16249869589
 30
0.0
 11
1205.612525468176
 21
1142.722898695891
 31
0.0
  0
LINE
  5
5577
330
A
100
AcDbEntity
  8
MODEL
  6
Continuous
100
AcDbLine
 10
1208.218775468174
 20
1142.244558695892
 30
0.0
 11
1207.751525468172
 21
1142.722898695891
 31
0.0
  0
LINE
  5
5578
330
A
100
AcDbEntity
  8
MODEL
  6
Continuous
100
AcDbLine
 10
1210.836115468171
 20
1142.722898695891
 30
0.0
 11
1207.149235468177
 21
1139.036028695891
 31
0.0
  0
LINE
  5
5579
330
A
100
AcDbEntity
  8
MODEL
  6
Continuous
100
AcDbLine
 10
1208.697115468175
 20
1142.722898695891
 30
0.0
 11
1205.054015468174
 21
1139.079798695891
 31
0.0
  0
LINE
  5
557A
330
A
100
AcDbEntity
  8
MODEL
  6
Continuous
100
AcDbLine
 10
1203.969155468171
 20
1137.994938695891
 30
0.0
 11
1203.465715468171
 21
1137.491498695892
 31
0.0
  0
LINE
  5
557B
330
A
100
AcDbEntity
  8
MODEL
  6
Continuous
100
AcDbLine
 10
1211.632845468172
 20
1138.954328695892
 30
0.0
 11
1210.386885468172
 21
1140.134478695892
 31
0.0
  0
LINE
  5
557C
330
A
100
AcDbEntity
  8
MODEL
  6
Continuous
100
AcDbLine
 10
1209.288365468173
 20
1141.174958695891
 30
0.0
 11
1208.226135468177
 21
1142.251918695891
 31
0.0
  0
LINE
  5
557D
330
A
100
AcDbEntity
  8
MODEL
  6
Continuous
100
AcDbLine
 10
1211.632845468172
 20
1139.241388695891
 30
0.0
 11
1209.288495468173
 21
1136.896898695891
 31
0.0
  0
LINE
  5
557E
330
A
100
AcDbEntity
  8
MODEL
  6
Continuous
100
AcDbLine
 10
1211.632845468172
 20
1141.380438695891
 30
0.0
 11
1209.302015468174
 21
1139.049608695891
 31
0.0
  0
LINE
  5
557F
330
A
100
AcDbEntity
  8
MODEL
  6
Continuous
100
AcDbLine
 10
1211.632845468172
 20
1140.939908695891
 30
0.0
 11
1210.343045468174
 21
1142.229638695891
 31
0.0
  0
LINE
  5
5580
330
A
100
AcDbEntity
  8
MODEL
  6
Continuous
100
AcDbLine
 10
1209.288395468168
 20
1136.896988695892
 30
0.0
 11
1206.079705468169
 21
1140.105488695892
 31
0.0
  0
LINE
  5
5581
330
A
100
AcDbEntity
  8
MODEL
  6
Continuous
100
AcDbLine
 10
1211.632845468172
 20
1136.661838695892
 30
0.0
 11
1210.343045468174
 21
1137.951638695891
 31
0.0
  0
LINE
  5
5582
330
A
100
AcDbEntity
  8
MODEL
  6
Continuous
100
AcDbLine
 10
1211.632845468172
 20
1137.102608695891
 30
0.0
 11
1209.288415468168
 21
1134.757868695891
 31
0.0
  0
LINE
  5
5583
330
A
100
AcDbEntity
  8
MODEL
  6
Continuous
100
AcDbLine
 10
1208.218865468168
 20
1137.966458695891
 30
0.0
 11
1205.010275468173
 21
1134.757868695891
 31
0.0
  0
LINE
  5
5584
330
A
100
AcDbEntity
  8
MODEL
  6
Continuous
100
AcDbLine
 10
1209.965715468171
 20
1137.574308695892
 30
0.0
 11
1207.149275468169
 21
1134.757868695891
 31
0.0
  0
LINE
  5
5585
330
A
100
AcDbEntity
  8
MODEL
  6
Continuous
100
AcDbLine
 10
1199.677305468177
 20
1137.981278695892
 30
0.0
 11
1197.632845468172
 21
1135.936818695891
 31
0.0
  0
LINE
  5
5586
330
A
100
AcDbEntity
  8
MODEL
  6
Continuous
100
AcDbLine
 10
1201.816305468173
 20
1137.981278695892
 30
0.0
 11
1198.607905468177
 21
1134.772688695891
 31
0.0
  0
LINE
  5
5587
330
A
100
AcDbEntity
  8
MODEL
  6
Continuous
100
AcDbLine
 10
1203.955495468174
 20
1137.981278695892
 30
0.0
 11
1200.746905468172
 21
1134.772688695891
 31
0.0
  0
LINE
  5
5588
330
A
100
AcDbEntity
  8
MODEL
  6
Continuous
100
AcDbLine
 10
1206.079775468163
 20
1137.966558695891
 30
0.0
 11
1202.885905468175
 21
1134.772688695891
 31
0.0
  0
ARC
  5
558A
330
A
100
AcDbEntity
  8
MODEL
  6
Continuous
100
AcDbCircle
 10
1212.632845468172
 20
1185.580258695892
 30
0.0
 40
3.0
100
AcDbArc
 50
90.0
 51
180.0
  0
ARC
  5
558B
330
A
100
AcDbEntity
  8
MODEL
  6
Continuous
100
AcDbCircle
 10
1204.632845468172
 20
1193.580258695891
 30
0.0
 40
5.0
100
AcDbArc
 50
90.0
 51
180.0
  0
LINE
  5
558C
330
A
100
AcDbEntity
  8
MODEL
  6
Continuous
100
AcDbLine
 10
1209.632845468172
 20
1162.580258695891
 30
0.0
 11
1209.632845468172
 21
1185.580258695892
 31
0.0
  0
LINE
  5
558D
330
A
100
AcDbEntity
  8
MODEL
  6
Continuous
100
AcDbLine
 10
1199.632845468172
 20
1162.580258695891
 30
0.0
 11
1209.632845468172
 21
1162.580258695891
 31
0.0
  0
LINE
  5
558E
330
A
100
AcDbEntity
  8
MODEL
  6
Continuous
100
AcDbLine
 10
1199.632845468172
 20
1193.580258695891
 30
0.0
 11
1199.632845468172
 21
1162.580258695891
 31
0.0
  0
LINE
  5
558F
330
A
100
AcDbEntity
  8
MODEL
  6
Continuous
100
AcDbLine
 10
1225.632845468172
 20
1198.580258695891
 30
0.0
 11
1204.632845468172
 21
1198.580258695891
 31
0.0
  0
LINE
  5
5590
330
A
100
AcDbEntity
  8
MODEL
  6
Continuous
100
AcDbLine
 10
1212.632845468172
 20
1188.580258695891
 30
0.0
 11
1225.632845468172
 21
1188.580258695891
 31
0.0
  0
CIRCLE
  5
5645
330
A
100
AcDbEntity
  8
MODEL
  6
Continuous
100
AcDbCircle
 10
1160.000365580953
 20
978.118500375009
 30
0.0
 40
11.76264736831058
  0
LINE
  5
5681
330
A
100
AcDbEntity
  8
MODEL
  6
CENTER2
100
AcDbLine
 10
1204.632845468172
 20
1182.701593806612
 30
0.0
 11
1204.632845468172
 21
1030.866988695891
 31
0.0
  0
LINE
  5
6023
330
A
100
AcDbEntity
  8
MODEL
  6
CENTER2
100
AcDbLine
 10
443.3283343052548
 20
1177.530819851214
 30
0.0
 11
443.3283343052548
 21
1078.023636892506
 31
0.0
  0
LINE
  5
6024
330
A
100
AcDbEntity
  8
MODEL
  6
Continuous
100
AcDbLine
 10
444.8973890507746
 20
1148.173343161883
 30
0.0
 11
441.7035190507863
 21
1144.979473161883
 31
0.0
  0
LINE
  5
6025
330
A
100
AcDbEntity
  8
MODEL
  6
Continuous
100
AcDbLine
 10
442.7731090507854
 20
1148.188063161883
 30
0.0
 11
439.5645190507834
 21
1144.979473161883
 31
0.0
  0
LINE
  5
6026
330
A
100
AcDbEntity
  8
MODEL
  6
Continuous
100
AcDbLine
 10
440.6339190507838
 20
1148.188063161883
 30
0.0
 11
437.425519050788
 21
1144.979473161883
 31
0.0
  0
LINE
  5
6027
330
A
100
AcDbEntity
  8
MODEL
  6
Continuous
100
AcDbLine
 10
438.4949190507882
 20
1148.188063161883
 30
0.0
 11
436.4504590507836
 21
1146.143603161882
 31
0.0
  0
LINE
  5
6028
330
A
100
AcDbEntity
  8
MODEL
  6
Continuous
100
AcDbLine
 10
448.783329050782
 20
1147.781093161883
 30
0.0
 11
445.9668890507796
 21
1144.964653161883
 31
0.0
  0
LINE
  5
6029
330
A
100
AcDbEntity
  8
MODEL
  6
Continuous
100
AcDbLine
 10
447.0364790507787
 20
1148.173243161883
 30
0.0
 11
443.8278890507841
 21
1144.964653161883
 31
0.0
  0
LINE
  5
602A
330
A
100
AcDbEntity
  8
MODEL
  6
Continuous
100
AcDbLine
 10
450.4504590507836
 20
1147.309393161882
 30
0.0
 11
448.1060290507789
 21
1144.964653161883
 31
0.0
  0
LINE
  5
602B
330
A
100
AcDbEntity
  8
MODEL
  6
Continuous
100
AcDbLine
 10
450.4504590507836
 20
1146.868623161884
 30
0.0
 11
449.1606590507849
 21
1148.158423161883
 31
0.0
  0
LINE
  5
602C
330
A
100
AcDbEntity
  8
MODEL
  6
Continuous
100
AcDbLine
 10
448.1060090507794
 20
1147.103773161883
 30
0.0
 11
444.8973190507799
 21
1150.312273161883
 31
0.0
  0
LINE
  5
602D
330
A
100
AcDbEntity
  8
MODEL
  6
Continuous
100
AcDbLine
 10
450.4504590507836
 20
1151.146693161882
 30
0.0
 11
449.1606590507849
 21
1152.436423161883
 31
0.0
  0
LINE
  5
602E
330
A
100
AcDbEntity
  8
MODEL
  6
Continuous
100
AcDbLine
 10
450.4504590507836
 20
1151.587223161882
 30
0.0
 11
448.1196290507846
 21
1149.256393161882
 31
0.0
  0
LINE
  5
602F
330
A
100
AcDbEntity
  8
MODEL
  6
Continuous
100
AcDbLine
 10
450.4504590507836
 20
1149.448173161882
 30
0.0
 11
448.1061090507842
 21
1147.103683161883
 31
0.0
  0
LINE
  5
6030
330
A
100
AcDbEntity
  8
MODEL
  6
Continuous
100
AcDbLine
 10
448.1059790507838
 20
1151.381743161883
 30
0.0
 11
447.0437490507879
 21
1152.458703161883
 31
0.0
  0
LINE
  5
6031
330
A
100
AcDbEntity
  8
MODEL
  6
Continuous
100
AcDbLine
 10
450.4504590507836
 20
1149.161113161884
 30
0.0
 11
449.2044990507835
 21
1150.341263161884
 31
0.0
  0
LINE
  5
6032
330
A
100
AcDbEntity
  8
MODEL
  6
Continuous
100
AcDbLine
 10
442.7867690507824
 20
1148.201723161883
 30
0.0
 11
442.283329050782
 21
1147.698283161883
 31
0.0
  0
LINE
  5
6033
330
A
100
AcDbEntity
  8
MODEL
  6
Continuous
100
AcDbLine
 10
447.5147290507861
 20
1152.929683161883
 30
0.0
 11
443.871629050785
 21
1149.286583161883
 31
0.0
  0
LINE
  5
6034
330
A
100
AcDbEntity
  8
MODEL
  6
Continuous
100
AcDbLine
 10
449.6537290507817
 20
1152.929683161883
 30
0.0
 11
445.9668490507734
 21
1149.242813161883
 31
0.0
  0
LINE
  5
6035
330
A
100
AcDbEntity
  8
MODEL
  6
Continuous
100
AcDbLine
 10
447.0363790507813
 20
1152.451343161883
 30
0.0
 11
446.5691390507831
 21
1152.929683161883
 31
0.0
  0
LINE
  5
6036
330
A
100
AcDbEntity
  8
MODEL
  6
Continuous
100
AcDbLine
 10
445.9543290507767
 20
1151.369283161882
 30
0.0
 11
444.4301390507876
 21
1152.929683161883
 31
0.0
  0
LINE
  5
6037
330
A
100
AcDbEntity
  8
MODEL
  6
Continuous
100
AcDbLine
 10
449.196069050789
 20
1148.193703161883
 30
0.0
 11
447.0431590507847
 21
1150.319113161882
 31
0.0
  0
LINE
  5
6038
330
A
100
AcDbEntity
  8
MODEL
  6
Continuous
100
AcDbLine
 10
445.959619050785
 20
1147.096383161883
 30
0.0
 11
443.4504590507836
 21
1149.640333161883
 31
0.0
  0
LINE
  5
6039
330
A
100
AcDbEntity
  8
MODEL
  6
Continuous
100
AcDbLine
 10
451.8996890507819
 20
1152.929683161883
 30
0.0
 11
443.4504590507836
 21
1152.929683161883
 31
0.0
  0
LWPOLYLINE
  5
603A
330
A
100
AcDbEntity
  8
MODEL
  6
Continuous
100
AcDbPolyline
 90
        4
 70
     0
 43
0.0
 10
443.4504590507836
 20
1167.225523161883
 10
445.2687690507859
 20
1167.225523161883
 10
445.2687690507859
 20
1157.492973161883
 10
443.4504590507836
 20
1157.492973161883
  0
LWPOLYLINE
  5
603B
330
A
100
AcDbEntity
  8
MODEL
  6
Continuous
100
AcDbPolyline
 90
        4
 70
     1
 43
0.0
 10
449.2972590507829
 20
1167.225523161883
 10
449.2972590507829
 20
1157.492973161883
 10
446.9085590507871
 20
1157.492973161883
 10
446.9085590507871
 20
1167.225523161883
  0
LWPOLYLINE
  5
603C
330
A
100
AcDbEntity
  8
MODEL
  6
Continuous
100
AcDbPolyline
 90
        4
 70
     0
 43
0.0
 10
451.8996890507819
 20
1152.929683161883
 10
451.8996890507819
 20
1154.640843161883
 10
450.4024490507849
 20
1157.492973161883
 10
450.4024490507849
 20
1167.225523161883
  0
LWPOLYLINE
  5
603D
330
A
100
AcDbEntity
  8
MODEL
  6
Continuous
100
AcDbPolyline
 90
        4
 70
     0
 43
0.0
 10
443.4504590507836
 20
1167.225523161883
 10
441.6321490507812
 20
1167.225523161883
 10
441.6321490507812
 20
1157.492973161883
 10
443.4504590507836
 20
1157.492973161883
  0
LWPOLYLINE
  5
603E
330
A
100
AcDbEntity
  8
MODEL
  6
Continuous
100
AcDbPolyline
 90
        4
 70
     1
 43
0.0
 10
437.603659050777
 20
1167.225523161883
 10
437.603659050777
 20
1157.492973161883
 10
439.9923590507874
 20
1157.492973161883
 10
439.9923590507874
 20
1167.225523161883
  0
LWPOLYLINE
  5
603F
330
A
100
AcDbEntity
  8
MODEL
  6
Continuous
100
AcDbPolyline
 90
        4
 70
     0
 43
0.0
 10
435.0012290507852
 20
1152.929683161883
 10
435.0012290507852
 20
1154.640843161883
 10
436.4984690507822
 20
1157.492973161883
 10
436.4984690507822
 20
1167.225523161883
  0
LINE
  5
6040
330
A
100
AcDbEntity
  8
MODEL
  6
Continuous
100
AcDbLine
 10
435.0012290507852
 20
1152.929683161883
 30
0.0
 11
443.4504590507836
 21
1152.929683161883
 31
0.0
  0
LINE
  5
6041
330
A
100
AcDbEntity
  8
MODEL
  6
Continuous
100
AcDbLine
 10
438.4949190507882
 20
1152.466263161883
 30
0.0
 11
436.4504590507836
 21
1150.421533161883
 31
0.0
  0
LINE
  5
6042
330
A
100
AcDbEntity
  8
MODEL
  6
Continuous
100
AcDbLine
 10
440.6339190507838
 20
1152.466263161883
 30
0.0
 11
437.425519050788
 21
1149.257663161883
 31
0.0
  0
LINE
  5
6043
330
A
100
AcDbEntity
  8
MODEL
  6
Continuous
100
AcDbLine
 10
442.7909090507869
 20
1152.484053161883
 30
0.0
 11
439.5645190507834
 21
1149.257663161883
 31
0.0
  0
LINE
  5
6044
330
A
100
AcDbEntity
  8
MODEL
  6
Continuous
100
AcDbLine
 10
444.8972890507844
 20
1152.451433161883
 30
0.0
 11
441.7035190507863
 21
1149.257663161883
 31
0.0
  0
LINE
  5
6045
330
A
100
AcDbEntity
  8
MODEL
  6
Continuous
100
AcDbLine
 10
443.8604090507847
 20
1151.414553161882
 30
0.0
 11
442.3452690507816
 21
1152.929683161883
 31
0.0
  0
LINE
  5
6046
330
A
100
AcDbEntity
  8
MODEL
  6
Continuous
100
AcDbLine
 10
441.7035190507863
 20
1151.396663161882
 30
0.0
 11
440.2060790507799
 21
1152.929683161883
 31
0.0
  0
LINE
  5
6047
330
A
100
AcDbEntity
  8
MODEL
  6
Continuous
100
AcDbLine
 10
443.4504590507836
 20
1149.685503161882
 30
0.0
 11
442.7731090507854
 21
1150.327063161882
 31
0.0
  0
LINE
  5
6048
330
A
100
AcDbEntity
  8
MODEL
  6
Continuous
100
AcDbLine
 10
439.5645190507834
 20
1151.396663161882
 30
0.0
 11
438.0670790507843
 21
1152.929683161883
 31
0.0
  0
LINE
  5
6049
330
A
100
AcDbEntity
  8
MODEL
  6
Continuous
100
AcDbLine
 10
443.8629090507798
 20
1147.139323161883
 30
0.0
 11
440.6339190507838
 21
1150.327063161882
 31
0.0
  0
LINE
  5
604A
330
A
100
AcDbEntity
  8
MODEL
  6
Continuous
100
AcDbLine
 10
437.425519050788
 20
1151.396663161882
 30
0.0
 11
436.4504590507836
 21
1152.452833161883
 31
0.0
  0
LINE
  5
604B
330
A
100
AcDbEntity
  8
MODEL
  6
Continuous
100
AcDbLine
 10
441.7035190507863
 20
1147.118663161883
 30
0.0
 11
438.4949190507882
 21
1150.327063161882
 31
0.0
  0
LINE
  5
604C
330
A
100
AcDbEntity
  8
MODEL
  6
Continuous
100
AcDbLine
 10
439.5645190507834
 20
1147.118663161883
 30
0.0
 11
436.4504590507836
 21
1150.275903161882
 31
0.0
  0
LINE
  5
604D
330
A
100
AcDbEntity
  8
MODEL
  6
Continuous
100
AcDbLine
 10
437.425519050788
 20
1147.118663161883
 30
0.0
 11
436.4504590507836
 21
1148.174833161883
 31
0.0
  0
LWPOLYLINE
  5
604E
330
A
100
AcDbEntity
  8
MODEL
  6
Continuous
100
AcDbPolyline
 90
       15
 70
     0
 43
0.0
 10
437.8175790507789
 20
1172.787043161883
 10
437.2827790507777
 20
1172.715663161884
 10
436.7479790507836
 20
1172.537533161882
 10
436.2845490507802
 20
1172.252243161884
 10
435.8567090507836
 20
1171.931363161883
 10
435.5002490507736
 20
1171.503713161883
 10
435.2507390507794
 20
1171.040093161882
 10
435.0724090507842
 20
1170.505493161882
 10
435.0012290507852
 20
1169.970693161883
 10
435.0368190507775
 20
1169.435893161883
 10
435.1437790507894
 20
1168.901093161882
 10
435.3576990507767
 20
1168.402083161883
 10
435.6785790507834
 20
1167.938653161883
 10
436.0350390507787
 20
1167.581993161883
 10
436.4984690507822
 20
1167.261113161882
  0
LWPOLYLINE
  5
604F
330
A
100
AcDbEntity
  8
MODEL
  6
Continuous
100
AcDbPolyline
 90
       15
 70
     0
 43
0.0
 10
449.0833390507883
 20
1172.787043161883
 10
449.6181390507822
 20
1172.715663161884
 10
450.1529390507762
 20
1172.537533161882
 10
450.6163690507797
 20
1172.252243161884
 10
451.0442090507836
 20
1171.931363161883
 10
451.4006690507863
 20
1171.503713161883
 10
451.6501790507878
 20
1171.040093161882
 10
451.8285090507829
 20
1170.505493161882
 10
451.8996890507819
 20
1169.970693161883
 10
451.8640990507824
 20
1169.435893161883
 10
451.7571390507778
 20
1168.901093161882
 10
451.5432190507831
 20
1168.402083161883
 10
451.2223390507838
 20
1167.938653161883
 10
450.865869050785
 20
1167.581993161883
 10
450.4024490507849
 20
1167.261113161882
  0
LINE
  5
6050
330
A
100
AcDbEntity
  8
MODEL
  6
Continuous
100
AcDbLine
 10
450.4504590507836
 20
1144.964653161883
 30
0.0
 11
450.4504590507836
 21
1152.929683161883
 31
0.0
  0
LINE
  5
6051
330
A
100
AcDbEntity
  8
MODEL
  6
Continuous
100
AcDbLine
 10
436.4504590507836
 20
1144.979473161883
 30
0.0
 11
436.4504590507836
 21
1152.929683161883
 31
0.0
  0
ARC
  5
6052
330
A
100
AcDbEntity
  8
MODEL
  6
Continuous
100
AcDbCircle
 10
440.4504590507836
 20
1196.787043161882
 30
0.0
 40
2.0
100
AcDbArc
 50
90.0
 51
180.0
  0
ARC
  5
6053
330
A
100
AcDbEntity
  8
MODEL
  6
Continuous
100
AcDbCircle
 10
446.4504590507836
 20
1196.787043161882
 30
0.0
 40
2.0
100
AcDbArc
 50
0.0
 51
90.0
  0
LINE
  5
6054
330
A
100
AcDbEntity
  8
MODEL
  6
Continuous
100
AcDbLine
 10
438.4504590507836
 20
1196.787043161882
 30
0.0
 11
438.4504590507836
 21
1172.787043161883
 31
0.0
  0
LINE
  5
6055
330
A
100
AcDbEntity
  8
MODEL
  6
Continuous
100
AcDbLine
 10
446.4504590507836
 20
1198.787043161883
 30
0.0
 11
440.4504590507836
 21
1198.787043161883
 31
0.0
  0
LINE
  5
6056
330
A
100
AcDbEntity
  8
MODEL
  6
Continuous
100
AcDbLine
 10
448.4504590507836
 20
1172.787043161883
 30
0.0
 11
448.4504590507836
 21
1196.787043161882
 31
0.0
  0
LINE
  5
6057
330
A
100
AcDbEntity
  8
MODEL
  6
Continuous
100
AcDbLine
 10
437.8175790507789
 20
1172.787043161883
 30
0.0
 11
449.0833390507883
 21
1172.787043161883
 31
0.0
  0
ARC
  5
6058
330
A
100
AcDbEntity
  8
MODEL
  6
Continuous
100
AcDbCircle
 10
443.4504590507836
 20
1193.787043161883
 30
0.0
 40
8.25
100
AcDbArc
 50
307.3052010000197
 51
232.6947990000217
  0
ARC
  5
6059
330
A
100
AcDbEntity
  8
MODEL
  6
Continuous
100
AcDbCircle
 10
436.9504590507836
 20
1197.539813161883
 30
0.0
 40
5.0
100
AcDbArc
 50
119.9999999999999
 51
180.0
  0
ARC
  5
605A
330
A
100
AcDbEntity
  8
MODEL
  6
Continuous
100
AcDbCircle
 10
436.9504590507836
 20
1190.034263161883
 30
0.0
 40
5.0
100
AcDbArc
 50
180.0
 51
240.0000000000001
  0
ARC
  5
605B
330
A
100
AcDbEntity
  8
MODEL
  6
Continuous
100
AcDbCircle
 10
449.9504590507836
 20
1190.034263161883
 30
0.0
 40
5.0
100
AcDbArc
 50
299.9999999999994
 51
0.0
  0
ARC
  5
605C
330
A
100
AcDbEntity
  8
MODEL
  6
Continuous
100
AcDbCircle
 10
449.9504590507836
 20
1197.539813161883
 30
0.0
 40
5.0
100
AcDbArc
 50
0.0
 51
60.00000000000067
  0
ARC
  5
605D
330
A
100
AcDbEntity
  8
MODEL
  6
Continuous
100
AcDbCircle
 10
443.4504590507836
 20
1201.292593161883
 30
0.0
 40
5.0
100
AcDbArc
 50
60.00000000000067
 51
119.9999999999999
  0
LINE
  5
605E
330
A
100
AcDbEntity
  8
MODEL
  6
Continuous
100
AcDbLine
 10
452.4504590507836
 20
1201.869943161882
 30
0.0
 11
445.9504590507836
 21
1205.622723161883
 31
0.0
  0
LINE
  5
605F
330
A
100
AcDbEntity
  8
MODEL
  6
Continuous
100
AcDbLine
 10
454.9504590507836
 20
1190.034263161883
 30
0.0
 11
454.9504590507836
 21
1197.539813161883
 31
0.0
  0
LINE
  5
6060
330
A
100
AcDbEntity
  8
MODEL
  6
Continuous
100
AcDbLine
 10
448.4504590507836
 20
1183.394733161883
 30
0.0
 11
452.4504590507836
 21
1185.704133161883
 31
0.0
  0
LINE
  5
6061
330
A
100
AcDbEntity
  8
MODEL
  6
Continuous
100
AcDbLine
 10
434.4504590507836
 20
1185.704133161883
 30
0.0
 11
438.4504590507836
 21
1183.394733161883
 31
0.0
  0
LINE
  5
6062
330
A
100
AcDbEntity
  8
MODEL
  6
Continuous
100
AcDbLine
 10
431.9504590507836
 20
1197.539813161883
 30
0.0
 11
431.9504590507836
 21
1190.034263161883
 31
0.0
  0
LINE
  5
6063
330
A
100
AcDbEntity
  8
MODEL
  6
Continuous
100
AcDbLine
 10
440.9504590507836
 20
1205.622723161883
 30
0.0
 11
434.4504590507836
 21
1201.869943161882
 31
0.0
  0
LINE
  5
60EA
330
A
100
AcDbEntity
  8
MODEL
  6
CENTER2
100
AcDbLine
 10
343.3283343052547
 20
978.0236368925061
 30
0.0
 11
207.8489216738712
 21
978.0236368925061
 31
0.0
  0
ARC
  5
61AC
330
A
100
AcDbEntity
  8
MODEL
  6
CENTER2
100
AcDbCircle
 10
343.3283343052547
 20
1078.023636892506
 30
0.0
 40
100.0
100
AcDbArc
 50
270.0
 51
0.0
  0
SPLINE
  5
8BD9
330
A
100
AcDbEntity
  8
MODEL
  6
CENTER2
100
AcDbSpline
210
0.0
220
0.0
230
1.0
 70
  1064
 71
     3
 72
    10
 73
     6
 74
     4
 42
0.000000001
 43
0.0000000001
 44
0.0
 40
0.0
 40
0.0
 40
0.0
 40
0.0
 40
20.59795247894025
 40
49.79548428823826
 40
77.55742116140722
 40
77.55742116140722
 40
77.55742116140722
 40
77.55742116140722
 10
1160.311329323101
 20
978.0236368925061
 30
0.0
 10
1167.522311978568
 20
978.0308607517413
 30
0.0
 10
1184.954839502369
 20
978.048324408356
 30
0.0
 10
1200.962960090739
 20
1003.232792823683
 30
0.0
 10
1203.430278944259
 20
1021.811676212422
 30
0.0
 10
1204.632845468172
 20
1030.866988695891
 30
0.0
 11
1160.311329323101
 21
978.0236368925061
 31
0.0
 11
1180.720079659151
 21
980.8090553611501
 31
0.0
 11
1198.818405428855
 21
1003.720765644074
 31
0.0
 11
1204.632845468172
 21
1030.866988695891
 31
0.0
  0
LINE
  5
964A
330
A
100
AcDbEntity
  8
MODEL
  6
Continuous
100
AcDbLine
 10
1678.354653839915
 20
983.3849392775871
 30
0.0
 11
1679.23198843464
 21
977.2435665969231
 31
0.0
  0
LINE
  5
964B
330
A
100
AcDbEntity
  8
MODEL
  6
Continuous
100
AcDbLine
 10
1672.354623322336
 20
983.3849392775871
 30
0.0
 11
1678.354653839915
 21
983.3849392775871
 31
0.0
  0
LINE
  5
964C
330
A
100
AcDbEntity
  8
MODEL
  6
Continuous
100
AcDbLine
 10
1665.477258210032
 20
977.243597114501
 30
0.0
 11
1666.354592804757
 21
983.3849392775871
 31
0.0
  0
LINE
  5
964D
330
A
100
AcDbEntity
  8
MODEL
  6
Continuous
100
AcDbLine
 10
1666.354592804757
 20
983.3849392775871
 30
0.0
 11
1672.354623322336
 21
983.3849392775871
 31
0.0
  0
LINE
  5
964E
330
A
100
AcDbEntity
  8
MODEL
  6
Continuous
100
AcDbLine
 10
1637.354623322336
 20
1043.173798332208
 30
0.0
 11
1637.354623322336
 21
993.173805961603
 31
0.0
  0
LINE
  5
964F
330
A
100
AcDbEntity
  8
MODEL
  6
Continuous
100
AcDbLine
 10
1658.104623322336
 20
976.13489350122
 30
0.0
 11
1686.604623322336
 21
976.13489350122
 31
0.0
  0
LINE
  5
9650
330
A
100
AcDbEntity
  8
MODEL
  6
Continuous
100
AcDbLine
 10
1658.104623322336
 20
1010.734891975341
 30
0.0
 11
1658.104623322336
 21
976.13489350122
 31
0.0
  0
LINE
  5
9651
330
A
100
AcDbEntity
  8
MODEL
  6
Continuous
100
AcDbLine
 10
1686.604623322336
 20
1010.734891975341
 30
0.0
 11
1686.604623322336
 21
976.13489350122
 31
0.0
  0
LINE
  5
9652
330
A
100
AcDbEntity
  8
MODEL
  6
Continuous
100
AcDbLine
 10
1664.904626374094
 20
999.084905708251
 30
0.0
 11
1667.104638581126
 21
999.084905708251
 31
0.0
  0
LINE
  5
9653
330
A
100
AcDbEntity
  8
MODEL
  6
Continuous
100
AcDbLine
 10
1664.904626374094
 20
1007.784887397705
 30
0.0
 11
1667.104638581126
 21
1007.784887397705
 31
0.0
  0
LINE
  5
9654
330
A
100
AcDbEntity
  8
MODEL
  6
Continuous
100
AcDbLine
 10
1661.054620270578
 20
976.6849728469231
 30
0.0
 11
1661.054620270578
 21
996.534887397705
 31
0.0
  0
LINE
  5
9655
330
A
100
AcDbEntity
  8
MODEL
  6
Continuous
100
AcDbLine
 10
1667.104638581126
 20
1007.784887397705
 30
0.0
 11
1667.104638581126
 21
999.084905708251
 31
0.0
  0
LINE
  5
9656
330
A
100
AcDbEntity
  8
MODEL
  6
Continuous
100
AcDbLine
 10
1683.654641632882
 20
996.534887397705
 30
0.0
 11
1683.654641632882
 21
976.684957588134
 31
0.0
  0
LINE
  5
9657
330
A
100
AcDbEntity
  8
MODEL
  6
Continuous
100
AcDbLine
 10
1697.354638581126
 20
933.173805961603
 30
0.0
 11
1672.354623322336
 21
933.173805961603
 31
0.0
  0
LINE
  5
9658
330
A
100
AcDbEntity
  8
MODEL
  6
Continuous
100
AcDbLine
 10
1672.354623322336
 20
933.173805961603
 30
0.0
 11
1647.354623322336
 21
933.173805961603
 31
0.0
  0
LINE
  5
9659
330
A
100
AcDbEntity
  8
MODEL
  6
Continuous
100
AcDbLine
 10
1637.354623322336
 20
993.173805961603
 30
0.0
 11
1637.354623322336
 21
943.173805961603
 31
0.0
  0
LINE
  5
965A
330
A
100
AcDbEntity
  8
MODEL
  6
Continuous
100
AcDbLine
 10
1647.354623322336
 20
1053.173798332208
 30
0.0
 11
1697.354623322336
 21
1053.173798332208
 31
0.0
  0
LINE
  5
965B
330
A
100
AcDbEntity
  8
MODEL
  6
Continuous
100
AcDbLine
 10
1677.604608063546
 20
999.934896552978
 30
0.0
 11
1677.604608063546
 21
1006.934896552976
 31
0.0
  0
LINE
  5
965C
330
A
100
AcDbEntity
  8
MODEL
  6
Continuous
100
AcDbLine
 10
1679.804620270578
 20
999.934896552978
 30
0.0
 11
1679.804620270578
 21
1006.934896552976
 31
0.0
  0
LINE
  5
965D
330
A
100
AcDbEntity
  8
MODEL
  6
Continuous
100
AcDbLine
 10
1679.804620270578
 20
1006.934896552976
 30
0.0
 11
1677.604608063546
 21
1006.934896552976
 31
0.0
  0
LINE
  5
965E
330
A
100
AcDbEntity
  8
MODEL
  6
Continuous
100
AcDbLine
 10
1679.804620270578
 20
999.934896552978
 30
0.0
 11
1677.604608063546
 21
999.934896552978
 31
0.0
  0
LINE
  5
965F
330
A
100
AcDbEntity
  8
MODEL
  6
Continuous
100
AcDbLine
 10
1661.054620270578
 20
996.534887397705
 30
0.0
 11
1683.654641632882
 21
996.534887397705
 31
0.0
  0
LINE
  5
9660
330
A
100
AcDbEntity
  8
MODEL
  6
Continuous
100
AcDbLine
 10
1661.354699616282
 20
976.384954536376
 30
0.0
 11
1683.35454702839
 21
976.384954536376
 31
0.0
  0
LINE
  5
9661
330
A
100
AcDbEntity
  8
MODEL
  6
Continuous
100
AcDbLine
 10
1664.904626374094
 20
1007.784887397705
 30
0.0
 11
1664.904626374094
 21
999.084905708251
 31
0.0
  0
ARC
  5
9662
330
A
100
AcDbEntity
  8
MODEL
  6
Continuous
100
AcDbCircle
 10
1683.35454702839
 20
976.68501862329
 30
0.0
 40
0.3000000119209289
100
AcDbArc
 50
270.0001068115048
 51
0.0000152585630699
  0
ARC
  5
9663
330
A
100
AcDbEntity
  8
MODEL
  6
Continuous
100
AcDbCircle
 10
1661.354699616282
 20
976.68501862329
 30
0.0
 40
0.3000000119209289
100
AcDbArc
 50
179.999954223616
 51
269.9998321533744
  0
ARC
  5
9664
330
A
100
AcDbEntity
  8
MODEL
  6
Continuous
100
AcDbCircle
 10
1647.354623322336
 20
1043.173798332208
 30
0.0
 40
10.0
100
AcDbArc
 50
90.0
 51
180.0
  0
ARC
  5
9665
330
A
100
AcDbEntity
  8
MODEL
  6
Continuous
100
AcDbCircle
 10
1647.354623322336
 20
943.173805961603
 30
0.0
 40
10.0
100
AcDbArc
 50
180.0
 51
270.0
  0
LINE
  5
9667
330
A
100
AcDbEntity
  8
MODEL
  6
Continuous
100
AcDbLine
 10
1658.104623322336
 20
1010.734891975341
 30
0.0
 11
1686.604623322336
 21
1010.734891975341
 31
0.0
  0
SPLINE
  5
9668
330
A
100
AcDbEntity
  8
MODEL
  6
CENTER2
100
AcDbSpline
210
0.0
220
0.0
230
1.0
 70
  1064
 71
     3
 72
    14
 73
    10
 74
     8
 42
0.000000001
 43
0.0000000001
 44
0.0
 40
0.0
 40
0.0
 40
0.0
 40
0.0
 40
15.40944549321838
 40
80.20767133915942
 40
185.9916242865026
 40
263.5190444085936
 40
309.9525279406079
 40
323.8596800270593
 40
379.1518258936557
 40
379.1518258936557
 40
379.1518258936557
 40
379.1518258936557
 10
1595.594751851499
 20
1190.023636892506
 30
0.0
 10
1601.245321026313
 20
1190.24558556954
 30
0.0
 10
1630.657086391403
 20
1191.40085014733
 30
0.0
 10
1600.451307533508
 20
1098.112420941396
 30
0.0
 10
1599.191607778873
 20
1031.061191687586
 30
0.0
 10
1599.966544336844
 20
953.063360306301
 30
0.0
 10
1631.44924803274
 20
906.2809645590607
 30
0.0
 10
1673.565191053172
 20
913.5023712700297
 30
0.0
 10
1672.89228989203
 20
942.2094799726653
 30
0.0
 10
1672.354623322336
 20
965.1472508568631
 30
0.0
 11
1595.594751851499
 21
1190.023636892506
 31
0.0
 11
1610.980086443586
 21
1189.161958357321
 31
0.0
 11
1610.980086443586
 21
1124.36373251138
 31
0.0
 11
1599.563987855977
 21
1019.197590649069
 31
0.0
 11
1610.980086443586
 21
942.515300882623
 31
0.0
 11
1643.731530973314
 21
909.6000874679421
 31
0.0
 11
1657.446726449936
 21
911.902758133438
 31
0.0
 11
1672.354623322336
 21
965.1472508568631
 31
0.0
  0
LINE
  5
9669
330
A
100
AcDbEntity
  8
MODEL
  6
Continuous
100
AcDbLine
 10
1707.354638581126
 20
943.173805961603
 30
0.0
 11
1707.354638581126
 21
1043.173798332208
 31
0.0
  0
ARC
  5
966A
330
A
100
AcDbEntity
  8
MODEL
  6
Continuous
100
AcDbCircle
 10
1697.354638581126
 20
943.173805961603
 30
0.0
 40
10.0
100
AcDbArc
 50
270.0
 51
0.0
  0
ARC
  5
966B
330
A
100
AcDbEntity
  8
MODEL
  6
Continuous
100
AcDbCircle
 10
1697.354623322336
 20
1043.173798332208
 30
0.0
 40
10.0
100
AcDbArc
 50
0.0
 51
90.0
  0
LEADER
  5
96AC
330
A
100
AcDbEntity
  8
DIM
  6
Continuous
100
AcDbLeader
  3
JIS
 76
     3
 10
1649.978673210049
 20
909.433112285863
 30
0.0
 10
1619.28932179117
 20
671.5044218312407
 30
0.0
 10
1922.600166176434
 20
671.5044218312407
 30
0.0
1001
ACAD
1000
DSTYLE
1002
{
1070
   179
1070
     0
1070
    41
1040
6.0
1070
   271
1070
     0
1070
    43
1040
25.0
1070
    44
1040
0.0
1070
    42
1040
25.0
1070
   147
1040
15.0
1070
   140
1040
24.0
1002
}
  0
MTEXT
  5
96AD
330
A
100
AcDbEntity
  8
MODEL
390
1D
100
AcDbMText
 10
1632.182590353942
 20
710.960972139884
 30
0.0
 40
24.4326171875
 41
0.0
 46
24.4326171875
 71
     1
 72
     1
  1
{電源コードL = 1200}
  7
ＭＳ ゴシック
 73
     1
 44
0.7828267384257843
1001
ACAD
1000
ACAD_MTEXT_DEFINED_HEIGHT_BEGIN
1070
    46
1040
24.4326171875
1000
ACAD_MTEXT_DEFINED_HEIGHT_END
  0
MTEXT
  5
9781
330
A
100
AcDbEntity
  8
MODEL
390
1D
100
AcDbMText
 10
927.5770984344902
 20
710.960972139884
 30
0.0
 40
24.4326171875
 41
0.0
 46
24.4326171875
 71
     1
 72
     1
  1
{給水ホース}
  7
ＭＳ ゴシック
 73
     1
 44
0.7828267384257843
1001
ACAD
1000
ACAD_MTEXT_DEFINED_HEIGHT_BEGIN
1070
    46
1040
24.4326171875
1000
ACAD_MTEXT_DEFINED_HEIGHT_END
  0
LEADER
  5
9782
330
A
100
AcDbEntity
  8
DIM
  6
Continuous
100
AcDbLeader
  3
JIS
 76
     3
 10
1193.716128240714
 20
993.2704240747651
 30
0.0
 10
1091.511218990109
 20
671.5044218312407
 30
0.0
 10
918.2281921413503
 20
671.5044218312407
 30
0.0
1001
ACAD
1000
DSTYLE
1002
{
1070
   179
1070
     0
1070
    41
1040
6.0
1070
   271
1070
     0
1070
    43
1040
25.0
1070
    44
1040
0.0
1070
    42
1040
25.0
1070
   147
1040
15.0
1070
   140
1040
24.0
1002
}
  0
MTEXT
  5
97E0
330
A
100
AcDbEntity
  8
MODEL
390
1D
100
AcDbMText
 10
639.9898195515826
 20
643.8002080483529
 30
0.0
 40
24.4326171875
 41
0.0
 46
24.4326171875
 71
     1
 72
     1
  1
{VP100に直接接続}
  7
ＭＳ ゴシック
 73
     1
 44
0.7828267384257843
1001
ACAD
1000
ACAD_MTEXT_DEFINED_HEIGHT_BEGIN
1070
    46
1040
24.4326171875
1000
ACAD_MTEXT_DEFINED_HEIGHT_END
  0
LINE
  5
97E1
330
A
100
AcDbEntity
  8
DIM
  6
Continuous
100
AcDbLine
 10
493.0036570055977
 20
736.926415420078
 30
0.0
 11
626.8009507242053
 21
605.3286668510892
 31
0.0
  0
LINE
  5
97E2
330
A
100
AcDbEntity
  8
DIM
  6
Continuous
100
AcDbLine
 10
626.8009507242053
 20
605.3286668510892
 30
0.0
 11
883.4647375762812
 21
605.3286668510892
 31
0.0
  0
LINE
  5
9995
330
A
100
AcDbEntity
  8
MODEL
390
1D
100
AcDbLine
 10
1324.0127366435
 20
2104.29
 30
0.0
 11
1604.0127366435
 21
2104.29
 31
0.0
  0
LINE
  5
9996
330
A
100
AcDbEntity
  8
MODEL
390
1D
100
AcDbLine
 10
1604.0127366435
 20
2104.29
 30
0.0
 11
1604.0127366435
 21
2264.290000000001
 31
0.0
  0
LINE
  5
9997
330
A
100
AcDbEntity
  8
MODEL
390
1D
100
AcDbLine
 10
1604.0127366435
 20
2264.290000000001
 30
0.0
 11
1324.0127366435
 21
2264.290000000001
 31
0.0
  0
LINE
  5
9998
330
A
100
AcDbEntity
  8
MODEL
390
1D
100
AcDbLine
 10
1324.0127366435
 20
2264.290000000001
 30
0.0
 11
1324.0127366435
 21
2104.29
 31
0.0
  0
LINE
  5
9999
330
A
100
AcDbEntity
  8
MODEL
390
1D
100
AcDbLine
 10
1324.0127366435
 20
2124.29
 30
0.0
 11
1604.0127366435
 21
2124.29
 31
0.0
  0
LINE
  5
999A
330
A
100
AcDbEntity
  8
MODEL
390
1D
100
AcDbLine
 10
1326.0127366435
 20
2262.290000000001
 30
0.0
 11
1326.0127366435
 21
2126.289999999998
 31
0.0
  0
LINE
  5
999B
330
A
100
AcDbEntity
  8
MODEL
390
1D
100
AcDbLine
 10
1602.0127366435
 20
2262.290000000001
 30
0.0
 11
1326.0127366435
 21
2262.290000000001
 31
0.0
  0
LINE
  5
999C
330
A
100
AcDbEntity
  8
MODEL
390
1D
100
AcDbLine
 10
1602.0127366435
 20
2126.289999999998
 30
0.0
 11
1602.0127366435
 21
2262.290000000001
 31
0.0
  0
LINE
  5
999D
330
A
100
AcDbEntity
  8
MODEL
390
1D
100
AcDbLine
 10
1326.0127366435
 20
2126.289999999998
 30
0.0
 11
1602.0127366435
 21
2126.289999999998
 31
0.0
  0
LINE
  5
999E
330
A
100
AcDbEntity
  8
MODEL
390
1D
100
AcDbLine
 10
1326.0127366435
 20
2194.29
 30
0.0
 11
1602.0127366435
 21
2194.29
 31
0.0
  0
LINE
  5
999F
330
A
100
AcDbEntity
  8
MODEL
390
1D
100
AcDbLine
 10
1464.0127366435
 20
2262.290000000001
 30
0.0
 11
1464.0127366435
 21
2126.289999999998
 31
0.0
  0
LINE
  5
99A0
330
A
100
AcDbEntity
  8
MODEL
390
1D
100
AcDbLine
 10
1533.012736643497
 20
2262.290000000001
 30
0.0
 11
1533.012736643497
 21
2126.289999999998
 31
0.0
  0
LINE
  5
99A1
330
A
100
AcDbEntity
  8
MODEL
390
1D
100
AcDbLine
 10
1395.0127366435
 20
2262.290000000001
 30
0.0
 11
1395.0127366435
 21
2126.289999999998
 31
0.0
  0
LINE
  5
99A2
330
A
100
AcDbEntity
  8
MODEL
390
1D
100
AcDbLine
 10
1728.705926643498
 20
2104.29
 30
0.0
 11
1794.705926643502
 21
2104.29
 31
0.0
  0
LINE
  5
99A3
330
A
100
AcDbEntity
  8
MODEL
390
1D
100
AcDbLine
 10
1794.705926643502
 20
2104.29
 30
0.0
 11
1794.705926643502
 21
2264.290000000001
 31
0.0
  0
LINE
  5
99A4
330
A
100
AcDbEntity
  8
MODEL
390
1D
100
AcDbLine
 10
1794.705926643502
 20
2264.290000000001
 30
0.0
 11
1728.705926643498
 21
2264.290000000001
 31
0.0
  0
LINE
  5
99A5
330
A
100
AcDbEntity
  8
MODEL
390
1D
100
AcDbLine
 10
1728.705926643498
 20
2264.290000000001
 30
0.0
 11
1728.705926643498
 21
2104.29
 31
0.0
  0
LINE
  5
99A6
330
A
100
AcDbEntity
  8
MODEL
390
1D
100
AcDbLine
 10
1728.705926643498
 20
2124.29
 30
0.0
 11
1772.705926643498
 21
2124.29
 31
0.0
  0
LINE
  5
99A7
330
A
100
AcDbEntity
  8
MODEL
390
1D
100
AcDbLine
 10
1772.705926643498
 20
2124.29
 30
0.0
 11
1772.705926643498
 21
2264.290000000001
 31
0.0
  0
LINE
  5
99A8
330
A
100
AcDbEntity
  8
MODEL
390
1D
100
AcDbLine
 10
1772.705926643498
 20
2194.29
 30
0.0
 11
1728.705926643498
 21
2194.29
 31
0.0
  0
LINE
  5
99A9
330
A
100
AcDbEntity
  8
MODEL
390
1D
100
AcDbLine
 10
1772.705926643498
 20
2159.29
 30
0.0
 11
1728.705926643498
 21
2159.29
 31
0.0
  0
DIMENSION
  5
99AA
330
A
100
AcDbEntity
  8
DIM
  6
Continuous
390
1D
100
AcDbDimension
  2
*D30
 10
1794.705926643502
 20
2336.990444265598
 30
0.0
 11
1759.954182585676
 21
2336.990444265598
 31
0.0
 70
   160
  1
\A1;<>
 71
     5
 41
0.96
 42
33.00000000000182
 73
     0
 74
     0
 75
     0
  3
JIS
100
AcDbAlignedDimension
 13
1728.705926643498
 23
2284.4704742656
 33
0.0
 14
1794.705926643502
 24
2284.4704742656
 34
0.0
100
AcDbRotatedDimension
1001
ACAD
1000
DSTYLE
1002
{
1070
   144
1040
0.5
1070
    44
1040
0.0
1002
}
  0
CIRCLE
  5
99AB
330
A
100
AcDbEntity
  8
MODEL
390
1D
100
AcDbCircle
 10
1464.0127366435
 20
2154.29
 30
0.0
 40
4.5
  0
CIRCLE
  5
99AC
330
A
100
AcDbEntity
  8
MODEL
390
1D
100
AcDbCircle
 10
1564.0127366435
 20
2214.29
 30
0.0
 40
4.5
  0
CIRCLE
  5
99AD
330
A
100
AcDbEntity
  8
MODEL
390
1D
100
AcDbCircle
 10
1364.0127366435
 20
2214.29
 30
0.0
 40
4.5
  0
LINE
  5
99AE
330
A
100
AcDbEntity
  8
MODEL
390
1D
100
AcDbLine
 10
1786.728636643499
 20
2214.29
 30
0.0
 11
1802.683216643501
 21
2214.29
 31
0.0
  0
LINE
  5
99AF
330
A
100
AcDbEntity
  8
MODEL
390
1D
100
AcDbLine
 10
1786.728636643499
 20
2154.29
 30
0.0
 11
1802.683216643501
 21
2154.29
 31
0.0
  0
LINE
  5
99B0
330
A
100
AcDbEntity
  8
MODEL
390
1D
100
AcDbLine
 10
1374.5127366435
 20
2214.29
 30
0.0
 11
1353.5127366435
 21
2214.29
 31
0.0
  0
LINE
  5
99B1
330
A
100
AcDbEntity
  8
MODEL
390
1D
100
AcDbLine
 10
1364.0127366435
 20
2224.790000000001
 30
0.0
 11
1364.0127366435
 21
2203.789999999998
 31
0.0
  0
LINE
  5
99B2
330
A
100
AcDbEntity
  8
MODEL
390
1D
100
AcDbLine
 10
1574.5127366435
 20
2214.29
 30
0.0
 11
1553.5127366435
 21
2214.29
 31
0.0
  0
LINE
  5
99B3
330
A
100
AcDbEntity
  8
MODEL
390
1D
100
AcDbLine
 10
1564.0127366435
 20
2224.790000000001
 30
0.0
 11
1564.0127366435
 21
2203.789999999998
 31
0.0
  0
LINE
  5
99B4
330
A
100
AcDbEntity
  8
MODEL
390
1D
100
AcDbLine
 10
1474.5127366435
 20
2154.29
 30
0.0
 11
1453.5127366435
 21
2154.29
 31
0.0
  0
LINE
  5
99B5
330
A
100
AcDbEntity
  8
MODEL
390
1D
100
AcDbLine
 10
1464.0127366435
 20
2164.79
 30
0.0
 11
1464.0127366435
 21
2143.789999999998
 31
0.0
  0
DIMENSION
  5
99B6
330
A
100
AcDbEntity
  8
DIM
  6
Continuous
390
1D
100
AcDbDimension
  2
*D31
 10
1464.012736643499
 20
2332.512692793505
 30
0.0
 11
1414.0127366435
 21
2332.512692793505
 31
0.0
 70
   160
  1
\A1;<>
 71
     5
 41
0.96
 42
49.99999999999977
 73
     0
 74
     0
 75
     0
  3
JIS
100
AcDbAlignedDimension
 13
1364.0127366435
 23
2279.791135185921
 33
0.0
 14
1464.012736643499
 24
2276.306334838945
 34
0.0
100
AcDbRotatedDimension
1001
ACAD
1000
DSTYLE
1002
{
1070
   144
1040
0.5
1070
    44
1040
0.0
1002
}
  0
DIMENSION
  5
99B7
330
A
100
AcDbEntity
  8
DIM
  6
Continuous
390
1D
100
AcDbDimension
  2
*D32
 10
1564.0127366435
 20
2332.512692793505
 30
0.0
 11
1514.0127366435
 21
2332.512692793505
 31
0.0
 70
   160
  1
\A1;<>
 71
     5
 41
0.96
 42
50.0
 73
     0
 74
     0
 75
     0
  3
JIS
100
AcDbAlignedDimension
 13
1464.0127366435
 23
2317.291135185921
 33
0.0
 14
1564.0127366435
 24
2279.791135185921
 34
0.0
100
AcDbRotatedDimension
1001
ACAD
1000
DSTYLE
1002
{
1070
   144
1040
0.5
1070
    44
1040
0.0
1002
}
  0
DIMENSION
  5
99B8
330
A
100
AcDbEntity
  8
DIM
  6
Continuous
390
1D
100
AcDbDimension
  2
*D33
 10
1904.58305824495
 20
2154.29
 30
0.0
 11
1904.58305824495
 21
2184.29
 31
0.0
 70
   160
  1
\A1;<>
 71
     5
 41
0.96
 42
30.0
 73
     0
 74
     0
 75
     0
  3
JIS
100
AcDbAlignedDimension
 13
1827.3482407459
 23
2214.29
 33
0.0
 14
1827.3482407459
 24
2154.29
 34
0.0
 50
90.0
100
AcDbRotatedDimension
1001
ACAD
1000
DSTYLE
1002
{
1070
   144
1040
0.5
1070
    44
1040
0.0
1002
}
  0
DIMENSION
  5
99B9
330
A
100
AcDbEntity
  8
DIM
  6
Continuous
390
1D
100
AcDbDimension
  2
*D34
 10
1251.4951171875
 20
2264.290000000001
 30
0.0
 11
1251.4951171875
 21
2184.29
 31
0.0
 70
   160
  1
\A1;<>
 71
     5
 41
0.96
 42
80.00000000000045
 73
     0
 74
     0
 75
     0
  3
JIS
100
AcDbAlignedDimension
 13
1309.0642371875
 23
2104.29
 33
0.0
 14
1309.0642371875
 24
2264.290000000001
 34
0.0
 50
90.0
100
AcDbRotatedDimension
1001
ACAD
1000
DSTYLE
1002
{
1070
   144
1040
0.5
1070
    44
1040
0.0
1002
}
  0
DIMENSION
  5
99BA
330
A
100
AcDbEntity
  8
DIM
  6
Continuous
390
1D
100
AcDbDimension
  2
*D35
 10
1604.0127366435
 20
2387.523170791585
 30
0.0
 11
1464.012736643499
 21
2387.523170791585
 31
0.0
 70
   160
  1
\A1;<>
 71
     5
 41
0.96
 42
140.0
 73
     0
 74
     0
 75
     0
  3
JIS
100
AcDbAlignedDimension
 13
1324.0127366435
 23
2276.286170813441
 33
0.0
 14
1604.0127366435
 24
2276.286170813441
 34
0.0
100
AcDbRotatedDimension
1001
ACAD
1000
DSTYLE
1002
{
1070
   144
1040
0.5
1070
    44
1040
0.0
1002
}
  0
MTEXT
  5
99BB
330
A
100
AcDbEntity
  8
DIM
  6
Continuous
390
1D
100
AcDbMText
 10
1333.339306643498
 20
2522.363539999998
 30
0.0
 40
25.0
 41
0.0
 46
27.925
 71
     1
 72
     1
  1
{\W0.945946;ワイヤレスリモコン(1:2)}
  7
ＭＳ ゴシック
 73
     1
 44
0.96
1001
ACAD
1000
ACAD_MTEXT_DEFINED_HEIGHT_BEGIN
1070
    46
1040
27.925
1000
ACAD_MTEXT_DEFINED_HEIGHT_END
  0
VIEWPORT
  5
349
330
B
100
AcDbEntity
 67
     1
  8
0
100
AcDbViewport
 10
202.5
 20
128.5
 30
0.0
 40
486.0
 41
308.4
 68
     1
 69
     1
 12
202.5
 22
128.5
 13
0.0
 23
0.0
 14
0.5
 24
0.5
 15
0.0
 25
0.0
 16
0.0
 26
0.0
 36
1.0
 17
0.0
 27
0.0
 37
0.0
 42
50.0
 43
0.0
 44
0.0
 45
308.4
 50
0.0
 51
0.0
 72
   100
 90
   557152
  1

281
     0
 71
     1
 74
     0
110
0.0
120
0.0
130
0.0
111
1.0
121
0.0
131
0.0
112
0.0
122
1.0
132
0.0
 79
     0
146
0.0
170
     0
 61
     5
348
26C
292
     1
282
     1
141
0.0
142
0.0
 63
   256
  0
VIEWPORT
  5
34A
330
B
100
AcDbEntity
 67
     1
  8
0
100
AcDbViewport
 10
202.5
 20
128.5
 30
0.0
 40
324.0
 41
205.6
 68
     2
 69
     2
 12
986.6781359294573
 22
1427.077061889956
 13
0.0
 23
0.0
 14
0.5
 24
0.5
 15
0.0
 25
0.0
 16
0.0
 26
0.0
 36
1.0
 17
0.0
 27
0.0
 37
0.0
 42
50.0
 43
0.0
 44
0.0
 45
2890.021615685494
 50
0.0
 51
0.0
 72
   100
 90
   557152
  1

281
     0
 71
     1
 74
     0
110
0.0
120
0.0
130
0.0
111
1.0
121
0.0
131
0.0
112
0.0
122
1.0
132
0.0
 79
     0
146
0.0
170
     0
 61
     5
348
26C
292
     1
282
     1
141
0.0
142
0.0
 63
   256
  0
ENDSEC
  0
SECTION
  2
OBJECTS
  0
DICTIONARY
  5
19
330
0
100
AcDbDictionary
281
     1
  3
ACAD_COLOR
350
38F
  3
ACAD_DETAILVIEWSTYLE
350
BE8
  3
ACAD_GROUP
350
1A
  3
ACAD_IMAGE_VARS
350
27B
  3
ACAD_LAYOUT
350
1E
  3
ACAD_MATERIAL
350
263
  3
ACAD_MLEADERSTYLE
350
336
  3
ACAD_MLINESTYLE
350
1B
  3
ACAD_PLOTSETTINGS
350
22
  3
ACAD_PLOTSTYLENAME
350
1F
  3
ACAD_SCALELIST
350
241
  3
ACAD_SECTIONVIEWSTYLE
350
BE9
  3
ACAD_TABLESTYLE
350
278
  3
ACAD_VISUALSTYLE
350
267
  3
AcadDim
350
94E3
  3
ACDB_RECOMPOSE_DATA
350
9A14
  3
AcDbVariableDictionary
350
330
  3
APPDATA
350
27A
  0
SUN
  5
BE4
330
15
100
AcDbSun
 90
        1
290
     0
 63
     7
421
 16777215
 40
1.0
291
     1
 91
  2455826
 92
 54000000
292
     0
 70
     2
 71
   256
280
     1
  0
DICTIONARY
  5
2E1
330
2
100
AcDbDictionary
280
     1
281
     1
  3
ACAD_LAYERSTATES
360
2E2
  3
ACLYDICTIONARY
360
95C2
  0
DICTIONARY
  5
4005
330
4004
100
AcDbDictionary
280
     1
281
     1
  3
ACAD_DIMASSOC
360
4006
  0
DICTIONARY
  5
4008
330
4007
100
AcDbDictionary
280
     1
281
     1
  3
ACAD_DIMASSOC
360
4009
  0
DICTIONARY
  5
400C
330
400B
100
AcDbDictionary
280
     1
281
     1
  3
ACAD_DIMASSOC
360
400D
  0
DICTIONARY
  5
4010
330
400F
100
AcDbDictionary
280
     1
281
     1
  3
ACAD_DIMASSOC
360
4011
  0
DICTIONARY
  5
4015
330
4014
100
AcDbDictionary
280
     1
281
     1
  3
ACAD_DIMASSOC
360
4016
  0
DICTIONARY
  5
401A
330
4019
100
AcDbDictionary
280
     1
281
     1
  3
ACAD_DIMASSOC
360
401B
  0
DICTIONARY
  5
4021
330
4020
100
AcDbDictionary
280
     1
281
     1
  3
ACAD_DIMASSOC
360
4022
  0
DICTIONARY
  5
38F
102
{ACAD_REACTORS
330
19
102
}
330
19
100
AcDbDictionary
281
     1
  0
DICTIONARY
  5
BE8
102
{ACAD_REACTORS
330
19
102
}
330
19
100
AcDbDictionary
281
     1
  0
DICTIONARY
  5
1A
102
{ACAD_REACTORS
330
19
102
}
330
19
100
AcDbDictionary
281
     1
  0
RASTERVARIABLES
  5
27B
102
{ACAD_REACTORS
330
19
102
}
330
19
100
AcDbRasterVariables
 90
        0
 70
     1
 71
     1
 72
     1
  0
DICTIONARY
  5
1E
102
{ACAD_REACTORS
330
19
102
}
330
19
100
AcDbDictionary
281
     1
  3
Layout1
350
21
  3
Model
350
20
  0
DICTIONARY
  5
263
102
{ACAD_REACTORS
330
19
102
}
330
19
100
AcDbDictionary
281
     1
  3
ByBlock
350
98F3
  3
ByLayer
350
264
  3
Global
350
266
  0
DICTIONARY
  5
336
102
{ACAD_REACTORS
330
19
102
}
330
19
100
AcDbDictionary
281
     1
  3
Standard
350
98F4
  0
DICTIONARY
  5
1B
102
{ACAD_REACTORS
330
19
102
}
330
19
100
AcDbDictionary
281
     1
  3
Standard
350
1C
  0
DICTIONARY
  5
22
102
{ACAD_REACTORS
330
19
102
}
330
19
100
AcDbDictionary
281
     1
  0
ACDBDICTIONARYWDFLT
  5
1F
102
{ACAD_REACTORS
330
19
102
}
330
19
100
AcDbDictionary
281
     1
  3
Normal
350
1D
100
AcDbDictionaryWithDefault
340
1D
  0
DICTIONARY
  5
241
102
{ACAD_REACTORS
330
19
102
}
330
19
100
AcDbDictionary
281
     1
  3
A0
350
242
  3
A1
350
243
  3
A2
350
244
  3
A3
350
245
  3
A4
350
246
  3
A5
350
247
  3
A6
350
248
  3
A7
350
249
  3
A8
350
24A
  3
A9
350
24B
  3
B0
350
24C
  3
B1
350
24D
  3
B2
350
24E
  3
B3
350
24F
  3
B4
350
250
  3
B5
350
251
  3
B6
350
252
  3
B7
350
253
  3
B8
350
254
  3
B9
350
255
  3
C0
350
256
  3
C1
350
257
  3
C2
350
258
  3
C3
350
259
  3
C4
350
25A
  3
C5
350
25B
  3
C6
350
25C
  3
C7
350
25D
  3
C8
350
25E
  3
C9
350
25F
  3
D0
350
260
  3
D1
350
261
  3
D2
350
262
  0
DICTIONARY
  5
BE9
102
{ACAD_REACTORS
330
19
102
}
330
19
100
AcDbDictionary
281
     1
  0
DICTIONARY
  5
278
102
{ACAD_REACTORS
330
19
102
}
330
19
100
AcDbDictionary
281
     1
  3
Standard
350
279
  0
DICTIONARY
  5
267
102
{ACAD_REACTORS
330
19
102
}
330
19
100
AcDbDictionary
281
     1
  3
2dWireframe
350
26C
  3
3D Hidden
350
26E
  3
3dWireframe
350
26D
  3
Basic
350
26F
  3
Brighten
350
273
  3
ColorChange
350
277
  3
Conceptual
350
271
  3
Dim
350
272
  3
EdgeColorOff
350
BDE
  3
Facepattern
350
276
  3
Flat
350
268
  3
FlatWithEdges
350
269
  3
Gouraud
350
26A
  3
GouraudWithEdges
350
26B
  3
Hidden
350
BDB
  3
JitterOff
350
BDC
  3
Linepattern
350
275
  3
OverhangOff
350
BDD
  3
Realistic
350
270
  3
Shaded
350
BE3
  3
Shaded with edges
350
BE2
  3
Shades of Gray
350
BDF
  3
Sketchy
350
BE0
  3
Thicken
350
274
  3
Wireframe
350
BDA
  3
X-Ray
350
BE1
  0
XRECORD
  5
94E3
102
{ACAD_REACTORS
330
19
102
}
330
19
100
AcDbXrecord
280
     1
340
0
 72
     0
 71
     0
 70
     0
 69
     0
 68
     1
 67
     3
 66
     0
 65
     0
 64
     0
 63
     3
 62
     1
 61
     0
 60
     0
 40
0.0
  0
XRECORD
  5
9A14
102
{ACAD_REACTORS
330
19
102
}
330
19
100
AcDbXrecord
280
     1
 90
        1
330
279
  0
DICTIONARY
  5
330
102
{ACAD_REACTORS
330
19
102
}
330
19
100
AcDbDictionary
281
     1
  3
CANNOSCALE
350
331
  3
CMLEADERSTYLE
350
9A08
  3
CTABLESTYLE
350
335
  3
HPTRANSPARENCY
350
C00
  3
XCLIPFRAME
350
64A
  0
DICTIONARY
  5
27A
102
{ACAD_REACTORS
330
19
102
}
330
19
100
AcDbDictionary
281
     1
  0
DICTIONARY
  5
2E2
102
{ACAD_REACTORS
330
2E1
102
}
330
2E1
100
AcDbDictionary
281
     1
  0
DICTIONARY
  5
95C2
102
{ACAD_REACTORS
330
2E1
102
}
330
2E1
100
AcDbDictionary
281
     1
1001
ACAD
1000
<All
  0
DIMASSOC
  5
4006
102
{ACAD_REACTORS
330
4005
102
}
330
4005
100
AcDbDimAssoc
330
4004
 90
        1
 70
     0
 71
     1
  1
AcDbOsnapPointRef
 72
     1
331
3F24
 73
     2
 91
       11
 40
1.0
 10
0.0
 20
0.0
 30
0.0
 75
     0
  0
DIMASSOC
  5
4009
102
{ACAD_REACTORS
330
4008
102
}
330
4008
100
AcDbDimAssoc
330
4007
 90
        3
 70
     0
 71
     1
  1
AcDbOsnapPointRef
 72
     1
331
3F24
 73
     2
 91
       11
 40
1.0
 10
0.0
 20
0.0
 30
0.0
 75
     0
  1
AcDbOsnapPointRef
 72
     1
331
3F8A
 73
     0
 91
        0
 40
0.0
 10
0.0
 20
0.0
 30
0.0
 75
     0
  0
DIMASSOC
  5
400D
102
{ACAD_REACTORS
330
400C
102
}
330
400C
100
AcDbDimAssoc
330
400B
 90
        1
 70
     0
 71
     1
  1
AcDbOsnapPointRef
 72
     1
331
3EE2
 73
     2
 91
        1
 40
0.0
 10
0.0
 20
0.0
 30
0.0
 75
     0
  0
DIMASSOC
  5
4011
102
{ACAD_REACTORS
330
4010
102
}
330
4010
100
AcDbDimAssoc
330
400F
 90
        2
 70
     0
 71
     1
  1
AcDbOsnapPointRef
 72
     1
331
3F24
 73
     2
 91
       11
 40
1.0
 10
0.0
 20
0.0
 30
0.0
 75
     0
  0
DIMASSOC
  5
4016
102
{ACAD_REACTORS
330
4015
102
}
330
4015
100
AcDbDimAssoc
330
4014
 90
        3
 70
     0
 71
     1
  1
AcDbOsnapPointRef
 72
     1
331
3F3E
 73
     2
 91
       15
 40
1.0
 10
0.0
 20
0.0
 30
0.0
 75
     0
  1
AcDbOsnapPointRef
 72
    13
331
3F3E
 73
     2
 91
        7
 40
0.0
 10
0.0
 20
0.0
 30
0.0
 75
     0
  0
DIMASSOC
  5
401B
102
{ACAD_REACTORS
330
401A
102
}
330
401A
100
AcDbDimAssoc
330
4019
 90
        1
 70
     0
 71
     1
  1
AcDbOsnapPointRef
 72
     1
331
3F3E
 73
     2
 91
       15
 40
1.0
 10
0.0
 20
0.0
 30
0.0
 75
     0
  0
DIMASSOC
  5
4022
102
{ACAD_REACTORS
330
4021
102
}
330
4021
100
AcDbDimAssoc
330
4020
 90
        2
 70
     0
 71
     1
  1
AcDbOsnapPointRef
 72
     1
331
3F18
 73
     0
 91
        0
 40
0.0
 10
0.0
 20
0.0
 30
0.0
 75
     0
  0
LAYOUT
  5
21
102
{ACAD_REACTORS
330
1E
102
}
330
1E
100
AcDbPlotSettings
  1

  2
none_device
  4
ISO_A3_(420.00_x_297.00_MM)
  6

 40
7.5
 41
20.0
 42
7.5
 43
20.0
 44
420.0
 45
297.0
 46
0.0
 47
0.0
 48
0.0
 49
0.0
140
0.0
141
0.0
142
1.0
143
1.0
 70
     0
 72
     1
 73
     0
 74
     0
  7

 75
     0
 76
     0
 77
     2
 78
   300
147
1.0
148
0.0
149
0.0
100
AcDbLayout
  1
Layout1
 70
     0
 71
     0
 10
0.0
 20
0.0
 11
0.0
 21
0.0
 12
0.0
 22
0.0
 32
0.0
 14
0.0
 24
0.0
 34
0.0
 15
0.0
 25
0.0
 35
0.0
146
0.0
 13
0.0
 23
0.0
 33
0.0
 16
0.0
 26
0.0
 36
0.0
 17
0.0
 27
0.0
 37
0.0
 76
     0
330
B
331
349
  0
LAYOUT
  5
20
102
{ACAD_REACTORS
330
1E
102
}
330
1E
100
AcDbPlotSettings
  1

  2
none_device
  4
ISO_A3_(420.00_x_297.00_MM)
  6

 40
7.5
 41
20.0
 42
7.5
 43
20.0
 44
420.0
 45
297.0
 46
0.0
 47
0.0
 48
0.0
 49
0.0
140
0.0
141
0.0
142
1.0
143
1.0
 70
  1024
 72
     1
 73
     0
 74
     0
  7

 75
     0
 76
     0
 77
     2
 78
   300
147
1.0
148
0.0
149
0.0
100
AcDbLayout
  1
Model
 70
     0
 71
     1
 10
0.0
 20
0.0
 11
2100.0
 21
2970.0
 12
0.0
 22
0.0
 32
0.0
 14
0.0
 24
0.0
 34
0.0
 15
2100.0
 25
2970.0
 35
0.0
146
0.0
 13
0.0
 23
0.0
 33
0.0
 16
0.0
 26
0.0
 36
0.0
 17
0.0
 27
0.0
 37
0.0
 76
     0
330
A
331
15
  0
MATERIAL
  5
98F3
102
{ACAD_REACTORS
330
263
102
}
330
263
100
AcDbMaterial
  1
ByBlock
 72
     1
 94
      127
  0
MATERIAL
  5
264
102
{ACAD_REACTORS
330
263
102
}
330
263
100
AcDbMaterial
  1
ByLayer
 72
     1
 94
      127
  0
MATERIAL
  5
266
102
{ACAD_REACTORS
330
263
102
}
330
263
100
AcDbMaterial
  1
Global
 72
     1
 94
      127
  0
MLEADERSTYLE
  5
98F4
102
{ACAD_REACTORS
330
336
102
}
330
336
100
AcDbMLeaderStyle
170
     2
171
     1
172
     0
 90
        2
 40
0.0
 41
0.0
173
     1
 91
-1056964608
340
11
 92
       -2
290
     1
 42
2.0
291
     1
 43
8.0
  3
Standard
341
0
 44
4.0
300

342
17
174
     1
178
     1
175
     1
176
     0
 93
-1056964608
 45
4.0
292
     0
297
     0
 46
4.0
343
0
 94
-1056964608
 47
1.0
 49
1.0
140
1.0
293
     1
141
0.0
294
     1
177
     0
142
1.0
295
     0
296
     0
143
3.75
1001
ACAD_MLEADERVER
1070
     2
  0
MLINESTYLE
  5
1C
102
{ACAD_REACTORS
330
1B
102
}
330
1B
100
AcDbMlineStyle
  2
Standard
 70
     0
  3

 62
     0
 51
90.0
 52
90.0
 71
     2
 49
0.5
 62
   256
  6
BYLAYER
 49
-0.5
 62
   256
  6
BYLAYER
  0
ACDBPLACEHOLDER
  5
1D
102
{ACAD_REACTORS
330
1F
102
}
330
1F
  0
SCALE
  5
242
102
{ACAD_REACTORS
330
241
102
}
330
241
100
AcDbScale
 70
     0
300
1:1
140
1.0
141
1.0
290
     1
  0
SCALE
  5
243
102
{ACAD_REACTORS
330
241
102
}
330
241
100
AcDbScale
 70
     0
300
1:2
140
1.0
141
2.0
290
     0
  0
SCALE
  5
244
102
{ACAD_REACTORS
330
241
102
}
330
241
100
AcDbScale
 70
     0
300
1:4
140
1.0
141
4.0
290
     0
  0
SCALE
  5
245
102
{ACAD_REACTORS
330
241
102
}
330
241
100
AcDbScale
 70
     0
300
1:5
140
1.0
141
5.0
290
     0
  0
SCALE
  5
246
102
{ACAD_REACTORS
330
241
102
}
330
241
100
AcDbScale
 70
     0
300
1:8
140
1.0
141
8.0
290
     0
  0
SCALE
  5
247
102
{ACAD_REACTORS
330
241
102
}
330
241
100
AcDbScale
 70
     0
300
1:10
140
1.0
141
10.0
290
     0
  0
SCALE
  5
248
102
{ACAD_REACTORS
330
241
102
}
330
241
100
AcDbScale
 70
     0
300
1:16
140
1.0
141
16.0
290
     0
  0
SCALE
  5
249
102
{ACAD_REACTORS
330
241
102
}
330
241
100
AcDbScale
 70
     0
300
1:20
140
1.0
141
20.0
290
     0
  0
SCALE
  5
24A
102
{ACAD_REACTORS
330
241
102
}
330
241
100
AcDbScale
 70
     0
300
1:30
140
1.0
141
30.0
290
     0
  0
SCALE
  5
24B
102
{ACAD_REACTORS
330
241
102
}
330
241
100
AcDbScale
 70
     0
300
1:40
140
1.0
141
40.0
290
     0
  0
SCALE
  5
24C
102
{ACAD_REACTORS
330
241
102
}
330
241
100
AcDbScale
 70
     0
300
1:50
140
1.0
141
50.0
290
     0
  0
SCALE
  5
24D
102
{ACAD_REACTORS
330
241
102
}
330
241
100
AcDbScale
 70
     0
300
1:100
140
1.0
141
100.0
290
     0
  0
SCALE
  5
24E
102
{ACAD_REACTORS
330
241
102
}
330
241
100
AcDbScale
 70
     0
300
2:1
140
2.0
141
1.0
290
     0
  0
SCALE
  5
24F
102
{ACAD_REACTORS
330
241
102
}
330
241
100
AcDbScale
 70
     0
300
4:1
140
4.0
141
1.0
290
     0
  0
SCALE
  5
250
102
{ACAD_REACTORS
330
241
102
}
330
241
100
AcDbScale
 70
     0
300
8:1
140
8.0
141
1.0
290
     0
  0
SCALE
  5
251
102
{ACAD_REACTORS
330
241
102
}
330
241
100
AcDbScale
 70
     0
300
10:1
140
10.0
141
1.0
290
     0
  0
SCALE
  5
252
102
{ACAD_REACTORS
330
241
102
}
330
241
100
AcDbScale
 70
     0
300
100:1
140
100.0
141
1.0
290
     0
  0
SCALE
  5
253
102
{ACAD_REACTORS
330
241
102
}
330
241
100
AcDbScale
 70
     0
300
1/128" = 1'-0"
140
0.0078125
141
12.0
290
     0
  0
SCALE
  5
254
102
{ACAD_REACTORS
330
241
102
}
330
241
100
AcDbScale
 70
     0
300
1/64" = 1'-0"
140
0.015625
141
12.0
290
     0
  0
SCALE
  5
255
102
{ACAD_REACTORS
330
241
102
}
330
241
100
AcDbScale
 70
     0
300
1/32" = 1'-0"
140
0.03125
141
12.0
290
     0
  0
SCALE
  5
256
102
{ACAD_REACTORS
330
241
102
}
330
241
100
AcDbScale
 70
     0
300
1/16" = 1'-0"
140
0.0625
141
12.0
290
     0
  0
SCALE
  5
257
102
{ACAD_REACTORS
330
241
102
}
330
241
100
AcDbScale
 70
     0
300
3/32" = 1'-0"
140
0.09375
141
12.0
290
     0
  0
SCALE
  5
258
102
{ACAD_REACTORS
330
241
102
}
330
241
100
AcDbScale
 70
     0
300
1/8" = 1'-0"
140
0.125
141
12.0
290
     0
  0
SCALE
  5
259
102
{ACAD_REACTORS
330
241
102
}
330
241
100
AcDbScale
 70
     0
300
3/16" = 1'-0"
140
0.1875
141
12.0
290
     0
  0
SCALE
  5
25A
102
{ACAD_REACTORS
330
241
102
}
330
241
100
AcDbScale
 70
     0
300
1/4" = 1'-0"
140
0.25
141
12.0
290
     0
  0
SCALE
  5
25B
102
{ACAD_REACTORS
330
241
102
}
330
241
100
AcDbScale
 70
     0
300
3/8" = 1'-0"
140
0.375
141
12.0
290
     0
  0
SCALE
  5
25C
102
{ACAD_REACTORS
330
241
102
}
330
241
100
AcDbScale
 70
     0
300
1/2" = 1'-0"
140
0.5
141
12.0
290
     0
  0
SCALE
  5
25D
102
{ACAD_REACTORS
330
241
102
}
330
241
100
AcDbScale
 70
     0
300
3/4" = 1'-0"
140
0.75
141
12.0
290
     0
  0
SCALE
  5
25E
102
{ACAD_REACTORS
330
241
102
}
330
241
100
AcDbScale
 70
     0
300
1" = 1'-0"
140
1.0
141
12.0
290
     0
  0
SCALE
  5
25F
102
{ACAD_REACTORS
330
241
102
}
330
241
100
AcDbScale
 70
     0
300
1-1/2" = 1'-0"
140
1.5
141
12.0
290
     0
  0
SCALE
  5
260
102
{ACAD_REACTORS
330
241
102
}
330
241
100
AcDbScale
 70
     0
300
3" = 1'-0"
140
3.0
141
12.0
290
     0
  0
SCALE
  5
261
102
{ACAD_REACTORS
330
241
102
}
330
241
100
AcDbScale
 70
     0
300
6" = 1'-0"
140
6.0
141
12.0
290
     0
  0
SCALE
  5
262
102
{ACAD_REACTORS
330
241
102
}
330
241
100
AcDbScale
 70
     0
300
1'-0" = 1'-0"
140
12.0
141
12.0
290
     0
  0
TABLESTYLE
  5
279
102
{ACAD_REACTORS
330
278
102
}
102
{ACAD_XDICTIONARY
360
9A12
102
}
330
278
100
AcDbTableStyle
  3
Standard
 70
     0
 71
     0
 40
0.06
 41
0.06
280
     0
281
     0
  7
Standard
140
4.5
170
     2
 62
     0
 63
   257
283
     0
 90
        4
 91
        0
  1

274
    -2
284
     1
 64
     0
275
    -2
285
     1
 65
     0
276
    -2
286
     1
 66
     0
277
    -2
287
     1
 67
     0
278
    -2
288
     1
 68
     0
279
    -2
289
     1
 69
     0
  7
Standard
140
6.0
170
     5
 62
     0
 63
   257
283
     0
 90
        4
 91
        0
  1

274
    -2
284
     1
 64
     0
275
    -2
285
     1
 65
     0
276
    -2
286
     1
 66
     0
277
    -2
287
     1
 67
     0
278
    -2
288
     1
 68
     0
279
    -2
289
     1
 69
     0
  7
Standard
140
4.5
170
     5
 62
     0
 63
   257
283
     0
 90
        4
 91
        0
  1

274
    -2
284
     1
 64
     0
275
    -2
285
     1
 65
     0
276
    -2
286
     1
 66
     0
277
    -2
287
     1
 67
     0
278
    -2
288
     1
 68
     0
279
    -2
289
     1
 69
     0
  0
VISUALSTYLE
  5
26C
102
{ACAD_REACTORS
330
267
102
}
330
267
100
AcDbVisualStyle
  2
2dWireframe
 70
     4
 71
     0
 72
     2
 73
     0
 90
        0
 40
-0.6
 41
-30.0
 62
     5
 63
     7
421
 16777215
 74
     1
 91
        4
 64
     7
 65
   257
 75
     1
175
     1
 42
1.0
 92
        0
 66
   257
 43
1.0
 76
     1
 77
     6
 78
     2
 67
     7
 79
     5
170
     0
171
     0
290
     0
174
     0
 93
        1
 44
0.0
173
     0
291
     0
 45
0.0
  0
VISUALSTYLE
  5
26E
102
{ACAD_REACTORS
330
267
102
}
330
267
100
AcDbVisualStyle
  2
3D Hidden
 70
     6
 71
     1
 72
     2
 73
     2
 90
        0
 40
-0.6
 41
-30.0
 62
     5
 63
     7
421
 16777215
 74
     2
 91
        2
 64
     7
 65
   257
 75
     2
175
     1
 42
40.0
 92
        0
 66
   257
 43
1.0
 76
     1
 77
     6
 78
     2
 67
     7
 79
     3
170
     0
171
     0
290
     0
174
     0
 93
        1
 44
0.0
173
     0
291
     0
 45
0.0
  0
VISUALSTYLE
  5
26D
102
{ACAD_REACTORS
330
267
102
}
330
267
100
AcDbVisualStyle
  2
3dWireframe
 70
     5
 71
     0
 72
     2
 73
     0
 90
        0
 40
-0.6
 41
-30.0
 62
     5
 63
     7
421
 16777215
 74
     1
 91
        4
 64
     7
 65
   257
 75
     1
175
     1
 42
1.0
 92
        0
 66
   257
 43
1.0
 76
     1
 77
     6
 78
     2
 67
     7
 79
     5
170
     0
171
     0
290
     0
174
     0
 93
        1
 44
0.0
173
     0
291
     0
 45
0.0
  0
VISUALSTYLE
  5
26F
102
{ACAD_REACTORS
330
267
102
}
330
267
100
AcDbVisualStyle
  2
Basic
 70
     7
 71
     1
 72
     0
 73
     1
 90
        0
 40
-0.6
 41
-30.0
 62
     5
 63
     7
421
 16777215
 74
     0
 91
        4
 64
     7
 65
   257
 75
     1
175
     1
 42
1.0
 92
        8
 66
     7
 43
1.0
 76
     1
 77
     6
 78
     2
 67
     7
 79
     5
170
     0
171
     0
290
     0
174
     0
 93
        1
 44
0.0
173
     0
291
     1
 45
0.0
  0
VISUALSTYLE
  5
273
102
{ACAD_REACTORS
330
267
102
}
330
267
100
AcDbVisualStyle
  2
Brighten
 70
    12
 71
     2
 72
     2
 73
     0
 90
        0
 40
-0.6
 41
-30.0
 62
     5
 63
     7
421
 16777215
 74
     1
 91
        4
 64
     7
 65
   257
 75
     1
175
     1
 42
1.0
 92
        8
 66
     7
 43
1.0
 76
     1
 77
     6
 78
     2
 67
     7
 79
     5
170
     0
171
     0
290
     0
174
     0
 93
        1
 44
50.0
173
     0
291
     1
 45
0.0
  0
VISUALSTYLE
  5
277
102
{ACAD_REACTORS
330
267
102
}
330
267
100
AcDbVisualStyle
  2
ColorChange
 70
    16
 71
     2
 72
     2
 73
     3
 90
        0
 40
-0.6
 41
-30.0
 62
     5
 63
     8
421
  8421504
 74
     1
 91
        4
 64
     7
 65
   257
 75
     1
175
     1
 42
1.0
 92
        8
 66
     8
424
  8421504
 43
1.0
 76
     1
 77
     6
 78
     2
 67
     7
 79
     5
170
     0
171
     0
290
     0
174
     0
 93
        1
 44
0.0
173
     0
291
     1
 45
0.0
  0
VISUALSTYLE
  5
271
102
{ACAD_REACTORS
330
267
102
}
330
267
100
AcDbVisualStyle
  2
Conceptual
 70
     9
 71
     3
 72
     2
 73
     0
 90
        0
 40
-0.6
 41
-30.0
 62
     5
 63
     7
421
 16777215
 74
     2
 91
        2
 64
     7
 65
   257
 75
     1
175
     1
 42
40.0
 92
        8
 66
     7
 43
1.0
 76
     1
 77
     6
 78
     2
 67
     7
 79
     3
170
     0
171
     0
290
     0
174
     0
 93
        1
 44
0.0
173
     0
291
     0
 45
0.0
  0
VISUALSTYLE
  5
272
102
{ACAD_REACTORS
330
267
102
}
330
267
100
AcDbVisualStyle
  2
Dim
 70
    11
 71
     2
 72
     2
 73
     0
 90
        0
 40
-0.6
 41
-30.0
 62
     5
 63
     7
421
 16777215
 74
     1
 91
        4
 64
     7
 65
   257
 75
     1
175
     1
 42
1.0
 92
        8
 66
     7
 43
1.0
 76
     1
 77
     6
 78
     2
 67
     7
 79
     5
170
     0
171
     0
290
     0
174
     0
 93
        1
 44
-50.0
173
     0
291
     1
 45
0.0
  0
VISUALSTYLE
  5
BDE
102
{ACAD_REACTORS
330
267
102
}
330
267
100
AcDbVisualStyle
  2
EdgeColorOff
 70
    22
 71
     2
 72
     2
 73
     0
 90
        0
 40
0.6
 41
30.0
 62
     5
 63
     7
421
 16777215
 74
     1
 91
        4
 64
     7
 65
   257
 75
     1
175
     1
 42
1.0
 92
        8
 66
     7
 43
1.0
 76
     1
 77
     6
 78
     2
 67
     7
 79
     5
170
     0
171
     0
290
     0
174
     0
 93
        1
 44
0.0
173
     0
291
     1
 45
0.0
  0
VISUALSTYLE
  5
276
102
{ACAD_REACTORS
330
267
102
}
330
267
100
AcDbVisualStyle
  2
Facepattern
 70
    15
 71
     2
 72
     2
 73
     0
 90
        0
 40
-0.6
 41
-30.0
 62
     5
 63
     7
421
 16777215
 74
     1
 91
        4
 64
     7
 65
   257
 75
     1
175
     1
 42
1.0
 92
        8
 66
     7
 43
1.0
 76
     1
 77
     6
 78
     2
 67
     7
 79
     5
170
     0
171
     0
290
     0
174
     0
 93
        1
 44
0.0
173
     0
291
     1
 45
0.0
  0
VISUALSTYLE
  5
268
102
{ACAD_REACTORS
330
267
102
}
330
267
100
AcDbVisualStyle
  2
Flat
 70
     0
 71
     2
 72
     1
 73
     1
 90
        2
 40
-0.6
 41
30.0
 62
     5
 63
     7
421
 16777215
 74
     0
 91
        4
 64
     7
 65
   257
 75
     1
175
     1
 42
1.0
 92
        8
 66
     7
 43
1.0
 76
     1
 77
     6
 78
     2
 67
     7
 79
     5
170
     0
171
     0
290
     0
174
     0
 93
       13
 44
0.0
173
     0
291
     1
 45
0.0
  0
VISUALSTYLE
  5
269
102
{ACAD_REACTORS
330
267
102
}
330
267
100
AcDbVisualStyle
  2
FlatWithEdges
 70
     1
 71
     2
 72
     1
 73
     1
 90
        2
 40
-0.6
 41
30.0
 62
     5
 63
     7
421
 16777215
 74
     1
 91
        4
 64
     7
 65
   257
 75
     1
175
     1
 42
1.0
 92
        0
 66
   257
 43
1.0
 76
     1
 77
     6
 78
     2
 67
     7
 79
     5
170
     0
171
     0
290
     0
174
     0
 93
       13
 44
0.0
173
     0
291
     1
 45
0.0
  0
VISUALSTYLE
  5
26A
102
{ACAD_REACTORS
330
267
102
}
330
267
100
AcDbVisualStyle
  2
Gouraud
 70
     2
 71
     2
 72
     2
 73
     1
 90
        2
 40
-0.6
 41
30.0
 62
     5
 63
     7
421
 16777215
 74
     0
 91
        4
 64
     7
 65
   257
 75
     1
175
     1
 42
1.0
 92
        0
 66
     7
 43
1.0
 76
     1
 77
     6
 78
     2
 67
     7
 79
     5
170
     0
171
     0
290
     0
174
     0
 93
       13
 44
0.0
173
     0
291
     1
 45
0.0
  0
VISUALSTYLE
  5
26B
102
{ACAD_REACTORS
330
267
102
}
330
267
100
AcDbVisualStyle
  2
GouraudWithEdges
 70
     3
 71
     2
 72
     2
 73
     1
 90
        2
 40
-0.6
 41
30.0
 62
     5
 63
     7
421
 16777215
 74
     1
 91
        4
 64
     7
 65
   257
 75
     1
175
     1
 42
1.0
 92
        0
 66
   257
 43
1.0
 76
     1
 77
     6
 78
     2
 67
     7
 79
     5
170
     0
171
     0
290
     0
174
     0
 93
       13
 44
0.0
173
     0
291
     1
 45
0.0
  0
VISUALSTYLE
  5
BDB
102
{ACAD_REACTORS
330
267
102
}
330
267
100
AcDbVisualStyle
  2
Hidden
 70
     6
 71
     1
 72
     2
 73
     2
 90
        0
 40
0.6
 41
30.0
 62
     5
 63
     7
421
 16777215
 74
     2
 91
        2
 64
     7
 65
   257
 75
     2
175
     1
 42
40.0
 92
        0
 66
   257
 43
1.0
 76
     1
 77
     6
 78
     2
 67
     7
 79
     3
170
     0
171
     0
290
     0
174
     0
 93
        1
 44
0.0
173
     0
291
     0
 45
0.0
  0
VISUALSTYLE
  5
BDC
102
{ACAD_REACTORS
330
267
102
}
330
267
100
AcDbVisualStyle
  2
JitterOff
 70
    20
 71
     2
 72
     2
 73
     0
 90
        0
 40
0.6
 41
30.0
 62
     5
 63
     7
421
 16777215
 74
     1
 91
        4
 64
     7
 65
   257
 75
     1
175
     1
 42
1.0
 92
       10
 66
     7
 43
1.0
 76
     1
 77
     6
 78
     2
 67
     7
 79
     5
170
     0
171
     0
290
     0
174
     0
 93
        1
 44
0.0
173
     0
291
     1
 45
0.0
  0
VISUALSTYLE
  5
275
102
{ACAD_REACTORS
330
267
102
}
330
267
100
AcDbVisualStyle
  2
Linepattern
 70
    14
 71
     2
 72
     2
 73
     0
 90
        0
 40
-0.6
 41
-30.0
 62
     5
 63
     7
421
 16777215
 74
     1
 91
        4
 64
     7
 65
   257
 75
     7
175
     7
 42
1.0
 92
        8
 66
     7
 43
1.0
 76
     1
 77
     6
 78
     2
 67
     7
 79
     5
170
     0
171
     0
290
     0
174
     0
 93
        1
 44
0.0
173
     0
291
     1
 45
0.0
  0
VISUALSTYLE
  5
BDD
102
{ACAD_REACTORS
330
267
102
}
330
267
100
AcDbVisualStyle
  2
OverhangOff
 70
    21
 71
     2
 72
     2
 73
     0
 90
        0
 40
0.6
 41
30.0
 62
     5
 63
     7
421
 16777215
 74
     1
 91
        4
 64
     7
 65
   257
 75
     1
175
     1
 42
1.0
 92
        9
 66
     7
 43
1.0
 76
     1
 77
     6
 78
     2
 67
     7
 79
     5
170
     0
171
     0
290
     0
174
     0
 93
        1
 44
0.0
173
     0
291
     1
 45
0.0
  0
VISUALSTYLE
  5
270
102
{ACAD_REACTORS
330
267
102
}
330
267
100
AcDbVisualStyle
  2
Realistic
 70
     8
 71
     2
 72
     2
 73
     0
 90
        0
 40
-0.6
 41
-30.0
 62
     5
 63
     7
421
 16777215
 74
     1
 91
        0
 64
     7
 65
   257
 75
     1
175
     1
 42
1.0
 92
        8
 66
     8
424
  7895160
 43
1.0
 76
     1
 77
     6
 78
     2
 67
     7
 79
     5
170
     0
171
     0
290
     0
174
     0
 93
       13
 44
0.0
173
     0
291
     0
 45
0.0
  0
VISUALSTYLE
  5
BE3
102
{ACAD_REACTORS
330
267
102
}
330
267
100
AcDbVisualStyle
  2
Shaded
 70
    27
 71
     2
 72
     2
 73
     1
 90
        2
 40
0.6
 41
30.0
 62
     5
 63
     7
421
 16777215
 74
     0
 91
        4
 64
     7
 65
   257
 75
     1
175
     1
 42
1.0
 92
        8
 66
   257
 43
1.0
 76
     1
 77
     6
 78
     2
 67
     8
425
  7895160
 79
     3
170
     0
171
     0
290
     0
174
     0
 93
        5
 44
0.0
173
     0
291
     0
 45
0.0
  0
VISUALSTYLE
  5
BE2
102
{ACAD_REACTORS
330
267
102
}
330
267
100
AcDbVisualStyle
  2
Shaded with edges
 70
    26
 71
     2
 72
     2
 73
     1
 90
        2
 40
0.6
 41
30.0
 62
     5
 63
     7
421
 16777215
 74
     1
 91
       10
 64
     7
 65
   257
 75
     2
175
     1
 42
1.0
 92
        8
 66
   257
 43
1.0
 76
     1
 77
     6
 78
     2
 67
     7
 79
     3
170
     0
171
     0
290
     0
174
     0
 93
        5
 44
0.0
173
     0
291
     0
 45
0.0
  0
VISUALSTYLE
  5
BDF
102
{ACAD_REACTORS
330
267
102
}
330
267
100
AcDbVisualStyle
  2
Shades of Gray
 70
    23
 71
     2
 72
     2
 73
     3
 90
        0
 40
0.6
 41
30.0
 62
     5
 63
     7
421
 16777215
 74
     2
 91
        2
 64
     7
 65
     7
 75
     1
175
     1
 42
40.0
 92
        8
 66
     7
 43
1.0
 76
     1
 77
     6
 78
     2
 67
     7
 79
     3
170
     0
171
     0
290
     0
174
     0
 93
        1
 44
0.0
173
     0
291
     0
 45
0.0
  0
VISUALSTYLE
  5
BE0
102
{ACAD_REACTORS
330
267
102
}
330
267
100
AcDbVisualStyle
  2
Sketchy
 70
    24
 71
     1
 72
     2
 73
     2
 90
        0
 40
0.6
 41
30.0
 62
     5
 63
     7
421
 16777215
 74
     2
 91
        2
 64
     7
 65
     7
 75
     1
175
     1
 42
40.0
 92
       11
 66
     7
 43
1.0
 76
     1
 77
     6
 78
     2
 67
     7
 79
     6
170
     0
171
     0
290
     0
174
     0
 93
        1
 44
0.0
173
     0
291
     0
 45
0.0
  0
VISUALSTYLE
  5
274
102
{ACAD_REACTORS
330
267
102
}
330
267
100
AcDbVisualStyle
  2
Thicken
 70
    13
 71
     2
 72
     2
 73
     0
 90
        0
 40
-0.6
 41
-30.0
 62
     5
 63
     7
421
 16777215
 74
     1
 91
        4
 64
     7
 65
   257
 75
     1
175
     1
 42
1.0
 92
       12
 66
     7
 43
1.0
 76
     1
 77
     6
 78
     2
 67
     7
 79
     5
170
     0
171
     0
290
     0
174
     0
 93
        1
 44
0.0
173
     0
291
     1
 45
0.0
  0
VISUALSTYLE
  5
BDA
102
{ACAD_REACTORS
330
267
102
}
330
267
100
AcDbVisualStyle
  2
Wireframe
 70
     5
 71
     0
 72
     2
 73
     0
 90
        0
 40
0.6
 41
30.0
 62
     5
 63
     7
421
 16777215
 74
     1
 91
        4
 64
     7
 65
   257
 75
     1
175
     1
 42
1.0
 92
        0
 66
   257
 43
1.0
 76
     1
 77
     6
 78
     2
 67
     7
 79
     3
170
     0
171
     0
290
     0
174
     0
 93
        1
 44
0.0
173
     0
291
     0
 45
0.0
  0
VISUALSTYLE
  5
BE1
102
{ACAD_REACTORS
330
267
102
}
330
267
100
AcDbVisualStyle
  2
X-Ray
 70
    25
 71
     2
 72
     2
 73
     1
 90
        1
 40
0.5
 41
30.0
 62
     5
 63
     7
421
 16777215
 74
     1
 91
        0
 64
     7
 65
   257
 75
     1
175
     1
 42
1.0
 92
        8
 66
     7
 43
1.0
 76
     1
 77
     6
 78
     2
 67
     7
 79
     3
170
     0
171
     0
290
     0
174
     0
 93
       13
 44
0.0
173
     0
291
     0
 45
0.0
  0
DICTIONARYVAR
  5
331
102
{ACAD_REACTORS
330
330
102
}
330
330
100
DictionaryVariables
280
     0
  1
1:1
  0
DICTIONARYVAR
  5
9A08
102
{ACAD_REACTORS
330
330
102
}
330
330
100
DictionaryVariables
280
     0
  1
Standard
  0
DICTIONARYVAR
  5
335
102
{ACAD_REACTORS
330
330
102
}
330
330
100
DictionaryVariables
280
     0
  1
Standard
  0
DICTIONARYVAR
  5
C00
102
{ACAD_REACTORS
330
330
102
}
330
330
100
DictionaryVariables
280
     0
  1
ByLayer
  0
DICTIONARYVAR
  5
64A
102
{ACAD_REACTORS
330
330
102
}
330
330
100
DictionaryVariables
280
     0
  1
0
  0
DICTIONARY
  5
9A12
330
279
100
AcDbDictionary
280
     1
281
     1
  3
ACAD_ROUNDTRIP_2008_TABLESTYLE_CELLSTYLEMAP
360
9A13
  0
CELLSTYLEMAP
  5
9A13
102
{ACAD_REACTORS
330
9A12
102
}
330
9A12
100
AcDbCellStyleMap
 90
        3
300
CELLSTYLE
  1
TABLEFORMAT_BEGIN
 90
        5
170
     1
 91
        0
 92
    32768
 62
   257
 93
        1
300
CONTENTFORMAT
  1
CONTENTFORMAT_BEGIN
 90
        0
 91
        0
 92
        4
 93
        0
300

 40
0.0
140
1.0
 94
        5
 62
     0
340
17
144
6.0
309
CONTENTFORMAT_END
171
     1
301
MARGIN
  1
CELLMARGIN_BEGIN
 40
0.06
 40
0.06
 40
0.06
 40
0.06
 40
0.18
 40
0.18
309
CELLMARGIN_END
 94
        6
 95
        1
302
GRIDFORMAT
  1
GRIDFORMAT_BEGIN
 90
        0
 91
        1
 62
     0
 92
       -2
340
0
 93
        0
 40
0.045
309
GRIDFORMAT_END
 95
        2
302
GRIDFORMAT
  1
GRIDFORMAT_BEGIN
 90
        0
 91
        1
 62
     0
 92
       -2
340
0
 93
        0
 40
0.045
309
GRIDFORMAT_END
 95
        4
302
GRIDFORMAT
  1
GRIDFORMAT_BEGIN
 90
        0
 91
        1
 62
     0
 92
       -2
340
0
 93
        0
 40
0.045
309
GRIDFORMAT_END
 95
        8
302
GRIDFORMAT
  1
GRIDFORMAT_BEGIN
 90
        0
 91
        1
 62
     0
 92
       -2
340
0
 93
        0
 40
0.045
309
GRIDFORMAT_END
 95
       16
302
GRIDFORMAT
  1
GRIDFORMAT_BEGIN
 90
        0
 91
        1
 62
     0
 92
       -2
340
0
 93
        0
 40
0.045
309
GRIDFORMAT_END
 95
       32
302
GRIDFORMAT
  1
GRIDFORMAT_BEGIN
 90
        0
 91
        1
 62
     0
 92
       -2
340
0
 93
        0
 40
0.045
309
GRIDFORMAT_END
309
TABLEFORMAT_END
  1
CELLSTYLE_BEGIN
 90
        1
 91
        1
300
_TITLE
309
CELLSTYLE_END
300
CELLSTYLE
  1
TABLEFORMAT_BEGIN
 90
        5
170
     1
 91
        0
 92
        0
 62
   257
 93
        1
300
CONTENTFORMAT
  1
CONTENTFORMAT_BEGIN
 90
        0
 91
        0
 92
        4
 93
        0
300

 40
0.0
140
1.0
 94
        5
 62
     0
340
17
144
4.5
309
CONTENTFORMAT_END
171
     1
301
MARGIN
  1
CELLMARGIN_BEGIN
 40
0.06
 40
0.06
 40
0.06
 40
0.06
 40
0.18
 40
0.18
309
CELLMARGIN_END
 94
        6
 95
        1
302
GRIDFORMAT
  1
GRIDFORMAT_BEGIN
 90
        0
 91
        1
 62
     0
 92
       -2
340
0
 93
        0
 40
0.045
309
GRIDFORMAT_END
 95
        2
302
GRIDFORMAT
  1
GRIDFORMAT_BEGIN
 90
        0
 91
        1
 62
     0
 92
       -2
340
0
 93
        0
 40
0.045
309
GRIDFORMAT_END
 95
        4
302
GRIDFORMAT
  1
GRIDFORMAT_BEGIN
 90
        0
 91
        1
 62
     0
 92
       -2
340
0
 93
        0
 40
0.045
309
GRIDFORMAT_END
 95
        8
302
GRIDFORMAT
  1
GRIDFORMAT_BEGIN
 90
        0
 91
        1
 62
     0
 92
       -2
340
0
 93
        0
 40
0.045
309
GRIDFORMAT_END
 95
       16
302
GRIDFORMAT
  1
GRIDFORMAT_BEGIN
 90
        0
 91
        1
 62
     0
 92
       -2
340
0
 93
        0
 40
0.045
309
GRIDFORMAT_END
 95
       32
302
GRIDFORMAT
  1
GRIDFORMAT_BEGIN
 90
        0
 91
        1
 62
     0
 92
       -2
340
0
 93
        0
 40
0.045
309
GRIDFORMAT_END
309
TABLEFORMAT_END
  1
CELLSTYLE_BEGIN
 90
        2
 91
        1
300
_HEADER
309
CELLSTYLE_END
300
CELLSTYLE
  1
TABLEFORMAT_BEGIN
 90
        5
170
     1
 91
        0
 92
        0
 62
   257
 93
        1
300
CONTENTFORMAT
  1
CONTENTFORMAT_BEGIN
 90
        0
 91
        0
 92
        4
 93
        0
300

 40
0.0
140
1.0
 94
        2
 62
     0
340
17
144
4.5
309
CONTENTFORMAT_END
171
     1
301
MARGIN
  1
CELLMARGIN_BEGIN
 40
0.06
 40
0.06
 40
0.06
 40
0.06
 40
0.18
 40
0.18
309
CELLMARGIN_END
 94
        6
 95
        1
302
GRIDFORMAT
  1
GRIDFORMAT_BEGIN
 90
        0
 91
        1
 62
     0
 92
       -2
340
0
 93
        0
 40
0.045
309
GRIDFORMAT_END
 95
        2
302
GRIDFORMAT
  1
GRIDFORMAT_BEGIN
 90
        0
 91
        1
 62
     0
 92
       -2
340
0
 93
        0
 40
0.045
309
GRIDFORMAT_END
 95
        4
302
GRIDFORMAT
  1
GRIDFORMAT_BEGIN
 90
        0
 91
        1
 62
     0
 92
       -2
340
0
 93
        0
 40
0.045
309
GRIDFORMAT_END
 95
        8
302
GRIDFORMAT
  1
GRIDFORMAT_BEGIN
 90
        0
 91
        1
 62
     0
 92
       -2
340
0
 93
        0
 40
0.045
309
GRIDFORMAT_END
 95
       16
302
GRIDFORMAT
  1
GRIDFORMAT_BEGIN
 90
        0
 91
        1
 62
     0
 92
       -2
340
0
 93
        0
 40
0.045
309
GRIDFORMAT_END
 95
       32
302
GRIDFORMAT
  1
GRIDFORMAT_BEGIN
 90
        0
 91
        1
 62
     0
 92
       -2
340
0
 93
        0
 40
0.045
309
GRIDFORMAT_END
309
TABLEFORMAT_END
  1
CELLSTYLE_BEGIN
 90
        3
 91
        2
300
_DATA
309
CELLSTYLE_END
  0
ENDSEC
  0
EOF
