  0
SECTION
  2
HEADER
  9
$ACADVER
  1
AC1021
  9
$ACADMAINTVER
 70
    25
  9
$DWGCODEPAGE
  3
ANSI_932
  9
$LASTSAVEDBY
  1
howeNelson
  9
$INSBASE
 10
0.0
 20
0.0
 30
0.0
  9
$EXTMIN
 10
0.0
 20
0.0
 30
0.0
  9
$EXTMAX
 10
2100.0
 20
2970.0
 30
0.0
  9
$LIMMIN
 10
0.0
 20
0.0
  9
$LIMMAX
 10
2100.0
 20
2970.0
  9
$ORTHOMODE
 70
     0
  9
$REGENMODE
 70
     1
  9
$FILLMODE
 70
     1
  9
$QTEXTMODE
 70
     0
  9
$MIRRTEXT
 70
     1
  9
$LTSCALE
 40
50.8
  9
$ATTMODE
 70
     1
  9
$TEXTSIZE
 40
533.0403732820173
  9
$TRACEWID
 40
1.0
  9
$TEXTSTYLE
  7
Standard
  9
$CLAYER
  8
MODEL
  9
$CELTYPE
  6
Continuous
  9
$CECOLOR
 62
   256
  9
$CELTSCALE
 40
1.0
  9
$DISPSILH
 70
     0
  9
$DIMSCALE
 40
1.0
  9
$DIMASZ
 40
6.0
  9
$DIMEXO
 40
25.0
  9
$DIMDLI
 40
25.0
  9
$DIMRND
 40
0.0
  9
$DIMDLE
 40
0.0
  9
$DIMEXE
 40
0.0
  9
$DIMTP
 40
0.0
  9
$DIMTM
 40
0.0
  9
$DIMTXT
 40
24.0
  9
$DIMCEN
 40
0.0
  9
$DIMTSZ
 40
0.0
  9
$DIMTOL
 70
     0
  9
$DIMLIM
 70
     0
  9
$DIMTIH
 70
     0
  9
$DIMTOH
 70
     0
  9
$DIMSE1
 70
     0
  9
$DIMSE2
 70
     0
  9
$DIMTAD
 70
     1
  9
$DIMZIN
 70
    11
  9
$DIMBLK
  1
DOT
  9
$DIMASO
 70
     1
  9
$DIMSHO
 70
     1
  9
$DIMPOST
  1
<>
  9
$DIMAPOST
  1
[]
  9
$DIMALT
 70
     0
  9
$DIMALTD
 70
     1
  9
$DIMALTF
 40
1.0
  9
$DIMLFAC
 40
1.0
  9
$DIMTOFL
 70
     0
  9
$DIMTVP
 40
0.0
  9
$DIMTIX
 70
     1
  9
$DIMSOXD
 70
     0
  9
$DIMSAH
 70
     0
  9
$DIMBLK1
  1

  9
$DIMBLK2
  1

  9
$DIMSTYLE
  2
JIS
  9
$DIMCLRD
 70
     0
  9
$DIMCLRE
 70
     0
  9
$DIMCLRT
 70
     0
  9
$DIMTFAC
 40
1.0
  9
$DIMGAP
 40
15.0
  9
$DIMJUST
 70
     0
  9
$DIMSD1
 70
     0
  9
$DIMSD2
 70
     0
  9
$DIMTOLJ
 70
     1
  9
$DIMTZIN
 70
    11
  9
$DIMALTZ
 70
    11
  9
$DIMALTTZ
 70
    11
  9
$DIMUPT
 70
     0
  9
$DIMDEC
 70
     0
  9
$DIMTDEC
 70
     1
  9
$DIMALTU
 70
     2
  9
$DIMALTTD
 70
     2
  9
$DIMTXSTY
  7
ＭＳ ゴシック
  9
$DIMAUNIT
 70
     0
  9
$DIMADEC
 70
     0
  9
$DIMALTRND
 40
0.0
  9
$DIMAZIN
 70
     0
  9
$DIMDSEP
 70
    46
  9
$DIMATFIT
 70
     0
  9
$DIMFRAC
 70
     2
  9
$DIMLDRBLK
  1
DOT
  9
$DIMLUNIT
 70
     2
  9
$DIMLWD
 70
    -2
  9
$DIMLWE
 70
    -2
  9
$DIMTMOVE
 70
     0
  9
$DIMFXL
 40
1.0
  9
$DIMFXLON
 70
     0
  9
$DIMJOGANG
 40
0.7853981633974483
  9
$DIMTFILL
 70
     0
  9
$DIMTFILLCLR
 70
     0
  9
$DIMARCSYM
 70
     0
  9
$DIMLTYPE
  6

  9
$DIMLTEX1
  6

  9
$DIMLTEX2
  6

  9
$LUNITS
 70
     2
  9
$LUPREC
 70
     0
  9
$SKETCHINC
 40
0.1
  9
$FILLETRAD
 40
0.0
  9
$AUNITS
 70
     0
  9
$AUPREC
 70
     0
  9
$MENU
  1
acad
  9
$ELEVATION
 40
0.0
  9
$PELEVATION
 40
0.0
  9
$THICKNESS
 40
0.0
  9
$LIMCHECK
 70
     0
  9
$CHAMFERA
 40
0.0
  9
$CHAMFERB
 40
0.0
  9
$CHAMFERC
 40
0.0
  9
$CHAMFERD
 40
0.0
  9
$SKPOLY
 70
     0
  9
$TDCREATE
 40
2447893.375
  9
$TDUCREATE
 40
0.0
  9
$TDUPDATE
 40
2458054.587752188
  9
$TDUUPDATE
 40
2458054.212752188
  9
$TDINDWG
 40
0.7986337847
  9
$TDUSRTIMER
 40
2458054.210062674
  9
$USRTIMER
 70
     1
  9
$ANGBASE
 50
0.0
  9
$ANGDIR
 70
     0
  9
$PDMODE
 70
     1
  9
$PDSIZE
 40
-2.0
  9
$PLINEWID
 40
0.0
  9
$SPLFRAME
 70
     0
  9
$SPLINETYPE
 70
     6
  9
$SPLINESEGS
 70
     8
  9
$HANDSEED
  5
9929
  9
$SURFTAB1
 70
     6
  9
$SURFTAB2
 70
     6
  9
$SURFTYPE
 70
     6
  9
$SURFU
 70
     6
  9
$SURFV
 70
     6
  9
$UCSBASE
  2

  9
$UCSNAME
  2

  9
$UCSORG
 10
0.0
 20
0.0
 30
0.0
  9
$UCSXDIR
 10
1.0
 20
0.0
 30
0.0
  9
$UCSYDIR
 10
0.0
 20
1.0
 30
0.0
  9
$UCSORTHOREF
  2

  9
$UCSORTHOVIEW
 70
     0
  9
$UCSORGTOP
 10
0.0
 20
0.0
 30
0.0
  9
$UCSORGBOTTOM
 10
0.0
 20
0.0
 30
0.0
  9
$UCSORGLEFT
 10
0.0
 20
0.0
 30
0.0
  9
$UCSORGRIGHT
 10
0.0
 20
0.0
 30
0.0
  9
$UCSORGFRONT
 10
0.0
 20
0.0
 30
0.0
  9
$UCSORGBACK
 10
0.0
 20
0.0
 30
0.0
  9
$PUCSBASE
  2

  9
$PUCSNAME
  2

  9
$PUCSORG
 10
0.0
 20
0.0
 30
0.0
  9
$PUCSXDIR
 10
1.0
 20
0.0
 30
0.0
  9
$PUCSYDIR
 10
0.0
 20
1.0
 30
0.0
  9
$PUCSORTHOREF
  2

  9
$PUCSORTHOVIEW
 70
     0
  9
$PUCSORGTOP
 10
0.0
 20
0.0
 30
0.0
  9
$PUCSORGBOTTOM
 10
0.0
 20
0.0
 30
0.0
  9
$PUCSORGLEFT
 10
0.0
 20
0.0
 30
0.0
  9
$PUCSORGRIGHT
 10
0.0
 20
0.0
 30
0.0
  9
$PUCSORGFRONT
 10
0.0
 20
0.0
 30
0.0
  9
$PUCSORGBACK
 10
0.0
 20
0.0
 30
0.0
  9
$USERI1
 70
     0
  9
$USERI2
 70
     0
  9
$USERI3
 70
     0
  9
$USERI4
 70
     0
  9
$USERI5
 70
     0
  9
$USERR1
 40
0.0
  9
$USERR2
 40
0.0
  9
$USERR3
 40
0.0
  9
$USERR4
 40
0.0
  9
$USERR5
 40
0.0
  9
$WORLDVIEW
 70
     1
  9
$SHADEDGE
 70
     3
  9
$SHADEDIF
 70
    70
  9
$TILEMODE
 70
     1
  9
$MAXACTVP
 70
    64
  9
$PINSBASE
 10
0.0
 20
0.0
 30
0.0
  9
$PLIMCHECK
 70
     0
  9
$PEXTMIN
 10
0.0
 20
0.0
 30
0.0
  9
$PEXTMAX
 10
0.0
 20
0.0
 30
0.0
  9
$PLIMMIN
 10
-7.5
 20
-20.0
  9
$PLIMMAX
 10
412.5
 20
277.0
  9
$UNITMODE
 70
     0
  9
$VISRETAIN
 70
     0
  9
$PLINEGEN
 70
     1
  9
$PSLTSCALE
 70
     0
  9
$TREEDEPTH
 70
  3020
  9
$CMLSTYLE
  2
Standard
  9
$CMLJUST
 70
     0
  9
$CMLSCALE
 40
1.0
  9
$PROXYGRAPHICS
 70
     0
  9
$MEASUREMENT
 70
     1
  9
$CELWEIGHT
370
    -1
  9
$ENDCAPS
280
     0
  9
$JOINSTYLE
280
     0
  9
$LWDISPLAY
290
     1
  9
$INSUNITS
 70
     4
  9
$HYPERLINKBASE
  1

  9
$STYLESHEET
  1

  9
$XEDIT
290
     1
  9
$CEPSNTYPE
380
     0
  9
$PSTYLEMODE
290
     1
  9
$FINGERPRINTGUID
  2

  9
$VERSIONGUID
  2

  9
$EXTNAMES
290
     1
  9
$PSVPSCALE
 40
0.0
  9
$OLESTARTUP
290
     0
  9
$SORTENTS
280
   127
  9
$INDEXCTL
280
     0
  9
$HIDETEXT
280
     1
  9
$XCLIPFRAME
290
     0
  9
$HALOGAP
280
     0
  9
$OBSCOLOR
 70
   257
  9
$OBSLTYPE
280
     0
  9
$INTERSECTIONDISPLAY
280
     0
  9
$INTERSECTIONCOLOR
 70
   257
  9
$DIMASSOC
280
     2
  9
$PROJECTNAME
  1

  9
$CAMERADISPLAY
290
     0
  9
$LENSLENGTH
 40
50.0
  9
$CAMERAHEIGHT
 40
0.0
  9
$STEPSPERSEC
 40
2.0
  9
$STEPSIZE
 40
6.0
  9
$3DDWFPREC
 40
2.0
  9
$PSOLWIDTH
 40
0.25
  9
$PSOLHEIGHT
 40
4.0
  9
$LOFTANG1
 40
1.570796326794897
  9
$LOFTANG2
 40
1.570796326794897
  9
$LOFTMAG1
 40
0.0
  9
$LOFTMAG2
 40
0.0
  9
$LOFTPARAM
 70
     7
  9
$LOFTNORMALS
280
     1
  9
$LATITUDE
 40
37.795
  9
$LONGITUDE
 40
-122.394
  9
$NORTHDIRECTION
 40
0.0
  9
$TIMEZONE
 70
 -8000
  9
$LIGHTGLYPHDISPLAY
280
     1
  9
$TILEMODELIGHTSYNCH
280
     1
  9
$SOLIDHIST
280
     1
  9
$SHOWHIST
280
     1
  9
$DWFFRAME
280
     2
  9
$DGNFRAME
280
     2
  9
$REALWORLDSCALE
290
     1
  9
$INTERFERECOLOR
 62
   256
  9
$CSHADOW
280
     0
  9
$SHADOWPLANELOCATION
 40
0.0
  0
ENDSEC
  0
SECTION
  2
CLASSES
  0
CLASS
  1
LWPOLYLINE
  2
AcDbPolyline
  3
ObjectDBX Classes
 90
        0
 91
        1
280
     0
281
     1
  0
CLASS
  1
IMAGE
  2
AcDbRasterImage
  3
ISM
 90
      127
 91
       10
280
     0
281
     1
  0
CLASS
  1
OLE2FRAME
  2
AcDbOle2Frame
  3
ObjectDBX Classes
 90
        0
 91
        1
280
     0
281
     1
  0
CLASS
  1
HATCH
  2
AcDbHatch
  3
ObjectDBX Classes
 90
        0
 91
        1
280
     0
281
     1
  0
CLASS
  1
DICTIONARYVAR
  2
AcDbDictionaryVar
  3
ObjectDBX Classes
 90
        0
 91
        9
280
     0
281
     0
  0
CLASS
  1
RASTERVARIABLES
  2
AcDbRasterVariables
  3
ISM
 90
        0
 91
        9
280
     0
281
     0
  0
CLASS
  1
IMAGEDEF
  2
AcDbRasterImageDef
  3
ISM
 90
        0
 91
        9
280
     0
281
     0
  0
CLASS
  1
IMAGEDEF_REACTOR
  2
AcDbRasterImageDefReactor
  3
ISM
 90
        1
 91
        9
280
     0
281
     0
  0
CLASS
  1
IDBUFFER
  2
AcDbIdBuffer
  3
ObjectDBX Classes
 90
        0
 91
        9
280
     0
281
     0
  0
CLASS
  1
SPATIAL_FILTER
  2
AcDbSpatialFilter
  3
ObjectDBX Classes
 90
        0
 91
        9
280
     0
281
     0
  0
CLASS
  1
XRECORD
  2
AcDbXrecord
  3
ObjectDBX Classes
 90
        0
 91
        1
280
     0
281
     0
  0
CLASS
  1
SORTENTSTABLE
  2
AcDbSortentsTable
  3
ObjectDBX Classes
 90
        0
 91
        9
280
     0
281
     0
  0
CLASS
  1
LAYER_INDEX
  2
AcDbLayerIndex
  3
ObjectDBX Classes
 90
        0
 91
        9
280
     0
281
     0
  0
CLASS
  1
SPATIAL_INDEX
  2
AcDbSpatialIndex
  3
AutoCAD 2000
 90
        0
 91
        9
280
     0
281
     0
  0
CLASS
  1
OBJECT_PTR
  2
CAseDLPNTableRecord
  3
ASE-LPNTableRecord
 90
        1
 91
        9
280
     0
281
     0
  0
CLASS
  1
LAYOUT
  2
AcDbLayout
  3
ObjectDBX Classes
 90
        0
 91
        1
280
     0
281
     0
  0
CLASS
  1
PLOTSETTINGS
  2
AcDbPlotSettings
  3
ObjectDBX Classes
 90
        0
 91
        9
280
     0
281
     0
  0
CLASS
  1
ACDBDICTIONARYWDFLT
  2
AcDbDictionaryWithDefault
  3
ObjectDBX Classes
 90
        0
 91
        9
280
     0
281
     0
  0
CLASS
  1
ACDBPLACEHOLDER
  2
AcDbPlaceHolder
  3
ObjectDBX Classes
 90
        0
 91
        1
280
     0
281
     0
  0
CLASS
  1
SCALE
  2
AcDbScale
  3
ObjectDBX Classes
 90
     1153
 91
        9
280
     0
281
     0
  0
CLASS
  1
MATERIAL
  2
AcDbMaterial
  3
ObjectDBX Classes
 90
     1153
 91
        9
280
     0
281
     0
  0
CLASS
  1
VISUALSTYLE
  2
AcDbVisualStyle
  3
ObjectDBX Classes
 90
     4095
 91
        9
280
     0
281
     0
  0
CLASS
  1
TABLESTYLE
  2
AcDbTableStyle
  3
ObjectDBX Classes
 90
     4095
 91
        9
280
     0
281
     0
  0
CLASS
  1
DIMASSOC
  2
AcDbDimAssoc
  3
"AcDbDimAssoc|Product Desc:     AcDim ARX App For Dimension|Company:          Autodesk, Inc.|WEB Address:      www.autodesk.com"
 90
        0
 91
        9
280
     0
281
     0
  0
CLASS
  1
CELLSTYLEMAP
  2
AcDbCellStyleMap
  3
ObjectDBX Classes
 90
     1152
 91
        9
280
     0
281
     0
  0
CLASS
  1
SUN
  2
AcDbSun
  3
SCENEOE
 90
     1153
 91
        9
280
     0
281
     0
  0
CLASS
  1
MLEADERSTYLE
  2
AcDbMLeaderStyle
  3
ACDB_MLEADERSTYLE_CLASS
 90
     4095
 91
        9
280
     0
281
     0
  0
ENDSEC
  0
SECTION
  2
TABLES
  0
TABLE
  2
VPORT
  5
7
330
0
100
AcDbSymbolTable
 70
     1
  0
VPORT
  5
15
330
7
100
AcDbSymbolTableRecord
100
AcDbViewportTableRecord
  2
*ACTIVE
 70
     0
 10
0.0
 20
0.0
 11
1.0
 21
1.0
 12
518.0464231739697
 22
1539.908751102672
 13
0.0
 23
0.0
 14
1.0
 24
1.0
 15
0.0
 25
0.0
 16
0.0
 26
0.0
 36
1.0
 17
531.9535768260303
 27
-54.90875110267189
 37
-796.100446371116
 40
3029.4
 41
2.178082191780822
 42
50.0
 43
0.0
 44
0.0
 50
0.0
 51
0.0
 71
    16
 72
  2000
 73
     1
 74
     1
 75
     0
 76
     0
 77
     0
 78
     0
281
     0
 65
     1
110
0.0
120
0.0
130
0.0
111
1.0
121
0.0
131
0.0
112
0.0
122
1.0
132
0.0
 79
     0
146
0.0
348
26C
 60
     3
 61
     5
292
     1
282
     1
141
0.0
142
0.0
 63
   256
361
BE4
  0
ENDTAB
  0
TABLE
  2
LTYPE
  5
4
330
0
100
AcDbSymbolTable
 70
     5
  0
LTYPE
  5
11
330
4
100
AcDbSymbolTableRecord
100
AcDbLinetypeTableRecord
  2
ByBlock
 70
     0
  3

 72
    65
 73
     0
 40
0.0
  0
LTYPE
  5
12
330
4
100
AcDbSymbolTableRecord
100
AcDbLinetypeTableRecord
  2
ByLayer
 70
     0
  3

 72
    65
 73
     0
 40
0.0
  0
LTYPE
  5
13
330
4
100
AcDbSymbolTableRecord
100
AcDbLinetypeTableRecord
  2
Continuous
 70
     0
  3
Solid line
 72
    65
 73
     0
 40
0.0
  0
LTYPE
  5
1A38
330
4
100
AcDbSymbolTableRecord
100
AcDbLinetypeTableRecord
  2
HIDDEN
 70
     0
  3
Hidden _ _ _ _ _ _ _ _ _ _ _ _ _ _ _ _ _ _ _ _ 
 72
    65
 73
     2
 40
9.524999999999999
 49
6.35
 74
     0
 49
-3.175
 74
     0
  0
LTYPE
  5
2496
330
4
100
AcDbSymbolTableRecord
100
AcDbLinetypeTableRecord
  2
CENTER2
 70
     0
  3
Center (.5x) ___ _ ___ _ ___ _ ___ _ ___ _ ___
 72
    65
 73
     4
 40
1.125
 49
0.75
 74
     0
 49
-0.125
 74
     0
 49
0.125
 74
     0
 49
-0.125
 74
     0
  0
LTYPE
  5
24DB
330
4
100
AcDbSymbolTableRecord
100
AcDbLinetypeTableRecord
  2
AM_DIN_F_W050
 70
     0
  3
__ __ __ __ __ __ __ __ __ __ __ __ __ __ __
 72
    65
 73
     2
 40
6.25
 49
4.75
 74
     0
 49
-1.5
 74
     0
  0
LTYPE
  5
3135
330
4
100
AcDbSymbolTableRecord
100
AcDbLinetypeTableRecord
  2
AM_DIN_G_W050
 70
     0
  3
____ . ____ . ____ . ____ . ____ . ____ . ____
 72
    65
 73
     4
 40
13.75
 49
9.75
 74
     0
 49
-1.5
 74
     0
 49
1.0
 74
     0
 49
-1.5
 74
     0
  0
ENDTAB
  0
TABLE
  2
LAYER
  5
2
102
{ACAD_XDICTIONARY
360
2E1
102
}
330
0
100
AcDbSymbolTable
 70
     8
  0
LAYER
  5
14
330
2
100
AcDbSymbolTableRecord
100
AcDbLayerTableRecord
  2
0
 70
     0
 62
     7
  6
Continuous
370
    -3
390
1D
347
266
  0
LAYER
  5
4A
330
2
100
AcDbSymbolTableRecord
100
AcDbLayerTableRecord
  2
Defpoints
 70
     0
 62
     7
  6
Continuous
290
     0
370
     9
390
1D
347
266
  0
LAYER
  5
4B
330
2
100
AcDbSymbolTableRecord
100
AcDbLayerTableRecord
  2
TEMPLATE
 70
     0
 62
     4
  6
Continuous
290
     0
370
    20
390
1D
347
266
  0
LAYER
  5
4D
330
2
100
AcDbSymbolTableRecord
100
AcDbLayerTableRecord
  2
MODEL
 70
     0
 62
     7
  6
Continuous
370
    20
390
1D
347
266
  0
LAYER
  5
382
330
2
100
AcDbSymbolTableRecord
100
AcDbLayerTableRecord
  2
LOGO
 70
     0
 62
     7
  6
Continuous
370
    -3
390
1D
347
266
  0
LAYER
  5
B7A
330
2
100
AcDbSymbolTableRecord
100
AcDbLayerTableRecord
  2
DIM
 70
     0
 62
     7
  6
Continuous
370
    13
390
1D
347
266
1001
AcAecLayerStandard
1000

1000

  0
LAYER
  5
3B0F
330
2
100
AcDbSymbolTableRecord
100
AcDbLayerTableRecord
  2
_0-7_
 70
     0
 62
     7
  6
Continuous
370
    -3
390
1D
347
266
  0
LAYER
  5
95C1
330
2
100
AcDbSymbolTableRecord
100
AcDbLayerTableRecord
  2
MODEL GRAY
 70
     0
 62
   252
  6
Continuous
370
    20
390
1D
347
266
1001
AcAecLayerStandard
1000

1000

  0
ENDTAB
  0
TABLE
  2
STYLE
  5
3
330
0
100
AcDbSymbolTable
 70
     2
  0
STYLE
  5
17
330
3
100
AcDbSymbolTableRecord
100
AcDbTextStyleTableRecord
  2
Standard
 70
     0
 40
0.0
 41
1.0
 50
0.0
 71
     0
 42
533.0403732820173
  3
txt
  4
BIGFONT.SHX
  0
STYLE
  5
39
330
3
100
AcDbSymbolTableRecord
100
AcDbTextStyleTableRecord
  2
ＭＳ ゴシック
 70
     0
 40
0.0
 41
1.0
 50
0.0
 71
     0
 42
533.0403732820173
  3
msgothic.ttc
  4
ＭＳ ゴシック
1001
ACAD
1000
ＭＳ ゴシック
1071
        0
  0
ENDTAB
  0
TABLE
  2
VIEW
  5
5
330
0
100
AcDbSymbolTable
 70
     0
  0
ENDTAB
  0
TABLE
  2
UCS
  5
6
330
0
100
AcDbSymbolTable
 70
     0
  0
ENDTAB
  0
TABLE
  2
APPID
  5
8
330
0
100
AcDbSymbolTable
 70
    13
  0
APPID
  5
16
330
8
100
AcDbSymbolTableRecord
100
AcDbRegAppTableRecord
  2
ACAD
 70
     0
  0
APPID
  5
5C5
330
8
100
AcDbSymbolTableRecord
100
AcDbRegAppTableRecord
  2
AcAecLayerStandard
 70
     0
  0
APPID
  5
694
330
8
100
AcDbSymbolTableRecord
100
AcDbRegAppTableRecord
  2
ACAD_DSTYLE_DIMJAG
 70
     0
  0
APPID
  5
695
330
8
100
AcDbSymbolTableRecord
100
AcDbRegAppTableRecord
  2
ACAD_DSTYLE_DIMTALN
 70
     0
  0
APPID
  5
69A
330
8
100
AcDbSymbolTableRecord
100
AcDbRegAppTableRecord
  2
ACAD_PSEXT
 70
     0
  0
APPID
  5
2499
330
8
100
AcDbSymbolTableRecord
100
AcDbRegAppTableRecord
  2
GENIUS_GENODEF_13
 70
     0
  0
APPID
  5
249A
330
8
100
AcDbSymbolTableRecord
100
AcDbRegAppTableRecord
  2
GENIUS_GENOBJ-N-FIL_13
 70
     0
  0
APPID
  5
249C
330
8
100
AcDbSymbolTableRecord
100
AcDbRegAppTableRecord
  2
AECBASE
 70
     0
  0
APPID
  5
249D
330
8
100
AcDbSymbolTableRecord
100
AcDbRegAppTableRecord
  2
AEC_2DSECTION_XDATA
 70
     0
  0
APPID
  5
249E
330
8
100
AcDbSymbolTableRecord
100
AcDbRegAppTableRecord
  2
AEC_MASSGROUP_XDADA
 70
     0
  0
APPID
  5
6EA7
330
8
100
AcDbSymbolTableRecord
100
AcDbRegAppTableRecord
  2
GENIUS_GENREC_14
 70
     0
  0
APPID
  5
6EA8
330
8
100
AcDbSymbolTableRecord
100
AcDbRegAppTableRecord
  2
GENIUS_GENOBJ-N-REC_13
 70
     0
  0
APPID
  5
9925
330
8
100
AcDbSymbolTableRecord
100
AcDbRegAppTableRecord
  2
ACAD_MLEADERVER
 70
     0
  0
ENDTAB
  0
TABLE
  2
DIMSTYLE
  5
9
330
0
100
AcDbSymbolTable
 70
     2
100
AcDbDimStyleTable
  0
DIMSTYLE
105
18
330
9
100
AcDbSymbolTableRecord
100
AcDbDimStyleTableRecord
  2
Standard
 70
     0
178
     0
340
17
  0
DIMSTYLE
105
5C
102
{ACAD_REACTORS
330
8CF6
330
8D03
330
8E66
330
8E68
330
8E6A
330
8F8D
330
8F8F
330
8FBB
330
9380
330
9548
330
990D
102
}
330
9
100
AcDbSymbolTableRecord
100
AcDbDimStyleTableRecord
  2
JIS
 70
     0
  3
<>
  4
[]
 41
9.0
 42
0.0
 43
6.99999999999994
 44
19.9999999999962
 73
     0
 74
     0
 77
     1
 78
    11
140
24.4326171875
141
0.0
143
1.0
147
10.0
171
     1
174
     1
178
     0
179
     2
271
     1
272
     1
276
     2
284
    11
285
    11
286
    11
289
     0
340
39
341
4E
342
4E
  0
ENDTAB
  0
TABLE
  2
BLOCK_RECORD
  5
1
330
0
100
AcDbSymbolTable
 70
    17
  0
BLOCK_RECORD
  5
A
330
1
100
AcDbSymbolTableRecord
100
AcDbBlockTableRecord
  2
*MODEL_SPACE
340
20
 70
     0
280
     1
281
     0
  0
BLOCK_RECORD
  5
B
330
1
100
AcDbSymbolTableRecord
100
AcDbBlockTableRecord
  2
*PAPER_SPACE
340
21
 70
     0
280
     1
281
     0
  0
BLOCK_RECORD
  5
4E
330
1
100
AcDbSymbolTableRecord
100
AcDbBlockTableRecord
  2
_DOT
340
0
102
{BLKREFS
331
8CFD
331
8CFE
331
8D0A
331
8D0B
331
8E73
331
8E74
331
8E7F
331
8E80
331
8E8B
331
8E8C
331
8F97
331
8F98
331
8FA3
331
8FA4
331
8FC4
331
8FC5
331
9387
331
9388
331
954F
331
9550
331
9917
331
9916
102
}
 70
     0
280
     1
281
     0
  0
BLOCK_RECORD
  5
3A5
330
1
100
AcDbSymbolTableRecord
100
AcDbBlockTableRecord
  2
名称未設定-1
340
0
102
{BLKREFS
331
7522
102
}
 70
     1
280
     1
281
     0
  0
BLOCK_RECORD
  5
3A8
330
1
100
AcDbSymbolTableRecord
100
AcDbBlockTableRecord
  2
block 2
340
0
102
{BLKREFS
331
3A7
102
}
 70
     0
280
     1
281
     0
  0
BLOCK_RECORD
  5
3AB
330
1
100
AcDbSymbolTableRecord
100
AcDbBlockTableRecord
  2
block 3
340
0
102
{BLKREFS
331
3AA
102
}
 70
     0
280
     1
281
     0
  0
BLOCK_RECORD
  5
3AE
330
1
100
AcDbSymbolTableRecord
100
AcDbBlockTableRecord
  2
block 4
340
0
102
{BLKREFS
331
3AD
102
}
 70
     0
280
     1
281
     0
  0
BLOCK_RECORD
  5
3BD
330
1
100
AcDbSymbolTableRecord
100
AcDbBlockTableRecord
  2
block 5
340
0
102
{BLKREFS
331
3BC
102
}
 70
     0
280
     1
281
     0
  0
BLOCK_RECORD
  5
8CF7
330
1
100
AcDbSymbolTableRecord
100
AcDbBlockTableRecord
  2
*D6
340
0
 70
     0
280
     1
281
     0
  0
BLOCK_RECORD
  5
8D04
330
1
100
AcDbSymbolTableRecord
100
AcDbBlockTableRecord
  2
*D7
340
0
 70
     0
280
     1
281
     0
  0
BLOCK_RECORD
  5
8E6D
330
1
100
AcDbSymbolTableRecord
100
AcDbBlockTableRecord
  2
*D8
340
0
 70
     0
280
     1
281
     0
  0
BLOCK_RECORD
  5
8E79
330
1
100
AcDbSymbolTableRecord
100
AcDbBlockTableRecord
  2
*D9
340
0
 70
     0
280
     1
281
     0
  0
BLOCK_RECORD
  5
8E85
330
1
100
AcDbSymbolTableRecord
100
AcDbBlockTableRecord
  2
*D10
340
0
 70
     0
280
     1
281
     0
  0
BLOCK_RECORD
  5
8F91
330
1
100
AcDbSymbolTableRecord
100
AcDbBlockTableRecord
  2
*D11
340
0
 70
     0
280
     1
281
     0
  0
BLOCK_RECORD
  5
8F9D
330
1
100
AcDbSymbolTableRecord
100
AcDbBlockTableRecord
  2
*D12
340
0
 70
     0
280
     1
281
     0
  0
BLOCK_RECORD
  5
8FBE
330
1
100
AcDbSymbolTableRecord
100
AcDbBlockTableRecord
  2
*D13
340
0
 70
     0
280
     1
281
     0
  0
BLOCK_RECORD
  5
9381
330
1
100
AcDbSymbolTableRecord
100
AcDbBlockTableRecord
  2
*D14
340
0
 70
     0
280
     1
281
     0
  0
BLOCK_RECORD
  5
9549
330
1
100
AcDbSymbolTableRecord
100
AcDbBlockTableRecord
  2
*D15
340
0
 70
     0
280
     1
281
     0
  0
BLOCK_RECORD
  5
9910
330
1
100
AcDbSymbolTableRecord
100
AcDbBlockTableRecord
  2
*D16
340
0
 70
     0
280
     1
281
     0
  0
ENDTAB
  0
ENDSEC
  0
SECTION
  2
BLOCKS
  0
BLOCK
  5
D
330
A
100
AcDbEntity
  8
0
390
1D
100
AcDbBlockBegin
  2
*MODEL_SPACE
 70
     0
 10
0.0
 20
0.0
 30
0.0
  3
*MODEL_SPACE
  1
*MODEL_SPACE
  0
ENDBLK
  5
E
330
A
100
AcDbEntity
  8
0
390
1D
100
AcDbBlockEnd
  0
BLOCK
  5
F
330
B
100
AcDbEntity
 67
     1
  8
0
390
1D
100
AcDbBlockBegin
  2
*PAPER_SPACE
 70
     0
 10
0.0
 20
0.0
 30
0.0
  3
*PAPER_SPACE
  1
*PAPER_SPACE
  0
ENDBLK
  5
10
330
B
100
AcDbEntity
 67
     1
  8
0
390
1D
100
AcDbBlockEnd
  0
BLOCK
  5
E45
330
4E
100
AcDbEntity
  8
0
390
1D
100
AcDbBlockBegin
  2
_DOT
 70
     0
 10
0.0
 20
0.0
 30
0.0
  3
_DOT
  1
_DOT
  0
POLYLINE
  5
E47
330
4E
100
AcDbEntity
  8
0
  6
ByBlock
 62
     0
370
    -2
390
1D
100
AcDb2dPolyline
 66
     1
 10
0.0
 20
0.0
 30
0.0
 70
     1
 40
0.5
 41
0.5
  0
VERTEX
  5
E48
330
E47
100
AcDbEntity
  8
0
  6
ByBlock
 62
     0
370
    -2
390
1D
100
AcDbVertex
100
AcDb2dVertex
 10
-0.25
 20
0.0
 30
0.0
 42
1.0
  0
VERTEX
  5
E49
330
E47
100
AcDbEntity
  8
0
  6
ByBlock
 62
     0
370
    -2
390
1D
100
AcDbVertex
100
AcDb2dVertex
 10
0.25
 20
0.0
 30
0.0
 42
1.0
  0
SEQEND
  5
E4A
330
E47
100
AcDbEntity
  8
0
390
1D
  0
LINE
  5
E4B
330
4E
100
AcDbEntity
  8
0
  6
ByBlock
 62
     0
370
    -2
390
1D
100
AcDbLine
 10
-0.5
 20
0.0
 30
0.0
 11
-1.0
 21
0.0
 31
0.0
  0
ENDBLK
  5
E4C
330
4E
100
AcDbEntity
  8
0
390
1D
100
AcDbBlockEnd
  0
BLOCK
  5
3A6
330
3A5
100
AcDbEntity
  8
0
100
AcDbBlockBegin
  2
名称未設定-1
 70
     0
 10
0.0
 20
0.0
 30
0.0
  3
名称未設定-1
  1
名称未設定-1
  0
INSERT
  5
3A7
330
3A5
100
AcDbEntity
  8
LOGO
100
AcDbBlockReference
  2
block 2
 10
0.0
 20
0.0
 30
0.0
  0
ENDBLK
  5
3CC
330
3A5
100
AcDbEntity
  8
0
100
AcDbBlockEnd
  0
BLOCK
  5
3A9
330
3A8
100
AcDbEntity
  8
0
100
AcDbBlockBegin
  2
block 2
 70
     0
 10
0.0
 20
0.0
 30
0.0
  3
block 2
  1
block 2
  0
INSERT
  5
3AA
330
3A8
100
AcDbEntity
  8
LOGO
100
AcDbBlockReference
  2
block 3
 10
0.0
 20
0.0
 30
0.0
  0
ENDBLK
  5
3CB
330
3A8
100
AcDbEntity
  8
0
100
AcDbBlockEnd
  0
BLOCK
  5
3AC
330
3AB
100
AcDbEntity
  8
0
100
AcDbBlockBegin
  2
block 3
 70
     0
 10
0.0
 20
0.0
 30
0.0
  3
block 3
  1
block 3
  0
INSERT
  5
3AD
330
3AB
100
AcDbEntity
  8
LOGO
100
AcDbBlockReference
  2
block 4
 10
0.0
 20
0.0
 30
0.0
  0
ENDBLK
  5
3CA
330
3AB
100
AcDbEntity
  8
0
100
AcDbBlockEnd
  0
BLOCK
  5
3AF
330
3AE
100
AcDbEntity
  8
0
100
AcDbBlockBegin
  2
block 4
 70
     0
 10
0.0
 20
0.0
 30
0.0
  3
block 4
  1
block 4
  0
POLYLINE
  5
3B0
330
3AE
100
AcDbEntity
  8
LOGO
370
     0
100
AcDb2dPolyline
 66
     1
 10
0.0
 20
0.0
 30
0.0
  0
VERTEX
  5
3B1
330
3B0
100
AcDbEntity
  8
LOGO
370
     0
100
AcDbVertex
100
AcDb2dVertex
 10
83.79545727667795
 20
167.6444858234922
 30
0.0
  0
VERTEX
  5
3B2
330
3B0
100
AcDbEntity
  8
LOGO
370
     0
100
AcDbVertex
100
AcDb2dVertex
 10
83.79545727667795
 20
159.7968976406313
 30
0.0
  0
VERTEX
  5
3B3
330
3B0
100
AcDbEntity
  8
LOGO
370
     0
100
AcDbVertex
100
AcDb2dVertex
 10
71.3631329975216
 20
159.7968976406313
 30
0.0
  0
VERTEX
  5
3B4
330
3B0
100
AcDbEntity
  8
LOGO
370
     0
100
AcDbVertex
100
AcDb2dVertex
 10
71.3631329975216
 20
127.8027915271048
 30
0.0
  0
VERTEX
  5
3B5
330
3B0
100
AcDbEntity
  8
LOGO
370
     0
100
AcDbVertex
100
AcDb2dVertex
 10
60.43011526263018
 20
127.8027915271048
 30
0.0
  0
VERTEX
  5
3B6
330
3B0
100
AcDbEntity
  8
LOGO
370
     0
100
AcDbVertex
100
AcDb2dVertex
 10
60.43011526263018
 20
159.7968976406313
 30
0.0
  0
VERTEX
  5
3B7
330
3B0
100
AcDbEntity
  8
LOGO
370
     0
100
AcDbVertex
100
AcDb2dVertex
 10
48.21793273020759
 20
159.7968976406313
 30
0.0
  0
VERTEX
  5
3B8
330
3B0
100
AcDbEntity
  8
LOGO
370
     0
100
AcDbVertex
100
AcDb2dVertex
 10
48.21793273020759
 20
167.6444858234922
 30
0.0
  0
VERTEX
  5
3B9
330
3B0
100
AcDbEntity
  8
LOGO
370
     0
100
AcDbVertex
100
AcDb2dVertex
 10
83.79545727667795
 20
167.6444858234922
 30
0.0
  0
SEQEND
  5
3BA
330
3B0
100
AcDbEntity
  8
LOGO
370
     0
  0
HATCH
  5
3BB
330
3AE
100
AcDbEntity
  8
LOGO
 62
   250
420
  2234388
100
AcDbHatch
 10
0.0
 20
0.0
 30
0.0
210
0.0
220
0.0
230
1.0
  2
SOLID
 70
     1
 71
     0
 91
        1
 92
        1
 93
        8
 72
     1
 10
83.79545727667795
 20
167.6444858234922
 11
83.79545727667795
 21
159.7968976406313
 72
     1
 10
83.79545727667795
 20
159.7968976406313
 11
71.3631329975216
 21
159.7968976406313
 72
     1
 10
71.3631329975216
 20
159.7968976406313
 11
71.3631329975216
 21
127.8027915271048
 72
     1
 10
71.3631329975216
 20
127.8027915271048
 11
60.43011526263018
 21
127.8027915271048
 72
     1
 10
60.43011526263018
 20
127.8027915271048
 11
60.43011526263018
 21
159.7968976406313
 72
     1
 10
60.43011526263018
 20
159.7968976406313
 11
48.21793273020759
 21
159.7968976406313
 72
     1
 10
48.21793273020759
 20
159.7968976406313
 11
48.21793273020759
 21
167.6444858234922
 72
     1
 10
48.21793273020759
 20
167.6444858234922
 11
83.79545727667795
 21
167.6444858234922
 97
        0
 75
     2
 76
     1
 98
        0
  0
INSERT
  5
3BC
330
3AE
100
AcDbEntity
  8
LOGO
100
AcDbBlockReference
  2
block 5
 10
0.0
 20
0.0
 30
0.0
  0
ENDBLK
  5
3C9
330
3AE
100
AcDbEntity
  8
0
100
AcDbBlockEnd
  0
BLOCK
  5
3BE
330
3BD
100
AcDbEntity
  8
0
100
AcDbBlockBegin
  2
block 5
 70
     0
 10
0.0
 20
0.0
 30
0.0
  3
block 5
  1
block 5
  0
SPLINE
  5
3BF
330
3BD
100
AcDbEntity
  8
LOGO
370
     0
100
AcDbSpline
210
0.0
220
0.0
230
1.0
 70
    11
 71
     3
 72
    56
 73
    52
 74
     0
 42
0.000000001
 43
0.0000000001
 40
0.0
 40
0.0
 40
0.0
 40
0.0
 40
1.0
 40
1.0
 40
1.0
 40
2.0
 40
2.0
 40
2.0
 40
3.0
 40
3.0
 40
3.0
 40
4.0
 40
4.0
 40
4.0
 40
5.0
 40
5.0
 40
5.0
 40
6.0
 40
6.0
 40
6.0
 40
7.0
 40
7.0
 40
7.0
 40
8.0
 40
8.0
 40
8.0
 40
9.0
 40
9.0
 40
9.0
 40
10.0
 40
10.0
 40
10.0
 40
11.0
 40
11.0
 40
11.0
 40
12.0
 40
12.0
 40
12.0
 40
13.0
 40
13.0
 40
13.0
 40
14.0
 40
14.0
 40
14.0
 40
15.0
 40
15.0
 40
15.0
 40
16.0
 40
16.0
 40
16.0
 40
17.0
 40
17.0
 40
17.0
 40
17.0
 10
100.4504378777679
 20
166.69157178364
 30
0.0
 10
101.9848844191641
 20
167.1313385124438
 30
0.0
 10
103.9637485713373
 20
166.7649523658846
 30
0.0
 10
103.9637485713373
 20
166.7649523658846
 30
0.0
 10
103.9637485713373
 20
166.7649523658846
 30
0.0
 10
103.0132460999156
 20
163.911205638077
 30
0.0
 10
103.0132460999156
 20
163.911205638077
 30
0.0
 10
103.0132460999156
 20
163.911205638077
 30
0.0
 10
101.0674548862189
 20
164.3601018759394
 30
0.0
 10
99.57090442016032
 20
163.1805004036133
 30
0.0
 10
98.40508333886608
 20
162.258247733807
 30
0.0
 10
97.65301849830304
 20
159.804132345923
 30
0.0
 10
97.3598406791005
 20
158.8699940888517
 30
0.0
 10
97.3598406791005
 20
158.8699940888517
 30
0.0
 10
96.07137411762282
 20
154.9119212747295
 30
0.0
 10
96.07137411762282
 20
154.9119212747295
 30
0.0
 10
96.07137411762282
 20
154.9119212747295
 30
0.0
 10
100.3012651448482
 20
154.9119212747295
 30
0.0
 10
100.3012651448482
 20
154.9119212747295
 30
0.0
 10
100.3012651448482
 20
154.9119212747295
 30
0.0
 10
99.64152892419852
 20
152.4199098115079
 30
0.0
 10
99.64152892419852
 20
152.4199098115079
 30
0.0
 10
99.64152892419852
 20
152.4199098115079
 30
0.0
 10
95.38097652692731
 20
152.4199098115079
 30
0.0
 10
95.38097652692731
 20
152.4199098115079
 30
0.0
 10
95.38097652692731
 20
152.4199098115079
 30
0.0
 10
87.75353009080013
 20
127.8027915271048
 30
0.0
 10
87.75353009080013
 20
127.8027915271048
 30
0.0
 10
87.75353009080013
 20
127.8027915271048
 30
0.0
 10
85.36538832498108
 20
127.8027915271048
 30
0.0
 10
85.36538832498108
 20
127.8027915271048
 30
0.0
 10
85.36538832498108
 20
127.8027915271048
 30
0.0
 10
93.00006946639998
 20
152.4199098115079
 30
0.0
 10
93.00006946639998
 20
152.4199098115079
 30
0.0
 10
93.00006946639998
 20
152.4199098115079
 30
0.0
 10
89.85297266450198
 20
152.4199098115079
 30
0.0
 10
89.85297266450198
 20
152.4199098115079
 30
0.0
 10
89.85297266450198
 20
152.4199098115079
 30
0.0
 10
90.51270888515164
 20
154.9119212747295
 30
0.0
 10
90.51270888515164
 20
154.9119212747295
 30
0.0
 10
90.51270888515164
 20
154.9119212747295
 30
0.0
 10
93.6904670570955
 20
154.9119212747295
 30
0.0
 10
93.6904670570955
 20
154.9119212747295
 30
0.0
 10
93.6904670570955
 20
154.9119212747295
 30
0.0
 10
94.81598049462158
 20
158.3616699146644
 30
0.0
 10
94.81598049462158
 20
158.3616699146644
 30
0.0
 10
95.7237637538445
 20
161.2605474231013
 30
0.0
 10
96.4968436907311
 20
162.8139420021662
 30
0.0
 10
97.15657991138076
 20
163.9844139654337
 30
0.0
 10
97.81183750494507
 20
165.1523021053827
 30
0.0
 10
99.1047826935081
 20
166.3084769129547
 30
0.0
 10
100.4504378777679
 20
166.69157178364
 30
0.0
  0
HATCH
  5
3C0
330
3BD
100
AcDbEntity
  8
LOGO
 62
   250
420
  2234388
100
AcDbHatch
 10
0.0
 20
0.0
 30
0.0
210
0.0
220
0.0
230
1.0
  2
SOLID
 70
     1
 71
     0
 91
        1
 92
        1
 93
        1
 72
     4
 94
        3
 73
     0
 74
     1
 95
       56
 96
       52
 40
0.0
 40
0.0
 40
0.0
 40
0.0
 40
1.0
 40
1.0
 40
1.0
 40
2.0
 40
2.0
 40
2.0
 40
3.0
 40
3.0
 40
3.0
 40
4.0
 40
4.0
 40
4.0
 40
5.0
 40
5.0
 40
5.0
 40
6.0
 40
6.0
 40
6.0
 40
7.0
 40
7.0
 40
7.0
 40
8.0
 40
8.0
 40
8.0
 40
9.0
 40
9.0
 40
9.0
 40
10.0
 40
10.0
 40
10.0
 40
11.0
 40
11.0
 40
11.0
 40
12.0
 40
12.0
 40
12.0
 40
13.0
 40
13.0
 40
13.0
 40
14.0
 40
14.0
 40
14.0
 40
15.0
 40
15.0
 40
15.0
 40
16.0
 40
16.0
 40
16.0
 40
17.0
 40
17.0
 40
17.0
 40
17.0
 10
100.4504378777679
 20
166.69157178364
 10
101.9848844191641
 20
167.1313385124438
 10
103.9637485713373
 20
166.7649523658846
 10
103.9637485713373
 20
166.7649523658846
 10
103.9637485713373
 20
166.7649523658846
 10
103.0132460999156
 20
163.911205638077
 10
103.0132460999156
 20
163.911205638077
 10
103.0132460999156
 20
163.911205638077
 10
101.0674548862189
 20
164.3601018759394
 10
99.57090442016032
 20
163.1805004036133
 10
98.40508333886608
 20
162.258247733807
 10
97.65301849830304
 20
159.804132345923
 10
97.3598406791005
 20
158.8699940888517
 10
97.3598406791005
 20
158.8699940888517
 10
96.07137411762282
 20
154.9119212747295
 10
96.07137411762282
 20
154.9119212747295
 10
96.07137411762282
 20
154.9119212747295
 10
100.3012651448482
 20
154.9119212747295
 10
100.3012651448482
 20
154.9119212747295
 10
100.3012651448482
 20
154.9119212747295
 10
99.64152892419852
 20
152.4199098115079
 10
99.64152892419852
 20
152.4199098115079
 10
99.64152892419852
 20
152.4199098115079
 10
95.38097652692731
 20
152.4199098115079
 10
95.38097652692731
 20
152.4199098115079
 10
95.38097652692731
 20
152.4199098115079
 10
87.75353009080013
 20
127.8027915271048
 10
87.75353009080013
 20
127.8027915271048
 10
87.75353009080013
 20
127.8027915271048
 10
85.36538832498108
 20
127.8027915271048
 10
85.36538832498108
 20
127.8027915271048
 10
85.36538832498108
 20
127.8027915271048
 10
93.00006946639998
 20
152.4199098115079
 10
93.00006946639998
 20
152.4199098115079
 10
93.00006946639998
 20
152.4199098115079
 10
89.85297266450198
 20
152.4199098115079
 10
89.85297266450198
 20
152.4199098115079
 10
89.85297266450198
 20
152.4199098115079
 10
90.51270888515164
 20
154.9119212747295
 10
90.51270888515164
 20
154.9119212747295
 10
90.51270888515164
 20
154.9119212747295
 10
93.6904670570955
 20
154.9119212747295
 10
93.6904670570955
 20
154.9119212747295
 10
93.6904670570955
 20
154.9119212747295
 10
94.81598049462158
 20
158.3616699146644
 10
94.81598049462158
 20
158.3616699146644
 10
95.7237637538445
 20
161.2605474231013
 10
96.4968436907311
 20
162.8139420021662
 10
97.15657991138076
 20
163.9844139654337
 10
97.81183750494507
 20
165.1523021053827
 10
99.1047826935081
 20
166.3084769129547
 10
100.4504378777679
 20
166.69157178364
 97
        0
 75
     2
 76
     1
 98
        0
  0
SPLINE
  5
3C1
330
3BD
100
AcDbEntity
  8
LOGO
370
     0
100
AcDbSpline
210
0.0
220
0.0
230
1.0
 70
    11
 71
     3
 72
    38
 73
    34
 74
     0
 42
0.000000001
 43
0.0000000001
 40
0.0
 40
0.0
 40
0.0
 40
0.0
 40
1.0
 40
1.0
 40
1.0
 40
2.0
 40
2.0
 40
2.0
 40
3.0
 40
3.0
 40
3.0
 40
4.0
 40
4.0
 40
4.0
 40
5.0
 40
5.0
 40
5.0
 40
6.0
 40
6.0
 40
6.0
 40
7.0
 40
7.0
 40
7.0
 40
8.0
 40
8.0
 40
8.0
 40
9.0
 40
9.0
 40
9.0
 40
10.0
 40
10.0
 40
10.0
 40
11.0
 40
11.0
 40
11.0
 40
11.0
 10
126.377554584636
 20
154.8151140277308
 30
0.0
 10
126.377554584636
 20
154.8151140277308
 30
0.0
 10
128.8311532078563
 20
154.8151140277308
 30
0.0
 10
128.8311532078563
 20
154.8151140277308
 30
0.0
 10
128.8311532078563
 20
154.8151140277308
 30
0.0
 10
127.7345785914971
 20
151.3062819612468
 30
0.0
 10
127.7345785914971
 20
151.3062819612468
 30
0.0
 10
128.571392836906
 20
152.2922689395754
 30
0.0
 10
129.8860421413442
 20
153.604506675583
 30
0.0
 10
131.0163787157314
 20
154.2664822097754
 30
0.0
 10
132.7044766171327
 20
155.2500576196734
 30
0.0
 10
133.6642808525008
 20
155.3847609420097
 30
0.0
 10
134.7284715499351
 20
155.3565111403944
 30
0.0
 10
134.7284715499351
 20
155.3565111403944
 30
0.0
 10
133.6877075172549
 20
152.0345756272799
 30
0.0
 10
133.6877075172549
 20
152.0345756272799
 30
0.0
 10
133.011434827367
 20
152.3184516825359
 30
0.0
 10
130.930940291334
 20
151.7768823149844
 30
0.0
 10
129.739280976855
 20
150.9162968950455
 30
0.0
 10
128.66613302525
 20
150.1454562717016
 30
0.0
 10
127.9192358313239
 20
149.4857200510519
 30
0.0
 10
127.0393578639405
 20
147.8282835196966
 30
0.0
 10
126.164647543194
 20
146.1699857139017
 30
0.0
 10
125.4742499524985
 20
143.5262176944419
 30
0.0
 10
124.2822461282437
 20
139.6959580071401
 30
0.0
 10
124.2822461282437
 20
139.6959580071401
 30
0.0
 10
120.5753209406769
 20
127.8027915271048
 30
0.0
 10
120.5753209406769
 20
127.8027915271048
 30
0.0
 10
120.5753209406769
 20
127.8027915271048
 30
0.0
 10
118.1964809388044
 20
127.8027915271048
 30
0.0
 10
118.1964809388044
 20
127.8027915271048
 30
0.0
 10
118.1964809388044
 20
127.8027915271048
 30
0.0
 10
126.377554584636
 20
154.8151140277308
 30
0.0
 10
126.377554584636
 20
154.8151140277308
 30
0.0
  0
HATCH
  5
3C2
330
3BD
100
AcDbEntity
  8
LOGO
 62
   250
420
  2234388
100
AcDbHatch
 10
0.0
 20
0.0
 30
0.0
210
0.0
220
0.0
230
1.0
  2
SOLID
 70
     1
 71
     0
 91
        1
 92
        1
 93
        1
 72
     4
 94
        3
 73
     0
 74
     1
 95
       38
 96
       34
 40
0.0
 40
0.0
 40
0.0
 40
0.0
 40
1.0
 40
1.0
 40
1.0
 40
2.0
 40
2.0
 40
2.0
 40
3.0
 40
3.0
 40
3.0
 40
4.0
 40
4.0
 40
4.0
 40
5.0
 40
5.0
 40
5.0
 40
6.0
 40
6.0
 40
6.0
 40
7.0
 40
7.0
 40
7.0
 40
8.0
 40
8.0
 40
8.0
 40
9.0
 40
9.0
 40
9.0
 40
10.0
 40
10.0
 40
10.0
 40
11.0
 40
11.0
 40
11.0
 40
11.0
 10
126.377554584636
 20
154.8151140277308
 10
126.377554584636
 20
154.8151140277308
 10
128.8311532078563
 20
154.8151140277308
 10
128.8311532078563
 20
154.8151140277308
 10
128.8311532078563
 20
154.8151140277308
 10
127.7345785914971
 20
151.3062819612468
 10
127.7345785914971
 20
151.3062819612468
 10
128.571392836906
 20
152.2922689395754
 10
129.8860421413442
 20
153.604506675583
 10
131.0163787157314
 20
154.2664822097754
 10
132.7044766171327
 20
155.2500576196734
 10
133.6642808525008
 20
155.3847609420097
 10
134.7284715499351
 20
155.3565111403944
 10
134.7284715499351
 20
155.3565111403944
 10
133.6877075172549
 20
152.0345756272799
 10
133.6877075172549
 20
152.0345756272799
 10
133.011434827367
 20
152.3184516825359
 10
130.930940291334
 20
151.7768823149844
 10
129.739280976855
 20
150.9162968950455
 10
128.66613302525
 20
150.1454562717016
 10
127.9192358313239
 20
149.4857200510519
 10
127.0393578639405
 20
147.8282835196966
 10
126.164647543194
 20
146.1699857139017
 10
125.4742499524985
 20
143.5262176944419
 10
124.2822461282437
 20
139.6959580071401
 10
124.2822461282437
 20
139.6959580071401
 10
120.5753209406769
 20
127.8027915271048
 10
120.5753209406769
 20
127.8027915271048
 10
120.5753209406769
 20
127.8027915271048
 10
118.1964809388044
 20
127.8027915271048
 10
118.1964809388044
 20
127.8027915271048
 10
118.1964809388044
 20
127.8027915271048
 10
126.377554584636
 20
154.8151140277308
 10
126.377554584636
 20
154.8151140277308
 97
        0
 75
     2
 76
     1
 98
        0
  0
SPLINE
  5
3C3
330
3BD
100
AcDbEntity
  8
LOGO
370
     0
100
AcDbSpline
210
0.0
220
0.0
230
1.0
 70
    11
 71
     3
 72
   104
 73
   100
 74
     0
 42
0.000000001
 43
0.0000000001
 40
0.0
 40
0.0
 40
0.0
 40
0.0
 40
1.0
 40
1.0
 40
1.0
 40
2.0
 40
2.0
 40
2.0
 40
3.0
 40
3.0
 40
3.0
 40
4.0
 40
4.0
 40
4.0
 40
5.0
 40
5.0
 40
5.0
 40
6.0
 40
6.0
 40
6.0
 40
7.0
 40
7.0
 40
7.0
 40
8.0
 40
8.0
 40
8.0
 40
9.0
 40
9.0
 40
9.0
 40
10.0
 40
10.0
 40
10.0
 40
11.0
 40
11.0
 40
11.0
 40
12.0
 40
12.0
 40
12.0
 40
13.0
 40
13.0
 40
13.0
 40
14.0
 40
14.0
 40
14.0
 40
15.0
 40
15.0
 40
15.0
 40
16.0
 40
16.0
 40
16.0
 40
17.0
 40
17.0
 40
17.0
 40
18.0
 40
18.0
 40
18.0
 40
19.0
 40
19.0
 40
19.0
 40
20.0
 40
20.0
 40
20.0
 40
21.0
 40
21.0
 40
21.0
 40
22.0
 40
22.0
 40
22.0
 40
23.0
 40
23.0
 40
23.0
 40
24.0
 40
24.0
 40
24.0
 40
25.0
 40
25.0
 40
25.0
 40
26.0
 40
26.0
 40
26.0
 40
27.0
 40
27.0
 40
27.0
 40
28.0
 40
28.0
 40
28.0
 40
29.0
 40
29.0
 40
29.0
 40
30.0
 40
30.0
 40
30.0
 40
31.0
 40
31.0
 40
31.0
 40
32.0
 40
32.0
 40
32.0
 40
33.0
 40
33.0
 40
33.0
 40
33.0
 10
139.8926730891197
 20
154.8294111834263
 30
0.0
 10
139.8926730891197
 20
154.8294111834263
 30
0.0
 10
142.0344903652445
 20
154.8294111834263
 30
0.0
 10
142.0344903652445
 20
154.8294111834263
 30
0.0
 10
142.0344903652445
 20
154.8294111834263
 30
0.0
 10
140.9516961399171
 20
151.3157559800812
 30
0.0
 10
140.9516961399171
 20
151.3157559800812
 30
0.0
 10
141.8928968473923
 20
152.7887075264977
 30
0.0
 10
142.7341897198865
 20
153.4484437471474
 30
0.0
 10
143.8552245303272
 20
154.2926649527359
 30
0.0
 10
144.9803934580775
 20
155.1296514530327
 30
0.0
 10
146.3139908001845
 20
155.3044901642492
 30
0.0
 10
147.241066606852
 20
155.3044901642492
 30
0.0
 10
148.3855280820469
 20
155.3044901642492
 30
0.0
 10
149.4969166187653
 20
155.0752189084569
 30
0.0
 10
150.0784491203092
 20
153.8172414621372
 30
0.0
 10
150.5228667310863
 20
152.833838307127
 30
0.0
 10
150.5414702589793
 20
152.7201500811143
 30
0.0
 10
150.4140016419347
 20
150.7765981809602
 30
0.0
 10
151.5818897818837
 20
152.7699317437168
 30
0.0
 10
152.4424752018226
 20
153.6256940267945
 30
0.0
 10
153.9038856707499
 20
154.4507949398263
 30
0.0
 10
155.4455669174378
 20
155.3044901642492
 30
0.0
 10
156.339225275853
 20
155.3659851592288
 30
0.0
 10
157.3748216618963
 20
155.2147453676543
 30
0.0
 10
158.911679771723
 20
154.9877134254046
 30
0.0
 10
159.8859534176746
 20
154.4390816074493
 30
0.0
 10
160.3965169054045
 20
152.7816450760939
 30
0.0
 10
160.9070803931344
 20
151.1219692311958
 30
0.0
 10
160.6328506116007
 20
150.2303779314354
 30
0.0
 10
159.9992971339115
 20
147.597634224801
 30
0.0
 10
159.7105979417943
 20
146.4014962832367
 30
0.0
 10
159.2947746424084
 20
144.9400858143094
 30
0.0
 10
158.7463150793409
 20
143.2092687007094
 30
0.0
 10
158.7463150793409
 20
143.2092687007094
 30
0.0
 10
153.9038856707499
 20
127.8027915271048
 30
0.0
 10
153.9038856707499
 20
127.8027915271048
 30
0.0
 10
153.9038856707499
 20
127.8027915271048
 30
0.0
 10
151.3882752878863
 20
127.8027915271048
 30
0.0
 10
151.3882752878863
 20
127.8027915271048
 30
0.0
 10
151.3882752878863
 20
127.8027915271048
 30
0.0
 10
155.6250565106276
 20
141.2751908193897
 30
0.0
 10
155.6250565106276
 20
141.2751908193897
 30
0.0
 10
156.5094131050963
 20
144.0936252951782
 30
0.0
 10
157.109893644309
 20
146.1506931664571
 30
0.0
 10
157.4220195011804
 20
147.4415712963654
 30
0.0
 10
157.8095929989511
 20
149.0530157726519
 30
0.0
 10
157.9656559273867
 20
149.5826995529385
 30
0.0
 10
157.7816877071116
 20
150.7529992613181
 30
0.0
 10
157.6111553680925
 20
151.8430281919372
 30
0.0
 10
157.0582171779396
 20
152.5547853887321
 30
0.0
 10
156.1170164704645
 20
152.5547853887321
 30
0.0
 10
155.1096698860365
 20
152.5547853887321
 30
0.0
 10
154.2962823053817
 20
152.4412694176073
 30
0.0
 10
153.156643967048
 20
151.2945686288697
 30
0.0
 10
152.0170056287143
 20
150.1476955852443
 30
0.0
 10
151.076149431015
 20
148.7930831468137
 30
0.0
 10
150.3337308641742
 20
147.2290087646991
 30
0.0
 10
149.5957909244188
 20
145.6683794803425
 30
0.0
 10
148.8530278478023
 20
143.6822806228776
 30
0.0
 10
148.0964843801539
 20
141.2751908193897
 30
0.0
 10
148.0964843801539
 20
141.2751908193897
 30
0.0
 10
143.8552245303272
 20
127.8027915271048
 30
0.0
 10
143.8552245303272
 20
127.8027915271048
 30
0.0
 10
143.8552245303272
 20
127.8027915271048
 30
0.0
 10
141.486030802177
 20
127.8027915271048
 30
0.0
 10
141.486030802177
 20
127.8027915271048
 30
0.0
 10
141.486030802177
 20
127.8027915271048
 30
0.0
 10
146.3329388378533
 20
143.2092687007094
 30
0.0
 10
146.3329388378533
 20
143.2092687007094
 30
0.0
 10
146.8483254624444
 20
144.8408669988801
 30
0.0
 10
147.2314203331297
 20
146.1837661049335
 30
0.0
 10
147.4867020769946
 20
147.224185627838
 30
0.0
 10
147.9169947869641
 20
149.0197705792876
 30
0.0
 10
148.0306830129768
 20
150.2400242051577
 30
0.0
 10
147.709255392159
 20
151.3157559800812
 30
0.0
 10
147.3874832615654
 20
152.3916600098926
 30
0.0
 10
146.8245542879144
 20
152.6683013598569
 30
0.0
 10
145.8840425999909
 20
152.6683013598569
 30
0.0
 10
145.0989048209514
 20
152.6683013598569
 30
0.0
 10
144.3282364524954
 20
152.3275811915945
 30
0.0
 10
143.4531816219731
 20
151.6538923250251
 30
0.0
 10
142.34627171234
 20
150.8074318058939
 30
0.0
 10
141.901854101563
 20
150.1097995099067
 30
0.0
 10
141.3578731655808
 20
149.289521733736
 30
0.0
 10
140.6299240093235
 20
148.192602607601
 30
0.0
 10
140.2850697237515
 20
147.455696197173
 30
0.0
 10
139.6652966370942
 20
145.8385673095858
 30
0.0
 10
139.0506911970739
 20
144.2214384219986
 30
0.0
 10
138.463991048893
 20
142.3252566160164
 30
0.0
 10
138.0571250036777
 20
141.0154304484394
 30
0.0
 10
138.0571250036777
 20
141.0154304484394
 30
0.0
 10
133.9009590684727
 20
127.8027915271048
 30
0.0
 10
133.9009590684727
 20
127.8027915271048
 30
0.0
 10
133.9009590684727
 20
127.8027915271048
 30
0.0
 10
131.4180771143097
 20
127.8027915271048
 30
0.0
 10
131.4180771143097
 20
127.8027915271048
 30
0.0
 10
131.4180771143097
 20
127.8027915271048
 30
0.0
 10
139.8926730891197
 20
154.8294111834263
 30
0.0
 10
139.8926730891197
 20
154.8294111834263
 30
0.0
  0
HATCH
  5
3C4
330
3BD
100
AcDbEntity
  8
LOGO
 62
   250
420
  2234388
100
AcDbHatch
 10
0.0
 20
0.0
 30
0.0
210
0.0
220
0.0
230
1.0
  2
SOLID
 70
     1
 71
     0
 91
        1
 92
        1
 93
        1
 72
     4
 94
        3
 73
     0
 74
     1
 95
      104
 96
      100
 40
0.0
 40
0.0
 40
0.0
 40
0.0
 40
1.0
 40
1.0
 40
1.0
 40
2.0
 40
2.0
 40
2.0
 40
3.0
 40
3.0
 40
3.0
 40
4.0
 40
4.0
 40
4.0
 40
5.0
 40
5.0
 40
5.0
 40
6.0
 40
6.0
 40
6.0
 40
7.0
 40
7.0
 40
7.0
 40
8.0
 40
8.0
 40
8.0
 40
9.0
 40
9.0
 40
9.0
 40
10.0
 40
10.0
 40
10.0
 40
11.0
 40
11.0
 40
11.0
 40
12.0
 40
12.0
 40
12.0
 40
13.0
 40
13.0
 40
13.0
 40
14.0
 40
14.0
 40
14.0
 40
15.0
 40
15.0
 40
15.0
 40
16.0
 40
16.0
 40
16.0
 40
17.0
 40
17.0
 40
17.0
 40
18.0
 40
18.0
 40
18.0
 40
19.0
 40
19.0
 40
19.0
 40
20.0
 40
20.0
 40
20.0
 40
21.0
 40
21.0
 40
21.0
 40
22.0
 40
22.0
 40
22.0
 40
23.0
 40
23.0
 40
23.0
 40
24.0
 40
24.0
 40
24.0
 40
25.0
 40
25.0
 40
25.0
 40
26.0
 40
26.0
 40
26.0
 40
27.0
 40
27.0
 40
27.0
 40
28.0
 40
28.0
 40
28.0
 40
29.0
 40
29.0
 40
29.0
 40
30.0
 40
30.0
 40
30.0
 40
31.0
 40
31.0
 40
31.0
 40
32.0
 40
32.0
 40
32.0
 40
33.0
 40
33.0
 40
33.0
 40
33.0
 10
139.8926730891197
 20
154.8294111834263
 10
139.8926730891197
 20
154.8294111834263
 10
142.0344903652445
 20
154.8294111834263
 10
142.0344903652445
 20
154.8294111834263
 10
142.0344903652445
 20
154.8294111834263
 10
140.9516961399171
 20
151.3157559800812
 10
140.9516961399171
 20
151.3157559800812
 10
141.8928968473923
 20
152.7887075264977
 10
142.7341897198865
 20
153.4484437471474
 10
143.8552245303272
 20
154.2926649527359
 10
144.9803934580775
 20
155.1296514530327
 10
146.3139908001845
 20
155.3044901642492
 10
147.241066606852
 20
155.3044901642492
 10
148.3855280820469
 20
155.3044901642492
 10
149.4969166187653
 20
155.0752189084569
 10
150.0784491203092
 20
153.8172414621372
 10
150.5228667310863
 20
152.833838307127
 10
150.5414702589793
 20
152.7201500811143
 10
150.4140016419347
 20
150.7765981809602
 10
151.5818897818837
 20
152.7699317437168
 10
152.4424752018226
 20
153.6256940267945
 10
153.9038856707499
 20
154.4507949398263
 10
155.4455669174378
 20
155.3044901642492
 10
156.339225275853
 20
155.3659851592288
 10
157.3748216618963
 20
155.2147453676543
 10
158.911679771723
 20
154.9877134254046
 10
159.8859534176746
 20
154.4390816074493
 10
160.3965169054045
 20
152.7816450760939
 10
160.9070803931344
 20
151.1219692311958
 10
160.6328506116007
 20
150.2303779314354
 10
159.9992971339115
 20
147.597634224801
 10
159.7105979417943
 20
146.4014962832367
 10
159.2947746424084
 20
144.9400858143094
 10
158.7463150793409
 20
143.2092687007094
 10
158.7463150793409
 20
143.2092687007094
 10
153.9038856707499
 20
127.8027915271048
 10
153.9038856707499
 20
127.8027915271048
 10
153.9038856707499
 20
127.8027915271048
 10
151.3882752878863
 20
127.8027915271048
 10
151.3882752878863
 20
127.8027915271048
 10
151.3882752878863
 20
127.8027915271048
 10
155.6250565106276
 20
141.2751908193897
 10
155.6250565106276
 20
141.2751908193897
 10
156.5094131050963
 20
144.0936252951782
 10
157.109893644309
 20
146.1506931664571
 10
157.4220195011804
 20
147.4415712963654
 10
157.8095929989511
 20
149.0530157726519
 10
157.9656559273867
 20
149.5826995529385
 10
157.7816877071116
 20
150.7529992613181
 10
157.6111553680925
 20
151.8430281919372
 10
157.0582171779396
 20
152.5547853887321
 10
156.1170164704645
 20
152.5547853887321
 10
155.1096698860365
 20
152.5547853887321
 10
154.2962823053817
 20
152.4412694176073
 10
153.156643967048
 20
151.2945686288697
 10
152.0170056287143
 20
150.1476955852443
 10
151.076149431015
 20
148.7930831468137
 10
150.3337308641742
 20
147.2290087646991
 10
149.5957909244188
 20
145.6683794803425
 10
148.8530278478023
 20
143.6822806228776
 10
148.0964843801539
 20
141.2751908193897
 10
148.0964843801539
 20
141.2751908193897
 10
143.8552245303272
 20
127.8027915271048
 10
143.8552245303272
 20
127.8027915271048
 10
143.8552245303272
 20
127.8027915271048
 10
141.486030802177
 20
127.8027915271048
 10
141.486030802177
 20
127.8027915271048
 10
141.486030802177
 20
127.8027915271048
 10
146.3329388378533
 20
143.2092687007094
 10
146.3329388378533
 20
143.2092687007094
 10
146.8483254624444
 20
144.8408669988801
 10
147.2314203331297
 20
146.1837661049335
 10
147.4867020769946
 20
147.224185627838
 10
147.9169947869641
 20
149.0197705792876
 10
148.0306830129768
 20
150.2400242051577
 10
147.709255392159
 20
151.3157559800812
 10
147.3874832615654
 20
152.3916600098926
 10
146.8245542879144
 20
152.6683013598569
 10
145.8840425999909
 20
152.6683013598569
 10
145.0989048209514
 20
152.6683013598569
 10
144.3282364524954
 20
152.3275811915945
 10
143.4531816219731
 20
151.6538923250251
 10
142.34627171234
 20
150.8074318058939
 10
141.901854101563
 20
150.1097995099067
 10
141.3578731655808
 20
149.289521733736
 10
140.6299240093235
 20
148.192602607601
 10
140.2850697237515
 20
147.455696197173
 10
139.6652966370942
 20
145.8385673095858
 10
139.0506911970739
 20
144.2214384219986
 10
138.463991048893
 20
142.3252566160164
 10
138.0571250036777
 20
141.0154304484394
 10
138.0571250036777
 20
141.0154304484394
 10
133.9009590684727
 20
127.8027915271048
 10
133.9009590684727
 20
127.8027915271048
 10
133.9009590684727
 20
127.8027915271048
 10
131.4180771143097
 20
127.8027915271048
 10
131.4180771143097
 20
127.8027915271048
 10
131.4180771143097
 20
127.8027915271048
 10
139.8926730891197
 20
154.8294111834263
 10
139.8926730891197
 20
154.8294111834263
 97
        0
 75
     2
 76
     1
 98
        0
  0
SPLINE
  5
3C5
330
3BD
100
AcDbEntity
  8
LOGO
370
     0
100
AcDbSpline
210
0.0
220
0.0
230
1.0
 70
    11
 71
     3
 72
    29
 73
    25
 74
     0
 42
0.000000001
 43
0.0000000001
 40
0.0
 40
0.0
 40
0.0
 40
0.0
 40
1.0
 40
1.0
 40
1.0
 40
2.0
 40
2.0
 40
2.0
 40
3.0
 40
3.0
 40
3.0
 40
4.0
 40
4.0
 40
4.0
 40
5.0
 40
5.0
 40
5.0
 40
6.0
 40
6.0
 40
6.0
 40
7.0
 40
7.0
 40
7.0
 40
8.0
 40
8.0
 40
8.0
 40
8.0
 10
101.6420971922469
 20
132.8388354296931
 30
0.0
 10
101.630039350094
 20
134.7164137077823
 30
0.0
 10
102.2236296937908
 20
138.0598810818841
 30
0.0
 10
103.7487744712405
 20
142.5378191476827
 30
0.0
 10
105.819967243327
 20
148.5896501242061
 30
0.0
 10
107.0602024361932
 20
150.8074318058939
 30
0.0
 10
108.1522984254671
 20
151.8833358357054
 30
0.0
 10
109.741177511439
 20
153.4532668840085
 30
0.0
 10
111.8740375333931
 20
153.5290590346837
 30
0.0
 10
112.5075910110823
 20
153.4532668840085
 30
0.0
 10
113.4012493694975
 20
153.3490526768302
 30
0.0
 10
114.6683563248758
 20
152.7580461564518
 30
0.0
 10
114.7493161221879
 20
150.7838328862519
 30
0.0
 10
114.8106388622796
 20
149.0909118479895
 30
0.0
 10
114.3186789024427
 20
145.9191825971221
 30
0.0
 10
112.6164561002338
 20
140.9489400617108
 30
0.0
 10
110.6444821435766
 20
135.1746117095912
 30
0.0
 10
109.4669477299053
 20
132.8960240524753
 30
0.0
 10
108.5212683953448
 20
131.9072809959403
 30
0.0
 10
106.7346406980658
 20
130.0538184021569
 30
0.0
 10
104.8222669326213
 20
130.2336525051225
 30
0.0
 10
104.5408024457958
 20
130.2336525051225
 30
0.0
 10
104.1721769856939
 20
130.2336525051225
 30
0.0
 10
101.6465758193322
 20
130.6305277668397
 30
0.0
 10
101.6420971922469
 20
132.8388354296931
 30
0.0
  0
SPLINE
  5
3C6
330
3BD
100
AcDbEntity
  8
LOGO
370
     0
100
AcDbSpline
210
0.0
220
0.0
230
1.0
 70
    11
 71
     3
 72
    32
 73
    28
 74
     0
 42
0.000000001
 43
0.0000000001
 40
0.0
 40
0.0
 40
0.0
 40
0.0
 40
1.0
 40
1.0
 40
1.0
 40
2.0
 40
2.0
 40
2.0
 40
3.0
 40
3.0
 40
3.0
 40
4.0
 40
4.0
 40
4.0
 40
5.0
 40
5.0
 40
5.0
 40
6.0
 40
6.0
 40
6.0
 40
7.0
 40
7.0
 40
7.0
 40
8.0
 40
8.0
 40
8.0
 40
9.0
 40
9.0
 40
9.0
 40
9.0
 10
106.2595617172429
 20
153.4105476718098
 30
0.0
 10
104.8222669326213
 20
151.5474388043041
 30
0.0
 10
103.7177685914188
 20
149.8758773721411
 30
0.0
 10
101.9232171692965
 20
144.6141795664062
 30
0.0
 10
100.2754269116635
 20
139.7999999594306
 30
0.0
 10
99.22777268346732
 20
136.3052927937542
 30
0.0
 10
99.06964269637689
 20
132.039572749846
 30
0.0
 10
98.94665270641765
 20
128.8673267343149
 30
0.0
 10
100.8807305877373
 20
127.8027915271048
 30
0.0
 10
103.7129454545577
 20
127.8027915271048
 30
0.0
 10
104.9352661390825
 20
127.8027915271048
 30
0.0
 10
108.0151835347002
 20
127.8827177950895
 30
0.0
 10
110.2045431598849
 20
130.5926316915021
 30
0.0
 10
111.7417457794874
 20
132.4984597712065
 30
0.0
 10
113.155269389579
 20
134.475256864725
 30
0.0
 10
115.0562743324223
 20
140.9489400617108
 30
0.0
 10
116.6361961642235
 20
146.3680788349845
 30
0.0
 10
117.7282921534974
 20
149.8639917848761
 30
0.0
 10
117.6480213757369
 20
151.8595646611754
 30
0.0
 10
117.6480213757369
 20
151.8595646611754
 30
0.0
 10
117.6480213757369
 20
151.8595646611754
 30
0.0
 10
117.6480213757369
 20
151.8595646611754
 30
0.0
 10
117.13229024137
 20
155.18150017429
 30
0.0
 10
114.7162431837115
 20
155.886194920681
 30
0.0
 10
113.3351034925446
 20
155.886194920681
 30
0.0
 10
111.9829026225447
 20
155.886194920681
 30
0.0
 10
108.3414342923792
 20
156.1251124501957
 30
0.0
 10
106.2595617172429
 20
153.4105476718098
 30
0.0
  0
HATCH
  5
3C7
330
3BD
100
AcDbEntity
  8
LOGO
 62
   250
420
  2234388
100
AcDbHatch
 10
0.0
 20
0.0
 30
0.0
210
0.0
220
0.0
230
1.0
  2
SOLID
 70
     1
 71
     0
 91
        2
 92
        1
 93
        1
 72
     4
 94
        3
 73
     0
 74
     1
 95
       29
 96
       25
 40
0.0
 40
0.0
 40
0.0
 40
0.0
 40
1.0
 40
1.0
 40
1.0
 40
2.0
 40
2.0
 40
2.0
 40
3.0
 40
3.0
 40
3.0
 40
4.0
 40
4.0
 40
4.0
 40
5.0
 40
5.0
 40
5.0
 40
6.0
 40
6.0
 40
6.0
 40
7.0
 40
7.0
 40
7.0
 40
8.0
 40
8.0
 40
8.0
 40
8.0
 10
101.6420971922469
 20
132.8388354296931
 10
101.630039350094
 20
134.7164137077823
 10
102.2236296937908
 20
138.0598810818841
 10
103.7487744712405
 20
142.5378191476827
 10
105.819967243327
 20
148.5896501242061
 10
107.0602024361932
 20
150.8074318058939
 10
108.1522984254671
 20
151.8833358357054
 10
109.741177511439
 20
153.4532668840085
 10
111.8740375333931
 20
153.5290590346837
 10
112.5075910110823
 20
153.4532668840085
 10
113.4012493694975
 20
153.3490526768302
 10
114.6683563248758
 20
152.7580461564518
 10
114.7493161221879
 20
150.7838328862519
 10
114.8106388622796
 20
149.0909118479895
 10
114.3186789024427
 20
145.9191825971221
 10
112.6164561002338
 20
140.9489400617108
 10
110.6444821435766
 20
135.1746117095912
 10
109.4669477299053
 20
132.8960240524753
 10
108.5212683953448
 20
131.9072809959403
 10
106.7346406980658
 20
130.0538184021569
 10
104.8222669326213
 20
130.2336525051225
 10
104.5408024457958
 20
130.2336525051225
 10
104.1721769856939
 20
130.2336525051225
 10
101.6465758193322
 20
130.6305277668397
 10
101.6420971922469
 20
132.8388354296931
 97
        0
 92
        1
 93
        1
 72
     4
 94
        3
 73
     0
 74
     1
 95
       32
 96
       28
 40
0.0
 40
0.0
 40
0.0
 40
0.0
 40
1.0
 40
1.0
 40
1.0
 40
2.0
 40
2.0
 40
2.0
 40
3.0
 40
3.0
 40
3.0
 40
4.0
 40
4.0
 40
4.0
 40
5.0
 40
5.0
 40
5.0
 40
6.0
 40
6.0
 40
6.0
 40
7.0
 40
7.0
 40
7.0
 40
8.0
 40
8.0
 40
8.0
 40
9.0
 40
9.0
 40
9.0
 40
9.0
 10
106.2595617172429
 20
153.4105476718098
 10
104.8222669326213
 20
151.5474388043041
 10
103.7177685914188
 20
149.8758773721411
 10
101.9232171692965
 20
144.6141795664062
 10
100.2754269116635
 20
139.7999999594306
 10
99.22777268346732
 20
136.3052927937542
 10
99.06964269637689
 20
132.039572749846
 10
98.94665270641765
 20
128.8673267343149
 10
100.8807305877373
 20
127.8027915271048
 10
103.7129454545577
 20
127.8027915271048
 10
104.9352661390825
 20
127.8027915271048
 10
108.0151835347002
 20
127.8827177950895
 10
110.2045431598849
 20
130.5926316915021
 10
111.7417457794874
 20
132.4984597712065
 10
113.155269389579
 20
134.475256864725
 10
115.0562743324223
 20
140.9489400617108
 10
116.6361961642235
 20
146.3680788349845
 10
117.7282921534974
 20
149.8639917848761
 10
117.6480213757369
 20
151.8595646611754
 10
117.6480213757369
 20
151.8595646611754
 10
117.6480213757369
 20
151.8595646611754
 10
117.6480213757369
 20
151.8595646611754
 10
117.13229024137
 20
155.18150017429
 10
114.7162431837115
 20
155.886194920681
 10
113.3351034925446
 20
155.886194920681
 10
111.9829026225447
 20
155.886194920681
 10
108.3414342923792
 20
156.1251124501957
 10
106.2595617172429
 20
153.4105476718098
 97
        0
 75
     2
 76
     1
 98
        0
  0
ENDBLK
  5
3C8
330
3BD
100
AcDbEntity
  8
0
100
AcDbBlockEnd
  0
BLOCK
  5
8CF8
330
8CF7
100
AcDbEntity
  8
0
100
AcDbBlockBegin
  2
*D6
 70
     1
 10
0.0
 20
0.0
 30
0.0
  3
*D6
  1
*D334
  0
LINE
  5
8CFA
330
8CF7
100
AcDbEntity
  8
DIM
  6
Continuous
 62
     0
370
    -2
100
AcDbLine
 10
1566.448408072798
 20
1037.12920009397
 30
0.0
 11
1835.846542277786
 21
1037.12920009397
 31
0.0
  0
LINE
  5
8CFB
330
8CF7
100
AcDbEntity
  8
DIM
  6
Continuous
 62
     0
370
    -2
100
AcDbLine
 10
1750.132295758391
 20
1407.12920009397
 30
0.0
 11
1835.846542277786
 21
1407.12920009397
 31
0.0
  0
LINE
  5
8CFC
330
8CF7
100
AcDbEntity
  8
DIM
  6
Continuous
 62
     0
370
    -2
100
AcDbLine
 10
1835.846542277786
 20
1043.12920009397
 30
0.0
 11
1835.846542277786
 21
1401.12920009397
 31
0.0
  0
INSERT
  5
8CFD
330
8CF7
100
AcDbEntity
  8
DIM
 62
     0
370
    -2
100
AcDbBlockReference
  2
_DOT
 10
1835.846542277786
 20
1037.12920009397
 30
0.0
 41
6.0
 42
6.0
 43
6.0
 50
270.0
  0
INSERT
  5
8CFE
330
8CF7
100
AcDbEntity
  8
DIM
 62
     0
370
    -2
100
AcDbBlockReference
  2
_DOT
 10
1835.846542277786
 20
1407.12920009397
 30
0.0
 41
6.0
 42
6.0
 43
6.0
 50
90.0
  0
MTEXT
  5
8CFF
330
8CF7
100
AcDbEntity
  8
DIM
  6
Continuous
 62
     0
100
AcDbMText
 10
1808.846542277786
 20
1222.12920009397
 30
0.0
 40
24.0
 41
0.0
 46
0.0
 71
     5
 72
     1
  1
\A1;370
  7
ＭＳ ゴシック
 11
0.0
 21
1.0
 31
0.0
 73
     1
 44
1.0
  0
POINT
  5
8D00
330
8CF7
100
AcDbEntity
  8
Defpoints
 62
     0
100
AcDbPoint
 10
1541.448408072798
 20
1037.12920009397
 30
0.0
  0
POINT
  5
8D01
330
8CF7
100
AcDbEntity
  8
Defpoints
 62
     0
100
AcDbPoint
 10
1725.132295758391
 20
1407.12920009397
 30
0.0
  0
POINT
  5
8D02
330
8CF7
100
AcDbEntity
  8
Defpoints
 62
     0
100
AcDbPoint
 10
1835.846542277786
 20
1407.12920009397
 30
0.0
  0
ENDBLK
  5
8CF9
330
8CF7
100
AcDbEntity
  8
0
100
AcDbBlockEnd
  0
BLOCK
  5
8D05
330
8D04
100
AcDbEntity
  8
0
100
AcDbBlockBegin
  2
*D7
 70
     1
 10
0.0
 20
0.0
 30
0.0
  3
*D7
  1
*D335
  0
LINE
  5
8D07
330
8D04
100
AcDbEntity
  8
DIM
  6
Continuous
 62
     0
370
    -2
100
AcDbLine
 10
1566.448408072798
 20
1037.12920009397
 30
0.0
 11
1915.913162651704
 21
1037.12920009397
 31
0.0
  0
LINE
  5
8D08
330
8D04
100
AcDbEntity
  8
DIM
  6
Continuous
 62
     0
370
    -2
100
AcDbLine
 10
1745.499549778976
 20
1432.12920009397
 30
0.0
 11
1915.913162651704
 21
1432.12920009397
 31
0.0
  0
LINE
  5
8D09
330
8D04
100
AcDbEntity
  8
DIM
  6
Continuous
 62
     0
370
    -2
100
AcDbLine
 10
1915.913162651704
 20
1043.12920009397
 30
0.0
 11
1915.913162651704
 21
1426.12920009397
 31
0.0
  0
INSERT
  5
8D0A
330
8D04
100
AcDbEntity
  8
DIM
 62
     0
370
    -2
100
AcDbBlockReference
  2
_DOT
 10
1915.913162651704
 20
1037.12920009397
 30
0.0
 41
6.0
 42
6.0
 43
6.0
 50
270.0
  0
INSERT
  5
8D0B
330
8D04
100
AcDbEntity
  8
DIM
 62
     0
370
    -2
100
AcDbBlockReference
  2
_DOT
 10
1915.913162651704
 20
1432.12920009397
 30
0.0
 41
6.0
 42
6.0
 43
6.0
 50
90.0
  0
MTEXT
  5
8D0C
330
8D04
100
AcDbEntity
  8
DIM
  6
Continuous
 62
     0
100
AcDbMText
 10
1888.913162651704
 20
1234.62920009397
 30
0.0
 40
24.0
 41
0.0
 46
0.0
 71
     5
 72
     1
  1
\A1;395
  7
ＭＳ ゴシック
 11
0.0
 21
1.0
 31
0.0
 73
     1
 44
1.0
  0
POINT
  5
8D0D
330
8D04
100
AcDbEntity
  8
Defpoints
 62
     0
100
AcDbPoint
 10
1541.448408072798
 20
1037.12920009397
 30
0.0
  0
POINT
  5
8D0E
330
8D04
100
AcDbEntity
  8
Defpoints
 62
     0
100
AcDbPoint
 10
1720.499549778976
 20
1432.12920009397
 30
0.0
  0
POINT
  5
8D0F
330
8D04
100
AcDbEntity
  8
Defpoints
 62
     0
100
AcDbPoint
 10
1915.913162651704
 20
1432.12920009397
 30
0.0
  0
ENDBLK
  5
8D06
330
8D04
100
AcDbEntity
  8
0
100
AcDbBlockEnd
  0
BLOCK
  5
8E6E
330
8E6D
100
AcDbEntity
  8
0
100
AcDbBlockBegin
  2
*D8
 70
     1
 10
0.0
 20
0.0
 30
0.0
  3
*D8
  1
*D353
  0
LINE
  5
8E70
330
8E6D
100
AcDbEntity
  8
DIM
  6
Continuous
 62
     0
370
    -2
100
AcDbLine
 10
849.4932511195448
 20
2524.468821522978
 30
0.0
 11
1028.125840167908
 21
2524.468821522978
 31
0.0
  0
LINE
  5
8E71
330
8E6D
100
AcDbEntity
  8
DIM
  6
Continuous
 62
     0
370
    -2
100
AcDbLine
 10
849.4903668292181
 20
2164.468821534536
 30
0.0
 11
1028.125840167908
 21
2164.468821534536
 31
0.0
  0
LINE
  5
8E72
330
8E6D
100
AcDbEntity
  8
DIM
  6
Continuous
 62
     0
370
    -2
100
AcDbLine
 10
1028.125840167908
 20
2518.468821522978
 30
0.0
 11
1028.125840167908
 21
2170.468821534536
 31
0.0
  0
INSERT
  5
8E73
330
8E6D
100
AcDbEntity
  8
DIM
 62
     0
370
    -2
100
AcDbBlockReference
  2
_DOT
 10
1028.125840167908
 20
2524.468821522978
 30
0.0
 41
6.0
 42
6.0
 43
6.0
 50
90.0
  0
INSERT
  5
8E74
330
8E6D
100
AcDbEntity
  8
DIM
 62
     0
370
    -2
100
AcDbBlockReference
  2
_DOT
 10
1028.125840167908
 20
2164.468821534536
 30
0.0
 41
6.0
 42
6.0
 43
6.0
 50
270.0
  0
MTEXT
  5
8E75
330
8E6D
100
AcDbEntity
  8
DIM
  6
Continuous
 62
     0
100
AcDbMText
 10
1001.125840167908
 20
2344.468821528757
 30
0.0
 40
24.0
 41
0.0
 46
0.0
 71
     5
 72
     1
  1
\A1;360
  7
ＭＳ ゴシック
 11
0.0
 21
1.0
 31
0.0
 73
     1
 44
1.0
  0
POINT
  5
8E76
330
8E6D
100
AcDbEntity
  8
Defpoints
 62
     0
100
AcDbPoint
 10
824.4932511195448
 20
2524.468821522978
 30
0.0
  0
POINT
  5
8E77
330
8E6D
100
AcDbEntity
  8
Defpoints
 62
     0
100
AcDbPoint
 10
824.4903668292181
 20
2164.468821534536
 30
0.0
  0
POINT
  5
8E78
330
8E6D
100
AcDbEntity
  8
Defpoints
 62
     0
100
AcDbPoint
 10
1028.125840167908
 20
2164.468821534536
 30
0.0
  0
ENDBLK
  5
8E6F
330
8E6D
100
AcDbEntity
  8
0
100
AcDbBlockEnd
  0
BLOCK
  5
8E7A
330
8E79
100
AcDbEntity
  8
0
100
AcDbBlockBegin
  2
*D9
 70
     1
 10
0.0
 20
0.0
 30
0.0
  3
*D9
  1
*D354
  0
LINE
  5
8E7C
330
8E79
100
AcDbEntity
  8
DIM
  6
Continuous
 62
     0
370
    -2
100
AcDbLine
 10
304.8977660388032
 20
2593.169857636898
 30
0.0
 11
304.8977660388032
 21
2627.583894038035
 31
0.0
  0
LINE
  5
8E7D
330
8E79
100
AcDbEntity
  8
DIM
  6
Continuous
 62
     0
370
    -2
100
AcDbLine
 10
929.8977662704829
 20
2417.666591828852
 30
0.0
 11
929.8977662704829
 21
2627.583894038035
 31
0.0
  0
LINE
  5
8E7E
330
8E79
100
AcDbEntity
  8
DIM
  6
Continuous
 62
     0
370
    -2
100
AcDbLine
 10
310.8977660388032
 20
2627.583894038035
 30
0.0
 11
923.8977662704829
 21
2627.583894038035
 31
0.0
  0
INSERT
  5
8E7F
330
8E79
100
AcDbEntity
  8
DIM
 62
     0
370
    -2
100
AcDbBlockReference
  2
_DOT
 10
304.8977660388032
 20
2627.583894038035
 30
0.0
 41
6.0
 42
6.0
 43
6.0
 50
180.0
  0
INSERT
  5
8E80
330
8E79
100
AcDbEntity
  8
DIM
 62
     0
370
    -2
100
AcDbBlockReference
  2
_DOT
 10
929.8977662704829
 20
2627.583894038035
 30
0.0
 41
6.0
 42
6.0
 43
6.0
  0
MTEXT
  5
8E81
330
8E79
100
AcDbEntity
  8
DIM
  6
Continuous
 62
     0
100
AcDbMText
 10
617.3977661546428
 20
2654.583894038035
 30
0.0
 40
24.0
 41
0.0
 46
0.0
 71
     5
 72
     1
  1
\A1;625
  7
ＭＳ ゴシック
 73
     1
 44
1.0
  0
POINT
  5
8E82
330
8E79
100
AcDbEntity
  8
Defpoints
 62
     0
100
AcDbPoint
 10
304.8977660388032
 20
2568.169857636898
 30
0.0
  0
POINT
  5
8E83
330
8E79
100
AcDbEntity
  8
Defpoints
 62
     0
100
AcDbPoint
 10
929.8977662704829
 20
2392.666591828852
 30
0.0
  0
POINT
  5
8E84
330
8E79
100
AcDbEntity
  8
Defpoints
 62
     0
100
AcDbPoint
 10
929.8977662704829
 20
2627.583894038035
 30
0.0
  0
ENDBLK
  5
8E7B
330
8E79
100
AcDbEntity
  8
0
100
AcDbBlockEnd
  0
BLOCK
  5
8E86
330
8E85
100
AcDbEntity
  8
0
100
AcDbBlockBegin
  2
*D10
 70
     1
 10
0.0
 20
0.0
 30
0.0
  3
*D10
  1
*D355
  0
LINE
  5
8E88
330
8E85
100
AcDbEntity
  8
DIM
  6
Continuous
 62
     0
370
    -2
100
AcDbLine
 10
286.8863328234979
 20
2161.970585976946
 30
0.0
 11
160.4383971122338
 21
2161.970585976946
 31
0.0
  0
LINE
  5
8E89
330
8E85
100
AcDbEntity
  8
DIM
  6
Continuous
 62
     0
370
    -2
100
AcDbLine
 10
286.977730128875
 20
2526.970188444373
 30
0.0
 11
160.4383971122338
 21
2526.970188444373
 31
0.0
  0
LINE
  5
8E8A
330
8E85
100
AcDbEntity
  8
DIM
  6
Continuous
 62
     0
370
    -2
100
AcDbLine
 10
160.4383971122338
 20
2167.970585976946
 30
0.0
 11
160.4383971122338
 21
2520.970188444373
 31
0.0
  0
INSERT
  5
8E8B
330
8E85
100
AcDbEntity
  8
DIM
 62
     0
370
    -2
100
AcDbBlockReference
  2
_DOT
 10
160.4383971122338
 20
2161.970585976946
 30
0.0
 41
6.0
 42
6.0
 43
6.0
 50
270.0
  0
INSERT
  5
8E8C
330
8E85
100
AcDbEntity
  8
DIM
 62
     0
370
    -2
100
AcDbBlockReference
  2
_DOT
 10
160.4383971122338
 20
2526.970188444373
 30
0.0
 41
6.0
 42
6.0
 43
6.0
 50
90.0
  0
MTEXT
  5
8E8D
330
8E85
100
AcDbEntity
  8
DIM
  6
Continuous
 62
     0
100
AcDbMText
 10
133.4383971122338
 20
2344.470387210661
 30
0.0
 40
24.0
 41
0.0
 46
0.0
 71
     5
 72
     1
  1
\A1;365
  7
ＭＳ ゴシック
 11
7.786778187776336E-17
 21
1.0
 31
0.0
 73
     1
 44
1.0
  0
POINT
  5
8E8E
330
8E85
100
AcDbEntity
  8
Defpoints
 62
     0
100
AcDbPoint
 10
311.8863328234979
 20
2161.970585976946
 30
0.0
  0
POINT
  5
8E8F
330
8E85
100
AcDbEntity
  8
Defpoints
 62
     0
100
AcDbPoint
 10
311.977730128875
 20
2526.970188444373
 30
0.0
  0
POINT
  5
8E90
330
8E85
100
AcDbEntity
  8
Defpoints
 62
     0
100
AcDbPoint
 10
160.4383971122338
 20
2526.970188444373
 30
0.0
  0
ENDBLK
  5
8E87
330
8E85
100
AcDbEntity
  8
0
100
AcDbBlockEnd
  0
BLOCK
  5
8F92
330
8F91
100
AcDbEntity
  8
0
100
AcDbBlockBegin
  2
*D11
 70
     1
 10
0.0
 20
0.0
 30
0.0
  3
*D11
  1
*D361
  0
LINE
  5
8F94
330
8F91
100
AcDbEntity
  8
DIM
  6
Continuous
 62
     0
370
    -2
100
AcDbLine
 10
277.0399213991968
 20
1382.119004890601
 30
0.0
 11
223.6642771776092
 21
1382.119004890601
 31
0.0
  0
LINE
  5
8F95
330
8F91
100
AcDbEntity
  8
DIM
  6
Continuous
 62
     0
370
    -2
100
AcDbLine
 10
273.0365016433711
 20
1337.603847373654
 30
0.0
 11
223.6642771776092
 21
1337.603847373654
 31
0.0
  0
LINE
  5
8F96
330
8F91
100
AcDbEntity
  8
DIM
  6
Continuous
 62
     0
370
    -2
100
AcDbLine
 10
223.6642771776092
 20
1376.119004890601
 30
0.0
 11
223.6642771776092
 21
1343.603847373654
 31
0.0
  0
INSERT
  5
8F97
330
8F91
100
AcDbEntity
  8
DIM
 62
     0
370
    -2
100
AcDbBlockReference
  2
_DOT
 10
223.6642771776092
 20
1382.119004890601
 30
0.0
 41
6.0
 42
6.0
 43
6.0
 50
90.0
  0
INSERT
  5
8F98
330
8F91
100
AcDbEntity
  8
DIM
 62
     0
370
    -2
100
AcDbBlockReference
  2
_DOT
 10
223.6642771776092
 20
1337.603847373654
 30
0.0
 41
6.0
 42
6.0
 43
6.0
 50
270.0
  0
MTEXT
  5
8F99
330
8F91
100
AcDbEntity
  8
DIM
  6
Continuous
 62
     0
100
AcDbMText
 10
196.6642771776092
 20
1359.861426132128
 30
0.0
 40
24.0
 41
0.0
 46
0.0
 71
     5
 72
     1
  1
\A1;45
  7
ＭＳ ゴシック
 11
0.0
 21
1.0
 31
0.0
 73
     1
 44
1.0
  0
POINT
  5
8F9A
330
8F91
100
AcDbEntity
  8
Defpoints
 62
     0
100
AcDbPoint
 10
302.0399213991968
 20
1382.119004890601
 30
0.0
  0
POINT
  5
8F9B
330
8F91
100
AcDbEntity
  8
Defpoints
 62
     0
100
AcDbPoint
 10
298.0365016433711
 20
1337.603847373654
 30
0.0
  0
POINT
  5
8F9C
330
8F91
100
AcDbEntity
  8
Defpoints
 62
     0
100
AcDbPoint
 10
223.6642771776092
 20
1337.603847373654
 30
0.0
  0
ENDBLK
  5
8F93
330
8F91
100
AcDbEntity
  8
0
100
AcDbBlockEnd
  0
BLOCK
  5
8F9E
330
8F9D
100
AcDbEntity
  8
0
100
AcDbBlockBegin
  2
*D12
 70
     1
 10
0.0
 20
0.0
 30
0.0
  3
*D12
  1
*D362
  0
LINE
  5
8FA0
330
8F9D
100
AcDbEntity
  8
DIM
  6
Continuous
 62
     0
370
    -2
100
AcDbLine
 10
240.345452117193
 20
1337.603847373654
 30
0.0
 11
223.6642771776092
 21
1337.603847373654
 31
0.0
  0
LINE
  5
8FA1
330
8F9D
100
AcDbEntity
  8
DIM
  6
Continuous
 62
     0
370
    -2
100
AcDbLine
 10
266.938327121642
 20
1202.603847373654
 30
0.0
 11
223.6642771776092
 21
1202.603847373654
 31
0.0
  0
LINE
  5
8FA2
330
8F9D
100
AcDbEntity
  8
DIM
  6
Continuous
 62
     0
370
    -2
100
AcDbLine
 10
223.6642771776092
 20
1331.603847373654
 30
0.0
 11
223.6642771776092
 21
1208.603847373654
 31
0.0
  0
INSERT
  5
8FA3
330
8F9D
100
AcDbEntity
  8
DIM
 62
     0
370
    -2
100
AcDbBlockReference
  2
_DOT
 10
223.6642771776092
 20
1337.603847373654
 30
0.0
 41
6.0
 42
6.0
 43
6.0
 50
90.0
  0
INSERT
  5
8FA4
330
8F9D
100
AcDbEntity
  8
DIM
 62
     0
370
    -2
100
AcDbBlockReference
  2
_DOT
 10
223.6642771776092
 20
1202.603847373654
 30
0.0
 41
6.0
 42
6.0
 43
6.0
 50
270.0
  0
MTEXT
  5
8FA5
330
8F9D
100
AcDbEntity
  8
DIM
  6
Continuous
 62
     0
100
AcDbMText
 10
196.6642771776092
 20
1270.103847373654
 30
0.0
 40
24.0
 41
0.0
 46
0.0
 71
     5
 72
     1
  1
\A1;135
  7
ＭＳ ゴシック
 11
0.0
 21
1.0
 31
0.0
 73
     1
 44
1.0
  0
POINT
  5
8FA6
330
8F9D
100
AcDbEntity
  8
Defpoints
 62
     0
100
AcDbPoint
 10
265.345452117193
 20
1337.603847373654
 30
0.0
  0
POINT
  5
8FA7
330
8F9D
100
AcDbEntity
  8
Defpoints
 62
     0
100
AcDbPoint
 10
291.938327121642
 20
1202.603847373654
 30
0.0
  0
POINT
  5
8FA8
330
8F9D
100
AcDbEntity
  8
Defpoints
 62
     0
100
AcDbPoint
 10
223.6642771776092
 20
1202.603847373654
 30
0.0
  0
ENDBLK
  5
8F9F
330
8F9D
100
AcDbEntity
  8
0
100
AcDbBlockEnd
  0
BLOCK
  5
8FBF
330
8FBE
100
AcDbEntity
  8
0
100
AcDbBlockBegin
  2
*D13
 70
     1
 10
0.0
 20
0.0
 30
0.0
  3
*D13
  1
*D363
  0
LINE
  5
8FC1
330
8FBE
100
AcDbEntity
  8
DIM
  6
Continuous
 62
     0
370
    -2
100
AcDbLine
 10
1451.828505923239
 20
1348.232203533246
 30
0.0
 11
1451.828505923239
 21
1481.969075049793
 31
0.0
  0
LINE
  5
8FC2
330
8FBE
100
AcDbEntity
  8
DIM
  6
Continuous
 62
     0
370
    -2
100
AcDbLine
 10
1631.828505923239
 20
1347.480392464218
 30
0.0
 11
1631.828505923239
 21
1481.969075049793
 31
0.0
  0
LINE
  5
8FC3
330
8FBE
100
AcDbEntity
  8
DIM
  6
Continuous
 62
     0
370
    -2
100
AcDbLine
 10
1457.828505923239
 20
1481.969075049793
 30
0.0
 11
1625.828505923239
 21
1481.969075049793
 31
0.0
  0
INSERT
  5
8FC4
330
8FBE
100
AcDbEntity
  8
DIM
 62
     0
370
    -2
100
AcDbBlockReference
  2
_DOT
 10
1451.828505923239
 20
1481.969075049793
 30
0.0
 41
6.0
 42
6.0
 43
6.0
 50
180.0
  0
INSERT
  5
8FC5
330
8FBE
100
AcDbEntity
  8
DIM
 62
     0
370
    -2
100
AcDbBlockReference
  2
_DOT
 10
1631.828505923239
 20
1481.969075049793
 30
0.0
 41
6.0
 42
6.0
 43
6.0
  0
MTEXT
  5
8FC6
330
8FBE
100
AcDbEntity
  8
DIM
  6
Continuous
 62
     0
100
AcDbMText
 10
1541.828505923239
 20
1508.969075049793
 30
0.0
 40
24.0
 41
0.0
 46
0.0
 71
     5
 72
     1
  1
\A1;180
  7
ＭＳ ゴシック
 73
     1
 44
1.0
  0
POINT
  5
8FC7
330
8FBE
100
AcDbEntity
  8
Defpoints
 62
     0
100
AcDbPoint
 10
1451.828505923239
 20
1323.232203533246
 30
0.0
  0
POINT
  5
8FC8
330
8FBE
100
AcDbEntity
  8
Defpoints
 62
     0
100
AcDbPoint
 10
1631.828505923239
 20
1322.480392464218
 30
0.0
  0
POINT
  5
8FC9
330
8FBE
100
AcDbEntity
  8
Defpoints
 62
     0
100
AcDbPoint
 10
1631.828505923239
 20
1481.969075049793
 30
0.0
  0
ENDBLK
  5
8FC0
330
8FBE
100
AcDbEntity
  8
0
100
AcDbBlockEnd
  0
BLOCK
  5
9382
330
9381
100
AcDbEntity
  8
0
100
AcDbBlockBegin
  2
*D14
 70
     1
 10
0.0
 20
0.0
 30
0.0
  3
*D14
  1
*D412
  0
LINE
  5
9384
330
9381
100
AcDbEntity
  8
DIM
  6
Continuous
 62
     0
370
    -2
100
AcDbLine
 10
1341.930654754199
 20
1382.11635808112
 30
0.0
 11
1273.430369415258
 21
1382.11635808112
 31
0.0
  0
LINE
  5
9385
330
9381
100
AcDbEntity
  8
DIM
  6
Continuous
 62
     0
370
    -2
100
AcDbLine
 10
1341.930654754199
 20
1302.11635808112
 30
0.0
 11
1273.430369415258
 21
1302.11635808112
 31
0.0
  0
LINE
  5
9386
330
9381
100
AcDbEntity
  8
DIM
  6
Continuous
 62
     0
370
    -2
100
AcDbLine
 10
1273.430369415258
 20
1376.11635808112
 30
0.0
 11
1273.430369415258
 21
1308.11635808112
 31
0.0
  0
INSERT
  5
9387
330
9381
100
AcDbEntity
  8
DIM
 62
     0
370
    -2
100
AcDbBlockReference
  2
_DOT
 10
1273.430369415258
 20
1382.11635808112
 30
0.0
 41
6.0
 42
6.0
 43
6.0
 50
90.0
  0
INSERT
  5
9388
330
9381
100
AcDbEntity
  8
DIM
 62
     0
370
    -2
100
AcDbBlockReference
  2
_DOT
 10
1273.430369415258
 20
1302.11635808112
 30
0.0
 41
6.0
 42
6.0
 43
6.0
 50
270.0
  0
MTEXT
  5
9389
330
9381
100
AcDbEntity
  8
DIM
  6
Continuous
 62
     0
100
AcDbMText
 10
1246.430369415258
 20
1342.11635808112
 30
0.0
 40
24.0
 41
0.0
 46
0.0
 71
     5
 72
     1
  1
\A1;80
  7
ＭＳ ゴシック
 11
0.0
 21
1.0
 31
0.0
 73
     1
 44
1.0
  0
POINT
  5
938A
330
9381
100
AcDbEntity
  8
Defpoints
 62
     0
100
AcDbPoint
 10
1366.930654754199
 20
1382.11635808112
 30
0.0
  0
POINT
  5
938B
330
9381
100
AcDbEntity
  8
Defpoints
 62
     0
100
AcDbPoint
 10
1366.930654754199
 20
1302.11635808112
 30
0.0
  0
POINT
  5
938C
330
9381
100
AcDbEntity
  8
Defpoints
 62
     0
100
AcDbPoint
 10
1273.430369415258
 20
1302.11635808112
 30
0.0
  0
ENDBLK
  5
9383
330
9381
100
AcDbEntity
  8
0
100
AcDbBlockEnd
  0
BLOCK
  5
954A
330
9549
100
AcDbEntity
  8
0
100
AcDbBlockBegin
  2
*D15
 70
     1
 10
0.0
 20
0.0
 30
0.0
  3
*D15
  1
*D396
  0
LINE
  5
954C
330
9549
100
AcDbEntity
  8
DIM
  6
Continuous
 62
     0
370
    -2
100
AcDbLine
 10
612.4784192171201
 20
1036.952714358036
 30
0.0
 11
1072.388874290351
 21
1036.952714358036
 31
0.0
  0
LINE
  5
954D
330
9549
100
AcDbEntity
  8
DIM
  6
Continuous
 62
     0
370
    -2
100
AcDbLine
 10
966.261428529212
 20
1381.952714358036
 30
0.0
 11
1072.388874290351
 21
1381.952714358036
 31
0.0
  0
LINE
  5
954E
330
9549
100
AcDbEntity
  8
DIM
  6
Continuous
 62
     0
370
    -2
100
AcDbLine
 10
1072.388874290351
 20
1042.952714358036
 30
0.0
 11
1072.388874290351
 21
1375.952714358036
 31
0.0
  0
INSERT
  5
954F
330
9549
100
AcDbEntity
  8
DIM
 62
     0
370
    -2
100
AcDbBlockReference
  2
_DOT
 10
1072.388874290351
 20
1036.952714358036
 30
0.0
 41
6.0
 42
6.0
 43
6.0
 50
270.0
  0
INSERT
  5
9550
330
9549
100
AcDbEntity
  8
DIM
 62
     0
370
    -2
100
AcDbBlockReference
  2
_DOT
 10
1072.388874290351
 20
1381.952714358036
 30
0.0
 41
6.0
 42
6.0
 43
6.0
 50
90.0
  0
MTEXT
  5
9551
330
9549
100
AcDbEntity
  8
DIM
  6
Continuous
 62
     0
100
AcDbMText
 10
1045.388874290351
 20
1209.452714358036
 30
0.0
 40
24.0
 41
0.0
 46
0.0
 71
     5
 72
     1
  1
\A1;345
  7
ＭＳ ゴシック
 11
0.0
 21
1.0
 31
0.0
 73
     1
 44
1.0
  0
POINT
  5
9552
330
9549
100
AcDbEntity
  8
Defpoints
 62
     0
100
AcDbPoint
 10
587.4784192171201
 20
1036.952714358036
 30
0.0
  0
POINT
  5
9553
330
9549
100
AcDbEntity
  8
Defpoints
 62
     0
100
AcDbPoint
 10
941.261428529212
 20
1381.952714358036
 30
0.0
  0
POINT
  5
9554
330
9549
100
AcDbEntity
  8
Defpoints
 62
     0
100
AcDbPoint
 10
1072.388874290351
 20
1381.952714358036
 30
0.0
  0
ENDBLK
  5
954B
330
9549
100
AcDbEntity
  8
0
100
AcDbBlockEnd
  0
BLOCK
  5
9911
330
9910
100
AcDbEntity
  8
0
100
AcDbBlockBegin
  2
*D16
 70
     1
 10
0.0
 20
0.0
 30
0.0
  3
*D16
  1

  0
LINE
  5
9913
330
9910
100
AcDbEntity
  8
MODEL
  6
Continuous
 62
     0
370
    -2
100
AcDbLine
 10
1666.828505923239
 20
1301.364547012092
 30
0.0
 11
1785.021644127386
 21
1301.364547012092
 31
0.0
  0
LINE
  5
9914
330
9910
100
AcDbEntity
  8
MODEL
  6
Continuous
 62
     0
370
    -2
100
AcDbLine
 10
1775.132295758391
 20
1407.12920009397
 30
0.0
 11
1785.021644127386
 21
1407.12920009397
 31
0.0
  0
LINE
  5
9915
330
9910
100
AcDbEntity
  8
MODEL
  6
Continuous
 62
     0
370
    -2
100
AcDbLine
 10
1785.021644127386
 20
1307.364547012092
 30
0.0
 11
1785.021644127386
 21
1401.12920009397
 31
0.0
  0
INSERT
  5
9916
330
9910
100
AcDbEntity
  8
MODEL
 62
     0
370
    -2
100
AcDbBlockReference
  2
_DOT
 10
1785.021644127386
 20
1301.364547012092
 30
0.0
 41
6.0
 42
6.0
 43
6.0
 50
270.0
  0
INSERT
  5
9917
330
9910
100
AcDbEntity
  8
MODEL
 62
     0
370
    -2
100
AcDbBlockReference
  2
_DOT
 10
1785.021644127386
 20
1407.12920009397
 30
0.0
 41
6.0
 42
6.0
 43
6.0
 50
90.0
  0
MTEXT
  5
9918
330
9910
100
AcDbEntity
  8
MODEL
  6
Continuous
 62
     0
100
AcDbMText
 10
1758.021644127386
 20
1354.246873553031
 30
0.0
 40
24.0
 41
0.0
 46
0.0
 71
     5
 72
     1
  1
\A1;105
  7
ＭＳ ゴシック
 11
0.0
 21
1.0
 31
0.0
 73
     1
 44
1.0
  0
POINT
  5
9919
330
9910
100
AcDbEntity
  8
Defpoints
 62
     0
100
AcDbPoint
 10
1641.828505923239
 20
1301.364547012092
 30
0.0
  0
POINT
  5
991A
330
9910
100
AcDbEntity
  8
Defpoints
 62
     0
100
AcDbPoint
 10
1750.132295758391
 20
1407.12920009397
 30
0.0
  0
POINT
  5
991B
330
9910
100
AcDbEntity
  8
Defpoints
 62
     0
100
AcDbPoint
 10
1785.021644127386
 20
1407.12920009397
 30
0.0
  0
ENDBLK
  5
9912
330
9910
100
AcDbEntity
  8
0
100
AcDbBlockEnd
  0
ENDSEC
  0
SECTION
  2
ENTITIES
  0
POINT
  5
3B96
330
A
100
AcDbEntity
  8
_0-7_
 62
     9
100
AcDbPoint
 10
5611.355377587607
 20
1006.191153304715
 30
0.0
  0
MTEXT
  5
750F
330
A
100
AcDbEntity
  8
MODEL
390
1D
100
AcDbMText
 10
79.25470553268497
 20
348.7848719762269
 30
0.0
 40
16.28841145833333
 41
0.0
 46
0.0
 71
     1
 72
     1
  1
品名
  7
ＭＳ ゴシック
 73
     1
 44
0.7828267384257843
  0
MTEXT
  5
7510
330
A
100
AcDbEntity
  8
MODEL
390
1D
100
AcDbMText
 10
79.25470553268497
 20
263.7848719762269
 30
0.0
 40
16.28841145833333
 41
0.0
 46
0.0
 71
     1
 72
     1
  1
仕様
  7
ＭＳ ゴシック
 73
     1
 44
0.7828267384257843
  0
LINE
  5
7511
330
A
100
AcDbEntity
  8
MODEL
390
1D
100
AcDbLine
 10
2022.254705532203
 20
272.1997938512268
 30
0.0
 11
72.25470553220293
 21
272.1997938512268
 31
0.0
  0
LWPOLYLINE
  5
7512
330
A
100
AcDbEntity
  8
MODEL
390
1D
100
AcDbPolyline
 90
        5
 70
   128
 43
0.0
 10
2022.254705532203
 20
2902.199793851226
 10
72.25470553220293
 20
2902.199793851226
 10
72.25470553220293
 20
102.1997938512268
 10
2022.254705532203
 20
102.1997938512268
 10
2022.254705532203
 20
2902.199793851226
  0
LINE
  5
7513
330
A
100
AcDbEntity
  8
MODEL
390
1D
100
AcDbLine
 10
2022.254705532203
 20
357.1997938512268
 30
0.0
 11
72.25470553220293
 21
357.1997938512268
 31
0.0
  0
LINE
  5
7514
330
A
100
AcDbEntity
  8
MODEL
390
1D
100
AcDbLine
 10
2022.254705532685
 20
187.1997938512268
 30
0.0
 11
1269.254705532685
 21
187.1997938512268
 31
0.0
  0
MTEXT
  5
7515
330
A
100
AcDbEntity
  8
MODEL
390
1D
100
AcDbMText
 10
72.25470553288915
 20
90.34597179436969
 30
0.0
 40
21.71788194444445
 41
0.0
 46
21.71788194444445
 71
     1
 72
     1
  1
{160122N}
  7
ＭＳ ゴシック
 73
     1
 44
0.7828267384257843
1001
ACAD
1000
ACAD_MTEXT_DEFINED_HEIGHT_BEGIN
1070
    46
1040
21.71788194444445
1000
ACAD_MTEXT_DEFINED_HEIGHT_END
  0
MTEXT
  5
7516
330
A
100
AcDbEntity
  8
MODEL
390
1D
100
AcDbMText
 10
1299.126111784947
 20
157.289399377918
 30
0.0
 40
24.4326171875
 41
0.0
 46
0.0
 71
     1
 72
     1
  1
大洋金物株式会社 ティーフォルム事業部
  7
ＭＳ ゴシック
 73
     1
 44
0.7828267384257843
  0
MTEXT
  5
7517
330
A
100
AcDbEntity
  8
MODEL
390
1D
100
AcDbMText
 10
1831.254705532946
 20
235.2024110387265
 30
0.0
 40
24.4326171875
 41
0.0
 46
24.4326171875
 71
     1
 72
     1
  1
{1:10}
  7
ＭＳ ゴシック
 73
     1
 44
0.7828267384257843
1001
ACAD
1000
ACAD_MTEXT_DEFINED_HEIGHT_BEGIN
1070
    46
1040
24.4326171875
1000
ACAD_MTEXT_DEFINED_HEIGHT_END
  0
MTEXT
  5
7518
330
A
100
AcDbEntity
  8
MODEL
390
1D
100
AcDbMText
 10
1778.254705532946
 20
263.7848719762269
 30
0.0
 40
16.28841145833333
 41
0.0
 46
0.0
 71
     1
 72
     1
  1
縮尺
  7
ＭＳ ゴシック
 73
     1
 44
0.7828267384257843
  0
LINE
  5
7519
330
A
100
AcDbEntity
  8
MODEL
390
1D
100
AcDbLine
 10
1771.254705532946
 20
187.1997938512268
 30
0.0
 11
1771.254705532946
 21
272.1997938512268
 31
0.0
  0
MTEXT
  5
751A
330
A
100
AcDbEntity
  8
MODEL
390
1D
100
AcDbMText
 10
1527.254705532946
 20
263.7848719762269
 30
0.0
 40
16.28841145833333
 41
0.0
 46
0.0
 71
     1
 72
     1
  1
容量
  7
ＭＳ ゴシック
 73
     1
 44
0.7828267384257843
  0
LINE
  5
751B
330
A
100
AcDbEntity
  8
MODEL
390
1D
100
AcDbLine
 10
1520.254705532946
 20
187.1997938512268
 30
0.0
 11
1520.254705532946
 21
272.1997938512268
 31
0.0
  0
MTEXT
  5
751C
330
A
100
AcDbEntity
  8
MODEL
390
1D
100
AcDbMText
 10
1276.254705532946
 20
348.7848719762269
 30
0.0
 40
16.28841145833333
 41
0.0
 46
0.0
 71
     1
 72
     1
  1
品番
  7
ＭＳ ゴシック
 73
     1
 44
0.7828267384257843
  0
MTEXT
  5
751D
330
A
100
AcDbEntity
  8
MODEL
390
1D
100
AcDbMText
 10
1276.254705532946
 20
263.7848719762269
 30
0.0
 40
16.28841145833333
 41
0.0
 46
0.0
 71
     1
 72
     1
  1
重量
  7
ＭＳ ゴシック
 73
     1
 44
0.7828267384257843
  0
MTEXT
  5
751E
330
A
100
AcDbEntity
  8
MODEL
390
1D
100
AcDbMText
 10
1329.254705532946
 20
320.2024110387265
 30
0.0
 40
24.4326171875
 41
0.0
 46
24.4326171875
 71
     1
 72
     1
  1
{FAA71-0901}
  7
ＭＳ ゴシック
 73
     1
 44
0.7828267384257843
1001
ACAD
1000
ACAD_MTEXT_DEFINED_HEIGHT_BEGIN
1070
    46
1040
24.4326171875
1000
ACAD_MTEXT_DEFINED_HEIGHT_END
  0
LINE
  5
751F
330
A
100
AcDbEntity
  8
MODEL
390
1D
100
AcDbLine
 10
1269.254705532946
 20
102.1997938512268
 30
0.0
 11
1269.254705532946
 21
357.1997938512268
 31
0.0
  0
MTEXT
  5
7520
330
A
100
AcDbEntity
  8
MODEL
390
1D
100
AcDbMText
 10
132.254705532685
 20
320.2024110387265
 30
0.0
 40
24.4326171875
 41
0.0
 46
24.4326171875
 71
     1
 72
     1
  1
{壁掛便器 -DURAVIT,Darling-}
  7
ＭＳ ゴシック
 73
     1
 44
0.7828267384257843
1001
ACAD
1000
ACAD_MTEXT_DEFINED_HEIGHT_BEGIN
1070
    46
1040
24.4326171875
1000
ACAD_MTEXT_DEFINED_HEIGHT_END
  0
MTEXT
  5
7521
330
A
100
AcDbEntity
  8
MODEL
390
1D
100
AcDbMText
 10
132.254705532685
 20
237.2474089396837
 30
0.0
 40
24.4326171875
 41
0.0
 46
80.02949492370524
 71
     1
 72
     1
  1
{ウォッシュダウン式/ソフトクローズ便座,壁固定金具付属/\P陶器/ホワイト}
  7
ＭＳ ゴシック
 73
     1
 44
1.304711230709641
1001
ACAD
1000
ACAD_MTEXT_DEFINED_HEIGHT_BEGIN
1070
    46
1040
80.02949492370524
1000
ACAD_MTEXT_DEFINED_HEIGHT_END
  0
INSERT
  5
7522
330
A
100
AcDbEntity
  8
MODEL
100
AcDbBlockReference
  2
名称未設定-1
 10
1870.813956087109
 20
30.99988610145101
 30
0.0
 41
0.762
 42
0.762
 43
0.762
  0
LWPOLYLINE
  5
7523
330
A
100
AcDbEntity
  8
TEMPLATE
  6
Continuous
100
AcDbPolyline
 90
        4
 70
     1
 43
0.0
 10
0.0
 20
0.0
 10
0.0
 20
2970.0
 10
2100.0
 20
2970.0
 10
2100.0
 20
0.0
  0
ARC
  5
767E
330
A
100
AcDbEntity
  8
MODEL
100
AcDbCircle
 10
758.0300049828238
 20
2344.468738321757
 30
0.0
 40
125.0
100
AcDbArc
 50
270.0
 51
90.0
  0
ARC
  5
767F
330
A
100
AcDbEntity
  8
MODEL
100
AcDbCircle
 10
758.0309702418481
 20
2344.468738317953
 30
0.0
 40
120.0
100
AcDbArc
 50
270.0
 51
90.0
  0
CIRCLE
  5
7682
330
A
100
AcDbEntity
  8
MODEL
100
AcDbCircle
 10
460.5300049752859
 20
2414.838519895974
 30
0.0
 40
8.0
  0
ARC
  5
7683
330
A
100
AcDbEntity
  8
MODEL
100
AcDbCircle
 10
603.931128313583
 20
2344.470184945552
 30
0.0
 40
41.01930045553468
100
AcDbArc
 50
270.0
 51
90.0
  0
LINE
  5
7684
330
A
100
AcDbEntity
  8
MODEL
100
AcDbLine
 10
603.931128313583
 20
2385.489485401087
 30
0.0
 11
564.4981675365002
 21
2385.489485401087
 31
0.0
  0
LINE
  5
7685
330
A
100
AcDbEntity
  8
MODEL
100
AcDbLine
 10
559.8120094667379
 20
2371.760458086947
 30
0.0
 11
559.8120094667379
 21
2317.179911804158
 31
0.0
  0
ARC
  5
7686
330
A
100
AcDbEntity
  8
MODEL
100
AcDbCircle
 10
569.812009466737
 20
2317.179911804158
 30
0.0
 40
10.0
100
AcDbArc
 50
180.0
 51
270.0
1001
GENIUS_GENOBJ-N-FIL_13
1002
{
1000
OWNER
1000
GEN
1002
}
1001
GENIUS_GENODEF_13
1002
{
1000
HIER
1070
     0
1002
}
1002
{
1000
MANEDIT
1070
     0
1002
}
1002
{
1000
NOSEL
1070
     0
1002
}
1002
{
1000
BEHIND
1070
     0
1002
}
1002
{
1000
OTHER
1070
     0
1002
}
1002
{
1000
REACTOR
1002
}
  0
ARC
  5
7687
330
A
100
AcDbEntity
  8
MODEL
100
AcDbCircle
 10
569.812009466737
 20
2371.760458086947
 30
0.0
 40
10.0
100
AcDbArc
 50
90.0
 51
180.0
1001
GENIUS_GENOBJ-N-FIL_13
1002
{
1000
OWNER
1000
GEN
1002
}
1001
GENIUS_GENODEF_13
1002
{
1000
HIER
1070
     0
1002
}
1002
{
1000
MANEDIT
1070
     0
1002
}
1002
{
1000
NOSEL
1070
     0
1002
}
1002
{
1000
BEHIND
1070
     0
1002
}
1002
{
1000
OTHER
1070
     0
1002
}
1002
{
1000
REACTOR
1002
}
  0
LINE
  5
7688
330
A
100
AcDbEntity
  8
MODEL
100
AcDbLine
 10
603.931128313583
 20
2303.450884490017
 30
0.0
 11
564.4981675365002
 21
2303.450884490017
 31
0.0
  0
ARC
  5
7689
330
A
100
AcDbEntity
  8
MODEL
100
AcDbCircle
 10
633.0300049827961
 20
2344.468821528948
 30
0.0
 40
125.0
100
AcDbArc
 50
90.0
 51
270.0
  0
ARC
  5
768A
330
A
100
AcDbEntity
  8
MODEL
100
AcDbCircle
 10
633.0300049827961
 20
2344.468821528948
 30
0.0
 40
120.0
100
AcDbArc
 50
90.0
 51
270.0
  0
LINE
  5
768C
330
A
100
AcDbEntity
  8
MODEL
100
AcDbLine
 10
758.0300049828238
 20
2469.468738321757
 30
0.0
 11
633.0300049827961
 21
2469.468821528948
 31
0.0
  0
LINE
  5
768D
330
A
100
AcDbEntity
  8
MODEL
100
AcDbLine
 10
758.0309702418481
 20
2464.468738317953
 30
0.0
 11
631.15962664876
 21
2464.468821528948
 31
0.0
  0
LINE
  5
768E
330
A
100
AcDbEntity
  8
MODEL
100
AcDbLine
 10
758.0309702418481
 20
2224.468738317953
 30
0.0
 11
633.0300049827961
 21
2224.468821528949
 31
0.0
  0
LINE
  5
768F
330
A
100
AcDbEntity
  8
MODEL
100
AcDbLine
 10
758.0309702418481
 20
2219.468738321758
 30
0.0
 11
633.0300049827961
 21
2219.468821528949
 31
0.0
  0
ARC
  5
7690
330
A
100
AcDbEntity
  8
MODEL
100
AcDbCircle
 10
585.6601556277219
 20
2344.470184945552
 30
0.0
 40
37.29027314139516
100
AcDbArc
 50
270.0
 51
90.0
  0
ARC
  5
7691
330
A
100
AcDbEntity
  8
MODEL
100
AcDbCircle
 10
563.9229221824548
 20
2400.699164771203
 30
0.0
 40
15.22055366138513
100
AcDbArc
 50
216.8767668068277
 51
272.1659515902977
  0
LINE
  5
7692
330
A
100
AcDbEntity
  8
MODEL
100
AcDbLine
 10
585.6601556277219
 20
2381.760458086947
 30
0.0
 11
569.812009466737
 21
2381.760458086947
 31
0.0
  0
LINE
  5
7693
330
A
100
AcDbEntity
  8
MODEL
100
AcDbLine
 10
585.6601556277219
 20
2307.179911804158
 30
0.0
 11
569.812009466737
 21
2307.179911804158
 31
0.0
  0
ARC
  5
7694
330
A
100
AcDbEntity
  8
MODEL
100
AcDbCircle
 10
563.9229221824548
 20
2288.240633737568
 30
0.0
 40
15.22055366138513
100
AcDbArc
 50
87.83404840970239
 51
143.1232331931761
  0
CIRCLE
  5
7697
330
A
100
AcDbEntity
  8
MODEL
100
AcDbCircle
 10
460.5300049752868
 20
2274.101278612799
 30
0.0
 40
8.0
  0
LWPOLYLINE
  5
7698
330
A
100
AcDbEntity
  8
MODEL
100
AcDbPolyline
 90
        6
 70
     1
 43
0.0
 10
305.5300049752859
 20
2519.970645191825
 42
-0.4175634555830845
 10
312.6099690653582
 20
2526.970188444373
 10
750.5314707957991
 20
2524.468821522978
 42
-0.999999869789495
 10
750.528586505472
 20
2164.468821534536
 10
312.5185717599811
 20
2161.970585976946
 42
-0.4137352557135605
 10
305.5300049752859
 20
2168.970576639909
  0
LINE
  5
78CE
330
A
100
AcDbEntity
  8
MODEL GRAY
  6
AM_DIN_F_W050
 48
3.0
100
AcDbLine
 10
872.1143661083979
 20
1333.095652166268
 30
0.0
 11
529.717487400033
 21
1321.321341075149
 31
0.0
  0
ARC
  5
78CF
330
A
100
AcDbEntity
  8
MODEL GRAY
  6
AM_DIN_F_W050
 48
3.0
100
AcDbCircle
 10
507.7085483076148
 20
1375.115386689199
 30
0.0
 40
7.0
100
AcDbArc
 50
13.45562695897042
 51
90.0
1001
GENIUS_GENODEF_13
1002
{
1000
HIER
1070
     0
1002
}
1002
{
1000
MANEDIT
1070
     0
1002
}
1002
{
1000
NOSEL
1070
     0
1002
}
1002
{
1000
BEHIND
1070
     0
1002
}
1002
{
1000
OTHER
1070
     0
1002
}
1002
{
1000
REACTOR
1002
}
1001
GENIUS_GENOBJ-N-FIL_13
1002
{
1000
OWNER
1000
GEN
1002
}
  0
LINE
  5
78D0
330
A
100
AcDbEntity
  8
MODEL GRAY
  6
AM_DIN_F_W050
 48
3.0
100
AcDbLine
 10
523.3324143154841
 20
1326.566082562917
 30
0.0
 11
514.516401260631
 21
1376.744232344907
 31
0.0
  0
ARC
  5
78D1
330
A
100
AcDbEntity
  8
MODEL GRAY
  6
AM_DIN_F_W050
 48
3.0
100
AcDbCircle
 10
516.5245613624679
 20
1324.93723690721
 30
0.0
 40
7.0
100
AcDbArc
 50
279.4381721005336
 51
13.45562695896318
1001
GENIUS_GENOBJ-N-FIL_13
1002
{
1000
OWNER
1000
GEN
1002
}
1001
GENIUS_GENODEF_13
1002
{
1000
HIER
1070
     0
1002
}
1002
{
1000
MANEDIT
1070
     0
1002
}
1002
{
1000
NOSEL
1070
     0
1002
}
1002
{
1000
BEHIND
1070
     0
1002
}
1002
{
1000
OTHER
1070
     0
1002
}
1002
{
1000
REACTOR
1002
}
  0
LINE
  5
78D2
330
A
100
AcDbEntity
  8
MODEL GRAY
  6
AM_DIN_F_W050
 48
3.0
100
AcDbLine
 10
497.4917806034118
 20
1308.521503550754
 30
0.0
 11
517.6724438238539
 21
1318.031994995818
 31
0.0
  0
ARC
  5
78D3
330
A
100
AcDbEntity
  8
MODEL GRAY
  6
AM_DIN_F_W050
 48
3.0
100
AcDbCircle
 10
702.7462526629979
 20
1482.154717770774
 30
0.0
 40
267.1027851622672
100
AcDbArc
 50
271.0897204499038
 51
319.9021062904399
  0
ARC
  5
78D4
330
A
100
AcDbEntity
  8
MODEL GRAY
  6
AM_DIN_F_W050
 48
3.0
100
AcDbCircle
 10
707.9179945603078
 20
1208.100844870837
 30
0.0
 40
7.0
100
AcDbArc
 50
90.75275935477214
 51
175.6650170523698
1001
GENIUS_GENOBJ-N-FIL_13
1002
{
1000
OWNER
1000
GEN
1002
}
1001
GENIUS_GENODEF_13
1002
{
1000
HIER
1070
     0
1002
}
1002
{
1000
MANEDIT
1070
     0
1002
}
1002
{
1000
NOSEL
1070
     0
1002
}
1002
{
1000
BEHIND
1070
     0
1002
}
1002
{
1000
OTHER
1070
     0
1002
}
1002
{
1000
REACTOR
1002
}
  0
LINE
  5
78D5
330
A
100
AcDbEntity
  8
MODEL
100
AcDbLine
 10
921.9410090432289
 20
1365.727964290917
 30
0.0
 11
305.5424625530632
 21
1365.775024274061
 31
0.0
  0
ARC
  5
78D6
330
A
100
AcDbEntity
  8
MODEL GRAY
  6
AM_DIN_F_W050
 48
3.0
100
AcDbCircle
 10
887.7737993887508
 20
1375.110101015478
 30
0.0
 40
6.999999999999979
100
AcDbArc
 50
90.0
 51
166.5443730410368
1001
GENIUS_GENODEF_13
1002
{
1000
HIER
1070
     0
1002
}
1002
{
1000
MANEDIT
1070
     0
1002
}
1002
{
1000
NOSEL
1070
     0
1002
}
1002
{
1000
BEHIND
1070
     0
1002
}
1002
{
1000
OTHER
1070
     0
1002
}
1002
{
1000
REACTOR
1002
}
1001
GENIUS_GENOBJ-N-FIL_13
1002
{
1000
OWNER
1000
GEN
1002
}
  0
LINE
  5
78D7
330
A
100
AcDbEntity
  8
MODEL GRAY
  6
AM_DIN_F_W050
 48
3.0
100
AcDbLine
 10
874.3601184985569
 20
1337.60926563271
 30
0.0
 11
880.965946435736
 21
1376.738946671185
 31
0.0
  0
ARC
  5
78D8
330
A
100
AcDbEntity
  8
MODEL GRAY
  6
AM_DIN_F_W050
 48
3.0
100
AcDbCircle
 10
881.1679714515731
 20
1335.980419977003
 30
0.0
 40
7.0
100
AcDbArc
 50
166.5443730410368
 51
260.561827899475
1001
GENIUS_GENOBJ-N-FIL_13
1002
{
1000
OWNER
1000
GEN
1002
}
1001
GENIUS_GENODEF_13
1002
{
1000
HIER
1070
     0
1002
}
1002
{
1000
MANEDIT
1070
     0
1002
}
1002
{
1000
NOSEL
1070
     0
1002
}
1002
{
1000
BEHIND
1070
     0
1002
}
1002
{
1000
OTHER
1070
     0
1002
}
1002
{
1000
REACTOR
1002
}
  0
LINE
  5
78D9
330
A
100
AcDbEntity
  8
MODEL GRAY
  6
AM_DIN_F_W050
 48
3.0
100
AcDbLine
 10
880.0200889901871
 20
1329.075178065611
 30
0.0
 11
908.790251743219
 21
1320.511242539381
 31
0.0
  0
LINE
  5
78DA
330
A
100
AcDbEntity
  8
MODEL GRAY
  6
AM_DIN_G_W050
 48
2.0
100
AcDbLine
 10
460.5435762357838
 20
1357.835089976719
 30
0.0
 11
460.5435762357838
 21
1388.266935760223
 31
0.0
  0
LINE
  5
78DB
330
A
100
AcDbEntity
  8
MODEL GRAY
  6
AM_DIN_F_W050
 48
3.0
100
AcDbLine
 10
378.4991038585758
 20
1151.042653449744
 30
0.0
 11
330.8070377113768
 21
1151.042653449744
 31
0.0
  0
LINE
  5
78DC
330
A
100
AcDbEntity
  8
MODEL GRAY
  6
AM_DIN_F_W050
 48
3.0
100
AcDbLine
 10
480.3961328774208
 20
1252.695042697861
 30
0.0
 11
330.8070377113768
 21
1253.042328542769
 31
0.0
  0
ARC
  5
78DD
330
A
100
AcDbEntity
  8
MODEL GRAY
  6
AM_DIN_F_W050
 48
3.0
100
AcDbCircle
 10
739.701551199762
 20
1077.27658491798
 30
0.0
 40
96.68710753916965
100
AcDbArc
 50
150.1110868272505
 51
174.1589398676938
  0
ARC
  5
78DE
330
A
100
AcDbEntity
  8
MODEL GRAY
  6
AM_DIN_F_W050
 48
3.0
100
AcDbCircle
 10
391.2354100462958
 20
1095.26874412457
 30
0.0
 40
183.4097298652059
100
AcDbArc
 50
8.867165977945676
 51
48.7048214008041
  0
LINE
  5
78DF
330
A
100
AcDbEntity
  8
MODEL GRAY
  6
AM_DIN_F_W050
 48
3.0
100
AcDbLine
 10
517.5932830103661
 20
1129.742934971679
 30
0.0
 11
527.8200277573669
 21
1087.11635808112
 31
0.0
  0
ARC
  5
78E0
330
A
100
AcDbEntity
  8
MODEL GRAY
  6
AM_DIN_F_W050
 48
3.0
100
AcDbCircle
 10
501.0623791470712
 20
1125.776927223013
 30
0.0
 40
17.0
100
AcDbArc
 50
13.49111501412829
 51
86.15959235497698
1001
GENIUS_GENOBJ-N-FIL_13
1002
{
1000
OWNER
1000
GEN
1002
}
1001
GENIUS_GENODEF_13
1002
{
1000
HIER
1070
     0
1002
}
1002
{
1000
MANEDIT
1070
     0
1002
}
1002
{
1000
NOSEL
1070
     0
1002
}
1002
{
1000
BEHIND
1070
     0
1002
}
1002
{
1000
OTHER
1070
     0
1002
}
1002
{
1000
REACTOR
1002
}
  0
ARC
  5
78E1
330
A
100
AcDbEntity
  8
MODEL GRAY
  6
AM_DIN_F_W050
 48
3.0
100
AcDbCircle
 10
583.7865480021492
 20
1288.60164934627
 30
0.0
 40
90.5424987315297
100
AcDbArc
 50
169.9053182146724
 51
217.831585926871
1001
GENIUS_GENODEF_13
1002
{
1000
HIER
1070
     0
1002
}
1002
{
1000
MANEDIT
1070
     0
1002
}
1002
{
1000
NOSEL
1070
     0
1002
}
1002
{
1000
BEHIND
1070
     0
1002
}
1002
{
1000
OTHER
1070
     0
1002
}
1002
{
1000
REACTOR
1002
}
1001
GENIUS_GENOBJ-N-FIL_13
1002
{
1000
OWNER
1000
GEN
1002
}
  0
ARC
  5
78E2
330
A
100
AcDbEntity
  8
MODEL GRAY
  6
AM_DIN_F_W050
 48
3.0
100
AcDbCircle
 10
499.6232808354912
 20
1303.998594447019
 30
0.0
 40
5.0
100
AcDbArc
 50
115.2329798916387
 51
174.5725947649771
1001
GENIUS_GENOBJ-N-FIL_13
1002
{
1000
OWNER
1000
GEN
1002
}
1001
GENIUS_GENODEF_13
1002
{
1000
HIER
1070
     0
1002
}
1002
{
1000
MANEDIT
1070
     0
1002
}
1002
{
1000
NOSEL
1070
     0
1002
}
1002
{
1000
BEHIND
1070
     0
1002
}
1002
{
1000
OTHER
1070
     0
1002
}
1002
{
1000
REACTOR
1002
}
  0
LINE
  5
78E3
330
A
100
AcDbEntity
  8
MODEL GRAY
  6
CENTER2
100
AcDbLine
 10
479.019731869204
 20
1202.603847373654
 30
0.0
 11
299.4421372554812
 21
1202.603847373654
 31
0.0
  0
ARC
  5
78E4
330
A
100
AcDbEntity
  8
MODEL GRAY
  6
AM_DIN_F_W050
 48
3.0
100
AcDbCircle
 10
591.9379312117062
 20
1216.892646940716
 30
0.0
 40
109.3128147625259
100
AcDbArc
 50
309.1789022595544
 51
355.6650170523702
  0
LINE
  5
78E5
330
A
100
AcDbEntity
  8
MODEL GRAY
  6
AM_DIN_F_W050
 48
3.0
100
AcDbLine
 10
330.8070377113768
 20
1151.447893033616
 30
0.0
 11
330.8070377113768
 21
1253.042328542769
 31
0.0
  0
LINE
  5
78E6
330
A
100
AcDbEntity
  8
MODEL GRAY
  6
AM_DIN_F_W050
 48
3.0
100
AcDbLine
 10
494.3298340009219
 20
1300.325891069701
 30
0.0
 11
371.6380091323772
 21
1307.371670281555
 31
0.0
  0
LINE
  5
78E7
330
A
100
AcDbEntity
  8
MODEL GRAY
  6
AM_DIN_F_W050
 48
3.0
100
AcDbLine
 10
369.2379461192299
 20
1307.446904809185
 30
0.0
 11
323.7635043521291
 21
1307.41974023774
 31
0.0
  0
LINE
  5
78E8
330
A
100
AcDbEntity
  8
MODEL GRAY
  6
AM_DIN_F_W050
 48
3.0
100
AcDbLine
 10
323.7635043521291
 20
1307.41974023774
 30
0.0
 11
323.7635043521291
 21
1365.157230608585
 31
0.0
  0
LINE
  5
78E9
330
A
100
AcDbEntity
  8
MODEL GRAY
  6
CENTER2
100
AcDbLine
 10
390.8168508979338
 20
1337.603847373654
 30
0.0
 11
299.773461006529
 21
1337.603847373654
 31
0.0
  0
LINE
  5
78EA
330
A
100
AcDbEntity
  8
MODEL GRAY
  6
AM_DIN_F_W050
 48
3.0
100
AcDbLine
 10
305.542394607513
 20
1364.885063510342
 30
0.0
 11
371.6380091323772
 21
1364.880017329549
 31
0.0
  0
LINE
  5
78EB
330
A
100
AcDbEntity
  8
MODEL GRAY
  6
AM_DIN_F_W050
 48
3.0
100
AcDbLine
 10
371.6380091323772
 20
1364.880017329549
 30
0.0
 11
371.6380091323772
 21
1307.371670281555
 31
0.0
  0
LINE
  5
78EC
330
A
100
AcDbEntity
  8
MODEL GRAY
  6
AM_DIN_F_W050
 48
3.0
100
AcDbLine
 10
369.6828192260059
 20
1151.042653449744
 30
0.0
 11
369.6828192260059
 21
1120.598828592746
 31
0.0
  0
ARC
  5
78ED
330
A
100
AcDbEntity
  8
MODEL GRAY
  6
AM_DIN_F_W050
 48
3.0
100
AcDbCircle
 10
359.6828192260059
 20
1145.821504517199
 30
0.0
 40
10.0
100
AcDbArc
 50
269.9956256574155
 51
0.0
1001
GENIUS_GENOBJ-N-FIL_13
1002
{
1000
OWNER
1000
GEN
1002
}
1001
GENIUS_GENODEF_13
1002
{
1000
HIER
1070
     0
1002
}
1002
{
1000
MANEDIT
1070
     0
1002
}
1002
{
1000
NOSEL
1070
     0
1002
}
1002
{
1000
BEHIND
1070
     0
1002
}
1002
{
1000
OTHER
1070
     0
1002
}
1002
{
1000
REACTOR
1002
}
  0
LINE
  5
78EE
330
A
100
AcDbEntity
  8
MODEL GRAY
  6
AM_DIN_F_W050
 48
3.0
100
AcDbLine
 10
369.6828192260059
 20
1120.598828592746
 30
0.0
 11
305.5237441642839
 21
1120.598828592746
 31
0.0
  0
LINE
  5
78EF
330
A
100
AcDbEntity
  8
MODEL GRAY
  6
AM_DIN_F_W050
 48
3.0
100
AcDbLine
 10
359.6820557592
 20
1135.821504546343
 30
0.0
 11
305.5249066807392
 21
1135.825639264923
 31
0.0
  0
LINE
  5
78F0
330
A
100
AcDbEntity
  8
MODEL GRAY
  6
AM_DIN_F_W050
 48
3.0
100
AcDbLine
 10
502.2009980037078
 20
1142.738753395312
 30
0.0
 11
378.4991038585758
 21
1151.042653449744
 31
0.0
  0
ARC
  5
78F1
330
A
100
AcDbEntity
  8
MODEL GRAY
  6
AM_DIN_F_W050
 48
3.0
100
AcDbCircle
 10
480.6481393295639
 20
1267.606721700065
 30
0.0
 40
14.91380829689996
100
AcDbArc
 50
269.0317970411429
 51
2.740478272104538
  0
LINE
  5
78F2
330
A
100
AcDbEntity
  8
MODEL GRAY
  6
AM_DIN_F_W050
 48
3.0
100
AcDbLine
 10
644.8240671791609
 20
1095.895386979646
 30
0.0
 11
800.6703288531298
 21
1095.895386979646
 31
0.0
  0
LINE
  5
78F3
330
A
100
AcDbEntity
  8
MODEL GRAY
  6
AM_DIN_F_W050
 48
3.0
100
AcDbLine
 10
800.6703288531298
 20
1095.895386979646
 30
0.0
 11
810.7516784299978
 21
1087.11635808112
 31
0.0
  0
LINE
  5
78FD
330
A
100
AcDbEntity
  8
MODEL
100
AcDbLine
 10
643.5164399382529
 20
1087.11635808112
 30
0.0
 11
527.8200277573678
 21
1087.11635808112
 31
0.0
  0
LINE
  5
7A1C
330
A
100
AcDbEntity
  8
MODEL
100
AcDbLine
 10
1365.155351898086
 20
1366.058002707883
 30
0.0
 11
1718.474988241214
 21
1366.057917789734
 31
0.0
  0
LINE
  5
7A1D
330
A
100
AcDbEntity
  8
MODEL GRAY
  6
CENTER2
100
AcDbLine
 10
1441.828505923239
 20
1301.364547012092
 30
0.0
 11
1461.828505923239
 21
1301.364547012092
 31
0.0
  0
LINE
  5
7A1E
330
A
100
AcDbEntity
  8
MODEL GRAY
  6
CENTER2
100
AcDbLine
 10
1451.828505923239
 20
1311.364547012092
 30
0.0
 11
1451.828505923239
 21
1291.364547012092
 31
0.0
  0
LINE
  5
7A21
330
A
100
AcDbEntity
  8
MODEL GRAY
  6
CENTER2
100
AcDbLine
 10
1451.828505923239
 20
1317.459150685045
 30
0.0
 11
1451.828505923239
 21
1286.773565477195
 31
0.0
  0
LINE
  5
7A2B
102
{ACAD_REACTORS
330
990F
102
}
330
A
100
AcDbEntity
  8
MODEL GRAY
  6
CENTER2
100
AcDbLine
 10
1641.828505923239
 20
1301.364547012092
 30
0.0
 11
1621.828505923239
 21
1301.364547012092
 31
0.0
  0
LINE
  5
7A2C
330
A
100
AcDbEntity
  8
MODEL GRAY
  6
CENTER2
100
AcDbLine
 10
1631.828505923239
 20
1311.364547012092
 30
0.0
 11
1631.828505923239
 21
1291.364547012092
 31
0.0
  0
LINE
  5
7A2F
330
A
100
AcDbEntity
  8
MODEL GRAY
  6
CENTER2
100
AcDbLine
 10
1631.828505923239
 20
1317.459150685045
 30
0.0
 11
1631.828505923239
 21
1286.773565477195
 31
0.0
  0
LINE
  5
7A39
330
A
100
AcDbEntity
  8
MODEL GRAY
  6
CENTER2
100
AcDbLine
 10
1541.827182818427
 20
1262.655039417003
 30
0.0
 11
1541.827182818427
 21
1144.610224218797
 31
0.0
  0
CIRCLE
  5
7A3A
330
A
100
AcDbEntity
  8
MODEL GRAY
  6
HIDDEN
 48
0.05
100
AcDbCircle
 10
1541.988006018431
 20
1203.126210811474
 30
0.0
 40
51.0
  0
LINE
  5
7A3B
330
A
100
AcDbEntity
  8
MODEL GRAY
  6
CENTER2
100
AcDbLine
 10
1473.875214510905
 20
1202.219390669996
 30
0.0
 11
1610.744090325974
 21
1202.007346927251
 31
0.0
  0
CIRCLE
  5
7A3C
330
A
100
AcDbEntity
  8
MODEL GRAY
  6
HIDDEN
 48
0.05
100
AcDbCircle
 10
1541.827182818427
 20
1203.6326318179
 30
0.0
 40
44.33402038571233
  0
LINE
  5
7A3D
330
A
100
AcDbEntity
  8
MODEL GRAY
  6
CENTER2
100
AcDbLine
 10
1541.971923698431
 20
1379.239813800286
 30
0.0
 11
1541.971923698431
 21
1296.608443161542
 31
0.0
  0
CIRCLE
  5
7A3E
330
A
100
AcDbEntity
  8
MODEL GRAY
  6
HIDDEN
 48
0.05
100
AcDbCircle
 10
1542.084499938434
 20
1337.569633776417
 30
0.0
 40
32.5
  0
LINE
  5
7A3F
330
A
100
AcDbEntity
  8
MODEL GRAY
  6
CENTER2
100
AcDbLine
 10
1494.405545883164
 20
1336.934859677382
 30
0.0
 11
1590.213758953713
 21
1336.786429057461
 31
0.0
  0
CIRCLE
  5
7A40
330
A
100
AcDbEntity
  8
MODEL GRAY
  6
HIDDEN
 48
0.05
100
AcDbCircle
 10
1541.971923698431
 20
1337.924128480914
 30
0.0
 40
27.5
  0
LINE
  5
7A41
330
A
100
AcDbEntity
  8
MODEL
100
AcDbLine
 10
1490.45846640724
 20
1087.11635808112
 30
0.0
 11
1592.438349738355
 21
1087.11635808112
 31
0.0
  0
LWPOLYLINE
  5
7A42
330
A
100
AcDbEntity
  8
MODEL
100
AcDbPolyline
 90
       14
 70
     1
 43
0.0
 10
1709.934179425028
 20
1360.715984503589
 42
-0.3367756499079479
 10
1716.726357092266
 20
1365.774942917663
 42
0.406347201254704
 10
1724.328505923239
 20
1373.94565049939
 42
0.435481071854073
 10
1715.934728046876
 20
1382.11635808112
 10
1366.930654754199
 20
1382.11635808112
 42
0.3808642937948489
 10
1359.343724394835
 20
1374.651307455983
 42
0.4334688618737232
 10
1366.93065475425
 20
1365.774942917663
 42
-0.3367756498969666
 10
1373.722832421424
 20
1360.715984503869
 42
0.0585035404183401
 10
1437.932547322235
 20
1093.439185750074
 42
0.3077600494630311
 10
1447.23192384154
 20
1087.11635808112
 10
1490.45846640724
 20
1087.11635808112
 42
0.9803336963006191
 10
1592.438349738355
 20
1087.11635808112
 10
1636.308185104082
 20
1087.116358081121
 42
0.3077600498735392
 10
1645.607561628896
 20
1093.439185764033
 42
0.058077228805737
  0
ARC
  5
82F6
330
A
100
AcDbEntity
  8
MODEL
100
AcDbCircle
 10
309.5434049866708
 20
1378.119004903931
 30
0.0
 40
4.000000000000259
100
AcDbArc
 50
89.9953225678731
 51
179.9956256574077
  0
LINE
  5
82F7
330
A
100
AcDbEntity
  8
MODEL
100
AcDbLine
 10
309.543731533036
 20
1382.119004890601
 30
0.0
 11
923.0224919816651
 21
1382.068922575783
 31
0.0
  0
ARC
  5
82F8
330
A
100
AcDbEntity
  8
MODEL
100
AcDbCircle
 10
922.54309686228
 20
1374.083299223815
 30
0.0
 40
7.999999999999615
100
AcDbArc
 50
358.7071155653314
 51
86.56452717987148
  0
ARC
  5
82F9
330
A
100
AcDbEntity
  8
MODEL
100
AcDbCircle
 10
922.54309686228
 20
1373.722288418691
 30
0.0
 40
7.999999999999713
100
AcDbArc
 50
272.8359705576293
 51
1.292884434655481
  0
ARC
  5
82FA
330
A
100
AcDbEntity
  8
MODEL
100
AcDbCircle
 10
922.4666232705172
 20
1359.275037782779
 30
0.0
 40
6.474297709819941
100
AcDbArc
 50
85.8166623956954
 51
168.5571452215201
  0
ARC
  5
82FB
330
A
100
AcDbEntity
  8
MODEL
100
AcDbCircle
 10
293.167309012641
 20
1433.310882523007
 30
0.0
 40
627.1874413254618
100
AcDbArc
 50
326.9944484295613
 51
353.3389081245743
  0
ARC
  5
82FC
330
A
100
AcDbEntity
  8
MODEL
100
AcDbCircle
 10
810.7516784299992
 20
1097.11635808112
 30
0.0
 40
10.00000000000039
100
AcDbArc
 50
269.9999999999948
 51
326.9944484295594
  0
LINE
  5
82FD
330
A
100
AcDbEntity
  8
MODEL
100
AcDbLine
 10
810.7516784299978
 20
1087.11635808112
 30
0.0
 11
643.5164399382529
 21
1087.11635808112
 31
0.0
  0
ARC
  5
82FE
330
A
100
AcDbEntity
  8
MODEL
100
AcDbCircle
 10
587.4784192171201
 20
1093.334692401187
 30
0.0
 40
56.3819780431507
100
AcDbArc
 50
239.7038747101038
 51
353.6680017397152
  0
ARC
  5
82FF
330
A
100
AcDbEntity
  8
MODEL
100
AcDbCircle
 10
579.8330456173671
 20
1092.646535395081
 30
0.0
 40
52.30618403237328
100
AcDbArc
 50
186.0690552827302
 51
246.5709826095287
  0
LINE
  5
8300
330
A
100
AcDbEntity
  8
MODEL
100
AcDbLine
 10
527.8200277573669
 20
1087.11635808112
 30
0.0
 11
305.5211878887908
 21
1087.11635808112
 31
0.0
  0
LINE
  5
8301
330
A
100
AcDbEntity
  8
MODEL
100
AcDbLine
 10
305.5211878887908
 20
1087.11635808112
 30
0.0
 11
305.5434049983292
 21
1378.119310290654
 31
0.0
  0
ARC
  5
849F
330
A
100
AcDbEntity
  8
MODEL
  6
HIDDEN
 48
0.05
100
AcDbCircle
 10
510.2097611811578
 20
-63241.33232204424
 30
0.0
 40
64648.89396766764
100
AcDbArc
 50
89.65179786186727
 51
89.99682757573292
  0
ARC
  5
84A0
330
A
100
AcDbEntity
  8
MODEL
  6
HIDDEN
 48
0.05
100
AcDbCircle
 10
903.0064766643418
 20
1386.447550848329
 30
0.0
 40
19.92045418771487
100
AcDbArc
 50
358.9988199463345
 51
89.74144391198159
1001
GENIUS_GENODEF_13
1002
{
1000
HIER
1070
     0
1002
}
1002
{
1000
MANEDIT
1070
     0
1002
}
1002
{
1000
NOSEL
1070
     0
1002
}
1002
{
1000
BEHIND
1070
     0
1002
}
1002
{
1000
OTHER
1070
     0
1002
}
1002
{
1000
REACTOR
1002
}
1001
GENIUS_GENOBJ-N-FIL_13
1002
{
1000
OWNER
1000
GEN
1002
}
  0
ARC
  5
84A1
330
A
100
AcDbEntity
  8
MODEL
100
AcDbCircle
 10
508.9668160023848
 20
-63478.50709088759
 30
0.0
 40
64910.771393476
100
AcDbArc
 50
89.63892116839106
 51
89.97419817021047
  0
ARC
  5
84A2
330
A
100
AcDbEntity
  8
MODEL
100
AcDbCircle
 10
917.9696461777121
 20
1420.975527644621
 30
0.0
 40
10.00000000000037
100
AcDbArc
 50
4.090039844979505
 51
89.6385600992558
  0
LINE
  5
84A3
330
A
100
AcDbEntity
  8
MODEL
100
AcDbLine
 10
927.9441781456799
 20
1421.688768151042
 30
0.0
 11
930.1611858427068
 21
1386.099480769866
 31
0.0
  0
LINE
  5
84A4
330
A
100
AcDbEntity
  8
MODEL
100
AcDbLine
 10
930.1611858427068
 20
1386.099480769866
 30
0.0
 11
538.1978803604698
 21
1386.099480769866
 31
0.0
  0
LINE
  5
84A5
330
A
100
AcDbEntity
  8
MODEL
100
AcDbLine
 10
538.1978803604698
 20
1386.099480769866
 30
0.0
 11
475.785696477395
 21
1386.099480769866
 31
0.0
  0
ARC
  5
84A6
330
A
100
AcDbEntity
  8
MODEL
100
AcDbCircle
 10
475.7856964773969
 20
1419.31446026949
 30
0.0
 40
33.21497949962388
100
AcDbArc
 50
223.9963195808562
 51
269.9999999999968
  0
ARC
  5
84A7
330
A
100
AcDbEntity
  8
MODEL
100
AcDbCircle
 10
456.968840482933
 20
1400.777612384215
 30
0.0
 40
6.807654640225526
100
AcDbArc
 50
170.8535952085788
 51
221.7679216839849
  0
ARC
  5
84A8
330
A
100
AcDbEntity
  8
MODEL
100
AcDbCircle
 10
505.4031620571518
 20
1401.557890402555
 30
0.0
 40
55.15624549882194
100
AcDbArc
 50
152.8399075466418
 51
179.686438129268
  0
ARC
  5
84A9
330
A
100
AcDbEntity
  8
MODEL
100
AcDbCircle
 10
465.2721017995618
 20
1422.261553780967
 30
0.0
 40
10.00000000001228
100
AcDbArc
 50
89.99654829731442
 51
153.4232188316421
  0
ARC
  5
84AA
330
A
100
AcDbEntity
  8
MODEL
100
AcDbCircle
 10
495.0730773092318
 20
-125322.3991287997
 30
0.0
 40
126754.6641856377
100
AcDbArc
 50
89.9805066798077
 51
90.01347039678069
  0
ARC
  5
84AB
330
A
100
AcDbEntity
  8
MODEL
  6
HIDDEN
 48
0.05
100
AcDbCircle
 10
1776.384111433213
 20
-63241.20930718169
 30
0.0
 40
64648.89396766764
100
AcDbArc
 50
90.20822869242167
 51
90.34820213813343
  0
ARC
  5
84AC
330
A
100
AcDbEntity
  8
MODEL
  6
HIDDEN
 48
0.05
100
AcDbCircle
 10
1383.588888833858
 20
1386.566821611632
 30
0.0
 40
19.92420504036188
100
AcDbArc
 50
90.26280052414914
 51
181.3214734100135
1001
GENIUS_GENODEF_13
1002
{
1000
HIER
1070
     0
1002
}
1002
{
1000
MANEDIT
1070
     0
1002
}
1002
{
1000
NOSEL
1070
     0
1002
}
1002
{
1000
BEHIND
1070
     0
1002
}
1002
{
1000
OTHER
1070
     0
1002
}
1002
{
1000
REACTOR
1002
}
1001
GENIUS_GENOBJ-N-FIL_13
1002
{
1000
OWNER
1000
GEN
1002
}
  0
ARC
  5
84AD
330
A
100
AcDbEntity
  8
MODEL
100
AcDbCircle
 10
1712.77191981709
 20
-48432.34722931512
 30
0.0
 40
49864.89931771591
100
AcDbArc
 50
90.19687263727624
 51
90.38976305983707
  0
ARC
  5
84AE
330
A
100
AcDbEntity
  8
MODEL
100
AcDbCircle
 10
1373.624226436545
 20
1421.398517053008
 30
0.0
 40
9.999999999999197
100
AcDbArc
 50
90.36143990074426
 51
175.9099601550199
  0
LINE
  5
84AF
330
A
100
AcDbEntity
  8
MODEL
100
AcDbLine
 10
1363.649694468579
 20
1422.111757559428
 30
0.0
 11
1361.432686771549
 21
1386.107329252062
 31
0.0
  0
LINE
  5
84B2
330
A
100
AcDbEntity
  8
MODEL
100
AcDbLine
 10
1361.432686771549
 20
1386.107329252062
 30
0.0
 11
1541.432686771549
 21
1386.107329252062
 31
0.0
  0
ARC
  5
84B3
330
A
100
AcDbEntity
  8
MODEL
  6
HIDDEN
 48
0.05
100
AcDbCircle
 10
1306.481262109887
 20
-63241.20930718169
 30
0.0
 40
64648.89396766764
100
AcDbArc
 50
89.65179786186657
 51
89.79177130757834
  0
ARC
  5
84B4
330
A
100
AcDbEntity
  8
MODEL
100
AcDbCircle
 10
1370.093453726009
 20
-48432.34722931512
 30
0.0
 40
49864.89931771591
100
AcDbArc
 50
89.61023694016295
 51
89.80312736272377
  0
LINE
  5
84B5
330
A
100
AcDbEntity
  8
MODEL
100
AcDbLine
 10
1721.432686771549
 20
1386.107329252062
 30
0.0
 11
1541.432686771549
 21
1386.107329252062
 31
0.0
  0
ARC
  5
84B6
330
A
100
AcDbEntity
  8
MODEL
  6
HIDDEN
 48
0.05
100
AcDbCircle
 10
1699.276484709241
 20
1386.566821611632
 30
0.0
 40
19.92420504036188
100
AcDbArc
 50
358.6785265899866
 51
89.73719947585086
1001
GENIUS_GENODEF_13
1002
{
1000
HIER
1070
     0
1002
}
1002
{
1000
MANEDIT
1070
     0
1002
}
1002
{
1000
NOSEL
1070
     0
1002
}
1002
{
1000
BEHIND
1070
     0
1002
}
1002
{
1000
OTHER
1070
     0
1002
}
1002
{
1000
REACTOR
1002
}
1001
GENIUS_GENOBJ-N-FIL_13
1002
{
1000
OWNER
1000
GEN
1002
}
  0
ARC
  5
84B7
330
A
100
AcDbEntity
  8
MODEL
100
AcDbCircle
 10
1709.241147106554
 20
1421.398517053008
 30
0.0
 40
9.999999999999197
100
AcDbArc
 50
4.090039844980063
 51
89.63856009925576
  0
LINE
  5
84B8
330
A
100
AcDbEntity
  8
MODEL
100
AcDbLine
 10
1719.21567907452
 20
1422.111757559428
 30
0.0
 11
1721.432686771549
 21
1386.107329252062
 31
0.0
  0
DIMENSION
  5
8CF6
330
A
100
AcDbEntity
  8
DIM
  6
Continuous
100
AcDbDimension
  2
*D6
 10
1835.846542277786
 20
1407.12920009397
 30
0.0
 11
1835.846542277786
 21
1222.12920009397
 31
0.0
 70
   160
 71
     5
 42
370.0
 73
     0
 74
     0
 75
     0
  3
JIS
100
AcDbAlignedDimension
 13
1541.448408072798
 23
1037.12920009397
 33
0.0
 14
1725.132295758391
 24
1407.12920009397
 34
0.0
 50
90.0
100
AcDbRotatedDimension
1001
ACAD
1000
DSTYLE
1002
{
1070
   179
1070
     0
1070
    41
1040
6.0
1070
   271
1070
     0
1070
    43
1040
25.0
1070
    44
1040
0.0
1070
    42
1040
25.0
1070
   147
1040
15.0
1070
   140
1040
24.0
1002
}
  0
DIMENSION
  5
8D03
330
A
100
AcDbEntity
  8
DIM
  6
Continuous
100
AcDbDimension
  2
*D7
 10
1915.913162651704
 20
1432.12920009397
 30
0.0
 11
1915.913162651704
 21
1234.62920009397
 31
0.0
 70
   160
 71
     5
 42
395.0
 73
     0
 74
     0
 75
     0
  3
JIS
100
AcDbAlignedDimension
 13
1541.448408072798
 23
1037.12920009397
 33
0.0
 14
1720.499549778976
 24
1432.12920009397
 34
0.0
 50
90.0
100
AcDbRotatedDimension
1001
ACAD
1000
DSTYLE
1002
{
1070
   179
1070
     0
1070
    41
1040
6.0
1070
   271
1070
     0
1070
    43
1040
25.0
1070
    44
1040
0.0
1070
    42
1040
25.0
1070
   147
1040
15.0
1070
   140
1040
24.0
1002
}
  0
DIMENSION
  5
8E66
330
A
100
AcDbEntity
  8
DIM
  6
Continuous
100
AcDbDimension
  2
*D8
 10
1028.125840167908
 20
2164.468821534536
 30
0.0
 11
1028.125840167908
 21
2344.468821528757
 31
0.0
 70
   160
 71
     5
 42
359.9999999884426
 73
     0
 74
     0
 75
     0
  3
JIS
100
AcDbAlignedDimension
 13
824.4932511195448
 23
2524.468821522978
 33
0.0
 14
824.4903668292181
 24
2164.468821534536
 34
0.0
 50
90.0
100
AcDbRotatedDimension
1001
ACAD
1000
DSTYLE
1002
{
1070
   179
1070
     0
1070
    41
1040
6.0
1070
   271
1070
     0
1070
    43
1040
25.0
1070
    44
1040
0.0
1070
    42
1040
25.0
1070
   147
1040
15.0
1070
   140
1040
24.0
1002
}
  0
DIMENSION
  5
8E68
330
A
100
AcDbEntity
  8
DIM
  6
Continuous
100
AcDbDimension
  2
*D9
 10
929.8977662704829
 20
2627.583894038035
 30
0.0
 11
617.3977661546428
 21
2627.583894038035
 31
0.0
 70
   160
 71
     5
 42
625.0000002316797
 73
     0
 74
     0
 75
     0
  3
JIS
100
AcDbAlignedDimension
 13
304.8977660388032
 23
2568.169857636898
 33
0.0
 14
929.8977662704829
 24
2392.666591828852
 34
0.0
100
AcDbRotatedDimension
1001
ACAD
1000
DSTYLE
1002
{
1070
   179
1070
     0
1070
    41
1040
6.0
1070
   271
1070
     0
1070
    43
1040
25.0
1070
    44
1040
0.0
1070
    42
1040
25.0
1070
   147
1040
15.0
1070
   140
1040
24.0
1002
}
  0
DIMENSION
  5
8E6A
330
A
100
AcDbEntity
  8
DIM
  6
Continuous
100
AcDbDimension
  2
*D10
 10
160.4383971122338
 20
2526.970188444373
 30
0.0
 11
160.4383971122338
 21
2344.470387210661
 31
0.0
 70
   160
 71
     5
 42
364.9996024674278
 73
     0
 74
     0
 75
     0
  3
JIS
100
AcDbAlignedDimension
 13
311.8863328234979
 23
2161.970585976946
 33
0.0
 14
311.977730128875
 24
2526.970188444373
 34
0.0
 50
90.0
100
AcDbRotatedDimension
1001
ACAD
1000
DSTYLE
1002
{
1070
   179
1070
     0
1070
    41
1040
6.0
1070
   271
1070
     0
1070
    43
1040
25.0
1070
    44
1040
0.0
1070
    42
1040
25.0
1070
   147
1040
15.0
1070
   140
1040
24.0
1002
}
  0
DIMENSION
  5
8F8D
330
A
100
AcDbEntity
  8
DIM
  6
Continuous
100
AcDbDimension
  2
*D11
 10
223.6642771776092
 20
1337.603847373654
 30
0.0
 11
223.6642771776092
 21
1359.861426132128
 31
0.0
 70
   160
 71
     5
 42
44.5151575169466
 73
     0
 74
     0
 75
     0
  3
JIS
100
AcDbAlignedDimension
 13
302.0399213991968
 23
1382.119004890601
 33
0.0
 14
298.0365016433711
 24
1337.603847373654
 34
0.0
 50
90.0
100
AcDbRotatedDimension
1001
ACAD
1000
DSTYLE
1002
{
1070
   179
1070
     0
1070
    41
1040
6.0
1070
   271
1070
     0
1070
    43
1040
25.0
1070
    44
1040
0.0
1070
    42
1040
25.0
1070
   147
1040
15.0
1070
   140
1040
24.0
1002
}
  0
DIMENSION
  5
8F8F
330
A
100
AcDbEntity
  8
DIM
  6
Continuous
100
AcDbDimension
  2
*D12
 10
223.6642771776092
 20
1202.603847373654
 30
0.0
 11
196.6642771776092
 21
1270.103847373654
 31
0.0
 70
    32
 71
     5
 42
135.0
 73
     0
 74
     0
 75
     0
  3
JIS
100
AcDbAlignedDimension
 13
265.345452117193
 23
1337.603847373654
 33
0.0
 14
291.938327121642
 24
1202.603847373654
 34
0.0
 50
90.0
100
AcDbRotatedDimension
1001
ACAD
1000
DSTYLE
1002
{
1070
   179
1070
     0
1070
    41
1040
6.0
1070
   271
1070
     0
1070
    43
1040
25.0
1070
    44
1040
0.0
1070
    42
1040
25.0
1070
   147
1040
15.0
1070
   140
1040
24.0
1002
}
  0
DIMENSION
  5
8FBB
330
A
100
AcDbEntity
  8
DIM
  6
Continuous
100
AcDbDimension
  2
*D13
 10
1631.828505923239
 20
1481.969075049793
 30
0.0
 11
1541.828505923239
 21
1508.969075049793
 31
0.0
 70
    32
 71
     5
 42
180.0
 73
     0
 74
     0
 75
     0
  3
JIS
100
AcDbAlignedDimension
 13
1451.828505923239
 23
1323.232203533246
 33
0.0
 14
1631.828505923239
 24
1322.480392464218
 34
0.0
100
AcDbRotatedDimension
1001
ACAD
1000
DSTYLE
1002
{
1070
   179
1070
     0
1070
    41
1040
6.0
1070
   271
1070
     0
1070
    43
1040
25.0
1070
    44
1040
0.0
1070
    42
1040
25.0
1070
   147
1040
15.0
1070
   140
1040
24.0
1002
}
  0
DIMENSION
  5
9380
330
A
100
AcDbEntity
  8
DIM
  6
Continuous
100
AcDbDimension
  2
*D14
 10
1273.430369415258
 20
1302.11635808112
 30
0.0
 11
1246.430369415258
 21
1342.11635808112
 31
0.0
 70
    32
 71
     5
 42
80.0
 73
     0
 74
     0
 75
     0
  3
JIS
100
AcDbAlignedDimension
 13
1366.930654754199
 23
1382.11635808112
 33
0.0
 14
1366.930654754199
 24
1302.11635808112
 34
0.0
 50
90.0
100
AcDbRotatedDimension
1001
ACAD
1000
DSTYLE
1002
{
1070
   179
1070
     0
1070
    41
1040
6.0
1070
   271
1070
     0
1070
    43
1040
25.0
1070
    44
1040
0.0
1070
    42
1040
25.0
1070
   147
1040
15.0
1070
   140
1040
24.0
1002
}
  0
DIMENSION
  5
9548
330
A
100
AcDbEntity
  8
DIM
  6
Continuous
100
AcDbDimension
  2
*D15
 10
1072.388874290351
 20
1381.952714358036
 30
0.0
 11
1045.388874290351
 21
1209.452714358036
 31
0.0
 70
    32
 71
     5
 42
345.0
 73
     0
 74
     0
 75
     0
  3
JIS
100
AcDbAlignedDimension
 13
587.4784192171201
 23
1036.952714358036
 33
0.0
 14
941.261428529212
 24
1381.952714358036
 34
0.0
 50
90.0
100
AcDbRotatedDimension
1001
ACAD
1000
DSTYLE
1002
{
1070
   179
1070
     0
1070
    41
1040
6.0
1070
   271
1070
     0
1070
    43
1040
25.0
1070
    44
1040
0.0
1070
    42
1040
25.0
1070
   147
1040
15.0
1070
   140
1040
24.0
1002
}
  0
CIRCLE
  5
95D4
330
A
100
AcDbEntity
  8
MODEL GRAY
  6
AM_DIN_F_W050
 48
4.0
100
AcDbCircle
 10
1451.828505923239
 20
1301.364547012092
 30
0.0
 40
7.579809740149905
  0
CIRCLE
  5
95D5
330
A
100
AcDbEntity
  8
MODEL GRAY
  6
AM_DIN_F_W050
 48
4.0
100
AcDbCircle
 10
1631.828505923239
 20
1301.364547012092
 30
0.0
 40
7.579809740149905
  0
MTEXT
  5
9709
330
A
100
AcDbEntity
  8
MODEL
390
1D
100
AcDbMText
 10
252.6828038394028
 20
1538.903112326271
 30
0.0
 40
24.4326171875
 41
0.0
 46
24.4326171875
 71
     1
 72
     1
  1
{洗浄管差込口}
  7
ＭＳ ゴシック
 73
     1
 44
0.7828267384257843
1001
ACAD
1000
ACAD_MTEXT_DEFINED_HEIGHT_BEGIN
1070
    46
1040
24.4326171875
1000
ACAD_MTEXT_DEFINED_HEIGHT_END
  0
LINE
  5
970A
330
A
100
AcDbEntity
  8
DIM
  6
Continuous
100
AcDbLine
 10
344.9749008014769
 20
1365.484768435248
 30
0.0
 11
344.9749008014769
 21
1481.047059870759
 31
0.0
  0
MTEXT
  5
970B
330
A
100
AcDbEntity
  8
MODEL
390
1D
100
AcDbMText
 10
244.2679743942331
 20
976.4559122111077
 30
0.0
 40
24.4326171875
 41
0.0
 46
24.4326171875
 71
     1
 72
     1
  1
{排水管差込口}
  7
ＭＳ ゴシック
 73
     1
 44
0.7828267384257843
1001
ACAD
1000
ACAD_MTEXT_DEFINED_HEIGHT_BEGIN
1070
    46
1040
24.4326171875
1000
ACAD_MTEXT_DEFINED_HEIGHT_END
  0
LINE
  5
970C
330
A
100
AcDbEntity
  8
DIM
  6
Continuous
100
AcDbLine
 10
342.8435806474699
 20
997.4734948101668
 30
0.0
 11
342.8435806474699
 21
1151.644543640718
 31
0.0
  0
LINE
  5
976B
330
A
100
AcDbEntity
  8
DIM
  6
Continuous
100
AcDbLine
 10
1631.824290337664
 20
1300.126210811475
 30
0.0
 11
1439.315376910194
 21
792.9929671336695
 31
0.0
  0
LINE
  5
976C
330
A
100
AcDbEntity
  8
DIM
  6
Continuous
100
AcDbLine
 10
1259.315376910194
 20
792.9929671336695
 30
0.0
 11
1733.901726126705
 21
792.9929671336695
 31
0.0
  0
LINE
  5
976D
330
A
100
AcDbEntity
  8
DIM
  6
Continuous
100
AcDbLine
 10
1451.824290337664
 20
1300.126210811475
 30
0.0
 11
1259.315376910194
 21
792.9929671336695
 31
0.0
  0
MTEXT
  5
976E
330
A
100
AcDbEntity
  8
MODEL
390
1D
100
AcDbMText
 10
1468.935576557192
 20
833.6226700393436
 30
0.0
 40
24.4326171875
 41
0.0
 46
24.4326171875
 71
     1
 72
     1
  1
{壁取付ボルト位置}
  7
ＭＳ ゴシック
 73
     1
 44
0.7828267384257843
1001
ACAD
1000
ACAD_MTEXT_DEFINED_HEIGHT_BEGIN
1070
    46
1040
24.4326171875
1000
ACAD_MTEXT_DEFINED_HEIGHT_END
  0
DIMENSION
  5
990D
102
{ACAD_REACTORS
330
990F
102
}
102
{ACAD_XDICTIONARY
360
990E
102
}
330
A
100
AcDbEntity
  8
MODEL
  6
Continuous
100
AcDbDimension
  2
*D16
 10
1785.021644127386
 20
1407.12920009397
 30
0.0
 11
1758.021644127386
 21
1354.246873553031
 31
0.0
 70
    32
  1
105
 71
     5
 42
105.7646530818779
 73
     0
 74
     0
 75
     0
  3
JIS
100
AcDbAlignedDimension
 13
1641.828505923239
 23
1301.364547012092
 33
0.0
 14
1750.132295758391
 24
1407.12920009397
 34
0.0
 50
90.0
100
AcDbRotatedDimension
1001
ACAD
1000
DSTYLE
1002
{
1070
   144
1040
1.0
1070
   179
1070
     0
1070
    41
1040
6.0
1070
   271
1070
     0
1070
    43
1040
25.0
1070
    44
1040
0.0
1070
    42
1040
25.0
1070
   147
1040
15.0
1070
   140
1040
24.0
1002
}
  0
VIEWPORT
  5
349
330
B
100
AcDbEntity
 67
     1
  8
0
100
AcDbViewport
 10
202.5
 20
128.5
 30
0.0
 40
486.0
 41
308.4
 68
     1
 69
     1
 12
202.5
 22
128.5
 13
0.0
 23
0.0
 14
0.5
 24
0.5
 15
0.0
 25
0.0
 16
0.0
 26
0.0
 36
1.0
 17
0.0
 27
0.0
 37
0.0
 42
50.0
 43
0.0
 44
0.0
 45
308.4
 50
0.0
 51
0.0
 72
   100
 90
   557152
  1

281
     0
 71
     1
 74
     0
110
0.0
120
0.0
130
0.0
111
1.0
121
0.0
131
0.0
112
0.0
122
1.0
132
0.0
 79
     0
146
0.0
170
     0
 61
     5
348
26C
292
     1
282
     1
141
0.0
142
0.0
 63
   256
  0
VIEWPORT
  5
34A
330
B
100
AcDbEntity
 67
     1
  8
0
100
AcDbViewport
 10
202.5
 20
128.5
 30
0.0
 40
324.0
 41
205.6
 68
     2
 69
     2
 12
986.6781359294573
 22
1427.077061889956
 13
0.0
 23
0.0
 14
0.5
 24
0.5
 15
0.0
 25
0.0
 16
0.0
 26
0.0
 36
1.0
 17
0.0
 27
0.0
 37
0.0
 42
50.0
 43
0.0
 44
0.0
 45
2890.021615685494
 50
0.0
 51
0.0
 72
   100
 90
   557152
  1

281
     0
 71
     1
 74
     0
110
0.0
120
0.0
130
0.0
111
1.0
121
0.0
131
0.0
112
0.0
122
1.0
132
0.0
 79
     0
146
0.0
170
     0
 61
     5
348
26C
292
     1
282
     1
141
0.0
142
0.0
 63
   256
  0
ENDSEC
  0
SECTION
  2
OBJECTS
  0
DICTIONARY
  5
19
330
0
100
AcDbDictionary
281
     1
  3
ACAD_COLOR
350
38F
  3
ACAD_DETAILVIEWSTYLE
350
BE8
  3
ACAD_GROUP
350
1A
  3
ACAD_IMAGE_VARS
350
27B
  3
ACAD_LAYOUT
350
1E
  3
ACAD_MATERIAL
350
263
  3
ACAD_MLEADERSTYLE
350
336
  3
ACAD_MLINESTYLE
350
1B
  3
ACAD_PLOTSETTINGS
350
22
  3
ACAD_PLOTSTYLENAME
350
1F
  3
ACAD_SCALELIST
350
241
  3
ACAD_SECTIONVIEWSTYLE
350
BE9
  3
ACAD_TABLESTYLE
350
278
  3
ACAD_VISUALSTYLE
350
267
  3
AcadDim
350
94E3
  3
ACDB_RECOMPOSE_DATA
350
9928
  3
AcDbVariableDictionary
350
330
  3
APPDATA
350
27A
  0
SUN
  5
BE4
330
15
100
AcDbSun
 90
        1
290
     0
 63
     7
421
 16777215
 40
1.0
291
     1
 91
  2455826
 92
 54000000
292
     0
 70
     2
 71
   256
280
     1
  0
DICTIONARY
  5
2E1
330
2
100
AcDbDictionary
280
     1
281
     1
  3
ACAD_LAYERSTATES
360
2E2
  3
ACLYDICTIONARY
360
95C2
  0
DICTIONARY
  5
990E
330
990D
100
AcDbDictionary
280
     1
281
     1
  3
ACAD_DIMASSOC
360
990F
  0
DICTIONARY
  5
38F
102
{ACAD_REACTORS
330
19
102
}
330
19
100
AcDbDictionary
281
     1
  0
DICTIONARY
  5
BE8
102
{ACAD_REACTORS
330
19
102
}
330
19
100
AcDbDictionary
281
     1
  0
DICTIONARY
  5
1A
102
{ACAD_REACTORS
330
19
102
}
330
19
100
AcDbDictionary
281
     1
  0
RASTERVARIABLES
  5
27B
102
{ACAD_REACTORS
330
19
102
}
330
19
100
AcDbRasterVariables
 90
        0
 70
     1
 71
     1
 72
     1
  0
DICTIONARY
  5
1E
102
{ACAD_REACTORS
330
19
102
}
330
19
100
AcDbDictionary
281
     1
  3
Layout1
350
21
  3
Model
350
20
  0
DICTIONARY
  5
263
102
{ACAD_REACTORS
330
19
102
}
330
19
100
AcDbDictionary
281
     1
  3
ByBlock
350
990B
  3
ByLayer
350
264
  3
Global
350
266
  0
DICTIONARY
  5
336
102
{ACAD_REACTORS
330
19
102
}
330
19
100
AcDbDictionary
281
     1
  3
Standard
350
990C
  0
DICTIONARY
  5
1B
102
{ACAD_REACTORS
330
19
102
}
330
19
100
AcDbDictionary
281
     1
  3
Standard
350
1C
  0
DICTIONARY
  5
22
102
{ACAD_REACTORS
330
19
102
}
330
19
100
AcDbDictionary
281
     1
  0
ACDBDICTIONARYWDFLT
  5
1F
102
{ACAD_REACTORS
330
19
102
}
330
19
100
AcDbDictionary
281
     1
  3
Normal
350
1D
100
AcDbDictionaryWithDefault
340
1D
  0
DICTIONARY
  5
241
102
{ACAD_REACTORS
330
19
102
}
330
19
100
AcDbDictionary
281
     1
  3
A0
350
242
  3
A1
350
243
  3
A2
350
244
  3
A3
350
245
  3
A4
350
246
  3
A5
350
247
  3
A6
350
248
  3
A7
350
249
  3
A8
350
24A
  3
A9
350
24B
  3
B0
350
24C
  3
B1
350
24D
  3
B2
350
24E
  3
B3
350
24F
  3
B4
350
250
  3
B5
350
251
  3
B6
350
252
  3
B7
350
253
  3
B8
350
254
  3
B9
350
255
  3
C0
350
256
  3
C1
350
257
  3
C2
350
258
  3
C3
350
259
  3
C4
350
25A
  3
C5
350
25B
  3
C6
350
25C
  3
C7
350
25D
  3
C8
350
25E
  3
C9
350
25F
  3
D0
350
260
  3
D1
350
261
  3
D2
350
262
  0
DICTIONARY
  5
BE9
102
{ACAD_REACTORS
330
19
102
}
330
19
100
AcDbDictionary
281
     1
  0
DICTIONARY
  5
278
102
{ACAD_REACTORS
330
19
102
}
330
19
100
AcDbDictionary
281
     1
  3
Standard
350
279
  0
DICTIONARY
  5
267
102
{ACAD_REACTORS
330
19
102
}
330
19
100
AcDbDictionary
281
     1
  3
2dWireframe
350
26C
  3
3D Hidden
350
26E
  3
3dWireframe
350
26D
  3
Basic
350
26F
  3
Brighten
350
273
  3
ColorChange
350
277
  3
Conceptual
350
271
  3
Dim
350
272
  3
EdgeColorOff
350
BDE
  3
Facepattern
350
276
  3
Flat
350
268
  3
FlatWithEdges
350
269
  3
Gouraud
350
26A
  3
GouraudWithEdges
350
26B
  3
Hidden
350
BDB
  3
JitterOff
350
BDC
  3
Linepattern
350
275
  3
OverhangOff
350
BDD
  3
Realistic
350
270
  3
Shaded
350
BE3
  3
Shaded with edges
350
BE2
  3
Shades of Gray
350
BDF
  3
Sketchy
350
BE0
  3
Thicken
350
274
  3
Wireframe
350
BDA
  3
X-Ray
350
BE1
  0
XRECORD
  5
94E3
102
{ACAD_REACTORS
330
19
102
}
330
19
100
AcDbXrecord
280
     1
340
0
 72
     0
 71
     0
 70
     0
 69
     0
 68
     1
 67
     3
 66
     0
 65
     0
 64
     0
 63
     3
 62
     1
 61
     0
 60
     0
 40
0.0
  0
XRECORD
  5
9928
102
{ACAD_REACTORS
330
19
102
}
330
19
100
AcDbXrecord
280
     1
 90
        1
330
279
  0
DICTIONARY
  5
330
102
{ACAD_REACTORS
330
19
102
}
330
19
100
AcDbDictionary
281
     1
  3
CANNOSCALE
350
331
  3
CMLEADERSTYLE
350
9920
  3
CTABLESTYLE
350
335
  3
HPTRANSPARENCY
350
C00
  3
XCLIPFRAME
350
64A
  0
DICTIONARY
  5
27A
102
{ACAD_REACTORS
330
19
102
}
330
19
100
AcDbDictionary
281
     1
  0
DICTIONARY
  5
2E2
102
{ACAD_REACTORS
330
2E1
102
}
330
2E1
100
AcDbDictionary
281
     1
  0
DICTIONARY
  5
95C2
102
{ACAD_REACTORS
330
2E1
102
}
330
2E1
100
AcDbDictionary
281
     1
1001
ACAD
1000
<All
  0
DIMASSOC
  5
990F
102
{ACAD_REACTORS
330
990E
102
}
330
990E
100
AcDbDimAssoc
330
990D
 90
        1
 70
     0
 71
     1
  1
AcDbOsnapPointRef
 72
    13
331
7A2B
 73
     0
 91
        0
 40
0.0
 10
0.0
 20
0.0
 30
0.0
 75
     0
  0
LAYOUT
  5
21
102
{ACAD_REACTORS
330
1E
102
}
330
1E
100
AcDbPlotSettings
  1

  2
none_device
  4
ISO_A3_(420.00_x_297.00_MM)
  6

 40
7.5
 41
20.0
 42
7.5
 43
20.0
 44
420.0
 45
297.0
 46
0.0
 47
0.0
 48
0.0
 49
0.0
140
0.0
141
0.0
142
1.0
143
1.0
 70
     0
 72
     1
 73
     0
 74
     0
  7

 75
     0
 76
     0
 77
     2
 78
   300
147
1.0
148
0.0
149
0.0
100
AcDbLayout
  1
Layout1
 70
     0
 71
     0
 10
0.0
 20
0.0
 11
0.0
 21
0.0
 12
0.0
 22
0.0
 32
0.0
 14
0.0
 24
0.0
 34
0.0
 15
0.0
 25
0.0
 35
0.0
146
0.0
 13
0.0
 23
0.0
 33
0.0
 16
0.0
 26
0.0
 36
0.0
 17
0.0
 27
0.0
 37
0.0
 76
     0
330
B
331
349
  0
LAYOUT
  5
20
102
{ACAD_REACTORS
330
1E
102
}
330
1E
100
AcDbPlotSettings
  1

  2
none_device
  4
ISO_A3_(420.00_x_297.00_MM)
  6

 40
7.5
 41
20.0
 42
7.5
 43
20.0
 44
420.0
 45
297.0
 46
0.0
 47
0.0
 48
0.0
 49
0.0
140
0.0
141
0.0
142
1.0
143
1.0
 70
  1024
 72
     1
 73
     0
 74
     0
  7

 75
     0
 76
     0
 77
     2
 78
   300
147
1.0
148
0.0
149
0.0
100
AcDbLayout
  1
Model
 70
     0
 71
     1
 10
0.0
 20
0.0
 11
2100.0
 21
2970.0
 12
0.0
 22
0.0
 32
0.0
 14
0.0
 24
0.0
 34
0.0
 15
2100.0
 25
2970.0
 35
0.0
146
0.0
 13
0.0
 23
0.0
 33
0.0
 16
0.0
 26
0.0
 36
0.0
 17
0.0
 27
0.0
 37
0.0
 76
     0
330
A
331
15
  0
MATERIAL
  5
990B
102
{ACAD_REACTORS
330
263
102
}
330
263
100
AcDbMaterial
  1
ByBlock
 72
     1
 94
      127
  0
MATERIAL
  5
264
102
{ACAD_REACTORS
330
263
102
}
330
263
100
AcDbMaterial
  1
ByLayer
 72
     1
 94
      127
  0
MATERIAL
  5
266
102
{ACAD_REACTORS
330
263
102
}
330
263
100
AcDbMaterial
  1
Global
 72
     1
 94
      127
  0
MLEADERSTYLE
  5
990C
102
{ACAD_REACTORS
330
336
102
}
330
336
100
AcDbMLeaderStyle
170
     2
171
     1
172
     0
 90
        2
 40
0.0
 41
0.0
173
     1
 91
-1056964608
340
11
 92
       -2
290
     1
 42
2.0
291
     1
 43
8.0
  3
Standard
341
0
 44
4.0
300

342
17
174
     1
178
     1
175
     1
176
     0
 93
-1056964608
 45
4.0
292
     0
297
     0
 46
4.0
343
0
 94
-1056964608
 47
1.0
 49
1.0
140
1.0
293
     1
141
0.0
294
     1
177
     0
142
1.0
295
     0
296
     0
143
3.75
1001
ACAD_MLEADERVER
1070
     2
  0
MLINESTYLE
  5
1C
102
{ACAD_REACTORS
330
1B
102
}
330
1B
100
AcDbMlineStyle
  2
Standard
 70
     0
  3

 62
     0
 51
90.0
 52
90.0
 71
     2
 49
0.5
 62
   256
  6
BYLAYER
 49
-0.5
 62
   256
  6
BYLAYER
  0
ACDBPLACEHOLDER
  5
1D
102
{ACAD_REACTORS
330
1F
102
}
330
1F
  0
SCALE
  5
242
102
{ACAD_REACTORS
330
241
102
}
330
241
100
AcDbScale
 70
     0
300
1:1
140
1.0
141
1.0
290
     1
  0
SCALE
  5
243
102
{ACAD_REACTORS
330
241
102
}
330
241
100
AcDbScale
 70
     0
300
1:2
140
1.0
141
2.0
290
     0
  0
SCALE
  5
244
102
{ACAD_REACTORS
330
241
102
}
330
241
100
AcDbScale
 70
     0
300
1:4
140
1.0
141
4.0
290
     0
  0
SCALE
  5
245
102
{ACAD_REACTORS
330
241
102
}
330
241
100
AcDbScale
 70
     0
300
1:5
140
1.0
141
5.0
290
     0
  0
SCALE
  5
246
102
{ACAD_REACTORS
330
241
102
}
330
241
100
AcDbScale
 70
     0
300
1:8
140
1.0
141
8.0
290
     0
  0
SCALE
  5
247
102
{ACAD_REACTORS
330
241
102
}
330
241
100
AcDbScale
 70
     0
300
1:10
140
1.0
141
10.0
290
     0
  0
SCALE
  5
248
102
{ACAD_REACTORS
330
241
102
}
330
241
100
AcDbScale
 70
     0
300
1:16
140
1.0
141
16.0
290
     0
  0
SCALE
  5
249
102
{ACAD_REACTORS
330
241
102
}
330
241
100
AcDbScale
 70
     0
300
1:20
140
1.0
141
20.0
290
     0
  0
SCALE
  5
24A
102
{ACAD_REACTORS
330
241
102
}
330
241
100
AcDbScale
 70
     0
300
1:30
140
1.0
141
30.0
290
     0
  0
SCALE
  5
24B
102
{ACAD_REACTORS
330
241
102
}
330
241
100
AcDbScale
 70
     0
300
1:40
140
1.0
141
40.0
290
     0
  0
SCALE
  5
24C
102
{ACAD_REACTORS
330
241
102
}
330
241
100
AcDbScale
 70
     0
300
1:50
140
1.0
141
50.0
290
     0
  0
SCALE
  5
24D
102
{ACAD_REACTORS
330
241
102
}
330
241
100
AcDbScale
 70
     0
300
1:100
140
1.0
141
100.0
290
     0
  0
SCALE
  5
24E
102
{ACAD_REACTORS
330
241
102
}
330
241
100
AcDbScale
 70
     0
300
2:1
140
2.0
141
1.0
290
     0
  0
SCALE
  5
24F
102
{ACAD_REACTORS
330
241
102
}
330
241
100
AcDbScale
 70
     0
300
4:1
140
4.0
141
1.0
290
     0
  0
SCALE
  5
250
102
{ACAD_REACTORS
330
241
102
}
330
241
100
AcDbScale
 70
     0
300
8:1
140
8.0
141
1.0
290
     0
  0
SCALE
  5
251
102
{ACAD_REACTORS
330
241
102
}
330
241
100
AcDbScale
 70
     0
300
10:1
140
10.0
141
1.0
290
     0
  0
SCALE
  5
252
102
{ACAD_REACTORS
330
241
102
}
330
241
100
AcDbScale
 70
     0
300
100:1
140
100.0
141
1.0
290
     0
  0
SCALE
  5
253
102
{ACAD_REACTORS
330
241
102
}
330
241
100
AcDbScale
 70
     0
300
1/128" = 1'-0"
140
0.0078125
141
12.0
290
     0
  0
SCALE
  5
254
102
{ACAD_REACTORS
330
241
102
}
330
241
100
AcDbScale
 70
     0
300
1/64" = 1'-0"
140
0.015625
141
12.0
290
     0
  0
SCALE
  5
255
102
{ACAD_REACTORS
330
241
102
}
330
241
100
AcDbScale
 70
     0
300
1/32" = 1'-0"
140
0.03125
141
12.0
290
     0
  0
SCALE
  5
256
102
{ACAD_REACTORS
330
241
102
}
330
241
100
AcDbScale
 70
     0
300
1/16" = 1'-0"
140
0.0625
141
12.0
290
     0
  0
SCALE
  5
257
102
{ACAD_REACTORS
330
241
102
}
330
241
100
AcDbScale
 70
     0
300
3/32" = 1'-0"
140
0.09375
141
12.0
290
     0
  0
SCALE
  5
258
102
{ACAD_REACTORS
330
241
102
}
330
241
100
AcDbScale
 70
     0
300
1/8" = 1'-0"
140
0.125
141
12.0
290
     0
  0
SCALE
  5
259
102
{ACAD_REACTORS
330
241
102
}
330
241
100
AcDbScale
 70
     0
300
3/16" = 1'-0"
140
0.1875
141
12.0
290
     0
  0
SCALE
  5
25A
102
{ACAD_REACTORS
330
241
102
}
330
241
100
AcDbScale
 70
     0
300
1/4" = 1'-0"
140
0.25
141
12.0
290
     0
  0
SCALE
  5
25B
102
{ACAD_REACTORS
330
241
102
}
330
241
100
AcDbScale
 70
     0
300
3/8" = 1'-0"
140
0.375
141
12.0
290
     0
  0
SCALE
  5
25C
102
{ACAD_REACTORS
330
241
102
}
330
241
100
AcDbScale
 70
     0
300
1/2" = 1'-0"
140
0.5
141
12.0
290
     0
  0
SCALE
  5
25D
102
{ACAD_REACTORS
330
241
102
}
330
241
100
AcDbScale
 70
     0
300
3/4" = 1'-0"
140
0.75
141
12.0
290
     0
  0
SCALE
  5
25E
102
{ACAD_REACTORS
330
241
102
}
330
241
100
AcDbScale
 70
     0
300
1" = 1'-0"
140
1.0
141
12.0
290
     0
  0
SCALE
  5
25F
102
{ACAD_REACTORS
330
241
102
}
330
241
100
AcDbScale
 70
     0
300
1-1/2" = 1'-0"
140
1.5
141
12.0
290
     0
  0
SCALE
  5
260
102
{ACAD_REACTORS
330
241
102
}
330
241
100
AcDbScale
 70
     0
300
3" = 1'-0"
140
3.0
141
12.0
290
     0
  0
SCALE
  5
261
102
{ACAD_REACTORS
330
241
102
}
330
241
100
AcDbScale
 70
     0
300
6" = 1'-0"
140
6.0
141
12.0
290
     0
  0
SCALE
  5
262
102
{ACAD_REACTORS
330
241
102
}
330
241
100
AcDbScale
 70
     0
300
1'-0" = 1'-0"
140
12.0
141
12.0
290
     0
  0
TABLESTYLE
  5
279
102
{ACAD_REACTORS
330
278
102
}
102
{ACAD_XDICTIONARY
360
9926
102
}
330
278
100
AcDbTableStyle
  3
Standard
 70
     0
 71
     0
 40
0.06
 41
0.06
280
     0
281
     0
  7
Standard
140
4.5
170
     2
 62
     0
 63
   257
283
     0
 90
        4
 91
        0
  1

274
    -2
284
     1
 64
     0
275
    -2
285
     1
 65
     0
276
    -2
286
     1
 66
     0
277
    -2
287
     1
 67
     0
278
    -2
288
     1
 68
     0
279
    -2
289
     1
 69
     0
  7
Standard
140
6.0
170
     5
 62
     0
 63
   257
283
     0
 90
        4
 91
        0
  1

274
    -2
284
     1
 64
     0
275
    -2
285
     1
 65
     0
276
    -2
286
     1
 66
     0
277
    -2
287
     1
 67
     0
278
    -2
288
     1
 68
     0
279
    -2
289
     1
 69
     0
  7
Standard
140
4.5
170
     5
 62
     0
 63
   257
283
     0
 90
        4
 91
        0
  1

274
    -2
284
     1
 64
     0
275
    -2
285
     1
 65
     0
276
    -2
286
     1
 66
     0
277
    -2
287
     1
 67
     0
278
    -2
288
     1
 68
     0
279
    -2
289
     1
 69
     0
  0
VISUALSTYLE
  5
26C
102
{ACAD_REACTORS
330
267
102
}
330
267
100
AcDbVisualStyle
  2
2dWireframe
 70
     4
 71
     0
 72
     2
 73
     0
 90
        0
 40
-0.6
 41
-30.0
 62
     5
 63
     7
421
 16777215
 74
     1
 91
        4
 64
     7
 65
   257
 75
     1
175
     1
 42
1.0
 92
        0
 66
   257
 43
1.0
 76
     1
 77
     6
 78
     2
 67
     7
 79
     5
170
     0
171
     0
290
     0
174
     0
 93
        1
 44
0.0
173
     0
291
     0
 45
0.0
  0
VISUALSTYLE
  5
26E
102
{ACAD_REACTORS
330
267
102
}
330
267
100
AcDbVisualStyle
  2
3D Hidden
 70
     6
 71
     1
 72
     2
 73
     2
 90
        0
 40
-0.6
 41
-30.0
 62
     5
 63
     7
421
 16777215
 74
     2
 91
        2
 64
     7
 65
   257
 75
     2
175
     1
 42
40.0
 92
        0
 66
   257
 43
1.0
 76
     1
 77
     6
 78
     2
 67
     7
 79
     3
170
     0
171
     0
290
     0
174
     0
 93
        1
 44
0.0
173
     0
291
     0
 45
0.0
  0
VISUALSTYLE
  5
26D
102
{ACAD_REACTORS
330
267
102
}
330
267
100
AcDbVisualStyle
  2
3dWireframe
 70
     5
 71
     0
 72
     2
 73
     0
 90
        0
 40
-0.6
 41
-30.0
 62
     5
 63
     7
421
 16777215
 74
     1
 91
        4
 64
     7
 65
   257
 75
     1
175
     1
 42
1.0
 92
        0
 66
   257
 43
1.0
 76
     1
 77
     6
 78
     2
 67
     7
 79
     5
170
     0
171
     0
290
     0
174
     0
 93
        1
 44
0.0
173
     0
291
     0
 45
0.0
  0
VISUALSTYLE
  5
26F
102
{ACAD_REACTORS
330
267
102
}
330
267
100
AcDbVisualStyle
  2
Basic
 70
     7
 71
     1
 72
     0
 73
     1
 90
        0
 40
-0.6
 41
-30.0
 62
     5
 63
     7
421
 16777215
 74
     0
 91
        4
 64
     7
 65
   257
 75
     1
175
     1
 42
1.0
 92
        8
 66
     7
 43
1.0
 76
     1
 77
     6
 78
     2
 67
     7
 79
     5
170
     0
171
     0
290
     0
174
     0
 93
        1
 44
0.0
173
     0
291
     1
 45
0.0
  0
VISUALSTYLE
  5
273
102
{ACAD_REACTORS
330
267
102
}
330
267
100
AcDbVisualStyle
  2
Brighten
 70
    12
 71
     2
 72
     2
 73
     0
 90
        0
 40
-0.6
 41
-30.0
 62
     5
 63
     7
421
 16777215
 74
     1
 91
        4
 64
     7
 65
   257
 75
     1
175
     1
 42
1.0
 92
        8
 66
     7
 43
1.0
 76
     1
 77
     6
 78
     2
 67
     7
 79
     5
170
     0
171
     0
290
     0
174
     0
 93
        1
 44
50.0
173
     0
291
     1
 45
0.0
  0
VISUALSTYLE
  5
277
102
{ACAD_REACTORS
330
267
102
}
330
267
100
AcDbVisualStyle
  2
ColorChange
 70
    16
 71
     2
 72
     2
 73
     3
 90
        0
 40
-0.6
 41
-30.0
 62
     5
 63
     8
421
  8421504
 74
     1
 91
        4
 64
     7
 65
   257
 75
     1
175
     1
 42
1.0
 92
        8
 66
     8
424
  8421504
 43
1.0
 76
     1
 77
     6
 78
     2
 67
     7
 79
     5
170
     0
171
     0
290
     0
174
     0
 93
        1
 44
0.0
173
     0
291
     1
 45
0.0
  0
VISUALSTYLE
  5
271
102
{ACAD_REACTORS
330
267
102
}
330
267
100
AcDbVisualStyle
  2
Conceptual
 70
     9
 71
     3
 72
     2
 73
     0
 90
        0
 40
-0.6
 41
-30.0
 62
     5
 63
     7
421
 16777215
 74
     2
 91
        2
 64
     7
 65
   257
 75
     1
175
     1
 42
40.0
 92
        8
 66
     7
 43
1.0
 76
     1
 77
     6
 78
     2
 67
     7
 79
     3
170
     0
171
     0
290
     0
174
     0
 93
        1
 44
0.0
173
     0
291
     0
 45
0.0
  0
VISUALSTYLE
  5
272
102
{ACAD_REACTORS
330
267
102
}
330
267
100
AcDbVisualStyle
  2
Dim
 70
    11
 71
     2
 72
     2
 73
     0
 90
        0
 40
-0.6
 41
-30.0
 62
     5
 63
     7
421
 16777215
 74
     1
 91
        4
 64
     7
 65
   257
 75
     1
175
     1
 42
1.0
 92
        8
 66
     7
 43
1.0
 76
     1
 77
     6
 78
     2
 67
     7
 79
     5
170
     0
171
     0
290
     0
174
     0
 93
        1
 44
-50.0
173
     0
291
     1
 45
0.0
  0
VISUALSTYLE
  5
BDE
102
{ACAD_REACTORS
330
267
102
}
330
267
100
AcDbVisualStyle
  2
EdgeColorOff
 70
    22
 71
     2
 72
     2
 73
     0
 90
        0
 40
0.6
 41
30.0
 62
     5
 63
     7
421
 16777215
 74
     1
 91
        4
 64
     7
 65
   257
 75
     1
175
     1
 42
1.0
 92
        8
 66
     7
 43
1.0
 76
     1
 77
     6
 78
     2
 67
     7
 79
     5
170
     0
171
     0
290
     0
174
     0
 93
        1
 44
0.0
173
     0
291
     1
 45
0.0
  0
VISUALSTYLE
  5
276
102
{ACAD_REACTORS
330
267
102
}
330
267
100
AcDbVisualStyle
  2
Facepattern
 70
    15
 71
     2
 72
     2
 73
     0
 90
        0
 40
-0.6
 41
-30.0
 62
     5
 63
     7
421
 16777215
 74
     1
 91
        4
 64
     7
 65
   257
 75
     1
175
     1
 42
1.0
 92
        8
 66
     7
 43
1.0
 76
     1
 77
     6
 78
     2
 67
     7
 79
     5
170
     0
171
     0
290
     0
174
     0
 93
        1
 44
0.0
173
     0
291
     1
 45
0.0
  0
VISUALSTYLE
  5
268
102
{ACAD_REACTORS
330
267
102
}
330
267
100
AcDbVisualStyle
  2
Flat
 70
     0
 71
     2
 72
     1
 73
     1
 90
        2
 40
-0.6
 41
30.0
 62
     5
 63
     7
421
 16777215
 74
     0
 91
        4
 64
     7
 65
   257
 75
     1
175
     1
 42
1.0
 92
        8
 66
     7
 43
1.0
 76
     1
 77
     6
 78
     2
 67
     7
 79
     5
170
     0
171
     0
290
     0
174
     0
 93
       13
 44
0.0
173
     0
291
     1
 45
0.0
  0
VISUALSTYLE
  5
269
102
{ACAD_REACTORS
330
267
102
}
330
267
100
AcDbVisualStyle
  2
FlatWithEdges
 70
     1
 71
     2
 72
     1
 73
     1
 90
        2
 40
-0.6
 41
30.0
 62
     5
 63
     7
421
 16777215
 74
     1
 91
        4
 64
     7
 65
   257
 75
     1
175
     1
 42
1.0
 92
        0
 66
   257
 43
1.0
 76
     1
 77
     6
 78
     2
 67
     7
 79
     5
170
     0
171
     0
290
     0
174
     0
 93
       13
 44
0.0
173
     0
291
     1
 45
0.0
  0
VISUALSTYLE
  5
26A
102
{ACAD_REACTORS
330
267
102
}
330
267
100
AcDbVisualStyle
  2
Gouraud
 70
     2
 71
     2
 72
     2
 73
     1
 90
        2
 40
-0.6
 41
30.0
 62
     5
 63
     7
421
 16777215
 74
     0
 91
        4
 64
     7
 65
   257
 75
     1
175
     1
 42
1.0
 92
        0
 66
     7
 43
1.0
 76
     1
 77
     6
 78
     2
 67
     7
 79
     5
170
     0
171
     0
290
     0
174
     0
 93
       13
 44
0.0
173
     0
291
     1
 45
0.0
  0
VISUALSTYLE
  5
26B
102
{ACAD_REACTORS
330
267
102
}
330
267
100
AcDbVisualStyle
  2
GouraudWithEdges
 70
     3
 71
     2
 72
     2
 73
     1
 90
        2
 40
-0.6
 41
30.0
 62
     5
 63
     7
421
 16777215
 74
     1
 91
        4
 64
     7
 65
   257
 75
     1
175
     1
 42
1.0
 92
        0
 66
   257
 43
1.0
 76
     1
 77
     6
 78
     2
 67
     7
 79
     5
170
     0
171
     0
290
     0
174
     0
 93
       13
 44
0.0
173
     0
291
     1
 45
0.0
  0
VISUALSTYLE
  5
BDB
102
{ACAD_REACTORS
330
267
102
}
330
267
100
AcDbVisualStyle
  2
Hidden
 70
     6
 71
     1
 72
     2
 73
     2
 90
        0
 40
0.6
 41
30.0
 62
     5
 63
     7
421
 16777215
 74
     2
 91
        2
 64
     7
 65
   257
 75
     2
175
     1
 42
40.0
 92
        0
 66
   257
 43
1.0
 76
     1
 77
     6
 78
     2
 67
     7
 79
     3
170
     0
171
     0
290
     0
174
     0
 93
        1
 44
0.0
173
     0
291
     0
 45
0.0
  0
VISUALSTYLE
  5
BDC
102
{ACAD_REACTORS
330
267
102
}
330
267
100
AcDbVisualStyle
  2
JitterOff
 70
    20
 71
     2
 72
     2
 73
     0
 90
        0
 40
0.6
 41
30.0
 62
     5
 63
     7
421
 16777215
 74
     1
 91
        4
 64
     7
 65
   257
 75
     1
175
     1
 42
1.0
 92
       10
 66
     7
 43
1.0
 76
     1
 77
     6
 78
     2
 67
     7
 79
     5
170
     0
171
     0
290
     0
174
     0
 93
        1
 44
0.0
173
     0
291
     1
 45
0.0
  0
VISUALSTYLE
  5
275
102
{ACAD_REACTORS
330
267
102
}
330
267
100
AcDbVisualStyle
  2
Linepattern
 70
    14
 71
     2
 72
     2
 73
     0
 90
        0
 40
-0.6
 41
-30.0
 62
     5
 63
     7
421
 16777215
 74
     1
 91
        4
 64
     7
 65
   257
 75
     7
175
     7
 42
1.0
 92
        8
 66
     7
 43
1.0
 76
     1
 77
     6
 78
     2
 67
     7
 79
     5
170
     0
171
     0
290
     0
174
     0
 93
        1
 44
0.0
173
     0
291
     1
 45
0.0
  0
VISUALSTYLE
  5
BDD
102
{ACAD_REACTORS
330
267
102
}
330
267
100
AcDbVisualStyle
  2
OverhangOff
 70
    21
 71
     2
 72
     2
 73
     0
 90
        0
 40
0.6
 41
30.0
 62
     5
 63
     7
421
 16777215
 74
     1
 91
        4
 64
     7
 65
   257
 75
     1
175
     1
 42
1.0
 92
        9
 66
     7
 43
1.0
 76
     1
 77
     6
 78
     2
 67
     7
 79
     5
170
     0
171
     0
290
     0
174
     0
 93
        1
 44
0.0
173
     0
291
     1
 45
0.0
  0
VISUALSTYLE
  5
270
102
{ACAD_REACTORS
330
267
102
}
330
267
100
AcDbVisualStyle
  2
Realistic
 70
     8
 71
     2
 72
     2
 73
     0
 90
        0
 40
-0.6
 41
-30.0
 62
     5
 63
     7
421
 16777215
 74
     1
 91
        0
 64
     7
 65
   257
 75
     1
175
     1
 42
1.0
 92
        8
 66
     8
424
  7895160
 43
1.0
 76
     1
 77
     6
 78
     2
 67
     7
 79
     5
170
     0
171
     0
290
     0
174
     0
 93
       13
 44
0.0
173
     0
291
     0
 45
0.0
  0
VISUALSTYLE
  5
BE3
102
{ACAD_REACTORS
330
267
102
}
330
267
100
AcDbVisualStyle
  2
Shaded
 70
    27
 71
     2
 72
     2
 73
     1
 90
        2
 40
0.6
 41
30.0
 62
     5
 63
     7
421
 16777215
 74
     0
 91
        4
 64
     7
 65
   257
 75
     1
175
     1
 42
1.0
 92
        8
 66
   257
 43
1.0
 76
     1
 77
     6
 78
     2
 67
     8
425
  7895160
 79
     3
170
     0
171
     0
290
     0
174
     0
 93
        5
 44
0.0
173
     0
291
     0
 45
0.0
  0
VISUALSTYLE
  5
BE2
102
{ACAD_REACTORS
330
267
102
}
330
267
100
AcDbVisualStyle
  2
Shaded with edges
 70
    26
 71
     2
 72
     2
 73
     1
 90
        2
 40
0.6
 41
30.0
 62
     5
 63
     7
421
 16777215
 74
     1
 91
       10
 64
     7
 65
   257
 75
     2
175
     1
 42
1.0
 92
        8
 66
   257
 43
1.0
 76
     1
 77
     6
 78
     2
 67
     7
 79
     3
170
     0
171
     0
290
     0
174
     0
 93
        5
 44
0.0
173
     0
291
     0
 45
0.0
  0
VISUALSTYLE
  5
BDF
102
{ACAD_REACTORS
330
267
102
}
330
267
100
AcDbVisualStyle
  2
Shades of Gray
 70
    23
 71
     2
 72
     2
 73
     3
 90
        0
 40
0.6
 41
30.0
 62
     5
 63
     7
421
 16777215
 74
     2
 91
        2
 64
     7
 65
     7
 75
     1
175
     1
 42
40.0
 92
        8
 66
     7
 43
1.0
 76
     1
 77
     6
 78
     2
 67
     7
 79
     3
170
     0
171
     0
290
     0
174
     0
 93
        1
 44
0.0
173
     0
291
     0
 45
0.0
  0
VISUALSTYLE
  5
BE0
102
{ACAD_REACTORS
330
267
102
}
330
267
100
AcDbVisualStyle
  2
Sketchy
 70
    24
 71
     1
 72
     2
 73
     2
 90
        0
 40
0.6
 41
30.0
 62
     5
 63
     7
421
 16777215
 74
     2
 91
        2
 64
     7
 65
     7
 75
     1
175
     1
 42
40.0
 92
       11
 66
     7
 43
1.0
 76
     1
 77
     6
 78
     2
 67
     7
 79
     6
170
     0
171
     0
290
     0
174
     0
 93
        1
 44
0.0
173
     0
291
     0
 45
0.0
  0
VISUALSTYLE
  5
274
102
{ACAD_REACTORS
330
267
102
}
330
267
100
AcDbVisualStyle
  2
Thicken
 70
    13
 71
     2
 72
     2
 73
     0
 90
        0
 40
-0.6
 41
-30.0
 62
     5
 63
     7
421
 16777215
 74
     1
 91
        4
 64
     7
 65
   257
 75
     1
175
     1
 42
1.0
 92
       12
 66
     7
 43
1.0
 76
     1
 77
     6
 78
     2
 67
     7
 79
     5
170
     0
171
     0
290
     0
174
     0
 93
        1
 44
0.0
173
     0
291
     1
 45
0.0
  0
VISUALSTYLE
  5
BDA
102
{ACAD_REACTORS
330
267
102
}
330
267
100
AcDbVisualStyle
  2
Wireframe
 70
     5
 71
     0
 72
     2
 73
     0
 90
        0
 40
0.6
 41
30.0
 62
     5
 63
     7
421
 16777215
 74
     1
 91
        4
 64
     7
 65
   257
 75
     1
175
     1
 42
1.0
 92
        0
 66
   257
 43
1.0
 76
     1
 77
     6
 78
     2
 67
     7
 79
     3
170
     0
171
     0
290
     0
174
     0
 93
        1
 44
0.0
173
     0
291
     0
 45
0.0
  0
VISUALSTYLE
  5
BE1
102
{ACAD_REACTORS
330
267
102
}
330
267
100
AcDbVisualStyle
  2
X-Ray
 70
    25
 71
     2
 72
     2
 73
     1
 90
        1
 40
0.5
 41
30.0
 62
     5
 63
     7
421
 16777215
 74
     1
 91
        0
 64
     7
 65
   257
 75
     1
175
     1
 42
1.0
 92
        8
 66
     7
 43
1.0
 76
     1
 77
     6
 78
     2
 67
     7
 79
     3
170
     0
171
     0
290
     0
174
     0
 93
       13
 44
0.0
173
     0
291
     0
 45
0.0
  0
DICTIONARYVAR
  5
331
102
{ACAD_REACTORS
330
330
102
}
330
330
100
DictionaryVariables
280
     0
  1
1:1
  0
DICTIONARYVAR
  5
9920
102
{ACAD_REACTORS
330
330
102
}
330
330
100
DictionaryVariables
280
     0
  1
Standard
  0
DICTIONARYVAR
  5
335
102
{ACAD_REACTORS
330
330
102
}
330
330
100
DictionaryVariables
280
     0
  1
Standard
  0
DICTIONARYVAR
  5
C00
102
{ACAD_REACTORS
330
330
102
}
330
330
100
DictionaryVariables
280
     0
  1
ByLayer
  0
DICTIONARYVAR
  5
64A
102
{ACAD_REACTORS
330
330
102
}
330
330
100
DictionaryVariables
280
     0
  1
0
  0
DICTIONARY
  5
9926
330
279
100
AcDbDictionary
280
     1
281
     1
  3
ACAD_ROUNDTRIP_2008_TABLESTYLE_CELLSTYLEMAP
360
9927
  0
CELLSTYLEMAP
  5
9927
102
{ACAD_REACTORS
330
9926
102
}
330
9926
100
AcDbCellStyleMap
 90
        3
300
CELLSTYLE
  1
TABLEFORMAT_BEGIN
 90
        5
170
     1
 91
        0
 92
    32768
 62
   257
 93
        1
300
CONTENTFORMAT
  1
CONTENTFORMAT_BEGIN
 90
        0
 91
        0
 92
        4
 93
        0
300

 40
0.0
140
1.0
 94
        5
 62
     0
340
17
144
6.0
309
CONTENTFORMAT_END
171
     1
301
MARGIN
  1
CELLMARGIN_BEGIN
 40
0.06
 40
0.06
 40
0.06
 40
0.06
 40
0.18
 40
0.18
309
CELLMARGIN_END
 94
        6
 95
        1
302
GRIDFORMAT
  1
GRIDFORMAT_BEGIN
 90
        0
 91
        1
 62
     0
 92
       -2
340
0
 93
        0
 40
0.045
309
GRIDFORMAT_END
 95
        2
302
GRIDFORMAT
  1
GRIDFORMAT_BEGIN
 90
        0
 91
        1
 62
     0
 92
       -2
340
0
 93
        0
 40
0.045
309
GRIDFORMAT_END
 95
        4
302
GRIDFORMAT
  1
GRIDFORMAT_BEGIN
 90
        0
 91
        1
 62
     0
 92
       -2
340
0
 93
        0
 40
0.045
309
GRIDFORMAT_END
 95
        8
302
GRIDFORMAT
  1
GRIDFORMAT_BEGIN
 90
        0
 91
        1
 62
     0
 92
       -2
340
0
 93
        0
 40
0.045
309
GRIDFORMAT_END
 95
       16
302
GRIDFORMAT
  1
GRIDFORMAT_BEGIN
 90
        0
 91
        1
 62
     0
 92
       -2
340
0
 93
        0
 40
0.045
309
GRIDFORMAT_END
 95
       32
302
GRIDFORMAT
  1
GRIDFORMAT_BEGIN
 90
        0
 91
        1
 62
     0
 92
       -2
340
0
 93
        0
 40
0.045
309
GRIDFORMAT_END
309
TABLEFORMAT_END
  1
CELLSTYLE_BEGIN
 90
        1
 91
        1
300
_TITLE
309
CELLSTYLE_END
300
CELLSTYLE
  1
TABLEFORMAT_BEGIN
 90
        5
170
     1
 91
        0
 92
        0
 62
   257
 93
        1
300
CONTENTFORMAT
  1
CONTENTFORMAT_BEGIN
 90
        0
 91
        0
 92
        4
 93
        0
300

 40
0.0
140
1.0
 94
        5
 62
     0
340
17
144
4.5
309
CONTENTFORMAT_END
171
     1
301
MARGIN
  1
CELLMARGIN_BEGIN
 40
0.06
 40
0.06
 40
0.06
 40
0.06
 40
0.18
 40
0.18
309
CELLMARGIN_END
 94
        6
 95
        1
302
GRIDFORMAT
  1
GRIDFORMAT_BEGIN
 90
        0
 91
        1
 62
     0
 92
       -2
340
0
 93
        0
 40
0.045
309
GRIDFORMAT_END
 95
        2
302
GRIDFORMAT
  1
GRIDFORMAT_BEGIN
 90
        0
 91
        1
 62
     0
 92
       -2
340
0
 93
        0
 40
0.045
309
GRIDFORMAT_END
 95
        4
302
GRIDFORMAT
  1
GRIDFORMAT_BEGIN
 90
        0
 91
        1
 62
     0
 92
       -2
340
0
 93
        0
 40
0.045
309
GRIDFORMAT_END
 95
        8
302
GRIDFORMAT
  1
GRIDFORMAT_BEGIN
 90
        0
 91
        1
 62
     0
 92
       -2
340
0
 93
        0
 40
0.045
309
GRIDFORMAT_END
 95
       16
302
GRIDFORMAT
  1
GRIDFORMAT_BEGIN
 90
        0
 91
        1
 62
     0
 92
       -2
340
0
 93
        0
 40
0.045
309
GRIDFORMAT_END
 95
       32
302
GRIDFORMAT
  1
GRIDFORMAT_BEGIN
 90
        0
 91
        1
 62
     0
 92
       -2
340
0
 93
        0
 40
0.045
309
GRIDFORMAT_END
309
TABLEFORMAT_END
  1
CELLSTYLE_BEGIN
 90
        2
 91
        1
300
_HEADER
309
CELLSTYLE_END
300
CELLSTYLE
  1
TABLEFORMAT_BEGIN
 90
        5
170
     1
 91
        0
 92
        0
 62
   257
 93
        1
300
CONTENTFORMAT
  1
CONTENTFORMAT_BEGIN
 90
        0
 91
        0
 92
        4
 93
        0
300

 40
0.0
140
1.0
 94
        2
 62
     0
340
17
144
4.5
309
CONTENTFORMAT_END
171
     1
301
MARGIN
  1
CELLMARGIN_BEGIN
 40
0.06
 40
0.06
 40
0.06
 40
0.06
 40
0.18
 40
0.18
309
CELLMARGIN_END
 94
        6
 95
        1
302
GRIDFORMAT
  1
GRIDFORMAT_BEGIN
 90
        0
 91
        1
 62
     0
 92
       -2
340
0
 93
        0
 40
0.045
309
GRIDFORMAT_END
 95
        2
302
GRIDFORMAT
  1
GRIDFORMAT_BEGIN
 90
        0
 91
        1
 62
     0
 92
       -2
340
0
 93
        0
 40
0.045
309
GRIDFORMAT_END
 95
        4
302
GRIDFORMAT
  1
GRIDFORMAT_BEGIN
 90
        0
 91
        1
 62
     0
 92
       -2
340
0
 93
        0
 40
0.045
309
GRIDFORMAT_END
 95
        8
302
GRIDFORMAT
  1
GRIDFORMAT_BEGIN
 90
        0
 91
        1
 62
     0
 92
       -2
340
0
 93
        0
 40
0.045
309
GRIDFORMAT_END
 95
       16
302
GRIDFORMAT
  1
GRIDFORMAT_BEGIN
 90
        0
 91
        1
 62
     0
 92
       -2
340
0
 93
        0
 40
0.045
309
GRIDFORMAT_END
 95
       32
302
GRIDFORMAT
  1
GRIDFORMAT_BEGIN
 90
        0
 91
        1
 62
     0
 92
       -2
340
0
 93
        0
 40
0.045
309
GRIDFORMAT_END
309
TABLEFORMAT_END
  1
CELLSTYLE_BEGIN
 90
        3
 91
        2
300
_DATA
309
CELLSTYLE_END
  0
ENDSEC
  0
EOF
