  0
SECTION
  2
HEADER
  9
$ACADVER
  1
AC1021
  9
$ACADMAINTVER
 70
    25
  9
$DWGCODEPAGE
  3
ANSI_932
  9
$LASTSAVEDBY
  1
howeNelson
  9
$INSBASE
 10
0.0
 20
0.0
 30
0.0
  9
$EXTMIN
 10
0.0
 20
0.0
 30
0.0
  9
$EXTMAX
 10
2100.0
 20
2970.0
 30
0.0000000000002274
  9
$LIMMIN
 10
0.0
 20
0.0
  9
$LIMMAX
 10
2100.0
 20
2970.0
  9
$ORTHOMODE
 70
     0
  9
$REGENMODE
 70
     1
  9
$FILLMODE
 70
     1
  9
$QTEXTMODE
 70
     0
  9
$MIRRTEXT
 70
     1
  9
$LTSCALE
 40
50.8
  9
$ATTMODE
 70
     1
  9
$TEXTSIZE
 40
533.0403732820173
  9
$TRACEWID
 40
1.0
  9
$TEXTSTYLE
  7
Standard
  9
$CLAYER
  8
MODEL
  9
$CELTYPE
  6
Continuous
  9
$CECOLOR
 62
   256
  9
$CELTSCALE
 40
1.0
  9
$DISPSILH
 70
     0
  9
$DIMSCALE
 40
1.0
  9
$DIMASZ
 40
6.0
  9
$DIMEXO
 40
25.0
  9
$DIMDLI
 40
25.0
  9
$DIMRND
 40
0.0
  9
$DIMDLE
 40
0.0
  9
$DIMEXE
 40
0.0
  9
$DIMTP
 40
0.0
  9
$DIMTM
 40
0.0
  9
$DIMTXT
 40
24.0
  9
$DIMCEN
 40
0.0
  9
$DIMTSZ
 40
0.0
  9
$DIMTOL
 70
     0
  9
$DIMLIM
 70
     0
  9
$DIMTIH
 70
     0
  9
$DIMTOH
 70
     0
  9
$DIMSE1
 70
     0
  9
$DIMSE2
 70
     0
  9
$DIMTAD
 70
     1
  9
$DIMZIN
 70
    11
  9
$DIMBLK
  1
DOT
  9
$DIMASO
 70
     1
  9
$DIMSHO
 70
     1
  9
$DIMPOST
  1
<>
  9
$DIMAPOST
  1
[]
  9
$DIMALT
 70
     0
  9
$DIMALTD
 70
     1
  9
$DIMALTF
 40
1.0
  9
$DIMLFAC
 40
1.0
  9
$DIMTOFL
 70
     0
  9
$DIMTVP
 40
0.0
  9
$DIMTIX
 70
     1
  9
$DIMSOXD
 70
     0
  9
$DIMSAH
 70
     0
  9
$DIMBLK1
  1

  9
$DIMBLK2
  1

  9
$DIMSTYLE
  2
JIS
  9
$DIMCLRD
 70
     0
  9
$DIMCLRE
 70
     0
  9
$DIMCLRT
 70
     0
  9
$DIMTFAC
 40
1.0
  9
$DIMGAP
 40
10.0
  9
$DIMJUST
 70
     0
  9
$DIMSD1
 70
     0
  9
$DIMSD2
 70
     0
  9
$DIMTOLJ
 70
     1
  9
$DIMTZIN
 70
    11
  9
$DIMALTZ
 70
    11
  9
$DIMALTTZ
 70
    11
  9
$DIMUPT
 70
     0
  9
$DIMDEC
 70
     0
  9
$DIMTDEC
 70
     1
  9
$DIMALTU
 70
     2
  9
$DIMALTTD
 70
     2
  9
$DIMTXSTY
  7
ＭＳ ゴシック
  9
$DIMAUNIT
 70
     0
  9
$DIMADEC
 70
     0
  9
$DIMALTRND
 40
0.0
  9
$DIMAZIN
 70
     0
  9
$DIMDSEP
 70
    46
  9
$DIMATFIT
 70
     0
  9
$DIMFRAC
 70
     2
  9
$DIMLDRBLK
  1
DOT
  9
$DIMLUNIT
 70
     2
  9
$DIMLWD
 70
    -2
  9
$DIMLWE
 70
    -2
  9
$DIMTMOVE
 70
     0
  9
$DIMFXL
 40
1.0
  9
$DIMFXLON
 70
     0
  9
$DIMJOGANG
 40
0.7853981633974483
  9
$DIMTFILL
 70
     0
  9
$DIMTFILLCLR
 70
     0
  9
$DIMARCSYM
 70
     0
  9
$DIMLTYPE
  6

  9
$DIMLTEX1
  6

  9
$DIMLTEX2
  6

  9
$LUNITS
 70
     2
  9
$LUPREC
 70
     0
  9
$SKETCHINC
 40
0.1
  9
$FILLETRAD
 40
0.0
  9
$AUNITS
 70
     0
  9
$AUPREC
 70
     0
  9
$MENU
  1
acad
  9
$ELEVATION
 40
0.0
  9
$PELEVATION
 40
0.0
  9
$THICKNESS
 40
0.0
  9
$LIMCHECK
 70
     0
  9
$CHAMFERA
 40
0.0
  9
$CHAMFERB
 40
0.0
  9
$CHAMFERC
 40
0.0
  9
$CHAMFERD
 40
0.0
  9
$SKPOLY
 70
     0
  9
$TDCREATE
 40
2447893.375
  9
$TDUCREATE
 40
0.0
  9
$TDUPDATE
 40
2458759.570584699
  9
$TDUUPDATE
 40
2458759.195584699
  9
$TDINDWG
 40
0.0
  9
$TDUSRTIMER
 40
0.0
  9
$USRTIMER
 70
     1
  9
$ANGBASE
 50
0.0
  9
$ANGDIR
 70
     0
  9
$PDMODE
 70
     1
  9
$PDSIZE
 40
-2.0
  9
$PLINEWID
 40
0.0
  9
$SPLFRAME
 70
     0
  9
$SPLINETYPE
 70
     6
  9
$SPLINESEGS
 70
     8
  9
$HANDSEED
  5
9AAC
  9
$SURFTAB1
 70
     6
  9
$SURFTAB2
 70
     6
  9
$SURFTYPE
 70
     6
  9
$SURFU
 70
     6
  9
$SURFV
 70
     6
  9
$UCSBASE
  2

  9
$UCSNAME
  2

  9
$UCSORG
 10
0.0
 20
0.0
 30
0.0
  9
$UCSXDIR
 10
1.0
 20
0.0
 30
0.0
  9
$UCSYDIR
 10
0.0
 20
1.0
 30
0.0
  9
$UCSORTHOREF
  2

  9
$UCSORTHOVIEW
 70
     0
  9
$UCSORGTOP
 10
0.0
 20
0.0
 30
0.0
  9
$UCSORGBOTTOM
 10
0.0
 20
0.0
 30
0.0
  9
$UCSORGLEFT
 10
0.0
 20
0.0
 30
0.0
  9
$UCSORGRIGHT
 10
0.0
 20
0.0
 30
0.0
  9
$UCSORGFRONT
 10
0.0
 20
0.0
 30
0.0
  9
$UCSORGBACK
 10
0.0
 20
0.0
 30
0.0
  9
$PUCSBASE
  2

  9
$PUCSNAME
  2

  9
$PUCSORG
 10
0.0
 20
0.0
 30
0.0
  9
$PUCSXDIR
 10
1.0
 20
0.0
 30
0.0
  9
$PUCSYDIR
 10
0.0
 20
1.0
 30
0.0
  9
$PUCSORTHOREF
  2

  9
$PUCSORTHOVIEW
 70
     0
  9
$PUCSORGTOP
 10
0.0
 20
0.0
 30
0.0
  9
$PUCSORGBOTTOM
 10
0.0
 20
0.0
 30
0.0
  9
$PUCSORGLEFT
 10
0.0
 20
0.0
 30
0.0
  9
$PUCSORGRIGHT
 10
0.0
 20
0.0
 30
0.0
  9
$PUCSORGFRONT
 10
0.0
 20
0.0
 30
0.0
  9
$PUCSORGBACK
 10
0.0
 20
0.0
 30
0.0
  9
$USERI1
 70
     0
  9
$USERI2
 70
     0
  9
$USERI3
 70
     0
  9
$USERI4
 70
     0
  9
$USERI5
 70
     0
  9
$USERR1
 40
0.0
  9
$USERR2
 40
0.0
  9
$USERR3
 40
0.0
  9
$USERR4
 40
0.0
  9
$USERR5
 40
0.0
  9
$WORLDVIEW
 70
     1
  9
$SHADEDGE
 70
     3
  9
$SHADEDIF
 70
    70
  9
$TILEMODE
 70
     1
  9
$MAXACTVP
 70
    64
  9
$PINSBASE
 10
0.0
 20
0.0
 30
0.0
  9
$PLIMCHECK
 70
     0
  9
$PEXTMIN
 10
0.0
 20
0.0
 30
0.0
  9
$PEXTMAX
 10
0.0
 20
0.0
 30
0.0
  9
$PLIMMIN
 10
-7.5
 20
-20.0
  9
$PLIMMAX
 10
412.5
 20
277.0
  9
$UNITMODE
 70
     0
  9
$VISRETAIN
 70
     0
  9
$PLINEGEN
 70
     1
  9
$PSLTSCALE
 70
     0
  9
$TREEDEPTH
 70
  3020
  9
$CMLSTYLE
  2
Standard
  9
$CMLJUST
 70
     0
  9
$CMLSCALE
 40
1.0
  9
$PROXYGRAPHICS
 70
     0
  9
$MEASUREMENT
 70
     1
  9
$CELWEIGHT
370
    -1
  9
$ENDCAPS
280
     0
  9
$JOINSTYLE
280
     0
  9
$LWDISPLAY
290
     1
  9
$INSUNITS
 70
     4
  9
$HYPERLINKBASE
  1

  9
$STYLESHEET
  1

  9
$XEDIT
290
     1
  9
$CEPSNTYPE
380
     0
  9
$PSTYLEMODE
290
     1
  9
$FINGERPRINTGUID
  2

  9
$VERSIONGUID
  2

  9
$EXTNAMES
290
     1
  9
$PSVPSCALE
 40
0.0
  9
$OLESTARTUP
290
     0
  9
$SORTENTS
280
   127
  9
$INDEXCTL
280
     0
  9
$HIDETEXT
280
     1
  9
$XCLIPFRAME
290
     0
  9
$HALOGAP
280
     0
  9
$OBSCOLOR
 70
   257
  9
$OBSLTYPE
280
     0
  9
$INTERSECTIONDISPLAY
280
     0
  9
$INTERSECTIONCOLOR
 70
   257
  9
$DIMASSOC
280
     2
  9
$PROJECTNAME
  1

  9
$CAMERADISPLAY
290
     0
  9
$LENSLENGTH
 40
50.0
  9
$CAMERAHEIGHT
 40
0.0
  9
$STEPSPERSEC
 40
2.0
  9
$STEPSIZE
 40
6.0
  9
$3DDWFPREC
 40
2.0
  9
$PSOLWIDTH
 40
0.25
  9
$PSOLHEIGHT
 40
4.0
  9
$LOFTANG1
 40
1.570796326794897
  9
$LOFTANG2
 40
1.570796326794897
  9
$LOFTMAG1
 40
0.0
  9
$LOFTMAG2
 40
0.0
  9
$LOFTPARAM
 70
     7
  9
$LOFTNORMALS
280
     1
  9
$LATITUDE
 40
37.795
  9
$LONGITUDE
 40
-122.394
  9
$NORTHDIRECTION
 40
0.0
  9
$TIMEZONE
 70
 -8000
  9
$LIGHTGLYPHDISPLAY
280
     1
  9
$TILEMODELIGHTSYNCH
280
     1
  9
$SOLIDHIST
280
     1
  9
$SHOWHIST
280
     1
  9
$DWFFRAME
280
     2
  9
$DGNFRAME
280
     2
  9
$REALWORLDSCALE
290
     1
  9
$INTERFERECOLOR
 62
   256
  9
$CSHADOW
280
     0
  9
$SHADOWPLANELOCATION
 40
0.0
  0
ENDSEC
  0
SECTION
  2
CLASSES
  0
CLASS
  1
LWPOLYLINE
  2
AcDbPolyline
  3
ObjectDBX Classes
 90
        0
 91
        1
280
     0
281
     1
  0
CLASS
  1
IMAGE
  2
AcDbRasterImage
  3
ISM
 90
      127
 91
        9
280
     0
281
     1
  0
CLASS
  1
OLE2FRAME
  2
AcDbOle2Frame
  3
ObjectDBX Classes
 90
        0
 91
        1
280
     0
281
     1
  0
CLASS
  1
HATCH
  2
AcDbHatch
  3
ObjectDBX Classes
 90
        0
 91
        1
280
     0
281
     1
  0
CLASS
  1
DICTIONARYVAR
  2
AcDbDictionaryVar
  3
ObjectDBX Classes
 90
        0
 91
        8
280
     0
281
     0
  0
CLASS
  1
RASTERVARIABLES
  2
AcDbRasterVariables
  3
ISM
 90
        0
 91
        8
280
     0
281
     0
  0
CLASS
  1
IMAGEDEF
  2
AcDbRasterImageDef
  3
ISM
 90
        0
 91
        8
280
     0
281
     0
  0
CLASS
  1
IMAGEDEF_REACTOR
  2
AcDbRasterImageDefReactor
  3
ISM
 90
        1
 91
        8
280
     0
281
     0
  0
CLASS
  1
IDBUFFER
  2
AcDbIdBuffer
  3
ObjectDBX Classes
 90
        0
 91
        8
280
     0
281
     0
  0
CLASS
  1
SPATIAL_FILTER
  2
AcDbSpatialFilter
  3
ObjectDBX Classes
 90
        0
 91
        8
280
     0
281
     0
  0
CLASS
  1
XRECORD
  2
AcDbXrecord
  3
ObjectDBX Classes
 90
        0
 91
        1
280
     0
281
     0
  0
CLASS
  1
SORTENTSTABLE
  2
AcDbSortentsTable
  3
ObjectDBX Classes
 90
        0
 91
        8
280
     0
281
     0
  0
CLASS
  1
LAYER_INDEX
  2
AcDbLayerIndex
  3
ObjectDBX Classes
 90
        0
 91
        8
280
     0
281
     0
  0
CLASS
  1
SPATIAL_INDEX
  2
AcDbSpatialIndex
  3
AutoCAD 2000
 90
        0
 91
        8
280
     0
281
     0
  0
CLASS
  1
OBJECT_PTR
  2
CAseDLPNTableRecord
  3
ASE-LPNTableRecord
 90
        1
 91
        8
280
     0
281
     0
  0
CLASS
  1
LAYOUT
  2
AcDbLayout
  3
ObjectDBX Classes
 90
        0
 91
        1
280
     0
281
     0
  0
CLASS
  1
PLOTSETTINGS
  2
AcDbPlotSettings
  3
ObjectDBX Classes
 90
        0
 91
        8
280
     0
281
     0
  0
CLASS
  1
ACDBDICTIONARYWDFLT
  2
AcDbDictionaryWithDefault
  3
ObjectDBX Classes
 90
        0
 91
        8
280
     0
281
     0
  0
CLASS
  1
ACDBPLACEHOLDER
  2
AcDbPlaceHolder
  3
ObjectDBX Classes
 90
        0
 91
        1
280
     0
281
     0
  0
CLASS
  1
SCALE
  2
AcDbScale
  3
ObjectDBX Classes
 90
     1153
 91
        8
280
     0
281
     0
  0
CLASS
  1
MATERIAL
  2
AcDbMaterial
  3
ObjectDBX Classes
 90
     1153
 91
        8
280
     0
281
     0
  0
CLASS
  1
VISUALSTYLE
  2
AcDbVisualStyle
  3
ObjectDBX Classes
 90
     4095
 91
        8
280
     0
281
     0
  0
CLASS
  1
TABLESTYLE
  2
AcDbTableStyle
  3
ObjectDBX Classes
 90
     4095
 91
        8
280
     0
281
     0
  0
CLASS
  1
DIMASSOC
  2
AcDbDimAssoc
  3
"AcDbDimAssoc|Product Desc:     AcDim ARX App For Dimension|Company:          Autodesk, Inc.|WEB Address:      www.autodesk.com"
 90
        0
 91
        7
280
     0
281
     0
  0
CLASS
  1
CELLSTYLEMAP
  2
AcDbCellStyleMap
  3
ObjectDBX Classes
 90
     1152
 91
        7
280
     0
281
     0
  0
CLASS
  1
SUN
  2
AcDbSun
  3
SCENEOE
 90
     1153
 91
        7
280
     0
281
     0
  0
CLASS
  1
MLEADERSTYLE
  2
AcDbMLeaderStyle
  3
ACDB_MLEADERSTYLE_CLASS
 90
     4095
 91
        8
280
     0
281
     0
  0
ENDSEC
  0
SECTION
  2
TABLES
  0
TABLE
  2
VPORT
  5
7
330
0
100
AcDbSymbolTable
 70
     1
  0
VPORT
  5
15
330
7
100
AcDbSymbolTableRecord
100
AcDbViewportTableRecord
  2
*ACTIVE
 70
     0
 10
0.0
 20
0.0
 11
1.0
 21
1.0
 12
518.0464231739697
 22
1539.908751102672
 13
0.0
 23
0.0
 14
1.0
 24
1.0
 15
0.0
 25
0.0
 16
0.0
 26
0.0
 36
1.0
 17
531.9535768260303
 27
-54.90875110267189
 37
-796.100446371116
 40
3029.4
 41
2.310294117647059
 42
50.0
 43
0.0
 44
0.0
 50
0.0
 51
0.0
 71
    16
 72
  2000
 73
     1
 74
     1
 75
     0
 76
     0
 77
     0
 78
     0
281
     0
 65
     1
110
0.0
120
0.0
130
0.0
111
1.0
121
0.0
131
0.0
112
0.0
122
1.0
132
0.0
 79
     0
146
0.0
348
9922
 60
     3
 61
     5
292
     1
282
     1
141
0.0
142
0.0
 63
   256
361
BE4
  0
ENDTAB
  0
TABLE
  2
LTYPE
  5
4
330
0
100
AcDbSymbolTable
 70
     7
  0
LTYPE
  5
11
330
4
100
AcDbSymbolTableRecord
100
AcDbLinetypeTableRecord
  2
ByBlock
 70
     0
  3

 72
    65
 73
     0
 40
0.0
  0
LTYPE
  5
12
330
4
100
AcDbSymbolTableRecord
100
AcDbLinetypeTableRecord
  2
ByLayer
 70
     0
  3

 72
    65
 73
     0
 40
0.0
  0
LTYPE
  5
13
330
4
100
AcDbSymbolTableRecord
100
AcDbLinetypeTableRecord
  2
Continuous
 70
     0
  3
Solid line
 72
    65
 73
     0
 40
0.0
  0
LTYPE
  5
1A38
330
4
100
AcDbSymbolTableRecord
100
AcDbLinetypeTableRecord
  2
HIDDEN
 70
     0
  3
Hidden _ _ _ _ _ _ _ _ _ _ _ _ _ _ _ _ _ _ _ _ 
 72
    65
 73
     2
 40
9.524999999999999
 49
6.35
 74
     0
 49
-3.175
 74
     0
  0
LTYPE
  5
2496
330
4
100
AcDbSymbolTableRecord
100
AcDbLinetypeTableRecord
  2
CENTER2
 70
     0
  3
Center (.5x) ___ _ ___ _ ___ _ ___ _ ___ _ ___
 72
    65
 73
     4
 40
1.125
 49
0.75
 74
     0
 49
-0.125
 74
     0
 49
0.125
 74
     0
 49
-0.125
 74
     0
  0
LTYPE
  5
24DB
330
4
100
AcDbSymbolTableRecord
100
AcDbLinetypeTableRecord
  2
AM_DIN_F_W050
 70
     0
  3
__ __ __ __ __ __ __ __ __ __ __ __ __ __ __
 72
    65
 73
     2
 40
6.25
 49
4.75
 74
     0
 49
-1.5
 74
     0
  0
LTYPE
  5
3135
330
4
100
AcDbSymbolTableRecord
100
AcDbLinetypeTableRecord
  2
AM_DIN_G_W050
 70
     0
  3
____ . ____ . ____ . ____ . ____ . ____ . ____
 72
    65
 73
     4
 40
13.75
 49
9.75
 74
     0
 49
-1.5
 74
     0
 49
1.0
 74
     0
 49
-1.5
 74
     0
  0
LTYPE
  5
993A
330
4
100
AcDbSymbolTableRecord
100
AcDbLinetypeTableRecord
  2
CENTER
 70
     0
  3
Center ____ _ ____ _ ____ _ ____ _ ____ _ ____
 72
    65
 73
     4
 40
50.8
 49
31.75
 74
     0
 49
-6.35
 74
     0
 49
6.35
 74
     0
 49
-6.35
 74
     0
  0
LTYPE
  5
993B
330
4
100
AcDbSymbolTableRecord
100
AcDbLinetypeTableRecord
  2
DASHED
 70
     0
  3
Dashed __ __ __ __ __ __ __ __ __ __ __ __ __ _
 72
    65
 73
     2
 40
19.05
 49
12.7
 74
     0
 49
-6.35
 74
     0
  0
ENDTAB
  0
TABLE
  2
LAYER
  5
2
102
{ACAD_XDICTIONARY
360
2E1
102
}
330
0
100
AcDbSymbolTable
 70
     9
  0
LAYER
  5
14
330
2
100
AcDbSymbolTableRecord
100
AcDbLayerTableRecord
  2
0
 70
     0
 62
     7
  6
Continuous
370
    -3
390
1D
347
266
  0
LAYER
  5
4A
330
2
100
AcDbSymbolTableRecord
100
AcDbLayerTableRecord
  2
Defpoints
 70
     0
 62
     7
  6
Continuous
290
     0
370
     9
390
1D
347
266
  0
LAYER
  5
4B
330
2
100
AcDbSymbolTableRecord
100
AcDbLayerTableRecord
  2
TEMPLATE
 70
     0
 62
     4
  6
Continuous
290
     0
370
    20
390
1D
347
266
  0
LAYER
  5
4D
330
2
100
AcDbSymbolTableRecord
100
AcDbLayerTableRecord
  2
MODEL
 70
     0
 62
     7
  6
Continuous
370
    20
390
1D
347
266
  0
LAYER
  5
382
330
2
100
AcDbSymbolTableRecord
100
AcDbLayerTableRecord
  2
LOGO
 70
     0
 62
     7
  6
Continuous
370
    -3
390
1D
347
266
  0
LAYER
  5
B7A
330
2
100
AcDbSymbolTableRecord
100
AcDbLayerTableRecord
  2
DIM
 70
     0
 62
     7
  6
Continuous
370
    13
390
1D
347
266
1001
AcAecLayerStandard
1000

1000

  0
LAYER
  5
3B0F
330
2
100
AcDbSymbolTableRecord
100
AcDbLayerTableRecord
  2
_0-7_
 70
     0
 62
     7
  6
Continuous
370
    -3
390
1D
347
266
  0
LAYER
  5
95C1
330
2
100
AcDbSymbolTableRecord
100
AcDbLayerTableRecord
  2
MODEL GRAY
 70
     0
 62
   252
  6
Continuous
370
    20
390
1D
347
266
1001
AcAecLayerStandard
1000

1000

  0
LAYER
  5
9938
330
2
100
AcDbSymbolTableRecord
100
AcDbLayerTableRecord
  2
LY_1
 70
     0
 62
   151
  6
Continuous
370
    -3
390
1D
347
266
  0
ENDTAB
  0
TABLE
  2
STYLE
  5
3
330
0
100
AcDbSymbolTable
 70
     5
  0
STYLE
  5
17
330
3
100
AcDbSymbolTableRecord
100
AcDbTextStyleTableRecord
  2
Standard
 70
     0
 40
0.0
 41
1.0
 50
0.0
 71
     0
 42
533.0403732820173
  3
txt
  4
BIGFONT.SHX
  0
STYLE
  5
39
330
3
100
AcDbSymbolTableRecord
100
AcDbTextStyleTableRecord
  2
ＭＳ ゴシック
 70
     0
 40
0.0
 41
1.0
 50
0.0
 71
     0
 42
533.0403732820173
  3
msgothic.ttc
  4
ＭＳ ゴシック
1001
ACAD
1000
ＭＳ ゴシック
1071
        0
  0
STYLE
  5
993D
330
3
100
AcDbSymbolTableRecord
100
AcDbTextStyleTableRecord
  2
MX_NOTE_STANDARD
 70
     0
 40
0.0
 41
1.0
 50
0.0
 71
     0
 42
533.0403732820173
  3
txt.shx
  4
extfont.shx
  0
STYLE
  5
9945
330
3
100
AcDbSymbolTableRecord
100
AcDbTextStyleTableRecord
  2
MX_DIMTXSTY_3
 70
     0
 40
0.0
 41
1.35
 50
0.0
 71
     0
 42
533.0403732820173
  3
txt.shx
  4
extfont.shx
  0
STYLE
  5
9946
330
3
100
AcDbSymbolTableRecord
100
AcDbTextStyleTableRecord
  2
MX_DIMTXSTY_4
 70
     0
 40
0.0
 41
1.25
 50
0.0
 71
     0
 42
533.0403732820173
  3
txt.shx
  4
extfont.shx
  0
ENDTAB
  0
TABLE
  2
VIEW
  5
5
330
0
100
AcDbSymbolTable
 70
     0
  0
ENDTAB
  0
TABLE
  2
UCS
  5
6
330
0
100
AcDbSymbolTable
 70
     0
  0
ENDTAB
  0
TABLE
  2
APPID
  5
8
330
0
100
AcDbSymbolTable
 70
    13
  0
APPID
  5
16
330
8
100
AcDbSymbolTableRecord
100
AcDbRegAppTableRecord
  2
ACAD
 70
     0
  0
APPID
  5
5C5
330
8
100
AcDbSymbolTableRecord
100
AcDbRegAppTableRecord
  2
AcAecLayerStandard
 70
     0
  0
APPID
  5
694
330
8
100
AcDbSymbolTableRecord
100
AcDbRegAppTableRecord
  2
ACAD_DSTYLE_DIMJAG
 70
     0
  0
APPID
  5
695
330
8
100
AcDbSymbolTableRecord
100
AcDbRegAppTableRecord
  2
ACAD_DSTYLE_DIMTALN
 70
     0
  0
APPID
  5
69A
330
8
100
AcDbSymbolTableRecord
100
AcDbRegAppTableRecord
  2
ACAD_PSEXT
 70
     0
  0
APPID
  5
2499
330
8
100
AcDbSymbolTableRecord
100
AcDbRegAppTableRecord
  2
GENIUS_GENODEF_13
 70
     0
  0
APPID
  5
249A
330
8
100
AcDbSymbolTableRecord
100
AcDbRegAppTableRecord
  2
GENIUS_GENOBJ-N-FIL_13
 70
     0
  0
APPID
  5
249C
330
8
100
AcDbSymbolTableRecord
100
AcDbRegAppTableRecord
  2
AECBASE
 70
     0
  0
APPID
  5
249D
330
8
100
AcDbSymbolTableRecord
100
AcDbRegAppTableRecord
  2
AEC_2DSECTION_XDATA
 70
     0
  0
APPID
  5
249E
330
8
100
AcDbSymbolTableRecord
100
AcDbRegAppTableRecord
  2
AEC_MASSGROUP_XDADA
 70
     0
  0
APPID
  5
6EA7
330
8
100
AcDbSymbolTableRecord
100
AcDbRegAppTableRecord
  2
GENIUS_GENREC_14
 70
     0
  0
APPID
  5
6EA8
330
8
100
AcDbSymbolTableRecord
100
AcDbRegAppTableRecord
  2
GENIUS_GENOBJ-N-REC_13
 70
     0
  0
APPID
  5
9933
330
8
100
AcDbSymbolTableRecord
100
AcDbRegAppTableRecord
  2
ACAD_MLEADERVER
 70
     0
  0
ENDTAB
  0
TABLE
  2
DIMSTYLE
  5
9
330
0
100
AcDbSymbolTable
 70
     4
100
AcDbDimStyleTable
  0
DIMSTYLE
105
18
330
9
100
AcDbSymbolTableRecord
100
AcDbDimStyleTableRecord
  2
Standard
 70
     0
178
     0
340
17
  0
DIMSTYLE
105
5C
102
{ACAD_REACTORS
330
8D4A
330
8E0B
330
8E33
330
8E42
330
8E51
330
8E94
330
8E95
330
8E96
330
8F04
330
8F14
330
8FF4
330
91CA
330
9299
330
92E4
330
952D
330
96A8
330
9795
330
9913
330
9A3D
330
9A49
330
9A4A
330
9A4B
330
9A4C
330
9A4D
102
}
330
9
100
AcDbSymbolTableRecord
100
AcDbDimStyleTableRecord
  2
JIS
 70
     0
  3
<>
  4
[]
 41
9.0
 42
0.0
 43
6.99999999999994
 44
19.9999999999962
 73
     0
 74
     0
 77
     1
 78
    11
140
24.4326171875
141
0.0
143
1.0
147
10.0
171
     1
174
     1
178
     0
179
     2
271
     1
272
     1
276
     2
284
    11
285
    11
286
    11
289
     0
340
39
341
4E
342
4E
  0
DIMSTYLE
105
993C
330
9
100
AcDbSymbolTableRecord
100
AcDbDimStyleTableRecord
  2
MXDIMSTYLE
 70
     0
 41
2.5
 42
1.5
 43
3.75
 44
1.5
 73
     0
 74
     0
 77
     1
 78
     8
140
2.5
141
2.5
143
0.03937
147
0.5
171
     4
172
     1
173
     1
178
     0
271
     2
272
     2
274
     4
283
     0
340
993D
341
993E
343
993E
344
993E
  0
DIMSTYLE
105
9944
102
{ACAD_REACTORS
330
997B
330
9996
330
99A3
330
99AF
330
99BF
330
99CC
102
}
330
9
100
AcDbSymbolTableRecord
100
AcDbDimStyleTableRecord
  2
MX_DIMSTYLE_1_5
 70
     0
 41
2.5
 42
1.5
 43
3.75
 44
1.5
 73
     0
 74
     0
 77
     1
 78
     8
140
2.5
141
2.5
143
0.03937
144
5.0
147
0.5
171
     4
172
     1
173
     1
178
     0
271
     2
272
     2
274
     4
283
     0
340
993D
341
993E
343
993E
344
993E
  0
ENDTAB
  0
TABLE
  2
BLOCK_RECORD
  5
1
330
0
100
AcDbSymbolTable
 70
    41
  0
BLOCK_RECORD
  5
A
330
1
100
AcDbSymbolTableRecord
100
AcDbBlockTableRecord
  2
*MODEL_SPACE
340
20
 70
     0
280
     1
281
     0
  0
BLOCK_RECORD
  5
B
330
1
100
AcDbSymbolTableRecord
100
AcDbBlockTableRecord
  2
*PAPER_SPACE
340
21
 70
     0
280
     1
281
     0
  0
BLOCK_RECORD
  5
4E
330
1
100
AcDbSymbolTableRecord
100
AcDbBlockTableRecord
  2
_DOT
340
0
102
{BLKREFS
331
8D53
331
8D54
331
8E12
331
8E13
331
8E3C
331
8E3D
331
8E4B
331
8E4C
331
8E5A
331
8E5B
331
8ED7
331
8ED8
331
8EE3
331
8EE4
331
8F0D
331
8F0E
331
8F1D
331
8F1E
331
8FFD
331
8FFE
331
91D1
331
91D2
331
92A2
331
92A3
331
92ED
331
92EE
331
9536
331
9537
331
991C
331
991D
331
0
331
9A6F
331
0
102
}
 70
     0
280
     1
281
     0
  0
BLOCK_RECORD
  5
3A5
330
1
100
AcDbSymbolTableRecord
100
AcDbBlockTableRecord
  2
名称未設定-1
340
0
102
{BLKREFS
331
750D
102
}
 70
     1
280
     1
281
     0
  0
BLOCK_RECORD
  5
3A8
330
1
100
AcDbSymbolTableRecord
100
AcDbBlockTableRecord
  2
block 2
340
0
102
{BLKREFS
331
3A7
102
}
 70
     0
280
     1
281
     0
  0
BLOCK_RECORD
  5
3AB
330
1
100
AcDbSymbolTableRecord
100
AcDbBlockTableRecord
  2
block 3
340
0
102
{BLKREFS
331
3AA
102
}
 70
     0
280
     1
281
     0
  0
BLOCK_RECORD
  5
3AE
330
1
100
AcDbSymbolTableRecord
100
AcDbBlockTableRecord
  2
block 4
340
0
102
{BLKREFS
331
3AD
102
}
 70
     0
280
     1
281
     0
  0
BLOCK_RECORD
  5
3BD
330
1
100
AcDbSymbolTableRecord
100
AcDbBlockTableRecord
  2
block 5
340
0
102
{BLKREFS
331
3BC
102
}
 70
     0
280
     1
281
     0
  0
BLOCK_RECORD
  5
8D4D
330
1
100
AcDbSymbolTableRecord
100
AcDbBlockTableRecord
  2
*D6
340
0
 70
     0
280
     1
281
     0
  0
BLOCK_RECORD
  5
8E0C
330
1
100
AcDbSymbolTableRecord
100
AcDbBlockTableRecord
  2
*D7
340
0
 70
     0
280
     1
281
     0
  0
BLOCK_RECORD
  5
8E36
330
1
100
AcDbSymbolTableRecord
100
AcDbBlockTableRecord
  2
*D8
340
0
 70
     0
280
     1
281
     0
  0
BLOCK_RECORD
  5
8E45
330
1
100
AcDbSymbolTableRecord
100
AcDbBlockTableRecord
  2
*D9
340
0
 70
     0
280
     1
281
     0
  0
BLOCK_RECORD
  5
8E54
330
1
100
AcDbSymbolTableRecord
100
AcDbBlockTableRecord
  2
*D10
340
0
 70
     0
280
     1
281
     0
  0
BLOCK_RECORD
  5
8ED1
330
1
100
AcDbSymbolTableRecord
100
AcDbBlockTableRecord
  2
*D11
340
0
 70
     0
280
     1
281
     0
  0
BLOCK_RECORD
  5
8EDD
330
1
100
AcDbSymbolTableRecord
100
AcDbBlockTableRecord
  2
*D12
340
0
 70
     0
280
     1
281
     0
  0
BLOCK_RECORD
  5
8F07
330
1
100
AcDbSymbolTableRecord
100
AcDbBlockTableRecord
  2
*D13
340
0
 70
     0
280
     1
281
     0
  0
BLOCK_RECORD
  5
8F17
330
1
100
AcDbSymbolTableRecord
100
AcDbBlockTableRecord
  2
*D14
340
0
 70
     0
280
     1
281
     0
  0
BLOCK_RECORD
  5
8FF7
330
1
100
AcDbSymbolTableRecord
100
AcDbBlockTableRecord
  2
*D15
340
0
 70
     0
280
     1
281
     0
  0
BLOCK_RECORD
  5
91CB
330
1
100
AcDbSymbolTableRecord
100
AcDbBlockTableRecord
  2
*D16
340
0
 70
     0
280
     1
281
     0
  0
BLOCK_RECORD
  5
929C
330
1
100
AcDbSymbolTableRecord
100
AcDbBlockTableRecord
  2
*D17
340
0
 70
     0
280
     1
281
     0
  0
BLOCK_RECORD
  5
92E7
330
1
100
AcDbSymbolTableRecord
100
AcDbBlockTableRecord
  2
*D18
340
0
 70
     0
280
     1
281
     0
  0
BLOCK_RECORD
  5
9530
330
1
100
AcDbSymbolTableRecord
100
AcDbBlockTableRecord
  2
*D19
340
0
 70
     0
280
     1
281
     0
  0
BLOCK_RECORD
  5
9916
330
1
100
AcDbSymbolTableRecord
100
AcDbBlockTableRecord
  2
*D20
340
0
 70
     0
280
     1
281
     0
  0
BLOCK_RECORD
  5
993E
330
1
100
AcDbSymbolTableRecord
100
AcDbBlockTableRecord
  2
_OPEN30
340
0
102
{BLKREFS
331
9984
331
9985
331
999C
331
999D
331
99A8
331
99A9
331
99B8
331
99B9
331
99C5
331
99C6
331
99D2
331
99D3
331
99E3
331
99E4
331
99EF
331
99F0
331
99FA
331
99FB
331
9A09
331
9A0A
331
9A15
331
9A16
331
9A21
331
9A22
331
0
331
9A57
331
9A62
331
9A63
331
0
331
9A6E
331
0
331
0
331
9A88
331
9A89
331
9A94
331
9A95
331
9A7D
331
9A7C
331
0
331
9A7B
102
}
 70
     0
280
     1
281
     0
  0
BLOCK_RECORD
  5
997C
330
1
100
AcDbSymbolTableRecord
100
AcDbBlockTableRecord
  2
*D23
340
0
 70
     0
280
     1
281
     0
  0
BLOCK_RECORD
  5
9997
330
1
100
AcDbSymbolTableRecord
100
AcDbBlockTableRecord
  2
*D24
340
0
 70
     0
280
     1
281
     0
  0
BLOCK_RECORD
  5
99A4
330
1
100
AcDbSymbolTableRecord
100
AcDbBlockTableRecord
  2
*D25
340
0
 70
     0
280
     1
281
     0
  0
BLOCK_RECORD
  5
99B0
330
1
100
AcDbSymbolTableRecord
100
AcDbBlockTableRecord
  2
*D26
340
0
 70
     0
280
     1
281
     0
  0
BLOCK_RECORD
  5
99C0
330
1
100
AcDbSymbolTableRecord
100
AcDbBlockTableRecord
  2
*D27
340
0
 70
     0
280
     1
281
     0
  0
BLOCK_RECORD
  5
99CD
330
1
100
AcDbSymbolTableRecord
100
AcDbBlockTableRecord
  2
*D28
340
0
 70
     0
280
     1
281
     0
  0
BLOCK_RECORD
  5
99DC
330
1
100
AcDbSymbolTableRecord
100
AcDbBlockTableRecord
  2
*D29
340
0
 70
     0
280
     1
281
     0
  0
BLOCK_RECORD
  5
99E9
330
1
100
AcDbSymbolTableRecord
100
AcDbBlockTableRecord
  2
*D30
340
0
 70
     0
280
     1
281
     0
  0
BLOCK_RECORD
  5
99F5
330
1
100
AcDbSymbolTableRecord
100
AcDbBlockTableRecord
  2
*D31
340
0
 70
     0
280
     1
281
     0
  0
BLOCK_RECORD
  5
9A00
330
1
100
AcDbSymbolTableRecord
100
AcDbBlockTableRecord
  2
*D32
340
0
 70
     0
280
     1
281
     0
  0
BLOCK_RECORD
  5
9A0F
330
1
100
AcDbSymbolTableRecord
100
AcDbBlockTableRecord
  2
*D33
340
0
 70
     0
280
     1
281
     0
  0
BLOCK_RECORD
  5
9A1B
330
1
100
AcDbSymbolTableRecord
100
AcDbBlockTableRecord
  2
*D34
340
0
 70
     0
280
     1
281
     0
  0
BLOCK_RECORD
  5
9A4F
330
1
100
AcDbSymbolTableRecord
100
AcDbBlockTableRecord
  2
*D35
340
0
 70
     0
280
     1
281
     0
  0
BLOCK_RECORD
  5
9A5C
330
1
100
AcDbSymbolTableRecord
100
AcDbBlockTableRecord
  2
*D36
340
0
 70
     0
280
     1
281
     0
  0
BLOCK_RECORD
  5
9A68
330
1
100
AcDbSymbolTableRecord
100
AcDbBlockTableRecord
  2
*D37
340
0
 70
     0
280
     1
281
     0
  0
BLOCK_RECORD
  5
9A73
330
1
100
AcDbSymbolTableRecord
100
AcDbBlockTableRecord
  2
*D38
340
0
 70
     0
280
     1
281
     0
  0
BLOCK_RECORD
  5
9A82
330
1
100
AcDbSymbolTableRecord
100
AcDbBlockTableRecord
  2
*D39
340
0
 70
     0
280
     1
281
     0
  0
BLOCK_RECORD
  5
9A8E
330
1
100
AcDbSymbolTableRecord
100
AcDbBlockTableRecord
  2
*D40
340
0
 70
     0
280
     1
281
     0
  0
ENDTAB
  0
ENDSEC
  0
SECTION
  2
BLOCKS
  0
BLOCK
  5
D
330
A
100
AcDbEntity
  8
0
390
1D
100
AcDbBlockBegin
  2
*MODEL_SPACE
 70
     0
 10
0.0
 20
0.0
 30
0.0
  3
*MODEL_SPACE
  1
*MODEL_SPACE
  0
ENDBLK
  5
E
330
A
100
AcDbEntity
  8
0
390
1D
100
AcDbBlockEnd
  0
BLOCK
  5
F
330
B
100
AcDbEntity
 67
     1
  8
0
390
1D
100
AcDbBlockBegin
  2
*PAPER_SPACE
 70
     0
 10
0.0
 20
0.0
 30
0.0
  3
*PAPER_SPACE
  1
*PAPER_SPACE
  0
ENDBLK
  5
10
330
B
100
AcDbEntity
 67
     1
  8
0
390
1D
100
AcDbBlockEnd
  0
BLOCK
  5
E45
330
4E
100
AcDbEntity
  8
0
390
1D
100
AcDbBlockBegin
  2
_DOT
 70
     0
 10
0.0
 20
0.0
 30
0.0
  3
_DOT
  1
_DOT
  0
POLYLINE
  5
E47
330
4E
100
AcDbEntity
  8
0
  6
ByBlock
 62
     0
370
    -2
390
1D
100
AcDb2dPolyline
 66
     1
 10
0.0
 20
0.0
 30
0.0
 70
     1
 40
0.5
 41
0.5
  0
VERTEX
  5
E48
330
E47
100
AcDbEntity
  8
0
  6
ByBlock
 62
     0
370
    -2
390
1D
100
AcDbVertex
100
AcDb2dVertex
 10
-0.25
 20
0.0
 30
0.0
 42
1.0
  0
VERTEX
  5
E49
330
E47
100
AcDbEntity
  8
0
  6
ByBlock
 62
     0
370
    -2
390
1D
100
AcDbVertex
100
AcDb2dVertex
 10
0.25
 20
0.0
 30
0.0
 42
1.0
  0
SEQEND
  5
E4A
330
E47
100
AcDbEntity
  8
0
390
1D
  0
LINE
  5
E4B
330
4E
100
AcDbEntity
  8
0
  6
ByBlock
 62
     0
370
    -2
390
1D
100
AcDbLine
 10
-0.5
 20
0.0
 30
0.0
 11
-1.0
 21
0.0
 31
0.0
  0
ENDBLK
  5
E4C
330
4E
100
AcDbEntity
  8
0
390
1D
100
AcDbBlockEnd
  0
BLOCK
  5
3A6
330
3A5
100
AcDbEntity
  8
0
100
AcDbBlockBegin
  2
名称未設定-1
 70
     0
 10
0.0
 20
0.0
 30
0.0
  3
名称未設定-1
  1
名称未設定-1
  0
INSERT
  5
3A7
330
3A5
100
AcDbEntity
  8
LOGO
100
AcDbBlockReference
  2
block 2
 10
0.0
 20
0.0
 30
0.0
  0
ENDBLK
  5
3CC
330
3A5
100
AcDbEntity
  8
0
100
AcDbBlockEnd
  0
BLOCK
  5
3A9
330
3A8
100
AcDbEntity
  8
0
100
AcDbBlockBegin
  2
block 2
 70
     0
 10
0.0
 20
0.0
 30
0.0
  3
block 2
  1
block 2
  0
INSERT
  5
3AA
330
3A8
100
AcDbEntity
  8
LOGO
100
AcDbBlockReference
  2
block 3
 10
0.0
 20
0.0
 30
0.0
  0
ENDBLK
  5
3CB
330
3A8
100
AcDbEntity
  8
0
100
AcDbBlockEnd
  0
BLOCK
  5
3AC
330
3AB
100
AcDbEntity
  8
0
100
AcDbBlockBegin
  2
block 3
 70
     0
 10
0.0
 20
0.0
 30
0.0
  3
block 3
  1
block 3
  0
INSERT
  5
3AD
330
3AB
100
AcDbEntity
  8
LOGO
100
AcDbBlockReference
  2
block 4
 10
0.0
 20
0.0
 30
0.0
  0
ENDBLK
  5
3CA
330
3AB
100
AcDbEntity
  8
0
100
AcDbBlockEnd
  0
BLOCK
  5
3AF
330
3AE
100
AcDbEntity
  8
0
100
AcDbBlockBegin
  2
block 4
 70
     0
 10
0.0
 20
0.0
 30
0.0
  3
block 4
  1
block 4
  0
POLYLINE
  5
3B0
330
3AE
100
AcDbEntity
  8
LOGO
370
     0
100
AcDb2dPolyline
 66
     1
 10
0.0
 20
0.0
 30
0.0
  0
VERTEX
  5
3B1
330
3B0
100
AcDbEntity
  8
LOGO
370
     0
100
AcDbVertex
100
AcDb2dVertex
 10
83.79545727667795
 20
167.6444858234922
 30
0.0
  0
VERTEX
  5
3B2
330
3B0
100
AcDbEntity
  8
LOGO
370
     0
100
AcDbVertex
100
AcDb2dVertex
 10
83.79545727667795
 20
159.7968976406313
 30
0.0
  0
VERTEX
  5
3B3
330
3B0
100
AcDbEntity
  8
LOGO
370
     0
100
AcDbVertex
100
AcDb2dVertex
 10
71.3631329975216
 20
159.7968976406313
 30
0.0
  0
VERTEX
  5
3B4
330
3B0
100
AcDbEntity
  8
LOGO
370
     0
100
AcDbVertex
100
AcDb2dVertex
 10
71.3631329975216
 20
127.8027915271048
 30
0.0
  0
VERTEX
  5
3B5
330
3B0
100
AcDbEntity
  8
LOGO
370
     0
100
AcDbVertex
100
AcDb2dVertex
 10
60.43011526263018
 20
127.8027915271048
 30
0.0
  0
VERTEX
  5
3B6
330
3B0
100
AcDbEntity
  8
LOGO
370
     0
100
AcDbVertex
100
AcDb2dVertex
 10
60.43011526263018
 20
159.7968976406313
 30
0.0
  0
VERTEX
  5
3B7
330
3B0
100
AcDbEntity
  8
LOGO
370
     0
100
AcDbVertex
100
AcDb2dVertex
 10
48.21793273020759
 20
159.7968976406313
 30
0.0
  0
VERTEX
  5
3B8
330
3B0
100
AcDbEntity
  8
LOGO
370
     0
100
AcDbVertex
100
AcDb2dVertex
 10
48.21793273020759
 20
167.6444858234922
 30
0.0
  0
VERTEX
  5
3B9
330
3B0
100
AcDbEntity
  8
LOGO
370
     0
100
AcDbVertex
100
AcDb2dVertex
 10
83.79545727667795
 20
167.6444858234922
 30
0.0
  0
SEQEND
  5
3BA
330
3B0
100
AcDbEntity
  8
LOGO
370
     0
  0
HATCH
  5
3BB
330
3AE
100
AcDbEntity
  8
LOGO
 62
   250
420
  2234388
100
AcDbHatch
 10
0.0
 20
0.0
 30
0.0
210
0.0
220
0.0
230
1.0
  2
SOLID
 70
     1
 71
     0
 91
        1
 92
        1
 93
        8
 72
     1
 10
83.79545727667795
 20
167.6444858234922
 11
83.79545727667795
 21
159.7968976406313
 72
     1
 10
83.79545727667795
 20
159.7968976406313
 11
71.3631329975216
 21
159.7968976406313
 72
     1
 10
71.3631329975216
 20
159.7968976406313
 11
71.3631329975216
 21
127.8027915271048
 72
     1
 10
71.3631329975216
 20
127.8027915271048
 11
60.43011526263018
 21
127.8027915271048
 72
     1
 10
60.43011526263018
 20
127.8027915271048
 11
60.43011526263018
 21
159.7968976406313
 72
     1
 10
60.43011526263018
 20
159.7968976406313
 11
48.21793273020759
 21
159.7968976406313
 72
     1
 10
48.21793273020759
 20
159.7968976406313
 11
48.21793273020759
 21
167.6444858234922
 72
     1
 10
48.21793273020759
 20
167.6444858234922
 11
83.79545727667795
 21
167.6444858234922
 97
        0
 75
     2
 76
     1
 98
        0
  0
INSERT
  5
3BC
330
3AE
100
AcDbEntity
  8
LOGO
100
AcDbBlockReference
  2
block 5
 10
0.0
 20
0.0
 30
0.0
  0
ENDBLK
  5
3C9
330
3AE
100
AcDbEntity
  8
0
100
AcDbBlockEnd
  0
BLOCK
  5
3BE
330
3BD
100
AcDbEntity
  8
0
100
AcDbBlockBegin
  2
block 5
 70
     0
 10
0.0
 20
0.0
 30
0.0
  3
block 5
  1
block 5
  0
SPLINE
  5
3BF
330
3BD
100
AcDbEntity
  8
LOGO
370
     0
100
AcDbSpline
210
0.0
220
0.0
230
1.0
 70
    11
 71
     3
 72
    56
 73
    52
 74
     0
 42
0.000000001
 43
0.0000000001
 40
0.0
 40
0.0
 40
0.0
 40
0.0
 40
1.0
 40
1.0
 40
1.0
 40
2.0
 40
2.0
 40
2.0
 40
3.0
 40
3.0
 40
3.0
 40
4.0
 40
4.0
 40
4.0
 40
5.0
 40
5.0
 40
5.0
 40
6.0
 40
6.0
 40
6.0
 40
7.0
 40
7.0
 40
7.0
 40
8.0
 40
8.0
 40
8.0
 40
9.0
 40
9.0
 40
9.0
 40
10.0
 40
10.0
 40
10.0
 40
11.0
 40
11.0
 40
11.0
 40
12.0
 40
12.0
 40
12.0
 40
13.0
 40
13.0
 40
13.0
 40
14.0
 40
14.0
 40
14.0
 40
15.0
 40
15.0
 40
15.0
 40
16.0
 40
16.0
 40
16.0
 40
17.0
 40
17.0
 40
17.0
 40
17.0
 10
100.4504378777679
 20
166.69157178364
 30
0.0
 10
101.9848844191641
 20
167.1313385124438
 30
0.0
 10
103.9637485713373
 20
166.7649523658846
 30
0.0
 10
103.9637485713373
 20
166.7649523658846
 30
0.0
 10
103.9637485713373
 20
166.7649523658846
 30
0.0
 10
103.0132460999156
 20
163.911205638077
 30
0.0
 10
103.0132460999156
 20
163.911205638077
 30
0.0
 10
103.0132460999156
 20
163.911205638077
 30
0.0
 10
101.0674548862189
 20
164.3601018759394
 30
0.0
 10
99.57090442016032
 20
163.1805004036133
 30
0.0
 10
98.40508333886608
 20
162.258247733807
 30
0.0
 10
97.65301849830304
 20
159.804132345923
 30
0.0
 10
97.3598406791005
 20
158.8699940888517
 30
0.0
 10
97.3598406791005
 20
158.8699940888517
 30
0.0
 10
96.07137411762282
 20
154.9119212747295
 30
0.0
 10
96.07137411762282
 20
154.9119212747295
 30
0.0
 10
96.07137411762282
 20
154.9119212747295
 30
0.0
 10
100.3012651448482
 20
154.9119212747295
 30
0.0
 10
100.3012651448482
 20
154.9119212747295
 30
0.0
 10
100.3012651448482
 20
154.9119212747295
 30
0.0
 10
99.64152892419852
 20
152.4199098115079
 30
0.0
 10
99.64152892419852
 20
152.4199098115079
 30
0.0
 10
99.64152892419852
 20
152.4199098115079
 30
0.0
 10
95.38097652692731
 20
152.4199098115079
 30
0.0
 10
95.38097652692731
 20
152.4199098115079
 30
0.0
 10
95.38097652692731
 20
152.4199098115079
 30
0.0
 10
87.75353009080013
 20
127.8027915271048
 30
0.0
 10
87.75353009080013
 20
127.8027915271048
 30
0.0
 10
87.75353009080013
 20
127.8027915271048
 30
0.0
 10
85.36538832498108
 20
127.8027915271048
 30
0.0
 10
85.36538832498108
 20
127.8027915271048
 30
0.0
 10
85.36538832498108
 20
127.8027915271048
 30
0.0
 10
93.00006946639998
 20
152.4199098115079
 30
0.0
 10
93.00006946639998
 20
152.4199098115079
 30
0.0
 10
93.00006946639998
 20
152.4199098115079
 30
0.0
 10
89.85297266450198
 20
152.4199098115079
 30
0.0
 10
89.85297266450198
 20
152.4199098115079
 30
0.0
 10
89.85297266450198
 20
152.4199098115079
 30
0.0
 10
90.51270888515164
 20
154.9119212747295
 30
0.0
 10
90.51270888515164
 20
154.9119212747295
 30
0.0
 10
90.51270888515164
 20
154.9119212747295
 30
0.0
 10
93.6904670570955
 20
154.9119212747295
 30
0.0
 10
93.6904670570955
 20
154.9119212747295
 30
0.0
 10
93.6904670570955
 20
154.9119212747295
 30
0.0
 10
94.81598049462158
 20
158.3616699146644
 30
0.0
 10
94.81598049462158
 20
158.3616699146644
 30
0.0
 10
95.7237637538445
 20
161.2605474231013
 30
0.0
 10
96.4968436907311
 20
162.8139420021662
 30
0.0
 10
97.15657991138076
 20
163.9844139654337
 30
0.0
 10
97.81183750494507
 20
165.1523021053827
 30
0.0
 10
99.1047826935081
 20
166.3084769129547
 30
0.0
 10
100.4504378777679
 20
166.69157178364
 30
0.0
  0
HATCH
  5
3C0
330
3BD
100
AcDbEntity
  8
LOGO
 62
   250
420
  2234388
100
AcDbHatch
 10
0.0
 20
0.0
 30
0.0
210
0.0
220
0.0
230
1.0
  2
SOLID
 70
     1
 71
     0
 91
        1
 92
        1
 93
        1
 72
     4
 94
        3
 73
     0
 74
     1
 95
       56
 96
       52
 40
0.0
 40
0.0
 40
0.0
 40
0.0
 40
1.0
 40
1.0
 40
1.0
 40
2.0
 40
2.0
 40
2.0
 40
3.0
 40
3.0
 40
3.0
 40
4.0
 40
4.0
 40
4.0
 40
5.0
 40
5.0
 40
5.0
 40
6.0
 40
6.0
 40
6.0
 40
7.0
 40
7.0
 40
7.0
 40
8.0
 40
8.0
 40
8.0
 40
9.0
 40
9.0
 40
9.0
 40
10.0
 40
10.0
 40
10.0
 40
11.0
 40
11.0
 40
11.0
 40
12.0
 40
12.0
 40
12.0
 40
13.0
 40
13.0
 40
13.0
 40
14.0
 40
14.0
 40
14.0
 40
15.0
 40
15.0
 40
15.0
 40
16.0
 40
16.0
 40
16.0
 40
17.0
 40
17.0
 40
17.0
 40
17.0
 10
100.4504378777679
 20
166.69157178364
 10
101.9848844191641
 20
167.1313385124438
 10
103.9637485713373
 20
166.7649523658846
 10
103.9637485713373
 20
166.7649523658846
 10
103.9637485713373
 20
166.7649523658846
 10
103.0132460999156
 20
163.911205638077
 10
103.0132460999156
 20
163.911205638077
 10
103.0132460999156
 20
163.911205638077
 10
101.0674548862189
 20
164.3601018759394
 10
99.57090442016032
 20
163.1805004036133
 10
98.40508333886608
 20
162.258247733807
 10
97.65301849830304
 20
159.804132345923
 10
97.3598406791005
 20
158.8699940888517
 10
97.3598406791005
 20
158.8699940888517
 10
96.07137411762282
 20
154.9119212747295
 10
96.07137411762282
 20
154.9119212747295
 10
96.07137411762282
 20
154.9119212747295
 10
100.3012651448482
 20
154.9119212747295
 10
100.3012651448482
 20
154.9119212747295
 10
100.3012651448482
 20
154.9119212747295
 10
99.64152892419852
 20
152.4199098115079
 10
99.64152892419852
 20
152.4199098115079
 10
99.64152892419852
 20
152.4199098115079
 10
95.38097652692731
 20
152.4199098115079
 10
95.38097652692731
 20
152.4199098115079
 10
95.38097652692731
 20
152.4199098115079
 10
87.75353009080013
 20
127.8027915271048
 10
87.75353009080013
 20
127.8027915271048
 10
87.75353009080013
 20
127.8027915271048
 10
85.36538832498108
 20
127.8027915271048
 10
85.36538832498108
 20
127.8027915271048
 10
85.36538832498108
 20
127.8027915271048
 10
93.00006946639998
 20
152.4199098115079
 10
93.00006946639998
 20
152.4199098115079
 10
93.00006946639998
 20
152.4199098115079
 10
89.85297266450198
 20
152.4199098115079
 10
89.85297266450198
 20
152.4199098115079
 10
89.85297266450198
 20
152.4199098115079
 10
90.51270888515164
 20
154.9119212747295
 10
90.51270888515164
 20
154.9119212747295
 10
90.51270888515164
 20
154.9119212747295
 10
93.6904670570955
 20
154.9119212747295
 10
93.6904670570955
 20
154.9119212747295
 10
93.6904670570955
 20
154.9119212747295
 10
94.81598049462158
 20
158.3616699146644
 10
94.81598049462158
 20
158.3616699146644
 10
95.7237637538445
 20
161.2605474231013
 10
96.4968436907311
 20
162.8139420021662
 10
97.15657991138076
 20
163.9844139654337
 10
97.81183750494507
 20
165.1523021053827
 10
99.1047826935081
 20
166.3084769129547
 10
100.4504378777679
 20
166.69157178364
 97
        0
 75
     2
 76
     1
 98
        0
  0
SPLINE
  5
3C1
330
3BD
100
AcDbEntity
  8
LOGO
370
     0
100
AcDbSpline
210
0.0
220
0.0
230
1.0
 70
    11
 71
     3
 72
    38
 73
    34
 74
     0
 42
0.000000001
 43
0.0000000001
 40
0.0
 40
0.0
 40
0.0
 40
0.0
 40
1.0
 40
1.0
 40
1.0
 40
2.0
 40
2.0
 40
2.0
 40
3.0
 40
3.0
 40
3.0
 40
4.0
 40
4.0
 40
4.0
 40
5.0
 40
5.0
 40
5.0
 40
6.0
 40
6.0
 40
6.0
 40
7.0
 40
7.0
 40
7.0
 40
8.0
 40
8.0
 40
8.0
 40
9.0
 40
9.0
 40
9.0
 40
10.0
 40
10.0
 40
10.0
 40
11.0
 40
11.0
 40
11.0
 40
11.0
 10
126.377554584636
 20
154.8151140277308
 30
0.0
 10
126.377554584636
 20
154.8151140277308
 30
0.0
 10
128.8311532078563
 20
154.8151140277308
 30
0.0
 10
128.8311532078563
 20
154.8151140277308
 30
0.0
 10
128.8311532078563
 20
154.8151140277308
 30
0.0
 10
127.7345785914971
 20
151.3062819612468
 30
0.0
 10
127.7345785914971
 20
151.3062819612468
 30
0.0
 10
128.571392836906
 20
152.2922689395754
 30
0.0
 10
129.8860421413442
 20
153.604506675583
 30
0.0
 10
131.0163787157314
 20
154.2664822097754
 30
0.0
 10
132.7044766171327
 20
155.2500576196734
 30
0.0
 10
133.6642808525008
 20
155.3847609420097
 30
0.0
 10
134.7284715499351
 20
155.3565111403944
 30
0.0
 10
134.7284715499351
 20
155.3565111403944
 30
0.0
 10
133.6877075172549
 20
152.0345756272799
 30
0.0
 10
133.6877075172549
 20
152.0345756272799
 30
0.0
 10
133.011434827367
 20
152.3184516825359
 30
0.0
 10
130.930940291334
 20
151.7768823149844
 30
0.0
 10
129.739280976855
 20
150.9162968950455
 30
0.0
 10
128.66613302525
 20
150.1454562717016
 30
0.0
 10
127.9192358313239
 20
149.4857200510519
 30
0.0
 10
127.0393578639405
 20
147.8282835196966
 30
0.0
 10
126.164647543194
 20
146.1699857139017
 30
0.0
 10
125.4742499524985
 20
143.5262176944419
 30
0.0
 10
124.2822461282437
 20
139.6959580071401
 30
0.0
 10
124.2822461282437
 20
139.6959580071401
 30
0.0
 10
120.5753209406769
 20
127.8027915271048
 30
0.0
 10
120.5753209406769
 20
127.8027915271048
 30
0.0
 10
120.5753209406769
 20
127.8027915271048
 30
0.0
 10
118.1964809388044
 20
127.8027915271048
 30
0.0
 10
118.1964809388044
 20
127.8027915271048
 30
0.0
 10
118.1964809388044
 20
127.8027915271048
 30
0.0
 10
126.377554584636
 20
154.8151140277308
 30
0.0
 10
126.377554584636
 20
154.8151140277308
 30
0.0
  0
HATCH
  5
3C2
330
3BD
100
AcDbEntity
  8
LOGO
 62
   250
420
  2234388
100
AcDbHatch
 10
0.0
 20
0.0
 30
0.0
210
0.0
220
0.0
230
1.0
  2
SOLID
 70
     1
 71
     0
 91
        1
 92
        1
 93
        1
 72
     4
 94
        3
 73
     0
 74
     1
 95
       38
 96
       34
 40
0.0
 40
0.0
 40
0.0
 40
0.0
 40
1.0
 40
1.0
 40
1.0
 40
2.0
 40
2.0
 40
2.0
 40
3.0
 40
3.0
 40
3.0
 40
4.0
 40
4.0
 40
4.0
 40
5.0
 40
5.0
 40
5.0
 40
6.0
 40
6.0
 40
6.0
 40
7.0
 40
7.0
 40
7.0
 40
8.0
 40
8.0
 40
8.0
 40
9.0
 40
9.0
 40
9.0
 40
10.0
 40
10.0
 40
10.0
 40
11.0
 40
11.0
 40
11.0
 40
11.0
 10
126.377554584636
 20
154.8151140277308
 10
126.377554584636
 20
154.8151140277308
 10
128.8311532078563
 20
154.8151140277308
 10
128.8311532078563
 20
154.8151140277308
 10
128.8311532078563
 20
154.8151140277308
 10
127.7345785914971
 20
151.3062819612468
 10
127.7345785914971
 20
151.3062819612468
 10
128.571392836906
 20
152.2922689395754
 10
129.8860421413442
 20
153.604506675583
 10
131.0163787157314
 20
154.2664822097754
 10
132.7044766171327
 20
155.2500576196734
 10
133.6642808525008
 20
155.3847609420097
 10
134.7284715499351
 20
155.3565111403944
 10
134.7284715499351
 20
155.3565111403944
 10
133.6877075172549
 20
152.0345756272799
 10
133.6877075172549
 20
152.0345756272799
 10
133.011434827367
 20
152.3184516825359
 10
130.930940291334
 20
151.7768823149844
 10
129.739280976855
 20
150.9162968950455
 10
128.66613302525
 20
150.1454562717016
 10
127.9192358313239
 20
149.4857200510519
 10
127.0393578639405
 20
147.8282835196966
 10
126.164647543194
 20
146.1699857139017
 10
125.4742499524985
 20
143.5262176944419
 10
124.2822461282437
 20
139.6959580071401
 10
124.2822461282437
 20
139.6959580071401
 10
120.5753209406769
 20
127.8027915271048
 10
120.5753209406769
 20
127.8027915271048
 10
120.5753209406769
 20
127.8027915271048
 10
118.1964809388044
 20
127.8027915271048
 10
118.1964809388044
 20
127.8027915271048
 10
118.1964809388044
 20
127.8027915271048
 10
126.377554584636
 20
154.8151140277308
 10
126.377554584636
 20
154.8151140277308
 97
        0
 75
     2
 76
     1
 98
        0
  0
SPLINE
  5
3C3
330
3BD
100
AcDbEntity
  8
LOGO
370
     0
100
AcDbSpline
210
0.0
220
0.0
230
1.0
 70
    11
 71
     3
 72
   104
 73
   100
 74
     0
 42
0.000000001
 43
0.0000000001
 40
0.0
 40
0.0
 40
0.0
 40
0.0
 40
1.0
 40
1.0
 40
1.0
 40
2.0
 40
2.0
 40
2.0
 40
3.0
 40
3.0
 40
3.0
 40
4.0
 40
4.0
 40
4.0
 40
5.0
 40
5.0
 40
5.0
 40
6.0
 40
6.0
 40
6.0
 40
7.0
 40
7.0
 40
7.0
 40
8.0
 40
8.0
 40
8.0
 40
9.0
 40
9.0
 40
9.0
 40
10.0
 40
10.0
 40
10.0
 40
11.0
 40
11.0
 40
11.0
 40
12.0
 40
12.0
 40
12.0
 40
13.0
 40
13.0
 40
13.0
 40
14.0
 40
14.0
 40
14.0
 40
15.0
 40
15.0
 40
15.0
 40
16.0
 40
16.0
 40
16.0
 40
17.0
 40
17.0
 40
17.0
 40
18.0
 40
18.0
 40
18.0
 40
19.0
 40
19.0
 40
19.0
 40
20.0
 40
20.0
 40
20.0
 40
21.0
 40
21.0
 40
21.0
 40
22.0
 40
22.0
 40
22.0
 40
23.0
 40
23.0
 40
23.0
 40
24.0
 40
24.0
 40
24.0
 40
25.0
 40
25.0
 40
25.0
 40
26.0
 40
26.0
 40
26.0
 40
27.0
 40
27.0
 40
27.0
 40
28.0
 40
28.0
 40
28.0
 40
29.0
 40
29.0
 40
29.0
 40
30.0
 40
30.0
 40
30.0
 40
31.0
 40
31.0
 40
31.0
 40
32.0
 40
32.0
 40
32.0
 40
33.0
 40
33.0
 40
33.0
 40
33.0
 10
139.8926730891197
 20
154.8294111834263
 30
0.0
 10
139.8926730891197
 20
154.8294111834263
 30
0.0
 10
142.0344903652445
 20
154.8294111834263
 30
0.0
 10
142.0344903652445
 20
154.8294111834263
 30
0.0
 10
142.0344903652445
 20
154.8294111834263
 30
0.0
 10
140.9516961399171
 20
151.3157559800812
 30
0.0
 10
140.9516961399171
 20
151.3157559800812
 30
0.0
 10
141.8928968473923
 20
152.7887075264977
 30
0.0
 10
142.7341897198865
 20
153.4484437471474
 30
0.0
 10
143.8552245303272
 20
154.2926649527359
 30
0.0
 10
144.9803934580775
 20
155.1296514530327
 30
0.0
 10
146.3139908001845
 20
155.3044901642492
 30
0.0
 10
147.241066606852
 20
155.3044901642492
 30
0.0
 10
148.3855280820469
 20
155.3044901642492
 30
0.0
 10
149.4969166187653
 20
155.0752189084569
 30
0.0
 10
150.0784491203092
 20
153.8172414621372
 30
0.0
 10
150.5228667310863
 20
152.833838307127
 30
0.0
 10
150.5414702589793
 20
152.7201500811143
 30
0.0
 10
150.4140016419347
 20
150.7765981809602
 30
0.0
 10
151.5818897818837
 20
152.7699317437168
 30
0.0
 10
152.4424752018226
 20
153.6256940267945
 30
0.0
 10
153.9038856707499
 20
154.4507949398263
 30
0.0
 10
155.4455669174378
 20
155.3044901642492
 30
0.0
 10
156.339225275853
 20
155.3659851592288
 30
0.0
 10
157.3748216618963
 20
155.2147453676543
 30
0.0
 10
158.911679771723
 20
154.9877134254046
 30
0.0
 10
159.8859534176746
 20
154.4390816074493
 30
0.0
 10
160.3965169054045
 20
152.7816450760939
 30
0.0
 10
160.9070803931344
 20
151.1219692311958
 30
0.0
 10
160.6328506116007
 20
150.2303779314354
 30
0.0
 10
159.9992971339115
 20
147.597634224801
 30
0.0
 10
159.7105979417943
 20
146.4014962832367
 30
0.0
 10
159.2947746424084
 20
144.9400858143094
 30
0.0
 10
158.7463150793409
 20
143.2092687007094
 30
0.0
 10
158.7463150793409
 20
143.2092687007094
 30
0.0
 10
153.9038856707499
 20
127.8027915271048
 30
0.0
 10
153.9038856707499
 20
127.8027915271048
 30
0.0
 10
153.9038856707499
 20
127.8027915271048
 30
0.0
 10
151.3882752878863
 20
127.8027915271048
 30
0.0
 10
151.3882752878863
 20
127.8027915271048
 30
0.0
 10
151.3882752878863
 20
127.8027915271048
 30
0.0
 10
155.6250565106276
 20
141.2751908193897
 30
0.0
 10
155.6250565106276
 20
141.2751908193897
 30
0.0
 10
156.5094131050963
 20
144.0936252951782
 30
0.0
 10
157.109893644309
 20
146.1506931664571
 30
0.0
 10
157.4220195011804
 20
147.4415712963654
 30
0.0
 10
157.8095929989511
 20
149.0530157726519
 30
0.0
 10
157.9656559273867
 20
149.5826995529385
 30
0.0
 10
157.7816877071116
 20
150.7529992613181
 30
0.0
 10
157.6111553680925
 20
151.8430281919372
 30
0.0
 10
157.0582171779396
 20
152.5547853887321
 30
0.0
 10
156.1170164704645
 20
152.5547853887321
 30
0.0
 10
155.1096698860365
 20
152.5547853887321
 30
0.0
 10
154.2962823053817
 20
152.4412694176073
 30
0.0
 10
153.156643967048
 20
151.2945686288697
 30
0.0
 10
152.0170056287143
 20
150.1476955852443
 30
0.0
 10
151.076149431015
 20
148.7930831468137
 30
0.0
 10
150.3337308641742
 20
147.2290087646991
 30
0.0
 10
149.5957909244188
 20
145.6683794803425
 30
0.0
 10
148.8530278478023
 20
143.6822806228776
 30
0.0
 10
148.0964843801539
 20
141.2751908193897
 30
0.0
 10
148.0964843801539
 20
141.2751908193897
 30
0.0
 10
143.8552245303272
 20
127.8027915271048
 30
0.0
 10
143.8552245303272
 20
127.8027915271048
 30
0.0
 10
143.8552245303272
 20
127.8027915271048
 30
0.0
 10
141.486030802177
 20
127.8027915271048
 30
0.0
 10
141.486030802177
 20
127.8027915271048
 30
0.0
 10
141.486030802177
 20
127.8027915271048
 30
0.0
 10
146.3329388378533
 20
143.2092687007094
 30
0.0
 10
146.3329388378533
 20
143.2092687007094
 30
0.0
 10
146.8483254624444
 20
144.8408669988801
 30
0.0
 10
147.2314203331297
 20
146.1837661049335
 30
0.0
 10
147.4867020769946
 20
147.224185627838
 30
0.0
 10
147.9169947869641
 20
149.0197705792876
 30
0.0
 10
148.0306830129768
 20
150.2400242051577
 30
0.0
 10
147.709255392159
 20
151.3157559800812
 30
0.0
 10
147.3874832615654
 20
152.3916600098926
 30
0.0
 10
146.8245542879144
 20
152.6683013598569
 30
0.0
 10
145.8840425999909
 20
152.6683013598569
 30
0.0
 10
145.0989048209514
 20
152.6683013598569
 30
0.0
 10
144.3282364524954
 20
152.3275811915945
 30
0.0
 10
143.4531816219731
 20
151.6538923250251
 30
0.0
 10
142.34627171234
 20
150.8074318058939
 30
0.0
 10
141.901854101563
 20
150.1097995099067
 30
0.0
 10
141.3578731655808
 20
149.289521733736
 30
0.0
 10
140.6299240093235
 20
148.192602607601
 30
0.0
 10
140.2850697237515
 20
147.455696197173
 30
0.0
 10
139.6652966370942
 20
145.8385673095858
 30
0.0
 10
139.0506911970739
 20
144.2214384219986
 30
0.0
 10
138.463991048893
 20
142.3252566160164
 30
0.0
 10
138.0571250036777
 20
141.0154304484394
 30
0.0
 10
138.0571250036777
 20
141.0154304484394
 30
0.0
 10
133.9009590684727
 20
127.8027915271048
 30
0.0
 10
133.9009590684727
 20
127.8027915271048
 30
0.0
 10
133.9009590684727
 20
127.8027915271048
 30
0.0
 10
131.4180771143097
 20
127.8027915271048
 30
0.0
 10
131.4180771143097
 20
127.8027915271048
 30
0.0
 10
131.4180771143097
 20
127.8027915271048
 30
0.0
 10
139.8926730891197
 20
154.8294111834263
 30
0.0
 10
139.8926730891197
 20
154.8294111834263
 30
0.0
  0
HATCH
  5
3C4
330
3BD
100
AcDbEntity
  8
LOGO
 62
   250
420
  2234388
100
AcDbHatch
 10
0.0
 20
0.0
 30
0.0
210
0.0
220
0.0
230
1.0
  2
SOLID
 70
     1
 71
     0
 91
        1
 92
        1
 93
        1
 72
     4
 94
        3
 73
     0
 74
     1
 95
      104
 96
      100
 40
0.0
 40
0.0
 40
0.0
 40
0.0
 40
1.0
 40
1.0
 40
1.0
 40
2.0
 40
2.0
 40
2.0
 40
3.0
 40
3.0
 40
3.0
 40
4.0
 40
4.0
 40
4.0
 40
5.0
 40
5.0
 40
5.0
 40
6.0
 40
6.0
 40
6.0
 40
7.0
 40
7.0
 40
7.0
 40
8.0
 40
8.0
 40
8.0
 40
9.0
 40
9.0
 40
9.0
 40
10.0
 40
10.0
 40
10.0
 40
11.0
 40
11.0
 40
11.0
 40
12.0
 40
12.0
 40
12.0
 40
13.0
 40
13.0
 40
13.0
 40
14.0
 40
14.0
 40
14.0
 40
15.0
 40
15.0
 40
15.0
 40
16.0
 40
16.0
 40
16.0
 40
17.0
 40
17.0
 40
17.0
 40
18.0
 40
18.0
 40
18.0
 40
19.0
 40
19.0
 40
19.0
 40
20.0
 40
20.0
 40
20.0
 40
21.0
 40
21.0
 40
21.0
 40
22.0
 40
22.0
 40
22.0
 40
23.0
 40
23.0
 40
23.0
 40
24.0
 40
24.0
 40
24.0
 40
25.0
 40
25.0
 40
25.0
 40
26.0
 40
26.0
 40
26.0
 40
27.0
 40
27.0
 40
27.0
 40
28.0
 40
28.0
 40
28.0
 40
29.0
 40
29.0
 40
29.0
 40
30.0
 40
30.0
 40
30.0
 40
31.0
 40
31.0
 40
31.0
 40
32.0
 40
32.0
 40
32.0
 40
33.0
 40
33.0
 40
33.0
 40
33.0
 10
139.8926730891197
 20
154.8294111834263
 10
139.8926730891197
 20
154.8294111834263
 10
142.0344903652445
 20
154.8294111834263
 10
142.0344903652445
 20
154.8294111834263
 10
142.0344903652445
 20
154.8294111834263
 10
140.9516961399171
 20
151.3157559800812
 10
140.9516961399171
 20
151.3157559800812
 10
141.8928968473923
 20
152.7887075264977
 10
142.7341897198865
 20
153.4484437471474
 10
143.8552245303272
 20
154.2926649527359
 10
144.9803934580775
 20
155.1296514530327
 10
146.3139908001845
 20
155.3044901642492
 10
147.241066606852
 20
155.3044901642492
 10
148.3855280820469
 20
155.3044901642492
 10
149.4969166187653
 20
155.0752189084569
 10
150.0784491203092
 20
153.8172414621372
 10
150.5228667310863
 20
152.833838307127
 10
150.5414702589793
 20
152.7201500811143
 10
150.4140016419347
 20
150.7765981809602
 10
151.5818897818837
 20
152.7699317437168
 10
152.4424752018226
 20
153.6256940267945
 10
153.9038856707499
 20
154.4507949398263
 10
155.4455669174378
 20
155.3044901642492
 10
156.339225275853
 20
155.3659851592288
 10
157.3748216618963
 20
155.2147453676543
 10
158.911679771723
 20
154.9877134254046
 10
159.8859534176746
 20
154.4390816074493
 10
160.3965169054045
 20
152.7816450760939
 10
160.9070803931344
 20
151.1219692311958
 10
160.6328506116007
 20
150.2303779314354
 10
159.9992971339115
 20
147.597634224801
 10
159.7105979417943
 20
146.4014962832367
 10
159.2947746424084
 20
144.9400858143094
 10
158.7463150793409
 20
143.2092687007094
 10
158.7463150793409
 20
143.2092687007094
 10
153.9038856707499
 20
127.8027915271048
 10
153.9038856707499
 20
127.8027915271048
 10
153.9038856707499
 20
127.8027915271048
 10
151.3882752878863
 20
127.8027915271048
 10
151.3882752878863
 20
127.8027915271048
 10
151.3882752878863
 20
127.8027915271048
 10
155.6250565106276
 20
141.2751908193897
 10
155.6250565106276
 20
141.2751908193897
 10
156.5094131050963
 20
144.0936252951782
 10
157.109893644309
 20
146.1506931664571
 10
157.4220195011804
 20
147.4415712963654
 10
157.8095929989511
 20
149.0530157726519
 10
157.9656559273867
 20
149.5826995529385
 10
157.7816877071116
 20
150.7529992613181
 10
157.6111553680925
 20
151.8430281919372
 10
157.0582171779396
 20
152.5547853887321
 10
156.1170164704645
 20
152.5547853887321
 10
155.1096698860365
 20
152.5547853887321
 10
154.2962823053817
 20
152.4412694176073
 10
153.156643967048
 20
151.2945686288697
 10
152.0170056287143
 20
150.1476955852443
 10
151.076149431015
 20
148.7930831468137
 10
150.3337308641742
 20
147.2290087646991
 10
149.5957909244188
 20
145.6683794803425
 10
148.8530278478023
 20
143.6822806228776
 10
148.0964843801539
 20
141.2751908193897
 10
148.0964843801539
 20
141.2751908193897
 10
143.8552245303272
 20
127.8027915271048
 10
143.8552245303272
 20
127.8027915271048
 10
143.8552245303272
 20
127.8027915271048
 10
141.486030802177
 20
127.8027915271048
 10
141.486030802177
 20
127.8027915271048
 10
141.486030802177
 20
127.8027915271048
 10
146.3329388378533
 20
143.2092687007094
 10
146.3329388378533
 20
143.2092687007094
 10
146.8483254624444
 20
144.8408669988801
 10
147.2314203331297
 20
146.1837661049335
 10
147.4867020769946
 20
147.224185627838
 10
147.9169947869641
 20
149.0197705792876
 10
148.0306830129768
 20
150.2400242051577
 10
147.709255392159
 20
151.3157559800812
 10
147.3874832615654
 20
152.3916600098926
 10
146.8245542879144
 20
152.6683013598569
 10
145.8840425999909
 20
152.6683013598569
 10
145.0989048209514
 20
152.6683013598569
 10
144.3282364524954
 20
152.3275811915945
 10
143.4531816219731
 20
151.6538923250251
 10
142.34627171234
 20
150.8074318058939
 10
141.901854101563
 20
150.1097995099067
 10
141.3578731655808
 20
149.289521733736
 10
140.6299240093235
 20
148.192602607601
 10
140.2850697237515
 20
147.455696197173
 10
139.6652966370942
 20
145.8385673095858
 10
139.0506911970739
 20
144.2214384219986
 10
138.463991048893
 20
142.3252566160164
 10
138.0571250036777
 20
141.0154304484394
 10
138.0571250036777
 20
141.0154304484394
 10
133.9009590684727
 20
127.8027915271048
 10
133.9009590684727
 20
127.8027915271048
 10
133.9009590684727
 20
127.8027915271048
 10
131.4180771143097
 20
127.8027915271048
 10
131.4180771143097
 20
127.8027915271048
 10
131.4180771143097
 20
127.8027915271048
 10
139.8926730891197
 20
154.8294111834263
 10
139.8926730891197
 20
154.8294111834263
 97
        0
 75
     2
 76
     1
 98
        0
  0
SPLINE
  5
3C5
330
3BD
100
AcDbEntity
  8
LOGO
370
     0
100
AcDbSpline
210
0.0
220
0.0
230
1.0
 70
    11
 71
     3
 72
    29
 73
    25
 74
     0
 42
0.000000001
 43
0.0000000001
 40
0.0
 40
0.0
 40
0.0
 40
0.0
 40
1.0
 40
1.0
 40
1.0
 40
2.0
 40
2.0
 40
2.0
 40
3.0
 40
3.0
 40
3.0
 40
4.0
 40
4.0
 40
4.0
 40
5.0
 40
5.0
 40
5.0
 40
6.0
 40
6.0
 40
6.0
 40
7.0
 40
7.0
 40
7.0
 40
8.0
 40
8.0
 40
8.0
 40
8.0
 10
101.6420971922469
 20
132.8388354296931
 30
0.0
 10
101.630039350094
 20
134.7164137077823
 30
0.0
 10
102.2236296937908
 20
138.0598810818841
 30
0.0
 10
103.7487744712405
 20
142.5378191476827
 30
0.0
 10
105.819967243327
 20
148.5896501242061
 30
0.0
 10
107.0602024361932
 20
150.8074318058939
 30
0.0
 10
108.1522984254671
 20
151.8833358357054
 30
0.0
 10
109.741177511439
 20
153.4532668840085
 30
0.0
 10
111.8740375333931
 20
153.5290590346837
 30
0.0
 10
112.5075910110823
 20
153.4532668840085
 30
0.0
 10
113.4012493694975
 20
153.3490526768302
 30
0.0
 10
114.6683563248758
 20
152.7580461564518
 30
0.0
 10
114.7493161221879
 20
150.7838328862519
 30
0.0
 10
114.8106388622796
 20
149.0909118479895
 30
0.0
 10
114.3186789024427
 20
145.9191825971221
 30
0.0
 10
112.6164561002338
 20
140.9489400617108
 30
0.0
 10
110.6444821435766
 20
135.1746117095912
 30
0.0
 10
109.4669477299053
 20
132.8960240524753
 30
0.0
 10
108.5212683953448
 20
131.9072809959403
 30
0.0
 10
106.7346406980658
 20
130.0538184021569
 30
0.0
 10
104.8222669326213
 20
130.2336525051225
 30
0.0
 10
104.5408024457958
 20
130.2336525051225
 30
0.0
 10
104.1721769856939
 20
130.2336525051225
 30
0.0
 10
101.6465758193322
 20
130.6305277668397
 30
0.0
 10
101.6420971922469
 20
132.8388354296931
 30
0.0
  0
SPLINE
  5
3C6
330
3BD
100
AcDbEntity
  8
LOGO
370
     0
100
AcDbSpline
210
0.0
220
0.0
230
1.0
 70
    11
 71
     3
 72
    32
 73
    28
 74
     0
 42
0.000000001
 43
0.0000000001
 40
0.0
 40
0.0
 40
0.0
 40
0.0
 40
1.0
 40
1.0
 40
1.0
 40
2.0
 40
2.0
 40
2.0
 40
3.0
 40
3.0
 40
3.0
 40
4.0
 40
4.0
 40
4.0
 40
5.0
 40
5.0
 40
5.0
 40
6.0
 40
6.0
 40
6.0
 40
7.0
 40
7.0
 40
7.0
 40
8.0
 40
8.0
 40
8.0
 40
9.0
 40
9.0
 40
9.0
 40
9.0
 10
106.2595617172429
 20
153.4105476718098
 30
0.0
 10
104.8222669326213
 20
151.5474388043041
 30
0.0
 10
103.7177685914188
 20
149.8758773721411
 30
0.0
 10
101.9232171692965
 20
144.6141795664062
 30
0.0
 10
100.2754269116635
 20
139.7999999594306
 30
0.0
 10
99.22777268346732
 20
136.3052927937542
 30
0.0
 10
99.06964269637689
 20
132.039572749846
 30
0.0
 10
98.94665270641765
 20
128.8673267343149
 30
0.0
 10
100.8807305877373
 20
127.8027915271048
 30
0.0
 10
103.7129454545577
 20
127.8027915271048
 30
0.0
 10
104.9352661390825
 20
127.8027915271048
 30
0.0
 10
108.0151835347002
 20
127.8827177950895
 30
0.0
 10
110.2045431598849
 20
130.5926316915021
 30
0.0
 10
111.7417457794874
 20
132.4984597712065
 30
0.0
 10
113.155269389579
 20
134.475256864725
 30
0.0
 10
115.0562743324223
 20
140.9489400617108
 30
0.0
 10
116.6361961642235
 20
146.3680788349845
 30
0.0
 10
117.7282921534974
 20
149.8639917848761
 30
0.0
 10
117.6480213757369
 20
151.8595646611754
 30
0.0
 10
117.6480213757369
 20
151.8595646611754
 30
0.0
 10
117.6480213757369
 20
151.8595646611754
 30
0.0
 10
117.6480213757369
 20
151.8595646611754
 30
0.0
 10
117.13229024137
 20
155.18150017429
 30
0.0
 10
114.7162431837115
 20
155.886194920681
 30
0.0
 10
113.3351034925446
 20
155.886194920681
 30
0.0
 10
111.9829026225447
 20
155.886194920681
 30
0.0
 10
108.3414342923792
 20
156.1251124501957
 30
0.0
 10
106.2595617172429
 20
153.4105476718098
 30
0.0
  0
HATCH
  5
3C7
330
3BD
100
AcDbEntity
  8
LOGO
 62
   250
420
  2234388
100
AcDbHatch
 10
0.0
 20
0.0
 30
0.0
210
0.0
220
0.0
230
1.0
  2
SOLID
 70
     1
 71
     0
 91
        2
 92
        1
 93
        1
 72
     4
 94
        3
 73
     0
 74
     1
 95
       29
 96
       25
 40
0.0
 40
0.0
 40
0.0
 40
0.0
 40
1.0
 40
1.0
 40
1.0
 40
2.0
 40
2.0
 40
2.0
 40
3.0
 40
3.0
 40
3.0
 40
4.0
 40
4.0
 40
4.0
 40
5.0
 40
5.0
 40
5.0
 40
6.0
 40
6.0
 40
6.0
 40
7.0
 40
7.0
 40
7.0
 40
8.0
 40
8.0
 40
8.0
 40
8.0
 10
101.6420971922469
 20
132.8388354296931
 10
101.630039350094
 20
134.7164137077823
 10
102.2236296937908
 20
138.0598810818841
 10
103.7487744712405
 20
142.5378191476827
 10
105.819967243327
 20
148.5896501242061
 10
107.0602024361932
 20
150.8074318058939
 10
108.1522984254671
 20
151.8833358357054
 10
109.741177511439
 20
153.4532668840085
 10
111.8740375333931
 20
153.5290590346837
 10
112.5075910110823
 20
153.4532668840085
 10
113.4012493694975
 20
153.3490526768302
 10
114.6683563248758
 20
152.7580461564518
 10
114.7493161221879
 20
150.7838328862519
 10
114.8106388622796
 20
149.0909118479895
 10
114.3186789024427
 20
145.9191825971221
 10
112.6164561002338
 20
140.9489400617108
 10
110.6444821435766
 20
135.1746117095912
 10
109.4669477299053
 20
132.8960240524753
 10
108.5212683953448
 20
131.9072809959403
 10
106.7346406980658
 20
130.0538184021569
 10
104.8222669326213
 20
130.2336525051225
 10
104.5408024457958
 20
130.2336525051225
 10
104.1721769856939
 20
130.2336525051225
 10
101.6465758193322
 20
130.6305277668397
 10
101.6420971922469
 20
132.8388354296931
 97
        0
 92
        1
 93
        1
 72
     4
 94
        3
 73
     0
 74
     1
 95
       32
 96
       28
 40
0.0
 40
0.0
 40
0.0
 40
0.0
 40
1.0
 40
1.0
 40
1.0
 40
2.0
 40
2.0
 40
2.0
 40
3.0
 40
3.0
 40
3.0
 40
4.0
 40
4.0
 40
4.0
 40
5.0
 40
5.0
 40
5.0
 40
6.0
 40
6.0
 40
6.0
 40
7.0
 40
7.0
 40
7.0
 40
8.0
 40
8.0
 40
8.0
 40
9.0
 40
9.0
 40
9.0
 40
9.0
 10
106.2595617172429
 20
153.4105476718098
 10
104.8222669326213
 20
151.5474388043041
 10
103.7177685914188
 20
149.8758773721411
 10
101.9232171692965
 20
144.6141795664062
 10
100.2754269116635
 20
139.7999999594306
 10
99.22777268346732
 20
136.3052927937542
 10
99.06964269637689
 20
132.039572749846
 10
98.94665270641765
 20
128.8673267343149
 10
100.8807305877373
 20
127.8027915271048
 10
103.7129454545577
 20
127.8027915271048
 10
104.9352661390825
 20
127.8027915271048
 10
108.0151835347002
 20
127.8827177950895
 10
110.2045431598849
 20
130.5926316915021
 10
111.7417457794874
 20
132.4984597712065
 10
113.155269389579
 20
134.475256864725
 10
115.0562743324223
 20
140.9489400617108
 10
116.6361961642235
 20
146.3680788349845
 10
117.7282921534974
 20
149.8639917848761
 10
117.6480213757369
 20
151.8595646611754
 10
117.6480213757369
 20
151.8595646611754
 10
117.6480213757369
 20
151.8595646611754
 10
117.6480213757369
 20
151.8595646611754
 10
117.13229024137
 20
155.18150017429
 10
114.7162431837115
 20
155.886194920681
 10
113.3351034925446
 20
155.886194920681
 10
111.9829026225447
 20
155.886194920681
 10
108.3414342923792
 20
156.1251124501957
 10
106.2595617172429
 20
153.4105476718098
 97
        0
 75
     2
 76
     1
 98
        0
  0
ENDBLK
  5
3C8
330
3BD
100
AcDbEntity
  8
0
100
AcDbBlockEnd
  0
BLOCK
  5
8D4E
330
8D4D
100
AcDbEntity
  8
0
100
AcDbBlockBegin
  2
*D6
 70
     1
 10
0.0
 20
0.0
 30
0.0
  3
*D6
  1
*D339
  0
LINE
  5
8D50
330
8D4D
100
AcDbEntity
  8
DIM
  6
Continuous
 62
     0
370
    -2
100
AcDbLine
 10
1508.59645563727
 20
872.7397000939691
 30
0.0
 11
1988.278985860876
 21
872.7397000939691
 31
0.0
  0
LINE
  5
8D51
330
8D4D
100
AcDbEntity
  8
DIM
  6
Continuous
 62
     0
370
    -2
100
AcDbLine
 10
1690.140150383048
 20
1387.934039884503
 30
0.0
 11
1988.278985860876
 21
1387.934039884503
 31
0.0
  0
LINE
  5
8D52
330
8D4D
100
AcDbEntity
  8
DIM
  6
Continuous
 62
     0
370
    -2
100
AcDbLine
 10
1988.278985860876
 20
878.7397000939691
 30
0.0
 11
1988.278985860876
 21
1381.934039884503
 31
0.0
  0
INSERT
  5
8D53
330
8D4D
100
AcDbEntity
  8
DIM
 62
     0
370
    -2
100
AcDbBlockReference
  2
_DOT
 10
1988.278985860876
 20
872.7397000939691
 30
0.0
 41
6.0
 42
6.0
 43
6.0
 50
270.0
  0
INSERT
  5
8D54
330
8D4D
100
AcDbEntity
  8
DIM
 62
     0
370
    -2
100
AcDbBlockReference
  2
_DOT
 10
1988.278985860876
 20
1387.934039884503
 30
0.0
 41
6.0
 42
6.0
 43
6.0
 50
90.0
  0
MTEXT
  5
8D55
330
8D4D
100
AcDbEntity
  8
DIM
  6
Continuous
 62
     0
100
AcDbMText
 10
1961.278985860876
 20
1130.336869989236
 30
0.0
 40
24.0
 41
0.0
 46
0.0
 71
     5
 72
     1
  1
\A1;515
  7
ＭＳ ゴシック
 11
0.0
 21
1.0
 31
0.0
 73
     1
 44
1.0
  0
POINT
  5
8D56
330
8D4D
100
AcDbEntity
  8
Defpoints
 62
     0
100
AcDbPoint
 10
1483.59645563727
 20
872.7397000939691
 30
0.0
  0
POINT
  5
8D57
330
8D4D
100
AcDbEntity
  8
Defpoints
 62
     0
100
AcDbPoint
 10
1665.140150383048
 20
1387.934039884503
 30
0.0
  0
POINT
  5
8D58
330
8D4D
100
AcDbEntity
  8
Defpoints
 62
     0
100
AcDbPoint
 10
1988.278985860876
 20
1387.934039884503
 30
0.0
  0
ENDBLK
  5
8D4F
330
8D4D
100
AcDbEntity
  8
0
100
AcDbBlockEnd
  0
BLOCK
  5
8E0D
330
8E0C
100
AcDbEntity
  8
0
100
AcDbBlockBegin
  2
*D7
 70
     1
 10
0.0
 20
0.0
 30
0.0
  3
*D7
  1
*D349
  0
LINE
  5
8E0F
330
8E0C
100
AcDbEntity
  8
DIM
  6
Continuous
 62
     0
370
    -2
100
AcDbLine
 10
1533.59645563727
 20
872.7397000939691
 30
0.0
 11
1924.326282077584
 21
872.7397000939691
 31
0.0
  0
LINE
  5
8E10
330
8E0C
100
AcDbEntity
  8
DIM
  6
Continuous
 62
     0
370
    -2
100
AcDbLine
 10
1757.032146411503
 20
1273.35825999084
 30
0.0
 11
1924.326282077584
 21
1273.35825999084
 31
0.0
  0
LINE
  5
8E11
330
8E0C
100
AcDbEntity
  8
DIM
  6
Continuous
 62
     0
370
    -2
100
AcDbLine
 10
1924.326282077584
 20
878.7397000939691
 30
0.0
 11
1924.326282077584
 21
1267.35825999084
 31
0.0
  0
INSERT
  5
8E12
330
8E0C
100
AcDbEntity
  8
DIM
 62
     0
370
    -2
100
AcDbBlockReference
  2
_DOT
 10
1924.326282077584
 20
872.7397000939691
 30
0.0
 41
6.0
 42
6.0
 43
6.0
 50
270.0
  0
INSERT
  5
8E13
330
8E0C
100
AcDbEntity
  8
DIM
 62
     0
370
    -2
100
AcDbBlockReference
  2
_DOT
 10
1924.326282077584
 20
1273.35825999084
 30
0.0
 41
6.0
 42
6.0
 43
6.0
 50
90.0
  0
MTEXT
  5
8E14
330
8E0C
100
AcDbEntity
  8
DIM
  6
Continuous
 62
     0
100
AcDbMText
 10
1897.326282077584
 20
1073.048980042405
 30
0.0
 40
24.0
 41
0.0
 46
0.0
 71
     5
 72
     1
  1
\A1;400
  7
ＭＳ ゴシック
 11
0.0
 21
1.0
 31
0.0
 73
     1
 44
1.0
  0
POINT
  5
8E15
330
8E0C
100
AcDbEntity
  8
Defpoints
 62
     0
100
AcDbPoint
 10
1508.59645563727
 20
872.7397000939691
 30
0.0
  0
POINT
  5
8E16
330
8E0C
100
AcDbEntity
  8
Defpoints
 62
     0
100
AcDbPoint
 10
1732.032146411503
 20
1273.35825999084
 30
0.0
  0
POINT
  5
8E17
330
8E0C
100
AcDbEntity
  8
Defpoints
 62
     0
100
AcDbPoint
 10
1924.326282077584
 20
1273.35825999084
 30
0.0
  0
ENDBLK
  5
8E0E
330
8E0C
100
AcDbEntity
  8
0
100
AcDbBlockEnd
  0
BLOCK
  5
8E37
330
8E36
100
AcDbEntity
  8
0
100
AcDbBlockBegin
  2
*D8
 70
     1
 10
0.0
 20
0.0
 30
0.0
  3
*D8
  1
*D350
  0
LINE
  5
8E39
330
8E36
100
AcDbEntity
  8
DIM
  6
Continuous
 62
     0
370
    -2
100
AcDbLine
 10
281.3239781229216
 20
1911.376835976946
 30
0.0
 11
172.5623993966106
 21
1911.376835976946
 31
0.0
  0
LINE
  5
8E3A
330
8E36
100
AcDbEntity
  8
DIM
  6
Continuous
 62
     0
370
    -2
100
AcDbLine
 10
281.4153754282992
 20
2276.376438444374
 30
0.0
 11
172.5623993966106
 21
2276.376438444374
 31
0.0
  0
LINE
  5
8E3B
330
8E36
100
AcDbEntity
  8
DIM
  6
Continuous
 62
     0
370
    -2
100
AcDbLine
 10
172.5623993966106
 20
1917.376835976946
 30
0.0
 11
172.5623993966106
 21
2270.376438444374
 31
0.0
  0
INSERT
  5
8E3C
330
8E36
100
AcDbEntity
  8
DIM
 62
     0
370
    -2
100
AcDbBlockReference
  2
_DOT
 10
172.5623993966106
 20
1911.376835976946
 30
0.0
 41
6.0
 42
6.0
 43
6.0
 50
270.0
  0
INSERT
  5
8E3D
330
8E36
100
AcDbEntity
  8
DIM
 62
     0
370
    -2
100
AcDbBlockReference
  2
_DOT
 10
172.5623993966106
 20
2276.376438444374
 30
0.0
 41
6.0
 42
6.0
 43
6.0
 50
90.0
  0
MTEXT
  5
8E3E
330
8E36
100
AcDbEntity
  8
DIM
  6
Continuous
 62
     0
100
AcDbMText
 10
145.5623993966106
 20
2093.87663721066
 30
0.0
 40
24.0
 41
0.0
 46
0.0
 71
     5
 72
     1
  1
\A1;365
  7
ＭＳ ゴシック
 11
7.786778187776341E-17
 21
1.0
 31
0.0
 73
     1
 44
1.0
  0
POINT
  5
8E3F
330
8E36
100
AcDbEntity
  8
Defpoints
 62
     0
100
AcDbPoint
 10
306.3239781229216
 20
1911.376835976946
 30
0.0
  0
POINT
  5
8E40
330
8E36
100
AcDbEntity
  8
Defpoints
 62
     0
100
AcDbPoint
 10
306.4153754282992
 20
2276.376438444374
 30
0.0
  0
POINT
  5
8E41
330
8E36
100
AcDbEntity
  8
Defpoints
 62
     0
100
AcDbPoint
 10
172.5623993966106
 20
2276.376438444374
 30
0.0
  0
ENDBLK
  5
8E38
330
8E36
100
AcDbEntity
  8
0
100
AcDbBlockEnd
  0
BLOCK
  5
8E46
330
8E45
100
AcDbEntity
  8
0
100
AcDbBlockBegin
  2
*D9
 70
     1
 10
0.0
 20
0.0
 30
0.0
  3
*D9
  1
*D351
  0
LINE
  5
8E48
330
8E45
100
AcDbEntity
  8
DIM
  6
Continuous
 62
     0
370
    -2
100
AcDbLine
 10
843.9308964189685
 20
2273.875071522978
 30
0.0
 11
1022.563485467332
 21
2273.875071522978
 31
0.0
  0
LINE
  5
8E49
330
8E45
100
AcDbEntity
  8
DIM
  6
Continuous
 62
     0
370
    -2
100
AcDbLine
 10
843.928012128642
 20
1913.875071534536
 30
0.0
 11
1022.563485467332
 21
1913.875071534536
 31
0.0
  0
LINE
  5
8E4A
330
8E45
100
AcDbEntity
  8
DIM
  6
Continuous
 62
     0
370
    -2
100
AcDbLine
 10
1022.563485467332
 20
2267.875071522978
 30
0.0
 11
1022.563485467332
 21
1919.875071534536
 31
0.0
  0
INSERT
  5
8E4B
330
8E45
100
AcDbEntity
  8
DIM
 62
     0
370
    -2
100
AcDbBlockReference
  2
_DOT
 10
1022.563485467332
 20
2273.875071522978
 30
0.0
 41
6.0
 42
6.0
 43
6.0
 50
90.0
  0
INSERT
  5
8E4C
330
8E45
100
AcDbEntity
  8
DIM
 62
     0
370
    -2
100
AcDbBlockReference
  2
_DOT
 10
1022.563485467332
 20
1913.875071534536
 30
0.0
 41
6.0
 42
6.0
 43
6.0
 50
270.0
  0
MTEXT
  5
8E4D
330
8E45
100
AcDbEntity
  8
DIM
  6
Continuous
 62
     0
100
AcDbMText
 10
995.563485467332
 20
2093.875071528757
 30
0.0
 40
24.0
 41
0.0
 46
0.0
 71
     5
 72
     1
  1
\A1;360
  7
ＭＳ ゴシック
 11
0.0
 21
1.0
 31
0.0
 73
     1
 44
1.0
  0
POINT
  5
8E4E
330
8E45
100
AcDbEntity
  8
Defpoints
 62
     0
100
AcDbPoint
 10
818.9308964189685
 20
2273.875071522978
 30
0.0
  0
POINT
  5
8E4F
330
8E45
100
AcDbEntity
  8
Defpoints
 62
     0
100
AcDbPoint
 10
818.928012128642
 20
1913.875071534536
 30
0.0
  0
POINT
  5
8E50
330
8E45
100
AcDbEntity
  8
Defpoints
 62
     0
100
AcDbPoint
 10
1022.563485467332
 20
1913.875071534536
 30
0.0
  0
ENDBLK
  5
8E47
330
8E45
100
AcDbEntity
  8
0
100
AcDbBlockEnd
  0
BLOCK
  5
8E55
330
8E54
100
AcDbEntity
  8
0
100
AcDbBlockBegin
  2
*D10
 70
     1
 10
0.0
 20
0.0
 30
0.0
  3
*D10
  1
*D352
  0
LINE
  5
8E57
330
8E54
100
AcDbEntity
  8
DIM
  6
Continuous
 62
     0
370
    -2
100
AcDbLine
 10
299.3354113382269
 20
2342.576107636898
 30
0.0
 11
299.3354113382269
 21
2376.990144038035
 31
0.0
  0
LINE
  5
8E58
330
8E54
100
AcDbEntity
  8
DIM
  6
Continuous
 62
     0
370
    -2
100
AcDbLine
 10
924.3354115699069
 20
2167.072841828852
 30
0.0
 11
924.3354115699069
 21
2376.990144038035
 31
0.0
  0
LINE
  5
8E59
330
8E54
100
AcDbEntity
  8
DIM
  6
Continuous
 62
     0
370
    -2
100
AcDbLine
 10
305.3354113382269
 20
2376.990144038035
 30
0.0
 11
918.3354115699069
 21
2376.990144038035
 31
0.0
  0
INSERT
  5
8E5A
330
8E54
100
AcDbEntity
  8
DIM
 62
     0
370
    -2
100
AcDbBlockReference
  2
_DOT
 10
299.3354113382269
 20
2376.990144038035
 30
0.0
 41
6.0
 42
6.0
 43
6.0
 50
180.0
  0
INSERT
  5
8E5B
330
8E54
100
AcDbEntity
  8
DIM
 62
     0
370
    -2
100
AcDbBlockReference
  2
_DOT
 10
924.3354115699069
 20
2376.990144038035
 30
0.0
 41
6.0
 42
6.0
 43
6.0
  0
MTEXT
  5
8E5C
330
8E54
100
AcDbEntity
  8
DIM
  6
Continuous
 62
     0
100
AcDbMText
 10
611.835411454067
 20
2403.990144038035
 30
0.0
 40
24.0
 41
0.0
 46
0.0
 71
     5
 72
     1
  1
\A1;625
  7
ＭＳ ゴシック
 73
     1
 44
1.0
  0
POINT
  5
8E5D
330
8E54
100
AcDbEntity
  8
Defpoints
 62
     0
100
AcDbPoint
 10
299.3354113382269
 20
2317.576107636898
 30
0.0
  0
POINT
  5
8E5E
330
8E54
100
AcDbEntity
  8
Defpoints
 62
     0
100
AcDbPoint
 10
924.3354115699069
 20
2142.072841828852
 30
0.0
  0
POINT
  5
8E5F
330
8E54
100
AcDbEntity
  8
Defpoints
 62
     0
100
AcDbPoint
 10
924.3354115699069
 20
2376.990144038035
 30
0.0
  0
ENDBLK
  5
8E56
330
8E54
100
AcDbEntity
  8
0
100
AcDbBlockEnd
  0
BLOCK
  5
8ED2
330
8ED1
100
AcDbEntity
  8
0
100
AcDbBlockBegin
  2
*D11
 70
     1
 10
0.0
 20
0.0
 30
0.0
  3
*D11
  1
*D356
  0
LINE
  5
8ED4
330
8ED1
100
AcDbEntity
  8
DIM
  6
Continuous
 62
     0
370
    -2
100
AcDbLine
 10
1233.59645563727
 20
817.5854953409964
 30
0.0
 11
1160.476599541054
 21
817.5854953409964
 31
0.0
  0
LINE
  5
8ED5
330
8ED1
100
AcDbEntity
  8
DIM
  6
Continuous
 62
     0
370
    -2
100
AcDbLine
 10
1193.59645563727
 20
1017.585495340996
 30
0.0
 11
1160.476599541054
 21
1017.585495340996
 31
0.0
  0
LINE
  5
8ED6
330
8ED1
100
AcDbEntity
  8
DIM
  6
Continuous
 62
     0
370
    -2
100
AcDbLine
 10
1160.476599541054
 20
823.5854953409964
 30
0.0
 11
1160.476599541054
 21
1011.585495340996
 31
0.0
  0
INSERT
  5
8ED7
330
8ED1
100
AcDbEntity
  8
DIM
 62
     0
370
    -2
100
AcDbBlockReference
  2
_DOT
 10
1160.476599541054
 20
817.5854953409964
 30
0.0
 41
6.0
 42
6.0
 43
6.0
 50
270.0
  0
INSERT
  5
8ED8
330
8ED1
100
AcDbEntity
  8
DIM
 62
     0
370
    -2
100
AcDbBlockReference
  2
_DOT
 10
1160.476599541054
 20
1017.585495340996
 30
0.0
 41
6.0
 42
6.0
 43
6.0
 50
90.0
  0
MTEXT
  5
8ED9
330
8ED1
100
AcDbEntity
  8
DIM
  6
Continuous
 62
     0
100
AcDbMText
 10
1133.476599541054
 20
912.585495340996
 30
0.0
 40
24.0
 41
0.0
 46
0.0
 71
     5
 72
     1
  1
\A1;200-250
  7
ＭＳ ゴシック
 11
0.0
 21
1.0
 31
0.0
 73
     1
 44
1.0
  0
POINT
  5
8EDA
330
8ED1
100
AcDbEntity
  8
Defpoints
 62
     0
100
AcDbPoint
 10
1258.59645563727
 20
817.5854953409964
 30
0.0
  0
POINT
  5
8EDB
330
8ED1
100
AcDbEntity
  8
Defpoints
 62
     0
100
AcDbPoint
 10
1218.59645563727
 20
1017.585495340996
 30
0.0
  0
POINT
  5
8EDC
330
8ED1
100
AcDbEntity
  8
Defpoints
 62
     0
100
AcDbPoint
 10
1160.476599541054
 20
1017.585495340996
 30
0.0
  0
ENDBLK
  5
8ED3
330
8ED1
100
AcDbEntity
  8
0
100
AcDbBlockEnd
  0
BLOCK
  5
8EDE
330
8EDD
100
AcDbEntity
  8
0
100
AcDbBlockBegin
  2
*D12
 70
     1
 10
0.0
 20
0.0
 30
0.0
  3
*D12
  1
*D357
  0
LINE
  5
8EE0
330
8EDD
100
AcDbEntity
  8
DIM
  6
Continuous
 62
     0
370
    -2
100
AcDbLine
 10
1483.596455637271
 20
847.73970009397
 30
0.0
 11
1483.596455637271
 21
744.2662069764704
 31
0.0
  0
LINE
  5
8EE1
330
8EDD
100
AcDbEntity
  8
DIM
  6
Continuous
 62
     0
370
    -2
100
AcDbLine
 10
1218.617555637268
 20
963.0774633217891
 30
0.0
 11
1218.617555637268
 21
744.2662069764704
 31
0.0
  0
LINE
  5
8EE2
330
8EDD
100
AcDbEntity
  8
DIM
  6
Continuous
 62
     0
370
    -2
100
AcDbLine
 10
1477.596455637271
 20
744.2662069764704
 30
0.0
 11
1224.617555637268
 21
744.2662069764704
 31
0.0
  0
INSERT
  5
8EE3
330
8EDD
100
AcDbEntity
  8
DIM
 62
     0
370
    -2
100
AcDbBlockReference
  2
_DOT
 10
1483.596455637271
 20
744.2662069764704
 30
0.0
 41
6.0
 42
6.0
 43
6.0
  0
INSERT
  5
8EE4
330
8EDD
100
AcDbEntity
  8
DIM
 62
     0
370
    -2
100
AcDbBlockReference
  2
_DOT
 10
1218.617555637268
 20
744.2662069764704
 30
0.0
 41
6.0
 42
6.0
 43
6.0
 50
180.0
  0
MTEXT
  5
8EE5
330
8EDD
100
AcDbEntity
  8
DIM
  6
Continuous
 62
     0
100
AcDbMText
 10
1351.10700563727
 20
771.2662069764704
 30
0.0
 40
24.0
 41
0.0
 46
0.0
 71
     5
 72
     1
  1
\A1;265-300
  7
ＭＳ ゴシック
 73
     1
 44
1.0
  0
POINT
  5
8EE6
330
8EDD
100
AcDbEntity
  8
Defpoints
 62
     0
100
AcDbPoint
 10
1483.596455637271
 20
872.73970009397
 30
0.0
  0
POINT
  5
8EE7
330
8EDD
100
AcDbEntity
  8
Defpoints
 62
     0
100
AcDbPoint
 10
1218.617555637268
 20
988.0774633217891
 30
0.0
  0
POINT
  5
8EE8
330
8EDD
100
AcDbEntity
  8
Defpoints
 62
     0
100
AcDbPoint
 10
1218.617555637268
 20
744.2662069764704
 30
0.0
  0
ENDBLK
  5
8EDF
330
8EDD
100
AcDbEntity
  8
0
100
AcDbBlockEnd
  0
BLOCK
  5
8F08
330
8F07
100
AcDbEntity
  8
0
100
AcDbBlockBegin
  2
*D13
 70
     1
 10
0.0
 20
0.0
 30
0.0
  3
*D13
  1
*D359
  0
LINE
  5
8F0A
330
8F07
100
AcDbEntity
  8
DIM
  6
Continuous
 62
     0
370
    -2
100
AcDbLine
 10
277.0450196937439
 20
1217.729504890603
 30
0.0
 11
223.6693754721559
 21
1217.729504890603
 31
0.0
  0
LINE
  5
8F0B
330
8F07
100
AcDbEntity
  8
DIM
  6
Continuous
 62
     0
370
    -2
100
AcDbLine
 10
273.0415999379179
 20
1173.214347373655
 30
0.0
 11
223.6693754721559
 21
1173.214347373655
 31
0.0
  0
LINE
  5
8F0C
330
8F07
100
AcDbEntity
  8
DIM
  6
Continuous
 62
     0
370
    -2
100
AcDbLine
 10
223.6693754721559
 20
1211.729504890603
 30
0.0
 11
223.6693754721559
 21
1179.214347373655
 31
0.0
  0
INSERT
  5
8F0D
330
8F07
100
AcDbEntity
  8
DIM
 62
     0
370
    -2
100
AcDbBlockReference
  2
_DOT
 10
223.6693754721559
 20
1217.729504890603
 30
0.0
 41
6.0
 42
6.0
 43
6.0
 50
90.0
  0
INSERT
  5
8F0E
330
8F07
100
AcDbEntity
  8
DIM
 62
     0
370
    -2
100
AcDbBlockReference
  2
_DOT
 10
223.6693754721559
 20
1173.214347373655
 30
0.0
 41
6.0
 42
6.0
 43
6.0
 50
270.0
  0
MTEXT
  5
8F0F
330
8F07
100
AcDbEntity
  8
DIM
  6
Continuous
 62
     0
100
AcDbMText
 10
196.6693754721559
 20
1195.471926132129
 30
0.0
 40
24.0
 41
0.0
 46
0.0
 71
     5
 72
     1
  1
\A1;45
  7
ＭＳ ゴシック
 11
0.0
 21
1.0
 31
0.0
 73
     1
 44
1.0
  0
POINT
  5
8F10
330
8F07
100
AcDbEntity
  8
Defpoints
 62
     0
100
AcDbPoint
 10
302.0450196937439
 20
1217.729504890603
 30
0.0
  0
POINT
  5
8F11
330
8F07
100
AcDbEntity
  8
Defpoints
 62
     0
100
AcDbPoint
 10
298.0415999379179
 20
1173.214347373655
 30
0.0
  0
POINT
  5
8F12
330
8F07
100
AcDbEntity
  8
Defpoints
 62
     0
100
AcDbPoint
 10
223.6693754721559
 20
1173.214347373655
 30
0.0
  0
ENDBLK
  5
8F09
330
8F07
100
AcDbEntity
  8
0
100
AcDbBlockEnd
  0
BLOCK
  5
8F18
330
8F17
100
AcDbEntity
  8
0
100
AcDbBlockBegin
  2
*D14
 70
     1
 10
0.0
 20
0.0
 30
0.0
  3
*D14
  1
*D360
  0
LINE
  5
8F1A
330
8F17
100
AcDbEntity
  8
DIM
  6
Continuous
 62
     0
370
    -2
100
AcDbLine
 10
240.3505504117397
 20
1173.214347373655
 30
0.0
 11
223.6693754721559
 21
1173.214347373655
 31
0.0
  0
LINE
  5
8F1B
330
8F17
100
AcDbEntity
  8
DIM
  6
Continuous
 62
     0
370
    -2
100
AcDbLine
 10
266.9434254161891
 20
1038.214347373655
 30
0.0
 11
223.6693754721559
 21
1038.214347373655
 31
0.0
  0
LINE
  5
8F1C
330
8F17
100
AcDbEntity
  8
DIM
  6
Continuous
 62
     0
370
    -2
100
AcDbLine
 10
223.6693754721559
 20
1167.214347373655
 30
0.0
 11
223.6693754721559
 21
1044.214347373655
 31
0.0
  0
INSERT
  5
8F1D
330
8F17
100
AcDbEntity
  8
DIM
 62
     0
370
    -2
100
AcDbBlockReference
  2
_DOT
 10
223.6693754721559
 20
1173.214347373655
 30
0.0
 41
6.0
 42
6.0
 43
6.0
 50
90.0
  0
INSERT
  5
8F1E
330
8F17
100
AcDbEntity
  8
DIM
 62
     0
370
    -2
100
AcDbBlockReference
  2
_DOT
 10
223.6693754721559
 20
1038.214347373655
 30
0.0
 41
6.0
 42
6.0
 43
6.0
 50
270.0
  0
MTEXT
  5
8F1F
330
8F17
100
AcDbEntity
  8
DIM
  6
Continuous
 62
     0
100
AcDbMText
 10
196.6693754721559
 20
1105.714347373655
 30
0.0
 40
24.0
 41
0.0
 46
0.0
 71
     5
 72
     1
  1
\A1;135
  7
ＭＳ ゴシック
 11
0.0
 21
1.0
 31
0.0
 73
     1
 44
1.0
  0
POINT
  5
8F20
330
8F17
100
AcDbEntity
  8
Defpoints
 62
     0
100
AcDbPoint
 10
265.3505504117397
 20
1173.214347373655
 30
0.0
  0
POINT
  5
8F21
330
8F17
100
AcDbEntity
  8
Defpoints
 62
     0
100
AcDbPoint
 10
291.9434254161891
 20
1038.214347373655
 30
0.0
  0
POINT
  5
8F22
330
8F17
100
AcDbEntity
  8
Defpoints
 62
     0
100
AcDbPoint
 10
223.6693754721559
 20
1038.214347373655
 30
0.0
  0
ENDBLK
  5
8F19
330
8F17
100
AcDbEntity
  8
0
100
AcDbBlockEnd
  0
BLOCK
  5
8FF8
330
8FF7
100
AcDbEntity
  8
0
100
AcDbBlockBegin
  2
*D15
 70
     1
 10
0.0
 20
0.0
 30
0.0
  3
*D15
  1
*D366
  0
LINE
  5
8FFA
330
8FF7
100
AcDbEntity
  8
DIM
  6
Continuous
 62
     0
370
    -2
100
AcDbLine
 10
1393.976553487712
 20
1381.666418906432
 30
0.0
 11
1393.976553487712
 21
1454.276004819762
 31
0.0
  0
LINE
  5
8FFB
330
8FF7
100
AcDbEntity
  8
DIM
  6
Continuous
 62
     0
370
    -2
100
AcDbLine
 10
1573.976553487712
 20
1381.666418906432
 30
0.0
 11
1573.976553487712
 21
1454.276004819762
 31
0.0
  0
LINE
  5
8FFC
330
8FF7
100
AcDbEntity
  8
DIM
  6
Continuous
 62
     0
370
    -2
100
AcDbLine
 10
1399.976553487712
 20
1454.276004819762
 30
0.0
 11
1567.976553487712
 21
1454.276004819762
 31
0.0
  0
INSERT
  5
8FFD
330
8FF7
100
AcDbEntity
  8
DIM
 62
     0
370
    -2
100
AcDbBlockReference
  2
_DOT
 10
1393.976553487712
 20
1454.276004819762
 30
0.0
 41
6.0
 42
6.0
 43
6.0
 50
180.0
  0
INSERT
  5
8FFE
330
8FF7
100
AcDbEntity
  8
DIM
 62
     0
370
    -2
100
AcDbBlockReference
  2
_DOT
 10
1573.976553487712
 20
1454.276004819762
 30
0.0
 41
6.0
 42
6.0
 43
6.0
  0
MTEXT
  5
8FFF
330
8FF7
100
AcDbEntity
  8
DIM
  6
Continuous
 62
     0
100
AcDbMText
 10
1483.976553487712
 20
1481.276004819762
 30
0.0
 40
24.0
 41
0.0
 46
0.0
 71
     5
 72
     1
  1
\A1;180
  7
ＭＳ ゴシック
 73
     1
 44
1.0
  0
POINT
  5
9000
330
8FF7
100
AcDbEntity
  8
Defpoints
 62
     0
100
AcDbPoint
 10
1393.976553487712
 20
1356.666418906432
 30
0.0
  0
POINT
  5
9001
330
8FF7
100
AcDbEntity
  8
Defpoints
 62
     0
100
AcDbPoint
 10
1573.976553487712
 20
1356.666418906432
 30
0.0
  0
POINT
  5
9002
330
8FF7
100
AcDbEntity
  8
Defpoints
 62
     0
100
AcDbPoint
 10
1573.976553487712
 20
1454.276004819762
 30
0.0
  0
ENDBLK
  5
8FF9
330
8FF7
100
AcDbEntity
  8
0
100
AcDbBlockEnd
  0
BLOCK
  5
91CC
330
91CB
100
AcDbEntity
  8
0
100
AcDbBlockBegin
  2
*D16
 70
     1
 10
0.0
 20
0.0
 30
0.0
  3
*D16
  1
*D393
  0
LINE
  5
91CE
330
91CB
100
AcDbEntity
  8
DIM
  6
Continuous
 62
     0
370
    -2
100
AcDbLine
 10
1292.142660897963
 20
1217.726858081118
 30
0.0
 11
1111.485475182951
 21
1217.726858081118
 31
0.0
  0
LINE
  5
91CF
330
91CB
100
AcDbEntity
  8
DIM
  6
Continuous
 62
     0
370
    -2
100
AcDbLine
 10
1292.142660897963
 20
1137.726858081118
 30
0.0
 11
1111.485475182951
 21
1137.726858081118
 31
0.0
  0
LINE
  5
91D0
330
91CB
100
AcDbEntity
  8
DIM
  6
Continuous
 62
     0
370
    -2
100
AcDbLine
 10
1111.485475182951
 20
1211.726858081118
 30
0.0
 11
1111.485475182951
 21
1143.726858081118
 31
0.0
  0
INSERT
  5
91D1
330
91CB
100
AcDbEntity
  8
DIM
 62
     0
370
    -2
100
AcDbBlockReference
  2
_DOT
 10
1111.485475182951
 20
1217.726858081118
 30
0.0
 41
6.0
 42
6.0
 43
6.0
 50
90.0
  0
INSERT
  5
91D2
330
91CB
100
AcDbEntity
  8
DIM
 62
     0
370
    -2
100
AcDbBlockReference
  2
_DOT
 10
1111.485475182951
 20
1137.726858081118
 30
0.0
 41
6.0
 42
6.0
 43
6.0
 50
270.0
  0
MTEXT
  5
91D3
330
91CB
100
AcDbEntity
  8
DIM
  6
Continuous
 62
     0
100
AcDbMText
 10
1084.485475182951
 20
1177.726858081118
 30
0.0
 40
24.0
 41
0.0
 46
0.0
 71
     5
 72
     1
  1
\A1;80
  7
ＭＳ ゴシック
 11
0.0
 21
1.0
 31
0.0
 73
     1
 44
1.0
  0
POINT
  5
91D4
330
91CB
100
AcDbEntity
  8
Defpoints
 62
     0
100
AcDbPoint
 10
1317.142660897963
 20
1217.726858081118
 30
0.0
  0
POINT
  5
91D5
330
91CB
100
AcDbEntity
  8
Defpoints
 62
     0
100
AcDbPoint
 10
1317.142660897963
 20
1137.726858081118
 30
0.0
  0
POINT
  5
91D6
330
91CB
100
AcDbEntity
  8
Defpoints
 62
     0
100
AcDbPoint
 10
1111.485475182951
 20
1137.726858081118
 30
0.0
  0
ENDBLK
  5
91CD
330
91CB
100
AcDbEntity
  8
0
100
AcDbBlockEnd
  0
BLOCK
  5
929D
330
929C
100
AcDbEntity
  8
0
100
AcDbBlockBegin
  2
*D17
 70
     1
 10
0.0
 20
0.0
 30
0.0
  3
*D17
  1
*D399
  0
LINE
  5
929F
330
929C
100
AcDbEntity
  8
DIM
  6
Continuous
 62
     0
370
    -2
100
AcDbLine
 10
612.4835175116666
 20
872.563214358036
 30
0.0
 11
991.4321016187754
 21
872.563214358036
 31
0.0
  0
LINE
  5
92A0
330
929C
100
AcDbEntity
  8
DIM
  6
Continuous
 62
     0
370
    -2
100
AcDbLine
 10
948.0275902762118
 20
1217.679422575783
 30
0.0
 11
991.4321016187754
 21
1217.679422575783
 31
0.0
  0
LINE
  5
92A1
330
929C
100
AcDbEntity
  8
DIM
  6
Continuous
 62
     0
370
    -2
100
AcDbLine
 10
991.4321016187754
 20
878.563214358036
 30
0.0
 11
991.4321016187754
 21
1211.679422575783
 31
0.0
  0
INSERT
  5
92A2
330
929C
100
AcDbEntity
  8
DIM
 62
     0
370
    -2
100
AcDbBlockReference
  2
_DOT
 10
991.4321016187754
 20
872.563214358036
 30
0.0
 41
6.0
 42
6.0
 43
6.0
 50
270.0
  0
INSERT
  5
92A3
330
929C
100
AcDbEntity
  8
DIM
 62
     0
370
    -2
100
AcDbBlockReference
  2
_DOT
 10
991.4321016187754
 20
1217.679422575783
 30
0.0
 41
6.0
 42
6.0
 43
6.0
 50
90.0
  0
MTEXT
  5
92A4
330
929C
100
AcDbEntity
  8
DIM
  6
Continuous
 62
     0
100
AcDbMText
 10
964.4321016187754
 20
1045.12131846691
 30
0.0
 40
24.0
 41
0.0
 46
0.0
 71
     5
 72
     1
  1
\A1;345
  7
ＭＳ ゴシック
 11
0.0
 21
1.0
 31
0.0
 73
     1
 44
1.0
  0
POINT
  5
92A5
330
929C
100
AcDbEntity
  8
Defpoints
 62
     0
100
AcDbPoint
 10
587.4835175116666
 20
872.563214358036
 30
0.0
  0
POINT
  5
92A6
330
929C
100
AcDbEntity
  8
Defpoints
 62
     0
100
AcDbPoint
 10
923.0275902762118
 20
1217.679422575783
 30
0.0
  0
POINT
  5
92A7
330
929C
100
AcDbEntity
  8
Defpoints
 62
     0
100
AcDbPoint
 10
991.4321016187754
 20
1217.679422575783
 30
0.0
  0
ENDBLK
  5
929E
330
929C
100
AcDbEntity
  8
0
100
AcDbBlockEnd
  0
BLOCK
  5
92E8
330
92E7
100
AcDbEntity
  8
0
100
AcDbBlockBegin
  2
*D18
 70
     1
 10
0.0
 20
0.0
 30
0.0
  3
*D18
  1
*D404
  0
LINE
  5
92EA
330
92E7
100
AcDbEntity
  8
DIM
  6
Continuous
 62
     0
370
    -2
100
AcDbLine
 10
284.5488298275826
 20
1217.729504890603
 30
0.0
 11
223.6693754721559
 21
1217.729504890603
 31
0.0
  0
LINE
  5
92EB
330
92E7
100
AcDbEntity
  8
DIM
  6
Continuous
 62
     0
370
    -2
100
AcDbLine
 10
438.5118272642679
 20
1387.892200093397
 30
0.0
 11
223.6693754721559
 21
1387.892200093397
 31
0.0
  0
LINE
  5
92EC
330
92E7
100
AcDbEntity
  8
DIM
  6
Continuous
 62
     0
370
    -2
100
AcDbLine
 10
223.6693754721559
 20
1223.729504890603
 30
0.0
 11
223.6693754721559
 21
1381.892200093397
 31
0.0
  0
INSERT
  5
92ED
330
92E7
100
AcDbEntity
  8
DIM
 62
     0
370
    -2
100
AcDbBlockReference
  2
_DOT
 10
223.6693754721559
 20
1217.729504890603
 30
0.0
 41
6.0
 42
6.0
 43
6.0
 50
270.0
  0
INSERT
  5
92EE
330
92E7
100
AcDbEntity
  8
DIM
 62
     0
370
    -2
100
AcDbBlockReference
  2
_DOT
 10
223.6693754721559
 20
1387.892200093397
 30
0.0
 41
6.0
 42
6.0
 43
6.0
 50
90.0
  0
MTEXT
  5
92EF
330
92E7
100
AcDbEntity
  8
DIM
  6
Continuous
 62
     0
100
AcDbMText
 10
196.6693754721559
 20
1302.810852492
 30
0.0
 40
24.0
 41
0.0
 46
0.0
 71
     5
 72
     1
  1
\A1;170
  7
ＭＳ ゴシック
 11
0.0
 21
1.0
 31
0.0
 73
     1
 44
1.0
  0
POINT
  5
92F0
330
92E7
100
AcDbEntity
  8
Defpoints
 62
     0
100
AcDbPoint
 10
309.5488298275826
 20
1217.729504890603
 30
0.0
  0
POINT
  5
92F1
330
92E7
100
AcDbEntity
  8
Defpoints
 62
     0
100
AcDbPoint
 10
463.5118272642679
 20
1387.892200093397
 30
0.0
  0
POINT
  5
92F2
330
92E7
100
AcDbEntity
  8
Defpoints
 62
     0
100
AcDbPoint
 10
223.6693754721559
 20
1387.892200093397
 30
0.0
  0
ENDBLK
  5
92E9
330
92E7
100
AcDbEntity
  8
0
100
AcDbBlockEnd
  0
BLOCK
  5
9531
330
9530
100
AcDbEntity
  8
0
100
AcDbBlockBegin
  2
*D19
 70
     1
 10
0.0
 20
0.0
 30
0.0
  3
*D19
  1
*D395
  0
LINE
  5
9533
330
9530
100
AcDbEntity
  8
DIM
  6
Continuous
 62
     0
370
    -2
100
AcDbLine
 10
1508.596455637271
 20
872.73970009397
 30
0.0
 11
1849.972849100061
 21
872.73970009397
 31
0.0
  0
LINE
  5
9534
330
9530
100
AcDbEntity
  8
DIM
  6
Continuous
 62
     0
370
    -2
100
AcDbLine
 10
1702.637142062979
 20
1252.73970009397
 30
0.0
 11
1849.972849100061
 21
1252.73970009397
 31
0.0
  0
LINE
  5
9535
330
9530
100
AcDbEntity
  8
DIM
  6
Continuous
 62
     0
370
    -2
100
AcDbLine
 10
1849.972849100061
 20
878.73970009397
 30
0.0
 11
1849.972849100061
 21
1246.73970009397
 31
0.0
  0
INSERT
  5
9536
330
9530
100
AcDbEntity
  8
DIM
 62
     0
370
    -2
100
AcDbBlockReference
  2
_DOT
 10
1849.972849100061
 20
872.73970009397
 30
0.0
 41
6.0
 42
6.0
 43
6.0
 50
270.0
  0
INSERT
  5
9537
330
9530
100
AcDbEntity
  8
DIM
 62
     0
370
    -2
100
AcDbBlockReference
  2
_DOT
 10
1849.972849100061
 20
1252.73970009397
 30
0.0
 41
6.0
 42
6.0
 43
6.0
 50
90.0
  0
MTEXT
  5
9538
330
9530
100
AcDbEntity
  8
DIM
  6
Continuous
 62
     0
100
AcDbMText
 10
1822.972849100061
 20
1062.73970009397
 30
0.0
 40
24.0
 41
0.0
 46
0.0
 71
     5
 72
     1
  1
\A1;380
  7
ＭＳ ゴシック
 11
0.0
 21
1.0
 31
0.0
 73
     1
 44
1.0
  0
POINT
  5
9539
330
9530
100
AcDbEntity
  8
Defpoints
 62
     0
100
AcDbPoint
 10
1483.596455637271
 20
872.73970009397
 30
0.0
  0
POINT
  5
953A
330
9530
100
AcDbEntity
  8
Defpoints
 62
     0
100
AcDbPoint
 10
1677.637142062979
 20
1252.73970009397
 30
0.0
  0
POINT
  5
953B
330
9530
100
AcDbEntity
  8
Defpoints
 62
     0
100
AcDbPoint
 10
1849.972849100061
 20
1252.73970009397
 30
0.0
  0
ENDBLK
  5
9532
330
9530
100
AcDbEntity
  8
0
100
AcDbBlockEnd
  0
BLOCK
  5
9917
330
9916
100
AcDbEntity
  8
0
100
AcDbBlockBegin
  2
*D20
 70
     1
 10
0.0
 20
0.0
 30
0.0
  3
*D20
  1

  0
LINE
  5
9919
330
9916
100
AcDbEntity
  8
MODEL
  6
Continuous
 62
     0
370
    -2
100
AcDbLine
 10
1727.637142062979
 20
1252.73970009397
 30
0.0
 11
1803.880225832679
 21
1252.73970009397
 31
0.0
  0
LINE
  5
991A
330
9916
100
AcDbEntity
  8
MODEL
  6
Continuous
 62
     0
370
    -2
100
AcDbLine
 10
1608.976553487712
 20
1136.97504701209
 30
0.0
 11
1803.880225832679
 21
1136.97504701209
 31
0.0
  0
LINE
  5
991B
330
9916
100
AcDbEntity
  8
MODEL
  6
Continuous
 62
     0
370
    -2
100
AcDbLine
 10
1803.880225832679
 20
1246.73970009397
 30
0.0
 11
1803.880225832679
 21
1142.97504701209
 31
0.0
  0
INSERT
  5
991C
330
9916
100
AcDbEntity
  8
MODEL
 62
     0
370
    -2
100
AcDbBlockReference
  2
_DOT
 10
1803.880225832679
 20
1252.73970009397
 30
0.0
 41
6.0
 42
6.0
 43
6.0
 50
90.0
  0
INSERT
  5
991D
330
9916
100
AcDbEntity
  8
MODEL
 62
     0
370
    -2
100
AcDbBlockReference
  2
_DOT
 10
1803.880225832679
 20
1136.97504701209
 30
0.0
 41
6.0
 42
6.0
 43
6.0
 50
270.0
  0
MTEXT
  5
991E
330
9916
100
AcDbEntity
  8
MODEL
  6
Continuous
 62
     0
100
AcDbMText
 10
1776.880225832679
 20
1194.85737355303
 30
0.0
 40
24.0
 41
0.0
 46
0.0
 71
     5
 72
     1
  1
\A1;115
  7
ＭＳ ゴシック
 11
0.0
 21
1.0
 31
0.0
 73
     1
 44
1.0
  0
POINT
  5
991F
330
9916
100
AcDbEntity
  8
Defpoints
 62
     0
100
AcDbPoint
 10
1702.637142062979
 20
1252.73970009397
 30
0.0
  0
POINT
  5
9920
330
9916
100
AcDbEntity
  8
Defpoints
 62
     0
100
AcDbPoint
 10
1583.976553487712
 20
1136.97504701209
 30
0.0
  0
POINT
  5
9921
330
9916
100
AcDbEntity
  8
Defpoints
 62
     0
100
AcDbPoint
 10
1803.880225832679
 20
1136.97504701209
 30
0.0
  0
ENDBLK
  5
9918
330
9916
100
AcDbEntity
  8
0
100
AcDbBlockEnd
  0
BLOCK
  5
993F
330
993E
100
AcDbEntity
  8
0
  6
ByBlock
 62
     0
370
    -2
390
1D
100
AcDbBlockBegin
  2
_OPEN30
 70
     0
 10
0.0
 20
0.0
 30
0.0
  3
_OPEN30
  1

  0
LINE
  5
9940
330
993E
100
AcDbEntity
  8
0
  6
ByBlock
 62
     0
370
    -2
390
1D
100
AcDbLine
 10
-1.0
 20
0.267949
 30
0.0
 11
0.0
 21
0.0
 31
0.0
  0
LINE
  5
9941
330
993E
100
AcDbEntity
  8
0
  6
ByBlock
 62
     0
370
    -2
390
1D
100
AcDbLine
 10
0.0
 20
0.0
 30
0.0
 11
-1.0
 21
-0.267949
 31
0.0
  0
LINE
  5
9942
330
993E
100
AcDbEntity
  8
0
  6
ByBlock
 62
     0
370
    -2
390
1D
100
AcDbLine
 10
0.0
 20
0.0
 30
0.0
 11
-1.0
 21
0.0
 31
0.0
  0
ENDBLK
  5
9943
330
993E
100
AcDbEntity
  8
0
  6
ByBlock
 62
     0
370
    -2
390
1D
100
AcDbBlockEnd
  0
BLOCK
  5
997D
330
997C
100
AcDbEntity
  8
0
  6
ByBlock
 62
     0
370
    -2
390
1D
100
AcDbBlockBegin
  2
*D23
 70
     1
 10
0.0
 20
0.0
 30
0.0
  3
*D23
  1

  0
LINE
  5
997E
330
997C
100
AcDbEntity
  8
0
  6
Continuous
 62
   143
390
1D
100
AcDbLine
 10
157.854069
 20
15.956841
 30
0.0
 11
164.454069
 21
15.956841
 31
0.0
  0
LINE
  5
997F
330
997C
100
AcDbEntity
  8
0
  6
Continuous
 62
   143
390
1D
100
AcDbLine
 10
164.454069
 20
15.956841
 30
0.0
 11
178.746359
 21
15.956841
 31
0.0
  0
LINE
  5
9980
330
997C
100
AcDbEntity
  8
0
  6
Continuous
 62
   143
390
1D
100
AcDbLine
 10
157.854069
 20
12.204844
 30
0.0
 11
157.854069
 21
17.456841
 31
0.0
  0
LINE
  5
9981
330
997C
100
AcDbEntity
  8
0
  6
Continuous
 62
   143
390
1D
100
AcDbLine
 10
164.454069
 20
12.204844
 30
0.0
 11
164.454069
 21
17.456841
 31
0.0
  0
LINE
  5
9982
330
997C
100
AcDbEntity
  8
0
  6
Continuous
 62
   143
390
1D
100
AcDbLine
 10
157.854069
 20
15.956841
 30
0.0
 11
151.504069
 21
15.956841
 31
0.0
  0
LINE
  5
9983
330
997C
100
AcDbEntity
  8
0
  6
Continuous
 62
   143
390
1D
100
AcDbLine
 10
164.454069
 20
15.956841
 30
0.0
 11
170.804069
 21
15.956841
 31
0.0
  0
INSERT
  5
9984
330
997C
100
AcDbEntity
  8
0
  6
Continuous
 62
   143
390
1D
100
AcDbBlockReference
  2
_OPEN30
 10
157.854069
 20
15.956841
 30
0.0
 41
2.77
 42
2.77
 43
2.77
  0
INSERT
  5
9985
330
997C
100
AcDbEntity
  8
0
  6
Continuous
 62
   143
390
1D
100
AcDbBlockReference
  2
_OPEN30
 10
164.454069
 20
15.956841
 30
0.0
 41
2.77
 42
2.77
 43
2.77
 50
180.0
  0
MTEXT
  5
9986
330
997C
100
AcDbEntity
  8
0
  6
Continuous
 62
   143
390
1D
100
AcDbMText
 10
173.746359
 20
17.706841
 30
0.0
 40
2.5
 41
0.0
 46
0.0
 71
     5
 72
     1
  1
\A1;33.0
  7
MX_DIMTXSTY_4
 73
     1
 44
0.96
  0
POINT
  5
9987
330
997C
100
AcDbEntity
  8
Defpoints
  6
Continuous
 62
     0
390
1D
100
AcDbPoint
 10
157.854069
 20
10.704844
 30
0.0
  0
POINT
  5
9988
330
997C
100
AcDbEntity
  8
Defpoints
  6
Continuous
 62
     0
390
1D
100
AcDbPoint
 10
164.454069
 20
10.704844
 30
0.0
  0
POINT
  5
9989
330
997C
100
AcDbEntity
  8
Defpoints
  6
Continuous
 62
     0
390
1D
100
AcDbPoint
 10
164.454069
 20
15.956841
 30
0.0
  0
ENDBLK
  5
998A
330
997C
100
AcDbEntity
  8
0
  6
ByBlock
 62
     0
370
    -2
390
1D
100
AcDbBlockEnd
  0
BLOCK
  5
9998
330
9997
100
AcDbEntity
  8
0
  6
ByBlock
 62
     0
370
    -2
390
1D
100
AcDbBlockBegin
  2
*D24
 70
     1
 10
0.0
 20
0.0
 30
0.0
  3
*D24
  1

  0
LINE
  5
9999
330
9997
100
AcDbEntity
  8
0
  6
Continuous
 62
   143
390
1D
100
AcDbLine
 10
121.38475
 20
15.956841
 30
0.0
 11
131.38475
 21
15.956841
 31
0.0
  0
LINE
  5
999A
330
9997
100
AcDbEntity
  8
0
  6
Continuous
 62
   143
390
1D
100
AcDbLine
 10
121.38475
 20
8.254844
 30
0.0
 11
121.38475
 21
17.456841
 31
0.0
  0
LINE
  5
999B
330
9997
100
AcDbEntity
  8
0
  6
Continuous
 62
   143
390
1D
100
AcDbLine
 10
131.38475
 20
12.004844
 30
0.0
 11
131.38475
 21
17.456841
 31
0.0
  0
INSERT
  5
999C
330
9997
100
AcDbEntity
  8
0
  6
Continuous
 62
   143
390
1D
100
AcDbBlockReference
  2
_OPEN30
 10
121.38475
 20
15.956841
 30
0.0
 41
2.77
 42
2.77
 43
2.77
 50
180.0
  0
INSERT
  5
999D
330
9997
100
AcDbEntity
  8
0
  6
Continuous
 62
   143
390
1D
100
AcDbBlockReference
  2
_OPEN30
 10
131.38475
 20
15.956841
 30
0.0
 41
2.77
 42
2.77
 43
2.77
  0
MTEXT
  5
999E
330
9997
100
AcDbEntity
  8
0
  6
Continuous
 62
   143
390
1D
100
AcDbMText
 10
126.38475
 20
17.706841
 30
0.0
 40
2.5
 41
0.0
 46
0.0
 71
     5
 72
     1
  1
\A1;50.0
  7
MX_DIMTXSTY_3
 73
     1
 44
0.96
  0
POINT
  5
999F
330
9997
100
AcDbEntity
  8
Defpoints
  6
Continuous
 62
     0
390
1D
100
AcDbPoint
 10
121.38475
 20
6.754844
 30
0.0
  0
POINT
  5
99A0
330
9997
100
AcDbEntity
  8
Defpoints
  6
Continuous
 62
     0
390
1D
100
AcDbPoint
 10
131.38475
 20
10.504844
 30
0.0
  0
POINT
  5
99A1
330
9997
100
AcDbEntity
  8
Defpoints
  6
Continuous
 62
     0
390
1D
100
AcDbPoint
 10
131.38475
 20
15.956841
 30
0.0
  0
ENDBLK
  5
99A2
330
9997
100
AcDbEntity
  8
0
  6
ByBlock
 62
     0
370
    -2
390
1D
100
AcDbBlockEnd
  0
BLOCK
  5
99A5
330
99A4
100
AcDbEntity
  8
0
  6
ByBlock
 62
     0
370
    -2
390
1D
100
AcDbBlockBegin
  2
*D25
 70
     1
 10
0.0
 20
0.0
 30
0.0
  3
*D25
  1

  0
LINE
  5
99A6
330
99A4
100
AcDbEntity
  8
0
  6
Continuous
 62
   143
390
1D
100
AcDbLine
 10
131.38475
 20
15.956841
 30
0.0
 11
141.38475
 21
15.956841
 31
0.0
  0
LINE
  5
99A7
330
99A4
100
AcDbEntity
  8
0
  6
Continuous
 62
   143
390
1D
100
AcDbLine
 10
141.38475
 20
8.254844
 30
0.0
 11
141.38475
 21
17.456841
 31
0.0
  0
INSERT
  5
99A8
330
99A4
100
AcDbEntity
  8
0
  6
Continuous
 62
   143
390
1D
100
AcDbBlockReference
  2
_OPEN30
 10
131.38475
 20
15.956841
 30
0.0
 41
2.77
 42
2.77
 43
2.77
 50
180.0
  0
INSERT
  5
99A9
330
99A4
100
AcDbEntity
  8
0
  6
Continuous
 62
   143
390
1D
100
AcDbBlockReference
  2
_OPEN30
 10
141.38475
 20
15.956841
 30
0.0
 41
2.77
 42
2.77
 43
2.77
  0
MTEXT
  5
99AA
330
99A4
100
AcDbEntity
  8
0
  6
Continuous
 62
   143
390
1D
100
AcDbMText
 10
136.38475
 20
17.706841
 30
0.0
 40
2.5
 41
0.0
 46
0.0
 71
     5
 72
     1
  1
\A1;50.0
  7
MX_DIMTXSTY_3
 73
     1
 44
0.96
  0
POINT
  5
99AB
330
99A4
100
AcDbEntity
  8
Defpoints
  6
Continuous
 62
     0
390
1D
100
AcDbPoint
 10
131.38475
 20
10.504844
 30
0.0
  0
POINT
  5
99AC
330
99A4
100
AcDbEntity
  8
Defpoints
  6
Continuous
 62
     0
390
1D
100
AcDbPoint
 10
141.38475
 20
6.754844
 30
0.0
  0
POINT
  5
99AD
330
99A4
100
AcDbEntity
  8
Defpoints
  6
Continuous
 62
     0
390
1D
100
AcDbPoint
 10
141.38475
 20
15.956841
 30
0.0
  0
ENDBLK
  5
99AE
330
99A4
100
AcDbEntity
  8
0
  6
ByBlock
 62
     0
370
    -2
390
1D
100
AcDbBlockEnd
  0
BLOCK
  5
99B1
330
99B0
100
AcDbEntity
  8
0
  6
ByBlock
 62
     0
370
    -2
390
1D
100
AcDbBlockBegin
  2
*D26
 70
     1
 10
0.0
 20
0.0
 30
0.0
  3
*D26
  1

  0
LINE
  5
99B2
330
99B0
100
AcDbEntity
  8
0
  6
Continuous
 62
   143
390
1D
100
AcDbLine
 10
176.132725
 20
5.704844
 30
0.0
 11
176.132725
 21
-0.295156
 31
0.0
  0
LINE
  5
99B3
330
99B0
100
AcDbEntity
  8
0
  6
Continuous
 62
   143
390
1D
100
AcDbLine
 10
176.132725
 20
-0.295156
 30
0.0
 11
176.132725
 21
-12.712534
 31
0.0
  0
LINE
  5
99B4
330
99B0
100
AcDbEntity
  8
0
  6
Continuous
 62
   143
390
1D
100
AcDbLine
 10
166.751798
 20
5.704844
 30
0.0
 11
177.632725
 21
5.704844
 31
0.0
  0
LINE
  5
99B5
330
99B0
100
AcDbEntity
  8
0
  6
Continuous
 62
   143
390
1D
100
AcDbLine
 10
166.751798
 20
-0.295156
 30
0.0
 11
177.632725
 21
-0.295156
 31
0.0
  0
LINE
  5
99B6
330
99B0
100
AcDbEntity
  8
0
  6
Continuous
 62
   143
390
1D
100
AcDbLine
 10
176.132725
 20
5.704844
 30
0.0
 11
176.132725
 21
12.054844
 31
0.0
  0
LINE
  5
99B7
330
99B0
100
AcDbEntity
  8
0
  6
Continuous
 62
   143
390
1D
100
AcDbLine
 10
176.132725
 20
-0.295156
 30
0.0
 11
176.132725
 21
-6.645156
 31
0.0
  0
INSERT
  5
99B8
330
99B0
100
AcDbEntity
  8
0
  6
Continuous
 62
   143
390
1D
100
AcDbBlockReference
  2
_OPEN30
 10
176.132725
 20
5.704844
 30
0.0
 41
2.77
 42
2.77
 43
2.77
 50
270.0
  0
INSERT
  5
99B9
330
99B0
100
AcDbEntity
  8
0
  6
Continuous
 62
   143
390
1D
100
AcDbBlockReference
  2
_OPEN30
 10
176.132725
 20
-0.295156
 30
0.0
 41
2.77
 42
2.77
 43
2.77
 50
90.0
  0
MTEXT
  5
99BA
330
99B0
100
AcDbEntity
  8
0
  6
Continuous
 62
   143
390
1D
100
AcDbMText
 10
174.382725
 20
-7.712534
 30
0.0
 40
2.5
 41
0.0
 46
0.0
 71
     5
 72
     1
  1
\A1;30.0
  7
MX_DIMTXSTY_3
 11
0.0
 21
1.0
 31
0.0
 73
     1
 44
0.96
  0
POINT
  5
99BB
330
99B0
100
AcDbEntity
  8
Defpoints
  6
Continuous
 62
     0
390
1D
100
AcDbPoint
 10
165.251798
 20
5.704844
 30
0.0
  0
POINT
  5
99BC
330
99B0
100
AcDbEntity
  8
Defpoints
  6
Continuous
 62
     0
390
1D
100
AcDbPoint
 10
165.251798
 20
-0.295156
 30
0.0
  0
POINT
  5
99BD
330
99B0
100
AcDbEntity
  8
Defpoints
  6
Continuous
 62
     0
390
1D
100
AcDbPoint
 10
176.132725
 20
-0.295156
 30
0.0
  0
ENDBLK
  5
99BE
330
99B0
100
AcDbEntity
  8
0
  6
ByBlock
 62
     0
370
    -2
390
1D
100
AcDbBlockEnd
  0
BLOCK
  5
99C1
330
99C0
100
AcDbEntity
  8
0
  6
ByBlock
 62
     0
370
    -2
390
1D
100
AcDbBlockBegin
  2
*D27
 70
     1
 10
0.0
 20
0.0
 30
0.0
  3
*D27
  1

  0
LINE
  5
99C2
330
99C0
100
AcDbEntity
  8
0
  6
Continuous
 62
   143
390
1D
100
AcDbLine
 10
111.627838
 20
-5.295156
 30
0.0
 11
111.627838
 21
10.704844
 31
0.0
  0
LINE
  5
99C3
330
99C0
100
AcDbEntity
  8
0
  6
Continuous
 62
   143
390
1D
100
AcDbLine
 10
115.88475
 20
-5.295156
 30
0.0
 11
110.127838
 21
-5.295156
 31
0.0
  0
LINE
  5
99C4
330
99C0
100
AcDbEntity
  8
0
  6
Continuous
 62
   143
390
1D
100
AcDbLine
 10
115.88475
 20
10.704844
 30
0.0
 11
110.127838
 21
10.704844
 31
0.0
  0
INSERT
  5
99C5
330
99C0
100
AcDbEntity
  8
0
  6
Continuous
 62
   143
390
1D
100
AcDbBlockReference
  2
_OPEN30
 10
111.627838
 20
-5.295156
 30
0.0
 41
2.77
 42
2.77
 43
2.77
 50
270.0
  0
INSERT
  5
99C6
330
99C0
100
AcDbEntity
  8
0
  6
Continuous
 62
   143
390
1D
100
AcDbBlockReference
  2
_OPEN30
 10
111.627838
 20
10.704844
 30
0.0
 41
2.77
 42
2.77
 43
2.77
 50
90.0
  0
MTEXT
  5
99C7
330
99C0
100
AcDbEntity
  8
0
  6
Continuous
 62
   143
390
1D
100
AcDbMText
 10
109.877838
 20
2.704844
 30
0.0
 40
2.5
 41
0.0
 46
0.0
 71
     5
 72
     1
  1
\A1;80.0
  7
MX_DIMTXSTY_3
 11
0.0
 21
1.0
 31
0.0
 73
     1
 44
0.96
  0
POINT
  5
99C8
330
99C0
100
AcDbEntity
  8
Defpoints
  6
Continuous
 62
     0
390
1D
100
AcDbPoint
 10
117.38475
 20
-5.295156
 30
0.0
  0
POINT
  5
99C9
330
99C0
100
AcDbEntity
  8
Defpoints
  6
Continuous
 62
     0
390
1D
100
AcDbPoint
 10
117.38475
 20
10.704844
 30
0.0
  0
POINT
  5
99CA
330
99C0
100
AcDbEntity
  8
Defpoints
  6
Continuous
 62
     0
390
1D
100
AcDbPoint
 10
111.627838
 20
10.704844
 30
0.0
  0
ENDBLK
  5
99CB
330
99C0
100
AcDbEntity
  8
0
  6
ByBlock
 62
     0
370
    -2
390
1D
100
AcDbBlockEnd
  0
BLOCK
  5
99CE
330
99CD
100
AcDbEntity
  8
0
  6
ByBlock
 62
     0
370
    -2
390
1D
100
AcDbBlockBegin
  2
*D28
 70
     1
 10
0.0
 20
0.0
 30
0.0
  3
*D28
  1

  0
LINE
  5
99CF
330
99CD
100
AcDbEntity
  8
0
  6
Continuous
 62
   143
390
1D
100
AcDbLine
 10
117.38475
 20
23.606315
 30
0.0
 11
145.38475
 21
23.606315
 31
0.0
  0
LINE
  5
99D0
330
99CD
100
AcDbEntity
  8
0
  6
Continuous
 62
   143
390
1D
100
AcDbLine
 10
117.38475
 20
12.204844
 30
0.0
 11
117.38475
 21
25.106315
 31
0.0
  0
LINE
  5
99D1
330
99CD
100
AcDbEntity
  8
0
  6
Continuous
 62
   143
390
1D
100
AcDbLine
 10
145.38475
 20
12.204844
 30
0.0
 11
145.38475
 21
25.106315
 31
0.0
  0
INSERT
  5
99D2
330
99CD
100
AcDbEntity
  8
0
  6
Continuous
 62
   143
390
1D
100
AcDbBlockReference
  2
_OPEN30
 10
117.38475
 20
23.606315
 30
0.0
 41
2.77
 42
2.77
 43
2.77
 50
180.0
  0
INSERT
  5
99D3
330
99CD
100
AcDbEntity
  8
0
  6
Continuous
 62
   143
390
1D
100
AcDbBlockReference
  2
_OPEN30
 10
145.38475
 20
23.606315
 30
0.0
 41
2.77
 42
2.77
 43
2.77
  0
MTEXT
  5
99D4
330
99CD
100
AcDbEntity
  8
0
  6
Continuous
 62
   143
390
1D
100
AcDbMText
 10
131.38475
 20
25.356315
 30
0.0
 40
2.5
 41
0.0
 46
0.0
 71
     5
 72
     1
  1
\A1;140.0
  7
MX_DIMTXSTY_3
 73
     1
 44
0.96
  0
POINT
  5
99D5
330
99CD
100
AcDbEntity
  8
Defpoints
  6
Continuous
 62
     0
390
1D
100
AcDbPoint
 10
117.38475
 20
10.704844
 30
0.0
  0
POINT
  5
99D6
330
99CD
100
AcDbEntity
  8
Defpoints
  6
Continuous
 62
     0
390
1D
100
AcDbPoint
 10
145.38475
 20
10.704844
 30
0.0
  0
POINT
  5
99D7
330
99CD
100
AcDbEntity
  8
Defpoints
  6
Continuous
 62
     0
390
1D
100
AcDbPoint
 10
145.38475
 20
23.606315
 30
0.0
  0
ENDBLK
  5
99D8
330
99CD
100
AcDbEntity
  8
0
  6
ByBlock
 62
     0
370
    -2
390
1D
100
AcDbBlockEnd
  0
BLOCK
  5
99DD
330
99DC
100
AcDbEntity
  8
0
100
AcDbBlockBegin
  2
*D29
 70
     1
 10
0.0
 20
0.0
 30
0.0
  3
*D29
  1

  0
LINE
  5
99DF
330
99DC
100
AcDbEntity
  8
LY_1
  6
Continuous
 62
     0
370
    -2
100
AcDbLine
 10
49.22623100000001
 20
24.917378
 30
0.0
 11
49.22623100000001
 21
30.169375
 31
0.0
  0
LINE
  5
99E0
330
99DC
100
AcDbEntity
  8
LY_1
  6
Continuous
 62
     0
370
    -2
100
AcDbLine
 10
55.82623100000001
 20
24.917378
 30
0.0
 11
55.82623100000001
 21
30.169375
 31
0.0
  0
LINE
  5
99E1
330
99DC
100
AcDbEntity
  8
LY_1
  6
Continuous
 62
     0
370
    -2
100
AcDbLine
 10
55.82623100000001
 20
28.669375
 30
0.0
 11
70.04560433333334
 21
28.669375
 31
0.0
  0
LINE
  5
99E2
330
99DC
100
AcDbEntity
  8
LY_1
  6
Continuous
 62
     0
370
    -2
100
AcDbLine
 10
51.99623100000002
 20
28.669375
 30
0.0
 11
53.056231
 21
28.669375
 31
0.0
  0
INSERT
  5
99E3
330
99DC
100
AcDbEntity
  8
LY_1
 62
     0
370
    -2
100
AcDbBlockReference
  2
_OPEN30
 10
49.22623100000001
 20
28.669375
 30
0.0
 41
2.77
 42
2.77
 43
2.77
 50
180.0
  0
INSERT
  5
99E4
330
99DC
100
AcDbEntity
  8
LY_1
 62
     0
370
    -2
100
AcDbBlockReference
  2
_OPEN30
 10
55.82623100000001
 20
28.669375
 30
0.0
 41
2.77
 42
2.77
 43
2.77
  0
MTEXT
  5
99E5
330
99DC
100
AcDbEntity
  8
LY_1
  6
Continuous
 62
     0
100
AcDbMText
 10
65.11852100000002
 20
30.419375
 30
0.0
 40
2.5
 41
0.0
 46
0.0
 71
     5
 72
     1
  1
\A1;33.0
  7
MX_DIMTXSTY_4
 73
     1
 44
0.96
  0
POINT
  5
99E6
330
99DC
100
AcDbEntity
  8
Defpoints
 62
     0
100
AcDbPoint
 10
49.22623100000001
 20
23.417378
 30
0.0
  0
POINT
  5
99E7
330
99DC
100
AcDbEntity
  8
Defpoints
 62
     0
100
AcDbPoint
 10
55.82623100000001
 20
23.417378
 30
0.0
  0
POINT
  5
99E8
330
99DC
100
AcDbEntity
  8
Defpoints
 62
     0
100
AcDbPoint
 10
55.82623100000001
 20
28.669375
 30
0.0
  0
ENDBLK
  5
99DE
330
99DC
100
AcDbEntity
  8
0
100
AcDbBlockEnd
  0
BLOCK
  5
99EA
330
99E9
100
AcDbEntity
  8
0
100
AcDbBlockBegin
  2
*D30
 70
     1
 10
0.0
 20
0.0
 30
0.0
  3
*D30
  1

  0
LINE
  5
99EC
330
99E9
100
AcDbEntity
  8
LY_1
  6
Continuous
 62
     0
370
    -2
100
AcDbLine
 10
12.756912
 20
20.967378
 30
0.0
 11
12.756912
 21
30.169375
 31
0.0
  0
LINE
  5
99ED
330
99E9
100
AcDbEntity
  8
LY_1
  6
Continuous
 62
     0
370
    -2
100
AcDbLine
 10
22.756912
 20
24.717378
 30
0.0
 11
22.756912
 21
30.169375
 31
0.0
  0
LINE
  5
99EE
330
99E9
100
AcDbEntity
  8
LY_1
  6
Continuous
 62
     0
370
    -2
100
AcDbLine
 10
15.526912
 20
28.669375
 30
0.0
 11
19.986912
 21
28.669375
 31
0.0
  0
INSERT
  5
99EF
330
99E9
100
AcDbEntity
  8
LY_1
 62
     0
370
    -2
100
AcDbBlockReference
  2
_OPEN30
 10
12.756912
 20
28.669375
 30
0.0
 41
2.77
 42
2.77
 43
2.77
 50
180.0
  0
INSERT
  5
99F0
330
99E9
100
AcDbEntity
  8
LY_1
 62
     0
370
    -2
100
AcDbBlockReference
  2
_OPEN30
 10
22.756912
 20
28.669375
 30
0.0
 41
2.77
 42
2.77
 43
2.77
  0
MTEXT
  5
99F1
330
99E9
100
AcDbEntity
  8
LY_1
  6
Continuous
 62
     0
100
AcDbMText
 10
17.756912
 20
30.419375
 30
0.0
 40
2.5
 41
0.0
 46
0.0
 71
     5
 72
     1
  1
\A1;50.0
  7
MX_DIMTXSTY_3
 73
     1
 44
0.96
  0
POINT
  5
99F2
330
99E9
100
AcDbEntity
  8
Defpoints
 62
     0
100
AcDbPoint
 10
12.756912
 20
19.467378
 30
0.0
  0
POINT
  5
99F3
330
99E9
100
AcDbEntity
  8
Defpoints
 62
     0
100
AcDbPoint
 10
22.756912
 20
23.217378
 30
0.0
  0
POINT
  5
99F4
330
99E9
100
AcDbEntity
  8
Defpoints
 62
     0
100
AcDbPoint
 10
22.756912
 20
28.669375
 30
0.0
  0
ENDBLK
  5
99EB
330
99E9
100
AcDbEntity
  8
0
100
AcDbBlockEnd
  0
BLOCK
  5
99F6
330
99F5
100
AcDbEntity
  8
0
100
AcDbBlockBegin
  2
*D31
 70
     1
 10
0.0
 20
0.0
 30
0.0
  3
*D31
  1

  0
LINE
  5
99F8
330
99F5
100
AcDbEntity
  8
LY_1
  6
Continuous
 62
     0
370
    -2
100
AcDbLine
 10
32.756912
 20
20.967378
 30
0.0
 11
32.756912
 21
30.169375
 31
0.0
  0
LINE
  5
99F9
330
99F5
100
AcDbEntity
  8
LY_1
  6
Continuous
 62
     0
370
    -2
100
AcDbLine
 10
25.526912
 20
28.669375
 30
0.0
 11
29.986912
 21
28.669375
 31
0.0
  0
INSERT
  5
99FA
330
99F5
100
AcDbEntity
  8
LY_1
 62
     0
370
    -2
100
AcDbBlockReference
  2
_OPEN30
 10
22.756912
 20
28.669375
 30
0.0
 41
2.77
 42
2.77
 43
2.77
 50
180.0
  0
INSERT
  5
99FB
330
99F5
100
AcDbEntity
  8
LY_1
 62
     0
370
    -2
100
AcDbBlockReference
  2
_OPEN30
 10
32.756912
 20
28.669375
 30
0.0
 41
2.77
 42
2.77
 43
2.77
  0
MTEXT
  5
99FC
330
99F5
100
AcDbEntity
  8
LY_1
  6
Continuous
 62
     0
100
AcDbMText
 10
27.756912
 20
30.419375
 30
0.0
 40
2.5
 41
0.0
 46
0.0
 71
     5
 72
     1
  1
\A1;50.0
  7
MX_DIMTXSTY_3
 73
     1
 44
0.96
  0
POINT
  5
99FD
330
99F5
100
AcDbEntity
  8
Defpoints
 62
     0
100
AcDbPoint
 10
22.756912
 20
23.217378
 30
0.0
  0
POINT
  5
99FE
330
99F5
100
AcDbEntity
  8
Defpoints
 62
     0
100
AcDbPoint
 10
32.756912
 20
19.467378
 30
0.0
  0
POINT
  5
99FF
330
99F5
100
AcDbEntity
  8
Defpoints
 62
     0
100
AcDbPoint
 10
32.756912
 20
28.669375
 30
0.0
  0
ENDBLK
  5
99F7
330
99F5
100
AcDbEntity
  8
0
100
AcDbBlockEnd
  0
BLOCK
  5
9A01
330
9A00
100
AcDbEntity
  8
0
100
AcDbBlockBegin
  2
*D32
 70
     1
 10
0.0
 20
0.0
 30
0.0
  3
*D32
  1

  0
LINE
  5
9A03
330
9A00
100
AcDbEntity
  8
LY_1
  6
Continuous
 62
     0
370
    -2
100
AcDbLine
 10
58.12396000000001
 20
18.417378
 30
0.0
 11
69.004887
 21
18.417378
 31
0.0
  0
LINE
  5
9A04
330
9A00
100
AcDbEntity
  8
LY_1
  6
Continuous
 62
     0
370
    -2
100
AcDbLine
 10
58.12396000000001
 20
12.417378
 30
0.0
 11
69.004887
 21
12.417378
 31
0.0
  0
LINE
  5
9A05
330
9A00
100
AcDbEntity
  8
LY_1
  6
Continuous
 62
     0
370
    -2
100
AcDbLine
 10
67.504887
 20
12.417378
 30
0.0
 11
67.504887
 21
-3.122622
 31
0.0
  0
LINE
  5
9A06
330
9A00
100
AcDbEntity
  8
LY_1
  6
Continuous
 62
     0
370
    -2
100
AcDbLine
 10
67.504887
 20
18.417378
 30
0.0
 11
67.504887
 21
12.417378
 31
0.0
  0
LINE
  5
9A07
330
9A00
100
AcDbEntity
  8
LY_1
  6
Continuous
 62
     0
370
    -2
100
AcDbLine
 10
67.504887
 20
21.187378
 30
0.0
 11
67.504887
 21
23.957378
 31
0.0
  0
LINE
  5
9A08
330
9A00
100
AcDbEntity
  8
LY_1
  6
Continuous
 62
     0
370
    -2
100
AcDbLine
 10
67.504887
 20
9.647378
 30
0.0
 11
67.504887
 21
6.877378
 31
0.0
  0
INSERT
  5
9A09
330
9A00
100
AcDbEntity
  8
LY_1
 62
     0
370
    -2
100
AcDbBlockReference
  2
_OPEN30
 10
67.504887
 20
18.417378
 30
0.0
 41
2.77
 42
2.77
 43
2.77
 50
270.0
  0
INSERT
  5
9A0A
330
9A00
100
AcDbEntity
  8
LY_1
 62
     0
370
    -2
100
AcDbBlockReference
  2
_OPEN30
 10
67.504887
 20
12.417378
 30
0.0
 41
2.77
 42
2.77
 43
2.77
 50
90.0
  0
MTEXT
  5
9A0B
330
9A00
100
AcDbEntity
  8
LY_1
  6
Continuous
 62
     0
100
AcDbMText
 10
65.754887
 20
1.877378
 30
0.0
 40
2.5
 41
0.0
 46
0.0
 71
     5
 72
     1
  1
\A1;30.0
  7
MX_DIMTXSTY_3
 11
0.0
 21
1.0
 31
0.0
 73
     1
 44
0.96
  0
POINT
  5
9A0C
330
9A00
100
AcDbEntity
  8
Defpoints
 62
     0
100
AcDbPoint
 10
56.62396000000001
 20
18.417378
 30
0.0
  0
POINT
  5
9A0D
330
9A00
100
AcDbEntity
  8
Defpoints
 62
     0
100
AcDbPoint
 10
56.62396000000001
 20
12.417378
 30
0.0
  0
POINT
  5
9A0E
330
9A00
100
AcDbEntity
  8
Defpoints
 62
     0
100
AcDbPoint
 10
67.504887
 20
12.417378
 30
0.0
  0
ENDBLK
  5
9A02
330
9A00
100
AcDbEntity
  8
0
100
AcDbBlockEnd
  0
BLOCK
  5
9A10
330
9A0F
100
AcDbEntity
  8
0
100
AcDbBlockBegin
  2
*D33
 70
     1
 10
0.0
 20
0.0
 30
0.0
  3
*D33
  1

  0
LINE
  5
9A12
330
9A0F
100
AcDbEntity
  8
LY_1
  6
Continuous
 62
     0
370
    -2
100
AcDbLine
 10
7.256912
 20
7.417377999999999
 30
0.0
 11
1.5
 21
7.417377999999999
 31
0.0
  0
LINE
  5
9A13
330
9A0F
100
AcDbEntity
  8
LY_1
  6
Continuous
 62
     0
370
    -2
100
AcDbLine
 10
7.256912
 20
23.417378
 30
0.0
 11
1.5
 21
23.417378
 31
0.0
  0
LINE
  5
9A14
330
9A0F
100
AcDbEntity
  8
LY_1
  6
Continuous
 62
     0
370
    -2
100
AcDbLine
 10
3.0
 20
10.187378
 30
0.0
 11
3.0
 21
20.647378
 31
0.0
  0
INSERT
  5
9A15
330
9A0F
100
AcDbEntity
  8
LY_1
 62
     0
370
    -2
100
AcDbBlockReference
  2
_OPEN30
 10
3.0
 20
7.417377999999999
 30
0.0
 41
2.77
 42
2.77
 43
2.77
 50
270.0
  0
INSERT
  5
9A16
330
9A0F
100
AcDbEntity
  8
LY_1
 62
     0
370
    -2
100
AcDbBlockReference
  2
_OPEN30
 10
3.0
 20
23.417378
 30
0.0
 41
2.77
 42
2.77
 43
2.77
 50
90.0
  0
MTEXT
  5
9A17
330
9A0F
100
AcDbEntity
  8
LY_1
  6
Continuous
 62
     0
100
AcDbMText
 10
1.25
 20
15.417378
 30
0.0
 40
2.5
 41
0.0
 46
0.0
 71
     5
 72
     1
  1
\A1;80.0
  7
MX_DIMTXSTY_3
 11
5.551115123125783E-17
 21
1.0
 31
0.0
 73
     1
 44
0.96
  0
POINT
  5
9A18
330
9A0F
100
AcDbEntity
  8
Defpoints
 62
     0
100
AcDbPoint
 10
8.756912
 20
7.417377999999999
 30
0.0
  0
POINT
  5
9A19
330
9A0F
100
AcDbEntity
  8
Defpoints
 62
     0
100
AcDbPoint
 10
8.756912
 20
23.417378
 30
0.0
  0
POINT
  5
9A1A
330
9A0F
100
AcDbEntity
  8
Defpoints
 62
     0
100
AcDbPoint
 10
3.0
 20
23.417378
 30
0.0
  0
ENDBLK
  5
9A11
330
9A0F
100
AcDbEntity
  8
0
100
AcDbBlockEnd
  0
BLOCK
  5
9A1C
330
9A1B
100
AcDbEntity
  8
0
100
AcDbBlockBegin
  2
*D34
 70
     1
 10
0.0
 20
0.0
 30
0.0
  3
*D34
  1

  0
LINE
  5
9A1E
330
9A1B
100
AcDbEntity
  8
LY_1
  6
Continuous
 62
     0
370
    -2
100
AcDbLine
 10
8.756912
 20
24.917378
 30
0.0
 11
8.756912
 21
37.818849
 31
0.0
  0
LINE
  5
9A1F
330
9A1B
100
AcDbEntity
  8
LY_1
  6
Continuous
 62
     0
370
    -2
100
AcDbLine
 10
36.756912
 20
24.917378
 30
0.0
 11
36.756912
 21
37.818849
 31
0.0
  0
LINE
  5
9A20
330
9A1B
100
AcDbEntity
  8
LY_1
  6
Continuous
 62
     0
370
    -2
100
AcDbLine
 10
11.526912
 20
36.318849
 30
0.0
 11
33.986912
 21
36.318849
 31
0.0
  0
INSERT
  5
9A21
330
9A1B
100
AcDbEntity
  8
LY_1
 62
     0
370
    -2
100
AcDbBlockReference
  2
_OPEN30
 10
8.756912
 20
36.318849
 30
0.0
 41
2.77
 42
2.77
 43
2.77
 50
180.0
  0
INSERT
  5
9A22
330
9A1B
100
AcDbEntity
  8
LY_1
 62
     0
370
    -2
100
AcDbBlockReference
  2
_OPEN30
 10
36.756912
 20
36.318849
 30
0.0
 41
2.77
 42
2.77
 43
2.77
  0
MTEXT
  5
9A23
330
9A1B
100
AcDbEntity
  8
LY_1
  6
Continuous
 62
     0
100
AcDbMText
 10
22.756912
 20
38.068849
 30
0.0
 40
2.5
 41
0.0
 46
0.0
 71
     5
 72
     1
  1
\A1;140.0
  7
MX_DIMTXSTY_3
 73
     1
 44
0.96
  0
POINT
  5
9A24
330
9A1B
100
AcDbEntity
  8
Defpoints
 62
     0
100
AcDbPoint
 10
8.756912
 20
23.417378
 30
0.0
  0
POINT
  5
9A25
330
9A1B
100
AcDbEntity
  8
Defpoints
 62
     0
100
AcDbPoint
 10
36.756912
 20
23.417378
 30
0.0
  0
POINT
  5
9A26
330
9A1B
100
AcDbEntity
  8
Defpoints
 62
     0
100
AcDbPoint
 10
36.756912
 20
36.318849
 30
0.0
  0
ENDBLK
  5
9A1D
330
9A1B
100
AcDbEntity
  8
0
100
AcDbBlockEnd
  0
BLOCK
  5
9A50
330
9A4F
100
AcDbEntity
  8
0
100
AcDbBlockBegin
  2
*D35
 70
     1
 10
0.0
 20
0.0
 30
0.0
  3
*D35
  1

  0
LINE
  5
9A52
330
9A4F
100
AcDbEntity
  8
DIM
  6
Continuous
 62
     0
370
    -2
100
AcDbLine
 10
1725.699761091668
 20
2114.410638786416
 30
0.0
 11
1725.699761091668
 21
2166.930608786413
 31
0.0
  0
LINE
  5
9A53
330
9A4F
100
AcDbEntity
  8
DIM
  6
Continuous
 62
     0
370
    -2
100
AcDbLine
 10
1791.699761091672
 20
2114.410638786416
 30
0.0
 11
1791.699761091672
 21
2166.930608786413
 31
0.0
  0
LINE
  5
9A54
330
9A4F
100
AcDbEntity
  8
DIM
  6
Continuous
 62
     0
370
    -2
100
AcDbLine
 10
1734.699761091668
 20
2166.930608786413
 30
0.0
 11
1782.699761091672
 21
2166.930608786413
 31
0.0
  0
INSERT
  5
9A55
330
9A4F
100
AcDbEntity
  8
DIM
 62
     0
370
    -2
100
AcDbBlockReference
  2
_DOT
 10
1725.699761091668
 20
2166.930608786413
 30
0.0
 41
9.0
 42
9.0
 43
9.0
 50
180.0
  0
INSERT
  5
9A56
330
9A4F
100
AcDbEntity
  8
DIM
 62
     0
370
    -2
100
AcDbBlockReference
  2
_DOT
 10
1791.699761091672
 20
2166.930608786413
 30
0.0
 41
9.0
 42
9.0
 43
9.0
  0
MTEXT
  5
9A57
330
9A4F
100
AcDbEntity
  8
DIM
  6
Continuous
 62
     0
100
AcDbMText
 10
1756.948017033846
 20
2189.146917380163
 30
0.0
 40
24.4326171875
 41
0.0
 46
0.0
 71
     5
 72
     1
  1
\A1;\A1;33
  7
ＭＳ ゴシック
 73
     1
 44
0.96
  0
POINT
  5
9A58
330
9A4F
100
AcDbEntity
  8
Defpoints
 62
     0
100
AcDbPoint
 10
1725.699761091668
 20
2114.410638786416
 30
0.0
  0
POINT
  5
9A59
330
9A4F
100
AcDbEntity
  8
Defpoints
 62
     0
100
AcDbPoint
 10
1791.699761091672
 20
2114.410638786416
 30
0.0
  0
POINT
  5
9A5A
330
9A4F
100
AcDbEntity
  8
Defpoints
 62
     0
100
AcDbPoint
 10
1791.699761091672
 20
2166.930608786413
 30
0.0
  0
ENDBLK
  5
9A51
330
9A4F
100
AcDbEntity
  8
0
100
AcDbBlockEnd
  0
BLOCK
  5
9A5D
330
9A5C
100
AcDbEntity
  8
0
100
AcDbBlockBegin
  2
*D36
 70
     1
 10
0.0
 20
0.0
 30
0.0
  3
*D36
  1

  0
LINE
  5
9A5F
330
9A5C
100
AcDbEntity
  8
DIM
  6
Continuous
 62
     0
370
    -2
100
AcDbLine
 10
1361.00657109167
 20
2109.731299706737
 30
0.0
 11
1361.00657109167
 21
2162.452857314321
 31
0.0
  0
LINE
  5
9A60
330
9A5C
100
AcDbEntity
  8
DIM
  6
Continuous
 62
     0
370
    -2
100
AcDbLine
 10
1461.006571091669
 20
2106.24649935976
 30
0.0
 11
1461.006571091669
 21
2162.452857314321
 31
0.0
  0
LINE
  5
9A61
330
9A5C
100
AcDbEntity
  8
DIM
  6
Continuous
 62
     0
370
    -2
100
AcDbLine
 10
1370.00657109167
 20
2162.452857314321
 30
0.0
 11
1452.006571091669
 21
2162.452857314321
 31
0.0
  0
INSERT
  5
9A62
330
9A5C
100
AcDbEntity
  8
DIM
 62
     0
370
    -2
100
AcDbBlockReference
  2
_DOT
 10
1361.00657109167
 20
2162.452857314321
 30
0.0
 41
9.0
 42
9.0
 43
9.0
 50
180.0
  0
INSERT
  5
9A63
330
9A5C
100
AcDbEntity
  8
DIM
 62
     0
370
    -2
100
AcDbBlockReference
  2
_DOT
 10
1461.006571091669
 20
2162.452857314321
 30
0.0
 41
9.0
 42
9.0
 43
9.0
  0
MTEXT
  5
9A64
330
9A5C
100
AcDbEntity
  8
DIM
  6
Continuous
 62
     0
100
AcDbMText
 10
1411.00657109167
 20
2184.669165908071
 30
0.0
 40
24.4326171875
 41
0.0
 46
0.0
 71
     5
 72
     1
  1
\A1;\A1;50
  7
ＭＳ ゴシック
 73
     1
 44
0.96
  0
POINT
  5
9A65
330
9A5C
100
AcDbEntity
  8
Defpoints
 62
     0
100
AcDbPoint
 10
1361.00657109167
 20
2109.731299706737
 30
0.0
  0
POINT
  5
9A66
330
9A5C
100
AcDbEntity
  8
Defpoints
 62
     0
100
AcDbPoint
 10
1461.006571091669
 20
2106.24649935976
 30
0.0
  0
POINT
  5
9A67
330
9A5C
100
AcDbEntity
  8
Defpoints
 62
     0
100
AcDbPoint
 10
1461.006571091669
 20
2162.452857314321
 30
0.0
  0
ENDBLK
  5
9A5E
330
9A5C
100
AcDbEntity
  8
0
100
AcDbBlockEnd
  0
BLOCK
  5
9A69
330
9A68
100
AcDbEntity
  8
0
100
AcDbBlockBegin
  2
*D37
 70
     1
 10
0.0
 20
0.0
 30
0.0
  3
*D37
  1

  0
LINE
  5
9A6B
330
9A68
100
AcDbEntity
  8
DIM
  6
Continuous
 62
     0
370
    -2
100
AcDbLine
 10
1461.00657109167
 20
2147.231299706737
 30
0.0
 11
1461.00657109167
 21
2162.452857314321
 31
0.0
  0
LINE
  5
9A6C
330
9A68
100
AcDbEntity
  8
DIM
  6
Continuous
 62
     0
370
    -2
100
AcDbLine
 10
1561.00657109167
 20
2109.731299706737
 30
0.0
 11
1561.00657109167
 21
2162.452857314321
 31
0.0
  0
LINE
  5
9A6D
330
9A68
100
AcDbEntity
  8
DIM
  6
Continuous
 62
     0
370
    -2
100
AcDbLine
 10
1470.00657109167
 20
2162.452857314321
 30
0.0
 11
1552.00657109167
 21
2162.452857314321
 31
0.0
  0
INSERT
  5
9A6E
330
9A68
100
AcDbEntity
  8
DIM
 62
     0
370
    -2
100
AcDbBlockReference
  2
_DOT
 10
1461.00657109167
 20
2162.452857314321
 30
0.0
 41
9.0
 42
9.0
 43
9.0
 50
180.0
  0
INSERT
  5
9A6F
330
9A68
100
AcDbEntity
  8
DIM
 62
     0
370
    -2
100
AcDbBlockReference
  2
_DOT
 10
1561.00657109167
 20
2162.452857314321
 30
0.0
 41
9.0
 42
9.0
 43
9.0
  0
MTEXT
  5
9A70
330
9A68
100
AcDbEntity
  8
DIM
  6
Continuous
 62
     0
100
AcDbMText
 10
1511.00657109167
 20
2184.669165908071
 30
0.0
 40
24.4326171875
 41
0.0
 46
0.0
 71
     5
 72
     1
  1
\A1;\A1;50
  7
ＭＳ ゴシック
 73
     1
 44
0.96
  0
POINT
  5
9A71
330
9A68
100
AcDbEntity
  8
Defpoints
 62
     0
100
AcDbPoint
 10
1461.00657109167
 20
2147.231299706737
 30
0.0
  0
POINT
  5
9A72
330
9A68
100
AcDbEntity
  8
Defpoints
 62
     0
100
AcDbPoint
 10
1561.00657109167
 20
2109.731299706737
 30
0.0
  0
POINT
  5
9A9B
330
9A68
100
AcDbEntity
  8
Defpoints
 62
     0
100
AcDbPoint
 10
1561.00657109167
 20
2162.452857314321
 30
0.0
  0
ENDBLK
  5
9A6A
330
9A68
100
AcDbEntity
  8
0
100
AcDbBlockEnd
  0
BLOCK
  5
9A74
330
9A73
100
AcDbEntity
  8
0
100
AcDbBlockBegin
  2
*D38
 70
     1
 10
0.0
 20
0.0
 30
0.0
  3
*D38
  1

  0
LINE
  5
9A76
330
9A73
100
AcDbEntity
  8
DIM
  6
Continuous
 62
     0
370
    -2
100
AcDbLine
 10
1824.34207519407
 20
2044.230164520816
 30
0.0
 11
1901.57689269312
 21
2044.230164520816
 31
0.0
  0
LINE
  5
9A77
330
9A73
100
AcDbEntity
  8
DIM
  6
Continuous
 62
     0
370
    -2
100
AcDbLine
 10
1824.34207519407
 20
1984.230164520816
 30
0.0
 11
1901.57689269312
 21
1984.230164520816
 31
0.0
  0
LINE
  5
9A78
330
9A73
100
AcDbEntity
  8
DIM
  6
Continuous
 62
     0
370
    -2
100
AcDbLine
 10
1901.57689269312
 20
2035.230164520816
 30
0.0
 11
1901.57689269312
 21
1993.230164520816
 31
0.0
  0
INSERT
  5
9A79
330
9A73
100
AcDbEntity
  8
DIM
 62
     0
370
    -2
100
AcDbBlockReference
  2
_DOT
 10
1901.57689269312
 20
2044.230164520816
 30
0.0
 41
9.0
 42
9.0
 43
9.0
 50
90.0
  0
INSERT
  5
9A7A
330
9A73
100
AcDbEntity
  8
DIM
 62
     0
370
    -2
100
AcDbBlockReference
  2
_DOT
 10
1901.57689269312
 20
1984.230164520816
 30
0.0
 41
9.0
 42
9.0
 43
9.0
 50
270.0
  0
MTEXT
  5
9A7B
330
9A73
100
AcDbEntity
  8
DIM
  6
Continuous
 62
     0
100
AcDbMText
 10
1879.36058409937
 20
2014.230164520816
 30
0.0
 40
24.4326171875
 41
0.0
 46
0.0
 71
     5
 72
     1
  1
\A1;\A1;30
  7
ＭＳ ゴシック
 11
0.0
 21
1.0
 31
0.0
 73
     1
 44
0.96
  0
POINT
  5
9A7C
330
9A73
100
AcDbEntity
  8
Defpoints
 62
     0
100
AcDbPoint
 10
1824.34207519407
 20
2044.230164520816
 30
0.0
  0
POINT
  5
9A7D
330
9A73
100
AcDbEntity
  8
Defpoints
 62
     0
100
AcDbPoint
 10
1824.34207519407
 20
1984.230164520816
 30
0.0
  0
POINT
  5
9A7E
330
9A73
100
AcDbEntity
  8
Defpoints
 62
     0
100
AcDbPoint
 10
1901.57689269312
 20
1984.230164520816
 30
0.0
  0
ENDBLK
  5
9A75
330
9A73
100
AcDbEntity
  8
0
100
AcDbBlockEnd
  0
BLOCK
  5
9A83
330
9A82
100
AcDbEntity
  8
0
100
AcDbBlockBegin
  2
*D39
 70
     1
 10
0.0
 20
0.0
 30
0.0
  3
*D39
  1

  0
LINE
  5
9A85
330
9A82
100
AcDbEntity
  8
DIM
  6
Continuous
 62
     0
370
    -2
100
AcDbLine
 10
1306.05807163567
 20
1934.230164520816
 30
0.0
 11
1248.48895163567
 21
1934.230164520816
 31
0.0
  0
LINE
  5
9A86
330
9A82
100
AcDbEntity
  8
DIM
  6
Continuous
 62
     0
370
    -2
100
AcDbLine
 10
1306.05807163567
 20
2094.230164520816
 30
0.0
 11
1248.48895163567
 21
2094.230164520816
 31
0.0
  0
LINE
  5
9A87
330
9A82
100
AcDbEntity
  8
DIM
  6
Continuous
 62
     0
370
    -2
100
AcDbLine
 10
1248.48895163567
 20
1943.230164520816
 30
0.0
 11
1248.48895163567
 21
2085.230164520816
 31
0.0
  0
INSERT
  5
9A88
330
9A82
100
AcDbEntity
  8
DIM
 62
     0
370
    -2
100
AcDbBlockReference
  2
_DOT
 10
1248.48895163567
 20
1934.230164520816
 30
0.0
 41
9.0
 42
9.0
 43
9.0
 50
270.0
  0
INSERT
  5
9A89
330
9A82
100
AcDbEntity
  8
DIM
 62
     0
370
    -2
100
AcDbBlockReference
  2
_DOT
 10
1248.48895163567
 20
2094.230164520816
 30
0.0
 41
9.0
 42
9.0
 43
9.0
 50
90.0
  0
MTEXT
  5
9A8A
330
9A82
100
AcDbEntity
  8
DIM
  6
Continuous
 62
     0
100
AcDbMText
 10
1226.27264304192
 20
2014.230164520816
 30
0.0
 40
24.4326171875
 41
0.0
 46
0.0
 71
     5
 72
     1
  1
\A1;\A1;80
  7
ＭＳ ゴシック
 11
0.0
 21
1.0
 31
0.0
 73
     1
 44
0.96
  0
POINT
  5
9A8B
330
9A82
100
AcDbEntity
  8
Defpoints
 62
     0
100
AcDbPoint
 10
1306.05807163567
 20
1934.230164520816
 30
0.0
  0
POINT
  5
9A8C
330
9A82
100
AcDbEntity
  8
Defpoints
 62
     0
100
AcDbPoint
 10
1306.05807163567
 20
2094.230164520816
 30
0.0
  0
POINT
  5
9A8D
330
9A82
100
AcDbEntity
  8
Defpoints
 62
     0
100
AcDbPoint
 10
1248.48895163567
 20
2094.230164520816
 30
0.0
  0
ENDBLK
  5
9A84
330
9A82
100
AcDbEntity
  8
0
100
AcDbBlockEnd
  0
BLOCK
  5
9A8F
330
9A8E
100
AcDbEntity
  8
0
100
AcDbBlockBegin
  2
*D40
 70
     1
 10
0.0
 20
0.0
 30
0.0
  3
*D40
  1

  0
LINE
  5
9A91
330
9A8E
100
AcDbEntity
  8
DIM
  6
Continuous
 62
     0
370
    -2
100
AcDbLine
 10
1321.00657109167
 20
2106.226335334256
 30
0.0
 11
1321.00657109167
 21
2217.463335312401
 31
0.0
  0
LINE
  5
9A92
330
9A8E
100
AcDbEntity
  8
DIM
  6
Continuous
 62
     0
370
    -2
100
AcDbLine
 10
1601.00657109167
 20
2106.226335334256
 30
0.0
 11
1601.00657109167
 21
2217.463335312401
 31
0.0
  0
LINE
  5
9A93
330
9A8E
100
AcDbEntity
  8
DIM
  6
Continuous
 62
     0
370
    -2
100
AcDbLine
 10
1330.00657109167
 20
2217.463335312401
 30
0.0
 11
1592.00657109167
 21
2217.463335312401
 31
0.0
  0
INSERT
  5
9A94
330
9A8E
100
AcDbEntity
  8
DIM
 62
     0
370
    -2
100
AcDbBlockReference
  2
_DOT
 10
1321.00657109167
 20
2217.463335312401
 30
0.0
 41
9.0
 42
9.0
 43
9.0
 50
180.0
  0
INSERT
  5
9A95
330
9A8E
100
AcDbEntity
  8
DIM
 62
     0
370
    -2
100
AcDbBlockReference
  2
_DOT
 10
1601.00657109167
 20
2217.463335312401
 30
0.0
 41
9.0
 42
9.0
 43
9.0
  0
MTEXT
  5
9A96
330
9A8E
100
AcDbEntity
  8
DIM
  6
Continuous
 62
     0
100
AcDbMText
 10
1461.006571091669
 20
2239.679643906151
 30
0.0
 40
24.4326171875
 41
0.0
 46
0.0
 71
     5
 72
     1
  1
\A1;\A1;140
  7
ＭＳ ゴシック
 73
     1
 44
0.96
  0
POINT
  5
9A97
330
9A8E
100
AcDbEntity
  8
Defpoints
 62
     0
100
AcDbPoint
 10
1321.00657109167
 20
2106.226335334256
 30
0.0
  0
POINT
  5
9A98
330
9A8E
100
AcDbEntity
  8
Defpoints
 62
     0
100
AcDbPoint
 10
1601.00657109167
 20
2106.226335334256
 30
0.0
  0
POINT
  5
9A99
330
9A8E
100
AcDbEntity
  8
Defpoints
 62
     0
100
AcDbPoint
 10
1601.00657109167
 20
2217.463335312401
 30
0.0
  0
ENDBLK
  5
9A90
330
9A8E
100
AcDbEntity
  8
0
100
AcDbBlockEnd
  0
ENDSEC
  0
SECTION
  2
ENTITIES
  0
POINT
  5
3B96
330
A
100
AcDbEntity
  8
_0-7_
 62
     9
100
AcDbPoint
 10
5611.355377587607
 20
1006.191153304715
 30
0.0
  0
MTEXT
  5
74FA
330
A
100
AcDbEntity
  8
MODEL
390
1D
100
AcDbMText
 10
79.2547055326859
 20
348.7848719762269
 30
0.0
 40
16.28841145833333
 41
0.0
 46
0.0
 71
     1
 72
     1
  1
品名
  7
ＭＳ ゴシック
 73
     1
 44
0.7828267384257843
  0
MTEXT
  5
74FB
330
A
100
AcDbEntity
  8
MODEL
390
1D
100
AcDbMText
 10
79.2547055326859
 20
263.7848719762269
 30
0.0
 40
16.28841145833333
 41
0.0
 46
0.0
 71
     1
 72
     1
  1
仕様
  7
ＭＳ ゴシック
 73
     1
 44
0.7828267384257843
  0
LINE
  5
74FC
330
A
100
AcDbEntity
  8
MODEL
390
1D
100
AcDbLine
 10
2022.254705532204
 20
272.1997938512268
 30
0.0
 11
72.25470553220384
 21
272.1997938512268
 31
0.0
  0
LWPOLYLINE
  5
74FD
330
A
100
AcDbEntity
  8
MODEL
390
1D
100
AcDbPolyline
 90
        5
 70
   128
 43
0.0
 10
2022.254705532204
 20
2902.199793851226
 10
72.25470553220384
 20
2902.199793851226
 10
72.25470553220384
 20
102.1997938512268
 10
2022.254705532204
 20
102.1997938512268
 10
2022.254705532204
 20
2902.199793851226
  0
LINE
  5
74FE
330
A
100
AcDbEntity
  8
MODEL
390
1D
100
AcDbLine
 10
2022.254705532204
 20
357.1997938512268
 30
0.0
 11
72.25470553220384
 21
357.1997938512268
 31
0.0
  0
LINE
  5
74FF
330
A
100
AcDbEntity
  8
MODEL
390
1D
100
AcDbLine
 10
2022.254705532686
 20
187.1997938512268
 30
0.0
 11
1269.254705532686
 21
187.1997938512268
 31
0.0
  0
MTEXT
  5
7500
330
A
100
AcDbEntity
  8
MODEL
390
1D
100
AcDbMText
 10
72.2547055328896
 20
90.34597179436969
 30
0.0
 40
21.71788194444445
 41
0.0
 46
21.71788194444445
 71
     1
 72
     1
  1
{160122N}
  7
ＭＳ ゴシック
 73
     1
 44
0.7828267384257843
1001
ACAD
1000
ACAD_MTEXT_DEFINED_HEIGHT_BEGIN
1070
    46
1040
21.71788194444445
1000
ACAD_MTEXT_DEFINED_HEIGHT_END
  0
MTEXT
  5
7501
330
A
100
AcDbEntity
  8
MODEL
390
1D
100
AcDbMText
 10
1299.126111784947
 20
157.289399377918
 30
0.0
 40
24.4326171875
 41
0.0
 46
0.0
 71
     1
 72
     1
  1
大洋金物株式会社 ティーフォルム事業部
  7
ＭＳ ゴシック
 73
     1
 44
0.7828267384257843
  0
MTEXT
  5
7502
330
A
100
AcDbEntity
  8
MODEL
390
1D
100
AcDbMText
 10
1831.254705532946
 20
235.2024110387265
 30
0.0
 40
24.4326171875
 41
0.0
 46
24.4326171875
 71
     1
 72
     1
  1
{1:10}
  7
ＭＳ ゴシック
 73
     1
 44
0.7828267384257843
1001
ACAD
1000
ACAD_MTEXT_DEFINED_HEIGHT_BEGIN
1070
    46
1040
24.4326171875
1000
ACAD_MTEXT_DEFINED_HEIGHT_END
  0
MTEXT
  5
7503
330
A
100
AcDbEntity
  8
MODEL
390
1D
100
AcDbMText
 10
1778.254705532946
 20
263.7848719762269
 30
0.0
 40
16.28841145833333
 41
0.0
 46
0.0
 71
     1
 72
     1
  1
縮尺
  7
ＭＳ ゴシック
 73
     1
 44
0.7828267384257843
  0
LINE
  5
7504
330
A
100
AcDbEntity
  8
MODEL
390
1D
100
AcDbLine
 10
1771.254705532946
 20
187.1997938512268
 30
0.0
 11
1771.254705532946
 21
272.1997938512268
 31
0.0
  0
MTEXT
  5
7505
330
A
100
AcDbEntity
  8
MODEL
390
1D
100
AcDbMText
 10
1527.254705532946
 20
263.7848719762269
 30
0.0
 40
16.28841145833333
 41
0.0
 46
0.0
 71
     1
 72
     1
  1
容量
  7
ＭＳ ゴシック
 73
     1
 44
0.7828267384257843
  0
LINE
  5
7506
330
A
100
AcDbEntity
  8
MODEL
390
1D
100
AcDbLine
 10
1520.254705532946
 20
187.1997938512268
 30
0.0
 11
1520.254705532946
 21
272.1997938512268
 31
0.0
  0
MTEXT
  5
7507
330
A
100
AcDbEntity
  8
MODEL
390
1D
100
AcDbMText
 10
1276.254705532946
 20
348.7848719762269
 30
0.0
 40
16.28841145833333
 41
0.0
 46
0.0
 71
     1
 72
     1
  1
品番
  7
ＭＳ ゴシック
 73
     1
 44
0.7828267384257843
  0
MTEXT
  5
7508
330
A
100
AcDbEntity
  8
MODEL
390
1D
100
AcDbMText
 10
1276.254705532946
 20
263.7848719762269
 30
0.0
 40
16.28841145833333
 41
0.0
 46
0.0
 71
     1
 72
     1
  1
重量
  7
ＭＳ ゴシック
 73
     1
 44
0.7828267384257843
  0
MTEXT
  5
7509
330
A
100
AcDbEntity
  8
MODEL
390
1D
100
AcDbMText
 10
1329.254705532946
 20
320.2024110387265
 30
0.0
 40
24.4326171875
 41
0.0
 46
24.4326171875
 71
     1
 72
     1
  1
{FAA71-0902}
  7
ＭＳ ゴシック
 73
     1
 44
0.7828267384257843
1001
ACAD
1000
ACAD_MTEXT_DEFINED_HEIGHT_BEGIN
1070
    46
1040
24.4326171875
1000
ACAD_MTEXT_DEFINED_HEIGHT_END
  0
LINE
  5
750A
330
A
100
AcDbEntity
  8
MODEL
390
1D
100
AcDbLine
 10
1269.254705532946
 20
102.1997938512268
 30
0.0
 11
1269.254705532946
 21
357.1997938512268
 31
0.0
  0
MTEXT
  5
750B
330
A
100
AcDbEntity
  8
MODEL
390
1D
100
AcDbMText
 10
132.2547055326858
 20
320.2024110387265
 30
0.0
 40
24.4326171875
 41
0.0
 46
24.4326171875
 71
     1
 72
     1
  1
{壁掛便器 -DURAVIT,Darling-}
  7
ＭＳ ゴシック
 73
     1
 44
0.7828267384257843
1001
ACAD
1000
ACAD_MTEXT_DEFINED_HEIGHT_BEGIN
1070
    46
1040
24.4326171875
1000
ACAD_MTEXT_DEFINED_HEIGHT_END
  0
MTEXT
  5
750C
330
A
100
AcDbEntity
  8
MODEL
390
1D
100
AcDbMText
 10
132.2547055326858
 20
237.2474089396837
 30
0.0
 40
24.4326171875
 41
0.0
 46
96.15049283854167
 71
     1
 72
     1
  1
{\pxsm1;ウォッシュダウン式/センソウォッシュ(温水洗浄便座),壁固定金具,\P\W0.945946;ワイヤレスリモコン\W1;付属/\P陶器/ホワイト}
  7
ＭＳ ゴシック
 73
     1
 44
1.304711230709641
1001
ACAD
1000
ACAD_MTEXT_DEFINED_HEIGHT_BEGIN
1070
    46
1040
96.15049283854167
1000
ACAD_MTEXT_DEFINED_HEIGHT_END
  0
INSERT
  5
750D
330
A
100
AcDbEntity
  8
MODEL
100
AcDbBlockReference
  2
名称未設定-1
 10
1870.813956087109
 20
30.99988610145101
 30
0.0
 41
0.762
 42
0.762
 43
0.762
  0
LWPOLYLINE
  5
750E
330
A
100
AcDbEntity
  8
TEMPLATE
  6
Continuous
100
AcDbPolyline
 90
        4
 70
     1
 43
0.0
 10
0.0
 20
0.0
 10
0.0
 20
2970.0
 10
2100.0
 20
2970.0
 10
2100.0
 20
0.0
  0
LINE
  5
797B
330
A
100
AcDbEntity
  8
MODEL GRAY
  6
AM_DIN_F_W050
 48
3.0
100
AcDbLine
 10
872.1194644029459
 20
1168.706152166268
 30
0.0
 11
529.722585694581
 21
1156.931841075149
 31
0.0
  0
ARC
  5
797C
330
A
100
AcDbEntity
  8
MODEL GRAY
  6
AM_DIN_F_W050
 48
3.0
100
AcDbCircle
 10
507.7136466021633
 20
1210.7258866892
 30
0.0
 40
7.0
100
AcDbArc
 50
13.45562695896318
 51
90.0
1001
GENIUS_GENODEF_13
1002
{
1000
HIER
1070
     0
1002
}
1002
{
1000
MANEDIT
1070
     0
1002
}
1002
{
1000
NOSEL
1070
     0
1002
}
1002
{
1000
BEHIND
1070
     0
1002
}
1002
{
1000
OTHER
1070
     0
1002
}
1002
{
1000
REACTOR
1002
}
1001
GENIUS_GENOBJ-N-FIL_13
1002
{
1000
OWNER
1000
GEN
1002
}
  0
LINE
  5
797D
330
A
100
AcDbEntity
  8
MODEL GRAY
  6
AM_DIN_F_W050
 48
3.0
100
AcDbLine
 10
523.3375126100321
 20
1162.176582562917
 30
0.0
 11
514.5214995551781
 21
1212.354732344907
 31
0.0
  0
ARC
  5
797E
330
A
100
AcDbEntity
  8
MODEL GRAY
  6
AM_DIN_F_W050
 48
3.0
100
AcDbCircle
 10
516.5296596570164
 20
1160.54773690721
 30
0.0
 40
7.0
100
AcDbArc
 50
279.4381721005302
 51
13.45562695896318
1001
GENIUS_GENOBJ-N-FIL_13
1002
{
1000
OWNER
1000
GEN
1002
}
1001
GENIUS_GENODEF_13
1002
{
1000
HIER
1070
     0
1002
}
1002
{
1000
MANEDIT
1070
     0
1002
}
1002
{
1000
NOSEL
1070
     0
1002
}
1002
{
1000
BEHIND
1070
     0
1002
}
1002
{
1000
OTHER
1070
     0
1002
}
1002
{
1000
REACTOR
1002
}
  0
LINE
  5
797F
330
A
100
AcDbEntity
  8
MODEL GRAY
  6
AM_DIN_F_W050
 48
3.0
100
AcDbLine
 10
497.4968788979589
 20
1144.132003550754
 30
0.0
 11
517.6775421184024
 21
1153.642494995819
 31
0.0
  0
ARC
  5
7980
330
A
100
AcDbEntity
  8
MODEL GRAY
  6
AM_DIN_F_W050
 48
3.0
100
AcDbCircle
 10
702.751350957545
 20
1317.765217770774
 30
0.0
 40
267.1027851622672
100
AcDbArc
 50
271.0897204499039
 51
319.9021062904399
  0
ARC
  5
7981
330
A
100
AcDbEntity
  8
MODEL GRAY
  6
AM_DIN_F_W050
 48
3.0
100
AcDbCircle
 10
707.9230928548553
 20
1043.711344870838
 30
0.0
 40
7.0
100
AcDbArc
 50
90.75275935477214
 51
175.6650170523698
1001
GENIUS_GENOBJ-N-FIL_13
1002
{
1000
OWNER
1000
GEN
1002
}
1001
GENIUS_GENODEF_13
1002
{
1000
HIER
1070
     0
1002
}
1002
{
1000
MANEDIT
1070
     0
1002
}
1002
{
1000
NOSEL
1070
     0
1002
}
1002
{
1000
BEHIND
1070
     0
1002
}
1002
{
1000
OTHER
1070
     0
1002
}
1002
{
1000
REACTOR
1002
}
  0
LINE
  5
7982
330
A
100
AcDbEntity
  8
MODEL
100
AcDbLine
 10
921.9461073377773
 20
1201.338464290919
 30
0.0
 11
305.5475608476103
 21
1201.385524274062
 31
0.0
  0
ARC
  5
7983
330
A
100
AcDbEntity
  8
MODEL GRAY
  6
AM_DIN_F_W050
 48
3.0
100
AcDbCircle
 10
887.7788976832993
 20
1210.720601015478
 30
0.0
 40
6.999999999999979
100
AcDbArc
 50
90.0
 51
166.5443730410368
1001
GENIUS_GENODEF_13
1002
{
1000
HIER
1070
     0
1002
}
1002
{
1000
MANEDIT
1070
     0
1002
}
1002
{
1000
NOSEL
1070
     0
1002
}
1002
{
1000
BEHIND
1070
     0
1002
}
1002
{
1000
OTHER
1070
     0
1002
}
1002
{
1000
REACTOR
1002
}
1001
GENIUS_GENOBJ-N-FIL_13
1002
{
1000
OWNER
1000
GEN
1002
}
  0
LINE
  5
7984
330
A
100
AcDbEntity
  8
MODEL GRAY
  6
AM_DIN_F_W050
 48
3.0
100
AcDbLine
 10
874.3652167931053
 20
1173.219765632712
 30
0.0
 11
880.9710447302836
 21
1212.349446671185
 31
0.0
  0
ARC
  5
7985
330
A
100
AcDbEntity
  8
MODEL GRAY
  6
AM_DIN_F_W050
 48
3.0
100
AcDbCircle
 10
881.1730697461202
 20
1171.590919977004
 30
0.0
 40
7.0
100
AcDbArc
 50
166.5443730410368
 51
260.561827899478
1001
GENIUS_GENOBJ-N-FIL_13
1002
{
1000
OWNER
1000
GEN
1002
}
1001
GENIUS_GENODEF_13
1002
{
1000
HIER
1070
     0
1002
}
1002
{
1000
MANEDIT
1070
     0
1002
}
1002
{
1000
NOSEL
1070
     0
1002
}
1002
{
1000
BEHIND
1070
     0
1002
}
1002
{
1000
OTHER
1070
     0
1002
}
1002
{
1000
REACTOR
1002
}
  0
LINE
  5
7986
330
A
100
AcDbEntity
  8
MODEL GRAY
  6
AM_DIN_F_W050
 48
3.0
100
AcDbLine
 10
880.0251872847342
 20
1164.685678065611
 30
0.0
 11
908.7953500377665
 21
1156.121742539381
 31
0.0
  0
LINE
  5
7987
330
A
100
AcDbEntity
  8
MODEL GRAY
  6
AM_DIN_G_W050
 48
2.0
100
AcDbLine
 10
460.5486745303318
 20
1193.445589976719
 30
0.0
 11
460.5486745303318
 21
1223.877435760223
 31
0.0
  0
LINE
  5
7988
330
A
100
AcDbEntity
  8
MODEL GRAY
  6
AM_DIN_F_W050
 48
3.0
100
AcDbLine
 10
378.5042021531229
 20
986.653153449744
 30
0.0
 11
330.8121360059253
 21
986.653153449744
 31
0.0
  0
LINE
  5
7989
330
A
100
AcDbEntity
  8
MODEL GRAY
  6
AM_DIN_F_W050
 48
3.0
100
AcDbLine
 10
480.4012311719692
 20
1088.305542697861
 30
0.0
 11
330.8121360059253
 21
1088.65282854277
 31
0.0
  0
ARC
  5
798A
330
A
100
AcDbEntity
  8
MODEL GRAY
  6
AM_DIN_F_W050
 48
3.0
100
AcDbCircle
 10
739.7066494943095
 20
912.88708491798
 30
0.0
 40
96.68710753916965
100
AcDbArc
 50
150.1110868272498
 51
174.1589398676932
  0
ARC
  5
798B
330
A
100
AcDbEntity
  8
MODEL GRAY
  6
AM_DIN_F_W050
 48
3.0
100
AcDbCircle
 10
391.2405083408443
 20
930.879244124571
 30
0.0
 40
183.4097298652059
100
AcDbArc
 50
8.867165977945676
 51
48.70482140080397
  0
LINE
  5
798C
330
A
100
AcDbEntity
  8
MODEL GRAY
  6
AM_DIN_F_W050
 48
3.0
100
AcDbLine
 10
517.5983813049128
 20
965.3534349716799
 30
0.0
 11
527.8251260519149
 21
922.726858081121
 31
0.0
  0
ARC
  5
798D
330
A
100
AcDbEntity
  8
MODEL GRAY
  6
AM_DIN_F_W050
 48
3.0
100
AcDbCircle
 10
501.0674774416178
 20
961.387427223013
 30
0.0
 40
17.0
100
AcDbArc
 50
13.49111501413145
 51
86.15959235497712
1001
GENIUS_GENOBJ-N-FIL_13
1002
{
1000
OWNER
1000
GEN
1002
}
1001
GENIUS_GENODEF_13
1002
{
1000
HIER
1070
     0
1002
}
1002
{
1000
MANEDIT
1070
     0
1002
}
1002
{
1000
NOSEL
1070
     0
1002
}
1002
{
1000
BEHIND
1070
     0
1002
}
1002
{
1000
OTHER
1070
     0
1002
}
1002
{
1000
REACTOR
1002
}
  0
ARC
  5
798E
330
A
100
AcDbEntity
  8
MODEL GRAY
  6
AM_DIN_F_W050
 48
3.0
100
AcDbCircle
 10
583.7916462966963
 20
1124.21214934627
 30
0.0
 40
90.5424987315297
100
AcDbArc
 50
169.9053182146725
 51
217.8315859268709
1001
GENIUS_GENODEF_13
1002
{
1000
HIER
1070
     0
1002
}
1002
{
1000
MANEDIT
1070
     0
1002
}
1002
{
1000
NOSEL
1070
     0
1002
}
1002
{
1000
BEHIND
1070
     0
1002
}
1002
{
1000
OTHER
1070
     0
1002
}
1002
{
1000
REACTOR
1002
}
1001
GENIUS_GENOBJ-N-FIL_13
1002
{
1000
OWNER
1000
GEN
1002
}
  0
ARC
  5
798F
330
A
100
AcDbEntity
  8
MODEL GRAY
  6
AM_DIN_F_W050
 48
3.0
100
AcDbCircle
 10
499.6283791300378
 20
1139.609094447019
 30
0.0
 40
5.0
100
AcDbArc
 50
115.2329798916417
 51
174.5725947649772
1001
GENIUS_GENOBJ-N-FIL_13
1002
{
1000
OWNER
1000
GEN
1002
}
1001
GENIUS_GENODEF_13
1002
{
1000
HIER
1070
     0
1002
}
1002
{
1000
MANEDIT
1070
     0
1002
}
1002
{
1000
NOSEL
1070
     0
1002
}
1002
{
1000
BEHIND
1070
     0
1002
}
1002
{
1000
OTHER
1070
     0
1002
}
1002
{
1000
REACTOR
1002
}
  0
LINE
  5
7990
330
A
100
AcDbEntity
  8
MODEL GRAY
  6
CENTER2
100
AcDbLine
 10
479.0248301637515
 20
1038.214347373655
 30
0.0
 11
299.4472355500278
 21
1038.214347373655
 31
0.0
  0
ARC
  5
7991
330
A
100
AcDbEntity
  8
MODEL GRAY
  6
AM_DIN_F_W050
 48
3.0
100
AcDbCircle
 10
591.9430295062533
 20
1052.503146940716
 30
0.0
 40
109.3128147625259
100
AcDbArc
 50
309.1789022595544
 51
355.6650170523702
  0
LINE
  5
7992
330
A
100
AcDbEntity
  8
MODEL GRAY
  6
AM_DIN_F_W050
 48
3.0
100
AcDbLine
 10
330.8121360059253
 20
987.058393033617
 30
0.0
 11
330.8121360059253
 21
1088.65282854277
 31
0.0
  0
LINE
  5
7993
330
A
100
AcDbEntity
  8
MODEL GRAY
  6
AM_DIN_F_W050
 48
3.0
100
AcDbLine
 10
494.3349322954695
 20
1135.936391069702
 30
0.0
 11
371.6431074269243
 21
1142.982170281555
 31
0.0
  0
LINE
  5
7994
330
A
100
AcDbEntity
  8
MODEL GRAY
  6
AM_DIN_F_W050
 48
3.0
100
AcDbLine
 10
369.2430444137784
 20
1143.057404809185
 30
0.0
 11
323.7686026466766
 21
1143.030240237741
 31
0.0
  0
LINE
  5
7995
330
A
100
AcDbEntity
  8
MODEL GRAY
  6
AM_DIN_F_W050
 48
3.0
100
AcDbLine
 10
323.7686026466766
 20
1143.030240237741
 30
0.0
 11
323.7686026466766
 21
1200.767730608585
 31
0.0
  0
LINE
  5
7996
330
A
100
AcDbEntity
  8
MODEL GRAY
  6
CENTER2
100
AcDbLine
 10
390.8219491924823
 20
1173.214347373655
 30
0.0
 11
299.7785593010761
 21
1173.214347373655
 31
0.0
  0
LINE
  5
7997
330
A
100
AcDbEntity
  8
MODEL GRAY
  6
AM_DIN_F_W050
 48
3.0
100
AcDbLine
 10
305.5474929020605
 20
1200.495563510343
 30
0.0
 11
371.6431074269243
 21
1200.490517329549
 31
0.0
  0
LINE
  5
7998
330
A
100
AcDbEntity
  8
MODEL GRAY
  6
AM_DIN_F_W050
 48
3.0
100
AcDbLine
 10
371.6431074269243
 20
1200.490517329549
 30
0.0
 11
371.6431074269243
 21
1142.982170281555
 31
0.0
  0
LINE
  5
7999
330
A
100
AcDbEntity
  8
MODEL GRAY
  6
AM_DIN_F_W050
 48
3.0
100
AcDbLine
 10
369.6879175205544
 20
986.653153449744
 30
0.0
 11
369.6879175205544
 21
956.209328592746
 31
0.0
  0
ARC
  5
799A
330
A
100
AcDbEntity
  8
MODEL GRAY
  6
AM_DIN_F_W050
 48
3.0
100
AcDbCircle
 10
359.6879175205544
 20
981.4320045172001
 30
0.0
 40
10.0
100
AcDbArc
 50
269.9956256574104
 51
0.0
1001
GENIUS_GENOBJ-N-FIL_13
1002
{
1000
OWNER
1000
GEN
1002
}
1001
GENIUS_GENODEF_13
1002
{
1000
HIER
1070
     0
1002
}
1002
{
1000
MANEDIT
1070
     0
1002
}
1002
{
1000
NOSEL
1070
     0
1002
}
1002
{
1000
BEHIND
1070
     0
1002
}
1002
{
1000
OTHER
1070
     0
1002
}
1002
{
1000
REACTOR
1002
}
  0
LINE
  5
799B
330
A
100
AcDbEntity
  8
MODEL GRAY
  6
AM_DIN_F_W050
 48
3.0
100
AcDbLine
 10
369.6879175205544
 20
956.209328592746
 30
0.0
 11
305.528842458831
 21
956.209328592746
 31
0.0
  0
LINE
  5
799C
330
A
100
AcDbEntity
  8
MODEL GRAY
  6
AM_DIN_F_W050
 48
3.0
100
AcDbLine
 10
359.6871540537471
 20
971.432004546343
 30
0.0
 11
305.5300049752872
 21
971.4361392649239
 31
0.0
  0
LINE
  5
799D
330
A
100
AcDbEntity
  8
MODEL GRAY
  6
AM_DIN_F_W050
 48
3.0
100
AcDbLine
 10
502.2060962982554
 20
978.349253395312
 30
0.0
 11
378.5042021531229
 21
986.653153449744
 31
0.0
  0
ARC
  5
799E
330
A
100
AcDbEntity
  8
MODEL GRAY
  6
AM_DIN_F_W050
 48
3.0
100
AcDbCircle
 10
480.6532376241124
 20
1103.217221700065
 30
0.0
 40
14.91380829689996
100
AcDbArc
 50
269.0317970411429
 51
2.740478272104559
  0
LINE
  5
799F
330
A
100
AcDbEntity
  8
MODEL GRAY
  6
AM_DIN_F_W050
 48
3.0
100
AcDbLine
 10
644.8291654737089
 20
931.505886979648
 30
0.0
 11
800.6754271476769
 21
931.505886979648
 31
0.0
  0
LINE
  5
79A0
330
A
100
AcDbEntity
  8
MODEL GRAY
  6
AM_DIN_F_W050
 48
3.0
100
AcDbLine
 10
800.6754271476769
 20
931.505886979648
 30
0.0
 11
810.7567767245458
 21
922.726858081121
 31
0.0
  0
LINE
  5
79AA
330
A
100
AcDbEntity
  8
MODEL
100
AcDbLine
 10
643.5215382328009
 20
922.7268580811201
 30
0.0
 11
527.8251260519149
 21
922.7268580811201
 31
0.0
  0
LINE
  5
79AC
330
A
100
AcDbEntity
  8
MODEL
 62
     7
100
AcDbLine
 10
448.1894205802404
 20
1252.178003316053
 30
0.0
 11
448.236962897949
 21
1218.66273638897
 31
0.0
  0
LINE
  5
79AD
330
A
100
AcDbEntity
  8
MODEL
 62
     7
100
AcDbLine
 10
432.1903971427404
 20
1252.178003316053
 30
0.0
 11
432.083599182671
 21
1218.66273638897
 31
0.0
  0
LINE
  5
79AE
330
A
100
AcDbEntity
  8
MODEL
 62
     7
100
AcDbLine
 10
432.1903971427404
 20
1252.178003316053
 30
0.0
 11
448.1894205802404
 21
1252.178003316053
 31
0.0
  0
SPLINE
  5
79AF
330
A
100
AcDbEntity
  8
MODEL
 62
     7
100
AcDbSpline
210
0.0
220
0.0
230
1.0
 70
    24
 71
     3
 72
     8
 73
     4
 74
     0
 42
0.000000001
 43
0.0000000001
 40
6.0
 40
6.0
 40
6.0
 40
6.0
 40
7.0
 40
7.0
 40
7.0
 40
7.0
 10
930.5413737052407
 20
1227.167988125081
 30
0.0
 10
930.5413737052407
 20
1227.167988125081
 30
0.0
 10
587.8072084313629
 20
1227.167988125081
 30
0.0
 10
587.8072084313629
 20
1227.167988125081
 30
0.0
  0
LINE
  5
79B1
330
A
100
AcDbEntity
  8
MODEL
100
AcDbLine
 10
873.9351318432613
 20
1223.625051927165
 30
0.0
 11
873.9351318432613
 21
1223.625051927165
 31
0.0
  0
LINE
  5
79B2
330
A
100
AcDbEntity
  8
MODEL
100
AcDbLine
 10
873.9351318432613
 20
1223.625051927165
 30
0.0
 11
835.0316636900492
 21
1223.625051927165
 31
0.0
  0
LINE
  5
79B3
330
A
100
AcDbEntity
  8
MODEL
100
AcDbLine
 10
658.4442369322372
 20
1223.625051927165
 30
0.0
 11
634.7162421405704
 21
1223.625051927165
 31
0.0
  0
LINE
  5
79B8
330
A
100
AcDbEntity
  8
MODEL
100
AcDbLine
 10
453.8669379413517
 20
1302.396471197998
 30
0.0
 11
420.4212619430876
 21
1363.34847857647
 31
0.0
  0
LINE
  5
79B9
330
A
100
AcDbEntity
  8
MODEL
100
AcDbLine
 10
528.2272569517685
 20
1218.672382656331
 30
0.0
 11
528.2437934101011
 21
1235.977786302164
 31
0.0
  0
LINE
  5
79BA
330
A
100
AcDbEntity
  8
MODEL
100
AcDbLine
 10
528.2437934101011
 20
1235.977786302164
 30
0.0
 11
529.6224545587451
 21
1235.977786302164
 31
0.0
  0
LINE
  5
79BB
330
A
100
AcDbEntity
  8
MODEL
100
AcDbLine
 10
524.7232337885229
 20
1218.672382656331
 30
0.0
 11
421.5869945496837
 21
1218.66273638897
 31
0.0
  0
LWPOLYLINE
  5
79C4
330
A
100
AcDbEntity
  8
MODEL
100
AcDbPolyline
 90
        7
 70
     1
 43
0.0
 10
486.8753281511603
 20
1310.975024759752
 42
0.0837070981806584
 10
500.6248074074978
 20
1325.4641415539
 42
0.2770541093488471
 10
591.5162373679999
 20
1273.316420199734
 10
928.1311740524628
 20
1273.316420199734
 42
-0.4142135623730951
 10
931.1311740524628
 20
1270.316420199734
 10
931.1311740524628
 20
1254.101055616401
 10
591.6970226765028
 20
1254.101055616401
 42
-0.2634342591832366
  0
LWPOLYLINE
  5
79C5
330
A
100
AcDbEntity
  8
MODEL
100
AcDbPolyline
 90
       27
 70
     1
 43
0.0
 10
462.0371906636877
 20
1299.98617661954
 42
0.108528751123663
 10
485.7303893043248
 20
1310.135414184965
 42
0.2631763854424925
 10
591.709755535668
 20
1252.685121371608
 10
928.1490885489906
 20
1252.685121371608
 42
-0.4142135623730951
 10
931.1490885489906
 20
1249.685121371608
 10
931.1490885489906
 20
1227.167988125081
 10
930.5413737052407
 20
1227.167988125081
 10
930.5413737052407
 20
1225.625051927165
 42
-0.4142135623730951
 10
928.5413737052407
 20
1223.625051927165
 10
873.9351318432613
 20
1223.625051927165
 42
0.4142135623730951
 10
871.9351318432613
 20
1221.625051927165
 10
871.9351318432613
 20
1219.685018290012
 42
-0.4142135623730951
 10
869.9351318432613
 20
1217.685018290012
 10
839.0316636900492
 20
1217.685018290012
 42
-0.4142135623730951
 10
837.0316636900492
 20
1219.685018290012
 10
837.0316636900492
 20
1221.625051927165
 42
0.4142135623731033
 10
835.0316636900492
 20
1223.625051927165
 10
658.4442369322372
 20
1223.625051927165
 42
0.4142135623730951
 10
656.4442369322372
 20
1221.625051927165
 10
656.4442369322372
 20
1219.685018290012
 42
-0.4142135623730951
 10
654.4442369322372
 20
1217.685018290012
 10
638.7162421405704
 20
1217.685018290012
 42
-0.4142135623730951
 10
636.7162421405704
 20
1219.685018290012
 10
636.7162421405704
 20
1221.625051927165
 42
0.4142135623730951
 10
634.7162421405704
 20
1223.625051927165
 10
587.5164995178751
 20
1223.625051927165
 10
587.8068489673136
 20
1227.163607254273
 42
-0.2625390149727633
  0
LWPOLYLINE
  5
79C6
102
{ACAD_REACTORS
330
92E6
102
}
330
A
100
AcDbEntity
  8
MODEL
100
AcDbPolyline
 90
       12
 70
     1
 43
0.0
 10
420.4212619430876
 20
1363.34847857647
 10
463.5118272642679
 20
1387.892200093397
 10
498.9611707972548
 20
1328.132023498344
 42
-0.2397977434577256
 10
453.8669379413517
 20
1302.396471197998
 10
457.7465317754544
 20
1299.327325213431
 42
0.2619497781080974
 10
587.5173502677402
 20
1223.635420210881
 10
587.5173502677402
 20
1218.672382656331
 10
524.7232337885229
 20
1218.672382656331
 42
-0.3693434541613143
 10
524.1317274378792
 20
1218.156996371609
 10
422.0272758413961
 20
1218.156996371609
 42
-0.3743005145197273
 10
421.5869945496837
 20
1218.66273638897
 10
415.9901801288519
 20
1218.66273638897
  0
LINE
  5
7AEB
330
A
100
AcDbEntity
  8
MODEL
100
AcDbLine
 10
1307.303399462558
 20
1201.668502707881
 30
0.0
 11
1660.623035805686
 21
1201.668417789733
 31
0.0
  0
LINE
  5
7AEC
330
A
100
AcDbEntity
  8
MODEL GRAY
  6
CENTER2
100
AcDbLine
 10
1383.976553487712
 20
1136.97504701209
 30
0.0
 11
1403.976553487712
 21
1136.97504701209
 31
0.0
  0
LINE
  5
7AED
330
A
100
AcDbEntity
  8
MODEL GRAY
  6
CENTER2
100
AcDbLine
 10
1393.976553487712
 20
1146.97504701209
 30
0.0
 11
1393.976553487712
 21
1126.97504701209
 31
0.0
  0
LINE
  5
7AF0
330
A
100
AcDbEntity
  8
MODEL GRAY
  6
CENTER2
100
AcDbLine
 10
1393.976553487712
 20
1153.069650685042
 30
0.0
 11
1393.976553487712
 21
1122.384065477193
 31
0.0
  0
LINE
  5
7AFA
102
{ACAD_REACTORS
330
9915
102
}
330
A
100
AcDbEntity
  8
MODEL GRAY
  6
CENTER2
100
AcDbLine
 10
1583.976553487712
 20
1136.97504701209
 30
0.0
 11
1563.976553487712
 21
1136.97504701209
 31
0.0
  0
LINE
  5
7AFB
330
A
100
AcDbEntity
  8
MODEL GRAY
  6
CENTER2
100
AcDbLine
 10
1573.976553487712
 20
1146.97504701209
 30
0.0
 11
1573.976553487712
 21
1126.97504701209
 31
0.0
  0
LINE
  5
7AFE
330
A
100
AcDbEntity
  8
MODEL GRAY
  6
CENTER2
100
AcDbLine
 10
1573.976553487712
 20
1153.069650685042
 30
0.0
 11
1573.976553487712
 21
1122.384065477193
 31
0.0
  0
LINE
  5
7B08
330
A
100
AcDbEntity
  8
MODEL GRAY
  6
CENTER2
100
AcDbLine
 10
1483.975230382899
 20
1098.265539417001
 30
0.0
 11
1483.975230382899
 21
980.2207242187951
 31
0.0
  0
CIRCLE
  5
7B09
330
A
100
AcDbEntity
  8
MODEL GRAY
  6
HIDDEN
 48
0.05
100
AcDbCircle
 10
1484.136053582904
 20
1038.736710811472
 30
0.0
 40
51.0
  0
LINE
  5
7B0A
330
A
100
AcDbEntity
  8
MODEL GRAY
  6
CENTER2
100
AcDbLine
 10
1416.023262075377
 20
1037.829890669994
 30
0.0
 11
1552.892137890446
 21
1037.61784692725
 31
0.0
  0
CIRCLE
  5
7B0B
330
A
100
AcDbEntity
  8
MODEL GRAY
  6
HIDDEN
 48
0.05
100
AcDbCircle
 10
1483.975230382899
 20
1039.243131817898
 30
0.0
 40
44.33402038571233
  0
LINE
  5
7B0C
330
A
100
AcDbEntity
  8
MODEL GRAY
  6
CENTER2
100
AcDbLine
 10
1484.119971262903
 20
1212.067996576837
 30
0.0
 11
1484.119971262903
 21
1132.218943161541
 31
0.0
  0
CIRCLE
  5
7B0D
330
A
100
AcDbEntity
  8
MODEL GRAY
  6
HIDDEN
 48
0.05
100
AcDbCircle
 10
1484.232547502906
 20
1173.180133776415
 30
0.0
 40
32.5
  0
LINE
  5
7B0E
330
A
100
AcDbEntity
  8
MODEL GRAY
  6
CENTER2
100
AcDbLine
 10
1436.553593447638
 20
1172.54535967738
 30
0.0
 11
1532.361806518185
 21
1172.396929057458
 31
0.0
  0
CIRCLE
  5
7B0F
330
A
100
AcDbEntity
  8
MODEL GRAY
  6
HIDDEN
 48
0.05
100
AcDbCircle
 10
1484.119971262903
 20
1173.534628480912
 30
0.0
 40
27.5
  0
LINE
  5
7B10
330
A
100
AcDbEntity
  8
MODEL
100
AcDbLine
 10
1432.606513971712
 20
922.726858081118
 30
0.0
 11
1534.586397302827
 21
922.7268580811201
 31
0.0
  0
LWPOLYLINE
  5
7B11
330
A
100
AcDbEntity
  8
MODEL
100
AcDbPolyline
 90
       14
 70
     1
 43
0.0
 10
1652.0822269895
 20
1196.326484503588
 42
-0.3367756499079479
 10
1658.874404656738
 20
1201.385442917661
 42
0.406347201254704
 10
1666.476553487712
 20
1209.556150499389
 42
0.435481071854073
 10
1658.082775611348
 20
1217.726858081118
 10
1309.078702318671
 20
1217.726858081118
 42
0.3808642937948489
 10
1301.491771959307
 20
1210.261807455982
 42
0.4334688618737232
 10
1309.078702318722
 20
1201.38544291766
 42
-0.3367756498969666
 10
1315.870879985896
 20
1196.326484503867
 42
0.0585035404183401
 10
1380.080594886707
 20
929.0496857500721
 42
0.3077600494630311
 10
1389.379971406012
 20
922.726858081118
 10
1432.606513971712
 20
922.726858081118
 42
0.9803336963006191
 10
1534.586397302827
 20
922.7268580811201
 10
1578.456232668555
 20
922.7268580811201
 42
0.3077600498735392
 10
1587.755609193368
 20
929.049685764031
 42
0.058077228805737
  0
SPLINE
  5
7B12
330
A
100
AcDbEntity
  8
MODEL
 62
     7
100
AcDbSpline
210
0.0
220
0.0
230
1.0
 70
    24
 71
     3
 72
     8
 73
     4
 74
     0
 42
0.000000001
 43
0.0000000001
 40
6.0
 40
6.0
 40
6.0
 40
6.0
 40
7.0
 40
7.0
 40
7.0
 40
7.0
 10
1299.765779723327
 20
1227.209827916188
 30
0.0
 10
1299.765779723327
 20
1227.209827916188
 30
0.0
 10
1668.550350035826
 20
1227.209827916188
 30
0.0
 10
1668.550350035826
 20
1227.209827916188
 30
0.0
  0
LINE
  5
7B13
330
A
100
AcDbEntity
  8
MODEL
100
AcDbLine
 10
1344.531710907171
 20
1223.666891718272
 30
0.0
 11
1344.531710907171
 21
1223.666891718272
 31
0.0
  0
LINE
  5
7B14
330
A
100
AcDbEntity
  8
MODEL
100
AcDbLine
 10
1313.142660897963
 20
1223.666891718272
 30
0.0
 11
1395.275489738518
 21
1223.666891718272
 31
0.0
  0
LINE
  5
7B17
330
A
100
AcDbEntity
  8
MODEL
100
AcDbLine
 10
1666.140150383048
 20
1273.35825999084
 30
0.0
 11
1302.175979376104
 21
1273.358259990841
 31
0.0
  0
ARC
  5
7B18
330
A
100
AcDbEntity
  8
MODEL
100
AcDbCircle
 10
1302.175979376104
 20
1270.358259990841
 30
0.0
 40
3.0
100
AcDbArc
 50
90.0
 51
180.0
  0
ARC
  5
7B19
330
A
100
AcDbEntity
  8
MODEL
100
AcDbCircle
 10
1344.531710907171
 20
1221.666891718272
 30
0.0
 40
2.0
100
AcDbArc
 50
0.0
 51
90.0
  0
LINE
  5
7B1A
330
A
100
AcDbEntity
  8
MODEL
100
AcDbLine
 10
1346.531710907171
 20
1221.666891718272
 30
0.0
 11
1346.531710907171
 21
1219.72685808112
 31
0.0
  0
ARC
  5
7B1B
330
A
100
AcDbEntity
  8
MODEL
100
AcDbCircle
 10
1348.531710907171
 20
1219.72685808112
 30
0.0
 40
2.0
100
AcDbArc
 50
180.0
 51
270.0
  0
LINE
  5
7B1C
330
A
100
AcDbEntity
  8
MODEL
100
AcDbLine
 10
1329.175979376104
 20
1383.934039884503
 30
0.0
 11
1331.976906810258
 21
1383.934039884503
 31
0.0
  0
LINE
  5
7B1D
330
A
100
AcDbEntity
  8
MODEL
100
AcDbLine
 10
1299.175979376104
 20
1328.173863289451
 30
0.0
 11
1299.175979376104
 21
1321.505981345007
 31
0.0
  0
LINE
  5
7B1E
330
A
100
AcDbEntity
  8
MODEL
100
AcDbLine
 10
1329.175979376104
 20
1328.173863289451
 30
0.0
 11
1329.175979376104
 21
1325.505981345007
 31
0.0
  0
LINE
  5
7B1F
330
A
100
AcDbEntity
  8
MODEL
100
AcDbLine
 10
1331.976906810258
 20
1328.173863289451
 30
0.0
 11
1331.976906810258
 21
1325.505981345007
 31
0.0
  0
LINE
  5
7B20
330
A
100
AcDbEntity
  8
MODEL
100
AcDbLine
 10
1623.784418851981
 20
1223.666891718272
 30
0.0
 11
1623.784418851981
 21
1223.666891718272
 31
0.0
  0
LINE
  5
7B21
330
A
100
AcDbEntity
  8
MODEL
100
AcDbLine
 10
1655.17346886119
 20
1223.666891718272
 30
0.0
 11
1573.040640020636
 21
1223.666891718272
 31
0.0
  0
ARC
  5
7B24
330
A
100
AcDbEntity
  8
MODEL
100
AcDbCircle
 10
1666.140150383048
 20
1270.358259990841
 30
0.0
 40
3.0
100
AcDbArc
 50
0.0
 51
90.0
  0
ARC
  5
7B25
330
A
100
AcDbEntity
  8
MODEL
100
AcDbCircle
 10
1623.784418851981
 20
1221.666891718272
 30
0.0
 40
2.0
100
AcDbArc
 50
90.0
 51
180.0
  0
LINE
  5
7B26
330
A
100
AcDbEntity
  8
MODEL
100
AcDbLine
 10
1621.784418851981
 20
1221.666891718272
 30
0.0
 11
1621.784418851981
 21
1219.72685808112
 31
0.0
  0
ARC
  5
7B27
330
A
100
AcDbEntity
  8
MODEL
100
AcDbCircle
 10
1619.784418851981
 20
1219.72685808112
 30
0.0
 40
2.0
100
AcDbArc
 50
270.0
 51
0.0
  0
LINE
  5
7B28
330
A
100
AcDbEntity
  8
MODEL
100
AcDbLine
 10
1639.140150383048
 20
1383.934039884503
 30
0.0
 11
1636.339222948895
 21
1383.934039884503
 31
0.0
  0
LINE
  5
7B29
330
A
100
AcDbEntity
  8
MODEL
100
AcDbLine
 10
1669.140150383048
 20
1328.173863289451
 30
0.0
 11
1669.140150383048
 21
1321.505981345007
 31
0.0
  0
LINE
  5
7B2A
330
A
100
AcDbEntity
  8
MODEL
100
AcDbLine
 10
1639.140150383048
 20
1328.173863289451
 30
0.0
 11
1639.140150383048
 21
1325.505981345007
 31
0.0
  0
LINE
  5
7B2B
330
A
100
AcDbEntity
  8
MODEL
100
AcDbLine
 10
1636.339222948895
 20
1328.173863289451
 30
0.0
 11
1636.339222948895
 21
1325.505981345007
 31
0.0
  0
LINE
  5
7B2C
330
A
100
AcDbEntity
  8
MODEL
100
AcDbLine
 10
1329.175979376104
 20
1254.142895407507
 30
0.0
 11
1329.175979376104
 21
1252.726961162715
 31
0.0
  0
LINE
  5
7B2D
330
A
100
AcDbEntity
  8
MODEL
100
AcDbLine
 10
1331.976906810258
 20
1254.142895407507
 30
0.0
 11
1331.976906810257
 21
1252.726961162715
 31
0.0
  0
LINE
  5
7B2E
330
A
100
AcDbEntity
  8
MODEL
100
AcDbLine
 10
1636.339222948895
 20
1254.142895407507
 30
0.0
 11
1636.339222948895
 21
1252.726961162715
 31
0.0
  0
LINE
  5
7B2F
330
A
100
AcDbEntity
  8
MODEL
100
AcDbLine
 10
1639.140150383048
 20
1254.142895407507
 30
0.0
 11
1639.140150383048
 21
1252.726961162715
 31
0.0
  0
LINE
  5
7B37
330
A
100
AcDbEntity
  8
MODEL
100
AcDbLine
 10
1468.068688171217
 20
1223.666891718272
 30
0.0
 11
1500.247441587935
 21
1223.666891718272
 31
0.0
  0
ARC
  5
7B39
330
A
100
AcDbEntity
  8
MODEL
100
AcDbCircle
 10
1666.158064879576
 20
1249.726961162715
 30
0.0
 40
3.0
100
AcDbArc
 50
0.0
 51
90.0
  0
LINE
  5
7B3A
330
A
100
AcDbEntity
  8
MODEL
100
AcDbLine
 10
1666.158064879576
 20
1252.726961162715
 30
0.0
 11
1302.158064879576
 21
1252.726961162715
 31
0.0
  0
ARC
  5
7B3B
330
A
100
AcDbEntity
  8
MODEL
100
AcDbCircle
 10
1302.158064879576
 20
1249.726961162715
 30
0.0
 40
3.0
100
AcDbArc
 50
90.0
 51
180.0
  0
LINE
  5
7B3C
330
A
100
AcDbEntity
  8
MODEL
100
AcDbLine
 10
1303.410731612198
 20
1223.666891718272
 30
0.0
 11
1313.142660897963
 21
1223.666891718272
 31
0.0
  0
ARC
  5
7B3D
330
A
100
AcDbEntity
  8
MODEL
100
AcDbCircle
 10
1313.142660897963
 20
1221.666891718272
 30
0.0
 40
2.0
100
AcDbArc
 50
0.0
 51
90.0
  0
LINE
  5
7B3E
330
A
100
AcDbEntity
  8
MODEL
100
AcDbLine
 10
1315.142660897963
 20
1221.666891718272
 30
0.0
 11
1315.142660897963
 21
1219.72685808112
 31
0.0
  0
ARC
  5
7B3F
330
A
100
AcDbEntity
  8
MODEL
100
AcDbCircle
 10
1317.142660897963
 20
1219.72685808112
 30
0.0
 40
2.0
100
AcDbArc
 50
180.0
 51
270.0
  0
LINE
  5
7B40
330
A
100
AcDbEntity
  8
MODEL
100
AcDbLine
 10
1317.142660897963
 20
1217.726858081118
 30
0.0
 11
1391.275489738518
 21
1217.726858081118
 31
0.0
  0
ARC
  5
7B41
330
A
100
AcDbEntity
  8
MODEL
100
AcDbCircle
 10
1391.275489738518
 20
1219.726858081118
 30
0.0
 40
2.0
100
AcDbArc
 50
270.0
 51
0.0
  0
LINE
  5
7B42
330
A
100
AcDbEntity
  8
MODEL
100
AcDbLine
 10
1393.275489738518
 20
1219.726858081118
 30
0.0
 11
1393.275489738518
 21
1221.666891718272
 31
0.0
  0
ARC
  5
7B43
330
A
100
AcDbEntity
  8
MODEL
100
AcDbCircle
 10
1395.275489738518
 20
1221.666891718272
 30
0.0
 40
2.000000000000028
100
AcDbArc
 50
90.0
 51
180.0000000000261
  0
LINE
  5
7B44
330
A
100
AcDbEntity
  8
MODEL
100
AcDbLine
 10
1395.275489738518
 20
1223.666891718272
 30
0.0
 11
1468.068688171217
 21
1223.666891718272
 31
0.0
  0
ARC
  5
7B45
330
A
100
AcDbEntity
  8
MODEL
100
AcDbCircle
 10
1468.068688171217
 20
1220.666891718272
 30
0.0
 40
3.0
100
AcDbArc
 50
0.0
 51
90.0
  0
ARC
  5
7B4A
330
A
100
AcDbEntity
  8
MODEL
100
AcDbCircle
 10
1500.247441587935
 20
1220.666891718272
 30
0.0
 40
3.0
100
AcDbArc
 50
90.0
 51
180.0
  0
LINE
  5
7B4B
330
A
100
AcDbEntity
  8
MODEL
100
AcDbLine
 10
1500.247441587935
 20
1223.666891718272
 30
0.0
 11
1573.040640020636
 21
1223.666891718272
 31
0.0
  0
ARC
  5
7B4C
330
A
100
AcDbEntity
  8
MODEL
100
AcDbCircle
 10
1573.040640020636
 20
1221.666891718272
 30
0.0
 40
2.0
100
AcDbArc
 50
359.999999999974
 51
90.0
  0
LINE
  5
7B4D
330
A
100
AcDbEntity
  8
MODEL
100
AcDbLine
 10
1575.040640020636
 20
1221.666891718272
 30
0.0
 11
1575.040640020635
 21
1219.726858081118
 31
0.0
  0
ARC
  5
7B4E
330
A
100
AcDbEntity
  8
MODEL
100
AcDbCircle
 10
1577.040640020635
 20
1219.726858081118
 30
0.0
 40
2.0
100
AcDbArc
 50
180.0
 51
270.0
  0
LINE
  5
7B4F
330
A
100
AcDbEntity
  8
MODEL
100
AcDbLine
 10
1577.040640020635
 20
1217.726858081118
 30
0.0
 11
1651.17346886119
 21
1217.726858081118
 31
0.0
  0
ARC
  5
7B50
330
A
100
AcDbEntity
  8
MODEL
100
AcDbCircle
 10
1651.17346886119
 20
1219.72685808112
 30
0.0
 40
2.0
100
AcDbArc
 50
270.0
 51
0.0
  0
LINE
  5
7B51
330
A
100
AcDbEntity
  8
MODEL
100
AcDbLine
 10
1653.17346886119
 20
1219.72685808112
 30
0.0
 11
1653.17346886119
 21
1221.666891718272
 31
0.0
  0
ARC
  5
7B52
330
A
100
AcDbEntity
  8
MODEL
100
AcDbCircle
 10
1655.17346886119
 20
1221.666891718272
 30
0.0
 40
2.0
100
AcDbArc
 50
90.0
 51
180.0
  0
LINE
  5
7B53
330
A
100
AcDbEntity
  8
MODEL
100
AcDbLine
 10
1655.17346886119
 20
1223.666891718272
 30
0.0
 11
1664.905398146955
 21
1223.66689171827
 31
0.0
  0
LWPOLYLINE
  5
7B54
330
A
100
AcDbEntity
  8
MODEL
100
AcDbPolyline
 90
        8
 70
     1
 43
0.0
 10
1669.140150383048
 20
1321.505981345007
 42
0.4142135623730951
 10
1665.140150383048
 20
1325.505981345007
 10
1303.175979376104
 20
1325.505981345007
 42
0.4142135623730951
 10
1299.175979376104
 20
1321.505981345007
 10
1299.175979376104
 20
1270.358259990841
 10
1299.175979376104
 20
1254.142895407507
 10
1669.140150383048
 20
1254.142895407507
 10
1669.140150383048
 20
1270.358259990841
  0
LWPOLYLINE
  5
7B55
330
A
100
AcDbEntity
  8
MODEL
100
AcDbPolyline
 90
        6
 70
     1
 43
0.0
 10
1329.175979376104
 20
1383.934039884503
 42
0.4142135623730951
 10
1325.175979376104
 20
1387.934039884503
 10
1303.175979376104
 20
1387.934039884503
 42
0.4142135623730951
 10
1299.175979376104
 20
1383.934039884503
 10
1299.175979376104
 20
1328.173863289451
 10
1329.175979376104
 20
1328.173863289451
  0
LWPOLYLINE
  5
7B56
330
A
100
AcDbEntity
  8
MODEL
100
AcDbPolyline
 90
        6
 70
     1
 43
0.0
 10
1669.140150383048
 20
1383.934039884503
 42
0.4142135623730951
 10
1665.140150383048
 20
1387.934039884503
 10
1643.140150383048
 20
1387.934039884503
 42
0.4142135623730951
 10
1639.140150383048
 20
1383.934039884503
 10
1639.140150383048
 20
1328.173863289451
 10
1669.140150383048
 20
1328.173863289451
  0
LWPOLYLINE
  5
7B57
330
A
100
AcDbEntity
  8
MODEL
100
AcDbPolyline
 90
        6
 70
     1
 43
0.0
 10
1636.339222948895
 20
1383.934039884503
 42
0.4142135623730951
 10
1632.339222948895
 20
1387.934039884503
 10
1335.976906810258
 20
1387.934039884503
 42
0.4142135623730951
 10
1331.976906810258
 20
1383.934039884503
 10
1331.976906810258
 20
1328.173863289451
 10
1636.339222948895
 20
1328.173863289451
  0
LINE
  5
7B59
330
A
100
AcDbEntity
  8
MODEL
100
AcDbLine
 10
1471.068688171217
 20
1220.666891718272
 30
0.0
 11
1471.068688171217
 21
1217.726858081118
 31
0.0
  0
LINE
  5
7B5A
330
A
100
AcDbEntity
  8
MODEL
100
AcDbLine
 10
1497.247441587935
 20
1220.666891718272
 30
0.0
 11
1497.247441587935
 21
1217.726858081118
 31
0.0
  0
LINE
  5
7B5B
330
A
100
AcDbEntity
  8
MODEL
100
AcDbLine
 10
1664.905398146954
 20
1223.666891718375
 30
0.0
 11
1666.550350035825
 21
1223.666891718377
 31
0.0
  0
ARC
  5
7B5C
330
A
100
AcDbEntity
  8
MODEL
100
AcDbCircle
 10
1666.550350035825
 20
1225.666891718377
 30
0.0
 40
2.0
100
AcDbArc
 50
270.0
 51
0.0
  0
LINE
  5
7B5D
330
A
100
AcDbEntity
  8
MODEL
100
AcDbLine
 10
1668.550350035825
 20
1225.666891718377
 30
0.0
 11
1668.550350035825
 21
1227.209827916293
 31
0.0
  0
LINE
  5
7B5E
330
A
100
AcDbEntity
  8
MODEL
100
AcDbLine
 10
1668.550350035825
 20
1227.209827916293
 30
0.0
 11
1669.158064879575
 21
1227.209827916295
 31
0.0
  0
LINE
  5
7B5F
330
A
100
AcDbEntity
  8
MODEL
100
AcDbLine
 10
1669.158064879575
 20
1227.209827916295
 30
0.0
 11
1669.158064879575
 21
1249.726961162821
 31
0.0
  0
LINE
  5
7B60
330
A
100
AcDbEntity
  8
MODEL
100
AcDbLine
 10
1299.158064879576
 20
1249.726961162715
 30
0.0
 11
1299.158064879575
 21
1227.209827916293
 31
0.0
  0
LINE
  5
7B61
330
A
100
AcDbEntity
  8
MODEL
100
AcDbLine
 10
1299.158064879575
 20
1227.209827916293
 30
0.0
 11
1299.765779723325
 21
1227.209827916295
 31
0.0
  0
LINE
  5
7B62
330
A
100
AcDbEntity
  8
MODEL
100
AcDbLine
 10
1299.765779723325
 20
1227.209827916295
 30
0.0
 11
1299.765779723325
 21
1225.666891718376
 31
0.0
  0
ARC
  5
7B63
330
A
100
AcDbEntity
  8
MODEL
100
AcDbCircle
 10
1301.765779723325
 20
1225.666891718376
 30
0.0
 40
1.999999999999772
100
AcDbArc
 50
180.0
 51
270.0
  0
LINE
  5
7B64
330
A
100
AcDbEntity
  8
MODEL
100
AcDbLine
 10
1301.765779723325
 20
1223.666891718377
 30
0.0
 11
1303.410731612197
 21
1223.666891718377
 31
0.0
  0
ARC
  5
7B71
330
A
100
AcDbEntity
  8
MODEL
100
AcDbCircle
 10
751.8354113457648
 20
2093.874988321757
 30
0.0
 40
125.0
100
AcDbArc
 50
270.0
 51
90.0
  0
ARC
  5
7B72
330
A
100
AcDbEntity
  8
MODEL
100
AcDbCircle
 10
751.836376604789
 20
2093.874988317953
 30
0.0
 40
120.0
100
AcDbArc
 50
270.0
 51
90.0
  0
CIRCLE
  5
7B75
330
A
100
AcDbEntity
  8
MODEL
100
AcDbCircle
 10
454.3354113382269
 20
2164.244769895974
 30
0.0
 40
8.0
  0
ARC
  5
7B76
330
A
100
AcDbEntity
  8
MODEL
100
AcDbCircle
 10
597.736534676524
 20
2093.876434945552
 30
0.0
 40
41.01930045553468
100
AcDbArc
 50
270.0
 51
90.0
  0
LINE
  5
7B77
330
A
100
AcDbEntity
  8
MODEL
100
AcDbLine
 10
597.736534676524
 20
2134.895735401087
 30
0.0
 11
558.3035738994407
 21
2134.895735401087
 31
0.0
  0
LINE
  5
7B78
330
A
100
AcDbEntity
  8
MODEL
100
AcDbLine
 10
553.6174158296793
 20
2121.166708086947
 30
0.0
 11
553.6174158296793
 21
2066.586161804158
 31
0.0
  0
ARC
  5
7B79
330
A
100
AcDbEntity
  8
MODEL
100
AcDbCircle
 10
563.6174158296784
 20
2066.586161804158
 30
0.0
 40
10.0
100
AcDbArc
 50
180.0
 51
270.0
1001
GENIUS_GENOBJ-N-FIL_13
1002
{
1000
OWNER
1000
GEN
1002
}
1001
GENIUS_GENODEF_13
1002
{
1000
HIER
1070
     0
1002
}
1002
{
1000
MANEDIT
1070
     0
1002
}
1002
{
1000
NOSEL
1070
     0
1002
}
1002
{
1000
BEHIND
1070
     0
1002
}
1002
{
1000
OTHER
1070
     0
1002
}
1002
{
1000
REACTOR
1002
}
  0
ARC
  5
7B7A
330
A
100
AcDbEntity
  8
MODEL
100
AcDbCircle
 10
563.6174158296784
 20
2121.166708086947
 30
0.0
 40
10.0
100
AcDbArc
 50
90.0
 51
180.0
1001
GENIUS_GENOBJ-N-FIL_13
1002
{
1000
OWNER
1000
GEN
1002
}
1001
GENIUS_GENODEF_13
1002
{
1000
HIER
1070
     0
1002
}
1002
{
1000
MANEDIT
1070
     0
1002
}
1002
{
1000
NOSEL
1070
     0
1002
}
1002
{
1000
BEHIND
1070
     0
1002
}
1002
{
1000
OTHER
1070
     0
1002
}
1002
{
1000
REACTOR
1002
}
  0
LINE
  5
7B7B
330
A
100
AcDbEntity
  8
MODEL
100
AcDbLine
 10
597.736534676524
 20
2052.857134490017
 30
0.0
 11
558.3035738994407
 21
2052.857134490017
 31
0.0
  0
ARC
  5
7B7C
330
A
100
AcDbEntity
  8
MODEL
100
AcDbCircle
 10
626.8354113457366
 20
2093.875071528948
 30
0.0
 40
125.0
100
AcDbArc
 50
90.0
 51
270.0
  0
ARC
  5
7B7D
330
A
100
AcDbEntity
  8
MODEL
100
AcDbCircle
 10
626.8354113457366
 20
2093.875071528948
 30
0.0
 40
120.0
100
AcDbArc
 50
90.0
 51
270.0
  0
LINE
  5
7B7F
330
A
100
AcDbEntity
  8
MODEL
100
AcDbLine
 10
751.8354113457648
 20
2218.874988321757
 30
0.0
 11
626.8354113457366
 21
2218.875071528948
 31
0.0
  0
LINE
  5
7B80
330
A
100
AcDbEntity
  8
MODEL
100
AcDbLine
 10
751.836376604789
 20
2213.874988317953
 30
0.0
 11
624.9650330117005
 21
2213.875071528948
 31
0.0
  0
LINE
  5
7B81
330
A
100
AcDbEntity
  8
MODEL
100
AcDbLine
 10
751.836376604789
 20
1973.874988317953
 30
0.0
 11
626.8354113457366
 21
1973.875071528949
 31
0.0
  0
LINE
  5
7B82
330
A
100
AcDbEntity
  8
MODEL
100
AcDbLine
 10
751.836376604789
 20
1968.874988321758
 30
0.0
 11
626.8354113457366
 21
1968.875071528949
 31
0.0
  0
ARC
  5
7B83
330
A
100
AcDbEntity
  8
MODEL
100
AcDbCircle
 10
579.4655619906629
 20
2093.876434945552
 30
0.0
 40
37.29027314139516
100
AcDbArc
 50
270.0
 51
90.0
  0
ARC
  5
7B84
330
A
100
AcDbEntity
  8
MODEL
100
AcDbCircle
 10
557.7283285453963
 20
2150.105414771203
 30
0.0
 40
15.22055366138513
100
AcDbArc
 50
216.8767668068249
 51
272.1659515902976
  0
LINE
  5
7B85
330
A
100
AcDbEntity
  8
MODEL
100
AcDbLine
 10
579.4655619906629
 20
2131.166708086947
 30
0.0
 11
563.6174158296784
 21
2131.166708086947
 31
0.0
  0
LINE
  5
7B86
330
A
100
AcDbEntity
  8
MODEL
100
AcDbLine
 10
579.4655619906629
 20
2056.586161804158
 30
0.0
 11
563.6174158296784
 21
2056.586161804158
 31
0.0
  0
ARC
  5
7B87
330
A
100
AcDbEntity
  8
MODEL
100
AcDbCircle
 10
557.7283285453963
 20
2037.646883737568
 30
0.0
 40
15.22055366138513
100
AcDbArc
 50
87.83404840970239
 51
143.1232331931737
  0
CIRCLE
  5
7B8A
330
A
100
AcDbEntity
  8
MODEL
100
AcDbCircle
 10
454.3354113382278
 20
2023.507528612799
 30
0.0
 40
8.0
  0
LWPOLYLINE
  5
7B8B
102
{ACAD_REACTORS
330
8E35
102
}
330
A
100
AcDbEntity
  8
MODEL
100
AcDbPolyline
 90
        6
 70
     1
 43
0.0
 10
299.3354113382269
 20
2269.376895191826
 42
-0.4175634555830845
 10
306.4153754282992
 20
2276.376438444374
 10
744.3368771587396
 20
2273.875071522978
 42
-0.999999869789495
 10
744.333992868413
 20
1913.875071534536
 10
306.3239781229216
 20
1911.376835976946
 42
-0.4137352557135605
 10
299.3354113382269
 20
1918.376826639909
  0
ARC
  5
82DA
102
{ACAD_REACTORS
330
92E6
102
}
330
A
100
AcDbEntity
  8
MODEL
100
AcDbCircle
 10
309.5485032812184
 20
1213.729504903931
 30
0.0
 40
4.000000000000259
100
AcDbArc
 50
89.99532256787391
 51
179.9956256573947
  0
LINE
  5
82DB
330
A
100
AcDbEntity
  8
MODEL
100
AcDbLine
 10
309.5488298275826
 20
1217.729504890603
 30
0.0
 11
923.0275902762118
 21
1217.679422575783
 31
0.0
  0
ARC
  5
82DC
330
A
100
AcDbEntity
  8
MODEL
100
AcDbCircle
 10
922.5481951568273
 20
1209.693799223816
 30
0.0
 40
8.000000000000059
100
AcDbArc
 50
358.7071155653315
 51
86.56452717987248
  0
ARC
  5
82DD
330
A
100
AcDbEntity
  8
MODEL
100
AcDbCircle
 10
922.5481951568272
 20
1209.332788418692
 30
0.0
 40
8.000000000000156
100
AcDbArc
 50
272.8359705576249
 51
1.292884434655426
  0
ARC
  5
82DE
330
A
100
AcDbEntity
  8
MODEL
100
AcDbCircle
 10
922.4717215650647
 20
1194.88553778278
 30
0.0
 40
6.474297709819392
100
AcDbArc
 50
85.81666239569927
 51
168.5571452215274
  0
ARC
  5
82DF
330
A
100
AcDbEntity
  8
MODEL
100
AcDbCircle
 10
293.1724073071886
 20
1268.921382523008
 30
0.0
 40
627.1874413254626
100
AcDbArc
 50
326.9944484295611
 51
353.3389081245741
  0
ARC
  5
82E0
330
A
100
AcDbEntity
  8
MODEL
100
AcDbCircle
 10
810.7567767245462
 20
932.726858081121
 30
0.0
 40
9.999999999999549
100
AcDbArc
 50
269.9999999999981
 51
326.9944484295511
  0
LINE
  5
82E1
330
A
100
AcDbEntity
  8
MODEL
100
AcDbLine
 10
810.7567767245458
 20
922.726858081121
 30
0.0
 11
643.5215382328009
 21
922.726858081121
 31
0.0
  0
ARC
  5
82E2
102
{ACAD_REACTORS
330
929B
102
}
330
A
100
AcDbEntity
  8
MODEL
100
AcDbCircle
 10
587.4835175116666
 20
928.945192401188
 30
0.0
 40
56.38197804315057
100
AcDbArc
 50
239.7038747101043
 51
353.6680017397161
  0
ARC
  5
82E3
330
A
100
AcDbEntity
  8
MODEL
100
AcDbCircle
 10
579.838143911916
 20
928.257035395083
 30
0.0
 40
52.30618403237471
100
AcDbArc
 50
186.069055282733
 51
246.5709826095274
  0
LINE
  5
82E4
330
A
100
AcDbEntity
  8
MODEL
100
AcDbLine
 10
527.8251260519149
 20
922.726858081121
 30
0.0
 11
305.5262861833393
 21
922.726858081121
 31
0.0
  0
LINE
  5
82E5
330
A
100
AcDbEntity
  8
MODEL
100
AcDbLine
 10
305.5262861833393
 20
922.726858081121
 30
0.0
 11
305.5485032928758
 21
1213.729810290655
 31
0.0
  0
DIMENSION
  5
8D4A
330
A
100
AcDbEntity
  8
DIM
  6
Continuous
100
AcDbDimension
  2
*D6
 10
1988.278985860876
 20
1387.934039884503
 30
0.0
 11
1961.278985860876
 21
1130.336869989236
 31
0.0
 70
    32
 71
     5
 42
515.1943397905338
 73
     0
 74
     0
 75
     0
  3
JIS
100
AcDbAlignedDimension
 13
1483.59645563727
 23
872.7397000939691
 33
0.0
 14
1665.140150383048
 24
1387.934039884503
 34
0.0
 50
90.0
100
AcDbRotatedDimension
1001
ACAD
1000
DSTYLE
1002
{
1070
   179
1070
     0
1070
    41
1040
6.0
1070
   271
1070
     0
1070
    43
1040
25.0
1070
    44
1040
0.0
1070
    42
1040
25.0
1070
   147
1040
15.0
1070
   140
1040
24.0
1002
}
  0
DIMENSION
  5
8E0B
330
A
100
AcDbEntity
  8
DIM
  6
Continuous
100
AcDbDimension
  2
*D7
 10
1924.326282077584
 20
1273.35825999084
 30
0.0
 11
1897.326282077584
 21
1073.048980042405
 31
0.0
 70
    32
  1
400
 71
     5
 42
400.6185598968709
 73
     0
 74
     0
 75
     0
  3
JIS
100
AcDbAlignedDimension
 13
1508.59645563727
 23
872.7397000939691
 33
0.0
 14
1732.032146411503
 24
1273.35825999084
 34
0.0
 50
90.0
100
AcDbRotatedDimension
1001
ACAD
1000
DSTYLE
1002
{
1070
   179
1070
     0
1070
    41
1040
6.0
1070
   271
1070
     0
1070
    43
1040
25.0
1070
    44
1040
0.0
1070
    42
1040
25.0
1070
   147
1040
15.0
1070
   140
1040
24.0
1002
}
  0
DIMENSION
  5
8E33
102
{ACAD_REACTORS
330
8E35
102
}
102
{ACAD_XDICTIONARY
360
8E34
102
}
330
A
100
AcDbEntity
  8
DIM
  6
Continuous
100
AcDbDimension
  2
*D8
 10
172.5623993966106
 20
2276.376438444374
 30
0.0
 11
145.5623993966106
 21
2093.87663721066
 31
0.0
 70
    32
 71
     5
 42
364.9996024674276
 73
     0
 74
     0
 75
     0
  3
JIS
100
AcDbAlignedDimension
 13
306.3239781229216
 23
1911.376835976946
 33
0.0
 14
306.4153754282992
 24
2276.376438444374
 34
0.0
 50
90.0
100
AcDbRotatedDimension
1001
ACAD
1000
DSTYLE
1002
{
1070
   179
1070
     0
1070
    41
1040
6.0
1070
   271
1070
     0
1070
    43
1040
25.0
1070
    44
1040
0.0
1070
    42
1040
25.0
1070
   147
1040
15.0
1070
   140
1040
24.0
1002
}
  0
DIMENSION
  5
8E42
330
A
100
AcDbEntity
  8
DIM
  6
Continuous
100
AcDbDimension
  2
*D9
 10
1022.563485467332
 20
1913.875071534536
 30
0.0
 11
1022.563485467332
 21
2093.875071528757
 31
0.0
 70
   160
 71
     5
 42
359.9999999884419
 73
     0
 74
     0
 75
     0
  3
JIS
100
AcDbAlignedDimension
 13
818.9308964189685
 23
2273.875071522978
 33
0.0
 14
818.928012128642
 24
1913.875071534536
 34
0.0
 50
90.0
100
AcDbRotatedDimension
1001
ACAD
1000
DSTYLE
1002
{
1070
   179
1070
     0
1070
    41
1040
6.0
1070
   271
1070
     0
1070
    43
1040
25.0
1070
    44
1040
0.0
1070
    42
1040
25.0
1070
   147
1040
15.0
1070
   140
1040
24.0
1002
}
  0
DIMENSION
  5
8E51
330
A
100
AcDbEntity
  8
DIM
  6
Continuous
100
AcDbDimension
  2
*D10
 10
924.3354115699069
 20
2376.990144038035
 30
0.0
 11
611.835411454067
 21
2376.990144038035
 31
0.0
 70
   160
 71
     5
 42
625.00000023168
 73
     0
 74
     0
 75
     0
  3
JIS
100
AcDbAlignedDimension
 13
299.3354113382269
 23
2317.576107636898
 33
0.0
 14
924.3354115699069
 24
2142.072841828852
 34
0.0
100
AcDbRotatedDimension
1001
ACAD
1000
DSTYLE
1002
{
1070
   179
1070
     0
1070
    41
1040
6.0
1070
   271
1070
     0
1070
    43
1040
25.0
1070
    44
1040
0.0
1070
    42
1040
25.0
1070
   147
1040
15.0
1070
   140
1040
24.0
1002
}
  0
DIMENSION
  5
8E94
330
A
100
AcDbEntity
  8
DIM
  6
Continuous
100
AcDbDimension
  2
*D11
 10
1160.476599541054
 20
1017.585495340996
 30
0.0
 11
1160.476599541054
 21
912.585495340996
 31
0.0
 70
   160
  1
200-250
 71
     5
 42
199.9999999999995
 73
     0
 74
     0
 75
     0
  3
JIS
100
AcDbAlignedDimension
 13
1258.59645563727
 23
817.5854953409964
 33
0.0
 14
1218.59645563727
 24
1017.585495340996
 34
0.0
 50
90.0
100
AcDbRotatedDimension
1001
ACAD
1000
DSTYLE
1002
{
1070
   179
1070
     0
1070
    41
1040
6.0
1070
   271
1070
     0
1070
    43
1040
25.0
1070
    44
1040
0.0
1070
    42
1040
25.0
1070
   147
1040
15.0
1070
   140
1040
24.0
1002
}
  0
DIMENSION
  5
8E95
330
A
100
AcDbEntity
  8
DIM
  6
Continuous
100
AcDbDimension
  2
*D12
 10
1218.617555637268
 20
744.2662069764704
 30
0.0
 11
1351.10700563727
 21
771.2662069764704
 31
0.0
 70
    32
  1
265-300
 71
     5
 42
264.978900000003
 73
     0
 74
     0
 75
     0
  3
JIS
100
AcDbAlignedDimension
 13
1483.596455637271
 23
872.73970009397
 33
0.0
 14
1218.617555637268
 24
988.0774633217891
 34
0.0
100
AcDbRotatedDimension
1001
ACAD
1000
DSTYLE
1002
{
1070
   179
1070
     0
1070
    41
1040
6.0
1070
   271
1070
     0
1070
    43
1040
25.0
1070
    44
1040
0.0
1070
    42
1040
25.0
1070
   147
1040
15.0
1070
   140
1040
24.0
1002
}
  0
LEADER
  5
8E96
330
A
100
AcDbEntity
  8
DIM
  6
Continuous
100
AcDbLeader
  3
JIS
 76
     3
 10
1218.59645563727
 20
1017.585495340996
 30
0.0
 10
1156.363322031444
 20
1360.290724480943
 30
0.0
 10
764.5397205993373
 20
1360.290724480943
 30
0.0
1001
ACAD
1000
DSTYLE
1002
{
1070
   179
1070
     0
1070
    41
1040
6.0
1070
   271
1070
     0
1070
    43
1040
25.0
1070
    44
1040
0.0
1070
    42
1040
25.0
1070
   147
1040
15.0
1070
   140
1040
24.0
1002
}
  0
CIRCLE
  5
8E97
330
A
100
AcDbEntity
  8
MODEL
  6
Continuous
100
AcDbCircle
 10
1218.59645563727
 20
1017.585495340996
 30
0.0
 40
6.5
  0
SPLINE
  5
8E99
330
A
100
AcDbEntity
  8
MODEL
  6
CENTER2
100
AcDbSpline
210
0.0
220
0.0
230
1.0
 70
  1064
 71
     3
 72
    10
 73
     6
 74
     4
 42
0.000000001
 43
0.0000000001
 44
0.0
 40
0.0
 40
0.0
 40
0.0
 40
0.0
 40
28.72261790611759
 40
57.92014971541617
 40
85.68208658858578
 40
85.68208658858578
 40
85.68208658858578
 40
85.68208658858578
 10
1225.09645563727
 20
1017.585495340996
 30
0.0
 10
1235.311364890973
 20
1016.894185967274
 30
0.0
 10
1255.910081736273
 20
1015.500136770347
 30
0.0
 10
1274.005228385719
 20
1042.669295493812
 30
0.0
 10
1276.419667316177
 20
1061.332457448103
 30
0.0
 10
1277.596460266005
 20
1070.428847144382
 30
0.0
 11
1225.09645563727
 21
1017.585495340996
 31
0.0
 11
1253.683694456984
 21
1020.37091380964
 31
0.0
 11
1271.782020226689
 21
1043.282624092564
 31
0.0
 11
1277.596460266005
 21
1070.428847144382
 31
0.0
  0
LINE
  5
8E9A
330
A
100
AcDbEntity
  8
MODEL
  6
Continuous
100
AcDbLine
 10
1271.963580266001
 20
1212.327031799382
 30
0.0
 11
1283.22934026601
 21
1212.327031799382
 31
0.0
  0
LINE
  5
8E9B
330
A
100
AcDbEntity
  8
MODEL
  6
Continuous
100
AcDbLine
 10
1270.596460266005
 20
1184.519461799382
 30
0.0
 11
1270.596460266005
 21
1192.469671799382
 31
0.0
  0
LINE
  5
8E9C
330
A
100
AcDbEntity
  8
MODEL
  6
Continuous
100
AcDbLine
 10
1284.596460266005
 20
1184.504641799383
 30
0.0
 11
1284.596460266005
 21
1192.469671799382
 31
0.0
  0
LWPOLYLINE
  5
8E9D
330
A
100
AcDbEntity
  8
MODEL
  6
Continuous
100
AcDbPolyline
 90
       15
 70
     0
 43
0.0
 10
1283.22934026601
 20
1212.327031799382
 10
1283.764140266004
 20
1212.255651799384
 10
1284.298940265998
 20
1212.077521799383
 10
1284.762370266002
 20
1211.792231799384
 10
1285.190210266005
 20
1211.471351799383
 10
1285.546670266008
 20
1211.043701799382
 10
1285.79618026601
 20
1210.580081799382
 10
1285.974510266005
 20
1210.045481799383
 10
1286.045690266004
 20
1209.510681799382
 10
1286.010100266004
 20
1208.975881799384
 10
1285.903140266
 20
1208.441081799382
 10
1285.689220266005
 20
1207.942071799383
 10
1285.368340266006
 20
1207.478641799382
 10
1285.011870266007
 20
1207.121981799384
 10
1284.548450266007
 20
1206.801101799382
  0
LWPOLYLINE
  5
8E9E
330
A
100
AcDbEntity
  8
MODEL
  6
Continuous
100
AcDbPolyline
 90
       15
 70
     0
 43
0.0
 10
1271.963580266001
 20
1212.327031799382
 10
1271.428780266
 20
1212.255651799384
 10
1270.893980266006
 20
1212.077521799383
 10
1270.430550266002
 20
1211.792231799384
 10
1270.002710266005
 20
1211.471351799383
 10
1269.64625026601
 20
1211.043701799382
 10
1269.396740266001
 20
1210.580081799382
 10
1269.218410266006
 20
1210.045481799383
 10
1269.147230266007
 20
1209.510681799382
 10
1269.182820265999
 20
1208.975881799384
 10
1269.289780266011
 20
1208.441081799382
 10
1269.503700266006
 20
1207.942071799383
 10
1269.824580266005
 20
1207.478641799382
 10
1270.181040266001
 20
1207.121981799384
 10
1270.644470266004
 20
1206.801101799382
  0
LINE
  5
8E9F
330
A
100
AcDbEntity
  8
MODEL
  6
Continuous
100
AcDbLine
 10
1271.57152026601
 20
1186.658651799382
 30
0.0
 11
1270.596460266005
 21
1187.714821799383
 31
0.0
  0
LINE
  5
8EA0
330
A
100
AcDbEntity
  8
MODEL
  6
Continuous
100
AcDbLine
 10
1273.710520266005
 20
1186.658651799382
 30
0.0
 11
1270.596460266005
 21
1189.815891799383
 31
0.0
  0
LINE
  5
8EA1
330
A
100
AcDbEntity
  8
MODEL
  6
Continuous
100
AcDbLine
 10
1275.849520266008
 20
1186.658651799382
 30
0.0
 11
1272.64092026601
 21
1189.867051799383
 31
0.0
  0
LINE
  5
8EA2
330
A
100
AcDbEntity
  8
MODEL
  6
Continuous
100
AcDbLine
 10
1271.57152026601
 20
1190.936651799382
 30
0.0
 11
1270.596460266005
 21
1191.992821799382
 31
0.0
  0
LINE
  5
8EA3
330
A
100
AcDbEntity
  8
MODEL
  6
Continuous
100
AcDbLine
 10
1278.008910266002
 20
1186.679311799382
 30
0.0
 11
1274.779920266006
 21
1189.867051799383
 31
0.0
  0
LINE
  5
8EA4
330
A
100
AcDbEntity
  8
MODEL
  6
Continuous
100
AcDbLine
 10
1273.710520266005
 20
1190.936651799382
 30
0.0
 11
1272.213080266006
 21
1192.469671799382
 31
0.0
  0
LINE
  5
8EA5
330
A
100
AcDbEntity
  8
MODEL
  6
Continuous
100
AcDbLine
 10
1277.596460266005
 20
1189.225491799383
 30
0.0
 11
1276.919110266007
 21
1189.867051799383
 31
0.0
  0
LINE
  5
8EA6
330
A
100
AcDbEntity
  8
MODEL
  6
Continuous
100
AcDbLine
 10
1275.849520266008
 20
1190.936651799382
 30
0.0
 11
1274.352080266002
 21
1192.469671799382
 31
0.0
  0
LINE
  5
8EA7
330
A
100
AcDbEntity
  8
MODEL
  6
Continuous
100
AcDbLine
 10
1278.006410266007
 20
1190.954541799382
 30
0.0
 11
1276.491270266003
 21
1192.469671799382
 31
0.0
  0
LINE
  5
8EA8
330
A
100
AcDbEntity
  8
MODEL
  6
Continuous
100
AcDbLine
 10
1279.043290266006
 20
1191.991421799383
 30
0.0
 11
1275.849520266008
 21
1188.797651799382
 31
0.0
  0
LINE
  5
8EA9
330
A
100
AcDbEntity
  8
MODEL
  6
Continuous
100
AcDbLine
 10
1276.936910266009
 20
1192.024041799384
 30
0.0
 11
1273.710520266005
 21
1188.797651799382
 31
0.0
  0
LINE
  5
8EAA
330
A
100
AcDbEntity
  8
MODEL
  6
Continuous
100
AcDbLine
 10
1274.779920266006
 20
1192.006251799382
 30
0.0
 11
1271.57152026601
 21
1188.797651799382
 31
0.0
  0
LINE
  5
8EAB
330
A
100
AcDbEntity
  8
MODEL
  6
Continuous
100
AcDbLine
 10
1272.64092026601
 20
1192.006251799382
 30
0.0
 11
1270.596460266005
 21
1189.961521799383
 31
0.0
  0
LINE
  5
8EAC
330
A
100
AcDbEntity
  8
MODEL
  6
Continuous
100
AcDbLine
 10
1269.147230266007
 20
1192.469671799382
 30
0.0
 11
1277.596460266005
 21
1192.469671799382
 31
0.0
  0
LWPOLYLINE
  5
8EAD
330
A
100
AcDbEntity
  8
MODEL
  6
Continuous
100
AcDbPolyline
 90
        4
 70
     0
 43
0.0
 10
1269.147230266007
 20
1192.469671799382
 10
1269.147230266007
 20
1194.180831799382
 10
1270.644470266004
 20
1197.032961799382
 10
1270.644470266004
 20
1206.765511799382
  0
LWPOLYLINE
  5
8EAE
330
A
100
AcDbEntity
  8
MODEL
  6
Continuous
100
AcDbPolyline
 90
        4
 70
     1
 43
0.0
 10
1271.749660266006
 20
1206.765511799382
 10
1271.749660266006
 20
1197.032961799382
 10
1274.138360266009
 20
1197.032961799382
 10
1274.138360266009
 20
1206.765511799382
  0
LWPOLYLINE
  5
8EAF
330
A
100
AcDbEntity
  8
MODEL
  6
Continuous
100
AcDbPolyline
 90
        4
 70
     0
 43
0.0
 10
1277.596460266005
 20
1206.765511799382
 10
1275.778150266003
 20
1206.765511799382
 10
1275.778150266003
 20
1197.032961799382
 10
1277.596460266005
 20
1197.032961799382
  0
LWPOLYLINE
  5
8EB0
330
A
100
AcDbEntity
  8
MODEL
  6
Continuous
100
AcDbPolyline
 90
        4
 70
     0
 43
0.0
 10
1286.045690266004
 20
1192.469671799382
 10
1286.045690266004
 20
1194.180831799382
 10
1284.548450266007
 20
1197.032961799382
 10
1284.548450266007
 20
1206.765511799382
  0
LWPOLYLINE
  5
8EB1
330
A
100
AcDbEntity
  8
MODEL
  6
Continuous
100
AcDbPolyline
 90
        4
 70
     1
 43
0.0
 10
1283.443260266005
 20
1206.765511799382
 10
1283.443260266005
 20
1197.032961799382
 10
1281.054560266009
 20
1197.032961799382
 10
1281.054560266009
 20
1206.765511799382
  0
LWPOLYLINE
  5
8EB2
330
A
100
AcDbEntity
  8
MODEL
  6
Continuous
100
AcDbPolyline
 90
        4
 70
     0
 43
0.0
 10
1277.596460266005
 20
1206.765511799382
 10
1279.414770266008
 20
1206.765511799382
 10
1279.414770266008
 20
1197.032961799382
 10
1277.596460266005
 20
1197.032961799382
  0
LINE
  5
8EB3
330
A
100
AcDbEntity
  8
MODEL
  6
Continuous
100
AcDbLine
 10
1286.045690266004
 20
1192.469671799382
 30
0.0
 11
1277.596460266005
 21
1192.469671799382
 31
0.0
  0
LINE
  5
8EB4
330
A
100
AcDbEntity
  8
MODEL
  6
Continuous
100
AcDbLine
 10
1280.105620266007
 20
1186.636371799382
 30
0.0
 11
1277.596460266005
 21
1189.180321799382
 31
0.0
  0
LINE
  5
8EB5
330
A
100
AcDbEntity
  8
MODEL
  6
Continuous
100
AcDbLine
 10
1283.342070266011
 20
1187.733691799383
 30
0.0
 11
1281.189160266007
 21
1189.859101799382
 31
0.0
  0
LINE
  5
8EB6
330
A
100
AcDbEntity
  8
MODEL
  6
Continuous
100
AcDbLine
 10
1280.100330266006
 20
1190.909271799381
 30
0.0
 11
1278.576140266009
 21
1192.469671799382
 31
0.0
  0
LINE
  5
8EB7
330
A
100
AcDbEntity
  8
MODEL
  6
Continuous
100
AcDbLine
 10
1281.182390266007
 20
1191.991331799383
 30
0.0
 11
1280.715140266005
 21
1192.469671799382
 31
0.0
  0
LINE
  5
8EB8
330
A
100
AcDbEntity
  8
MODEL
  6
Continuous
100
AcDbLine
 10
1283.799730266004
 20
1192.469671799382
 30
0.0
 11
1280.11285026601
 21
1188.782801799383
 31
0.0
  0
LINE
  5
8EB9
330
A
100
AcDbEntity
  8
MODEL
  6
Continuous
100
AcDbLine
 10
1281.660730266008
 20
1192.469671799382
 30
0.0
 11
1278.017630266007
 21
1188.826571799382
 31
0.0
  0
LINE
  5
8EBA
330
A
100
AcDbEntity
  8
MODEL
  6
Continuous
100
AcDbLine
 10
1276.932770266004
 20
1187.741711799384
 30
0.0
 11
1276.429330266004
 21
1187.238271799383
 31
0.0
  0
LINE
  5
8EBB
330
A
100
AcDbEntity
  8
MODEL
  6
Continuous
100
AcDbLine
 10
1284.596460266005
 20
1188.701101799384
 30
0.0
 11
1283.350500266005
 21
1189.881251799383
 31
0.0
  0
LINE
  5
8EBC
330
A
100
AcDbEntity
  8
MODEL
  6
Continuous
100
AcDbLine
 10
1282.251980266006
 20
1190.921731799383
 30
0.0
 11
1281.18975026601
 21
1191.998691799382
 31
0.0
  0
LINE
  5
8EBD
330
A
100
AcDbEntity
  8
MODEL
  6
Continuous
100
AcDbLine
 10
1284.596460266005
 20
1188.988161799383
 30
0.0
 11
1282.252110266006
 21
1186.643671799382
 31
0.0
  0
LINE
  5
8EBE
330
A
100
AcDbEntity
  8
MODEL
  6
Continuous
100
AcDbLine
 10
1284.596460266005
 20
1191.127211799382
 30
0.0
 11
1282.265630266007
 21
1188.796381799383
 31
0.0
  0
LINE
  5
8EBF
330
A
100
AcDbEntity
  8
MODEL
  6
Continuous
100
AcDbLine
 10
1284.596460266005
 20
1190.686681799383
 30
0.0
 11
1283.306660266007
 21
1191.976411799382
 31
0.0
  0
LINE
  5
8EC0
330
A
100
AcDbEntity
  8
MODEL
  6
Continuous
100
AcDbLine
 10
1282.252010266001
 20
1186.643761799384
 30
0.0
 11
1279.043320266002
 21
1189.852261799383
 31
0.0
  0
LINE
  5
8EC1
330
A
100
AcDbEntity
  8
MODEL
  6
Continuous
100
AcDbLine
 10
1284.596460266005
 20
1186.408611799383
 30
0.0
 11
1283.306660266007
 21
1187.698411799383
 31
0.0
  0
LINE
  5
8EC2
330
A
100
AcDbEntity
  8
MODEL
  6
Continuous
100
AcDbLine
 10
1284.596460266005
 20
1186.849381799382
 30
0.0
 11
1282.252030266001
 21
1184.504641799383
 31
0.0
  0
LINE
  5
8EC3
330
A
100
AcDbEntity
  8
MODEL
  6
Continuous
100
AcDbLine
 10
1281.182480266001
 20
1187.713231799382
 30
0.0
 11
1277.973890266006
 21
1184.504641799383
 31
0.0
  0
LINE
  5
8EC4
330
A
100
AcDbEntity
  8
MODEL
  6
Continuous
100
AcDbLine
 10
1282.929330266004
 20
1187.321081799383
 30
0.0
 11
1280.112890266002
 21
1184.504641799383
 31
0.0
  0
LINE
  5
8EC5
330
A
100
AcDbEntity
  8
MODEL
  6
Continuous
100
AcDbLine
 10
1272.64092026601
 20
1187.728051799383
 30
0.0
 11
1270.596460266005
 21
1185.683591799382
 31
0.0
  0
LINE
  5
8EC6
330
A
100
AcDbEntity
  8
MODEL
  6
Continuous
100
AcDbLine
 10
1274.779920266006
 20
1187.728051799383
 30
0.0
 11
1271.57152026601
 21
1184.519461799382
 31
0.0
  0
LINE
  5
8EC7
330
A
100
AcDbEntity
  8
MODEL
  6
Continuous
100
AcDbLine
 10
1276.919110266007
 20
1187.728051799383
 30
0.0
 11
1273.710520266005
 21
1184.519461799382
 31
0.0
  0
LINE
  5
8EC8
330
A
100
AcDbEntity
  8
MODEL
  6
Continuous
100
AcDbLine
 10
1279.043390265996
 20
1187.713331799382
 30
0.0
 11
1275.849520266008
 21
1184.519461799382
 31
0.0
  0
ARC
  5
8EC9
330
A
100
AcDbEntity
  8
MODEL
  6
Continuous
100
AcDbCircle
 10
1285.596460266005
 20
1235.327031799383
 30
0.0
 40
3.0
100
AcDbArc
 50
90.0
 51
180.0
  0
ARC
  5
8ECA
330
A
100
AcDbEntity
  8
MODEL
  6
Continuous
100
AcDbCircle
 10
1277.596460266005
 20
1243.327031799382
 30
0.0
 40
5.0
100
AcDbArc
 50
90.0
 51
180.0
  0
LINE
  5
8ECB
330
A
100
AcDbEntity
  8
MODEL
  6
Continuous
100
AcDbLine
 10
1282.596460266005
 20
1212.327031799382
 30
0.0
 11
1282.596460266005
 21
1235.327031799383
 31
0.0
  0
LINE
  5
8ECC
330
A
100
AcDbEntity
  8
MODEL
  6
Continuous
100
AcDbLine
 10
1272.596460266005
 20
1212.327031799382
 30
0.0
 11
1282.596460266005
 21
1212.327031799382
 31
0.0
  0
LINE
  5
8ECD
330
A
100
AcDbEntity
  8
MODEL
  6
Continuous
100
AcDbLine
 10
1272.596460266005
 20
1243.327031799382
 30
0.0
 11
1272.596460266005
 21
1212.327031799382
 31
0.0
  0
LINE
  5
8ECE
330
A
100
AcDbEntity
  8
MODEL
  6
Continuous
100
AcDbLine
 10
1298.596460266005
 20
1248.327031799382
 30
0.0
 11
1277.596460266005
 21
1248.327031799382
 31
0.0
  0
LINE
  5
8ECF
330
A
100
AcDbEntity
  8
MODEL
  6
Continuous
100
AcDbLine
 10
1285.596460266005
 20
1238.327031799382
 30
0.0
 11
1298.596460266005
 21
1238.327031799382
 31
0.0
  0
LINE
  5
8ED0
330
A
100
AcDbEntity
  8
MODEL
  6
CENTER2
100
AcDbLine
 10
1277.596460266005
 20
1194.901587103445
 30
0.0
 11
1277.596460266005
 21
1070.428847144382
 31
0.0
  0
MTEXT
  5
8EF7
330
A
100
AcDbEntity
  8
MODEL
390
1D
100
AcDbMText
 10
770.1406460046253
 20
1409.573071893768
 30
0.0
 40
24.4326171875
 41
0.0
 46
24.4326171875
 71
     1
 72
     1
  1
{センソウォッシュ給水位置}
  7
ＭＳ ゴシック
 73
     1
 44
0.7828267384257843
1001
ACAD
1000
ACAD_MTEXT_DEFINED_HEIGHT_BEGIN
1070
    46
1040
24.4326171875
1000
ACAD_MTEXT_DEFINED_HEIGHT_END
  0
DIMENSION
  5
8F04
330
A
100
AcDbEntity
  8
DIM
  6
Continuous
100
AcDbDimension
  2
*D13
 10
223.6693754721559
 20
1173.214347373655
 30
0.0
 11
223.6693754721559
 21
1195.471926132129
 31
0.0
 70
   160
 71
     5
 42
44.51515751694797
 73
     0
 74
     0
 75
     0
  3
JIS
100
AcDbAlignedDimension
 13
302.0450196937439
 23
1217.729504890603
 33
0.0
 14
298.0415999379179
 24
1173.214347373655
 34
0.0
 50
90.0
100
AcDbRotatedDimension
1001
ACAD
1000
DSTYLE
1002
{
1070
   179
1070
     0
1070
    41
1040
6.0
1070
   271
1070
     0
1070
    43
1040
25.0
1070
    44
1040
0.0
1070
    42
1040
25.0
1070
   147
1040
15.0
1070
   140
1040
24.0
1002
}
  0
DIMENSION
  5
8F14
330
A
100
AcDbEntity
  8
DIM
  6
Continuous
100
AcDbDimension
  2
*D14
 10
223.6693754721559
 20
1038.214347373655
 30
0.0
 11
196.6693754721559
 21
1105.714347373655
 31
0.0
 70
    32
 71
     5
 42
135.0
 73
     0
 74
     0
 75
     0
  3
JIS
100
AcDbAlignedDimension
 13
265.3505504117397
 23
1173.214347373655
 33
0.0
 14
291.9434254161891
 24
1038.214347373655
 34
0.0
 50
90.0
100
AcDbRotatedDimension
1001
ACAD
1000
DSTYLE
1002
{
1070
   179
1070
     0
1070
    41
1040
6.0
1070
   271
1070
     0
1070
    43
1040
25.0
1070
    44
1040
0.0
1070
    42
1040
25.0
1070
   147
1040
15.0
1070
   140
1040
24.0
1002
}
  0
SPLINE
  5
8F2C
330
A
100
AcDbEntity
  8
DIM
  6
CENTER2
100
AcDbSpline
210
0.0
220
0.0
230
1.0
 70
  1064
 71
     3
 72
    10
 73
     6
 74
     4
 42
0.000000001
 43
0.0000000001
 44
0.0
 40
0.0
 40
0.0
 40
0.0
 40
0.0
 40
109.4727349848166
 40
180.2603495335513
 40
260.1743786096958
 40
260.1743786096958
 40
260.1743786096958
 40
260.1743786096958
 10
305.5335283254498
 20
1017.585495340997
 30
0.0
 10
346.6853979697632
 20
1019.895703905038
 30
0.0
 10
414.4470228809519
 20
1023.699747015017
 30
0.0
 10
441.8023942503695
 20
1117.077922716968
 30
0.0
 10
440.8055799711709
 20
1166.436905683461
 30
0.0
 10
440.27698954989
 20
1192.610974559389
 30
0.0
 11
305.5335283254498
 21
1017.585495340997
 31
0.0
 11
410.9876676685446
 21
1046.974340171358
 31
0.0
 11
437.1268604363544
 21
1112.759057051098
 31
0.0
 11
440.27698954989
 21
1192.610974559389
 31
0.0
  0
LINE
  5
8F2D
330
A
100
AcDbEntity
  8
MODEL
  6
Continuous
100
AcDbLine
 10
441.723919549881
 20
1187.854634559389
 30
0.0
 11
438.5300495498927
 21
1184.66076455939
 31
0.0
  0
LINE
  5
8F2E
330
A
100
AcDbEntity
  8
MODEL
  6
Continuous
100
AcDbLine
 10
439.5996395498919
 20
1187.86935455939
 30
0.0
 11
436.3910495498899
 21
1184.66076455939
 31
0.0
  0
LINE
  5
8F2F
330
A
100
AcDbEntity
  8
MODEL
  6
Continuous
100
AcDbLine
 10
437.4604495498902
 20
1187.86935455939
 30
0.0
 11
434.2520495498943
 21
1184.66076455939
 31
0.0
  0
LINE
  5
8F30
330
A
100
AcDbEntity
  8
MODEL
  6
Continuous
100
AcDbLine
 10
435.3214495498946
 20
1187.86935455939
 30
0.0
 11
433.27698954989
 21
1185.824894559389
 31
0.0
  0
LINE
  5
8F31
330
A
100
AcDbEntity
  8
MODEL
  6
Continuous
100
AcDbLine
 10
445.6098595498884
 20
1187.46238455939
 30
0.0
 11
442.793419549886
 21
1184.645944559389
 31
0.0
  0
LINE
  5
8F32
330
A
100
AcDbEntity
  8
MODEL
  6
Continuous
100
AcDbLine
 10
443.8630095498852
 20
1187.85453455939
 30
0.0
 11
440.6544195498905
 21
1184.645944559389
 31
0.0
  0
LINE
  5
8F33
330
A
100
AcDbEntity
  8
MODEL
  6
Continuous
100
AcDbLine
 10
447.27698954989
 20
1186.990684559388
 30
0.0
 11
444.9325595498854
 21
1184.645944559389
 31
0.0
  0
LINE
  5
8F34
330
A
100
AcDbEntity
  8
MODEL
  6
Continuous
100
AcDbLine
 10
447.27698954989
 20
1186.549914559391
 30
0.0
 11
445.9871895498914
 21
1187.839714559389
 31
0.0
  0
LINE
  5
8F35
330
A
100
AcDbEntity
  8
MODEL
  6
Continuous
100
AcDbLine
 10
444.9325395498859
 20
1186.785064559389
 30
0.0
 11
441.7238495498864
 21
1189.99356455939
 31
0.0
  0
LINE
  5
8F36
330
A
100
AcDbEntity
  8
MODEL
  6
Continuous
100
AcDbLine
 10
447.27698954989
 20
1190.827984559389
 30
0.0
 11
445.9871895498914
 21
1192.117714559389
 31
0.0
  0
LINE
  5
8F37
330
A
100
AcDbEntity
  8
MODEL
  6
Continuous
100
AcDbLine
 10
447.27698954989
 20
1191.268514559388
 30
0.0
 11
444.946159549891
 21
1188.937684559388
 31
0.0
  0
LINE
  5
8F38
330
A
100
AcDbEntity
  8
MODEL
  6
Continuous
100
AcDbLine
 10
447.27698954989
 20
1189.129464559389
 30
0.0
 11
444.9326395498906
 21
1186.78497455939
 31
0.0
  0
LINE
  5
8F39
330
A
100
AcDbEntity
  8
MODEL
  6
Continuous
100
AcDbLine
 10
444.9325095498903
 20
1191.06303455939
 30
0.0
 11
443.8702795498943
 21
1192.139994559389
 31
0.0
  0
LINE
  5
8F3A
330
A
100
AcDbEntity
  8
MODEL
  6
Continuous
100
AcDbLine
 10
447.27698954989
 20
1188.84240455939
 30
0.0
 11
446.0310295498898
 21
1190.022554559391
 31
0.0
  0
LINE
  5
8F3B
330
A
100
AcDbEntity
  8
MODEL
  6
Continuous
100
AcDbLine
 10
439.6132995498888
 20
1187.88301455939
 30
0.0
 11
439.1098595498884
 21
1187.37957455939
 31
0.0
  0
LINE
  5
8F3C
330
A
100
AcDbEntity
  8
MODEL
  6
Continuous
100
AcDbLine
 10
444.3412595498926
 20
1192.610974559389
 30
0.0
 11
440.6981595498914
 21
1188.967874559389
 31
0.0
  0
LINE
  5
8F3D
330
A
100
AcDbEntity
  8
MODEL
  6
Continuous
100
AcDbLine
 10
446.4802595498882
 20
1192.610974559389
 30
0.0
 11
442.7933795498798
 21
1188.924104559389
 31
0.0
  0
LINE
  5
8F3E
330
A
100
AcDbEntity
  8
MODEL
  6
Continuous
100
AcDbLine
 10
443.8629095498877
 20
1192.132634559389
 30
0.0
 11
443.3956695498896
 21
1192.610974559389
 31
0.0
  0
LINE
  5
8F3F
330
A
100
AcDbEntity
  8
MODEL
  6
Continuous
100
AcDbLine
 10
442.7808595498832
 20
1191.050574559388
 30
0.0
 11
441.256669549894
 21
1192.610974559389
 31
0.0
  0
LINE
  5
8F40
330
A
100
AcDbEntity
  8
MODEL
  6
Continuous
100
AcDbLine
 10
446.0225995498954
 20
1187.874994559389
 30
0.0
 11
443.8696895498911
 21
1190.000404559388
 31
0.0
  0
LINE
  5
8F41
330
A
100
AcDbEntity
  8
MODEL
  6
Continuous
100
AcDbLine
 10
442.7861495498914
 20
1186.77767455939
 30
0.0
 11
440.27698954989
 21
1189.32162455939
 31
0.0
  0
LINE
  5
8F42
330
A
100
AcDbEntity
  8
MODEL
  6
Continuous
100
AcDbLine
 10
448.7262195498884
 20
1192.610974559389
 30
0.0
 11
440.27698954989
 21
1192.610974559389
 31
0.0
  0
LWPOLYLINE
  5
8F43
330
A
100
AcDbEntity
  8
MODEL
  6
Continuous
100
AcDbPolyline
 90
        4
 70
     0
 43
0.0
 10
440.27698954989
 20
1206.906814559389
 10
442.0952995498924
 20
1206.906814559389
 10
442.0952995498924
 20
1197.174264559389
 10
440.27698954989
 20
1197.174264559389
  0
LWPOLYLINE
  5
8F44
330
A
100
AcDbEntity
  8
MODEL
  6
Continuous
100
AcDbPolyline
 90
        4
 70
     1
 43
0.0
 10
446.1237895498894
 20
1206.906814559389
 10
446.1237895498894
 20
1197.174264559389
 10
443.7350895498935
 20
1197.174264559389
 10
443.7350895498935
 20
1206.906814559389
  0
LWPOLYLINE
  5
8F45
330
A
100
AcDbEntity
  8
MODEL
  6
Continuous
100
AcDbPolyline
 90
        4
 70
     0
 43
0.0
 10
448.7262195498884
 20
1192.610974559389
 10
448.7262195498884
 20
1194.322134559389
 10
447.2289795498914
 20
1197.174264559389
 10
447.2289795498914
 20
1206.906814559389
  0
LWPOLYLINE
  5
8F46
330
A
100
AcDbEntity
  8
MODEL
  6
Continuous
100
AcDbPolyline
 90
        4
 70
     0
 43
0.0
 10
440.27698954989
 20
1206.906814559389
 10
438.4586795498876
 20
1206.906814559389
 10
438.4586795498876
 20
1197.174264559389
 10
440.27698954989
 20
1197.174264559389
  0
LWPOLYLINE
  5
8F47
330
A
100
AcDbEntity
  8
MODEL
  6
Continuous
100
AcDbPolyline
 90
        4
 70
     1
 43
0.0
 10
434.4301895498834
 20
1206.906814559389
 10
434.4301895498834
 20
1197.174264559389
 10
436.8188895498938
 20
1197.174264559389
 10
436.8188895498938
 20
1206.906814559389
  0
LWPOLYLINE
  5
8F48
330
A
100
AcDbEntity
  8
MODEL
  6
Continuous
100
AcDbPolyline
 90
        4
 70
     0
 43
0.0
 10
431.8277595498917
 20
1192.610974559389
 10
431.8277595498917
 20
1194.322134559389
 10
433.3249995498886
 20
1197.174264559389
 10
433.3249995498886
 20
1206.906814559389
  0
LINE
  5
8F49
330
A
100
AcDbEntity
  8
MODEL
  6
Continuous
100
AcDbLine
 10
431.8277595498917
 20
1192.610974559389
 30
0.0
 11
440.27698954989
 21
1192.610974559389
 31
0.0
  0
LINE
  5
8F4A
330
A
100
AcDbEntity
  8
MODEL
  6
Continuous
100
AcDbLine
 10
435.3214495498946
 20
1192.147554559389
 30
0.0
 11
433.27698954989
 21
1190.102824559389
 31
0.0
  0
LINE
  5
8F4B
330
A
100
AcDbEntity
  8
MODEL
  6
Continuous
100
AcDbLine
 10
437.4604495498902
 20
1192.147554559389
 30
0.0
 11
434.2520495498943
 21
1188.938954559389
 31
0.0
  0
LINE
  5
8F4C
330
A
100
AcDbEntity
  8
MODEL
  6
Continuous
100
AcDbLine
 10
439.6174395498933
 20
1192.16534455939
 30
0.0
 11
436.3910495498899
 21
1188.938954559389
 31
0.0
  0
LINE
  5
8F4D
330
A
100
AcDbEntity
  8
MODEL
  6
Continuous
100
AcDbLine
 10
441.7238195498908
 20
1192.132724559389
 30
0.0
 11
438.5300495498927
 21
1188.938954559389
 31
0.0
  0
LINE
  5
8F4E
330
A
100
AcDbEntity
  8
MODEL
  6
Continuous
100
AcDbLine
 10
440.6869395498911
 20
1191.09584455939
 30
0.0
 11
439.171799549888
 21
1192.610974559389
 31
0.0
  0
LINE
  5
8F4F
330
A
100
AcDbEntity
  8
MODEL
  6
Continuous
100
AcDbLine
 10
438.5300495498927
 20
1191.077954559388
 30
0.0
 11
437.0326095498863
 21
1192.610974559389
 31
0.0
  0
LINE
  5
8F50
330
A
100
AcDbEntity
  8
MODEL
  6
Continuous
100
AcDbLine
 10
440.27698954989
 20
1189.366794559389
 30
0.0
 11
439.5996395498919
 21
1190.008354559389
 31
0.0
  0
LINE
  5
8F51
330
A
100
AcDbEntity
  8
MODEL
  6
Continuous
100
AcDbLine
 10
436.3910495498899
 20
1191.077954559388
 30
0.0
 11
434.8936095498907
 21
1192.610974559389
 31
0.0
  0
LINE
  5
8F52
330
A
100
AcDbEntity
  8
MODEL
  6
Continuous
100
AcDbLine
 10
440.6894395498862
 20
1186.82061455939
 30
0.0
 11
437.4604495498902
 21
1190.008354559389
 31
0.0
  0
LINE
  5
8F53
330
A
100
AcDbEntity
  8
MODEL
  6
Continuous
100
AcDbLine
 10
434.2520495498943
 20
1191.077954559388
 30
0.0
 11
433.27698954989
 21
1192.13412455939
 31
0.0
  0
LINE
  5
8F54
330
A
100
AcDbEntity
  8
MODEL
  6
Continuous
100
AcDbLine
 10
438.5300495498927
 20
1186.79995455939
 30
0.0
 11
435.3214495498946
 21
1190.008354559389
 31
0.0
  0
LINE
  5
8F55
330
A
100
AcDbEntity
  8
MODEL
  6
Continuous
100
AcDbLine
 10
436.3910495498899
 20
1186.79995455939
 30
0.0
 11
433.27698954989
 21
1189.957194559388
 31
0.0
  0
LINE
  5
8F56
330
A
100
AcDbEntity
  8
MODEL
  6
Continuous
100
AcDbLine
 10
434.2520495498943
 20
1186.79995455939
 30
0.0
 11
433.27698954989
 21
1187.856124559389
 31
0.0
  0
LWPOLYLINE
  5
8F57
330
A
100
AcDbEntity
  8
MODEL
  6
Continuous
100
AcDbPolyline
 90
       15
 70
     0
 43
0.0
 10
434.6441095498853
 20
1212.468334559389
 10
434.1093095498841
 20
1212.396954559391
 10
433.5745095498901
 20
1212.218824559389
 10
433.1110795498867
 20
1211.933534559391
 10
432.68323954989
 20
1211.612654559391
 10
432.32677954988
 20
1211.18500455939
 10
432.0772695498858
 20
1210.721384559388
 10
431.8989395498907
 20
1210.186784559389
 10
431.8277595498917
 20
1209.65198455939
 10
431.8633495498839
 20
1209.11718455939
 10
431.9703095498958
 20
1208.582384559389
 10
432.1842295498832
 20
1208.083374559389
 10
432.5051095498898
 20
1207.61994455939
 10
432.8615695498852
 20
1207.26328455939
 10
433.3249995498886
 20
1206.942404559388
  0
LWPOLYLINE
  5
8F58
330
A
100
AcDbEntity
  8
MODEL
  6
Continuous
100
AcDbPolyline
 90
       15
 70
     0
 43
0.0
 10
445.9098695498947
 20
1212.468334559389
 10
446.4446695498887
 20
1212.396954559391
 10
446.9794695498827
 20
1212.218824559389
 10
447.4428995498861
 20
1211.933534559391
 10
447.87073954989
 20
1211.612654559391
 10
448.2271995498927
 20
1211.18500455939
 10
448.4767095498942
 20
1210.721384559388
 10
448.6550395498894
 20
1210.186784559389
 10
448.7262195498884
 20
1209.65198455939
 10
448.6906295498889
 20
1209.11718455939
 10
448.5836695498842
 20
1208.582384559389
 10
448.3697495498895
 20
1208.083374559389
 10
448.0488695498902
 20
1207.61994455939
 10
447.6923995498914
 20
1207.26328455939
 10
447.2289795498914
 20
1206.942404559388
  0
LINE
  5
8F59
330
A
100
AcDbEntity
  8
MODEL
  6
Continuous
100
AcDbLine
 10
447.27698954989
 20
1184.645944559389
 30
0.0
 11
447.27698954989
 21
1192.610974559389
 31
0.0
  0
LINE
  5
8F5A
330
A
100
AcDbEntity
  8
MODEL
  6
Continuous
100
AcDbLine
 10
433.27698954989
 20
1184.66076455939
 30
0.0
 11
433.27698954989
 21
1192.610974559389
 31
0.0
  0
ARC
  5
8F5B
330
A
100
AcDbEntity
  8
MODEL
  6
Continuous
100
AcDbCircle
 10
437.27698954989
 20
1236.468334559389
 30
0.0
 40
2.0
100
AcDbArc
 50
90.0
 51
180.0
  0
ARC
  5
8F5C
330
A
100
AcDbEntity
  8
MODEL
  6
Continuous
100
AcDbCircle
 10
443.27698954989
 20
1236.468334559389
 30
0.0
 40
2.0
100
AcDbArc
 50
0.0
 51
90.0
  0
LINE
  5
8F5D
330
A
100
AcDbEntity
  8
MODEL
  6
Continuous
100
AcDbLine
 10
435.27698954989
 20
1236.468334559389
 30
0.0
 11
435.27698954989
 21
1212.468334559389
 31
0.0
  0
LINE
  5
8F5E
330
A
100
AcDbEntity
  8
MODEL
  6
Continuous
100
AcDbLine
 10
443.27698954989
 20
1238.468334559389
 30
0.0
 11
437.27698954989
 21
1238.468334559389
 31
0.0
  0
LINE
  5
8F5F
330
A
100
AcDbEntity
  8
MODEL
  6
Continuous
100
AcDbLine
 10
445.27698954989
 20
1212.468334559389
 30
0.0
 11
445.27698954989
 21
1236.468334559389
 31
0.0
  0
LINE
  5
8F60
330
A
100
AcDbEntity
  8
MODEL
  6
Continuous
100
AcDbLine
 10
434.6441095498853
 20
1212.468334559389
 30
0.0
 11
445.9098695498947
 21
1212.468334559389
 31
0.0
  0
ARC
  5
8F61
330
A
100
AcDbEntity
  8
MODEL
  6
Continuous
100
AcDbCircle
 10
440.27698954989
 20
1233.468334559389
 30
0.0
 40
8.25
100
AcDbArc
 50
307.3052010000279
 51
232.6947990000141
  0
ARC
  5
8F62
330
A
100
AcDbEntity
  8
MODEL
  6
Continuous
100
AcDbCircle
 10
433.77698954989
 20
1237.22110455939
 30
0.0
 40
5.0
100
AcDbArc
 50
119.9999999999999
 51
180.0
  0
ARC
  5
8F63
330
A
100
AcDbEntity
  8
MODEL
  6
Continuous
100
AcDbCircle
 10
433.77698954989
 20
1229.71555455939
 30
0.0
 40
5.0
100
AcDbArc
 50
180.0
 51
240.0000000000001
  0
ARC
  5
8F64
330
A
100
AcDbEntity
  8
MODEL
  6
Continuous
100
AcDbCircle
 10
446.77698954989
 20
1229.71555455939
 30
0.0
 40
5.0
100
AcDbArc
 50
299.9999999999998
 51
0.0
  0
ARC
  5
8F65
330
A
100
AcDbEntity
  8
MODEL
  6
Continuous
100
AcDbCircle
 10
446.77698954989
 20
1237.22110455939
 30
0.0
 40
5.0
100
AcDbArc
 50
0.0
 51
60.00000000000011
  0
ARC
  5
8F66
330
A
100
AcDbEntity
  8
MODEL
  6
Continuous
100
AcDbCircle
 10
440.27698954989
 20
1240.97388455939
 30
0.0
 40
5.0
100
AcDbArc
 50
60.00000000000011
 51
119.9999999999999
  0
LINE
  5
8F67
330
A
100
AcDbEntity
  8
MODEL
  6
Continuous
100
AcDbLine
 10
449.27698954989
 20
1241.551234559388
 30
0.0
 11
442.77698954989
 21
1245.304014559389
 31
0.0
  0
LINE
  5
8F68
330
A
100
AcDbEntity
  8
MODEL
  6
Continuous
100
AcDbLine
 10
451.77698954989
 20
1229.71555455939
 30
0.0
 11
451.77698954989
 21
1237.22110455939
 31
0.0
  0
LINE
  5
8F69
330
A
100
AcDbEntity
  8
MODEL
  6
Continuous
100
AcDbLine
 10
445.27698954989
 20
1223.076024559389
 30
0.0
 11
449.27698954989
 21
1225.38542455939
 31
0.0
  0
LINE
  5
8F6A
330
A
100
AcDbEntity
  8
MODEL
  6
Continuous
100
AcDbLine
 10
431.27698954989
 20
1225.38542455939
 30
0.0
 11
435.27698954989
 21
1223.076024559389
 31
0.0
  0
LINE
  5
8F6B
330
A
100
AcDbEntity
  8
MODEL
  6
Continuous
100
AcDbLine
 10
428.77698954989
 20
1237.22110455939
 30
0.0
 11
428.77698954989
 21
1229.71555455939
 31
0.0
  0
LINE
  5
8F6C
330
A
100
AcDbEntity
  8
MODEL
  6
Continuous
100
AcDbLine
 10
437.77698954989
 20
1245.304014559389
 30
0.0
 11
431.27698954989
 21
1241.551234559388
 31
0.0
  0
LINE
  5
8F6D
330
A
100
AcDbEntity
  8
DIM
  6
Continuous
100
AcDbLine
 10
440.27698954989
 20
1212.468334559389
 30
0.0
 11
440.27698954989
 21
1229.165433471409
 31
0.0
  0
DIMENSION
  5
8FF4
330
A
100
AcDbEntity
  8
DIM
  6
Continuous
100
AcDbDimension
  2
*D15
 10
1573.976553487712
 20
1454.276004819762
 30
0.0
 11
1483.976553487712
 21
1454.276004819762
 31
0.0
 70
   160
 71
     5
 42
180.0
 73
     0
 74
     0
 75
     0
  3
JIS
100
AcDbAlignedDimension
 13
1393.976553487712
 23
1356.666418906432
 33
0.0
 14
1573.976553487712
 24
1356.666418906432
 34
0.0
100
AcDbRotatedDimension
1001
ACAD
1000
DSTYLE
1002
{
1070
   179
1070
     0
1070
    41
1040
6.0
1070
   271
1070
     0
1070
    43
1040
25.0
1070
    44
1040
0.0
1070
    42
1040
25.0
1070
   147
1040
15.0
1070
   140
1040
24.0
1002
}
  0
DIMENSION
  5
91CA
330
A
100
AcDbEntity
  8
DIM
  6
Continuous
100
AcDbDimension
  2
*D16
 10
1111.485475182951
 20
1137.726858081118
 30
0.0
 11
1084.485475182951
 21
1177.726858081118
 31
0.0
 70
    32
 71
     5
 42
80.0
 73
     0
 74
     0
 75
     0
  3
JIS
100
AcDbAlignedDimension
 13
1317.142660897963
 23
1217.726858081118
 33
0.0
 14
1317.142660897963
 24
1137.726858081118
 34
0.0
 50
90.0
100
AcDbRotatedDimension
1001
ACAD
1000
DSTYLE
1002
{
1070
   179
1070
     0
1070
    41
1040
6.0
1070
   271
1070
     0
1070
    43
1040
25.0
1070
    44
1040
0.0
1070
    42
1040
25.0
1070
   147
1040
15.0
1070
   140
1040
24.0
1002
}
  0
DIMENSION
  5
9299
102
{ACAD_REACTORS
330
929B
102
}
102
{ACAD_XDICTIONARY
360
929A
102
}
330
A
100
AcDbEntity
  8
DIM
  6
Continuous
100
AcDbDimension
  2
*D17
 10
991.4321016187754
 20
1217.679422575783
 30
0.0
 11
964.4321016187754
 21
1045.12131846691
 31
0.0
 70
    32
 71
     5
 42
345.116208217747
 73
     0
 74
     0
 75
     0
  3
JIS
100
AcDbAlignedDimension
 13
587.4835175116666
 23
872.563214358036
 33
0.0
 14
923.0275902762118
 24
1217.679422575783
 34
0.0
 50
90.0
100
AcDbRotatedDimension
1001
ACAD
1000
DSTYLE
1002
{
1070
   179
1070
     0
1070
    41
1040
6.0
1070
   271
1070
     0
1070
    43
1040
25.0
1070
    44
1040
0.0
1070
    42
1040
25.0
1070
   147
1040
15.0
1070
   140
1040
24.0
1002
}
  0
DIMENSION
  5
92E4
102
{ACAD_REACTORS
330
92E6
102
}
102
{ACAD_XDICTIONARY
360
92E5
102
}
330
A
100
AcDbEntity
  8
DIM
  6
Continuous
100
AcDbDimension
  2
*D18
 10
223.6693754721559
 20
1387.892200093397
 30
0.0
 11
196.6693754721559
 21
1302.810852492
 31
0.0
 70
    32
 71
     5
 42
170.1626952027939
 73
     0
 74
     0
 75
     0
  3
JIS
100
AcDbAlignedDimension
 13
309.5488298275826
 23
1217.729504890603
 33
0.0
 14
463.5118272642679
 24
1387.892200093397
 34
0.0
 50
90.0
100
AcDbRotatedDimension
1001
ACAD
1000
DSTYLE
1002
{
1070
   179
1070
     0
1070
    41
1040
6.0
1070
   271
1070
     0
1070
    43
1040
25.0
1070
    44
1040
0.0
1070
    42
1040
25.0
1070
   147
1040
15.0
1070
   140
1040
24.0
1002
}
  0
LINE
  5
94E7
330
A
100
AcDbEntity
  8
MODEL
  6
Continuous
100
AcDbLine
 10
1756.565514956984
 20
1030.713016289071
 30
0.0
 11
1757.44284955171
 21
1024.571643608406
 31
0.0
  0
LINE
  5
94E8
330
A
100
AcDbEntity
  8
MODEL
  6
Continuous
100
AcDbLine
 10
1750.565484439405
 20
1030.713016289071
 30
0.0
 11
1756.565514956984
 21
1030.713016289071
 31
0.0
  0
LINE
  5
94E9
330
A
100
AcDbEntity
  8
MODEL
  6
Continuous
100
AcDbLine
 10
1743.688119327101
 20
1024.571674125985
 30
0.0
 11
1744.565453921827
 21
1030.713016289071
 31
0.0
  0
LINE
  5
94EA
330
A
100
AcDbEntity
  8
MODEL
  6
Continuous
100
AcDbLine
 10
1744.565453921827
 20
1030.713016289071
 30
0.0
 11
1750.565484439405
 21
1030.713016289071
 31
0.0
  0
LINE
  5
94EB
330
A
100
AcDbEntity
  8
MODEL
  6
Continuous
100
AcDbLine
 10
1715.565484439405
 20
1090.501875343692
 30
0.0
 11
1715.565484439405
 21
1040.501882973086
 31
0.0
  0
LINE
  5
94EC
330
A
100
AcDbEntity
  8
MODEL
  6
Continuous
100
AcDbLine
 10
1736.315484439405
 20
1023.462970512704
 30
0.0
 11
1764.815484439405
 21
1023.462970512704
 31
0.0
  0
LINE
  5
94ED
330
A
100
AcDbEntity
  8
MODEL
  6
Continuous
100
AcDbLine
 10
1736.315484439405
 20
1058.062968986825
 30
0.0
 11
1736.315484439405
 21
1023.462970512704
 31
0.0
  0
LINE
  5
94EE
330
A
100
AcDbEntity
  8
MODEL
  6
Continuous
100
AcDbLine
 10
1764.815484439405
 20
1058.062968986825
 30
0.0
 11
1764.815484439405
 21
1023.462970512704
 31
0.0
  0
LINE
  5
94EF
330
A
100
AcDbEntity
  8
MODEL
  6
Continuous
100
AcDbLine
 10
1743.115487491163
 20
1046.412982719735
 30
0.0
 11
1745.315499698195
 21
1046.412982719735
 31
0.0
  0
LINE
  5
94F0
330
A
100
AcDbEntity
  8
MODEL
  6
Continuous
100
AcDbLine
 10
1743.115487491163
 20
1055.112964409188
 30
0.0
 11
1745.315499698195
 21
1055.112964409188
 31
0.0
  0
LINE
  5
94F1
330
A
100
AcDbEntity
  8
MODEL
  6
Continuous
100
AcDbLine
 10
1739.265481387648
 20
1024.013049858406
 30
0.0
 11
1739.265481387648
 21
1043.862964409188
 31
0.0
  0
LINE
  5
94F2
330
A
100
AcDbEntity
  8
MODEL
  6
Continuous
100
AcDbLine
 10
1745.315499698195
 20
1055.112964409188
 30
0.0
 11
1745.315499698195
 21
1046.412982719735
 31
0.0
  0
LINE
  5
94F3
330
A
100
AcDbEntity
  8
MODEL
  6
Continuous
100
AcDbLine
 10
1761.865502749952
 20
1043.862964409188
 30
0.0
 11
1761.865502749952
 21
1024.013034599618
 31
0.0
  0
LINE
  5
94F4
330
A
100
AcDbEntity
  8
MODEL
  6
Continuous
100
AcDbLine
 10
1775.565499698195
 20
980.5018829730859
 30
0.0
 11
1750.565484439405
 21
980.5018829730859
 31
0.0
  0
LINE
  5
94F5
330
A
100
AcDbEntity
  8
MODEL
  6
Continuous
100
AcDbLine
 10
1750.565484439405
 20
980.5018829730859
 30
0.0
 11
1725.565484439405
 21
980.5018829730859
 31
0.0
  0
LINE
  5
94F6
330
A
100
AcDbEntity
  8
MODEL
  6
Continuous
100
AcDbLine
 10
1715.565484439405
 20
1040.501882973086
 30
0.0
 11
1715.565484439405
 21
990.5018829730859
 31
0.0
  0
LINE
  5
94F7
330
A
100
AcDbEntity
  8
MODEL
  6
Continuous
100
AcDbLine
 10
1725.565484439405
 20
1100.501875343692
 30
0.0
 11
1775.565484439405
 21
1100.501875343692
 31
0.0
  0
LINE
  5
94F8
330
A
100
AcDbEntity
  8
MODEL
  6
Continuous
100
AcDbLine
 10
1755.815469180616
 20
1047.262973564462
 30
0.0
 11
1755.815469180616
 21
1054.26297356446
 31
0.0
  0
LINE
  5
94F9
330
A
100
AcDbEntity
  8
MODEL
  6
Continuous
100
AcDbLine
 10
1758.015481387648
 20
1047.262973564462
 30
0.0
 11
1758.015481387648
 21
1054.26297356446
 31
0.0
  0
LINE
  5
94FA
330
A
100
AcDbEntity
  8
MODEL
  6
Continuous
100
AcDbLine
 10
1758.015481387648
 20
1054.26297356446
 30
0.0
 11
1755.815469180616
 21
1054.26297356446
 31
0.0
  0
LINE
  5
94FB
330
A
100
AcDbEntity
  8
MODEL
  6
Continuous
100
AcDbLine
 10
1758.015481387648
 20
1047.262973564462
 30
0.0
 11
1755.815469180616
 21
1047.262973564462
 31
0.0
  0
LINE
  5
94FC
330
A
100
AcDbEntity
  8
MODEL
  6
Continuous
100
AcDbLine
 10
1739.265481387648
 20
1043.862964409188
 30
0.0
 11
1761.865502749952
 21
1043.862964409188
 31
0.0
  0
LINE
  5
94FD
330
A
100
AcDbEntity
  8
MODEL
  6
Continuous
100
AcDbLine
 10
1739.565560733351
 20
1023.71303154786
 30
0.0
 11
1761.56540814546
 21
1023.71303154786
 31
0.0
  0
LINE
  5
94FE
330
A
100
AcDbEntity
  8
MODEL
  6
Continuous
100
AcDbLine
 10
1743.115487491163
 20
1055.112964409188
 30
0.0
 11
1743.115487491163
 21
1046.412982719735
 31
0.0
  0
ARC
  5
94FF
330
A
100
AcDbEntity
  8
MODEL
  6
Continuous
100
AcDbCircle
 10
1761.56540814546
 20
1024.013095634774
 30
0.0
 40
0.3000000119209289
100
AcDbArc
 50
270.0001068115048
 51
0.0000152585630699
  0
ARC
  5
9500
330
A
100
AcDbEntity
  8
MODEL
  6
Continuous
100
AcDbCircle
 10
1739.565560733351
 20
1024.013095634774
 30
0.0
 40
0.3000000119209289
100
AcDbArc
 50
179.999954223616
 51
269.9998321533744
  0
ARC
  5
9501
330
A
100
AcDbEntity
  8
MODEL
  6
Continuous
100
AcDbCircle
 10
1725.565484439405
 20
1090.501875343692
 30
0.0
 40
10.0
100
AcDbArc
 50
90.0
 51
180.0
  0
ARC
  5
9502
330
A
100
AcDbEntity
  8
MODEL
  6
Continuous
100
AcDbCircle
 10
1725.565484439405
 20
990.5018829730859
 30
0.0
 40
10.0
100
AcDbArc
 50
180.0
 51
270.0
  0
LINE
  5
9504
330
A
100
AcDbEntity
  8
MODEL
  6
Continuous
100
AcDbLine
 10
1736.315484439405
 20
1058.062968986825
 30
0.0
 11
1764.815484439405
 21
1058.062968986825
 31
0.0
  0
SPLINE
  5
9505
330
A
100
AcDbEntity
  8
MODEL
  6
CENTER2
100
AcDbSpline
210
0.0
220
0.0
230
1.0
 70
  1064
 71
     3
 72
    14
 73
    10
 74
     8
 42
0.000000001
 43
0.0000000001
 44
0.0
 40
0.0
 40
0.0
 40
0.0
 40
0.0
 40
15.40944549321838
 40
80.20767133915919
 40
185.9916242865036
 40
263.5190444085948
 40
309.9525279406084
 40
323.8596800270589
 40
379.1518258936554
 40
379.1518258936554
 40
379.1518258936554
 40
379.1518258936554
 10
1673.805612968569
 20
1237.35171390399
 30
0.0
 10
1679.456182143383
 20
1237.573662581024
 30
0.0
 10
1708.867947508473
 20
1238.728927158814
 30
0.0
 10
1678.662168650579
 20
1145.440497952879
 30
0.0
 10
1677.402468895941
 20
1078.38926869907
 30
0.0
 10
1678.177405453913
 20
1000.391437317784
 30
0.0
 10
1709.66010914981
 20
953.6090415705451
 30
0.0
 10
1751.776052170241
 20
960.8304482815133
 30
0.0
 10
1751.103151009099
 20
989.5375569841486
 30
0.0
 10
1750.565484439405
 20
1012.475327868347
 30
0.0
 11
1673.805612968569
 21
1237.35171390399
 31
0.0
 11
1689.190947560656
 21
1236.490035368805
 31
0.0
 11
1689.190947560656
 21
1171.691809522864
 31
0.0
 11
1677.774848973046
 21
1066.525667660552
 31
0.0
 11
1689.190947560656
 21
989.843377894106
 31
0.0
 11
1721.942392090384
 21
956.928164479426
 31
0.0
 11
1735.657587567005
 21
959.2308351449219
 31
0.0
 11
1750.565484439405
 21
1012.475327868347
 31
0.0
  0
LINE
  5
9506
330
A
100
AcDbEntity
  8
MODEL
  6
Continuous
100
AcDbLine
 10
1785.565499698195
 20
990.5018829730859
 30
0.0
 11
1785.565499698195
 21
1090.501875343692
 31
0.0
  0
ARC
  5
9507
330
A
100
AcDbEntity
  8
MODEL
  6
Continuous
100
AcDbCircle
 10
1775.565484439405
 20
1090.501875343692
 30
0.0
 40
10.0
100
AcDbArc
 50
0.0
 51
90.0
  0
ARC
  5
9508
330
A
100
AcDbEntity
  8
MODEL
  6
Continuous
100
AcDbCircle
 10
1775.565499698195
 20
990.5018829730859
 30
0.0
 40
10.0
100
AcDbArc
 50
270.0
 51
0.0
  0
DIMENSION
  5
952D
330
A
100
AcDbEntity
  8
DIM
  6
Continuous
100
AcDbDimension
  2
*D19
 10
1849.972849100061
 20
1252.73970009397
 30
0.0
 11
1822.972849100061
 21
1062.73970009397
 31
0.0
 70
    32
 71
     5
 42
380.0
 73
     0
 74
     0
 75
     0
  3
JIS
100
AcDbAlignedDimension
 13
1483.596455637271
 23
872.73970009397
 33
0.0
 14
1677.637142062979
 24
1252.73970009397
 34
0.0
 50
90.0
100
AcDbRotatedDimension
1001
ACAD
1000
DSTYLE
1002
{
1070
   179
1070
     0
1070
    41
1040
6.0
1070
   271
1070
     0
1070
    43
1040
25.0
1070
    44
1040
0.0
1070
    42
1040
25.0
1070
   147
1040
15.0
1070
   140
1040
24.0
1002
}
  0
CIRCLE
  5
95D2
330
A
100
AcDbEntity
  8
MODEL GRAY
  6
AM_DIN_F_W050
 48
4.0
100
AcDbCircle
 10
1393.976553487712
 20
1136.97504701209
 30
0.0
 40
7.579809740149905
  0
CIRCLE
  5
95D3
330
A
100
AcDbEntity
  8
MODEL GRAY
  6
AM_DIN_F_W050
 48
4.0
100
AcDbCircle
 10
1573.976553487712
 20
1136.97504701209
 30
0.0
 40
7.579809740149905
  0
LEADER
  5
96A8
330
A
100
AcDbEntity
  8
DIM
  6
Continuous
100
AcDbLeader
  3
JIS
 76
     3
 10
1728.189534327118
 20
956.7611892973471
 30
0.0
 10
1697.500182908239
 20
718.8324988427241
 30
0.0
 10
2000.811027293503
 20
718.8324988427241
 30
0.0
1001
ACAD
1000
DSTYLE
1002
{
1070
   179
1070
     0
1070
    41
1040
6.0
1070
   271
1070
     0
1070
    43
1040
25.0
1070
    44
1040
0.0
1070
    42
1040
25.0
1070
   147
1040
15.0
1070
   140
1040
24.0
1002
}
  0
MTEXT
  5
96A9
330
A
100
AcDbEntity
  8
MODEL
390
1D
100
AcDbMText
 10
1710.393451471011
 20
758.2890491513674
 30
0.0
 40
24.4326171875
 41
0.0
 46
24.4326171875
 71
     1
 72
     1
  1
{電源コードL = 1200}
  7
ＭＳ ゴシック
 73
     1
 44
0.7828267384257843
1001
ACAD
1000
ACAD_MTEXT_DEFINED_HEIGHT_BEGIN
1070
    46
1040
24.4326171875
1000
ACAD_MTEXT_DEFINED_HEIGHT_END
  0
MTEXT
  5
96FD
330
A
100
AcDbEntity
  8
MODEL
390
1D
100
AcDbMText
 10
244.2679743942336
 20
812.0664122111077
 30
0.0
 40
24.4326171875
 41
0.0
 46
24.4326171875
 71
     1
 72
     1
  1
{排水管差込口}
  7
ＭＳ ゴシック
 73
     1
 44
0.7828267384257843
1001
ACAD
1000
ACAD_MTEXT_DEFINED_HEIGHT_BEGIN
1070
    46
1040
24.4326171875
1000
ACAD_MTEXT_DEFINED_HEIGHT_END
  0
LINE
  5
96FE
330
A
100
AcDbEntity
  8
DIM
  6
Continuous
100
AcDbLine
 10
342.8435806474707
 20
833.0839948101668
 30
0.0
 11
342.8435806474707
 21
987.255043640718
 31
0.0
  0
LINE
  5
96FF
330
A
100
AcDbEntity
  8
DIM
  6
Continuous
100
AcDbLine
 10
344.974900801478
 20
1201.095268435248
 30
0.0
 11
344.974900801478
 21
1432.219851306269
 31
0.0
  0
MTEXT
  5
9700
330
A
100
AcDbEntity
  8
MODEL
390
1D
100
AcDbMText
 10
244.2679743942336
 20
1490.638258669617
 30
0.0
 40
24.4326171875
 41
0.0
 46
24.4326171875
 71
     1
 72
     1
  1
{洗浄管差込口}
  7
ＭＳ ゴシック
 73
     1
 44
0.7828267384257843
1001
ACAD
1000
ACAD_MTEXT_DEFINED_HEIGHT_BEGIN
1070
    46
1040
24.4326171875
1000
ACAD_MTEXT_DEFINED_HEIGHT_END
  0
LINE
  5
9763
330
A
100
AcDbEntity
  8
DIM
  6
Continuous
100
AcDbLine
 10
1573.972337902136
 20
1135.736710811473
 30
0.0
 11
1381.463424474666
 21
628.6034671336677
 31
0.0
  0
LINE
  5
9764
330
A
100
AcDbEntity
  8
DIM
  6
Continuous
100
AcDbLine
 10
1201.463424474666
 20
628.6034671336677
 30
0.0
 11
1676.049773691177
 21
628.6034671336677
 31
0.0
  0
LINE
  5
9765
330
A
100
AcDbEntity
  8
DIM
  6
Continuous
100
AcDbLine
 10
1393.972337902136
 20
1135.736710811473
 30
0.0
 11
1201.463424474666
 21
628.6034671336677
 31
0.0
  0
MTEXT
  5
9766
330
A
100
AcDbEntity
  8
MODEL
390
1D
100
AcDbMText
 10
1411.083624121664
 20
669.2331700393418
 30
0.0
 40
24.4326171875
 41
0.0
 46
24.4326171875
 71
     1
 72
     1
  1
{壁取付ボルト位置}
  7
ＭＳ ゴシック
 73
     1
 44
0.7828267384257843
1001
ACAD
1000
ACAD_MTEXT_DEFINED_HEIGHT_BEGIN
1070
    46
1040
24.4326171875
1000
ACAD_MTEXT_DEFINED_HEIGHT_END
  0
MTEXT
  5
9794
330
A
100
AcDbEntity
  8
MODEL
390
1D
100
AcDbMText
 10
980.7173949148234
 20
750.4279671058714
 30
0.0
 40
24.4326171875
 41
0.0
 46
24.4326171875
 71
     1
 72
     1
  1
{給水ホース}
  7
ＭＳ ゴシック
 73
     1
 44
0.7828267384257843
1001
ACAD
1000
ACAD_MTEXT_DEFINED_HEIGHT_BEGIN
1070
    46
1040
24.4326171875
1000
ACAD_MTEXT_DEFINED_HEIGHT_END
  0
LEADER
  5
9795
330
A
100
AcDbEntity
  8
DIM
  6
Continuous
100
AcDbLeader
  3
JIS
 76
     3
 10
1264.176261420922
 20
1029.489656296254
 30
0.0
 10
1155.369956414737
 20
710.9714167972281
 30
0.0
 10
970.1817999784047
 20
710.9714167972281
 30
0.0
1001
ACAD
1000
DSTYLE
1002
{
1070
   179
1070
     0
1070
    41
1040
6.0
1070
   271
1070
     0
1070
    43
1040
25.0
1070
    44
1040
0.0
1070
    42
1040
25.0
1070
   147
1040
15.0
1070
   140
1040
24.0
1002
}
  0
DIMENSION
  5
9913
102
{ACAD_REACTORS
330
9915
102
}
102
{ACAD_XDICTIONARY
360
9914
102
}
330
A
100
AcDbEntity
  8
MODEL
  6
Continuous
100
AcDbDimension
  2
*D20
 10
1803.880225832679
 20
1136.97504701209
 30
0.0
 11
1803.880225832679
 21
1194.85737355303
 31
0.0
 70
   160
  1
115
 71
     5
 42
115.76465308188
 73
     0
 74
     0
 75
     0
  3
JIS
100
AcDbAlignedDimension
 13
1702.637142062979
 23
1252.73970009397
 33
0.0
 14
1583.976553487712
 24
1136.97504701209
 34
0.0
 50
90.0
100
AcDbRotatedDimension
1001
ACAD
1000
DSTYLE
1002
{
1070
   144
1040
1.0
1070
   179
1070
     0
1070
    41
1040
6.0
1070
   271
1070
     0
1070
    43
1040
25.0
1070
    44
1040
0.0
1070
    42
1040
25.0
1070
   147
1040
15.0
1070
   140
1040
24.0
1002
}
  0
LINE
  5
9A28
330
A
100
AcDbEntity
  8
MODEL
390
1D
100
AcDbLine
 10
1321.00657109167
 20
1934.230164520816
 30
0.0
 11
1601.00657109167
 21
1934.230164520816
 31
0.0
  0
LINE
  5
9A29
330
A
100
AcDbEntity
  8
MODEL
390
1D
100
AcDbLine
 10
1601.00657109167
 20
1934.230164520816
 30
0.0
 11
1601.00657109167
 21
2094.230164520816
 31
0.0
  0
LINE
  5
9A2A
330
A
100
AcDbEntity
  8
MODEL
390
1D
100
AcDbLine
 10
1601.00657109167
 20
2094.230164520816
 30
0.0
 11
1321.00657109167
 21
2094.230164520816
 31
0.0
  0
LINE
  5
9A2B
330
A
100
AcDbEntity
  8
MODEL
390
1D
100
AcDbLine
 10
1321.00657109167
 20
2094.230164520816
 30
0.0
 11
1321.00657109167
 21
1934.230164520816
 31
0.0
  0
LINE
  5
9A2C
330
A
100
AcDbEntity
  8
MODEL
390
1D
100
AcDbLine
 10
1321.00657109167
 20
1954.230164520816
 30
0.0
 11
1601.00657109167
 21
1954.230164520816
 31
0.0
  0
LINE
  5
9A2D
330
A
100
AcDbEntity
  8
MODEL
390
1D
100
AcDbLine
 10
1323.00657109167
 20
2092.230164520816
 30
0.0
 11
1323.00657109167
 21
1956.230164520814
 31
0.0
  0
LINE
  5
9A2E
330
A
100
AcDbEntity
  8
MODEL
390
1D
100
AcDbLine
 10
1599.00657109167
 20
2092.230164520816
 30
0.0
 11
1323.00657109167
 21
2092.230164520816
 31
0.0
  0
LINE
  5
9A2F
330
A
100
AcDbEntity
  8
MODEL
390
1D
100
AcDbLine
 10
1599.00657109167
 20
1956.230164520814
 30
0.0
 11
1599.00657109167
 21
2092.230164520816
 31
0.0
  0
LINE
  5
9A30
330
A
100
AcDbEntity
  8
MODEL
390
1D
100
AcDbLine
 10
1323.00657109167
 20
1956.230164520814
 30
0.0
 11
1599.00657109167
 21
1956.230164520814
 31
0.0
  0
LINE
  5
9A31
330
A
100
AcDbEntity
  8
MODEL
390
1D
100
AcDbLine
 10
1323.00657109167
 20
2024.230164520816
 30
0.0
 11
1599.00657109167
 21
2024.230164520816
 31
0.0
  0
LINE
  5
9A32
330
A
100
AcDbEntity
  8
MODEL
390
1D
100
AcDbLine
 10
1461.00657109167
 20
2092.230164520816
 30
0.0
 11
1461.00657109167
 21
1956.230164520814
 31
0.0
  0
LINE
  5
9A33
330
A
100
AcDbEntity
  8
MODEL
390
1D
100
AcDbLine
 10
1530.006571091667
 20
2092.230164520816
 30
0.0
 11
1530.006571091667
 21
1956.230164520814
 31
0.0
  0
LINE
  5
9A34
330
A
100
AcDbEntity
  8
MODEL
390
1D
100
AcDbLine
 10
1392.00657109167
 20
2092.230164520816
 30
0.0
 11
1392.00657109167
 21
1956.230164520814
 31
0.0
  0
LINE
  5
9A35
330
A
100
AcDbEntity
  8
MODEL
390
1D
100
AcDbLine
 10
1725.699761091668
 20
1934.230164520816
 30
0.0
 11
1791.699761091672
 21
1934.230164520816
 31
0.0
  0
LINE
  5
9A36
330
A
100
AcDbEntity
  8
MODEL
390
1D
100
AcDbLine
 10
1791.699761091672
 20
1934.230164520816
 30
0.0
 11
1791.699761091672
 21
2094.230164520816
 31
0.0
  0
LINE
  5
9A37
330
A
100
AcDbEntity
  8
MODEL
390
1D
100
AcDbLine
 10
1791.699761091672
 20
2094.230164520816
 30
0.0
 11
1725.699761091668
 21
2094.230164520816
 31
0.0
  0
LINE
  5
9A38
330
A
100
AcDbEntity
  8
MODEL
390
1D
100
AcDbLine
 10
1725.699761091668
 20
2094.230164520816
 30
0.0
 11
1725.699761091668
 21
1934.230164520816
 31
0.0
  0
LINE
  5
9A39
330
A
100
AcDbEntity
  8
MODEL
390
1D
100
AcDbLine
 10
1725.699761091668
 20
1954.230164520816
 30
0.0
 11
1769.699761091668
 21
1954.230164520816
 31
0.0
  0
LINE
  5
9A3A
330
A
100
AcDbEntity
  8
MODEL
390
1D
100
AcDbLine
 10
1769.699761091668
 20
1954.230164520816
 30
0.0
 11
1769.699761091668
 21
2094.230164520816
 31
0.0
  0
LINE
  5
9A3B
330
A
100
AcDbEntity
  8
MODEL
390
1D
100
AcDbLine
 10
1769.699761091668
 20
2024.230164520816
 30
0.0
 11
1725.699761091668
 21
2024.230164520816
 31
0.0
  0
LINE
  5
9A3C
330
A
100
AcDbEntity
  8
MODEL
390
1D
100
AcDbLine
 10
1769.699761091668
 20
1989.230164520816
 30
0.0
 11
1725.699761091668
 21
1989.230164520816
 31
0.0
  0
DIMENSION
  5
9A3D
330
A
100
AcDbEntity
  8
DIM
  6
Continuous
390
1D
100
AcDbDimension
  2
*D35
 10
1791.699761091672
 20
2166.930608786413
 30
0.0
 11
1756.948017033846
 21
2166.930608786413
 31
0.0
 70
   160
  1
\A1;<>
 71
     5
 41
0.96
 42
33.00000000000182
 73
     0
 74
     0
 75
     0
  3
JIS
100
AcDbAlignedDimension
 13
1725.699761091668
 23
2114.410638786416
 33
0.0
 14
1791.699761091672
 24
2114.410638786416
 34
0.0
100
AcDbRotatedDimension
1001
ACAD
1000
DSTYLE
1002
{
1070
   144
1040
0.5
1070
    44
1040
0.0
1002
}
  0
CIRCLE
  5
9A3E
330
A
100
AcDbEntity
  8
MODEL
390
1D
100
AcDbCircle
 10
1461.00657109167
 20
1984.230164520816
 30
0.0
 40
4.5
  0
CIRCLE
  5
9A3F
330
A
100
AcDbEntity
  8
MODEL
390
1D
100
AcDbCircle
 10
1561.00657109167
 20
2044.230164520816
 30
0.0
 40
4.5
  0
CIRCLE
  5
9A40
330
A
100
AcDbEntity
  8
MODEL
390
1D
100
AcDbCircle
 10
1361.00657109167
 20
2044.230164520816
 30
0.0
 40
4.5
  0
LINE
  5
9A41
330
A
100
AcDbEntity
  8
MODEL
390
1D
100
AcDbLine
 10
1783.722471091669
 20
2044.230164520816
 30
0.0
 11
1799.677051091671
 21
2044.230164520816
 31
0.0
  0
LINE
  5
9A42
330
A
100
AcDbEntity
  8
MODEL
390
1D
100
AcDbLine
 10
1783.722471091669
 20
1984.230164520816
 30
0.0
 11
1799.677051091671
 21
1984.230164520816
 31
0.0
  0
LINE
  5
9A43
330
A
100
AcDbEntity
  8
MODEL
390
1D
100
AcDbLine
 10
1371.50657109167
 20
2044.230164520816
 30
0.0
 11
1350.50657109167
 21
2044.230164520816
 31
0.0
  0
LINE
  5
9A44
330
A
100
AcDbEntity
  8
MODEL
390
1D
100
AcDbLine
 10
1361.00657109167
 20
2054.730164520816
 30
0.0
 11
1361.00657109167
 21
2033.730164520814
 31
0.0
  0
LINE
  5
9A45
330
A
100
AcDbEntity
  8
MODEL
390
1D
100
AcDbLine
 10
1571.50657109167
 20
2044.230164520816
 30
0.0
 11
1550.50657109167
 21
2044.230164520816
 31
0.0
  0
LINE
  5
9A46
330
A
100
AcDbEntity
  8
MODEL
390
1D
100
AcDbLine
 10
1561.00657109167
 20
2054.730164520816
 30
0.0
 11
1561.00657109167
 21
2033.730164520814
 31
0.0
  0
LINE
  5
9A47
330
A
100
AcDbEntity
  8
MODEL
390
1D
100
AcDbLine
 10
1471.50657109167
 20
1984.230164520816
 30
0.0
 11
1450.50657109167
 21
1984.230164520816
 31
0.0
  0
LINE
  5
9A48
330
A
100
AcDbEntity
  8
MODEL
390
1D
100
AcDbLine
 10
1461.00657109167
 20
1994.730164520816
 30
0.0
 11
1461.00657109167
 21
1973.730164520814
 31
0.0
  0
DIMENSION
  5
9A49
330
A
100
AcDbEntity
  8
DIM
  6
Continuous
390
1D
100
AcDbDimension
  2
*D36
 10
1461.006571091669
 20
2162.452857314321
 30
0.0
 11
1411.00657109167
 21
2162.452857314321
 31
0.0
 70
   160
  1
\A1;<>
 71
     5
 41
0.96
 42
49.99999999999977
 73
     0
 74
     0
 75
     0
  3
JIS
100
AcDbAlignedDimension
 13
1361.00657109167
 23
2109.731299706737
 33
0.0
 14
1461.006571091669
 24
2106.24649935976
 34
0.0
100
AcDbRotatedDimension
1001
ACAD
1000
DSTYLE
1002
{
1070
   144
1040
0.5
1070
    44
1040
0.0
1002
}
  0
DIMENSION
  5
9A4A
330
A
100
AcDbEntity
  8
DIM
  6
Continuous
390
1D
100
AcDbDimension
  2
*D37
 10
1561.00657109167
 20
2162.452857314321
 30
0.0
 11
1511.00657109167
 21
2162.452857314321
 31
0.0
 70
   160
  1
\A1;<>
 71
     5
 41
0.96
 42
50.0
 73
     0
 74
     0
 75
     0
  3
JIS
100
AcDbAlignedDimension
 13
1461.00657109167
 23
2147.231299706737
 33
0.0
 14
1561.00657109167
 24
2109.731299706737
 34
0.0
100
AcDbRotatedDimension
1001
ACAD
1000
DSTYLE
1002
{
1070
   144
1040
0.5
1070
    44
1040
0.0
1002
}
  0
DIMENSION
  5
9A4B
330
A
100
AcDbEntity
  8
DIM
  6
Continuous
390
1D
100
AcDbDimension
  2
*D38
 10
1901.57689269312
 20
1984.230164520816
 30
0.0
 11
1901.57689269312
 21
2014.230164520816
 31
0.0
 70
   160
  1
\A1;<>
 71
     5
 41
0.96
 42
30.0
 73
     0
 74
     0
 75
     0
  3
JIS
100
AcDbAlignedDimension
 13
1824.34207519407
 23
2044.230164520816
 33
0.0
 14
1824.34207519407
 24
1984.230164520816
 34
0.0
 50
90.0
100
AcDbRotatedDimension
1001
ACAD
1000
DSTYLE
1002
{
1070
   144
1040
0.5
1070
    44
1040
0.0
1002
}
  0
DIMENSION
  5
9A4C
330
A
100
AcDbEntity
  8
DIM
  6
Continuous
390
1D
100
AcDbDimension
  2
*D39
 10
1248.48895163567
 20
2094.230164520816
 30
0.0
 11
1248.48895163567
 21
2014.230164520816
 31
0.0
 70
   160
  1
\A1;<>
 71
     5
 41
0.96
 42
80.00000000000011
 73
     0
 74
     0
 75
     0
  3
JIS
100
AcDbAlignedDimension
 13
1306.05807163567
 23
1934.230164520816
 33
0.0
 14
1306.05807163567
 24
2094.230164520816
 34
0.0
 50
90.0
100
AcDbRotatedDimension
1001
ACAD
1000
DSTYLE
1002
{
1070
   144
1040
0.5
1070
    44
1040
0.0
1002
}
  0
DIMENSION
  5
9A4D
330
A
100
AcDbEntity
  8
DIM
  6
Continuous
390
1D
100
AcDbDimension
  2
*D40
 10
1601.00657109167
 20
2217.463335312401
 30
0.0
 11
1461.006571091669
 21
2217.463335312401
 31
0.0
 70
   160
  1
\A1;<>
 71
     5
 41
0.96
 42
140.0
 73
     0
 74
     0
 75
     0
  3
JIS
100
AcDbAlignedDimension
 13
1321.00657109167
 23
2106.226335334256
 33
0.0
 14
1601.00657109167
 24
2106.226335334256
 34
0.0
100
AcDbRotatedDimension
1001
ACAD
1000
DSTYLE
1002
{
1070
   144
1040
0.5
1070
    44
1040
0.0
1002
}
  0
MTEXT
  5
9A4E
330
A
100
AcDbEntity
  8
DIM
  6
Continuous
390
1D
100
AcDbMText
 10
1330.333141091668
 20
2352.303704520814
 30
0.0
 40
25.0
 41
0.0
 46
27.925
 71
     1
 72
     1
  1
{\W0.945946;ワイヤレスリモコン(1:2)}
  7
ＭＳ ゴシック
 73
     1
 44
0.96
1001
ACAD
1000
ACAD_MTEXT_DEFINED_HEIGHT_BEGIN
1070
    46
1040
27.925
1000
ACAD_MTEXT_DEFINED_HEIGHT_END
  0
VIEWPORT
  5
349
330
B
100
AcDbEntity
 67
     1
  8
0
100
AcDbViewport
 10
202.5
 20
128.5
 30
0.0
 40
486.0
 41
308.4
 68
     1
 69
     1
 12
202.5
 22
128.5
 13
0.0
 23
0.0
 14
0.5
 24
0.5
 15
0.0
 25
0.0
 16
0.0
 26
0.0
 36
1.0
 17
0.0
 27
0.0
 37
0.0
 42
50.0
 43
0.0
 44
0.0
 45
308.4
 50
0.0
 51
0.0
 72
   100
 90
   557152
  1

281
     0
 71
     1
 74
     0
110
0.0
120
0.0
130
0.0
111
1.0
121
0.0
131
0.0
112
0.0
122
1.0
132
0.0
 79
     0
146
0.0
170
     0
 61
     5
348
26C
292
     1
282
     1
141
0.0
142
0.0
 63
   256
  0
VIEWPORT
  5
34A
330
B
100
AcDbEntity
 67
     1
  8
0
100
AcDbViewport
 10
202.5
 20
128.5
 30
0.0
 40
324.0
 41
205.6
 68
     2
 69
     2
 12
986.6781359294573
 22
1427.077061889956
 13
0.0
 23
0.0
 14
0.5
 24
0.5
 15
0.0
 25
0.0
 16
0.0
 26
0.0
 36
1.0
 17
0.0
 27
0.0
 37
0.0
 42
50.0
 43
0.0
 44
0.0
 45
2890.021615685494
 50
0.0
 51
0.0
 72
   100
 90
   557152
  1

281
     0
 71
     1
 74
     0
110
0.0
120
0.0
130
0.0
111
1.0
121
0.0
131
0.0
112
0.0
122
1.0
132
0.0
 79
     0
146
0.0
170
     0
 61
     5
348
26C
292
     1
282
     1
141
0.0
142
0.0
 63
   256
  0
ENDSEC
  0
SECTION
  2
OBJECTS
  0
DICTIONARY
  5
19
330
0
100
AcDbDictionary
281
     1
  3
ACAD_COLOR
350
38F
  3
ACAD_DETAILVIEWSTYLE
350
BE8
  3
ACAD_GROUP
350
1A
  3
ACAD_IMAGE_VARS
350
27B
  3
ACAD_LAYOUT
350
1E
  3
ACAD_MATERIAL
350
263
  3
ACAD_MLEADERSTYLE
350
336
  3
ACAD_MLINESTYLE
350
1B
  3
ACAD_PLOTSETTINGS
350
22
  3
ACAD_PLOTSTYLENAME
350
1F
  3
ACAD_SCALELIST
350
241
  3
ACAD_SECTIONVIEWSTYLE
350
BE9
  3
ACAD_TABLESTYLE
350
278
  3
ACAD_VISUALSTYLE
350
267
  3
AcadDim
350
94E3
  3
ACDB_RECOMPOSE_DATA
350
9AAB
  3
AcDbVariableDictionary
350
330
  3
APPDATA
350
27A
  3
CENTERLINE
350
9928
  3
DimOffsetDictionary
350
9923
  0
SUN
  5
BE4
330
15
100
AcDbSun
 90
        1
290
     0
 63
     7
421
 16777215
 40
1.0
291
     1
 91
  2455826
 92
 54000000
292
     0
 70
     2
 71
   256
280
     1
  0
DICTIONARY
  5
2E1
330
2
100
AcDbDictionary
280
     1
281
     1
  3
ACAD_LAYERSTATES
360
2E2
  3
ACLYDICTIONARY
360
95C2
  0
DICTIONARY
  5
8E34
330
8E33
100
AcDbDictionary
280
     1
281
     1
  3
ACAD_DIMASSOC
360
8E35
  0
DICTIONARY
  5
929A
330
9299
100
AcDbDictionary
280
     1
281
     1
  3
ACAD_DIMASSOC
360
929B
  0
DICTIONARY
  5
92E5
330
92E4
100
AcDbDictionary
280
     1
281
     1
  3
ACAD_DIMASSOC
360
92E6
  0
DICTIONARY
  5
9914
330
9913
100
AcDbDictionary
280
     1
281
     1
  3
ACAD_DIMASSOC
360
9915
  0
DICTIONARY
  5
38F
102
{ACAD_REACTORS
330
19
102
}
330
19
100
AcDbDictionary
281
     1
  0
DICTIONARY
  5
BE8
102
{ACAD_REACTORS
330
19
102
}
330
19
100
AcDbDictionary
281
     1
  0
DICTIONARY
  5
1A
102
{ACAD_REACTORS
330
19
102
}
330
19
100
AcDbDictionary
281
     1
  0
RASTERVARIABLES
  5
27B
102
{ACAD_REACTORS
330
19
102
}
330
19
100
AcDbRasterVariables
 90
        0
 70
     1
 71
     1
 72
     1
  0
DICTIONARY
  5
1E
102
{ACAD_REACTORS
330
19
102
}
330
19
100
AcDbDictionary
281
     1
  3
Layout1
350
21
  3
Model
350
20
  0
DICTIONARY
  5
263
102
{ACAD_REACTORS
330
19
102
}
330
19
100
AcDbDictionary
281
     1
  3
ByBlock
350
9911
  3
ByLayer
350
264
  3
Global
350
266
  0
DICTIONARY
  5
336
102
{ACAD_REACTORS
330
19
102
}
330
19
100
AcDbDictionary
281
     1
  3
Standard
350
9912
  0
DICTIONARY
  5
1B
102
{ACAD_REACTORS
330
19
102
}
330
19
100
AcDbDictionary
281
     1
  3
Standard
350
1C
  0
DICTIONARY
  5
22
102
{ACAD_REACTORS
330
19
102
}
330
19
100
AcDbDictionary
281
     1
  0
ACDBDICTIONARYWDFLT
  5
1F
102
{ACAD_REACTORS
330
19
102
}
330
19
100
AcDbDictionary
281
     1
  3
Normal
350
1D
100
AcDbDictionaryWithDefault
340
1D
  0
DICTIONARY
  5
241
102
{ACAD_REACTORS
330
19
102
}
330
19
100
AcDbDictionary
281
     1
  3
A0
350
242
  3
A1
350
243
  3
A2
350
244
  3
A3
350
245
  3
A4
350
246
  3
A5
350
247
  3
A6
350
248
  3
A7
350
249
  3
A8
350
24A
  3
A9
350
24B
  3
B0
350
24C
  3
B1
350
24D
  3
B2
350
24E
  3
B3
350
24F
  3
B4
350
250
  3
B5
350
251
  3
B6
350
252
  3
B7
350
253
  3
B8
350
254
  3
B9
350
255
  3
C0
350
256
  3
C1
350
257
  3
C2
350
258
  3
C3
350
259
  3
C4
350
25A
  3
C5
350
25B
  3
C6
350
25C
  3
C7
350
25D
  3
C8
350
25E
  3
C9
350
25F
  3
D0
350
260
  3
D1
350
261
  3
D2
350
262
  0
DICTIONARY
  5
BE9
102
{ACAD_REACTORS
330
19
102
}
330
19
100
AcDbDictionary
281
     1
  0
DICTIONARY
  5
278
102
{ACAD_REACTORS
330
19
102
}
330
19
100
AcDbDictionary
281
     1
  3
Standard
350
279
  0
DICTIONARY
  5
267
102
{ACAD_REACTORS
330
19
102
}
330
19
100
AcDbDictionary
281
     1
  3
*A1
350
9922
  3
2dWireframe
350
26C
  3
3D Hidden
350
26E
  3
3dWireframe
350
26D
  3
Basic
350
26F
  3
Brighten
350
273
  3
ColorChange
350
277
  3
Conceptual
350
271
  3
Dim
350
272
  3
EdgeColorOff
350
BDE
  3
Facepattern
350
276
  3
Flat
350
268
  3
FlatWithEdges
350
269
  3
Gouraud
350
26A
  3
GouraudWithEdges
350
26B
  3
Hidden
350
BDB
  3
JitterOff
350
BDC
  3
Linepattern
350
275
  3
OverhangOff
350
BDD
  3
Realistic
350
270
  3
Shaded
350
BE3
  3
Shaded with edges
350
BE2
  3
Shades of Gray
350
BDF
  3
Sketchy
350
BE0
  3
Thicken
350
274
  3
Wireframe
350
BDA
  3
X-Ray
350
BE1
  0
XRECORD
  5
94E3
102
{ACAD_REACTORS
330
19
102
}
330
19
100
AcDbXrecord
280
     1
340
0
 72
     0
 71
     0
 70
     0
 69
     0
 68
     1
 67
     3
 66
     0
 65
     0
 64
     0
 63
     3
 62
     1
 61
     0
 60
     0
 40
0.0
  0
XRECORD
  5
9AAB
102
{ACAD_REACTORS
330
19
102
}
330
19
100
AcDbXrecord
280
     1
 90
        1
330
279
  0
DICTIONARY
  5
330
102
{ACAD_REACTORS
330
19
102
}
330
19
100
AcDbDictionary
281
     1
  3
CANNOSCALE
350
331
  3
CMLEADERSTYLE
350
992A
  3
CTABLESTYLE
350
335
  3
HPTRANSPARENCY
350
C00
  3
XCLIPFRAME
350
64A
  0
DICTIONARY
  5
27A
102
{ACAD_REACTORS
330
19
102
}
330
19
100
AcDbDictionary
281
     1
  0
DICTIONARY
  5
9928
102
{ACAD_REACTORS
330
19
102
}
330
19
100
AcDbDictionary
281
     1
  3
CLEXTENSION
350
9929
  0
DICTIONARY
  5
9923
102
{ACAD_REACTORS
330
19
102
}
330
19
100
AcDbDictionary
281
     1
  3
DIMRAILANGLE
350
9926
  3
DIMRAILFIRSTOFFSET
350
9924
  3
DIMRAILOFFSET
350
9925
  3
DIMRAILSENABLED
350
9927
  0
DICTIONARY
  5
2E2
102
{ACAD_REACTORS
330
2E1
102
}
330
2E1
100
AcDbDictionary
281
     1
  0
DICTIONARY
  5
95C2
102
{ACAD_REACTORS
330
2E1
102
}
330
2E1
100
AcDbDictionary
281
     1
1001
ACAD
1000
<All
  0
DIMASSOC
  5
8E35
102
{ACAD_REACTORS
330
8E34
102
}
330
8E34
100
AcDbDimAssoc
330
8E33
 90
        3
 70
     0
 71
     1
  1
AcDbOsnapPointRef
 72
     1
331
7B8B
 73
     2
 91
        4
 40
1.0
 10
0.0
 20
0.0
 30
0.0
 75
     0
  1
AcDbOsnapPointRef
 72
    13
331
7B8B
 73
     2
 91
        2
 40
0.0
 10
0.0
 20
0.0
 30
0.0
 75
     0
  0
DIMASSOC
  5
929B
102
{ACAD_REACTORS
330
929A
102
}
330
929A
100
AcDbDimAssoc
330
9299
 90
        1
 70
     0
 71
     1
  1
AcDbOsnapPointRef
 72
     5
331
82E2
 73
     0
 91
        0
 40
4.71238898038469
 10
0.0
 20
0.0
 30
0.0
 75
     0
  0
DIMASSOC
  5
92E6
102
{ACAD_REACTORS
330
92E5
102
}
330
92E5
100
AcDbDimAssoc
330
92E4
 90
        3
 70
     0
 71
     1
  1
AcDbOsnapPointRef
 72
    13
331
82DA
 73
     0
 91
        0
 40
0.0
 10
0.0
 20
0.0
 30
0.0
 75
     0
  1
AcDbOsnapPointRef
 72
     1
331
79C6
 73
     2
 91
        1
 40
1.0
 10
0.0
 20
0.0
 30
0.0
 75
     0
  0
DIMASSOC
  5
9915
102
{ACAD_REACTORS
330
9914
102
}
330
9914
100
AcDbDimAssoc
330
9913
 90
        2
 70
     0
 71
     1
  1
AcDbOsnapPointRef
 72
    13
331
7AFA
 73
     0
 91
        0
 40
0.0
 10
0.0
 20
0.0
 30
0.0
 75
     0
  0
LAYOUT
  5
21
102
{ACAD_REACTORS
330
1E
102
}
330
1E
100
AcDbPlotSettings
  1

  2
none_device
  4
ISO_A3_(420.00_x_297.00_MM)
  6

 40
7.5
 41
20.0
 42
7.5
 43
20.0
 44
420.0
 45
297.0
 46
0.0
 47
0.0
 48
0.0
 49
0.0
140
0.0
141
0.0
142
1.0
143
1.0
 70
     0
 72
     1
 73
     0
 74
     0
  7

 75
     0
 76
     0
 77
     2
 78
   300
147
1.0
148
0.0
149
0.0
100
AcDbLayout
  1
Layout1
 70
     0
 71
     0
 10
0.0
 20
0.0
 11
0.0
 21
0.0
 12
0.0
 22
0.0
 32
0.0
 14
0.0
 24
0.0
 34
0.0
 15
0.0
 25
0.0
 35
0.0
146
0.0
 13
0.0
 23
0.0
 33
0.0
 16
0.0
 26
0.0
 36
0.0
 17
0.0
 27
0.0
 37
0.0
 76
     0
330
B
331
349
  0
LAYOUT
  5
20
102
{ACAD_REACTORS
330
1E
102
}
330
1E
100
AcDbPlotSettings
  1

  2
none_device
  4
ISO_A3_(420.00_x_297.00_MM)
  6

 40
7.5
 41
20.0
 42
7.5
 43
20.0
 44
420.0
 45
297.0
 46
0.0
 47
0.0
 48
0.0
 49
0.0
140
0.0
141
0.0
142
1.0
143
1.0
 70
  1024
 72
     1
 73
     0
 74
     0
  7

 75
     0
 76
     0
 77
     2
 78
   300
147
1.0
148
0.0
149
0.0
100
AcDbLayout
  1
Model
 70
     0
 71
     1
 10
0.0
 20
0.0
 11
2100.0
 21
2970.0
 12
0.0
 22
0.0
 32
0.0
 14
0.0
 24
0.0
 34
0.0
 15
2100.0
 25
2970.0
 35
0.0000000000002274
146
0.0
 13
0.0
 23
0.0
 33
0.0
 16
0.0
 26
0.0
 36
0.0
 17
0.0
 27
0.0
 37
0.0
 76
     0
330
A
331
15
  0
MATERIAL
  5
9911
102
{ACAD_REACTORS
330
263
102
}
330
263
100
AcDbMaterial
  1
ByBlock
 72
     1
 94
      127
  0
MATERIAL
  5
264
102
{ACAD_REACTORS
330
263
102
}
330
263
100
AcDbMaterial
  1
ByLayer
 72
     1
 94
      127
  0
MATERIAL
  5
266
102
{ACAD_REACTORS
330
263
102
}
330
263
100
AcDbMaterial
  1
Global
 72
     1
 94
      127
  0
MLEADERSTYLE
  5
9912
102
{ACAD_REACTORS
330
336
102
}
330
336
100
AcDbMLeaderStyle
170
     2
171
     1
172
     0
 90
        2
 40
0.0
 41
0.0
173
     1
 91
-1056964608
340
11
 92
       -2
290
     1
 42
2.0
291
     1
 43
8.0
  3
Standard
341
0
 44
4.0
300

342
17
174
     1
178
     1
175
     1
176
     0
 93
-1056964608
 45
4.0
292
     0
297
     0
 46
4.0
343
0
 94
-1056964608
 47
1.0
 49
1.0
140
1.0
293
     1
141
0.0
294
     1
177
     0
142
1.0
295
     0
296
     0
143
3.75
1001
ACAD_MLEADERVER
1070
     2
  0
MLINESTYLE
  5
1C
102
{ACAD_REACTORS
330
1B
102
}
330
1B
100
AcDbMlineStyle
  2
Standard
 70
     0
  3

 62
     0
 51
90.0
 52
90.0
 71
     2
 49
0.5
 62
   256
  6
BYLAYER
 49
-0.5
 62
   256
  6
BYLAYER
  0
ACDBPLACEHOLDER
  5
1D
102
{ACAD_REACTORS
330
1F
102
}
330
1F
  0
SCALE
  5
242
102
{ACAD_REACTORS
330
241
102
}
330
241
100
AcDbScale
 70
     0
300
1:1
140
1.0
141
1.0
290
     1
  0
SCALE
  5
243
102
{ACAD_REACTORS
330
241
102
}
330
241
100
AcDbScale
 70
     0
300
1:2
140
1.0
141
2.0
290
     0
  0
SCALE
  5
244
102
{ACAD_REACTORS
330
241
102
}
330
241
100
AcDbScale
 70
     0
300
1:4
140
1.0
141
4.0
290
     0
  0
SCALE
  5
245
102
{ACAD_REACTORS
330
241
102
}
330
241
100
AcDbScale
 70
     0
300
1:5
140
1.0
141
5.0
290
     0
  0
SCALE
  5
246
102
{ACAD_REACTORS
330
241
102
}
330
241
100
AcDbScale
 70
     0
300
1:8
140
1.0
141
8.0
290
     0
  0
SCALE
  5
247
102
{ACAD_REACTORS
330
241
102
}
330
241
100
AcDbScale
 70
     0
300
1:10
140
1.0
141
10.0
290
     0
  0
SCALE
  5
248
102
{ACAD_REACTORS
330
241
102
}
330
241
100
AcDbScale
 70
     0
300
1:16
140
1.0
141
16.0
290
     0
  0
SCALE
  5
249
102
{ACAD_REACTORS
330
241
102
}
330
241
100
AcDbScale
 70
     0
300
1:20
140
1.0
141
20.0
290
     0
  0
SCALE
  5
24A
102
{ACAD_REACTORS
330
241
102
}
330
241
100
AcDbScale
 70
     0
300
1:30
140
1.0
141
30.0
290
     0
  0
SCALE
  5
24B
102
{ACAD_REACTORS
330
241
102
}
330
241
100
AcDbScale
 70
     0
300
1:40
140
1.0
141
40.0
290
     0
  0
SCALE
  5
24C
102
{ACAD_REACTORS
330
241
102
}
330
241
100
AcDbScale
 70
     0
300
1:50
140
1.0
141
50.0
290
     0
  0
SCALE
  5
24D
102
{ACAD_REACTORS
330
241
102
}
330
241
100
AcDbScale
 70
     0
300
1:100
140
1.0
141
100.0
290
     0
  0
SCALE
  5
24E
102
{ACAD_REACTORS
330
241
102
}
330
241
100
AcDbScale
 70
     0
300
2:1
140
2.0
141
1.0
290
     0
  0
SCALE
  5
24F
102
{ACAD_REACTORS
330
241
102
}
330
241
100
AcDbScale
 70
     0
300
4:1
140
4.0
141
1.0
290
     0
  0
SCALE
  5
250
102
{ACAD_REACTORS
330
241
102
}
330
241
100
AcDbScale
 70
     0
300
8:1
140
8.0
141
1.0
290
     0
  0
SCALE
  5
251
102
{ACAD_REACTORS
330
241
102
}
330
241
100
AcDbScale
 70
     0
300
10:1
140
10.0
141
1.0
290
     0
  0
SCALE
  5
252
102
{ACAD_REACTORS
330
241
102
}
330
241
100
AcDbScale
 70
     0
300
100:1
140
100.0
141
1.0
290
     0
  0
SCALE
  5
253
102
{ACAD_REACTORS
330
241
102
}
330
241
100
AcDbScale
 70
     0
300
1/128" = 1'-0"
140
0.0078125
141
12.0
290
     0
  0
SCALE
  5
254
102
{ACAD_REACTORS
330
241
102
}
330
241
100
AcDbScale
 70
     0
300
1/64" = 1'-0"
140
0.015625
141
12.0
290
     0
  0
SCALE
  5
255
102
{ACAD_REACTORS
330
241
102
}
330
241
100
AcDbScale
 70
     0
300
1/32" = 1'-0"
140
0.03125
141
12.0
290
     0
  0
SCALE
  5
256
102
{ACAD_REACTORS
330
241
102
}
330
241
100
AcDbScale
 70
     0
300
1/16" = 1'-0"
140
0.0625
141
12.0
290
     0
  0
SCALE
  5
257
102
{ACAD_REACTORS
330
241
102
}
330
241
100
AcDbScale
 70
     0
300
3/32" = 1'-0"
140
0.09375
141
12.0
290
     0
  0
SCALE
  5
258
102
{ACAD_REACTORS
330
241
102
}
330
241
100
AcDbScale
 70
     0
300
1/8" = 1'-0"
140
0.125
141
12.0
290
     0
  0
SCALE
  5
259
102
{ACAD_REACTORS
330
241
102
}
330
241
100
AcDbScale
 70
     0
300
3/16" = 1'-0"
140
0.1875
141
12.0
290
     0
  0
SCALE
  5
25A
102
{ACAD_REACTORS
330
241
102
}
330
241
100
AcDbScale
 70
     0
300
1/4" = 1'-0"
140
0.25
141
12.0
290
     0
  0
SCALE
  5
25B
102
{ACAD_REACTORS
330
241
102
}
330
241
100
AcDbScale
 70
     0
300
3/8" = 1'-0"
140
0.375
141
12.0
290
     0
  0
SCALE
  5
25C
102
{ACAD_REACTORS
330
241
102
}
330
241
100
AcDbScale
 70
     0
300
1/2" = 1'-0"
140
0.5
141
12.0
290
     0
  0
SCALE
  5
25D
102
{ACAD_REACTORS
330
241
102
}
330
241
100
AcDbScale
 70
     0
300
3/4" = 1'-0"
140
0.75
141
12.0
290
     0
  0
SCALE
  5
25E
102
{ACAD_REACTORS
330
241
102
}
330
241
100
AcDbScale
 70
     0
300
1" = 1'-0"
140
1.0
141
12.0
290
     0
  0
SCALE
  5
25F
102
{ACAD_REACTORS
330
241
102
}
330
241
100
AcDbScale
 70
     0
300
1-1/2" = 1'-0"
140
1.5
141
12.0
290
     0
  0
SCALE
  5
260
102
{ACAD_REACTORS
330
241
102
}
330
241
100
AcDbScale
 70
     0
300
3" = 1'-0"
140
3.0
141
12.0
290
     0
  0
SCALE
  5
261
102
{ACAD_REACTORS
330
241
102
}
330
241
100
AcDbScale
 70
     0
300
6" = 1'-0"
140
6.0
141
12.0
290
     0
  0
SCALE
  5
262
102
{ACAD_REACTORS
330
241
102
}
330
241
100
AcDbScale
 70
     0
300
1'-0" = 1'-0"
140
12.0
141
12.0
290
     0
  0
TABLESTYLE
  5
279
102
{ACAD_REACTORS
330
278
102
}
102
{ACAD_XDICTIONARY
360
9AA9
102
}
330
278
100
AcDbTableStyle
  3
Standard
 70
     0
 71
     0
 40
0.06
 41
0.06
280
     0
281
     0
  7
Standard
140
4.5
170
     2
 62
     0
 63
   257
283
     0
 90
        4
 91
        0
  1

274
    -2
284
     1
 64
     0
275
    -2
285
     1
 65
     0
276
    -2
286
     1
 66
     0
277
    -2
287
     1
 67
     0
278
    -2
288
     1
 68
     0
279
    -2
289
     1
 69
     0
  7
Standard
140
6.0
170
     5
 62
     0
 63
   257
283
     0
 90
        4
 91
        0
  1

274
    -2
284
     1
 64
     0
275
    -2
285
     1
 65
     0
276
    -2
286
     1
 66
     0
277
    -2
287
     1
 67
     0
278
    -2
288
     1
 68
     0
279
    -2
289
     1
 69
     0
  7
Standard
140
4.5
170
     5
 62
     0
 63
   257
283
     0
 90
        4
 91
        0
  1

274
    -2
284
     1
 64
     0
275
    -2
285
     1
 65
     0
276
    -2
286
     1
 66
     0
277
    -2
287
     1
 67
     0
278
    -2
288
     1
 68
     0
279
    -2
289
     1
 69
     0
  0
VISUALSTYLE
  5
9922
102
{ACAD_REACTORS
330
267
102
}
330
267
100
AcDbVisualStyle
  2
*
 70
    10
 71
     0
 72
     2
 73
     0
 90
        0
 40
-0.6
 41
-30.0
 62
     5
 63
     7
421
 16777215
 74
     1
 91
        4
 64
     7
 65
   257
 75
     1
175
     1
 42
1.0
 92
        8
 66
     7
 43
1.0
 76
     1
 77
     6
 78
     2
 67
     7
 79
     5
170
     0
171
     0
290
     0
174
     0
 93
        1
 44
0.0
173
     0
291
     0
 45
0.0
  0
VISUALSTYLE
  5
26C
102
{ACAD_REACTORS
330
267
102
}
330
267
100
AcDbVisualStyle
  2
2dWireframe
 70
     4
 71
     0
 72
     2
 73
     0
 90
        0
 40
-0.6
 41
-30.0
 62
     5
 63
     7
421
 16777215
 74
     1
 91
        4
 64
     7
 65
   257
 75
     1
175
     1
 42
1.0
 92
        0
 66
   257
 43
1.0
 76
     1
 77
     6
 78
     2
 67
     7
 79
     5
170
     0
171
     0
290
     0
174
     0
 93
        1
 44
0.0
173
     0
291
     0
 45
0.0
  0
VISUALSTYLE
  5
26E
102
{ACAD_REACTORS
330
267
102
}
330
267
100
AcDbVisualStyle
  2
3D Hidden
 70
     6
 71
     1
 72
     2
 73
     2
 90
        0
 40
-0.6
 41
-30.0
 62
     5
 63
     7
421
 16777215
 74
     2
 91
        2
 64
     7
 65
   257
 75
     2
175
     1
 42
40.0
 92
        0
 66
   257
 43
1.0
 76
     1
 77
     6
 78
     2
 67
     7
 79
     3
170
     0
171
     0
290
     0
174
     0
 93
        1
 44
0.0
173
     0
291
     0
 45
0.0
  0
VISUALSTYLE
  5
26D
102
{ACAD_REACTORS
330
267
102
}
330
267
100
AcDbVisualStyle
  2
3dWireframe
 70
     5
 71
     0
 72
     2
 73
     0
 90
        0
 40
-0.6
 41
-30.0
 62
     5
 63
     7
421
 16777215
 74
     1
 91
        4
 64
     7
 65
   257
 75
     1
175
     1
 42
1.0
 92
        0
 66
   257
 43
1.0
 76
     1
 77
     6
 78
     2
 67
     7
 79
     5
170
     0
171
     0
290
     0
174
     0
 93
        1
 44
0.0
173
     0
291
     0
 45
0.0
  0
VISUALSTYLE
  5
26F
102
{ACAD_REACTORS
330
267
102
}
330
267
100
AcDbVisualStyle
  2
Basic
 70
     7
 71
     1
 72
     0
 73
     1
 90
        0
 40
-0.6
 41
-30.0
 62
     5
 63
     7
421
 16777215
 74
     0
 91
        4
 64
     7
 65
   257
 75
     1
175
     1
 42
1.0
 92
        8
 66
     7
 43
1.0
 76
     1
 77
     6
 78
     2
 67
     7
 79
     5
170
     0
171
     0
290
     0
174
     0
 93
        1
 44
0.0
173
     0
291
     1
 45
0.0
  0
VISUALSTYLE
  5
273
102
{ACAD_REACTORS
330
267
102
}
330
267
100
AcDbVisualStyle
  2
Brighten
 70
    12
 71
     2
 72
     2
 73
     0
 90
        0
 40
-0.6
 41
-30.0
 62
     5
 63
     7
421
 16777215
 74
     1
 91
        4
 64
     7
 65
   257
 75
     1
175
     1
 42
1.0
 92
        8
 66
     7
 43
1.0
 76
     1
 77
     6
 78
     2
 67
     7
 79
     5
170
     0
171
     0
290
     0
174
     0
 93
        1
 44
50.0
173
     0
291
     1
 45
0.0
  0
VISUALSTYLE
  5
277
102
{ACAD_REACTORS
330
267
102
}
330
267
100
AcDbVisualStyle
  2
ColorChange
 70
    16
 71
     2
 72
     2
 73
     3
 90
        0
 40
-0.6
 41
-30.0
 62
     5
 63
     8
421
  8421504
 74
     1
 91
        4
 64
     7
 65
   257
 75
     1
175
     1
 42
1.0
 92
        8
 66
     8
424
  8421504
 43
1.0
 76
     1
 77
     6
 78
     2
 67
     7
 79
     5
170
     0
171
     0
290
     0
174
     0
 93
        1
 44
0.0
173
     0
291
     1
 45
0.0
  0
VISUALSTYLE
  5
271
102
{ACAD_REACTORS
330
267
102
}
330
267
100
AcDbVisualStyle
  2
Conceptual
 70
     9
 71
     3
 72
     2
 73
     0
 90
        0
 40
-0.6
 41
-30.0
 62
     5
 63
     7
421
 16777215
 74
     2
 91
        2
 64
     7
 65
   257
 75
     1
175
     1
 42
40.0
 92
        8
 66
     7
 43
1.0
 76
     1
 77
     6
 78
     2
 67
     7
 79
     3
170
     0
171
     0
290
     0
174
     0
 93
        1
 44
0.0
173
     0
291
     0
 45
0.0
  0
VISUALSTYLE
  5
272
102
{ACAD_REACTORS
330
267
102
}
330
267
100
AcDbVisualStyle
  2
Dim
 70
    11
 71
     2
 72
     2
 73
     0
 90
        0
 40
-0.6
 41
-30.0
 62
     5
 63
     7
421
 16777215
 74
     1
 91
        4
 64
     7
 65
   257
 75
     1
175
     1
 42
1.0
 92
        8
 66
     7
 43
1.0
 76
     1
 77
     6
 78
     2
 67
     7
 79
     5
170
     0
171
     0
290
     0
174
     0
 93
        1
 44
-50.0
173
     0
291
     1
 45
0.0
  0
VISUALSTYLE
  5
BDE
102
{ACAD_REACTORS
330
267
102
}
330
267
100
AcDbVisualStyle
  2
EdgeColorOff
 70
    22
 71
     2
 72
     2
 73
     0
 90
        0
 40
0.6
 41
30.0
 62
     5
 63
     7
421
 16777215
 74
     1
 91
        4
 64
     7
 65
   257
 75
     1
175
     1
 42
1.0
 92
        8
 66
     7
 43
1.0
 76
     1
 77
     6
 78
     2
 67
     7
 79
     5
170
     0
171
     0
290
     0
174
     0
 93
        1
 44
0.0
173
     0
291
     1
 45
0.0
  0
VISUALSTYLE
  5
276
102
{ACAD_REACTORS
330
267
102
}
330
267
100
AcDbVisualStyle
  2
Facepattern
 70
    15
 71
     2
 72
     2
 73
     0
 90
        0
 40
-0.6
 41
-30.0
 62
     5
 63
     7
421
 16777215
 74
     1
 91
        4
 64
     7
 65
   257
 75
     1
175
     1
 42
1.0
 92
        8
 66
     7
 43
1.0
 76
     1
 77
     6
 78
     2
 67
     7
 79
     5
170
     0
171
     0
290
     0
174
     0
 93
        1
 44
0.0
173
     0
291
     1
 45
0.0
  0
VISUALSTYLE
  5
268
102
{ACAD_REACTORS
330
267
102
}
330
267
100
AcDbVisualStyle
  2
Flat
 70
     0
 71
     2
 72
     1
 73
     1
 90
        2
 40
-0.6
 41
30.0
 62
     5
 63
     7
421
 16777215
 74
     0
 91
        4
 64
     7
 65
   257
 75
     1
175
     1
 42
1.0
 92
        8
 66
     7
 43
1.0
 76
     1
 77
     6
 78
     2
 67
     7
 79
     5
170
     0
171
     0
290
     0
174
     0
 93
       13
 44
0.0
173
     0
291
     1
 45
0.0
  0
VISUALSTYLE
  5
269
102
{ACAD_REACTORS
330
267
102
}
330
267
100
AcDbVisualStyle
  2
FlatWithEdges
 70
     1
 71
     2
 72
     1
 73
     1
 90
        2
 40
-0.6
 41
30.0
 62
     5
 63
     7
421
 16777215
 74
     1
 91
        4
 64
     7
 65
   257
 75
     1
175
     1
 42
1.0
 92
        0
 66
   257
 43
1.0
 76
     1
 77
     6
 78
     2
 67
     7
 79
     5
170
     0
171
     0
290
     0
174
     0
 93
       13
 44
0.0
173
     0
291
     1
 45
0.0
  0
VISUALSTYLE
  5
26A
102
{ACAD_REACTORS
330
267
102
}
330
267
100
AcDbVisualStyle
  2
Gouraud
 70
     2
 71
     2
 72
     2
 73
     1
 90
        2
 40
-0.6
 41
30.0
 62
     5
 63
     7
421
 16777215
 74
     0
 91
        4
 64
     7
 65
   257
 75
     1
175
     1
 42
1.0
 92
        0
 66
     7
 43
1.0
 76
     1
 77
     6
 78
     2
 67
     7
 79
     5
170
     0
171
     0
290
     0
174
     0
 93
       13
 44
0.0
173
     0
291
     1
 45
0.0
  0
VISUALSTYLE
  5
26B
102
{ACAD_REACTORS
330
267
102
}
330
267
100
AcDbVisualStyle
  2
GouraudWithEdges
 70
     3
 71
     2
 72
     2
 73
     1
 90
        2
 40
-0.6
 41
30.0
 62
     5
 63
     7
421
 16777215
 74
     1
 91
        4
 64
     7
 65
   257
 75
     1
175
     1
 42
1.0
 92
        0
 66
   257
 43
1.0
 76
     1
 77
     6
 78
     2
 67
     7
 79
     5
170
     0
171
     0
290
     0
174
     0
 93
       13
 44
0.0
173
     0
291
     1
 45
0.0
  0
VISUALSTYLE
  5
BDB
102
{ACAD_REACTORS
330
267
102
}
330
267
100
AcDbVisualStyle
  2
Hidden
 70
     6
 71
     1
 72
     2
 73
     2
 90
        0
 40
0.6
 41
30.0
 62
     5
 63
     7
421
 16777215
 74
     2
 91
        2
 64
     7
 65
   257
 75
     2
175
     1
 42
40.0
 92
        0
 66
   257
 43
1.0
 76
     1
 77
     6
 78
     2
 67
     7
 79
     3
170
     0
171
     0
290
     0
174
     0
 93
        1
 44
0.0
173
     0
291
     0
 45
0.0
  0
VISUALSTYLE
  5
BDC
102
{ACAD_REACTORS
330
267
102
}
330
267
100
AcDbVisualStyle
  2
JitterOff
 70
    20
 71
     2
 72
     2
 73
     0
 90
        0
 40
0.6
 41
30.0
 62
     5
 63
     7
421
 16777215
 74
     1
 91
        4
 64
     7
 65
   257
 75
     1
175
     1
 42
1.0
 92
       10
 66
     7
 43
1.0
 76
     1
 77
     6
 78
     2
 67
     7
 79
     5
170
     0
171
     0
290
     0
174
     0
 93
        1
 44
0.0
173
     0
291
     1
 45
0.0
  0
VISUALSTYLE
  5
275
102
{ACAD_REACTORS
330
267
102
}
330
267
100
AcDbVisualStyle
  2
Linepattern
 70
    14
 71
     2
 72
     2
 73
     0
 90
        0
 40
-0.6
 41
-30.0
 62
     5
 63
     7
421
 16777215
 74
     1
 91
        4
 64
     7
 65
   257
 75
     7
175
     7
 42
1.0
 92
        8
 66
     7
 43
1.0
 76
     1
 77
     6
 78
     2
 67
     7
 79
     5
170
     0
171
     0
290
     0
174
     0
 93
        1
 44
0.0
173
     0
291
     1
 45
0.0
  0
VISUALSTYLE
  5
BDD
102
{ACAD_REACTORS
330
267
102
}
330
267
100
AcDbVisualStyle
  2
OverhangOff
 70
    21
 71
     2
 72
     2
 73
     0
 90
        0
 40
0.6
 41
30.0
 62
     5
 63
     7
421
 16777215
 74
     1
 91
        4
 64
     7
 65
   257
 75
     1
175
     1
 42
1.0
 92
        9
 66
     7
 43
1.0
 76
     1
 77
     6
 78
     2
 67
     7
 79
     5
170
     0
171
     0
290
     0
174
     0
 93
        1
 44
0.0
173
     0
291
     1
 45
0.0
  0
VISUALSTYLE
  5
270
102
{ACAD_REACTORS
330
267
102
}
330
267
100
AcDbVisualStyle
  2
Realistic
 70
     8
 71
     2
 72
     2
 73
     0
 90
        0
 40
-0.6
 41
-30.0
 62
     5
 63
     7
421
 16777215
 74
     1
 91
        0
 64
     7
 65
   257
 75
     1
175
     1
 42
1.0
 92
        8
 66
     8
424
  7895160
 43
1.0
 76
     1
 77
     6
 78
     2
 67
     7
 79
     5
170
     0
171
     0
290
     0
174
     0
 93
       13
 44
0.0
173
     0
291
     0
 45
0.0
  0
VISUALSTYLE
  5
BE3
102
{ACAD_REACTORS
330
267
102
}
330
267
100
AcDbVisualStyle
  2
Shaded
 70
    27
 71
     2
 72
     2
 73
     1
 90
        2
 40
0.6
 41
30.0
 62
     5
 63
     7
421
 16777215
 74
     0
 91
        4
 64
     7
 65
   257
 75
     1
175
     1
 42
1.0
 92
        8
 66
   257
 43
1.0
 76
     1
 77
     6
 78
     2
 67
     8
425
  7895160
 79
     3
170
     0
171
     0
290
     0
174
     0
 93
        5
 44
0.0
173
     0
291
     0
 45
0.0
  0
VISUALSTYLE
  5
BE2
102
{ACAD_REACTORS
330
267
102
}
330
267
100
AcDbVisualStyle
  2
Shaded with edges
 70
    26
 71
     2
 72
     2
 73
     1
 90
        2
 40
0.6
 41
30.0
 62
     5
 63
     7
421
 16777215
 74
     1
 91
       10
 64
     7
 65
   257
 75
     2
175
     1
 42
1.0
 92
        8
 66
   257
 43
1.0
 76
     1
 77
     6
 78
     2
 67
     7
 79
     3
170
     0
171
     0
290
     0
174
     0
 93
        5
 44
0.0
173
     0
291
     0
 45
0.0
  0
VISUALSTYLE
  5
BDF
102
{ACAD_REACTORS
330
267
102
}
330
267
100
AcDbVisualStyle
  2
Shades of Gray
 70
    23
 71
     2
 72
     2
 73
     3
 90
        0
 40
0.6
 41
30.0
 62
     5
 63
     7
421
 16777215
 74
     2
 91
        2
 64
     7
 65
     7
 75
     1
175
     1
 42
40.0
 92
        8
 66
     7
 43
1.0
 76
     1
 77
     6
 78
     2
 67
     7
 79
     3
170
     0
171
     0
290
     0
174
     0
 93
        1
 44
0.0
173
     0
291
     0
 45
0.0
  0
VISUALSTYLE
  5
BE0
102
{ACAD_REACTORS
330
267
102
}
330
267
100
AcDbVisualStyle
  2
Sketchy
 70
    24
 71
     1
 72
     2
 73
     2
 90
        0
 40
0.6
 41
30.0
 62
     5
 63
     7
421
 16777215
 74
     2
 91
        2
 64
     7
 65
     7
 75
     1
175
     1
 42
40.0
 92
       11
 66
     7
 43
1.0
 76
     1
 77
     6
 78
     2
 67
     7
 79
     6
170
     0
171
     0
290
     0
174
     0
 93
        1
 44
0.0
173
     0
291
     0
 45
0.0
  0
VISUALSTYLE
  5
274
102
{ACAD_REACTORS
330
267
102
}
330
267
100
AcDbVisualStyle
  2
Thicken
 70
    13
 71
     2
 72
     2
 73
     0
 90
        0
 40
-0.6
 41
-30.0
 62
     5
 63
     7
421
 16777215
 74
     1
 91
        4
 64
     7
 65
   257
 75
     1
175
     1
 42
1.0
 92
       12
 66
     7
 43
1.0
 76
     1
 77
     6
 78
     2
 67
     7
 79
     5
170
     0
171
     0
290
     0
174
     0
 93
        1
 44
0.0
173
     0
291
     1
 45
0.0
  0
VISUALSTYLE
  5
BDA
102
{ACAD_REACTORS
330
267
102
}
330
267
100
AcDbVisualStyle
  2
Wireframe
 70
     5
 71
     0
 72
     2
 73
     0
 90
        0
 40
0.6
 41
30.0
 62
     5
 63
     7
421
 16777215
 74
     1
 91
        4
 64
     7
 65
   257
 75
     1
175
     1
 42
1.0
 92
        0
 66
   257
 43
1.0
 76
     1
 77
     6
 78
     2
 67
     7
 79
     3
170
     0
171
     0
290
     0
174
     0
 93
        1
 44
0.0
173
     0
291
     0
 45
0.0
  0
VISUALSTYLE
  5
BE1
102
{ACAD_REACTORS
330
267
102
}
330
267
100
AcDbVisualStyle
  2
X-Ray
 70
    25
 71
     2
 72
     2
 73
     1
 90
        1
 40
0.5
 41
30.0
 62
     5
 63
     7
421
 16777215
 74
     1
 91
        0
 64
     7
 65
   257
 75
     1
175
     1
 42
1.0
 92
        8
 66
     7
 43
1.0
 76
     1
 77
     6
 78
     2
 67
     7
 79
     3
170
     0
171
     0
290
     0
174
     0
 93
       13
 44
0.0
173
     0
291
     0
 45
0.0
  0
DICTIONARYVAR
  5
331
102
{ACAD_REACTORS
330
330
102
}
330
330
100
DictionaryVariables
280
     0
  1
1:1
  0
DICTIONARYVAR
  5
992A
102
{ACAD_REACTORS
330
330
102
}
330
330
100
DictionaryVariables
280
     0
  1
Standard
  0
DICTIONARYVAR
  5
335
102
{ACAD_REACTORS
330
330
102
}
330
330
100
DictionaryVariables
280
     0
  1
Standard
  0
DICTIONARYVAR
  5
C00
102
{ACAD_REACTORS
330
330
102
}
330
330
100
DictionaryVariables
280
     0
  1
ByLayer
  0
DICTIONARYVAR
  5
64A
102
{ACAD_REACTORS
330
330
102
}
330
330
100
DictionaryVariables
280
     0
  1
0
  0
DICTIONARYVAR
  5
9929
102
{ACAD_REACTORS
330
9928
102
}
330
9928
100
DictionaryVariables
280
     0
  1
0.250000
  0
DICTIONARYVAR
  5
9926
102
{ACAD_REACTORS
330
9923
102
}
330
9923
100
DictionaryVariables
280
     0
  1
0.261799
  0
DICTIONARYVAR
  5
9924
102
{ACAD_REACTORS
330
9923
102
}
330
9923
100
DictionaryVariables
280
     0
  1
0.400000
  0
DICTIONARYVAR
  5
9925
102
{ACAD_REACTORS
330
9923
102
}
330
9923
100
DictionaryVariables
280
     0
  1
0.250000
  0
DICTIONARYVAR
  5
9927
102
{ACAD_REACTORS
330
9923
102
}
330
9923
100
DictionaryVariables
280
     0
  1
0
  0
DICTIONARY
  5
9AA9
330
279
100
AcDbDictionary
280
     1
281
     1
  3
ACAD_ROUNDTRIP_2008_TABLESTYLE_CELLSTYLEMAP
360
9AAA
  0
CELLSTYLEMAP
  5
9AAA
102
{ACAD_REACTORS
330
9AA9
102
}
330
9AA9
100
AcDbCellStyleMap
 90
        3
300
CELLSTYLE
  1
TABLEFORMAT_BEGIN
 90
        5
170
     1
 91
        0
 92
    32768
 62
   257
 93
        1
300
CONTENTFORMAT
  1
CONTENTFORMAT_BEGIN
 90
        0
 91
        0
 92
        4
 93
        0
300

 40
0.0
140
1.0
 94
        5
 62
     0
340
17
144
6.0
309
CONTENTFORMAT_END
171
     1
301
MARGIN
  1
CELLMARGIN_BEGIN
 40
0.06
 40
0.06
 40
0.06
 40
0.06
 40
0.18
 40
0.18
309
CELLMARGIN_END
 94
        6
 95
        1
302
GRIDFORMAT
  1
GRIDFORMAT_BEGIN
 90
        0
 91
        1
 62
     0
 92
       -2
340
0
 93
        0
 40
0.045
309
GRIDFORMAT_END
 95
        2
302
GRIDFORMAT
  1
GRIDFORMAT_BEGIN
 90
        0
 91
        1
 62
     0
 92
       -2
340
0
 93
        0
 40
0.045
309
GRIDFORMAT_END
 95
        4
302
GRIDFORMAT
  1
GRIDFORMAT_BEGIN
 90
        0
 91
        1
 62
     0
 92
       -2
340
0
 93
        0
 40
0.045
309
GRIDFORMAT_END
 95
        8
302
GRIDFORMAT
  1
GRIDFORMAT_BEGIN
 90
        0
 91
        1
 62
     0
 92
       -2
340
0
 93
        0
 40
0.045
309
GRIDFORMAT_END
 95
       16
302
GRIDFORMAT
  1
GRIDFORMAT_BEGIN
 90
        0
 91
        1
 62
     0
 92
       -2
340
0
 93
        0
 40
0.045
309
GRIDFORMAT_END
 95
       32
302
GRIDFORMAT
  1
GRIDFORMAT_BEGIN
 90
        0
 91
        1
 62
     0
 92
       -2
340
0
 93
        0
 40
0.045
309
GRIDFORMAT_END
309
TABLEFORMAT_END
  1
CELLSTYLE_BEGIN
 90
        1
 91
        1
300
_TITLE
309
CELLSTYLE_END
300
CELLSTYLE
  1
TABLEFORMAT_BEGIN
 90
        5
170
     1
 91
        0
 92
        0
 62
   257
 93
        1
300
CONTENTFORMAT
  1
CONTENTFORMAT_BEGIN
 90
        0
 91
        0
 92
        4
 93
        0
300

 40
0.0
140
1.0
 94
        5
 62
     0
340
17
144
4.5
309
CONTENTFORMAT_END
171
     1
301
MARGIN
  1
CELLMARGIN_BEGIN
 40
0.06
 40
0.06
 40
0.06
 40
0.06
 40
0.18
 40
0.18
309
CELLMARGIN_END
 94
        6
 95
        1
302
GRIDFORMAT
  1
GRIDFORMAT_BEGIN
 90
        0
 91
        1
 62
     0
 92
       -2
340
0
 93
        0
 40
0.045
309
GRIDFORMAT_END
 95
        2
302
GRIDFORMAT
  1
GRIDFORMAT_BEGIN
 90
        0
 91
        1
 62
     0
 92
       -2
340
0
 93
        0
 40
0.045
309
GRIDFORMAT_END
 95
        4
302
GRIDFORMAT
  1
GRIDFORMAT_BEGIN
 90
        0
 91
        1
 62
     0
 92
       -2
340
0
 93
        0
 40
0.045
309
GRIDFORMAT_END
 95
        8
302
GRIDFORMAT
  1
GRIDFORMAT_BEGIN
 90
        0
 91
        1
 62
     0
 92
       -2
340
0
 93
        0
 40
0.045
309
GRIDFORMAT_END
 95
       16
302
GRIDFORMAT
  1
GRIDFORMAT_BEGIN
 90
        0
 91
        1
 62
     0
 92
       -2
340
0
 93
        0
 40
0.045
309
GRIDFORMAT_END
 95
       32
302
GRIDFORMAT
  1
GRIDFORMAT_BEGIN
 90
        0
 91
        1
 62
     0
 92
       -2
340
0
 93
        0
 40
0.045
309
GRIDFORMAT_END
309
TABLEFORMAT_END
  1
CELLSTYLE_BEGIN
 90
        2
 91
        1
300
_HEADER
309
CELLSTYLE_END
300
CELLSTYLE
  1
TABLEFORMAT_BEGIN
 90
        5
170
     1
 91
        0
 92
        0
 62
   257
 93
        1
300
CONTENTFORMAT
  1
CONTENTFORMAT_BEGIN
 90
        0
 91
        0
 92
        4
 93
        0
300

 40
0.0
140
1.0
 94
        2
 62
     0
340
17
144
4.5
309
CONTENTFORMAT_END
171
     1
301
MARGIN
  1
CELLMARGIN_BEGIN
 40
0.06
 40
0.06
 40
0.06
 40
0.06
 40
0.18
 40
0.18
309
CELLMARGIN_END
 94
        6
 95
        1
302
GRIDFORMAT
  1
GRIDFORMAT_BEGIN
 90
        0
 91
        1
 62
     0
 92
       -2
340
0
 93
        0
 40
0.045
309
GRIDFORMAT_END
 95
        2
302
GRIDFORMAT
  1
GRIDFORMAT_BEGIN
 90
        0
 91
        1
 62
     0
 92
       -2
340
0
 93
        0
 40
0.045
309
GRIDFORMAT_END
 95
        4
302
GRIDFORMAT
  1
GRIDFORMAT_BEGIN
 90
        0
 91
        1
 62
     0
 92
       -2
340
0
 93
        0
 40
0.045
309
GRIDFORMAT_END
 95
        8
302
GRIDFORMAT
  1
GRIDFORMAT_BEGIN
 90
        0
 91
        1
 62
     0
 92
       -2
340
0
 93
        0
 40
0.045
309
GRIDFORMAT_END
 95
       16
302
GRIDFORMAT
  1
GRIDFORMAT_BEGIN
 90
        0
 91
        1
 62
     0
 92
       -2
340
0
 93
        0
 40
0.045
309
GRIDFORMAT_END
 95
       32
302
GRIDFORMAT
  1
GRIDFORMAT_BEGIN
 90
        0
 91
        1
 62
     0
 92
       -2
340
0
 93
        0
 40
0.045
309
GRIDFORMAT_END
309
TABLEFORMAT_END
  1
CELLSTYLE_BEGIN
 90
        3
 91
        2
300
_DATA
309
CELLSTYLE_END
  0
ENDSEC
  0
EOF
