  0
SECTION
  2
HEADER
  9
$ACADVER
  1
AC1021
  9
$ACADMAINTVER
 70
    25
  9
$DWGCODEPAGE
  3
ANSI_932
  9
$LASTSAVEDBY
  1
howeNelson
  9
$INSBASE
 10
0.0
 20
0.0
 30
0.0
  9
$EXTMIN
 10
0.0
 20
0.0
 30
0.0
  9
$EXTMAX
 10
2100.0
 20
2970.0
 30
0.0
  9
$LIMMIN
 10
0.0
 20
0.0
  9
$LIMMAX
 10
2100.0
 20
2970.0
  9
$ORTHOMODE
 70
     0
  9
$REGENMODE
 70
     1
  9
$FILLMODE
 70
     1
  9
$QTEXTMODE
 70
     0
  9
$MIRRTEXT
 70
     1
  9
$LTSCALE
 40
50.8
  9
$ATTMODE
 70
     1
  9
$TEXTSIZE
 40
533.0403732820173
  9
$TRACEWID
 40
1.0
  9
$TEXTSTYLE
  7
Standard
  9
$CLAYER
  8
MODEL
  9
$CELTYPE
  6
Continuous
  9
$CECOLOR
 62
   256
  9
$CELTSCALE
 40
1.0
  9
$DISPSILH
 70
     0
  9
$DIMSCALE
 40
1.0
  9
$DIMASZ
 40
6.0
  9
$DIMEXO
 40
25.0
  9
$DIMDLI
 40
25.0
  9
$DIMRND
 40
0.0
  9
$DIMDLE
 40
0.0
  9
$DIMEXE
 40
0.0
  9
$DIMTP
 40
0.0
  9
$DIMTM
 40
0.0
  9
$DIMTXT
 40
24.0
  9
$DIMCEN
 40
0.0
  9
$DIMTSZ
 40
0.0
  9
$DIMTOL
 70
     0
  9
$DIMLIM
 70
     0
  9
$DIMTIH
 70
     0
  9
$DIMTOH
 70
     0
  9
$DIMSE1
 70
     0
  9
$DIMSE2
 70
     0
  9
$DIMTAD
 70
     1
  9
$DIMZIN
 70
    11
  9
$DIMBLK
  1
DOT
  9
$DIMASO
 70
     1
  9
$DIMSHO
 70
     1
  9
$DIMPOST
  1
<>
  9
$DIMAPOST
  1
[]
  9
$DIMALT
 70
     0
  9
$DIMALTD
 70
     1
  9
$DIMALTF
 40
1.0
  9
$DIMLFAC
 40
1.0
  9
$DIMTOFL
 70
     0
  9
$DIMTVP
 40
0.0
  9
$DIMTIX
 70
     1
  9
$DIMSOXD
 70
     0
  9
$DIMSAH
 70
     0
  9
$DIMBLK1
  1

  9
$DIMBLK2
  1

  9
$DIMSTYLE
  2
JIS
  9
$DIMCLRD
 70
     0
  9
$DIMCLRE
 70
     0
  9
$DIMCLRT
 70
     0
  9
$DIMTFAC
 40
1.0
  9
$DIMGAP
 40
15.0
  9
$DIMJUST
 70
     0
  9
$DIMSD1
 70
     0
  9
$DIMSD2
 70
     0
  9
$DIMTOLJ
 70
     1
  9
$DIMTZIN
 70
    11
  9
$DIMALTZ
 70
    11
  9
$DIMALTTZ
 70
    11
  9
$DIMUPT
 70
     0
  9
$DIMDEC
 70
     0
  9
$DIMTDEC
 70
     1
  9
$DIMALTU
 70
     2
  9
$DIMALTTD
 70
     2
  9
$DIMTXSTY
  7
ＭＳ ゴシック
  9
$DIMAUNIT
 70
     0
  9
$DIMADEC
 70
     0
  9
$DIMALTRND
 40
0.0
  9
$DIMAZIN
 70
     0
  9
$DIMDSEP
 70
    46
  9
$DIMATFIT
 70
     0
  9
$DIMFRAC
 70
     2
  9
$DIMLDRBLK
  1
DOT
  9
$DIMLUNIT
 70
     2
  9
$DIMLWD
 70
    -2
  9
$DIMLWE
 70
    -2
  9
$DIMTMOVE
 70
     0
  9
$DIMFXL
 40
1.0
  9
$DIMFXLON
 70
     0
  9
$DIMJOGANG
 40
0.7853981633974483
  9
$DIMTFILL
 70
     0
  9
$DIMTFILLCLR
 70
     0
  9
$DIMARCSYM
 70
     0
  9
$DIMLTYPE
  6

  9
$DIMLTEX1
  6

  9
$DIMLTEX2
  6

  9
$LUNITS
 70
     2
  9
$LUPREC
 70
     0
  9
$SKETCHINC
 40
0.1
  9
$FILLETRAD
 40
0.0
  9
$AUNITS
 70
     0
  9
$AUPREC
 70
     0
  9
$MENU
  1
acad
  9
$ELEVATION
 40
0.0
  9
$PELEVATION
 40
0.0
  9
$THICKNESS
 40
0.0
  9
$LIMCHECK
 70
     0
  9
$CHAMFERA
 40
0.0
  9
$CHAMFERB
 40
0.0
  9
$CHAMFERC
 40
0.0
  9
$CHAMFERD
 40
0.0
  9
$SKPOLY
 70
     0
  9
$TDCREATE
 40
2447893.375
  9
$TDUCREATE
 40
0.0
  9
$TDUPDATE
 40
2458054.592397084
  9
$TDUUPDATE
 40
2458054.217397084
  9
$TDINDWG
 40
0.7954453704
  9
$TDUSRTIMER
 40
2458054.217392292
  9
$USRTIMER
 70
     1
  9
$ANGBASE
 50
0.0
  9
$ANGDIR
 70
     0
  9
$PDMODE
 70
     1
  9
$PDSIZE
 40
-2.0
  9
$PLINEWID
 40
0.0
  9
$SPLFRAME
 70
     0
  9
$SPLINETYPE
 70
     6
  9
$SPLINESEGS
 70
     8
  9
$HANDSEED
  5
9919
  9
$SURFTAB1
 70
     6
  9
$SURFTAB2
 70
     6
  9
$SURFTYPE
 70
     6
  9
$SURFU
 70
     6
  9
$SURFV
 70
     6
  9
$UCSBASE
  2

  9
$UCSNAME
  2

  9
$UCSORG
 10
0.0
 20
0.0
 30
0.0
  9
$UCSXDIR
 10
1.0
 20
0.0
 30
0.0
  9
$UCSYDIR
 10
0.0
 20
1.0
 30
0.0
  9
$UCSORTHOREF
  2

  9
$UCSORTHOVIEW
 70
     0
  9
$UCSORGTOP
 10
0.0
 20
0.0
 30
0.0
  9
$UCSORGBOTTOM
 10
0.0
 20
0.0
 30
0.0
  9
$UCSORGLEFT
 10
0.0
 20
0.0
 30
0.0
  9
$UCSORGRIGHT
 10
0.0
 20
0.0
 30
0.0
  9
$UCSORGFRONT
 10
0.0
 20
0.0
 30
0.0
  9
$UCSORGBACK
 10
0.0
 20
0.0
 30
0.0
  9
$PUCSBASE
  2

  9
$PUCSNAME
  2

  9
$PUCSORG
 10
0.0
 20
0.0
 30
0.0
  9
$PUCSXDIR
 10
1.0
 20
0.0
 30
0.0
  9
$PUCSYDIR
 10
0.0
 20
1.0
 30
0.0
  9
$PUCSORTHOREF
  2

  9
$PUCSORTHOVIEW
 70
     0
  9
$PUCSORGTOP
 10
0.0
 20
0.0
 30
0.0
  9
$PUCSORGBOTTOM
 10
0.0
 20
0.0
 30
0.0
  9
$PUCSORGLEFT
 10
0.0
 20
0.0
 30
0.0
  9
$PUCSORGRIGHT
 10
0.0
 20
0.0
 30
0.0
  9
$PUCSORGFRONT
 10
0.0
 20
0.0
 30
0.0
  9
$PUCSORGBACK
 10
0.0
 20
0.0
 30
0.0
  9
$USERI1
 70
     0
  9
$USERI2
 70
     0
  9
$USERI3
 70
     0
  9
$USERI4
 70
     0
  9
$USERI5
 70
     0
  9
$USERR1
 40
0.0
  9
$USERR2
 40
0.0
  9
$USERR3
 40
0.0
  9
$USERR4
 40
0.0
  9
$USERR5
 40
0.0
  9
$WORLDVIEW
 70
     1
  9
$SHADEDGE
 70
     3
  9
$SHADEDIF
 70
    70
  9
$TILEMODE
 70
     1
  9
$MAXACTVP
 70
    64
  9
$PINSBASE
 10
0.0
 20
0.0
 30
0.0
  9
$PLIMCHECK
 70
     0
  9
$PEXTMIN
 10
0.0
 20
0.0
 30
0.0
  9
$PEXTMAX
 10
0.0
 20
0.0
 30
0.0
  9
$PLIMMIN
 10
-7.5
 20
-20.0
  9
$PLIMMAX
 10
412.5
 20
277.0
  9
$UNITMODE
 70
     0
  9
$VISRETAIN
 70
     0
  9
$PLINEGEN
 70
     1
  9
$PSLTSCALE
 70
     0
  9
$TREEDEPTH
 70
  3020
  9
$CMLSTYLE
  2
Standard
  9
$CMLJUST
 70
     0
  9
$CMLSCALE
 40
1.0
  9
$PROXYGRAPHICS
 70
     0
  9
$MEASUREMENT
 70
     1
  9
$CELWEIGHT
370
    -1
  9
$ENDCAPS
280
     0
  9
$JOINSTYLE
280
     0
  9
$LWDISPLAY
290
     1
  9
$INSUNITS
 70
     4
  9
$HYPERLINKBASE
  1

  9
$STYLESHEET
  1

  9
$XEDIT
290
     1
  9
$CEPSNTYPE
380
     0
  9
$PSTYLEMODE
290
     1
  9
$FINGERPRINTGUID
  2

  9
$VERSIONGUID
  2

  9
$EXTNAMES
290
     1
  9
$PSVPSCALE
 40
0.0
  9
$OLESTARTUP
290
     0
  9
$SORTENTS
280
   127
  9
$INDEXCTL
280
     0
  9
$HIDETEXT
280
     1
  9
$XCLIPFRAME
290
     0
  9
$HALOGAP
280
     0
  9
$OBSCOLOR
 70
   257
  9
$OBSLTYPE
280
     0
  9
$INTERSECTIONDISPLAY
280
     0
  9
$INTERSECTIONCOLOR
 70
   257
  9
$DIMASSOC
280
     2
  9
$PROJECTNAME
  1

  9
$CAMERADISPLAY
290
     0
  9
$LENSLENGTH
 40
50.0
  9
$CAMERAHEIGHT
 40
0.0
  9
$STEPSPERSEC
 40
2.0
  9
$STEPSIZE
 40
6.0
  9
$3DDWFPREC
 40
2.0
  9
$PSOLWIDTH
 40
0.25
  9
$PSOLHEIGHT
 40
4.0
  9
$LOFTANG1
 40
1.570796326794897
  9
$LOFTANG2
 40
1.570796326794897
  9
$LOFTMAG1
 40
0.0
  9
$LOFTMAG2
 40
0.0
  9
$LOFTPARAM
 70
     7
  9
$LOFTNORMALS
280
     1
  9
$LATITUDE
 40
37.795
  9
$LONGITUDE
 40
-122.394
  9
$NORTHDIRECTION
 40
0.0
  9
$TIMEZONE
 70
 -8000
  9
$LIGHTGLYPHDISPLAY
280
     1
  9
$TILEMODELIGHTSYNCH
280
     1
  9
$SOLIDHIST
280
     1
  9
$SHOWHIST
280
     1
  9
$DWFFRAME
280
     2
  9
$DGNFRAME
280
     2
  9
$REALWORLDSCALE
290
     1
  9
$INTERFERECOLOR
 62
   256
  9
$CSHADOW
280
     0
  9
$SHADOWPLANELOCATION
 40
0.0
  0
ENDSEC
  0
SECTION
  2
CLASSES
  0
CLASS
  1
LWPOLYLINE
  2
AcDbPolyline
  3
ObjectDBX Classes
 90
        0
 91
        1
280
     0
281
     1
  0
CLASS
  1
IMAGE
  2
AcDbRasterImage
  3
ISM
 90
      127
 91
       12
280
     0
281
     1
  0
CLASS
  1
OLE2FRAME
  2
AcDbOle2Frame
  3
ObjectDBX Classes
 90
        0
 91
        1
280
     0
281
     1
  0
CLASS
  1
HATCH
  2
AcDbHatch
  3
ObjectDBX Classes
 90
        0
 91
        1
280
     0
281
     1
  0
CLASS
  1
DICTIONARYVAR
  2
AcDbDictionaryVar
  3
ObjectDBX Classes
 90
        0
 91
       11
280
     0
281
     0
  0
CLASS
  1
RASTERVARIABLES
  2
AcDbRasterVariables
  3
ISM
 90
        0
 91
       11
280
     0
281
     0
  0
CLASS
  1
IMAGEDEF
  2
AcDbRasterImageDef
  3
ISM
 90
        0
 91
       11
280
     0
281
     0
  0
CLASS
  1
IMAGEDEF_REACTOR
  2
AcDbRasterImageDefReactor
  3
ISM
 90
        1
 91
       11
280
     0
281
     0
  0
CLASS
  1
IDBUFFER
  2
AcDbIdBuffer
  3
ObjectDBX Classes
 90
        0
 91
       11
280
     0
281
     0
  0
CLASS
  1
SPATIAL_FILTER
  2
AcDbSpatialFilter
  3
ObjectDBX Classes
 90
        0
 91
       11
280
     0
281
     0
  0
CLASS
  1
XRECORD
  2
AcDbXrecord
  3
ObjectDBX Classes
 90
        0
 91
        1
280
     0
281
     0
  0
CLASS
  1
SORTENTSTABLE
  2
AcDbSortentsTable
  3
ObjectDBX Classes
 90
        0
 91
       11
280
     0
281
     0
  0
CLASS
  1
LAYER_INDEX
  2
AcDbLayerIndex
  3
ObjectDBX Classes
 90
        0
 91
       11
280
     0
281
     0
  0
CLASS
  1
SPATIAL_INDEX
  2
AcDbSpatialIndex
  3
AutoCAD 2000
 90
        0
 91
       11
280
     0
281
     0
  0
CLASS
  1
OBJECT_PTR
  2
CAseDLPNTableRecord
  3
ASE-LPNTableRecord
 90
        1
 91
       11
280
     0
281
     0
  0
CLASS
  1
LAYOUT
  2
AcDbLayout
  3
ObjectDBX Classes
 90
        0
 91
        1
280
     0
281
     0
  0
CLASS
  1
PLOTSETTINGS
  2
AcDbPlotSettings
  3
ObjectDBX Classes
 90
        0
 91
       11
280
     0
281
     0
  0
CLASS
  1
ACDBDICTIONARYWDFLT
  2
AcDbDictionaryWithDefault
  3
ObjectDBX Classes
 90
        0
 91
       11
280
     0
281
     0
  0
CLASS
  1
ACDBPLACEHOLDER
  2
AcDbPlaceHolder
  3
ObjectDBX Classes
 90
        0
 91
        1
280
     0
281
     0
  0
CLASS
  1
SCALE
  2
AcDbScale
  3
ObjectDBX Classes
 90
     1153
 91
       11
280
     0
281
     0
  0
CLASS
  1
MATERIAL
  2
AcDbMaterial
  3
ObjectDBX Classes
 90
     1153
 91
       11
280
     0
281
     0
  0
CLASS
  1
VISUALSTYLE
  2
AcDbVisualStyle
  3
ObjectDBX Classes
 90
     4095
 91
       11
280
     0
281
     0
  0
CLASS
  1
TABLESTYLE
  2
AcDbTableStyle
  3
ObjectDBX Classes
 90
     4095
 91
       11
280
     0
281
     0
  0
CLASS
  1
DIMASSOC
  2
AcDbDimAssoc
  3
"AcDbDimAssoc|Product Desc:     AcDim ARX App For Dimension|Company:          Autodesk, Inc.|WEB Address:      www.autodesk.com"
 90
        0
 91
       11
280
     0
281
     0
  0
CLASS
  1
CELLSTYLEMAP
  2
AcDbCellStyleMap
  3
ObjectDBX Classes
 90
     1152
 91
       11
280
     0
281
     0
  0
CLASS
  1
SUN
  2
AcDbSun
  3
SCENEOE
 90
     1153
 91
       11
280
     0
281
     0
  0
CLASS
  1
MLEADERSTYLE
  2
AcDbMLeaderStyle
  3
ACDB_MLEADERSTYLE_CLASS
 90
     4095
 91
       11
280
     0
281
     0
  0
ENDSEC
  0
SECTION
  2
TABLES
  0
TABLE
  2
VPORT
  5
7
330
0
100
AcDbSymbolTable
 70
     1
  0
VPORT
  5
15
330
7
100
AcDbSymbolTableRecord
100
AcDbViewportTableRecord
  2
*ACTIVE
 70
     0
 10
0.0
 20
0.0
 11
1.0
 21
1.0
 12
518.0464231739697
 22
1539.908751102672
 13
0.0
 23
0.0
 14
1.0
 24
1.0
 15
0.0
 25
0.0
 16
0.0
 26
0.0
 36
1.0
 17
531.9535768260303
 27
-54.90875110267189
 37
-796.100446371116
 40
3029.4
 41
2.178082191780822
 42
50.0
 43
0.0
 44
0.0
 50
0.0
 51
0.0
 71
    16
 72
  2000
 73
     1
 74
     1
 75
     0
 76
     0
 77
     0
 78
     0
281
     0
 65
     1
110
0.0
120
0.0
130
0.0
111
1.0
121
0.0
131
0.0
112
0.0
122
1.0
132
0.0
 79
     0
146
0.0
348
26C
 60
     3
 61
     5
292
     1
282
     1
141
0.0
142
0.0
 63
   256
361
BE4
  0
ENDTAB
  0
TABLE
  2
LTYPE
  5
4
330
0
100
AcDbSymbolTable
 70
     5
  0
LTYPE
  5
11
330
4
100
AcDbSymbolTableRecord
100
AcDbLinetypeTableRecord
  2
ByBlock
 70
     0
  3

 72
    65
 73
     0
 40
0.0
  0
LTYPE
  5
12
330
4
100
AcDbSymbolTableRecord
100
AcDbLinetypeTableRecord
  2
ByLayer
 70
     0
  3

 72
    65
 73
     0
 40
0.0
  0
LTYPE
  5
13
330
4
100
AcDbSymbolTableRecord
100
AcDbLinetypeTableRecord
  2
Continuous
 70
     0
  3
Solid line
 72
    65
 73
     0
 40
0.0
  0
LTYPE
  5
1A38
330
4
100
AcDbSymbolTableRecord
100
AcDbLinetypeTableRecord
  2
HIDDEN
 70
     0
  3
Hidden _ _ _ _ _ _ _ _ _ _ _ _ _ _ _ _ _ _ _ _ 
 72
    65
 73
     2
 40
9.524999999999999
 49
6.35
 74
     0
 49
-3.175
 74
     0
  0
LTYPE
  5
2496
330
4
100
AcDbSymbolTableRecord
100
AcDbLinetypeTableRecord
  2
CENTER2
 70
     0
  3
Center (.5x) ___ _ ___ _ ___ _ ___ _ ___ _ ___
 72
    65
 73
     4
 40
1.125
 49
0.75
 74
     0
 49
-0.125
 74
     0
 49
0.125
 74
     0
 49
-0.125
 74
     0
  0
LTYPE
  5
24DB
330
4
100
AcDbSymbolTableRecord
100
AcDbLinetypeTableRecord
  2
AM_DIN_F_W050
 70
     0
  3
__ __ __ __ __ __ __ __ __ __ __ __ __ __ __
 72
    65
 73
     2
 40
6.25
 49
4.75
 74
     0
 49
-1.5
 74
     0
  0
LTYPE
  5
3135
330
4
100
AcDbSymbolTableRecord
100
AcDbLinetypeTableRecord
  2
AM_DIN_G_W050
 70
     0
  3
____ . ____ . ____ . ____ . ____ . ____ . ____
 72
    65
 73
     4
 40
13.75
 49
9.75
 74
     0
 49
-1.5
 74
     0
 49
1.0
 74
     0
 49
-1.5
 74
     0
  0
ENDTAB
  0
TABLE
  2
LAYER
  5
2
102
{ACAD_XDICTIONARY
360
2E1
102
}
330
0
100
AcDbSymbolTable
 70
     8
  0
LAYER
  5
14
330
2
100
AcDbSymbolTableRecord
100
AcDbLayerTableRecord
  2
0
 70
     0
 62
     7
  6
Continuous
370
    -3
390
1D
347
266
  0
LAYER
  5
4A
330
2
100
AcDbSymbolTableRecord
100
AcDbLayerTableRecord
  2
Defpoints
 70
     0
 62
     7
  6
Continuous
290
     0
370
     9
390
1D
347
266
  0
LAYER
  5
4B
330
2
100
AcDbSymbolTableRecord
100
AcDbLayerTableRecord
  2
TEMPLATE
 70
     0
 62
     4
  6
Continuous
290
     0
370
    20
390
1D
347
266
  0
LAYER
  5
4D
330
2
100
AcDbSymbolTableRecord
100
AcDbLayerTableRecord
  2
MODEL
 70
     0
 62
     7
  6
Continuous
370
    20
390
1D
347
266
  0
LAYER
  5
382
330
2
100
AcDbSymbolTableRecord
100
AcDbLayerTableRecord
  2
LOGO
 70
     0
 62
     7
  6
Continuous
370
    -3
390
1D
347
266
  0
LAYER
  5
B7A
330
2
100
AcDbSymbolTableRecord
100
AcDbLayerTableRecord
  2
DIM
 70
     0
 62
     7
  6
Continuous
370
    13
390
1D
347
266
1001
AcAecLayerStandard
1000

1000

  0
LAYER
  5
3B0F
330
2
100
AcDbSymbolTableRecord
100
AcDbLayerTableRecord
  2
_0-7_
 70
     0
 62
     7
  6
Continuous
370
    -3
390
1D
347
266
  0
LAYER
  5
95C1
330
2
100
AcDbSymbolTableRecord
100
AcDbLayerTableRecord
  2
MODEL GRAY
 70
     0
 62
   252
  6
Continuous
370
    20
390
1D
347
266
1001
AcAecLayerStandard
1000

1000

  0
ENDTAB
  0
TABLE
  2
STYLE
  5
3
330
0
100
AcDbSymbolTable
 70
     2
  0
STYLE
  5
17
330
3
100
AcDbSymbolTableRecord
100
AcDbTextStyleTableRecord
  2
Standard
 70
     0
 40
0.0
 41
1.0
 50
0.0
 71
     0
 42
533.0403732820173
  3
txt
  4
BIGFONT.SHX
  0
STYLE
  5
39
330
3
100
AcDbSymbolTableRecord
100
AcDbTextStyleTableRecord
  2
ＭＳ ゴシック
 70
     0
 40
0.0
 41
1.0
 50
0.0
 71
     0
 42
533.0403732820173
  3
msgothic.ttc
  4
ＭＳ ゴシック
1001
ACAD
1000
ＭＳ ゴシック
1071
        0
  0
ENDTAB
  0
TABLE
  2
VIEW
  5
5
330
0
100
AcDbSymbolTable
 70
     0
  0
ENDTAB
  0
TABLE
  2
UCS
  5
6
330
0
100
AcDbSymbolTable
 70
     0
  0
ENDTAB
  0
TABLE
  2
APPID
  5
8
330
0
100
AcDbSymbolTable
 70
    13
  0
APPID
  5
16
330
8
100
AcDbSymbolTableRecord
100
AcDbRegAppTableRecord
  2
ACAD
 70
     0
  0
APPID
  5
5C5
330
8
100
AcDbSymbolTableRecord
100
AcDbRegAppTableRecord
  2
AcAecLayerStandard
 70
     0
  0
APPID
  5
694
330
8
100
AcDbSymbolTableRecord
100
AcDbRegAppTableRecord
  2
ACAD_DSTYLE_DIMJAG
 70
     0
  0
APPID
  5
695
330
8
100
AcDbSymbolTableRecord
100
AcDbRegAppTableRecord
  2
ACAD_DSTYLE_DIMTALN
 70
     0
  0
APPID
  5
69A
330
8
100
AcDbSymbolTableRecord
100
AcDbRegAppTableRecord
  2
ACAD_PSEXT
 70
     0
  0
APPID
  5
2499
330
8
100
AcDbSymbolTableRecord
100
AcDbRegAppTableRecord
  2
GENIUS_GENODEF_13
 70
     0
  0
APPID
  5
249A
330
8
100
AcDbSymbolTableRecord
100
AcDbRegAppTableRecord
  2
GENIUS_GENOBJ-N-FIL_13
 70
     0
  0
APPID
  5
249C
330
8
100
AcDbSymbolTableRecord
100
AcDbRegAppTableRecord
  2
AECBASE
 70
     0
  0
APPID
  5
249D
330
8
100
AcDbSymbolTableRecord
100
AcDbRegAppTableRecord
  2
AEC_2DSECTION_XDATA
 70
     0
  0
APPID
  5
249E
330
8
100
AcDbSymbolTableRecord
100
AcDbRegAppTableRecord
  2
AEC_MASSGROUP_XDADA
 70
     0
  0
APPID
  5
6EA7
330
8
100
AcDbSymbolTableRecord
100
AcDbRegAppTableRecord
  2
GENIUS_GENREC_14
 70
     0
  0
APPID
  5
6EA8
330
8
100
AcDbSymbolTableRecord
100
AcDbRegAppTableRecord
  2
GENIUS_GENOBJ-N-REC_13
 70
     0
  0
APPID
  5
9915
330
8
100
AcDbSymbolTableRecord
100
AcDbRegAppTableRecord
  2
ACAD_MLEADERVER
 70
     0
  0
ENDTAB
  0
TABLE
  2
DIMSTYLE
  5
9
330
0
100
AcDbSymbolTable
 70
     2
100
AcDbDimStyleTable
  0
DIMSTYLE
105
18
330
9
100
AcDbSymbolTableRecord
100
AcDbDimStyleTableRecord
  2
Standard
 70
     0
178
     0
340
17
  0
DIMSTYLE
105
5C
102
{ACAD_REACTORS
330
81B2
330
81BF
330
8586
330
8620
330
862F
330
8644
330
86C0
330
86D0
330
86F6
330
878A
330
8BA3
330
9901
102
}
330
9
100
AcDbSymbolTableRecord
100
AcDbDimStyleTableRecord
  2
JIS
 70
     0
  3
<>
  4
[]
 41
9.0
 42
0.0
 43
6.99999999999994
 44
19.9999999999962
 73
     0
 74
     0
 77
     1
 78
    11
140
24.4326171875
141
0.0
143
1.0
147
10.0
171
     1
174
     1
178
     0
179
     2
271
     1
272
     1
276
     2
284
    11
285
    11
286
    11
289
     0
340
39
341
4E
342
4E
  0
ENDTAB
  0
TABLE
  2
BLOCK_RECORD
  5
1
330
0
100
AcDbSymbolTable
 70
    18
  0
BLOCK_RECORD
  5
A
330
1
100
AcDbSymbolTableRecord
100
AcDbBlockTableRecord
  2
*MODEL_SPACE
340
20
 70
     0
280
     1
281
     0
  0
BLOCK_RECORD
  5
B
330
1
100
AcDbSymbolTableRecord
100
AcDbBlockTableRecord
  2
*PAPER_SPACE
340
21
 70
     0
280
     1
281
     0
  0
BLOCK_RECORD
  5
4E
330
1
100
AcDbSymbolTableRecord
100
AcDbBlockTableRecord
  2
_DOT
340
0
102
{BLKREFS
331
81B9
331
81BA
331
81C6
331
81C7
331
858F
331
8590
331
8629
331
862A
331
8638
331
8639
331
864D
331
864E
331
86C9
331
86CA
331
86D9
331
86DA
331
86FF
331
8700
331
8791
331
8792
331
8BAC
331
8BAD
331
990B
331
990A
102
}
 70
     0
280
     1
281
     0
  0
BLOCK_RECORD
  5
3A5
330
1
100
AcDbSymbolTableRecord
100
AcDbBlockTableRecord
  2
名称未設定-1
340
0
102
{BLKREFS
331
695B
102
}
 70
     1
280
     1
281
     0
  0
BLOCK_RECORD
  5
3A8
330
1
100
AcDbSymbolTableRecord
100
AcDbBlockTableRecord
  2
block 2
340
0
102
{BLKREFS
331
3A7
102
}
 70
     0
280
     1
281
     0
  0
BLOCK_RECORD
  5
3AB
330
1
100
AcDbSymbolTableRecord
100
AcDbBlockTableRecord
  2
block 3
340
0
102
{BLKREFS
331
3AA
102
}
 70
     0
280
     1
281
     0
  0
BLOCK_RECORD
  5
3AE
330
1
100
AcDbSymbolTableRecord
100
AcDbBlockTableRecord
  2
block 4
340
0
102
{BLKREFS
331
3AD
102
}
 70
     0
280
     1
281
     0
  0
BLOCK_RECORD
  5
3BD
330
1
100
AcDbSymbolTableRecord
100
AcDbBlockTableRecord
  2
block 5
340
0
102
{BLKREFS
331
3BC
102
}
 70
     0
280
     1
281
     0
  0
BLOCK_RECORD
  5
81B3
330
1
100
AcDbSymbolTableRecord
100
AcDbBlockTableRecord
  2
*D6
340
0
 70
     0
280
     1
281
     0
  0
BLOCK_RECORD
  5
81C0
330
1
100
AcDbSymbolTableRecord
100
AcDbBlockTableRecord
  2
*D7
340
0
 70
     0
280
     1
281
     0
  0
BLOCK_RECORD
  5
8589
330
1
100
AcDbSymbolTableRecord
100
AcDbBlockTableRecord
  2
*D8
340
0
 70
     0
280
     1
281
     0
  0
BLOCK_RECORD
  5
8623
330
1
100
AcDbSymbolTableRecord
100
AcDbBlockTableRecord
  2
*D9
340
0
 70
     0
280
     1
281
     0
  0
BLOCK_RECORD
  5
8632
330
1
100
AcDbSymbolTableRecord
100
AcDbBlockTableRecord
  2
*D10
340
0
 70
     0
280
     1
281
     0
  0
BLOCK_RECORD
  5
8647
330
1
100
AcDbSymbolTableRecord
100
AcDbBlockTableRecord
  2
*D11
340
0
 70
     0
280
     1
281
     0
  0
BLOCK_RECORD
  5
86C3
330
1
100
AcDbSymbolTableRecord
100
AcDbBlockTableRecord
  2
*D12
340
0
 70
     0
280
     1
281
     0
  0
BLOCK_RECORD
  5
86D3
330
1
100
AcDbSymbolTableRecord
100
AcDbBlockTableRecord
  2
*D13
340
0
 70
     0
280
     1
281
     0
  0
BLOCK_RECORD
  5
86F9
330
1
100
AcDbSymbolTableRecord
100
AcDbBlockTableRecord
  2
*D14
340
0
 70
     0
280
     1
281
     0
  0
BLOCK_RECORD
  5
878B
330
1
100
AcDbSymbolTableRecord
100
AcDbBlockTableRecord
  2
*D15
340
0
 70
     0
280
     1
281
     0
  0
BLOCK_RECORD
  5
8BA6
330
1
100
AcDbSymbolTableRecord
100
AcDbBlockTableRecord
  2
*D16
340
0
 70
     0
280
     1
281
     0
  0
BLOCK_RECORD
  5
9904
330
1
100
AcDbSymbolTableRecord
100
AcDbBlockTableRecord
  2
*D17
340
0
 70
     0
280
     1
281
     0
  0
ENDTAB
  0
ENDSEC
  0
SECTION
  2
BLOCKS
  0
BLOCK
  5
D
330
A
100
AcDbEntity
  8
0
390
1D
100
AcDbBlockBegin
  2
*MODEL_SPACE
 70
     0
 10
0.0
 20
0.0
 30
0.0
  3
*MODEL_SPACE
  1
*MODEL_SPACE
  0
ENDBLK
  5
E
330
A
100
AcDbEntity
  8
0
390
1D
100
AcDbBlockEnd
  0
BLOCK
  5
F
330
B
100
AcDbEntity
 67
     1
  8
0
390
1D
100
AcDbBlockBegin
  2
*PAPER_SPACE
 70
     0
 10
0.0
 20
0.0
 30
0.0
  3
*PAPER_SPACE
  1
*PAPER_SPACE
  0
ENDBLK
  5
10
330
B
100
AcDbEntity
 67
     1
  8
0
390
1D
100
AcDbBlockEnd
  0
BLOCK
  5
E45
330
4E
100
AcDbEntity
  8
0
390
1D
100
AcDbBlockBegin
  2
_DOT
 70
     0
 10
0.0
 20
0.0
 30
0.0
  3
_DOT
  1
_DOT
  0
POLYLINE
  5
E47
330
4E
100
AcDbEntity
  8
0
  6
ByBlock
 62
     0
370
    -2
390
1D
100
AcDb2dPolyline
 66
     1
 10
0.0
 20
0.0
 30
0.0
 70
     1
 40
0.5
 41
0.5
  0
VERTEX
  5
E48
330
E47
100
AcDbEntity
  8
0
  6
ByBlock
 62
     0
370
    -2
390
1D
100
AcDbVertex
100
AcDb2dVertex
 10
-0.25
 20
0.0
 30
0.0
 42
1.0
  0
VERTEX
  5
E49
330
E47
100
AcDbEntity
  8
0
  6
ByBlock
 62
     0
370
    -2
390
1D
100
AcDbVertex
100
AcDb2dVertex
 10
0.25
 20
0.0
 30
0.0
 42
1.0
  0
SEQEND
  5
E4A
330
E47
100
AcDbEntity
  8
0
390
1D
  0
LINE
  5
E4B
330
4E
100
AcDbEntity
  8
0
  6
ByBlock
 62
     0
370
    -2
390
1D
100
AcDbLine
 10
-0.5
 20
0.0
 30
0.0
 11
-1.0
 21
0.0
 31
0.0
  0
ENDBLK
  5
E4C
330
4E
100
AcDbEntity
  8
0
390
1D
100
AcDbBlockEnd
  0
BLOCK
  5
3A6
330
3A5
100
AcDbEntity
  8
0
100
AcDbBlockBegin
  2
名称未設定-1
 70
     0
 10
0.0
 20
0.0
 30
0.0
  3
名称未設定-1
  1
名称未設定-1
  0
INSERT
  5
3A7
330
3A5
100
AcDbEntity
  8
LOGO
100
AcDbBlockReference
  2
block 2
 10
0.0
 20
0.0
 30
0.0
  0
ENDBLK
  5
3CC
330
3A5
100
AcDbEntity
  8
0
100
AcDbBlockEnd
  0
BLOCK
  5
3A9
330
3A8
100
AcDbEntity
  8
0
100
AcDbBlockBegin
  2
block 2
 70
     0
 10
0.0
 20
0.0
 30
0.0
  3
block 2
  1
block 2
  0
INSERT
  5
3AA
330
3A8
100
AcDbEntity
  8
LOGO
100
AcDbBlockReference
  2
block 3
 10
0.0
 20
0.0
 30
0.0
  0
ENDBLK
  5
3CB
330
3A8
100
AcDbEntity
  8
0
100
AcDbBlockEnd
  0
BLOCK
  5
3AC
330
3AB
100
AcDbEntity
  8
0
100
AcDbBlockBegin
  2
block 3
 70
     0
 10
0.0
 20
0.0
 30
0.0
  3
block 3
  1
block 3
  0
INSERT
  5
3AD
330
3AB
100
AcDbEntity
  8
LOGO
100
AcDbBlockReference
  2
block 4
 10
0.0
 20
0.0
 30
0.0
  0
ENDBLK
  5
3CA
330
3AB
100
AcDbEntity
  8
0
100
AcDbBlockEnd
  0
BLOCK
  5
3AF
330
3AE
100
AcDbEntity
  8
0
100
AcDbBlockBegin
  2
block 4
 70
     0
 10
0.0
 20
0.0
 30
0.0
  3
block 4
  1
block 4
  0
POLYLINE
  5
3B0
330
3AE
100
AcDbEntity
  8
LOGO
370
     0
100
AcDb2dPolyline
 66
     1
 10
0.0
 20
0.0
 30
0.0
  0
VERTEX
  5
3B1
330
3B0
100
AcDbEntity
  8
LOGO
370
     0
100
AcDbVertex
100
AcDb2dVertex
 10
83.79545727667795
 20
167.6444858234922
 30
0.0
  0
VERTEX
  5
3B2
330
3B0
100
AcDbEntity
  8
LOGO
370
     0
100
AcDbVertex
100
AcDb2dVertex
 10
83.79545727667795
 20
159.7968976406313
 30
0.0
  0
VERTEX
  5
3B3
330
3B0
100
AcDbEntity
  8
LOGO
370
     0
100
AcDbVertex
100
AcDb2dVertex
 10
71.3631329975216
 20
159.7968976406313
 30
0.0
  0
VERTEX
  5
3B4
330
3B0
100
AcDbEntity
  8
LOGO
370
     0
100
AcDbVertex
100
AcDb2dVertex
 10
71.3631329975216
 20
127.8027915271048
 30
0.0
  0
VERTEX
  5
3B5
330
3B0
100
AcDbEntity
  8
LOGO
370
     0
100
AcDbVertex
100
AcDb2dVertex
 10
60.43011526263018
 20
127.8027915271048
 30
0.0
  0
VERTEX
  5
3B6
330
3B0
100
AcDbEntity
  8
LOGO
370
     0
100
AcDbVertex
100
AcDb2dVertex
 10
60.43011526263018
 20
159.7968976406313
 30
0.0
  0
VERTEX
  5
3B7
330
3B0
100
AcDbEntity
  8
LOGO
370
     0
100
AcDbVertex
100
AcDb2dVertex
 10
48.21793273020759
 20
159.7968976406313
 30
0.0
  0
VERTEX
  5
3B8
330
3B0
100
AcDbEntity
  8
LOGO
370
     0
100
AcDbVertex
100
AcDb2dVertex
 10
48.21793273020759
 20
167.6444858234922
 30
0.0
  0
VERTEX
  5
3B9
330
3B0
100
AcDbEntity
  8
LOGO
370
     0
100
AcDbVertex
100
AcDb2dVertex
 10
83.79545727667795
 20
167.6444858234922
 30
0.0
  0
SEQEND
  5
3BA
330
3B0
100
AcDbEntity
  8
LOGO
370
     0
  0
HATCH
  5
3BB
330
3AE
100
AcDbEntity
  8
LOGO
 62
   250
420
  2234388
100
AcDbHatch
 10
0.0
 20
0.0
 30
0.0
210
0.0
220
0.0
230
1.0
  2
SOLID
 70
     1
 71
     0
 91
        1
 92
        1
 93
        8
 72
     1
 10
83.79545727667795
 20
167.6444858234922
 11
83.79545727667795
 21
159.7968976406313
 72
     1
 10
83.79545727667795
 20
159.7968976406313
 11
71.3631329975216
 21
159.7968976406313
 72
     1
 10
71.3631329975216
 20
159.7968976406313
 11
71.3631329975216
 21
127.8027915271048
 72
     1
 10
71.3631329975216
 20
127.8027915271048
 11
60.43011526263018
 21
127.8027915271048
 72
     1
 10
60.43011526263018
 20
127.8027915271048
 11
60.43011526263018
 21
159.7968976406313
 72
     1
 10
60.43011526263018
 20
159.7968976406313
 11
48.21793273020759
 21
159.7968976406313
 72
     1
 10
48.21793273020759
 20
159.7968976406313
 11
48.21793273020759
 21
167.6444858234922
 72
     1
 10
48.21793273020759
 20
167.6444858234922
 11
83.79545727667795
 21
167.6444858234922
 97
        0
 75
     2
 76
     1
 98
        0
  0
INSERT
  5
3BC
330
3AE
100
AcDbEntity
  8
LOGO
100
AcDbBlockReference
  2
block 5
 10
0.0
 20
0.0
 30
0.0
  0
ENDBLK
  5
3C9
330
3AE
100
AcDbEntity
  8
0
100
AcDbBlockEnd
  0
BLOCK
  5
3BE
330
3BD
100
AcDbEntity
  8
0
100
AcDbBlockBegin
  2
block 5
 70
     0
 10
0.0
 20
0.0
 30
0.0
  3
block 5
  1
block 5
  0
SPLINE
  5
3BF
330
3BD
100
AcDbEntity
  8
LOGO
370
     0
100
AcDbSpline
210
0.0
220
0.0
230
1.0
 70
    11
 71
     3
 72
    56
 73
    52
 74
     0
 42
0.000000001
 43
0.0000000001
 40
0.0
 40
0.0
 40
0.0
 40
0.0
 40
1.0
 40
1.0
 40
1.0
 40
2.0
 40
2.0
 40
2.0
 40
3.0
 40
3.0
 40
3.0
 40
4.0
 40
4.0
 40
4.0
 40
5.0
 40
5.0
 40
5.0
 40
6.0
 40
6.0
 40
6.0
 40
7.0
 40
7.0
 40
7.0
 40
8.0
 40
8.0
 40
8.0
 40
9.0
 40
9.0
 40
9.0
 40
10.0
 40
10.0
 40
10.0
 40
11.0
 40
11.0
 40
11.0
 40
12.0
 40
12.0
 40
12.0
 40
13.0
 40
13.0
 40
13.0
 40
14.0
 40
14.0
 40
14.0
 40
15.0
 40
15.0
 40
15.0
 40
16.0
 40
16.0
 40
16.0
 40
17.0
 40
17.0
 40
17.0
 40
17.0
 10
100.4504378777679
 20
166.69157178364
 30
0.0
 10
101.9848844191641
 20
167.1313385124438
 30
0.0
 10
103.9637485713373
 20
166.7649523658846
 30
0.0
 10
103.9637485713373
 20
166.7649523658846
 30
0.0
 10
103.9637485713373
 20
166.7649523658846
 30
0.0
 10
103.0132460999156
 20
163.911205638077
 30
0.0
 10
103.0132460999156
 20
163.911205638077
 30
0.0
 10
103.0132460999156
 20
163.911205638077
 30
0.0
 10
101.0674548862189
 20
164.3601018759394
 30
0.0
 10
99.57090442016032
 20
163.1805004036133
 30
0.0
 10
98.40508333886608
 20
162.258247733807
 30
0.0
 10
97.65301849830304
 20
159.804132345923
 30
0.0
 10
97.3598406791005
 20
158.8699940888517
 30
0.0
 10
97.3598406791005
 20
158.8699940888517
 30
0.0
 10
96.07137411762282
 20
154.9119212747295
 30
0.0
 10
96.07137411762282
 20
154.9119212747295
 30
0.0
 10
96.07137411762282
 20
154.9119212747295
 30
0.0
 10
100.3012651448482
 20
154.9119212747295
 30
0.0
 10
100.3012651448482
 20
154.9119212747295
 30
0.0
 10
100.3012651448482
 20
154.9119212747295
 30
0.0
 10
99.64152892419852
 20
152.4199098115079
 30
0.0
 10
99.64152892419852
 20
152.4199098115079
 30
0.0
 10
99.64152892419852
 20
152.4199098115079
 30
0.0
 10
95.38097652692731
 20
152.4199098115079
 30
0.0
 10
95.38097652692731
 20
152.4199098115079
 30
0.0
 10
95.38097652692731
 20
152.4199098115079
 30
0.0
 10
87.75353009080013
 20
127.8027915271048
 30
0.0
 10
87.75353009080013
 20
127.8027915271048
 30
0.0
 10
87.75353009080013
 20
127.8027915271048
 30
0.0
 10
85.36538832498108
 20
127.8027915271048
 30
0.0
 10
85.36538832498108
 20
127.8027915271048
 30
0.0
 10
85.36538832498108
 20
127.8027915271048
 30
0.0
 10
93.00006946639998
 20
152.4199098115079
 30
0.0
 10
93.00006946639998
 20
152.4199098115079
 30
0.0
 10
93.00006946639998
 20
152.4199098115079
 30
0.0
 10
89.85297266450198
 20
152.4199098115079
 30
0.0
 10
89.85297266450198
 20
152.4199098115079
 30
0.0
 10
89.85297266450198
 20
152.4199098115079
 30
0.0
 10
90.51270888515164
 20
154.9119212747295
 30
0.0
 10
90.51270888515164
 20
154.9119212747295
 30
0.0
 10
90.51270888515164
 20
154.9119212747295
 30
0.0
 10
93.6904670570955
 20
154.9119212747295
 30
0.0
 10
93.6904670570955
 20
154.9119212747295
 30
0.0
 10
93.6904670570955
 20
154.9119212747295
 30
0.0
 10
94.81598049462158
 20
158.3616699146644
 30
0.0
 10
94.81598049462158
 20
158.3616699146644
 30
0.0
 10
95.7237637538445
 20
161.2605474231013
 30
0.0
 10
96.4968436907311
 20
162.8139420021662
 30
0.0
 10
97.15657991138076
 20
163.9844139654337
 30
0.0
 10
97.81183750494507
 20
165.1523021053827
 30
0.0
 10
99.1047826935081
 20
166.3084769129547
 30
0.0
 10
100.4504378777679
 20
166.69157178364
 30
0.0
  0
HATCH
  5
3C0
330
3BD
100
AcDbEntity
  8
LOGO
 62
   250
420
  2234388
100
AcDbHatch
 10
0.0
 20
0.0
 30
0.0
210
0.0
220
0.0
230
1.0
  2
SOLID
 70
     1
 71
     0
 91
        1
 92
        1
 93
        1
 72
     4
 94
        3
 73
     0
 74
     1
 95
       56
 96
       52
 40
0.0
 40
0.0
 40
0.0
 40
0.0
 40
1.0
 40
1.0
 40
1.0
 40
2.0
 40
2.0
 40
2.0
 40
3.0
 40
3.0
 40
3.0
 40
4.0
 40
4.0
 40
4.0
 40
5.0
 40
5.0
 40
5.0
 40
6.0
 40
6.0
 40
6.0
 40
7.0
 40
7.0
 40
7.0
 40
8.0
 40
8.0
 40
8.0
 40
9.0
 40
9.0
 40
9.0
 40
10.0
 40
10.0
 40
10.0
 40
11.0
 40
11.0
 40
11.0
 40
12.0
 40
12.0
 40
12.0
 40
13.0
 40
13.0
 40
13.0
 40
14.0
 40
14.0
 40
14.0
 40
15.0
 40
15.0
 40
15.0
 40
16.0
 40
16.0
 40
16.0
 40
17.0
 40
17.0
 40
17.0
 40
17.0
 10
100.4504378777679
 20
166.69157178364
 10
101.9848844191641
 20
167.1313385124438
 10
103.9637485713373
 20
166.7649523658846
 10
103.9637485713373
 20
166.7649523658846
 10
103.9637485713373
 20
166.7649523658846
 10
103.0132460999156
 20
163.911205638077
 10
103.0132460999156
 20
163.911205638077
 10
103.0132460999156
 20
163.911205638077
 10
101.0674548862189
 20
164.3601018759394
 10
99.57090442016032
 20
163.1805004036133
 10
98.40508333886608
 20
162.258247733807
 10
97.65301849830304
 20
159.804132345923
 10
97.3598406791005
 20
158.8699940888517
 10
97.3598406791005
 20
158.8699940888517
 10
96.07137411762282
 20
154.9119212747295
 10
96.07137411762282
 20
154.9119212747295
 10
96.07137411762282
 20
154.9119212747295
 10
100.3012651448482
 20
154.9119212747295
 10
100.3012651448482
 20
154.9119212747295
 10
100.3012651448482
 20
154.9119212747295
 10
99.64152892419852
 20
152.4199098115079
 10
99.64152892419852
 20
152.4199098115079
 10
99.64152892419852
 20
152.4199098115079
 10
95.38097652692731
 20
152.4199098115079
 10
95.38097652692731
 20
152.4199098115079
 10
95.38097652692731
 20
152.4199098115079
 10
87.75353009080013
 20
127.8027915271048
 10
87.75353009080013
 20
127.8027915271048
 10
87.75353009080013
 20
127.8027915271048
 10
85.36538832498108
 20
127.8027915271048
 10
85.36538832498108
 20
127.8027915271048
 10
85.36538832498108
 20
127.8027915271048
 10
93.00006946639998
 20
152.4199098115079
 10
93.00006946639998
 20
152.4199098115079
 10
93.00006946639998
 20
152.4199098115079
 10
89.85297266450198
 20
152.4199098115079
 10
89.85297266450198
 20
152.4199098115079
 10
89.85297266450198
 20
152.4199098115079
 10
90.51270888515164
 20
154.9119212747295
 10
90.51270888515164
 20
154.9119212747295
 10
90.51270888515164
 20
154.9119212747295
 10
93.6904670570955
 20
154.9119212747295
 10
93.6904670570955
 20
154.9119212747295
 10
93.6904670570955
 20
154.9119212747295
 10
94.81598049462158
 20
158.3616699146644
 10
94.81598049462158
 20
158.3616699146644
 10
95.7237637538445
 20
161.2605474231013
 10
96.4968436907311
 20
162.8139420021662
 10
97.15657991138076
 20
163.9844139654337
 10
97.81183750494507
 20
165.1523021053827
 10
99.1047826935081
 20
166.3084769129547
 10
100.4504378777679
 20
166.69157178364
 97
        0
 75
     2
 76
     1
 98
        0
  0
SPLINE
  5
3C1
330
3BD
100
AcDbEntity
  8
LOGO
370
     0
100
AcDbSpline
210
0.0
220
0.0
230
1.0
 70
    11
 71
     3
 72
    38
 73
    34
 74
     0
 42
0.000000001
 43
0.0000000001
 40
0.0
 40
0.0
 40
0.0
 40
0.0
 40
1.0
 40
1.0
 40
1.0
 40
2.0
 40
2.0
 40
2.0
 40
3.0
 40
3.0
 40
3.0
 40
4.0
 40
4.0
 40
4.0
 40
5.0
 40
5.0
 40
5.0
 40
6.0
 40
6.0
 40
6.0
 40
7.0
 40
7.0
 40
7.0
 40
8.0
 40
8.0
 40
8.0
 40
9.0
 40
9.0
 40
9.0
 40
10.0
 40
10.0
 40
10.0
 40
11.0
 40
11.0
 40
11.0
 40
11.0
 10
126.377554584636
 20
154.8151140277308
 30
0.0
 10
126.377554584636
 20
154.8151140277308
 30
0.0
 10
128.8311532078563
 20
154.8151140277308
 30
0.0
 10
128.8311532078563
 20
154.8151140277308
 30
0.0
 10
128.8311532078563
 20
154.8151140277308
 30
0.0
 10
127.7345785914971
 20
151.3062819612468
 30
0.0
 10
127.7345785914971
 20
151.3062819612468
 30
0.0
 10
128.571392836906
 20
152.2922689395754
 30
0.0
 10
129.8860421413442
 20
153.604506675583
 30
0.0
 10
131.0163787157314
 20
154.2664822097754
 30
0.0
 10
132.7044766171327
 20
155.2500576196734
 30
0.0
 10
133.6642808525008
 20
155.3847609420097
 30
0.0
 10
134.7284715499351
 20
155.3565111403944
 30
0.0
 10
134.7284715499351
 20
155.3565111403944
 30
0.0
 10
133.6877075172549
 20
152.0345756272799
 30
0.0
 10
133.6877075172549
 20
152.0345756272799
 30
0.0
 10
133.011434827367
 20
152.3184516825359
 30
0.0
 10
130.930940291334
 20
151.7768823149844
 30
0.0
 10
129.739280976855
 20
150.9162968950455
 30
0.0
 10
128.66613302525
 20
150.1454562717016
 30
0.0
 10
127.9192358313239
 20
149.4857200510519
 30
0.0
 10
127.0393578639405
 20
147.8282835196966
 30
0.0
 10
126.164647543194
 20
146.1699857139017
 30
0.0
 10
125.4742499524985
 20
143.5262176944419
 30
0.0
 10
124.2822461282437
 20
139.6959580071401
 30
0.0
 10
124.2822461282437
 20
139.6959580071401
 30
0.0
 10
120.5753209406769
 20
127.8027915271048
 30
0.0
 10
120.5753209406769
 20
127.8027915271048
 30
0.0
 10
120.5753209406769
 20
127.8027915271048
 30
0.0
 10
118.1964809388044
 20
127.8027915271048
 30
0.0
 10
118.1964809388044
 20
127.8027915271048
 30
0.0
 10
118.1964809388044
 20
127.8027915271048
 30
0.0
 10
126.377554584636
 20
154.8151140277308
 30
0.0
 10
126.377554584636
 20
154.8151140277308
 30
0.0
  0
HATCH
  5
3C2
330
3BD
100
AcDbEntity
  8
LOGO
 62
   250
420
  2234388
100
AcDbHatch
 10
0.0
 20
0.0
 30
0.0
210
0.0
220
0.0
230
1.0
  2
SOLID
 70
     1
 71
     0
 91
        1
 92
        1
 93
        1
 72
     4
 94
        3
 73
     0
 74
     1
 95
       38
 96
       34
 40
0.0
 40
0.0
 40
0.0
 40
0.0
 40
1.0
 40
1.0
 40
1.0
 40
2.0
 40
2.0
 40
2.0
 40
3.0
 40
3.0
 40
3.0
 40
4.0
 40
4.0
 40
4.0
 40
5.0
 40
5.0
 40
5.0
 40
6.0
 40
6.0
 40
6.0
 40
7.0
 40
7.0
 40
7.0
 40
8.0
 40
8.0
 40
8.0
 40
9.0
 40
9.0
 40
9.0
 40
10.0
 40
10.0
 40
10.0
 40
11.0
 40
11.0
 40
11.0
 40
11.0
 10
126.377554584636
 20
154.8151140277308
 10
126.377554584636
 20
154.8151140277308
 10
128.8311532078563
 20
154.8151140277308
 10
128.8311532078563
 20
154.8151140277308
 10
128.8311532078563
 20
154.8151140277308
 10
127.7345785914971
 20
151.3062819612468
 10
127.7345785914971
 20
151.3062819612468
 10
128.571392836906
 20
152.2922689395754
 10
129.8860421413442
 20
153.604506675583
 10
131.0163787157314
 20
154.2664822097754
 10
132.7044766171327
 20
155.2500576196734
 10
133.6642808525008
 20
155.3847609420097
 10
134.7284715499351
 20
155.3565111403944
 10
134.7284715499351
 20
155.3565111403944
 10
133.6877075172549
 20
152.0345756272799
 10
133.6877075172549
 20
152.0345756272799
 10
133.011434827367
 20
152.3184516825359
 10
130.930940291334
 20
151.7768823149844
 10
129.739280976855
 20
150.9162968950455
 10
128.66613302525
 20
150.1454562717016
 10
127.9192358313239
 20
149.4857200510519
 10
127.0393578639405
 20
147.8282835196966
 10
126.164647543194
 20
146.1699857139017
 10
125.4742499524985
 20
143.5262176944419
 10
124.2822461282437
 20
139.6959580071401
 10
124.2822461282437
 20
139.6959580071401
 10
120.5753209406769
 20
127.8027915271048
 10
120.5753209406769
 20
127.8027915271048
 10
120.5753209406769
 20
127.8027915271048
 10
118.1964809388044
 20
127.8027915271048
 10
118.1964809388044
 20
127.8027915271048
 10
118.1964809388044
 20
127.8027915271048
 10
126.377554584636
 20
154.8151140277308
 10
126.377554584636
 20
154.8151140277308
 97
        0
 75
     2
 76
     1
 98
        0
  0
SPLINE
  5
3C3
330
3BD
100
AcDbEntity
  8
LOGO
370
     0
100
AcDbSpline
210
0.0
220
0.0
230
1.0
 70
    11
 71
     3
 72
   104
 73
   100
 74
     0
 42
0.000000001
 43
0.0000000001
 40
0.0
 40
0.0
 40
0.0
 40
0.0
 40
1.0
 40
1.0
 40
1.0
 40
2.0
 40
2.0
 40
2.0
 40
3.0
 40
3.0
 40
3.0
 40
4.0
 40
4.0
 40
4.0
 40
5.0
 40
5.0
 40
5.0
 40
6.0
 40
6.0
 40
6.0
 40
7.0
 40
7.0
 40
7.0
 40
8.0
 40
8.0
 40
8.0
 40
9.0
 40
9.0
 40
9.0
 40
10.0
 40
10.0
 40
10.0
 40
11.0
 40
11.0
 40
11.0
 40
12.0
 40
12.0
 40
12.0
 40
13.0
 40
13.0
 40
13.0
 40
14.0
 40
14.0
 40
14.0
 40
15.0
 40
15.0
 40
15.0
 40
16.0
 40
16.0
 40
16.0
 40
17.0
 40
17.0
 40
17.0
 40
18.0
 40
18.0
 40
18.0
 40
19.0
 40
19.0
 40
19.0
 40
20.0
 40
20.0
 40
20.0
 40
21.0
 40
21.0
 40
21.0
 40
22.0
 40
22.0
 40
22.0
 40
23.0
 40
23.0
 40
23.0
 40
24.0
 40
24.0
 40
24.0
 40
25.0
 40
25.0
 40
25.0
 40
26.0
 40
26.0
 40
26.0
 40
27.0
 40
27.0
 40
27.0
 40
28.0
 40
28.0
 40
28.0
 40
29.0
 40
29.0
 40
29.0
 40
30.0
 40
30.0
 40
30.0
 40
31.0
 40
31.0
 40
31.0
 40
32.0
 40
32.0
 40
32.0
 40
33.0
 40
33.0
 40
33.0
 40
33.0
 10
139.8926730891197
 20
154.8294111834263
 30
0.0
 10
139.8926730891197
 20
154.8294111834263
 30
0.0
 10
142.0344903652445
 20
154.8294111834263
 30
0.0
 10
142.0344903652445
 20
154.8294111834263
 30
0.0
 10
142.0344903652445
 20
154.8294111834263
 30
0.0
 10
140.9516961399171
 20
151.3157559800812
 30
0.0
 10
140.9516961399171
 20
151.3157559800812
 30
0.0
 10
141.8928968473923
 20
152.7887075264977
 30
0.0
 10
142.7341897198865
 20
153.4484437471474
 30
0.0
 10
143.8552245303272
 20
154.2926649527359
 30
0.0
 10
144.9803934580775
 20
155.1296514530327
 30
0.0
 10
146.3139908001845
 20
155.3044901642492
 30
0.0
 10
147.241066606852
 20
155.3044901642492
 30
0.0
 10
148.3855280820469
 20
155.3044901642492
 30
0.0
 10
149.4969166187653
 20
155.0752189084569
 30
0.0
 10
150.0784491203092
 20
153.8172414621372
 30
0.0
 10
150.5228667310863
 20
152.833838307127
 30
0.0
 10
150.5414702589793
 20
152.7201500811143
 30
0.0
 10
150.4140016419347
 20
150.7765981809602
 30
0.0
 10
151.5818897818837
 20
152.7699317437168
 30
0.0
 10
152.4424752018226
 20
153.6256940267945
 30
0.0
 10
153.9038856707499
 20
154.4507949398263
 30
0.0
 10
155.4455669174378
 20
155.3044901642492
 30
0.0
 10
156.339225275853
 20
155.3659851592288
 30
0.0
 10
157.3748216618963
 20
155.2147453676543
 30
0.0
 10
158.911679771723
 20
154.9877134254046
 30
0.0
 10
159.8859534176746
 20
154.4390816074493
 30
0.0
 10
160.3965169054045
 20
152.7816450760939
 30
0.0
 10
160.9070803931344
 20
151.1219692311958
 30
0.0
 10
160.6328506116007
 20
150.2303779314354
 30
0.0
 10
159.9992971339115
 20
147.597634224801
 30
0.0
 10
159.7105979417943
 20
146.4014962832367
 30
0.0
 10
159.2947746424084
 20
144.9400858143094
 30
0.0
 10
158.7463150793409
 20
143.2092687007094
 30
0.0
 10
158.7463150793409
 20
143.2092687007094
 30
0.0
 10
153.9038856707499
 20
127.8027915271048
 30
0.0
 10
153.9038856707499
 20
127.8027915271048
 30
0.0
 10
153.9038856707499
 20
127.8027915271048
 30
0.0
 10
151.3882752878863
 20
127.8027915271048
 30
0.0
 10
151.3882752878863
 20
127.8027915271048
 30
0.0
 10
151.3882752878863
 20
127.8027915271048
 30
0.0
 10
155.6250565106276
 20
141.2751908193897
 30
0.0
 10
155.6250565106276
 20
141.2751908193897
 30
0.0
 10
156.5094131050963
 20
144.0936252951782
 30
0.0
 10
157.109893644309
 20
146.1506931664571
 30
0.0
 10
157.4220195011804
 20
147.4415712963654
 30
0.0
 10
157.8095929989511
 20
149.0530157726519
 30
0.0
 10
157.9656559273867
 20
149.5826995529385
 30
0.0
 10
157.7816877071116
 20
150.7529992613181
 30
0.0
 10
157.6111553680925
 20
151.8430281919372
 30
0.0
 10
157.0582171779396
 20
152.5547853887321
 30
0.0
 10
156.1170164704645
 20
152.5547853887321
 30
0.0
 10
155.1096698860365
 20
152.5547853887321
 30
0.0
 10
154.2962823053817
 20
152.4412694176073
 30
0.0
 10
153.156643967048
 20
151.2945686288697
 30
0.0
 10
152.0170056287143
 20
150.1476955852443
 30
0.0
 10
151.076149431015
 20
148.7930831468137
 30
0.0
 10
150.3337308641742
 20
147.2290087646991
 30
0.0
 10
149.5957909244188
 20
145.6683794803425
 30
0.0
 10
148.8530278478023
 20
143.6822806228776
 30
0.0
 10
148.0964843801539
 20
141.2751908193897
 30
0.0
 10
148.0964843801539
 20
141.2751908193897
 30
0.0
 10
143.8552245303272
 20
127.8027915271048
 30
0.0
 10
143.8552245303272
 20
127.8027915271048
 30
0.0
 10
143.8552245303272
 20
127.8027915271048
 30
0.0
 10
141.486030802177
 20
127.8027915271048
 30
0.0
 10
141.486030802177
 20
127.8027915271048
 30
0.0
 10
141.486030802177
 20
127.8027915271048
 30
0.0
 10
146.3329388378533
 20
143.2092687007094
 30
0.0
 10
146.3329388378533
 20
143.2092687007094
 30
0.0
 10
146.8483254624444
 20
144.8408669988801
 30
0.0
 10
147.2314203331297
 20
146.1837661049335
 30
0.0
 10
147.4867020769946
 20
147.224185627838
 30
0.0
 10
147.9169947869641
 20
149.0197705792876
 30
0.0
 10
148.0306830129768
 20
150.2400242051577
 30
0.0
 10
147.709255392159
 20
151.3157559800812
 30
0.0
 10
147.3874832615654
 20
152.3916600098926
 30
0.0
 10
146.8245542879144
 20
152.6683013598569
 30
0.0
 10
145.8840425999909
 20
152.6683013598569
 30
0.0
 10
145.0989048209514
 20
152.6683013598569
 30
0.0
 10
144.3282364524954
 20
152.3275811915945
 30
0.0
 10
143.4531816219731
 20
151.6538923250251
 30
0.0
 10
142.34627171234
 20
150.8074318058939
 30
0.0
 10
141.901854101563
 20
150.1097995099067
 30
0.0
 10
141.3578731655808
 20
149.289521733736
 30
0.0
 10
140.6299240093235
 20
148.192602607601
 30
0.0
 10
140.2850697237515
 20
147.455696197173
 30
0.0
 10
139.6652966370942
 20
145.8385673095858
 30
0.0
 10
139.0506911970739
 20
144.2214384219986
 30
0.0
 10
138.463991048893
 20
142.3252566160164
 30
0.0
 10
138.0571250036777
 20
141.0154304484394
 30
0.0
 10
138.0571250036777
 20
141.0154304484394
 30
0.0
 10
133.9009590684727
 20
127.8027915271048
 30
0.0
 10
133.9009590684727
 20
127.8027915271048
 30
0.0
 10
133.9009590684727
 20
127.8027915271048
 30
0.0
 10
131.4180771143097
 20
127.8027915271048
 30
0.0
 10
131.4180771143097
 20
127.8027915271048
 30
0.0
 10
131.4180771143097
 20
127.8027915271048
 30
0.0
 10
139.8926730891197
 20
154.8294111834263
 30
0.0
 10
139.8926730891197
 20
154.8294111834263
 30
0.0
  0
HATCH
  5
3C4
330
3BD
100
AcDbEntity
  8
LOGO
 62
   250
420
  2234388
100
AcDbHatch
 10
0.0
 20
0.0
 30
0.0
210
0.0
220
0.0
230
1.0
  2
SOLID
 70
     1
 71
     0
 91
        1
 92
        1
 93
        1
 72
     4
 94
        3
 73
     0
 74
     1
 95
      104
 96
      100
 40
0.0
 40
0.0
 40
0.0
 40
0.0
 40
1.0
 40
1.0
 40
1.0
 40
2.0
 40
2.0
 40
2.0
 40
3.0
 40
3.0
 40
3.0
 40
4.0
 40
4.0
 40
4.0
 40
5.0
 40
5.0
 40
5.0
 40
6.0
 40
6.0
 40
6.0
 40
7.0
 40
7.0
 40
7.0
 40
8.0
 40
8.0
 40
8.0
 40
9.0
 40
9.0
 40
9.0
 40
10.0
 40
10.0
 40
10.0
 40
11.0
 40
11.0
 40
11.0
 40
12.0
 40
12.0
 40
12.0
 40
13.0
 40
13.0
 40
13.0
 40
14.0
 40
14.0
 40
14.0
 40
15.0
 40
15.0
 40
15.0
 40
16.0
 40
16.0
 40
16.0
 40
17.0
 40
17.0
 40
17.0
 40
18.0
 40
18.0
 40
18.0
 40
19.0
 40
19.0
 40
19.0
 40
20.0
 40
20.0
 40
20.0
 40
21.0
 40
21.0
 40
21.0
 40
22.0
 40
22.0
 40
22.0
 40
23.0
 40
23.0
 40
23.0
 40
24.0
 40
24.0
 40
24.0
 40
25.0
 40
25.0
 40
25.0
 40
26.0
 40
26.0
 40
26.0
 40
27.0
 40
27.0
 40
27.0
 40
28.0
 40
28.0
 40
28.0
 40
29.0
 40
29.0
 40
29.0
 40
30.0
 40
30.0
 40
30.0
 40
31.0
 40
31.0
 40
31.0
 40
32.0
 40
32.0
 40
32.0
 40
33.0
 40
33.0
 40
33.0
 40
33.0
 10
139.8926730891197
 20
154.8294111834263
 10
139.8926730891197
 20
154.8294111834263
 10
142.0344903652445
 20
154.8294111834263
 10
142.0344903652445
 20
154.8294111834263
 10
142.0344903652445
 20
154.8294111834263
 10
140.9516961399171
 20
151.3157559800812
 10
140.9516961399171
 20
151.3157559800812
 10
141.8928968473923
 20
152.7887075264977
 10
142.7341897198865
 20
153.4484437471474
 10
143.8552245303272
 20
154.2926649527359
 10
144.9803934580775
 20
155.1296514530327
 10
146.3139908001845
 20
155.3044901642492
 10
147.241066606852
 20
155.3044901642492
 10
148.3855280820469
 20
155.3044901642492
 10
149.4969166187653
 20
155.0752189084569
 10
150.0784491203092
 20
153.8172414621372
 10
150.5228667310863
 20
152.833838307127
 10
150.5414702589793
 20
152.7201500811143
 10
150.4140016419347
 20
150.7765981809602
 10
151.5818897818837
 20
152.7699317437168
 10
152.4424752018226
 20
153.6256940267945
 10
153.9038856707499
 20
154.4507949398263
 10
155.4455669174378
 20
155.3044901642492
 10
156.339225275853
 20
155.3659851592288
 10
157.3748216618963
 20
155.2147453676543
 10
158.911679771723
 20
154.9877134254046
 10
159.8859534176746
 20
154.4390816074493
 10
160.3965169054045
 20
152.7816450760939
 10
160.9070803931344
 20
151.1219692311958
 10
160.6328506116007
 20
150.2303779314354
 10
159.9992971339115
 20
147.597634224801
 10
159.7105979417943
 20
146.4014962832367
 10
159.2947746424084
 20
144.9400858143094
 10
158.7463150793409
 20
143.2092687007094
 10
158.7463150793409
 20
143.2092687007094
 10
153.9038856707499
 20
127.8027915271048
 10
153.9038856707499
 20
127.8027915271048
 10
153.9038856707499
 20
127.8027915271048
 10
151.3882752878863
 20
127.8027915271048
 10
151.3882752878863
 20
127.8027915271048
 10
151.3882752878863
 20
127.8027915271048
 10
155.6250565106276
 20
141.2751908193897
 10
155.6250565106276
 20
141.2751908193897
 10
156.5094131050963
 20
144.0936252951782
 10
157.109893644309
 20
146.1506931664571
 10
157.4220195011804
 20
147.4415712963654
 10
157.8095929989511
 20
149.0530157726519
 10
157.9656559273867
 20
149.5826995529385
 10
157.7816877071116
 20
150.7529992613181
 10
157.6111553680925
 20
151.8430281919372
 10
157.0582171779396
 20
152.5547853887321
 10
156.1170164704645
 20
152.5547853887321
 10
155.1096698860365
 20
152.5547853887321
 10
154.2962823053817
 20
152.4412694176073
 10
153.156643967048
 20
151.2945686288697
 10
152.0170056287143
 20
150.1476955852443
 10
151.076149431015
 20
148.7930831468137
 10
150.3337308641742
 20
147.2290087646991
 10
149.5957909244188
 20
145.6683794803425
 10
148.8530278478023
 20
143.6822806228776
 10
148.0964843801539
 20
141.2751908193897
 10
148.0964843801539
 20
141.2751908193897
 10
143.8552245303272
 20
127.8027915271048
 10
143.8552245303272
 20
127.8027915271048
 10
143.8552245303272
 20
127.8027915271048
 10
141.486030802177
 20
127.8027915271048
 10
141.486030802177
 20
127.8027915271048
 10
141.486030802177
 20
127.8027915271048
 10
146.3329388378533
 20
143.2092687007094
 10
146.3329388378533
 20
143.2092687007094
 10
146.8483254624444
 20
144.8408669988801
 10
147.2314203331297
 20
146.1837661049335
 10
147.4867020769946
 20
147.224185627838
 10
147.9169947869641
 20
149.0197705792876
 10
148.0306830129768
 20
150.2400242051577
 10
147.709255392159
 20
151.3157559800812
 10
147.3874832615654
 20
152.3916600098926
 10
146.8245542879144
 20
152.6683013598569
 10
145.8840425999909
 20
152.6683013598569
 10
145.0989048209514
 20
152.6683013598569
 10
144.3282364524954
 20
152.3275811915945
 10
143.4531816219731
 20
151.6538923250251
 10
142.34627171234
 20
150.8074318058939
 10
141.901854101563
 20
150.1097995099067
 10
141.3578731655808
 20
149.289521733736
 10
140.6299240093235
 20
148.192602607601
 10
140.2850697237515
 20
147.455696197173
 10
139.6652966370942
 20
145.8385673095858
 10
139.0506911970739
 20
144.2214384219986
 10
138.463991048893
 20
142.3252566160164
 10
138.0571250036777
 20
141.0154304484394
 10
138.0571250036777
 20
141.0154304484394
 10
133.9009590684727
 20
127.8027915271048
 10
133.9009590684727
 20
127.8027915271048
 10
133.9009590684727
 20
127.8027915271048
 10
131.4180771143097
 20
127.8027915271048
 10
131.4180771143097
 20
127.8027915271048
 10
131.4180771143097
 20
127.8027915271048
 10
139.8926730891197
 20
154.8294111834263
 10
139.8926730891197
 20
154.8294111834263
 97
        0
 75
     2
 76
     1
 98
        0
  0
SPLINE
  5
3C5
330
3BD
100
AcDbEntity
  8
LOGO
370
     0
100
AcDbSpline
210
0.0
220
0.0
230
1.0
 70
    11
 71
     3
 72
    29
 73
    25
 74
     0
 42
0.000000001
 43
0.0000000001
 40
0.0
 40
0.0
 40
0.0
 40
0.0
 40
1.0
 40
1.0
 40
1.0
 40
2.0
 40
2.0
 40
2.0
 40
3.0
 40
3.0
 40
3.0
 40
4.0
 40
4.0
 40
4.0
 40
5.0
 40
5.0
 40
5.0
 40
6.0
 40
6.0
 40
6.0
 40
7.0
 40
7.0
 40
7.0
 40
8.0
 40
8.0
 40
8.0
 40
8.0
 10
101.6420971922469
 20
132.8388354296931
 30
0.0
 10
101.630039350094
 20
134.7164137077823
 30
0.0
 10
102.2236296937908
 20
138.0598810818841
 30
0.0
 10
103.7487744712405
 20
142.5378191476827
 30
0.0
 10
105.819967243327
 20
148.5896501242061
 30
0.0
 10
107.0602024361932
 20
150.8074318058939
 30
0.0
 10
108.1522984254671
 20
151.8833358357054
 30
0.0
 10
109.741177511439
 20
153.4532668840085
 30
0.0
 10
111.8740375333931
 20
153.5290590346837
 30
0.0
 10
112.5075910110823
 20
153.4532668840085
 30
0.0
 10
113.4012493694975
 20
153.3490526768302
 30
0.0
 10
114.6683563248758
 20
152.7580461564518
 30
0.0
 10
114.7493161221879
 20
150.7838328862519
 30
0.0
 10
114.8106388622796
 20
149.0909118479895
 30
0.0
 10
114.3186789024427
 20
145.9191825971221
 30
0.0
 10
112.6164561002338
 20
140.9489400617108
 30
0.0
 10
110.6444821435766
 20
135.1746117095912
 30
0.0
 10
109.4669477299053
 20
132.8960240524753
 30
0.0
 10
108.5212683953448
 20
131.9072809959403
 30
0.0
 10
106.7346406980658
 20
130.0538184021569
 30
0.0
 10
104.8222669326213
 20
130.2336525051225
 30
0.0
 10
104.5408024457958
 20
130.2336525051225
 30
0.0
 10
104.1721769856939
 20
130.2336525051225
 30
0.0
 10
101.6465758193322
 20
130.6305277668397
 30
0.0
 10
101.6420971922469
 20
132.8388354296931
 30
0.0
  0
SPLINE
  5
3C6
330
3BD
100
AcDbEntity
  8
LOGO
370
     0
100
AcDbSpline
210
0.0
220
0.0
230
1.0
 70
    11
 71
     3
 72
    32
 73
    28
 74
     0
 42
0.000000001
 43
0.0000000001
 40
0.0
 40
0.0
 40
0.0
 40
0.0
 40
1.0
 40
1.0
 40
1.0
 40
2.0
 40
2.0
 40
2.0
 40
3.0
 40
3.0
 40
3.0
 40
4.0
 40
4.0
 40
4.0
 40
5.0
 40
5.0
 40
5.0
 40
6.0
 40
6.0
 40
6.0
 40
7.0
 40
7.0
 40
7.0
 40
8.0
 40
8.0
 40
8.0
 40
9.0
 40
9.0
 40
9.0
 40
9.0
 10
106.2595617172429
 20
153.4105476718098
 30
0.0
 10
104.8222669326213
 20
151.5474388043041
 30
0.0
 10
103.7177685914188
 20
149.8758773721411
 30
0.0
 10
101.9232171692965
 20
144.6141795664062
 30
0.0
 10
100.2754269116635
 20
139.7999999594306
 30
0.0
 10
99.22777268346732
 20
136.3052927937542
 30
0.0
 10
99.06964269637689
 20
132.039572749846
 30
0.0
 10
98.94665270641765
 20
128.8673267343149
 30
0.0
 10
100.8807305877373
 20
127.8027915271048
 30
0.0
 10
103.7129454545577
 20
127.8027915271048
 30
0.0
 10
104.9352661390825
 20
127.8027915271048
 30
0.0
 10
108.0151835347002
 20
127.8827177950895
 30
0.0
 10
110.2045431598849
 20
130.5926316915021
 30
0.0
 10
111.7417457794874
 20
132.4984597712065
 30
0.0
 10
113.155269389579
 20
134.475256864725
 30
0.0
 10
115.0562743324223
 20
140.9489400617108
 30
0.0
 10
116.6361961642235
 20
146.3680788349845
 30
0.0
 10
117.7282921534974
 20
149.8639917848761
 30
0.0
 10
117.6480213757369
 20
151.8595646611754
 30
0.0
 10
117.6480213757369
 20
151.8595646611754
 30
0.0
 10
117.6480213757369
 20
151.8595646611754
 30
0.0
 10
117.6480213757369
 20
151.8595646611754
 30
0.0
 10
117.13229024137
 20
155.18150017429
 30
0.0
 10
114.7162431837115
 20
155.886194920681
 30
0.0
 10
113.3351034925446
 20
155.886194920681
 30
0.0
 10
111.9829026225447
 20
155.886194920681
 30
0.0
 10
108.3414342923792
 20
156.1251124501957
 30
0.0
 10
106.2595617172429
 20
153.4105476718098
 30
0.0
  0
HATCH
  5
3C7
330
3BD
100
AcDbEntity
  8
LOGO
 62
   250
420
  2234388
100
AcDbHatch
 10
0.0
 20
0.0
 30
0.0
210
0.0
220
0.0
230
1.0
  2
SOLID
 70
     1
 71
     0
 91
        2
 92
        1
 93
        1
 72
     4
 94
        3
 73
     0
 74
     1
 95
       29
 96
       25
 40
0.0
 40
0.0
 40
0.0
 40
0.0
 40
1.0
 40
1.0
 40
1.0
 40
2.0
 40
2.0
 40
2.0
 40
3.0
 40
3.0
 40
3.0
 40
4.0
 40
4.0
 40
4.0
 40
5.0
 40
5.0
 40
5.0
 40
6.0
 40
6.0
 40
6.0
 40
7.0
 40
7.0
 40
7.0
 40
8.0
 40
8.0
 40
8.0
 40
8.0
 10
101.6420971922469
 20
132.8388354296931
 10
101.630039350094
 20
134.7164137077823
 10
102.2236296937908
 20
138.0598810818841
 10
103.7487744712405
 20
142.5378191476827
 10
105.819967243327
 20
148.5896501242061
 10
107.0602024361932
 20
150.8074318058939
 10
108.1522984254671
 20
151.8833358357054
 10
109.741177511439
 20
153.4532668840085
 10
111.8740375333931
 20
153.5290590346837
 10
112.5075910110823
 20
153.4532668840085
 10
113.4012493694975
 20
153.3490526768302
 10
114.6683563248758
 20
152.7580461564518
 10
114.7493161221879
 20
150.7838328862519
 10
114.8106388622796
 20
149.0909118479895
 10
114.3186789024427
 20
145.9191825971221
 10
112.6164561002338
 20
140.9489400617108
 10
110.6444821435766
 20
135.1746117095912
 10
109.4669477299053
 20
132.8960240524753
 10
108.5212683953448
 20
131.9072809959403
 10
106.7346406980658
 20
130.0538184021569
 10
104.8222669326213
 20
130.2336525051225
 10
104.5408024457958
 20
130.2336525051225
 10
104.1721769856939
 20
130.2336525051225
 10
101.6465758193322
 20
130.6305277668397
 10
101.6420971922469
 20
132.8388354296931
 97
        0
 92
        1
 93
        1
 72
     4
 94
        3
 73
     0
 74
     1
 95
       32
 96
       28
 40
0.0
 40
0.0
 40
0.0
 40
0.0
 40
1.0
 40
1.0
 40
1.0
 40
2.0
 40
2.0
 40
2.0
 40
3.0
 40
3.0
 40
3.0
 40
4.0
 40
4.0
 40
4.0
 40
5.0
 40
5.0
 40
5.0
 40
6.0
 40
6.0
 40
6.0
 40
7.0
 40
7.0
 40
7.0
 40
8.0
 40
8.0
 40
8.0
 40
9.0
 40
9.0
 40
9.0
 40
9.0
 10
106.2595617172429
 20
153.4105476718098
 10
104.8222669326213
 20
151.5474388043041
 10
103.7177685914188
 20
149.8758773721411
 10
101.9232171692965
 20
144.6141795664062
 10
100.2754269116635
 20
139.7999999594306
 10
99.22777268346732
 20
136.3052927937542
 10
99.06964269637689
 20
132.039572749846
 10
98.94665270641765
 20
128.8673267343149
 10
100.8807305877373
 20
127.8027915271048
 10
103.7129454545577
 20
127.8027915271048
 10
104.9352661390825
 20
127.8027915271048
 10
108.0151835347002
 20
127.8827177950895
 10
110.2045431598849
 20
130.5926316915021
 10
111.7417457794874
 20
132.4984597712065
 10
113.155269389579
 20
134.475256864725
 10
115.0562743324223
 20
140.9489400617108
 10
116.6361961642235
 20
146.3680788349845
 10
117.7282921534974
 20
149.8639917848761
 10
117.6480213757369
 20
151.8595646611754
 10
117.6480213757369
 20
151.8595646611754
 10
117.6480213757369
 20
151.8595646611754
 10
117.6480213757369
 20
151.8595646611754
 10
117.13229024137
 20
155.18150017429
 10
114.7162431837115
 20
155.886194920681
 10
113.3351034925446
 20
155.886194920681
 10
111.9829026225447
 20
155.886194920681
 10
108.3414342923792
 20
156.1251124501957
 10
106.2595617172429
 20
153.4105476718098
 97
        0
 75
     2
 76
     1
 98
        0
  0
ENDBLK
  5
3C8
330
3BD
100
AcDbEntity
  8
0
100
AcDbBlockEnd
  0
BLOCK
  5
81B4
330
81B3
100
AcDbEntity
  8
0
100
AcDbBlockBegin
  2
*D6
 70
     1
 10
0.0
 20
0.0
 30
0.0
  3
*D6
  1
*D238
  0
LINE
  5
81B6
330
81B3
100
AcDbEntity
  8
DIM
  6
Continuous
 62
     0
370
    -2
100
AcDbLine
 10
1606.647017289037
 20
998.823907610742
 30
0.0
 11
1859.15338405874
 21
998.823907610742
 31
0.0
  0
LINE
  5
81B7
330
81B3
100
AcDbEntity
  8
DIM
  6
Continuous
 62
     0
370
    -2
100
AcDbLine
 10
1755.297493227906
 20
1368.823907610742
 30
0.0
 11
1859.15338405874
 21
1368.823907610742
 31
0.0
  0
LINE
  5
81B8
330
81B3
100
AcDbEntity
  8
DIM
  6
Continuous
 62
     0
370
    -2
100
AcDbLine
 10
1859.15338405874
 20
1004.823907610742
 30
0.0
 11
1859.15338405874
 21
1362.823907610742
 31
0.0
  0
INSERT
  5
81B9
330
81B3
100
AcDbEntity
  8
DIM
 62
     0
370
    -2
100
AcDbBlockReference
  2
_DOT
 10
1859.15338405874
 20
998.823907610742
 30
0.0
 41
6.0
 42
6.0
 43
6.0
 50
270.0
  0
INSERT
  5
81BA
330
81B3
100
AcDbEntity
  8
DIM
 62
     0
370
    -2
100
AcDbBlockReference
  2
_DOT
 10
1859.15338405874
 20
1368.823907610742
 30
0.0
 41
6.0
 42
6.0
 43
6.0
 50
90.0
  0
MTEXT
  5
81BB
330
81B3
100
AcDbEntity
  8
DIM
  6
Continuous
 62
     0
100
AcDbMText
 10
1832.15338405874
 20
1183.823907610742
 30
0.0
 40
24.0
 41
0.0
 46
0.0
 71
     5
 72
     1
  1
\A1;370
  7
ＭＳ ゴシック
 11
0.0
 21
1.0
 31
0.0
 73
     1
 44
1.0
  0
POINT
  5
81BC
330
81B3
100
AcDbEntity
  8
Defpoints
 62
     0
100
AcDbPoint
 10
1581.647017289037
 20
998.823907610742
 30
0.0
  0
POINT
  5
81BD
330
81B3
100
AcDbEntity
  8
Defpoints
 62
     0
100
AcDbPoint
 10
1730.297493227906
 20
1368.823907610742
 30
0.0
  0
POINT
  5
81BE
330
81B3
100
AcDbEntity
  8
Defpoints
 62
     0
100
AcDbPoint
 10
1859.15338405874
 20
1368.823907610742
 30
0.0
  0
ENDBLK
  5
81B5
330
81B3
100
AcDbEntity
  8
0
100
AcDbBlockEnd
  0
BLOCK
  5
81C1
330
81C0
100
AcDbEntity
  8
0
100
AcDbBlockBegin
  2
*D7
 70
     1
 10
0.0
 20
0.0
 30
0.0
  3
*D7
  1
*D239
  0
LINE
  5
81C3
330
81C0
100
AcDbEntity
  8
DIM
  6
Continuous
 62
     0
370
    -2
100
AcDbLine
 10
1606.647017289037
 20
998.823907610742
 30
0.0
 11
1928.776532209973
 21
998.823907610742
 31
0.0
  0
LINE
  5
81C4
330
81C0
100
AcDbEntity
  8
DIM
  6
Continuous
 62
     0
370
    -2
100
AcDbLine
 10
1755.986596909193
 20
1393.823907610742
 30
0.0
 11
1928.776532209973
 21
1393.823907610742
 31
0.0
  0
LINE
  5
81C5
330
81C0
100
AcDbEntity
  8
DIM
  6
Continuous
 62
     0
370
    -2
100
AcDbLine
 10
1928.776532209973
 20
1004.823907610742
 30
0.0
 11
1928.776532209973
 21
1387.823907610742
 31
0.0
  0
INSERT
  5
81C6
330
81C0
100
AcDbEntity
  8
DIM
 62
     0
370
    -2
100
AcDbBlockReference
  2
_DOT
 10
1928.776532209973
 20
998.823907610742
 30
0.0
 41
6.0
 42
6.0
 43
6.0
 50
270.0
  0
INSERT
  5
81C7
330
81C0
100
AcDbEntity
  8
DIM
 62
     0
370
    -2
100
AcDbBlockReference
  2
_DOT
 10
1928.776532209973
 20
1393.823907610742
 30
0.0
 41
6.0
 42
6.0
 43
6.0
 50
90.0
  0
MTEXT
  5
81C8
330
81C0
100
AcDbEntity
  8
DIM
  6
Continuous
 62
     0
100
AcDbMText
 10
1901.776532209973
 20
1196.323907610742
 30
0.0
 40
24.0
 41
0.0
 46
0.0
 71
     5
 72
     1
  1
\A1;395
  7
ＭＳ ゴシック
 11
0.0
 21
1.0
 31
0.0
 73
     1
 44
1.0
  0
POINT
  5
81C9
330
81C0
100
AcDbEntity
  8
Defpoints
 62
     0
100
AcDbPoint
 10
1581.647017289037
 20
998.823907610742
 30
0.0
  0
POINT
  5
81CA
330
81C0
100
AcDbEntity
  8
Defpoints
 62
     0
100
AcDbPoint
 10
1730.986596909193
 20
1393.823907610742
 30
0.0
  0
POINT
  5
81CB
330
81C0
100
AcDbEntity
  8
Defpoints
 62
     0
100
AcDbPoint
 10
1928.776532209973
 20
1393.823907610742
 30
0.0
  0
ENDBLK
  5
81C2
330
81C0
100
AcDbEntity
  8
0
100
AcDbBlockEnd
  0
BLOCK
  5
858A
330
8589
100
AcDbEntity
  8
0
100
AcDbBlockBegin
  2
*D8
 70
     1
 10
0.0
 20
0.0
 30
0.0
  3
*D8
  1
*D291
  0
LINE
  5
858C
330
8589
100
AcDbEntity
  8
DIM
  6
Continuous
 62
     0
370
    -2
100
AcDbLine
 10
1451.448408072798
 20
1420.444977465926
 30
0.0
 11
1451.448408072798
 21
1482.937103455618
 31
0.0
  0
LINE
  5
858D
330
8589
100
AcDbEntity
  8
DIM
  6
Continuous
 62
     0
370
    -2
100
AcDbLine
 10
1631.448408072798
 20
1421.196788534955
 30
0.0
 11
1631.448408072798
 21
1482.937103455618
 31
0.0
  0
LINE
  5
858E
330
8589
100
AcDbEntity
  8
DIM
  6
Continuous
 62
     0
370
    -2
100
AcDbLine
 10
1457.448408072798
 20
1482.937103455618
 30
0.0
 11
1625.448408072798
 21
1482.937103455618
 31
0.0
  0
INSERT
  5
858F
330
8589
100
AcDbEntity
  8
DIM
 62
     0
370
    -2
100
AcDbBlockReference
  2
_DOT
 10
1451.448408072798
 20
1482.937103455618
 30
0.0
 41
6.0
 42
6.0
 43
6.0
 50
180.0
  0
INSERT
  5
8590
330
8589
100
AcDbEntity
  8
DIM
 62
     0
370
    -2
100
AcDbBlockReference
  2
_DOT
 10
1631.448408072798
 20
1482.937103455618
 30
0.0
 41
6.0
 42
6.0
 43
6.0
  0
MTEXT
  5
8591
330
8589
100
AcDbEntity
  8
DIM
  6
Continuous
 62
     0
100
AcDbMText
 10
1541.448408072798
 20
1509.937103455618
 30
0.0
 40
24.0
 41
0.0
 46
0.0
 71
     5
 72
     1
  1
\A1;180
  7
ＭＳ ゴシック
 73
     1
 44
1.0
  0
POINT
  5
8592
330
8589
100
AcDbEntity
  8
Defpoints
 62
     0
100
AcDbPoint
 10
1451.448408072798
 20
1395.444977465926
 30
0.0
  0
POINT
  5
8593
330
8589
100
AcDbEntity
  8
Defpoints
 62
     0
100
AcDbPoint
 10
1631.448408072798
 20
1396.196788534955
 30
0.0
  0
POINT
  5
8594
330
8589
100
AcDbEntity
  8
Defpoints
 62
     0
100
AcDbPoint
 10
1631.448408072798
 20
1482.937103455618
 30
0.0
  0
ENDBLK
  5
858B
330
8589
100
AcDbEntity
  8
0
100
AcDbBlockEnd
  0
BLOCK
  5
8624
330
8623
100
AcDbEntity
  8
0
100
AcDbBlockBegin
  2
*D9
 70
     1
 10
0.0
 20
0.0
 30
0.0
  3
*D9
  1
*D299
  0
LINE
  5
8626
330
8623
100
AcDbEntity
  8
DIM
  6
Continuous
 62
     0
370
    -2
100
AcDbLine
 10
305.5300049752859
 20
2544.504213850402
 30
0.0
 11
305.5300049752859
 21
2612.36492895304
 31
0.0
  0
LINE
  5
8627
330
8623
100
AcDbEntity
  8
DIM
  6
Continuous
 62
     0
370
    -2
100
AcDbLine
 10
925.5300049752868
 20
2411.287670579732
 30
0.0
 11
925.5300049752868
 21
2612.36492895304
 31
0.0
  0
LINE
  5
8628
330
8623
100
AcDbEntity
  8
DIM
  6
Continuous
 62
     0
370
    -2
100
AcDbLine
 10
311.5300049752859
 20
2612.36492895304
 30
0.0
 11
919.5300049752868
 21
2612.36492895304
 31
0.0
  0
INSERT
  5
8629
330
8623
100
AcDbEntity
  8
DIM
 62
     0
370
    -2
100
AcDbBlockReference
  2
_DOT
 10
305.5300049752859
 20
2612.36492895304
 30
0.0
 41
6.0
 42
6.0
 43
6.0
 50
180.0
  0
INSERT
  5
862A
330
8623
100
AcDbEntity
  8
DIM
 62
     0
370
    -2
100
AcDbBlockReference
  2
_DOT
 10
925.5300049752868
 20
2612.36492895304
 30
0.0
 41
6.0
 42
6.0
 43
6.0
  0
MTEXT
  5
862B
330
8623
100
AcDbEntity
  8
DIM
  6
Continuous
 62
     0
100
AcDbMText
 10
615.5300049752864
 20
2639.36492895304
 30
0.0
 40
24.0
 41
0.0
 46
0.0
 71
     5
 72
     1
  1
\A1;620
  7
ＭＳ ゴシック
 73
     1
 44
1.0
  0
POINT
  5
862C
330
8623
100
AcDbEntity
  8
Defpoints
 62
     0
100
AcDbPoint
 10
305.5300049752859
 20
2519.504213850402
 30
0.0
  0
POINT
  5
862D
330
8623
100
AcDbEntity
  8
Defpoints
 62
     0
100
AcDbPoint
 10
925.5300049752868
 20
2386.287670579732
 30
0.0
  0
POINT
  5
862E
330
8623
100
AcDbEntity
  8
Defpoints
 62
     0
100
AcDbPoint
 10
925.5300049752868
 20
2612.36492895304
 30
0.0
  0
ENDBLK
  5
8625
330
8623
100
AcDbEntity
  8
0
100
AcDbBlockEnd
  0
BLOCK
  5
8633
330
8632
100
AcDbEntity
  8
0
100
AcDbBlockBegin
  2
*D10
 70
     1
 10
0.0
 20
0.0
 30
0.0
  3
*D10
  1
*D300
  0
LINE
  5
8635
330
8632
100
AcDbEntity
  8
DIM
  6
Continuous
 62
     0
370
    -2
100
AcDbLine
 10
863.7632455581488
 20
2516.999888733654
 30
0.0
 11
1042.247127937808
 21
2516.999888733654
 31
0.0
  0
LINE
  5
8636
330
8632
100
AcDbEntity
  8
DIM
  6
Continuous
 62
     0
370
    -2
100
AcDbLine
 10
863.7632455581488
 20
2156.999888733654
 30
0.0
 11
1042.247127937808
 21
2156.999888733654
 31
0.0
  0
LINE
  5
8637
330
8632
100
AcDbEntity
  8
DIM
  6
Continuous
 62
     0
370
    -2
100
AcDbLine
 10
1042.247127937808
 20
2510.999888733654
 30
0.0
 11
1042.247127937808
 21
2162.999888733654
 31
0.0
  0
INSERT
  5
8638
330
8632
100
AcDbEntity
  8
DIM
 62
     0
370
    -2
100
AcDbBlockReference
  2
_DOT
 10
1042.247127937808
 20
2516.999888733654
 30
0.0
 41
6.0
 42
6.0
 43
6.0
 50
90.0
  0
INSERT
  5
8639
330
8632
100
AcDbEntity
  8
DIM
 62
     0
370
    -2
100
AcDbBlockReference
  2
_DOT
 10
1042.247127937808
 20
2156.999888733654
 30
0.0
 41
6.0
 42
6.0
 43
6.0
 50
270.0
  0
MTEXT
  5
863A
330
8632
100
AcDbEntity
  8
DIM
  6
Continuous
 62
     0
100
AcDbMText
 10
1015.247127937808
 20
2336.999888733654
 30
0.0
 40
24.0
 41
0.0
 46
0.0
 71
     5
 72
     1
  1
\A1;360
  7
ＭＳ ゴシック
 11
0.0
 21
1.0
 31
0.0
 73
     1
 44
1.0
  0
POINT
  5
863B
330
8632
100
AcDbEntity
  8
Defpoints
 62
     0
100
AcDbPoint
 10
838.7632455581488
 20
2516.999888733654
 30
0.0
  0
POINT
  5
863C
330
8632
100
AcDbEntity
  8
Defpoints
 62
     0
100
AcDbPoint
 10
838.7632455581488
 20
2156.999888733654
 30
0.0
  0
POINT
  5
863D
330
8632
100
AcDbEntity
  8
Defpoints
 62
     0
100
AcDbPoint
 10
1042.247127937808
 20
2156.999888733654
 30
0.0
  0
ENDBLK
  5
8634
330
8632
100
AcDbEntity
  8
0
100
AcDbBlockEnd
  0
BLOCK
  5
8648
330
8647
100
AcDbEntity
  8
0
100
AcDbBlockBegin
  2
*D11
 70
     1
 10
0.0
 20
0.0
 30
0.0
  3
*D11
  1
*D301
  0
LINE
  5
864A
330
8647
100
AcDbEntity
  8
DIM
  6
Continuous
 62
     0
370
    -2
100
AcDbLine
 10
280.5300049752859
 20
2519.504213850402
 30
0.0
 11
209.0893128158682
 21
2519.504213850402
 31
0.0
  0
LINE
  5
864B
330
8647
100
AcDbEntity
  8
DIM
  6
Continuous
 62
     0
370
    -2
100
AcDbLine
 10
280.5300049752859
 20
2154.504213850402
 30
0.0
 11
209.0893128158682
 21
2154.504213850402
 31
0.0
  0
LINE
  5
864C
330
8647
100
AcDbEntity
  8
DIM
  6
Continuous
 62
     0
370
    -2
100
AcDbLine
 10
209.0893128158682
 20
2513.504213850402
 30
0.0
 11
209.0893128158682
 21
2160.504213850402
 31
0.0
  0
INSERT
  5
864D
330
8647
100
AcDbEntity
  8
DIM
 62
     0
370
    -2
100
AcDbBlockReference
  2
_DOT
 10
209.0893128158682
 20
2519.504213850402
 30
0.0
 41
6.0
 42
6.0
 43
6.0
 50
90.0
  0
INSERT
  5
864E
330
8647
100
AcDbEntity
  8
DIM
 62
     0
370
    -2
100
AcDbBlockReference
  2
_DOT
 10
209.0893128158682
 20
2154.504213850402
 30
0.0
 41
6.0
 42
6.0
 43
6.0
 50
270.0
  0
MTEXT
  5
864F
330
8647
100
AcDbEntity
  8
DIM
  6
Continuous
 62
     0
100
AcDbMText
 10
182.0893128158682
 20
2337.004213850402
 30
0.0
 40
24.0
 41
0.0
 46
0.0
 71
     5
 72
     1
  1
\A1;365
  7
ＭＳ ゴシック
 11
7.786769706960002E-17
 21
1.0
 31
0.0
 73
     1
 44
1.0
  0
POINT
  5
8650
330
8647
100
AcDbEntity
  8
Defpoints
 62
     0
100
AcDbPoint
 10
305.5300049752859
 20
2519.504213850402
 30
0.0
  0
POINT
  5
8651
330
8647
100
AcDbEntity
  8
Defpoints
 62
     0
100
AcDbPoint
 10
305.5300049752859
 20
2154.504213850402
 30
0.0
  0
POINT
  5
8652
330
8647
100
AcDbEntity
  8
Defpoints
 62
     0
100
AcDbPoint
 10
209.0893128158682
 20
2154.504213850402
 30
0.0
  0
ENDBLK
  5
8649
330
8647
100
AcDbEntity
  8
0
100
AcDbBlockEnd
  0
BLOCK
  5
86C4
330
86C3
100
AcDbEntity
  8
0
100
AcDbBlockBegin
  2
*D12
 70
     1
 10
0.0
 20
0.0
 30
0.0
  3
*D12
  1
*D308
  0
LINE
  5
86C6
330
86C3
100
AcDbEntity
  8
DIM
  6
Continuous
 62
     0
370
    -2
100
AcDbLine
 10
280.5300049752859
 20
1343.682544870619
 30
0.0
 11
229.5853937494189
 21
1343.682544870619
 31
0.0
  0
LINE
  5
86C7
330
86C3
100
AcDbEntity
  8
DIM
  6
Continuous
 62
     0
370
    -2
100
AcDbLine
 10
280.5300049752859
 20
1301.682544870619
 30
0.0
 11
229.5853937494189
 21
1301.682544870619
 31
0.0
  0
LINE
  5
86C8
330
86C3
100
AcDbEntity
  8
DIM
  6
Continuous
 62
     0
370
    -2
100
AcDbLine
 10
229.5853937494189
 20
1337.682544870619
 30
0.0
 11
229.5853937494189
 21
1307.682544870619
 31
0.0
  0
INSERT
  5
86C9
330
86C3
100
AcDbEntity
  8
DIM
 62
     0
370
    -2
100
AcDbBlockReference
  2
_DOT
 10
229.5853937494189
 20
1343.682544870619
 30
0.0
 41
6.0
 42
6.0
 43
6.0
 50
90.0
  0
INSERT
  5
86CA
330
86C3
100
AcDbEntity
  8
DIM
 62
     0
370
    -2
100
AcDbBlockReference
  2
_DOT
 10
229.5853937494189
 20
1301.682544870619
 30
0.0
 41
6.0
 42
6.0
 43
6.0
 50
270.0
  0
MTEXT
  5
86CB
330
86C3
100
AcDbEntity
  8
DIM
  6
Continuous
 62
     0
100
AcDbMText
 10
202.5853937494189
 20
1322.682544870619
 30
0.0
 40
24.0
 41
0.0
 46
0.0
 71
     5
 72
     1
  1
\A1;45
  7
ＭＳ ゴシック
 11
0.0
 21
1.0
 31
0.0
 73
     1
 44
1.0
  0
POINT
  5
86CC
330
86C3
100
AcDbEntity
  8
Defpoints
 62
     0
100
AcDbPoint
 10
305.5300049752859
 20
1343.682544870619
 30
0.0
  0
POINT
  5
86CD
330
86C3
100
AcDbEntity
  8
Defpoints
 62
     0
100
AcDbPoint
 10
305.5300049752859
 20
1301.682544870619
 30
0.0
  0
POINT
  5
86CE
330
86C3
100
AcDbEntity
  8
Defpoints
 62
     0
100
AcDbPoint
 10
229.5853937494189
 20
1301.682544870619
 30
0.0
  0
ENDBLK
  5
86C5
330
86C3
100
AcDbEntity
  8
0
100
AcDbBlockEnd
  0
BLOCK
  5
86D4
330
86D3
100
AcDbEntity
  8
0
100
AcDbBlockBegin
  2
*D13
 70
     1
 10
0.0
 20
0.0
 30
0.0
  3
*D13
  1
*D309
  0
LINE
  5
86D6
330
86D3
100
AcDbEntity
  8
DIM
  6
Continuous
 62
     0
370
    -2
100
AcDbLine
 10
263.887675655099
 20
1301.682544870619
 30
0.0
 11
229.5853937494189
 21
1301.682544870619
 31
0.0
  0
LINE
  5
86D7
330
86D3
100
AcDbEntity
  8
DIM
  6
Continuous
 62
     0
370
    -2
100
AcDbLine
 10
263.887675655099
 20
1166.682544870619
 30
0.0
 11
229.5853937494189
 21
1166.682544870619
 31
0.0
  0
LINE
  5
86D8
330
86D3
100
AcDbEntity
  8
DIM
  6
Continuous
 62
     0
370
    -2
100
AcDbLine
 10
229.5853937494189
 20
1295.682544870619
 30
0.0
 11
229.5853937494189
 21
1172.682544870619
 31
0.0
  0
INSERT
  5
86D9
330
86D3
100
AcDbEntity
  8
DIM
 62
     0
370
    -2
100
AcDbBlockReference
  2
_DOT
 10
229.5853937494189
 20
1301.682544870619
 30
0.0
 41
6.0
 42
6.0
 43
6.0
 50
90.0
  0
INSERT
  5
86DA
330
86D3
100
AcDbEntity
  8
DIM
 62
     0
370
    -2
100
AcDbBlockReference
  2
_DOT
 10
229.5853937494189
 20
1166.682544870619
 30
0.0
 41
6.0
 42
6.0
 43
6.0
 50
270.0
  0
MTEXT
  5
86DB
330
86D3
100
AcDbEntity
  8
DIM
  6
Continuous
 62
     0
100
AcDbMText
 10
202.5853937494189
 20
1234.182544870619
 30
0.0
 40
24.0
 41
0.0
 46
0.0
 71
     5
 72
     1
  1
\A1;135
  7
ＭＳ ゴシック
 11
0.0
 21
1.0
 31
0.0
 73
     1
 44
1.0
  0
POINT
  5
86DC
330
86D3
100
AcDbEntity
  8
Defpoints
 62
     0
100
AcDbPoint
 10
288.887675655099
 20
1301.682544870619
 30
0.0
  0
POINT
  5
86DD
330
86D3
100
AcDbEntity
  8
Defpoints
 62
     0
100
AcDbPoint
 10
288.887675655099
 20
1166.682544870619
 30
0.0
  0
POINT
  5
86DE
330
86D3
100
AcDbEntity
  8
Defpoints
 62
     0
100
AcDbPoint
 10
229.5853937494189
 20
1166.682544870619
 30
0.0
  0
ENDBLK
  5
86D5
330
86D3
100
AcDbEntity
  8
0
100
AcDbBlockEnd
  0
BLOCK
  5
86FA
330
86F9
100
AcDbEntity
  8
0
100
AcDbBlockBegin
  2
*D14
 70
     1
 10
0.0
 20
0.0
 30
0.0
  3
*D14
  1
*D311
  0
LINE
  5
86FC
330
86F9
100
AcDbEntity
  8
DIM
  6
Continuous
 62
     0
370
    -2
100
AcDbLine
 10
280.5300049752859
 20
1343.682544870619
 30
0.0
 11
229.5853937494189
 21
1343.682544870619
 31
0.0
  0
LINE
  5
86FD
330
86F9
100
AcDbEntity
  8
DIM
  6
Continuous
 62
     0
370
    -2
100
AcDbLine
 10
280.5300049752859
 20
1378.682544870619
 30
0.0
 11
229.5853937494189
 21
1378.682544870619
 31
0.0
  0
LINE
  5
86FE
330
86F9
100
AcDbEntity
  8
DIM
  6
Continuous
 62
     0
370
    -2
100
AcDbLine
 10
229.5853937494189
 20
1349.682544870619
 30
0.0
 11
229.5853937494189
 21
1372.682544870619
 31
0.0
  0
INSERT
  5
86FF
330
86F9
100
AcDbEntity
  8
DIM
 62
     0
370
    -2
100
AcDbBlockReference
  2
_DOT
 10
229.5853937494189
 20
1343.682544870619
 30
0.0
 41
6.0
 42
6.0
 43
6.0
 50
270.0
  0
INSERT
  5
8700
330
86F9
100
AcDbEntity
  8
DIM
 62
     0
370
    -2
100
AcDbBlockReference
  2
_DOT
 10
229.5853937494189
 20
1378.682544870619
 30
0.0
 41
6.0
 42
6.0
 43
6.0
 50
90.0
  0
MTEXT
  5
8701
330
86F9
100
AcDbEntity
  8
DIM
  6
Continuous
 62
     0
100
AcDbMText
 10
202.5853937494189
 20
1361.182544870619
 30
0.0
 40
24.0
 41
0.0
 46
0.0
 71
     5
 72
     1
  1
\A1;35
  7
ＭＳ ゴシック
 11
0.0
 21
1.0
 31
0.0
 73
     1
 44
1.0
  0
POINT
  5
8702
330
86F9
100
AcDbEntity
  8
Defpoints
 62
     0
100
AcDbPoint
 10
305.5300049752859
 20
1343.682544870619
 30
0.0
  0
POINT
  5
8703
330
86F9
100
AcDbEntity
  8
Defpoints
 62
     0
100
AcDbPoint
 10
305.5300049752859
 20
1378.682544870619
 30
0.0
  0
POINT
  5
8704
330
86F9
100
AcDbEntity
  8
Defpoints
 62
     0
100
AcDbPoint
 10
229.5853937494189
 20
1378.682544870619
 30
0.0
  0
ENDBLK
  5
86FB
330
86F9
100
AcDbEntity
  8
0
100
AcDbBlockEnd
  0
BLOCK
  5
878C
330
878B
100
AcDbEntity
  8
0
100
AcDbBlockBegin
  2
*D15
 70
     1
 10
0.0
 20
0.0
 30
0.0
  3
*D15
  1
*D316
  0
LINE
  5
878E
330
878B
100
AcDbEntity
  8
DIM
  6
Continuous
 62
     0
370
    -2
100
AcDbLine
 10
1340.948412701541
 20
1343.68254487062
 30
0.0
 11
1272.4481273626
 21
1343.68254487062
 31
0.0
  0
LINE
  5
878F
330
878B
100
AcDbEntity
  8
DIM
  6
Continuous
 62
     0
370
    -2
100
AcDbLine
 10
1340.948412701541
 20
1263.68254487062
 30
0.0
 11
1272.4481273626
 21
1263.68254487062
 31
0.0
  0
LINE
  5
8790
330
878B
100
AcDbEntity
  8
DIM
  6
Continuous
 62
     0
370
    -2
100
AcDbLine
 10
1272.4481273626
 20
1337.68254487062
 30
0.0
 11
1272.4481273626
 21
1269.68254487062
 31
0.0
  0
INSERT
  5
8791
330
878B
100
AcDbEntity
  8
DIM
 62
     0
370
    -2
100
AcDbBlockReference
  2
_DOT
 10
1272.4481273626
 20
1343.68254487062
 30
0.0
 41
6.0
 42
6.0
 43
6.0
 50
90.0
  0
INSERT
  5
8792
330
878B
100
AcDbEntity
  8
DIM
 62
     0
370
    -2
100
AcDbBlockReference
  2
_DOT
 10
1272.4481273626
 20
1263.68254487062
 30
0.0
 41
6.0
 42
6.0
 43
6.0
 50
270.0
  0
MTEXT
  5
8793
330
878B
100
AcDbEntity
  8
DIM
  6
Continuous
 62
     0
100
AcDbMText
 10
1245.4481273626
 20
1303.68254487062
 30
0.0
 40
24.0
 41
0.0
 46
0.0
 71
     5
 72
     1
  1
\A1;80
  7
ＭＳ ゴシック
 11
0.0
 21
1.0
 31
0.0
 73
     1
 44
1.0
  0
POINT
  5
8794
330
878B
100
AcDbEntity
  8
Defpoints
 62
     0
100
AcDbPoint
 10
1365.948412701541
 20
1343.68254487062
 30
0.0
  0
POINT
  5
8795
330
878B
100
AcDbEntity
  8
Defpoints
 62
     0
100
AcDbPoint
 10
1365.948412701541
 20
1263.68254487062
 30
0.0
  0
POINT
  5
8796
330
878B
100
AcDbEntity
  8
Defpoints
 62
     0
100
AcDbPoint
 10
1272.4481273626
 20
1263.68254487062
 30
0.0
  0
ENDBLK
  5
878D
330
878B
100
AcDbEntity
  8
0
100
AcDbBlockEnd
  0
BLOCK
  5
8BA7
330
8BA6
100
AcDbEntity
  8
0
100
AcDbBlockBegin
  2
*D16
 70
     1
 10
0.0
 20
0.0
 30
0.0
  3
*D16
  1
*D330
  0
LINE
  5
8BA9
330
8BA6
100
AcDbEntity
  8
DIM
  6
Continuous
 62
     0
370
    -2
100
AcDbLine
 10
653.6170427644988
 20
998.8239076107411
 30
0.0
 11
1024.996716543836
 21
998.8239076107411
 31
0.0
  0
LINE
  5
8BAA
330
8BA6
100
AcDbEntity
  8
DIM
  6
Continuous
 62
     0
370
    -2
100
AcDbLine
 10
955.4344521277931
 20
1343.682544870619
 30
0.0
 11
1024.996716543836
 21
1343.682544870619
 31
0.0
  0
LINE
  5
8BAB
330
8BA6
100
AcDbEntity
  8
DIM
  6
Continuous
 62
     0
370
    -2
100
AcDbLine
 10
1024.996716543836
 20
1004.823907610741
 30
0.0
 11
1024.996716543836
 21
1337.682544870619
 31
0.0
  0
INSERT
  5
8BAC
330
8BA6
100
AcDbEntity
  8
DIM
 62
     0
370
    -2
100
AcDbBlockReference
  2
_DOT
 10
1024.996716543836
 20
998.8239076107411
 30
0.0
 41
6.0
 42
6.0
 43
6.0
 50
270.0
  0
INSERT
  5
8BAD
330
8BA6
100
AcDbEntity
  8
DIM
 62
     0
370
    -2
100
AcDbBlockReference
  2
_DOT
 10
1024.996716543836
 20
1343.682544870619
 30
0.0
 41
6.0
 42
6.0
 43
6.0
 50
90.0
  0
MTEXT
  5
8BAE
330
8BA6
100
AcDbEntity
  8
DIM
  6
Continuous
 62
     0
100
AcDbMText
 10
997.9967165438361
 20
1171.25322624068
 30
0.0
 40
24.0
 41
0.0
 46
0.0
 71
     5
 72
     1
  1
\A1;345
  7
ＭＳ ゴシック
 11
0.0
 21
1.0
 31
0.0
 73
     1
 44
1.0
  0
POINT
  5
8BAF
330
8BA6
100
AcDbEntity
  8
Defpoints
 62
     0
100
AcDbPoint
 10
628.6170427644988
 20
998.8239076107411
 30
0.0
  0
POINT
  5
8BB0
330
8BA6
100
AcDbEntity
  8
Defpoints
 62
     0
100
AcDbPoint
 10
930.4344521277931
 20
1343.682544870619
 30
0.0
  0
POINT
  5
8BB1
330
8BA6
100
AcDbEntity
  8
Defpoints
 62
     0
100
AcDbPoint
 10
1024.996716543836
 20
1343.682544870619
 30
0.0
  0
ENDBLK
  5
8BA8
330
8BA6
100
AcDbEntity
  8
0
100
AcDbBlockEnd
  0
BLOCK
  5
9905
330
9904
100
AcDbEntity
  8
0
100
AcDbBlockBegin
  2
*D17
 70
     1
 10
0.0
 20
0.0
 30
0.0
  3
*D17
  1

  0
LINE
  5
9907
330
9904
100
AcDbEntity
  8
MODEL
  6
Continuous
 62
     0
370
    -2
100
AcDbLine
 10
1666.448408072798
 20
1263.68254487062
 30
0.0
 11
1799.27747664868
 21
1263.68254487062
 31
0.0
  0
LINE
  5
9908
330
9904
100
AcDbEntity
  8
MODEL
  6
Continuous
 62
     0
370
    -2
100
AcDbLine
 10
1755.297493227906
 20
1368.823907610742
 30
0.0
 11
1799.27747664868
 21
1368.823907610742
 31
0.0
  0
LINE
  5
9909
330
9904
100
AcDbEntity
  8
MODEL
  6
Continuous
 62
     0
370
    -2
100
AcDbLine
 10
1799.27747664868
 20
1269.68254487062
 30
0.0
 11
1799.27747664868
 21
1362.823907610742
 31
0.0
  0
INSERT
  5
990A
330
9904
100
AcDbEntity
  8
MODEL
 62
     0
370
    -2
100
AcDbBlockReference
  2
_DOT
 10
1799.27747664868
 20
1263.68254487062
 30
0.0
 41
6.0
 42
6.0
 43
6.0
 50
270.0
  0
INSERT
  5
990B
330
9904
100
AcDbEntity
  8
MODEL
 62
     0
370
    -2
100
AcDbBlockReference
  2
_DOT
 10
1799.27747664868
 20
1368.823907610742
 30
0.0
 41
6.0
 42
6.0
 43
6.0
 50
90.0
  0
MTEXT
  5
990C
330
9904
100
AcDbEntity
  8
MODEL
  6
Continuous
 62
     0
100
AcDbMText
 10
1772.27747664868
 20
1316.253226240681
 30
0.0
 40
24.0
 41
0.0
 46
0.0
 71
     5
 72
     1
  1
\A1;105
  7
ＭＳ ゴシック
 11
0.0
 21
1.0
 31
0.0
 73
     1
 44
1.0
  0
POINT
  5
990D
330
9904
100
AcDbEntity
  8
Defpoints
 62
     0
100
AcDbPoint
 10
1641.448408072798
 20
1263.68254487062
 30
0.0
  0
POINT
  5
990E
330
9904
100
AcDbEntity
  8
Defpoints
 62
     0
100
AcDbPoint
 10
1730.297493227906
 20
1368.823907610742
 30
0.0
  0
POINT
  5
990F
330
9904
100
AcDbEntity
  8
Defpoints
 62
     0
100
AcDbPoint
 10
1799.27747664868
 20
1368.823907610742
 30
0.0
  0
ENDBLK
  5
9906
330
9904
100
AcDbEntity
  8
0
100
AcDbBlockEnd
  0
ENDSEC
  0
SECTION
  2
ENTITIES
  0
POINT
  5
3B96
330
A
100
AcDbEntity
  8
_0-7_
 62
     9
100
AcDbPoint
 10
5611.355377587607
 20
1006.191153304715
 30
0.0
  0
MTEXT
  5
6948
330
A
100
AcDbEntity
  8
MODEL
390
1D
100
AcDbMText
 10
79.25470553268497
 20
348.7848719762269
 30
0.0
 40
16.28841145833333
 41
0.0
 46
0.0
 71
     1
 72
     1
  1
品名
  7
ＭＳ ゴシック
 73
     1
 44
0.7828267384257843
  0
MTEXT
  5
6949
330
A
100
AcDbEntity
  8
MODEL
390
1D
100
AcDbMText
 10
79.25470553268497
 20
263.7848719762269
 30
0.0
 40
16.28841145833333
 41
0.0
 46
0.0
 71
     1
 72
     1
  1
仕様
  7
ＭＳ ゴシック
 73
     1
 44
0.7828267384257843
  0
LINE
  5
694A
330
A
100
AcDbEntity
  8
MODEL
390
1D
100
AcDbLine
 10
2022.254705532203
 20
272.1997938512272
 30
0.0
 11
72.25470553220293
 21
272.1997938512272
 31
0.0
  0
LWPOLYLINE
  5
694B
330
A
100
AcDbEntity
  8
MODEL
390
1D
100
AcDbPolyline
 90
        5
 70
   128
 43
0.0
 10
2022.254705532203
 20
2902.199793851227
 10
72.25470553220293
 20
2902.199793851227
 10
72.25470553220293
 20
102.1997938512272
 10
2022.254705532203
 20
102.1997938512272
 10
2022.254705532203
 20
2902.199793851227
  0
LINE
  5
694C
330
A
100
AcDbEntity
  8
MODEL
390
1D
100
AcDbLine
 10
2022.254705532203
 20
357.1997938512272
 30
0.0
 11
72.25470553220293
 21
357.1997938512272
 31
0.0
  0
LINE
  5
694D
330
A
100
AcDbEntity
  8
MODEL
390
1D
100
AcDbLine
 10
2022.254705532685
 20
187.1997938512272
 30
0.0
 11
1269.254705532685
 21
187.1997938512272
 31
0.0
  0
MTEXT
  5
694E
330
A
100
AcDbEntity
  8
MODEL
390
1D
100
AcDbMText
 10
72.25470553288915
 20
90.34597179437014
 30
0.0
 40
21.71788194444445
 41
0.0
 46
21.71788194444445
 71
     1
 72
     1
  1
{160122N}
  7
ＭＳ ゴシック
 73
     1
 44
0.7828267384257843
1001
ACAD
1000
ACAD_MTEXT_DEFINED_HEIGHT_BEGIN
1070
    46
1040
21.71788194444445
1000
ACAD_MTEXT_DEFINED_HEIGHT_END
  0
MTEXT
  5
694F
330
A
100
AcDbEntity
  8
MODEL
390
1D
100
AcDbMText
 10
1299.126111784947
 20
157.2893993779189
 30
0.0
 40
24.4326171875
 41
0.0
 46
0.0
 71
     1
 72
     1
  1
大洋金物株式会社 ティーフォルム事業部
  7
ＭＳ ゴシック
 73
     1
 44
0.7828267384257843
  0
MTEXT
  5
6950
330
A
100
AcDbEntity
  8
MODEL
390
1D
100
AcDbMText
 10
1831.254705532946
 20
235.202411038727
 30
0.0
 40
24.4326171875
 41
0.0
 46
24.4326171875
 71
     1
 72
     1
  1
{1:10}
  7
ＭＳ ゴシック
 73
     1
 44
0.7828267384257843
1001
ACAD
1000
ACAD_MTEXT_DEFINED_HEIGHT_BEGIN
1070
    46
1040
24.4326171875
1000
ACAD_MTEXT_DEFINED_HEIGHT_END
  0
MTEXT
  5
6951
330
A
100
AcDbEntity
  8
MODEL
390
1D
100
AcDbMText
 10
1778.254705532946
 20
263.7848719762269
 30
0.0
 40
16.28841145833333
 41
0.0
 46
0.0
 71
     1
 72
     1
  1
縮尺
  7
ＭＳ ゴシック
 73
     1
 44
0.7828267384257843
  0
LINE
  5
6952
330
A
100
AcDbEntity
  8
MODEL
390
1D
100
AcDbLine
 10
1771.254705532946
 20
187.1997938512272
 30
0.0
 11
1771.254705532946
 21
272.1997938512272
 31
0.0
  0
MTEXT
  5
6953
330
A
100
AcDbEntity
  8
MODEL
390
1D
100
AcDbMText
 10
1527.254705532946
 20
263.7848719762269
 30
0.0
 40
16.28841145833333
 41
0.0
 46
0.0
 71
     1
 72
     1
  1
容量
  7
ＭＳ ゴシック
 73
     1
 44
0.7828267384257843
  0
LINE
  5
6954
330
A
100
AcDbEntity
  8
MODEL
390
1D
100
AcDbLine
 10
1520.254705532946
 20
187.1997938512272
 30
0.0
 11
1520.254705532946
 21
272.1997938512272
 31
0.0
  0
MTEXT
  5
6955
330
A
100
AcDbEntity
  8
MODEL
390
1D
100
AcDbMText
 10
1276.254705532946
 20
348.7848719762269
 30
0.0
 40
16.28841145833333
 41
0.0
 46
0.0
 71
     1
 72
     1
  1
品番
  7
ＭＳ ゴシック
 73
     1
 44
0.7828267384257843
  0
MTEXT
  5
6956
330
A
100
AcDbEntity
  8
MODEL
390
1D
100
AcDbMText
 10
1276.254705532946
 20
263.7848719762269
 30
0.0
 40
16.28841145833333
 41
0.0
 46
0.0
 71
     1
 72
     1
  1
重量
  7
ＭＳ ゴシック
 73
     1
 44
0.7828267384257843
  0
MTEXT
  5
6957
330
A
100
AcDbEntity
  8
MODEL
390
1D
100
AcDbMText
 10
1329.254705532946
 20
320.202411038727
 30
0.0
 40
24.4326171875
 41
0.0
 46
24.4326171875
 71
     1
 72
     1
  1
{FAA71-2210}
  7
ＭＳ ゴシック
 73
     1
 44
0.7828267384257843
1001
ACAD
1000
ACAD_MTEXT_DEFINED_HEIGHT_BEGIN
1070
    46
1040
24.4326171875
1000
ACAD_MTEXT_DEFINED_HEIGHT_END
  0
LINE
  5
6958
330
A
100
AcDbEntity
  8
MODEL
390
1D
100
AcDbLine
 10
1269.254705532946
 20
102.1997938512272
 30
0.0
 11
1269.254705532946
 21
357.1997938512272
 31
0.0
  0
MTEXT
  5
6959
330
A
100
AcDbEntity
  8
MODEL
390
1D
100
AcDbMText
 10
132.254705532685
 20
320.202411038727
 30
0.0
 40
24.4326171875
 41
0.0
 46
24.4326171875
 71
     1
 72
     1
  1
{壁掛便器 -DURAVIT,Starck3-}
  7
ＭＳ ゴシック
 73
     1
 44
0.7828267384257843
1001
ACAD
1000
ACAD_MTEXT_DEFINED_HEIGHT_BEGIN
1070
    46
1040
24.4326171875
1000
ACAD_MTEXT_DEFINED_HEIGHT_END
  0
MTEXT
  5
695A
330
A
100
AcDbEntity
  8
MODEL
390
1D
100
AcDbMText
 10
132.254705532685
 20
237.2474089396842
 30
0.0
 40
24.4326171875
 41
0.0
 46
80.02949492370524
 71
     1
 72
     1
  1
{ウォッシュダウン式/ソフトクローズ便座,壁固定金具付属/\P陶器/ホワイト}
  7
ＭＳ ゴシック
 73
     1
 44
1.304711230709641
1001
ACAD
1000
ACAD_MTEXT_DEFINED_HEIGHT_BEGIN
1070
    46
1040
80.02949492370524
1000
ACAD_MTEXT_DEFINED_HEIGHT_END
  0
INSERT
  5
695B
330
A
100
AcDbEntity
  8
MODEL
100
AcDbBlockReference
  2
名称未設定-1
 10
1870.813956087109
 20
30.99988610145192
 30
0.0
 41
0.762
 42
0.762
 43
0.762
  0
LWPOLYLINE
  5
695C
330
A
100
AcDbEntity
  8
TEMPLATE
  6
Continuous
100
AcDbPolyline
 90
        4
 70
     1
 43
0.0
 10
0.0
 20
0.0
 10
0.0
 20
2970.0
 10
2100.0
 20
2970.0
 10
2100.0
 20
0.0
  0
LINE
  5
7055
330
A
100
AcDbEntity
  8
MODEL
100
AcDbLine
 10
1367.468451373812
 20
1302.228662592135
 30
0.0
 11
1715.428364771784
 21
1302.228662592135
 31
0.0
  0
LINE
  5
7056
330
A
100
AcDbEntity
  8
MODEL GRAY
  6
CENTER2
100
AcDbLine
 10
1541.448408072798
 20
1222.68254487062
 30
0.0
 11
1541.448408072798
 21
1110.68254487062
 31
0.0
  0
LINE
  5
7057
330
A
100
AcDbEntity
  8
MODEL GRAY
  6
CENTER2
100
AcDbLine
 10
1508.948408072798
 20
1301.68254487062
 30
0.0
 11
1573.948408072798
 21
1301.68254487062
 31
0.0
  0
LINE
  5
7058
330
A
100
AcDbEntity
  8
MODEL GRAY
  6
CENTER2
100
AcDbLine
 10
1485.448408072798
 20
1166.68254487062
 30
0.0
 11
1597.448408072798
 21
1166.68254487062
 31
0.0
  0
LINE
  5
7059
330
A
100
AcDbEntity
  8
MODEL GRAY
  6
CENTER2
100
AcDbLine
 10
1441.448408072798
 20
1263.68254487062
 30
0.0
 11
1461.448408072798
 21
1263.68254487062
 31
0.0
  0
LINE
  5
705A
330
A
100
AcDbEntity
  8
MODEL GRAY
  6
CENTER2
100
AcDbLine
 10
1451.448408072798
 20
1273.68254487062
 30
0.0
 11
1451.448408072798
 21
1253.68254487062
 31
0.0
  0
LINE
  5
705F
330
A
100
AcDbEntity
  8
MODEL GRAY
  6
CENTER2
100
AcDbLine
 10
1451.448408072798
 20
1279.777148543573
 30
0.0
 11
1451.448408072798
 21
1249.091563335723
 31
0.0
  0
LINE
  5
7069
102
{ACAD_REACTORS
330
9903
102
}
330
A
100
AcDbEntity
  8
MODEL GRAY
  6
CENTER2
100
AcDbLine
 10
1641.448408072798
 20
1263.68254487062
 30
0.0
 11
1621.448408072798
 21
1263.68254487062
 31
0.0
  0
LINE
  5
706A
330
A
100
AcDbEntity
  8
MODEL GRAY
  6
CENTER2
100
AcDbLine
 10
1631.448408072798
 20
1273.68254487062
 30
0.0
 11
1631.448408072798
 21
1253.68254487062
 31
0.0
  0
LINE
  5
706D
330
A
100
AcDbEntity
  8
MODEL GRAY
  6
CENTER2
100
AcDbLine
 10
1631.448408072798
 20
1279.777148543573
 30
0.0
 11
1631.448408072798
 21
1249.091563335723
 31
0.0
  0
ARC
  5
71F8
330
A
100
AcDbEntity
  8
MODEL
100
AcDbCircle
 10
1718.960250980828
 20
1298.689484748855
 30
0.0
 40
5.000000000000309
100
AcDbArc
 50
90.0
 51
180.0408843671681
  0
ARC
  5
71F9
330
A
100
AcDbEntity
  8
MODEL
100
AcDbCircle
 10
1718.960250980828
 20
1308.689484748855
 30
0.0
 40
5.000000000000009
100
AcDbArc
 50
270.0
 51
356.0557215618636
  0
ARC
  5
71FF
330
A
100
AcDbEntity
  8
MODEL
100
AcDbCircle
 10
1363.948432112938
 20
1308.689494706607
 30
0.0
 40
5.000024040150278
100
AcDbArc
 50
180.0001141068854
 51
269.8640153165582
  0
ARC
  5
7200
330
A
100
AcDbEntity
  8
MODEL
100
AcDbCircle
 10
1363.936565164768
 20
1298.689484748855
 30
0.0
 40
4.99999999999994
100
AcDbArc
 50
359.9591156316671
 51
90.0000000004221
  0
ARC
  5
7208
330
A
100
AcDbEntity
  8
MODEL
100
AcDbCircle
 10
1718.949954558757
 20
1298.692856673929
 30
0.0
 40
4.989688315679776
100
AcDbArc
 50
90.0088433095252
 51
179.961767340836
  0
ARC
  5
7209
330
A
100
AcDbEntity
  8
MODEL
100
AcDbCircle
 10
1718.94841270154
 20
1308.682544870619
 30
0.0
 40
4.999999999999975
100
AcDbArc
 50
270.0088433106525
 51
0.000000000005211
  0
LINE
  5
720A
330
A
100
AcDbEntity
  8
MODEL
100
AcDbLine
 10
1723.94841270154
 20
1308.68254487062
 30
0.0
 11
1723.94841270154
 21
1336.68254487062
 31
0.0
  0
ARC
  5
720B
330
A
100
AcDbEntity
  8
MODEL
100
AcDbCircle
 10
1716.94841270154
 20
1336.68254487062
 30
0.0
 40
7.0
100
AcDbArc
 50
0.0
 51
90.0
  0
ARC
  5
720D
330
A
100
AcDbEntity
  8
MODEL
100
AcDbCircle
 10
1365.948412701541
 20
1336.68254487062
 30
0.0
 40
7.0
100
AcDbArc
 50
90.0
 51
180.0
  0
LINE
  5
720E
330
A
100
AcDbEntity
  8
MODEL
100
AcDbLine
 10
1358.948412701541
 20
1336.68254487062
 30
0.0
 11
1358.948412701541
 21
1308.68254487062
 31
0.0
  0
ARC
  5
720F
330
A
100
AcDbEntity
  8
MODEL
100
AcDbCircle
 10
1363.948412701541
 20
1308.68254487062
 30
0.0
 40
5.000000000000007
100
AcDbArc
 50
180.0
 51
270.0
  0
ARC
  5
7210
330
A
100
AcDbEntity
  8
MODEL
100
AcDbCircle
 10
1363.948410314991
 20
1298.694398174086
 30
0.0
 40
4.988146696534042
100
AcDbArc
 50
0.0380451696363963
 51
89.9999725871699
  0
ARC
  5
7211
330
A
100
AcDbEntity
  8
MODEL
100
AcDbCircle
 10
1840.402063679572
 20
1279.322631208655
 30
0.0
 40
471.8629613812209
100
AcDbArc
 50
177.6481600687376
 51
212.3420284825814
  0
ARC
  5
7212
330
A
100
AcDbEntity
  8
MODEL
100
AcDbCircle
 10
1458.620672818704
 20
1037.613866862983
 30
0.0
 40
20.00000000000058
100
AcDbArc
 50
212.4281079080382
 51
270.0
  0
LINE
  5
7213
330
A
100
AcDbEntity
  8
MODEL
100
AcDbLine
 10
1458.620672818704
 20
1017.613866862983
 30
0.0
 11
1486.057640564974
 21
1017.613866862983
 31
0.0
  0
ARC
  5
7214
330
A
100
AcDbEntity
  8
MODEL
100
AcDbCircle
 10
1541.448408072805
 20
1063.647527878618
 30
0.0
 40
64.82362026787578
100
AcDbArc
 50
225.2460754074316
 51
314.7539245925685
  0
LINE
  5
7215
330
A
100
AcDbEntity
  8
MODEL
100
AcDbLine
 10
1596.839175580636
 20
1017.613866862983
 30
0.0
 11
1624.276143326893
 21
1017.613866862983
 31
0.0
  0
ARC
  5
7216
330
A
100
AcDbEntity
  8
MODEL
100
AcDbCircle
 10
1624.276143326893
 20
1037.613866862982
 30
0.0
 40
19.99999999999955
100
AcDbArc
 50
270.0
 51
327.571893257063
  0
ARC
  5
7217
330
A
100
AcDbEntity
  8
MODEL
100
AcDbCircle
 10
1242.490755024846
 20
1279.324459873612
 30
0.0
 40
471.8673169838717
100
AcDbArc
 50
327.6580436360829
 51
2.3528439668737
  0
LINE
  5
721A
330
A
100
AcDbEntity
  8
MODEL
  6
Continuous
100
AcDbLine
 10
1365.948412701541
 20
1343.68254487062
 30
0.0
 11
1716.94841270154
 21
1343.68254487062
 31
0.0
  0
LINE
  5
721B
330
A
100
AcDbEntity
  8
MODEL
100
AcDbLine
 10
1486.057640564996
 20
1017.613866862982
 30
0.0
 11
1596.839175580659
 21
1017.613866862982
 31
0.0
  0
ARC
  5
7290
330
A
100
AcDbEntity
  8
MODEL GRAY
  6
AM_DIN_F_W050
 48
4.0
100
AcDbCircle
 10
384.4782888373788
 20
1034.738226639213
 30
0.0
 40
7.0
100
AcDbArc
 50
270.0
 51
0.0
  0
LINE
  5
7291
330
A
100
AcDbEntity
  8
MODEL
100
AcDbLine
 10
914.5957149752858
 20
1301.682544870619
 30
0.0
 11
914.5744651983919
 21
1301.682544870619
 31
0.0
  0
LINE
  5
7292
330
A
100
AcDbEntity
  8
MODEL GRAY
  6
AM_DIN_F_W050
 48
4.0
100
AcDbLine
 10
461.8992613257001
 20
1274.182544870619
 30
0.0
 11
321.3441477376291
 21
1274.182544870619
 31
0.0
  0
LINE
  5
7293
330
A
100
AcDbEntity
  8
MODEL GRAY
  6
AM_DIN_F_W050
 48
4.0
100
AcDbLine
 10
465.896394175435
 20
1217.682544870619
 30
0.0
 11
321.3441477376291
 21
1217.682544870619
 31
0.0
  0
LINE
  5
7294
102
{ACAD_REACTORS
330
86C2
102
}
330
A
100
AcDbEntity
  8
MODEL
100
AcDbLine
 10
914.5957149752858
 20
1301.682544870619
 30
0.0
 11
305.5300049752859
 21
1301.682544870619
 31
0.0
  0
LINE
  5
7295
102
{ACAD_REACTORS
330
86D2
102
}
330
A
100
AcDbEntity
  8
MODEL GRAY
  6
CENTER2
100
AcDbLine
 10
391.4782888373788
 20
1166.682544870619
 30
0.0
 11
288.887675655099
 21
1166.682544870619
 31
0.0
  0
ARC
  5
7296
330
A
100
AcDbEntity
  8
MODEL GRAY
  6
AM_DIN_F_W050
 48
4.0
100
AcDbCircle
 10
386.4782888373788
 20
1110.682544870619
 30
0.0
 40
5.0
100
AcDbArc
 50
0.0
 51
90.0
  0
LINE
  5
7297
330
A
100
AcDbEntity
  8
MODEL GRAY
  6
AM_DIN_F_W050
 48
4.0
100
AcDbLine
 10
391.4782888373788
 20
1081.182113572113
 30
0.0
 11
313.4492074606778
 21
1074.685001149955
 31
0.0
  0
LINE
  5
7298
330
A
100
AcDbEntity
  8
MODEL GRAY
  6
AM_DIN_F_W050
 48
4.0
100
AcDbLine
 10
506.9269309887632
 20
1337.898082114288
 30
0.0
 11
514.1061682549539
 21
1297.182604327814
 31
0.0
  0
ARC
  5
7299
330
A
100
AcDbEntity
  8
MODEL GRAY
  6
AM_DIN_F_W050
 48
4.0
100
AcDbCircle
 10
504.2580907248321
 20
1295.446122551145
 30
0.0
 40
10.0
100
AcDbArc
 50
297.3817946840763
 51
9.99999999999838
1001
GENIUS_GENODEF_13
1002
{
1000
HIER
1070
     0
1002
}
1002
{
1000
MANEDIT
1070
     0
1002
}
1002
{
1000
NOSEL
1070
     0
1002
}
1002
{
1000
BEHIND
1070
     0
1002
}
1002
{
1000
OTHER
1070
     0
1002
}
1002
{
1000
REACTOR
1002
}
1001
GENIUS_GENOBJ-N-FIL_13
1002
{
1000
OWNER
1000
GEN
1002
}
  0
LINE
  5
729A
330
A
100
AcDbEntity
  8
MODEL GRAY
  6
AM_DIN_F_W050
 48
4.0
100
AcDbLine
 10
870.2425153158279
 20
1336.682544870619
 30
0.0
 11
870.2425153158279
 21
1308.682544870619
 31
0.0
  0
ARC
  5
729B
330
A
100
AcDbEntity
  8
MODEL GRAY
  6
AM_DIN_F_W050
 48
4.0
100
AcDbCircle
 10
739.413595977001
 20
1152.415094380644
 30
0.0
 40
25.86178011876097
100
AcDbArc
 50
95.29583726389069
 51
167.8059032869621
  0
ARC
  5
729C
330
A
100
AcDbEntity
  8
MODEL GRAY
  6
AM_DIN_F_W050
 48
4.0
100
AcDbCircle
 10
715.3943684453798
 20
1394.182281339978
 30
0.0
 40
217.0962444769091
100
AcDbArc
 50
275.7186422625257
 51
333.449447759309
  0
ARC
  5
729D
330
A
100
AcDbEntity
  8
MODEL GRAY
  6
AM_DIN_F_W050
 48
4.0
100
AcDbCircle
 10
877.2425153158279
 20
1308.682544870619
 30
0.0
 40
7.0
100
AcDbArc
 50
180.0
 51
270.0
  0
ARC
  5
729E
330
A
100
AcDbEntity
  8
MODEL GRAY
  6
AM_DIN_F_W050
 48
4.0
100
AcDbCircle
 10
367.4822899564419
 20
1063.223924974262
 30
0.0
 40
196.5307138428585
100
AcDbArc
 50
4.012706294515751
 51
45.4378290736563
  0
LINE
  5
729F
330
A
100
AcDbEntity
  8
MODEL GRAY
  6
AM_DIN_F_W050
 48
4.0
100
AcDbLine
 10
391.4782888373788
 20
1110.682544870619
 30
0.0
 11
391.4782888373788
 21
1034.738226639213
 31
0.0
  0
ARC
  5
72A0
330
A
100
AcDbEntity
  8
MODEL GRAY
  6
AM_DIN_F_W050
 48
4.0
100
AcDbCircle
 10
565.6172406580981
 20
1089.617637948014
 30
0.0
 40
91.25311372188781
100
AcDbArc
 50
178.530000997384
 51
232.0973337135263
  0
ARC
  5
72A1
330
A
100
AcDbEntity
  8
MODEL GRAY
  6
AM_DIN_F_W050
 48
4.0
100
AcDbCircle
 10
464.3974498818202
 20
1092.215135509911
 30
0.0
 40
10.0
100
AcDbArc
 50
358.530000997384
 51
90.0
1001
GENIUS_GENOBJ-N-FIL_13
1002
{
1000
OWNER
1000
GEN
1002
}
1001
GENIUS_GENODEF_13
1002
{
1000
HIER
1070
     0
1002
}
1002
{
1000
MANEDIT
1070
     0
1002
}
1002
{
1000
NOSEL
1070
     0
1002
}
1002
{
1000
BEHIND
1070
     0
1002
}
1002
{
1000
OTHER
1070
     0
1002
}
1002
{
1000
REACTOR
1002
}
  0
ARC
  5
72A2
330
A
100
AcDbEntity
  8
MODEL GRAY
  6
AM_DIN_F_W050
 48
4.0
100
AcDbCircle
 10
559.590014638904
 20
1111.690323755523
 30
0.0
 40
116.5113974351343
100
AcDbArc
 50
306.1530268079214
 51
342.5519313738543
  0
ARC
  5
72A3
330
A
100
AcDbEntity
  8
MODEL GRAY
  6
AM_DIN_F_W050
 48
4.0
100
AcDbCircle
 10
600.1321631987662
 20
1302.453744059511
 30
0.0
 40
137.1805466852468
100
AcDbArc
 50
193.5330778235548
 51
226.3161583545568
  0
LINE
  5
72A4
330
A
100
AcDbEntity
  8
MODEL GRAY
  6
AM_DIN_F_W050
 48
4.0
100
AcDbLine
 10
391.4782888373788
 20
1102.215135509911
 30
0.0
 11
464.3974498818202
 21
1102.215135509911
 31
0.0
  0
ARC
  5
72A5
330
A
100
AcDbEntity
  8
MODEL GRAY
  6
AM_DIN_F_W050
 48
4.0
100
AcDbCircle
 10
462.31128254442
 20
1234.864548440045
 30
0.0
 40
17.55204466911436
100
AcDbArc
 50
281.7859534555491
 51
5.781195185047422
  0
LINE
  5
72A6
330
A
100
AcDbEntity
  8
MODEL GRAY
  6
AM_DIN_F_W050
 48
4.0
100
AcDbLine
 10
508.8572673717949
 20
1286.566506896735
 30
0.0
 11
466.7604362577058
 21
1270.352578323316
 31
0.0
  0
ARC
  5
72A7
330
A
100
AcDbEntity
  8
MODEL GRAY
  6
AM_DIN_F_W050
 48
4.0
100
AcDbCircle
 10
461.8992613257001
 20
1269.182544870619
 30
0.0
 40
5.0
100
AcDbArc
 50
13.53307782355347
 51
90.0
  0
ARC
  5
72A8
330
A
100
AcDbEntity
  8
MODEL GRAY
  6
AM_DIN_F_W050
 48
4.0
100
AcDbCircle
 10
877.2425153158279
 20
1336.682544870619
 30
0.0
 40
7.0
100
AcDbArc
 50
90.0
 51
180.0
  0
ARC
  5
72A9
330
A
100
AcDbEntity
  8
MODEL GRAY
  6
AM_DIN_F_W050
 48
4.0
100
AcDbCircle
 10
500.0332767176769
 20
1336.682544870619
 30
0.0
 40
7.0
100
AcDbArc
 50
9.999999999997852
 51
90.0
  0
LINE
  5
72AA
330
A
100
AcDbEntity
  8
MODEL GRAY
  6
AM_DIN_F_W050
 48
4.0
100
AcDbLine
 10
321.3441477376291
 20
1329.182544870619
 30
0.0
 11
321.3441477376291
 21
1274.182544870619
 31
0.0
  0
ARC
  5
72AB
330
A
100
AcDbEntity
  8
MODEL GRAY
  6
AM_DIN_F_W050
 48
4.0
100
AcDbCircle
 10
318.614008685413
 20
1062.579412396592
 30
0.0
 40
13.16132405028349
100
AcDbArc
 50
113.1053259237251
 51
173.7863388933002
  0
LINE
  5
72AC
330
A
100
AcDbEntity
  8
MODEL GRAY
  6
AM_DIN_F_W050
 48
4.0
100
AcDbLine
 10
384.4782888373788
 20
1027.738226639213
 30
0.0
 11
305.5300049752859
 21
1027.738226639213
 31
0.0
  0
LINE
  5
72AD
330
A
100
AcDbEntity
  8
MODEL GRAY
  6
AM_DIN_F_W050
 48
4.0
100
AcDbLine
 10
321.3441477376291
 20
1217.682544870619
 30
0.0
 11
321.3441477376291
 21
1115.682544870619
 31
0.0
  0
LINE
  5
72AE
330
A
100
AcDbEntity
  8
MODEL GRAY
  6
AM_DIN_F_W050
 48
4.0
100
AcDbLine
 10
386.4782888373788
 20
1115.682544870619
 30
0.0
 11
321.3441477376291
 21
1115.682544870619
 31
0.0
  0
LINE
  5
72AF
102
{ACAD_REACTORS
330
86D2
102
}
330
A
100
AcDbEntity
  8
MODEL GRAY
  6
AM_DIN_G_W050
 48
3.0
100
AcDbLine
 10
353.887675655099
 20
1301.682544870619
 30
0.0
 11
288.887675655099
 21
1301.682544870619
 31
0.0
  0
LINE
  5
72B0
330
A
100
AcDbEntity
  8
MODEL GRAY
  6
CENTER2
100
AcDbLine
 10
353.887675655099
 20
1263.682544870619
 30
0.0
 11
288.887675655099
 21
1263.682544870619
 31
0.0
  0
LINE
  5
72B1
330
A
100
AcDbEntity
  8
MODEL GRAY
  6
AM_DIN_F_W050
 48
4.0
100
AcDbLine
 10
364.6674687122941
 20
1281.919537447114
 30
0.0
 11
364.6674687122941
 21
1274.182544870619
 31
0.0
  0
LINE
  5
72B2
330
A
100
AcDbEntity
  8
MODEL GRAY
  6
AM_DIN_F_W050
 48
4.0
100
AcDbLine
 10
313.6049164703841
 20
1336.946224734539
 30
0.0
 11
305.5300049752859
 21
1336.946224734539
 31
0.0
  0
LINE
  5
72B3
330
A
100
AcDbEntity
  8
MODEL GRAY
  6
AM_DIN_F_W050
 48
4.0
100
AcDbLine
 10
364.6674687122941
 20
1329.182544870619
 30
0.0
 11
321.3441477376291
 21
1329.182544870619
 31
0.0
  0
LINE
  5
72B4
330
A
100
AcDbEntity
  8
MODEL GRAY
  6
AM_DIN_F_W050
 48
4.0
100
AcDbLine
 10
364.6674687122941
 20
1329.182544870619
 30
0.0
 11
364.6674687122941
 21
1321.183127051227
 31
0.0
  0
LINE
  5
72B5
330
A
100
AcDbEntity
  8
MODEL GRAY
  6
AM_DIN_F_W050
 48
4.0
100
AcDbLine
 10
321.3441477376291
 20
1329.182544870619
 30
0.0
 11
317.8043259791239
 21
1334.660070673037
 31
0.0
  0
ARC
  5
72B6
330
A
100
AcDbEntity
  8
MODEL GRAY
  6
AM_DIN_F_W050
 48
4.0
100
AcDbCircle
 10
313.6049164703841
 20
1331.946224734539
 30
0.0
 40
5.0
100
AcDbArc
 50
32.87234916140291
 51
90.0
  0
LINE
  5
72B7
102
{ACAD_REACTORS
330
86C2
330
86F8
102
}
330
A
100
AcDbEntity
  8
MODEL
  6
Continuous
100
AcDbLine
 10
359.287943767742
 20
1343.682544870619
 30
0.0
 11
305.5300049752859
 21
1343.682544870619
 31
0.0
  0
LINE
  5
72B8
330
A
100
AcDbEntity
  8
MODEL GRAY
  6
AM_DIN_F_W050
 48
4.0
100
AcDbLine
 10
877.2425153158279
 20
1301.682544870619
 30
0.0
 11
526.698820349734
 21
1292.770871526053
 31
0.0
  0
LINE
  5
72D4
330
A
100
AcDbEntity
  8
MODEL
100
AcDbLine
 10
628.325202067424
 20
1017.613866862982
 30
0.0
 11
509.5584526452099
 21
1017.613866862981
 31
0.0
  0
LWPOLYLINE
  5
72D5
102
{ACAD_REACTORS
330
86F8
102
}
330
A
100
AcDbEntity
  8
MODEL
100
AcDbPolyline
 90
       16
 70
     1
 43
0.0
 10
305.5300049752859
 20
1378.682544870619
 10
334.6563075570448
 20
1378.682544870619
 42
-0.3639702342662071
 10
341.549961828131
 20
1372.898082114288
 10
344.5158274725591
 20
1356.077822205615
 42
0.3639702342662028
 10
359.287943767742
 20
1343.682544870619
 10
912.5957149752858
 20
1343.682544870619
 42
-0.4142135623730951
 10
919.5957149752858
 20
1336.682544870619
 10
919.5957149752858
 20
1306.682544870619
 42
-0.4142135623761718
 10
914.595714975233
 20
1301.682544870619
 42
0.4336642206145681
 10
909.583983680468
 20
1296.374129441588
 42
-0.20599722353366
 10
799.2562178883059
 20
1021.973372717314
 42
-0.1980807073817298
 10
788.683617246269
 20
1017.613866862982
 10
628.3252020674222
 20
1017.613866862982
 42
-0.3164178415870106
 10
509.5584526452099
 20
1017.613866862982
 10
312.5300049752859
 20
1017.613866862982
 42
-0.4142135623730951
 10
305.5300049752859
 20
1024.613866862982
  0
ARC
  5
72D6
330
A
100
AcDbEntity
  8
MODEL GRAY
  6
AM_DIN_F_W050
 48
4.0
100
AcDbCircle
 10
621.5292062656708
 20
1157.877725362888
 30
0.0
 40
92.60611180987968
100
AcDbArc
 50
304.931080443186
 51
0.0
  0
ARC
  5
72D7
330
A
100
AcDbEntity
  8
MODEL GRAY
  6
AM_DIN_F_W050
 48
4.0
100
AcDbCircle
 10
680.2805101741392
 20
1073.756987908938
 30
0.0
 40
10.0
100
AcDbArc
 50
124.9310804431875
 51
162.5519313738524
1001
GENIUS_GENODEF_13
1002
{
1000
HIER
1070
     0
1002
}
1002
{
1000
MANEDIT
1070
     0
1002
}
1002
{
1000
NOSEL
1070
     0
1002
}
1002
{
1000
BEHIND
1070
     0
1002
}
1002
{
1000
OTHER
1070
     0
1002
}
1002
{
1000
REACTOR
1002
}
1001
GENIUS_GENOBJ-N-FIL_13
1002
{
1000
OWNER
1000
GEN
1002
}
  0
ARC
  5
8125
330
A
100
AcDbEntity
  8
MODEL
  6
Continuous
100
AcDbCircle
 10
750.1633982541671
 20
2337.004213850402
 30
0.0
 40
135.0
100
AcDbArc
 50
272.318988978698
 51
87.68101102130203
  0
ARC
  5
8126
330
A
100
AcDbEntity
  8
MODEL
  6
Continuous
100
AcDbCircle
 10
750.1633982541671
 20
2337.004213850402
 30
0.0
 40
130.0
100
AcDbArc
 50
272.3189889786979
 51
87.68101102130211
  0
LINE
  5
8127
330
A
100
AcDbEntity
  8
MODEL
  6
Continuous
100
AcDbLine
 10
585.2774477415519
 20
2382.004213850402
 30
0.0
 11
648.2774477415519
 21
2382.004213850402
 31
0.0
  0
LINE
  5
8128
330
A
100
AcDbEntity
  8
MODEL
  6
Continuous
100
AcDbLine
 10
585.2774477415519
 20
2292.004213850402
 30
0.0
 11
648.2774477415519
 21
2292.004213850402
 31
0.0
  0
ARC
  5
8129
330
A
100
AcDbEntity
  8
MODEL
  6
Continuous
100
AcDbCircle
 10
585.2774477415519
 20
2389.004213850402
 30
0.0
 40
7.0
100
AcDbArc
 50
180.0
 51
270.0
1001
GENIUS_GENODEF_13
1002
{
1000
HIER
1070
     0
1002
}
1002
{
1000
MANEDIT
1070
     0
1002
}
1002
{
1000
NOSEL
1070
     0
1002
}
1002
{
1000
BEHIND
1070
     0
1002
}
1002
{
1000
OTHER
1070
     0
1002
}
1002
{
1000
REACTOR
1002
}
1001
GENIUS_GENOBJ-N-FIL_13
1002
{
1000
OWNER
1000
GEN
1002
}
  0
LINE
  5
812A
330
A
100
AcDbEntity
  8
MODEL
  6
Continuous
100
AcDbLine
 10
578.2774477415519
 20
2375.004213850402
 30
0.0
 11
578.2774477415519
 21
2299.004213850402
 31
0.0
  0
ARC
  5
812B
330
A
100
AcDbEntity
  8
MODEL
  6
Continuous
100
AcDbCircle
 10
585.2774477415519
 20
2285.004213850402
 30
0.0
 40
7.0
100
AcDbArc
 50
90.0
 51
180.0
1001
GENIUS_GENODEF_13
1002
{
1000
HIER
1070
     0
1002
}
1002
{
1000
MANEDIT
1070
     0
1002
}
1002
{
1000
NOSEL
1070
     0
1002
}
1002
{
1000
BEHIND
1070
     0
1002
}
1002
{
1000
OTHER
1070
     0
1002
}
1002
{
1000
REACTOR
1002
}
1001
GENIUS_GENOBJ-N-FIL_13
1002
{
1000
OWNER
1000
GEN
1002
}
  0
ARC
  5
812C
330
A
100
AcDbEntity
  8
MODEL
  6
Continuous
100
AcDbCircle
 10
648.2774477415519
 20
2337.004213850402
 30
0.0
 40
45.0
100
AcDbArc
 50
270.0
 51
90.0
  0
CIRCLE
  5
812F
330
A
100
AcDbEntity
  8
MODEL
  6
Continuous
100
AcDbCircle
 10
455.5300049752859
 20
2407.004213850401
 30
0.0
 40
7.5
  0
LINE
  5
8130
330
A
100
AcDbEntity
  8
MODEL
  6
Continuous
100
AcDbLine
 10
340.5300049752859
 20
2509.30212806605
 30
0.0
 11
340.5300049752859
 21
2164.706299634755
 31
0.0
  0
ARC
  5
8131
330
A
100
AcDbEntity
  8
MODEL
  6
Continuous
100
AcDbCircle
 10
330.5892258497952
 20
2509.326537997791
 30
0.0
 40
9.940809095168035
100
AcDbArc
 50
359.8593084869583
 51
89.94177654356045
  0
ARC
  5
8132
330
A
100
AcDbEntity
  8
MODEL
  6
Continuous
100
AcDbCircle
 10
330.5892258497952
 20
2164.681889703014
 30
0.0
 40
9.940809095168081
100
AcDbArc
 50
270.0582234564395
 51
0.1406915130390653
  0
ARC
  5
8134
330
A
100
AcDbEntity
  8
MODEL
  6
Continuous
100
AcDbCircle
 10
650.427106883702
 20
2337.004213850402
 30
0.0
 40
135.0
100
AcDbArc
 50
92.31898897869777
 51
267.6810110213022
  0
ARC
  5
8135
330
A
100
AcDbEntity
  8
MODEL
  6
Continuous
100
AcDbCircle
 10
657.4811396700129
 20
2337.004213850402
 30
0.0
 40
130.0
100
AcDbArc
 50
92.31898897869789
 51
267.6810110213021
  0
LINE
  5
8136
330
A
100
AcDbEntity
  8
MODEL
100
AcDbLine
 10
755.6258956305301
 20
2471.893654216998
 30
0.0
 11
644.9646095073399
 21
2471.893654216998
 31
0.0
  0
LINE
  5
8137
330
A
100
AcDbEntity
  8
MODEL
100
AcDbLine
 10
755.6258956305301
 20
2466.893654216998
 30
0.0
 11
652.2209570112941
 21
2466.897749018235
 31
0.0
  0
LINE
  5
8138
330
A
100
AcDbEntity
  8
MODEL
100
AcDbLine
 10
755.6258956305301
 20
2202.114773483807
 30
0.0
 11
644.9646095073399
 21
2202.114773483807
 31
0.0
  0
LINE
  5
8139
330
A
100
AcDbEntity
  8
MODEL
100
AcDbLine
 10
755.6258956305301
 20
2207.114773483807
 30
0.0
 11
652.120796280572
 21
2207.114773483807
 31
0.0
  0
CIRCLE
  5
813C
330
A
100
AcDbEntity
  8
MODEL
  6
Continuous
100
AcDbCircle
 10
455.5300049752859
 20
2267.004213850401
 30
0.0
 40
7.5
  0
LWPOLYLINE
  5
813D
102
{ACAD_REACTORS
330
8646
102
}
330
A
100
AcDbEntity
  8
MODEL
100
AcDbPolyline
 90
        4
 70
     1
 43
0.0
 10
305.5300049752859
 20
2519.504213850402
 10
746.9552218532522
 20
2516.999888733654
 42
-0.9921059672009592
 10
746.9552218532481
 20
2157.00853896715
 10
305.5300049752859
 20
2154.504213850402
  0
ARC
  5
8169
330
A
100
AcDbEntity
  8
MODEL
  6
HIDDEN
 48
0.05
100
AcDbCircle
 10
499.0423121541721
 20
-63279.76613525474
 30
0.0
 40
64648.89396766764
100
AcDbArc
 50
89.65179786186727
 51
89.99682757573292
  0
ARC
  5
816A
330
A
100
AcDbEntity
  8
MODEL
  6
HIDDEN
 48
0.05
100
AcDbCircle
 10
891.8390276373561
 20
1348.01373763783
 30
0.0
 40
19.92045418771487
100
AcDbArc
 50
358.9988199463345
 51
89.74144391198159
1001
GENIUS_GENODEF_13
1002
{
1000
HIER
1070
     0
1002
}
1002
{
1000
MANEDIT
1070
     0
1002
}
1002
{
1000
NOSEL
1070
     0
1002
}
1002
{
1000
BEHIND
1070
     0
1002
}
1002
{
1000
OTHER
1070
     0
1002
}
1002
{
1000
REACTOR
1002
}
1001
GENIUS_GENOBJ-N-FIL_13
1002
{
1000
OWNER
1000
GEN
1002
}
  0
ARC
  5
816B
330
A
100
AcDbEntity
  8
MODEL
100
AcDbCircle
 10
497.7993669753992
 20
-63516.9409040981
 30
0.0
 40
64910.771393476
100
AcDbArc
 50
89.63892116839106
 51
89.97419817021047
  0
ARC
  5
816C
330
A
100
AcDbEntity
  8
MODEL
100
AcDbCircle
 10
906.802197150726
 20
1382.541714434122
 30
0.0
 40
10.00000000000037
100
AcDbArc
 50
4.090039844979505
 51
89.6385600992558
  0
LINE
  5
816D
330
A
100
AcDbEntity
  8
MODEL
100
AcDbLine
 10
916.7767291186938
 20
1383.254954940542
 30
0.0
 11
918.9937368157211
 21
1347.665667559367
 31
0.0
  0
LINE
  5
816E
330
A
100
AcDbEntity
  8
MODEL
100
AcDbLine
 10
918.9937368157211
 20
1347.665667559367
 30
0.0
 11
527.0304313334841
 21
1347.665667559367
 31
0.0
  0
LINE
  5
816F
330
A
100
AcDbEntity
  8
MODEL
100
AcDbLine
 10
527.0304313334841
 20
1347.665667559367
 30
0.0
 11
464.6182474504089
 21
1347.665667559367
 31
0.0
  0
ARC
  5
8170
330
A
100
AcDbEntity
  8
MODEL
100
AcDbCircle
 10
464.6182474504108
 20
1380.880647058991
 30
0.0
 40
33.21497949962388
100
AcDbArc
 50
223.9963195808562
 51
269.9999999999968
  0
ARC
  5
8171
330
A
100
AcDbEntity
  8
MODEL
100
AcDbCircle
 10
445.8013914559469
 20
1362.343799173717
 30
0.0
 40
6.807654640225526
100
AcDbArc
 50
170.8535952085845
 51
221.7679216839849
  0
ARC
  5
8172
330
A
100
AcDbEntity
  8
MODEL
100
AcDbCircle
 10
494.2357130301662
 20
1363.124077192056
 30
0.0
 40
55.15624549882194
100
AcDbArc
 50
152.8399075466418
 51
179.686438129268
  0
ARC
  5
8173
330
A
100
AcDbEntity
  8
MODEL
100
AcDbCircle
 10
454.1046527725762
 20
1383.827740570469
 30
0.0
 40
10.00000000001228
100
AcDbArc
 50
89.99654829731442
 51
153.4232188316421
  0
ARC
  5
8174
330
A
100
AcDbEntity
  8
MODEL
100
AcDbCircle
 10
483.9056282822462
 20
-125360.8329420101
 30
0.0
 40
126754.6641856377
100
AcDbArc
 50
89.9805066798077
 51
90.01347039678069
  0
ARC
  5
8175
330
A
100
AcDbEntity
  8
MODEL
  6
HIDDEN
 48
0.05
100
AcDbCircle
 10
1776.399832734215
 20
-63279.6431203922
 30
0.0
 40
64648.89396766764
100
AcDbArc
 50
90.20822869242167
 51
90.34820213813343
  0
ARC
  5
8176
330
A
100
AcDbEntity
  8
MODEL
  6
HIDDEN
 48
0.05
100
AcDbCircle
 10
1383.604610134861
 20
1348.133008401132
 30
0.0
 40
19.92420504036188
100
AcDbArc
 50
90.26280052414914
 51
181.3214734100135
1001
GENIUS_GENODEF_13
1002
{
1000
HIER
1070
     0
1002
}
1002
{
1000
MANEDIT
1070
     0
1002
}
1002
{
1000
NOSEL
1070
     0
1002
}
1002
{
1000
BEHIND
1070
     0
1002
}
1002
{
1000
OTHER
1070
     0
1002
}
1002
{
1000
REACTOR
1002
}
1001
GENIUS_GENOBJ-N-FIL_13
1002
{
1000
OWNER
1000
GEN
1002
}
  0
ARC
  5
817B
330
A
100
AcDbEntity
  8
MODEL
100
AcDbCircle
 10
1712.787641118093
 20
-48470.78104252562
 30
0.0
 40
49864.89931771591
100
AcDbArc
 50
90.19687263727624
 51
90.38976305983707
  0
ARC
  5
817C
330
A
100
AcDbEntity
  8
MODEL
100
AcDbCircle
 10
1373.639947737548
 20
1382.964703842507
 30
0.0
 40
9.999999999999197
100
AcDbArc
 50
90.36143990074426
 51
175.9099601550199
  0
LINE
  5
817D
330
A
100
AcDbEntity
  8
MODEL
100
AcDbLine
 10
1363.665415769582
 20
1383.677944348928
 30
0.0
 11
1361.448408072552
 21
1347.673516041562
 31
0.0
  0
DIMENSION
  5
81B2
330
A
100
AcDbEntity
  8
DIM
  6
Continuous
100
AcDbDimension
  2
*D6
 10
1859.15338405874
 20
1368.823907610742
 30
0.0
 11
1859.15338405874
 21
1183.823907610742
 31
0.0
 70
   160
 71
     5
 42
370.0
 73
     0
 74
     0
 75
     0
  3
JIS
100
AcDbAlignedDimension
 13
1581.647017289037
 23
998.823907610742
 33
0.0
 14
1730.297493227906
 24
1368.823907610742
 34
0.0
 50
90.0
100
AcDbRotatedDimension
1001
ACAD
1000
DSTYLE
1002
{
1070
   179
1070
     0
1070
    41
1040
6.0
1070
   271
1070
     0
1070
    43
1040
25.0
1070
    44
1040
0.0
1070
    42
1040
25.0
1070
   147
1040
15.0
1070
   140
1040
24.0
1002
}
  0
DIMENSION
  5
81BF
330
A
100
AcDbEntity
  8
DIM
  6
Continuous
100
AcDbDimension
  2
*D7
 10
1928.776532209973
 20
1393.823907610742
 30
0.0
 11
1928.776532209973
 21
1196.323907610742
 31
0.0
 70
   160
 71
     5
 42
395.0
 73
     0
 74
     0
 75
     0
  3
JIS
100
AcDbAlignedDimension
 13
1581.647017289037
 23
998.823907610742
 33
0.0
 14
1730.986596909193
 24
1393.823907610742
 34
0.0
 50
90.0
100
AcDbRotatedDimension
1001
ACAD
1000
DSTYLE
1002
{
1070
   179
1070
     0
1070
    41
1040
6.0
1070
   271
1070
     0
1070
    43
1040
25.0
1070
    44
1040
0.0
1070
    42
1040
25.0
1070
   147
1040
15.0
1070
   140
1040
24.0
1002
}
  0
LINE
  5
81CF
330
A
100
AcDbEntity
  8
MODEL GRAY
  6
CENTER2
100
AcDbLine
 10
1541.448408072798
 20
1269.18254487062
 30
0.0
 11
1541.448408072798
 21
1334.18254487062
 31
0.0
  0
LINE
  5
8496
330
A
100
AcDbEntity
  8
MODEL
100
AcDbLine
 10
1361.448408072552
 20
1347.673516041562
 30
0.0
 11
1541.448408072552
 21
1347.673516041562
 31
0.0
  0
ARC
  5
8499
330
A
100
AcDbEntity
  8
MODEL
  6
HIDDEN
 48
0.05
100
AcDbCircle
 10
1306.49698341089
 20
-63279.6431203922
 30
0.0
 40
64648.89396766764
100
AcDbArc
 50
89.65179786186657
 51
89.79177130757834
  0
ARC
  5
849A
330
A
100
AcDbEntity
  8
MODEL
100
AcDbCircle
 10
1370.109175027012
 20
-48470.78104252562
 30
0.0
 40
49864.89931771591
100
AcDbArc
 50
89.61023694016295
 51
89.80312736272377
  0
LINE
  5
849B
330
A
100
AcDbEntity
  8
MODEL
100
AcDbLine
 10
1721.448408072552
 20
1347.673516041562
 30
0.0
 11
1541.448408072552
 21
1347.673516041562
 31
0.0
  0
ARC
  5
849C
330
A
100
AcDbEntity
  8
MODEL
  6
HIDDEN
 48
0.05
100
AcDbCircle
 10
1699.292206010244
 20
1348.133008401132
 30
0.0
 40
19.92420504036188
100
AcDbArc
 50
358.6785265899866
 51
89.73719947585087
1001
GENIUS_GENODEF_13
1002
{
1000
HIER
1070
     0
1002
}
1002
{
1000
MANEDIT
1070
     0
1002
}
1002
{
1000
NOSEL
1070
     0
1002
}
1002
{
1000
BEHIND
1070
     0
1002
}
1002
{
1000
OTHER
1070
     0
1002
}
1002
{
1000
REACTOR
1002
}
1001
GENIUS_GENOBJ-N-FIL_13
1002
{
1000
OWNER
1000
GEN
1002
}
  0
ARC
  5
849D
330
A
100
AcDbEntity
  8
MODEL
100
AcDbCircle
 10
1709.256868407557
 20
1382.964703842507
 30
0.0
 40
9.999999999999197
100
AcDbArc
 50
4.090039844980063
 51
89.63856009925576
  0
LINE
  5
849E
330
A
100
AcDbEntity
  8
MODEL
100
AcDbLine
 10
1719.231400375523
 20
1383.677944348928
 30
0.0
 11
1721.448408072552
 21
1347.673516041562
 31
0.0
  0
DIMENSION
  5
8586
330
A
100
AcDbEntity
  8
DIM
  6
Continuous
100
AcDbDimension
  2
*D8
 10
1631.448408072798
 20
1482.937103455618
 30
0.0
 11
1541.448408072798
 21
1509.937103455618
 31
0.0
 70
    32
 71
     5
 42
180.0
 73
     0
 74
     0
 75
     0
  3
JIS
100
AcDbAlignedDimension
 13
1451.448408072798
 23
1395.444977465926
 33
0.0
 14
1631.448408072798
 24
1396.196788534955
 34
0.0
100
AcDbRotatedDimension
1001
ACAD
1000
DSTYLE
1002
{
1070
   179
1070
     0
1070
    41
1040
6.0
1070
   271
1070
     0
1070
    43
1040
25.0
1070
    44
1040
0.0
1070
    42
1040
25.0
1070
   147
1040
15.0
1070
   140
1040
24.0
1002
}
  0
DIMENSION
  5
8620
102
{ACAD_REACTORS
330
8622
102
}
102
{ACAD_XDICTIONARY
360
8621
102
}
330
A
100
AcDbEntity
  8
DIM
  6
Continuous
100
AcDbDimension
  2
*D9
 10
925.5300049752868
 20
2612.36492895304
 30
0.0
 11
615.5300049752864
 21
2639.36492895304
 31
0.0
 70
    32
 71
     5
 42
620.0000000000009
 73
     0
 74
     0
 75
     0
  3
JIS
100
AcDbAlignedDimension
 13
305.5300049752859
 23
2519.504213850402
 33
0.0
 14
925.5300049752868
 24
2386.287670579732
 34
0.0
100
AcDbRotatedDimension
1001
ACAD
1000
DSTYLE
1002
{
1070
   179
1070
     0
1070
    41
1040
6.0
1070
   271
1070
     0
1070
    43
1040
25.0
1070
    44
1040
0.0
1070
    42
1040
25.0
1070
   147
1040
15.0
1070
   140
1040
24.0
1002
}
  0
DIMENSION
  5
862F
330
A
100
AcDbEntity
  8
DIM
  6
Continuous
100
AcDbDimension
  2
*D10
 10
1042.247127937808
 20
2156.999888733654
 30
0.0
 11
1015.247127937808
 21
2336.999888733654
 31
0.0
 70
    32
 71
     5
 42
360.0
 73
     0
 74
     0
 75
     0
  3
JIS
100
AcDbAlignedDimension
 13
838.7632455581488
 23
2516.999888733654
 33
0.0
 14
838.7632455581488
 24
2156.999888733654
 34
0.0
 50
90.0
100
AcDbRotatedDimension
1001
ACAD
1000
DSTYLE
1002
{
1070
   179
1070
     0
1070
    41
1040
6.0
1070
   271
1070
     0
1070
    43
1040
25.0
1070
    44
1040
0.0
1070
    42
1040
25.0
1070
   147
1040
15.0
1070
   140
1040
24.0
1002
}
  0
DIMENSION
  5
8644
102
{ACAD_REACTORS
330
8646
102
}
102
{ACAD_XDICTIONARY
360
8645
102
}
330
A
100
AcDbEntity
  8
DIM
  6
Continuous
100
AcDbDimension
  2
*D11
 10
209.0893128158682
 20
2154.504213850402
 30
0.0
 11
182.0893128158682
 21
2337.004213850402
 31
0.0
 70
    32
 71
     5
 42
365.0
 73
     0
 74
     0
 75
     0
  3
JIS
100
AcDbAlignedDimension
 13
305.5300049752859
 23
2519.504213850402
 33
0.0
 14
305.5300049752859
 24
2154.504213850402
 34
0.0
 50
90.0
100
AcDbRotatedDimension
1001
ACAD
1000
DSTYLE
1002
{
1070
   179
1070
     0
1070
    41
1040
6.0
1070
   271
1070
     0
1070
    43
1040
25.0
1070
    44
1040
0.0
1070
    42
1040
25.0
1070
   147
1040
15.0
1070
   140
1040
24.0
1002
}
  0
DIMENSION
  5
86C0
102
{ACAD_REACTORS
330
86C2
102
}
102
{ACAD_XDICTIONARY
360
86C1
102
}
330
A
100
AcDbEntity
  8
DIM
  6
Continuous
100
AcDbDimension
  2
*D12
 10
229.5853937494189
 20
1301.682544870619
 30
0.0
 11
229.5853937494189
 21
1322.682544870619
 31
0.0
 70
   160
  1
45
 71
     5
 42
42.0
 73
     0
 74
     0
 75
     0
  3
JIS
100
AcDbAlignedDimension
 13
305.5300049752859
 23
1343.682544870619
 33
0.0
 14
305.5300049752859
 24
1301.682544870619
 34
0.0
 50
90.0
100
AcDbRotatedDimension
1001
ACAD
1000
DSTYLE
1002
{
1070
   179
1070
     0
1070
    41
1040
6.0
1070
   271
1070
     0
1070
    43
1040
25.0
1070
    44
1040
0.0
1070
    42
1040
25.0
1070
   147
1040
15.0
1070
   140
1040
24.0
1002
}
  0
DIMENSION
  5
86D0
102
{ACAD_REACTORS
330
86D2
102
}
102
{ACAD_XDICTIONARY
360
86D1
102
}
330
A
100
AcDbEntity
  8
DIM
  6
Continuous
100
AcDbDimension
  2
*D13
 10
229.5853937494189
 20
1166.682544870619
 30
0.0
 11
202.5853937494189
 21
1234.182544870619
 31
0.0
 70
    32
 71
     5
 42
135.0
 73
     0
 74
     0
 75
     0
  3
JIS
100
AcDbAlignedDimension
 13
288.887675655099
 23
1301.682544870619
 33
0.0
 14
288.887675655099
 24
1166.682544870619
 34
0.0
 50
90.0
100
AcDbRotatedDimension
1001
ACAD
1000
DSTYLE
1002
{
1070
   179
1070
     0
1070
    41
1040
6.0
1070
   271
1070
     0
1070
    43
1040
25.0
1070
    44
1040
0.0
1070
    42
1040
25.0
1070
   147
1040
15.0
1070
   140
1040
24.0
1002
}
  0
DIMENSION
  5
86F6
102
{ACAD_REACTORS
330
86F8
102
}
102
{ACAD_XDICTIONARY
360
86F7
102
}
330
A
100
AcDbEntity
  8
DIM
  6
Continuous
100
AcDbDimension
  2
*D14
 10
229.5853937494189
 20
1378.682544870619
 30
0.0
 11
229.5853937494189
 21
1361.182544870619
 31
0.0
 70
   160
 71
     5
 42
35.0
 73
     0
 74
     0
 75
     0
  3
JIS
100
AcDbAlignedDimension
 13
305.5300049752859
 23
1343.682544870619
 33
0.0
 14
305.5300049752859
 24
1378.682544870619
 34
0.0
 50
90.0
100
AcDbRotatedDimension
1001
ACAD
1000
DSTYLE
1002
{
1070
   179
1070
     0
1070
    41
1040
6.0
1070
   271
1070
     0
1070
    43
1040
25.0
1070
    44
1040
0.0
1070
    42
1040
25.0
1070
   147
1040
15.0
1070
   140
1040
24.0
1002
}
  0
CIRCLE
  5
8710
330
A
100
AcDbEntity
  8
MODEL GRAY
  6
HIDDEN
 48
0.05
100
AcDbCircle
 10
1541.609231272802
 20
1167.694639418723
 30
0.0
 40
51.0
  0
CIRCLE
  5
8711
330
A
100
AcDbEntity
  8
MODEL GRAY
  6
HIDDEN
 48
0.05
100
AcDbCircle
 10
1541.448408072798
 20
1168.201060425149
 30
0.0
 40
44.33402038571233
  0
CIRCLE
  5
8712
330
A
100
AcDbEntity
  8
MODEL GRAY
  6
HIDDEN
 48
0.05
100
AcDbCircle
 10
1541.5609843128
 20
1301.328050166122
 30
0.0
 40
32.5
  0
CIRCLE
  5
8713
330
A
100
AcDbEntity
  8
MODEL GRAY
  6
HIDDEN
 48
0.05
100
AcDbCircle
 10
1541.448408072798
 20
1301.68254487062
 30
0.0
 40
27.5
  0
DIMENSION
  5
878A
330
A
100
AcDbEntity
  8
DIM
  6
Continuous
100
AcDbDimension
  2
*D15
 10
1272.4481273626
 20
1263.68254487062
 30
0.0
 11
1245.4481273626
 21
1303.68254487062
 31
0.0
 70
    32
 71
     5
 42
80.0
 73
     0
 74
     0
 75
     0
  3
JIS
100
AcDbAlignedDimension
 13
1365.948412701541
 23
1343.68254487062
 33
0.0
 14
1365.948412701541
 24
1263.68254487062
 34
0.0
 50
90.0
100
AcDbRotatedDimension
1001
ACAD
1000
DSTYLE
1002
{
1070
   179
1070
     0
1070
    41
1040
6.0
1070
   271
1070
     0
1070
    43
1040
25.0
1070
    44
1040
0.0
1070
    42
1040
25.0
1070
   147
1040
15.0
1070
   140
1040
24.0
1002
}
  0
DIMENSION
  5
8BA3
330
A
100
AcDbEntity
  8
DIM
  6
Continuous
100
AcDbDimension
  2
*D16
 10
1024.996716543836
 20
1343.682544870619
 30
0.0
 11
1024.996716543836
 21
1171.25322624068
 31
0.0
 70
   160
 71
     5
 42
344.8586372598779
 73
     0
 74
     0
 75
     0
  3
JIS
100
AcDbAlignedDimension
 13
628.6170427644988
 23
998.8239076107411
 33
0.0
 14
930.4344521277931
 24
1343.682544870619
 34
0.0
 50
90.0
100
AcDbRotatedDimension
1001
ACAD
1000
DSTYLE
1002
{
1070
   179
1070
     0
1070
    41
1040
6.0
1070
   271
1070
     0
1070
    43
1040
25.0
1070
    44
1040
0.0
1070
    42
1040
25.0
1070
   147
1040
15.0
1070
   140
1040
24.0
1002
}
  0
CIRCLE
  5
95D6
330
A
100
AcDbEntity
  8
MODEL GRAY
  6
AM_DIN_F_W050
 48
4.0
100
AcDbCircle
 10
1451.448408072798
 20
1263.68254487062
 30
0.0
 40
7.579809740149905
  0
CIRCLE
  5
95D7
330
A
100
AcDbEntity
  8
MODEL GRAY
  6
AM_DIN_F_W050
 48
4.0
100
AcDbCircle
 10
1631.448408072798
 20
1263.68254487062
 30
0.0
 40
7.579809740149905
  0
MTEXT
  5
9712
330
A
100
AcDbEntity
  8
MODEL
390
1D
100
AcDbMText
 10
244.2679743942331
 20
940.540574243937
 30
0.0
 40
24.4326171875
 41
0.0
 46
24.4326171875
 71
     1
 72
     1
  1
{排水管差込口}
  7
ＭＳ ゴシック
 73
     1
 44
0.7828267384257843
1001
ACAD
1000
ACAD_MTEXT_DEFINED_HEIGHT_BEGIN
1070
    46
1040
24.4326171875
1000
ACAD_MTEXT_DEFINED_HEIGHT_END
  0
LINE
  5
9713
330
A
100
AcDbEntity
  8
DIM
  6
Continuous
100
AcDbLine
 10
342.8435806474699
 20
961.5581568429961
 30
0.0
 11
342.8435806474699
 21
1115.729205673547
 31
0.0
  0
LINE
  5
9714
330
A
100
AcDbEntity
  8
DIM
  6
Continuous
100
AcDbLine
 10
344.9749008014769
 20
1329.569430468078
 30
0.0
 11
344.9749008014769
 21
1479.398455774368
 31
0.0
  0
MTEXT
  5
9715
330
A
100
AcDbEntity
  8
MODEL
390
1D
100
AcDbMText
 10
244.2679743942331
 20
1524.866330916542
 30
0.0
 40
24.4326171875
 41
0.0
 46
24.4326171875
 71
     1
 72
     1
  1
{洗浄管差込口}
  7
ＭＳ ゴシック
 73
     1
 44
0.7828267384257843
1001
ACAD
1000
ACAD_MTEXT_DEFINED_HEIGHT_BEGIN
1070
    46
1040
24.4326171875
1000
ACAD_MTEXT_DEFINED_HEIGHT_END
  0
LINE
  5
975F
330
A
100
AcDbEntity
  8
DIM
  6
Continuous
100
AcDbLine
 10
1631.445515592035
 20
1263.176123864195
 30
0.0
 11
1438.936602164565
 21
756.0428801863891
 31
0.0
  0
LINE
  5
9760
330
A
100
AcDbEntity
  8
DIM
  6
Continuous
100
AcDbLine
 10
1258.936602164565
 20
756.0428801863891
 30
0.0
 11
1733.522951381075
 21
756.0428801863891
 31
0.0
  0
LINE
  5
9761
330
A
100
AcDbEntity
  8
DIM
  6
Continuous
100
AcDbLine
 10
1451.445515592035
 20
1263.176123864195
 30
0.0
 11
1258.936602164565
 21
756.0428801863891
 31
0.0
  0
MTEXT
  5
9762
330
A
100
AcDbEntity
  8
MODEL
390
1D
100
AcDbMText
 10
1468.556801811563
 20
796.6725830920641
 30
0.0
 40
24.4326171875
 41
0.0
 46
24.4326171875
 71
     1
 72
     1
  1
{壁取付ボルト位置}
  7
ＭＳ ゴシック
 73
     1
 44
0.7828267384257843
1001
ACAD
1000
ACAD_MTEXT_DEFINED_HEIGHT_BEGIN
1070
    46
1040
24.4326171875
1000
ACAD_MTEXT_DEFINED_HEIGHT_END
  0
DIMENSION
  5
9901
102
{ACAD_REACTORS
330
9903
102
}
102
{ACAD_XDICTIONARY
360
9902
102
}
330
A
100
AcDbEntity
  8
MODEL
  6
Continuous
100
AcDbDimension
  2
*D17
 10
1799.27747664868
 20
1368.823907610742
 30
0.0
 11
1772.27747664868
 21
1316.253226240681
 31
0.0
 70
    32
 71
     5
 42
105.1413627401221
 73
     0
 74
     0
 75
     0
  3
JIS
100
AcDbAlignedDimension
 13
1641.448408072798
 23
1263.68254487062
 33
0.0
 14
1730.297493227906
 24
1368.823907610742
 34
0.0
 50
90.0
100
AcDbRotatedDimension
1001
ACAD
1000
DSTYLE
1002
{
1070
   144
1040
1.0
1070
   179
1070
     0
1070
    41
1040
6.0
1070
   271
1070
     0
1070
    43
1040
25.0
1070
    44
1040
0.0
1070
    42
1040
25.0
1070
   147
1040
15.0
1070
   140
1040
24.0
1002
}
  0
VIEWPORT
  5
349
330
B
100
AcDbEntity
 67
     1
  8
0
100
AcDbViewport
 10
202.5
 20
128.5
 30
0.0
 40
486.0
 41
308.4
 68
     1
 69
     1
 12
202.5
 22
128.5
 13
0.0
 23
0.0
 14
0.5
 24
0.5
 15
0.0
 25
0.0
 16
0.0
 26
0.0
 36
1.0
 17
0.0
 27
0.0
 37
0.0
 42
50.0
 43
0.0
 44
0.0
 45
308.4
 50
0.0
 51
0.0
 72
   100
 90
   557152
  1

281
     0
 71
     1
 74
     0
110
0.0
120
0.0
130
0.0
111
1.0
121
0.0
131
0.0
112
0.0
122
1.0
132
0.0
 79
     0
146
0.0
170
     0
 61
     5
348
26C
292
     1
282
     1
141
0.0
142
0.0
 63
   256
  0
VIEWPORT
  5
34A
330
B
100
AcDbEntity
 67
     1
  8
0
100
AcDbViewport
 10
202.5
 20
128.5
 30
0.0
 40
324.0
 41
205.6
 68
     2
 69
     2
 12
986.6781359294573
 22
1427.077061889956
 13
0.0
 23
0.0
 14
0.5
 24
0.5
 15
0.0
 25
0.0
 16
0.0
 26
0.0
 36
1.0
 17
0.0
 27
0.0
 37
0.0
 42
50.0
 43
0.0
 44
0.0
 45
2890.021615685494
 50
0.0
 51
0.0
 72
   100
 90
   557152
  1

281
     0
 71
     1
 74
     0
110
0.0
120
0.0
130
0.0
111
1.0
121
0.0
131
0.0
112
0.0
122
1.0
132
0.0
 79
     0
146
0.0
170
     0
 61
     5
348
26C
292
     1
282
     1
141
0.0
142
0.0
 63
   256
  0
ENDSEC
  0
SECTION
  2
OBJECTS
  0
DICTIONARY
  5
19
330
0
100
AcDbDictionary
281
     1
  3
ACAD_COLOR
350
38F
  3
ACAD_DETAILVIEWSTYLE
350
BE8
  3
ACAD_GROUP
350
1A
  3
ACAD_IMAGE_VARS
350
27B
  3
ACAD_LAYOUT
350
1E
  3
ACAD_MATERIAL
350
263
  3
ACAD_MLEADERSTYLE
350
336
  3
ACAD_MLINESTYLE
350
1B
  3
ACAD_PLOTSETTINGS
350
22
  3
ACAD_PLOTSTYLENAME
350
1F
  3
ACAD_SCALELIST
350
241
  3
ACAD_SECTIONVIEWSTYLE
350
BE9
  3
ACAD_TABLESTYLE
350
278
  3
ACAD_VISUALSTYLE
350
267
  3
AcadDim
350
94E3
  3
ACDB_RECOMPOSE_DATA
350
9918
  3
AcDbVariableDictionary
350
330
  3
APPDATA
350
27A
  0
SUN
  5
BE4
330
15
100
AcDbSun
 90
        1
290
     0
 63
     7
421
 16777215
 40
1.0
291
     1
 91
  2455826
 92
 54000000
292
     0
 70
     2
 71
   256
280
     1
  0
DICTIONARY
  5
2E1
330
2
100
AcDbDictionary
280
     1
281
     1
  3
ACAD_LAYERSTATES
360
2E2
  3
ACLYDICTIONARY
360
95C2
  0
DICTIONARY
  5
8621
330
8620
100
AcDbDictionary
280
     1
281
     1
  3
ACAD_DIMASSOC
360
8622
  0
DICTIONARY
  5
8645
330
8644
100
AcDbDictionary
280
     1
281
     1
  3
ACAD_DIMASSOC
360
8646
  0
DICTIONARY
  5
86C1
330
86C0
100
AcDbDictionary
280
     1
281
     1
  3
ACAD_DIMASSOC
360
86C2
  0
DICTIONARY
  5
86D1
330
86D0
100
AcDbDictionary
280
     1
281
     1
  3
ACAD_DIMASSOC
360
86D2
  0
DICTIONARY
  5
86F7
330
86F6
100
AcDbDictionary
280
     1
281
     1
  3
ACAD_DIMASSOC
360
86F8
  0
DICTIONARY
  5
9902
330
9901
100
AcDbDictionary
280
     1
281
     1
  3
ACAD_DIMASSOC
360
9903
  0
DICTIONARY
  5
38F
102
{ACAD_REACTORS
330
19
102
}
330
19
100
AcDbDictionary
281
     1
  0
DICTIONARY
  5
BE8
102
{ACAD_REACTORS
330
19
102
}
330
19
100
AcDbDictionary
281
     1
  0
DICTIONARY
  5
1A
102
{ACAD_REACTORS
330
19
102
}
330
19
100
AcDbDictionary
281
     1
  0
RASTERVARIABLES
  5
27B
102
{ACAD_REACTORS
330
19
102
}
330
19
100
AcDbRasterVariables
 90
        0
 70
     1
 71
     1
 72
     1
  0
DICTIONARY
  5
1E
102
{ACAD_REACTORS
330
19
102
}
330
19
100
AcDbDictionary
281
     1
  3
Layout1
350
21
  3
Model
350
20
  0
DICTIONARY
  5
263
102
{ACAD_REACTORS
330
19
102
}
330
19
100
AcDbDictionary
281
     1
  3
ByBlock
350
98FF
  3
ByLayer
350
264
  3
Global
350
266
  0
DICTIONARY
  5
336
102
{ACAD_REACTORS
330
19
102
}
330
19
100
AcDbDictionary
281
     1
  3
Standard
350
9900
  0
DICTIONARY
  5
1B
102
{ACAD_REACTORS
330
19
102
}
330
19
100
AcDbDictionary
281
     1
  3
Standard
350
1C
  0
DICTIONARY
  5
22
102
{ACAD_REACTORS
330
19
102
}
330
19
100
AcDbDictionary
281
     1
  0
ACDBDICTIONARYWDFLT
  5
1F
102
{ACAD_REACTORS
330
19
102
}
330
19
100
AcDbDictionary
281
     1
  3
Normal
350
1D
100
AcDbDictionaryWithDefault
340
1D
  0
DICTIONARY
  5
241
102
{ACAD_REACTORS
330
19
102
}
330
19
100
AcDbDictionary
281
     1
  3
A0
350
242
  3
A1
350
243
  3
A2
350
244
  3
A3
350
245
  3
A4
350
246
  3
A5
350
247
  3
A6
350
248
  3
A7
350
249
  3
A8
350
24A
  3
A9
350
24B
  3
B0
350
24C
  3
B1
350
24D
  3
B2
350
24E
  3
B3
350
24F
  3
B4
350
250
  3
B5
350
251
  3
B6
350
252
  3
B7
350
253
  3
B8
350
254
  3
B9
350
255
  3
C0
350
256
  3
C1
350
257
  3
C2
350
258
  3
C3
350
259
  3
C4
350
25A
  3
C5
350
25B
  3
C6
350
25C
  3
C7
350
25D
  3
C8
350
25E
  3
C9
350
25F
  3
D0
350
260
  3
D1
350
261
  3
D2
350
262
  0
DICTIONARY
  5
BE9
102
{ACAD_REACTORS
330
19
102
}
330
19
100
AcDbDictionary
281
     1
  0
DICTIONARY
  5
278
102
{ACAD_REACTORS
330
19
102
}
330
19
100
AcDbDictionary
281
     1
  3
Standard
350
279
  0
DICTIONARY
  5
267
102
{ACAD_REACTORS
330
19
102
}
330
19
100
AcDbDictionary
281
     1
  3
2dWireframe
350
26C
  3
3D Hidden
350
26E
  3
3dWireframe
350
26D
  3
Basic
350
26F
  3
Brighten
350
273
  3
ColorChange
350
277
  3
Conceptual
350
271
  3
Dim
350
272
  3
EdgeColorOff
350
BDE
  3
Facepattern
350
276
  3
Flat
350
268
  3
FlatWithEdges
350
269
  3
Gouraud
350
26A
  3
GouraudWithEdges
350
26B
  3
Hidden
350
BDB
  3
JitterOff
350
BDC
  3
Linepattern
350
275
  3
OverhangOff
350
BDD
  3
Realistic
350
270
  3
Shaded
350
BE3
  3
Shaded with edges
350
BE2
  3
Shades of Gray
350
BDF
  3
Sketchy
350
BE0
  3
Thicken
350
274
  3
Wireframe
350
BDA
  3
X-Ray
350
BE1
  0
XRECORD
  5
94E3
102
{ACAD_REACTORS
330
19
102
}
330
19
100
AcDbXrecord
280
     1
340
0
 72
     0
 71
     0
 70
     0
 69
     0
 68
     1
 67
     3
 66
     0
 65
     0
 64
     0
 63
     3
 62
     1
 61
     0
 60
     0
 40
0.0
  0
XRECORD
  5
9918
102
{ACAD_REACTORS
330
19
102
}
330
19
100
AcDbXrecord
280
     1
 90
        1
330
279
  0
DICTIONARY
  5
330
102
{ACAD_REACTORS
330
19
102
}
330
19
100
AcDbDictionary
281
     1
  3
CANNOSCALE
350
331
  3
CMLEADERSTYLE
350
9914
  3
CTABLESTYLE
350
335
  3
HPTRANSPARENCY
350
C00
  3
XCLIPFRAME
350
64A
  0
DICTIONARY
  5
27A
102
{ACAD_REACTORS
330
19
102
}
330
19
100
AcDbDictionary
281
     1
  0
DICTIONARY
  5
2E2
102
{ACAD_REACTORS
330
2E1
102
}
330
2E1
100
AcDbDictionary
281
     1
  0
DICTIONARY
  5
95C2
102
{ACAD_REACTORS
330
2E1
102
}
330
2E1
100
AcDbDictionary
281
     1
1001
ACAD
1000
<All
  0
DIMASSOC
  5
8622
102
{ACAD_REACTORS
330
8621
102
}
330
8621
100
AcDbDimAssoc
330
8620
 90
        1
 70
     0
 71
     1
  1
AcDbOsnapPointRef
 72
    13
331
813D
 73
     2
 91
        1
 40
0.0
 10
0.0
 20
0.0
 30
0.0
 75
     0
  0
DIMASSOC
  5
8646
102
{ACAD_REACTORS
330
8645
102
}
330
8645
100
AcDbDimAssoc
330
8644
 90
        3
 70
     0
 71
     1
  1
AcDbOsnapPointRef
 72
    13
331
813D
 73
     2
 91
        1
 40
0.0
 10
0.0
 20
0.0
 30
0.0
 75
     0
  1
AcDbOsnapPointRef
 72
     1
331
813D
 73
     2
 91
        3
 40
1.0
 10
0.0
 20
0.0
 30
0.0
 75
     0
  0
DIMASSOC
  5
86C2
102
{ACAD_REACTORS
330
86C1
102
}
330
86C1
100
AcDbDimAssoc
330
86C0
 90
        3
 70
     0
 71
     1
  1
AcDbOsnapPointRef
 72
     1
331
72B7
 73
     0
 91
        0
 40
0.0
 10
0.0
 20
0.0
 30
0.0
 75
     0
  1
AcDbOsnapPointRef
 72
     1
331
7294
 73
     0
 91
        0
 40
0.0
 10
0.0
 20
0.0
 30
0.0
 75
     0
  0
DIMASSOC
  5
86D2
102
{ACAD_REACTORS
330
86D1
102
}
330
86D1
100
AcDbDimAssoc
330
86D0
 90
        3
 70
     0
 71
     1
  1
AcDbOsnapPointRef
 72
     1
331
72AF
 73
     0
 91
        0
 40
0.0
 10
0.0
 20
0.0
 30
0.0
 75
     0
  1
AcDbOsnapPointRef
 72
     1
331
7295
 73
     0
 91
        0
 40
0.0
 10
0.0
 20
0.0
 30
0.0
 75
     0
  0
DIMASSOC
  5
86F8
102
{ACAD_REACTORS
330
86F7
102
}
330
86F7
100
AcDbDimAssoc
330
86F6
 90
        3
 70
     0
 71
     1
  1
AcDbOsnapPointRef
 72
     1
331
72B7
 73
     0
 91
        0
 40
0.0
 10
0.0
 20
0.0
 30
0.0
 75
     0
  1
AcDbOsnapPointRef
 72
    13
331
72D5
 73
     2
 91
        1
 40
0.0
 10
0.0
 20
0.0
 30
0.0
 75
     0
  0
DIMASSOC
  5
9903
102
{ACAD_REACTORS
330
9902
102
}
330
9902
100
AcDbDimAssoc
330
9901
 90
        1
 70
     0
 71
     1
  1
AcDbOsnapPointRef
 72
    13
331
7069
 73
     0
 91
        0
 40
0.0
 10
0.0
 20
0.0
 30
0.0
 75
     0
  0
LAYOUT
  5
21
102
{ACAD_REACTORS
330
1E
102
}
330
1E
100
AcDbPlotSettings
  1

  2
none_device
  4
ISO_A3_(420.00_x_297.00_MM)
  6

 40
7.5
 41
20.0
 42
7.5
 43
20.0
 44
420.0
 45
297.0
 46
0.0
 47
0.0
 48
0.0
 49
0.0
140
0.0
141
0.0
142
1.0
143
1.0
 70
     0
 72
     1
 73
     0
 74
     0
  7

 75
     0
 76
     0
 77
     2
 78
   300
147
1.0
148
0.0
149
0.0
100
AcDbLayout
  1
Layout1
 70
     0
 71
     0
 10
0.0
 20
0.0
 11
0.0
 21
0.0
 12
0.0
 22
0.0
 32
0.0
 14
0.0
 24
0.0
 34
0.0
 15
0.0
 25
0.0
 35
0.0
146
0.0
 13
0.0
 23
0.0
 33
0.0
 16
0.0
 26
0.0
 36
0.0
 17
0.0
 27
0.0
 37
0.0
 76
     0
330
B
331
349
  0
LAYOUT
  5
20
102
{ACAD_REACTORS
330
1E
102
}
330
1E
100
AcDbPlotSettings
  1

  2
none_device
  4
ISO_A3_(420.00_x_297.00_MM)
  6

 40
7.5
 41
20.0
 42
7.5
 43
20.0
 44
420.0
 45
297.0
 46
0.0
 47
0.0
 48
0.0
 49
0.0
140
0.0
141
0.0
142
1.0
143
1.0
 70
  1024
 72
     1
 73
     0
 74
     0
  7

 75
     0
 76
     0
 77
     2
 78
   300
147
1.0
148
0.0
149
0.0
100
AcDbLayout
  1
Model
 70
     0
 71
     1
 10
0.0
 20
0.0
 11
2100.0
 21
2970.0
 12
0.0
 22
0.0
 32
0.0
 14
0.0
 24
0.0
 34
0.0
 15
2100.0
 25
2970.0
 35
0.0
146
0.0
 13
0.0
 23
0.0
 33
0.0
 16
0.0
 26
0.0
 36
0.0
 17
0.0
 27
0.0
 37
0.0
 76
     0
330
A
331
15
  0
MATERIAL
  5
98FF
102
{ACAD_REACTORS
330
263
102
}
330
263
100
AcDbMaterial
  1
ByBlock
 72
     1
 94
      127
  0
MATERIAL
  5
264
102
{ACAD_REACTORS
330
263
102
}
330
263
100
AcDbMaterial
  1
ByLayer
 72
     1
 94
      127
  0
MATERIAL
  5
266
102
{ACAD_REACTORS
330
263
102
}
330
263
100
AcDbMaterial
  1
Global
 72
     1
 94
      127
  0
MLEADERSTYLE
  5
9900
102
{ACAD_REACTORS
330
336
102
}
330
336
100
AcDbMLeaderStyle
170
     2
171
     1
172
     0
 90
        2
 40
0.0
 41
0.0
173
     1
 91
-1056964608
340
11
 92
       -2
290
     1
 42
2.0
291
     1
 43
8.0
  3
Standard
341
0
 44
4.0
300

342
17
174
     1
178
     1
175
     1
176
     0
 93
-1056964608
 45
4.0
292
     0
297
     0
 46
4.0
343
0
 94
-1056964608
 47
1.0
 49
1.0
140
1.0
293
     1
141
0.0
294
     1
177
     0
142
1.0
295
     0
296
     0
143
3.75
1001
ACAD_MLEADERVER
1070
     2
  0
MLINESTYLE
  5
1C
102
{ACAD_REACTORS
330
1B
102
}
330
1B
100
AcDbMlineStyle
  2
Standard
 70
     0
  3

 62
     0
 51
90.0
 52
90.0
 71
     2
 49
0.5
 62
   256
  6
BYLAYER
 49
-0.5
 62
   256
  6
BYLAYER
  0
ACDBPLACEHOLDER
  5
1D
102
{ACAD_REACTORS
330
1F
102
}
330
1F
  0
SCALE
  5
242
102
{ACAD_REACTORS
330
241
102
}
330
241
100
AcDbScale
 70
     0
300
1:1
140
1.0
141
1.0
290
     1
  0
SCALE
  5
243
102
{ACAD_REACTORS
330
241
102
}
330
241
100
AcDbScale
 70
     0
300
1:2
140
1.0
141
2.0
290
     0
  0
SCALE
  5
244
102
{ACAD_REACTORS
330
241
102
}
330
241
100
AcDbScale
 70
     0
300
1:4
140
1.0
141
4.0
290
     0
  0
SCALE
  5
245
102
{ACAD_REACTORS
330
241
102
}
330
241
100
AcDbScale
 70
     0
300
1:5
140
1.0
141
5.0
290
     0
  0
SCALE
  5
246
102
{ACAD_REACTORS
330
241
102
}
330
241
100
AcDbScale
 70
     0
300
1:8
140
1.0
141
8.0
290
     0
  0
SCALE
  5
247
102
{ACAD_REACTORS
330
241
102
}
330
241
100
AcDbScale
 70
     0
300
1:10
140
1.0
141
10.0
290
     0
  0
SCALE
  5
248
102
{ACAD_REACTORS
330
241
102
}
330
241
100
AcDbScale
 70
     0
300
1:16
140
1.0
141
16.0
290
     0
  0
SCALE
  5
249
102
{ACAD_REACTORS
330
241
102
}
330
241
100
AcDbScale
 70
     0
300
1:20
140
1.0
141
20.0
290
     0
  0
SCALE
  5
24A
102
{ACAD_REACTORS
330
241
102
}
330
241
100
AcDbScale
 70
     0
300
1:30
140
1.0
141
30.0
290
     0
  0
SCALE
  5
24B
102
{ACAD_REACTORS
330
241
102
}
330
241
100
AcDbScale
 70
     0
300
1:40
140
1.0
141
40.0
290
     0
  0
SCALE
  5
24C
102
{ACAD_REACTORS
330
241
102
}
330
241
100
AcDbScale
 70
     0
300
1:50
140
1.0
141
50.0
290
     0
  0
SCALE
  5
24D
102
{ACAD_REACTORS
330
241
102
}
330
241
100
AcDbScale
 70
     0
300
1:100
140
1.0
141
100.0
290
     0
  0
SCALE
  5
24E
102
{ACAD_REACTORS
330
241
102
}
330
241
100
AcDbScale
 70
     0
300
2:1
140
2.0
141
1.0
290
     0
  0
SCALE
  5
24F
102
{ACAD_REACTORS
330
241
102
}
330
241
100
AcDbScale
 70
     0
300
4:1
140
4.0
141
1.0
290
     0
  0
SCALE
  5
250
102
{ACAD_REACTORS
330
241
102
}
330
241
100
AcDbScale
 70
     0
300
8:1
140
8.0
141
1.0
290
     0
  0
SCALE
  5
251
102
{ACAD_REACTORS
330
241
102
}
330
241
100
AcDbScale
 70
     0
300
10:1
140
10.0
141
1.0
290
     0
  0
SCALE
  5
252
102
{ACAD_REACTORS
330
241
102
}
330
241
100
AcDbScale
 70
     0
300
100:1
140
100.0
141
1.0
290
     0
  0
SCALE
  5
253
102
{ACAD_REACTORS
330
241
102
}
330
241
100
AcDbScale
 70
     0
300
1/128" = 1'-0"
140
0.0078125
141
12.0
290
     0
  0
SCALE
  5
254
102
{ACAD_REACTORS
330
241
102
}
330
241
100
AcDbScale
 70
     0
300
1/64" = 1'-0"
140
0.015625
141
12.0
290
     0
  0
SCALE
  5
255
102
{ACAD_REACTORS
330
241
102
}
330
241
100
AcDbScale
 70
     0
300
1/32" = 1'-0"
140
0.03125
141
12.0
290
     0
  0
SCALE
  5
256
102
{ACAD_REACTORS
330
241
102
}
330
241
100
AcDbScale
 70
     0
300
1/16" = 1'-0"
140
0.0625
141
12.0
290
     0
  0
SCALE
  5
257
102
{ACAD_REACTORS
330
241
102
}
330
241
100
AcDbScale
 70
     0
300
3/32" = 1'-0"
140
0.09375
141
12.0
290
     0
  0
SCALE
  5
258
102
{ACAD_REACTORS
330
241
102
}
330
241
100
AcDbScale
 70
     0
300
1/8" = 1'-0"
140
0.125
141
12.0
290
     0
  0
SCALE
  5
259
102
{ACAD_REACTORS
330
241
102
}
330
241
100
AcDbScale
 70
     0
300
3/16" = 1'-0"
140
0.1875
141
12.0
290
     0
  0
SCALE
  5
25A
102
{ACAD_REACTORS
330
241
102
}
330
241
100
AcDbScale
 70
     0
300
1/4" = 1'-0"
140
0.25
141
12.0
290
     0
  0
SCALE
  5
25B
102
{ACAD_REACTORS
330
241
102
}
330
241
100
AcDbScale
 70
     0
300
3/8" = 1'-0"
140
0.375
141
12.0
290
     0
  0
SCALE
  5
25C
102
{ACAD_REACTORS
330
241
102
}
330
241
100
AcDbScale
 70
     0
300
1/2" = 1'-0"
140
0.5
141
12.0
290
     0
  0
SCALE
  5
25D
102
{ACAD_REACTORS
330
241
102
}
330
241
100
AcDbScale
 70
     0
300
3/4" = 1'-0"
140
0.75
141
12.0
290
     0
  0
SCALE
  5
25E
102
{ACAD_REACTORS
330
241
102
}
330
241
100
AcDbScale
 70
     0
300
1" = 1'-0"
140
1.0
141
12.0
290
     0
  0
SCALE
  5
25F
102
{ACAD_REACTORS
330
241
102
}
330
241
100
AcDbScale
 70
     0
300
1-1/2" = 1'-0"
140
1.5
141
12.0
290
     0
  0
SCALE
  5
260
102
{ACAD_REACTORS
330
241
102
}
330
241
100
AcDbScale
 70
     0
300
3" = 1'-0"
140
3.0
141
12.0
290
     0
  0
SCALE
  5
261
102
{ACAD_REACTORS
330
241
102
}
330
241
100
AcDbScale
 70
     0
300
6" = 1'-0"
140
6.0
141
12.0
290
     0
  0
SCALE
  5
262
102
{ACAD_REACTORS
330
241
102
}
330
241
100
AcDbScale
 70
     0
300
1'-0" = 1'-0"
140
12.0
141
12.0
290
     0
  0
TABLESTYLE
  5
279
102
{ACAD_REACTORS
330
278
102
}
102
{ACAD_XDICTIONARY
360
9916
102
}
330
278
100
AcDbTableStyle
  3
Standard
 70
     0
 71
     0
 40
0.06
 41
0.06
280
     0
281
     0
  7
Standard
140
4.5
170
     2
 62
     0
 63
   257
283
     0
 90
        4
 91
        0
  1

274
    -2
284
     1
 64
     0
275
    -2
285
     1
 65
     0
276
    -2
286
     1
 66
     0
277
    -2
287
     1
 67
     0
278
    -2
288
     1
 68
     0
279
    -2
289
     1
 69
     0
  7
Standard
140
6.0
170
     5
 62
     0
 63
   257
283
     0
 90
        4
 91
        0
  1

274
    -2
284
     1
 64
     0
275
    -2
285
     1
 65
     0
276
    -2
286
     1
 66
     0
277
    -2
287
     1
 67
     0
278
    -2
288
     1
 68
     0
279
    -2
289
     1
 69
     0
  7
Standard
140
4.5
170
     5
 62
     0
 63
   257
283
     0
 90
        4
 91
        0
  1

274
    -2
284
     1
 64
     0
275
    -2
285
     1
 65
     0
276
    -2
286
     1
 66
     0
277
    -2
287
     1
 67
     0
278
    -2
288
     1
 68
     0
279
    -2
289
     1
 69
     0
  0
VISUALSTYLE
  5
26C
102
{ACAD_REACTORS
330
267
102
}
330
267
100
AcDbVisualStyle
  2
2dWireframe
 70
     4
 71
     0
 72
     2
 73
     0
 90
        0
 40
-0.6
 41
-30.0
 62
     5
 63
     7
421
 16777215
 74
     1
 91
        4
 64
     7
 65
   257
 75
     1
175
     1
 42
1.0
 92
        0
 66
   257
 43
1.0
 76
     1
 77
     6
 78
     2
 67
     7
 79
     5
170
     0
171
     0
290
     0
174
     0
 93
        1
 44
0.0
173
     0
291
     0
 45
0.0
  0
VISUALSTYLE
  5
26E
102
{ACAD_REACTORS
330
267
102
}
330
267
100
AcDbVisualStyle
  2
3D Hidden
 70
     6
 71
     1
 72
     2
 73
     2
 90
        0
 40
-0.6
 41
-30.0
 62
     5
 63
     7
421
 16777215
 74
     2
 91
        2
 64
     7
 65
   257
 75
     2
175
     1
 42
40.0
 92
        0
 66
   257
 43
1.0
 76
     1
 77
     6
 78
     2
 67
     7
 79
     3
170
     0
171
     0
290
     0
174
     0
 93
        1
 44
0.0
173
     0
291
     0
 45
0.0
  0
VISUALSTYLE
  5
26D
102
{ACAD_REACTORS
330
267
102
}
330
267
100
AcDbVisualStyle
  2
3dWireframe
 70
     5
 71
     0
 72
     2
 73
     0
 90
        0
 40
-0.6
 41
-30.0
 62
     5
 63
     7
421
 16777215
 74
     1
 91
        4
 64
     7
 65
   257
 75
     1
175
     1
 42
1.0
 92
        0
 66
   257
 43
1.0
 76
     1
 77
     6
 78
     2
 67
     7
 79
     5
170
     0
171
     0
290
     0
174
     0
 93
        1
 44
0.0
173
     0
291
     0
 45
0.0
  0
VISUALSTYLE
  5
26F
102
{ACAD_REACTORS
330
267
102
}
330
267
100
AcDbVisualStyle
  2
Basic
 70
     7
 71
     1
 72
     0
 73
     1
 90
        0
 40
-0.6
 41
-30.0
 62
     5
 63
     7
421
 16777215
 74
     0
 91
        4
 64
     7
 65
   257
 75
     1
175
     1
 42
1.0
 92
        8
 66
     7
 43
1.0
 76
     1
 77
     6
 78
     2
 67
     7
 79
     5
170
     0
171
     0
290
     0
174
     0
 93
        1
 44
0.0
173
     0
291
     1
 45
0.0
  0
VISUALSTYLE
  5
273
102
{ACAD_REACTORS
330
267
102
}
330
267
100
AcDbVisualStyle
  2
Brighten
 70
    12
 71
     2
 72
     2
 73
     0
 90
        0
 40
-0.6
 41
-30.0
 62
     5
 63
     7
421
 16777215
 74
     1
 91
        4
 64
     7
 65
   257
 75
     1
175
     1
 42
1.0
 92
        8
 66
     7
 43
1.0
 76
     1
 77
     6
 78
     2
 67
     7
 79
     5
170
     0
171
     0
290
     0
174
     0
 93
        1
 44
50.0
173
     0
291
     1
 45
0.0
  0
VISUALSTYLE
  5
277
102
{ACAD_REACTORS
330
267
102
}
330
267
100
AcDbVisualStyle
  2
ColorChange
 70
    16
 71
     2
 72
     2
 73
     3
 90
        0
 40
-0.6
 41
-30.0
 62
     5
 63
     8
421
  8421504
 74
     1
 91
        4
 64
     7
 65
   257
 75
     1
175
     1
 42
1.0
 92
        8
 66
     8
424
  8421504
 43
1.0
 76
     1
 77
     6
 78
     2
 67
     7
 79
     5
170
     0
171
     0
290
     0
174
     0
 93
        1
 44
0.0
173
     0
291
     1
 45
0.0
  0
VISUALSTYLE
  5
271
102
{ACAD_REACTORS
330
267
102
}
330
267
100
AcDbVisualStyle
  2
Conceptual
 70
     9
 71
     3
 72
     2
 73
     0
 90
        0
 40
-0.6
 41
-30.0
 62
     5
 63
     7
421
 16777215
 74
     2
 91
        2
 64
     7
 65
   257
 75
     1
175
     1
 42
40.0
 92
        8
 66
     7
 43
1.0
 76
     1
 77
     6
 78
     2
 67
     7
 79
     3
170
     0
171
     0
290
     0
174
     0
 93
        1
 44
0.0
173
     0
291
     0
 45
0.0
  0
VISUALSTYLE
  5
272
102
{ACAD_REACTORS
330
267
102
}
330
267
100
AcDbVisualStyle
  2
Dim
 70
    11
 71
     2
 72
     2
 73
     0
 90
        0
 40
-0.6
 41
-30.0
 62
     5
 63
     7
421
 16777215
 74
     1
 91
        4
 64
     7
 65
   257
 75
     1
175
     1
 42
1.0
 92
        8
 66
     7
 43
1.0
 76
     1
 77
     6
 78
     2
 67
     7
 79
     5
170
     0
171
     0
290
     0
174
     0
 93
        1
 44
-50.0
173
     0
291
     1
 45
0.0
  0
VISUALSTYLE
  5
BDE
102
{ACAD_REACTORS
330
267
102
}
330
267
100
AcDbVisualStyle
  2
EdgeColorOff
 70
    22
 71
     2
 72
     2
 73
     0
 90
        0
 40
0.6
 41
30.0
 62
     5
 63
     7
421
 16777215
 74
     1
 91
        4
 64
     7
 65
   257
 75
     1
175
     1
 42
1.0
 92
        8
 66
     7
 43
1.0
 76
     1
 77
     6
 78
     2
 67
     7
 79
     5
170
     0
171
     0
290
     0
174
     0
 93
        1
 44
0.0
173
     0
291
     1
 45
0.0
  0
VISUALSTYLE
  5
276
102
{ACAD_REACTORS
330
267
102
}
330
267
100
AcDbVisualStyle
  2
Facepattern
 70
    15
 71
     2
 72
     2
 73
     0
 90
        0
 40
-0.6
 41
-30.0
 62
     5
 63
     7
421
 16777215
 74
     1
 91
        4
 64
     7
 65
   257
 75
     1
175
     1
 42
1.0
 92
        8
 66
     7
 43
1.0
 76
     1
 77
     6
 78
     2
 67
     7
 79
     5
170
     0
171
     0
290
     0
174
     0
 93
        1
 44
0.0
173
     0
291
     1
 45
0.0
  0
VISUALSTYLE
  5
268
102
{ACAD_REACTORS
330
267
102
}
330
267
100
AcDbVisualStyle
  2
Flat
 70
     0
 71
     2
 72
     1
 73
     1
 90
        2
 40
-0.6
 41
30.0
 62
     5
 63
     7
421
 16777215
 74
     0
 91
        4
 64
     7
 65
   257
 75
     1
175
     1
 42
1.0
 92
        8
 66
     7
 43
1.0
 76
     1
 77
     6
 78
     2
 67
     7
 79
     5
170
     0
171
     0
290
     0
174
     0
 93
       13
 44
0.0
173
     0
291
     1
 45
0.0
  0
VISUALSTYLE
  5
269
102
{ACAD_REACTORS
330
267
102
}
330
267
100
AcDbVisualStyle
  2
FlatWithEdges
 70
     1
 71
     2
 72
     1
 73
     1
 90
        2
 40
-0.6
 41
30.0
 62
     5
 63
     7
421
 16777215
 74
     1
 91
        4
 64
     7
 65
   257
 75
     1
175
     1
 42
1.0
 92
        0
 66
   257
 43
1.0
 76
     1
 77
     6
 78
     2
 67
     7
 79
     5
170
     0
171
     0
290
     0
174
     0
 93
       13
 44
0.0
173
     0
291
     1
 45
0.0
  0
VISUALSTYLE
  5
26A
102
{ACAD_REACTORS
330
267
102
}
330
267
100
AcDbVisualStyle
  2
Gouraud
 70
     2
 71
     2
 72
     2
 73
     1
 90
        2
 40
-0.6
 41
30.0
 62
     5
 63
     7
421
 16777215
 74
     0
 91
        4
 64
     7
 65
   257
 75
     1
175
     1
 42
1.0
 92
        0
 66
     7
 43
1.0
 76
     1
 77
     6
 78
     2
 67
     7
 79
     5
170
     0
171
     0
290
     0
174
     0
 93
       13
 44
0.0
173
     0
291
     1
 45
0.0
  0
VISUALSTYLE
  5
26B
102
{ACAD_REACTORS
330
267
102
}
330
267
100
AcDbVisualStyle
  2
GouraudWithEdges
 70
     3
 71
     2
 72
     2
 73
     1
 90
        2
 40
-0.6
 41
30.0
 62
     5
 63
     7
421
 16777215
 74
     1
 91
        4
 64
     7
 65
   257
 75
     1
175
     1
 42
1.0
 92
        0
 66
   257
 43
1.0
 76
     1
 77
     6
 78
     2
 67
     7
 79
     5
170
     0
171
     0
290
     0
174
     0
 93
       13
 44
0.0
173
     0
291
     1
 45
0.0
  0
VISUALSTYLE
  5
BDB
102
{ACAD_REACTORS
330
267
102
}
330
267
100
AcDbVisualStyle
  2
Hidden
 70
     6
 71
     1
 72
     2
 73
     2
 90
        0
 40
0.6
 41
30.0
 62
     5
 63
     7
421
 16777215
 74
     2
 91
        2
 64
     7
 65
   257
 75
     2
175
     1
 42
40.0
 92
        0
 66
   257
 43
1.0
 76
     1
 77
     6
 78
     2
 67
     7
 79
     3
170
     0
171
     0
290
     0
174
     0
 93
        1
 44
0.0
173
     0
291
     0
 45
0.0
  0
VISUALSTYLE
  5
BDC
102
{ACAD_REACTORS
330
267
102
}
330
267
100
AcDbVisualStyle
  2
JitterOff
 70
    20
 71
     2
 72
     2
 73
     0
 90
        0
 40
0.6
 41
30.0
 62
     5
 63
     7
421
 16777215
 74
     1
 91
        4
 64
     7
 65
   257
 75
     1
175
     1
 42
1.0
 92
       10
 66
     7
 43
1.0
 76
     1
 77
     6
 78
     2
 67
     7
 79
     5
170
     0
171
     0
290
     0
174
     0
 93
        1
 44
0.0
173
     0
291
     1
 45
0.0
  0
VISUALSTYLE
  5
275
102
{ACAD_REACTORS
330
267
102
}
330
267
100
AcDbVisualStyle
  2
Linepattern
 70
    14
 71
     2
 72
     2
 73
     0
 90
        0
 40
-0.6
 41
-30.0
 62
     5
 63
     7
421
 16777215
 74
     1
 91
        4
 64
     7
 65
   257
 75
     7
175
     7
 42
1.0
 92
        8
 66
     7
 43
1.0
 76
     1
 77
     6
 78
     2
 67
     7
 79
     5
170
     0
171
     0
290
     0
174
     0
 93
        1
 44
0.0
173
     0
291
     1
 45
0.0
  0
VISUALSTYLE
  5
BDD
102
{ACAD_REACTORS
330
267
102
}
330
267
100
AcDbVisualStyle
  2
OverhangOff
 70
    21
 71
     2
 72
     2
 73
     0
 90
        0
 40
0.6
 41
30.0
 62
     5
 63
     7
421
 16777215
 74
     1
 91
        4
 64
     7
 65
   257
 75
     1
175
     1
 42
1.0
 92
        9
 66
     7
 43
1.0
 76
     1
 77
     6
 78
     2
 67
     7
 79
     5
170
     0
171
     0
290
     0
174
     0
 93
        1
 44
0.0
173
     0
291
     1
 45
0.0
  0
VISUALSTYLE
  5
270
102
{ACAD_REACTORS
330
267
102
}
330
267
100
AcDbVisualStyle
  2
Realistic
 70
     8
 71
     2
 72
     2
 73
     0
 90
        0
 40
-0.6
 41
-30.0
 62
     5
 63
     7
421
 16777215
 74
     1
 91
        0
 64
     7
 65
   257
 75
     1
175
     1
 42
1.0
 92
        8
 66
     8
424
  7895160
 43
1.0
 76
     1
 77
     6
 78
     2
 67
     7
 79
     5
170
     0
171
     0
290
     0
174
     0
 93
       13
 44
0.0
173
     0
291
     0
 45
0.0
  0
VISUALSTYLE
  5
BE3
102
{ACAD_REACTORS
330
267
102
}
330
267
100
AcDbVisualStyle
  2
Shaded
 70
    27
 71
     2
 72
     2
 73
     1
 90
        2
 40
0.6
 41
30.0
 62
     5
 63
     7
421
 16777215
 74
     0
 91
        4
 64
     7
 65
   257
 75
     1
175
     1
 42
1.0
 92
        8
 66
   257
 43
1.0
 76
     1
 77
     6
 78
     2
 67
     8
425
  7895160
 79
     3
170
     0
171
     0
290
     0
174
     0
 93
        5
 44
0.0
173
     0
291
     0
 45
0.0
  0
VISUALSTYLE
  5
BE2
102
{ACAD_REACTORS
330
267
102
}
330
267
100
AcDbVisualStyle
  2
Shaded with edges
 70
    26
 71
     2
 72
     2
 73
     1
 90
        2
 40
0.6
 41
30.0
 62
     5
 63
     7
421
 16777215
 74
     1
 91
       10
 64
     7
 65
   257
 75
     2
175
     1
 42
1.0
 92
        8
 66
   257
 43
1.0
 76
     1
 77
     6
 78
     2
 67
     7
 79
     3
170
     0
171
     0
290
     0
174
     0
 93
        5
 44
0.0
173
     0
291
     0
 45
0.0
  0
VISUALSTYLE
  5
BDF
102
{ACAD_REACTORS
330
267
102
}
330
267
100
AcDbVisualStyle
  2
Shades of Gray
 70
    23
 71
     2
 72
     2
 73
     3
 90
        0
 40
0.6
 41
30.0
 62
     5
 63
     7
421
 16777215
 74
     2
 91
        2
 64
     7
 65
     7
 75
     1
175
     1
 42
40.0
 92
        8
 66
     7
 43
1.0
 76
     1
 77
     6
 78
     2
 67
     7
 79
     3
170
     0
171
     0
290
     0
174
     0
 93
        1
 44
0.0
173
     0
291
     0
 45
0.0
  0
VISUALSTYLE
  5
BE0
102
{ACAD_REACTORS
330
267
102
}
330
267
100
AcDbVisualStyle
  2
Sketchy
 70
    24
 71
     1
 72
     2
 73
     2
 90
        0
 40
0.6
 41
30.0
 62
     5
 63
     7
421
 16777215
 74
     2
 91
        2
 64
     7
 65
     7
 75
     1
175
     1
 42
40.0
 92
       11
 66
     7
 43
1.0
 76
     1
 77
     6
 78
     2
 67
     7
 79
     6
170
     0
171
     0
290
     0
174
     0
 93
        1
 44
0.0
173
     0
291
     0
 45
0.0
  0
VISUALSTYLE
  5
274
102
{ACAD_REACTORS
330
267
102
}
330
267
100
AcDbVisualStyle
  2
Thicken
 70
    13
 71
     2
 72
     2
 73
     0
 90
        0
 40
-0.6
 41
-30.0
 62
     5
 63
     7
421
 16777215
 74
     1
 91
        4
 64
     7
 65
   257
 75
     1
175
     1
 42
1.0
 92
       12
 66
     7
 43
1.0
 76
     1
 77
     6
 78
     2
 67
     7
 79
     5
170
     0
171
     0
290
     0
174
     0
 93
        1
 44
0.0
173
     0
291
     1
 45
0.0
  0
VISUALSTYLE
  5
BDA
102
{ACAD_REACTORS
330
267
102
}
330
267
100
AcDbVisualStyle
  2
Wireframe
 70
     5
 71
     0
 72
     2
 73
     0
 90
        0
 40
0.6
 41
30.0
 62
     5
 63
     7
421
 16777215
 74
     1
 91
        4
 64
     7
 65
   257
 75
     1
175
     1
 42
1.0
 92
        0
 66
   257
 43
1.0
 76
     1
 77
     6
 78
     2
 67
     7
 79
     3
170
     0
171
     0
290
     0
174
     0
 93
        1
 44
0.0
173
     0
291
     0
 45
0.0
  0
VISUALSTYLE
  5
BE1
102
{ACAD_REACTORS
330
267
102
}
330
267
100
AcDbVisualStyle
  2
X-Ray
 70
    25
 71
     2
 72
     2
 73
     1
 90
        1
 40
0.5
 41
30.0
 62
     5
 63
     7
421
 16777215
 74
     1
 91
        0
 64
     7
 65
   257
 75
     1
175
     1
 42
1.0
 92
        8
 66
     7
 43
1.0
 76
     1
 77
     6
 78
     2
 67
     7
 79
     3
170
     0
171
     0
290
     0
174
     0
 93
       13
 44
0.0
173
     0
291
     0
 45
0.0
  0
DICTIONARYVAR
  5
331
102
{ACAD_REACTORS
330
330
102
}
330
330
100
DictionaryVariables
280
     0
  1
1:1
  0
DICTIONARYVAR
  5
9914
102
{ACAD_REACTORS
330
330
102
}
330
330
100
DictionaryVariables
280
     0
  1
Standard
  0
DICTIONARYVAR
  5
335
102
{ACAD_REACTORS
330
330
102
}
330
330
100
DictionaryVariables
280
     0
  1
Standard
  0
DICTIONARYVAR
  5
C00
102
{ACAD_REACTORS
330
330
102
}
330
330
100
DictionaryVariables
280
     0
  1
ByLayer
  0
DICTIONARYVAR
  5
64A
102
{ACAD_REACTORS
330
330
102
}
330
330
100
DictionaryVariables
280
     0
  1
0
  0
DICTIONARY
  5
9916
330
279
100
AcDbDictionary
280
     1
281
     1
  3
ACAD_ROUNDTRIP_2008_TABLESTYLE_CELLSTYLEMAP
360
9917
  0
CELLSTYLEMAP
  5
9917
102
{ACAD_REACTORS
330
9916
102
}
330
9916
100
AcDbCellStyleMap
 90
        3
300
CELLSTYLE
  1
TABLEFORMAT_BEGIN
 90
        5
170
     1
 91
        0
 92
    32768
 62
   257
 93
        1
300
CONTENTFORMAT
  1
CONTENTFORMAT_BEGIN
 90
        0
 91
        0
 92
        4
 93
        0
300

 40
0.0
140
1.0
 94
        5
 62
     0
340
17
144
6.0
309
CONTENTFORMAT_END
171
     1
301
MARGIN
  1
CELLMARGIN_BEGIN
 40
0.06
 40
0.06
 40
0.06
 40
0.06
 40
0.18
 40
0.18
309
CELLMARGIN_END
 94
        6
 95
        1
302
GRIDFORMAT
  1
GRIDFORMAT_BEGIN
 90
        0
 91
        1
 62
     0
 92
       -2
340
0
 93
        0
 40
0.045
309
GRIDFORMAT_END
 95
        2
302
GRIDFORMAT
  1
GRIDFORMAT_BEGIN
 90
        0
 91
        1
 62
     0
 92
       -2
340
0
 93
        0
 40
0.045
309
GRIDFORMAT_END
 95
        4
302
GRIDFORMAT
  1
GRIDFORMAT_BEGIN
 90
        0
 91
        1
 62
     0
 92
       -2
340
0
 93
        0
 40
0.045
309
GRIDFORMAT_END
 95
        8
302
GRIDFORMAT
  1
GRIDFORMAT_BEGIN
 90
        0
 91
        1
 62
     0
 92
       -2
340
0
 93
        0
 40
0.045
309
GRIDFORMAT_END
 95
       16
302
GRIDFORMAT
  1
GRIDFORMAT_BEGIN
 90
        0
 91
        1
 62
     0
 92
       -2
340
0
 93
        0
 40
0.045
309
GRIDFORMAT_END
 95
       32
302
GRIDFORMAT
  1
GRIDFORMAT_BEGIN
 90
        0
 91
        1
 62
     0
 92
       -2
340
0
 93
        0
 40
0.045
309
GRIDFORMAT_END
309
TABLEFORMAT_END
  1
CELLSTYLE_BEGIN
 90
        1
 91
        1
300
_TITLE
309
CELLSTYLE_END
300
CELLSTYLE
  1
TABLEFORMAT_BEGIN
 90
        5
170
     1
 91
        0
 92
        0
 62
   257
 93
        1
300
CONTENTFORMAT
  1
CONTENTFORMAT_BEGIN
 90
        0
 91
        0
 92
        4
 93
        0
300

 40
0.0
140
1.0
 94
        5
 62
     0
340
17
144
4.5
309
CONTENTFORMAT_END
171
     1
301
MARGIN
  1
CELLMARGIN_BEGIN
 40
0.06
 40
0.06
 40
0.06
 40
0.06
 40
0.18
 40
0.18
309
CELLMARGIN_END
 94
        6
 95
        1
302
GRIDFORMAT
  1
GRIDFORMAT_BEGIN
 90
        0
 91
        1
 62
     0
 92
       -2
340
0
 93
        0
 40
0.045
309
GRIDFORMAT_END
 95
        2
302
GRIDFORMAT
  1
GRIDFORMAT_BEGIN
 90
        0
 91
        1
 62
     0
 92
       -2
340
0
 93
        0
 40
0.045
309
GRIDFORMAT_END
 95
        4
302
GRIDFORMAT
  1
GRIDFORMAT_BEGIN
 90
        0
 91
        1
 62
     0
 92
       -2
340
0
 93
        0
 40
0.045
309
GRIDFORMAT_END
 95
        8
302
GRIDFORMAT
  1
GRIDFORMAT_BEGIN
 90
        0
 91
        1
 62
     0
 92
       -2
340
0
 93
        0
 40
0.045
309
GRIDFORMAT_END
 95
       16
302
GRIDFORMAT
  1
GRIDFORMAT_BEGIN
 90
        0
 91
        1
 62
     0
 92
       -2
340
0
 93
        0
 40
0.045
309
GRIDFORMAT_END
 95
       32
302
GRIDFORMAT
  1
GRIDFORMAT_BEGIN
 90
        0
 91
        1
 62
     0
 92
       -2
340
0
 93
        0
 40
0.045
309
GRIDFORMAT_END
309
TABLEFORMAT_END
  1
CELLSTYLE_BEGIN
 90
        2
 91
        1
300
_HEADER
309
CELLSTYLE_END
300
CELLSTYLE
  1
TABLEFORMAT_BEGIN
 90
        5
170
     1
 91
        0
 92
        0
 62
   257
 93
        1
300
CONTENTFORMAT
  1
CONTENTFORMAT_BEGIN
 90
        0
 91
        0
 92
        4
 93
        0
300

 40
0.0
140
1.0
 94
        2
 62
     0
340
17
144
4.5
309
CONTENTFORMAT_END
171
     1
301
MARGIN
  1
CELLMARGIN_BEGIN
 40
0.06
 40
0.06
 40
0.06
 40
0.06
 40
0.18
 40
0.18
309
CELLMARGIN_END
 94
        6
 95
        1
302
GRIDFORMAT
  1
GRIDFORMAT_BEGIN
 90
        0
 91
        1
 62
     0
 92
       -2
340
0
 93
        0
 40
0.045
309
GRIDFORMAT_END
 95
        2
302
GRIDFORMAT
  1
GRIDFORMAT_BEGIN
 90
        0
 91
        1
 62
     0
 92
       -2
340
0
 93
        0
 40
0.045
309
GRIDFORMAT_END
 95
        4
302
GRIDFORMAT
  1
GRIDFORMAT_BEGIN
 90
        0
 91
        1
 62
     0
 92
       -2
340
0
 93
        0
 40
0.045
309
GRIDFORMAT_END
 95
        8
302
GRIDFORMAT
  1
GRIDFORMAT_BEGIN
 90
        0
 91
        1
 62
     0
 92
       -2
340
0
 93
        0
 40
0.045
309
GRIDFORMAT_END
 95
       16
302
GRIDFORMAT
  1
GRIDFORMAT_BEGIN
 90
        0
 91
        1
 62
     0
 92
       -2
340
0
 93
        0
 40
0.045
309
GRIDFORMAT_END
 95
       32
302
GRIDFORMAT
  1
GRIDFORMAT_BEGIN
 90
        0
 91
        1
 62
     0
 92
       -2
340
0
 93
        0
 40
0.045
309
GRIDFORMAT_END
309
TABLEFORMAT_END
  1
CELLSTYLE_BEGIN
 90
        3
 91
        2
300
_DATA
309
CELLSTYLE_END
  0
ENDSEC
  0
EOF
