  0
SECTION
  2
HEADER
  9
$ACADVER
  1
AC1021
  9
$ACADMAINTVER
 70
    25
  9
$DWGCODEPAGE
  3
ANSI_932
  9
$LASTSAVEDBY
  1
howeNelson
  9
$INSBASE
 10
0.0
 20
0.0
 30
0.0
  9
$EXTMIN
 10
0.0
 20
0.0
 30
0.0
  9
$EXTMAX
 10
2100.0
 20
2970.0
 30
0.0
  9
$LIMMIN
 10
0.0
 20
0.0
  9
$LIMMAX
 10
2100.0
 20
2970.0
  9
$ORTHOMODE
 70
     0
  9
$REGENMODE
 70
     1
  9
$FILLMODE
 70
     1
  9
$QTEXTMODE
 70
     0
  9
$MIRRTEXT
 70
     1
  9
$LTSCALE
 40
50.8
  9
$ATTMODE
 70
     1
  9
$TEXTSIZE
 40
533.0403732820173
  9
$TRACEWID
 40
1.0
  9
$TEXTSTYLE
  7
Standard
  9
$CLAYER
  8
MODEL
  9
$CELTYPE
  6
Continuous
  9
$CECOLOR
 62
   256
  9
$CELTSCALE
 40
1.0
  9
$DISPSILH
 70
     0
  9
$DIMSCALE
 40
1.0
  9
$DIMASZ
 40
6.0
  9
$DIMEXO
 40
25.0
  9
$DIMDLI
 40
25.0
  9
$DIMRND
 40
0.0
  9
$DIMDLE
 40
0.0
  9
$DIMEXE
 40
0.0
  9
$DIMTP
 40
0.0
  9
$DIMTM
 40
0.0
  9
$DIMTXT
 40
24.0
  9
$DIMCEN
 40
0.0
  9
$DIMTSZ
 40
0.0
  9
$DIMTOL
 70
     0
  9
$DIMLIM
 70
     0
  9
$DIMTIH
 70
     0
  9
$DIMTOH
 70
     0
  9
$DIMSE1
 70
     0
  9
$DIMSE2
 70
     0
  9
$DIMTAD
 70
     1
  9
$DIMZIN
 70
    11
  9
$DIMBLK
  1
DOT
  9
$DIMASO
 70
     1
  9
$DIMSHO
 70
     1
  9
$DIMPOST
  1
<>
  9
$DIMAPOST
  1
[]
  9
$DIMALT
 70
     0
  9
$DIMALTD
 70
     1
  9
$DIMALTF
 40
1.0
  9
$DIMLFAC
 40
1.0
  9
$DIMTOFL
 70
     0
  9
$DIMTVP
 40
0.0
  9
$DIMTIX
 70
     1
  9
$DIMSOXD
 70
     0
  9
$DIMSAH
 70
     0
  9
$DIMBLK1
  1

  9
$DIMBLK2
  1

  9
$DIMSTYLE
  2
JIS
  9
$DIMCLRD
 70
     0
  9
$DIMCLRE
 70
     0
  9
$DIMCLRT
 70
     0
  9
$DIMTFAC
 40
1.0
  9
$DIMGAP
 40
15.0
  9
$DIMJUST
 70
     0
  9
$DIMSD1
 70
     0
  9
$DIMSD2
 70
     0
  9
$DIMTOLJ
 70
     1
  9
$DIMTZIN
 70
    11
  9
$DIMALTZ
 70
    11
  9
$DIMALTTZ
 70
    11
  9
$DIMUPT
 70
     0
  9
$DIMDEC
 70
     0
  9
$DIMTDEC
 70
     1
  9
$DIMALTU
 70
     2
  9
$DIMALTTD
 70
     2
  9
$DIMTXSTY
  7
ＭＳ ゴシック
  9
$DIMAUNIT
 70
     0
  9
$DIMADEC
 70
     0
  9
$DIMALTRND
 40
0.0
  9
$DIMAZIN
 70
     0
  9
$DIMDSEP
 70
    46
  9
$DIMATFIT
 70
     0
  9
$DIMFRAC
 70
     2
  9
$DIMLDRBLK
  1
DOT
  9
$DIMLUNIT
 70
     2
  9
$DIMLWD
 70
    -2
  9
$DIMLWE
 70
    -2
  9
$DIMTMOVE
 70
     0
  9
$DIMFXL
 40
1.0
  9
$DIMFXLON
 70
     0
  9
$DIMJOGANG
 40
0.7853981633974483
  9
$DIMTFILL
 70
     0
  9
$DIMTFILLCLR
 70
     0
  9
$DIMARCSYM
 70
     0
  9
$DIMLTYPE
  6

  9
$DIMLTEX1
  6

  9
$DIMLTEX2
  6

  9
$LUNITS
 70
     2
  9
$LUPREC
 70
     0
  9
$SKETCHINC
 40
0.1
  9
$FILLETRAD
 40
0.0
  9
$AUNITS
 70
     0
  9
$AUPREC
 70
     0
  9
$MENU
  1
acad
  9
$ELEVATION
 40
0.0
  9
$PELEVATION
 40
0.0
  9
$THICKNESS
 40
0.0
  9
$LIMCHECK
 70
     0
  9
$CHAMFERA
 40
0.0
  9
$CHAMFERB
 40
0.0
  9
$CHAMFERC
 40
0.0
  9
$CHAMFERD
 40
0.0
  9
$SKPOLY
 70
     0
  9
$TDCREATE
 40
2447893.375
  9
$TDUCREATE
 40
0.0
  9
$TDUPDATE
 40
2458759.571305938
  9
$TDUUPDATE
 40
2458759.196305938
  9
$TDINDWG
 40
0.7963159838
  9
$TDUSRTIMER
 40
0.0009192245
  9
$USRTIMER
 70
     1
  9
$ANGBASE
 50
0.0
  9
$ANGDIR
 70
     0
  9
$PDMODE
 70
     1
  9
$PDSIZE
 40
-2.0
  9
$PLINEWID
 40
0.0
  9
$SPLFRAME
 70
     0
  9
$SPLINETYPE
 70
     6
  9
$SPLINESEGS
 70
     8
  9
$HANDSEED
  5
9B4A
  9
$SURFTAB1
 70
     6
  9
$SURFTAB2
 70
     6
  9
$SURFTYPE
 70
     6
  9
$SURFU
 70
     6
  9
$SURFV
 70
     6
  9
$UCSBASE
  2

  9
$UCSNAME
  2

  9
$UCSORG
 10
0.0
 20
0.0
 30
0.0
  9
$UCSXDIR
 10
1.0
 20
0.0
 30
0.0
  9
$UCSYDIR
 10
0.0
 20
1.0
 30
0.0
  9
$UCSORTHOREF
  2

  9
$UCSORTHOVIEW
 70
     0
  9
$UCSORGTOP
 10
0.0
 20
0.0
 30
0.0
  9
$UCSORGBOTTOM
 10
0.0
 20
0.0
 30
0.0
  9
$UCSORGLEFT
 10
0.0
 20
0.0
 30
0.0
  9
$UCSORGRIGHT
 10
0.0
 20
0.0
 30
0.0
  9
$UCSORGFRONT
 10
0.0
 20
0.0
 30
0.0
  9
$UCSORGBACK
 10
0.0
 20
0.0
 30
0.0
  9
$PUCSBASE
  2

  9
$PUCSNAME
  2

  9
$PUCSORG
 10
0.0
 20
0.0
 30
0.0
  9
$PUCSXDIR
 10
1.0
 20
0.0
 30
0.0
  9
$PUCSYDIR
 10
0.0
 20
1.0
 30
0.0
  9
$PUCSORTHOREF
  2

  9
$PUCSORTHOVIEW
 70
     0
  9
$PUCSORGTOP
 10
0.0
 20
0.0
 30
0.0
  9
$PUCSORGBOTTOM
 10
0.0
 20
0.0
 30
0.0
  9
$PUCSORGLEFT
 10
0.0
 20
0.0
 30
0.0
  9
$PUCSORGRIGHT
 10
0.0
 20
0.0
 30
0.0
  9
$PUCSORGFRONT
 10
0.0
 20
0.0
 30
0.0
  9
$PUCSORGBACK
 10
0.0
 20
0.0
 30
0.0
  9
$USERI1
 70
     0
  9
$USERI2
 70
     0
  9
$USERI3
 70
     0
  9
$USERI4
 70
     0
  9
$USERI5
 70
     0
  9
$USERR1
 40
0.0
  9
$USERR2
 40
0.0
  9
$USERR3
 40
0.0
  9
$USERR4
 40
0.0
  9
$USERR5
 40
0.0
  9
$WORLDVIEW
 70
     1
  9
$SHADEDGE
 70
     3
  9
$SHADEDIF
 70
    70
  9
$TILEMODE
 70
     1
  9
$MAXACTVP
 70
    64
  9
$PINSBASE
 10
0.0
 20
0.0
 30
0.0
  9
$PLIMCHECK
 70
     0
  9
$PEXTMIN
 10
0.0
 20
0.0
 30
0.0
  9
$PEXTMAX
 10
0.0
 20
0.0
 30
0.0
  9
$PLIMMIN
 10
-7.5
 20
-20.0
  9
$PLIMMAX
 10
412.5
 20
277.0
  9
$UNITMODE
 70
     0
  9
$VISRETAIN
 70
     0
  9
$PLINEGEN
 70
     1
  9
$PSLTSCALE
 70
     0
  9
$TREEDEPTH
 70
  3020
  9
$CMLSTYLE
  2
Standard
  9
$CMLJUST
 70
     0
  9
$CMLSCALE
 40
1.0
  9
$PROXYGRAPHICS
 70
     0
  9
$MEASUREMENT
 70
     1
  9
$CELWEIGHT
370
    -1
  9
$ENDCAPS
280
     0
  9
$JOINSTYLE
280
     0
  9
$LWDISPLAY
290
     1
  9
$INSUNITS
 70
     4
  9
$HYPERLINKBASE
  1

  9
$STYLESHEET
  1

  9
$XEDIT
290
     1
  9
$CEPSNTYPE
380
     0
  9
$PSTYLEMODE
290
     1
  9
$FINGERPRINTGUID
  2

  9
$VERSIONGUID
  2

  9
$EXTNAMES
290
     1
  9
$PSVPSCALE
 40
0.0
  9
$OLESTARTUP
290
     0
  9
$SORTENTS
280
   127
  9
$INDEXCTL
280
     0
  9
$HIDETEXT
280
     1
  9
$XCLIPFRAME
290
     0
  9
$HALOGAP
280
     0
  9
$OBSCOLOR
 70
   257
  9
$OBSLTYPE
280
     0
  9
$INTERSECTIONDISPLAY
280
     0
  9
$INTERSECTIONCOLOR
 70
   257
  9
$DIMASSOC
280
     2
  9
$PROJECTNAME
  1

  9
$CAMERADISPLAY
290
     0
  9
$LENSLENGTH
 40
50.0
  9
$CAMERAHEIGHT
 40
0.0
  9
$STEPSPERSEC
 40
2.0
  9
$STEPSIZE
 40
6.0
  9
$3DDWFPREC
 40
2.0
  9
$PSOLWIDTH
 40
0.25
  9
$PSOLHEIGHT
 40
4.0
  9
$LOFTANG1
 40
1.570796326794897
  9
$LOFTANG2
 40
1.570796326794897
  9
$LOFTMAG1
 40
0.0
  9
$LOFTMAG2
 40
0.0
  9
$LOFTPARAM
 70
     7
  9
$LOFTNORMALS
280
     1
  9
$LATITUDE
 40
37.795
  9
$LONGITUDE
 40
-122.394
  9
$NORTHDIRECTION
 40
0.0
  9
$TIMEZONE
 70
 -8000
  9
$LIGHTGLYPHDISPLAY
280
     1
  9
$TILEMODELIGHTSYNCH
280
     1
  9
$SOLIDHIST
280
     1
  9
$SHOWHIST
280
     1
  9
$DWFFRAME
280
     2
  9
$DGNFRAME
280
     2
  9
$REALWORLDSCALE
290
     1
  9
$INTERFERECOLOR
 62
   256
  9
$CSHADOW
280
     0
  9
$SHADOWPLANELOCATION
 40
0.0
  0
ENDSEC
  0
SECTION
  2
CLASSES
  0
CLASS
  1
LWPOLYLINE
  2
AcDbPolyline
  3
ObjectDBX Classes
 90
        0
 91
        1
280
     0
281
     1
  0
CLASS
  1
IMAGE
  2
AcDbRasterImage
  3
ISM
 90
      127
 91
        9
280
     0
281
     1
  0
CLASS
  1
OLE2FRAME
  2
AcDbOle2Frame
  3
ObjectDBX Classes
 90
        0
 91
        1
280
     0
281
     1
  0
CLASS
  1
HATCH
  2
AcDbHatch
  3
ObjectDBX Classes
 90
        0
 91
        1
280
     0
281
     1
  0
CLASS
  1
DICTIONARYVAR
  2
AcDbDictionaryVar
  3
ObjectDBX Classes
 90
        0
 91
        8
280
     0
281
     0
  0
CLASS
  1
RASTERVARIABLES
  2
AcDbRasterVariables
  3
ISM
 90
        0
 91
        8
280
     0
281
     0
  0
CLASS
  1
IMAGEDEF
  2
AcDbRasterImageDef
  3
ISM
 90
        0
 91
        8
280
     0
281
     0
  0
CLASS
  1
IMAGEDEF_REACTOR
  2
AcDbRasterImageDefReactor
  3
ISM
 90
        1
 91
        8
280
     0
281
     0
  0
CLASS
  1
IDBUFFER
  2
AcDbIdBuffer
  3
ObjectDBX Classes
 90
        0
 91
        8
280
     0
281
     0
  0
CLASS
  1
SPATIAL_FILTER
  2
AcDbSpatialFilter
  3
ObjectDBX Classes
 90
        0
 91
        8
280
     0
281
     0
  0
CLASS
  1
XRECORD
  2
AcDbXrecord
  3
ObjectDBX Classes
 90
        0
 91
        1
280
     0
281
     0
  0
CLASS
  1
SORTENTSTABLE
  2
AcDbSortentsTable
  3
ObjectDBX Classes
 90
        0
 91
        8
280
     0
281
     0
  0
CLASS
  1
LAYER_INDEX
  2
AcDbLayerIndex
  3
ObjectDBX Classes
 90
        0
 91
        8
280
     0
281
     0
  0
CLASS
  1
SPATIAL_INDEX
  2
AcDbSpatialIndex
  3
AutoCAD 2000
 90
        0
 91
        8
280
     0
281
     0
  0
CLASS
  1
OBJECT_PTR
  2
CAseDLPNTableRecord
  3
ASE-LPNTableRecord
 90
        1
 91
        8
280
     0
281
     0
  0
CLASS
  1
LAYOUT
  2
AcDbLayout
  3
ObjectDBX Classes
 90
        0
 91
        1
280
     0
281
     0
  0
CLASS
  1
PLOTSETTINGS
  2
AcDbPlotSettings
  3
ObjectDBX Classes
 90
        0
 91
        8
280
     0
281
     0
  0
CLASS
  1
ACDBDICTIONARYWDFLT
  2
AcDbDictionaryWithDefault
  3
ObjectDBX Classes
 90
        0
 91
        8
280
     0
281
     0
  0
CLASS
  1
ACDBPLACEHOLDER
  2
AcDbPlaceHolder
  3
ObjectDBX Classes
 90
        0
 91
        1
280
     0
281
     0
  0
CLASS
  1
SCALE
  2
AcDbScale
  3
ObjectDBX Classes
 90
     1153
 91
        8
280
     0
281
     0
  0
CLASS
  1
MATERIAL
  2
AcDbMaterial
  3
ObjectDBX Classes
 90
     1153
 91
        8
280
     0
281
     0
  0
CLASS
  1
VISUALSTYLE
  2
AcDbVisualStyle
  3
ObjectDBX Classes
 90
     4095
 91
        8
280
     0
281
     0
  0
CLASS
  1
TABLESTYLE
  2
AcDbTableStyle
  3
ObjectDBX Classes
 90
     4095
 91
        8
280
     0
281
     0
  0
CLASS
  1
DIMASSOC
  2
AcDbDimAssoc
  3
"AcDbDimAssoc|Product Desc:     AcDim ARX App For Dimension|Company:          Autodesk, Inc.|WEB Address:      www.autodesk.com"
 90
        0
 91
        7
280
     0
281
     0
  0
CLASS
  1
CELLSTYLEMAP
  2
AcDbCellStyleMap
  3
ObjectDBX Classes
 90
     1152
 91
        7
280
     0
281
     0
  0
CLASS
  1
SUN
  2
AcDbSun
  3
SCENEOE
 90
     1153
 91
        7
280
     0
281
     0
  0
CLASS
  1
MLEADERSTYLE
  2
AcDbMLeaderStyle
  3
ACDB_MLEADERSTYLE_CLASS
 90
     4095
 91
        8
280
     0
281
     0
  0
ENDSEC
  0
SECTION
  2
TABLES
  0
TABLE
  2
VPORT
  5
7
330
0
100
AcDbSymbolTable
 70
     1
  0
VPORT
  5
15
330
7
100
AcDbSymbolTableRecord
100
AcDbViewportTableRecord
  2
*ACTIVE
 70
     0
 10
0.0
 20
0.0
 11
1.0
 21
1.0
 12
518.0464231739697
 22
1539.908751102672
 13
0.0
 23
0.0
 14
1.0
 24
1.0
 15
0.0
 25
0.0
 16
0.0
 26
0.0
 36
1.0
 17
531.9535768260303
 27
-54.90875110267166
 37
-796.100446371116
 40
3029.4
 41
2.310294117647059
 42
50.0
 43
0.0
 44
0.0
 50
0.0
 51
0.0
 71
    16
 72
  2000
 73
     1
 74
     1
 75
     0
 76
     0
 77
     0
 78
     0
281
     0
 65
     1
110
0.0
120
0.0
130
0.0
111
1.0
121
0.0
131
0.0
112
0.0
122
1.0
132
0.0
 79
     0
146
0.0
348
26C
 60
     3
 61
     5
292
     1
282
     1
141
0.0
142
0.0
 63
   256
361
BE4
  0
ENDTAB
  0
TABLE
  2
LTYPE
  5
4
330
0
100
AcDbSymbolTable
 70
     7
  0
LTYPE
  5
11
330
4
100
AcDbSymbolTableRecord
100
AcDbLinetypeTableRecord
  2
ByBlock
 70
     0
  3

 72
    65
 73
     0
 40
0.0
  0
LTYPE
  5
12
330
4
100
AcDbSymbolTableRecord
100
AcDbLinetypeTableRecord
  2
ByLayer
 70
     0
  3

 72
    65
 73
     0
 40
0.0
  0
LTYPE
  5
13
330
4
100
AcDbSymbolTableRecord
100
AcDbLinetypeTableRecord
  2
Continuous
 70
     0
  3
Solid line
 72
    65
 73
     0
 40
0.0
  0
LTYPE
  5
1A38
330
4
100
AcDbSymbolTableRecord
100
AcDbLinetypeTableRecord
  2
HIDDEN
 70
     0
  3
Hidden _ _ _ _ _ _ _ _ _ _ _ _ _ _ _ _ _ _ _ _ 
 72
    65
 73
     2
 40
9.524999999999999
 49
6.35
 74
     0
 49
-3.175
 74
     0
  0
LTYPE
  5
2496
330
4
100
AcDbSymbolTableRecord
100
AcDbLinetypeTableRecord
  2
CENTER2
 70
     0
  3
Center (.5x) ___ _ ___ _ ___ _ ___ _ ___ _ ___
 72
    65
 73
     4
 40
1.125
 49
0.75
 74
     0
 49
-0.125
 74
     0
 49
0.125
 74
     0
 49
-0.125
 74
     0
  0
LTYPE
  5
24DB
330
4
100
AcDbSymbolTableRecord
100
AcDbLinetypeTableRecord
  2
AM_DIN_F_W050
 70
     0
  3
__ __ __ __ __ __ __ __ __ __ __ __ __ __ __
 72
    65
 73
     2
 40
6.25
 49
4.75
 74
     0
 49
-1.5
 74
     0
  0
LTYPE
  5
3135
330
4
100
AcDbSymbolTableRecord
100
AcDbLinetypeTableRecord
  2
AM_DIN_G_W050
 70
     0
  3
____ . ____ . ____ . ____ . ____ . ____ . ____
 72
    65
 73
     4
 40
13.75
 49
9.75
 74
     0
 49
-1.5
 74
     0
 49
1.0
 74
     0
 49
-1.5
 74
     0
  0
LTYPE
  5
4558
330
4
100
AcDbSymbolTableRecord
100
AcDbLinetypeTableRecord
  2
CENTER
 70
     0
  3
Center ____ _ ____ _ ____ _ ____ _ ____ _ ____
 72
    65
 73
     4
 40
50.8
 49
31.75
 74
     0
 49
-6.35
 74
     0
 49
6.35
 74
     0
 49
-6.35
 74
     0
  0
LTYPE
  5
4559
330
4
100
AcDbSymbolTableRecord
100
AcDbLinetypeTableRecord
  2
DASHED
 70
     0
  3
Dashed __ __ __ __ __ __ __ __ __ __ __ __ __ _
 72
    65
 73
     2
 40
19.05
 49
12.7
 74
     0
 49
-6.35
 74
     0
  0
ENDTAB
  0
TABLE
  2
LAYER
  5
2
102
{ACAD_XDICTIONARY
360
2E1
102
}
330
0
100
AcDbSymbolTable
 70
     9
  0
LAYER
  5
14
330
2
100
AcDbSymbolTableRecord
100
AcDbLayerTableRecord
  2
0
 70
     0
 62
     7
  6
Continuous
370
    -3
390
1D
347
266
  0
LAYER
  5
4A
330
2
100
AcDbSymbolTableRecord
100
AcDbLayerTableRecord
  2
Defpoints
 70
     0
 62
     7
  6
Continuous
290
     0
370
     9
390
1D
347
266
  0
LAYER
  5
4B
330
2
100
AcDbSymbolTableRecord
100
AcDbLayerTableRecord
  2
TEMPLATE
 70
     0
 62
     4
  6
Continuous
290
     0
370
    20
390
1D
347
266
  0
LAYER
  5
4D
330
2
100
AcDbSymbolTableRecord
100
AcDbLayerTableRecord
  2
MODEL
 70
     0
 62
     7
  6
Continuous
370
    20
390
1D
347
266
  0
LAYER
  5
382
330
2
100
AcDbSymbolTableRecord
100
AcDbLayerTableRecord
  2
LOGO
 70
     0
 62
     7
  6
Continuous
370
    -3
390
1D
347
266
  0
LAYER
  5
B7A
330
2
100
AcDbSymbolTableRecord
100
AcDbLayerTableRecord
  2
DIM
 70
     0
 62
     7
  6
Continuous
370
    13
390
1D
347
266
1001
AcAecLayerStandard
1000

1000

  0
LAYER
  5
3B0F
330
2
100
AcDbSymbolTableRecord
100
AcDbLayerTableRecord
  2
_0-7_
 70
     0
 62
     7
  6
Continuous
370
    -3
390
1D
347
266
  0
LAYER
  5
4556
330
2
100
AcDbSymbolTableRecord
100
AcDbLayerTableRecord
  2
LY_1
 70
     0
 62
   254
  6
Continuous
370
    -3
390
1D
347
266
  0
LAYER
  5
95C1
330
2
100
AcDbSymbolTableRecord
100
AcDbLayerTableRecord
  2
MODEL GRAY
 70
     0
 62
   252
  6
Continuous
370
    20
390
1D
347
266
1001
AcAecLayerStandard
1000

1000

  0
ENDTAB
  0
TABLE
  2
STYLE
  5
3
330
0
100
AcDbSymbolTable
 70
     3
  0
STYLE
  5
17
330
3
100
AcDbSymbolTableRecord
100
AcDbTextStyleTableRecord
  2
Standard
 70
     0
 40
0.0
 41
1.0
 50
0.0
 71
     0
 42
533.0403732820173
  3
txt
  4
BIGFONT.SHX
  0
STYLE
  5
39
330
3
100
AcDbSymbolTableRecord
100
AcDbTextStyleTableRecord
  2
ＭＳ ゴシック
 70
     0
 40
0.0
 41
1.0
 50
0.0
 71
     0
 42
533.0403732820173
  3
msgothic.ttc
  4
ＭＳ ゴシック
1001
ACAD
1000
ＭＳ ゴシック
1071
        0
  0
STYLE
  5
455B
330
3
100
AcDbSymbolTableRecord
100
AcDbTextStyleTableRecord
  2
MX_NOTE_STANDARD
 70
     0
 40
0.0
 41
1.0
 50
0.0
 71
     0
 42
533.0403732820173
  3
txt.shx
  4
extfont.shx
  0
ENDTAB
  0
TABLE
  2
VIEW
  5
5
330
0
100
AcDbSymbolTable
 70
     0
  0
ENDTAB
  0
TABLE
  2
UCS
  5
6
330
0
100
AcDbSymbolTable
 70
     0
  0
ENDTAB
  0
TABLE
  2
APPID
  5
8
330
0
100
AcDbSymbolTable
 70
    13
  0
APPID
  5
16
330
8
100
AcDbSymbolTableRecord
100
AcDbRegAppTableRecord
  2
ACAD
 70
     0
  0
APPID
  5
5C5
330
8
100
AcDbSymbolTableRecord
100
AcDbRegAppTableRecord
  2
AcAecLayerStandard
 70
     0
  0
APPID
  5
694
330
8
100
AcDbSymbolTableRecord
100
AcDbRegAppTableRecord
  2
ACAD_DSTYLE_DIMJAG
 70
     0
  0
APPID
  5
695
330
8
100
AcDbSymbolTableRecord
100
AcDbRegAppTableRecord
  2
ACAD_DSTYLE_DIMTALN
 70
     0
  0
APPID
  5
69A
330
8
100
AcDbSymbolTableRecord
100
AcDbRegAppTableRecord
  2
ACAD_PSEXT
 70
     0
  0
APPID
  5
2499
330
8
100
AcDbSymbolTableRecord
100
AcDbRegAppTableRecord
  2
GENIUS_GENODEF_13
 70
     0
  0
APPID
  5
249A
330
8
100
AcDbSymbolTableRecord
100
AcDbRegAppTableRecord
  2
GENIUS_GENOBJ-N-FIL_13
 70
     0
  0
APPID
  5
249C
330
8
100
AcDbSymbolTableRecord
100
AcDbRegAppTableRecord
  2
AECBASE
 70
     0
  0
APPID
  5
249D
330
8
100
AcDbSymbolTableRecord
100
AcDbRegAppTableRecord
  2
AEC_2DSECTION_XDATA
 70
     0
  0
APPID
  5
249E
330
8
100
AcDbSymbolTableRecord
100
AcDbRegAppTableRecord
  2
AEC_MASSGROUP_XDADA
 70
     0
  0
APPID
  5
6EA7
330
8
100
AcDbSymbolTableRecord
100
AcDbRegAppTableRecord
  2
GENIUS_GENREC_14
 70
     0
  0
APPID
  5
6EA8
330
8
100
AcDbSymbolTableRecord
100
AcDbRegAppTableRecord
  2
GENIUS_GENOBJ-N-REC_13
 70
     0
  0
APPID
  5
991F
330
8
100
AcDbSymbolTableRecord
100
AcDbRegAppTableRecord
  2
ACAD_MLEADERVER
 70
     0
  0
ENDTAB
  0
TABLE
  2
DIMSTYLE
  5
9
330
0
100
AcDbSymbolTable
 70
     2
100
AcDbDimStyleTable
  0
DIMSTYLE
105
18
330
9
100
AcDbSymbolTableRecord
100
AcDbDimStyleTableRecord
  2
Standard
 70
     0
178
     0
340
17
  0
DIMSTYLE
105
5C
102
{ACAD_REACTORS
330
8659
330
865C
330
865E
330
874B
330
874E
330
8751
330
8837
330
8838
330
8839
330
896A
330
896B
330
8B85
330
8D2F
330
92F3
330
939D
330
9558
330
96AA
330
9793
330
9907
330
9A75
330
9A8D
330
9A9A
330
9AA7
330
9AB4
330
9AC1
330
9AE7
330
9AF3
330
9AF4
330
9AF5
330
9AF6
330
9AF7
102
}
330
9
100
AcDbSymbolTableRecord
100
AcDbDimStyleTableRecord
  2
JIS
 70
     0
  3
<>
  4
[]
 41
9.0
 42
0.0
 43
6.99999999999994
 44
19.9999999999962
 73
     0
 74
     0
 77
     1
 78
    11
140
24.4326171875
141
0.0
143
1.0
147
10.0
171
     1
174
     1
178
     0
179
     2
271
     1
272
     1
276
     2
284
    11
285
    11
286
    11
289
     0
340
39
341
4E
342
4E
  0
ENDTAB
  0
TABLE
  2
BLOCK_RECORD
  5
1
330
0
100
AcDbSymbolTable
 70
    37
  0
BLOCK_RECORD
  5
A
330
1
100
AcDbSymbolTableRecord
100
AcDbBlockTableRecord
  2
*MODEL_SPACE
340
20
 70
     0
280
     1
281
     0
  0
BLOCK_RECORD
  5
B
330
1
100
AcDbSymbolTableRecord
100
AcDbBlockTableRecord
  2
*PAPER_SPACE
340
21
 70
     0
280
     1
281
     0
  0
BLOCK_RECORD
  5
4E
330
1
100
AcDbSymbolTableRecord
100
AcDbBlockTableRecord
  2
_DOT
340
0
102
{BLKREFS
331
8667
331
8668
331
8673
331
8674
331
867F
331
8680
331
875A
331
875B
331
8766
331
8767
331
8772
331
8773
331
8909
331
890A
331
8915
331
8916
331
8980
331
8981
331
898C
331
898D
331
8B8E
331
8B8F
331
8D38
331
8D39
331
92FC
331
92FD
331
93A4
331
93A5
331
955F
331
9560
331
9910
331
9911
331
9AFF
331
9B00
331
9B0B
331
9B0C
331
9B17
331
9B18
331
9B23
331
9B24
331
9B2F
331
9B30
331
9B3B
331
9B3C
102
}
 70
     0
280
     1
281
     0
  0
BLOCK_RECORD
  5
3A5
330
1
100
AcDbSymbolTableRecord
100
AcDbBlockTableRecord
  2
名称未設定-1
340
0
102
{BLKREFS
331
6815
102
}
 70
     1
280
     1
281
     0
  0
BLOCK_RECORD
  5
3A8
330
1
100
AcDbSymbolTableRecord
100
AcDbBlockTableRecord
  2
block 2
340
0
102
{BLKREFS
331
3A7
102
}
 70
     0
280
     1
281
     0
  0
BLOCK_RECORD
  5
3AB
330
1
100
AcDbSymbolTableRecord
100
AcDbBlockTableRecord
  2
block 3
340
0
102
{BLKREFS
331
3AA
102
}
 70
     0
280
     1
281
     0
  0
BLOCK_RECORD
  5
3AE
330
1
100
AcDbSymbolTableRecord
100
AcDbBlockTableRecord
  2
block 4
340
0
102
{BLKREFS
331
3AD
102
}
 70
     0
280
     1
281
     0
  0
BLOCK_RECORD
  5
3BD
330
1
100
AcDbSymbolTableRecord
100
AcDbBlockTableRecord
  2
block 5
340
0
102
{BLKREFS
331
3BC
102
}
 70
     0
280
     1
281
     0
  0
BLOCK_RECORD
  5
455C
330
1
100
AcDbSymbolTableRecord
100
AcDbBlockTableRecord
  2
_OPEN30
340
0
 70
     0
280
     1
281
     0
  0
BLOCK_RECORD
  5
7148
330
1
100
AcDbSymbolTableRecord
100
AcDbBlockTableRecord
  2
12313
340
0
 70
     4
280
     1
281
     0
  0
BLOCK_RECORD
  5
8661
330
1
100
AcDbSymbolTableRecord
100
AcDbBlockTableRecord
  2
*D8
340
0
 70
     0
280
     1
281
     0
  0
BLOCK_RECORD
  5
866D
330
1
100
AcDbSymbolTableRecord
100
AcDbBlockTableRecord
  2
*D9
340
0
 70
     0
280
     1
281
     0
  0
BLOCK_RECORD
  5
8679
330
1
100
AcDbSymbolTableRecord
100
AcDbBlockTableRecord
  2
*D10
340
0
 70
     0
280
     1
281
     0
  0
BLOCK_RECORD
  5
8754
330
1
100
AcDbSymbolTableRecord
100
AcDbBlockTableRecord
  2
*D11
340
0
 70
     0
280
     1
281
     0
  0
BLOCK_RECORD
  5
8760
330
1
100
AcDbSymbolTableRecord
100
AcDbBlockTableRecord
  2
*D12
340
0
 70
     0
280
     1
281
     0
  0
BLOCK_RECORD
  5
876C
330
1
100
AcDbSymbolTableRecord
100
AcDbBlockTableRecord
  2
*D13
340
0
 70
     0
280
     1
281
     0
  0
BLOCK_RECORD
  5
8903
330
1
100
AcDbSymbolTableRecord
100
AcDbBlockTableRecord
  2
*D14
340
0
 70
     0
280
     1
281
     0
  0
BLOCK_RECORD
  5
890F
330
1
100
AcDbSymbolTableRecord
100
AcDbBlockTableRecord
  2
*D15
340
0
 70
     0
280
     1
281
     0
  0
BLOCK_RECORD
  5
897A
330
1
100
AcDbSymbolTableRecord
100
AcDbBlockTableRecord
  2
*D16
340
0
 70
     0
280
     1
281
     0
  0
BLOCK_RECORD
  5
8986
330
1
100
AcDbSymbolTableRecord
100
AcDbBlockTableRecord
  2
*D17
340
0
 70
     0
280
     1
281
     0
  0
BLOCK_RECORD
  5
8B88
330
1
100
AcDbSymbolTableRecord
100
AcDbBlockTableRecord
  2
*D18
340
0
 70
     0
280
     1
281
     0
  0
BLOCK_RECORD
  5
8D32
330
1
100
AcDbSymbolTableRecord
100
AcDbBlockTableRecord
  2
*D19
340
0
 70
     0
280
     1
281
     0
  0
BLOCK_RECORD
  5
92F6
330
1
100
AcDbSymbolTableRecord
100
AcDbBlockTableRecord
  2
*D20
340
0
 70
     0
280
     1
281
     0
  0
BLOCK_RECORD
  5
939E
330
1
100
AcDbSymbolTableRecord
100
AcDbBlockTableRecord
  2
*D21
340
0
 70
     0
280
     1
281
     0
  0
BLOCK_RECORD
  5
9559
330
1
100
AcDbSymbolTableRecord
100
AcDbBlockTableRecord
  2
*D22
340
0
 70
     0
280
     1
281
     0
  0
BLOCK_RECORD
  5
990A
330
1
100
AcDbSymbolTableRecord
100
AcDbBlockTableRecord
  2
*D23
340
0
 70
     0
280
     1
281
     0
  0
BLOCK_RECORD
  5
9A76
330
1
100
AcDbSymbolTableRecord
100
AcDbBlockTableRecord
  2
*D25
340
0
 70
     0
280
     1
281
     0
  0
BLOCK_RECORD
  5
9A8E
330
1
100
AcDbSymbolTableRecord
100
AcDbBlockTableRecord
  2
*D26
340
0
 70
     0
280
     1
281
     0
  0
BLOCK_RECORD
  5
9A9B
330
1
100
AcDbSymbolTableRecord
100
AcDbBlockTableRecord
  2
*D27
340
0
 70
     0
280
     1
281
     0
  0
BLOCK_RECORD
  5
9AA8
330
1
100
AcDbSymbolTableRecord
100
AcDbBlockTableRecord
  2
*D28
340
0
 70
     0
280
     1
281
     0
  0
BLOCK_RECORD
  5
9AB5
330
1
100
AcDbSymbolTableRecord
100
AcDbBlockTableRecord
  2
*D29
340
0
 70
     0
280
     1
281
     0
  0
BLOCK_RECORD
  5
9AC2
330
1
100
AcDbSymbolTableRecord
100
AcDbBlockTableRecord
  2
*D30
340
0
 70
     0
280
     1
281
     0
  0
BLOCK_RECORD
  5
9AF9
330
1
100
AcDbSymbolTableRecord
100
AcDbBlockTableRecord
  2
*D31
340
0
 70
     0
280
     1
281
     0
  0
BLOCK_RECORD
  5
9B05
330
1
100
AcDbSymbolTableRecord
100
AcDbBlockTableRecord
  2
*D32
340
0
 70
     0
280
     1
281
     0
  0
BLOCK_RECORD
  5
9B11
330
1
100
AcDbSymbolTableRecord
100
AcDbBlockTableRecord
  2
*D33
340
0
 70
     0
280
     1
281
     0
  0
BLOCK_RECORD
  5
9B1D
330
1
100
AcDbSymbolTableRecord
100
AcDbBlockTableRecord
  2
*D34
340
0
 70
     0
280
     1
281
     0
  0
BLOCK_RECORD
  5
9B29
330
1
100
AcDbSymbolTableRecord
100
AcDbBlockTableRecord
  2
*D35
340
0
 70
     0
280
     1
281
     0
  0
BLOCK_RECORD
  5
9B35
330
1
100
AcDbSymbolTableRecord
100
AcDbBlockTableRecord
  2
*D36
340
0
 70
     0
280
     1
281
     0
  0
ENDTAB
  0
ENDSEC
  0
SECTION
  2
BLOCKS
  0
BLOCK
  5
D
330
A
100
AcDbEntity
  8
0
390
1D
100
AcDbBlockBegin
  2
*MODEL_SPACE
 70
     0
 10
0.0
 20
0.0
 30
0.0
  3
*MODEL_SPACE
  1
*MODEL_SPACE
  0
ENDBLK
  5
E
330
A
100
AcDbEntity
  8
0
390
1D
100
AcDbBlockEnd
  0
BLOCK
  5
F
330
B
100
AcDbEntity
 67
     1
  8
0
390
1D
100
AcDbBlockBegin
  2
*PAPER_SPACE
 70
     0
 10
0.0
 20
0.0
 30
0.0
  3
*PAPER_SPACE
  1
*PAPER_SPACE
  0
ENDBLK
  5
10
330
B
100
AcDbEntity
 67
     1
  8
0
390
1D
100
AcDbBlockEnd
  0
BLOCK
  5
E45
330
4E
100
AcDbEntity
  8
0
390
1D
100
AcDbBlockBegin
  2
_DOT
 70
     0
 10
0.0
 20
0.0
 30
0.0
  3
_DOT
  1
_DOT
  0
POLYLINE
  5
E47
330
4E
100
AcDbEntity
  8
0
  6
ByBlock
 62
     0
370
    -2
390
1D
100
AcDb2dPolyline
 66
     1
 10
0.0
 20
0.0
 30
0.0
 70
     1
 40
0.5
 41
0.5
  0
VERTEX
  5
E48
330
E47
100
AcDbEntity
  8
0
  6
ByBlock
 62
     0
370
    -2
390
1D
100
AcDbVertex
100
AcDb2dVertex
 10
-0.25
 20
0.0
 30
0.0
 42
1.0
  0
VERTEX
  5
E49
330
E47
100
AcDbEntity
  8
0
  6
ByBlock
 62
     0
370
    -2
390
1D
100
AcDbVertex
100
AcDb2dVertex
 10
0.25
 20
0.0
 30
0.0
 42
1.0
  0
SEQEND
  5
E4A
330
E47
100
AcDbEntity
  8
0
390
1D
  0
LINE
  5
E4B
330
4E
100
AcDbEntity
  8
0
  6
ByBlock
 62
     0
370
    -2
390
1D
100
AcDbLine
 10
-0.5
 20
0.0
 30
0.0
 11
-1.0
 21
0.0
 31
0.0
  0
ENDBLK
  5
E4C
330
4E
100
AcDbEntity
  8
0
390
1D
100
AcDbBlockEnd
  0
BLOCK
  5
3A6
330
3A5
100
AcDbEntity
  8
0
100
AcDbBlockBegin
  2
名称未設定-1
 70
     0
 10
0.0
 20
0.0
 30
0.0
  3
名称未設定-1
  1
名称未設定-1
  0
INSERT
  5
3A7
330
3A5
100
AcDbEntity
  8
LOGO
100
AcDbBlockReference
  2
block 2
 10
0.0
 20
0.0
 30
0.0
  0
ENDBLK
  5
3CC
330
3A5
100
AcDbEntity
  8
0
100
AcDbBlockEnd
  0
BLOCK
  5
3A9
330
3A8
100
AcDbEntity
  8
0
100
AcDbBlockBegin
  2
block 2
 70
     0
 10
0.0
 20
0.0
 30
0.0
  3
block 2
  1
block 2
  0
INSERT
  5
3AA
330
3A8
100
AcDbEntity
  8
LOGO
100
AcDbBlockReference
  2
block 3
 10
0.0
 20
0.0
 30
0.0
  0
ENDBLK
  5
3CB
330
3A8
100
AcDbEntity
  8
0
100
AcDbBlockEnd
  0
BLOCK
  5
3AC
330
3AB
100
AcDbEntity
  8
0
100
AcDbBlockBegin
  2
block 3
 70
     0
 10
0.0
 20
0.0
 30
0.0
  3
block 3
  1
block 3
  0
INSERT
  5
3AD
330
3AB
100
AcDbEntity
  8
LOGO
100
AcDbBlockReference
  2
block 4
 10
0.0
 20
0.0
 30
0.0
  0
ENDBLK
  5
3CA
330
3AB
100
AcDbEntity
  8
0
100
AcDbBlockEnd
  0
BLOCK
  5
3AF
330
3AE
100
AcDbEntity
  8
0
100
AcDbBlockBegin
  2
block 4
 70
     0
 10
0.0
 20
0.0
 30
0.0
  3
block 4
  1
block 4
  0
POLYLINE
  5
3B0
330
3AE
100
AcDbEntity
  8
LOGO
370
     0
100
AcDb2dPolyline
 66
     1
 10
0.0
 20
0.0
 30
0.0
  0
VERTEX
  5
3B1
330
3B0
100
AcDbEntity
  8
LOGO
370
     0
100
AcDbVertex
100
AcDb2dVertex
 10
83.79545727667795
 20
167.6444858234922
 30
0.0
  0
VERTEX
  5
3B2
330
3B0
100
AcDbEntity
  8
LOGO
370
     0
100
AcDbVertex
100
AcDb2dVertex
 10
83.79545727667795
 20
159.7968976406313
 30
0.0
  0
VERTEX
  5
3B3
330
3B0
100
AcDbEntity
  8
LOGO
370
     0
100
AcDbVertex
100
AcDb2dVertex
 10
71.3631329975216
 20
159.7968976406313
 30
0.0
  0
VERTEX
  5
3B4
330
3B0
100
AcDbEntity
  8
LOGO
370
     0
100
AcDbVertex
100
AcDb2dVertex
 10
71.3631329975216
 20
127.8027915271048
 30
0.0
  0
VERTEX
  5
3B5
330
3B0
100
AcDbEntity
  8
LOGO
370
     0
100
AcDbVertex
100
AcDb2dVertex
 10
60.43011526263018
 20
127.8027915271048
 30
0.0
  0
VERTEX
  5
3B6
330
3B0
100
AcDbEntity
  8
LOGO
370
     0
100
AcDbVertex
100
AcDb2dVertex
 10
60.43011526263018
 20
159.7968976406313
 30
0.0
  0
VERTEX
  5
3B7
330
3B0
100
AcDbEntity
  8
LOGO
370
     0
100
AcDbVertex
100
AcDb2dVertex
 10
48.21793273020759
 20
159.7968976406313
 30
0.0
  0
VERTEX
  5
3B8
330
3B0
100
AcDbEntity
  8
LOGO
370
     0
100
AcDbVertex
100
AcDb2dVertex
 10
48.21793273020759
 20
167.6444858234922
 30
0.0
  0
VERTEX
  5
3B9
330
3B0
100
AcDbEntity
  8
LOGO
370
     0
100
AcDbVertex
100
AcDb2dVertex
 10
83.79545727667795
 20
167.6444858234922
 30
0.0
  0
SEQEND
  5
3BA
330
3B0
100
AcDbEntity
  8
LOGO
370
     0
  0
HATCH
  5
3BB
330
3AE
100
AcDbEntity
  8
LOGO
 62
   250
420
  2234388
100
AcDbHatch
 10
0.0
 20
0.0
 30
0.0
210
0.0
220
0.0
230
1.0
  2
SOLID
 70
     1
 71
     0
 91
        1
 92
        1
 93
        8
 72
     1
 10
83.79545727667795
 20
167.6444858234922
 11
83.79545727667795
 21
159.7968976406313
 72
     1
 10
83.79545727667795
 20
159.7968976406313
 11
71.3631329975216
 21
159.7968976406313
 72
     1
 10
71.3631329975216
 20
159.7968976406313
 11
71.3631329975216
 21
127.8027915271048
 72
     1
 10
71.3631329975216
 20
127.8027915271048
 11
60.43011526263018
 21
127.8027915271048
 72
     1
 10
60.43011526263018
 20
127.8027915271048
 11
60.43011526263018
 21
159.7968976406313
 72
     1
 10
60.43011526263018
 20
159.7968976406313
 11
48.21793273020759
 21
159.7968976406313
 72
     1
 10
48.21793273020759
 20
159.7968976406313
 11
48.21793273020759
 21
167.6444858234922
 72
     1
 10
48.21793273020759
 20
167.6444858234922
 11
83.79545727667795
 21
167.6444858234922
 97
        0
 75
     2
 76
     1
 98
        0
  0
INSERT
  5
3BC
330
3AE
100
AcDbEntity
  8
LOGO
100
AcDbBlockReference
  2
block 5
 10
0.0
 20
0.0
 30
0.0
  0
ENDBLK
  5
3C9
330
3AE
100
AcDbEntity
  8
0
100
AcDbBlockEnd
  0
BLOCK
  5
3BE
330
3BD
100
AcDbEntity
  8
0
100
AcDbBlockBegin
  2
block 5
 70
     0
 10
0.0
 20
0.0
 30
0.0
  3
block 5
  1
block 5
  0
SPLINE
  5
3BF
330
3BD
100
AcDbEntity
  8
LOGO
370
     0
100
AcDbSpline
210
0.0
220
0.0
230
1.0
 70
    11
 71
     3
 72
    56
 73
    52
 74
     0
 42
0.000000001
 43
0.0000000001
 40
0.0
 40
0.0
 40
0.0
 40
0.0
 40
1.0
 40
1.0
 40
1.0
 40
2.0
 40
2.0
 40
2.0
 40
3.0
 40
3.0
 40
3.0
 40
4.0
 40
4.0
 40
4.0
 40
5.0
 40
5.0
 40
5.0
 40
6.0
 40
6.0
 40
6.0
 40
7.0
 40
7.0
 40
7.0
 40
8.0
 40
8.0
 40
8.0
 40
9.0
 40
9.0
 40
9.0
 40
10.0
 40
10.0
 40
10.0
 40
11.0
 40
11.0
 40
11.0
 40
12.0
 40
12.0
 40
12.0
 40
13.0
 40
13.0
 40
13.0
 40
14.0
 40
14.0
 40
14.0
 40
15.0
 40
15.0
 40
15.0
 40
16.0
 40
16.0
 40
16.0
 40
17.0
 40
17.0
 40
17.0
 40
17.0
 10
100.4504378777679
 20
166.69157178364
 30
0.0
 10
101.9848844191641
 20
167.1313385124438
 30
0.0
 10
103.9637485713373
 20
166.7649523658846
 30
0.0
 10
103.9637485713373
 20
166.7649523658846
 30
0.0
 10
103.9637485713373
 20
166.7649523658846
 30
0.0
 10
103.0132460999156
 20
163.911205638077
 30
0.0
 10
103.0132460999156
 20
163.911205638077
 30
0.0
 10
103.0132460999156
 20
163.911205638077
 30
0.0
 10
101.0674548862189
 20
164.3601018759394
 30
0.0
 10
99.57090442016032
 20
163.1805004036133
 30
0.0
 10
98.40508333886608
 20
162.258247733807
 30
0.0
 10
97.65301849830304
 20
159.804132345923
 30
0.0
 10
97.3598406791005
 20
158.8699940888517
 30
0.0
 10
97.3598406791005
 20
158.8699940888517
 30
0.0
 10
96.07137411762282
 20
154.9119212747295
 30
0.0
 10
96.07137411762282
 20
154.9119212747295
 30
0.0
 10
96.07137411762282
 20
154.9119212747295
 30
0.0
 10
100.3012651448482
 20
154.9119212747295
 30
0.0
 10
100.3012651448482
 20
154.9119212747295
 30
0.0
 10
100.3012651448482
 20
154.9119212747295
 30
0.0
 10
99.64152892419852
 20
152.4199098115079
 30
0.0
 10
99.64152892419852
 20
152.4199098115079
 30
0.0
 10
99.64152892419852
 20
152.4199098115079
 30
0.0
 10
95.38097652692731
 20
152.4199098115079
 30
0.0
 10
95.38097652692731
 20
152.4199098115079
 30
0.0
 10
95.38097652692731
 20
152.4199098115079
 30
0.0
 10
87.75353009080013
 20
127.8027915271048
 30
0.0
 10
87.75353009080013
 20
127.8027915271048
 30
0.0
 10
87.75353009080013
 20
127.8027915271048
 30
0.0
 10
85.36538832498108
 20
127.8027915271048
 30
0.0
 10
85.36538832498108
 20
127.8027915271048
 30
0.0
 10
85.36538832498108
 20
127.8027915271048
 30
0.0
 10
93.00006946639998
 20
152.4199098115079
 30
0.0
 10
93.00006946639998
 20
152.4199098115079
 30
0.0
 10
93.00006946639998
 20
152.4199098115079
 30
0.0
 10
89.85297266450198
 20
152.4199098115079
 30
0.0
 10
89.85297266450198
 20
152.4199098115079
 30
0.0
 10
89.85297266450198
 20
152.4199098115079
 30
0.0
 10
90.51270888515164
 20
154.9119212747295
 30
0.0
 10
90.51270888515164
 20
154.9119212747295
 30
0.0
 10
90.51270888515164
 20
154.9119212747295
 30
0.0
 10
93.6904670570955
 20
154.9119212747295
 30
0.0
 10
93.6904670570955
 20
154.9119212747295
 30
0.0
 10
93.6904670570955
 20
154.9119212747295
 30
0.0
 10
94.81598049462158
 20
158.3616699146644
 30
0.0
 10
94.81598049462158
 20
158.3616699146644
 30
0.0
 10
95.7237637538445
 20
161.2605474231013
 30
0.0
 10
96.4968436907311
 20
162.8139420021662
 30
0.0
 10
97.15657991138076
 20
163.9844139654337
 30
0.0
 10
97.81183750494507
 20
165.1523021053827
 30
0.0
 10
99.1047826935081
 20
166.3084769129547
 30
0.0
 10
100.4504378777679
 20
166.69157178364
 30
0.0
  0
HATCH
  5
3C0
330
3BD
100
AcDbEntity
  8
LOGO
 62
   250
420
  2234388
100
AcDbHatch
 10
0.0
 20
0.0
 30
0.0
210
0.0
220
0.0
230
1.0
  2
SOLID
 70
     1
 71
     0
 91
        1
 92
        1
 93
        1
 72
     4
 94
        3
 73
     0
 74
     1
 95
       56
 96
       52
 40
0.0
 40
0.0
 40
0.0
 40
0.0
 40
1.0
 40
1.0
 40
1.0
 40
2.0
 40
2.0
 40
2.0
 40
3.0
 40
3.0
 40
3.0
 40
4.0
 40
4.0
 40
4.0
 40
5.0
 40
5.0
 40
5.0
 40
6.0
 40
6.0
 40
6.0
 40
7.0
 40
7.0
 40
7.0
 40
8.0
 40
8.0
 40
8.0
 40
9.0
 40
9.0
 40
9.0
 40
10.0
 40
10.0
 40
10.0
 40
11.0
 40
11.0
 40
11.0
 40
12.0
 40
12.0
 40
12.0
 40
13.0
 40
13.0
 40
13.0
 40
14.0
 40
14.0
 40
14.0
 40
15.0
 40
15.0
 40
15.0
 40
16.0
 40
16.0
 40
16.0
 40
17.0
 40
17.0
 40
17.0
 40
17.0
 10
100.4504378777679
 20
166.69157178364
 10
101.9848844191641
 20
167.1313385124438
 10
103.9637485713373
 20
166.7649523658846
 10
103.9637485713373
 20
166.7649523658846
 10
103.9637485713373
 20
166.7649523658846
 10
103.0132460999156
 20
163.911205638077
 10
103.0132460999156
 20
163.911205638077
 10
103.0132460999156
 20
163.911205638077
 10
101.0674548862189
 20
164.3601018759394
 10
99.57090442016032
 20
163.1805004036133
 10
98.40508333886608
 20
162.258247733807
 10
97.65301849830304
 20
159.804132345923
 10
97.3598406791005
 20
158.8699940888517
 10
97.3598406791005
 20
158.8699940888517
 10
96.07137411762282
 20
154.9119212747295
 10
96.07137411762282
 20
154.9119212747295
 10
96.07137411762282
 20
154.9119212747295
 10
100.3012651448482
 20
154.9119212747295
 10
100.3012651448482
 20
154.9119212747295
 10
100.3012651448482
 20
154.9119212747295
 10
99.64152892419852
 20
152.4199098115079
 10
99.64152892419852
 20
152.4199098115079
 10
99.64152892419852
 20
152.4199098115079
 10
95.38097652692731
 20
152.4199098115079
 10
95.38097652692731
 20
152.4199098115079
 10
95.38097652692731
 20
152.4199098115079
 10
87.75353009080013
 20
127.8027915271048
 10
87.75353009080013
 20
127.8027915271048
 10
87.75353009080013
 20
127.8027915271048
 10
85.36538832498108
 20
127.8027915271048
 10
85.36538832498108
 20
127.8027915271048
 10
85.36538832498108
 20
127.8027915271048
 10
93.00006946639998
 20
152.4199098115079
 10
93.00006946639998
 20
152.4199098115079
 10
93.00006946639998
 20
152.4199098115079
 10
89.85297266450198
 20
152.4199098115079
 10
89.85297266450198
 20
152.4199098115079
 10
89.85297266450198
 20
152.4199098115079
 10
90.51270888515164
 20
154.9119212747295
 10
90.51270888515164
 20
154.9119212747295
 10
90.51270888515164
 20
154.9119212747295
 10
93.6904670570955
 20
154.9119212747295
 10
93.6904670570955
 20
154.9119212747295
 10
93.6904670570955
 20
154.9119212747295
 10
94.81598049462158
 20
158.3616699146644
 10
94.81598049462158
 20
158.3616699146644
 10
95.7237637538445
 20
161.2605474231013
 10
96.4968436907311
 20
162.8139420021662
 10
97.15657991138076
 20
163.9844139654337
 10
97.81183750494507
 20
165.1523021053827
 10
99.1047826935081
 20
166.3084769129547
 10
100.4504378777679
 20
166.69157178364
 97
        0
 75
     2
 76
     1
 98
        0
  0
SPLINE
  5
3C1
330
3BD
100
AcDbEntity
  8
LOGO
370
     0
100
AcDbSpline
210
0.0
220
0.0
230
1.0
 70
    11
 71
     3
 72
    38
 73
    34
 74
     0
 42
0.000000001
 43
0.0000000001
 40
0.0
 40
0.0
 40
0.0
 40
0.0
 40
1.0
 40
1.0
 40
1.0
 40
2.0
 40
2.0
 40
2.0
 40
3.0
 40
3.0
 40
3.0
 40
4.0
 40
4.0
 40
4.0
 40
5.0
 40
5.0
 40
5.0
 40
6.0
 40
6.0
 40
6.0
 40
7.0
 40
7.0
 40
7.0
 40
8.0
 40
8.0
 40
8.0
 40
9.0
 40
9.0
 40
9.0
 40
10.0
 40
10.0
 40
10.0
 40
11.0
 40
11.0
 40
11.0
 40
11.0
 10
126.377554584636
 20
154.8151140277308
 30
0.0
 10
126.377554584636
 20
154.8151140277308
 30
0.0
 10
128.8311532078563
 20
154.8151140277308
 30
0.0
 10
128.8311532078563
 20
154.8151140277308
 30
0.0
 10
128.8311532078563
 20
154.8151140277308
 30
0.0
 10
127.7345785914971
 20
151.3062819612468
 30
0.0
 10
127.7345785914971
 20
151.3062819612468
 30
0.0
 10
128.571392836906
 20
152.2922689395754
 30
0.0
 10
129.8860421413442
 20
153.604506675583
 30
0.0
 10
131.0163787157314
 20
154.2664822097754
 30
0.0
 10
132.7044766171327
 20
155.2500576196734
 30
0.0
 10
133.6642808525008
 20
155.3847609420097
 30
0.0
 10
134.7284715499351
 20
155.3565111403944
 30
0.0
 10
134.7284715499351
 20
155.3565111403944
 30
0.0
 10
133.6877075172549
 20
152.0345756272799
 30
0.0
 10
133.6877075172549
 20
152.0345756272799
 30
0.0
 10
133.011434827367
 20
152.3184516825359
 30
0.0
 10
130.930940291334
 20
151.7768823149844
 30
0.0
 10
129.739280976855
 20
150.9162968950455
 30
0.0
 10
128.66613302525
 20
150.1454562717016
 30
0.0
 10
127.9192358313239
 20
149.4857200510519
 30
0.0
 10
127.0393578639405
 20
147.8282835196966
 30
0.0
 10
126.164647543194
 20
146.1699857139017
 30
0.0
 10
125.4742499524985
 20
143.5262176944419
 30
0.0
 10
124.2822461282437
 20
139.6959580071401
 30
0.0
 10
124.2822461282437
 20
139.6959580071401
 30
0.0
 10
120.5753209406769
 20
127.8027915271048
 30
0.0
 10
120.5753209406769
 20
127.8027915271048
 30
0.0
 10
120.5753209406769
 20
127.8027915271048
 30
0.0
 10
118.1964809388044
 20
127.8027915271048
 30
0.0
 10
118.1964809388044
 20
127.8027915271048
 30
0.0
 10
118.1964809388044
 20
127.8027915271048
 30
0.0
 10
126.377554584636
 20
154.8151140277308
 30
0.0
 10
126.377554584636
 20
154.8151140277308
 30
0.0
  0
HATCH
  5
3C2
330
3BD
100
AcDbEntity
  8
LOGO
 62
   250
420
  2234388
100
AcDbHatch
 10
0.0
 20
0.0
 30
0.0
210
0.0
220
0.0
230
1.0
  2
SOLID
 70
     1
 71
     0
 91
        1
 92
        1
 93
        1
 72
     4
 94
        3
 73
     0
 74
     1
 95
       38
 96
       34
 40
0.0
 40
0.0
 40
0.0
 40
0.0
 40
1.0
 40
1.0
 40
1.0
 40
2.0
 40
2.0
 40
2.0
 40
3.0
 40
3.0
 40
3.0
 40
4.0
 40
4.0
 40
4.0
 40
5.0
 40
5.0
 40
5.0
 40
6.0
 40
6.0
 40
6.0
 40
7.0
 40
7.0
 40
7.0
 40
8.0
 40
8.0
 40
8.0
 40
9.0
 40
9.0
 40
9.0
 40
10.0
 40
10.0
 40
10.0
 40
11.0
 40
11.0
 40
11.0
 40
11.0
 10
126.377554584636
 20
154.8151140277308
 10
126.377554584636
 20
154.8151140277308
 10
128.8311532078563
 20
154.8151140277308
 10
128.8311532078563
 20
154.8151140277308
 10
128.8311532078563
 20
154.8151140277308
 10
127.7345785914971
 20
151.3062819612468
 10
127.7345785914971
 20
151.3062819612468
 10
128.571392836906
 20
152.2922689395754
 10
129.8860421413442
 20
153.604506675583
 10
131.0163787157314
 20
154.2664822097754
 10
132.7044766171327
 20
155.2500576196734
 10
133.6642808525008
 20
155.3847609420097
 10
134.7284715499351
 20
155.3565111403944
 10
134.7284715499351
 20
155.3565111403944
 10
133.6877075172549
 20
152.0345756272799
 10
133.6877075172549
 20
152.0345756272799
 10
133.011434827367
 20
152.3184516825359
 10
130.930940291334
 20
151.7768823149844
 10
129.739280976855
 20
150.9162968950455
 10
128.66613302525
 20
150.1454562717016
 10
127.9192358313239
 20
149.4857200510519
 10
127.0393578639405
 20
147.8282835196966
 10
126.164647543194
 20
146.1699857139017
 10
125.4742499524985
 20
143.5262176944419
 10
124.2822461282437
 20
139.6959580071401
 10
124.2822461282437
 20
139.6959580071401
 10
120.5753209406769
 20
127.8027915271048
 10
120.5753209406769
 20
127.8027915271048
 10
120.5753209406769
 20
127.8027915271048
 10
118.1964809388044
 20
127.8027915271048
 10
118.1964809388044
 20
127.8027915271048
 10
118.1964809388044
 20
127.8027915271048
 10
126.377554584636
 20
154.8151140277308
 10
126.377554584636
 20
154.8151140277308
 97
        0
 75
     2
 76
     1
 98
        0
  0
SPLINE
  5
3C3
330
3BD
100
AcDbEntity
  8
LOGO
370
     0
100
AcDbSpline
210
0.0
220
0.0
230
1.0
 70
    11
 71
     3
 72
   104
 73
   100
 74
     0
 42
0.000000001
 43
0.0000000001
 40
0.0
 40
0.0
 40
0.0
 40
0.0
 40
1.0
 40
1.0
 40
1.0
 40
2.0
 40
2.0
 40
2.0
 40
3.0
 40
3.0
 40
3.0
 40
4.0
 40
4.0
 40
4.0
 40
5.0
 40
5.0
 40
5.0
 40
6.0
 40
6.0
 40
6.0
 40
7.0
 40
7.0
 40
7.0
 40
8.0
 40
8.0
 40
8.0
 40
9.0
 40
9.0
 40
9.0
 40
10.0
 40
10.0
 40
10.0
 40
11.0
 40
11.0
 40
11.0
 40
12.0
 40
12.0
 40
12.0
 40
13.0
 40
13.0
 40
13.0
 40
14.0
 40
14.0
 40
14.0
 40
15.0
 40
15.0
 40
15.0
 40
16.0
 40
16.0
 40
16.0
 40
17.0
 40
17.0
 40
17.0
 40
18.0
 40
18.0
 40
18.0
 40
19.0
 40
19.0
 40
19.0
 40
20.0
 40
20.0
 40
20.0
 40
21.0
 40
21.0
 40
21.0
 40
22.0
 40
22.0
 40
22.0
 40
23.0
 40
23.0
 40
23.0
 40
24.0
 40
24.0
 40
24.0
 40
25.0
 40
25.0
 40
25.0
 40
26.0
 40
26.0
 40
26.0
 40
27.0
 40
27.0
 40
27.0
 40
28.0
 40
28.0
 40
28.0
 40
29.0
 40
29.0
 40
29.0
 40
30.0
 40
30.0
 40
30.0
 40
31.0
 40
31.0
 40
31.0
 40
32.0
 40
32.0
 40
32.0
 40
33.0
 40
33.0
 40
33.0
 40
33.0
 10
139.8926730891197
 20
154.8294111834263
 30
0.0
 10
139.8926730891197
 20
154.8294111834263
 30
0.0
 10
142.0344903652445
 20
154.8294111834263
 30
0.0
 10
142.0344903652445
 20
154.8294111834263
 30
0.0
 10
142.0344903652445
 20
154.8294111834263
 30
0.0
 10
140.9516961399171
 20
151.3157559800812
 30
0.0
 10
140.9516961399171
 20
151.3157559800812
 30
0.0
 10
141.8928968473923
 20
152.7887075264977
 30
0.0
 10
142.7341897198865
 20
153.4484437471474
 30
0.0
 10
143.8552245303272
 20
154.2926649527359
 30
0.0
 10
144.9803934580775
 20
155.1296514530327
 30
0.0
 10
146.3139908001845
 20
155.3044901642492
 30
0.0
 10
147.241066606852
 20
155.3044901642492
 30
0.0
 10
148.3855280820469
 20
155.3044901642492
 30
0.0
 10
149.4969166187653
 20
155.0752189084569
 30
0.0
 10
150.0784491203092
 20
153.8172414621372
 30
0.0
 10
150.5228667310863
 20
152.833838307127
 30
0.0
 10
150.5414702589793
 20
152.7201500811143
 30
0.0
 10
150.4140016419347
 20
150.7765981809602
 30
0.0
 10
151.5818897818837
 20
152.7699317437168
 30
0.0
 10
152.4424752018226
 20
153.6256940267945
 30
0.0
 10
153.9038856707499
 20
154.4507949398263
 30
0.0
 10
155.4455669174378
 20
155.3044901642492
 30
0.0
 10
156.339225275853
 20
155.3659851592288
 30
0.0
 10
157.3748216618963
 20
155.2147453676543
 30
0.0
 10
158.911679771723
 20
154.9877134254046
 30
0.0
 10
159.8859534176746
 20
154.4390816074493
 30
0.0
 10
160.3965169054045
 20
152.7816450760939
 30
0.0
 10
160.9070803931344
 20
151.1219692311958
 30
0.0
 10
160.6328506116007
 20
150.2303779314354
 30
0.0
 10
159.9992971339115
 20
147.597634224801
 30
0.0
 10
159.7105979417943
 20
146.4014962832367
 30
0.0
 10
159.2947746424084
 20
144.9400858143094
 30
0.0
 10
158.7463150793409
 20
143.2092687007094
 30
0.0
 10
158.7463150793409
 20
143.2092687007094
 30
0.0
 10
153.9038856707499
 20
127.8027915271048
 30
0.0
 10
153.9038856707499
 20
127.8027915271048
 30
0.0
 10
153.9038856707499
 20
127.8027915271048
 30
0.0
 10
151.3882752878863
 20
127.8027915271048
 30
0.0
 10
151.3882752878863
 20
127.8027915271048
 30
0.0
 10
151.3882752878863
 20
127.8027915271048
 30
0.0
 10
155.6250565106276
 20
141.2751908193897
 30
0.0
 10
155.6250565106276
 20
141.2751908193897
 30
0.0
 10
156.5094131050963
 20
144.0936252951782
 30
0.0
 10
157.109893644309
 20
146.1506931664571
 30
0.0
 10
157.4220195011804
 20
147.4415712963654
 30
0.0
 10
157.8095929989511
 20
149.0530157726519
 30
0.0
 10
157.9656559273867
 20
149.5826995529385
 30
0.0
 10
157.7816877071116
 20
150.7529992613181
 30
0.0
 10
157.6111553680925
 20
151.8430281919372
 30
0.0
 10
157.0582171779396
 20
152.5547853887321
 30
0.0
 10
156.1170164704645
 20
152.5547853887321
 30
0.0
 10
155.1096698860365
 20
152.5547853887321
 30
0.0
 10
154.2962823053817
 20
152.4412694176073
 30
0.0
 10
153.156643967048
 20
151.2945686288697
 30
0.0
 10
152.0170056287143
 20
150.1476955852443
 30
0.0
 10
151.076149431015
 20
148.7930831468137
 30
0.0
 10
150.3337308641742
 20
147.2290087646991
 30
0.0
 10
149.5957909244188
 20
145.6683794803425
 30
0.0
 10
148.8530278478023
 20
143.6822806228776
 30
0.0
 10
148.0964843801539
 20
141.2751908193897
 30
0.0
 10
148.0964843801539
 20
141.2751908193897
 30
0.0
 10
143.8552245303272
 20
127.8027915271048
 30
0.0
 10
143.8552245303272
 20
127.8027915271048
 30
0.0
 10
143.8552245303272
 20
127.8027915271048
 30
0.0
 10
141.486030802177
 20
127.8027915271048
 30
0.0
 10
141.486030802177
 20
127.8027915271048
 30
0.0
 10
141.486030802177
 20
127.8027915271048
 30
0.0
 10
146.3329388378533
 20
143.2092687007094
 30
0.0
 10
146.3329388378533
 20
143.2092687007094
 30
0.0
 10
146.8483254624444
 20
144.8408669988801
 30
0.0
 10
147.2314203331297
 20
146.1837661049335
 30
0.0
 10
147.4867020769946
 20
147.224185627838
 30
0.0
 10
147.9169947869641
 20
149.0197705792876
 30
0.0
 10
148.0306830129768
 20
150.2400242051577
 30
0.0
 10
147.709255392159
 20
151.3157559800812
 30
0.0
 10
147.3874832615654
 20
152.3916600098926
 30
0.0
 10
146.8245542879144
 20
152.6683013598569
 30
0.0
 10
145.8840425999909
 20
152.6683013598569
 30
0.0
 10
145.0989048209514
 20
152.6683013598569
 30
0.0
 10
144.3282364524954
 20
152.3275811915945
 30
0.0
 10
143.4531816219731
 20
151.6538923250251
 30
0.0
 10
142.34627171234
 20
150.8074318058939
 30
0.0
 10
141.901854101563
 20
150.1097995099067
 30
0.0
 10
141.3578731655808
 20
149.289521733736
 30
0.0
 10
140.6299240093235
 20
148.192602607601
 30
0.0
 10
140.2850697237515
 20
147.455696197173
 30
0.0
 10
139.6652966370942
 20
145.8385673095858
 30
0.0
 10
139.0506911970739
 20
144.2214384219986
 30
0.0
 10
138.463991048893
 20
142.3252566160164
 30
0.0
 10
138.0571250036777
 20
141.0154304484394
 30
0.0
 10
138.0571250036777
 20
141.0154304484394
 30
0.0
 10
133.9009590684727
 20
127.8027915271048
 30
0.0
 10
133.9009590684727
 20
127.8027915271048
 30
0.0
 10
133.9009590684727
 20
127.8027915271048
 30
0.0
 10
131.4180771143097
 20
127.8027915271048
 30
0.0
 10
131.4180771143097
 20
127.8027915271048
 30
0.0
 10
131.4180771143097
 20
127.8027915271048
 30
0.0
 10
139.8926730891197
 20
154.8294111834263
 30
0.0
 10
139.8926730891197
 20
154.8294111834263
 30
0.0
  0
HATCH
  5
3C4
330
3BD
100
AcDbEntity
  8
LOGO
 62
   250
420
  2234388
100
AcDbHatch
 10
0.0
 20
0.0
 30
0.0
210
0.0
220
0.0
230
1.0
  2
SOLID
 70
     1
 71
     0
 91
        1
 92
        1
 93
        1
 72
     4
 94
        3
 73
     0
 74
     1
 95
      104
 96
      100
 40
0.0
 40
0.0
 40
0.0
 40
0.0
 40
1.0
 40
1.0
 40
1.0
 40
2.0
 40
2.0
 40
2.0
 40
3.0
 40
3.0
 40
3.0
 40
4.0
 40
4.0
 40
4.0
 40
5.0
 40
5.0
 40
5.0
 40
6.0
 40
6.0
 40
6.0
 40
7.0
 40
7.0
 40
7.0
 40
8.0
 40
8.0
 40
8.0
 40
9.0
 40
9.0
 40
9.0
 40
10.0
 40
10.0
 40
10.0
 40
11.0
 40
11.0
 40
11.0
 40
12.0
 40
12.0
 40
12.0
 40
13.0
 40
13.0
 40
13.0
 40
14.0
 40
14.0
 40
14.0
 40
15.0
 40
15.0
 40
15.0
 40
16.0
 40
16.0
 40
16.0
 40
17.0
 40
17.0
 40
17.0
 40
18.0
 40
18.0
 40
18.0
 40
19.0
 40
19.0
 40
19.0
 40
20.0
 40
20.0
 40
20.0
 40
21.0
 40
21.0
 40
21.0
 40
22.0
 40
22.0
 40
22.0
 40
23.0
 40
23.0
 40
23.0
 40
24.0
 40
24.0
 40
24.0
 40
25.0
 40
25.0
 40
25.0
 40
26.0
 40
26.0
 40
26.0
 40
27.0
 40
27.0
 40
27.0
 40
28.0
 40
28.0
 40
28.0
 40
29.0
 40
29.0
 40
29.0
 40
30.0
 40
30.0
 40
30.0
 40
31.0
 40
31.0
 40
31.0
 40
32.0
 40
32.0
 40
32.0
 40
33.0
 40
33.0
 40
33.0
 40
33.0
 10
139.8926730891197
 20
154.8294111834263
 10
139.8926730891197
 20
154.8294111834263
 10
142.0344903652445
 20
154.8294111834263
 10
142.0344903652445
 20
154.8294111834263
 10
142.0344903652445
 20
154.8294111834263
 10
140.9516961399171
 20
151.3157559800812
 10
140.9516961399171
 20
151.3157559800812
 10
141.8928968473923
 20
152.7887075264977
 10
142.7341897198865
 20
153.4484437471474
 10
143.8552245303272
 20
154.2926649527359
 10
144.9803934580775
 20
155.1296514530327
 10
146.3139908001845
 20
155.3044901642492
 10
147.241066606852
 20
155.3044901642492
 10
148.3855280820469
 20
155.3044901642492
 10
149.4969166187653
 20
155.0752189084569
 10
150.0784491203092
 20
153.8172414621372
 10
150.5228667310863
 20
152.833838307127
 10
150.5414702589793
 20
152.7201500811143
 10
150.4140016419347
 20
150.7765981809602
 10
151.5818897818837
 20
152.7699317437168
 10
152.4424752018226
 20
153.6256940267945
 10
153.9038856707499
 20
154.4507949398263
 10
155.4455669174378
 20
155.3044901642492
 10
156.339225275853
 20
155.3659851592288
 10
157.3748216618963
 20
155.2147453676543
 10
158.911679771723
 20
154.9877134254046
 10
159.8859534176746
 20
154.4390816074493
 10
160.3965169054045
 20
152.7816450760939
 10
160.9070803931344
 20
151.1219692311958
 10
160.6328506116007
 20
150.2303779314354
 10
159.9992971339115
 20
147.597634224801
 10
159.7105979417943
 20
146.4014962832367
 10
159.2947746424084
 20
144.9400858143094
 10
158.7463150793409
 20
143.2092687007094
 10
158.7463150793409
 20
143.2092687007094
 10
153.9038856707499
 20
127.8027915271048
 10
153.9038856707499
 20
127.8027915271048
 10
153.9038856707499
 20
127.8027915271048
 10
151.3882752878863
 20
127.8027915271048
 10
151.3882752878863
 20
127.8027915271048
 10
151.3882752878863
 20
127.8027915271048
 10
155.6250565106276
 20
141.2751908193897
 10
155.6250565106276
 20
141.2751908193897
 10
156.5094131050963
 20
144.0936252951782
 10
157.109893644309
 20
146.1506931664571
 10
157.4220195011804
 20
147.4415712963654
 10
157.8095929989511
 20
149.0530157726519
 10
157.9656559273867
 20
149.5826995529385
 10
157.7816877071116
 20
150.7529992613181
 10
157.6111553680925
 20
151.8430281919372
 10
157.0582171779396
 20
152.5547853887321
 10
156.1170164704645
 20
152.5547853887321
 10
155.1096698860365
 20
152.5547853887321
 10
154.2962823053817
 20
152.4412694176073
 10
153.156643967048
 20
151.2945686288697
 10
152.0170056287143
 20
150.1476955852443
 10
151.076149431015
 20
148.7930831468137
 10
150.3337308641742
 20
147.2290087646991
 10
149.5957909244188
 20
145.6683794803425
 10
148.8530278478023
 20
143.6822806228776
 10
148.0964843801539
 20
141.2751908193897
 10
148.0964843801539
 20
141.2751908193897
 10
143.8552245303272
 20
127.8027915271048
 10
143.8552245303272
 20
127.8027915271048
 10
143.8552245303272
 20
127.8027915271048
 10
141.486030802177
 20
127.8027915271048
 10
141.486030802177
 20
127.8027915271048
 10
141.486030802177
 20
127.8027915271048
 10
146.3329388378533
 20
143.2092687007094
 10
146.3329388378533
 20
143.2092687007094
 10
146.8483254624444
 20
144.8408669988801
 10
147.2314203331297
 20
146.1837661049335
 10
147.4867020769946
 20
147.224185627838
 10
147.9169947869641
 20
149.0197705792876
 10
148.0306830129768
 20
150.2400242051577
 10
147.709255392159
 20
151.3157559800812
 10
147.3874832615654
 20
152.3916600098926
 10
146.8245542879144
 20
152.6683013598569
 10
145.8840425999909
 20
152.6683013598569
 10
145.0989048209514
 20
152.6683013598569
 10
144.3282364524954
 20
152.3275811915945
 10
143.4531816219731
 20
151.6538923250251
 10
142.34627171234
 20
150.8074318058939
 10
141.901854101563
 20
150.1097995099067
 10
141.3578731655808
 20
149.289521733736
 10
140.6299240093235
 20
148.192602607601
 10
140.2850697237515
 20
147.455696197173
 10
139.6652966370942
 20
145.8385673095858
 10
139.0506911970739
 20
144.2214384219986
 10
138.463991048893
 20
142.3252566160164
 10
138.0571250036777
 20
141.0154304484394
 10
138.0571250036777
 20
141.0154304484394
 10
133.9009590684727
 20
127.8027915271048
 10
133.9009590684727
 20
127.8027915271048
 10
133.9009590684727
 20
127.8027915271048
 10
131.4180771143097
 20
127.8027915271048
 10
131.4180771143097
 20
127.8027915271048
 10
131.4180771143097
 20
127.8027915271048
 10
139.8926730891197
 20
154.8294111834263
 10
139.8926730891197
 20
154.8294111834263
 97
        0
 75
     2
 76
     1
 98
        0
  0
SPLINE
  5
3C5
330
3BD
100
AcDbEntity
  8
LOGO
370
     0
100
AcDbSpline
210
0.0
220
0.0
230
1.0
 70
    11
 71
     3
 72
    29
 73
    25
 74
     0
 42
0.000000001
 43
0.0000000001
 40
0.0
 40
0.0
 40
0.0
 40
0.0
 40
1.0
 40
1.0
 40
1.0
 40
2.0
 40
2.0
 40
2.0
 40
3.0
 40
3.0
 40
3.0
 40
4.0
 40
4.0
 40
4.0
 40
5.0
 40
5.0
 40
5.0
 40
6.0
 40
6.0
 40
6.0
 40
7.0
 40
7.0
 40
7.0
 40
8.0
 40
8.0
 40
8.0
 40
8.0
 10
101.6420971922469
 20
132.8388354296931
 30
0.0
 10
101.630039350094
 20
134.7164137077823
 30
0.0
 10
102.2236296937908
 20
138.0598810818841
 30
0.0
 10
103.7487744712405
 20
142.5378191476827
 30
0.0
 10
105.819967243327
 20
148.5896501242061
 30
0.0
 10
107.0602024361932
 20
150.8074318058939
 30
0.0
 10
108.1522984254671
 20
151.8833358357054
 30
0.0
 10
109.741177511439
 20
153.4532668840085
 30
0.0
 10
111.8740375333931
 20
153.5290590346837
 30
0.0
 10
112.5075910110823
 20
153.4532668840085
 30
0.0
 10
113.4012493694975
 20
153.3490526768302
 30
0.0
 10
114.6683563248758
 20
152.7580461564518
 30
0.0
 10
114.7493161221879
 20
150.7838328862519
 30
0.0
 10
114.8106388622796
 20
149.0909118479895
 30
0.0
 10
114.3186789024427
 20
145.9191825971221
 30
0.0
 10
112.6164561002338
 20
140.9489400617108
 30
0.0
 10
110.6444821435766
 20
135.1746117095912
 30
0.0
 10
109.4669477299053
 20
132.8960240524753
 30
0.0
 10
108.5212683953448
 20
131.9072809959403
 30
0.0
 10
106.7346406980658
 20
130.0538184021569
 30
0.0
 10
104.8222669326213
 20
130.2336525051225
 30
0.0
 10
104.5408024457958
 20
130.2336525051225
 30
0.0
 10
104.1721769856939
 20
130.2336525051225
 30
0.0
 10
101.6465758193322
 20
130.6305277668397
 30
0.0
 10
101.6420971922469
 20
132.8388354296931
 30
0.0
  0
SPLINE
  5
3C6
330
3BD
100
AcDbEntity
  8
LOGO
370
     0
100
AcDbSpline
210
0.0
220
0.0
230
1.0
 70
    11
 71
     3
 72
    32
 73
    28
 74
     0
 42
0.000000001
 43
0.0000000001
 40
0.0
 40
0.0
 40
0.0
 40
0.0
 40
1.0
 40
1.0
 40
1.0
 40
2.0
 40
2.0
 40
2.0
 40
3.0
 40
3.0
 40
3.0
 40
4.0
 40
4.0
 40
4.0
 40
5.0
 40
5.0
 40
5.0
 40
6.0
 40
6.0
 40
6.0
 40
7.0
 40
7.0
 40
7.0
 40
8.0
 40
8.0
 40
8.0
 40
9.0
 40
9.0
 40
9.0
 40
9.0
 10
106.2595617172429
 20
153.4105476718098
 30
0.0
 10
104.8222669326213
 20
151.5474388043041
 30
0.0
 10
103.7177685914188
 20
149.8758773721411
 30
0.0
 10
101.9232171692965
 20
144.6141795664062
 30
0.0
 10
100.2754269116635
 20
139.7999999594306
 30
0.0
 10
99.22777268346732
 20
136.3052927937542
 30
0.0
 10
99.06964269637689
 20
132.039572749846
 30
0.0
 10
98.94665270641765
 20
128.8673267343149
 30
0.0
 10
100.8807305877373
 20
127.8027915271048
 30
0.0
 10
103.7129454545577
 20
127.8027915271048
 30
0.0
 10
104.9352661390825
 20
127.8027915271048
 30
0.0
 10
108.0151835347002
 20
127.8827177950895
 30
0.0
 10
110.2045431598849
 20
130.5926316915021
 30
0.0
 10
111.7417457794874
 20
132.4984597712065
 30
0.0
 10
113.155269389579
 20
134.475256864725
 30
0.0
 10
115.0562743324223
 20
140.9489400617108
 30
0.0
 10
116.6361961642235
 20
146.3680788349845
 30
0.0
 10
117.7282921534974
 20
149.8639917848761
 30
0.0
 10
117.6480213757369
 20
151.8595646611754
 30
0.0
 10
117.6480213757369
 20
151.8595646611754
 30
0.0
 10
117.6480213757369
 20
151.8595646611754
 30
0.0
 10
117.6480213757369
 20
151.8595646611754
 30
0.0
 10
117.13229024137
 20
155.18150017429
 30
0.0
 10
114.7162431837115
 20
155.886194920681
 30
0.0
 10
113.3351034925446
 20
155.886194920681
 30
0.0
 10
111.9829026225447
 20
155.886194920681
 30
0.0
 10
108.3414342923792
 20
156.1251124501957
 30
0.0
 10
106.2595617172429
 20
153.4105476718098
 30
0.0
  0
HATCH
  5
3C7
330
3BD
100
AcDbEntity
  8
LOGO
 62
   250
420
  2234388
100
AcDbHatch
 10
0.0
 20
0.0
 30
0.0
210
0.0
220
0.0
230
1.0
  2
SOLID
 70
     1
 71
     0
 91
        2
 92
        1
 93
        1
 72
     4
 94
        3
 73
     0
 74
     1
 95
       29
 96
       25
 40
0.0
 40
0.0
 40
0.0
 40
0.0
 40
1.0
 40
1.0
 40
1.0
 40
2.0
 40
2.0
 40
2.0
 40
3.0
 40
3.0
 40
3.0
 40
4.0
 40
4.0
 40
4.0
 40
5.0
 40
5.0
 40
5.0
 40
6.0
 40
6.0
 40
6.0
 40
7.0
 40
7.0
 40
7.0
 40
8.0
 40
8.0
 40
8.0
 40
8.0
 10
101.6420971922469
 20
132.8388354296931
 10
101.630039350094
 20
134.7164137077823
 10
102.2236296937908
 20
138.0598810818841
 10
103.7487744712405
 20
142.5378191476827
 10
105.819967243327
 20
148.5896501242061
 10
107.0602024361932
 20
150.8074318058939
 10
108.1522984254671
 20
151.8833358357054
 10
109.741177511439
 20
153.4532668840085
 10
111.8740375333931
 20
153.5290590346837
 10
112.5075910110823
 20
153.4532668840085
 10
113.4012493694975
 20
153.3490526768302
 10
114.6683563248758
 20
152.7580461564518
 10
114.7493161221879
 20
150.7838328862519
 10
114.8106388622796
 20
149.0909118479895
 10
114.3186789024427
 20
145.9191825971221
 10
112.6164561002338
 20
140.9489400617108
 10
110.6444821435766
 20
135.1746117095912
 10
109.4669477299053
 20
132.8960240524753
 10
108.5212683953448
 20
131.9072809959403
 10
106.7346406980658
 20
130.0538184021569
 10
104.8222669326213
 20
130.2336525051225
 10
104.5408024457958
 20
130.2336525051225
 10
104.1721769856939
 20
130.2336525051225
 10
101.6465758193322
 20
130.6305277668397
 10
101.6420971922469
 20
132.8388354296931
 97
        0
 92
        1
 93
        1
 72
     4
 94
        3
 73
     0
 74
     1
 95
       32
 96
       28
 40
0.0
 40
0.0
 40
0.0
 40
0.0
 40
1.0
 40
1.0
 40
1.0
 40
2.0
 40
2.0
 40
2.0
 40
3.0
 40
3.0
 40
3.0
 40
4.0
 40
4.0
 40
4.0
 40
5.0
 40
5.0
 40
5.0
 40
6.0
 40
6.0
 40
6.0
 40
7.0
 40
7.0
 40
7.0
 40
8.0
 40
8.0
 40
8.0
 40
9.0
 40
9.0
 40
9.0
 40
9.0
 10
106.2595617172429
 20
153.4105476718098
 10
104.8222669326213
 20
151.5474388043041
 10
103.7177685914188
 20
149.8758773721411
 10
101.9232171692965
 20
144.6141795664062
 10
100.2754269116635
 20
139.7999999594306
 10
99.22777268346732
 20
136.3052927937542
 10
99.06964269637689
 20
132.039572749846
 10
98.94665270641765
 20
128.8673267343149
 10
100.8807305877373
 20
127.8027915271048
 10
103.7129454545577
 20
127.8027915271048
 10
104.9352661390825
 20
127.8027915271048
 10
108.0151835347002
 20
127.8827177950895
 10
110.2045431598849
 20
130.5926316915021
 10
111.7417457794874
 20
132.4984597712065
 10
113.155269389579
 20
134.475256864725
 10
115.0562743324223
 20
140.9489400617108
 10
116.6361961642235
 20
146.3680788349845
 10
117.7282921534974
 20
149.8639917848761
 10
117.6480213757369
 20
151.8595646611754
 10
117.6480213757369
 20
151.8595646611754
 10
117.6480213757369
 20
151.8595646611754
 10
117.6480213757369
 20
151.8595646611754
 10
117.13229024137
 20
155.18150017429
 10
114.7162431837115
 20
155.886194920681
 10
113.3351034925446
 20
155.886194920681
 10
111.9829026225447
 20
155.886194920681
 10
108.3414342923792
 20
156.1251124501957
 10
106.2595617172429
 20
153.4105476718098
 97
        0
 75
     2
 76
     1
 98
        0
  0
ENDBLK
  5
3C8
330
3BD
100
AcDbEntity
  8
0
100
AcDbBlockEnd
  0
BLOCK
  5
455D
330
455C
100
AcDbEntity
  8
0
  6
ByBlock
 62
     0
100
AcDbBlockBegin
  2
_OPEN30
 70
     0
 10
0.0
 20
0.0
 30
0.0
  3
_OPEN30
  1
_OPEN30
  0
LINE
  5
455E
330
455C
100
AcDbEntity
  8
0
  6
ByBlock
 62
     0
100
AcDbLine
 10
-1.0
 20
0.267949
 30
0.0
 11
0.0
 21
0.0
 31
0.0
  0
LINE
  5
455F
330
455C
100
AcDbEntity
  8
0
  6
ByBlock
 62
     0
100
AcDbLine
 10
0.0
 20
0.0
 30
0.0
 11
-1.0
 21
-0.267949
 31
0.0
  0
LINE
  5
4560
330
455C
100
AcDbEntity
  8
0
  6
ByBlock
 62
     0
100
AcDbLine
 10
0.0
 20
0.0
 30
0.0
 11
-1.0
 21
0.0
 31
0.0
  0
ENDBLK
  5
4561
330
455C
100
AcDbEntity
  8
0
  6
ByBlock
 62
     0
100
AcDbBlockEnd
  0
BLOCK
  5
719A
330
7148
100
AcDbEntity
  8
0
100
AcDbBlockBegin
  2
12313
 70
     0
 10
0.0
 20
0.0
 30
0.0
  3
12313
  1
12313
  0
LINE
  5
7149
330
7148
100
AcDbEntity
  8
0
  6
AM_DIN_F_W050
 62
     6
 48
5.0
100
AcDbLine
 10
1753.970394400511
 20
-1844.289773333095
 30
0.0
 11
1753.970394400511
 21
-1820.229806970247
 31
0.0
  0
ARC
  5
714A
330
7148
100
AcDbEntity
  8
0
  6
AM_DIN_F_W050
 62
     6
 48
5.0
100
AcDbCircle
 10
1748.970394400511
 20
-1820.229806970247
 30
0.0
 40
5.0
100
AcDbArc
 50
0.0
 51
90.0
  0
ARC
  5
714B
330
7148
100
AcDbEntity
  8
0
  6
AM_DIN_F_W050
 62
     6
 48
5.0
100
AcDbCircle
 10
1403.970394400511
 20
-1820.229806970247
 30
0.0
 40
5.0
100
AcDbArc
 50
90.0
 51
180.0
  0
LINE
  5
714C
330
7148
100
AcDbEntity
  8
0
  6
AM_DIN_F_W050
 62
     6
 48
5.0
100
AcDbLine
 10
1398.970394400511
 20
-1820.229806970247
 30
0.0
 11
1398.970394400511
 21
-1844.289773333093
 31
0.0
  0
LINE
  5
714D
330
7148
100
AcDbEntity
  8
0
100
AcDbLine
 10
1402.490437701525
 20
-1891.690629126967
 30
0.0
 11
1750.450351099496
 21
-1891.690629126967
 31
0.0
  0
LINE
  5
714E
330
7148
100
AcDbEntity
  8
0
  6
AM_DIN_G_W050
 62
     4
 48
3.0
100
AcDbLine
 10
1576.470394400511
 20
-1971.229806970247
 30
0.0
 11
1576.470394400511
 21
-2083.229806970246
 31
0.0
  0
LINE
  5
714F
330
7148
100
AcDbEntity
  8
0
  6
AM_DIN_G_W050
 62
     4
 48
3.0
100
AcDbLine
 10
1543.970394400511
 20
-1895.229806970247
 30
0.0
 11
1608.970394400511
 21
-1895.229806970247
 31
0.0
  0
LINE
  5
7150
330
7148
100
AcDbEntity
  8
0
  6
AM_DIN_G_W050
 62
     4
 48
3.0
100
AcDbLine
 10
1520.470394400511
 20
-2027.229806970247
 30
0.0
 11
1632.470394400511
 21
-2027.229806970247
 31
0.0
  0
LINE
  5
7151
330
7148
100
AcDbEntity
  8
0
  6
AM_DIN_G_W050
 62
     4
 48
3.0
100
AcDbLine
 10
1476.470394400511
 20
-1930.229806970247
 30
0.0
 11
1496.470394400511
 21
-1930.229806970247
 31
0.0
  0
LINE
  5
7152
330
7148
100
AcDbEntity
  8
0
  6
AM_DIN_G_W050
 62
     4
 48
3.0
100
AcDbLine
 10
1486.470394400511
 20
-1920.229806970247
 30
0.0
 11
1486.470394400511
 21
-1940.229806970247
 31
0.0
  0
LINE
  5
7153
330
7148
100
AcDbEntity
  8
0
  6
AM_DIN_G_W050
 62
     4
 48
3.0
100
AcDbLine
 10
1576.47039440051
 20
-1868.506701543803
 30
0.0
 11
1576.470394400511
 21
-1927.729806970247
 31
0.0
  0
LINE
  5
7154
330
7148
100
AcDbEntity
  8
0
  6
AM_DIN_G_W050
 62
     4
 48
3.0
100
AcDbLine
 10
1676.470394400511
 20
-1930.229806970247
 30
0.0
 11
1656.47039440051
 21
-1930.229806970247
 31
0.0
  0
LINE
  5
7155
330
7148
100
AcDbEntity
  8
0
  6
AM_DIN_G_W050
 62
     4
 48
3.0
100
AcDbLine
 10
1666.47039440051
 20
-1920.229806970247
 30
0.0
 11
1666.47039440051
 21
-1940.229806970247
 31
0.0
  0
SPLINE
  5
7156
330
7148
100
AcDbEntity
  8
0
 62
     7
100
AcDbSpline
210
0.0
220
0.0
230
1.0
 70
    24
 71
     3
 72
     8
 73
     4
 74
     0
 42
0.000000001
 43
0.0000000001
 40
6.0
 40
6.0
 40
6.0
 40
6.0
 40
7.0
 40
7.0
 40
7.0
 40
7.0
 10
1392.078109244261
 20
-1840.746837135177
 30
0.0
 10
1392.078109244261
 20
-1840.746837135177
 30
0.0
 10
1760.862679556761
 20
-1840.746837135177
 30
0.0
 10
1760.862679556761
 20
-1840.746837135177
 30
0.0
  0
LINE
  5
7157
330
7148
100
AcDbEntity
  8
0
100
AcDbLine
 10
1436.844040428106
 20
-1844.289773333094
 30
0.0
 11
1436.844040428106
 21
-1844.289773333094
 31
0.0
  0
LINE
  5
7158
330
7148
100
AcDbEntity
  8
0
100
AcDbLine
 10
1405.454990418897
 20
-1844.289773333094
 30
0.0
 11
1487.587819259452
 21
-1844.289773333094
 31
0.0
  0
LINE
  5
7159
330
7148
100
AcDbEntity
  8
0
  6
AM_DIN_F_W050
 62
     6
 48
5.0
100
AcDbLine
 10
1464.725667129451
 20
-1840.746837135177
 30
0.0
 11
1464.725667129451
 21
-1829.739629037594
 31
0.0
  0
ARC
  5
715A
330
7148
100
AcDbEntity
  8
0
  6
AM_DIN_F_W050
 62
     6
 48
5.0
100
AcDbCircle
 10
1445.483741721042
 20
-1835.243233086386
 30
0.0
 40
20.01352919773626
100
AcDbArc
 50
15.96166732376556
 51
90.0
  0
LINE
  5
715B
330
7148
100
AcDbEntity
  8
0
100
AcDbLine
 10
1758.452479903983
 20
-1794.598405060524
 30
0.0
 11
1394.488308897038
 21
-1794.598405060524
 31
0.0
  0
ARC
  5
715C
330
7148
100
AcDbEntity
  8
0
100
AcDbCircle
 10
1394.488308897038
 20
-1797.598405060524
 30
0.0
 40
3.0
100
AcDbArc
 50
90.0
 51
180.0
  0
ARC
  5
715D
330
7148
100
AcDbEntity
  8
0
100
AcDbCircle
 10
1436.844040428106
 20
-1846.289773333094
 30
0.0
 40
2.0
100
AcDbArc
 50
0.0
 51
90.0
  0
LINE
  5
715E
330
7148
100
AcDbEntity
  8
0
100
AcDbLine
 10
1438.844040428106
 20
-1846.289773333094
 30
0.0
 11
1438.844040428106
 21
-1848.229806970246
 31
0.0
  0
ARC
  5
715F
330
7148
100
AcDbEntity
  8
0
100
AcDbCircle
 10
1440.844040428106
 20
-1848.229806970246
 30
0.0
 40
2.0
100
AcDbArc
 50
180.0
 51
270.0
  0
LINE
  5
7160
330
7148
100
AcDbEntity
  8
0
100
AcDbLine
 10
1421.488308897038
 20
-1684.022625166861
 30
0.0
 11
1424.289236331192
 21
-1684.022625166861
 31
0.0
  0
LINE
  5
7161
330
7148
100
AcDbEntity
  8
0
100
AcDbLine
 10
1391.488308897038
 20
-1739.782801761914
 30
0.0
 11
1391.488308897038
 21
-1746.450683706358
 31
0.0
  0
LINE
  5
7162
330
7148
100
AcDbEntity
  8
0
100
AcDbLine
 10
1421.488308897038
 20
-1739.782801761914
 30
0.0
 11
1421.488308897038
 21
-1742.450683706358
 31
0.0
  0
LINE
  5
7163
330
7148
100
AcDbEntity
  8
0
100
AcDbLine
 10
1424.289236331192
 20
-1739.782801761914
 30
0.0
 11
1424.289236331192
 21
-1742.450683706358
 31
0.0
  0
LINE
  5
7164
330
7148
100
AcDbEntity
  8
0
100
AcDbLine
 10
1716.096748372915
 20
-1844.289773333094
 30
0.0
 11
1716.096748372915
 21
-1844.289773333094
 31
0.0
  0
LINE
  5
7165
330
7148
100
AcDbEntity
  8
0
100
AcDbLine
 10
1747.485798382124
 20
-1844.289773333094
 30
0.0
 11
1665.35296954157
 21
-1844.289773333094
 31
0.0
  0
LINE
  5
7166
330
7148
100
AcDbEntity
  8
0
  6
AM_DIN_F_W050
 62
     6
 48
5.0
100
AcDbLine
 10
1688.215121671571
 20
-1840.746837135177
 30
0.0
 11
1688.215121671571
 21
-1829.739629037594
 31
0.0
  0
ARC
  5
7167
330
7148
100
AcDbEntity
  8
0
  6
AM_DIN_F_W050
 62
     6
 48
5.0
100
AcDbCircle
 10
1707.45704707998
 20
-1835.243233086386
 30
0.0
 40
20.01352919773626
100
AcDbArc
 50
90.0
 51
164.0383326762311
  0
ARC
  5
7168
330
7148
100
AcDbEntity
  8
0
100
AcDbCircle
 10
1758.452479903983
 20
-1797.598405060524
 30
0.0
 40
3.0
100
AcDbArc
 50
0.0
 51
90.0
  0
ARC
  5
7169
330
7148
100
AcDbEntity
  8
0
100
AcDbCircle
 10
1716.096748372915
 20
-1846.289773333094
 30
0.0
 40
2.0
100
AcDbArc
 50
90.0
 51
180.0
  0
LINE
  5
716A
330
7148
100
AcDbEntity
  8
0
100
AcDbLine
 10
1714.096748372915
 20
-1846.289773333094
 30
0.0
 11
1714.096748372915
 21
-1848.229806970246
 31
0.0
  0
ARC
  5
716B
330
7148
100
AcDbEntity
  8
0
100
AcDbCircle
 10
1712.096748372915
 20
-1848.229806970246
 30
0.0
 40
2.0
100
AcDbArc
 50
270.0
 51
0.0
  0
LINE
  5
716C
330
7148
100
AcDbEntity
  8
0
100
AcDbLine
 10
1731.452479903983
 20
-1684.022625166861
 30
0.0
 11
1728.651552469829
 21
-1684.022625166861
 31
0.0
  0
LINE
  5
716D
330
7148
100
AcDbEntity
  8
0
100
AcDbLine
 10
1761.452479903983
 20
-1739.782801761914
 30
0.0
 11
1761.452479903983
 21
-1746.450683706358
 31
0.0
  0
LINE
  5
716E
330
7148
100
AcDbEntity
  8
0
100
AcDbLine
 10
1731.452479903983
 20
-1739.782801761914
 30
0.0
 11
1731.452479903983
 21
-1742.450683706358
 31
0.0
  0
LINE
  5
716F
330
7148
100
AcDbEntity
  8
0
100
AcDbLine
 10
1728.65155246983
 20
-1739.782801761914
 30
0.0
 11
1728.65155246983
 21
-1742.450683706358
 31
0.0
  0
LINE
  5
7170
330
7148
100
AcDbEntity
  8
0
100
AcDbLine
 10
1421.488308897039
 20
-1813.813769643858
 30
0.0
 11
1421.488308897039
 21
-1815.22970388865
 31
0.0
  0
LINE
  5
7171
330
7148
100
AcDbEntity
  8
0
100
AcDbLine
 10
1424.289236331192
 20
-1813.813769643858
 30
0.0
 11
1424.289236331191
 21
-1815.22970388865
 31
0.0
  0
LINE
  5
7172
330
7148
100
AcDbEntity
  8
0
100
AcDbLine
 10
1728.65155246983
 20
-1813.813769643858
 30
0.0
 11
1728.65155246983
 21
-1815.22970388865
 31
0.0
  0
LINE
  5
7173
330
7148
100
AcDbEntity
  8
0
100
AcDbLine
 10
1731.452479903983
 20
-1813.813769643858
 30
0.0
 11
1731.452479903983
 21
-1815.22970388865
 31
0.0
  0
ARC
  5
7174
330
7148
100
AcDbEntity
  8
0
  6
AM_DIN_F_W050
 62
     6
 48
5.0
100
AcDbCircle
 10
1572.108766143832
 20
-1867.774558908178
 30
0.0
 40
4.375531244894843
100
AcDbArc
 50
90.04437288428903
 51
190.3565215435098
  0
ARC
  5
7175
330
7148
100
AcDbEntity
  8
0
  6
AM_DIN_F_W050
 62
     6
 48
5.0
100
AcDbCircle
 10
1574.02114179316
 20
-1866.92256258655
 30
0.0
 40
6.428948941176667
100
AcDbArc
 50
194.7663545145586
 51
222.470940303528
  0
ARC
  5
7176
330
7148
100
AcDbEntity
  8
0
  6
AM_DIN_F_W050
 62
     6
 48
5.0
100
AcDbCircle
 10
1571.177226189325
 20
-1867.207837480001
 30
0.0
 40
4.477892765286671
100
AcDbArc
 50
180.0187719584281
 51
244.9185718649441
  0
LINE
  5
7177
330
7148
100
AcDbEntity
  8
0
  6
AM_DIN_F_W050
 62
     6
 48
5.0
100
AcDbLine
 10
1572.10537750118
 20
-1863.399028975455
 30
0.0
 11
1580.835411299842
 21
-1863.399028975455
 31
0.0
  0
ARC
  5
7178
330
7148
100
AcDbEntity
  8
0
  6
AM_DIN_F_W050
 62
     6
 48
5.0
100
AcDbCircle
 10
1580.83202265719
 20
-1867.774558908178
 30
0.0
 40
4.375531244894843
100
AcDbArc
 50
349.6434784564902
 51
89.95562711570203
  0
ARC
  5
7179
330
7148
100
AcDbEntity
  8
0
  6
AM_DIN_F_W050
 62
     6
 48
5.0
100
AcDbCircle
 10
1578.919647007861
 20
-1866.92256258655
 30
0.0
 40
6.428948941176667
100
AcDbArc
 50
317.5290596964735
 51
345.2336454854415
  0
ARC
  5
717A
330
7148
100
AcDbEntity
  8
0
  6
AM_DIN_F_W050
 62
     6
 48
5.0
100
AcDbCircle
 10
1581.763562611696
 20
-1867.207837480001
 30
0.0
 40
4.477892765286671
100
AcDbArc
 50
295.0814281350558
 51
359.9812280415719
  0
LINE
  5
717B
330
7148
100
AcDbEntity
  8
0
100
AcDbLine
 10
1560.381017692152
 20
-1844.289773333094
 30
0.0
 11
1592.559771108869
 21
-1844.289773333094
 31
0.0
  0
ARC
  5
717C
330
7148
100
AcDbEntity
  8
0
  6
AM_DIN_F_W050
 62
     6
 48
5.0
100
AcDbCircle
 10
1576.470394400511
 20
-1861.705852329147
 30
0.0
 40
11.96095076826119
100
AcDbArc
 50
233.0414148521999
 51
306.9585851477992
  0
LINE
  5
717D
330
7148
100
AcDbEntity
  8
0
100
AcDbLine
 10
1409.454990418897
 20
-1850.229806970246
 30
0.0
 11
1483.587819259452
 21
-1850.229806970247
 31
0.0
  0
ARC
  5
717E
330
7148
100
AcDbEntity
  8
0
100
AcDbCircle
 10
1483.587819259452
 20
-1848.229806970247
 30
0.0
 40
2.0
100
AcDbArc
 50
270.0
 51
0.0
  0
LINE
  5
717F
330
7148
100
AcDbEntity
  8
0
100
AcDbLine
 10
1485.587819259452
 20
-1848.229806970247
 30
0.0
 11
1485.587819259452
 21
-1846.289773333094
 31
0.0
  0
ARC
  5
7180
330
7148
100
AcDbEntity
  8
0
100
AcDbCircle
 10
1487.587819259452
 20
-1846.289773333094
 30
0.0
 40
2.000000000000028
100
AcDbArc
 50
90.0
 51
180.0
  0
LINE
  5
7181
330
7148
100
AcDbEntity
  8
0
100
AcDbLine
 10
1487.587819259452
 20
-1844.289773333094
 30
0.0
 11
1560.381017692152
 21
-1844.289773333094
 31
0.0
  0
ARC
  5
7182
330
7148
100
AcDbEntity
  8
0
100
AcDbCircle
 10
1560.381017692152
 20
-1847.289773333094
 30
0.0
 40
3.0
100
AcDbArc
 50
0.0
 51
90.0
  0
LINE
  5
7183
330
7148
100
AcDbEntity
  8
0
  6
AM_DIN_F_W050
 62
     6
 48
5.0
100
AcDbLine
 10
1563.381017692152
 20
-1850.229806970247
 30
0.0
 11
1563.381017692152
 21
-1861.801882708094
 31
0.0
  0
ARC
  5
7184
330
7148
100
AcDbEntity
  8
0
  6
AM_DIN_F_W050
 62
     6
 48
5.0
100
AcDbCircle
 10
1576.652778752901
 20
-1861.801882708094
 30
0.0
 40
13.27176106074927
100
AcDbArc
 50
180.0
 51
269.212600156732
  0
ARC
  5
7185
330
7148
100
AcDbEntity
  8
0
  6
AM_DIN_F_W050
 62
     6
 48
5.0
100
AcDbCircle
 10
1576.28801004812
 20
-1861.801882708094
 30
0.0
 40
13.27176106074932
100
AcDbArc
 50
270.787399843267
 51
0.0
  0
LINE
  5
7186
330
7148
100
AcDbEntity
  8
0
  6
AM_DIN_F_W050
 62
     6
 48
5.0
100
AcDbLine
 10
1589.559771108869
 20
-1861.801882708094
 30
0.0
 11
1589.559771108869
 21
-1850.229806970247
 31
0.0
  0
ARC
  5
7187
330
7148
100
AcDbEntity
  8
0
100
AcDbCircle
 10
1592.559771108869
 20
-1847.289773333094
 30
0.0
 40
3.0
100
AcDbArc
 50
90.0
 51
180.0
  0
LINE
  5
7188
330
7148
100
AcDbEntity
  8
0
100
AcDbLine
 10
1592.559771108869
 20
-1844.289773333094
 30
0.0
 11
1665.35296954157
 21
-1844.289773333094
 31
0.0
  0
ARC
  5
7189
330
7148
100
AcDbEntity
  8
0
100
AcDbCircle
 10
1665.35296954157
 20
-1846.289773333094
 30
0.0
 40
2.0
100
AcDbArc
 50
0.0
 51
90.0
  0
LINE
  5
718A
330
7148
100
AcDbEntity
  8
0
100
AcDbLine
 10
1667.35296954157
 20
-1846.289773333094
 30
0.0
 11
1667.35296954157
 21
-1848.229806970247
 31
0.0
  0
ARC
  5
718B
330
7148
100
AcDbEntity
  8
0
100
AcDbCircle
 10
1669.35296954157
 20
-1848.229806970247
 30
0.0
 40
2.0
100
AcDbArc
 50
180.0
 51
270.0
  0
LINE
  5
718C
330
7148
100
AcDbEntity
  8
0
100
AcDbLine
 10
1669.35296954157
 20
-1850.229806970247
 30
0.0
 11
1743.485798382124
 21
-1850.229806970246
 31
0.0
  0
LWPOLYLINE
  5
718D
330
7148
100
AcDbEntity
  8
0
100
AcDbPolyline
 90
        8
 70
     1
 43
0.0
 10
1761.452479903983
 20
-1746.450683706358
 42
0.4142135623730951
 10
1757.452479903983
 20
-1742.450683706358
 10
1395.488308897038
 20
-1742.450683706358
 42
0.4142135623730951
 10
1391.488308897038
 20
-1746.450683706358
 10
1391.488308897038
 20
-1797.598405060524
 10
1391.488308897038
 20
-1813.813769643858
 10
1761.452479903983
 20
-1813.813769643858
 10
1761.452479903983
 20
-1797.598405060524
  0
LWPOLYLINE
  5
718E
330
7148
100
AcDbEntity
  8
0
100
AcDbPolyline
 90
        6
 70
     1
 43
0.0
 10
1421.488308897038
 20
-1684.022625166861
 42
0.4142135623730951
 10
1417.488308897038
 20
-1680.022625166861
 10
1395.488308897039
 20
-1680.022625166861
 42
0.4142135623730951
 10
1391.488308897039
 20
-1684.022625166861
 10
1391.488308897038
 20
-1739.782801761914
 10
1421.488308897038
 20
-1739.782801761914
  0
LWPOLYLINE
  5
718F
330
7148
100
AcDbEntity
  8
0
100
AcDbPolyline
 90
        6
 70
     1
 43
0.0
 10
1761.452479903983
 20
-1684.022625166861
 42
0.4142135623730951
 10
1757.452479903983
 20
-1680.022625166861
 10
1735.452479903983
 20
-1680.022625166861
 42
0.4142135623730951
 10
1731.452479903983
 20
-1684.022625166861
 10
1731.452479903983
 20
-1739.782801761914
 10
1761.452479903983
 20
-1739.782801761914
  0
LWPOLYLINE
  5
7190
330
7148
100
AcDbEntity
  8
0
100
AcDbPolyline
 90
        6
 70
     1
 43
0.0
 10
1728.651552469829
 20
-1684.022625166861
 42
0.4142135623730951
 10
1724.651552469829
 20
-1680.022625166861
 10
1428.289236331192
 20
-1680.022625166861
 42
0.4142135623730951
 10
1424.289236331192
 20
-1684.022625166861
 10
1424.289236331192
 20
-1739.782801761914
 10
1728.65155246983
 20
-1739.782801761914
  0
LINE
  5
7191
330
7148
100
AcDbEntity
  8
0
  6
AM_DIN_F_W050
 62
     6
 48
5.0
100
AcDbLine
 10
1563.381017692152
 20
-1861.801882708094
 30
0.0
 11
1589.559771108869
 21
-1861.801882708094
 31
0.0
  0
LINE
  5
7192
330
7148
100
AcDbEntity
  8
0
100
AcDbLine
 10
1563.381017692152
 20
-1847.289773333094
 30
0.0
 11
1563.381017692152
 21
-1850.229806970247
 31
0.0
  0
LINE
  5
7193
330
7148
100
AcDbEntity
  8
0
100
AcDbLine
 10
1589.559771108869
 20
-1847.289773333094
 30
0.0
 11
1589.559771108869
 21
-1850.229806970247
 31
0.0
  0
LINE
  5
7194
330
7148
100
AcDbEntity
  8
0
  6
Continuous
100
AcDbLine
 10
1398.970394400511
 20
-1844.289773333093
 30
0.0
 11
1398.970394400511
 21
-1850.521603037749
 31
0.0
  0
LINE
  5
7195
330
7148
100
AcDbEntity
  8
0
  6
Continuous
100
AcDbLine
 10
1753.970394400511
 20
-1844.289773333095
 30
0.0
 11
1753.970394400511
 21
-1850.229806970247
 31
0.0
  0
LINE
  5
7196
330
7148
100
AcDbEntity
  8
0
  6
AM_DIN_G_W050
 62
     4
 48
3.0
100
AcDbLine
 10
1576.470394400511
 20
-1671.19981784758
 30
0.0
 11
1576.470394400511
 21
-1720.730114631809
 31
0.0
  0
LWPOLYLINE
  5
7197
330
7148
100
AcDbEntity
  8
0
  6
Continuous
100
AcDbPolyline
 90
       21
 70
   129
 43
0.0
 10
1761.470394400491
 20
-1818.22970388865
 42
0.414213562373012
 10
1758.470394400492
 20
-1815.22970388865
 10
1394.470394400492
 20
-1815.22970388865
 42
0.4142135623730951
 10
1391.470394400492
 20
-1818.22970388865
 10
1391.470394400491
 20
-1840.746837135072
 10
1392.078109244241
 20
-1840.746837135072
 10
1392.078109244241
 20
-1842.289773332988
 42
0.4142135623733115
 10
1394.078109244242
 20
-1844.289773332988
 10
1405.454990418879
 20
-1844.289773333094
 42
-0.4142135623730951
 10
1407.454990418879
 20
-1846.289773333094
 10
1407.454990418879
 20
-1848.229806970246
 42
0.4142135623730951
 10
1409.454990418879
 20
-1850.229806970246
 10
1743.485798382105
 20
-1850.229806970246
 42
0.4142135623730951
 10
1745.485798382105
 20
-1848.229806970246
 10
1745.485798382105
 20
-1846.289773333094
 42
-0.4142135623730951
 10
1747.485798382105
 20
-1844.289773333094
 10
1757.217727667871
 20
-1844.289773333096
 10
1758.862679556741
 20
-1844.289773332988
 42
0.4142135623730951
 10
1760.862679556741
 20
-1842.289773332988
 10
1760.862679556741
 20
-1840.746837135072
 10
1761.470394400491
 20
-1840.746837135072
  0
LINE
  5
7198
330
7148
100
AcDbEntity
  8
0
100
AcDbLine
 10
1521.079622263948
 20
-2154.53987138607
 30
0.0
 11
1631.86115727961
 21
-2154.53987138607
 31
0.0
  0
LWPOLYLINE
  5
7199
330
7148
100
AcDbEntity
  8
0
100
AcDbPolyline
 90
       16
 70
     1
 43
0.0
 10
1748.982249052909
 20
-1895.216165619104
 42
-0.4139729327967471
 10
1753.971166124927
 20
-1890.229806910691
 42
0.4141683565246619
 10
1758.970394400492
 20
-1885.229806970246
 10
1758.970394400492
 20
-1857.229806970246
 42
0.4142135623730951
 10
1751.970394400492
 20
-1850.229806970246
 10
1400.970394400492
 20
-1850.229806970246
 42
0.4142135623730951
 10
1393.970394400492
 20
-1857.229806970246
 10
1393.970394400492
 20
-1885.229806970246
 42
0.4142135623730942
 10
1398.970394400492
 20
-1890.229806970246
 42
-0.4140189505856541
 10
1403.958537610805
 20
-1895.214641470403
 42
0.1422768381526114
 10
1476.761355309798
 20
-2145.264690128352
 42
0.2566256354437959
 10
1493.642654517655
 20
-2154.53987138607
 10
1521.079622263925
 20
-2154.53987138607
 42
0.5623541704931903
 10
1631.861157279587
 20
-2154.53987138607
 10
1659.298125025845
 20
-2154.53987138607
 42
0.2566256408623072
 10
1676.179424451789
 20
-2145.264689785073
 42
0.1422760065677378
  0
ENDBLK
  5
719B
330
7148
100
AcDbEntity
  8
0
100
AcDbBlockEnd
  0
BLOCK
  5
8662
330
8661
100
AcDbEntity
  8
0
100
AcDbBlockBegin
  2
*D8
 70
     1
 10
0.0
 20
0.0
 30
0.0
  3
*D8
  1
*D302
  0
LINE
  5
8664
330
8661
100
AcDbEntity
  8
DIM
  6
Continuous
 62
     0
370
    -2
100
AcDbLine
 10
259.418611338227
 20
2376.773463850403
 30
0.0
 11
259.418611338227
 21
2444.634178953042
 31
0.0
  0
LINE
  5
8665
330
8661
100
AcDbEntity
  8
DIM
  6
Continuous
 62
     0
370
    -2
100
AcDbLine
 10
879.418611338228
 20
2243.556920579733
 30
0.0
 11
879.418611338228
 21
2444.634178953042
 31
0.0
  0
LINE
  5
8666
330
8661
100
AcDbEntity
  8
DIM
  6
Continuous
 62
     0
370
    -2
100
AcDbLine
 10
265.418611338227
 20
2444.634178953042
 30
0.0
 11
873.418611338228
 21
2444.634178953042
 31
0.0
  0
INSERT
  5
8667
330
8661
100
AcDbEntity
  8
DIM
 62
     0
370
    -2
100
AcDbBlockReference
  2
_DOT
 10
259.418611338227
 20
2444.634178953042
 30
0.0
 41
6.0
 42
6.0
 43
6.0
 50
180.0
  0
INSERT
  5
8668
330
8661
100
AcDbEntity
  8
DIM
 62
     0
370
    -2
100
AcDbBlockReference
  2
_DOT
 10
879.418611338228
 20
2444.634178953042
 30
0.0
 41
6.0
 42
6.0
 43
6.0
  0
MTEXT
  5
8669
330
8661
100
AcDbEntity
  8
DIM
  6
Continuous
 62
     0
100
AcDbMText
 10
569.4186113382275
 20
2471.634178953042
 30
0.0
 40
24.0
 41
0.0
 46
0.0
 71
     5
 72
     1
  1
\A1;620
  7
ＭＳ ゴシック
 73
     1
 44
1.0
  0
POINT
  5
866A
330
8661
100
AcDbEntity
  8
Defpoints
 62
     0
100
AcDbPoint
 10
259.418611338227
 20
2351.773463850403
 30
0.0
  0
POINT
  5
866B
330
8661
100
AcDbEntity
  8
Defpoints
 62
     0
100
AcDbPoint
 10
879.418611338228
 20
2218.556920579733
 30
0.0
  0
POINT
  5
866C
330
8661
100
AcDbEntity
  8
Defpoints
 62
     0
100
AcDbPoint
 10
879.418611338228
 20
2444.634178953042
 30
0.0
  0
ENDBLK
  5
8663
330
8661
100
AcDbEntity
  8
0
100
AcDbBlockEnd
  0
BLOCK
  5
866E
330
866D
100
AcDbEntity
  8
0
100
AcDbBlockBegin
  2
*D9
 70
     1
 10
0.0
 20
0.0
 30
0.0
  3
*D9
  1
*D303
  0
LINE
  5
8670
330
866D
100
AcDbEntity
  8
DIM
  6
Continuous
 62
     0
370
    -2
100
AcDbLine
 10
817.6518519210895
 20
2349.269138733655
 30
0.0
 11
996.1357343007489
 21
2349.269138733655
 31
0.0
  0
LINE
  5
8671
330
866D
100
AcDbEntity
  8
DIM
  6
Continuous
 62
     0
370
    -2
100
AcDbLine
 10
817.6518519210895
 20
1989.269138733656
 30
0.0
 11
996.1357343007489
 21
1989.269138733656
 31
0.0
  0
LINE
  5
8672
330
866D
100
AcDbEntity
  8
DIM
  6
Continuous
 62
     0
370
    -2
100
AcDbLine
 10
996.1357343007489
 20
2343.269138733655
 30
0.0
 11
996.1357343007489
 21
1995.269138733656
 31
0.0
  0
INSERT
  5
8673
330
866D
100
AcDbEntity
  8
DIM
 62
     0
370
    -2
100
AcDbBlockReference
  2
_DOT
 10
996.1357343007489
 20
2349.269138733655
 30
0.0
 41
6.0
 42
6.0
 43
6.0
 50
90.0
  0
INSERT
  5
8674
330
866D
100
AcDbEntity
  8
DIM
 62
     0
370
    -2
100
AcDbBlockReference
  2
_DOT
 10
996.1357343007489
 20
1989.269138733656
 30
0.0
 41
6.0
 42
6.0
 43
6.0
 50
270.0
  0
MTEXT
  5
8675
330
866D
100
AcDbEntity
  8
DIM
  6
Continuous
 62
     0
100
AcDbMText
 10
969.1357343007489
 20
2169.269138733655
 30
0.0
 40
24.0
 41
0.0
 46
0.0
 71
     5
 72
     1
  1
\A1;360
  7
ＭＳ ゴシック
 11
0.0
 21
1.0
 31
0.0
 73
     1
 44
1.0
  0
POINT
  5
8676
330
866D
100
AcDbEntity
  8
Defpoints
 62
     0
100
AcDbPoint
 10
792.6518519210895
 20
2349.269138733655
 30
0.0
  0
POINT
  5
8677
330
866D
100
AcDbEntity
  8
Defpoints
 62
     0
100
AcDbPoint
 10
792.6518519210895
 20
1989.269138733656
 30
0.0
  0
POINT
  5
8678
330
866D
100
AcDbEntity
  8
Defpoints
 62
     0
100
AcDbPoint
 10
996.1357343007489
 20
1989.269138733656
 30
0.0
  0
ENDBLK
  5
866F
330
866D
100
AcDbEntity
  8
0
100
AcDbBlockEnd
  0
BLOCK
  5
867A
330
8679
100
AcDbEntity
  8
0
100
AcDbBlockBegin
  2
*D10
 70
     1
 10
0.0
 20
0.0
 30
0.0
  3
*D10
  1
*D304
  0
LINE
  5
867C
330
8679
100
AcDbEntity
  8
DIM
  6
Continuous
 62
     0
370
    -2
100
AcDbLine
 10
234.418611338227
 20
2351.773463850403
 30
0.0
 11
162.9779191788089
 21
2351.773463850403
 31
0.0
  0
LINE
  5
867D
330
8679
100
AcDbEntity
  8
DIM
  6
Continuous
 62
     0
370
    -2
100
AcDbLine
 10
234.418611338227
 20
1986.773463850404
 30
0.0
 11
162.9779191788088
 21
1986.773463850404
 31
0.0
  0
LINE
  5
867E
330
8679
100
AcDbEntity
  8
DIM
  6
Continuous
 62
     0
370
    -2
100
AcDbLine
 10
162.9779191788089
 20
2345.773463850403
 30
0.0
 11
162.9779191788088
 21
1992.773463850404
 31
0.0
  0
INSERT
  5
867F
330
8679
100
AcDbEntity
  8
DIM
 62
     0
370
    -2
100
AcDbBlockReference
  2
_DOT
 10
162.9779191788089
 20
2351.773463850403
 30
0.0
 41
6.0
 42
6.0
 43
6.0
 50
90.0
  0
INSERT
  5
8680
330
8679
100
AcDbEntity
  8
DIM
 62
     0
370
    -2
100
AcDbBlockReference
  2
_DOT
 10
162.9779191788088
 20
1986.773463850404
 30
0.0
 41
6.0
 42
6.0
 43
6.0
 50
270.0
  0
MTEXT
  5
8681
330
8679
100
AcDbEntity
  8
DIM
  6
Continuous
 62
     0
100
AcDbMText
 10
135.9779191788089
 20
2169.273463850403
 30
0.0
 40
24.0
 41
0.0
 46
0.0
 71
     5
 72
     1
  1
\A1;365
  7
ＭＳ ゴシック
 11
7.786769706960007E-17
 21
1.0
 31
0.0
 73
     1
 44
1.0
  0
POINT
  5
8682
330
8679
100
AcDbEntity
  8
Defpoints
 62
     0
100
AcDbPoint
 10
259.418611338227
 20
2351.773463850403
 30
0.0
  0
POINT
  5
8683
330
8679
100
AcDbEntity
  8
Defpoints
 62
     0
100
AcDbPoint
 10
259.418611338227
 20
1986.773463850404
 30
0.0
  0
POINT
  5
8684
330
8679
100
AcDbEntity
  8
Defpoints
 62
     0
100
AcDbPoint
 10
162.9779191788088
 20
1986.773463850404
 30
0.0
  0
ENDBLK
  5
867B
330
8679
100
AcDbEntity
  8
0
100
AcDbBlockEnd
  0
BLOCK
  5
8755
330
8754
100
AcDbEntity
  8
0
100
AcDbBlockBegin
  2
*D11
 70
     1
 10
0.0
 20
0.0
 30
0.0
  3
*D11
  1
*D312
  0
LINE
  5
8757
330
8754
100
AcDbEntity
  8
DIM
  6
Continuous
 62
     0
370
    -2
100
AcDbLine
 10
234.418611338227
 20
1146.98538487062
 30
0.0
 11
183.47400011236
 21
1146.98538487062
 31
0.0
  0
LINE
  5
8758
330
8754
100
AcDbEntity
  8
DIM
  6
Continuous
 62
     0
370
    -2
100
AcDbLine
 10
234.418611338227
 20
1104.98538487062
 30
0.0
 11
183.47400011236
 21
1104.98538487062
 31
0.0
  0
LINE
  5
8759
330
8754
100
AcDbEntity
  8
DIM
  6
Continuous
 62
     0
370
    -2
100
AcDbLine
 10
183.47400011236
 20
1140.98538487062
 30
0.0
 11
183.47400011236
 21
1110.98538487062
 31
0.0
  0
INSERT
  5
875A
330
8754
100
AcDbEntity
  8
DIM
 62
     0
370
    -2
100
AcDbBlockReference
  2
_DOT
 10
183.47400011236
 20
1146.98538487062
 30
0.0
 41
6.0
 42
6.0
 43
6.0
 50
90.0
  0
INSERT
  5
875B
330
8754
100
AcDbEntity
  8
DIM
 62
     0
370
    -2
100
AcDbBlockReference
  2
_DOT
 10
183.47400011236
 20
1104.98538487062
 30
0.0
 41
6.0
 42
6.0
 43
6.0
 50
270.0
  0
MTEXT
  5
875C
330
8754
100
AcDbEntity
  8
DIM
  6
Continuous
 62
     0
100
AcDbMText
 10
156.47400011236
 20
1125.98538487062
 30
0.0
 40
24.0
 41
0.0
 46
0.0
 71
     5
 72
     1
  1
\A1;45
  7
ＭＳ ゴシック
 11
0.0
 21
1.0
 31
0.0
 73
     1
 44
1.0
  0
POINT
  5
875D
330
8754
100
AcDbEntity
  8
Defpoints
 62
     0
100
AcDbPoint
 10
259.418611338227
 20
1146.98538487062
 30
0.0
  0
POINT
  5
875E
330
8754
100
AcDbEntity
  8
Defpoints
 62
     0
100
AcDbPoint
 10
259.418611338227
 20
1104.98538487062
 30
0.0
  0
POINT
  5
875F
330
8754
100
AcDbEntity
  8
Defpoints
 62
     0
100
AcDbPoint
 10
183.47400011236
 20
1104.98538487062
 30
0.0
  0
ENDBLK
  5
8756
330
8754
100
AcDbEntity
  8
0
100
AcDbBlockEnd
  0
BLOCK
  5
8761
330
8760
100
AcDbEntity
  8
0
100
AcDbBlockBegin
  2
*D12
 70
     1
 10
0.0
 20
0.0
 30
0.0
  3
*D12
  1
*D313
  0
LINE
  5
8763
330
8760
100
AcDbEntity
  8
DIM
  6
Continuous
 62
     0
370
    -2
100
AcDbLine
 10
217.7762820180396
 20
1104.98538487062
 30
0.0
 11
183.47400011236
 21
1104.98538487062
 31
0.0
  0
LINE
  5
8764
330
8760
100
AcDbEntity
  8
DIM
  6
Continuous
 62
     0
370
    -2
100
AcDbLine
 10
217.7762820180396
 20
969.9853848706198
 30
0.0
 11
183.47400011236
 21
969.9853848706198
 31
0.0
  0
LINE
  5
8765
330
8760
100
AcDbEntity
  8
DIM
  6
Continuous
 62
     0
370
    -2
100
AcDbLine
 10
183.47400011236
 20
1098.98538487062
 30
0.0
 11
183.47400011236
 21
975.9853848706198
 31
0.0
  0
INSERT
  5
8766
330
8760
100
AcDbEntity
  8
DIM
 62
     0
370
    -2
100
AcDbBlockReference
  2
_DOT
 10
183.47400011236
 20
1104.98538487062
 30
0.0
 41
6.0
 42
6.0
 43
6.0
 50
90.0
  0
INSERT
  5
8767
330
8760
100
AcDbEntity
  8
DIM
 62
     0
370
    -2
100
AcDbBlockReference
  2
_DOT
 10
183.47400011236
 20
969.9853848706198
 30
0.0
 41
6.0
 42
6.0
 43
6.0
 50
270.0
  0
MTEXT
  5
8768
330
8760
100
AcDbEntity
  8
DIM
  6
Continuous
 62
     0
100
AcDbMText
 10
156.47400011236
 20
1037.48538487062
 30
0.0
 40
24.0
 41
0.0
 46
0.0
 71
     5
 72
     1
  1
\A1;135
  7
ＭＳ ゴシック
 11
0.0
 21
1.0
 31
0.0
 73
     1
 44
1.0
  0
POINT
  5
8769
330
8760
100
AcDbEntity
  8
Defpoints
 62
     0
100
AcDbPoint
 10
242.7762820180396
 20
1104.98538487062
 30
0.0
  0
POINT
  5
876A
330
8760
100
AcDbEntity
  8
Defpoints
 62
     0
100
AcDbPoint
 10
242.7762820180396
 20
969.9853848706198
 30
0.0
  0
POINT
  5
876B
330
8760
100
AcDbEntity
  8
Defpoints
 62
     0
100
AcDbPoint
 10
183.47400011236
 20
969.9853848706198
 30
0.0
  0
ENDBLK
  5
8762
330
8760
100
AcDbEntity
  8
0
100
AcDbBlockEnd
  0
BLOCK
  5
876D
330
876C
100
AcDbEntity
  8
0
100
AcDbBlockBegin
  2
*D13
 70
     1
 10
0.0
 20
0.0
 30
0.0
  3
*D13
  1
*D314
  0
LINE
  5
876F
330
876C
100
AcDbEntity
  8
DIM
  6
Continuous
 62
     0
370
    -2
100
AcDbLine
 10
234.418611338227
 20
1146.98538487062
 30
0.0
 11
183.47400011236
 21
1146.98538487062
 31
0.0
  0
LINE
  5
8770
330
876C
100
AcDbEntity
  8
DIM
  6
Continuous
 62
     0
370
    -2
100
AcDbLine
 10
234.418611338227
 20
1181.98538487062
 30
0.0
 11
183.47400011236
 21
1181.98538487062
 31
0.0
  0
LINE
  5
8771
330
876C
100
AcDbEntity
  8
DIM
  6
Continuous
 62
     0
370
    -2
100
AcDbLine
 10
183.47400011236
 20
1152.98538487062
 30
0.0
 11
183.47400011236
 21
1175.98538487062
 31
0.0
  0
INSERT
  5
8772
330
876C
100
AcDbEntity
  8
DIM
 62
     0
370
    -2
100
AcDbBlockReference
  2
_DOT
 10
183.47400011236
 20
1146.98538487062
 30
0.0
 41
6.0
 42
6.0
 43
6.0
 50
270.0
  0
INSERT
  5
8773
330
876C
100
AcDbEntity
  8
DIM
 62
     0
370
    -2
100
AcDbBlockReference
  2
_DOT
 10
183.47400011236
 20
1181.98538487062
 30
0.0
 41
6.0
 42
6.0
 43
6.0
 50
90.0
  0
MTEXT
  5
8774
330
876C
100
AcDbEntity
  8
DIM
  6
Continuous
 62
     0
100
AcDbMText
 10
156.47400011236
 20
1164.48538487062
 30
0.0
 40
24.0
 41
0.0
 46
0.0
 71
     5
 72
     1
  1
\A1;35
  7
ＭＳ ゴシック
 11
0.0
 21
1.0
 31
0.0
 73
     1
 44
1.0
  0
POINT
  5
8775
330
876C
100
AcDbEntity
  8
Defpoints
 62
     0
100
AcDbPoint
 10
259.418611338227
 20
1146.98538487062
 30
0.0
  0
POINT
  5
8776
330
876C
100
AcDbEntity
  8
Defpoints
 62
     0
100
AcDbPoint
 10
259.418611338227
 20
1181.98538487062
 30
0.0
  0
POINT
  5
8777
330
876C
100
AcDbEntity
  8
Defpoints
 62
     0
100
AcDbPoint
 10
183.47400011236
 20
1181.98538487062
 30
0.0
  0
ENDBLK
  5
876E
330
876C
100
AcDbEntity
  8
0
100
AcDbBlockEnd
  0
BLOCK
  5
8904
330
8903
100
AcDbEntity
  8
0
100
AcDbBlockBegin
  2
*D14
 70
     1
 10
0.0
 20
0.0
 30
0.0
  3
*D14
  1
*D319
  0
LINE
  5
8906
330
8903
100
AcDbEntity
  8
DIM
  6
Continuous
 62
     0
370
    -2
100
AcDbLine
 10
1233.596455637262
 20
746.98538487062
 30
0.0
 11
1160.476599541046
 21
746.98538487062
 31
0.0
  0
LINE
  5
8907
330
8903
100
AcDbEntity
  8
DIM
  6
Continuous
 62
     0
370
    -2
100
AcDbLine
 10
1193.596455637262
 20
946.98538487062
 30
0.0
 11
1160.476599541046
 21
946.98538487062
 31
0.0
  0
LINE
  5
8908
330
8903
100
AcDbEntity
  8
DIM
  6
Continuous
 62
     0
370
    -2
100
AcDbLine
 10
1160.476599541046
 20
752.98538487062
 30
0.0
 11
1160.476599541046
 21
940.98538487062
 31
0.0
  0
INSERT
  5
8909
330
8903
100
AcDbEntity
  8
DIM
 62
     0
370
    -2
100
AcDbBlockReference
  2
_DOT
 10
1160.476599541046
 20
746.98538487062
 30
0.0
 41
6.0
 42
6.0
 43
6.0
 50
270.0
  0
INSERT
  5
890A
330
8903
100
AcDbEntity
  8
DIM
 62
     0
370
    -2
100
AcDbBlockReference
  2
_DOT
 10
1160.476599541046
 20
946.98538487062
 30
0.0
 41
6.0
 42
6.0
 43
6.0
 50
90.0
  0
MTEXT
  5
890B
330
8903
100
AcDbEntity
  8
DIM
  6
Continuous
 62
     0
100
AcDbMText
 10
1133.476599541046
 20
841.98538487062
 30
0.0
 40
24.0
 41
0.0
 46
0.0
 71
     5
 72
     1
  1
\A1;200-250
  7
ＭＳ ゴシック
 11
0.0
 21
1.0
 31
0.0
 73
     1
 44
1.0
  0
POINT
  5
890C
330
8903
100
AcDbEntity
  8
Defpoints
 62
     0
100
AcDbPoint
 10
1258.596455637262
 20
746.98538487062
 30
0.0
  0
POINT
  5
890D
330
8903
100
AcDbEntity
  8
Defpoints
 62
     0
100
AcDbPoint
 10
1218.596455637262
 20
946.98538487062
 30
0.0
  0
POINT
  5
890E
330
8903
100
AcDbEntity
  8
Defpoints
 62
     0
100
AcDbPoint
 10
1160.476599541046
 20
946.98538487062
 30
0.0
  0
ENDBLK
  5
8905
330
8903
100
AcDbEntity
  8
0
100
AcDbBlockEnd
  0
BLOCK
  5
8910
330
890F
100
AcDbEntity
  8
0
100
AcDbBlockBegin
  2
*D15
 70
     1
 10
0.0
 20
0.0
 30
0.0
  3
*D15
  1
*D320
  0
LINE
  5
8912
330
890F
100
AcDbEntity
  8
DIM
  6
Continuous
 62
     0
370
    -2
100
AcDbLine
 10
1483.596455637262
 20
777.1267476107412
 30
0.0
 11
1483.596455637262
 21
673.6660965060939
 31
0.0
  0
LINE
  5
8913
330
890F
100
AcDbEntity
  8
DIM
  6
Continuous
 62
     0
370
    -2
100
AcDbLine
 10
1218.61755563726
 20
892.4773528514131
 30
0.0
 11
1218.61755563726
 21
673.6660965060939
 31
0.0
  0
LINE
  5
8914
330
890F
100
AcDbEntity
  8
DIM
  6
Continuous
 62
     0
370
    -2
100
AcDbLine
 10
1477.596455637262
 20
673.6660965060939
 30
0.0
 11
1224.61755563726
 21
673.6660965060939
 31
0.0
  0
INSERT
  5
8915
330
890F
100
AcDbEntity
  8
DIM
 62
     0
370
    -2
100
AcDbBlockReference
  2
_DOT
 10
1483.596455637262
 20
673.6660965060939
 30
0.0
 41
6.0
 42
6.0
 43
6.0
  0
INSERT
  5
8916
330
890F
100
AcDbEntity
  8
DIM
 62
     0
370
    -2
100
AcDbBlockReference
  2
_DOT
 10
1218.61755563726
 20
673.6660965060939
 30
0.0
 41
6.0
 42
6.0
 43
6.0
 50
180.0
  0
MTEXT
  5
8917
330
890F
100
AcDbEntity
  8
DIM
  6
Continuous
 62
     0
100
AcDbMText
 10
1351.107005637261
 20
700.6660965060939
 30
0.0
 40
24.0
 41
0.0
 46
0.0
 71
     5
 72
     1
  1
\A1;265-300
  7
ＭＳ ゴシック
 73
     1
 44
1.0
  0
POINT
  5
8918
330
890F
100
AcDbEntity
  8
Defpoints
 62
     0
100
AcDbPoint
 10
1483.596455637262
 20
802.1267476107412
 30
0.0
  0
POINT
  5
8919
330
890F
100
AcDbEntity
  8
Defpoints
 62
     0
100
AcDbPoint
 10
1218.61755563726
 20
917.4773528514131
 30
0.0
  0
POINT
  5
891A
330
890F
100
AcDbEntity
  8
Defpoints
 62
     0
100
AcDbPoint
 10
1218.61755563726
 20
673.6660965060939
 30
0.0
  0
ENDBLK
  5
8911
330
890F
100
AcDbEntity
  8
0
100
AcDbBlockEnd
  0
BLOCK
  5
897B
330
897A
100
AcDbEntity
  8
0
100
AcDbBlockBegin
  2
*D16
 70
     1
 10
0.0
 20
0.0
 30
0.0
  3
*D16
  1
*D324
  0
LINE
  5
897D
330
897A
100
AcDbEntity
  8
DIM
  6
Continuous
 62
     0
370
    -2
100
AcDbLine
 10
1548.795064853493
 20
802.1267476107412
 30
0.0
 11
1918.855988574452
 21
802.1267476107412
 31
0.0
  0
LINE
  5
897E
330
897A
100
AcDbEntity
  8
DIM
  6
Continuous
 62
     0
370
    -2
100
AcDbLine
 10
1690.578545769488
 20
1202.616786780342
 30
0.0
 11
1918.855988574452
 21
1202.616786780342
 31
0.0
  0
LINE
  5
897F
330
897A
100
AcDbEntity
  8
DIM
  6
Continuous
 62
     0
370
    -2
100
AcDbLine
 10
1918.855988574452
 20
808.1267476107412
 30
0.0
 11
1918.855988574452
 21
1196.616786780342
 31
0.0
  0
INSERT
  5
8980
330
897A
100
AcDbEntity
  8
DIM
 62
     0
370
    -2
100
AcDbBlockReference
  2
_DOT
 10
1918.855988574452
 20
802.1267476107412
 30
0.0
 41
6.0
 42
6.0
 43
6.0
 50
270.0
  0
INSERT
  5
8981
330
897A
100
AcDbEntity
  8
DIM
 62
     0
370
    -2
100
AcDbBlockReference
  2
_DOT
 10
1918.855988574452
 20
1202.616786780342
 30
0.0
 41
6.0
 42
6.0
 43
6.0
 50
90.0
  0
MTEXT
  5
8982
330
897A
100
AcDbEntity
  8
DIM
  6
Continuous
 62
     0
100
AcDbMText
 10
1891.855988574452
 20
999.626747610741
 30
0.0
 40
24.0
 41
0.0
 46
0.0
 71
     5
 72
     1
  1
\A1;400
  7
ＭＳ ゴシック
 11
0.0
 21
1.0
 31
0.0
 73
     1
 44
1.0
  0
POINT
  5
8983
330
897A
100
AcDbEntity
  8
Defpoints
 62
     0
100
AcDbPoint
 10
1523.795064853493
 20
802.1267476107412
 30
0.0
  0
POINT
  5
8984
330
897A
100
AcDbEntity
  8
Defpoints
 62
     0
100
AcDbPoint
 10
1665.578545769488
 20
1202.616786780342
 30
0.0
  0
POINT
  5
8985
330
897A
100
AcDbEntity
  8
Defpoints
 62
     0
100
AcDbPoint
 10
1918.855988574452
 20
1202.616786780342
 30
0.0
  0
ENDBLK
  5
897C
330
897A
100
AcDbEntity
  8
0
100
AcDbBlockEnd
  0
BLOCK
  5
8987
330
8986
100
AcDbEntity
  8
0
100
AcDbBlockBegin
  2
*D17
 70
     1
 10
0.0
 20
0.0
 30
0.0
  3
*D17
  1
*D325
  0
LINE
  5
8989
330
8986
100
AcDbEntity
  8
DIM
  6
Continuous
 62
     0
370
    -2
100
AcDbLine
 10
1393.596455637254
 20
1348.606729704585
 30
0.0
 11
1393.596455637254
 21
1411.098855694277
 31
0.0
  0
LINE
  5
898A
330
8986
100
AcDbEntity
  8
DIM
  6
Continuous
 62
     0
370
    -2
100
AcDbLine
 10
1573.596455637254
 20
1349.358540773614
 30
0.0
 11
1573.596455637254
 21
1411.098855694277
 31
0.0
  0
LINE
  5
898B
330
8986
100
AcDbEntity
  8
DIM
  6
Continuous
 62
     0
370
    -2
100
AcDbLine
 10
1399.596455637254
 20
1411.098855694277
 30
0.0
 11
1567.596455637254
 21
1411.098855694277
 31
0.0
  0
INSERT
  5
898C
330
8986
100
AcDbEntity
  8
DIM
 62
     0
370
    -2
100
AcDbBlockReference
  2
_DOT
 10
1393.596455637254
 20
1411.098855694277
 30
0.0
 41
6.0
 42
6.0
 43
6.0
 50
180.0
  0
INSERT
  5
898D
330
8986
100
AcDbEntity
  8
DIM
 62
     0
370
    -2
100
AcDbBlockReference
  2
_DOT
 10
1573.596455637254
 20
1411.098855694277
 30
0.0
 41
6.0
 42
6.0
 43
6.0
  0
MTEXT
  5
898E
330
8986
100
AcDbEntity
  8
DIM
  6
Continuous
 62
     0
100
AcDbMText
 10
1483.596455637254
 20
1438.098855694277
 30
0.0
 40
24.0
 41
0.0
 46
0.0
 71
     5
 72
     1
  1
\A1;180
  7
ＭＳ ゴシック
 73
     1
 44
1.0
  0
POINT
  5
898F
330
8986
100
AcDbEntity
  8
Defpoints
 62
     0
100
AcDbPoint
 10
1393.596455637254
 20
1323.606729704585
 30
0.0
  0
POINT
  5
8990
330
8986
100
AcDbEntity
  8
Defpoints
 62
     0
100
AcDbPoint
 10
1573.596455637254
 20
1324.358540773614
 30
0.0
  0
POINT
  5
8991
330
8986
100
AcDbEntity
  8
Defpoints
 62
     0
100
AcDbPoint
 10
1573.596455637254
 20
1411.098855694277
 30
0.0
  0
ENDBLK
  5
8988
330
8986
100
AcDbEntity
  8
0
100
AcDbBlockEnd
  0
BLOCK
  5
8B89
330
8B88
100
AcDbEntity
  8
0
100
AcDbBlockBegin
  2
*D18
 70
     1
 10
0.0
 20
0.0
 30
0.0
  3
*D18
  1
*D328
  0
LINE
  5
8B8B
330
8B88
100
AcDbEntity
  8
DIM
  6
Continuous
 62
     0
370
    -2
100
AcDbLine
 10
945.4215352648534
 20
1146.98538487062
 30
0.0
 11
989.379795183042
 21
1146.98538487062
 31
0.0
  0
LINE
  5
8B8C
330
8B88
100
AcDbEntity
  8
DIM
  6
Continuous
 62
     0
370
    -2
100
AcDbLine
 10
601.7676476458835
 20
802.126747610741
 30
0.0
 11
989.379795183042
 21
802.126747610741
 31
0.0
  0
LINE
  5
8B8D
330
8B88
100
AcDbEntity
  8
DIM
  6
Continuous
 62
     0
370
    -2
100
AcDbLine
 10
989.379795183042
 20
1140.98538487062
 30
0.0
 11
989.379795183042
 21
808.126747610741
 31
0.0
  0
INSERT
  5
8B8E
330
8B88
100
AcDbEntity
  8
DIM
 62
     0
370
    -2
100
AcDbBlockReference
  2
_DOT
 10
989.379795183042
 20
1146.98538487062
 30
0.0
 41
6.0
 42
6.0
 43
6.0
 50
90.0
  0
INSERT
  5
8B8F
330
8B88
100
AcDbEntity
  8
DIM
 62
     0
370
    -2
100
AcDbBlockReference
  2
_DOT
 10
989.379795183042
 20
802.126747610741
 30
0.0
 41
6.0
 42
6.0
 43
6.0
 50
270.0
  0
MTEXT
  5
8B90
330
8B88
100
AcDbEntity
  8
DIM
  6
Continuous
 62
     0
100
AcDbMText
 10
962.379795183042
 20
974.5560662406804
 30
0.0
 40
24.0
 41
0.0
 46
0.0
 71
     5
 72
     1
  1
\A1;345
  7
ＭＳ ゴシック
 11
0.0
 21
1.0
 31
0.0
 73
     1
 44
1.0
  0
POINT
  5
8B91
330
8B88
100
AcDbEntity
  8
Defpoints
 62
     0
100
AcDbPoint
 10
920.4215352648534
 20
1146.98538487062
 30
0.0
  0
POINT
  5
8B92
330
8B88
100
AcDbEntity
  8
Defpoints
 62
     0
100
AcDbPoint
 10
576.7676476458835
 20
802.126747610741
 30
0.0
  0
POINT
  5
8B93
330
8B88
100
AcDbEntity
  8
Defpoints
 62
     0
100
AcDbPoint
 10
989.379795183042
 20
802.126747610741
 30
0.0
  0
ENDBLK
  5
8B8A
330
8B88
100
AcDbEntity
  8
0
100
AcDbBlockEnd
  0
BLOCK
  5
8D33
330
8D32
100
AcDbEntity
  8
0
100
AcDbBlockBegin
  2
*D19
 70
     1
 10
0.0
 20
0.0
 30
0.0
  3
*D19
  1
*D338
  0
LINE
  5
8D35
330
8D32
100
AcDbEntity
  8
DIM
  6
Continuous
 62
     0
370
    -2
100
AcDbLine
 10
1508.596455637262
 20
802.1267476107412
 30
0.0
 11
1987.790271389285
 21
802.1267476107412
 31
0.0
  0
LINE
  5
8D36
330
8D32
100
AcDbEntity
  8
DIM
  6
Continuous
 62
     0
370
    -2
100
AcDbLine
 10
1698.851657156191
 20
1317.192566674005
 30
0.0
 11
1987.790271389285
 21
1317.192566674005
 31
0.0
  0
LINE
  5
8D37
330
8D32
100
AcDbEntity
  8
DIM
  6
Continuous
 62
     0
370
    -2
100
AcDbLine
 10
1987.790271389285
 20
808.1267476107412
 30
0.0
 11
1987.790271389285
 21
1311.192566674005
 31
0.0
  0
INSERT
  5
8D38
330
8D32
100
AcDbEntity
  8
DIM
 62
     0
370
    -2
100
AcDbBlockReference
  2
_DOT
 10
1987.790271389285
 20
802.1267476107412
 30
0.0
 41
6.0
 42
6.0
 43
6.0
 50
270.0
  0
INSERT
  5
8D39
330
8D32
100
AcDbEntity
  8
DIM
 62
     0
370
    -2
100
AcDbBlockReference
  2
_DOT
 10
1987.790271389285
 20
1317.192566674005
 30
0.0
 41
6.0
 42
6.0
 43
6.0
 50
90.0
  0
MTEXT
  5
8D3A
330
8D32
100
AcDbEntity
  8
DIM
  6
Continuous
 62
     0
100
AcDbMText
 10
1960.790271389285
 20
1059.659657142373
 30
0.0
 40
24.0
 41
0.0
 46
0.0
 71
     5
 72
     1
  1
\A1;515
  7
ＭＳ ゴシック
 11
0.0
 21
1.0
 31
0.0
 73
     1
 44
1.0
  0
POINT
  5
8D3B
330
8D32
100
AcDbEntity
  8
Defpoints
 62
     0
100
AcDbPoint
 10
1483.596455637262
 20
802.1267476107412
 30
0.0
  0
POINT
  5
8D3C
330
8D32
100
AcDbEntity
  8
Defpoints
 62
     0
100
AcDbPoint
 10
1673.851657156191
 20
1317.192566674005
 30
0.0
  0
POINT
  5
8D3D
330
8D32
100
AcDbEntity
  8
Defpoints
 62
     0
100
AcDbPoint
 10
1987.790271389285
 20
1317.192566674005
 30
0.0
  0
ENDBLK
  5
8D34
330
8D32
100
AcDbEntity
  8
0
100
AcDbBlockEnd
  0
BLOCK
  5
92F7
330
92F6
100
AcDbEntity
  8
0
100
AcDbBlockBegin
  2
*D20
 70
     1
 10
0.0
 20
0.0
 30
0.0
  3
*D20
  1
*D405
  0
LINE
  5
92F9
330
92F6
100
AcDbEntity
  8
DIM
  6
Continuous
 62
     0
370
    -2
100
AcDbLine
 10
234.418611338227
 20
1181.98538487062
 30
0.0
 11
183.47400011236
 21
1181.98538487062
 31
0.0
  0
LINE
  5
92FA
330
92F6
100
AcDbEntity
  8
DIM
  6
Continuous
 62
     0
370
    -2
100
AcDbLine
 10
380.8470600535042
 20
1317.192566674005
 30
0.0
 11
183.47400011236
 21
1317.192566674005
 31
0.0
  0
LINE
  5
92FB
330
92F6
100
AcDbEntity
  8
DIM
  6
Continuous
 62
     0
370
    -2
100
AcDbLine
 10
183.47400011236
 20
1187.98538487062
 30
0.0
 11
183.47400011236
 21
1311.192566674005
 31
0.0
  0
INSERT
  5
92FC
330
92F6
100
AcDbEntity
  8
DIM
 62
     0
370
    -2
100
AcDbBlockReference
  2
_DOT
 10
183.47400011236
 20
1181.98538487062
 30
0.0
 41
6.0
 42
6.0
 43
6.0
 50
270.0
  0
INSERT
  5
92FD
330
92F6
100
AcDbEntity
  8
DIM
 62
     0
370
    -2
100
AcDbBlockReference
  2
_DOT
 10
183.47400011236
 20
1317.192566674005
 30
0.0
 41
6.0
 42
6.0
 43
6.0
 50
90.0
  0
MTEXT
  5
92FE
330
92F6
100
AcDbEntity
  8
DIM
  6
Continuous
 62
     0
100
AcDbMText
 10
156.47400011236
 20
1249.588975772312
 30
0.0
 40
24.0
 41
0.0
 46
0.0
 71
     5
 72
     1
  1
\A1;135
  7
ＭＳ ゴシック
 11
0.0
 21
1.0
 31
0.0
 73
     1
 44
1.0
  0
POINT
  5
92FF
330
92F6
100
AcDbEntity
  8
Defpoints
 62
     0
100
AcDbPoint
 10
259.418611338227
 20
1181.98538487062
 30
0.0
  0
POINT
  5
9300
330
92F6
100
AcDbEntity
  8
Defpoints
 62
     0
100
AcDbPoint
 10
405.8470600535042
 20
1317.192566674005
 30
0.0
  0
POINT
  5
9301
330
92F6
100
AcDbEntity
  8
Defpoints
 62
     0
100
AcDbPoint
 10
183.47400011236
 20
1317.192566674005
 30
0.0
  0
ENDBLK
  5
92F8
330
92F6
100
AcDbEntity
  8
0
100
AcDbBlockEnd
  0
BLOCK
  5
939F
330
939E
100
AcDbEntity
  8
0
100
AcDbBlockBegin
  2
*D21
 70
     1
 10
0.0
 20
0.0
 30
0.0
  3
*D21
  1
*D414
  0
LINE
  5
93A1
330
939E
100
AcDbEntity
  8
DIM
  6
Continuous
 62
     0
370
    -2
100
AcDbLine
 10
1291.160418845289
 20
1146.98538487062
 30
0.0
 11
1110.503233130277
 21
1146.98538487062
 31
0.0
  0
LINE
  5
93A2
330
939E
100
AcDbEntity
  8
DIM
  6
Continuous
 62
     0
370
    -2
100
AcDbLine
 10
1291.160418845289
 20
1066.98538487062
 30
0.0
 11
1110.503233130277
 21
1066.98538487062
 31
0.0
  0
LINE
  5
93A3
330
939E
100
AcDbEntity
  8
DIM
  6
Continuous
 62
     0
370
    -2
100
AcDbLine
 10
1110.503233130277
 20
1140.98538487062
 30
0.0
 11
1110.503233130277
 21
1072.98538487062
 31
0.0
  0
INSERT
  5
93A4
330
939E
100
AcDbEntity
  8
DIM
 62
     0
370
    -2
100
AcDbBlockReference
  2
_DOT
 10
1110.503233130277
 20
1146.98538487062
 30
0.0
 41
6.0
 42
6.0
 43
6.0
 50
90.0
  0
INSERT
  5
93A5
330
939E
100
AcDbEntity
  8
DIM
 62
     0
370
    -2
100
AcDbBlockReference
  2
_DOT
 10
1110.503233130277
 20
1066.98538487062
 30
0.0
 41
6.0
 42
6.0
 43
6.0
 50
270.0
  0
MTEXT
  5
93A6
330
939E
100
AcDbEntity
  8
DIM
  6
Continuous
 62
     0
100
AcDbMText
 10
1083.503233130277
 20
1106.98538487062
 30
0.0
 40
24.0
 41
0.0
 46
0.0
 71
     5
 72
     1
  1
\A1;80
  7
ＭＳ ゴシック
 11
0.0
 21
1.0
 31
0.0
 73
     1
 44
1.0
  0
POINT
  5
93A7
330
939E
100
AcDbEntity
  8
Defpoints
 62
     0
100
AcDbPoint
 10
1316.160418845289
 20
1146.98538487062
 30
0.0
  0
POINT
  5
93A8
330
939E
100
AcDbEntity
  8
Defpoints
 62
     0
100
AcDbPoint
 10
1316.160418845289
 20
1066.98538487062
 30
0.0
  0
POINT
  5
93A9
330
939E
100
AcDbEntity
  8
Defpoints
 62
     0
100
AcDbPoint
 10
1110.503233130277
 20
1066.98538487062
 30
0.0
  0
ENDBLK
  5
93A0
330
939E
100
AcDbEntity
  8
0
100
AcDbBlockEnd
  0
BLOCK
  5
955A
330
9559
100
AcDbEntity
  8
0
100
AcDbBlockBegin
  2
*D22
 70
     1
 10
0.0
 20
0.0
 30
0.0
  3
*D22
  1
*D397
  0
LINE
  5
955C
330
9559
100
AcDbEntity
  8
DIM
  6
Continuous
 62
     0
370
    -2
100
AcDbLine
 10
1533.596455637262
 20
802.1267476107412
 30
0.0
 11
1849.063393156212
 21
802.1267476107412
 31
0.0
  0
LINE
  5
955D
330
9559
100
AcDbEntity
  8
DIM
  6
Continuous
 62
     0
370
    -2
100
AcDbLine
 10
1710.29649168455
 20
1182.126747610741
 30
0.0
 11
1849.063393156212
 21
1182.126747610741
 31
0.0
  0
LINE
  5
955E
330
9559
100
AcDbEntity
  8
DIM
  6
Continuous
 62
     0
370
    -2
100
AcDbLine
 10
1849.063393156212
 20
808.1267476107412
 30
0.0
 11
1849.063393156212
 21
1176.126747610741
 31
0.0
  0
INSERT
  5
955F
330
9559
100
AcDbEntity
  8
DIM
 62
     0
370
    -2
100
AcDbBlockReference
  2
_DOT
 10
1849.063393156212
 20
802.1267476107412
 30
0.0
 41
6.0
 42
6.0
 43
6.0
 50
270.0
  0
INSERT
  5
9560
330
9559
100
AcDbEntity
  8
DIM
 62
     0
370
    -2
100
AcDbBlockReference
  2
_DOT
 10
1849.063393156212
 20
1182.126747610741
 30
0.0
 41
6.0
 42
6.0
 43
6.0
 50
90.0
  0
MTEXT
  5
9561
330
9559
100
AcDbEntity
  8
DIM
  6
Continuous
 62
     0
100
AcDbMText
 10
1822.063393156212
 20
992.126747610741
 30
0.0
 40
24.0
 41
0.0
 46
0.0
 71
     5
 72
     1
  1
\A1;380
  7
ＭＳ ゴシック
 11
0.0
 21
1.0
 31
0.0
 73
     1
 44
1.0
  0
POINT
  5
9562
330
9559
100
AcDbEntity
  8
Defpoints
 62
     0
100
AcDbPoint
 10
1508.596455637262
 20
802.1267476107412
 30
0.0
  0
POINT
  5
9563
330
9559
100
AcDbEntity
  8
Defpoints
 62
     0
100
AcDbPoint
 10
1685.29649168455
 20
1182.126747610741
 30
0.0
  0
POINT
  5
9564
330
9559
100
AcDbEntity
  8
Defpoints
 62
     0
100
AcDbPoint
 10
1849.063393156212
 20
1182.126747610741
 30
0.0
  0
ENDBLK
  5
955B
330
9559
100
AcDbEntity
  8
0
100
AcDbBlockEnd
  0
BLOCK
  5
990B
330
990A
100
AcDbEntity
  8
0
100
AcDbBlockBegin
  2
*D23
 70
     1
 10
0.0
 20
0.0
 30
0.0
  3
*D23
  1

  0
LINE
  5
990D
330
990A
100
AcDbEntity
  8
MODEL
  6
Continuous
 62
     0
370
    -2
100
AcDbLine
 10
1735.29649168455
 20
1182.126747610741
 30
0.0
 11
1782.922804097753
 21
1182.126747610741
 31
0.0
  0
LINE
  5
990E
330
990A
100
AcDbEntity
  8
MODEL
  6
Continuous
 62
     0
370
    -2
100
AcDbLine
 10
1608.596460266016
 20
1066.98538487062
 30
0.0
 11
1782.922804097753
 21
1066.98538487062
 31
0.0
  0
LINE
  5
990F
330
990A
100
AcDbEntity
  8
MODEL
  6
Continuous
 62
     0
370
    -2
100
AcDbLine
 10
1782.922804097753
 20
1176.126747610741
 30
0.0
 11
1782.922804097753
 21
1072.98538487062
 31
0.0
  0
INSERT
  5
9910
330
990A
100
AcDbEntity
  8
MODEL
 62
     0
370
    -2
100
AcDbBlockReference
  2
_DOT
 10
1782.922804097753
 20
1182.126747610741
 30
0.0
 41
6.0
 42
6.0
 43
6.0
 50
90.0
  0
INSERT
  5
9911
330
990A
100
AcDbEntity
  8
MODEL
 62
     0
370
    -2
100
AcDbBlockReference
  2
_DOT
 10
1782.922804097753
 20
1066.98538487062
 30
0.0
 41
6.0
 42
6.0
 43
6.0
 50
270.0
  0
MTEXT
  5
9912
330
990A
100
AcDbEntity
  8
MODEL
  6
Continuous
 62
     0
100
AcDbMText
 10
1755.922804097753
 20
1124.556066240681
 30
0.0
 40
24.0
 41
0.0
 46
0.0
 71
     5
 72
     1
  1
\A1;115
  7
ＭＳ ゴシック
 11
0.0
 21
1.0
 31
0.0
 73
     1
 44
1.0
  0
POINT
  5
9913
330
990A
100
AcDbEntity
  8
Defpoints
 62
     0
100
AcDbPoint
 10
1710.29649168455
 20
1182.126747610741
 30
0.0
  0
POINT
  5
9914
330
990A
100
AcDbEntity
  8
Defpoints
 62
     0
100
AcDbPoint
 10
1583.596460266016
 20
1066.98538487062
 30
0.0
  0
POINT
  5
9915
330
990A
100
AcDbEntity
  8
Defpoints
 62
     0
100
AcDbPoint
 10
1782.922804097753
 20
1066.98538487062
 30
0.0
  0
ENDBLK
  5
990C
330
990A
100
AcDbEntity
  8
0
100
AcDbBlockEnd
  0
BLOCK
  5
9A77
330
9A76
100
AcDbEntity
  8
0
100
AcDbBlockBegin
  2
*D25
 70
     1
 10
0.0
 20
0.0
 30
0.0
  3
*D25
  1

  0
LINE
  5
9A78
330
9A76
100
AcDbEntity
  8
DIM
  6
Continuous
 62
     0
370
    -2
100
AcDbLine
 10
511.6434266434983
 20
184.6804742656004
 30
0.0
 11
511.6434266434983
 21
237.200444265598
 31
0.0
  0
LINE
  5
9A79
330
9A76
100
AcDbEntity
  8
DIM
  6
Continuous
 62
     0
370
    -2
100
AcDbLine
 10
577.6434266435019
 20
184.6804742656004
 30
0.0
 11
577.6434266435019
 21
237.200444265598
 31
0.0
  0
LINE
  5
9A7A
330
9A76
100
AcDbEntity
  8
DIM
  6
Continuous
 62
     0
370
    -2
100
AcDbLine
 10
520.6434266434983
 20
237.200444265598
 30
0.0
 11
568.6434266435019
 21
237.200444265598
 31
0.0
  0
INSERT
  5
9A7B
330
9A76
100
AcDbEntity
  8
DIM
 62
     0
370
    -2
100
AcDbBlockReference
  2
_DOT
 10
511.6434266434983
 20
237.200444265598
 30
0.0
 41
9.0
 42
9.0
 43
9.0
 50
180.0
  0
INSERT
  5
9A7C
330
9A76
100
AcDbEntity
  8
DIM
 62
     0
370
    -2
100
AcDbBlockReference
  2
_DOT
 10
577.6434266435019
 20
237.200444265598
 30
0.0
 41
9.0
 42
9.0
 43
9.0
  0
MTEXT
  5
9A7D
330
9A76
100
AcDbEntity
  8
DIM
  6
Continuous
 62
     0
100
AcDbMText
 10
542.8916825856761
 20
259.416752859348
 30
0.0
 40
24.4326171875
 41
0.0
 46
0.0
 71
     5
 72
     1
  1
\A1;\A1;33
  7
ＭＳ ゴシック
 73
     1
 44
0.96
  0
POINT
  5
9A7E
330
9A76
100
AcDbEntity
  8
Defpoints
 62
     0
100
AcDbPoint
 10
511.6434266434983
 20
184.6804742656004
 30
0.0
  0
POINT
  5
9A7F
330
9A76
100
AcDbEntity
  8
Defpoints
 62
     0
100
AcDbPoint
 10
577.6434266435019
 20
184.6804742656004
 30
0.0
  0
POINT
  5
9A80
330
9A76
100
AcDbEntity
  8
Defpoints
 62
     0
100
AcDbPoint
 10
577.6434266435019
 20
237.200444265598
 30
0.0
  0
ENDBLK
  5
9A81
330
9A76
100
AcDbEntity
  8
0
100
AcDbBlockEnd
  0
BLOCK
  5
9A8F
330
9A8E
100
AcDbEntity
  8
0
100
AcDbBlockBegin
  2
*D26
 70
     1
 10
0.0
 20
0.0
 30
0.0
  3
*D26
  1

  0
LINE
  5
9A90
330
9A8E
100
AcDbEntity
  8
DIM
  6
Continuous
 62
     0
370
    -2
100
AcDbLine
 10
146.9502366434997
 20
180.0011351859212
 30
0.0
 11
146.9502366434997
 21
232.7226927935053
 31
0.0
  0
LINE
  5
9A91
330
9A8E
100
AcDbEntity
  8
DIM
  6
Continuous
 62
     0
370
    -2
100
AcDbLine
 10
246.9502366434992
 20
176.5163348389451
 30
0.0
 11
246.9502366434992
 21
232.7226927935053
 31
0.0
  0
LINE
  5
9A92
330
9A8E
100
AcDbEntity
  8
DIM
  6
Continuous
 62
     0
370
    -2
100
AcDbLine
 10
155.9502366434997
 20
232.7226927935053
 30
0.0
 11
237.9502366434992
 21
232.7226927935053
 31
0.0
  0
INSERT
  5
9A93
330
9A8E
100
AcDbEntity
  8
DIM
 62
     0
370
    -2
100
AcDbBlockReference
  2
_DOT
 10
146.9502366434997
 20
232.7226927935053
 30
0.0
 41
9.0
 42
9.0
 43
9.0
 50
180.0
  0
INSERT
  5
9A94
330
9A8E
100
AcDbEntity
  8
DIM
 62
     0
370
    -2
100
AcDbBlockReference
  2
_DOT
 10
246.9502366434992
 20
232.7226927935053
 30
0.0
 41
9.0
 42
9.0
 43
9.0
  0
MTEXT
  5
9A95
330
9A8E
100
AcDbEntity
  8
DIM
  6
Continuous
 62
     0
100
AcDbMText
 10
196.9502366434997
 20
254.9390013872553
 30
0.0
 40
24.4326171875
 41
0.0
 46
0.0
 71
     5
 72
     1
  1
\A1;\A1;50
  7
ＭＳ ゴシック
 73
     1
 44
0.96
  0
POINT
  5
9A96
330
9A8E
100
AcDbEntity
  8
Defpoints
 62
     0
100
AcDbPoint
 10
146.9502366434997
 20
180.0011351859212
 30
0.0
  0
POINT
  5
9A97
330
9A8E
100
AcDbEntity
  8
Defpoints
 62
     0
100
AcDbPoint
 10
246.9502366434992
 20
176.5163348389451
 30
0.0
  0
POINT
  5
9A98
330
9A8E
100
AcDbEntity
  8
Defpoints
 62
     0
100
AcDbPoint
 10
246.9502366434992
 20
232.7226927935053
 30
0.0
  0
ENDBLK
  5
9A99
330
9A8E
100
AcDbEntity
  8
0
100
AcDbBlockEnd
  0
BLOCK
  5
9A9C
330
9A9B
100
AcDbEntity
  8
0
100
AcDbBlockBegin
  2
*D27
 70
     1
 10
0.0
 20
0.0
 30
0.0
  3
*D27
  1

  0
LINE
  5
9A9D
330
9A9B
100
AcDbEntity
  8
DIM
  6
Continuous
 62
     0
370
    -2
100
AcDbLine
 10
246.9502366434997
 20
217.5011351859212
 30
0.0
 11
246.9502366434997
 21
232.7226927935053
 31
0.0
  0
LINE
  5
9A9E
330
9A9B
100
AcDbEntity
  8
DIM
  6
Continuous
 62
     0
370
    -2
100
AcDbLine
 10
346.9502366434997
 20
180.0011351859212
 30
0.0
 11
346.9502366434997
 21
232.7226927935053
 31
0.0
  0
LINE
  5
9A9F
330
9A9B
100
AcDbEntity
  8
DIM
  6
Continuous
 62
     0
370
    -2
100
AcDbLine
 10
255.9502366434997
 20
232.7226927935053
 30
0.0
 11
337.9502366434997
 21
232.7226927935053
 31
0.0
  0
INSERT
  5
9AA0
330
9A9B
100
AcDbEntity
  8
DIM
 62
     0
370
    -2
100
AcDbBlockReference
  2
_DOT
 10
246.9502366434997
 20
232.7226927935053
 30
0.0
 41
9.0
 42
9.0
 43
9.0
 50
180.0
  0
INSERT
  5
9AA1
330
9A9B
100
AcDbEntity
  8
DIM
 62
     0
370
    -2
100
AcDbBlockReference
  2
_DOT
 10
346.9502366434997
 20
232.7226927935053
 30
0.0
 41
9.0
 42
9.0
 43
9.0
  0
MTEXT
  5
9AA2
330
9A9B
100
AcDbEntity
  8
DIM
  6
Continuous
 62
     0
100
AcDbMText
 10
296.9502366434997
 20
254.9390013872553
 30
0.0
 40
24.4326171875
 41
0.0
 46
0.0
 71
     5
 72
     1
  1
\A1;\A1;50
  7
ＭＳ ゴシック
 73
     1
 44
0.96
  0
POINT
  5
9AA3
330
9A9B
100
AcDbEntity
  8
Defpoints
 62
     0
100
AcDbPoint
 10
246.9502366434997
 20
217.5011351859212
 30
0.0
  0
POINT
  5
9AA4
330
9A9B
100
AcDbEntity
  8
Defpoints
 62
     0
100
AcDbPoint
 10
346.9502366434997
 20
180.0011351859212
 30
0.0
  0
POINT
  5
9AA5
330
9A9B
100
AcDbEntity
  8
Defpoints
 62
     0
100
AcDbPoint
 10
346.9502366434997
 20
232.7226927935053
 30
0.0
  0
ENDBLK
  5
9AA6
330
9A9B
100
AcDbEntity
  8
0
100
AcDbBlockEnd
  0
BLOCK
  5
9AA9
330
9AA8
100
AcDbEntity
  8
0
100
AcDbBlockBegin
  2
*D28
 70
     1
 10
0.0
 20
0.0
 30
0.0
  3
*D28
  1

  0
LINE
  5
9AAA
330
9AA8
100
AcDbEntity
  8
DIM
  6
Continuous
 62
     0
370
    -2
100
AcDbLine
 10
610.2857407459003
 20
114.5
 30
0.0
 11
687.5205582449496
 21
114.5
 31
0.0
  0
LINE
  5
9AAB
330
9AA8
100
AcDbEntity
  8
DIM
  6
Continuous
 62
     0
370
    -2
100
AcDbLine
 10
610.2857407459003
 20
54.5
 30
0.0
 11
687.5205582449496
 21
54.5
 31
0.0
  0
LINE
  5
9AAC
330
9AA8
100
AcDbEntity
  8
DIM
  6
Continuous
 62
     0
370
    -2
100
AcDbLine
 10
687.5205582449496
 20
105.5
 30
0.0
 11
687.5205582449496
 21
63.5
 31
0.0
  0
INSERT
  5
9AAD
330
9AA8
100
AcDbEntity
  8
DIM
 62
     0
370
    -2
100
AcDbBlockReference
  2
_DOT
 10
687.5205582449496
 20
114.5
 30
0.0
 41
9.0
 42
9.0
 43
9.0
 50
90.0
  0
INSERT
  5
9AAE
330
9AA8
100
AcDbEntity
  8
DIM
 62
     0
370
    -2
100
AcDbBlockReference
  2
_DOT
 10
687.5205582449496
 20
54.5
 30
0.0
 41
9.0
 42
9.0
 43
9.0
 50
270.0
  0
MTEXT
  5
9AAF
330
9AA8
100
AcDbEntity
  8
DIM
  6
Continuous
 62
     0
100
AcDbMText
 10
665.3042496511996
 20
84.5
 30
0.0
 40
24.4326171875
 41
0.0
 46
0.0
 71
     5
 72
     1
  1
\A1;\A1;30
  7
ＭＳ ゴシック
 11
0.0
 21
1.0
 31
0.0
 73
     1
 44
0.96
  0
POINT
  5
9AB0
330
9AA8
100
AcDbEntity
  8
Defpoints
 62
     0
100
AcDbPoint
 10
610.2857407459003
 20
114.5
 30
0.0
  0
POINT
  5
9AB1
330
9AA8
100
AcDbEntity
  8
Defpoints
 62
     0
100
AcDbPoint
 10
610.2857407459003
 20
54.5
 30
0.0
  0
POINT
  5
9AB2
330
9AA8
100
AcDbEntity
  8
Defpoints
 62
     0
100
AcDbPoint
 10
687.5205582449496
 20
54.49999999999999
 30
0.0
  0
ENDBLK
  5
9AB3
330
9AA8
100
AcDbEntity
  8
0
100
AcDbBlockEnd
  0
BLOCK
  5
9AB6
330
9AB5
100
AcDbEntity
  8
0
100
AcDbBlockBegin
  2
*D29
 70
     1
 10
0.0
 20
0.0
 30
0.0
  3
*D29
  1

  0
LINE
  5
9AB7
330
9AB5
100
AcDbEntity
  8
DIM
  6
Continuous
 62
     0
370
    -2
100
AcDbLine
 10
92.00173718750034
 20
4.5
 30
0.0
 11
34.43261718750023
 21
4.5
 31
0.0
  0
LINE
  5
9AB8
330
9AB5
100
AcDbEntity
  8
DIM
  6
Continuous
 62
     0
370
    -2
100
AcDbLine
 10
92.00173718750034
 20
164.5000000000009
 30
0.0
 11
34.43261718750023
 21
164.5000000000009
 31
0.0
  0
LINE
  5
9AB9
330
9AB5
100
AcDbEntity
  8
DIM
  6
Continuous
 62
     0
370
    -2
100
AcDbLine
 10
34.43261718750023
 20
13.5
 30
0.0
 11
34.43261718750023
 21
155.5000000000009
 31
0.0
  0
INSERT
  5
9ABA
330
9AB5
100
AcDbEntity
  8
DIM
 62
     0
370
    -2
100
AcDbBlockReference
  2
_DOT
 10
34.43261718750023
 20
4.5
 30
0.0
 41
9.0
 42
9.0
 43
9.0
 50
270.0
  0
INSERT
  5
9ABB
330
9AB5
100
AcDbEntity
  8
DIM
 62
     0
370
    -2
100
AcDbBlockReference
  2
_DOT
 10
34.43261718750023
 20
164.5000000000009
 30
0.0
 41
9.0
 42
9.0
 43
9.0
 50
90.0
  0
MTEXT
  5
9ABC
330
9AB5
100
AcDbEntity
  8
DIM
  6
Continuous
 62
     0
100
AcDbMText
 10
12.21630859375023
 20
84.5
 30
0.0
 40
24.4326171875
 41
0.0
 46
0.0
 71
     5
 72
     1
  1
\A1;\A1;80
  7
ＭＳ ゴシック
 11
4.440892098500601E-17
 21
1.0
 31
0.0
 73
     1
 44
0.96
  0
POINT
  5
9ABD
330
9AB5
100
AcDbEntity
  8
Defpoints
 62
     0
100
AcDbPoint
 10
92.00173718750034
 20
4.5
 30
0.0
  0
POINT
  5
9ABE
330
9AB5
100
AcDbEntity
  8
Defpoints
 62
     0
100
AcDbPoint
 10
92.00173718750034
 20
164.5000000000009
 30
0.0
  0
POINT
  5
9ABF
330
9AB5
100
AcDbEntity
  8
Defpoints
 62
     0
100
AcDbPoint
 10
34.43261718750023
 20
164.5000000000009
 30
0.0
  0
ENDBLK
  5
9AC0
330
9AB5
100
AcDbEntity
  8
0
100
AcDbBlockEnd
  0
BLOCK
  5
9AC3
330
9AC2
100
AcDbEntity
  8
0
100
AcDbBlockBegin
  2
*D30
 70
     1
 10
0.0
 20
0.0
 30
0.0
  3
*D30
  1

  0
LINE
  5
9AC4
330
9AC2
100
AcDbEntity
  8
DIM
  6
Continuous
 62
     0
370
    -2
100
AcDbLine
 10
106.9502366435001
 20
176.4961708134406
 30
0.0
 11
106.9502366435001
 21
287.7331707915855
 31
0.0
  0
LINE
  5
9AC5
330
9AC2
100
AcDbEntity
  8
DIM
  6
Continuous
 62
     0
370
    -2
100
AcDbLine
 10
386.9502366435001
 20
176.4961708134406
 30
0.0
 11
386.9502366435001
 21
287.7331707915855
 31
0.0
  0
LINE
  5
9AC6
330
9AC2
100
AcDbEntity
  8
DIM
  6
Continuous
 62
     0
370
    -2
100
AcDbLine
 10
115.9502366435001
 20
287.7331707915855
 30
0.0
 11
377.9502366435001
 21
287.7331707915855
 31
0.0
  0
INSERT
  5
9AC7
330
9AC2
100
AcDbEntity
  8
DIM
 62
     0
370
    -2
100
AcDbBlockReference
  2
_DOT
 10
106.9502366435001
 20
287.7331707915855
 30
0.0
 41
9.0
 42
9.0
 43
9.0
 50
180.0
  0
INSERT
  5
9AC8
330
9AC2
100
AcDbEntity
  8
DIM
 62
     0
370
    -2
100
AcDbBlockReference
  2
_DOT
 10
386.9502366435001
 20
287.7331707915855
 30
0.0
 41
9.0
 42
9.0
 43
9.0
  0
MTEXT
  5
9AC9
330
9AC2
100
AcDbEntity
  8
DIM
  6
Continuous
 62
     0
100
AcDbMText
 10
246.9502366434992
 20
309.9494793853355
 30
0.0
 40
24.4326171875
 41
0.0
 46
0.0
 71
     5
 72
     1
  1
\A1;\A1;140
  7
ＭＳ ゴシック
 73
     1
 44
0.96
  0
POINT
  5
9ACA
330
9AC2
100
AcDbEntity
  8
Defpoints
 62
     0
100
AcDbPoint
 10
106.9502366435001
 20
176.4961708134406
 30
0.0
  0
POINT
  5
9ACB
330
9AC2
100
AcDbEntity
  8
Defpoints
 62
     0
100
AcDbPoint
 10
386.9502366435001
 20
176.4961708134406
 30
0.0
  0
POINT
  5
9ACC
330
9AC2
100
AcDbEntity
  8
Defpoints
 62
     0
100
AcDbPoint
 10
386.9502366435001
 20
287.7331707915855
 30
0.0
  0
ENDBLK
  5
9ACD
330
9AC2
100
AcDbEntity
  8
0
100
AcDbBlockEnd
  0
BLOCK
  5
9AFA
330
9AF9
100
AcDbEntity
  8
0
100
AcDbBlockBegin
  2
*D31
 70
     1
 10
0.0
 20
0.0
 30
0.0
  3
*D31
  1

  0
LINE
  5
9AFC
330
9AF9
100
AcDbEntity
  8
DIM
  6
Continuous
 62
     0
370
    -2
100
AcDbLine
 10
1715.340926643499
 20
2170.199724265601
 30
0.0
 11
1715.340926643499
 21
2222.719694265598
 31
0.0
  0
LINE
  5
9AFD
330
9AF9
100
AcDbEntity
  8
DIM
  6
Continuous
 62
     0
370
    -2
100
AcDbLine
 10
1781.340926643502
 20
2170.199724265601
 30
0.0
 11
1781.340926643502
 21
2222.719694265598
 31
0.0
  0
LINE
  5
9AFE
330
9AF9
100
AcDbEntity
  8
DIM
  6
Continuous
 62
     0
370
    -2
100
AcDbLine
 10
1724.340926643499
 20
2222.719694265598
 30
0.0
 11
1772.340926643502
 21
2222.719694265598
 31
0.0
  0
INSERT
  5
9AFF
330
9AF9
100
AcDbEntity
  8
DIM
 62
     0
370
    -2
100
AcDbBlockReference
  2
_DOT
 10
1715.340926643499
 20
2222.719694265598
 30
0.0
 41
9.0
 42
9.0
 43
9.0
 50
180.0
  0
INSERT
  5
9B00
330
9AF9
100
AcDbEntity
  8
DIM
 62
     0
370
    -2
100
AcDbBlockReference
  2
_DOT
 10
1781.340926643502
 20
2222.719694265598
 30
0.0
 41
9.0
 42
9.0
 43
9.0
  0
MTEXT
  5
9B01
330
9AF9
100
AcDbEntity
  8
DIM
  6
Continuous
 62
     0
100
AcDbMText
 10
1746.589182585676
 20
2244.936002859348
 30
0.0
 40
24.4326171875
 41
0.0
 46
0.0
 71
     5
 72
     1
  1
\A1;\A1;33
  7
ＭＳ ゴシック
 73
     1
 44
0.96
  0
POINT
  5
9B02
330
9AF9
100
AcDbEntity
  8
Defpoints
 62
     0
100
AcDbPoint
 10
1715.340926643499
 20
2170.199724265601
 30
0.0
  0
POINT
  5
9B03
330
9AF9
100
AcDbEntity
  8
Defpoints
 62
     0
100
AcDbPoint
 10
1781.340926643502
 20
2170.199724265601
 30
0.0
  0
POINT
  5
9B04
330
9AF9
100
AcDbEntity
  8
Defpoints
 62
     0
100
AcDbPoint
 10
1781.340926643502
 20
2222.719694265598
 30
0.0
  0
ENDBLK
  5
9AFB
330
9AF9
100
AcDbEntity
  8
0
100
AcDbBlockEnd
  0
BLOCK
  5
9B06
330
9B05
100
AcDbEntity
  8
0
100
AcDbBlockBegin
  2
*D32
 70
     1
 10
0.0
 20
0.0
 30
0.0
  3
*D32
  1

  0
LINE
  5
9B08
330
9B05
100
AcDbEntity
  8
DIM
  6
Continuous
 62
     0
370
    -2
100
AcDbLine
 10
1350.6477366435
 20
2165.520385185921
 30
0.0
 11
1350.6477366435
 21
2218.241942793506
 31
0.0
  0
LINE
  5
9B09
330
9B05
100
AcDbEntity
  8
DIM
  6
Continuous
 62
     0
370
    -2
100
AcDbLine
 10
1450.647736643499
 20
2162.035584838945
 30
0.0
 11
1450.647736643499
 21
2218.241942793506
 31
0.0
  0
LINE
  5
9B0A
330
9B05
100
AcDbEntity
  8
DIM
  6
Continuous
 62
     0
370
    -2
100
AcDbLine
 10
1359.6477366435
 20
2218.241942793506
 30
0.0
 11
1441.647736643499
 21
2218.241942793506
 31
0.0
  0
INSERT
  5
9B0B
330
9B05
100
AcDbEntity
  8
DIM
 62
     0
370
    -2
100
AcDbBlockReference
  2
_DOT
 10
1350.6477366435
 20
2218.241942793506
 30
0.0
 41
9.0
 42
9.0
 43
9.0
 50
180.0
  0
INSERT
  5
9B0C
330
9B05
100
AcDbEntity
  8
DIM
 62
     0
370
    -2
100
AcDbBlockReference
  2
_DOT
 10
1450.647736643499
 20
2218.241942793506
 30
0.0
 41
9.0
 42
9.0
 43
9.0
  0
MTEXT
  5
9B0D
330
9B05
100
AcDbEntity
  8
DIM
  6
Continuous
 62
     0
100
AcDbMText
 10
1400.6477366435
 20
2240.458251387256
 30
0.0
 40
24.4326171875
 41
0.0
 46
0.0
 71
     5
 72
     1
  1
\A1;\A1;50
  7
ＭＳ ゴシック
 73
     1
 44
0.96
  0
POINT
  5
9B0E
330
9B05
100
AcDbEntity
  8
Defpoints
 62
     0
100
AcDbPoint
 10
1350.6477366435
 20
2165.520385185921
 30
0.0
  0
POINT
  5
9B0F
330
9B05
100
AcDbEntity
  8
Defpoints
 62
     0
100
AcDbPoint
 10
1450.647736643499
 20
2162.035584838945
 30
0.0
  0
POINT
  5
9B10
330
9B05
100
AcDbEntity
  8
Defpoints
 62
     0
100
AcDbPoint
 10
1450.647736643499
 20
2218.241942793506
 30
0.0
  0
ENDBLK
  5
9B07
330
9B05
100
AcDbEntity
  8
0
100
AcDbBlockEnd
  0
BLOCK
  5
9B12
330
9B11
100
AcDbEntity
  8
0
100
AcDbBlockBegin
  2
*D33
 70
     1
 10
0.0
 20
0.0
 30
0.0
  3
*D33
  1

  0
LINE
  5
9B14
330
9B11
100
AcDbEntity
  8
DIM
  6
Continuous
 62
     0
370
    -2
100
AcDbLine
 10
1450.6477366435
 20
2203.020385185921
 30
0.0
 11
1450.6477366435
 21
2218.241942793506
 31
0.0
  0
LINE
  5
9B15
330
9B11
100
AcDbEntity
  8
DIM
  6
Continuous
 62
     0
370
    -2
100
AcDbLine
 10
1550.6477366435
 20
2165.520385185921
 30
0.0
 11
1550.6477366435
 21
2218.241942793506
 31
0.0
  0
LINE
  5
9B16
330
9B11
100
AcDbEntity
  8
DIM
  6
Continuous
 62
     0
370
    -2
100
AcDbLine
 10
1459.6477366435
 20
2218.241942793506
 30
0.0
 11
1541.6477366435
 21
2218.241942793506
 31
0.0
  0
INSERT
  5
9B17
330
9B11
100
AcDbEntity
  8
DIM
 62
     0
370
    -2
100
AcDbBlockReference
  2
_DOT
 10
1450.6477366435
 20
2218.241942793506
 30
0.0
 41
9.0
 42
9.0
 43
9.0
 50
180.0
  0
INSERT
  5
9B18
330
9B11
100
AcDbEntity
  8
DIM
 62
     0
370
    -2
100
AcDbBlockReference
  2
_DOT
 10
1550.6477366435
 20
2218.241942793506
 30
0.0
 41
9.0
 42
9.0
 43
9.0
  0
MTEXT
  5
9B19
330
9B11
100
AcDbEntity
  8
DIM
  6
Continuous
 62
     0
100
AcDbMText
 10
1500.6477366435
 20
2240.458251387256
 30
0.0
 40
24.4326171875
 41
0.0
 46
0.0
 71
     5
 72
     1
  1
\A1;\A1;50
  7
ＭＳ ゴシック
 73
     1
 44
0.96
  0
POINT
  5
9B1A
330
9B11
100
AcDbEntity
  8
Defpoints
 62
     0
100
AcDbPoint
 10
1450.6477366435
 20
2203.020385185921
 30
0.0
  0
POINT
  5
9B1B
330
9B11
100
AcDbEntity
  8
Defpoints
 62
     0
100
AcDbPoint
 10
1550.6477366435
 20
2165.520385185921
 30
0.0
  0
POINT
  5
9B1C
330
9B11
100
AcDbEntity
  8
Defpoints
 62
     0
100
AcDbPoint
 10
1550.6477366435
 20
2218.241942793506
 30
0.0
  0
ENDBLK
  5
9B13
330
9B11
100
AcDbEntity
  8
0
100
AcDbBlockEnd
  0
BLOCK
  5
9B1E
330
9B1D
100
AcDbEntity
  8
0
100
AcDbBlockBegin
  2
*D34
 70
     1
 10
0.0
 20
0.0
 30
0.0
  3
*D34
  1

  0
LINE
  5
9B20
330
9B1D
100
AcDbEntity
  8
DIM
  6
Continuous
 62
     0
370
    -2
100
AcDbLine
 10
1813.983240745901
 20
2100.01925
 30
0.0
 11
1891.21805824495
 21
2100.01925
 31
0.0
  0
LINE
  5
9B21
330
9B1D
100
AcDbEntity
  8
DIM
  6
Continuous
 62
     0
370
    -2
100
AcDbLine
 10
1813.983240745901
 20
2040.01925
 30
0.0
 11
1891.21805824495
 21
2040.01925
 31
0.0
  0
LINE
  5
9B22
330
9B1D
100
AcDbEntity
  8
DIM
  6
Continuous
 62
     0
370
    -2
100
AcDbLine
 10
1891.21805824495
 20
2091.01925
 30
0.0
 11
1891.21805824495
 21
2049.01925
 31
0.0
  0
INSERT
  5
9B23
330
9B1D
100
AcDbEntity
  8
DIM
 62
     0
370
    -2
100
AcDbBlockReference
  2
_DOT
 10
1891.21805824495
 20
2100.01925
 30
0.0
 41
9.0
 42
9.0
 43
9.0
 50
90.0
  0
INSERT
  5
9B24
330
9B1D
100
AcDbEntity
  8
DIM
 62
     0
370
    -2
100
AcDbBlockReference
  2
_DOT
 10
1891.21805824495
 20
2040.01925
 30
0.0
 41
9.0
 42
9.0
 43
9.0
 50
270.0
  0
MTEXT
  5
9B25
330
9B1D
100
AcDbEntity
  8
DIM
  6
Continuous
 62
     0
100
AcDbMText
 10
1869.0017496512
 20
2070.01925
 30
0.0
 40
24.4326171875
 41
0.0
 46
0.0
 71
     5
 72
     1
  1
\A1;\A1;30
  7
ＭＳ ゴシック
 11
0.0
 21
1.0
 31
0.0
 73
     1
 44
0.96
  0
POINT
  5
9B26
330
9B1D
100
AcDbEntity
  8
Defpoints
 62
     0
100
AcDbPoint
 10
1813.983240745901
 20
2100.01925
 30
0.0
  0
POINT
  5
9B27
330
9B1D
100
AcDbEntity
  8
Defpoints
 62
     0
100
AcDbPoint
 10
1813.983240745901
 20
2040.01925
 30
0.0
  0
POINT
  5
9B28
330
9B1D
100
AcDbEntity
  8
Defpoints
 62
     0
100
AcDbPoint
 10
1891.21805824495
 20
2040.01925
 30
0.0
  0
ENDBLK
  5
9B1F
330
9B1D
100
AcDbEntity
  8
0
100
AcDbBlockEnd
  0
BLOCK
  5
9B2A
330
9B29
100
AcDbEntity
  8
0
100
AcDbBlockBegin
  2
*D35
 70
     1
 10
0.0
 20
0.0
 30
0.0
  3
*D35
  1

  0
LINE
  5
9B2C
330
9B29
100
AcDbEntity
  8
DIM
  6
Continuous
 62
     0
370
    -2
100
AcDbLine
 10
1295.699237187501
 20
1990.01925
 30
0.0
 11
1238.1301171875
 21
1990.01925
 31
0.0
  0
LINE
  5
9B2D
330
9B29
100
AcDbEntity
  8
DIM
  6
Continuous
 62
     0
370
    -2
100
AcDbLine
 10
1295.699237187501
 20
2150.019250000001
 30
0.0
 11
1238.1301171875
 21
2150.019250000001
 31
0.0
  0
LINE
  5
9B2E
330
9B29
100
AcDbEntity
  8
DIM
  6
Continuous
 62
     0
370
    -2
100
AcDbLine
 10
1238.1301171875
 20
1999.01925
 30
0.0
 11
1238.1301171875
 21
2141.019250000001
 31
0.0
  0
INSERT
  5
9B2F
330
9B29
100
AcDbEntity
  8
DIM
 62
     0
370
    -2
100
AcDbBlockReference
  2
_DOT
 10
1238.1301171875
 20
1990.01925
 30
0.0
 41
9.0
 42
9.0
 43
9.0
 50
270.0
  0
INSERT
  5
9B30
330
9B29
100
AcDbEntity
  8
DIM
 62
     0
370
    -2
100
AcDbBlockReference
  2
_DOT
 10
1238.1301171875
 20
2150.019250000001
 30
0.0
 41
9.0
 42
9.0
 43
9.0
 50
90.0
  0
MTEXT
  5
9B31
330
9B29
100
AcDbEntity
  8
DIM
  6
Continuous
 62
     0
100
AcDbMText
 10
1215.91380859375
 20
2070.01925
 30
0.0
 40
24.4326171875
 41
0.0
 46
0.0
 71
     5
 72
     1
  1
\A1;\A1;80
  7
ＭＳ ゴシック
 11
0.0
 21
1.0
 31
0.0
 73
     1
 44
0.96
  0
POINT
  5
9B32
330
9B29
100
AcDbEntity
  8
Defpoints
 62
     0
100
AcDbPoint
 10
1295.699237187501
 20
1990.01925
 30
0.0
  0
POINT
  5
9B33
330
9B29
100
AcDbEntity
  8
Defpoints
 62
     0
100
AcDbPoint
 10
1295.699237187501
 20
2150.019250000001
 30
0.0
  0
POINT
  5
9B34
330
9B29
100
AcDbEntity
  8
Defpoints
 62
     0
100
AcDbPoint
 10
1238.1301171875
 20
2150.019250000001
 30
0.0
  0
ENDBLK
  5
9B2B
330
9B29
100
AcDbEntity
  8
0
100
AcDbBlockEnd
  0
BLOCK
  5
9B36
330
9B35
100
AcDbEntity
  8
0
100
AcDbBlockBegin
  2
*D36
 70
     1
 10
0.0
 20
0.0
 30
0.0
  3
*D36
  1

  0
LINE
  5
9B38
330
9B35
100
AcDbEntity
  8
DIM
  6
Continuous
 62
     0
370
    -2
100
AcDbLine
 10
1310.6477366435
 20
2162.015420813441
 30
0.0
 11
1310.6477366435
 21
2273.252420791586
 31
0.0
  0
LINE
  5
9B39
330
9B35
100
AcDbEntity
  8
DIM
  6
Continuous
 62
     0
370
    -2
100
AcDbLine
 10
1590.6477366435
 20
2162.015420813441
 30
0.0
 11
1590.6477366435
 21
2273.252420791586
 31
0.0
  0
LINE
  5
9B3A
330
9B35
100
AcDbEntity
  8
DIM
  6
Continuous
 62
     0
370
    -2
100
AcDbLine
 10
1319.6477366435
 20
2273.252420791586
 30
0.0
 11
1581.6477366435
 21
2273.252420791586
 31
0.0
  0
INSERT
  5
9B3B
330
9B35
100
AcDbEntity
  8
DIM
 62
     0
370
    -2
100
AcDbBlockReference
  2
_DOT
 10
1310.6477366435
 20
2273.252420791586
 30
0.0
 41
9.0
 42
9.0
 43
9.0
 50
180.0
  0
INSERT
  5
9B3C
330
9B35
100
AcDbEntity
  8
DIM
 62
     0
370
    -2
100
AcDbBlockReference
  2
_DOT
 10
1590.6477366435
 20
2273.252420791586
 30
0.0
 41
9.0
 42
9.0
 43
9.0
  0
MTEXT
  5
9B3D
330
9B35
100
AcDbEntity
  8
DIM
  6
Continuous
 62
     0
100
AcDbMText
 10
1450.647736643499
 20
2295.468729385336
 30
0.0
 40
24.4326171875
 41
0.0
 46
0.0
 71
     5
 72
     1
  1
\A1;\A1;140
  7
ＭＳ ゴシック
 73
     1
 44
0.96
  0
POINT
  5
9B3E
330
9B35
100
AcDbEntity
  8
Defpoints
 62
     0
100
AcDbPoint
 10
1310.6477366435
 20
2162.015420813441
 30
0.0
  0
POINT
  5
9B3F
330
9B35
100
AcDbEntity
  8
Defpoints
 62
     0
100
AcDbPoint
 10
1590.6477366435
 20
2162.015420813441
 30
0.0
  0
POINT
  5
9B40
330
9B35
100
AcDbEntity
  8
Defpoints
 62
     0
100
AcDbPoint
 10
1590.6477366435
 20
2273.252420791586
 30
0.0
  0
ENDBLK
  5
9B37
330
9B35
100
AcDbEntity
  8
0
100
AcDbBlockEnd
  0
ENDSEC
  0
SECTION
  2
ENTITIES
  0
POINT
  5
3B96
330
A
100
AcDbEntity
  8
_0-7_
 62
     9
100
AcDbPoint
 10
5611.355377587607
 20
1006.191153304715
 30
0.0
  0
MTEXT
  5
6802
330
A
100
AcDbEntity
  8
MODEL
390
1D
100
AcDbMText
 10
79.2547055326859
 20
348.7848719762269
 30
0.0
 40
16.28841145833333
 41
0.0
 46
0.0
 71
     1
 72
     1
  1
品名
  7
ＭＳ ゴシック
 73
     1
 44
0.7828267384257843
  0
MTEXT
  5
6803
330
A
100
AcDbEntity
  8
MODEL
390
1D
100
AcDbMText
 10
79.2547055326859
 20
263.7848719762269
 30
0.0
 40
16.28841145833333
 41
0.0
 46
0.0
 71
     1
 72
     1
  1
仕様
  7
ＭＳ ゴシック
 73
     1
 44
0.7828267384257843
  0
LINE
  5
6804
330
A
100
AcDbEntity
  8
MODEL
390
1D
100
AcDbLine
 10
2022.254705532204
 20
272.1997938512272
 30
0.0
 11
72.25470553220384
 21
272.1997938512272
 31
0.0
  0
LWPOLYLINE
  5
6805
330
A
100
AcDbEntity
  8
MODEL
390
1D
100
AcDbPolyline
 90
        5
 70
   128
 43
0.0
 10
2022.254705532204
 20
2902.199793851227
 10
72.25470553220384
 20
2902.199793851227
 10
72.25470553220384
 20
102.1997938512272
 10
2022.254705532204
 20
102.1997938512272
 10
2022.254705532204
 20
2902.199793851227
  0
LINE
  5
6806
330
A
100
AcDbEntity
  8
MODEL
390
1D
100
AcDbLine
 10
2022.254705532204
 20
357.1997938512272
 30
0.0
 11
72.25470553220384
 21
357.1997938512272
 31
0.0
  0
LINE
  5
6807
330
A
100
AcDbEntity
  8
MODEL
390
1D
100
AcDbLine
 10
2022.254705532686
 20
187.1997938512272
 30
0.0
 11
1269.254705532686
 21
187.1997938512272
 31
0.0
  0
MTEXT
  5
6808
330
A
100
AcDbEntity
  8
MODEL
390
1D
100
AcDbMText
 10
72.2547055328896
 20
90.34597179437014
 30
0.0
 40
21.71788194444445
 41
0.0
 46
21.71788194444445
 71
     1
 72
     1
  1
{160122N}
  7
ＭＳ ゴシック
 73
     1
 44
0.7828267384257843
1001
ACAD
1000
ACAD_MTEXT_DEFINED_HEIGHT_BEGIN
1070
    46
1040
21.71788194444445
1000
ACAD_MTEXT_DEFINED_HEIGHT_END
  0
MTEXT
  5
6809
330
A
100
AcDbEntity
  8
MODEL
390
1D
100
AcDbMText
 10
1299.126111784947
 20
157.2893993779189
 30
0.0
 40
24.4326171875
 41
0.0
 46
0.0
 71
     1
 72
     1
  1
大洋金物株式会社 ティーフォルム事業部
  7
ＭＳ ゴシック
 73
     1
 44
0.7828267384257843
  0
MTEXT
  5
680A
330
A
100
AcDbEntity
  8
MODEL
390
1D
100
AcDbMText
 10
1831.254705532946
 20
235.202411038727
 30
0.0
 40
24.4326171875
 41
0.0
 46
24.4326171875
 71
     1
 72
     1
  1
{1:10}
  7
ＭＳ ゴシック
 73
     1
 44
0.7828267384257843
1001
ACAD
1000
ACAD_MTEXT_DEFINED_HEIGHT_BEGIN
1070
    46
1040
24.4326171875
1000
ACAD_MTEXT_DEFINED_HEIGHT_END
  0
MTEXT
  5
680B
330
A
100
AcDbEntity
  8
MODEL
390
1D
100
AcDbMText
 10
1778.254705532946
 20
263.7848719762269
 30
0.0
 40
16.28841145833333
 41
0.0
 46
0.0
 71
     1
 72
     1
  1
縮尺
  7
ＭＳ ゴシック
 73
     1
 44
0.7828267384257843
  0
LINE
  5
680C
330
A
100
AcDbEntity
  8
MODEL
390
1D
100
AcDbLine
 10
1771.254705532946
 20
187.1997938512272
 30
0.0
 11
1771.254705532946
 21
272.1997938512272
 31
0.0
  0
MTEXT
  5
680D
330
A
100
AcDbEntity
  8
MODEL
390
1D
100
AcDbMText
 10
1527.254705532946
 20
263.7848719762269
 30
0.0
 40
16.28841145833333
 41
0.0
 46
0.0
 71
     1
 72
     1
  1
容量
  7
ＭＳ ゴシック
 73
     1
 44
0.7828267384257843
  0
LINE
  5
680E
330
A
100
AcDbEntity
  8
MODEL
390
1D
100
AcDbLine
 10
1520.254705532946
 20
187.1997938512272
 30
0.0
 11
1520.254705532946
 21
272.1997938512272
 31
0.0
  0
MTEXT
  5
680F
330
A
100
AcDbEntity
  8
MODEL
390
1D
100
AcDbMText
 10
1276.254705532946
 20
348.7848719762269
 30
0.0
 40
16.28841145833333
 41
0.0
 46
0.0
 71
     1
 72
     1
  1
品番
  7
ＭＳ ゴシック
 73
     1
 44
0.7828267384257843
  0
MTEXT
  5
6810
330
A
100
AcDbEntity
  8
MODEL
390
1D
100
AcDbMText
 10
1276.254705532946
 20
263.7848719762269
 30
0.0
 40
16.28841145833333
 41
0.0
 46
0.0
 71
     1
 72
     1
  1
重量
  7
ＭＳ ゴシック
 73
     1
 44
0.7828267384257843
  0
MTEXT
  5
6811
330
A
100
AcDbEntity
  8
MODEL
390
1D
100
AcDbMText
 10
1329.254705532946
 20
320.202411038727
 30
0.0
 40
24.4326171875
 41
0.0
 46
24.4326171875
 71
     1
 72
     1
  1
{FAA71-2211}
  7
ＭＳ ゴシック
 73
     1
 44
0.7828267384257843
1001
ACAD
1000
ACAD_MTEXT_DEFINED_HEIGHT_BEGIN
1070
    46
1040
24.4326171875
1000
ACAD_MTEXT_DEFINED_HEIGHT_END
  0
LINE
  5
6812
330
A
100
AcDbEntity
  8
MODEL
390
1D
100
AcDbLine
 10
1269.254705532946
 20
102.1997938512272
 30
0.0
 11
1269.254705532946
 21
357.1997938512272
 31
0.0
  0
MTEXT
  5
6813
330
A
100
AcDbEntity
  8
MODEL
390
1D
100
AcDbMText
 10
132.2547055326858
 20
320.202411038727
 30
0.0
 40
24.4326171875
 41
0.0
 46
24.4326171875
 71
     1
 72
     1
  1
{壁掛便器 -DURAVIT,Starck3-}
  7
ＭＳ ゴシック
 73
     1
 44
0.7828267384257843
1001
ACAD
1000
ACAD_MTEXT_DEFINED_HEIGHT_BEGIN
1070
    46
1040
24.4326171875
1000
ACAD_MTEXT_DEFINED_HEIGHT_END
  0
MTEXT
  5
6814
330
A
100
AcDbEntity
  8
MODEL
390
1D
100
AcDbMText
 10
132.2547055326858
 20
237.2474089396842
 30
0.0
 40
24.4326171875
 41
0.0
 46
96.15049283854167
 71
     1
 72
     1
  1
{\pxsm1;ウォッシュダウン式/センソウォッシュ(温水洗浄便座),壁固定金具,\P\W0.945946;ワイヤレスリモコン\W1;付属/\P陶器/ホワイト}
  7
ＭＳ ゴシック
 73
     1
 44
1.304711230709641
1001
ACAD
1000
ACAD_MTEXT_DEFINED_HEIGHT_BEGIN
1070
    46
1040
96.15049283854167
1000
ACAD_MTEXT_DEFINED_HEIGHT_END
  0
INSERT
  5
6815
330
A
100
AcDbEntity
  8
MODEL
100
AcDbBlockReference
  2
名称未設定-1
 10
1870.813956087109
 20
30.99988610145192
 30
0.0
 41
0.762
 42
0.762
 43
0.762
  0
LWPOLYLINE
  5
6816
330
A
100
AcDbEntity
  8
TEMPLATE
  6
Continuous
100
AcDbPolyline
 90
        4
 70
     1
 43
0.0
 10
0.0
 20
0.0
 10
0.0
 20
2970.0
 10
2100.0
 20
2970.0
 10
2100.0
 20
0.0
  0
ARC
  5
6E86
330
A
100
AcDbEntity
  8
MODEL
  6
Continuous
100
AcDbCircle
 10
704.0520046171079
 20
2169.273463850404
 30
0.0
 40
135.0
100
AcDbArc
 50
272.3189889786979
 51
87.68101102130208
  0
ARC
  5
6E87
330
A
100
AcDbEntity
  8
MODEL
  6
Continuous
100
AcDbCircle
 10
704.0520046171079
 20
2169.273463850404
 30
0.0
 40
130.0
100
AcDbArc
 50
272.3189889786979
 51
87.68101102130211
  0
LINE
  5
6E88
330
A
100
AcDbEntity
  8
MODEL
  6
Continuous
100
AcDbLine
 10
539.1660541044929
 20
2214.273463850403
 30
0.0
 11
602.1660541044931
 21
2214.273463850403
 31
0.0
  0
LINE
  5
6E89
330
A
100
AcDbEntity
  8
MODEL
  6
Continuous
100
AcDbLine
 10
539.1660541044931
 20
2124.273463850404
 30
0.0
 11
602.1660541044931
 21
2124.273463850404
 31
0.0
  0
ARC
  5
6E8A
330
A
100
AcDbEntity
  8
MODEL
  6
Continuous
100
AcDbCircle
 10
539.1660541044929
 20
2221.273463850404
 30
0.0
 40
7.0
100
AcDbArc
 50
180.0
 51
270.0
1001
GENIUS_GENODEF_13
1002
{
1000
HIER
1070
     0
1002
}
1002
{
1000
MANEDIT
1070
     0
1002
}
1002
{
1000
NOSEL
1070
     0
1002
}
1002
{
1000
BEHIND
1070
     0
1002
}
1002
{
1000
OTHER
1070
     0
1002
}
1002
{
1000
REACTOR
1002
}
1001
GENIUS_GENOBJ-N-FIL_13
1002
{
1000
OWNER
1000
GEN
1002
}
  0
LINE
  5
6E8B
330
A
100
AcDbEntity
  8
MODEL
  6
Continuous
100
AcDbLine
 10
532.1660541044929
 20
2207.273463850403
 30
0.0
 11
532.1660541044931
 21
2131.273463850403
 31
0.0
  0
ARC
  5
6E8C
330
A
100
AcDbEntity
  8
MODEL
  6
Continuous
100
AcDbCircle
 10
539.1660541044929
 20
2117.273463850404
 30
0.0
 40
7.0
100
AcDbArc
 50
90.0
 51
180.0
1001
GENIUS_GENODEF_13
1002
{
1000
HIER
1070
     0
1002
}
1002
{
1000
MANEDIT
1070
     0
1002
}
1002
{
1000
NOSEL
1070
     0
1002
}
1002
{
1000
BEHIND
1070
     0
1002
}
1002
{
1000
OTHER
1070
     0
1002
}
1002
{
1000
REACTOR
1002
}
1001
GENIUS_GENOBJ-N-FIL_13
1002
{
1000
OWNER
1000
GEN
1002
}
  0
ARC
  5
6E8D
330
A
100
AcDbEntity
  8
MODEL
  6
Continuous
100
AcDbCircle
 10
602.1660541044931
 20
2169.273463850404
 30
0.0
 40
45.0
100
AcDbArc
 50
270.0
 51
90.0
  0
CIRCLE
  5
6E90
330
A
100
AcDbEntity
  8
MODEL
  6
Continuous
100
AcDbCircle
 10
409.4186113382269
 20
2239.273463850403
 30
0.0
 40
7.5
  0
LINE
  5
6E91
330
A
100
AcDbEntity
  8
MODEL
  6
Continuous
100
AcDbLine
 10
294.4186113382269
 20
2341.571378066051
 30
0.0
 11
294.4186113382269
 21
1996.975549634757
 31
0.0
  0
ARC
  5
6E92
330
A
100
AcDbEntity
  8
MODEL
  6
Continuous
100
AcDbCircle
 10
284.4778322127355
 20
2341.595787997791
 30
0.0
 40
9.940809095168035
100
AcDbArc
 50
359.859308486961
 51
89.94177654356177
  0
ARC
  5
6E93
330
A
100
AcDbEntity
  8
MODEL
  6
Continuous
100
AcDbCircle
 10
284.4778322127354
 20
1996.951139703016
 30
0.0
 40
9.940809095168081
100
AcDbArc
 50
270.0582234564389
 51
0.1406915130443081
  0
ARC
  5
6E95
330
A
100
AcDbEntity
  8
MODEL
  6
Continuous
100
AcDbCircle
 10
604.3157132466428
 20
2169.273463850404
 30
0.0
 40
135.0
100
AcDbArc
 50
92.31898897869792
 51
267.681011021302
  0
ARC
  5
6E96
330
A
100
AcDbEntity
  8
MODEL
  6
Continuous
100
AcDbCircle
 10
611.3697460329539
 20
2169.273463850404
 30
0.0
 40
130.0
100
AcDbArc
 50
92.31898897869792
 51
267.681011021302
  0
LINE
  5
6E97
330
A
100
AcDbEntity
  8
MODEL
100
AcDbLine
 10
709.5145019934702
 20
2304.162904216999
 30
0.0
 11
598.8532158702805
 21
2304.162904216999
 31
0.0
  0
LINE
  5
6E98
330
A
100
AcDbEntity
  8
MODEL
100
AcDbLine
 10
709.5145019934702
 20
2299.162904216999
 30
0.0
 11
606.1095633742347
 21
2299.166999018236
 31
0.0
  0
LINE
  5
6E99
330
A
100
AcDbEntity
  8
MODEL
100
AcDbLine
 10
709.5145019934703
 20
2034.384023483809
 30
0.0
 11
598.8532158702803
 21
2034.384023483809
 31
0.0
  0
LINE
  5
6E9A
330
A
100
AcDbEntity
  8
MODEL
100
AcDbLine
 10
709.5145019934703
 20
2039.384023483809
 30
0.0
 11
606.0094026435128
 21
2039.384023483809
 31
0.0
  0
CIRCLE
  5
6E9D
330
A
100
AcDbEntity
  8
MODEL
  6
Continuous
100
AcDbCircle
 10
409.4186113382269
 20
2099.273463850403
 30
0.0
 40
7.5
  0
LWPOLYLINE
  5
6E9E
330
A
100
AcDbEntity
  8
MODEL
100
AcDbPolyline
 90
        4
 70
     1
 43
0.0
 10
259.4186113382269
 20
2351.773463850403
 10
700.8438282161923
 20
2349.269138733655
 42
-0.9921059672009592
 10
700.8438282161882
 20
1989.277788967153
 10
259.4186113382269
 20
1986.773463850404
  0
ARC
  5
6FBA
330
A
100
AcDbEntity
  8
MODEL GRAY
  6
AM_DIN_F_W050
 48
4.0
100
AcDbCircle
 10
338.3668952003197
 20
838.0410666392138
 30
0.0
 40
7.0
100
AcDbArc
 50
270.0
 51
0.0
  0
LINE
  5
6FBB
330
A
100
AcDbEntity
  8
MODEL
100
AcDbLine
 10
868.4843213382269
 20
1104.98538487062
 30
0.0
 11
868.463071561333
 21
1104.98538487062
 31
0.0
  0
LINE
  5
6FBC
330
A
100
AcDbEntity
  8
MODEL GRAY
  6
AM_DIN_F_W050
 48
4.0
100
AcDbLine
 10
415.7878676886403
 20
1077.48538487062
 30
0.0
 11
275.232754100569
 21
1077.48538487062
 31
0.0
  0
LINE
  5
6FBD
330
A
100
AcDbEntity
  8
MODEL GRAY
  6
AM_DIN_F_W050
 48
4.0
100
AcDbLine
 10
419.7850005383752
 20
1020.98538487062
 30
0.0
 11
275.232754100569
 21
1020.98538487062
 31
0.0
  0
LINE
  5
6FBE
330
A
100
AcDbEntity
  8
MODEL
100
AcDbLine
 10
868.4843213382269
 20
1104.98538487062
 30
0.0
 11
259.4186113382268
 21
1104.98538487062
 31
0.0
  0
LINE
  5
6FBF
330
A
100
AcDbEntity
  8
MODEL GRAY
  6
CENTER2
100
AcDbLine
 10
345.3668952003197
 20
969.9853848706198
 30
0.0
 11
242.7762820180396
 21
969.9853848706198
 31
0.0
  0
ARC
  5
6FC0
330
A
100
AcDbEntity
  8
MODEL GRAY
  6
AM_DIN_F_W050
 48
4.0
100
AcDbCircle
 10
340.3668952003197
 20
913.9853848706198
 30
0.0
 40
5.0
100
AcDbArc
 50
0.0
 51
90.0
  0
LINE
  5
6FC1
330
A
100
AcDbEntity
  8
MODEL GRAY
  6
AM_DIN_F_W050
 48
4.0
100
AcDbLine
 10
345.3668952003197
 20
884.4849535721139
 30
0.0
 11
267.3378138236187
 21
877.9878411499558
 31
0.0
  0
LINE
  5
6FC2
330
A
100
AcDbEntity
  8
MODEL GRAY
  6
AM_DIN_F_W050
 48
4.0
100
AcDbLine
 10
460.8155373517033
 20
1141.200922114288
 30
0.0
 11
467.9947746178948
 21
1100.485444327814
 31
0.0
  0
ARC
  5
6FC3
330
A
100
AcDbEntity
  8
MODEL GRAY
  6
AM_DIN_F_W050
 48
4.0
100
AcDbCircle
 10
458.1466970877727
 20
1098.748962551145
 30
0.0
 40
10.0
100
AcDbArc
 50
297.3817946840751
 51
9.99999999999855
1001
GENIUS_GENODEF_13
1002
{
1000
HIER
1070
     0
1002
}
1002
{
1000
MANEDIT
1070
     0
1002
}
1002
{
1000
NOSEL
1070
     0
1002
}
1002
{
1000
BEHIND
1070
     0
1002
}
1002
{
1000
OTHER
1070
     0
1002
}
1002
{
1000
REACTOR
1002
}
1001
GENIUS_GENOBJ-N-FIL_13
1002
{
1000
OWNER
1000
GEN
1002
}
  0
LINE
  5
6FC4
330
A
100
AcDbEntity
  8
MODEL GRAY
  6
AM_DIN_F_W050
 48
4.0
100
AcDbLine
 10
824.1311216787683
 20
1139.98538487062
 30
0.0
 11
824.1311216787683
 21
1111.98538487062
 31
0.0
  0
ARC
  5
6FC5
330
A
100
AcDbEntity
  8
MODEL GRAY
  6
AM_DIN_F_W050
 48
4.0
100
AcDbCircle
 10
693.3022023399419
 20
955.7179343806438
 30
0.0
 40
25.86178011876097
100
AcDbArc
 50
95.29583726389018
 51
167.8059032869611
  0
ARC
  5
6FC6
330
A
100
AcDbEntity
  8
MODEL GRAY
  6
AM_DIN_F_W050
 48
4.0
100
AcDbCircle
 10
669.2829748083204
 20
1197.485121339979
 30
0.0
 40
217.0962444769091
100
AcDbArc
 50
275.7186422625257
 51
333.449447759309
  0
ARC
  5
6FC7
330
A
100
AcDbEntity
  8
MODEL GRAY
  6
AM_DIN_F_W050
 48
4.0
100
AcDbCircle
 10
831.1311216787683
 20
1111.98538487062
 30
0.0
 40
7.0
100
AcDbArc
 50
180.0
 51
270.0
  0
ARC
  5
6FC8
330
A
100
AcDbEntity
  8
MODEL GRAY
  6
AM_DIN_F_W050
 48
4.0
100
AcDbCircle
 10
321.3708963193822
 20
866.5267649742627
 30
0.0
 40
196.5307138428585
100
AcDbArc
 50
4.012706294515755
 51
45.43782907365635
  0
LINE
  5
6FC9
330
A
100
AcDbEntity
  8
MODEL GRAY
  6
AM_DIN_F_W050
 48
4.0
100
AcDbLine
 10
345.3668952003197
 20
913.9853848706198
 30
0.0
 11
345.3668952003197
 21
838.0410666392138
 31
0.0
  0
ARC
  5
6FCA
330
A
100
AcDbEntity
  8
MODEL GRAY
  6
AM_DIN_F_W050
 48
4.0
100
AcDbCircle
 10
519.5058470210386
 20
892.9204779480149
 30
0.0
 40
91.25311372188781
100
AcDbArc
 50
178.5300009973841
 51
232.0973337135263
  0
ARC
  5
6FCB
330
A
100
AcDbEntity
  8
MODEL GRAY
  6
AM_DIN_F_W050
 48
4.0
100
AcDbCircle
 10
418.2860562447605
 20
895.5179755099118
 30
0.0
 40
10.0
100
AcDbArc
 50
358.530000997384
 51
90.0
1001
GENIUS_GENOBJ-N-FIL_13
1002
{
1000
OWNER
1000
GEN
1002
}
1001
GENIUS_GENODEF_13
1002
{
1000
HIER
1070
     0
1002
}
1002
{
1000
MANEDIT
1070
     0
1002
}
1002
{
1000
NOSEL
1070
     0
1002
}
1002
{
1000
BEHIND
1070
     0
1002
}
1002
{
1000
OTHER
1070
     0
1002
}
1002
{
1000
REACTOR
1002
}
  0
ARC
  5
6FCC
330
A
100
AcDbEntity
  8
MODEL GRAY
  6
AM_DIN_F_W050
 48
4.0
100
AcDbCircle
 10
513.4786210018423
 20
914.9931637555219
 30
0.0
 40
116.5113974351343
100
AcDbArc
 50
306.1530268079211
 51
342.5519313738543
  0
ARC
  5
6FCD
330
A
100
AcDbEntity
  8
MODEL GRAY
  6
AM_DIN_F_W050
 48
4.0
100
AcDbCircle
 10
554.0207695617064
 20
1105.756584059512
 30
0.0
 40
137.1805466852468
100
AcDbArc
 50
193.5330778235548
 51
226.3161583545568
  0
LINE
  5
6FCE
330
A
100
AcDbEntity
  8
MODEL GRAY
  6
AM_DIN_F_W050
 48
4.0
100
AcDbLine
 10
345.3668952003197
 20
905.5179755099118
 30
0.0
 11
418.2860562447605
 21
905.5179755099118
 31
0.0
  0
ARC
  5
6FCF
330
A
100
AcDbEntity
  8
MODEL GRAY
  6
AM_DIN_F_W050
 48
4.0
100
AcDbCircle
 10
416.1998889073604
 20
1038.167388440045
 30
0.0
 40
17.55204466911436
100
AcDbArc
 50
281.7859534555498
 51
5.781195185047385
  0
LINE
  5
6FD0
330
A
100
AcDbEntity
  8
MODEL GRAY
  6
AM_DIN_F_W050
 48
4.0
100
AcDbLine
 10
462.7458737347358
 20
1089.869346896736
 30
0.0
 11
420.6490426206469
 21
1073.655418323316
 31
0.0
  0
ARC
  5
6FD1
330
A
100
AcDbEntity
  8
MODEL GRAY
  6
AM_DIN_F_W050
 48
4.0
100
AcDbCircle
 10
415.7878676886403
 20
1072.48538487062
 30
0.0
 40
5.0
100
AcDbArc
 50
13.53307782355317
 51
90.0
  0
ARC
  5
6FD2
330
A
100
AcDbEntity
  8
MODEL GRAY
  6
AM_DIN_F_W050
 48
4.0
100
AcDbCircle
 10
831.1311216787683
 20
1139.98538487062
 30
0.0
 40
7.0
100
AcDbArc
 50
90.0
 51
180.0
  0
ARC
  5
6FD3
330
A
100
AcDbEntity
  8
MODEL GRAY
  6
AM_DIN_F_W050
 48
4.0
100
AcDbCircle
 10
453.9218830806176
 20
1139.98538487062
 30
0.0
 40
7.0
100
AcDbArc
 50
9.99999999999761
 51
90.0
  0
LINE
  5
6FD4
330
A
100
AcDbEntity
  8
MODEL GRAY
  6
AM_DIN_F_W050
 48
4.0
100
AcDbLine
 10
275.232754100569
 20
1132.48538487062
 30
0.0
 11
275.232754100569
 21
1077.48538487062
 31
0.0
  0
ARC
  5
6FD5
330
A
100
AcDbEntity
  8
MODEL GRAY
  6
AM_DIN_F_W050
 48
4.0
100
AcDbCircle
 10
272.5026150483534
 20
865.8822523965928
 30
0.0
 40
13.16132405028349
100
AcDbArc
 50
113.1053259237265
 51
173.7863388933001
  0
LINE
  5
6FD6
330
A
100
AcDbEntity
  8
MODEL GRAY
  6
AM_DIN_F_W050
 48
4.0
100
AcDbLine
 10
338.3668952003197
 20
831.0410666392138
 30
0.0
 11
259.4186113382268
 21
831.0410666392138
 31
0.0
  0
LINE
  5
6FD7
330
A
100
AcDbEntity
  8
MODEL GRAY
  6
AM_DIN_F_W050
 48
4.0
100
AcDbLine
 10
275.232754100569
 20
1020.98538487062
 30
0.0
 11
275.232754100569
 21
918.9853848706198
 31
0.0
  0
LINE
  5
6FD8
330
A
100
AcDbEntity
  8
MODEL GRAY
  6
AM_DIN_F_W050
 48
4.0
100
AcDbLine
 10
340.3668952003197
 20
918.9853848706198
 30
0.0
 11
275.232754100569
 21
918.9853848706198
 31
0.0
  0
LINE
  5
6FD9
330
A
100
AcDbEntity
  8
MODEL GRAY
  6
CENTER2
100
AcDbLine
 10
307.7762820180396
 20
1104.98538487062
 30
0.0
 11
242.7762820180396
 21
1104.98538487062
 31
0.0
  0
LINE
  5
6FDA
330
A
100
AcDbEntity
  8
MODEL GRAY
  6
CENTER2
100
AcDbLine
 10
291.9186113382269
 20
1066.98538487062
 30
0.0
 11
226.9186113382269
 21
1066.98538487062
 31
0.0
  0
LINE
  5
6FDB
330
A
100
AcDbEntity
  8
MODEL GRAY
  6
AM_DIN_F_W050
 48
4.0
100
AcDbLine
 10
318.5560750752346
 20
1085.222377447115
 30
0.0
 11
318.5560750752346
 21
1077.48538487062
 31
0.0
  0
LINE
  5
6FDC
330
A
100
AcDbEntity
  8
MODEL GRAY
  6
AM_DIN_F_W050
 48
4.0
100
AcDbLine
 10
267.4935228333246
 20
1140.249064734539
 30
0.0
 11
259.4186113382268
 21
1140.249064734539
 31
0.0
  0
LINE
  5
6FDD
330
A
100
AcDbEntity
  8
MODEL GRAY
  6
AM_DIN_F_W050
 48
4.0
100
AcDbLine
 10
318.5560750752342
 20
1132.48538487062
 30
0.0
 11
275.2327541005693
 21
1132.48538487062
 31
0.0
  0
LINE
  5
6FDE
330
A
100
AcDbEntity
  8
MODEL GRAY
  6
AM_DIN_F_W050
 48
4.0
100
AcDbLine
 10
318.5560750752346
 20
1132.48538487062
 30
0.0
 11
318.5560750752346
 21
1124.485967051228
 31
0.0
  0
LINE
  5
6FDF
330
A
100
AcDbEntity
  8
MODEL GRAY
  6
AM_DIN_F_W050
 48
4.0
100
AcDbLine
 10
275.232754100569
 20
1132.48538487062
 30
0.0
 11
271.6929323420649
 21
1137.962910673037
 31
0.0
  0
ARC
  5
6FE0
330
A
100
AcDbEntity
  8
MODEL GRAY
  6
AM_DIN_F_W050
 48
4.0
100
AcDbCircle
 10
267.4935228333246
 20
1135.249064734539
 30
0.0
 40
5.0
100
AcDbArc
 50
32.87234916140291
 51
90.0
  0
LINE
  5
6FE1
330
A
100
AcDbEntity
  8
MODEL
  6
Continuous
100
AcDbLine
 10
313.1765501306824
 20
1146.98538487062
 30
0.0
 11
259.4186113382268
 21
1146.98538487062
 31
0.0
  0
LINE
  5
6FE2
330
A
100
AcDbEntity
  8
MODEL GRAY
  6
AM_DIN_F_W050
 48
4.0
100
AcDbLine
 10
831.1311216787683
 20
1104.98538487062
 30
0.0
 11
480.5874267126749
 21
1096.073711526053
 31
0.0
  0
LINE
  5
6FE3
330
A
100
AcDbEntity
  8
MODEL
 62
     7
100
AcDbLine
 10
390.5246533694767
 20
1181.478369896661
 30
0.0
 11
390.5721956871848
 21
1147.963102969578
 31
0.0
  0
LINE
  5
6FE4
330
A
100
AcDbEntity
  8
MODEL
 62
     7
100
AcDbLine
 10
374.5256299319764
 20
1181.478369896661
 30
0.0
 11
374.4188319719073
 21
1147.963102969578
 31
0.0
  0
LINE
  5
6FE5
330
A
100
AcDbEntity
  8
MODEL
 62
     7
100
AcDbLine
 10
374.5256299319764
 20
1181.478369896661
 30
0.0
 11
390.5246533694767
 21
1181.478369896661
 31
0.0
  0
SPLINE
  5
6FE6
330
A
100
AcDbEntity
  8
MODEL
 62
     7
100
AcDbSpline
210
0.0
220
0.0
230
1.0
 70
    24
 71
     3
 72
     8
 73
     4
 74
     0
 42
0.000000001
 43
0.0000000001
 40
6.0
 40
6.0
 40
6.0
 40
6.0
 40
7.0
 40
7.0
 40
7.0
 40
7.0
 10
872.8766064944766
 20
1156.468354705689
 30
0.0
 10
872.8766064944766
 20
1156.468354705689
 30
0.0
 10
530.142441220599
 20
1156.468354705689
 30
0.0
 10
530.142441220599
 20
1156.468354705689
 30
0.0
  0
LINE
  5
6FE8
330
A
100
AcDbEntity
  8
MODEL
100
AcDbLine
 10
816.2703646324976
 20
1152.925418507772
 30
0.0
 11
816.2703646324976
 21
1152.925418507772
 31
0.0
  0
LINE
  5
6FE9
330
A
100
AcDbEntity
  8
MODEL
100
AcDbLine
 10
816.2703646324976
 20
1152.925418507772
 30
0.0
 11
777.3668964792855
 21
1152.925418507772
 31
0.0
  0
LINE
  5
6FEA
330
A
100
AcDbEntity
  8
MODEL
100
AcDbLine
 10
600.7794697214733
 20
1152.925418507773
 30
0.0
 11
577.0514749298063
 21
1152.925418507772
 31
0.0
  0
LINE
  5
6FEF
330
A
100
AcDbEntity
  8
MODEL
100
AcDbLine
 10
396.2021707305875
 20
1231.696837778605
 30
0.0
 11
362.7564947323239
 21
1292.648845157078
 31
0.0
  0
LINE
  5
6FF0
330
A
100
AcDbEntity
  8
MODEL
100
AcDbLine
 10
470.5624897410044
 20
1147.972749236939
 30
0.0
 11
470.5790261993378
 21
1165.278152882772
 31
0.0
  0
LINE
  5
6FF1
330
A
100
AcDbEntity
  8
MODEL
100
AcDbLine
 10
470.5790261993378
 20
1165.278152882772
 30
0.0
 11
471.9576873479814
 21
1165.278152882772
 31
0.0
  0
LINE
  5
6FF2
330
A
100
AcDbEntity
  8
MODEL
100
AcDbLine
 10
467.0584665777587
 20
1147.972749236939
 30
0.0
 11
363.9222273389195
 21
1147.963102969578
 31
0.0
  0
LWPOLYLINE
  5
6FFB
330
A
100
AcDbEntity
  8
MODEL
100
AcDbPolyline
 90
        7
 70
     1
 43
0.0
 10
429.2105609403966
 20
1240.27539134036
 42
0.0837070981806584
 10
442.9600401967336
 20
1254.764508134508
 42
0.2770541093488471
 10
533.851470157236
 20
1202.616786780342
 10
870.4664068416987
 20
1202.616786780342
 42
-0.4142135623730951
 10
873.4664068416987
 20
1199.616786780342
 10
873.4664068416987
 20
1183.401422197008
 10
534.0322554657391
 20
1183.401422197008
 42
-0.2634342591832366
  0
LWPOLYLINE
  5
6FFC
330
A
100
AcDbEntity
  8
MODEL
100
AcDbPolyline
 90
       27
 70
     1
 43
0.0
 10
404.372423452924
 20
1229.286543200148
 42
0.108528751123663
 10
428.0656220935607
 20
1239.435780765572
 42
0.2631763854424925
 10
534.0449883249044
 20
1181.985487952217
 10
870.4843213382269
 20
1181.985487952217
 42
-0.4142135623730951
 10
873.4843213382269
 20
1178.985487952217
 10
873.4843213382269
 20
1156.468354705689
 10
872.8766064944766
 20
1156.468354705689
 10
872.8766064944766
 20
1154.925418507772
 42
-0.4142135623730951
 10
870.8766064944766
 20
1152.925418507772
 10
816.2703646324976
 20
1152.925418507772
 42
0.4142135623730951
 10
814.2703646324976
 20
1150.925418507772
 10
814.2703646324976
 20
1148.98538487062
 42
-0.4142135623730951
 10
812.2703646324976
 20
1146.98538487062
 10
781.3668964792855
 20
1146.985384870619
 42
-0.4142135623730951
 10
779.3668964792855
 20
1148.985384870619
 10
779.3668964792855
 20
1150.925418507772
 42
0.4142135623731033
 10
777.3668964792855
 20
1152.925418507772
 10
600.7794697214733
 20
1152.925418507772
 42
0.4142135623730951
 10
598.7794697214733
 20
1150.925418507772
 10
598.7794697214733
 20
1148.985384870619
 42
-0.4142135623730951
 10
596.7794697214733
 20
1146.985384870619
 10
581.0514749298063
 20
1146.985384870619
 42
-0.4142135623730951
 10
579.0514749298063
 20
1148.985384870619
 10
579.0514749298063
 20
1150.925418507772
 42
0.4142135623730951
 10
577.0514749298063
 20
1152.925418507772
 10
529.851732307111
 20
1152.925418507772
 10
530.1420817565495
 20
1156.463973834881
 42
-0.2625390149727633
  0
LWPOLYLINE
  5
6FFD
102
{ACAD_REACTORS
330
92F5
102
}
330
A
100
AcDbEntity
  8
MODEL
100
AcDbPolyline
 90
       12
 70
     1
 43
0.0
 10
362.7564947323239
 20
1292.648845157078
 10
405.8470600535042
 20
1317.192566674005
 10
441.2964035864906
 20
1257.432390078953
 42
-0.2397977434577256
 10
396.2021707305875
 20
1231.696837778605
 10
400.0817645646902
 20
1228.627691794038
 42
0.2619497781080974
 10
529.8525830569765
 20
1152.935786791489
 10
529.8525830569765
 20
1147.972749236939
 10
467.0584665777587
 20
1147.972749236939
 42
-0.3693434541613143
 10
466.4669602271155
 20
1147.457362952217
 10
364.3625086306324
 20
1147.457362952217
 42
-0.3743005145197273
 10
363.9222273389195
 20
1147.963102969578
 10
358.3254129180879
 20
1147.963102969578
  0
LINE
  5
6FFE
330
A
100
AcDbEntity
  8
MODEL
100
AcDbLine
 10
582.2138084303647
 20
820.9167068629828
 30
0.0
 11
463.4470590081509
 21
820.9167068629808
 31
0.0
  0
LWPOLYLINE
  5
6FFF
102
{ACAD_REACTORS
330
92F5
102
}
330
A
100
AcDbEntity
  8
MODEL
100
AcDbPolyline
 90
       16
 70
     1
 43
0.0
 10
259.418611338227
 20
1181.98538487062
 10
288.544913919986
 20
1181.98538487062
 42
-0.3639702342662071
 10
295.4385681910715
 20
1176.200922114288
 10
298.4044338354992
 20
1159.380662205616
 42
0.3639702342662028
 10
313.1765501306824
 20
1146.98538487062
 10
866.4843213382269
 20
1146.98538487062
 42
-0.4142135623730951
 10
873.4843213382269
 20
1139.98538487062
 10
873.4843213382269
 20
1109.98538487062
 42
-0.4142135623761718
 10
868.4843213381741
 20
1104.98538487062
 42
0.4336642206145681
 10
863.4725900434087
 20
1099.676969441589
 42
-0.20599722353366
 10
753.1448242512465
 20
825.2762127173148
 42
-0.1980807073817298
 10
742.572223609209
 20
820.9167068629819
 10
582.2138084303629
 20
820.9167068629819
 42
-0.3164178415870106
 10
463.4470590081507
 20
820.9167068629819
 10
266.4186113382268
 20
820.9167068629819
 42
-0.4142135623730951
 10
259.4186113382268
 20
827.9167068629818
  0
ARC
  5
7000
330
A
100
AcDbEntity
  8
MODEL GRAY
  6
AM_DIN_F_W050
 48
4.0
100
AcDbCircle
 10
575.4178126286098
 20
961.1805653628869
 30
0.0
 40
92.60611180987968
100
AcDbArc
 50
304.9310804431861
 51
0.0
  0
ARC
  5
7001
330
A
100
AcDbEntity
  8
MODEL GRAY
  6
AM_DIN_F_W050
 48
4.0
100
AcDbCircle
 10
634.1691165370779
 20
877.0598279089368
 30
0.0
 40
10.0
100
AcDbArc
 50
124.9310804431866
 51
162.5519313738551
1001
GENIUS_GENODEF_13
1002
{
1000
HIER
1070
     0
1002
}
1002
{
1000
MANEDIT
1070
     0
1002
}
1002
{
1000
NOSEL
1070
     0
1002
}
1002
{
1000
BEHIND
1070
     0
1002
}
1002
{
1000
OTHER
1070
     0
1002
}
1002
{
1000
REACTOR
1002
}
1001
GENIUS_GENOBJ-N-FIL_13
1002
{
1000
OWNER
1000
GEN
1002
}
  0
LINE
  5
71A9
330
A
100
AcDbEntity
  8
MODEL
100
AcDbLine
 10
1309.61650356703
 20
1105.5245627139
 30
0.0
 11
1657.576416965002
 21
1105.5245627139
 31
0.0
  0
LINE
  5
71AA
330
A
100
AcDbEntity
  8
MODEL GRAY
  6
CENTER2
100
AcDbLine
 10
1483.599352746779
 20
1026.491805877045
 30
0.0
 11
1483.599352746779
 21
914.491805877045
 31
0.0
  0
LINE
  5
71AB
330
A
100
AcDbEntity
  8
MODEL GRAY
  6
AM_DIN_G_W050
 48
3.0
100
AcDbLine
 10
1451.096460266016
 20
1104.98538487062
 30
0.0
 11
1516.096460266016
 21
1104.98538487062
 31
0.0
  0
LINE
  5
71AC
330
A
100
AcDbEntity
  8
MODEL GRAY
  6
CENTER2
100
AcDbLine
 10
1427.599352746779
 20
970.491805877045
 30
0.0
 11
1539.599352746779
 21
970.491805877045
 31
0.0
  0
LINE
  5
71AD
330
A
100
AcDbEntity
  8
MODEL GRAY
  6
CENTER2
100
AcDbLine
 10
1383.596460266016
 20
1066.98538487062
 30
0.0
 11
1403.596460266016
 21
1066.98538487062
 31
0.0
  0
LINE
  5
71AE
330
A
100
AcDbEntity
  8
MODEL GRAY
  6
CENTER2
100
AcDbLine
 10
1393.596460266016
 20
1076.98538487062
 30
0.0
 11
1393.596460266016
 21
1056.98538487062
 31
0.0
  0
LINE
  5
71AF
330
A
100
AcDbEntity
  8
MODEL GRAY
  6
CENTER2
100
AcDbLine
 10
1483.596460266016
 20
1134.596937583841
 30
0.0
 11
1483.596460266016
 21
1075.373832157398
 31
0.0
  0
LINE
  5
71B0
102
{ACAD_REACTORS
330
9909
102
}
330
A
100
AcDbEntity
  8
MODEL GRAY
  6
CENTER2
100
AcDbLine
 10
1583.596460266016
 20
1066.98538487062
 30
0.0
 11
1563.596460266016
 21
1066.98538487062
 31
0.0
  0
LINE
  5
71B1
330
A
100
AcDbEntity
  8
MODEL GRAY
  6
CENTER2
100
AcDbLine
 10
1573.596460266016
 20
1076.98538487062
 30
0.0
 11
1573.596460266016
 21
1056.98538487062
 31
0.0
  0
SPLINE
  5
71B2
330
A
100
AcDbEntity
  8
MODEL
 62
     7
100
AcDbSpline
210
0.0
220
0.0
230
1.0
 70
    24
 71
     3
 72
     8
 73
     4
 74
     0
 42
0.000000001
 43
0.0000000001
 40
6.0
 40
6.0
 40
6.0
 40
6.0
 40
7.0
 40
7.0
 40
7.0
 40
7.0
 10
1299.204175109766
 20
1156.468354705689
 30
0.0
 10
1299.204175109766
 20
1156.468354705689
 30
0.0
 10
1667.988745422266
 20
1156.468354705689
 30
0.0
 10
1667.988745422266
 20
1156.468354705689
 30
0.0
  0
LINE
  5
71B3
330
A
100
AcDbEntity
  8
MODEL
100
AcDbLine
 10
1343.970106293611
 20
1152.925418507773
 30
0.0
 11
1343.970106293611
 21
1152.925418507773
 31
0.0
  0
LINE
  5
71B4
330
A
100
AcDbEntity
  8
MODEL
100
AcDbLine
 10
1312.581056284402
 20
1152.925418507773
 30
0.0
 11
1394.713885124957
 21
1152.925418507773
 31
0.0
  0
LINE
  5
71B7
330
A
100
AcDbEntity
  8
MODEL
100
AcDbLine
 10
1665.578545769488
 20
1202.616786780342
 30
0.0
 11
1301.614374762543
 21
1202.616786780342
 31
0.0
  0
ARC
  5
71B8
330
A
100
AcDbEntity
  8
MODEL
100
AcDbCircle
 10
1301.614374762543
 20
1199.616786780342
 30
0.0
 40
3.0
100
AcDbArc
 50
90.0
 51
180.0
  0
ARC
  5
71B9
330
A
100
AcDbEntity
  8
MODEL
100
AcDbCircle
 10
1343.970106293611
 20
1150.925418507773
 30
0.0
 40
2.0
100
AcDbArc
 50
0.0
 51
90.0
  0
LINE
  5
71BA
330
A
100
AcDbEntity
  8
MODEL
100
AcDbLine
 10
1345.970106293611
 20
1150.925418507773
 30
0.0
 11
1345.970106293611
 21
1148.98538487062
 31
0.0
  0
ARC
  5
71BB
330
A
100
AcDbEntity
  8
MODEL
100
AcDbCircle
 10
1347.970106293611
 20
1148.98538487062
 30
0.0
 40
2.0
100
AcDbArc
 50
180.0
 51
270.0
  0
LINE
  5
71BC
330
A
100
AcDbEntity
  8
MODEL
100
AcDbLine
 10
1328.614374762543
 20
1313.192566674005
 30
0.0
 11
1331.415302196697
 21
1313.192566674005
 31
0.0
  0
LINE
  5
71BD
330
A
100
AcDbEntity
  8
MODEL
100
AcDbLine
 10
1298.614374762543
 20
1257.432390078953
 30
0.0
 11
1298.614374762543
 21
1250.764508134509
 31
0.0
  0
LINE
  5
71BE
330
A
100
AcDbEntity
  8
MODEL
100
AcDbLine
 10
1328.614374762543
 20
1257.432390078953
 30
0.0
 11
1328.614374762543
 21
1254.764508134509
 31
0.0
  0
LINE
  5
71BF
330
A
100
AcDbEntity
  8
MODEL
100
AcDbLine
 10
1331.415302196697
 20
1257.432390078953
 30
0.0
 11
1331.415302196697
 21
1254.764508134509
 31
0.0
  0
LINE
  5
71C0
330
A
100
AcDbEntity
  8
MODEL
100
AcDbLine
 10
1623.222814238421
 20
1152.925418507773
 30
0.0
 11
1623.222814238421
 21
1152.925418507773
 31
0.0
  0
LINE
  5
71C1
330
A
100
AcDbEntity
  8
MODEL
100
AcDbLine
 10
1654.611864247629
 20
1152.925418507773
 30
0.0
 11
1572.479035407075
 21
1152.925418507773
 31
0.0
  0
ARC
  5
71C4
330
A
100
AcDbEntity
  8
MODEL
100
AcDbCircle
 10
1665.578545769488
 20
1199.616786780342
 30
0.0
 40
3.0
100
AcDbArc
 50
0.0
 51
90.0
  0
ARC
  5
71C5
330
A
100
AcDbEntity
  8
MODEL
100
AcDbCircle
 10
1623.222814238421
 20
1150.925418507773
 30
0.0
 40
2.0
100
AcDbArc
 50
90.0
 51
180.0
  0
LINE
  5
71C6
330
A
100
AcDbEntity
  8
MODEL
100
AcDbLine
 10
1621.222814238421
 20
1150.925418507773
 30
0.0
 11
1621.222814238421
 21
1148.98538487062
 31
0.0
  0
ARC
  5
71C7
330
A
100
AcDbEntity
  8
MODEL
100
AcDbCircle
 10
1619.222814238421
 20
1148.98538487062
 30
0.0
 40
2.0
100
AcDbArc
 50
270.0
 51
0.0
  0
LINE
  5
71C8
330
A
100
AcDbEntity
  8
MODEL
100
AcDbLine
 10
1638.578545769488
 20
1313.192566674005
 30
0.0
 11
1635.777618335334
 21
1313.192566674005
 31
0.0
  0
LINE
  5
71C9
330
A
100
AcDbEntity
  8
MODEL
100
AcDbLine
 10
1668.578545769488
 20
1257.432390078953
 30
0.0
 11
1668.578545769488
 21
1250.764508134509
 31
0.0
  0
LINE
  5
71CA
330
A
100
AcDbEntity
  8
MODEL
100
AcDbLine
 10
1638.578545769488
 20
1257.432390078953
 30
0.0
 11
1638.578545769488
 21
1254.764508134509
 31
0.0
  0
LINE
  5
71CB
330
A
100
AcDbEntity
  8
MODEL
100
AcDbLine
 10
1635.777618335335
 20
1257.432390078953
 30
0.0
 11
1635.777618335335
 21
1254.764508134509
 31
0.0
  0
LINE
  5
71CC
330
A
100
AcDbEntity
  8
MODEL
100
AcDbLine
 10
1328.614374762544
 20
1183.401422197009
 30
0.0
 11
1328.614374762544
 21
1181.985487952217
 31
0.0
  0
LINE
  5
71CD
330
A
100
AcDbEntity
  8
MODEL
100
AcDbLine
 10
1331.415302196697
 20
1183.401422197009
 30
0.0
 11
1331.415302196697
 21
1181.985487952217
 31
0.0
  0
LINE
  5
71CE
330
A
100
AcDbEntity
  8
MODEL
100
AcDbLine
 10
1635.777618335335
 20
1183.401422197009
 30
0.0
 11
1635.777618335335
 21
1181.985487952217
 31
0.0
  0
LINE
  5
71CF
330
A
100
AcDbEntity
  8
MODEL
100
AcDbLine
 10
1638.578545769488
 20
1183.401422197009
 30
0.0
 11
1638.578545769488
 21
1181.985487952217
 31
0.0
  0
LINE
  5
71D7
330
A
100
AcDbEntity
  8
MODEL
100
AcDbLine
 10
1467.507083557657
 20
1152.925418507773
 30
0.0
 11
1499.685836974375
 21
1152.925418507773
 31
0.0
  0
LINE
  5
71D9
330
A
100
AcDbEntity
  8
MODEL
100
AcDbLine
 10
1316.581056284402
 20
1146.98538487062
 30
0.0
 11
1390.713885124957
 21
1146.98538487062
 31
0.0
  0
ARC
  5
71DA
330
A
100
AcDbEntity
  8
MODEL
100
AcDbCircle
 10
1390.713885124957
 20
1148.98538487062
 30
0.0
 40
2.0
100
AcDbArc
 50
270.0
 51
0.0
  0
LINE
  5
71DB
330
A
100
AcDbEntity
  8
MODEL
100
AcDbLine
 10
1392.713885124957
 20
1148.98538487062
 30
0.0
 11
1392.713885124957
 21
1150.925418507773
 31
0.0
  0
ARC
  5
71DC
330
A
100
AcDbEntity
  8
MODEL
100
AcDbCircle
 10
1394.713885124957
 20
1150.925418507773
 30
0.0
 40
2.000000000000028
100
AcDbArc
 50
90.0
 51
180.0
  0
LINE
  5
71DD
330
A
100
AcDbEntity
  8
MODEL
100
AcDbLine
 10
1394.713885124957
 20
1152.925418507773
 30
0.0
 11
1467.507083557657
 21
1152.925418507773
 31
0.0
  0
ARC
  5
71DE
330
A
100
AcDbEntity
  8
MODEL
100
AcDbCircle
 10
1467.507083557657
 20
1149.925418507773
 30
0.0
 40
3.0
100
AcDbArc
 50
0.0
 51
90.0
  0
ARC
  5
71E3
330
A
100
AcDbEntity
  8
MODEL
100
AcDbCircle
 10
1499.685836974375
 20
1149.925418507773
 30
0.0
 40
3.0
100
AcDbArc
 50
90.0
 51
180.0
  0
LINE
  5
71E4
330
A
100
AcDbEntity
  8
MODEL
100
AcDbLine
 10
1499.685836974375
 20
1152.925418507773
 30
0.0
 11
1572.479035407075
 21
1152.925418507773
 31
0.0
  0
ARC
  5
71E5
330
A
100
AcDbEntity
  8
MODEL
100
AcDbCircle
 10
1572.479035407075
 20
1150.925418507773
 30
0.0
 40
2.0
100
AcDbArc
 50
0.0
 51
90.0
  0
LINE
  5
71E6
330
A
100
AcDbEntity
  8
MODEL
100
AcDbLine
 10
1574.479035407075
 20
1150.925418507773
 30
0.0
 11
1574.479035407075
 21
1148.98538487062
 31
0.0
  0
ARC
  5
71E7
330
A
100
AcDbEntity
  8
MODEL
100
AcDbCircle
 10
1576.479035407075
 20
1148.98538487062
 30
0.0
 40
2.0
100
AcDbArc
 50
180.0
 51
270.0
  0
LINE
  5
71E8
330
A
100
AcDbEntity
  8
MODEL
100
AcDbLine
 10
1576.479035407075
 20
1146.98538487062
 30
0.0
 11
1650.611864247629
 21
1146.98538487062
 31
0.0
  0
LWPOLYLINE
  5
71E9
330
A
100
AcDbEntity
  8
MODEL
100
AcDbPolyline
 90
        8
 70
     1
 43
0.0
 10
1668.578545769488
 20
1250.764508134509
 42
0.4142135623730951
 10
1664.578545769488
 20
1254.764508134509
 10
1302.614374762544
 20
1254.764508134509
 42
0.4142135623730951
 10
1298.614374762543
 20
1250.764508134509
 10
1298.614374762543
 20
1199.616786780342
 10
1298.614374762543
 20
1183.401422197009
 10
1668.578545769488
 20
1183.401422197009
 10
1668.578545769488
 20
1199.616786780342
  0
LWPOLYLINE
  5
71EA
330
A
100
AcDbEntity
  8
MODEL
100
AcDbPolyline
 90
        6
 70
     1
 43
0.0
 10
1328.614374762543
 20
1313.192566674005
 42
0.4142135623730951
 10
1324.614374762543
 20
1317.192566674005
 10
1302.614374762544
 20
1317.192566674005
 42
0.4142135623730951
 10
1298.614374762544
 20
1313.192566674005
 10
1298.614374762543
 20
1257.432390078953
 10
1328.614374762543
 20
1257.432390078953
  0
LWPOLYLINE
  5
71EB
330
A
100
AcDbEntity
  8
MODEL
100
AcDbPolyline
 90
        6
 70
     1
 43
0.0
 10
1668.578545769488
 20
1313.192566674005
 42
0.4142135623730951
 10
1664.578545769488
 20
1317.192566674005
 10
1642.578545769488
 20
1317.192566674005
 42
0.4142135623730951
 10
1638.578545769488
 20
1313.192566674005
 10
1638.578545769488
 20
1257.432390078953
 10
1668.578545769488
 20
1257.432390078953
  0
LWPOLYLINE
  5
71EC
330
A
100
AcDbEntity
  8
MODEL
100
AcDbPolyline
 90
        6
 70
     1
 43
0.0
 10
1635.777618335334
 20
1313.192566674005
 42
0.4142135623730951
 10
1631.777618335334
 20
1317.192566674005
 10
1335.415302196697
 20
1317.192566674005
 42
0.4142135623730951
 10
1331.415302196697
 20
1313.192566674005
 10
1331.415302196697
 20
1257.432390078953
 10
1635.777618335335
 20
1257.432390078953
  0
LINE
  5
71EE
330
A
100
AcDbEntity
  8
MODEL
100
AcDbLine
 10
1470.507083557657
 20
1149.925418507773
 30
0.0
 11
1470.507083557657
 21
1146.98538487062
 31
0.0
  0
LINE
  5
71EF
330
A
100
AcDbEntity
  8
MODEL
100
AcDbLine
 10
1496.685836974375
 20
1149.925418507773
 30
0.0
 11
1496.685836974375
 21
1146.98538487062
 31
0.0
  0
LINE
  5
71F0
330
A
100
AcDbEntity
  8
MODEL
  6
Continuous
100
AcDbLine
 10
1306.096460266016
 20
1152.925418507773
 30
0.0
 11
1306.096460266016
 21
1146.693588803117
 31
0.0
  0
LINE
  5
71F1
330
A
100
AcDbEntity
  8
MODEL
  6
Continuous
100
AcDbLine
 10
1661.096460266016
 20
1152.925418507771
 30
0.0
 11
1661.096460266016
 21
1146.98538487062
 31
0.0
  0
LWPOLYLINE
  5
71F3
330
A
100
AcDbEntity
  8
MODEL
  6
Continuous
100
AcDbPolyline
 90
       21
 70
   129
 43
0.0
 10
1668.596460265996
 20
1178.985487952217
 42
0.414213562373012
 10
1665.596460265997
 20
1181.985487952217
 10
1301.596460265997
 20
1181.985487952217
 42
0.4142135623730951
 10
1298.596460265997
 20
1178.985487952217
 10
1298.596460265996
 20
1156.468354705795
 10
1299.204175109746
 20
1156.468354705795
 10
1299.204175109746
 20
1154.925418507878
 42
0.4142135623733115
 10
1301.204175109747
 20
1152.925418507878
 10
1312.581056284384
 20
1152.925418507773
 42
-0.4142135623730951
 10
1314.581056284384
 20
1150.925418507773
 10
1314.581056284384
 20
1148.98538487062
 42
0.4142135623730951
 10
1316.581056284384
 20
1146.98538487062
 10
1650.611864247611
 20
1146.98538487062
 42
0.4142135623730951
 10
1652.611864247611
 20
1148.98538487062
 10
1652.611864247611
 20
1150.925418507773
 42
-0.4142135623730951
 10
1654.611864247611
 20
1152.925418507773
 10
1664.343793533376
 20
1152.925418507771
 10
1665.988745422246
 20
1152.925418507878
 42
0.4142135623730951
 10
1667.988745422246
 20
1154.925418507878
 10
1667.988745422246
 20
1156.468354705795
 10
1668.596460265996
 20
1156.468354705795
  0
LINE
  5
71F4
330
A
100
AcDbEntity
  8
MODEL
100
AcDbLine
 10
1428.205688129453
 20
820.9167068629821
 30
0.0
 11
1538.987223145115
 21
820.9167068629821
 31
0.0
  0
ARC
  5
7390
330
A
100
AcDbEntity
  8
MODEL
100
AcDbCircle
 10
1661.098002123213
 20
1101.995696673929
 30
0.0
 40
4.989688315679548
100
AcDbArc
 50
90.0088433095226
 51
179.9617673408386
  0
ARC
  5
7391
330
A
100
AcDbEntity
  8
MODEL
100
AcDbCircle
 10
1661.096460265997
 20
1111.98538487062
 30
0.0
 40
5.000000000000089
100
AcDbArc
 50
270.00884331065
 51
0.0000000000026055
  0
LINE
  5
7392
330
A
100
AcDbEntity
  8
MODEL
100
AcDbLine
 10
1666.096460265997
 20
1111.98538487062
 30
0.0
 11
1666.096460265997
 21
1139.98538487062
 31
0.0
  0
ARC
  5
7393
330
A
100
AcDbEntity
  8
MODEL
100
AcDbCircle
 10
1659.096460265997
 20
1139.98538487062
 30
0.0
 40
7.0
100
AcDbArc
 50
0.0
 51
90.0
  0
LINE
  5
7394
330
A
100
AcDbEntity
  8
MODEL
100
AcDbLine
 10
1659.096460265997
 20
1146.98538487062
 30
0.0
 11
1308.096460265997
 21
1146.98538487062
 31
0.0
  0
ARC
  5
7395
330
A
100
AcDbEntity
  8
MODEL
100
AcDbCircle
 10
1308.096460265997
 20
1139.98538487062
 30
0.0
 40
7.0
100
AcDbArc
 50
90.0
 51
180.0
  0
LINE
  5
7396
330
A
100
AcDbEntity
  8
MODEL
100
AcDbLine
 10
1301.096460265997
 20
1139.98538487062
 30
0.0
 11
1301.096460265997
 21
1111.98538487062
 31
0.0
  0
ARC
  5
7397
330
A
100
AcDbEntity
  8
MODEL
100
AcDbCircle
 10
1306.096460265997
 20
1111.98538487062
 30
0.0
 40
5.000000000000007
100
AcDbArc
 50
180.0
 51
270.0
  0
ARC
  5
7398
330
A
100
AcDbEntity
  8
MODEL
100
AcDbCircle
 10
1306.096457879448
 20
1101.997238174087
 30
0.0
 40
4.988146696534042
100
AcDbArc
 50
0.0380451696363963
 51
89.9999725871699
  0
ARC
  5
7399
330
A
100
AcDbEntity
  8
MODEL
100
AcDbCircle
 10
1782.678929045135
 20
1082.660828767503
 30
0.0
 40
471.9907125573498
100
AcDbArc
 50
177.6516598811865
 51
212.3372891763286
  0
ARC
  5
739A
330
A
100
AcDbEntity
  8
MODEL
100
AcDbCircle
 10
1400.768720383183
 20
840.916706862982
 30
0.0
 40
20.00000000000016
100
AcDbArc
 50
212.4281079080374
 51
269.9999999999993
  0
LINE
  5
739B
330
A
100
AcDbEntity
  8
MODEL
100
AcDbLine
 10
1400.768720383183
 20
820.9167068629821
 30
0.0
 11
1428.205688129453
 21
820.9167068629821
 31
0.0
  0
ARC
  5
739C
330
A
100
AcDbEntity
  8
MODEL
100
AcDbCircle
 10
1483.596455637262
 20
866.950367878617
 30
0.0
 40
64.82362026787565
100
AcDbArc
 50
225.2460754074316
 51
314.7539245925685
  0
LINE
  5
739D
330
A
100
AcDbEntity
  8
MODEL
100
AcDbLine
 10
1538.987223145115
 20
820.9167068629821
 30
0.0
 11
1566.424190891373
 21
820.9167068629821
 31
0.0
  0
ARC
  5
739E
330
A
100
AcDbEntity
  8
MODEL
100
AcDbCircle
 10
1566.424190891373
 20
840.916706862982
 30
0.0
 40
19.99999999999997
100
AcDbArc
 50
269.9999999999993
 51
327.5718932570622
  0
ARC
  5
739F
330
A
100
AcDbEntity
  8
MODEL
100
AcDbCircle
 10
1184.514629657491
 20
1082.660559265692
 30
0.0
 40
471.99002137989
100
AcDbArc
 50
327.6626964753546
 51
2.348191127611588
  0
DIMENSION
  5
8659
330
A
100
AcDbEntity
  8
DIM
  6
Continuous
100
AcDbDimension
  2
*D8
 10
879.418611338228
 20
2444.634178953042
 30
0.0
 11
569.4186113382275
 21
2471.634178953042
 31
0.0
 70
    32
 71
     5
 42
620.0000000000009
 73
     0
 74
     0
 75
     0
  3
JIS
100
AcDbAlignedDimension
 13
259.418611338227
 23
2351.773463850403
 33
0.0
 14
879.418611338228
 24
2218.556920579733
 34
0.0
100
AcDbRotatedDimension
1001
ACAD
1000
DSTYLE
1002
{
1070
   179
1070
     0
1070
    41
1040
6.0
1070
   271
1070
     0
1070
    43
1040
25.0
1070
    44
1040
0.0
1070
    42
1040
25.0
1070
   147
1040
15.0
1070
   140
1040
24.0
1002
}
  0
DIMENSION
  5
865C
330
A
100
AcDbEntity
  8
DIM
  6
Continuous
100
AcDbDimension
  2
*D9
 10
996.1357343007489
 20
1989.269138733656
 30
0.0
 11
969.1357343007489
 21
2169.269138733655
 31
0.0
 70
    32
 71
     5
 42
359.9999999999998
 73
     0
 74
     0
 75
     0
  3
JIS
100
AcDbAlignedDimension
 13
792.6518519210895
 23
2349.269138733655
 33
0.0
 14
792.6518519210895
 24
1989.269138733656
 34
0.0
 50
90.0
100
AcDbRotatedDimension
1001
ACAD
1000
DSTYLE
1002
{
1070
   179
1070
     0
1070
    41
1040
6.0
1070
   271
1070
     0
1070
    43
1040
25.0
1070
    44
1040
0.0
1070
    42
1040
25.0
1070
   147
1040
15.0
1070
   140
1040
24.0
1002
}
  0
DIMENSION
  5
865E
330
A
100
AcDbEntity
  8
DIM
  6
Continuous
100
AcDbDimension
  2
*D10
 10
162.9779191788088
 20
1986.773463850404
 30
0.0
 11
135.9779191788089
 21
2169.273463850403
 31
0.0
 70
    32
 71
     5
 42
364.9999999999998
 73
     0
 74
     0
 75
     0
  3
JIS
100
AcDbAlignedDimension
 13
259.418611338227
 23
2351.773463850403
 33
0.0
 14
259.418611338227
 24
1986.773463850404
 34
0.0
 50
90.0
100
AcDbRotatedDimension
1001
ACAD
1000
DSTYLE
1002
{
1070
   179
1070
     0
1070
    41
1040
6.0
1070
   271
1070
     0
1070
    43
1040
25.0
1070
    44
1040
0.0
1070
    42
1040
25.0
1070
   147
1040
15.0
1070
   140
1040
24.0
1002
}
  0
CIRCLE
  5
871D
330
A
100
AcDbEntity
  8
MODEL GRAY
  6
HIDDEN
 48
0.05
100
AcDbCircle
 10
1483.757283466021
 20
969.98538487062
 30
0.0
 40
51.0
  0
CIRCLE
  5
871E
330
A
100
AcDbEntity
  8
MODEL GRAY
  6
HIDDEN
 48
0.05
100
AcDbCircle
 10
1483.596460266016
 20
970.491805877045
 30
0.0
 40
44.33402038571233
  0
CIRCLE
  5
871F
330
A
100
AcDbEntity
  8
MODEL GRAY
  6
HIDDEN
 48
0.05
100
AcDbCircle
 10
1483.853777386023
 20
1104.428807835562
 30
0.0
 40
32.5
  0
CIRCLE
  5
8720
330
A
100
AcDbEntity
  8
MODEL GRAY
  6
HIDDEN
 48
0.05
100
AcDbCircle
 10
1483.74120114602
 20
1104.783302540059
 30
0.0
 40
27.5
  0
DIMENSION
  5
874B
330
A
100
AcDbEntity
  8
DIM
  6
Continuous
100
AcDbDimension
  2
*D11
 10
183.47400011236
 20
1104.98538487062
 30
0.0
 11
183.47400011236
 21
1125.98538487062
 31
0.0
 70
   160
  1
45
 71
     5
 42
42.0
 73
     0
 74
     0
 75
     0
  3
JIS
100
AcDbAlignedDimension
 13
259.418611338227
 23
1146.98538487062
 33
0.0
 14
259.418611338227
 24
1104.98538487062
 34
0.0
 50
90.0
100
AcDbRotatedDimension
1001
ACAD
1000
DSTYLE
1002
{
1070
   179
1070
     0
1070
    41
1040
6.0
1070
   271
1070
     0
1070
    43
1040
25.0
1070
    44
1040
0.0
1070
    42
1040
25.0
1070
   147
1040
15.0
1070
   140
1040
24.0
1002
}
  0
DIMENSION
  5
874E
330
A
100
AcDbEntity
  8
DIM
  6
Continuous
100
AcDbDimension
  2
*D12
 10
183.47400011236
 20
969.9853848706198
 30
0.0
 11
156.47400011236
 21
1037.48538487062
 31
0.0
 70
    32
 71
     5
 42
135.0
 73
     0
 74
     0
 75
     0
  3
JIS
100
AcDbAlignedDimension
 13
242.7762820180396
 23
1104.98538487062
 33
0.0
 14
242.7762820180396
 24
969.9853848706198
 34
0.0
 50
90.0
100
AcDbRotatedDimension
1001
ACAD
1000
DSTYLE
1002
{
1070
   179
1070
     0
1070
    41
1040
6.0
1070
   271
1070
     0
1070
    43
1040
25.0
1070
    44
1040
0.0
1070
    42
1040
25.0
1070
   147
1040
15.0
1070
   140
1040
24.0
1002
}
  0
DIMENSION
  5
8751
330
A
100
AcDbEntity
  8
DIM
  6
Continuous
100
AcDbDimension
  2
*D13
 10
183.47400011236
 20
1181.98538487062
 30
0.0
 11
183.47400011236
 21
1164.48538487062
 31
0.0
 70
   160
 71
     5
 42
35.0
 73
     0
 74
     0
 75
     0
  3
JIS
100
AcDbAlignedDimension
 13
259.418611338227
 23
1146.98538487062
 33
0.0
 14
259.418611338227
 24
1181.98538487062
 34
0.0
 50
90.0
100
AcDbRotatedDimension
1001
ACAD
1000
DSTYLE
1002
{
1070
   179
1070
     0
1070
    41
1040
6.0
1070
   271
1070
     0
1070
    43
1040
25.0
1070
    44
1040
0.0
1070
    42
1040
25.0
1070
   147
1040
15.0
1070
   140
1040
24.0
1002
}
  0
LINE
  5
8800
330
A
100
AcDbEntity
  8
MODEL
  6
Continuous
100
AcDbLine
 10
1271.963580265993
 20
1141.726921329006
 30
0.0
 11
1283.229340266002
 21
1141.726921329006
 31
0.0
  0
LINE
  5
8801
330
A
100
AcDbEntity
  8
MODEL
  6
Continuous
100
AcDbLine
 10
1270.596460265997
 20
1113.919351329006
 30
0.0
 11
1270.596460265997
 21
1121.869561329006
 31
0.0
  0
LINE
  5
8802
330
A
100
AcDbEntity
  8
MODEL
  6
Continuous
100
AcDbLine
 10
1284.596460265997
 20
1113.904531329006
 30
0.0
 11
1284.596460265997
 21
1121.869561329006
 31
0.0
  0
LWPOLYLINE
  5
8803
330
A
100
AcDbEntity
  8
MODEL
  6
Continuous
100
AcDbPolyline
 90
       15
 70
     0
 43
0.0
 10
1283.229340266002
 20
1141.726921329006
 10
1283.764140265996
 20
1141.655541329007
 10
1284.29894026599
 20
1141.477411329006
 10
1284.762370265994
 20
1141.192121329007
 10
1285.190210265997
 20
1140.871241329007
 10
1285.546670266
 20
1140.443591329006
 10
1285.796180266002
 20
1139.979971329006
 10
1285.974510265997
 20
1139.445371329006
 10
1286.045690265996
 20
1138.910571329006
 10
1286.010100265996
 20
1138.375771329007
 10
1285.903140265992
 20
1137.840971329006
 10
1285.689220265997
 20
1137.341961329006
 10
1285.368340265998
 20
1136.878531329006
 10
1285.011870265999
 20
1136.521871329007
 10
1284.548450265999
 20
1136.200991329006
  0
LWPOLYLINE
  5
8804
330
A
100
AcDbEntity
  8
MODEL
  6
Continuous
100
AcDbPolyline
 90
       15
 70
     0
 43
0.0
 10
1271.963580265993
 20
1141.726921329006
 10
1271.428780265992
 20
1141.655541329007
 10
1270.893980265998
 20
1141.477411329006
 10
1270.430550265994
 20
1141.192121329007
 10
1270.002710265997
 20
1140.871241329007
 10
1269.646250266002
 20
1140.443591329006
 10
1269.396740265993
 20
1139.979971329006
 10
1269.218410265998
 20
1139.445371329006
 10
1269.147230265999
 20
1138.910571329006
 10
1269.182820265991
 20
1138.375771329007
 10
1269.289780266003
 20
1137.840971329006
 10
1269.503700265998
 20
1137.341961329006
 10
1269.824580265997
 20
1136.878531329006
 10
1270.181040265993
 20
1136.521871329007
 10
1270.644470265996
 20
1136.200991329006
  0
LINE
  5
8805
330
A
100
AcDbEntity
  8
MODEL
  6
Continuous
100
AcDbLine
 10
1271.571520266002
 20
1116.058541329006
 30
0.0
 11
1270.596460265997
 21
1117.114711329006
 31
0.0
  0
LINE
  5
8806
330
A
100
AcDbEntity
  8
MODEL
  6
Continuous
100
AcDbLine
 10
1273.710520265997
 20
1116.058541329006
 30
0.0
 11
1270.596460265997
 21
1119.215781329006
 31
0.0
  0
LINE
  5
8807
330
A
100
AcDbEntity
  8
MODEL
  6
Continuous
100
AcDbLine
 10
1275.849520266
 20
1116.058541329006
 30
0.0
 11
1272.640920266002
 21
1119.266941329006
 31
0.0
  0
LINE
  5
8808
330
A
100
AcDbEntity
  8
MODEL
  6
Continuous
100
AcDbLine
 10
1271.571520266002
 20
1120.336541329006
 30
0.0
 11
1270.596460265997
 21
1121.392711329006
 31
0.0
  0
LINE
  5
8809
330
A
100
AcDbEntity
  8
MODEL
  6
Continuous
100
AcDbLine
 10
1278.008910265994
 20
1116.079201329006
 30
0.0
 11
1274.779920265998
 21
1119.266941329006
 31
0.0
  0
LINE
  5
880A
330
A
100
AcDbEntity
  8
MODEL
  6
Continuous
100
AcDbLine
 10
1273.710520265997
 20
1120.336541329006
 30
0.0
 11
1272.213080265998
 21
1121.869561329006
 31
0.0
  0
LINE
  5
880B
330
A
100
AcDbEntity
  8
MODEL
  6
Continuous
100
AcDbLine
 10
1277.596460265997
 20
1118.625381329006
 30
0.0
 11
1276.919110265999
 21
1119.266941329006
 31
0.0
  0
LINE
  5
880C
330
A
100
AcDbEntity
  8
MODEL
  6
Continuous
100
AcDbLine
 10
1275.849520266
 20
1120.336541329006
 30
0.0
 11
1274.352080265994
 21
1121.869561329006
 31
0.0
  0
LINE
  5
880D
330
A
100
AcDbEntity
  8
MODEL
  6
Continuous
100
AcDbLine
 10
1278.006410265999
 20
1120.354431329006
 30
0.0
 11
1276.491270265995
 21
1121.869561329006
 31
0.0
  0
LINE
  5
880E
330
A
100
AcDbEntity
  8
MODEL
  6
Continuous
100
AcDbLine
 10
1279.043290265998
 20
1121.391311329006
 30
0.0
 11
1275.849520266
 21
1118.197541329006
 31
0.0
  0
LINE
  5
880F
330
A
100
AcDbEntity
  8
MODEL
  6
Continuous
100
AcDbLine
 10
1276.936910266001
 20
1121.423931329006
 30
0.0
 11
1273.710520265997
 21
1118.197541329006
 31
0.0
  0
LINE
  5
8810
330
A
100
AcDbEntity
  8
MODEL
  6
Continuous
100
AcDbLine
 10
1274.779920265998
 20
1121.406141329006
 30
0.0
 11
1271.571520266002
 21
1118.197541329006
 31
0.0
  0
LINE
  5
8811
330
A
100
AcDbEntity
  8
MODEL
  6
Continuous
100
AcDbLine
 10
1272.640920266002
 20
1121.406141329006
 30
0.0
 11
1270.596460265997
 21
1119.361411329007
 31
0.0
  0
LINE
  5
8812
330
A
100
AcDbEntity
  8
MODEL
  6
Continuous
100
AcDbLine
 10
1269.147230265999
 20
1121.869561329006
 30
0.0
 11
1277.596460265997
 21
1121.869561329006
 31
0.0
  0
LWPOLYLINE
  5
8813
330
A
100
AcDbEntity
  8
MODEL
  6
Continuous
100
AcDbPolyline
 90
        4
 70
     0
 43
0.0
 10
1269.147230265999
 20
1121.869561329006
 10
1269.147230265999
 20
1123.580721329006
 10
1270.644470265996
 20
1126.432851329006
 10
1270.644470265996
 20
1136.165401329006
  0
LWPOLYLINE
  5
8814
330
A
100
AcDbEntity
  8
MODEL
  6
Continuous
100
AcDbPolyline
 90
        4
 70
     1
 43
0.0
 10
1271.749660265998
 20
1136.165401329006
 10
1271.749660265998
 20
1126.432851329006
 10
1274.138360266001
 20
1126.432851329006
 10
1274.138360266001
 20
1136.165401329006
  0
LWPOLYLINE
  5
8815
330
A
100
AcDbEntity
  8
MODEL
  6
Continuous
100
AcDbPolyline
 90
        4
 70
     0
 43
0.0
 10
1277.596460265997
 20
1136.165401329006
 10
1275.778150265995
 20
1136.165401329006
 10
1275.778150265995
 20
1126.432851329006
 10
1277.596460265997
 20
1126.432851329006
  0
LWPOLYLINE
  5
8816
330
A
100
AcDbEntity
  8
MODEL
  6
Continuous
100
AcDbPolyline
 90
        4
 70
     0
 43
0.0
 10
1286.045690265996
 20
1121.869561329006
 10
1286.045690265996
 20
1123.580721329006
 10
1284.548450265999
 20
1126.432851329006
 10
1284.548450265999
 20
1136.165401329006
  0
LWPOLYLINE
  5
8817
330
A
100
AcDbEntity
  8
MODEL
  6
Continuous
100
AcDbPolyline
 90
        4
 70
     1
 43
0.0
 10
1283.443260265997
 20
1136.165401329006
 10
1283.443260265997
 20
1126.432851329006
 10
1281.054560266001
 20
1126.432851329006
 10
1281.054560266001
 20
1136.165401329006
  0
LWPOLYLINE
  5
8818
330
A
100
AcDbEntity
  8
MODEL
  6
Continuous
100
AcDbPolyline
 90
        4
 70
     0
 43
0.0
 10
1277.596460265997
 20
1136.165401329006
 10
1279.414770266
 20
1136.165401329006
 10
1279.414770266
 20
1126.432851329006
 10
1277.596460265997
 20
1126.432851329006
  0
LINE
  5
8819
330
A
100
AcDbEntity
  8
MODEL
  6
Continuous
100
AcDbLine
 10
1286.045690265996
 20
1121.869561329006
 30
0.0
 11
1277.596460265997
 21
1121.869561329006
 31
0.0
  0
LINE
  5
881A
330
A
100
AcDbEntity
  8
MODEL
  6
Continuous
100
AcDbLine
 10
1280.105620265999
 20
1116.036261329006
 30
0.0
 11
1277.596460265997
 21
1118.580211329006
 31
0.0
  0
LINE
  5
881B
330
A
100
AcDbEntity
  8
MODEL
  6
Continuous
100
AcDbLine
 10
1283.342070266003
 20
1117.133581329006
 30
0.0
 11
1281.189160265999
 21
1119.258991329006
 31
0.0
  0
LINE
  5
881C
330
A
100
AcDbEntity
  8
MODEL
  6
Continuous
100
AcDbLine
 10
1280.100330265998
 20
1120.309161329005
 30
0.0
 11
1278.576140266001
 21
1121.869561329006
 31
0.0
  0
LINE
  5
881D
330
A
100
AcDbEntity
  8
MODEL
  6
Continuous
100
AcDbLine
 10
1281.182390265999
 20
1121.391221329007
 30
0.0
 11
1280.715140265997
 21
1121.869561329006
 31
0.0
  0
LINE
  5
881E
330
A
100
AcDbEntity
  8
MODEL
  6
Continuous
100
AcDbLine
 10
1283.799730265996
 20
1121.869561329006
 30
0.0
 11
1280.112850266002
 21
1118.182691329006
 31
0.0
  0
LINE
  5
881F
330
A
100
AcDbEntity
  8
MODEL
  6
Continuous
100
AcDbLine
 10
1281.660730266
 20
1121.869561329006
 30
0.0
 11
1278.017630265999
 21
1118.226461329006
 31
0.0
  0
LINE
  5
8820
330
A
100
AcDbEntity
  8
MODEL
  6
Continuous
100
AcDbLine
 10
1276.932770265996
 20
1117.141601329006
 30
0.0
 11
1276.429330265996
 21
1116.638161329007
 31
0.0
  0
LINE
  5
8821
330
A
100
AcDbEntity
  8
MODEL
  6
Continuous
100
AcDbLine
 10
1284.596460265997
 20
1118.100991329007
 30
0.0
 11
1283.350500265997
 21
1119.281141329007
 31
0.0
  0
LINE
  5
8822
330
A
100
AcDbEntity
  8
MODEL
  6
Continuous
100
AcDbLine
 10
1282.251980265998
 20
1120.321621329006
 30
0.0
 11
1281.189750266002
 21
1121.398581329006
 31
0.0
  0
LINE
  5
8823
330
A
100
AcDbEntity
  8
MODEL
  6
Continuous
100
AcDbLine
 10
1284.596460265997
 20
1118.388051329006
 30
0.0
 11
1282.252110265998
 21
1116.043561329006
 31
0.0
  0
LINE
  5
8824
330
A
100
AcDbEntity
  8
MODEL
  6
Continuous
100
AcDbLine
 10
1284.596460265997
 20
1120.527101329006
 30
0.0
 11
1282.265630265999
 21
1118.196271329006
 31
0.0
  0
LINE
  5
8825
330
A
100
AcDbEntity
  8
MODEL
  6
Continuous
100
AcDbLine
 10
1284.596460265997
 20
1120.086571329006
 30
0.0
 11
1283.306660265999
 21
1121.376301329006
 31
0.0
  0
LINE
  5
8826
330
A
100
AcDbEntity
  8
MODEL
  6
Continuous
100
AcDbLine
 10
1282.252010265993
 20
1116.043651329007
 30
0.0
 11
1279.043320265994
 21
1119.252151329007
 31
0.0
  0
LINE
  5
8827
330
A
100
AcDbEntity
  8
MODEL
  6
Continuous
100
AcDbLine
 10
1284.596460265997
 20
1115.808501329007
 30
0.0
 11
1283.306660265999
 21
1117.098301329006
 31
0.0
  0
LINE
  5
8828
330
A
100
AcDbEntity
  8
MODEL
  6
Continuous
100
AcDbLine
 10
1284.596460265997
 20
1116.249271329006
 30
0.0
 11
1282.252030265993
 21
1113.904531329006
 31
0.0
  0
LINE
  5
8829
330
A
100
AcDbEntity
  8
MODEL
  6
Continuous
100
AcDbLine
 10
1281.182480265993
 20
1117.113121329006
 30
0.0
 11
1277.973890265998
 21
1113.904531329006
 31
0.0
  0
LINE
  5
882A
330
A
100
AcDbEntity
  8
MODEL
  6
Continuous
100
AcDbLine
 10
1282.929330265996
 20
1116.720971329007
 30
0.0
 11
1280.112890265994
 21
1113.904531329006
 31
0.0
  0
LINE
  5
882B
330
A
100
AcDbEntity
  8
MODEL
  6
Continuous
100
AcDbLine
 10
1272.640920266002
 20
1117.127941329007
 30
0.0
 11
1270.596460265997
 21
1115.083481329006
 31
0.0
  0
LINE
  5
882C
330
A
100
AcDbEntity
  8
MODEL
  6
Continuous
100
AcDbLine
 10
1274.779920265998
 20
1117.127941329007
 30
0.0
 11
1271.571520266002
 21
1113.919351329006
 31
0.0
  0
LINE
  5
882D
330
A
100
AcDbEntity
  8
MODEL
  6
Continuous
100
AcDbLine
 10
1276.919110265999
 20
1117.127941329007
 30
0.0
 11
1273.710520265997
 21
1113.919351329006
 31
0.0
  0
LINE
  5
882E
330
A
100
AcDbEntity
  8
MODEL
  6
Continuous
100
AcDbLine
 10
1279.043390265988
 20
1117.113221329006
 30
0.0
 11
1275.849520266
 21
1113.919351329006
 31
0.0
  0
ARC
  5
882F
330
A
100
AcDbEntity
  8
MODEL
  6
Continuous
100
AcDbCircle
 10
1285.596460265997
 20
1164.726921329007
 30
0.0
 40
3.0
100
AcDbArc
 50
90.0
 51
180.0
  0
ARC
  5
8830
330
A
100
AcDbEntity
  8
MODEL
  6
Continuous
100
AcDbCircle
 10
1277.596460265997
 20
1172.726921329006
 30
0.0
 40
5.0
100
AcDbArc
 50
90.0
 51
180.0
  0
LINE
  5
8831
330
A
100
AcDbEntity
  8
MODEL
  6
Continuous
100
AcDbLine
 10
1282.596460265997
 20
1141.726921329006
 30
0.0
 11
1282.596460265997
 21
1164.726921329007
 31
0.0
  0
LINE
  5
8832
330
A
100
AcDbEntity
  8
MODEL
  6
Continuous
100
AcDbLine
 10
1272.596460265997
 20
1141.726921329006
 30
0.0
 11
1282.596460265997
 21
1141.726921329006
 31
0.0
  0
LINE
  5
8833
330
A
100
AcDbEntity
  8
MODEL
  6
Continuous
100
AcDbLine
 10
1272.596460265997
 20
1172.726921329006
 30
0.0
 11
1272.596460265997
 21
1141.726921329006
 31
0.0
  0
LINE
  5
8834
330
A
100
AcDbEntity
  8
MODEL
  6
Continuous
100
AcDbLine
 10
1298.596460265997
 20
1177.726921329006
 30
0.0
 11
1277.596460265997
 21
1177.726921329006
 31
0.0
  0
LINE
  5
8835
330
A
100
AcDbEntity
  8
MODEL
  6
Continuous
100
AcDbLine
 10
1285.596460265997
 20
1167.726921329006
 30
0.0
 11
1298.596460265997
 21
1167.726921329006
 31
0.0
  0
LINE
  5
8836
330
A
100
AcDbEntity
  8
MODEL
  6
CENTER2
100
AcDbLine
 10
1277.596460265997
 20
1124.301476633068
 30
0.0
 11
1277.596460265997
 21
999.8287366740051
 31
0.0
  0
DIMENSION
  5
8837
330
A
100
AcDbEntity
  8
DIM
  6
Continuous
100
AcDbDimension
  2
*D14
 10
1160.476599541046
 20
946.98538487062
 30
0.0
 11
1160.476599541046
 21
841.98538487062
 31
0.0
 70
   160
  1
200-250
 71
     5
 42
200.0
 73
     0
 74
     0
 75
     0
  3
JIS
100
AcDbAlignedDimension
 13
1258.596455637262
 23
746.98538487062
 33
0.0
 14
1218.596455637262
 24
946.98538487062
 34
0.0
 50
90.0
100
AcDbRotatedDimension
1001
ACAD
1000
DSTYLE
1002
{
1070
   179
1070
     0
1070
    41
1040
6.0
1070
   271
1070
     0
1070
    43
1040
25.0
1070
    44
1040
0.0
1070
    42
1040
25.0
1070
   147
1040
15.0
1070
   140
1040
24.0
1002
}
  0
DIMENSION
  5
8838
330
A
100
AcDbEntity
  8
DIM
  6
Continuous
100
AcDbDimension
  2
*D15
 10
1218.61755563726
 20
673.6660965060939
 30
0.0
 11
1351.107005637261
 21
700.6660965060939
 31
0.0
 70
    32
  1
265-300
 71
     5
 42
264.9789000000019
 73
     0
 74
     0
 75
     0
  3
JIS
100
AcDbAlignedDimension
 13
1483.596455637262
 23
802.1267476107412
 33
0.0
 14
1218.61755563726
 24
917.4773528514131
 34
0.0
100
AcDbRotatedDimension
1001
ACAD
1000
DSTYLE
1002
{
1070
   179
1070
     0
1070
    41
1040
6.0
1070
   271
1070
     0
1070
    43
1040
25.0
1070
    44
1040
0.0
1070
    42
1040
25.0
1070
   147
1040
15.0
1070
   140
1040
24.0
1002
}
  0
LEADER
  5
8839
330
A
100
AcDbEntity
  8
DIM
  6
Continuous
100
AcDbLeader
  3
JIS
 76
     3
 10
1218.596455637262
 20
946.98538487062
 30
0.0
 10
1156.363322031435
 20
1289.690614010566
 30
0.0
 10
764.5397205993289
 20
1289.690614010566
 30
0.0
1001
ACAD
1000
DSTYLE
1002
{
1070
   179
1070
     0
1070
    41
1040
6.0
1070
   271
1070
     0
1070
    43
1040
25.0
1070
    44
1040
0.0
1070
    42
1040
25.0
1070
   147
1040
15.0
1070
   140
1040
24.0
1002
}
  0
CIRCLE
  5
88ED
330
A
100
AcDbEntity
  8
MODEL
  6
Continuous
100
AcDbCircle
 10
1218.596455637262
 20
946.98538487062
 30
0.0
 40
6.5
  0
MTEXT
  5
8962
330
A
100
AcDbEntity
  8
MODEL
390
1D
100
AcDbMText
 10
770.1406460046169
 20
1338.972961423391
 30
0.0
 40
24.4326171875
 41
0.0
 46
24.4326171875
 71
     1
 72
     1
  1
{センソウォッシュ給水位置}
  7
ＭＳ ゴシック
 73
     1
 44
0.7828267384257843
1001
ACAD
1000
ACAD_MTEXT_DEFINED_HEIGHT_BEGIN
1070
    46
1040
24.4326171875
1000
ACAD_MTEXT_DEFINED_HEIGHT_END
  0
DIMENSION
  5
896A
330
A
100
AcDbEntity
  8
DIM
  6
Continuous
100
AcDbDimension
  2
*D16
 10
1918.855988574452
 20
1202.616786780342
 30
0.0
 11
1918.855988574452
 21
999.626747610741
 31
0.0
 70
   160
 71
     5
 42
400.4900391696008
 73
     0
 74
     0
 75
     0
  3
JIS
100
AcDbAlignedDimension
 13
1523.795064853493
 23
802.1267476107412
 33
0.0
 14
1665.578545769488
 24
1202.616786780342
 34
0.0
 50
90.0
100
AcDbRotatedDimension
1001
ACAD
1000
DSTYLE
1002
{
1070
   179
1070
     0
1070
    41
1040
6.0
1070
   271
1070
     0
1070
    43
1040
25.0
1070
    44
1040
0.0
1070
    42
1040
25.0
1070
   147
1040
15.0
1070
   140
1040
24.0
1002
}
  0
DIMENSION
  5
896B
330
A
100
AcDbEntity
  8
DIM
  6
Continuous
100
AcDbDimension
  2
*D17
 10
1573.596455637254
 20
1411.098855694277
 30
0.0
 11
1483.596455637254
 21
1438.098855694277
 31
0.0
 70
    32
 71
     5
 42
180.0
 73
     0
 74
     0
 75
     0
  3
JIS
100
AcDbAlignedDimension
 13
1393.596455637254
 23
1323.606729704585
 33
0.0
 14
1573.596455637254
 24
1324.358540773614
 34
0.0
100
AcDbRotatedDimension
1001
ACAD
1000
DSTYLE
1002
{
1070
   179
1070
     0
1070
    41
1040
6.0
1070
   271
1070
     0
1070
    43
1040
25.0
1070
    44
1040
0.0
1070
    42
1040
25.0
1070
   147
1040
15.0
1070
   140
1040
24.0
1002
}
  0
LINE
  5
89C3
330
A
100
AcDbEntity
  8
MODEL
  6
Continuous
100
AcDbLine
 10
384.0591523391174
 20
1117.155001139997
 30
0.0
 11
380.865282339129
 21
1113.961131139997
 31
0.0
  0
LINE
  5
89C4
330
A
100
AcDbEntity
  8
MODEL
  6
Continuous
100
AcDbLine
 10
381.9348723391282
 20
1117.169721139997
 30
0.0
 11
378.7262823391262
 21
1113.961131139997
 31
0.0
  0
LINE
  5
89C5
330
A
100
AcDbEntity
  8
MODEL
  6
Continuous
100
AcDbLine
 10
379.7956823391265
 20
1117.169721139997
 30
0.0
 11
376.5872823391306
 21
1113.961131139997
 31
0.0
  0
LINE
  5
89C6
330
A
100
AcDbEntity
  8
MODEL
  6
Continuous
100
AcDbLine
 10
377.656682339131
 20
1117.169721139997
 30
0.0
 11
375.6122223391263
 21
1115.125261139996
 31
0.0
  0
LINE
  5
89C7
330
A
100
AcDbEntity
  8
MODEL
  6
Continuous
100
AcDbLine
 10
387.9450923391248
 20
1116.762751139997
 30
0.0
 11
385.1286523391223
 21
1113.946311139997
 31
0.0
  0
LINE
  5
89C8
330
A
100
AcDbEntity
  8
MODEL
  6
Continuous
100
AcDbLine
 10
386.1982423391215
 20
1117.154901139997
 30
0.0
 11
382.9896523391268
 21
1113.946311139997
 31
0.0
  0
LINE
  5
89C9
330
A
100
AcDbEntity
  8
MODEL
  6
Continuous
100
AcDbLine
 10
389.6122223391263
 20
1116.291051139996
 30
0.0
 11
387.2677923391217
 21
1113.946311139997
 31
0.0
  0
LINE
  5
89CA
330
A
100
AcDbEntity
  8
MODEL
  6
Continuous
100
AcDbLine
 10
389.6122223391263
 20
1115.850281139998
 30
0.0
 11
388.3224223391277
 21
1117.140081139997
 31
0.0
  0
LINE
  5
89CB
330
A
100
AcDbEntity
  8
MODEL
  6
Continuous
100
AcDbLine
 10
387.2677723391222
 20
1116.085431139997
 30
0.0
 11
384.0590823391227
 21
1119.293931139997
 31
0.0
  0
LINE
  5
89CC
330
A
100
AcDbEntity
  8
MODEL
  6
Continuous
100
AcDbLine
 10
389.6122223391263
 20
1120.128351139996
 30
0.0
 11
388.3224223391277
 21
1121.418081139997
 31
0.0
  0
LINE
  5
89CD
330
A
100
AcDbEntity
  8
MODEL
  6
Continuous
100
AcDbLine
 10
389.6122223391263
 20
1120.568881139996
 30
0.0
 11
387.2813923391273
 21
1118.238051139996
 31
0.0
  0
LINE
  5
89CE
330
A
100
AcDbEntity
  8
MODEL
  6
Continuous
100
AcDbLine
 10
389.6122223391263
 20
1118.429831139996
 30
0.0
 11
387.2678723391269
 21
1116.085341139997
 31
0.0
  0
LINE
  5
89CF
330
A
100
AcDbEntity
  8
MODEL
  6
Continuous
100
AcDbLine
 10
387.2677423391266
 20
1120.363401139997
 30
0.0
 11
386.2055123391306
 21
1121.440361139997
 31
0.0
  0
LINE
  5
89D0
330
A
100
AcDbEntity
  8
MODEL
  6
Continuous
100
AcDbLine
 10
389.6122223391263
 20
1118.142771139998
 30
0.0
 11
388.3662623391261
 21
1119.322921139999
 31
0.0
  0
LINE
  5
89D1
330
A
100
AcDbEntity
  8
MODEL
  6
Continuous
100
AcDbLine
 10
381.9485323391251
 20
1117.183381139998
 30
0.0
 11
381.4450923391248
 21
1116.679941139997
 31
0.0
  0
LINE
  5
89D2
330
A
100
AcDbEntity
  8
MODEL
  6
Continuous
100
AcDbLine
 10
386.6764923391289
 20
1121.911341139997
 30
0.0
 11
383.0333923391277
 21
1118.268241139997
 31
0.0
  0
LINE
  5
89D3
330
A
100
AcDbEntity
  8
MODEL
  6
Continuous
100
AcDbLine
 10
388.8154923391245
 20
1121.911341139997
 30
0.0
 11
385.1286123391162
 21
1118.224471139997
 31
0.0
  0
LINE
  5
89D4
330
A
100
AcDbEntity
  8
MODEL
  6
Continuous
100
AcDbLine
 10
386.198142339124
 20
1121.433001139997
 30
0.0
 11
385.7309023391259
 21
1121.911341139997
 31
0.0
  0
LINE
  5
89D5
330
A
100
AcDbEntity
  8
MODEL
  6
Continuous
100
AcDbLine
 10
385.1160923391195
 20
1120.350941139996
 30
0.0
 11
383.5919023391303
 21
1121.911341139997
 31
0.0
  0
LINE
  5
89D6
330
A
100
AcDbEntity
  8
MODEL
  6
Continuous
100
AcDbLine
 10
388.3578323391317
 20
1117.175361139997
 30
0.0
 11
386.2049223391274
 21
1119.300771139996
 31
0.0
  0
LINE
  5
89D7
330
A
100
AcDbEntity
  8
MODEL
  6
Continuous
100
AcDbLine
 10
385.1213823391277
 20
1116.078041139997
 30
0.0
 11
382.6122223391263
 21
1118.621991139997
 31
0.0
  0
LINE
  5
89D8
330
A
100
AcDbEntity
  8
MODEL
  6
Continuous
100
AcDbLine
 10
391.0614523391247
 20
1121.911341139997
 30
0.0
 11
382.6122223391263
 21
1121.911341139997
 31
0.0
  0
LWPOLYLINE
  5
89D9
330
A
100
AcDbEntity
  8
MODEL
  6
Continuous
100
AcDbPolyline
 90
        4
 70
     0
 43
0.0
 10
382.6122223391263
 20
1136.207181139997
 10
384.4305323391287
 20
1136.207181139997
 10
384.4305323391287
 20
1126.474631139997
 10
382.6122223391263
 20
1126.474631139997
  0
LWPOLYLINE
  5
89DA
330
A
100
AcDbEntity
  8
MODEL
  6
Continuous
100
AcDbPolyline
 90
        4
 70
     1
 43
0.0
 10
388.4590223391256
 20
1136.207181139997
 10
388.4590223391256
 20
1126.474631139997
 10
386.0703223391299
 20
1126.474631139997
 10
386.0703223391299
 20
1136.207181139997
  0
LWPOLYLINE
  5
89DB
330
A
100
AcDbEntity
  8
MODEL
  6
Continuous
100
AcDbPolyline
 90
        4
 70
     0
 43
0.0
 10
391.0614523391247
 20
1121.911341139997
 10
391.0614523391247
 20
1123.622501139998
 10
389.5642123391277
 20
1126.474631139997
 10
389.5642123391277
 20
1136.207181139997
  0
LWPOLYLINE
  5
89DC
330
A
100
AcDbEntity
  8
MODEL
  6
Continuous
100
AcDbPolyline
 90
        4
 70
     0
 43
0.0
 10
382.6122223391263
 20
1136.207181139997
 10
380.7939123391239
 20
1136.207181139997
 10
380.7939123391239
 20
1126.474631139997
 10
382.6122223391263
 20
1126.474631139997
  0
LWPOLYLINE
  5
89DD
330
A
100
AcDbEntity
  8
MODEL
  6
Continuous
100
AcDbPolyline
 90
        4
 70
     1
 43
0.0
 10
376.7654223391197
 20
1136.207181139997
 10
376.7654223391197
 20
1126.474631139997
 10
379.1541223391301
 20
1126.474631139997
 10
379.1541223391301
 20
1136.207181139997
  0
LWPOLYLINE
  5
89DE
330
A
100
AcDbEntity
  8
MODEL
  6
Continuous
100
AcDbPolyline
 90
        4
 70
     0
 43
0.0
 10
374.1629923391279
 20
1121.911341139997
 10
374.1629923391279
 20
1123.622501139998
 10
375.6602323391249
 20
1126.474631139997
 10
375.6602323391249
 20
1136.207181139997
  0
LINE
  5
89DF
330
A
100
AcDbEntity
  8
MODEL
  6
Continuous
100
AcDbLine
 10
374.1629923391279
 20
1121.911341139997
 30
0.0
 11
382.6122223391263
 21
1121.911341139997
 31
0.0
  0
LINE
  5
89E0
330
A
100
AcDbEntity
  8
MODEL
  6
Continuous
100
AcDbLine
 10
377.656682339131
 20
1121.447921139997
 30
0.0
 11
375.6122223391263
 21
1119.403191139997
 31
0.0
  0
LINE
  5
89E1
330
A
100
AcDbEntity
  8
MODEL
  6
Continuous
100
AcDbLine
 10
379.7956823391265
 20
1121.447921139997
 30
0.0
 11
376.5872823391306
 21
1118.239321139997
 31
0.0
  0
LINE
  5
89E2
330
A
100
AcDbEntity
  8
MODEL
  6
Continuous
100
AcDbLine
 10
381.9526723391296
 20
1121.465711139998
 30
0.0
 11
378.7262823391262
 21
1118.239321139997
 31
0.0
  0
LINE
  5
89E3
330
A
100
AcDbEntity
  8
MODEL
  6
Continuous
100
AcDbLine
 10
384.0590523391271
 20
1121.433091139997
 30
0.0
 11
380.865282339129
 21
1118.239321139997
 31
0.0
  0
LINE
  5
89E4
330
A
100
AcDbEntity
  8
MODEL
  6
Continuous
100
AcDbLine
 10
383.0221723391275
 20
1120.396211139997
 30
0.0
 11
381.5070323391244
 21
1121.911341139997
 31
0.0
  0
LINE
  5
89E5
330
A
100
AcDbEntity
  8
MODEL
  6
Continuous
100
AcDbLine
 10
380.865282339129
 20
1120.378321139996
 30
0.0
 11
379.3678423391227
 21
1121.911341139997
 31
0.0
  0
LINE
  5
89E6
330
A
100
AcDbEntity
  8
MODEL
  6
Continuous
100
AcDbLine
 10
382.6122223391263
 20
1118.667161139996
 30
0.0
 11
381.9348723391282
 21
1119.308721139996
 31
0.0
  0
LINE
  5
89E7
330
A
100
AcDbEntity
  8
MODEL
  6
Continuous
100
AcDbLine
 10
378.7262823391262
 20
1120.378321139996
 30
0.0
 11
377.228842339127
 21
1121.911341139997
 31
0.0
  0
LINE
  5
89E8
330
A
100
AcDbEntity
  8
MODEL
  6
Continuous
100
AcDbLine
 10
383.0246723391226
 20
1116.120981139997
 30
0.0
 11
379.7956823391265
 21
1119.308721139996
 31
0.0
  0
LINE
  5
89E9
330
A
100
AcDbEntity
  8
MODEL
  6
Continuous
100
AcDbLine
 10
376.5872823391306
 20
1120.378321139996
 30
0.0
 11
375.6122223391263
 21
1121.434491139997
 31
0.0
  0
LINE
  5
89EA
330
A
100
AcDbEntity
  8
MODEL
  6
Continuous
100
AcDbLine
 10
380.865282339129
 20
1116.100321139997
 30
0.0
 11
377.656682339131
 21
1119.308721139996
 31
0.0
  0
LINE
  5
89EB
330
A
100
AcDbEntity
  8
MODEL
  6
Continuous
100
AcDbLine
 10
378.7262823391262
 20
1116.100321139997
 30
0.0
 11
375.6122223391263
 21
1119.257561139996
 31
0.0
  0
LINE
  5
89EC
330
A
100
AcDbEntity
  8
MODEL
  6
Continuous
100
AcDbLine
 10
376.5872823391306
 20
1116.100321139997
 30
0.0
 11
375.6122223391263
 21
1117.156491139997
 31
0.0
  0
LWPOLYLINE
  5
89ED
330
A
100
AcDbEntity
  8
MODEL
  6
Continuous
100
AcDbPolyline
 90
       15
 70
     0
 43
0.0
 10
376.9793423391216
 20
1141.768701139997
 10
376.4445423391205
 20
1141.697321139998
 10
375.9097423391264
 20
1141.519191139996
 10
375.4463123391229
 20
1141.233901139998
 10
375.0184723391263
 20
1140.913021139998
 10
374.6620123391164
 20
1140.485371139997
 10
374.4125023391221
 20
1140.021751139997
 10
374.234172339127
 20
1139.487151139996
 10
374.1629923391279
 20
1138.952351139997
 10
374.1985823391202
 20
1138.417551139997
 10
374.3055423391322
 20
1137.882751139996
 10
374.5194623391195
 20
1137.383741139997
 10
374.8403423391262
 20
1136.920311139998
 10
375.1968023391215
 20
1136.563651139997
 10
375.6602323391249
 20
1136.242771139996
  0
LWPOLYLINE
  5
89EE
330
A
100
AcDbEntity
  8
MODEL
  6
Continuous
100
AcDbPolyline
 90
       15
 70
     0
 43
0.0
 10
388.2451023391311
 20
1141.768701139997
 10
388.779902339125
 20
1141.697321139998
 10
389.3147023391189
 20
1141.519191139996
 10
389.7781323391224
 20
1141.233901139998
 10
390.2059723391263
 20
1140.913021139998
 10
390.562432339129
 20
1140.485371139997
 10
390.8119423391306
 20
1140.021751139997
 10
390.9902723391256
 20
1139.487151139996
 10
391.0614523391247
 20
1138.952351139997
 10
391.0258623391251
 20
1138.417551139997
 10
390.9189023391205
 20
1137.882751139996
 10
390.7049823391258
 20
1137.383741139997
 10
390.3841023391265
 20
1136.920311139998
 10
390.0276323391277
 20
1136.563651139997
 10
389.5642123391277
 20
1136.242771139996
  0
LINE
  5
89EF
330
A
100
AcDbEntity
  8
MODEL
  6
Continuous
100
AcDbLine
 10
389.6122223391263
 20
1113.946311139997
 30
0.0
 11
389.6122223391263
 21
1121.911341139997
 31
0.0
  0
LINE
  5
89F0
330
A
100
AcDbEntity
  8
MODEL
  6
Continuous
100
AcDbLine
 10
375.6122223391263
 20
1113.961131139997
 30
0.0
 11
375.6122223391263
 21
1121.911341139997
 31
0.0
  0
ARC
  5
89F1
330
A
100
AcDbEntity
  8
MODEL
  6
Continuous
100
AcDbCircle
 10
379.6122223391263
 20
1165.768701139996
 30
0.0
 40
2.0
100
AcDbArc
 50
90.0
 51
180.0
  0
ARC
  5
89F2
330
A
100
AcDbEntity
  8
MODEL
  6
Continuous
100
AcDbCircle
 10
385.6122223391263
 20
1165.768701139996
 30
0.0
 40
2.0
100
AcDbArc
 50
0.0
 51
90.0
  0
LINE
  5
89F3
330
A
100
AcDbEntity
  8
MODEL
  6
Continuous
100
AcDbLine
 10
377.6122223391263
 20
1165.768701139996
 30
0.0
 11
377.6122223391263
 21
1141.768701139997
 31
0.0
  0
LINE
  5
89F4
330
A
100
AcDbEntity
  8
MODEL
  6
Continuous
100
AcDbLine
 10
385.6122223391263
 20
1167.768701139997
 30
0.0
 11
379.6122223391263
 21
1167.768701139997
 31
0.0
  0
LINE
  5
89F5
330
A
100
AcDbEntity
  8
MODEL
  6
Continuous
100
AcDbLine
 10
387.6122223391263
 20
1141.768701139997
 30
0.0
 11
387.6122223391263
 21
1165.768701139996
 31
0.0
  0
LINE
  5
89F6
330
A
100
AcDbEntity
  8
MODEL
  6
Continuous
100
AcDbLine
 10
376.9793423391216
 20
1141.768701139997
 30
0.0
 11
388.2451023391311
 21
1141.768701139997
 31
0.0
  0
ARC
  5
89F7
330
A
100
AcDbEntity
  8
MODEL
  6
Continuous
100
AcDbCircle
 10
382.6122223391263
 20
1162.768701139997
 30
0.0
 40
8.25
100
AcDbArc
 50
307.3052010000203
 51
232.694799000022
  0
ARC
  5
89F8
330
A
100
AcDbEntity
  8
MODEL
  6
Continuous
100
AcDbCircle
 10
376.1122223391263
 20
1166.521471139997
 30
0.0
 40
5.0
100
AcDbArc
 50
119.9999999999999
 51
180.0
  0
ARC
  5
89F9
330
A
100
AcDbEntity
  8
MODEL
  6
Continuous
100
AcDbCircle
 10
376.1122223391263
 20
1159.015921139997
 30
0.0
 40
5.0
100
AcDbArc
 50
180.0
 51
240.0000000000001
  0
ARC
  5
89FA
330
A
100
AcDbEntity
  8
MODEL
  6
Continuous
100
AcDbCircle
 10
389.1122223391263
 20
1159.015921139997
 30
0.0
 40
5.0
100
AcDbArc
 50
299.9999999999998
 51
0.0
  0
ARC
  5
89FB
330
A
100
AcDbEntity
  8
MODEL
  6
Continuous
100
AcDbCircle
 10
389.1122223391263
 20
1166.521471139997
 30
0.0
 40
5.0
100
AcDbArc
 50
0.0
 51
60.00000000000011
  0
ARC
  5
89FC
330
A
100
AcDbEntity
  8
MODEL
  6
Continuous
100
AcDbCircle
 10
382.6122223391263
 20
1170.274251139998
 30
0.0
 40
5.0
100
AcDbArc
 50
60.00000000000011
 51
119.9999999999999
  0
LINE
  5
89FD
330
A
100
AcDbEntity
  8
MODEL
  6
Continuous
100
AcDbLine
 10
391.6122223391263
 20
1170.851601139996
 30
0.0
 11
385.1122223391263
 21
1174.604381139997
 31
0.0
  0
LINE
  5
89FE
330
A
100
AcDbEntity
  8
MODEL
  6
Continuous
100
AcDbLine
 10
394.1122223391263
 20
1159.015921139997
 30
0.0
 11
394.1122223391263
 21
1166.521471139997
 31
0.0
  0
LINE
  5
89FF
330
A
100
AcDbEntity
  8
MODEL
  6
Continuous
100
AcDbLine
 10
387.6122223391263
 20
1152.376391139997
 30
0.0
 11
391.6122223391263
 21
1154.685791139997
 31
0.0
  0
LINE
  5
8A00
330
A
100
AcDbEntity
  8
MODEL
  6
Continuous
100
AcDbLine
 10
373.6122223391263
 20
1154.685791139997
 30
0.0
 11
377.6122223391263
 21
1152.376391139997
 31
0.0
  0
LINE
  5
8A01
330
A
100
AcDbEntity
  8
MODEL
  6
Continuous
100
AcDbLine
 10
371.1122223391263
 20
1166.521471139997
 30
0.0
 11
371.1122223391263
 21
1159.015921139997
 31
0.0
  0
LINE
  5
8A02
330
A
100
AcDbEntity
  8
MODEL
  6
Continuous
100
AcDbLine
 10
380.1122223391263
 20
1174.604381139997
 30
0.0
 11
373.6122223391263
 21
1170.851601139996
 31
0.0
  0
DIMENSION
  5
8B85
330
A
100
AcDbEntity
  8
DIM
  6
Continuous
100
AcDbDimension
  2
*D18
 10
989.379795183042
 20
802.126747610741
 30
0.0
 11
962.379795183042
 21
974.5560662406804
 31
0.0
 70
    32
 71
     5
 42
344.8586372598788
 73
     0
 74
     0
 75
     0
  3
JIS
100
AcDbAlignedDimension
 13
920.4215352648534
 23
1146.98538487062
 33
0.0
 14
576.7676476458835
 24
802.126747610741
 34
0.0
 50
90.0
100
AcDbRotatedDimension
1001
ACAD
1000
DSTYLE
1002
{
1070
   179
1070
     0
1070
    41
1040
6.0
1070
   271
1070
     0
1070
    43
1040
25.0
1070
    44
1040
0.0
1070
    42
1040
25.0
1070
   147
1040
15.0
1070
   140
1040
24.0
1002
}
  0
SPLINE
  5
8C1D
330
A
100
AcDbEntity
  8
MODEL
  6
CENTER2
100
AcDbSpline
210
0.0
220
0.0
230
1.0
 70
  1064
 71
     3
 72
    10
 73
     6
 74
     4
 42
0.000000001
 43
0.0000000001
 44
0.0
 40
0.0
 40
0.0
 40
0.0
 40
0.0
 40
28.72261790611669
 40
57.92014971541469
 40
85.68208658858448
 40
85.68208658858448
 40
85.68208658858448
 40
85.68208658858448
 10
1225.096455637262
 20
946.98538487062
 30
0.0
 10
1235.311364890964
 20
946.2940754968979
 30
0.0
 10
1255.910081736263
 20
944.9000262999716
 30
0.0
 10
1274.00522838571
 20
972.0691850234355
 30
0.0
 10
1276.419667316168
 20
990.7323469777257
 30
0.0
 10
1277.596460265997
 20
999.8287366740051
 30
0.0
 11
1225.096455637262
 21
946.98538487062
 31
0.0
 11
1253.683694456975
 21
949.7708033392641
 31
0.0
 11
1271.78202022668
 21
972.6825136221871
 31
0.0
 11
1277.596460265997
 21
999.8287366740051
 31
0.0
  0
LINE
  5
8C69
330
A
100
AcDbEntity
  8
DIM
  6
Continuous
100
AcDbLine
 10
382.6122223391263
 20
1141.768701139997
 30
0.0
 11
382.6122223391263
 21
1158.465800052017
 31
0.0
  0
SPLINE
  5
8C77
330
A
100
AcDbEntity
  8
DIM
  6
CENTER2
100
AcDbSpline
210
0.0
220
0.0
230
1.0
 70
  1064
 71
     3
 72
    10
 73
     6
 74
     4
 42
0.000000001
 43
0.0000000001
 44
0.0
 40
0.0
 40
0.0
 40
0.0
 40
0.0
 40
98.36605050177552
 40
169.1536650505105
 40
249.0676941266559
 40
249.0676941266559
 40
249.0676941266559
 40
249.0676941266559
 10
259.4186113382268
 20
946.9853848706198
 30
0.0
 10
295.8125373221253
 20
950.5807848897275
 30
0.0
 10
358.3967920965132
 20
956.7635592051785
 30
0.0
 10
384.0267714184345
 20
1046.433576953312
 30
0.0
 10
383.1023985484425
 20
1095.756430802932
 30
0.0
 10
382.6122223391263
 20
1121.911341139997
 30
0.0
 11
259.4186113382268
 21
946.9853848706198
 31
0.0
 11
353.3229004577809
 21
976.2747067519649
 31
0.0
 11
379.4620932255907
 21
1042.059423631705
 31
0.0
 11
382.6122223391263
 21
1121.911341139997
 31
0.0
  0
DIMENSION
  5
8D2F
330
A
100
AcDbEntity
  8
DIM
  6
Continuous
100
AcDbDimension
  2
*D19
 10
1987.790271389285
 20
1317.192566674005
 30
0.0
 11
1987.790271389285
 21
1059.659657142373
 31
0.0
 70
   160
 71
     5
 42
515.0658190632639
 73
     0
 74
     0
 75
     0
  3
JIS
100
AcDbAlignedDimension
 13
1483.596455637262
 23
802.1267476107412
 33
0.0
 14
1673.851657156191
 24
1317.192566674005
 34
0.0
 50
90.0
100
AcDbRotatedDimension
1001
ACAD
1000
DSTYLE
1002
{
1070
   179
1070
     0
1070
    41
1040
6.0
1070
   271
1070
     0
1070
    43
1040
25.0
1070
    44
1040
0.0
1070
    42
1040
25.0
1070
   147
1040
15.0
1070
   140
1040
24.0
1002
}
  0
DIMENSION
  5
92F3
102
{ACAD_REACTORS
330
92F5
102
}
102
{ACAD_XDICTIONARY
360
92F4
102
}
330
A
100
AcDbEntity
  8
DIM
  6
Continuous
100
AcDbDimension
  2
*D20
 10
183.47400011236
 20
1317.192566674005
 30
0.0
 11
156.47400011236
 21
1249.588975772312
 31
0.0
 70
    32
 71
     5
 42
135.2071818033851
 73
     0
 74
     0
 75
     0
  3
JIS
100
AcDbAlignedDimension
 13
259.418611338227
 23
1181.98538487062
 33
0.0
 14
405.8470600535042
 24
1317.192566674005
 34
0.0
 50
90.0
100
AcDbRotatedDimension
1001
ACAD
1000
DSTYLE
1002
{
1070
   179
1070
     0
1070
    41
1040
6.0
1070
   271
1070
     0
1070
    43
1040
25.0
1070
    44
1040
0.0
1070
    42
1040
25.0
1070
   147
1040
15.0
1070
   140
1040
24.0
1002
}
  0
DIMENSION
  5
939D
330
A
100
AcDbEntity
  8
DIM
  6
Continuous
100
AcDbDimension
  2
*D21
 10
1110.503233130277
 20
1066.98538487062
 30
0.0
 11
1083.503233130277
 21
1106.98538487062
 31
0.0
 70
    32
 71
     5
 42
80.0
 73
     0
 74
     0
 75
     0
  3
JIS
100
AcDbAlignedDimension
 13
1316.160418845289
 23
1146.98538487062
 33
0.0
 14
1316.160418845289
 24
1066.98538487062
 34
0.0
 50
90.0
100
AcDbRotatedDimension
1001
ACAD
1000
DSTYLE
1002
{
1070
   179
1070
     0
1070
    41
1040
6.0
1070
   271
1070
     0
1070
    43
1040
25.0
1070
    44
1040
0.0
1070
    42
1040
25.0
1070
   147
1040
15.0
1070
   140
1040
24.0
1002
}
  0
LINE
  5
950B
330
A
100
AcDbEntity
  8
MODEL
  6
Continuous
100
AcDbLine
 10
1756.565514956976
 20
960.100063805841
 30
0.0
 11
1757.442849551702
 21
953.958691125177
 31
0.0
  0
LINE
  5
950C
330
A
100
AcDbEntity
  8
MODEL
  6
Continuous
100
AcDbLine
 10
1750.565484439397
 20
960.100063805841
 30
0.0
 11
1756.565514956976
 21
960.100063805841
 31
0.0
  0
LINE
  5
950D
330
A
100
AcDbEntity
  8
MODEL
  6
Continuous
100
AcDbLine
 10
1743.688119327093
 20
953.9587216427551
 30
0.0
 11
1744.565453921819
 21
960.100063805841
 31
0.0
  0
LINE
  5
950E
330
A
100
AcDbEntity
  8
MODEL
  6
Continuous
100
AcDbLine
 10
1744.565453921819
 20
960.100063805841
 30
0.0
 11
1750.565484439397
 21
960.100063805841
 31
0.0
  0
LINE
  5
950F
330
A
100
AcDbEntity
  8
MODEL
  6
Continuous
100
AcDbLine
 10
1715.565484439397
 20
1019.888922860462
 30
0.0
 11
1715.565484439397
 21
969.8889304898571
 31
0.0
  0
LINE
  5
9510
330
A
100
AcDbEntity
  8
MODEL
  6
Continuous
100
AcDbLine
 10
1736.315484439397
 20
952.8500180294741
 30
0.0
 11
1764.815484439397
 21
952.8500180294741
 31
0.0
  0
LINE
  5
9511
330
A
100
AcDbEntity
  8
MODEL
  6
Continuous
100
AcDbLine
 10
1736.315484439397
 20
987.450016503595
 30
0.0
 11
1736.315484439397
 21
952.8500180294741
 31
0.0
  0
LINE
  5
9512
330
A
100
AcDbEntity
  8
MODEL
  6
Continuous
100
AcDbLine
 10
1764.815484439397
 20
987.450016503595
 30
0.0
 11
1764.815484439397
 21
952.8500180294741
 31
0.0
  0
LINE
  5
9513
330
A
100
AcDbEntity
  8
MODEL
  6
Continuous
100
AcDbLine
 10
1743.115487491155
 20
975.8000302365051
 30
0.0
 11
1745.315499698187
 21
975.8000302365051
 31
0.0
  0
LINE
  5
9514
330
A
100
AcDbEntity
  8
MODEL
  6
Continuous
100
AcDbLine
 10
1743.115487491155
 20
984.5000119259591
 30
0.0
 11
1745.315499698187
 21
984.5000119259591
 31
0.0
  0
LINE
  5
9515
330
A
100
AcDbEntity
  8
MODEL
  6
Continuous
100
AcDbLine
 10
1739.26548138764
 20
953.400097375177
 30
0.0
 11
1739.26548138764
 21
973.2500119259591
 31
0.0
  0
LINE
  5
9516
330
A
100
AcDbEntity
  8
MODEL
  6
Continuous
100
AcDbLine
 10
1745.315499698187
 20
984.5000119259591
 30
0.0
 11
1745.315499698187
 21
975.8000302365051
 31
0.0
  0
LINE
  5
9517
330
A
100
AcDbEntity
  8
MODEL
  6
Continuous
100
AcDbLine
 10
1761.865502749944
 20
973.2500119259591
 30
0.0
 11
1761.865502749944
 21
953.4000821163881
 31
0.0
  0
LINE
  5
9518
330
A
100
AcDbEntity
  8
MODEL
  6
Continuous
100
AcDbLine
 10
1775.565499698187
 20
909.8889304898571
 30
0.0
 11
1750.565484439397
 21
909.8889304898571
 31
0.0
  0
LINE
  5
9519
330
A
100
AcDbEntity
  8
MODEL
  6
Continuous
100
AcDbLine
 10
1750.565484439397
 20
909.8889304898571
 30
0.0
 11
1725.565484439397
 21
909.8889304898571
 31
0.0
  0
LINE
  5
951A
330
A
100
AcDbEntity
  8
MODEL
  6
Continuous
100
AcDbLine
 10
1715.565484439397
 20
969.8889304898571
 30
0.0
 11
1715.565484439397
 21
919.8889304898571
 31
0.0
  0
LINE
  5
951B
330
A
100
AcDbEntity
  8
MODEL
  6
Continuous
100
AcDbLine
 10
1725.565484439397
 20
1029.888922860462
 30
0.0
 11
1775.565484439397
 21
1029.888922860462
 31
0.0
  0
LINE
  5
951C
330
A
100
AcDbEntity
  8
MODEL
  6
Continuous
100
AcDbLine
 10
1755.815469180608
 20
976.6500210812321
 30
0.0
 11
1755.815469180608
 21
983.6500210812301
 31
0.0
  0
LINE
  5
951D
330
A
100
AcDbEntity
  8
MODEL
  6
Continuous
100
AcDbLine
 10
1758.01548138764
 20
976.6500210812321
 30
0.0
 11
1758.01548138764
 21
983.6500210812301
 31
0.0
  0
LINE
  5
951E
330
A
100
AcDbEntity
  8
MODEL
  6
Continuous
100
AcDbLine
 10
1758.01548138764
 20
983.6500210812301
 30
0.0
 11
1755.815469180608
 21
983.6500210812301
 31
0.0
  0
LINE
  5
951F
330
A
100
AcDbEntity
  8
MODEL
  6
Continuous
100
AcDbLine
 10
1758.01548138764
 20
976.6500210812321
 30
0.0
 11
1755.815469180608
 21
976.6500210812321
 31
0.0
  0
LINE
  5
9520
330
A
100
AcDbEntity
  8
MODEL
  6
Continuous
100
AcDbLine
 10
1739.26548138764
 20
973.2500119259591
 30
0.0
 11
1761.865502749944
 21
973.2500119259591
 31
0.0
  0
LINE
  5
9521
330
A
100
AcDbEntity
  8
MODEL
  6
Continuous
100
AcDbLine
 10
1739.565560733343
 20
953.1000790646301
 30
0.0
 11
1761.565408145452
 21
953.1000790646301
 31
0.0
  0
LINE
  5
9522
330
A
100
AcDbEntity
  8
MODEL
  6
Continuous
100
AcDbLine
 10
1743.115487491155
 20
984.5000119259591
 30
0.0
 11
1743.115487491155
 21
975.8000302365051
 31
0.0
  0
ARC
  5
9523
330
A
100
AcDbEntity
  8
MODEL
  6
Continuous
100
AcDbCircle
 10
1761.565408145452
 20
953.4001431515442
 30
0.0
 40
0.3000000119209289
100
AcDbArc
 50
270.0001068115048
 51
0.0000152585630699
  0
ARC
  5
9524
330
A
100
AcDbEntity
  8
MODEL
  6
Continuous
100
AcDbCircle
 10
1739.565560733343
 20
953.4001431515442
 30
0.0
 40
0.3000000119209289
100
AcDbArc
 50
179.999954223616
 51
269.9998321533744
  0
ARC
  5
9525
330
A
100
AcDbEntity
  8
MODEL
  6
Continuous
100
AcDbCircle
 10
1725.565484439397
 20
1019.888922860462
 30
0.0
 40
10.0
100
AcDbArc
 50
90.0
 51
180.0
  0
ARC
  5
9526
330
A
100
AcDbEntity
  8
MODEL
  6
Continuous
100
AcDbCircle
 10
1725.565484439397
 20
919.8889304898571
 30
0.0
 40
10.0
100
AcDbArc
 50
180.0
 51
270.0
  0
LINE
  5
9528
330
A
100
AcDbEntity
  8
MODEL
  6
Continuous
100
AcDbLine
 10
1736.315484439397
 20
987.450016503595
 30
0.0
 11
1764.815484439397
 21
987.450016503595
 31
0.0
  0
SPLINE
  5
9529
330
A
100
AcDbEntity
  8
MODEL
  6
CENTER2
100
AcDbSpline
210
0.0
220
0.0
230
1.0
 70
  1064
 71
     3
 72
    14
 73
    10
 74
     8
 42
0.000000001
 43
0.0000000001
 44
0.0
 40
0.0
 40
0.0
 40
0.0
 40
0.0
 40
15.40944549321838
 40
80.20767133915919
 40
185.9916242865026
 40
263.5190444085934
 40
309.9525279406085
 40
323.8596800270591
 40
379.1518258936555
 40
379.1518258936555
 40
379.1518258936555
 40
379.1518258936555
 10
1673.80561296856
 20
1166.73876142076
 30
0.0
 10
1679.456182143374
 20
1166.960710097794
 30
0.0
 10
1708.867947508464
 20
1168.115974675584
 30
0.0
 10
1678.662168650569
 20
1074.82754546965
 30
0.0
 10
1677.402468895934
 20
1007.77631621584
 30
0.0
 10
1678.177405453904
 20
929.7784848345544
 30
0.0
 10
1709.660109149802
 20
882.9960890873149
 30
0.0
 10
1751.776052170233
 20
890.2174957982836
 30
0.0
 10
1751.103151009091
 20
918.9246045009188
 30
0.0
 10
1750.565484439397
 20
941.862375385117
 30
0.0
 11
1673.80561296856
 21
1166.73876142076
 31
0.0
 11
1689.190947560647
 21
1165.877082885575
 31
0.0
 11
1689.190947560647
 21
1101.078857039634
 31
0.0
 11
1677.774848973038
 21
995.912715177323
 31
0.0
 11
1689.190947560647
 21
919.2304254108772
 31
0.0
 11
1721.942392090376
 21
886.315211996196
 31
0.0
 11
1735.657587566997
 21
888.617882661692
 31
0.0
 11
1750.565484439397
 21
941.862375385117
 31
0.0
  0
LINE
  5
952A
330
A
100
AcDbEntity
  8
MODEL
  6
Continuous
100
AcDbLine
 10
1785.565499698187
 20
919.8889304898571
 30
0.0
 11
1785.565499698187
 21
1019.888922860462
 31
0.0
  0
ARC
  5
952B
330
A
100
AcDbEntity
  8
MODEL
  6
Continuous
100
AcDbCircle
 10
1775.565484439397
 20
1019.888922860462
 30
0.0
 40
10.0
100
AcDbArc
 50
0.0
 51
90.0
  0
ARC
  5
952C
330
A
100
AcDbEntity
  8
MODEL
  6
Continuous
100
AcDbCircle
 10
1775.565499698187
 20
919.8889304898571
 30
0.0
 40
10.0
100
AcDbArc
 50
270.0
 51
0.0
  0
DIMENSION
  5
9558
330
A
100
AcDbEntity
  8
DIM
  6
Continuous
100
AcDbDimension
  2
*D22
 10
1849.063393156212
 20
1182.126747610741
 30
0.0
 11
1849.063393156212
 21
992.126747610741
 31
0.0
 70
   160
 71
     5
 42
379.9999999999998
 73
     0
 74
     0
 75
     0
  3
JIS
100
AcDbAlignedDimension
 13
1508.596455637262
 23
802.1267476107412
 33
0.0
 14
1685.29649168455
 24
1182.126747610741
 34
0.0
 50
90.0
100
AcDbRotatedDimension
1001
ACAD
1000
DSTYLE
1002
{
1070
   179
1070
     0
1070
    41
1040
6.0
1070
   271
1070
     0
1070
    43
1040
25.0
1070
    44
1040
0.0
1070
    42
1040
25.0
1070
   147
1040
15.0
1070
   140
1040
24.0
1002
}
  0
CIRCLE
  5
95D8
330
A
100
AcDbEntity
  8
MODEL GRAY
  6
AM_DIN_F_W050
 48
4.0
100
AcDbCircle
 10
1393.596460266016
 20
1066.98538487062
 30
0.0
 40
7.579809740149905
  0
CIRCLE
  5
95D9
330
A
100
AcDbEntity
  8
MODEL GRAY
  6
AM_DIN_F_W050
 48
4.0
100
AcDbCircle
 10
1573.596460266016
 20
1066.98538487062
 30
0.0
 40
7.579809740149905
  0
LEADER
  5
96AA
330
A
100
AcDbEntity
  8
DIM
  6
Continuous
100
AcDbLeader
  3
JIS
 76
     3
 10
1728.18953432711
 20
886.1482368141171
 30
0.0
 10
1697.500182908231
 20
648.2195463594951
 30
0.0
 10
2000.811027293495
 20
648.2195463594951
 30
0.0
1001
ACAD
1000
DSTYLE
1002
{
1070
   179
1070
     0
1070
    41
1040
6.0
1070
   271
1070
     0
1070
    43
1040
25.0
1070
    44
1040
0.0
1070
    42
1040
25.0
1070
   147
1040
15.0
1070
   140
1040
24.0
1002
}
  0
MTEXT
  5
96AB
330
A
100
AcDbEntity
  8
MODEL
390
1D
100
AcDbMText
 10
1710.393451471003
 20
687.6760966681384
 30
0.0
 40
24.4326171875
 41
0.0
 46
24.4326171875
 71
     1
 72
     1
  1
{電源コードL = 1200}
  7
ＭＳ ゴシック
 73
     1
 44
0.7828267384257843
1001
ACAD
1000
ACAD_MTEXT_DEFINED_HEIGHT_BEGIN
1070
    46
1040
24.4326171875
1000
ACAD_MTEXT_DEFINED_HEIGHT_END
  0
MTEXT
  5
9701
330
A
100
AcDbEntity
  8
MODEL
390
1D
100
AcDbMText
 10
204.3511743942336
 20
743.8434142439369
 30
0.0
 40
24.4326171875
 41
0.0
 46
24.4326171875
 71
     1
 72
     1
  1
{排水管差込口}
  7
ＭＳ ゴシック
 73
     1
 44
0.7828267384257843
1001
ACAD
1000
ACAD_MTEXT_DEFINED_HEIGHT_BEGIN
1070
    46
1040
24.4326171875
1000
ACAD_MTEXT_DEFINED_HEIGHT_END
  0
LINE
  5
9702
330
A
100
AcDbEntity
  8
DIM
  6
Continuous
100
AcDbLine
 10
302.9267806474707
 20
764.860996842996
 30
0.0
 11
302.9267806474707
 21
919.0320456735469
 31
0.0
  0
LINE
  5
9703
330
A
100
AcDbEntity
  8
DIM
  6
Continuous
100
AcDbLine
 10
305.058100801478
 20
1132.872270468078
 30
0.0
 11
305.058100801478
 21
1363.996853339098
 31
0.0
  0
MTEXT
  5
9704
330
A
100
AcDbEntity
  8
MODEL
390
1D
100
AcDbMText
 10
204.3511743942336
 20
1422.415260702446
 30
0.0
 40
24.4326171875
 41
0.0
 46
24.4326171875
 71
     1
 72
     1
  1
{洗浄管差込口}
  7
ＭＳ ゴシック
 73
     1
 44
0.7828267384257843
1001
ACAD
1000
ACAD_MTEXT_DEFINED_HEIGHT_BEGIN
1070
    46
1040
24.4326171875
1000
ACAD_MTEXT_DEFINED_HEIGHT_END
  0
LINE
  5
972C
330
A
100
AcDbEntity
  8
DIM
  6
Continuous
100
AcDbLine
 10
1573.596460266016
 20
1066.98538487062
 30
0.0
 11
1381.087546838546
 21
559.8521411928152
 31
0.0
  0
LINE
  5
972D
330
A
100
AcDbEntity
  8
DIM
  6
Continuous
100
AcDbLine
 10
1201.087546838546
 20
559.8521411928152
 30
0.0
 11
1675.673896055057
 21
559.8521411928152
 31
0.0
  0
LINE
  5
972E
330
A
100
AcDbEntity
  8
DIM
  6
Continuous
100
AcDbLine
 10
1393.596460266016
 20
1066.98538487062
 30
0.0
 11
1201.087546838546
 21
559.8521411928152
 31
0.0
  0
MTEXT
  5
975E
330
A
100
AcDbEntity
  8
MODEL
390
1D
100
AcDbMText
 10
1410.707746485544
 20
600.4818440984893
 30
0.0
 40
24.4326171875
 41
0.0
 46
24.4326171875
 71
     1
 72
     1
  1
{壁取付ボルト位置}
  7
ＭＳ ゴシック
 73
     1
 44
0.7828267384257843
1001
ACAD
1000
ACAD_MTEXT_DEFINED_HEIGHT_BEGIN
1070
    46
1040
24.4326171875
1000
ACAD_MTEXT_DEFINED_HEIGHT_END
  0
MTEXT
  5
9792
330
A
100
AcDbEntity
  8
MODEL
390
1D
100
AcDbMText
 10
986.8074181786187
 20
679.827856635495
 30
0.0
 40
24.4326171875
 41
0.0
 46
24.4326171875
 71
     1
 72
     1
  1
{給水ホース}
  7
ＭＳ ゴシック
 73
     1
 44
0.7828267384257843
1001
ACAD
1000
ACAD_MTEXT_DEFINED_HEIGHT_BEGIN
1070
    46
1040
24.4326171875
1000
ACAD_MTEXT_DEFINED_HEIGHT_END
  0
LEADER
  5
9793
330
A
100
AcDbEntity
  8
DIM
  6
Continuous
100
AcDbLeader
  3
JIS
 76
     3
 10
1264.176261420913
 20
958.889545825878
 30
0.0
 10
1155.369956414729
 20
640.3713063268522
 30
0.0
 10
977.2045959460121
 20
640.3713063268522
 30
0.0
1001
ACAD
1000
DSTYLE
1002
{
1070
   179
1070
     0
1070
    41
1040
6.0
1070
   271
1070
     0
1070
    43
1040
25.0
1070
    44
1040
0.0
1070
    42
1040
25.0
1070
   147
1040
15.0
1070
   140
1040
24.0
1002
}
  0
DIMENSION
  5
9907
102
{ACAD_REACTORS
330
9909
102
}
102
{ACAD_XDICTIONARY
360
9908
102
}
330
A
100
AcDbEntity
  8
MODEL
  6
Continuous
100
AcDbDimension
  2
*D23
 10
1782.922804097753
 20
1066.98538487062
 30
0.0
 11
1755.922804097753
 21
1124.556066240681
 31
0.0
 70
    32
 71
     5
 42
115.141362740121
 73
     0
 74
     0
 75
     0
  3
JIS
100
AcDbAlignedDimension
 13
1710.29649168455
 23
1182.126747610741
 33
0.0
 14
1583.596460266016
 24
1066.98538487062
 34
0.0
 50
90.0
100
AcDbRotatedDimension
1001
ACAD
1000
DSTYLE
1002
{
1070
   144
1040
1.0
1070
   179
1070
     0
1070
    41
1040
6.0
1070
   271
1070
     0
1070
    43
1040
25.0
1070
    44
1040
0.0
1070
    42
1040
25.0
1070
   147
1040
15.0
1070
   140
1040
24.0
1002
}
  0
LINE
  5
9AD2
330
A
100
AcDbEntity
  8
MODEL
390
1D
100
AcDbLine
 10
1310.6477366435
 20
1990.01925
 30
0.0
 11
1590.6477366435
 21
1990.01925
 31
0.0
  0
LINE
  5
9AD3
330
A
100
AcDbEntity
  8
MODEL
390
1D
100
AcDbLine
 10
1590.6477366435
 20
1990.01925
 30
0.0
 11
1590.6477366435
 21
2150.019250000001
 31
0.0
  0
LINE
  5
9AD4
330
A
100
AcDbEntity
  8
MODEL
390
1D
100
AcDbLine
 10
1590.6477366435
 20
2150.019250000001
 30
0.0
 11
1310.6477366435
 21
2150.019250000001
 31
0.0
  0
LINE
  5
9AD5
330
A
100
AcDbEntity
  8
MODEL
390
1D
100
AcDbLine
 10
1310.6477366435
 20
2150.019250000001
 30
0.0
 11
1310.6477366435
 21
1990.01925
 31
0.0
  0
LINE
  5
9AD6
330
A
100
AcDbEntity
  8
MODEL
390
1D
100
AcDbLine
 10
1310.6477366435
 20
2010.01925
 30
0.0
 11
1590.6477366435
 21
2010.01925
 31
0.0
  0
LINE
  5
9AD7
330
A
100
AcDbEntity
  8
MODEL
390
1D
100
AcDbLine
 10
1312.6477366435
 20
2148.019250000001
 30
0.0
 11
1312.6477366435
 21
2012.019249999998
 31
0.0
  0
LINE
  5
9AD8
330
A
100
AcDbEntity
  8
MODEL
390
1D
100
AcDbLine
 10
1588.6477366435
 20
2148.019250000001
 30
0.0
 11
1312.6477366435
 21
2148.019250000001
 31
0.0
  0
LINE
  5
9AD9
330
A
100
AcDbEntity
  8
MODEL
390
1D
100
AcDbLine
 10
1588.6477366435
 20
2012.019249999998
 30
0.0
 11
1588.6477366435
 21
2148.019250000001
 31
0.0
  0
LINE
  5
9ADA
330
A
100
AcDbEntity
  8
MODEL
390
1D
100
AcDbLine
 10
1312.6477366435
 20
2012.019249999998
 30
0.0
 11
1588.6477366435
 21
2012.019249999998
 31
0.0
  0
LINE
  5
9ADB
330
A
100
AcDbEntity
  8
MODEL
390
1D
100
AcDbLine
 10
1312.6477366435
 20
2080.01925
 30
0.0
 11
1588.6477366435
 21
2080.01925
 31
0.0
  0
LINE
  5
9ADC
330
A
100
AcDbEntity
  8
MODEL
390
1D
100
AcDbLine
 10
1450.6477366435
 20
2148.019250000001
 30
0.0
 11
1450.6477366435
 21
2012.019249999998
 31
0.0
  0
LINE
  5
9ADD
330
A
100
AcDbEntity
  8
MODEL
390
1D
100
AcDbLine
 10
1519.647736643497
 20
2148.019250000001
 30
0.0
 11
1519.647736643497
 21
2012.019249999998
 31
0.0
  0
LINE
  5
9ADE
330
A
100
AcDbEntity
  8
MODEL
390
1D
100
AcDbLine
 10
1381.6477366435
 20
2148.019250000001
 30
0.0
 11
1381.6477366435
 21
2012.019249999998
 31
0.0
  0
LINE
  5
9ADF
330
A
100
AcDbEntity
  8
MODEL
390
1D
100
AcDbLine
 10
1715.340926643499
 20
1990.01925
 30
0.0
 11
1781.340926643502
 21
1990.01925
 31
0.0
  0
LINE
  5
9AE0
330
A
100
AcDbEntity
  8
MODEL
390
1D
100
AcDbLine
 10
1781.340926643502
 20
1990.01925
 30
0.0
 11
1781.340926643502
 21
2150.019250000001
 31
0.0
  0
LINE
  5
9AE1
330
A
100
AcDbEntity
  8
MODEL
390
1D
100
AcDbLine
 10
1781.340926643502
 20
2150.019250000001
 30
0.0
 11
1715.340926643499
 21
2150.019250000001
 31
0.0
  0
LINE
  5
9AE2
330
A
100
AcDbEntity
  8
MODEL
390
1D
100
AcDbLine
 10
1715.340926643499
 20
2150.019250000001
 30
0.0
 11
1715.340926643499
 21
1990.01925
 31
0.0
  0
LINE
  5
9AE3
330
A
100
AcDbEntity
  8
MODEL
390
1D
100
AcDbLine
 10
1715.340926643499
 20
2010.01925
 30
0.0
 11
1759.340926643499
 21
2010.01925
 31
0.0
  0
LINE
  5
9AE4
330
A
100
AcDbEntity
  8
MODEL
390
1D
100
AcDbLine
 10
1759.340926643499
 20
2010.01925
 30
0.0
 11
1759.340926643499
 21
2150.019250000001
 31
0.0
  0
LINE
  5
9AE5
330
A
100
AcDbEntity
  8
MODEL
390
1D
100
AcDbLine
 10
1759.340926643499
 20
2080.01925
 30
0.0
 11
1715.340926643499
 21
2080.01925
 31
0.0
  0
LINE
  5
9AE6
330
A
100
AcDbEntity
  8
MODEL
390
1D
100
AcDbLine
 10
1759.340926643499
 20
2045.01925
 30
0.0
 11
1715.340926643499
 21
2045.01925
 31
0.0
  0
DIMENSION
  5
9AE7
330
A
100
AcDbEntity
  8
DIM
  6
Continuous
390
1D
100
AcDbDimension
  2
*D31
 10
1781.340926643502
 20
2222.719694265598
 30
0.0
 11
1746.589182585676
 21
2222.719694265598
 31
0.0
 70
   160
  1
\A1;<>
 71
     5
 41
0.96
 42
33.00000000000182
 73
     0
 74
     0
 75
     0
  3
JIS
100
AcDbAlignedDimension
 13
1715.340926643499
 23
2170.199724265601
 33
0.0
 14
1781.340926643502
 24
2170.199724265601
 34
0.0
100
AcDbRotatedDimension
1001
ACAD
1000
DSTYLE
1002
{
1070
   144
1040
0.5
1070
    44
1040
0.0
1002
}
  0
CIRCLE
  5
9AE8
330
A
100
AcDbEntity
  8
MODEL
390
1D
100
AcDbCircle
 10
1450.6477366435
 20
2040.01925
 30
0.0
 40
4.5
  0
CIRCLE
  5
9AE9
330
A
100
AcDbEntity
  8
MODEL
390
1D
100
AcDbCircle
 10
1550.6477366435
 20
2100.01925
 30
0.0
 40
4.5
  0
CIRCLE
  5
9AEA
330
A
100
AcDbEntity
  8
MODEL
390
1D
100
AcDbCircle
 10
1350.6477366435
 20
2100.01925
 30
0.0
 40
4.5
  0
LINE
  5
9AEB
330
A
100
AcDbEntity
  8
MODEL
390
1D
100
AcDbLine
 10
1773.3636366435
 20
2100.01925
 30
0.0
 11
1789.318216643501
 21
2100.01925
 31
0.0
  0
LINE
  5
9AEC
330
A
100
AcDbEntity
  8
MODEL
390
1D
100
AcDbLine
 10
1773.3636366435
 20
2040.01925
 30
0.0
 11
1789.318216643501
 21
2040.01925
 31
0.0
  0
LINE
  5
9AED
330
A
100
AcDbEntity
  8
MODEL
390
1D
100
AcDbLine
 10
1361.1477366435
 20
2100.01925
 30
0.0
 11
1340.1477366435
 21
2100.01925
 31
0.0
  0
LINE
  5
9AEE
330
A
100
AcDbEntity
  8
MODEL
390
1D
100
AcDbLine
 10
1350.6477366435
 20
2110.519250000001
 30
0.0
 11
1350.6477366435
 21
2089.519249999998
 31
0.0
  0
LINE
  5
9AEF
330
A
100
AcDbEntity
  8
MODEL
390
1D
100
AcDbLine
 10
1561.1477366435
 20
2100.01925
 30
0.0
 11
1540.1477366435
 21
2100.01925
 31
0.0
  0
LINE
  5
9AF0
330
A
100
AcDbEntity
  8
MODEL
390
1D
100
AcDbLine
 10
1550.6477366435
 20
2110.519250000001
 30
0.0
 11
1550.6477366435
 21
2089.519249999998
 31
0.0
  0
LINE
  5
9AF1
330
A
100
AcDbEntity
  8
MODEL
390
1D
100
AcDbLine
 10
1461.1477366435
 20
2040.01925
 30
0.0
 11
1440.1477366435
 21
2040.01925
 31
0.0
  0
LINE
  5
9AF2
330
A
100
AcDbEntity
  8
MODEL
390
1D
100
AcDbLine
 10
1450.6477366435
 20
2050.51925
 30
0.0
 11
1450.6477366435
 21
2029.519249999998
 31
0.0
  0
DIMENSION
  5
9AF3
330
A
100
AcDbEntity
  8
DIM
  6
Continuous
390
1D
100
AcDbDimension
  2
*D32
 10
1450.647736643499
 20
2218.241942793506
 30
0.0
 11
1400.6477366435
 21
2218.241942793506
 31
0.0
 70
   160
  1
\A1;<>
 71
     5
 41
0.96
 42
49.99999999999977
 73
     0
 74
     0
 75
     0
  3
JIS
100
AcDbAlignedDimension
 13
1350.6477366435
 23
2165.520385185921
 33
0.0
 14
1450.647736643499
 24
2162.035584838945
 34
0.0
100
AcDbRotatedDimension
1001
ACAD
1000
DSTYLE
1002
{
1070
   144
1040
0.5
1070
    44
1040
0.0
1002
}
  0
DIMENSION
  5
9AF4
330
A
100
AcDbEntity
  8
DIM
  6
Continuous
390
1D
100
AcDbDimension
  2
*D33
 10
1550.6477366435
 20
2218.241942793506
 30
0.0
 11
1500.6477366435
 21
2218.241942793506
 31
0.0
 70
   160
  1
\A1;<>
 71
     5
 41
0.96
 42
50.0
 73
     0
 74
     0
 75
     0
  3
JIS
100
AcDbAlignedDimension
 13
1450.6477366435
 23
2203.020385185921
 33
0.0
 14
1550.6477366435
 24
2165.520385185921
 34
0.0
100
AcDbRotatedDimension
1001
ACAD
1000
DSTYLE
1002
{
1070
   144
1040
0.5
1070
    44
1040
0.0
1002
}
  0
DIMENSION
  5
9AF5
330
A
100
AcDbEntity
  8
DIM
  6
Continuous
390
1D
100
AcDbDimension
  2
*D34
 10
1891.21805824495
 20
2040.01925
 30
0.0
 11
1891.21805824495
 21
2070.01925
 31
0.0
 70
   160
  1
\A1;<>
 71
     5
 41
0.96
 42
30.00000000000011
 73
     0
 74
     0
 75
     0
  3
JIS
100
AcDbAlignedDimension
 13
1813.983240745901
 23
2100.01925
 33
0.0
 14
1813.983240745901
 24
2040.01925
 34
0.0
 50
90.0
100
AcDbRotatedDimension
1001
ACAD
1000
DSTYLE
1002
{
1070
   144
1040
0.5
1070
    44
1040
0.0
1002
}
  0
DIMENSION
  5
9AF6
330
A
100
AcDbEntity
  8
DIM
  6
Continuous
390
1D
100
AcDbDimension
  2
*D35
 10
1238.1301171875
 20
2150.019250000001
 30
0.0
 11
1238.1301171875
 21
2070.01925
 31
0.0
 70
   160
  1
\A1;<>
 71
     5
 41
0.96
 42
80.00000000000057
 73
     0
 74
     0
 75
     0
  3
JIS
100
AcDbAlignedDimension
 13
1295.699237187501
 23
1990.01925
 33
0.0
 14
1295.699237187501
 24
2150.019250000001
 34
0.0
 50
90.0
100
AcDbRotatedDimension
1001
ACAD
1000
DSTYLE
1002
{
1070
   144
1040
0.5
1070
    44
1040
0.0
1002
}
  0
DIMENSION
  5
9AF7
330
A
100
AcDbEntity
  8
DIM
  6
Continuous
390
1D
100
AcDbDimension
  2
*D36
 10
1590.6477366435
 20
2273.252420791586
 30
0.0
 11
1450.647736643499
 21
2273.252420791586
 31
0.0
 70
   160
  1
\A1;<>
 71
     5
 41
0.96
 42
140.0
 73
     0
 74
     0
 75
     0
  3
JIS
100
AcDbAlignedDimension
 13
1310.6477366435
 23
2162.015420813441
 33
0.0
 14
1590.6477366435
 24
2162.015420813441
 34
0.0
100
AcDbRotatedDimension
1001
ACAD
1000
DSTYLE
1002
{
1070
   144
1040
0.5
1070
    44
1040
0.0
1002
}
  0
MTEXT
  5
9AF8
330
A
100
AcDbEntity
  8
DIM
  6
Continuous
390
1D
100
AcDbMText
 10
1319.974306643498
 20
2408.092789999999
 30
0.0
 40
25.0
 41
0.0
 46
27.925
 71
     1
 72
     1
  1
{\W0.945946;ワイヤレスリモコン(1:2)}
  7
ＭＳ ゴシック
 73
     1
 44
0.96
1001
ACAD
1000
ACAD_MTEXT_DEFINED_HEIGHT_BEGIN
1070
    46
1040
27.925
1000
ACAD_MTEXT_DEFINED_HEIGHT_END
  0
VIEWPORT
  5
349
330
B
100
AcDbEntity
 67
     1
  8
0
100
AcDbViewport
 10
202.5
 20
128.5
 30
0.0
 40
486.0
 41
308.4
 68
     1
 69
     1
 12
202.5
 22
128.5
 13
0.0
 23
0.0
 14
0.5
 24
0.5
 15
0.0
 25
0.0
 16
0.0
 26
0.0
 36
1.0
 17
0.0
 27
0.0
 37
0.0
 42
50.0
 43
0.0
 44
0.0
 45
308.4
 50
0.0
 51
0.0
 72
   100
 90
   557152
  1

281
     0
 71
     1
 74
     0
110
0.0
120
0.0
130
0.0
111
1.0
121
0.0
131
0.0
112
0.0
122
1.0
132
0.0
 79
     0
146
0.0
170
     0
 61
     5
348
26C
292
     1
282
     1
141
0.0
142
0.0
 63
   256
  0
VIEWPORT
  5
34A
330
B
100
AcDbEntity
 67
     1
  8
0
100
AcDbViewport
 10
202.5
 20
128.5
 30
0.0
 40
324.0
 41
205.6
 68
     2
 69
     2
 12
986.6781359294573
 22
1427.077061889956
 13
0.0
 23
0.0
 14
0.5
 24
0.5
 15
0.0
 25
0.0
 16
0.0
 26
0.0
 36
1.0
 17
0.0
 27
0.0
 37
0.0
 42
50.0
 43
0.0
 44
0.0
 45
2890.021615685494
 50
0.0
 51
0.0
 72
   100
 90
   557152
  1

281
     0
 71
     1
 74
     0
110
0.0
120
0.0
130
0.0
111
1.0
121
0.0
131
0.0
112
0.0
122
1.0
132
0.0
 79
     0
146
0.0
170
     0
 61
     5
348
26C
292
     1
282
     1
141
0.0
142
0.0
 63
   256
  0
ENDSEC
  0
SECTION
  2
OBJECTS
  0
DICTIONARY
  5
19
330
0
100
AcDbDictionary
281
     1
  3
ACAD_COLOR
350
38F
  3
ACAD_DETAILVIEWSTYLE
350
BE8
  3
ACAD_GROUP
350
1A
  3
ACAD_IMAGE_VARS
350
27B
  3
ACAD_LAYOUT
350
1E
  3
ACAD_MATERIAL
350
263
  3
ACAD_MLEADERSTYLE
350
336
  3
ACAD_MLINESTYLE
350
1B
  3
ACAD_PLOTSETTINGS
350
22
  3
ACAD_PLOTSTYLENAME
350
1F
  3
ACAD_SCALELIST
350
241
  3
ACAD_SECTIONVIEWSTYLE
350
BE9
  3
ACAD_TABLESTYLE
350
278
  3
ACAD_VISUALSTYLE
350
267
  3
AcadDim
350
94E3
  3
ACDB_RECOMPOSE_DATA
350
9B49
  3
AcDbVariableDictionary
350
330
  3
APPDATA
350
27A
  0
SUN
  5
BE4
330
15
100
AcDbSun
 90
        1
290
     0
 63
     7
421
 16777215
 40
1.0
291
     1
 91
  2455826
 92
 54000000
292
     0
 70
     2
 71
   256
280
     1
  0
DICTIONARY
  5
2E1
330
2
100
AcDbDictionary
280
     1
281
     1
  3
ACAD_LAYERSTATES
360
2E2
  3
ACLYDICTIONARY
360
95C2
  0
DICTIONARY
  5
92F4
330
92F3
100
AcDbDictionary
280
     1
281
     1
  3
ACAD_DIMASSOC
360
92F5
  0
DICTIONARY
  5
9908
330
9907
100
AcDbDictionary
280
     1
281
     1
  3
ACAD_DIMASSOC
360
9909
  0
DICTIONARY
  5
38F
102
{ACAD_REACTORS
330
19
102
}
330
19
100
AcDbDictionary
281
     1
  0
DICTIONARY
  5
BE8
102
{ACAD_REACTORS
330
19
102
}
330
19
100
AcDbDictionary
281
     1
  0
DICTIONARY
  5
1A
102
{ACAD_REACTORS
330
19
102
}
330
19
100
AcDbDictionary
281
     1
  0
RASTERVARIABLES
  5
27B
102
{ACAD_REACTORS
330
19
102
}
330
19
100
AcDbRasterVariables
 90
        0
 70
     1
 71
     1
 72
     1
  0
DICTIONARY
  5
1E
102
{ACAD_REACTORS
330
19
102
}
330
19
100
AcDbDictionary
281
     1
  3
Layout1
350
21
  3
Model
350
20
  0
DICTIONARY
  5
263
102
{ACAD_REACTORS
330
19
102
}
330
19
100
AcDbDictionary
281
     1
  3
ByBlock
350
9905
  3
ByLayer
350
264
  3
Global
350
266
  0
DICTIONARY
  5
336
102
{ACAD_REACTORS
330
19
102
}
330
19
100
AcDbDictionary
281
     1
  3
Standard
350
9906
  0
DICTIONARY
  5
1B
102
{ACAD_REACTORS
330
19
102
}
330
19
100
AcDbDictionary
281
     1
  3
Standard
350
1C
  0
DICTIONARY
  5
22
102
{ACAD_REACTORS
330
19
102
}
330
19
100
AcDbDictionary
281
     1
  0
ACDBDICTIONARYWDFLT
  5
1F
102
{ACAD_REACTORS
330
19
102
}
330
19
100
AcDbDictionary
281
     1
  3
Normal
350
1D
100
AcDbDictionaryWithDefault
340
1D
  0
DICTIONARY
  5
241
102
{ACAD_REACTORS
330
19
102
}
330
19
100
AcDbDictionary
281
     1
  3
A0
350
242
  3
A1
350
243
  3
A2
350
244
  3
A3
350
245
  3
A4
350
246
  3
A5
350
247
  3
A6
350
248
  3
A7
350
249
  3
A8
350
24A
  3
A9
350
24B
  3
B0
350
24C
  3
B1
350
24D
  3
B2
350
24E
  3
B3
350
24F
  3
B4
350
250
  3
B5
350
251
  3
B6
350
252
  3
B7
350
253
  3
B8
350
254
  3
B9
350
255
  3
C0
350
256
  3
C1
350
257
  3
C2
350
258
  3
C3
350
259
  3
C4
350
25A
  3
C5
350
25B
  3
C6
350
25C
  3
C7
350
25D
  3
C8
350
25E
  3
C9
350
25F
  3
D0
350
260
  3
D1
350
261
  3
D2
350
262
  0
DICTIONARY
  5
BE9
102
{ACAD_REACTORS
330
19
102
}
330
19
100
AcDbDictionary
281
     1
  0
DICTIONARY
  5
278
102
{ACAD_REACTORS
330
19
102
}
330
19
100
AcDbDictionary
281
     1
  3
Standard
350
279
  0
DICTIONARY
  5
267
102
{ACAD_REACTORS
330
19
102
}
330
19
100
AcDbDictionary
281
     1
  3
2dWireframe
350
26C
  3
3D Hidden
350
26E
  3
3dWireframe
350
26D
  3
Basic
350
26F
  3
Brighten
350
273
  3
ColorChange
350
277
  3
Conceptual
350
271
  3
Dim
350
272
  3
EdgeColorOff
350
BDE
  3
Facepattern
350
276
  3
Flat
350
268
  3
FlatWithEdges
350
269
  3
Gouraud
350
26A
  3
GouraudWithEdges
350
26B
  3
Hidden
350
BDB
  3
JitterOff
350
BDC
  3
Linepattern
350
275
  3
OverhangOff
350
BDD
  3
Realistic
350
270
  3
Shaded
350
BE3
  3
Shaded with edges
350
BE2
  3
Shades of Gray
350
BDF
  3
Sketchy
350
BE0
  3
Thicken
350
274
  3
Wireframe
350
BDA
  3
X-Ray
350
BE1
  0
XRECORD
  5
94E3
102
{ACAD_REACTORS
330
19
102
}
330
19
100
AcDbXrecord
280
     1
340
0
 72
     0
 71
     0
 70
     0
 69
     0
 68
     1
 67
     3
 66
     0
 65
     0
 64
     0
 63
     3
 62
     1
 61
     0
 60
     0
 40
0.0
  0
XRECORD
  5
9B49
102
{ACAD_REACTORS
330
19
102
}
330
19
100
AcDbXrecord
280
     1
 90
        1
330
279
  0
DICTIONARY
  5
330
102
{ACAD_REACTORS
330
19
102
}
330
19
100
AcDbDictionary
281
     1
  3
CANNOSCALE
350
331
  3
CMLEADERSTYLE
350
991A
  3
CTABLESTYLE
350
335
  3
HPTRANSPARENCY
350
C00
  3
XCLIPFRAME
350
64A
  0
DICTIONARY
  5
27A
102
{ACAD_REACTORS
330
19
102
}
330
19
100
AcDbDictionary
281
     1
  0
DICTIONARY
  5
2E2
102
{ACAD_REACTORS
330
2E1
102
}
330
2E1
100
AcDbDictionary
281
     1
  0
DICTIONARY
  5
95C2
102
{ACAD_REACTORS
330
2E1
102
}
330
2E1
100
AcDbDictionary
281
     1
1001
ACAD
1000
<All
  0
DIMASSOC
  5
92F5
102
{ACAD_REACTORS
330
92F4
102
}
330
92F4
100
AcDbDimAssoc
330
92F3
 90
        3
 70
     0
 71
     1
  1
AcDbOsnapPointRef
 72
    13
331
6FFF
 73
     2
 91
        1
 40
0.0
 10
0.0
 20
0.0
 30
0.0
 75
     0
  1
AcDbOsnapPointRef
 72
     1
331
6FFD
 73
     2
 91
        1
 40
1.0
 10
0.0
 20
0.0
 30
0.0
 75
     0
  0
DIMASSOC
  5
9909
102
{ACAD_REACTORS
330
9908
102
}
330
9908
100
AcDbDimAssoc
330
9907
 90
        2
 70
     0
 71
     1
  1
AcDbOsnapPointRef
 72
    13
331
71B0
 73
     0
 91
        0
 40
0.0
 10
0.0
 20
0.0
 30
0.0
 75
     0
  0
LAYOUT
  5
21
102
{ACAD_REACTORS
330
1E
102
}
330
1E
100
AcDbPlotSettings
  1

  2
none_device
  4
ISO_A3_(420.00_x_297.00_MM)
  6

 40
7.5
 41
20.0
 42
7.5
 43
20.0
 44
420.0
 45
297.0
 46
0.0
 47
0.0
 48
0.0
 49
0.0
140
0.0
141
0.0
142
1.0
143
1.0
 70
     0
 72
     1
 73
     0
 74
     0
  7

 75
     0
 76
     0
 77
     2
 78
   300
147
1.0
148
0.0
149
0.0
100
AcDbLayout
  1
Layout1
 70
     0
 71
     0
 10
0.0
 20
0.0
 11
0.0
 21
0.0
 12
0.0
 22
0.0
 32
0.0
 14
0.0
 24
0.0
 34
0.0
 15
0.0
 25
0.0
 35
0.0
146
0.0
 13
0.0
 23
0.0
 33
0.0
 16
0.0
 26
0.0
 36
0.0
 17
0.0
 27
0.0
 37
0.0
 76
     0
330
B
331
349
  0
LAYOUT
  5
20
102
{ACAD_REACTORS
330
1E
102
}
330
1E
100
AcDbPlotSettings
  1

  2
none_device
  4
ISO_A3_(420.00_x_297.00_MM)
  6

 40
7.5
 41
20.0
 42
7.5
 43
20.0
 44
420.0
 45
297.0
 46
0.0
 47
0.0
 48
0.0
 49
0.0
140
0.0
141
0.0
142
1.0
143
1.0
 70
  1024
 72
     1
 73
     0
 74
     0
  7

 75
     0
 76
     0
 77
     2
 78
   300
147
1.0
148
0.0
149
0.0
100
AcDbLayout
  1
Model
 70
     0
 71
     1
 10
0.0
 20
0.0
 11
2100.0
 21
2970.0
 12
0.0
 22
0.0
 32
0.0
 14
0.0
 24
0.0
 34
0.0
 15
2100.0
 25
2970.0
 35
0.0
146
0.0
 13
0.0
 23
0.0
 33
0.0
 16
0.0
 26
0.0
 36
0.0
 17
0.0
 27
0.0
 37
0.0
 76
     0
330
A
331
15
  0
MATERIAL
  5
9905
102
{ACAD_REACTORS
330
263
102
}
330
263
100
AcDbMaterial
  1
ByBlock
 72
     1
 94
      127
  0
MATERIAL
  5
264
102
{ACAD_REACTORS
330
263
102
}
330
263
100
AcDbMaterial
  1
ByLayer
 72
     1
 94
      127
  0
MATERIAL
  5
266
102
{ACAD_REACTORS
330
263
102
}
330
263
100
AcDbMaterial
  1
Global
 72
     1
 94
      127
  0
MLEADERSTYLE
  5
9906
102
{ACAD_REACTORS
330
336
102
}
330
336
100
AcDbMLeaderStyle
170
     2
171
     1
172
     0
 90
        2
 40
0.0
 41
0.0
173
     1
 91
-1056964608
340
11
 92
       -2
290
     1
 42
2.0
291
     1
 43
8.0
  3
Standard
341
0
 44
4.0
300

342
17
174
     1
178
     1
175
     1
176
     0
 93
-1056964608
 45
4.0
292
     0
297
     0
 46
4.0
343
0
 94
-1056964608
 47
1.0
 49
1.0
140
1.0
293
     1
141
0.0
294
     1
177
     0
142
1.0
295
     0
296
     0
143
3.75
1001
ACAD_MLEADERVER
1070
     2
  0
MLINESTYLE
  5
1C
102
{ACAD_REACTORS
330
1B
102
}
330
1B
100
AcDbMlineStyle
  2
Standard
 70
     0
  3

 62
     0
 51
90.0
 52
90.0
 71
     2
 49
0.5
 62
   256
  6
BYLAYER
 49
-0.5
 62
   256
  6
BYLAYER
  0
ACDBPLACEHOLDER
  5
1D
102
{ACAD_REACTORS
330
1F
102
}
330
1F
  0
SCALE
  5
242
102
{ACAD_REACTORS
330
241
102
}
330
241
100
AcDbScale
 70
     0
300
1:1
140
1.0
141
1.0
290
     1
  0
SCALE
  5
243
102
{ACAD_REACTORS
330
241
102
}
330
241
100
AcDbScale
 70
     0
300
1:2
140
1.0
141
2.0
290
     0
  0
SCALE
  5
244
102
{ACAD_REACTORS
330
241
102
}
330
241
100
AcDbScale
 70
     0
300
1:4
140
1.0
141
4.0
290
     0
  0
SCALE
  5
245
102
{ACAD_REACTORS
330
241
102
}
330
241
100
AcDbScale
 70
     0
300
1:5
140
1.0
141
5.0
290
     0
  0
SCALE
  5
246
102
{ACAD_REACTORS
330
241
102
}
330
241
100
AcDbScale
 70
     0
300
1:8
140
1.0
141
8.0
290
     0
  0
SCALE
  5
247
102
{ACAD_REACTORS
330
241
102
}
330
241
100
AcDbScale
 70
     0
300
1:10
140
1.0
141
10.0
290
     0
  0
SCALE
  5
248
102
{ACAD_REACTORS
330
241
102
}
330
241
100
AcDbScale
 70
     0
300
1:16
140
1.0
141
16.0
290
     0
  0
SCALE
  5
249
102
{ACAD_REACTORS
330
241
102
}
330
241
100
AcDbScale
 70
     0
300
1:20
140
1.0
141
20.0
290
     0
  0
SCALE
  5
24A
102
{ACAD_REACTORS
330
241
102
}
330
241
100
AcDbScale
 70
     0
300
1:30
140
1.0
141
30.0
290
     0
  0
SCALE
  5
24B
102
{ACAD_REACTORS
330
241
102
}
330
241
100
AcDbScale
 70
     0
300
1:40
140
1.0
141
40.0
290
     0
  0
SCALE
  5
24C
102
{ACAD_REACTORS
330
241
102
}
330
241
100
AcDbScale
 70
     0
300
1:50
140
1.0
141
50.0
290
     0
  0
SCALE
  5
24D
102
{ACAD_REACTORS
330
241
102
}
330
241
100
AcDbScale
 70
     0
300
1:100
140
1.0
141
100.0
290
     0
  0
SCALE
  5
24E
102
{ACAD_REACTORS
330
241
102
}
330
241
100
AcDbScale
 70
     0
300
2:1
140
2.0
141
1.0
290
     0
  0
SCALE
  5
24F
102
{ACAD_REACTORS
330
241
102
}
330
241
100
AcDbScale
 70
     0
300
4:1
140
4.0
141
1.0
290
     0
  0
SCALE
  5
250
102
{ACAD_REACTORS
330
241
102
}
330
241
100
AcDbScale
 70
     0
300
8:1
140
8.0
141
1.0
290
     0
  0
SCALE
  5
251
102
{ACAD_REACTORS
330
241
102
}
330
241
100
AcDbScale
 70
     0
300
10:1
140
10.0
141
1.0
290
     0
  0
SCALE
  5
252
102
{ACAD_REACTORS
330
241
102
}
330
241
100
AcDbScale
 70
     0
300
100:1
140
100.0
141
1.0
290
     0
  0
SCALE
  5
253
102
{ACAD_REACTORS
330
241
102
}
330
241
100
AcDbScale
 70
     0
300
1/128" = 1'-0"
140
0.0078125
141
12.0
290
     0
  0
SCALE
  5
254
102
{ACAD_REACTORS
330
241
102
}
330
241
100
AcDbScale
 70
     0
300
1/64" = 1'-0"
140
0.015625
141
12.0
290
     0
  0
SCALE
  5
255
102
{ACAD_REACTORS
330
241
102
}
330
241
100
AcDbScale
 70
     0
300
1/32" = 1'-0"
140
0.03125
141
12.0
290
     0
  0
SCALE
  5
256
102
{ACAD_REACTORS
330
241
102
}
330
241
100
AcDbScale
 70
     0
300
1/16" = 1'-0"
140
0.0625
141
12.0
290
     0
  0
SCALE
  5
257
102
{ACAD_REACTORS
330
241
102
}
330
241
100
AcDbScale
 70
     0
300
3/32" = 1'-0"
140
0.09375
141
12.0
290
     0
  0
SCALE
  5
258
102
{ACAD_REACTORS
330
241
102
}
330
241
100
AcDbScale
 70
     0
300
1/8" = 1'-0"
140
0.125
141
12.0
290
     0
  0
SCALE
  5
259
102
{ACAD_REACTORS
330
241
102
}
330
241
100
AcDbScale
 70
     0
300
3/16" = 1'-0"
140
0.1875
141
12.0
290
     0
  0
SCALE
  5
25A
102
{ACAD_REACTORS
330
241
102
}
330
241
100
AcDbScale
 70
     0
300
1/4" = 1'-0"
140
0.25
141
12.0
290
     0
  0
SCALE
  5
25B
102
{ACAD_REACTORS
330
241
102
}
330
241
100
AcDbScale
 70
     0
300
3/8" = 1'-0"
140
0.375
141
12.0
290
     0
  0
SCALE
  5
25C
102
{ACAD_REACTORS
330
241
102
}
330
241
100
AcDbScale
 70
     0
300
1/2" = 1'-0"
140
0.5
141
12.0
290
     0
  0
SCALE
  5
25D
102
{ACAD_REACTORS
330
241
102
}
330
241
100
AcDbScale
 70
     0
300
3/4" = 1'-0"
140
0.75
141
12.0
290
     0
  0
SCALE
  5
25E
102
{ACAD_REACTORS
330
241
102
}
330
241
100
AcDbScale
 70
     0
300
1" = 1'-0"
140
1.0
141
12.0
290
     0
  0
SCALE
  5
25F
102
{ACAD_REACTORS
330
241
102
}
330
241
100
AcDbScale
 70
     0
300
1-1/2" = 1'-0"
140
1.5
141
12.0
290
     0
  0
SCALE
  5
260
102
{ACAD_REACTORS
330
241
102
}
330
241
100
AcDbScale
 70
     0
300
3" = 1'-0"
140
3.0
141
12.0
290
     0
  0
SCALE
  5
261
102
{ACAD_REACTORS
330
241
102
}
330
241
100
AcDbScale
 70
     0
300
6" = 1'-0"
140
6.0
141
12.0
290
     0
  0
SCALE
  5
262
102
{ACAD_REACTORS
330
241
102
}
330
241
100
AcDbScale
 70
     0
300
1'-0" = 1'-0"
140
12.0
141
12.0
290
     0
  0
TABLESTYLE
  5
279
102
{ACAD_REACTORS
330
278
102
}
102
{ACAD_XDICTIONARY
360
9B47
102
}
330
278
100
AcDbTableStyle
  3
Standard
 70
     0
 71
     0
 40
0.06
 41
0.06
280
     0
281
     0
  7
Standard
140
4.5
170
     2
 62
     0
 63
   257
283
     0
 90
        4
 91
        0
  1

274
    -2
284
     1
 64
     0
275
    -2
285
     1
 65
     0
276
    -2
286
     1
 66
     0
277
    -2
287
     1
 67
     0
278
    -2
288
     1
 68
     0
279
    -2
289
     1
 69
     0
  7
Standard
140
6.0
170
     5
 62
     0
 63
   257
283
     0
 90
        4
 91
        0
  1

274
    -2
284
     1
 64
     0
275
    -2
285
     1
 65
     0
276
    -2
286
     1
 66
     0
277
    -2
287
     1
 67
     0
278
    -2
288
     1
 68
     0
279
    -2
289
     1
 69
     0
  7
Standard
140
4.5
170
     5
 62
     0
 63
   257
283
     0
 90
        4
 91
        0
  1

274
    -2
284
     1
 64
     0
275
    -2
285
     1
 65
     0
276
    -2
286
     1
 66
     0
277
    -2
287
     1
 67
     0
278
    -2
288
     1
 68
     0
279
    -2
289
     1
 69
     0
  0
VISUALSTYLE
  5
26C
102
{ACAD_REACTORS
330
267
102
}
330
267
100
AcDbVisualStyle
  2
2dWireframe
 70
     4
 71
     0
 72
     2
 73
     0
 90
        0
 40
-0.6
 41
-30.0
 62
     5
 63
     7
421
 16777215
 74
     1
 91
        4
 64
     7
 65
   257
 75
     1
175
     1
 42
1.0
 92
        0
 66
   257
 43
1.0
 76
     1
 77
     6
 78
     2
 67
     7
 79
     5
170
     0
171
     0
290
     0
174
     0
 93
        1
 44
0.0
173
     0
291
     0
 45
0.0
  0
VISUALSTYLE
  5
26E
102
{ACAD_REACTORS
330
267
102
}
330
267
100
AcDbVisualStyle
  2
3D Hidden
 70
     6
 71
     1
 72
     2
 73
     2
 90
        0
 40
-0.6
 41
-30.0
 62
     5
 63
     7
421
 16777215
 74
     2
 91
        2
 64
     7
 65
   257
 75
     2
175
     1
 42
40.0
 92
        0
 66
   257
 43
1.0
 76
     1
 77
     6
 78
     2
 67
     7
 79
     3
170
     0
171
     0
290
     0
174
     0
 93
        1
 44
0.0
173
     0
291
     0
 45
0.0
  0
VISUALSTYLE
  5
26D
102
{ACAD_REACTORS
330
267
102
}
330
267
100
AcDbVisualStyle
  2
3dWireframe
 70
     5
 71
     0
 72
     2
 73
     0
 90
        0
 40
-0.6
 41
-30.0
 62
     5
 63
     7
421
 16777215
 74
     1
 91
        4
 64
     7
 65
   257
 75
     1
175
     1
 42
1.0
 92
        0
 66
   257
 43
1.0
 76
     1
 77
     6
 78
     2
 67
     7
 79
     5
170
     0
171
     0
290
     0
174
     0
 93
        1
 44
0.0
173
     0
291
     0
 45
0.0
  0
VISUALSTYLE
  5
26F
102
{ACAD_REACTORS
330
267
102
}
330
267
100
AcDbVisualStyle
  2
Basic
 70
     7
 71
     1
 72
     0
 73
     1
 90
        0
 40
-0.6
 41
-30.0
 62
     5
 63
     7
421
 16777215
 74
     0
 91
        4
 64
     7
 65
   257
 75
     1
175
     1
 42
1.0
 92
        8
 66
     7
 43
1.0
 76
     1
 77
     6
 78
     2
 67
     7
 79
     5
170
     0
171
     0
290
     0
174
     0
 93
        1
 44
0.0
173
     0
291
     1
 45
0.0
  0
VISUALSTYLE
  5
273
102
{ACAD_REACTORS
330
267
102
}
330
267
100
AcDbVisualStyle
  2
Brighten
 70
    12
 71
     2
 72
     2
 73
     0
 90
        0
 40
-0.6
 41
-30.0
 62
     5
 63
     7
421
 16777215
 74
     1
 91
        4
 64
     7
 65
   257
 75
     1
175
     1
 42
1.0
 92
        8
 66
     7
 43
1.0
 76
     1
 77
     6
 78
     2
 67
     7
 79
     5
170
     0
171
     0
290
     0
174
     0
 93
        1
 44
50.0
173
     0
291
     1
 45
0.0
  0
VISUALSTYLE
  5
277
102
{ACAD_REACTORS
330
267
102
}
330
267
100
AcDbVisualStyle
  2
ColorChange
 70
    16
 71
     2
 72
     2
 73
     3
 90
        0
 40
-0.6
 41
-30.0
 62
     5
 63
     8
421
  8421504
 74
     1
 91
        4
 64
     7
 65
   257
 75
     1
175
     1
 42
1.0
 92
        8
 66
     8
424
  8421504
 43
1.0
 76
     1
 77
     6
 78
     2
 67
     7
 79
     5
170
     0
171
     0
290
     0
174
     0
 93
        1
 44
0.0
173
     0
291
     1
 45
0.0
  0
VISUALSTYLE
  5
271
102
{ACAD_REACTORS
330
267
102
}
330
267
100
AcDbVisualStyle
  2
Conceptual
 70
     9
 71
     3
 72
     2
 73
     0
 90
        0
 40
-0.6
 41
-30.0
 62
     5
 63
     7
421
 16777215
 74
     2
 91
        2
 64
     7
 65
   257
 75
     1
175
     1
 42
40.0
 92
        8
 66
     7
 43
1.0
 76
     1
 77
     6
 78
     2
 67
     7
 79
     3
170
     0
171
     0
290
     0
174
     0
 93
        1
 44
0.0
173
     0
291
     0
 45
0.0
  0
VISUALSTYLE
  5
272
102
{ACAD_REACTORS
330
267
102
}
330
267
100
AcDbVisualStyle
  2
Dim
 70
    11
 71
     2
 72
     2
 73
     0
 90
        0
 40
-0.6
 41
-30.0
 62
     5
 63
     7
421
 16777215
 74
     1
 91
        4
 64
     7
 65
   257
 75
     1
175
     1
 42
1.0
 92
        8
 66
     7
 43
1.0
 76
     1
 77
     6
 78
     2
 67
     7
 79
     5
170
     0
171
     0
290
     0
174
     0
 93
        1
 44
-50.0
173
     0
291
     1
 45
0.0
  0
VISUALSTYLE
  5
BDE
102
{ACAD_REACTORS
330
267
102
}
330
267
100
AcDbVisualStyle
  2
EdgeColorOff
 70
    22
 71
     2
 72
     2
 73
     0
 90
        0
 40
0.6
 41
30.0
 62
     5
 63
     7
421
 16777215
 74
     1
 91
        4
 64
     7
 65
   257
 75
     1
175
     1
 42
1.0
 92
        8
 66
     7
 43
1.0
 76
     1
 77
     6
 78
     2
 67
     7
 79
     5
170
     0
171
     0
290
     0
174
     0
 93
        1
 44
0.0
173
     0
291
     1
 45
0.0
  0
VISUALSTYLE
  5
276
102
{ACAD_REACTORS
330
267
102
}
330
267
100
AcDbVisualStyle
  2
Facepattern
 70
    15
 71
     2
 72
     2
 73
     0
 90
        0
 40
-0.6
 41
-30.0
 62
     5
 63
     7
421
 16777215
 74
     1
 91
        4
 64
     7
 65
   257
 75
     1
175
     1
 42
1.0
 92
        8
 66
     7
 43
1.0
 76
     1
 77
     6
 78
     2
 67
     7
 79
     5
170
     0
171
     0
290
     0
174
     0
 93
        1
 44
0.0
173
     0
291
     1
 45
0.0
  0
VISUALSTYLE
  5
268
102
{ACAD_REACTORS
330
267
102
}
330
267
100
AcDbVisualStyle
  2
Flat
 70
     0
 71
     2
 72
     1
 73
     1
 90
        2
 40
-0.6
 41
30.0
 62
     5
 63
     7
421
 16777215
 74
     0
 91
        4
 64
     7
 65
   257
 75
     1
175
     1
 42
1.0
 92
        8
 66
     7
 43
1.0
 76
     1
 77
     6
 78
     2
 67
     7
 79
     5
170
     0
171
     0
290
     0
174
     0
 93
       13
 44
0.0
173
     0
291
     1
 45
0.0
  0
VISUALSTYLE
  5
269
102
{ACAD_REACTORS
330
267
102
}
330
267
100
AcDbVisualStyle
  2
FlatWithEdges
 70
     1
 71
     2
 72
     1
 73
     1
 90
        2
 40
-0.6
 41
30.0
 62
     5
 63
     7
421
 16777215
 74
     1
 91
        4
 64
     7
 65
   257
 75
     1
175
     1
 42
1.0
 92
        0
 66
   257
 43
1.0
 76
     1
 77
     6
 78
     2
 67
     7
 79
     5
170
     0
171
     0
290
     0
174
     0
 93
       13
 44
0.0
173
     0
291
     1
 45
0.0
  0
VISUALSTYLE
  5
26A
102
{ACAD_REACTORS
330
267
102
}
330
267
100
AcDbVisualStyle
  2
Gouraud
 70
     2
 71
     2
 72
     2
 73
     1
 90
        2
 40
-0.6
 41
30.0
 62
     5
 63
     7
421
 16777215
 74
     0
 91
        4
 64
     7
 65
   257
 75
     1
175
     1
 42
1.0
 92
        0
 66
     7
 43
1.0
 76
     1
 77
     6
 78
     2
 67
     7
 79
     5
170
     0
171
     0
290
     0
174
     0
 93
       13
 44
0.0
173
     0
291
     1
 45
0.0
  0
VISUALSTYLE
  5
26B
102
{ACAD_REACTORS
330
267
102
}
330
267
100
AcDbVisualStyle
  2
GouraudWithEdges
 70
     3
 71
     2
 72
     2
 73
     1
 90
        2
 40
-0.6
 41
30.0
 62
     5
 63
     7
421
 16777215
 74
     1
 91
        4
 64
     7
 65
   257
 75
     1
175
     1
 42
1.0
 92
        0
 66
   257
 43
1.0
 76
     1
 77
     6
 78
     2
 67
     7
 79
     5
170
     0
171
     0
290
     0
174
     0
 93
       13
 44
0.0
173
     0
291
     1
 45
0.0
  0
VISUALSTYLE
  5
BDB
102
{ACAD_REACTORS
330
267
102
}
330
267
100
AcDbVisualStyle
  2
Hidden
 70
     6
 71
     1
 72
     2
 73
     2
 90
        0
 40
0.6
 41
30.0
 62
     5
 63
     7
421
 16777215
 74
     2
 91
        2
 64
     7
 65
   257
 75
     2
175
     1
 42
40.0
 92
        0
 66
   257
 43
1.0
 76
     1
 77
     6
 78
     2
 67
     7
 79
     3
170
     0
171
     0
290
     0
174
     0
 93
        1
 44
0.0
173
     0
291
     0
 45
0.0
  0
VISUALSTYLE
  5
BDC
102
{ACAD_REACTORS
330
267
102
}
330
267
100
AcDbVisualStyle
  2
JitterOff
 70
    20
 71
     2
 72
     2
 73
     0
 90
        0
 40
0.6
 41
30.0
 62
     5
 63
     7
421
 16777215
 74
     1
 91
        4
 64
     7
 65
   257
 75
     1
175
     1
 42
1.0
 92
       10
 66
     7
 43
1.0
 76
     1
 77
     6
 78
     2
 67
     7
 79
     5
170
     0
171
     0
290
     0
174
     0
 93
        1
 44
0.0
173
     0
291
     1
 45
0.0
  0
VISUALSTYLE
  5
275
102
{ACAD_REACTORS
330
267
102
}
330
267
100
AcDbVisualStyle
  2
Linepattern
 70
    14
 71
     2
 72
     2
 73
     0
 90
        0
 40
-0.6
 41
-30.0
 62
     5
 63
     7
421
 16777215
 74
     1
 91
        4
 64
     7
 65
   257
 75
     7
175
     7
 42
1.0
 92
        8
 66
     7
 43
1.0
 76
     1
 77
     6
 78
     2
 67
     7
 79
     5
170
     0
171
     0
290
     0
174
     0
 93
        1
 44
0.0
173
     0
291
     1
 45
0.0
  0
VISUALSTYLE
  5
BDD
102
{ACAD_REACTORS
330
267
102
}
330
267
100
AcDbVisualStyle
  2
OverhangOff
 70
    21
 71
     2
 72
     2
 73
     0
 90
        0
 40
0.6
 41
30.0
 62
     5
 63
     7
421
 16777215
 74
     1
 91
        4
 64
     7
 65
   257
 75
     1
175
     1
 42
1.0
 92
        9
 66
     7
 43
1.0
 76
     1
 77
     6
 78
     2
 67
     7
 79
     5
170
     0
171
     0
290
     0
174
     0
 93
        1
 44
0.0
173
     0
291
     1
 45
0.0
  0
VISUALSTYLE
  5
270
102
{ACAD_REACTORS
330
267
102
}
330
267
100
AcDbVisualStyle
  2
Realistic
 70
     8
 71
     2
 72
     2
 73
     0
 90
        0
 40
-0.6
 41
-30.0
 62
     5
 63
     7
421
 16777215
 74
     1
 91
        0
 64
     7
 65
   257
 75
     1
175
     1
 42
1.0
 92
        8
 66
     8
424
  7895160
 43
1.0
 76
     1
 77
     6
 78
     2
 67
     7
 79
     5
170
     0
171
     0
290
     0
174
     0
 93
       13
 44
0.0
173
     0
291
     0
 45
0.0
  0
VISUALSTYLE
  5
BE3
102
{ACAD_REACTORS
330
267
102
}
330
267
100
AcDbVisualStyle
  2
Shaded
 70
    27
 71
     2
 72
     2
 73
     1
 90
        2
 40
0.6
 41
30.0
 62
     5
 63
     7
421
 16777215
 74
     0
 91
        4
 64
     7
 65
   257
 75
     1
175
     1
 42
1.0
 92
        8
 66
   257
 43
1.0
 76
     1
 77
     6
 78
     2
 67
     8
425
  7895160
 79
     3
170
     0
171
     0
290
     0
174
     0
 93
        5
 44
0.0
173
     0
291
     0
 45
0.0
  0
VISUALSTYLE
  5
BE2
102
{ACAD_REACTORS
330
267
102
}
330
267
100
AcDbVisualStyle
  2
Shaded with edges
 70
    26
 71
     2
 72
     2
 73
     1
 90
        2
 40
0.6
 41
30.0
 62
     5
 63
     7
421
 16777215
 74
     1
 91
       10
 64
     7
 65
   257
 75
     2
175
     1
 42
1.0
 92
        8
 66
   257
 43
1.0
 76
     1
 77
     6
 78
     2
 67
     7
 79
     3
170
     0
171
     0
290
     0
174
     0
 93
        5
 44
0.0
173
     0
291
     0
 45
0.0
  0
VISUALSTYLE
  5
BDF
102
{ACAD_REACTORS
330
267
102
}
330
267
100
AcDbVisualStyle
  2
Shades of Gray
 70
    23
 71
     2
 72
     2
 73
     3
 90
        0
 40
0.6
 41
30.0
 62
     5
 63
     7
421
 16777215
 74
     2
 91
        2
 64
     7
 65
     7
 75
     1
175
     1
 42
40.0
 92
        8
 66
     7
 43
1.0
 76
     1
 77
     6
 78
     2
 67
     7
 79
     3
170
     0
171
     0
290
     0
174
     0
 93
        1
 44
0.0
173
     0
291
     0
 45
0.0
  0
VISUALSTYLE
  5
BE0
102
{ACAD_REACTORS
330
267
102
}
330
267
100
AcDbVisualStyle
  2
Sketchy
 70
    24
 71
     1
 72
     2
 73
     2
 90
        0
 40
0.6
 41
30.0
 62
     5
 63
     7
421
 16777215
 74
     2
 91
        2
 64
     7
 65
     7
 75
     1
175
     1
 42
40.0
 92
       11
 66
     7
 43
1.0
 76
     1
 77
     6
 78
     2
 67
     7
 79
     6
170
     0
171
     0
290
     0
174
     0
 93
        1
 44
0.0
173
     0
291
     0
 45
0.0
  0
VISUALSTYLE
  5
274
102
{ACAD_REACTORS
330
267
102
}
330
267
100
AcDbVisualStyle
  2
Thicken
 70
    13
 71
     2
 72
     2
 73
     0
 90
        0
 40
-0.6
 41
-30.0
 62
     5
 63
     7
421
 16777215
 74
     1
 91
        4
 64
     7
 65
   257
 75
     1
175
     1
 42
1.0
 92
       12
 66
     7
 43
1.0
 76
     1
 77
     6
 78
     2
 67
     7
 79
     5
170
     0
171
     0
290
     0
174
     0
 93
        1
 44
0.0
173
     0
291
     1
 45
0.0
  0
VISUALSTYLE
  5
BDA
102
{ACAD_REACTORS
330
267
102
}
330
267
100
AcDbVisualStyle
  2
Wireframe
 70
     5
 71
     0
 72
     2
 73
     0
 90
        0
 40
0.6
 41
30.0
 62
     5
 63
     7
421
 16777215
 74
     1
 91
        4
 64
     7
 65
   257
 75
     1
175
     1
 42
1.0
 92
        0
 66
   257
 43
1.0
 76
     1
 77
     6
 78
     2
 67
     7
 79
     3
170
     0
171
     0
290
     0
174
     0
 93
        1
 44
0.0
173
     0
291
     0
 45
0.0
  0
VISUALSTYLE
  5
BE1
102
{ACAD_REACTORS
330
267
102
}
330
267
100
AcDbVisualStyle
  2
X-Ray
 70
    25
 71
     2
 72
     2
 73
     1
 90
        1
 40
0.5
 41
30.0
 62
     5
 63
     7
421
 16777215
 74
     1
 91
        0
 64
     7
 65
   257
 75
     1
175
     1
 42
1.0
 92
        8
 66
     7
 43
1.0
 76
     1
 77
     6
 78
     2
 67
     7
 79
     3
170
     0
171
     0
290
     0
174
     0
 93
       13
 44
0.0
173
     0
291
     0
 45
0.0
  0
DICTIONARYVAR
  5
331
102
{ACAD_REACTORS
330
330
102
}
330
330
100
DictionaryVariables
280
     0
  1
1:1
  0
DICTIONARYVAR
  5
991A
102
{ACAD_REACTORS
330
330
102
}
330
330
100
DictionaryVariables
280
     0
  1
Standard
  0
DICTIONARYVAR
  5
335
102
{ACAD_REACTORS
330
330
102
}
330
330
100
DictionaryVariables
280
     0
  1
Standard
  0
DICTIONARYVAR
  5
C00
102
{ACAD_REACTORS
330
330
102
}
330
330
100
DictionaryVariables
280
     0
  1
ByLayer
  0
DICTIONARYVAR
  5
64A
102
{ACAD_REACTORS
330
330
102
}
330
330
100
DictionaryVariables
280
     0
  1
0
  0
DICTIONARY
  5
9B47
330
279
100
AcDbDictionary
280
     1
281
     1
  3
ACAD_ROUNDTRIP_2008_TABLESTYLE_CELLSTYLEMAP
360
9B48
  0
CELLSTYLEMAP
  5
9B48
102
{ACAD_REACTORS
330
9B47
102
}
330
9B47
100
AcDbCellStyleMap
 90
        3
300
CELLSTYLE
  1
TABLEFORMAT_BEGIN
 90
        5
170
     1
 91
        0
 92
    32768
 62
   257
 93
        1
300
CONTENTFORMAT
  1
CONTENTFORMAT_BEGIN
 90
        0
 91
        0
 92
        4
 93
        0
300

 40
0.0
140
1.0
 94
        5
 62
     0
340
17
144
6.0
309
CONTENTFORMAT_END
171
     1
301
MARGIN
  1
CELLMARGIN_BEGIN
 40
0.06
 40
0.06
 40
0.06
 40
0.06
 40
0.18
 40
0.18
309
CELLMARGIN_END
 94
        6
 95
        1
302
GRIDFORMAT
  1
GRIDFORMAT_BEGIN
 90
        0
 91
        1
 62
     0
 92
       -2
340
0
 93
        0
 40
0.045
309
GRIDFORMAT_END
 95
        2
302
GRIDFORMAT
  1
GRIDFORMAT_BEGIN
 90
        0
 91
        1
 62
     0
 92
       -2
340
0
 93
        0
 40
0.045
309
GRIDFORMAT_END
 95
        4
302
GRIDFORMAT
  1
GRIDFORMAT_BEGIN
 90
        0
 91
        1
 62
     0
 92
       -2
340
0
 93
        0
 40
0.045
309
GRIDFORMAT_END
 95
        8
302
GRIDFORMAT
  1
GRIDFORMAT_BEGIN
 90
        0
 91
        1
 62
     0
 92
       -2
340
0
 93
        0
 40
0.045
309
GRIDFORMAT_END
 95
       16
302
GRIDFORMAT
  1
GRIDFORMAT_BEGIN
 90
        0
 91
        1
 62
     0
 92
       -2
340
0
 93
        0
 40
0.045
309
GRIDFORMAT_END
 95
       32
302
GRIDFORMAT
  1
GRIDFORMAT_BEGIN
 90
        0
 91
        1
 62
     0
 92
       -2
340
0
 93
        0
 40
0.045
309
GRIDFORMAT_END
309
TABLEFORMAT_END
  1
CELLSTYLE_BEGIN
 90
        1
 91
        1
300
_TITLE
309
CELLSTYLE_END
300
CELLSTYLE
  1
TABLEFORMAT_BEGIN
 90
        5
170
     1
 91
        0
 92
        0
 62
   257
 93
        1
300
CONTENTFORMAT
  1
CONTENTFORMAT_BEGIN
 90
        0
 91
        0
 92
        4
 93
        0
300

 40
0.0
140
1.0
 94
        5
 62
     0
340
17
144
4.5
309
CONTENTFORMAT_END
171
     1
301
MARGIN
  1
CELLMARGIN_BEGIN
 40
0.06
 40
0.06
 40
0.06
 40
0.06
 40
0.18
 40
0.18
309
CELLMARGIN_END
 94
        6
 95
        1
302
GRIDFORMAT
  1
GRIDFORMAT_BEGIN
 90
        0
 91
        1
 62
     0
 92
       -2
340
0
 93
        0
 40
0.045
309
GRIDFORMAT_END
 95
        2
302
GRIDFORMAT
  1
GRIDFORMAT_BEGIN
 90
        0
 91
        1
 62
     0
 92
       -2
340
0
 93
        0
 40
0.045
309
GRIDFORMAT_END
 95
        4
302
GRIDFORMAT
  1
GRIDFORMAT_BEGIN
 90
        0
 91
        1
 62
     0
 92
       -2
340
0
 93
        0
 40
0.045
309
GRIDFORMAT_END
 95
        8
302
GRIDFORMAT
  1
GRIDFORMAT_BEGIN
 90
        0
 91
        1
 62
     0
 92
       -2
340
0
 93
        0
 40
0.045
309
GRIDFORMAT_END
 95
       16
302
GRIDFORMAT
  1
GRIDFORMAT_BEGIN
 90
        0
 91
        1
 62
     0
 92
       -2
340
0
 93
        0
 40
0.045
309
GRIDFORMAT_END
 95
       32
302
GRIDFORMAT
  1
GRIDFORMAT_BEGIN
 90
        0
 91
        1
 62
     0
 92
       -2
340
0
 93
        0
 40
0.045
309
GRIDFORMAT_END
309
TABLEFORMAT_END
  1
CELLSTYLE_BEGIN
 90
        2
 91
        1
300
_HEADER
309
CELLSTYLE_END
300
CELLSTYLE
  1
TABLEFORMAT_BEGIN
 90
        5
170
     1
 91
        0
 92
        0
 62
   257
 93
        1
300
CONTENTFORMAT
  1
CONTENTFORMAT_BEGIN
 90
        0
 91
        0
 92
        4
 93
        0
300

 40
0.0
140
1.0
 94
        2
 62
     0
340
17
144
4.5
309
CONTENTFORMAT_END
171
     1
301
MARGIN
  1
CELLMARGIN_BEGIN
 40
0.06
 40
0.06
 40
0.06
 40
0.06
 40
0.18
 40
0.18
309
CELLMARGIN_END
 94
        6
 95
        1
302
GRIDFORMAT
  1
GRIDFORMAT_BEGIN
 90
        0
 91
        1
 62
     0
 92
       -2
340
0
 93
        0
 40
0.045
309
GRIDFORMAT_END
 95
        2
302
GRIDFORMAT
  1
GRIDFORMAT_BEGIN
 90
        0
 91
        1
 62
     0
 92
       -2
340
0
 93
        0
 40
0.045
309
GRIDFORMAT_END
 95
        4
302
GRIDFORMAT
  1
GRIDFORMAT_BEGIN
 90
        0
 91
        1
 62
     0
 92
       -2
340
0
 93
        0
 40
0.045
309
GRIDFORMAT_END
 95
        8
302
GRIDFORMAT
  1
GRIDFORMAT_BEGIN
 90
        0
 91
        1
 62
     0
 92
       -2
340
0
 93
        0
 40
0.045
309
GRIDFORMAT_END
 95
       16
302
GRIDFORMAT
  1
GRIDFORMAT_BEGIN
 90
        0
 91
        1
 62
     0
 92
       -2
340
0
 93
        0
 40
0.045
309
GRIDFORMAT_END
 95
       32
302
GRIDFORMAT
  1
GRIDFORMAT_BEGIN
 90
        0
 91
        1
 62
     0
 92
       -2
340
0
 93
        0
 40
0.045
309
GRIDFORMAT_END
309
TABLEFORMAT_END
  1
CELLSTYLE_BEGIN
 90
        3
 91
        2
300
_DATA
309
CELLSTYLE_END
  0
ENDSEC
  0
EOF
