  0
SECTION
  2
HEADER
  9
$ACADVER
  1
AC1021
  9
$ACADMAINTVER
 70
    25
  9
$DWGCODEPAGE
  3
ANSI_932
  9
$LASTSAVEDBY
  1
howeNelson
  9
$INSBASE
 10
0.0
 20
0.0
 30
0.0
  9
$EXTMIN
 10
0.0
 20
0.0
 30
0.0
  9
$EXTMAX
 10
2100.0
 20
2970.0
 30
0.0
  9
$LIMMIN
 10
0.0
 20
0.0
  9
$LIMMAX
 10
2100.0
 20
2970.0
  9
$ORTHOMODE
 70
     0
  9
$REGENMODE
 70
     1
  9
$FILLMODE
 70
     1
  9
$QTEXTMODE
 70
     0
  9
$MIRRTEXT
 70
     1
  9
$LTSCALE
 40
5.0
  9
$ATTMODE
 70
     1
  9
$TEXTSIZE
 40
533.0403732820173
  9
$TRACEWID
 40
1.0
  9
$TEXTSTYLE
  7
Standard
  9
$CLAYER
  8
Dim
  9
$CELTYPE
  6
Continuous
  9
$CECOLOR
 62
   256
  9
$CELTSCALE
 40
1.0
  9
$DISPSILH
 70
     0
  9
$DIMSCALE
 40
1.0
  9
$DIMASZ
 40
9.0
  9
$DIMEXO
 40
25.0
  9
$DIMDLI
 40
25.0
  9
$DIMRND
 40
0.0
  9
$DIMDLE
 40
0.0
  9
$DIMEXE
 40
0.0
  9
$DIMTP
 40
0.0
  9
$DIMTM
 40
0.0
  9
$DIMTXT
 40
24.4326171875
  9
$DIMCEN
 40
0.0
  9
$DIMTSZ
 40
0.0
  9
$DIMTOL
 70
     0
  9
$DIMLIM
 70
     0
  9
$DIMTIH
 70
     0
  9
$DIMTOH
 70
     0
  9
$DIMSE1
 70
     0
  9
$DIMSE2
 70
     0
  9
$DIMTAD
 70
     1
  9
$DIMZIN
 70
    11
  9
$DIMBLK
  1
DOT
  9
$DIMASO
 70
     1
  9
$DIMSHO
 70
     1
  9
$DIMPOST
  1
<>
  9
$DIMAPOST
  1
[]
  9
$DIMALT
 70
     0
  9
$DIMALTD
 70
     1
  9
$DIMALTF
 40
1.0
  9
$DIMLFAC
 40
1.0
  9
$DIMTOFL
 70
     0
  9
$DIMTVP
 40
0.0
  9
$DIMTIX
 70
     1
  9
$DIMSOXD
 70
     0
  9
$DIMSAH
 70
     0
  9
$DIMBLK1
  1

  9
$DIMBLK2
  1

  9
$DIMSTYLE
  2
JIS
  9
$DIMCLRD
 70
     0
  9
$DIMCLRE
 70
     0
  9
$DIMCLRT
 70
     0
  9
$DIMTFAC
 40
1.0
  9
$DIMGAP
 40
10.0
  9
$DIMJUST
 70
     0
  9
$DIMSD1
 70
     0
  9
$DIMSD2
 70
     0
  9
$DIMTOLJ
 70
     1
  9
$DIMTZIN
 70
    11
  9
$DIMALTZ
 70
    11
  9
$DIMALTTZ
 70
    11
  9
$DIMUPT
 70
     0
  9
$DIMDEC
 70
     0
  9
$DIMTDEC
 70
     1
  9
$DIMALTU
 70
     2
  9
$DIMALTTD
 70
     2
  9
$DIMTXSTY
  7
ＭＳ ゴシック
  9
$DIMAUNIT
 70
     0
  9
$DIMADEC
 70
     0
  9
$DIMALTRND
 40
0.0
  9
$DIMAZIN
 70
     0
  9
$DIMDSEP
 70
    46
  9
$DIMATFIT
 70
     0
  9
$DIMFRAC
 70
     2
  9
$DIMLDRBLK
  1
DOT
  9
$DIMLUNIT
 70
     2
  9
$DIMLWD
 70
    -2
  9
$DIMLWE
 70
    -2
  9
$DIMTMOVE
 70
     0
  9
$DIMFXL
 40
1.0
  9
$DIMFXLON
 70
     0
  9
$DIMJOGANG
 40
0.7853981633974483
  9
$DIMTFILL
 70
     0
  9
$DIMTFILLCLR
 70
     0
  9
$DIMARCSYM
 70
     0
  9
$DIMLTYPE
  6

  9
$DIMLTEX1
  6

  9
$DIMLTEX2
  6

  9
$LUNITS
 70
     2
  9
$LUPREC
 70
     0
  9
$SKETCHINC
 40
0.1
  9
$FILLETRAD
 40
0.0
  9
$AUNITS
 70
     0
  9
$AUPREC
 70
     0
  9
$MENU
  1
acad
  9
$ELEVATION
 40
0.0
  9
$PELEVATION
 40
0.0
  9
$THICKNESS
 40
0.0
  9
$LIMCHECK
 70
     0
  9
$CHAMFERA
 40
0.0
  9
$CHAMFERB
 40
0.0
  9
$CHAMFERC
 40
0.0
  9
$CHAMFERD
 40
0.0
  9
$SKPOLY
 70
     0
  9
$TDCREATE
 40
2447893.375
  9
$TDUCREATE
 40
0.0
  9
$TDUPDATE
 40
2457689.628254641
  9
$TDUUPDATE
 40
2457689.253254641
  9
$TDINDWG
 40
0.4456797917
  9
$TDUSRTIMER
 40
2457689.234545278
  9
$USRTIMER
 70
     1
  9
$ANGBASE
 50
0.0
  9
$ANGDIR
 70
     0
  9
$PDMODE
 70
     1
  9
$PDSIZE
 40
-2.0
  9
$PLINEWID
 40
0.0
  9
$SPLFRAME
 70
     0
  9
$SPLINETYPE
 70
     6
  9
$SPLINESEGS
 70
     8
  9
$HANDSEED
  5
2562
  9
$SURFTAB1
 70
     6
  9
$SURFTAB2
 70
     6
  9
$SURFTYPE
 70
     6
  9
$SURFU
 70
     6
  9
$SURFV
 70
     6
  9
$UCSBASE
  2

  9
$UCSNAME
  2

  9
$UCSORG
 10
0.0
 20
0.0
 30
0.0
  9
$UCSXDIR
 10
1.0
 20
0.0
 30
0.0
  9
$UCSYDIR
 10
0.0
 20
1.0
 30
0.0
  9
$UCSORTHOREF
  2

  9
$UCSORTHOVIEW
 70
     0
  9
$UCSORGTOP
 10
0.0
 20
0.0
 30
0.0
  9
$UCSORGBOTTOM
 10
0.0
 20
0.0
 30
0.0
  9
$UCSORGLEFT
 10
0.0
 20
0.0
 30
0.0
  9
$UCSORGRIGHT
 10
0.0
 20
0.0
 30
0.0
  9
$UCSORGFRONT
 10
0.0
 20
0.0
 30
0.0
  9
$UCSORGBACK
 10
0.0
 20
0.0
 30
0.0
  9
$PUCSBASE
  2

  9
$PUCSNAME
  2

  9
$PUCSORG
 10
0.0
 20
0.0
 30
0.0
  9
$PUCSXDIR
 10
1.0
 20
0.0
 30
0.0
  9
$PUCSYDIR
 10
0.0
 20
1.0
 30
0.0
  9
$PUCSORTHOREF
  2

  9
$PUCSORTHOVIEW
 70
     0
  9
$PUCSORGTOP
 10
0.0
 20
0.0
 30
0.0
  9
$PUCSORGBOTTOM
 10
0.0
 20
0.0
 30
0.0
  9
$PUCSORGLEFT
 10
0.0
 20
0.0
 30
0.0
  9
$PUCSORGRIGHT
 10
0.0
 20
0.0
 30
0.0
  9
$PUCSORGFRONT
 10
0.0
 20
0.0
 30
0.0
  9
$PUCSORGBACK
 10
0.0
 20
0.0
 30
0.0
  9
$USERI1
 70
     0
  9
$USERI2
 70
     0
  9
$USERI3
 70
     0
  9
$USERI4
 70
     0
  9
$USERI5
 70
     0
  9
$USERR1
 40
0.0
  9
$USERR2
 40
0.0
  9
$USERR3
 40
0.0
  9
$USERR4
 40
0.0
  9
$USERR5
 40
0.0
  9
$WORLDVIEW
 70
     1
  9
$SHADEDGE
 70
     3
  9
$SHADEDIF
 70
    70
  9
$TILEMODE
 70
     1
  9
$MAXACTVP
 70
    64
  9
$PINSBASE
 10
0.0
 20
0.0
 30
0.0
  9
$PLIMCHECK
 70
     0
  9
$PEXTMIN
 10
0.0
 20
0.0
 30
0.0
  9
$PEXTMAX
 10
0.0
 20
0.0
 30
0.0
  9
$PLIMMIN
 10
-95.87226993865028
 20
-25.69999999999999
  9
$PLIMMAX
 10
201.1277300613497
 20
184.3
  9
$UNITMODE
 70
     0
  9
$VISRETAIN
 70
     0
  9
$PLINEGEN
 70
     1
  9
$PSLTSCALE
 70
     0
  9
$TREEDEPTH
 70
  3020
  9
$CMLSTYLE
  2
Standard
  9
$CMLJUST
 70
     0
  9
$CMLSCALE
 40
1.0
  9
$PROXYGRAPHICS
 70
     0
  9
$MEASUREMENT
 70
     1
  9
$CELWEIGHT
370
    -1
  9
$ENDCAPS
280
     0
  9
$JOINSTYLE
280
     0
  9
$LWDISPLAY
290
     1
  9
$INSUNITS
 70
     4
  9
$HYPERLINKBASE
  1

  9
$STYLESHEET
  1

  9
$XEDIT
290
     1
  9
$CEPSNTYPE
380
     0
  9
$PSTYLEMODE
290
     1
  9
$FINGERPRINTGUID
  2

  9
$VERSIONGUID
  2

  9
$EXTNAMES
290
     1
  9
$PSVPSCALE
 40
0.0
  9
$OLESTARTUP
290
     0
  9
$SORTENTS
280
   127
  9
$INDEXCTL
280
     0
  9
$HIDETEXT
280
     1
  9
$XCLIPFRAME
290
     0
  9
$HALOGAP
280
     0
  9
$OBSCOLOR
 70
   257
  9
$OBSLTYPE
280
     0
  9
$INTERSECTIONDISPLAY
280
     0
  9
$INTERSECTIONCOLOR
 70
   257
  9
$DIMASSOC
280
     2
  9
$PROJECTNAME
  1

  9
$CAMERADISPLAY
290
     0
  9
$LENSLENGTH
 40
50.0
  9
$CAMERAHEIGHT
 40
0.0
  9
$STEPSPERSEC
 40
2.0
  9
$STEPSIZE
 40
6.0
  9
$3DDWFPREC
 40
2.0
  9
$PSOLWIDTH
 40
0.25
  9
$PSOLHEIGHT
 40
4.0
  9
$LOFTANG1
 40
1.570796326794897
  9
$LOFTANG2
 40
1.570796326794897
  9
$LOFTMAG1
 40
0.0
  9
$LOFTMAG2
 40
0.0
  9
$LOFTPARAM
 70
     7
  9
$LOFTNORMALS
280
     1
  9
$LATITUDE
 40
37.795
  9
$LONGITUDE
 40
-122.394
  9
$NORTHDIRECTION
 40
0.0
  9
$TIMEZONE
 70
 -8000
  9
$LIGHTGLYPHDISPLAY
280
     1
  9
$TILEMODELIGHTSYNCH
280
     1
  9
$SOLIDHIST
280
     1
  9
$SHOWHIST
280
     1
  9
$DWFFRAME
280
     2
  9
$DGNFRAME
280
     2
  9
$REALWORLDSCALE
290
     1
  9
$INTERFERECOLOR
 62
   256
  9
$CSHADOW
280
     0
  9
$SHADOWPLANELOCATION
 40
0.0
  0
ENDSEC
  0
SECTION
  2
CLASSES
  0
CLASS
  1
LWPOLYLINE
  2
AcDbPolyline
  3
ObjectDBX Classes
 90
        0
 91
        1
280
     0
281
     1
  0
CLASS
  1
IMAGE
  2
AcDbRasterImage
  3
ISM
 90
      127
 91
        5
280
     0
281
     1
  0
CLASS
  1
OLE2FRAME
  2
AcDbOle2Frame
  3
ObjectDBX Classes
 90
        0
 91
        1
280
     0
281
     1
  0
CLASS
  1
HATCH
  2
AcDbHatch
  3
ObjectDBX Classes
 90
        0
 91
        1
280
     0
281
     1
  0
CLASS
  1
DICTIONARYVAR
  2
AcDbDictionaryVar
  3
ObjectDBX Classes
 90
        0
 91
        4
280
     0
281
     0
  0
CLASS
  1
RASTERVARIABLES
  2
AcDbRasterVariables
  3
ISM
 90
        0
 91
        4
280
     0
281
     0
  0
CLASS
  1
IMAGEDEF
  2
AcDbRasterImageDef
  3
ISM
 90
        0
 91
        4
280
     0
281
     0
  0
CLASS
  1
IMAGEDEF_REACTOR
  2
AcDbRasterImageDefReactor
  3
ISM
 90
        1
 91
        4
280
     0
281
     0
  0
CLASS
  1
IDBUFFER
  2
AcDbIdBuffer
  3
ObjectDBX Classes
 90
        0
 91
        4
280
     0
281
     0
  0
CLASS
  1
SPATIAL_FILTER
  2
AcDbSpatialFilter
  3
ObjectDBX Classes
 90
        0
 91
        4
280
     0
281
     0
  0
CLASS
  1
XRECORD
  2
AcDbXrecord
  3
ObjectDBX Classes
 90
        0
 91
        1
280
     0
281
     0
  0
CLASS
  1
SORTENTSTABLE
  2
AcDbSortentsTable
  3
ObjectDBX Classes
 90
        0
 91
        4
280
     0
281
     0
  0
CLASS
  1
LAYER_INDEX
  2
AcDbLayerIndex
  3
ObjectDBX Classes
 90
        0
 91
        4
280
     0
281
     0
  0
CLASS
  1
SPATIAL_INDEX
  2
AcDbSpatialIndex
  3
AutoCAD 2000
 90
        0
 91
        4
280
     0
281
     0
  0
CLASS
  1
OBJECT_PTR
  2
CAseDLPNTableRecord
  3
ASE-LPNTableRecord
 90
        1
 91
        4
280
     0
281
     0
  0
CLASS
  1
LAYOUT
  2
AcDbLayout
  3
ObjectDBX Classes
 90
        0
 91
        1
280
     0
281
     0
  0
CLASS
  1
PLOTSETTINGS
  2
AcDbPlotSettings
  3
ObjectDBX Classes
 90
        0
 91
        4
280
     0
281
     0
  0
CLASS
  1
ACDBDICTIONARYWDFLT
  2
AcDbDictionaryWithDefault
  3
ObjectDBX Classes
 90
        0
 91
        4
280
     0
281
     0
  0
CLASS
  1
ACDBPLACEHOLDER
  2
AcDbPlaceHolder
  3
ObjectDBX Classes
 90
        0
 91
        1
280
     0
281
     0
  0
CLASS
  1
SCALE
  2
AcDbScale
  3
ObjectDBX Classes
 90
     1153
 91
        4
280
     0
281
     0
  0
CLASS
  1
MATERIAL
  2
AcDbMaterial
  3
ObjectDBX Classes
 90
     1153
 91
        4
280
     0
281
     0
  0
CLASS
  1
VISUALSTYLE
  2
AcDbVisualStyle
  3
ObjectDBX Classes
 90
     4095
 91
        4
280
     0
281
     0
  0
CLASS
  1
TABLESTYLE
  2
AcDbTableStyle
  3
ObjectDBX Classes
 90
     4095
 91
        4
280
     0
281
     0
  0
CLASS
  1
DIMASSOC
  2
AcDbDimAssoc
  3
"AcDbDimAssoc|Product Desc:     AcDim ARX App For Dimension|Company:          Autodesk, Inc.|WEB Address:      www.autodesk.com"
 90
        0
 91
        4
280
     0
281
     0
  0
CLASS
  1
CELLSTYLEMAP
  2
AcDbCellStyleMap
  3
ObjectDBX Classes
 90
     1152
 91
        4
280
     0
281
     0
  0
CLASS
  1
SUN
  2
AcDbSun
  3
SCENEOE
 90
     1153
 91
        4
280
     0
281
     0
  0
CLASS
  1
MLEADERSTYLE
  2
AcDbMLeaderStyle
  3
ACDB_MLEADERSTYLE_CLASS
 90
     4095
 91
        4
280
     0
281
     0
  0
CLASS
  1
FIELD
  2
AcDbField
  3
ObjectDBX Classes
 90
     1152
 91
        4
280
     0
281
     0
  0
CLASS
  1
FIELDLIST
  2
AcDbFieldList
  3
ObjectDBX Classes
 90
     1152
 91
        4
280
     0
281
     0
  0
ENDSEC
  0
SECTION
  2
TABLES
  0
TABLE
  2
VPORT
  5
7
330
0
100
AcDbSymbolTable
 70
     1
  0
VPORT
  5
15
330
7
100
AcDbSymbolTableRecord
100
AcDbViewportTableRecord
  2
*ACTIVE
 70
     0
 10
0.0
 20
0.0
 11
1.0
 21
1.0
 12
672.9525617540357
 22
1782.612370234513
 13
0.0
 23
0.0
 14
1.0
 24
1.0
 15
0.0
 25
0.0
 16
0.0
 26
0.0
 36
1.0
 17
377.0474382459643
 27
-297.6123702345135
 37
0.0
 40
3029.4
 41
2.255405405405405
 42
50.0
 43
0.0
 44
0.0
 50
0.0
 51
0.0
 71
    16
 72
  2000
 73
     1
 74
     1
 75
     0
 76
     0
 77
     0
 78
     0
281
     0
 65
     1
110
0.0
120
0.0
130
0.0
111
1.0
121
0.0
131
0.0
112
0.0
122
1.0
132
0.0
 79
     0
146
0.0
348
26C
 60
     3
 61
     5
292
     1
282
     1
141
0.0
142
0.0
 63
   256
361
8C2
  0
ENDTAB
  0
TABLE
  2
LTYPE
  5
4
330
0
100
AcDbSymbolTable
 70
     8
  0
LTYPE
  5
11
330
4
100
AcDbSymbolTableRecord
100
AcDbLinetypeTableRecord
  2
ByBlock
 70
     0
  3

 72
    65
 73
     0
 40
0.0
  0
LTYPE
  5
12
330
4
100
AcDbSymbolTableRecord
100
AcDbLinetypeTableRecord
  2
ByLayer
 70
     0
  3

 72
    65
 73
     0
 40
0.0
  0
LTYPE
  5
13
330
4
100
AcDbSymbolTableRecord
100
AcDbLinetypeTableRecord
  2
Continuous
 70
     0
  3
Solid line
 72
    65
 73
     0
 40
0.0
  0
LTYPE
  5
8D4
330
4
100
AcDbSymbolTableRecord
100
AcDbLinetypeTableRecord
  2
HIDDEN
 70
     0
  3
Hidden _ _ _ _ _ _ _ _ _ _ _ _ _ _ _ _ _ _ _ _ 
 72
    65
 73
     2
 40
9.524999999999999
 49
6.35
 74
     0
 49
-3.175
 74
     0
  0
LTYPE
  5
BF2
330
4
100
AcDbSymbolTableRecord
100
AcDbLinetypeTableRecord
  2
BORDER
 70
     0
  3
Border __  __  . __  __  . __  __  . __  __  . 
 72
    65
 73
     6
 40
44.45
 49
12.7
 74
     0
 49
-6.35
 74
     0
 49
12.7
 74
     0
 49
-6.35
 74
     0
 49
0.0
 74
     0
 49
-6.35
 74
     0
  0
LTYPE
  5
1AFE
330
4
100
AcDbSymbolTableRecord
100
AcDbLinetypeTableRecord
  2
ACDINTGL
 70
     0
  3
_ _ _ _ _
 72
    65
 73
     2
 40
3.0
 49
2.0
 74
     0
 49
-1.0
 74
     0
  0
LTYPE
  5
1AFF
330
4
100
AcDbSymbolTableRecord
100
AcDbLinetypeTableRecord
  2
STYLE_11
 70
     0
  3

 72
    65
 73
     4
 40
2.706692913385826
 49
1.919291338582677
 74
     0
 49
-0.2952755905511811
 74
     0
 49
0.1968503937007873
 74
     0
 49
-0.2952755905511808
 74
     0
  0
LTYPE
  5
1C71
330
4
100
AcDbSymbolTableRecord
100
AcDbLinetypeTableRecord
  2
AM_DIN_G_W050
 70
     0
  3
____ . ____ . ____ . ____ . ____ . ____ . ____
 72
    65
 73
     4
 40
13.75
 49
9.75
 74
     0
 49
-1.5
 74
     0
 49
1.0
 74
     0
 49
-1.5
 74
     0
  0
LTYPE
  5
1E84
330
4
100
AcDbSymbolTableRecord
100
AcDbLinetypeTableRecord
  2
AM_DIN_F_W050
 70
     0
  3
__ __ __ __ __ __ __ __ __ __ __ __ __ __ __
 72
    65
 73
     2
 40
6.25
 49
4.75
 74
     0
 49
-1.5
 74
     0
  0
LTYPE
  5
222E
330
4
100
AcDbSymbolTableRecord
100
AcDbLinetypeTableRecord
  2
CENTER
 70
     0
  3
 Center _____  _  _____  _  _____  _  _____  _ 
 72
    65
 73
     4
 40
50.8
 49
31.75
 74
     0
 49
-6.35
 74
     0
 49
6.35
 74
     0
 49
-6.35
 74
     0
  0
ENDTAB
  0
TABLE
  2
LAYER
  5
2
102
{ACAD_XDICTIONARY
360
2E1
102
}
330
0
100
AcDbSymbolTable
 70
     8
  0
LAYER
  5
14
330
2
100
AcDbSymbolTableRecord
100
AcDbLayerTableRecord
  2
0
 70
     0
 62
     7
  6
Continuous
370
    -3
390
1D
347
266
  0
LAYER
  5
4A
330
2
100
AcDbSymbolTableRecord
100
AcDbLayerTableRecord
  2
Defpoints
 70
     0
 62
     7
  6
Continuous
290
     0
370
    20
390
1D
347
266
  0
LAYER
  5
4B
330
2
100
AcDbSymbolTableRecord
100
AcDbLayerTableRecord
  2
template
 70
     0
 62
     7
  6
Continuous
370
    20
390
1D
347
266
  0
LAYER
  5
4D
330
2
100
AcDbSymbolTableRecord
100
AcDbLayerTableRecord
  2
MODEL
 70
     0
 62
     7
  6
Continuous
370
    20
390
1D
347
266
  0
LAYER
  5
382
330
2
100
AcDbSymbolTableRecord
100
AcDbLayerTableRecord
  2
レイヤー 1
 70
     0
 62
     7
  6
Continuous
370
    -3
390
1D
347
266
  0
LAYER
  5
5C4
330
2
100
AcDbSymbolTableRecord
100
AcDbLayerTableRecord
  2
HIDDEN
 70
     0
 62
   253
  6
HIDDEN
370
    20
390
1D
347
266
1001
AcAecLayerStandard
1000

1000

  0
LAYER
  5
5EB
330
2
100
AcDbSymbolTableRecord
100
AcDbLayerTableRecord
  2
Dim
 70
     0
 62
     3
  6
Continuous
370
    13
390
1D
347
266
1001
AcAecLayerStandard
1000

1000

  0
LAYER
  5
BF1
330
2
100
AcDbSymbolTableRecord
100
AcDbLayerTableRecord
  2
PRINT BORDER
 70
     0
 62
     4
  6
BORDER
290
     0
370
    20
390
1D
347
266
1001
AcAecLayerStandard
1000

1000

  0
ENDTAB
  0
TABLE
  2
STYLE
  5
3
330
0
100
AcDbSymbolTable
 70
     2
  0
STYLE
  5
17
330
3
100
AcDbSymbolTableRecord
100
AcDbTextStyleTableRecord
  2
Standard
 70
     0
 40
0.0
 41
1.0
 50
0.0
 71
     0
 42
533.0403732820173
  3
txt
  4
BIGFONT.SHX
  0
STYLE
  5
39
330
3
100
AcDbSymbolTableRecord
100
AcDbTextStyleTableRecord
  2
ＭＳ ゴシック
 70
     0
 40
0.0
 41
1.0
 50
0.0
 71
     0
 42
2.5
  3
msgothic.ttc
  4
ＭＳ ゴシック
1001
ACAD
1000
ＭＳ ゴシック
1071
        0
  0
ENDTAB
  0
TABLE
  2
VIEW
  5
5
330
0
100
AcDbSymbolTable
 70
     0
  0
ENDTAB
  0
TABLE
  2
UCS
  5
6
330
0
100
AcDbSymbolTable
 70
     0
  0
ENDTAB
  0
TABLE
  2
APPID
  5
8
330
0
100
AcDbSymbolTable
 70
    13
  0
APPID
  5
16
330
8
100
AcDbSymbolTableRecord
100
AcDbRegAppTableRecord
  2
ACAD
 70
     0
  0
APPID
  5
5C5
330
8
100
AcDbSymbolTableRecord
100
AcDbRegAppTableRecord
  2
AcAecLayerStandard
 70
     0
  0
APPID
  5
913
330
8
100
AcDbSymbolTableRecord
100
AcDbRegAppTableRecord
  2
ACAD_DSTYLE_DIMBREAK
 70
     0
  0
APPID
  5
914
330
8
100
AcDbSymbolTableRecord
100
AcDbRegAppTableRecord
  2
ACAD_DSTYLE_DIMJAG
 70
     0
  0
APPID
  5
915
330
8
100
AcDbSymbolTableRecord
100
AcDbRegAppTableRecord
  2
ACAD_DSTYLE_DIMTALN
 70
     0
  0
APPID
  5
E4F
330
8
100
AcDbSymbolTableRecord
100
AcDbRegAppTableRecord
  2
ACAD_MLEADERVER
 70
     0
  0
APPID
  5
E79
330
8
100
AcDbSymbolTableRecord
100
AcDbRegAppTableRecord
  2
ACAD_PSEXT
 70
     0
  0
APPID
  5
E7A
330
8
100
AcDbSymbolTableRecord
100
AcDbRegAppTableRecord
  2
ACAD_NAV_VCDISPLAY
 70
     0
  0
APPID
  5
166E
330
8
100
AcDbSymbolTableRecord
100
AcDbRegAppTableRecord
  2
AcadAnnotative
 70
     0
  0
APPID
  5
166F
330
8
100
AcDbSymbolTableRecord
100
AcDbRegAppTableRecord
  2
GradientColor1ACI
 70
     0
  0
APPID
  5
1670
330
8
100
AcDbSymbolTableRecord
100
AcDbRegAppTableRecord
  2
GradientColor2ACI
 70
     0
  0
APPID
  5
1B02
330
8
100
AcDbSymbolTableRecord
100
AcDbRegAppTableRecord
  2
GENIUS_GENODEF_13
 70
     0
  0
APPID
  5
1B03
330
8
100
AcDbSymbolTableRecord
100
AcDbRegAppTableRecord
  2
GENIUS_GENOBJ-N-FIL_13
 70
     0
  0
ENDTAB
  0
TABLE
  2
DIMSTYLE
  5
9
330
0
100
AcDbSymbolTable
 70
     3
100
AcDbDimStyleTable
  0
DIMSTYLE
105
18
330
9
100
AcDbSymbolTableRecord
100
AcDbDimStyleTableRecord
  2
Standard
 70
     0
178
     0
340
17
  0
DIMSTYLE
105
5C
102
{ACAD_REACTORS
330
1FEB
330
1FFA
330
2055
330
20BD
330
20FA
330
210F
330
214B
330
215A
330
219B
330
2487
330
2488
330
2489
330
248A
330
248B
330
248E
330
253D
330
254C
102
}
330
9
100
AcDbSymbolTableRecord
100
AcDbDimStyleTableRecord
  2
JIS
 70
     0
  3
<>
  4
[]
 41
9.0
 42
0.0
 43
6.99999999999994
 44
19.9999999999962
 73
     0
 74
     0
 77
     1
 78
    11
140
24.4326171875
141
0.0
143
1.0
147
10.0
171
     1
174
     1
178
     0
179
     2
271
     1
272
     1
276
     2
284
    11
285
    11
286
    11
289
     0
340
39
341
4E
342
4E
  0
DIMSTYLE
105
1B00
330
9
100
AcDbSymbolTableRecord
100
AcDbDimStyleTableRecord
  2
AM_DIN
 70
     0
  4
"
 41
3.5
 42
1.0
 43
10.0
 44
1.0
 47
0.1
 48
0.1
 50
89.99999999999996
 73
     0
 74
     0
 77
     1
 78
     8
 79
     2
140
3.5
141
0.0
143
0.0393701
146
0.71
147
1.5
172
     1
176
   256
177
   256
271
     2
178
   140
271
     2
272
     3
274
     4
283
     0
284
     8
340
17
371
    -1
372
    -1
345
11
346
11
347
11
  0
ENDTAB
  0
TABLE
  2
BLOCK_RECORD
  5
1
330
0
100
AcDbSymbolTable
 70
    76
  0
BLOCK_RECORD
  5
A
330
1
100
AcDbSymbolTableRecord
100
AcDbBlockTableRecord
  2
*MODEL_SPACE
340
20
 70
     0
280
     1
281
     0
  0
BLOCK_RECORD
  5
B
330
1
100
AcDbSymbolTableRecord
100
AcDbBlockTableRecord
  2
*PAPER_SPACE
340
21
 70
     0
280
     1
281
     0
  0
BLOCK_RECORD
  5
4E
330
1
100
AcDbSymbolTableRecord
100
AcDbBlockTableRecord
  2
_DOT
340
0
102
{BLKREFS
331
19BF
331
19C0
331
19DB
331
19DC
331
19EB
331
19EC
331
19FA
331
19FB
331
1A0A
331
1A0B
331
1A1F
331
1A20
331
1A2C
331
1A2D
331
1A3C
331
1A3D
331
1A49
331
1A4A
331
1A8F
331
1A90
331
1AAA
331
1AAB
331
1D30
331
1D31
331
1D67
331
1D68
331
1D74
331
1D75
331
1D84
331
1D85
331
1D98
331
1D99
331
1DA5
331
1DA6
331
1DB7
331
1DB8
331
1DD0
331
1DD1
331
1DE1
331
1DE2
331
1DF1
331
1DF2
331
1E01
331
1E02
331
1E1F
331
1E20
331
1E2C
331
1E2D
331
1E39
331
1E3A
331
1E46
331
1E47
331
1FF4
331
1FF5
331
2001
331
2002
331
2025
331
2026
331
2031
331
2032
331
203D
331
203E
331
2049
331
204A
331
205C
331
205D
331
2068
331
2069
331
2074
331
2075
331
2080
331
2081
331
208C
331
208D
331
2098
331
2099
331
20A4
331
20A5
331
20C4
331
20C5
331
20E2
331
20E3
331
20F4
331
20F5
331
2103
331
2104
331
2116
331
2117
331
2126
331
2127
331
2135
331
2136
331
2145
331
2146
331
2154
331
2155
331
2161
331
2162
331
2195
331
2196
331
21A2
331
21A3
331
21CB
331
21CC
331
21F3
331
21F4
331
2200
331
2201
331
220D
331
220E
331
221A
331
221B
331
2250
331
2251
331
2275
331
2276
331
2284
331
2285
331
23C6
331
23C7
331
2495
331
2496
331
24A1
331
24A2
331
24AD
331
24AE
331
24B9
331
24BA
331
24C5
331
24C6
331
24D1
331
24D2
331
24F9
331
24FA
331
2547
331
2546
331
2554
331
2553
102
}
 70
     0
280
     1
281
     0
  0
BLOCK_RECORD
  5
3A5
330
1
100
AcDbSymbolTableRecord
100
AcDbBlockTableRecord
  2
名称未設定-1
340
0
102
{BLKREFS
331
3D0
102
}
 70
     1
280
     1
281
     0
  0
BLOCK_RECORD
  5
3A8
330
1
100
AcDbSymbolTableRecord
100
AcDbBlockTableRecord
  2
block 2
340
0
102
{BLKREFS
331
3A7
102
}
 70
     0
280
     1
281
     0
  0
BLOCK_RECORD
  5
3AB
330
1
100
AcDbSymbolTableRecord
100
AcDbBlockTableRecord
  2
block 3
340
0
102
{BLKREFS
331
3AA
102
}
 70
     0
280
     1
281
     0
  0
BLOCK_RECORD
  5
3AE
330
1
100
AcDbSymbolTableRecord
100
AcDbBlockTableRecord
  2
block 4
340
0
102
{BLKREFS
331
3AD
102
}
 70
     0
280
     1
281
     0
  0
BLOCK_RECORD
  5
3BD
330
1
100
AcDbSymbolTableRecord
100
AcDbBlockTableRecord
  2
block 5
340
0
102
{BLKREFS
331
3BC
102
}
 70
     0
280
     1
281
     0
  0
BLOCK_RECORD
  5
11F0
330
1
100
AcDbSymbolTableRecord
100
AcDbBlockTableRecord
  2
BLOCK_2
340
0
102
{BLKREFS
331
1273
331
127B
331
127C
102
}
 70
     0
280
     1
281
     0
  0
BLOCK_RECORD
  5
19B9
330
1
100
AcDbSymbolTableRecord
100
AcDbBlockTableRecord
  2
*D7
340
0
 70
     0
280
     1
281
     0
  0
BLOCK_RECORD
  5
19D5
330
1
100
AcDbSymbolTableRecord
100
AcDbBlockTableRecord
  2
*D8
340
0
 70
     0
280
     1
281
     0
  0
BLOCK_RECORD
  5
19E5
330
1
100
AcDbSymbolTableRecord
100
AcDbBlockTableRecord
  2
*D9
340
0
 70
     0
280
     1
281
     0
  0
BLOCK_RECORD
  5
19F4
330
1
100
AcDbSymbolTableRecord
100
AcDbBlockTableRecord
  2
*D10
340
0
 70
     0
280
     1
281
     0
  0
BLOCK_RECORD
  5
1A04
330
1
100
AcDbSymbolTableRecord
100
AcDbBlockTableRecord
  2
*D11
340
0
 70
     0
280
     1
281
     0
  0
BLOCK_RECORD
  5
1A19
330
1
100
AcDbSymbolTableRecord
100
AcDbBlockTableRecord
  2
*D12
340
0
 70
     0
280
     1
281
     0
  0
BLOCK_RECORD
  5
1A26
330
1
100
AcDbSymbolTableRecord
100
AcDbBlockTableRecord
  2
*D13
340
0
 70
     0
280
     1
281
     0
  0
BLOCK_RECORD
  5
1A36
330
1
100
AcDbSymbolTableRecord
100
AcDbBlockTableRecord
  2
*D14
340
0
 70
     0
280
     1
281
     0
  0
BLOCK_RECORD
  5
1A43
330
1
100
AcDbSymbolTableRecord
100
AcDbBlockTableRecord
  2
*D15
340
0
 70
     0
280
     1
281
     0
  0
BLOCK_RECORD
  5
1A89
330
1
100
AcDbSymbolTableRecord
100
AcDbBlockTableRecord
  2
*D16
340
0
 70
     0
280
     1
281
     0
  0
BLOCK_RECORD
  5
1AA5
330
1
100
AcDbSymbolTableRecord
100
AcDbBlockTableRecord
  2
*D17
340
0
 70
     0
280
     1
281
     0
  0
BLOCK_RECORD
  5
1D2A
330
1
100
AcDbSymbolTableRecord
100
AcDbBlockTableRecord
  2
*D18
340
0
 70
     0
280
     1
281
     0
  0
BLOCK_RECORD
  5
1D61
330
1
100
AcDbSymbolTableRecord
100
AcDbBlockTableRecord
  2
*D19
340
0
 70
     0
280
     1
281
     0
  0
BLOCK_RECORD
  5
1D6E
330
1
100
AcDbSymbolTableRecord
100
AcDbBlockTableRecord
  2
*D20
340
0
 70
     0
280
     1
281
     0
  0
BLOCK_RECORD
  5
1D7E
330
1
100
AcDbSymbolTableRecord
100
AcDbBlockTableRecord
  2
*D21
340
0
 70
     0
280
     1
281
     0
  0
BLOCK_RECORD
  5
1D92
330
1
100
AcDbSymbolTableRecord
100
AcDbBlockTableRecord
  2
*D22
340
0
 70
     0
280
     1
281
     0
  0
BLOCK_RECORD
  5
1D9F
330
1
100
AcDbSymbolTableRecord
100
AcDbBlockTableRecord
  2
*D23
340
0
 70
     0
280
     1
281
     0
  0
BLOCK_RECORD
  5
1DB1
330
1
100
AcDbSymbolTableRecord
100
AcDbBlockTableRecord
  2
*D24
340
0
 70
     0
280
     1
281
     0
  0
BLOCK_RECORD
  5
1DCA
330
1
100
AcDbSymbolTableRecord
100
AcDbBlockTableRecord
  2
*D25
340
0
 70
     0
280
     1
281
     0
  0
BLOCK_RECORD
  5
1DDB
330
1
100
AcDbSymbolTableRecord
100
AcDbBlockTableRecord
  2
*D26
340
0
 70
     0
280
     1
281
     0
  0
BLOCK_RECORD
  5
1DEB
330
1
100
AcDbSymbolTableRecord
100
AcDbBlockTableRecord
  2
*D27
340
0
 70
     0
280
     1
281
     0
  0
BLOCK_RECORD
  5
1DFB
330
1
100
AcDbSymbolTableRecord
100
AcDbBlockTableRecord
  2
*D28
340
0
 70
     0
280
     1
281
     0
  0
BLOCK_RECORD
  5
1E19
330
1
100
AcDbSymbolTableRecord
100
AcDbBlockTableRecord
  2
*D29
340
0
 70
     0
280
     1
281
     0
  0
BLOCK_RECORD
  5
1E26
330
1
100
AcDbSymbolTableRecord
100
AcDbBlockTableRecord
  2
*D30
340
0
 70
     0
280
     1
281
     0
  0
BLOCK_RECORD
  5
1E33
330
1
100
AcDbSymbolTableRecord
100
AcDbBlockTableRecord
  2
*D31
340
0
 70
     0
280
     1
281
     0
  0
BLOCK_RECORD
  5
1E40
330
1
100
AcDbSymbolTableRecord
100
AcDbBlockTableRecord
  2
*D32
340
0
 70
     0
280
     1
281
     0
  0
BLOCK_RECORD
  5
1FEE
330
1
100
AcDbSymbolTableRecord
100
AcDbBlockTableRecord
  2
*D33
340
0
 70
     0
280
     1
281
     0
  0
BLOCK_RECORD
  5
1FFB
330
1
100
AcDbSymbolTableRecord
100
AcDbBlockTableRecord
  2
*D34
340
0
 70
     0
280
     1
281
     0
  0
BLOCK_RECORD
  5
201F
330
1
100
AcDbSymbolTableRecord
100
AcDbBlockTableRecord
  2
*D35
340
0
 70
     0
280
     1
281
     0
  0
BLOCK_RECORD
  5
202B
330
1
100
AcDbSymbolTableRecord
100
AcDbBlockTableRecord
  2
*D36
340
0
 70
     0
280
     1
281
     0
  0
BLOCK_RECORD
  5
2037
330
1
100
AcDbSymbolTableRecord
100
AcDbBlockTableRecord
  2
*D37
340
0
 70
     0
280
     1
281
     0
  0
BLOCK_RECORD
  5
2043
330
1
100
AcDbSymbolTableRecord
100
AcDbBlockTableRecord
  2
*D38
340
0
 70
     0
280
     1
281
     0
  0
BLOCK_RECORD
  5
2056
330
1
100
AcDbSymbolTableRecord
100
AcDbBlockTableRecord
  2
*D39
340
0
 70
     0
280
     1
281
     0
  0
BLOCK_RECORD
  5
2062
330
1
100
AcDbSymbolTableRecord
100
AcDbBlockTableRecord
  2
*D40
340
0
 70
     0
280
     1
281
     0
  0
BLOCK_RECORD
  5
206E
330
1
100
AcDbSymbolTableRecord
100
AcDbBlockTableRecord
  2
*D41
340
0
 70
     0
280
     1
281
     0
  0
BLOCK_RECORD
  5
207A
330
1
100
AcDbSymbolTableRecord
100
AcDbBlockTableRecord
  2
*D42
340
0
 70
     0
280
     1
281
     0
  0
BLOCK_RECORD
  5
2086
330
1
100
AcDbSymbolTableRecord
100
AcDbBlockTableRecord
  2
*D43
340
0
 70
     0
280
     1
281
     0
  0
BLOCK_RECORD
  5
2092
330
1
100
AcDbSymbolTableRecord
100
AcDbBlockTableRecord
  2
*D44
340
0
 70
     0
280
     1
281
     0
  0
BLOCK_RECORD
  5
209E
330
1
100
AcDbSymbolTableRecord
100
AcDbBlockTableRecord
  2
*D45
340
0
 70
     0
280
     1
281
     0
  0
BLOCK_RECORD
  5
20BE
330
1
100
AcDbSymbolTableRecord
100
AcDbBlockTableRecord
  2
*D46
340
0
 70
     0
280
     1
281
     0
  0
BLOCK_RECORD
  5
20DC
330
1
100
AcDbSymbolTableRecord
100
AcDbBlockTableRecord
  2
*D47
340
0
 70
     0
280
     1
281
     0
  0
BLOCK_RECORD
  5
20EE
330
1
100
AcDbSymbolTableRecord
100
AcDbBlockTableRecord
  2
*D48
340
0
 70
     0
280
     1
281
     0
  0
BLOCK_RECORD
  5
20FD
330
1
100
AcDbSymbolTableRecord
100
AcDbBlockTableRecord
  2
*D49
340
0
 70
     0
280
     1
281
     0
  0
BLOCK_RECORD
  5
2110
330
1
100
AcDbSymbolTableRecord
100
AcDbBlockTableRecord
  2
*D50
340
0
 70
     0
280
     1
281
     0
  0
BLOCK_RECORD
  5
2120
330
1
100
AcDbSymbolTableRecord
100
AcDbBlockTableRecord
  2
*D51
340
0
 70
     0
280
     1
281
     0
  0
BLOCK_RECORD
  5
212F
330
1
100
AcDbSymbolTableRecord
100
AcDbBlockTableRecord
  2
*D52
340
0
 70
     0
280
     1
281
     0
  0
BLOCK_RECORD
  5
213F
330
1
100
AcDbSymbolTableRecord
100
AcDbBlockTableRecord
  2
*D53
340
0
 70
     0
280
     1
281
     0
  0
BLOCK_RECORD
  5
214E
330
1
100
AcDbSymbolTableRecord
100
AcDbBlockTableRecord
  2
*D54
340
0
 70
     0
280
     1
281
     0
  0
BLOCK_RECORD
  5
215B
330
1
100
AcDbSymbolTableRecord
100
AcDbBlockTableRecord
  2
*D55
340
0
 70
     0
280
     1
281
     0
  0
BLOCK_RECORD
  5
218F
330
1
100
AcDbSymbolTableRecord
100
AcDbBlockTableRecord
  2
*D56
340
0
 70
     0
280
     1
281
     0
  0
BLOCK_RECORD
  5
219C
330
1
100
AcDbSymbolTableRecord
100
AcDbBlockTableRecord
  2
*D57
340
0
 70
     0
280
     1
281
     0
  0
BLOCK_RECORD
  5
21C5
330
1
100
AcDbSymbolTableRecord
100
AcDbBlockTableRecord
  2
*D58
340
0
 70
     0
280
     1
281
     0
  0
BLOCK_RECORD
  5
21ED
330
1
100
AcDbSymbolTableRecord
100
AcDbBlockTableRecord
  2
*D59
340
0
 70
     0
280
     1
281
     0
  0
BLOCK_RECORD
  5
21FA
330
1
100
AcDbSymbolTableRecord
100
AcDbBlockTableRecord
  2
*D60
340
0
 70
     0
280
     1
281
     0
  0
BLOCK_RECORD
  5
2207
330
1
100
AcDbSymbolTableRecord
100
AcDbBlockTableRecord
  2
*D61
340
0
 70
     0
280
     1
281
     0
  0
BLOCK_RECORD
  5
2214
330
1
100
AcDbSymbolTableRecord
100
AcDbBlockTableRecord
  2
*D62
340
0
 70
     0
280
     1
281
     0
  0
BLOCK_RECORD
  5
224A
330
1
100
AcDbSymbolTableRecord
100
AcDbBlockTableRecord
  2
*D63
340
0
 70
     0
280
     1
281
     0
  0
BLOCK_RECORD
  5
226F
330
1
100
AcDbSymbolTableRecord
100
AcDbBlockTableRecord
  2
*D64
340
0
 70
     0
280
     1
281
     0
  0
BLOCK_RECORD
  5
227E
330
1
100
AcDbSymbolTableRecord
100
AcDbBlockTableRecord
  2
*D65
340
0
 70
     0
280
     1
281
     0
  0
BLOCK_RECORD
  5
23C0
330
1
100
AcDbSymbolTableRecord
100
AcDbBlockTableRecord
  2
*D66
340
0
 70
     0
280
     1
281
     0
  0
BLOCK_RECORD
  5
248F
330
1
100
AcDbSymbolTableRecord
100
AcDbBlockTableRecord
  2
*D67
340
0
 70
     0
280
     1
281
     0
  0
BLOCK_RECORD
  5
249B
330
1
100
AcDbSymbolTableRecord
100
AcDbBlockTableRecord
  2
*D68
340
0
 70
     0
280
     1
281
     0
  0
BLOCK_RECORD
  5
24A7
330
1
100
AcDbSymbolTableRecord
100
AcDbBlockTableRecord
  2
*D69
340
0
 70
     0
280
     1
281
     0
  0
BLOCK_RECORD
  5
24B3
330
1
100
AcDbSymbolTableRecord
100
AcDbBlockTableRecord
  2
*D70
340
0
 70
     0
280
     1
281
     0
  0
BLOCK_RECORD
  5
24BF
330
1
100
AcDbSymbolTableRecord
100
AcDbBlockTableRecord
  2
*D71
340
0
 70
     0
280
     1
281
     0
  0
BLOCK_RECORD
  5
24CB
330
1
100
AcDbSymbolTableRecord
100
AcDbBlockTableRecord
  2
*D72
340
0
 70
     0
280
     1
281
     0
  0
BLOCK_RECORD
  5
24F3
330
1
100
AcDbSymbolTableRecord
100
AcDbBlockTableRecord
  2
*D73
340
0
 70
     0
280
     1
281
     0
  0
BLOCK_RECORD
  5
2540
330
1
100
AcDbSymbolTableRecord
100
AcDbBlockTableRecord
  2
*D74
340
0
 70
     0
280
     1
281
     0
  0
BLOCK_RECORD
  5
254D
330
1
100
AcDbSymbolTableRecord
100
AcDbBlockTableRecord
  2
*D75
340
0
 70
     0
280
     1
281
     0
  0
ENDTAB
  0
ENDSEC
  0
SECTION
  2
BLOCKS
  0
BLOCK
  5
D
330
A
100
AcDbEntity
  8
0
390
1D
100
AcDbBlockBegin
  2
*MODEL_SPACE
 70
     0
 10
0.0
 20
0.0
 30
0.0
  3
*MODEL_SPACE
  1
*MODEL_SPACE
  0
ENDBLK
  5
E
330
A
100
AcDbEntity
  8
0
390
1D
100
AcDbBlockEnd
  0
BLOCK
  5
F
330
B
100
AcDbEntity
 67
     1
  8
0
390
1D
100
AcDbBlockBegin
  2
*PAPER_SPACE
 70
     0
 10
0.0
 20
0.0
 30
0.0
  3
*PAPER_SPACE
  1
*PAPER_SPACE
  0
ENDBLK
  5
10
330
B
100
AcDbEntity
 67
     1
  8
0
390
1D
100
AcDbBlockEnd
  0
BLOCK
  5
2BB
330
4E
100
AcDbEntity
  8
0
390
1D
100
AcDbBlockBegin
  2
_DOT
 70
     0
 10
0.0
 20
0.0
 30
0.0
  3
_DOT
  1
_DOT
  0
POLYLINE
  5
2BD
330
4E
100
AcDbEntity
  8
0
  6
ByBlock
 62
     0
370
    -2
390
1D
100
AcDb2dPolyline
 66
     1
 10
0.0
 20
0.0
 30
0.0
 70
     1
 40
0.5
 41
0.5
  0
VERTEX
  5
2BE
330
2BD
100
AcDbEntity
  8
0
  6
ByBlock
 62
     0
370
    -2
390
1D
100
AcDbVertex
100
AcDb2dVertex
 10
-0.25
 20
0.0
 30
0.0
 42
1.0
  0
VERTEX
  5
2BF
330
2BD
100
AcDbEntity
  8
0
  6
ByBlock
 62
     0
370
    -2
390
1D
100
AcDbVertex
100
AcDb2dVertex
 10
0.25
 20
0.0
 30
0.0
 42
1.0
  0
SEQEND
  5
2C0
330
2BD
100
AcDbEntity
  8
0
390
1D
  0
LINE
  5
2C1
330
4E
100
AcDbEntity
  8
0
  6
ByBlock
 62
     0
370
    -2
390
1D
100
AcDbLine
 10
-0.5
 20
0.0
 30
0.0
 11
-1.0
 21
0.0
 31
0.0
  0
ENDBLK
  5
2C2
330
4E
100
AcDbEntity
  8
0
390
1D
100
AcDbBlockEnd
  0
BLOCK
  5
3A6
330
3A5
100
AcDbEntity
  8
0
100
AcDbBlockBegin
  2
名称未設定-1
 70
     0
 10
0.0
 20
0.0
 30
0.0
  3
名称未設定-1
  1
名称未設定-1
  0
INSERT
  5
3A7
330
3A5
100
AcDbEntity
  8
レイヤー 1
100
AcDbBlockReference
  2
block 2
 10
0.0
 20
0.0
 30
0.0
  0
ENDBLK
  5
3CC
330
3A5
100
AcDbEntity
  8
0
100
AcDbBlockEnd
  0
BLOCK
  5
3A9
330
3A8
100
AcDbEntity
  8
0
100
AcDbBlockBegin
  2
block 2
 70
     0
 10
0.0
 20
0.0
 30
0.0
  3
block 2
  1
block 2
  0
INSERT
  5
3AA
330
3A8
100
AcDbEntity
  8
レイヤー 1
100
AcDbBlockReference
  2
block 3
 10
0.0
 20
0.0
 30
0.0
  0
ENDBLK
  5
3CB
330
3A8
100
AcDbEntity
  8
0
100
AcDbBlockEnd
  0
BLOCK
  5
3AC
330
3AB
100
AcDbEntity
  8
0
100
AcDbBlockBegin
  2
block 3
 70
     0
 10
0.0
 20
0.0
 30
0.0
  3
block 3
  1
block 3
  0
INSERT
  5
3AD
330
3AB
100
AcDbEntity
  8
レイヤー 1
100
AcDbBlockReference
  2
block 4
 10
0.0
 20
0.0
 30
0.0
  0
ENDBLK
  5
3CA
330
3AB
100
AcDbEntity
  8
0
100
AcDbBlockEnd
  0
BLOCK
  5
3AF
330
3AE
100
AcDbEntity
  8
0
100
AcDbBlockBegin
  2
block 4
 70
     0
 10
0.0
 20
0.0
 30
0.0
  3
block 4
  1
block 4
  0
POLYLINE
  5
3B0
330
3AE
100
AcDbEntity
  8
レイヤー 1
370
     0
100
AcDb2dPolyline
 66
     1
 10
0.0
 20
0.0
 30
0.0
  0
VERTEX
  5
3B1
330
3B0
100
AcDbEntity
  8
レイヤー 1
370
     0
100
AcDbVertex
100
AcDb2dVertex
 10
83.79545727667795
 20
167.6444858234922
 30
0.0
  0
VERTEX
  5
3B2
330
3B0
100
AcDbEntity
  8
レイヤー 1
370
     0
100
AcDbVertex
100
AcDb2dVertex
 10
83.79545727667795
 20
159.7968976406313
 30
0.0
  0
VERTEX
  5
3B3
330
3B0
100
AcDbEntity
  8
レイヤー 1
370
     0
100
AcDbVertex
100
AcDb2dVertex
 10
71.3631329975216
 20
159.7968976406313
 30
0.0
  0
VERTEX
  5
3B4
330
3B0
100
AcDbEntity
  8
レイヤー 1
370
     0
100
AcDbVertex
100
AcDb2dVertex
 10
71.3631329975216
 20
127.8027915271048
 30
0.0
  0
VERTEX
  5
3B5
330
3B0
100
AcDbEntity
  8
レイヤー 1
370
     0
100
AcDbVertex
100
AcDb2dVertex
 10
60.43011526263018
 20
127.8027915271048
 30
0.0
  0
VERTEX
  5
3B6
330
3B0
100
AcDbEntity
  8
レイヤー 1
370
     0
100
AcDbVertex
100
AcDb2dVertex
 10
60.43011526263018
 20
159.7968976406313
 30
0.0
  0
VERTEX
  5
3B7
330
3B0
100
AcDbEntity
  8
レイヤー 1
370
     0
100
AcDbVertex
100
AcDb2dVertex
 10
48.21793273020759
 20
159.7968976406313
 30
0.0
  0
VERTEX
  5
3B8
330
3B0
100
AcDbEntity
  8
レイヤー 1
370
     0
100
AcDbVertex
100
AcDb2dVertex
 10
48.21793273020759
 20
167.6444858234922
 30
0.0
  0
VERTEX
  5
3B9
330
3B0
100
AcDbEntity
  8
レイヤー 1
370
     0
100
AcDbVertex
100
AcDb2dVertex
 10
83.79545727667795
 20
167.6444858234922
 30
0.0
  0
SEQEND
  5
3BA
330
3B0
100
AcDbEntity
  8
レイヤー 1
370
     0
  0
HATCH
  5
3BB
330
3AE
100
AcDbEntity
  8
レイヤー 1
 62
   250
420
  2234388
100
AcDbHatch
 10
0.0
 20
0.0
 30
0.0
210
0.0
220
0.0
230
1.0
  2
SOLID
 70
     1
 71
     0
 91
        1
 92
        1
 93
        8
 72
     1
 10
83.79545727667795
 20
167.6444858234922
 11
83.79545727667795
 21
159.7968976406313
 72
     1
 10
83.79545727667795
 20
159.7968976406313
 11
71.3631329975216
 21
159.7968976406313
 72
     1
 10
71.3631329975216
 20
159.7968976406313
 11
71.3631329975216
 21
127.8027915271048
 72
     1
 10
71.3631329975216
 20
127.8027915271048
 11
60.43011526263018
 21
127.8027915271048
 72
     1
 10
60.43011526263018
 20
127.8027915271048
 11
60.43011526263018
 21
159.7968976406313
 72
     1
 10
60.43011526263018
 20
159.7968976406313
 11
48.21793273020759
 21
159.7968976406313
 72
     1
 10
48.21793273020759
 20
159.7968976406313
 11
48.21793273020759
 21
167.6444858234922
 72
     1
 10
48.21793273020759
 20
167.6444858234922
 11
83.79545727667795
 21
167.6444858234922
 97
        0
 75
     2
 76
     1
 98
        0
  0
INSERT
  5
3BC
330
3AE
100
AcDbEntity
  8
レイヤー 1
100
AcDbBlockReference
  2
block 5
 10
0.0
 20
0.0
 30
0.0
  0
ENDBLK
  5
3C9
330
3AE
100
AcDbEntity
  8
0
100
AcDbBlockEnd
  0
BLOCK
  5
3BE
330
3BD
100
AcDbEntity
  8
0
100
AcDbBlockBegin
  2
block 5
 70
     0
 10
0.0
 20
0.0
 30
0.0
  3
block 5
  1
block 5
  0
SPLINE
  5
3BF
330
3BD
100
AcDbEntity
  8
レイヤー 1
370
     0
100
AcDbSpline
210
0.0
220
0.0
230
1.0
 70
    11
 71
     3
 72
    56
 73
    52
 74
     0
 42
0.000000001
 43
0.0000000001
 40
0.0
 40
0.0
 40
0.0
 40
0.0
 40
1.0
 40
1.0
 40
1.0
 40
2.0
 40
2.0
 40
2.0
 40
3.0
 40
3.0
 40
3.0
 40
4.0
 40
4.0
 40
4.0
 40
5.0
 40
5.0
 40
5.0
 40
6.0
 40
6.0
 40
6.0
 40
7.0
 40
7.0
 40
7.0
 40
8.0
 40
8.0
 40
8.0
 40
9.0
 40
9.0
 40
9.0
 40
10.0
 40
10.0
 40
10.0
 40
11.0
 40
11.0
 40
11.0
 40
12.0
 40
12.0
 40
12.0
 40
13.0
 40
13.0
 40
13.0
 40
14.0
 40
14.0
 40
14.0
 40
15.0
 40
15.0
 40
15.0
 40
16.0
 40
16.0
 40
16.0
 40
17.0
 40
17.0
 40
17.0
 40
17.0
 10
100.4504378777679
 20
166.69157178364
 30
0.0
 10
101.9848844191641
 20
167.1313385124438
 30
0.0
 10
103.9637485713373
 20
166.7649523658846
 30
0.0
 10
103.9637485713373
 20
166.7649523658846
 30
0.0
 10
103.9637485713373
 20
166.7649523658846
 30
0.0
 10
103.0132460999156
 20
163.911205638077
 30
0.0
 10
103.0132460999156
 20
163.911205638077
 30
0.0
 10
103.0132460999156
 20
163.911205638077
 30
0.0
 10
101.0674548862189
 20
164.3601018759394
 30
0.0
 10
99.57090442016032
 20
163.1805004036133
 30
0.0
 10
98.40508333886608
 20
162.258247733807
 30
0.0
 10
97.65301849830304
 20
159.804132345923
 30
0.0
 10
97.3598406791005
 20
158.8699940888517
 30
0.0
 10
97.3598406791005
 20
158.8699940888517
 30
0.0
 10
96.07137411762282
 20
154.9119212747295
 30
0.0
 10
96.07137411762282
 20
154.9119212747295
 30
0.0
 10
96.07137411762282
 20
154.9119212747295
 30
0.0
 10
100.3012651448482
 20
154.9119212747295
 30
0.0
 10
100.3012651448482
 20
154.9119212747295
 30
0.0
 10
100.3012651448482
 20
154.9119212747295
 30
0.0
 10
99.64152892419852
 20
152.4199098115079
 30
0.0
 10
99.64152892419852
 20
152.4199098115079
 30
0.0
 10
99.64152892419852
 20
152.4199098115079
 30
0.0
 10
95.38097652692731
 20
152.4199098115079
 30
0.0
 10
95.38097652692731
 20
152.4199098115079
 30
0.0
 10
95.38097652692731
 20
152.4199098115079
 30
0.0
 10
87.75353009080013
 20
127.8027915271048
 30
0.0
 10
87.75353009080013
 20
127.8027915271048
 30
0.0
 10
87.75353009080013
 20
127.8027915271048
 30
0.0
 10
85.36538832498108
 20
127.8027915271048
 30
0.0
 10
85.36538832498108
 20
127.8027915271048
 30
0.0
 10
85.36538832498108
 20
127.8027915271048
 30
0.0
 10
93.00006946639998
 20
152.4199098115079
 30
0.0
 10
93.00006946639998
 20
152.4199098115079
 30
0.0
 10
93.00006946639998
 20
152.4199098115079
 30
0.0
 10
89.85297266450198
 20
152.4199098115079
 30
0.0
 10
89.85297266450198
 20
152.4199098115079
 30
0.0
 10
89.85297266450198
 20
152.4199098115079
 30
0.0
 10
90.51270888515164
 20
154.9119212747295
 30
0.0
 10
90.51270888515164
 20
154.9119212747295
 30
0.0
 10
90.51270888515164
 20
154.9119212747295
 30
0.0
 10
93.6904670570955
 20
154.9119212747295
 30
0.0
 10
93.6904670570955
 20
154.9119212747295
 30
0.0
 10
93.6904670570955
 20
154.9119212747295
 30
0.0
 10
94.81598049462158
 20
158.3616699146644
 30
0.0
 10
94.81598049462158
 20
158.3616699146644
 30
0.0
 10
95.7237637538445
 20
161.2605474231013
 30
0.0
 10
96.4968436907311
 20
162.8139420021662
 30
0.0
 10
97.15657991138076
 20
163.9844139654337
 30
0.0
 10
97.81183750494507
 20
165.1523021053827
 30
0.0
 10
99.1047826935081
 20
166.3084769129547
 30
0.0
 10
100.4504378777679
 20
166.69157178364
 30
0.0
  0
HATCH
  5
3C0
330
3BD
100
AcDbEntity
  8
レイヤー 1
 62
   250
420
  2234388
100
AcDbHatch
 10
0.0
 20
0.0
 30
0.0
210
0.0
220
0.0
230
1.0
  2
SOLID
 70
     1
 71
     0
 91
        1
 92
        1
 93
        1
 72
     4
 94
        3
 73
     0
 74
     1
 95
       56
 96
       52
 40
0.0
 40
0.0
 40
0.0
 40
0.0
 40
1.0
 40
1.0
 40
1.0
 40
2.0
 40
2.0
 40
2.0
 40
3.0
 40
3.0
 40
3.0
 40
4.0
 40
4.0
 40
4.0
 40
5.0
 40
5.0
 40
5.0
 40
6.0
 40
6.0
 40
6.0
 40
7.0
 40
7.0
 40
7.0
 40
8.0
 40
8.0
 40
8.0
 40
9.0
 40
9.0
 40
9.0
 40
10.0
 40
10.0
 40
10.0
 40
11.0
 40
11.0
 40
11.0
 40
12.0
 40
12.0
 40
12.0
 40
13.0
 40
13.0
 40
13.0
 40
14.0
 40
14.0
 40
14.0
 40
15.0
 40
15.0
 40
15.0
 40
16.0
 40
16.0
 40
16.0
 40
17.0
 40
17.0
 40
17.0
 40
17.0
 10
100.4504378777679
 20
166.69157178364
 10
101.9848844191641
 20
167.1313385124438
 10
103.9637485713373
 20
166.7649523658846
 10
103.9637485713373
 20
166.7649523658846
 10
103.9637485713373
 20
166.7649523658846
 10
103.0132460999156
 20
163.911205638077
 10
103.0132460999156
 20
163.911205638077
 10
103.0132460999156
 20
163.911205638077
 10
101.0674548862189
 20
164.3601018759394
 10
99.57090442016032
 20
163.1805004036133
 10
98.40508333886608
 20
162.258247733807
 10
97.65301849830304
 20
159.804132345923
 10
97.3598406791005
 20
158.8699940888517
 10
97.3598406791005
 20
158.8699940888517
 10
96.07137411762282
 20
154.9119212747295
 10
96.07137411762282
 20
154.9119212747295
 10
96.07137411762282
 20
154.9119212747295
 10
100.3012651448482
 20
154.9119212747295
 10
100.3012651448482
 20
154.9119212747295
 10
100.3012651448482
 20
154.9119212747295
 10
99.64152892419852
 20
152.4199098115079
 10
99.64152892419852
 20
152.4199098115079
 10
99.64152892419852
 20
152.4199098115079
 10
95.38097652692731
 20
152.4199098115079
 10
95.38097652692731
 20
152.4199098115079
 10
95.38097652692731
 20
152.4199098115079
 10
87.75353009080013
 20
127.8027915271048
 10
87.75353009080013
 20
127.8027915271048
 10
87.75353009080013
 20
127.8027915271048
 10
85.36538832498108
 20
127.8027915271048
 10
85.36538832498108
 20
127.8027915271048
 10
85.36538832498108
 20
127.8027915271048
 10
93.00006946639998
 20
152.4199098115079
 10
93.00006946639998
 20
152.4199098115079
 10
93.00006946639998
 20
152.4199098115079
 10
89.85297266450198
 20
152.4199098115079
 10
89.85297266450198
 20
152.4199098115079
 10
89.85297266450198
 20
152.4199098115079
 10
90.51270888515164
 20
154.9119212747295
 10
90.51270888515164
 20
154.9119212747295
 10
90.51270888515164
 20
154.9119212747295
 10
93.6904670570955
 20
154.9119212747295
 10
93.6904670570955
 20
154.9119212747295
 10
93.6904670570955
 20
154.9119212747295
 10
94.81598049462158
 20
158.3616699146644
 10
94.81598049462158
 20
158.3616699146644
 10
95.7237637538445
 20
161.2605474231013
 10
96.4968436907311
 20
162.8139420021662
 10
97.15657991138076
 20
163.9844139654337
 10
97.81183750494507
 20
165.1523021053827
 10
99.1047826935081
 20
166.3084769129547
 10
100.4504378777679
 20
166.69157178364
 97
        0
 75
     2
 76
     1
 98
        0
  0
SPLINE
  5
3C1
330
3BD
100
AcDbEntity
  8
レイヤー 1
370
     0
100
AcDbSpline
210
0.0
220
0.0
230
1.0
 70
    11
 71
     3
 72
    38
 73
    34
 74
     0
 42
0.000000001
 43
0.0000000001
 40
0.0
 40
0.0
 40
0.0
 40
0.0
 40
1.0
 40
1.0
 40
1.0
 40
2.0
 40
2.0
 40
2.0
 40
3.0
 40
3.0
 40
3.0
 40
4.0
 40
4.0
 40
4.0
 40
5.0
 40
5.0
 40
5.0
 40
6.0
 40
6.0
 40
6.0
 40
7.0
 40
7.0
 40
7.0
 40
8.0
 40
8.0
 40
8.0
 40
9.0
 40
9.0
 40
9.0
 40
10.0
 40
10.0
 40
10.0
 40
11.0
 40
11.0
 40
11.0
 40
11.0
 10
126.377554584636
 20
154.8151140277308
 30
0.0
 10
126.377554584636
 20
154.8151140277308
 30
0.0
 10
128.8311532078563
 20
154.8151140277308
 30
0.0
 10
128.8311532078563
 20
154.8151140277308
 30
0.0
 10
128.8311532078563
 20
154.8151140277308
 30
0.0
 10
127.7345785914971
 20
151.3062819612468
 30
0.0
 10
127.7345785914971
 20
151.3062819612468
 30
0.0
 10
128.571392836906
 20
152.2922689395754
 30
0.0
 10
129.8860421413442
 20
153.604506675583
 30
0.0
 10
131.0163787157314
 20
154.2664822097754
 30
0.0
 10
132.7044766171327
 20
155.2500576196734
 30
0.0
 10
133.6642808525008
 20
155.3847609420097
 30
0.0
 10
134.7284715499351
 20
155.3565111403944
 30
0.0
 10
134.7284715499351
 20
155.3565111403944
 30
0.0
 10
133.6877075172549
 20
152.0345756272799
 30
0.0
 10
133.6877075172549
 20
152.0345756272799
 30
0.0
 10
133.011434827367
 20
152.3184516825359
 30
0.0
 10
130.930940291334
 20
151.7768823149844
 30
0.0
 10
129.739280976855
 20
150.9162968950455
 30
0.0
 10
128.66613302525
 20
150.1454562717016
 30
0.0
 10
127.9192358313239
 20
149.4857200510519
 30
0.0
 10
127.0393578639405
 20
147.8282835196966
 30
0.0
 10
126.164647543194
 20
146.1699857139017
 30
0.0
 10
125.4742499524985
 20
143.5262176944419
 30
0.0
 10
124.2822461282437
 20
139.6959580071401
 30
0.0
 10
124.2822461282437
 20
139.6959580071401
 30
0.0
 10
120.5753209406769
 20
127.8027915271048
 30
0.0
 10
120.5753209406769
 20
127.8027915271048
 30
0.0
 10
120.5753209406769
 20
127.8027915271048
 30
0.0
 10
118.1964809388044
 20
127.8027915271048
 30
0.0
 10
118.1964809388044
 20
127.8027915271048
 30
0.0
 10
118.1964809388044
 20
127.8027915271048
 30
0.0
 10
126.377554584636
 20
154.8151140277308
 30
0.0
 10
126.377554584636
 20
154.8151140277308
 30
0.0
  0
HATCH
  5
3C2
330
3BD
100
AcDbEntity
  8
レイヤー 1
 62
   250
420
  2234388
100
AcDbHatch
 10
0.0
 20
0.0
 30
0.0
210
0.0
220
0.0
230
1.0
  2
SOLID
 70
     1
 71
     0
 91
        1
 92
        1
 93
        1
 72
     4
 94
        3
 73
     0
 74
     1
 95
       38
 96
       34
 40
0.0
 40
0.0
 40
0.0
 40
0.0
 40
1.0
 40
1.0
 40
1.0
 40
2.0
 40
2.0
 40
2.0
 40
3.0
 40
3.0
 40
3.0
 40
4.0
 40
4.0
 40
4.0
 40
5.0
 40
5.0
 40
5.0
 40
6.0
 40
6.0
 40
6.0
 40
7.0
 40
7.0
 40
7.0
 40
8.0
 40
8.0
 40
8.0
 40
9.0
 40
9.0
 40
9.0
 40
10.0
 40
10.0
 40
10.0
 40
11.0
 40
11.0
 40
11.0
 40
11.0
 10
126.377554584636
 20
154.8151140277308
 10
126.377554584636
 20
154.8151140277308
 10
128.8311532078563
 20
154.8151140277308
 10
128.8311532078563
 20
154.8151140277308
 10
128.8311532078563
 20
154.8151140277308
 10
127.7345785914971
 20
151.3062819612468
 10
127.7345785914971
 20
151.3062819612468
 10
128.571392836906
 20
152.2922689395754
 10
129.8860421413442
 20
153.604506675583
 10
131.0163787157314
 20
154.2664822097754
 10
132.7044766171327
 20
155.2500576196734
 10
133.6642808525008
 20
155.3847609420097
 10
134.7284715499351
 20
155.3565111403944
 10
134.7284715499351
 20
155.3565111403944
 10
133.6877075172549
 20
152.0345756272799
 10
133.6877075172549
 20
152.0345756272799
 10
133.011434827367
 20
152.3184516825359
 10
130.930940291334
 20
151.7768823149844
 10
129.739280976855
 20
150.9162968950455
 10
128.66613302525
 20
150.1454562717016
 10
127.9192358313239
 20
149.4857200510519
 10
127.0393578639405
 20
147.8282835196966
 10
126.164647543194
 20
146.1699857139017
 10
125.4742499524985
 20
143.5262176944419
 10
124.2822461282437
 20
139.6959580071401
 10
124.2822461282437
 20
139.6959580071401
 10
120.5753209406769
 20
127.8027915271048
 10
120.5753209406769
 20
127.8027915271048
 10
120.5753209406769
 20
127.8027915271048
 10
118.1964809388044
 20
127.8027915271048
 10
118.1964809388044
 20
127.8027915271048
 10
118.1964809388044
 20
127.8027915271048
 10
126.377554584636
 20
154.8151140277308
 10
126.377554584636
 20
154.8151140277308
 97
        0
 75
     2
 76
     1
 98
        0
  0
SPLINE
  5
3C3
330
3BD
100
AcDbEntity
  8
レイヤー 1
370
     0
100
AcDbSpline
210
0.0
220
0.0
230
1.0
 70
    11
 71
     3
 72
   104
 73
   100
 74
     0
 42
0.000000001
 43
0.0000000001
 40
0.0
 40
0.0
 40
0.0
 40
0.0
 40
1.0
 40
1.0
 40
1.0
 40
2.0
 40
2.0
 40
2.0
 40
3.0
 40
3.0
 40
3.0
 40
4.0
 40
4.0
 40
4.0
 40
5.0
 40
5.0
 40
5.0
 40
6.0
 40
6.0
 40
6.0
 40
7.0
 40
7.0
 40
7.0
 40
8.0
 40
8.0
 40
8.0
 40
9.0
 40
9.0
 40
9.0
 40
10.0
 40
10.0
 40
10.0
 40
11.0
 40
11.0
 40
11.0
 40
12.0
 40
12.0
 40
12.0
 40
13.0
 40
13.0
 40
13.0
 40
14.0
 40
14.0
 40
14.0
 40
15.0
 40
15.0
 40
15.0
 40
16.0
 40
16.0
 40
16.0
 40
17.0
 40
17.0
 40
17.0
 40
18.0
 40
18.0
 40
18.0
 40
19.0
 40
19.0
 40
19.0
 40
20.0
 40
20.0
 40
20.0
 40
21.0
 40
21.0
 40
21.0
 40
22.0
 40
22.0
 40
22.0
 40
23.0
 40
23.0
 40
23.0
 40
24.0
 40
24.0
 40
24.0
 40
25.0
 40
25.0
 40
25.0
 40
26.0
 40
26.0
 40
26.0
 40
27.0
 40
27.0
 40
27.0
 40
28.0
 40
28.0
 40
28.0
 40
29.0
 40
29.0
 40
29.0
 40
30.0
 40
30.0
 40
30.0
 40
31.0
 40
31.0
 40
31.0
 40
32.0
 40
32.0
 40
32.0
 40
33.0
 40
33.0
 40
33.0
 40
33.0
 10
139.8926730891197
 20
154.8294111834263
 30
0.0
 10
139.8926730891197
 20
154.8294111834263
 30
0.0
 10
142.0344903652445
 20
154.8294111834263
 30
0.0
 10
142.0344903652445
 20
154.8294111834263
 30
0.0
 10
142.0344903652445
 20
154.8294111834263
 30
0.0
 10
140.9516961399171
 20
151.3157559800812
 30
0.0
 10
140.9516961399171
 20
151.3157559800812
 30
0.0
 10
141.8928968473923
 20
152.7887075264977
 30
0.0
 10
142.7341897198865
 20
153.4484437471474
 30
0.0
 10
143.8552245303272
 20
154.2926649527359
 30
0.0
 10
144.9803934580775
 20
155.1296514530327
 30
0.0
 10
146.3139908001845
 20
155.3044901642492
 30
0.0
 10
147.241066606852
 20
155.3044901642492
 30
0.0
 10
148.3855280820469
 20
155.3044901642492
 30
0.0
 10
149.4969166187653
 20
155.0752189084569
 30
0.0
 10
150.0784491203092
 20
153.8172414621372
 30
0.0
 10
150.5228667310863
 20
152.833838307127
 30
0.0
 10
150.5414702589793
 20
152.7201500811143
 30
0.0
 10
150.4140016419347
 20
150.7765981809602
 30
0.0
 10
151.5818897818837
 20
152.7699317437168
 30
0.0
 10
152.4424752018226
 20
153.6256940267945
 30
0.0
 10
153.9038856707499
 20
154.4507949398263
 30
0.0
 10
155.4455669174378
 20
155.3044901642492
 30
0.0
 10
156.339225275853
 20
155.3659851592288
 30
0.0
 10
157.3748216618963
 20
155.2147453676543
 30
0.0
 10
158.911679771723
 20
154.9877134254046
 30
0.0
 10
159.8859534176746
 20
154.4390816074493
 30
0.0
 10
160.3965169054045
 20
152.7816450760939
 30
0.0
 10
160.9070803931344
 20
151.1219692311958
 30
0.0
 10
160.6328506116007
 20
150.2303779314354
 30
0.0
 10
159.9992971339115
 20
147.597634224801
 30
0.0
 10
159.7105979417943
 20
146.4014962832367
 30
0.0
 10
159.2947746424084
 20
144.9400858143094
 30
0.0
 10
158.7463150793409
 20
143.2092687007094
 30
0.0
 10
158.7463150793409
 20
143.2092687007094
 30
0.0
 10
153.9038856707499
 20
127.8027915271048
 30
0.0
 10
153.9038856707499
 20
127.8027915271048
 30
0.0
 10
153.9038856707499
 20
127.8027915271048
 30
0.0
 10
151.3882752878863
 20
127.8027915271048
 30
0.0
 10
151.3882752878863
 20
127.8027915271048
 30
0.0
 10
151.3882752878863
 20
127.8027915271048
 30
0.0
 10
155.6250565106276
 20
141.2751908193897
 30
0.0
 10
155.6250565106276
 20
141.2751908193897
 30
0.0
 10
156.5094131050963
 20
144.0936252951782
 30
0.0
 10
157.109893644309
 20
146.1506931664571
 30
0.0
 10
157.4220195011804
 20
147.4415712963654
 30
0.0
 10
157.8095929989511
 20
149.0530157726519
 30
0.0
 10
157.9656559273867
 20
149.5826995529385
 30
0.0
 10
157.7816877071116
 20
150.7529992613181
 30
0.0
 10
157.6111553680925
 20
151.8430281919372
 30
0.0
 10
157.0582171779396
 20
152.5547853887321
 30
0.0
 10
156.1170164704645
 20
152.5547853887321
 30
0.0
 10
155.1096698860365
 20
152.5547853887321
 30
0.0
 10
154.2962823053817
 20
152.4412694176073
 30
0.0
 10
153.156643967048
 20
151.2945686288697
 30
0.0
 10
152.0170056287143
 20
150.1476955852443
 30
0.0
 10
151.076149431015
 20
148.7930831468137
 30
0.0
 10
150.3337308641742
 20
147.2290087646991
 30
0.0
 10
149.5957909244188
 20
145.6683794803425
 30
0.0
 10
148.8530278478023
 20
143.6822806228776
 30
0.0
 10
148.0964843801539
 20
141.2751908193897
 30
0.0
 10
148.0964843801539
 20
141.2751908193897
 30
0.0
 10
143.8552245303272
 20
127.8027915271048
 30
0.0
 10
143.8552245303272
 20
127.8027915271048
 30
0.0
 10
143.8552245303272
 20
127.8027915271048
 30
0.0
 10
141.486030802177
 20
127.8027915271048
 30
0.0
 10
141.486030802177
 20
127.8027915271048
 30
0.0
 10
141.486030802177
 20
127.8027915271048
 30
0.0
 10
146.3329388378533
 20
143.2092687007094
 30
0.0
 10
146.3329388378533
 20
143.2092687007094
 30
0.0
 10
146.8483254624444
 20
144.8408669988801
 30
0.0
 10
147.2314203331297
 20
146.1837661049335
 30
0.0
 10
147.4867020769946
 20
147.224185627838
 30
0.0
 10
147.9169947869641
 20
149.0197705792876
 30
0.0
 10
148.0306830129768
 20
150.2400242051577
 30
0.0
 10
147.709255392159
 20
151.3157559800812
 30
0.0
 10
147.3874832615654
 20
152.3916600098926
 30
0.0
 10
146.8245542879144
 20
152.6683013598569
 30
0.0
 10
145.8840425999909
 20
152.6683013598569
 30
0.0
 10
145.0989048209514
 20
152.6683013598569
 30
0.0
 10
144.3282364524954
 20
152.3275811915945
 30
0.0
 10
143.4531816219731
 20
151.6538923250251
 30
0.0
 10
142.34627171234
 20
150.8074318058939
 30
0.0
 10
141.901854101563
 20
150.1097995099067
 30
0.0
 10
141.3578731655808
 20
149.289521733736
 30
0.0
 10
140.6299240093235
 20
148.192602607601
 30
0.0
 10
140.2850697237515
 20
147.455696197173
 30
0.0
 10
139.6652966370942
 20
145.8385673095858
 30
0.0
 10
139.0506911970739
 20
144.2214384219986
 30
0.0
 10
138.463991048893
 20
142.3252566160164
 30
0.0
 10
138.0571250036777
 20
141.0154304484394
 30
0.0
 10
138.0571250036777
 20
141.0154304484394
 30
0.0
 10
133.9009590684727
 20
127.8027915271048
 30
0.0
 10
133.9009590684727
 20
127.8027915271048
 30
0.0
 10
133.9009590684727
 20
127.8027915271048
 30
0.0
 10
131.4180771143097
 20
127.8027915271048
 30
0.0
 10
131.4180771143097
 20
127.8027915271048
 30
0.0
 10
131.4180771143097
 20
127.8027915271048
 30
0.0
 10
139.8926730891197
 20
154.8294111834263
 30
0.0
 10
139.8926730891197
 20
154.8294111834263
 30
0.0
  0
HATCH
  5
3C4
330
3BD
100
AcDbEntity
  8
レイヤー 1
 62
   250
420
  2234388
100
AcDbHatch
 10
0.0
 20
0.0
 30
0.0
210
0.0
220
0.0
230
1.0
  2
SOLID
 70
     1
 71
     0
 91
        1
 92
        1
 93
        1
 72
     4
 94
        3
 73
     0
 74
     1
 95
      104
 96
      100
 40
0.0
 40
0.0
 40
0.0
 40
0.0
 40
1.0
 40
1.0
 40
1.0
 40
2.0
 40
2.0
 40
2.0
 40
3.0
 40
3.0
 40
3.0
 40
4.0
 40
4.0
 40
4.0
 40
5.0
 40
5.0
 40
5.0
 40
6.0
 40
6.0
 40
6.0
 40
7.0
 40
7.0
 40
7.0
 40
8.0
 40
8.0
 40
8.0
 40
9.0
 40
9.0
 40
9.0
 40
10.0
 40
10.0
 40
10.0
 40
11.0
 40
11.0
 40
11.0
 40
12.0
 40
12.0
 40
12.0
 40
13.0
 40
13.0
 40
13.0
 40
14.0
 40
14.0
 40
14.0
 40
15.0
 40
15.0
 40
15.0
 40
16.0
 40
16.0
 40
16.0
 40
17.0
 40
17.0
 40
17.0
 40
18.0
 40
18.0
 40
18.0
 40
19.0
 40
19.0
 40
19.0
 40
20.0
 40
20.0
 40
20.0
 40
21.0
 40
21.0
 40
21.0
 40
22.0
 40
22.0
 40
22.0
 40
23.0
 40
23.0
 40
23.0
 40
24.0
 40
24.0
 40
24.0
 40
25.0
 40
25.0
 40
25.0
 40
26.0
 40
26.0
 40
26.0
 40
27.0
 40
27.0
 40
27.0
 40
28.0
 40
28.0
 40
28.0
 40
29.0
 40
29.0
 40
29.0
 40
30.0
 40
30.0
 40
30.0
 40
31.0
 40
31.0
 40
31.0
 40
32.0
 40
32.0
 40
32.0
 40
33.0
 40
33.0
 40
33.0
 40
33.0
 10
139.8926730891197
 20
154.8294111834263
 10
139.8926730891197
 20
154.8294111834263
 10
142.0344903652445
 20
154.8294111834263
 10
142.0344903652445
 20
154.8294111834263
 10
142.0344903652445
 20
154.8294111834263
 10
140.9516961399171
 20
151.3157559800812
 10
140.9516961399171
 20
151.3157559800812
 10
141.8928968473923
 20
152.7887075264977
 10
142.7341897198865
 20
153.4484437471474
 10
143.8552245303272
 20
154.2926649527359
 10
144.9803934580775
 20
155.1296514530327
 10
146.3139908001845
 20
155.3044901642492
 10
147.241066606852
 20
155.3044901642492
 10
148.3855280820469
 20
155.3044901642492
 10
149.4969166187653
 20
155.0752189084569
 10
150.0784491203092
 20
153.8172414621372
 10
150.5228667310863
 20
152.833838307127
 10
150.5414702589793
 20
152.7201500811143
 10
150.4140016419347
 20
150.7765981809602
 10
151.5818897818837
 20
152.7699317437168
 10
152.4424752018226
 20
153.6256940267945
 10
153.9038856707499
 20
154.4507949398263
 10
155.4455669174378
 20
155.3044901642492
 10
156.339225275853
 20
155.3659851592288
 10
157.3748216618963
 20
155.2147453676543
 10
158.911679771723
 20
154.9877134254046
 10
159.8859534176746
 20
154.4390816074493
 10
160.3965169054045
 20
152.7816450760939
 10
160.9070803931344
 20
151.1219692311958
 10
160.6328506116007
 20
150.2303779314354
 10
159.9992971339115
 20
147.597634224801
 10
159.7105979417943
 20
146.4014962832367
 10
159.2947746424084
 20
144.9400858143094
 10
158.7463150793409
 20
143.2092687007094
 10
158.7463150793409
 20
143.2092687007094
 10
153.9038856707499
 20
127.8027915271048
 10
153.9038856707499
 20
127.8027915271048
 10
153.9038856707499
 20
127.8027915271048
 10
151.3882752878863
 20
127.8027915271048
 10
151.3882752878863
 20
127.8027915271048
 10
151.3882752878863
 20
127.8027915271048
 10
155.6250565106276
 20
141.2751908193897
 10
155.6250565106276
 20
141.2751908193897
 10
156.5094131050963
 20
144.0936252951782
 10
157.109893644309
 20
146.1506931664571
 10
157.4220195011804
 20
147.4415712963654
 10
157.8095929989511
 20
149.0530157726519
 10
157.9656559273867
 20
149.5826995529385
 10
157.7816877071116
 20
150.7529992613181
 10
157.6111553680925
 20
151.8430281919372
 10
157.0582171779396
 20
152.5547853887321
 10
156.1170164704645
 20
152.5547853887321
 10
155.1096698860365
 20
152.5547853887321
 10
154.2962823053817
 20
152.4412694176073
 10
153.156643967048
 20
151.2945686288697
 10
152.0170056287143
 20
150.1476955852443
 10
151.076149431015
 20
148.7930831468137
 10
150.3337308641742
 20
147.2290087646991
 10
149.5957909244188
 20
145.6683794803425
 10
148.8530278478023
 20
143.6822806228776
 10
148.0964843801539
 20
141.2751908193897
 10
148.0964843801539
 20
141.2751908193897
 10
143.8552245303272
 20
127.8027915271048
 10
143.8552245303272
 20
127.8027915271048
 10
143.8552245303272
 20
127.8027915271048
 10
141.486030802177
 20
127.8027915271048
 10
141.486030802177
 20
127.8027915271048
 10
141.486030802177
 20
127.8027915271048
 10
146.3329388378533
 20
143.2092687007094
 10
146.3329388378533
 20
143.2092687007094
 10
146.8483254624444
 20
144.8408669988801
 10
147.2314203331297
 20
146.1837661049335
 10
147.4867020769946
 20
147.224185627838
 10
147.9169947869641
 20
149.0197705792876
 10
148.0306830129768
 20
150.2400242051577
 10
147.709255392159
 20
151.3157559800812
 10
147.3874832615654
 20
152.3916600098926
 10
146.8245542879144
 20
152.6683013598569
 10
145.8840425999909
 20
152.6683013598569
 10
145.0989048209514
 20
152.6683013598569
 10
144.3282364524954
 20
152.3275811915945
 10
143.4531816219731
 20
151.6538923250251
 10
142.34627171234
 20
150.8074318058939
 10
141.901854101563
 20
150.1097995099067
 10
141.3578731655808
 20
149.289521733736
 10
140.6299240093235
 20
148.192602607601
 10
140.2850697237515
 20
147.455696197173
 10
139.6652966370942
 20
145.8385673095858
 10
139.0506911970739
 20
144.2214384219986
 10
138.463991048893
 20
142.3252566160164
 10
138.0571250036777
 20
141.0154304484394
 10
138.0571250036777
 20
141.0154304484394
 10
133.9009590684727
 20
127.8027915271048
 10
133.9009590684727
 20
127.8027915271048
 10
133.9009590684727
 20
127.8027915271048
 10
131.4180771143097
 20
127.8027915271048
 10
131.4180771143097
 20
127.8027915271048
 10
131.4180771143097
 20
127.8027915271048
 10
139.8926730891197
 20
154.8294111834263
 10
139.8926730891197
 20
154.8294111834263
 97
        0
 75
     2
 76
     1
 98
        0
  0
SPLINE
  5
3C5
330
3BD
100
AcDbEntity
  8
レイヤー 1
370
     0
100
AcDbSpline
210
0.0
220
0.0
230
1.0
 70
    11
 71
     3
 72
    29
 73
    25
 74
     0
 42
0.000000001
 43
0.0000000001
 40
0.0
 40
0.0
 40
0.0
 40
0.0
 40
1.0
 40
1.0
 40
1.0
 40
2.0
 40
2.0
 40
2.0
 40
3.0
 40
3.0
 40
3.0
 40
4.0
 40
4.0
 40
4.0
 40
5.0
 40
5.0
 40
5.0
 40
6.0
 40
6.0
 40
6.0
 40
7.0
 40
7.0
 40
7.0
 40
8.0
 40
8.0
 40
8.0
 40
8.0
 10
101.6420971922469
 20
132.8388354296931
 30
0.0
 10
101.630039350094
 20
134.7164137077823
 30
0.0
 10
102.2236296937908
 20
138.0598810818841
 30
0.0
 10
103.7487744712405
 20
142.5378191476827
 30
0.0
 10
105.819967243327
 20
148.5896501242061
 30
0.0
 10
107.0602024361932
 20
150.8074318058939
 30
0.0
 10
108.1522984254671
 20
151.8833358357054
 30
0.0
 10
109.741177511439
 20
153.4532668840085
 30
0.0
 10
111.8740375333931
 20
153.5290590346837
 30
0.0
 10
112.5075910110823
 20
153.4532668840085
 30
0.0
 10
113.4012493694975
 20
153.3490526768302
 30
0.0
 10
114.6683563248758
 20
152.7580461564518
 30
0.0
 10
114.7493161221879
 20
150.7838328862519
 30
0.0
 10
114.8106388622796
 20
149.0909118479895
 30
0.0
 10
114.3186789024427
 20
145.9191825971221
 30
0.0
 10
112.6164561002338
 20
140.9489400617108
 30
0.0
 10
110.6444821435766
 20
135.1746117095912
 30
0.0
 10
109.4669477299053
 20
132.8960240524753
 30
0.0
 10
108.5212683953448
 20
131.9072809959403
 30
0.0
 10
106.7346406980658
 20
130.0538184021569
 30
0.0
 10
104.8222669326213
 20
130.2336525051225
 30
0.0
 10
104.5408024457958
 20
130.2336525051225
 30
0.0
 10
104.1721769856939
 20
130.2336525051225
 30
0.0
 10
101.6465758193322
 20
130.6305277668397
 30
0.0
 10
101.6420971922469
 20
132.8388354296931
 30
0.0
  0
SPLINE
  5
3C6
330
3BD
100
AcDbEntity
  8
レイヤー 1
370
     0
100
AcDbSpline
210
0.0
220
0.0
230
1.0
 70
    11
 71
     3
 72
    32
 73
    28
 74
     0
 42
0.000000001
 43
0.0000000001
 40
0.0
 40
0.0
 40
0.0
 40
0.0
 40
1.0
 40
1.0
 40
1.0
 40
2.0
 40
2.0
 40
2.0
 40
3.0
 40
3.0
 40
3.0
 40
4.0
 40
4.0
 40
4.0
 40
5.0
 40
5.0
 40
5.0
 40
6.0
 40
6.0
 40
6.0
 40
7.0
 40
7.0
 40
7.0
 40
8.0
 40
8.0
 40
8.0
 40
9.0
 40
9.0
 40
9.0
 40
9.0
 10
106.2595617172429
 20
153.4105476718098
 30
0.0
 10
104.8222669326213
 20
151.5474388043041
 30
0.0
 10
103.7177685914188
 20
149.8758773721411
 30
0.0
 10
101.9232171692965
 20
144.6141795664062
 30
0.0
 10
100.2754269116635
 20
139.7999999594306
 30
0.0
 10
99.22777268346732
 20
136.3052927937542
 30
0.0
 10
99.06964269637689
 20
132.039572749846
 30
0.0
 10
98.94665270641765
 20
128.8673267343149
 30
0.0
 10
100.8807305877373
 20
127.8027915271048
 30
0.0
 10
103.7129454545577
 20
127.8027915271048
 30
0.0
 10
104.9352661390825
 20
127.8027915271048
 30
0.0
 10
108.0151835347002
 20
127.8827177950895
 30
0.0
 10
110.2045431598849
 20
130.5926316915021
 30
0.0
 10
111.7417457794874
 20
132.4984597712065
 30
0.0
 10
113.155269389579
 20
134.475256864725
 30
0.0
 10
115.0562743324223
 20
140.9489400617108
 30
0.0
 10
116.6361961642235
 20
146.3680788349845
 30
0.0
 10
117.7282921534974
 20
149.8639917848761
 30
0.0
 10
117.6480213757369
 20
151.8595646611754
 30
0.0
 10
117.6480213757369
 20
151.8595646611754
 30
0.0
 10
117.6480213757369
 20
151.8595646611754
 30
0.0
 10
117.6480213757369
 20
151.8595646611754
 30
0.0
 10
117.13229024137
 20
155.18150017429
 30
0.0
 10
114.7162431837115
 20
155.886194920681
 30
0.0
 10
113.3351034925446
 20
155.886194920681
 30
0.0
 10
111.9829026225447
 20
155.886194920681
 30
0.0
 10
108.3414342923792
 20
156.1251124501957
 30
0.0
 10
106.2595617172429
 20
153.4105476718098
 30
0.0
  0
HATCH
  5
3C7
330
3BD
100
AcDbEntity
  8
レイヤー 1
 62
   250
420
  2234388
100
AcDbHatch
 10
0.0
 20
0.0
 30
0.0
210
0.0
220
0.0
230
1.0
  2
SOLID
 70
     1
 71
     0
 91
        2
 92
        1
 93
        1
 72
     4
 94
        3
 73
     0
 74
     1
 95
       29
 96
       25
 40
0.0
 40
0.0
 40
0.0
 40
0.0
 40
1.0
 40
1.0
 40
1.0
 40
2.0
 40
2.0
 40
2.0
 40
3.0
 40
3.0
 40
3.0
 40
4.0
 40
4.0
 40
4.0
 40
5.0
 40
5.0
 40
5.0
 40
6.0
 40
6.0
 40
6.0
 40
7.0
 40
7.0
 40
7.0
 40
8.0
 40
8.0
 40
8.0
 40
8.0
 10
101.6420971922469
 20
132.8388354296931
 10
101.630039350094
 20
134.7164137077823
 10
102.2236296937908
 20
138.0598810818841
 10
103.7487744712405
 20
142.5378191476827
 10
105.819967243327
 20
148.5896501242061
 10
107.0602024361932
 20
150.8074318058939
 10
108.1522984254671
 20
151.8833358357054
 10
109.741177511439
 20
153.4532668840085
 10
111.8740375333931
 20
153.5290590346837
 10
112.5075910110823
 20
153.4532668840085
 10
113.4012493694975
 20
153.3490526768302
 10
114.6683563248758
 20
152.7580461564518
 10
114.7493161221879
 20
150.7838328862519
 10
114.8106388622796
 20
149.0909118479895
 10
114.3186789024427
 20
145.9191825971221
 10
112.6164561002338
 20
140.9489400617108
 10
110.6444821435766
 20
135.1746117095912
 10
109.4669477299053
 20
132.8960240524753
 10
108.5212683953448
 20
131.9072809959403
 10
106.7346406980658
 20
130.0538184021569
 10
104.8222669326213
 20
130.2336525051225
 10
104.5408024457958
 20
130.2336525051225
 10
104.1721769856939
 20
130.2336525051225
 10
101.6465758193322
 20
130.6305277668397
 10
101.6420971922469
 20
132.8388354296931
 97
        0
 92
        1
 93
        1
 72
     4
 94
        3
 73
     0
 74
     1
 95
       32
 96
       28
 40
0.0
 40
0.0
 40
0.0
 40
0.0
 40
1.0
 40
1.0
 40
1.0
 40
2.0
 40
2.0
 40
2.0
 40
3.0
 40
3.0
 40
3.0
 40
4.0
 40
4.0
 40
4.0
 40
5.0
 40
5.0
 40
5.0
 40
6.0
 40
6.0
 40
6.0
 40
7.0
 40
7.0
 40
7.0
 40
8.0
 40
8.0
 40
8.0
 40
9.0
 40
9.0
 40
9.0
 40
9.0
 10
106.2595617172429
 20
153.4105476718098
 10
104.8222669326213
 20
151.5474388043041
 10
103.7177685914188
 20
149.8758773721411
 10
101.9232171692965
 20
144.6141795664062
 10
100.2754269116635
 20
139.7999999594306
 10
99.22777268346732
 20
136.3052927937542
 10
99.06964269637689
 20
132.039572749846
 10
98.94665270641765
 20
128.8673267343149
 10
100.8807305877373
 20
127.8027915271048
 10
103.7129454545577
 20
127.8027915271048
 10
104.9352661390825
 20
127.8027915271048
 10
108.0151835347002
 20
127.8827177950895
 10
110.2045431598849
 20
130.5926316915021
 10
111.7417457794874
 20
132.4984597712065
 10
113.155269389579
 20
134.475256864725
 10
115.0562743324223
 20
140.9489400617108
 10
116.6361961642235
 20
146.3680788349845
 10
117.7282921534974
 20
149.8639917848761
 10
117.6480213757369
 20
151.8595646611754
 10
117.6480213757369
 20
151.8595646611754
 10
117.6480213757369
 20
151.8595646611754
 10
117.6480213757369
 20
151.8595646611754
 10
117.13229024137
 20
155.18150017429
 10
114.7162431837115
 20
155.886194920681
 10
113.3351034925446
 20
155.886194920681
 10
111.9829026225447
 20
155.886194920681
 10
108.3414342923792
 20
156.1251124501957
 10
106.2595617172429
 20
153.4105476718098
 97
        0
 75
     2
 76
     1
 98
        0
  0
ENDBLK
  5
3C8
330
3BD
100
AcDbEntity
  8
0
100
AcDbBlockEnd
  0
BLOCK
  5
11F1
330
11F0
100
AcDbEntity
  8
0
100
AcDbBlockBegin
  2
BLOCK_2
 70
     0
 10
0.0
 20
0.0
 30
0.0
  3
BLOCK_2
  1
BLOCK_2
  0
ENDBLK
  5
11F2
330
11F0
100
AcDbEntity
  8
0
100
AcDbBlockEnd
  0
BLOCK
  5
19BA
330
19B9
100
AcDbEntity
  8
0
100
AcDbBlockBegin
  2
*D7
 70
     1
 10
0.0
 20
0.0
 30
0.0
  3
*D7
  1
*D171
  0
LINE
  5
19BC
330
19B9
100
AcDbEntity
  8
Dim
  6
Continuous
 62
     0
370
    -2
100
AcDbLine
 10
-1099.996083546581
 20
2038.96504316011
 30
0.0
 11
-1099.996083546581
 21
2303.281849329459
 31
0.0
  0
LINE
  5
19BD
330
19B9
100
AcDbEntity
  8
Dim
  6
Continuous
 62
     0
370
    -2
100
AcDbLine
 10
-1799.89088807097
 20
2038.96504316011
 30
0.0
 11
-1799.89088807097
 21
2303.281849329459
 31
0.0
  0
LINE
  5
19BE
330
19B9
100
AcDbEntity
  8
Dim
  6
Continuous
 62
     0
370
    -2
100
AcDbLine
 10
-1108.996083546581
 20
2303.281849329459
 30
0.0
 11
-1790.89088807097
 21
2303.281849329459
 31
0.0
  0
INSERT
  5
19BF
330
19B9
100
AcDbEntity
  8
Dim
 62
     0
370
    -2
100
AcDbBlockReference
  2
_DOT
 10
-1099.996083546581
 20
2303.281849329459
 30
0.0
 41
9.0
 42
9.0
 43
9.0
  0
INSERT
  5
19C0
330
19B9
100
AcDbEntity
  8
Dim
 62
     0
370
    -2
100
AcDbBlockReference
  2
_DOT
 10
-1799.89088807097
 20
2303.281849329459
 30
0.0
 41
9.0
 42
9.0
 43
9.0
 50
180.0
  0
MTEXT
  5
19C1
330
19B9
100
AcDbEntity
  8
Dim
  6
Continuous
 62
     0
100
AcDbMText
 10
-1449.943485808775
 20
2325.498157923209
 30
0.0
 40
24.4326171875
 41
0.0
 46
0.0
 71
     5
 72
     1
  1
\A1;700
  7
ＭＳ ゴシック
 73
     1
 44
1.0
  0
POINT
  5
19C2
330
19B9
100
AcDbEntity
  8
Defpoints
 62
     0
100
AcDbPoint
 10
-1099.996083546581
 20
2013.96504316011
 30
0.0
  0
POINT
  5
19C3
330
19B9
100
AcDbEntity
  8
Defpoints
 62
     0
100
AcDbPoint
 10
-1799.89088807097
 20
2013.96504316011
 30
0.0
  0
POINT
  5
19C4
330
19B9
100
AcDbEntity
  8
Defpoints
 62
     0
100
AcDbPoint
 10
-1799.89088807097
 20
2303.281849329459
 30
0.0
  0
ENDBLK
  5
19BB
330
19B9
100
AcDbEntity
  8
0
100
AcDbBlockEnd
  0
BLOCK
  5
19D6
330
19D5
100
AcDbEntity
  8
0
100
AcDbBlockBegin
  2
*D8
 70
     1
 10
0.0
 20
0.0
 30
0.0
  3
*D8
  1
*D173
  0
LINE
  5
19D8
330
19D5
100
AcDbEntity
  8
Dim
  6
Continuous
 62
     0
370
    -2
100
AcDbLine
 10
-1249.325954287327
 20
2198.454981313166
 30
0.0
 11
-1025.715534479406
 21
2198.454981313166
 31
0.0
  0
LINE
  5
19D9
330
19D5
100
AcDbEntity
  8
Dim
  6
Continuous
 62
     0
370
    -2
100
AcDbLine
 10
-1249.325954287327
 20
1828.454981313166
 30
0.0
 11
-1025.715534479406
 21
1828.454981313166
 31
0.0
  0
LINE
  5
19DA
330
19D5
100
AcDbEntity
  8
Dim
  6
Continuous
 62
     0
370
    -2
100
AcDbLine
 10
-1025.715534479406
 20
2189.454981313166
 30
0.0
 11
-1025.715534479406
 21
1837.454981313166
 31
0.0
  0
INSERT
  5
19DB
330
19D5
100
AcDbEntity
  8
Dim
 62
     0
370
    -2
100
AcDbBlockReference
  2
_DOT
 10
-1025.715534479406
 20
2198.454981313166
 30
0.0
 41
9.0
 42
9.0
 43
9.0
 50
90.0
  0
INSERT
  5
19DC
330
19D5
100
AcDbEntity
  8
Dim
 62
     0
370
    -2
100
AcDbBlockReference
  2
_DOT
 10
-1025.715534479406
 20
1828.454981313166
 30
0.0
 41
9.0
 42
9.0
 43
9.0
 50
270.0
  0
MTEXT
  5
19DD
330
19D5
100
AcDbEntity
  8
Dim
  6
Continuous
 62
     0
100
AcDbMText
 10
-1047.931843073156
 20
2013.454981313166
 30
0.0
 40
24.4326171875
 41
0.0
 46
0.0
 71
     5
 72
     1
  1
\A1;370
  7
ＭＳ ゴシック
 11
0.0
 21
1.0
 31
0.0
 73
     1
 44
1.0
  0
POINT
  5
19DE
330
19D5
100
AcDbEntity
  8
Defpoints
 62
     0
100
AcDbPoint
 10
-1274.325954287327
 20
2198.454981313166
 30
0.0
  0
POINT
  5
19DF
330
19D5
100
AcDbEntity
  8
Defpoints
 62
     0
100
AcDbPoint
 10
-1274.325954287327
 20
1828.454981313166
 30
0.0
  0
POINT
  5
19E0
330
19D5
100
AcDbEntity
  8
Defpoints
 62
     0
100
AcDbPoint
 10
-1025.715534479406
 20
1828.454981313166
 30
0.0
  0
ENDBLK
  5
19D7
330
19D5
100
AcDbEntity
  8
0
100
AcDbBlockEnd
  0
BLOCK
  5
19E6
330
19E5
100
AcDbEntity
  8
0
100
AcDbBlockBegin
  2
*D9
 70
     1
 10
0.0
 20
0.0
 30
0.0
  3
*D9
  1
*D174
  0
LINE
  5
19E8
330
19E5
100
AcDbEntity
  8
Dim
  6
Continuous
 62
     0
370
    -2
100
AcDbLine
 10
-1658.462652838284
 20
2171.208593363257
 30
0.0
 11
-1848.980854296902
 21
2171.208593363257
 31
0.0
  0
LINE
  5
19E9
330
19E5
100
AcDbEntity
  8
Dim
  6
Continuous
 62
     0
370
    -2
100
AcDbLine
 10
-1658.462652838284
 20
1856.208593363257
 30
0.0
 11
-1848.980854296902
 21
1856.208593363257
 31
0.0
  0
LINE
  5
19EA
330
19E5
100
AcDbEntity
  8
Dim
  6
Continuous
 62
     0
370
    -2
100
AcDbLine
 10
-1848.980854296902
 20
2162.208593363257
 30
0.0
 11
-1848.980854296902
 21
1865.208593363257
 31
0.0
  0
INSERT
  5
19EB
330
19E5
100
AcDbEntity
  8
Dim
 62
     0
370
    -2
100
AcDbBlockReference
  2
_DOT
 10
-1848.980854296902
 20
2171.208593363257
 30
0.0
 41
9.0
 42
9.0
 43
9.0
 50
90.0
  0
INSERT
  5
19EC
330
19E5
100
AcDbEntity
  8
Dim
 62
     0
370
    -2
100
AcDbBlockReference
  2
_DOT
 10
-1848.980854296902
 20
1856.208593363257
 30
0.0
 41
9.0
 42
9.0
 43
9.0
 50
270.0
  0
MTEXT
  5
19ED
330
19E5
100
AcDbEntity
  8
Dim
  6
Continuous
 62
     0
100
AcDbMText
 10
-1871.197162890652
 20
2013.708593363257
 30
0.0
 40
24.4326171875
 41
0.0
 46
0.0
 71
     5
 72
     1
  1
\A1;315
  7
ＭＳ ゴシック
 11
0.0
 21
1.0
 31
0.0
 73
     1
 44
1.0
  0
POINT
  5
19EE
330
19E5
100
AcDbEntity
  8
Defpoints
 62
     0
100
AcDbPoint
 10
-1633.462652838284
 20
2171.208593363257
 30
0.0
  0
POINT
  5
19EF
330
19E5
100
AcDbEntity
  8
Defpoints
 62
     0
100
AcDbPoint
 10
-1633.462652838284
 20
1856.208593363257
 30
0.0
  0
POINT
  5
19F0
330
19E5
100
AcDbEntity
  8
Defpoints
 62
     0
100
AcDbPoint
 10
-1848.980854296902
 20
1856.208593363257
 30
0.0
  0
ENDBLK
  5
19E7
330
19E5
100
AcDbEntity
  8
0
100
AcDbBlockEnd
  0
BLOCK
  5
19F5
330
19F4
100
AcDbEntity
  8
0
100
AcDbBlockBegin
  2
*D10
 70
     1
 10
0.0
 20
0.0
 30
0.0
  3
*D10
  1
*D175
  0
LINE
  5
19F7
330
19F4
100
AcDbEntity
  8
Dim
  6
Continuous
 62
     0
370
    -2
100
AcDbLine
 10
-1769.89088878071
 20
1962.447941487623
 30
0.0
 11
-1769.89088878071
 21
1742.239402837962
 31
0.0
  0
LINE
  5
19F8
330
19F4
100
AcDbEntity
  8
Dim
  6
Continuous
 62
     0
370
    -2
100
AcDbLine
 10
-1129.996082836847
 20
1962.447941487651
 30
0.0
 11
-1129.996082836847
 21
1742.239402837962
 31
0.0
  0
LINE
  5
19F9
330
19F4
100
AcDbEntity
  8
Dim
  6
Continuous
 62
     0
370
    -2
100
AcDbLine
 10
-1760.89088878071
 20
1742.239402837962
 30
0.0
 11
-1138.996082836847
 21
1742.239402837962
 31
0.0
  0
INSERT
  5
19FA
330
19F4
100
AcDbEntity
  8
Dim
 62
     0
370
    -2
100
AcDbBlockReference
  2
_DOT
 10
-1769.89088878071
 20
1742.239402837962
 30
0.0
 41
9.0
 42
9.0
 43
9.0
 50
180.0
  0
INSERT
  5
19FB
330
19F4
100
AcDbEntity
  8
Dim
 62
     0
370
    -2
100
AcDbBlockReference
  2
_DOT
 10
-1129.996082836847
 20
1742.239402837962
 30
0.0
 41
9.0
 42
9.0
 43
9.0
  0
MTEXT
  5
19FC
330
19F4
100
AcDbEntity
  8
Dim
  6
Continuous
 62
     0
100
AcDbMText
 10
-1449.943485808778
 20
1764.455711431712
 30
0.0
 40
24.4326171875
 41
0.0
 46
0.0
 71
     5
 72
     1
  1
\A1;640
  7
ＭＳ ゴシック
 73
     1
 44
1.0
  0
POINT
  5
19FD
330
19F4
100
AcDbEntity
  8
Defpoints
 62
     0
100
AcDbPoint
 10
-1769.89088878071
 20
1987.447941487623
 30
0.0
  0
POINT
  5
19FE
330
19F4
100
AcDbEntity
  8
Defpoints
 62
     0
100
AcDbPoint
 10
-1129.996082836847
 20
1987.447941487651
 30
0.0
  0
POINT
  5
19FF
330
19F4
100
AcDbEntity
  8
Defpoints
 62
     0
100
AcDbPoint
 10
-1129.996082836847
 20
1742.239402837962
 30
0.0
  0
ENDBLK
  5
19F6
330
19F4
100
AcDbEntity
  8
0
100
AcDbBlockEnd
  0
BLOCK
  5
1A05
330
1A04
100
AcDbEntity
  8
0
100
AcDbBlockBegin
  2
*D11
 70
     1
 10
0.0
 20
0.0
 30
0.0
  3
*D11
  1
*D176
  0
LINE
  5
1A07
330
1A04
100
AcDbEntity
  8
Dim
  6
Continuous
 62
     0
370
    -2
100
AcDbLine
 10
-327.3720526930472
 20
986.4496762339288
 30
0.0
 11
-327.3720526930472
 21
735.8857509555712
 31
0.0
  0
LINE
  5
1A08
330
1A04
100
AcDbEntity
  8
Dim
  6
Continuous
 62
     0
370
    -2
100
AcDbLine
 10
-512.3720526930472
 20
778.9884752019805
 30
0.0
 11
-512.3720526930472
 21
735.8857509555712
 31
0.0
  0
LINE
  5
1A09
330
1A04
100
AcDbEntity
  8
Dim
  6
Continuous
 62
     0
370
    -2
100
AcDbLine
 10
-336.3720526930472
 20
735.8857509555712
 30
0.0
 11
-503.3720526930472
 21
735.8857509555712
 31
0.0
  0
INSERT
  5
1A0A
330
1A04
100
AcDbEntity
  8
Dim
 62
     0
370
    -2
100
AcDbBlockReference
  2
_DOT
 10
-327.3720526930472
 20
735.8857509555712
 30
0.0
 41
9.0
 42
9.0
 43
9.0
  0
INSERT
  5
1A0B
330
1A04
100
AcDbEntity
  8
Dim
 62
     0
370
    -2
100
AcDbBlockReference
  2
_DOT
 10
-512.3720526930472
 20
735.8857509555712
 30
0.0
 41
9.0
 42
9.0
 43
9.0
 50
180.0
  0
MTEXT
  5
1A0C
330
1A04
100
AcDbEntity
  8
Dim
  6
Continuous
 62
     0
100
AcDbMText
 10
-419.8720526930472
 20
758.1020595493212
 30
0.0
 40
24.4326171875
 41
0.0
 46
0.0
 71
     5
 72
     1
  1
\A1;185
  7
ＭＳ ゴシック
 73
     1
 44
1.0
  0
POINT
  5
1A0D
330
1A04
100
AcDbEntity
  8
Defpoints
 62
     0
100
AcDbPoint
 10
-327.3720526930472
 20
1011.449676233929
 30
0.0
  0
POINT
  5
1A0E
330
1A04
100
AcDbEntity
  8
Defpoints
 62
     0
100
AcDbPoint
 10
-512.3720526930472
 20
803.9884752019805
 30
0.0
  0
POINT
  5
1A0F
330
1A04
100
AcDbEntity
  8
Defpoints
 62
     0
100
AcDbPoint
 10
-512.3720526930472
 20
735.8857509555712
 30
0.0
  0
ENDBLK
  5
1A06
330
1A04
100
AcDbEntity
  8
0
100
AcDbBlockEnd
  0
BLOCK
  5
1A1A
330
1A19
100
AcDbEntity
  8
0
100
AcDbBlockBegin
  2
*D12
 70
     1
 10
0.0
 20
0.0
 30
0.0
  3
*D12
  1
*D177
  0
LINE
  5
1A1C
330
1A19
100
AcDbEntity
  8
Dim
  6
Continuous
 62
     0
370
    -2
100
AcDbLine
 10
-719.6927189960682
 20
1042.146970822732
 30
0.0
 11
-761.3768901128972
 21
1042.146970822732
 31
0.0
  0
LINE
  5
1A1D
330
1A19
100
AcDbEntity
  8
Dim
  6
Continuous
 62
     0
370
    -2
100
AcDbLine
 10
-702.471264939091
 20
967.2331786268264
 30
0.0
 11
-761.3768901128972
 21
967.2331786268264
 31
0.0
  0
LINE
  5
1A1E
330
1A19
100
AcDbEntity
  8
Dim
  6
Continuous
 62
     0
370
    -2
100
AcDbLine
 10
-761.3768901128972
 20
1033.146970822732
 30
0.0
 11
-761.3768901128972
 21
976.2331786268264
 31
0.0
  0
INSERT
  5
1A1F
330
1A19
100
AcDbEntity
  8
Dim
 62
     0
370
    -2
100
AcDbBlockReference
  2
_DOT
 10
-761.3768901128972
 20
1042.146970822732
 30
0.0
 41
9.0
 42
9.0
 43
9.0
 50
90.0
  0
INSERT
  5
1A20
330
1A19
100
AcDbEntity
  8
Dim
 62
     0
370
    -2
100
AcDbBlockReference
  2
_DOT
 10
-761.3768901128972
 20
967.2331786268264
 30
0.0
 41
9.0
 42
9.0
 43
9.0
 50
270.0
  0
MTEXT
  5
1A21
330
1A19
100
AcDbEntity
  8
Dim
  6
Continuous
 62
     0
100
AcDbMText
 10
-783.5931987066472
 20
1004.690074724779
 30
0.0
 40
24.4326171875
 41
0.0
 46
0.0
 71
     5
 72
     1
  1
\A1;75
  7
ＭＳ ゴシック
 11
0.0
 21
1.0
 31
0.0
 73
     1
 44
1.0
  0
POINT
  5
1A22
330
1A19
100
AcDbEntity
  8
Defpoints
 62
     0
100
AcDbPoint
 10
-694.6927189960682
 20
1042.146970822732
 30
0.0
  0
POINT
  5
1A23
330
1A19
100
AcDbEntity
  8
Defpoints
 62
     0
100
AcDbPoint
 10
-677.471264939091
 20
967.2331786268264
 30
0.0
  0
POINT
  5
1A24
330
1A19
100
AcDbEntity
  8
Defpoints
 62
     0
100
AcDbPoint
 10
-761.3768901128972
 20
967.2331786268264
 30
0.0
  0
ENDBLK
  5
1A1B
330
1A19
100
AcDbEntity
  8
0
100
AcDbBlockEnd
  0
BLOCK
  5
1A27
330
1A26
100
AcDbEntity
  8
0
100
AcDbBlockBegin
  2
*D13
 70
     1
 10
0.0
 20
0.0
 30
0.0
  3
*D13
  1
*D178
  0
LINE
  5
1A29
330
1A26
100
AcDbEntity
  8
Dim
  6
Continuous
 62
     0
370
    -2
100
AcDbLine
 10
-727.471264939091
 20
967.2331786268264
 30
0.0
 11
-761.3768901128972
 21
967.2331786268264
 31
0.0
  0
LINE
  5
1A2A
330
1A26
100
AcDbEntity
  8
Dim
  6
Continuous
 62
     0
370
    -2
100
AcDbLine
 10
-664.2463188304221
 20
892.2331786268264
 30
0.0
 11
-761.3768901128972
 21
892.2331786268264
 31
0.0
  0
LINE
  5
1A2B
330
1A26
100
AcDbEntity
  8
Dim
  6
Continuous
 62
     0
370
    -2
100
AcDbLine
 10
-761.3768901128972
 20
958.2331786268264
 30
0.0
 11
-761.3768901128972
 21
901.2331786268264
 31
0.0
  0
INSERT
  5
1A2C
330
1A26
100
AcDbEntity
  8
Dim
 62
     0
370
    -2
100
AcDbBlockReference
  2
_DOT
 10
-761.3768901128972
 20
967.2331786268264
 30
0.0
 41
9.0
 42
9.0
 43
9.0
 50
90.0
  0
INSERT
  5
1A2D
330
1A26
100
AcDbEntity
  8
Dim
 62
     0
370
    -2
100
AcDbBlockReference
  2
_DOT
 10
-761.3768901128972
 20
892.2331786268264
 30
0.0
 41
9.0
 42
9.0
 43
9.0
 50
270.0
  0
MTEXT
  5
1A2E
330
1A26
100
AcDbEntity
  8
Dim
  6
Continuous
 62
     0
100
AcDbMText
 10
-783.5931987066472
 20
929.7331786268264
 30
0.0
 40
24.4326171875
 41
0.0
 46
0.0
 71
     5
 72
     1
  1
\A1;75
  7
ＭＳ ゴシック
 11
0.0
 21
1.0
 31
0.0
 73
     1
 44
1.0
  0
POINT
  5
1A2F
330
1A26
100
AcDbEntity
  8
Defpoints
 62
     0
100
AcDbPoint
 10
-702.471264939091
 20
967.2331786268264
 30
0.0
  0
POINT
  5
1A30
330
1A26
100
AcDbEntity
  8
Defpoints
 62
     0
100
AcDbPoint
 10
-639.2463188304221
 20
892.2331786268264
 30
0.0
  0
POINT
  5
1A31
330
1A26
100
AcDbEntity
  8
Defpoints
 62
     0
100
AcDbPoint
 10
-761.3768901128972
 20
892.2331786268264
 30
0.0
  0
ENDBLK
  5
1A28
330
1A26
100
AcDbEntity
  8
0
100
AcDbBlockEnd
  0
BLOCK
  5
1A37
330
1A36
100
AcDbEntity
  8
0
100
AcDbBlockBegin
  2
*D14
 70
     1
 10
0.0
 20
0.0
 30
0.0
  3
*D14
  1
*D179
  0
LINE
  5
1A39
330
1A36
100
AcDbEntity
  8
Dim
  6
Continuous
 62
     0
370
    -2
100
AcDbLine
 10
-1079.023640787445
 20
1042.154778093721
 30
0.0
 11
-1010.950968915361
 21
1042.154778093721
 31
0.0
  0
LINE
  5
1A3A
330
1A36
100
AcDbEntity
  8
Dim
  6
Continuous
 62
     0
370
    -2
100
AcDbLine
 10
-1127.580864198037
 20
892.1547780937206
 30
0.0
 11
-1010.950968915361
 21
892.1547780937206
 31
0.0
  0
LINE
  5
1A3B
330
1A36
100
AcDbEntity
  8
Dim
  6
Continuous
 62
     0
370
    -2
100
AcDbLine
 10
-1010.950968915361
 20
1033.154778093721
 30
0.0
 11
-1010.950968915361
 21
901.1547780937206
 31
0.0
  0
INSERT
  5
1A3C
330
1A36
100
AcDbEntity
  8
Dim
 62
     0
370
    -2
100
AcDbBlockReference
  2
_DOT
 10
-1010.950968915361
 20
1042.154778093721
 30
0.0
 41
9.0
 42
9.0
 43
9.0
 50
90.0
  0
INSERT
  5
1A3D
330
1A36
100
AcDbEntity
  8
Dim
 62
     0
370
    -2
100
AcDbBlockReference
  2
_DOT
 10
-1010.950968915361
 20
892.1547780937206
 30
0.0
 41
9.0
 42
9.0
 43
9.0
 50
270.0
  0
MTEXT
  5
1A3E
330
1A36
100
AcDbEntity
  8
Dim
  6
Continuous
 62
     0
100
AcDbMText
 10
-1033.167277509111
 20
967.1547780937207
 30
0.0
 40
24.4326171875
 41
0.0
 46
0.0
 71
     5
 72
     1
  1
\A1;150
  7
ＭＳ ゴシック
 11
0.0
 21
1.0
 31
0.0
 73
     1
 44
1.0
  0
POINT
  5
1A3F
330
1A36
100
AcDbEntity
  8
Defpoints
 62
     0
100
AcDbPoint
 10
-1104.023640787445
 20
1042.154778093721
 30
0.0
  0
POINT
  5
1A40
330
1A36
100
AcDbEntity
  8
Defpoints
 62
     0
100
AcDbPoint
 10
-1152.580864198037
 20
892.1547780937206
 30
0.0
  0
POINT
  5
1A41
330
1A36
100
AcDbEntity
  8
Defpoints
 62
     0
100
AcDbPoint
 10
-1010.950968915361
 20
892.1547780937206
 30
0.0
  0
ENDBLK
  5
1A38
330
1A36
100
AcDbEntity
  8
0
100
AcDbBlockEnd
  0
BLOCK
  5
1A44
330
1A43
100
AcDbEntity
  8
0
100
AcDbBlockBegin
  2
*D15
 70
     1
 10
0.0
 20
0.0
 30
0.0
  3
*D15
  1
*D180
  0
LINE
  5
1A46
330
1A43
100
AcDbEntity
  8
Dim
  6
Continuous
 62
     0
370
    -2
100
AcDbLine
 10
-1730.498314026006
 20
864.0829322445534
 30
0.0
 11
-1730.498314026006
 21
800.3750743564613
 31
0.0
  0
LINE
  5
1A47
330
1A43
100
AcDbEntity
  8
Dim
  6
Continuous
 62
     0
370
    -2
100
AcDbLine
 10
-1165.498314026006
 20
864.0829322445534
 30
0.0
 11
-1165.498314026006
 21
800.3750743564613
 31
0.0
  0
LINE
  5
1A48
330
1A43
100
AcDbEntity
  8
Dim
  6
Continuous
 62
     0
370
    -2
100
AcDbLine
 10
-1721.498314026006
 20
800.3750743564613
 30
0.0
 11
-1174.498314026006
 21
800.3750743564613
 31
0.0
  0
INSERT
  5
1A49
330
1A43
100
AcDbEntity
  8
Dim
 62
     0
370
    -2
100
AcDbBlockReference
  2
_DOT
 10
-1730.498314026006
 20
800.3750743564613
 30
0.0
 41
9.0
 42
9.0
 43
9.0
 50
180.0
  0
INSERT
  5
1A4A
330
1A43
100
AcDbEntity
  8
Dim
 62
     0
370
    -2
100
AcDbBlockReference
  2
_DOT
 10
-1165.498314026006
 20
800.3750743564613
 30
0.0
 41
9.0
 42
9.0
 43
9.0
  0
MTEXT
  5
1A4B
330
1A43
100
AcDbEntity
  8
Dim
  6
Continuous
 62
     0
100
AcDbMText
 10
-1447.998314026006
 20
822.5913829502113
 30
0.0
 40
24.4326171875
 41
0.0
 46
0.0
 71
     5
 72
     1
  1
\A1;565
  7
ＭＳ ゴシック
 73
     1
 44
1.0
  0
POINT
  5
1A4C
330
1A43
100
AcDbEntity
  8
Defpoints
 62
     0
100
AcDbPoint
 10
-1730.498314026006
 20
889.0829322445534
 30
0.0
  0
POINT
  5
1A4D
330
1A43
100
AcDbEntity
  8
Defpoints
 62
     0
100
AcDbPoint
 10
-1165.498314026006
 20
889.0829322445534
 30
0.0
  0
POINT
  5
1A4E
330
1A43
100
AcDbEntity
  8
Defpoints
 62
     0
100
AcDbPoint
 10
-1165.498314026006
 20
800.3750743564613
 30
0.0
  0
ENDBLK
  5
1A45
330
1A43
100
AcDbEntity
  8
0
100
AcDbBlockEnd
  0
BLOCK
  5
1A8A
330
1A89
100
AcDbEntity
  8
0
100
AcDbBlockBegin
  2
*D16
 70
     1
 10
0.0
 20
0.0
 30
0.0
  3
*D16
  1
*D182
  0
LINE
  5
1A8C
330
1A89
100
AcDbEntity
  8
Dim
  6
Continuous
 62
     0
370
    -2
100
AcDbLine
 10
-629.8720526930472
 20
868.9935144224153
 30
0.0
 11
-629.8720526930472
 21
803.9884752019805
 31
0.0
  0
LINE
  5
1A8D
330
1A89
100
AcDbEntity
  8
Dim
  6
Continuous
 62
     0
370
    -2
100
AcDbLine
 10
-394.8720526930472
 20
868.9935144224153
 30
0.0
 11
-394.8720526930472
 21
803.9884752019805
 31
0.0
  0
LINE
  5
1A8E
330
1A89
100
AcDbEntity
  8
Dim
  6
Continuous
 62
     0
370
    -2
100
AcDbLine
 10
-620.8720526930472
 20
803.9884752019805
 30
0.0
 11
-403.8720526930472
 21
803.9884752019805
 31
0.0
  0
INSERT
  5
1A8F
330
1A89
100
AcDbEntity
  8
Dim
 62
     0
370
    -2
100
AcDbBlockReference
  2
_DOT
 10
-629.8720526930472
 20
803.9884752019805
 30
0.0
 41
9.0
 42
9.0
 43
9.0
 50
180.0
  0
INSERT
  5
1A90
330
1A89
100
AcDbEntity
  8
Dim
 62
     0
370
    -2
100
AcDbBlockReference
  2
_DOT
 10
-394.8720526930472
 20
803.9884752019805
 30
0.0
 41
9.0
 42
9.0
 43
9.0
  0
MTEXT
  5
1A91
330
1A89
100
AcDbEntity
  8
Dim
  6
Continuous
 62
     0
100
AcDbMText
 10
-512.3720526930472
 20
826.2047837957305
 30
0.0
 40
24.4326171875
 41
0.0
 46
0.0
 71
     5
 72
     1
  1
\A1;235
  7
ＭＳ ゴシック
 73
     1
 44
1.0
  0
POINT
  5
1A92
330
1A89
100
AcDbEntity
  8
Defpoints
 62
     0
100
AcDbPoint
 10
-629.8720526930472
 20
893.9935144224153
 30
0.0
  0
POINT
  5
1A93
330
1A89
100
AcDbEntity
  8
Defpoints
 62
     0
100
AcDbPoint
 10
-394.8720526930472
 20
893.9935144224153
 30
0.0
  0
POINT
  5
1A94
330
1A89
100
AcDbEntity
  8
Defpoints
 62
     0
100
AcDbPoint
 10
-394.8720526930472
 20
803.9884752019805
 30
0.0
  0
ENDBLK
  5
1A8B
330
1A89
100
AcDbEntity
  8
0
100
AcDbBlockEnd
  0
BLOCK
  5
1AA6
330
1AA5
100
AcDbEntity
  8
0
100
AcDbBlockBegin
  2
*D17
 70
     1
 10
0.0
 20
0.0
 30
0.0
  3
*D17
  1
*D183
  0
LINE
  5
1AA8
330
1AA5
100
AcDbEntity
  8
Dim
  6
Continuous
 62
     0
370
    -2
100
AcDbLine
 10
-512.3720447192811
 20
1042.148728416899
 30
0.0
 11
-512.3720447192811
 21
1212.524648338775
 31
0.0
  0
LINE
  5
1AA9
330
1AA5
100
AcDbEntity
  8
Dim
  6
Continuous
 62
     0
370
    -2
100
AcDbLine
 10
-512.3720447192811
 20
929.8244651276623
 30
0.0
 11
-512.3720447192811
 21
1033.148728416899
 31
0.0
  0
INSERT
  5
1AAA
330
1AA5
100
AcDbEntity
  8
Dim
 62
     0
370
    -2
100
AcDbBlockReference
  2
_DOT
 10
-512.3720447192811
 20
920.8244651276623
 30
0.0
 41
9.0
 42
9.0
 43
9.0
 50
270.0
  0
INSERT
  5
1AAB
330
1AA5
100
AcDbEntity
  8
Dim
 62
     0
370
    -2
100
AcDbBlockReference
  2
_DOT
 10
-512.3720447192811
 20
1042.148728416899
 30
0.0
 41
9.0
 42
9.0
 43
9.0
 50
90.0
  0
MTEXT
  5
1AAC
330
1AA5
100
AcDbEntity
  8
Dim
  6
Continuous
 62
     0
100
AcDbMText
 10
-536.7506399341248
 20
1136.336688377837
 30
0.0
 40
24.4326171875
 41
0.0
 46
0.0
 71
     5
 72
     1
  1
\A1;120(深さ)
  7
ＭＳ ゴシック
 11
0.0
 21
1.0
 31
0.0
 73
     1
 44
1.0
  0
POINT
  5
1AAD
330
1AA5
100
AcDbEntity
  8
Defpoints
 62
     0
100
AcDbPoint
 10
-512.372057990432
 20
920.8244651276623
 30
0.0
  0
POINT
  5
1AAE
330
1AA5
100
AcDbEntity
  8
Defpoints
 62
     0
100
AcDbPoint
 10
-512.3720507163941
 20
1042.148728416899
 30
0.0
  0
POINT
  5
1AB3
330
1AA5
100
AcDbEntity
  8
Defpoints
 62
     0
100
AcDbPoint
 10
-512.3720447192811
 20
1042.148728416899
 30
0.0
  0
ENDBLK
  5
1AA7
330
1AA5
100
AcDbEntity
  8
0
100
AcDbBlockEnd
  0
BLOCK
  5
1D2B
330
1D2A
100
AcDbEntity
  8
0
100
AcDbBlockBegin
  2
*D18
 70
     1
 10
0.0
 20
0.0
 30
0.0
  3
*D18
  1
*D21
  0
LINE
  5
1D2D
330
1D2A
100
AcDbEntity
  8
Dim
  6
Continuous
 62
     0
370
    -2
100
AcDbLine
 10
1576.401501298723
 20
906.5842408933662
 30
0.0
 11
1993.195881265048
 21
906.5842408933662
 31
0.0
  0
LINE
  5
1D2E
330
1D2A
100
AcDbEntity
  8
Dim
  6
Continuous
 62
     0
370
    -2
100
AcDbLine
 10
1576.401501298723
 20
1491.584240893366
 30
0.0
 11
1993.195881265048
 21
1491.584240893366
 31
0.0
  0
LINE
  5
1D2F
330
1D2A
100
AcDbEntity
  8
Dim
  6
Continuous
 62
     0
370
    -2
100
AcDbLine
 10
1993.195881265048
 20
915.5842408933662
 30
0.0
 11
1993.195881265048
 21
1482.584240893366
 31
0.0
  0
INSERT
  5
1D30
330
1D2A
100
AcDbEntity
  8
Dim
 62
     0
370
    -2
100
AcDbBlockReference
  2
_DOT
 10
1993.195881265048
 20
906.5842408933662
 30
0.0
 41
9.0
 42
9.0
 43
9.0
 50
270.0
  0
INSERT
  5
1D31
330
1D2A
100
AcDbEntity
  8
Dim
 62
     0
370
    -2
100
AcDbBlockReference
  2
_DOT
 10
1993.195881265048
 20
1491.584240893366
 30
0.0
 41
9.0
 42
9.0
 43
9.0
 50
90.0
  0
MTEXT
  5
1D32
330
1D2A
100
AcDbEntity
  8
Dim
  6
Continuous
 62
     0
100
AcDbMText
 10
1970.979572671298
 20
1199.084240893366
 30
0.0
 40
24.4326171875
 41
0.0
 46
0.0
 71
     5
 72
     1
  1
\A1;585
  7
ＭＳ ゴシック
 11
0.0
 21
1.0
 31
0.0
 73
     1
 44
1.0
  0
POINT
  5
1D33
330
1D2A
100
AcDbEntity
  8
Defpoints
 62
     0
100
AcDbPoint
 10
1551.401501298723
 20
906.5842408933662
 30
0.0
  0
POINT
  5
1D34
330
1D2A
100
AcDbEntity
  8
Defpoints
 62
     0
100
AcDbPoint
 10
1551.401501298723
 20
1491.584240893366
 30
0.0
  0
POINT
  5
1D35
330
1D2A
100
AcDbEntity
  8
Defpoints
 62
     0
100
AcDbPoint
 10
1993.195881265048
 20
1491.584240893366
 30
0.0
  0
ENDBLK
  5
1D2C
330
1D2A
100
AcDbEntity
  8
0
100
AcDbBlockEnd
  0
BLOCK
  5
1D62
330
1D61
100
AcDbEntity
  8
0
100
AcDbBlockBegin
  2
*D19
 70
     1
 10
0.0
 20
0.0
 30
0.0
  3
*D19
  1
*D22
  0
LINE
  5
1D64
330
1D61
100
AcDbEntity
  8
Dim
  6
Continuous
 62
     0
370
    -2
100
AcDbLine
 10
-1802.320018943331
 20
2348.233806452299
 30
0.0
 11
-1802.320018943331
 21
2409.656509134198
 31
0.0
  0
LINE
  5
1D65
330
1D61
100
AcDbEntity
  8
Dim
  6
Continuous
 62
     0
370
    -2
100
AcDbLine
 10
-1502.320018943331
 20
2348.233806452299
 30
0.0
 11
-1502.320018943331
 21
2409.656509134198
 31
0.0
  0
LINE
  5
1D66
330
1D61
100
AcDbEntity
  8
Dim
  6
Continuous
 62
     0
370
    -2
100
AcDbLine
 10
-1793.320018943331
 20
2409.656509134198
 30
0.0
 11
-1511.320018943331
 21
2409.656509134198
 31
0.0
  0
INSERT
  5
1D67
330
1D61
100
AcDbEntity
  8
Dim
 62
     0
370
    -2
100
AcDbBlockReference
  2
_DOT
 10
-1802.320018943331
 20
2409.656509134198
 30
0.0
 41
9.0
 42
9.0
 43
9.0
 50
180.0
  0
INSERT
  5
1D68
330
1D61
100
AcDbEntity
  8
Dim
 62
     0
370
    -2
100
AcDbBlockReference
  2
_DOT
 10
-1502.320018943331
 20
2409.656509134198
 30
0.0
 41
9.0
 42
9.0
 43
9.0
  0
MTEXT
  5
1D69
330
1D61
100
AcDbEntity
  8
Dim
  6
Continuous
 62
     0
100
AcDbMText
 10
-1652.320018943331
 20
2431.872817727948
 30
0.0
 40
24.4326171875
 41
0.0
 46
0.0
 71
     5
 72
     1
  1
\A1;300
  7
ＭＳ ゴシック
 73
     1
 44
1.0
  0
POINT
  5
1D6A
330
1D61
100
AcDbEntity
  8
Defpoints
 62
     0
100
AcDbPoint
 10
-1802.320018943331
 20
2323.233806452299
 30
0.0
  0
POINT
  5
1D6B
330
1D61
100
AcDbEntity
  8
Defpoints
 62
     0
100
AcDbPoint
 10
-1502.320018943331
 20
2323.233806452299
 30
0.0
  0
POINT
  5
1D6C
330
1D61
100
AcDbEntity
  8
Defpoints
 62
     0
100
AcDbPoint
 10
-1502.320018943331
 20
2409.656509134198
 30
0.0
  0
ENDBLK
  5
1D63
330
1D61
100
AcDbEntity
  8
0
100
AcDbBlockEnd
  0
BLOCK
  5
1D6F
330
1D6E
100
AcDbEntity
  8
0
100
AcDbBlockBegin
  2
*D20
 70
     1
 10
0.0
 20
0.0
 30
0.0
  3
*D20
  1
*D23
  0
LINE
  5
1D71
330
1D6E
100
AcDbEntity
  8
Dim
  6
Continuous
 62
     0
370
    -2
100
AcDbLine
 10
-1822.320018943331
 20
2328.233806452299
 30
0.0
 11
-1897.72656454553
 21
2328.233806452299
 31
0.0
  0
LINE
  5
1D72
330
1D6E
100
AcDbEntity
  8
Dim
  6
Continuous
 62
     0
370
    -2
100
AcDbLine
 10
-1701.414851445574
 20
1978.233806452299
 30
0.0
 11
-1897.72656454553
 21
1978.233806452299
 31
0.0
  0
LINE
  5
1D73
330
1D6E
100
AcDbEntity
  8
Dim
  6
Continuous
 62
     0
370
    -2
100
AcDbLine
 10
-1897.72656454553
 20
2319.233806452299
 30
0.0
 11
-1897.72656454553
 21
1987.233806452299
 31
0.0
  0
INSERT
  5
1D74
330
1D6E
100
AcDbEntity
  8
Dim
 62
     0
370
    -2
100
AcDbBlockReference
  2
_DOT
 10
-1897.72656454553
 20
2328.233806452299
 30
0.0
 41
9.0
 42
9.0
 43
9.0
 50
90.0
  0
INSERT
  5
1D75
330
1D6E
100
AcDbEntity
  8
Dim
 62
     0
370
    -2
100
AcDbBlockReference
  2
_DOT
 10
-1897.72656454553
 20
1978.233806452299
 30
0.0
 41
9.0
 42
9.0
 43
9.0
 50
270.0
  0
MTEXT
  5
1D76
330
1D6E
100
AcDbEntity
  8
Dim
  6
Continuous
 62
     0
100
AcDbMText
 10
-1919.94287313928
 20
2153.233806452299
 30
0.0
 40
24.4326171875
 41
0.0
 46
0.0
 71
     5
 72
     1
  1
\A1;350
  7
ＭＳ ゴシック
 11
0.0
 21
1.0
 31
0.0
 73
     1
 44
1.0
  0
POINT
  5
1D77
330
1D6E
100
AcDbEntity
  8
Defpoints
 62
     0
100
AcDbPoint
 10
-1797.320018943331
 20
2328.233806452299
 30
0.0
  0
POINT
  5
1D78
330
1D6E
100
AcDbEntity
  8
Defpoints
 62
     0
100
AcDbPoint
 10
-1676.414851445574
 20
1978.233806452299
 30
0.0
  0
POINT
  5
1D79
330
1D6E
100
AcDbEntity
  8
Defpoints
 62
     0
100
AcDbPoint
 10
-1897.72656454553
 20
1978.233806452299
 30
0.0
  0
ENDBLK
  5
1D70
330
1D6E
100
AcDbEntity
  8
0
100
AcDbBlockEnd
  0
BLOCK
  5
1D7F
330
1D7E
100
AcDbEntity
  8
0
100
AcDbBlockBegin
  2
*D21
 70
     1
 10
0.0
 20
0.0
 30
0.0
  3
*D21
  1
*D24
  0
LINE
  5
1D81
330
1D7E
100
AcDbEntity
  8
Dim
  6
Continuous
 62
     0
370
    -2
100
AcDbLine
 10
-1729.727173968275
 20
1450.921144663482
 30
0.0
 11
-1729.727173968275
 21
1563.071573806972
 31
0.0
  0
LINE
  5
1D82
330
1D7E
100
AcDbEntity
  8
Dim
  6
Continuous
 62
     0
370
    -2
100
AcDbLine
 10
-1574.727173968275
 20
1450.921144663482
 30
0.0
 11
-1574.727173968275
 21
1563.071573806972
 31
0.0
  0
LINE
  5
1D83
330
1D7E
100
AcDbEntity
  8
Dim
  6
Continuous
 62
     0
370
    -2
100
AcDbLine
 10
-1720.727173968275
 20
1563.071573806972
 30
0.0
 11
-1583.727173968275
 21
1563.071573806972
 31
0.0
  0
INSERT
  5
1D84
330
1D7E
100
AcDbEntity
  8
Dim
 62
     0
370
    -2
100
AcDbBlockReference
  2
_DOT
 10
-1729.727173968275
 20
1563.071573806972
 30
0.0
 41
9.0
 42
9.0
 43
9.0
 50
180.0
  0
INSERT
  5
1D85
330
1D7E
100
AcDbEntity
  8
Dim
 62
     0
370
    -2
100
AcDbBlockReference
  2
_DOT
 10
-1574.727173968275
 20
1563.071573806972
 30
0.0
 41
9.0
 42
9.0
 43
9.0
  0
MTEXT
  5
1D86
330
1D7E
100
AcDbEntity
  8
Dim
  6
Continuous
 62
     0
100
AcDbMText
 10
-1652.227173968275
 20
1585.287882400722
 30
0.0
 40
24.4326171875
 41
0.0
 46
0.0
 71
     5
 72
     1
  1
\A1;155
  7
ＭＳ ゴシック
 73
     1
 44
1.0
  0
POINT
  5
1D87
330
1D7E
100
AcDbEntity
  8
Defpoints
 62
     0
100
AcDbPoint
 10
-1729.727173968275
 20
1425.921144663482
 30
0.0
  0
POINT
  5
1D88
330
1D7E
100
AcDbEntity
  8
Defpoints
 62
     0
100
AcDbPoint
 10
-1574.727173968275
 20
1425.921144663482
 30
0.0
  0
POINT
  5
1D89
330
1D7E
100
AcDbEntity
  8
Defpoints
 62
     0
100
AcDbPoint
 10
-1574.727173968275
 20
1563.071573806972
 30
0.0
  0
ENDBLK
  5
1D80
330
1D7E
100
AcDbEntity
  8
0
100
AcDbBlockEnd
  0
BLOCK
  5
1D93
330
1D92
100
AcDbEntity
  8
0
100
AcDbBlockBegin
  2
*D22
 70
     1
 10
0.0
 20
0.0
 30
0.0
  3
*D22
  1
*D25
  0
LINE
  5
1D95
330
1D92
100
AcDbEntity
  8
Dim
  6
Continuous
 62
     0
370
    -2
100
AcDbLine
 10
-1677.227274752836
 20
913.9690075558508
 30
0.0
 11
-1924.80201493491
 21
913.9690075558508
 31
0.0
  0
LINE
  5
1D96
330
1D92
100
AcDbEntity
  8
Dim
  6
Continuous
 62
     0
370
    -2
100
AcDbLine
 10
-1677.227274752836
 20
1293.969007555851
 30
0.0
 11
-1924.80201493491
 21
1293.969007555851
 31
0.0
  0
LINE
  5
1D97
330
1D92
100
AcDbEntity
  8
Dim
  6
Continuous
 62
     0
370
    -2
100
AcDbLine
 10
-1924.80201493491
 20
922.9690075558508
 30
0.0
 11
-1924.80201493491
 21
1284.969007555851
 31
0.0
  0
INSERT
  5
1D98
330
1D92
100
AcDbEntity
  8
Dim
 62
     0
370
    -2
100
AcDbBlockReference
  2
_DOT
 10
-1924.80201493491
 20
913.9690075558508
 30
0.0
 41
9.0
 42
9.0
 43
9.0
 50
270.0
  0
INSERT
  5
1D99
330
1D92
100
AcDbEntity
  8
Dim
 62
     0
370
    -2
100
AcDbBlockReference
  2
_DOT
 10
-1924.80201493491
 20
1293.969007555851
 30
0.0
 41
9.0
 42
9.0
 43
9.0
 50
90.0
  0
MTEXT
  5
1D9A
330
1D92
100
AcDbEntity
  8
Dim
  6
Continuous
 62
     0
100
AcDbMText
 10
-1947.01832352866
 20
1103.969007555851
 30
0.0
 40
24.4326171875
 41
0.0
 46
0.0
 71
     5
 72
     1
  1
\A1;380
  7
ＭＳ ゴシック
 11
0.0
 21
1.0
 31
0.0
 73
     1
 44
1.0
  0
POINT
  5
1D9B
330
1D92
100
AcDbEntity
  8
Defpoints
 62
     0
100
AcDbPoint
 10
-1652.227274752836
 20
913.9690075558508
 30
0.0
  0
POINT
  5
1D9C
330
1D92
100
AcDbEntity
  8
Defpoints
 62
     0
100
AcDbPoint
 10
-1652.227274752836
 20
1293.969007555851
 30
0.0
  0
POINT
  5
1D9D
330
1D92
100
AcDbEntity
  8
Defpoints
 62
     0
100
AcDbPoint
 10
-1924.80201493491
 20
1293.969007555851
 30
0.0
  0
ENDBLK
  5
1D94
330
1D92
100
AcDbEntity
  8
0
100
AcDbBlockEnd
  0
BLOCK
  5
1DA0
330
1D9F
100
AcDbEntity
  8
0
100
AcDbBlockBegin
  2
*D23
 70
     1
 10
0.0
 20
0.0
 30
0.0
  3
*D23
  1
*D26
  0
LINE
  5
1DA2
330
1D9F
100
AcDbEntity
  8
Dim
  6
Continuous
 62
     0
370
    -2
100
AcDbLine
 10
-1791.628718407438
 20
1293.969007555851
 30
0.0
 11
-1842.988240868976
 21
1293.969007555851
 31
0.0
  0
LINE
  5
1DA3
330
1D9F
100
AcDbEntity
  8
Dim
  6
Continuous
 62
     0
370
    -2
100
AcDbLine
 10
-1791.628718407438
 20
1218.969007555851
 30
0.0
 11
-1842.988240868976
 21
1218.969007555851
 31
0.0
  0
LINE
  5
1DA4
330
1D9F
100
AcDbEntity
  8
Dim
  6
Continuous
 62
     0
370
    -2
100
AcDbLine
 10
-1842.988240868976
 20
1284.969007555851
 30
0.0
 11
-1842.988240868976
 21
1227.969007555851
 31
0.0
  0
INSERT
  5
1DA5
330
1D9F
100
AcDbEntity
  8
Dim
 62
     0
370
    -2
100
AcDbBlockReference
  2
_DOT
 10
-1842.988240868976
 20
1293.969007555851
 30
0.0
 41
9.0
 42
9.0
 43
9.0
 50
90.0
  0
INSERT
  5
1DA6
330
1D9F
100
AcDbEntity
  8
Dim
 62
     0
370
    -2
100
AcDbBlockReference
  2
_DOT
 10
-1842.988240868976
 20
1218.969007555851
 30
0.0
 41
9.0
 42
9.0
 43
9.0
 50
270.0
  0
MTEXT
  5
1DA7
330
1D9F
100
AcDbEntity
  8
Dim
  6
Continuous
 62
     0
100
AcDbMText
 10
-1865.204549462726
 20
1256.469007555851
 30
0.0
 40
24.4326171875
 41
0.0
 46
0.0
 71
     5
 72
     1
  1
\A1;75
  7
ＭＳ ゴシック
 11
0.0
 21
1.0
 31
0.0
 73
     1
 44
1.0
  0
POINT
  5
1DA8
330
1D9F
100
AcDbEntity
  8
Defpoints
 62
     0
100
AcDbPoint
 10
-1766.628718407438
 20
1293.969007555851
 30
0.0
  0
POINT
  5
1DA9
330
1D9F
100
AcDbEntity
  8
Defpoints
 62
     0
100
AcDbPoint
 10
-1766.628718407438
 20
1218.969007555851
 30
0.0
  0
POINT
  5
1DAA
330
1D9F
100
AcDbEntity
  8
Defpoints
 62
     0
100
AcDbPoint
 10
-1842.988240868976
 20
1218.969007555851
 30
0.0
  0
ENDBLK
  5
1DA1
330
1D9F
100
AcDbEntity
  8
0
100
AcDbBlockEnd
  0
BLOCK
  5
1DB2
330
1DB1
100
AcDbEntity
  8
0
100
AcDbBlockBegin
  2
*D24
 70
     1
 10
0.0
 20
0.0
 30
0.0
  3
*D24
  1
*D27
  0
LINE
  5
1DB4
330
1DB1
100
AcDbEntity
  8
Dim
  6
Continuous
 62
     0
370
    -2
100
AcDbLine
 10
-1842.308479638207
 20
1293.969007555851
 30
0.0
 11
-1924.80201493491
 21
1293.969007555851
 31
0.0
  0
LINE
  5
1DB5
330
1DB1
100
AcDbEntity
  8
Dim
  6
Continuous
 62
     0
370
    -2
100
AcDbLine
 10
-1785.050454632409
 20
1498.969007555851
 30
0.0
 11
-1924.80201493491
 21
1498.969007555851
 31
0.0
  0
LINE
  5
1DB6
330
1DB1
100
AcDbEntity
  8
Dim
  6
Continuous
 62
     0
370
    -2
100
AcDbLine
 10
-1924.80201493491
 20
1302.969007555851
 30
0.0
 11
-1924.80201493491
 21
1489.969007555851
 31
0.0
  0
INSERT
  5
1DB7
330
1DB1
100
AcDbEntity
  8
Dim
 62
     0
370
    -2
100
AcDbBlockReference
  2
_DOT
 10
-1924.80201493491
 20
1293.969007555851
 30
0.0
 41
9.0
 42
9.0
 43
9.0
 50
270.0
  0
INSERT
  5
1DB8
330
1DB1
100
AcDbEntity
  8
Dim
 62
     0
370
    -2
100
AcDbBlockReference
  2
_DOT
 10
-1924.80201493491
 20
1498.969007555851
 30
0.0
 41
9.0
 42
9.0
 43
9.0
 50
90.0
  0
MTEXT
  5
1DB9
330
1DB1
100
AcDbEntity
  8
Dim
  6
Continuous
 62
     0
100
AcDbMText
 10
-1947.01832352866
 20
1396.469007555851
 30
0.0
 40
24.4326171875
 41
0.0
 46
0.0
 71
     5
 72
     1
  1
\A1;205
  7
ＭＳ ゴシック
 11
0.0
 21
1.0
 31
0.0
 73
     1
 44
1.0
  0
POINT
  5
1DBA
330
1DB1
100
AcDbEntity
  8
Defpoints
 62
     0
100
AcDbPoint
 10
-1817.308479638207
 20
1293.969007555851
 30
0.0
  0
POINT
  5
1DBB
330
1DB1
100
AcDbEntity
  8
Defpoints
 62
     0
100
AcDbPoint
 10
-1760.050454632409
 20
1498.969007555851
 30
0.0
  0
POINT
  5
1DBC
330
1DB1
100
AcDbEntity
  8
Defpoints
 62
     0
100
AcDbPoint
 10
-1924.80201493491
 20
1498.969007555851
 30
0.0
  0
ENDBLK
  5
1DB3
330
1DB1
100
AcDbEntity
  8
0
100
AcDbBlockEnd
  0
BLOCK
  5
1DCB
330
1DCA
100
AcDbEntity
  8
0
100
AcDbBlockBegin
  2
*D25
 70
     1
 10
0.0
 20
0.0
 30
0.0
  3
*D25
  1
*D28
  0
LINE
  5
1DCD
330
1DCA
100
AcDbEntity
  8
Dim
  6
Continuous
 62
     0
370
    -2
100
AcDbLine
 10
-1749.727278924326
 20
905.7964015400432
 30
0.0
 11
-1749.727278924326
 21
824.9839204147685
 31
0.0
  0
LINE
  5
1DCE
330
1DCA
100
AcDbEntity
  8
Dim
  6
Continuous
 62
     0
370
    -2
100
AcDbLine
 10
-1554.727278924326
 20
905.7964015400432
 30
0.0
 11
-1554.727278924326
 21
824.9839204147685
 31
0.0
  0
LINE
  5
1DCF
330
1DCA
100
AcDbEntity
  8
Dim
  6
Continuous
 62
     0
370
    -2
100
AcDbLine
 10
-1740.727278924326
 20
824.9839204147685
 30
0.0
 11
-1563.727278924326
 21
824.9839204147685
 31
0.0
  0
INSERT
  5
1DD0
330
1DCA
100
AcDbEntity
  8
Dim
 62
     0
370
    -2
100
AcDbBlockReference
  2
_DOT
 10
-1749.727278924326
 20
824.9839204147685
 30
0.0
 41
9.0
 42
9.0
 43
9.0
 50
180.0
  0
INSERT
  5
1DD1
330
1DCA
100
AcDbEntity
  8
Dim
 62
     0
370
    -2
100
AcDbBlockReference
  2
_DOT
 10
-1554.727278924326
 20
824.9839204147685
 30
0.0
 41
9.0
 42
9.0
 43
9.0
  0
MTEXT
  5
1DD2
330
1DCA
100
AcDbEntity
  8
Dim
  6
Continuous
 62
     0
100
AcDbMText
 10
-1652.227278924326
 20
847.2002290085185
 30
0.0
 40
24.4326171875
 41
0.0
 46
0.0
 71
     5
 72
     1
  1
\A1;195
  7
ＭＳ ゴシック
 73
     1
 44
1.0
  0
POINT
  5
1DD3
330
1DCA
100
AcDbEntity
  8
Defpoints
 62
     0
100
AcDbPoint
 10
-1749.727278924326
 20
930.7964015400432
 30
0.0
  0
POINT
  5
1DD4
330
1DCA
100
AcDbEntity
  8
Defpoints
 62
     0
100
AcDbPoint
 10
-1554.727278924326
 20
930.7964015400432
 30
0.0
  0
POINT
  5
1DD5
330
1DCA
100
AcDbEntity
  8
Defpoints
 62
     0
100
AcDbPoint
 10
-1554.727278924326
 20
824.9839204147685
 30
0.0
  0
ENDBLK
  5
1DCC
330
1DCA
100
AcDbEntity
  8
0
100
AcDbBlockEnd
  0
BLOCK
  5
1DDC
330
1DDB
100
AcDbEntity
  8
0
100
AcDbBlockBegin
  2
*D26
 70
     1
 10
0.0
 20
0.0
 30
0.0
  3
*D26
  1
*D29
  0
LINE
  5
1DDE
330
1DDB
100
AcDbEntity
  8
Dim
  6
Continuous
 62
     0
370
    -2
100
AcDbLine
 10
-1583.593261917671
 20
913.9690075558508
 30
0.0
 11
-1411.940743738183
 21
913.9690075558508
 31
0.0
  0
LINE
  5
1DDF
330
1DDB
100
AcDbEntity
  8
Dim
  6
Continuous
 62
     0
370
    -2
100
AcDbLine
 10
-1597.721327220261
 20
1033.968392931014
 30
0.0
 11
-1411.940743738183
 21
1033.968392931014
 31
0.0
  0
LINE
  5
1DE0
330
1DDB
100
AcDbEntity
  8
Dim
  6
Continuous
 62
     0
370
    -2
100
AcDbLine
 10
-1411.940743738183
 20
922.9690075558508
 30
0.0
 11
-1411.940743738183
 21
1024.968392931014
 31
0.0
  0
INSERT
  5
1DE1
330
1DDB
100
AcDbEntity
  8
Dim
 62
     0
370
    -2
100
AcDbBlockReference
  2
_DOT
 10
-1411.940743738183
 20
913.9690075558508
 30
0.0
 41
9.0
 42
9.0
 43
9.0
 50
270.0
  0
INSERT
  5
1DE2
330
1DDB
100
AcDbEntity
  8
Dim
 62
     0
370
    -2
100
AcDbBlockReference
  2
_DOT
 10
-1411.940743738183
 20
1033.968392931014
 30
0.0
 41
9.0
 42
9.0
 43
9.0
 50
90.0
  0
MTEXT
  5
1DE3
330
1DDB
100
AcDbEntity
  8
Dim
  6
Continuous
 62
     0
100
AcDbMText
 10
-1434.157052331933
 20
973.9687002434324
 30
0.0
 40
24.4326171875
 41
0.0
 46
0.0
 71
     5
 72
     1
  1
\A1;120
  7
ＭＳ ゴシック
 11
0.0
 21
1.0
 31
0.0
 73
     1
 44
1.0
  0
POINT
  5
1DE4
330
1DDB
100
AcDbEntity
  8
Defpoints
 62
     0
100
AcDbPoint
 10
-1608.593261917671
 20
913.9690075558508
 30
0.0
  0
POINT
  5
1DE5
330
1DDB
100
AcDbEntity
  8
Defpoints
 62
     0
100
AcDbPoint
 10
-1622.721327220261
 20
1033.968392931014
 30
0.0
  0
POINT
  5
1DE6
330
1DDB
100
AcDbEntity
  8
Defpoints
 62
     0
100
AcDbPoint
 10
-1411.940743738183
 20
1033.968392931014
 30
0.0
  0
ENDBLK
  5
1DDD
330
1DDB
100
AcDbEntity
  8
0
100
AcDbBlockEnd
  0
BLOCK
  5
1DEC
330
1DEB
100
AcDbEntity
  8
0
100
AcDbBlockBegin
  2
*D27
 70
     1
 10
0.0
 20
0.0
 30
0.0
  3
*D27
  1
*D30
  0
LINE
  5
1DEE
330
1DEB
100
AcDbEntity
  8
Dim
  6
Continuous
 62
     0
370
    -2
100
AcDbLine
 10
-1572.721327220261
 20
1033.968392931014
 30
0.0
 11
-1411.940743738183
 21
1033.968392931014
 31
0.0
  0
LINE
  5
1DEF
330
1DEB
100
AcDbEntity
  8
Dim
  6
Continuous
 62
     0
370
    -2
100
AcDbLine
 10
-1522.226403878397
 20
1218.968296935112
 30
0.0
 11
-1411.940743738183
 21
1218.968296935112
 31
0.0
  0
LINE
  5
1DF0
330
1DEB
100
AcDbEntity
  8
Dim
  6
Continuous
 62
     0
370
    -2
100
AcDbLine
 10
-1411.940743738183
 20
1042.968392931014
 30
0.0
 11
-1411.940743738183
 21
1209.968296935112
 31
0.0
  0
INSERT
  5
1DF1
330
1DEB
100
AcDbEntity
  8
Dim
 62
     0
370
    -2
100
AcDbBlockReference
  2
_DOT
 10
-1411.940743738183
 20
1033.968392931014
 30
0.0
 41
9.0
 42
9.0
 43
9.0
 50
270.0
  0
INSERT
  5
1DF2
330
1DEB
100
AcDbEntity
  8
Dim
 62
     0
370
    -2
100
AcDbBlockReference
  2
_DOT
 10
-1411.940743738183
 20
1218.968296935112
 30
0.0
 41
9.0
 42
9.0
 43
9.0
 50
90.0
  0
MTEXT
  5
1DF3
330
1DEB
100
AcDbEntity
  8
Dim
  6
Continuous
 62
     0
100
AcDbMText
 10
-1434.157052331933
 20
1126.468344933063
 30
0.0
 40
24.4326171875
 41
0.0
 46
0.0
 71
     5
 72
     1
  1
\A1;185
  7
ＭＳ ゴシック
 11
0.0
 21
1.0
 31
0.0
 73
     1
 44
1.0
  0
POINT
  5
1DF4
330
1DEB
100
AcDbEntity
  8
Defpoints
 62
     0
100
AcDbPoint
 10
-1597.721327220261
 20
1033.968392931014
 30
0.0
  0
POINT
  5
1DF5
330
1DEB
100
AcDbEntity
  8
Defpoints
 62
     0
100
AcDbPoint
 10
-1547.226403878397
 20
1218.968296935112
 30
0.0
  0
POINT
  5
1DF6
330
1DEB
100
AcDbEntity
  8
Defpoints
 62
     0
100
AcDbPoint
 10
-1411.940743738183
 20
1218.968296935112
 30
0.0
  0
ENDBLK
  5
1DED
330
1DEB
100
AcDbEntity
  8
0
100
AcDbBlockEnd
  0
BLOCK
  5
1DFC
330
1DFB
100
AcDbEntity
  8
0
100
AcDbBlockBegin
  2
*D28
 70
     1
 10
0.0
 20
0.0
 30
0.0
  3
*D28
  1
*D31
  0
LINE
  5
1DFE
330
1DFB
100
AcDbEntity
  8
Dim
  6
Continuous
 62
     0
370
    -2
100
AcDbLine
 10
-1497.226403878397
 20
1218.968296935112
 30
0.0
 11
-1411.940743738183
 21
1218.968296935112
 31
0.0
  0
LINE
  5
1DFF
330
1DFB
100
AcDbEntity
  8
Dim
  6
Continuous
 62
     0
370
    -2
100
AcDbLine
 10
-1605.744352098091
 20
1438.968392931014
 30
0.0
 11
-1411.940743738183
 21
1438.968392931014
 31
0.0
  0
LINE
  5
1E00
330
1DFB
100
AcDbEntity
  8
Dim
  6
Continuous
 62
     0
370
    -2
100
AcDbLine
 10
-1411.940743738183
 20
1227.968296935112
 30
0.0
 11
-1411.940743738183
 21
1429.968392931014
 31
0.0
  0
INSERT
  5
1E01
330
1DFB
100
AcDbEntity
  8
Dim
 62
     0
370
    -2
100
AcDbBlockReference
  2
_DOT
 10
-1411.940743738183
 20
1218.968296935112
 30
0.0
 41
9.0
 42
9.0
 43
9.0
 50
270.0
  0
INSERT
  5
1E02
330
1DFB
100
AcDbEntity
  8
Dim
 62
     0
370
    -2
100
AcDbBlockReference
  2
_DOT
 10
-1411.940743738183
 20
1438.968392931014
 30
0.0
 41
9.0
 42
9.0
 43
9.0
 50
90.0
  0
MTEXT
  5
1E03
330
1DFB
100
AcDbEntity
  8
Dim
  6
Continuous
 62
     0
100
AcDbMText
 10
-1434.157052331933
 20
1328.968344933063
 30
0.0
 40
24.4326171875
 41
0.0
 46
0.0
 71
     5
 72
     1
  1
\A1;220
  7
ＭＳ ゴシック
 11
0.0
 21
1.0
 31
0.0
 73
     1
 44
1.0
  0
POINT
  5
1E04
330
1DFB
100
AcDbEntity
  8
Defpoints
 62
     0
100
AcDbPoint
 10
-1522.226403878397
 20
1218.968296935112
 30
0.0
  0
POINT
  5
1E05
330
1DFB
100
AcDbEntity
  8
Defpoints
 62
     0
100
AcDbPoint
 10
-1630.744352098091
 20
1438.968392931014
 30
0.0
  0
POINT
  5
1E06
330
1DFB
100
AcDbEntity
  8
Defpoints
 62
     0
100
AcDbPoint
 10
-1411.940743738183
 20
1438.968392931014
 30
0.0
  0
ENDBLK
  5
1DFD
330
1DFB
100
AcDbEntity
  8
0
100
AcDbBlockEnd
  0
BLOCK
  5
1E1A
330
1E19
100
AcDbEntity
  8
0
100
AcDbBlockBegin
  2
*D29
 70
     1
 10
0.0
 20
0.0
 30
0.0
  3
*D29
  1
*D32
  0
LINE
  5
1E1C
330
1E19
100
AcDbEntity
  8
Dim
  6
Continuous
 62
     0
370
    -2
100
AcDbLine
 10
-704.016183814424
 20
1498.967726740677
 30
0.0
 11
-625.4742097051069
 21
1498.967726740677
 31
0.0
  0
LINE
  5
1E1D
330
1E19
100
AcDbEntity
  8
Dim
  6
Continuous
 62
     0
370
    -2
100
AcDbLine
 10
-704.016183814424
 20
1438.967726740677
 30
0.0
 11
-625.4742097051069
 21
1438.967726740677
 31
0.0
  0
LINE
  5
1E1E
330
1E19
100
AcDbEntity
  8
Dim
  6
Continuous
 62
     0
370
    -2
100
AcDbLine
 10
-625.4742097051069
 20
1489.967726740677
 30
0.0
 11
-625.4742097051069
 21
1447.967726740677
 31
0.0
  0
INSERT
  5
1E1F
330
1E19
100
AcDbEntity
  8
Dim
 62
     0
370
    -2
100
AcDbBlockReference
  2
_DOT
 10
-625.4742097051069
 20
1498.967726740677
 30
0.0
 41
9.0
 42
9.0
 43
9.0
 50
90.0
  0
INSERT
  5
1E20
330
1E19
100
AcDbEntity
  8
Dim
 62
     0
370
    -2
100
AcDbBlockReference
  2
_DOT
 10
-625.4742097051069
 20
1438.967726740677
 30
0.0
 41
9.0
 42
9.0
 43
9.0
 50
270.0
  0
MTEXT
  5
1E21
330
1E19
100
AcDbEntity
  8
Dim
  6
Continuous
 62
     0
100
AcDbMText
 10
-647.6905182988569
 20
1468.967726740677
 30
0.0
 40
24.4326171875
 41
0.0
 46
0.0
 71
     5
 72
     1
  1
\A1;60
  7
ＭＳ ゴシック
 11
0.0
 21
1.0
 31
0.0
 73
     1
 44
1.0
  0
POINT
  5
1E22
330
1E19
100
AcDbEntity
  8
Defpoints
 62
     0
100
AcDbPoint
 10
-729.016183814424
 20
1498.967726740677
 30
0.0
  0
POINT
  5
1E23
330
1E19
100
AcDbEntity
  8
Defpoints
 62
     0
100
AcDbPoint
 10
-729.016183814424
 20
1438.967726740677
 30
0.0
  0
POINT
  5
1E24
330
1E19
100
AcDbEntity
  8
Defpoints
 62
     0
100
AcDbPoint
 10
-625.4742097051069
 20
1438.967726740677
 30
0.0
  0
ENDBLK
  5
1E1B
330
1E19
100
AcDbEntity
  8
0
100
AcDbBlockEnd
  0
BLOCK
  5
1E27
330
1E26
100
AcDbEntity
  8
0
100
AcDbBlockBegin
  2
*D30
 70
     1
 10
0.0
 20
0.0
 30
0.0
  3
*D30
  1
*D33
  0
LINE
  5
1E29
330
1E26
100
AcDbEntity
  8
Dim
  6
Continuous
 62
     0
370
    -2
100
AcDbLine
 10
-679.016183814424
 20
1498.967726740677
 30
0.0
 11
-442.9836778245969
 21
1498.967726740677
 31
0.0
  0
LINE
  5
1E2A
330
1E26
100
AcDbEntity
  8
Dim
  6
Continuous
 62
     0
370
    -2
100
AcDbLine
 10
-679.016183814424
 20
913.9677267406764
 30
0.0
 11
-442.983677824597
 21
913.9677267406764
 31
0.0
  0
LINE
  5
1E2B
330
1E26
100
AcDbEntity
  8
Dim
  6
Continuous
 62
     0
370
    -2
100
AcDbLine
 10
-442.9836778245969
 20
1489.967726740677
 30
0.0
 11
-442.983677824597
 21
922.9677267406764
 31
0.0
  0
INSERT
  5
1E2C
330
1E26
100
AcDbEntity
  8
Dim
 62
     0
370
    -2
100
AcDbBlockReference
  2
_DOT
 10
-442.9836778245969
 20
1498.967726740677
 30
0.0
 41
9.0
 42
9.0
 43
9.0
 50
90.0
  0
INSERT
  5
1E2D
330
1E26
100
AcDbEntity
  8
Dim
 62
     0
370
    -2
100
AcDbBlockReference
  2
_DOT
 10
-442.983677824597
 20
913.9677267406764
 30
0.0
 41
9.0
 42
9.0
 43
9.0
 50
270.0
  0
MTEXT
  5
1E2E
330
1E26
100
AcDbEntity
  8
Dim
  6
Continuous
 62
     0
100
AcDbMText
 10
-465.199986418347
 20
1206.467726740677
 30
0.0
 40
24.4326171875
 41
0.0
 46
0.0
 71
     5
 72
     1
  1
\A1;585
  7
ＭＳ ゴシック
 11
9.716823736890252E-17
 21
1.0
 31
0.0
 73
     1
 44
1.0
  0
POINT
  5
1E2F
330
1E26
100
AcDbEntity
  8
Defpoints
 62
     0
100
AcDbPoint
 10
-704.016183814424
 20
1498.967726740677
 30
0.0
  0
POINT
  5
1E30
330
1E26
100
AcDbEntity
  8
Defpoints
 62
     0
100
AcDbPoint
 10
-704.016183814424
 20
913.9677267406764
 30
0.0
  0
POINT
  5
1E31
330
1E26
100
AcDbEntity
  8
Defpoints
 62
     0
100
AcDbPoint
 10
-442.983677824597
 20
913.9677267406764
 30
0.0
  0
ENDBLK
  5
1E28
330
1E26
100
AcDbEntity
  8
0
100
AcDbBlockEnd
  0
BLOCK
  5
1E34
330
1E33
100
AcDbEntity
  8
0
100
AcDbBlockBegin
  2
*D31
 70
     1
 10
0.0
 20
0.0
 30
0.0
  3
*D31
  1
*D34
  0
LINE
  5
1E36
330
1E33
100
AcDbEntity
  8
Dim
  6
Continuous
 62
     0
370
    -2
100
AcDbLine
 10
-679.016183814424
 20
1438.967726740677
 30
0.0
 11
-625.4742097051069
 21
1438.967726740677
 31
0.0
  0
LINE
  5
1E37
330
1E33
100
AcDbEntity
  8
Dim
  6
Continuous
 62
     0
370
    -2
100
AcDbLine
 10
-679.016183814424
 20
1113.967726740677
 30
0.0
 11
-625.4742097051069
 21
1113.967726740677
 31
0.0
  0
LINE
  5
1E38
330
1E33
100
AcDbEntity
  8
Dim
  6
Continuous
 62
     0
370
    -2
100
AcDbLine
 10
-625.4742097051069
 20
1429.967726740677
 30
0.0
 11
-625.4742097051069
 21
1122.967726740677
 31
0.0
  0
INSERT
  5
1E39
330
1E33
100
AcDbEntity
  8
Dim
 62
     0
370
    -2
100
AcDbBlockReference
  2
_DOT
 10
-625.4742097051069
 20
1438.967726740677
 30
0.0
 41
9.0
 42
9.0
 43
9.0
 50
90.0
  0
INSERT
  5
1E3A
330
1E33
100
AcDbEntity
  8
Dim
 62
     0
370
    -2
100
AcDbBlockReference
  2
_DOT
 10
-625.4742097051069
 20
1113.967726740677
 30
0.0
 41
9.0
 42
9.0
 43
9.0
 50
270.0
  0
MTEXT
  5
1E3B
330
1E33
100
AcDbEntity
  8
Dim
  6
Continuous
 62
     0
100
AcDbMText
 10
-647.6905182988569
 20
1276.467726740677
 30
0.0
 40
24.4326171875
 41
0.0
 46
0.0
 71
     5
 72
     1
  1
\A1;325
  7
ＭＳ ゴシック
 11
0.0
 21
1.0
 31
0.0
 73
     1
 44
1.0
  0
POINT
  5
1E3C
330
1E33
100
AcDbEntity
  8
Defpoints
 62
     0
100
AcDbPoint
 10
-704.016183814424
 20
1438.967726740677
 30
0.0
  0
POINT
  5
1E3D
330
1E33
100
AcDbEntity
  8
Defpoints
 62
     0
100
AcDbPoint
 10
-704.016183814424
 20
1113.967726740677
 30
0.0
  0
POINT
  5
1E3E
330
1E33
100
AcDbEntity
  8
Defpoints
 62
     0
100
AcDbPoint
 10
-625.4742097051069
 20
1113.967726740677
 30
0.0
  0
ENDBLK
  5
1E35
330
1E33
100
AcDbEntity
  8
0
100
AcDbBlockEnd
  0
BLOCK
  5
1E41
330
1E40
100
AcDbEntity
  8
0
100
AcDbBlockBegin
  2
*D32
 70
     1
 10
0.0
 20
0.0
 30
0.0
  3
*D32
  1
*D35
  0
LINE
  5
1E43
330
1E40
100
AcDbEntity
  8
Dim
  6
Continuous
 62
     0
370
    -2
100
AcDbLine
 10
-610.5318496636119
 20
1438.967726740677
 30
0.0
 11
-530.810218859217
 21
1438.967726740677
 31
0.0
  0
LINE
  5
1E44
330
1E40
100
AcDbEntity
  8
Dim
  6
Continuous
 62
     0
370
    -2
100
AcDbLine
 10
-610.5318496636119
 20
1033.967726740677
 30
0.0
 11
-530.810218859217
 21
1033.967726740677
 31
0.0
  0
LINE
  5
1E45
330
1E40
100
AcDbEntity
  8
Dim
  6
Continuous
 62
     0
370
    -2
100
AcDbLine
 10
-530.810218859217
 20
1429.967726740677
 30
0.0
 11
-530.810218859217
 21
1042.967726740677
 31
0.0
  0
INSERT
  5
1E46
330
1E40
100
AcDbEntity
  8
Dim
 62
     0
370
    -2
100
AcDbBlockReference
  2
_DOT
 10
-530.810218859217
 20
1438.967726740677
 30
0.0
 41
9.0
 42
9.0
 43
9.0
 50
90.0
  0
INSERT
  5
1E47
330
1E40
100
AcDbEntity
  8
Dim
 62
     0
370
    -2
100
AcDbBlockReference
  2
_DOT
 10
-530.810218859217
 20
1033.967726740677
 30
0.0
 41
9.0
 42
9.0
 43
9.0
 50
270.0
  0
MTEXT
  5
1E48
330
1E40
100
AcDbEntity
  8
Dim
  6
Continuous
 62
     0
100
AcDbMText
 10
-553.026527452967
 20
1236.467726740677
 30
0.0
 40
24.4326171875
 41
0.0
 46
0.0
 71
     5
 72
     1
  1
\A1;405
  7
ＭＳ ゴシック
 11
0.0
 21
1.0
 31
0.0
 73
     1
 44
1.0
  0
POINT
  5
1E49
330
1E40
100
AcDbEntity
  8
Defpoints
 62
     0
100
AcDbPoint
 10
-635.5318496636119
 20
1438.967726740677
 30
0.0
  0
POINT
  5
1E4A
330
1E40
100
AcDbEntity
  8
Defpoints
 62
     0
100
AcDbPoint
 10
-635.5318496636119
 20
1033.967726740677
 30
0.0
  0
POINT
  5
1E4B
330
1E40
100
AcDbEntity
  8
Defpoints
 62
     0
100
AcDbPoint
 10
-530.810218859217
 20
1033.967726740677
 30
0.0
  0
ENDBLK
  5
1E42
330
1E40
100
AcDbEntity
  8
0
100
AcDbBlockEnd
  0
BLOCK
  5
1FEF
330
1FEE
100
AcDbEntity
  8
0
100
AcDbBlockBegin
  2
*D33
 70
     1
 10
0.0
 20
0.0
 30
0.0
  3
*D33
  1
*D34
  0
LINE
  5
1FF1
330
1FEE
100
AcDbEntity
  8
Dim
  6
Continuous
 62
     0
370
    -2
100
AcDbLine
 10
499.5560155192011
 20
2347.175917891133
 30
0.0
 11
390.3631383711897
 21
2347.175917891133
 31
0.0
  0
LINE
  5
1FF2
330
1FEE
100
AcDbEntity
  8
Dim
  6
Continuous
 62
     0
370
    -2
100
AcDbLine
 10
649.0560155191998
 20
2057.175917891133
 30
0.0
 11
390.3631383711897
 21
2057.175917891133
 31
0.0
  0
LINE
  5
1FF3
330
1FEE
100
AcDbEntity
  8
Dim
  6
Continuous
 62
     0
370
    -2
100
AcDbLine
 10
390.3631383711897
 20
2338.175917891133
 30
0.0
 11
390.3631383711897
 21
2066.175917891133
 31
0.0
  0
INSERT
  5
1FF4
330
1FEE
100
AcDbEntity
  8
Dim
 62
     0
370
    -2
100
AcDbBlockReference
  2
_DOT
 10
390.3631383711897
 20
2347.175917891133
 30
0.0
 41
9.0
 42
9.0
 43
9.0
 50
90.0
  0
INSERT
  5
1FF5
330
1FEE
100
AcDbEntity
  8
Dim
 62
     0
370
    -2
100
AcDbBlockReference
  2
_DOT
 10
390.3631383711897
 20
2057.175917891133
 30
0.0
 41
9.0
 42
9.0
 43
9.0
 50
270.0
  0
MTEXT
  5
1FF6
330
1FEE
100
AcDbEntity
  8
Dim
  6
Continuous
 62
     0
100
AcDbMText
 10
368.1468297774397
 20
2202.175917891133
 30
0.0
 40
24.4326171875
 41
0.0
 46
0.0
 71
     5
 72
     1
  1
\A1;290
  7
ＭＳ ゴシック
 11
0.0
 21
1.0
 31
0.0
 73
     1
 44
1.0
  0
POINT
  5
1FF7
330
1FEE
100
AcDbEntity
  8
Defpoints
 62
     0
100
AcDbPoint
 10
524.5560155192011
 20
2347.175917891133
 30
0.0
  0
POINT
  5
1FF8
330
1FEE
100
AcDbEntity
  8
Defpoints
 62
     0
100
AcDbPoint
 10
674.0560155191998
 20
2057.175917891133
 30
0.0
  0
POINT
  5
1FF9
330
1FEE
100
AcDbEntity
  8
Defpoints
 62
     0
100
AcDbPoint
 10
390.3631383711897
 20
2057.175917891133
 30
0.0
  0
ENDBLK
  5
1FF0
330
1FEE
100
AcDbEntity
  8
0
100
AcDbBlockEnd
  0
BLOCK
  5
1FFC
330
1FFB
100
AcDbEntity
  8
0
100
AcDbBlockBegin
  2
*D34
 70
     1
 10
0.0
 20
0.0
 30
0.0
  3
*D34
  1
*D35
  0
LINE
  5
1FFE
330
1FFB
100
AcDbEntity
  8
Dim
  6
Continuous
 62
     0
370
    -2
100
AcDbLine
 10
521.5560155192012
 20
2369.175917891133
 30
0.0
 11
521.5560155192012
 21
2438.713204269817
 31
0.0
  0
LINE
  5
1FFF
330
1FFB
100
AcDbEntity
  8
Dim
  6
Continuous
 62
     0
370
    -2
100
AcDbLine
 10
826.5560155192012
 20
2369.175917891133
 30
0.0
 11
826.5560155192012
 21
2438.713204269817
 31
0.0
  0
LINE
  5
2000
330
1FFB
100
AcDbEntity
  8
Dim
  6
Continuous
 62
     0
370
    -2
100
AcDbLine
 10
530.5560155192012
 20
2438.713204269817
 30
0.0
 11
817.5560155192012
 21
2438.713204269817
 31
0.0
  0
INSERT
  5
2001
330
1FFB
100
AcDbEntity
  8
Dim
 62
     0
370
    -2
100
AcDbBlockReference
  2
_DOT
 10
521.5560155192012
 20
2438.713204269817
 30
0.0
 41
9.0
 42
9.0
 43
9.0
 50
180.0
  0
INSERT
  5
2002
330
1FFB
100
AcDbEntity
  8
Dim
 62
     0
370
    -2
100
AcDbBlockReference
  2
_DOT
 10
826.5560155192012
 20
2438.713204269817
 30
0.0
 41
9.0
 42
9.0
 43
9.0
  0
MTEXT
  5
2003
330
1FFB
100
AcDbEntity
  8
Dim
  6
Continuous
 62
     0
100
AcDbMText
 10
674.0560155192012
 20
2460.929512863567
 30
0.0
 40
24.4326171875
 41
0.0
 46
0.0
 71
     5
 72
     1
  1
\A1;305
  7
ＭＳ ゴシック
 73
     1
 44
1.0
  0
POINT
  5
2004
330
1FFB
100
AcDbEntity
  8
Defpoints
 62
     0
100
AcDbPoint
 10
521.5560155192012
 20
2344.175917891133
 30
0.0
  0
POINT
  5
2005
330
1FFB
100
AcDbEntity
  8
Defpoints
 62
     0
100
AcDbPoint
 10
826.5560155192012
 20
2344.175917891133
 30
0.0
  0
POINT
  5
2006
330
1FFB
100
AcDbEntity
  8
Defpoints
 62
     0
100
AcDbPoint
 10
826.5560155192012
 20
2438.713204269817
 30
0.0
  0
ENDBLK
  5
1FFD
330
1FFB
100
AcDbEntity
  8
0
100
AcDbBlockEnd
  0
BLOCK
  5
2020
330
201F
100
AcDbEntity
  8
0
100
AcDbBlockBegin
  2
*D35
 70
     1
 10
0.0
 20
0.0
 30
0.0
  3
*D35
  1
*D36
  0
LINE
  5
2022
330
201F
100
AcDbEntity
  8
Dim
  6
Continuous
 62
     0
370
    -2
100
AcDbLine
 10
1596.440439034873
 20
1485.261497639278
 30
0.0
 11
1653.458531781507
 21
1485.261497639278
 31
0.0
  0
LINE
  5
2023
330
201F
100
AcDbEntity
  8
Dim
  6
Continuous
 62
     0
370
    -2
100
AcDbLine
 10
1587.619965080455
 20
1440.255259167713
 30
0.0
 11
1653.458531781507
 21
1440.255259167713
 31
0.0
  0
LINE
  5
2024
330
201F
100
AcDbEntity
  8
Dim
  6
Continuous
 62
     0
370
    -2
100
AcDbLine
 10
1653.458531781507
 20
1476.261497639278
 30
0.0
 11
1653.458531781507
 21
1449.255259167713
 31
0.0
  0
INSERT
  5
2025
330
201F
100
AcDbEntity
  8
Dim
 62
     0
370
    -2
100
AcDbBlockReference
  2
_DOT
 10
1653.458531781507
 20
1485.261497639278
 30
0.0
 41
9.0
 42
9.0
 43
9.0
 50
90.0
  0
INSERT
  5
2026
330
201F
100
AcDbEntity
  8
Dim
 62
     0
370
    -2
100
AcDbBlockReference
  2
_DOT
 10
1653.458531781507
 20
1440.255259167713
 30
0.0
 41
9.0
 42
9.0
 43
9.0
 50
270.0
  0
MTEXT
  5
2027
330
201F
100
AcDbEntity
  8
Dim
  6
Continuous
 62
     0
100
AcDbMText
 10
1631.242223187757
 20
1462.758378403495
 30
0.0
 40
24.4326171875
 41
0.0
 46
0.0
 71
     5
 72
     1
  1
\A1;45
  7
ＭＳ ゴシック
 11
0.0
 21
1.0
 31
0.0
 73
     1
 44
1.0
  0
POINT
  5
2028
330
201F
100
AcDbEntity
  8
Defpoints
 62
     0
100
AcDbPoint
 10
1571.440439034873
 20
1485.261497639278
 30
0.0
  0
POINT
  5
2029
330
201F
100
AcDbEntity
  8
Defpoints
 62
     0
100
AcDbPoint
 10
1562.619965080455
 20
1440.255259167713
 30
0.0
  0
POINT
  5
20AE
330
201F
100
AcDbEntity
  8
Defpoints
 62
     0
100
AcDbPoint
 10
1653.458531781507
 20
1440.255259167713
 30
0.0
  0
ENDBLK
  5
2021
330
201F
100
AcDbEntity
  8
0
100
AcDbBlockEnd
  0
BLOCK
  5
202C
330
202B
100
AcDbEntity
  8
0
100
AcDbBlockBegin
  2
*D36
 70
     1
 10
0.0
 20
0.0
 30
0.0
  3
*D36
  1
*D37
  0
LINE
  5
202E
330
202B
100
AcDbEntity
  8
Dim
  6
Continuous
 62
     0
370
    -2
100
AcDbLine
 10
1571.440439034873
 20
1485.261497639278
 30
0.0
 11
1835.949063662017
 21
1485.261497639278
 31
0.0
  0
LINE
  5
202F
330
202B
100
AcDbEntity
  8
Dim
  6
Continuous
 62
     0
370
    -2
100
AcDbLine
 10
1571.440439034873
 20
920.2552591677131
 30
0.0
 11
1835.949063662017
 21
920.2552591677131
 31
0.0
  0
LINE
  5
2030
330
202B
100
AcDbEntity
  8
Dim
  6
Continuous
 62
     0
370
    -2
100
AcDbLine
 10
1835.949063662017
 20
1476.261497639278
 30
0.0
 11
1835.949063662017
 21
929.2552591677131
 31
0.0
  0
INSERT
  5
2031
330
202B
100
AcDbEntity
  8
Dim
 62
     0
370
    -2
100
AcDbBlockReference
  2
_DOT
 10
1835.949063662017
 20
1485.261497639278
 30
0.0
 41
9.0
 42
9.0
 43
9.0
 50
90.0
  0
INSERT
  5
2032
330
202B
100
AcDbEntity
  8
Dim
 62
     0
370
    -2
100
AcDbBlockReference
  2
_DOT
 10
1835.949063662017
 20
920.2552591677131
 30
0.0
 41
9.0
 42
9.0
 43
9.0
 50
270.0
  0
MTEXT
  5
2033
330
202B
100
AcDbEntity
  8
Dim
  6
Continuous
 62
     0
100
AcDbMText
 10
1813.732755068267
 20
1202.758378403495
 30
0.0
 40
24.4326171875
 41
0.0
 46
0.0
 71
     5
 72
     1
  1
\A1;565
  7
ＭＳ ゴシック
 11
0.0
 21
1.0
 31
0.0
 73
     1
 44
1.0
  0
POINT
  5
2034
330
202B
100
AcDbEntity
  8
Defpoints
 62
     0
100
AcDbPoint
 10
1546.440439034873
 20
1485.261497639278
 30
0.0
  0
POINT
  5
2035
330
202B
100
AcDbEntity
  8
Defpoints
 62
     0
100
AcDbPoint
 10
1546.440439034873
 20
920.2552591677131
 30
0.0
  0
POINT
  5
2036
330
202B
100
AcDbEntity
  8
Defpoints
 62
     0
100
AcDbPoint
 10
1835.949063662017
 20
920.2552591677131
 30
0.0
  0
ENDBLK
  5
202D
330
202B
100
AcDbEntity
  8
0
100
AcDbBlockEnd
  0
BLOCK
  5
2038
330
2037
100
AcDbEntity
  8
0
100
AcDbBlockBegin
  2
*D37
 70
     1
 10
0.0
 20
0.0
 30
0.0
  3
*D37
  1
*D38
  0
LINE
  5
203A
330
2037
100
AcDbEntity
  8
Dim
  6
Continuous
 62
     0
370
    -2
100
AcDbLine
 10
1473.920140893475
 20
1385.255259167713
 30
0.0
 11
1653.458531781507
 21
1385.255259167713
 31
0.0
  0
LINE
  5
203B
330
2037
100
AcDbEntity
  8
Dim
  6
Continuous
 62
     0
370
    -2
100
AcDbLine
 10
1587.619965080455
 20
1015.255259167713
 30
0.0
 11
1653.458531781507
 21
1015.255259167713
 31
0.0
  0
LINE
  5
203C
330
2037
100
AcDbEntity
  8
Dim
  6
Continuous
 62
     0
370
    -2
100
AcDbLine
 10
1653.458531781507
 20
1376.255259167713
 30
0.0
 11
1653.458531781507
 21
1024.255259167713
 31
0.0
  0
INSERT
  5
203D
330
2037
100
AcDbEntity
  8
Dim
 62
     0
370
    -2
100
AcDbBlockReference
  2
_DOT
 10
1653.458531781507
 20
1385.255259167713
 30
0.0
 41
9.0
 42
9.0
 43
9.0
 50
90.0
  0
INSERT
  5
203E
330
2037
100
AcDbEntity
  8
Dim
 62
     0
370
    -2
100
AcDbBlockReference
  2
_DOT
 10
1653.458531781507
 20
1015.255259167713
 30
0.0
 41
9.0
 42
9.0
 43
9.0
 50
270.0
  0
MTEXT
  5
203F
330
2037
100
AcDbEntity
  8
Dim
  6
Continuous
 62
     0
100
AcDbMText
 10
1631.242223187757
 20
1200.255259167713
 30
0.0
 40
24.4326171875
 41
0.0
 46
0.0
 71
     5
 72
     1
  1
\A1;370
  7
ＭＳ ゴシック
 11
0.0
 21
1.0
 31
0.0
 73
     1
 44
1.0
  0
POINT
  5
2040
330
2037
100
AcDbEntity
  8
Defpoints
 62
     0
100
AcDbPoint
 10
1448.920140893475
 20
1385.255259167713
 30
0.0
  0
POINT
  5
2041
330
2037
100
AcDbEntity
  8
Defpoints
 62
     0
100
AcDbPoint
 10
1562.619965080455
 20
1015.255259167713
 30
0.0
  0
POINT
  5
2042
330
2037
100
AcDbEntity
  8
Defpoints
 62
     0
100
AcDbPoint
 10
1653.458531781507
 20
1015.255259167713
 30
0.0
  0
ENDBLK
  5
2039
330
2037
100
AcDbEntity
  8
0
100
AcDbBlockEnd
  0
BLOCK
  5
2044
330
2043
100
AcDbEntity
  8
0
100
AcDbBlockBegin
  2
*D38
 70
     1
 10
0.0
 20
0.0
 30
0.0
  3
*D38
  1
*D39
  0
LINE
  5
2046
330
2043
100
AcDbEntity
  8
Dim
  6
Continuous
 62
     0
370
    -2
100
AcDbLine
 10
1596.440439034873
 20
1485.261497639278
 30
0.0
 11
1748.122522627397
 21
1485.261497639278
 31
0.0
  0
LINE
  5
2047
330
2043
100
AcDbEntity
  8
Dim
  6
Continuous
 62
     0
370
    -2
100
AcDbLine
 10
1587.619965080455
 20
1015.255259167713
 30
0.0
 11
1748.122522627397
 21
1015.255259167713
 31
0.0
  0
LINE
  5
2048
330
2043
100
AcDbEntity
  8
Dim
  6
Continuous
 62
     0
370
    -2
100
AcDbLine
 10
1748.122522627397
 20
1476.261497639278
 30
0.0
 11
1748.122522627397
 21
1024.255259167713
 31
0.0
  0
INSERT
  5
2049
330
2043
100
AcDbEntity
  8
Dim
 62
     0
370
    -2
100
AcDbBlockReference
  2
_DOT
 10
1748.122522627397
 20
1485.261497639278
 30
0.0
 41
9.0
 42
9.0
 43
9.0
 50
90.0
  0
INSERT
  5
204A
330
2043
100
AcDbEntity
  8
Dim
 62
     0
370
    -2
100
AcDbBlockReference
  2
_DOT
 10
1748.122522627397
 20
1015.255259167713
 30
0.0
 41
9.0
 42
9.0
 43
9.0
 50
270.0
  0
MTEXT
  5
204B
330
2043
100
AcDbEntity
  8
Dim
  6
Continuous
 62
     0
100
AcDbMText
 10
1725.906214033647
 20
1250.258378403495
 30
0.0
 40
24.4326171875
 41
0.0
 46
0.0
 71
     5
 72
     1
  1
\A1;470
  7
ＭＳ ゴシック
 11
0.0
 21
1.0
 31
0.0
 73
     1
 44
1.0
  0
POINT
  5
204C
330
2043
100
AcDbEntity
  8
Defpoints
 62
     0
100
AcDbPoint
 10
1571.440439034873
 20
1485.261497639278
 30
0.0
  0
POINT
  5
204D
330
2043
100
AcDbEntity
  8
Defpoints
 62
     0
100
AcDbPoint
 10
1562.619965080455
 20
1015.255259167713
 30
0.0
  0
POINT
  5
204E
330
2043
100
AcDbEntity
  8
Defpoints
 62
     0
100
AcDbPoint
 10
1748.122522627397
 20
1015.255259167713
 30
0.0
  0
ENDBLK
  5
2045
330
2043
100
AcDbEntity
  8
0
100
AcDbBlockEnd
  0
BLOCK
  5
2057
330
2056
100
AcDbEntity
  8
0
100
AcDbBlockBegin
  2
*D39
 70
     1
 10
0.0
 20
0.0
 30
0.0
  3
*D39
  1
*D40
  0
LINE
  5
2059
330
2056
100
AcDbEntity
  8
Dim
  6
Continuous
 62
     0
370
    -2
100
AcDbLine
 10
781.0912404657008
 20
927.9202574377132
 30
0.0
 11
934.3462013167591
 21
927.9202574377132
 31
0.0
  0
LINE
  5
205A
330
2056
100
AcDbEntity
  8
Dim
  6
Continuous
 62
     0
370
    -2
100
AcDbLine
 10
726.5560155192009
 20
1015.255259167713
 30
0.0
 11
934.3462013167591
 21
1015.255259167713
 31
0.0
  0
LINE
  5
205B
330
2056
100
AcDbEntity
  8
Dim
  6
Continuous
 62
     0
370
    -2
100
AcDbLine
 10
934.3462013167591
 20
936.9202574377132
 30
0.0
 11
934.3462013167591
 21
1006.255259167713
 31
0.0
  0
INSERT
  5
205C
330
2056
100
AcDbEntity
  8
Dim
 62
     0
370
    -2
100
AcDbBlockReference
  2
_DOT
 10
934.3462013167591
 20
927.9202574377132
 30
0.0
 41
9.0
 42
9.0
 43
9.0
 50
270.0
  0
INSERT
  5
205D
330
2056
100
AcDbEntity
  8
Dim
 62
     0
370
    -2
100
AcDbBlockReference
  2
_DOT
 10
934.3462013167591
 20
1015.255259167713
 30
0.0
 41
9.0
 42
9.0
 43
9.0
 50
90.0
  0
MTEXT
  5
205E
330
2056
100
AcDbEntity
  8
Dim
  6
Continuous
 62
     0
100
AcDbMText
 10
912.1298927230091
 20
971.5877583027132
 30
0.0
 40
24.4326171875
 41
0.0
 46
0.0
 71
     5
 72
     1
  1
\A1;87
  7
ＭＳ ゴシック
 11
0.0
 21
1.0
 31
0.0
 73
     1
 44
1.0
  0
POINT
  5
205F
330
2056
100
AcDbEntity
  8
Defpoints
 62
     0
100
AcDbPoint
 10
756.0912404657008
 20
927.9202574377132
 30
0.0
  0
POINT
  5
2060
330
2056
100
AcDbEntity
  8
Defpoints
 62
     0
100
AcDbPoint
 10
701.5560155192009
 20
1015.255259167713
 30
0.0
  0
POINT
  5
2061
330
2056
100
AcDbEntity
  8
Defpoints
 62
     0
100
AcDbPoint
 10
934.3462013167591
 20
1015.255259167713
 30
0.0
  0
ENDBLK
  5
2058
330
2056
100
AcDbEntity
  8
0
100
AcDbBlockEnd
  0
BLOCK
  5
2063
330
2062
100
AcDbEntity
  8
0
100
AcDbBlockBegin
  2
*D40
 70
     1
 10
0.0
 20
0.0
 30
0.0
  3
*D40
  1
*D41
  0
LINE
  5
2065
330
2062
100
AcDbEntity
  8
Dim
  6
Continuous
 62
     0
370
    -2
100
AcDbLine
 10
726.5560155192009
 20
1015.255259167713
 30
0.0
 11
934.3462013167591
 21
1015.255259167713
 31
0.0
  0
LINE
  5
2066
330
2062
100
AcDbEntity
  8
Dim
  6
Continuous
 62
     0
370
    -2
100
AcDbLine
 10
824.0605411765446
 20
1225.254548546974
 30
0.0
 11
934.3462013167591
 21
1225.254548546974
 31
0.0
  0
LINE
  5
2067
330
2062
100
AcDbEntity
  8
Dim
  6
Continuous
 62
     0
370
    -2
100
AcDbLine
 10
934.3462013167591
 20
1024.255259167713
 30
0.0
 11
934.3462013167591
 21
1216.254548546974
 31
0.0
  0
INSERT
  5
2068
330
2062
100
AcDbEntity
  8
Dim
 62
     0
370
    -2
100
AcDbBlockReference
  2
_DOT
 10
934.3462013167591
 20
1015.255259167713
 30
0.0
 41
9.0
 42
9.0
 43
9.0
 50
270.0
  0
INSERT
  5
2069
330
2062
100
AcDbEntity
  8
Dim
 62
     0
370
    -2
100
AcDbBlockReference
  2
_DOT
 10
934.3462013167591
 20
1225.254548546974
 30
0.0
 41
9.0
 42
9.0
 43
9.0
 50
90.0
  0
MTEXT
  5
206A
330
2062
100
AcDbEntity
  8
Dim
  6
Continuous
 62
     0
100
AcDbMText
 10
912.1298927230091
 20
1120.254903857344
 30
0.0
 40
24.4326171875
 41
0.0
 46
0.0
 71
     5
 72
     1
  1
\A1;210
  7
ＭＳ ゴシック
 11
0.0
 21
1.0
 31
0.0
 73
     1
 44
1.0
  0
POINT
  5
206B
330
2062
100
AcDbEntity
  8
Defpoints
 62
     0
100
AcDbPoint
 10
701.5560155192009
 20
1015.255259167713
 30
0.0
  0
POINT
  5
206C
330
2062
100
AcDbEntity
  8
Defpoints
 62
     0
100
AcDbPoint
 10
799.0605411765446
 20
1225.254548546974
 30
0.0
  0
POINT
  5
206D
330
2062
100
AcDbEntity
  8
Defpoints
 62
     0
100
AcDbPoint
 10
934.3462013167591
 20
1225.254548546974
 30
0.0
  0
ENDBLK
  5
2064
330
2062
100
AcDbEntity
  8
0
100
AcDbBlockEnd
  0
BLOCK
  5
206F
330
206E
100
AcDbEntity
  8
0
100
AcDbBlockBegin
  2
*D41
 70
     1
 10
0.0
 20
0.0
 30
0.0
  3
*D41
  1
*D42
  0
LINE
  5
2071
330
206E
100
AcDbEntity
  8
Dim
  6
Continuous
 62
     0
370
    -2
100
AcDbLine
 10
849.0605411765446
 20
1225.254548546974
 30
0.0
 11
934.3462013167591
 21
1225.254548546974
 31
0.0
  0
LINE
  5
2072
330
206E
100
AcDbEntity
  8
Dim
  6
Continuous
 62
     0
370
    -2
100
AcDbLine
 10
724.0058399417651
 20
1438.551814026756
 30
0.0
 11
934.3462013167591
 21
1438.551814026756
 31
0.0
  0
LINE
  5
2073
330
206E
100
AcDbEntity
  8
Dim
  6
Continuous
 62
     0
370
    -2
100
AcDbLine
 10
934.3462013167591
 20
1234.254548546974
 30
0.0
 11
934.3462013167591
 21
1429.551814026756
 31
0.0
  0
INSERT
  5
2074
330
206E
100
AcDbEntity
  8
Dim
 62
     0
370
    -2
100
AcDbBlockReference
  2
_DOT
 10
934.3462013167591
 20
1225.254548546974
 30
0.0
 41
9.0
 42
9.0
 43
9.0
 50
270.0
  0
INSERT
  5
2075
330
206E
100
AcDbEntity
  8
Dim
 62
     0
370
    -2
100
AcDbBlockReference
  2
_DOT
 10
934.3462013167591
 20
1438.551814026756
 30
0.0
 41
9.0
 42
9.0
 43
9.0
 50
90.0
  0
MTEXT
  5
2076
330
206E
100
AcDbEntity
  8
Dim
  6
Continuous
 62
     0
100
AcDbMText
 10
912.1298927230091
 20
1331.903181286865
 30
0.0
 40
24.4326171875
 41
0.0
 46
0.0
 71
     5
 72
     1
  1
\A1;213
  7
ＭＳ ゴシック
 11
0.0
 21
1.0
 31
0.0
 73
     1
 44
1.0
  0
POINT
  5
2077
330
206E
100
AcDbEntity
  8
Defpoints
 62
     0
100
AcDbPoint
 10
824.0605411765446
 20
1225.254548546974
 30
0.0
  0
POINT
  5
2078
330
206E
100
AcDbEntity
  8
Defpoints
 62
     0
100
AcDbPoint
 10
699.0058399417651
 20
1438.551814026756
 30
0.0
  0
POINT
  5
2079
330
206E
100
AcDbEntity
  8
Defpoints
 62
     0
100
AcDbPoint
 10
934.3462013167591
 20
1438.551814026756
 30
0.0
  0
ENDBLK
  5
2070
330
206E
100
AcDbEntity
  8
0
100
AcDbBlockEnd
  0
BLOCK
  5
207B
330
207A
100
AcDbEntity
  8
0
100
AcDbBlockBegin
  2
*D42
 70
     1
 10
0.0
 20
0.0
 30
0.0
  3
*D42
  1
*D43
  0
LINE
  5
207D
330
207A
100
AcDbEntity
  8
Dim
  6
Continuous
 62
     0
370
    -2
100
AcDbLine
 10
576.5560155192009
 20
912.0826531519056
 30
0.0
 11
576.5560155192009
 21
831.2701720266308
 31
0.0
  0
LINE
  5
207E
330
207A
100
AcDbEntity
  8
Dim
  6
Continuous
 62
     0
370
    -2
100
AcDbLine
 10
771.5560155192009
 20
912.0826531519056
 30
0.0
 11
771.5560155192009
 21
831.2701720266308
 31
0.0
  0
LINE
  5
207F
330
207A
100
AcDbEntity
  8
Dim
  6
Continuous
 62
     0
370
    -2
100
AcDbLine
 10
585.5560155192009
 20
831.2701720266308
 30
0.0
 11
762.5560155192009
 21
831.2701720266308
 31
0.0
  0
INSERT
  5
2080
330
207A
100
AcDbEntity
  8
Dim
 62
     0
370
    -2
100
AcDbBlockReference
  2
_DOT
 10
576.5560155192009
 20
831.2701720266308
 30
0.0
 41
9.0
 42
9.0
 43
9.0
 50
180.0
  0
INSERT
  5
2081
330
207A
100
AcDbEntity
  8
Dim
 62
     0
370
    -2
100
AcDbBlockReference
  2
_DOT
 10
771.5560155192009
 20
831.2701720266308
 30
0.0
 41
9.0
 42
9.0
 43
9.0
  0
MTEXT
  5
2082
330
207A
100
AcDbEntity
  8
Dim
  6
Continuous
 62
     0
100
AcDbMText
 10
674.0560155192009
 20
853.4864806203808
 30
0.0
 40
24.4326171875
 41
0.0
 46
0.0
 71
     5
 72
     1
  1
\A1;195
  7
ＭＳ ゴシック
 73
     1
 44
1.0
  0
POINT
  5
2083
330
207A
100
AcDbEntity
  8
Defpoints
 62
     0
100
AcDbPoint
 10
576.5560155192009
 20
937.0826531519056
 30
0.0
  0
POINT
  5
2084
330
207A
100
AcDbEntity
  8
Defpoints
 62
     0
100
AcDbPoint
 10
771.5560155192009
 20
937.0826531519056
 30
0.0
  0
POINT
  5
2085
330
207A
100
AcDbEntity
  8
Defpoints
 62
     0
100
AcDbPoint
 10
771.5560155192009
 20
831.2701720266308
 30
0.0
  0
ENDBLK
  5
207C
330
207A
100
AcDbEntity
  8
0
100
AcDbBlockEnd
  0
BLOCK
  5
2087
330
2086
100
AcDbEntity
  8
0
100
AcDbBlockBegin
  2
*D43
 70
     1
 10
0.0
 20
0.0
 30
0.0
  3
*D43
  1
*D44
  0
LINE
  5
2089
330
2086
100
AcDbEntity
  8
Dim
  6
Continuous
 62
     0
370
    -2
100
AcDbLine
 10
563.3526017924357
 20
920.2552591677131
 30
0.0
 11
421.4849301200315
 21
920.2552591677131
 31
0.0
  0
LINE
  5
208A
330
2086
100
AcDbEntity
  8
Dim
  6
Continuous
 62
     0
370
    -2
100
AcDbLine
 10
647.1373058738977
 20
1245.258609913566
 30
0.0
 11
421.4849301200315
 21
1245.258609913566
 31
0.0
  0
LINE
  5
208B
330
2086
100
AcDbEntity
  8
Dim
  6
Continuous
 62
     0
370
    -2
100
AcDbLine
 10
421.4849301200315
 20
929.2552591677131
 30
0.0
 11
421.4849301200315
 21
1236.258609913566
 31
0.0
  0
INSERT
  5
208C
330
2086
100
AcDbEntity
  8
Dim
 62
     0
370
    -2
100
AcDbBlockReference
  2
_DOT
 10
421.4849301200315
 20
920.2552591677131
 30
0.0
 41
9.0
 42
9.0
 43
9.0
 50
270.0
  0
INSERT
  5
208D
330
2086
100
AcDbEntity
  8
Dim
 62
     0
370
    -2
100
AcDbBlockReference
  2
_DOT
 10
421.4849301200315
 20
1245.258609913566
 30
0.0
 41
9.0
 42
9.0
 43
9.0
 50
90.0
  0
MTEXT
  5
208E
330
2086
100
AcDbEntity
  8
Dim
  6
Continuous
 62
     0
100
AcDbMText
 10
399.2686215262815
 20
1082.756934540639
 30
0.0
 40
24.4326171875
 41
0.0
 46
0.0
 71
     5
 72
     1
  1
\A1;325
  7
ＭＳ ゴシック
 11
0.0
 21
1.0
 31
0.0
 73
     1
 44
1.0
  0
POINT
  5
208F
330
2086
100
AcDbEntity
  8
Defpoints
 62
     0
100
AcDbPoint
 10
588.3526017924357
 20
920.2552591677131
 30
0.0
  0
POINT
  5
2090
330
2086
100
AcDbEntity
  8
Defpoints
 62
     0
100
AcDbPoint
 10
672.1373058738977
 20
1245.258609913566
 30
0.0
  0
POINT
  5
2091
330
2086
100
AcDbEntity
  8
Defpoints
 62
     0
100
AcDbPoint
 10
421.4849301200315
 20
1245.258609913566
 30
0.0
  0
ENDBLK
  5
2088
330
2086
100
AcDbEntity
  8
0
100
AcDbBlockEnd
  0
BLOCK
  5
2093
330
2092
100
AcDbEntity
  8
0
100
AcDbBlockBegin
  2
*D44
 70
     1
 10
0.0
 20
0.0
 30
0.0
  3
*D44
  1
*D45
  0
LINE
  5
2095
330
2092
100
AcDbEntity
  8
Dim
  6
Continuous
 62
     0
370
    -2
100
AcDbLine
 10
554.6582266475039
 20
1300.255259167713
 30
0.0
 11
503.2987041859656
 21
1300.255259167713
 31
0.0
  0
LINE
  5
2096
330
2092
100
AcDbEntity
  8
Dim
  6
Continuous
 62
     0
370
    -2
100
AcDbLine
 10
554.6582266475039
 20
1225.255259167713
 30
0.0
 11
503.2987041859656
 21
1225.255259167713
 31
0.0
  0
LINE
  5
2097
330
2092
100
AcDbEntity
  8
Dim
  6
Continuous
 62
     0
370
    -2
100
AcDbLine
 10
503.2987041859656
 20
1291.255259167713
 30
0.0
 11
503.2987041859656
 21
1234.255259167713
 31
0.0
  0
INSERT
  5
2098
330
2092
100
AcDbEntity
  8
Dim
 62
     0
370
    -2
100
AcDbBlockReference
  2
_DOT
 10
503.2987041859656
 20
1300.255259167713
 30
0.0
 41
9.0
 42
9.0
 43
9.0
 50
90.0
  0
INSERT
  5
2099
330
2092
100
AcDbEntity
  8
Dim
 62
     0
370
    -2
100
AcDbBlockReference
  2
_DOT
 10
503.2987041859656
 20
1225.255259167713
 30
0.0
 41
9.0
 42
9.0
 43
9.0
 50
270.0
  0
MTEXT
  5
209A
330
2092
100
AcDbEntity
  8
Dim
  6
Continuous
 62
     0
100
AcDbMText
 10
481.0823955922156
 20
1262.755259167713
 30
0.0
 40
24.4326171875
 41
0.0
 46
0.0
 71
     5
 72
     1
  1
\A1;75
  7
ＭＳ ゴシック
 11
0.0
 21
1.0
 31
0.0
 73
     1
 44
1.0
  0
POINT
  5
209B
330
2092
100
AcDbEntity
  8
Defpoints
 62
     0
100
AcDbPoint
 10
579.6582266475039
 20
1300.255259167713
 30
0.0
  0
POINT
  5
209C
330
2092
100
AcDbEntity
  8
Defpoints
 62
     0
100
AcDbPoint
 10
579.6582266475039
 20
1225.255259167713
 30
0.0
  0
POINT
  5
209D
330
2092
100
AcDbEntity
  8
Defpoints
 62
     0
100
AcDbPoint
 10
503.2987041859656
 20
1225.255259167713
 30
0.0
  0
ENDBLK
  5
2094
330
2092
100
AcDbEntity
  8
0
100
AcDbBlockEnd
  0
BLOCK
  5
209F
330
209E
100
AcDbEntity
  8
0
100
AcDbBlockBegin
  2
*D45
 70
     1
 10
0.0
 20
0.0
 30
0.0
  3
*D45
  1
*D46
  0
LINE
  5
20A1
330
209E
100
AcDbEntity
  8
Dim
  6
Continuous
 62
     0
370
    -2
100
AcDbLine
 10
571.986084114661
 20
1235.255259167713
 30
0.0
 11
421.4849301200315
 21
1235.255259167713
 31
0.0
  0
LINE
  5
20A2
330
209E
100
AcDbEntity
  8
Dim
  6
Continuous
 62
     0
370
    -2
100
AcDbLine
 10
648.4226992091967
 20
1485.25518878852
 30
0.0
 11
421.4849301200315
 21
1485.25518878852
 31
0.0
  0
LINE
  5
20A3
330
209E
100
AcDbEntity
  8
Dim
  6
Continuous
 62
     0
370
    -2
100
AcDbLine
 10
421.4849301200315
 20
1244.255259167713
 30
0.0
 11
421.4849301200315
 21
1476.25518878852
 31
0.0
  0
INSERT
  5
20A4
330
209E
100
AcDbEntity
  8
Dim
 62
     0
370
    -2
100
AcDbBlockReference
  2
_DOT
 10
421.4849301200315
 20
1235.255259167713
 30
0.0
 41
9.0
 42
9.0
 43
9.0
 50
270.0
  0
INSERT
  5
20A5
330
209E
100
AcDbEntity
  8
Dim
 62
     0
370
    -2
100
AcDbBlockReference
  2
_DOT
 10
421.4849301200315
 20
1485.25518878852
 30
0.0
 41
9.0
 42
9.0
 43
9.0
 50
90.0
  0
MTEXT
  5
20A6
330
209E
100
AcDbEntity
  8
Dim
  6
Continuous
 62
     0
100
AcDbMText
 10
399.2686215262815
 20
1360.255223978117
 30
0.0
 40
24.4326171875
 41
0.0
 46
0.0
 71
     5
 72
     1
  1
\A1;250
  7
ＭＳ ゴシック
 11
0.0
 21
1.0
 31
0.0
 73
     1
 44
1.0
  0
POINT
  5
20A7
330
209E
100
AcDbEntity
  8
Defpoints
 62
     0
100
AcDbPoint
 10
596.986084114661
 20
1235.255259167713
 30
0.0
  0
POINT
  5
20A8
330
209E
100
AcDbEntity
  8
Defpoints
 62
     0
100
AcDbPoint
 10
673.4226992091967
 20
1485.25518878852
 30
0.0
  0
POINT
  5
20A9
330
209E
100
AcDbEntity
  8
Defpoints
 62
     0
100
AcDbPoint
 10
421.4849301200315
 20
1485.25518878852
 30
0.0
  0
ENDBLK
  5
20A0
330
209E
100
AcDbEntity
  8
0
100
AcDbBlockEnd
  0
BLOCK
  5
20BF
330
20BE
100
AcDbEntity
  8
0
100
AcDbBlockBegin
  2
*D46
 70
     1
 10
0.0
 20
0.0
 30
0.0
  3
*D46
  1
*D47
  0
LINE
  5
20C1
330
20BE
100
AcDbEntity
  8
Dim
  6
Continuous
 62
     0
370
    -2
100
AcDbLine
 10
569.0560155192009
 20
1077.012303272749
 30
0.0
 11
569.0560155192009
 21
783.9094433114401
 31
0.0
  0
LINE
  5
20C2
330
20BE
100
AcDbEntity
  8
Dim
  6
Continuous
 62
     0
370
    -2
100
AcDbLine
 10
779.0560155192009
 20
1077.012303272749
 30
0.0
 11
779.0560155192009
 21
783.9094433114401
 31
0.0
  0
LINE
  5
20C3
330
20BE
100
AcDbEntity
  8
Dim
  6
Continuous
 62
     0
370
    -2
100
AcDbLine
 10
578.0560155192009
 20
783.9094433114401
 30
0.0
 11
770.0560155192009
 21
783.9094433114401
 31
0.0
  0
INSERT
  5
20C4
330
20BE
100
AcDbEntity
  8
Dim
 62
     0
370
    -2
100
AcDbBlockReference
  2
_DOT
 10
569.0560155192009
 20
783.9094433114401
 30
0.0
 41
9.0
 42
9.0
 43
9.0
 50
180.0
  0
INSERT
  5
20C5
330
20BE
100
AcDbEntity
  8
Dim
 62
     0
370
    -2
100
AcDbBlockReference
  2
_DOT
 10
779.0560155192009
 20
783.9094433114401
 30
0.0
 41
9.0
 42
9.0
 43
9.0
  0
MTEXT
  5
20C6
330
20BE
100
AcDbEntity
  8
Dim
  6
Continuous
 62
     0
100
AcDbMText
 10
674.0560155192009
 20
806.1257519051901
 30
0.0
 40
24.4326171875
 41
0.0
 46
0.0
 71
     5
 72
     1
  1
\A1;210
  7
ＭＳ ゴシック
 73
     1
 44
1.0
  0
POINT
  5
20C7
330
20BE
100
AcDbEntity
  8
Defpoints
 62
     0
100
AcDbPoint
 10
569.0560155192009
 20
1102.012303272749
 30
0.0
  0
POINT
  5
20C8
330
20BE
100
AcDbEntity
  8
Defpoints
 62
     0
100
AcDbPoint
 10
779.0560155192009
 20
1102.012303272749
 30
0.0
  0
POINT
  5
20C9
330
20BE
100
AcDbEntity
  8
Defpoints
 62
     0
100
AcDbPoint
 10
779.0560155192009
 20
783.9094433114401
 30
0.0
  0
ENDBLK
  5
20C0
330
20BE
100
AcDbEntity
  8
0
100
AcDbBlockEnd
  0
BLOCK
  5
20DD
330
20DC
100
AcDbEntity
  8
0
100
AcDbBlockBegin
  2
*D47
 70
     1
 10
0.0
 20
0.0
 30
0.0
  3
*D47
  1
*D48
  0
LINE
  5
20DF
330
20DC
100
AcDbEntity
  8
Dim
  6
Continuous
 62
     0
370
    -2
100
AcDbLine
 10
1614.691647826082
 20
900.2552591677131
 30
0.0
 11
1614.691647826082
 21
752.1019388440525
 31
0.0
  0
LINE
  5
20E0
330
20DC
100
AcDbEntity
  8
Dim
  6
Continuous
 62
     0
370
    -2
100
AcDbLine
 10
1424.691647826082
 20
900.2552591677131
 30
0.0
 11
1424.691647826082
 21
752.1019388440525
 31
0.0
  0
LINE
  5
20E1
330
20DC
100
AcDbEntity
  8
Dim
  6
Continuous
 62
     0
370
    -2
100
AcDbLine
 10
1605.691647826082
 20
752.1019388440525
 30
0.0
 11
1433.691647826082
 21
752.1019388440525
 31
0.0
  0
INSERT
  5
20E2
330
20DC
100
AcDbEntity
  8
Dim
 62
     0
370
    -2
100
AcDbBlockReference
  2
_DOT
 10
1614.691647826082
 20
752.1019388440525
 30
0.0
 41
9.0
 42
9.0
 43
9.0
  0
INSERT
  5
20E3
330
20DC
100
AcDbEntity
  8
Dim
 62
     0
370
    -2
100
AcDbBlockReference
  2
_DOT
 10
1424.691647826082
 20
752.1019388440525
 30
0.0
 41
9.0
 42
9.0
 43
9.0
 50
180.0
  0
MTEXT
  5
20E4
330
20DC
100
AcDbEntity
  8
Dim
  6
Continuous
 62
     0
100
AcDbMText
 10
1519.691647826082
 20
774.3182474378025
 30
0.0
 40
24.4326171875
 41
0.0
 46
0.0
 71
     5
 72
     1
  1
\A1;190
  7
ＭＳ ゴシック
 73
     1
 44
1.0
  0
POINT
  5
20E5
330
20DC
100
AcDbEntity
  8
Defpoints
 62
     0
100
AcDbPoint
 10
1614.691647826082
 20
925.2552591677131
 30
0.0
  0
POINT
  5
20E6
330
20DC
100
AcDbEntity
  8
Defpoints
 62
     0
100
AcDbPoint
 10
1424.691647826082
 20
925.2552591677131
 30
0.0
  0
POINT
  5
20E7
330
20DC
100
AcDbEntity
  8
Defpoints
 62
     0
100
AcDbPoint
 10
1424.691647826082
 20
752.1019388440525
 30
0.0
  0
ENDBLK
  5
20DE
330
20DC
100
AcDbEntity
  8
0
100
AcDbBlockEnd
  0
BLOCK
  5
20EF
330
20EE
100
AcDbEntity
  8
0
100
AcDbBlockBegin
  2
*D48
 70
     1
 10
0.0
 20
0.0
 30
0.0
  3
*D48
  1
*D49
  0
LINE
  5
20F1
330
20EE
100
AcDbEntity
  8
Dim
  6
Continuous
 62
     0
370
    -2
100
AcDbLine
 10
1614.691647826082
 20
972.7552591677131
 30
0.0
 11
1614.691647826082
 21
857.8271519436566
 31
0.0
  0
LINE
  5
20F2
330
20EE
100
AcDbEntity
  8
Dim
  6
Continuous
 62
     0
370
    -2
100
AcDbLine
 10
1479.691647826082
 20
922.946918382285
 30
0.0
 11
1479.691647826082
 21
857.8271519436566
 31
0.0
  0
LINE
  5
20F3
330
20EE
100
AcDbEntity
  8
Dim
  6
Continuous
 62
     0
370
    -2
100
AcDbLine
 10
1605.691647826082
 20
857.8271519436566
 30
0.0
 11
1488.691647826082
 21
857.8271519436566
 31
0.0
  0
INSERT
  5
20F4
330
20EE
100
AcDbEntity
  8
Dim
 62
     0
370
    -2
100
AcDbBlockReference
  2
_DOT
 10
1614.691647826082
 20
857.8271519436566
 30
0.0
 41
9.0
 42
9.0
 43
9.0
  0
INSERT
  5
20F5
330
20EE
100
AcDbEntity
  8
Dim
 62
     0
370
    -2
100
AcDbBlockReference
  2
_DOT
 10
1479.691647826082
 20
857.8271519436566
 30
0.0
 41
9.0
 42
9.0
 43
9.0
 50
180.0
  0
MTEXT
  5
20F6
330
20EE
100
AcDbEntity
  8
Dim
  6
Continuous
 62
     0
100
AcDbMText
 10
1547.191647826082
 20
880.0434605374066
 30
0.0
 40
24.4326171875
 41
0.0
 46
0.0
 71
     5
 72
     1
  1
\A1;135
  7
ＭＳ ゴシック
 73
     1
 44
1.0
  0
POINT
  5
20F7
330
20EE
100
AcDbEntity
  8
Defpoints
 62
     0
100
AcDbPoint
 10
1614.691647826082
 20
997.7552591677131
 30
0.0
  0
POINT
  5
20F8
330
20EE
100
AcDbEntity
  8
Defpoints
 62
     0
100
AcDbPoint
 10
1479.691647826082
 20
947.946918382285
 30
0.0
  0
POINT
  5
20F9
330
20EE
100
AcDbEntity
  8
Defpoints
 62
     0
100
AcDbPoint
 10
1479.691647826082
 20
857.8271519436566
 30
0.0
  0
ENDBLK
  5
20F0
330
20EE
100
AcDbEntity
  8
0
100
AcDbBlockEnd
  0
BLOCK
  5
20FE
330
20FD
100
AcDbEntity
  8
0
100
AcDbBlockBegin
  2
*D49
 70
     1
 10
0.0
 20
0.0
 30
0.0
  3
*D49
  1
*D50
  0
LINE
  5
2100
330
20FD
100
AcDbEntity
  8
Dim
  6
Continuous
 62
     0
370
    -2
100
AcDbLine
 10
648.4226992091967
 20
1485.25518878852
 30
0.0
 11
481.9229687573966
 21
1485.25518878852
 31
0.0
  0
LINE
  5
2101
330
20FD
100
AcDbEntity
  8
Dim
  6
Continuous
 62
     0
370
    -2
100
AcDbLine
 10
624.0560155192011
 20
1385.255363646124
 30
0.0
 11
481.9229687573966
 21
1385.255363646124
 31
0.0
  0
LINE
  5
2102
330
20FD
100
AcDbEntity
  8
Dim
  6
Continuous
 62
     0
370
    -2
100
AcDbLine
 10
481.9229687573966
 20
1476.25518878852
 30
0.0
 11
481.9229687573966
 21
1394.255363646124
 31
0.0
  0
INSERT
  5
2103
330
20FD
100
AcDbEntity
  8
Dim
 62
     0
370
    -2
100
AcDbBlockReference
  2
_DOT
 10
481.9229687573966
 20
1485.25518878852
 30
0.0
 41
9.0
 42
9.0
 43
9.0
 50
90.0
  0
INSERT
  5
2104
330
20FD
100
AcDbEntity
  8
Dim
 62
     0
370
    -2
100
AcDbBlockReference
  2
_DOT
 10
481.9229687573966
 20
1385.255363646124
 30
0.0
 41
9.0
 42
9.0
 43
9.0
 50
270.0
  0
MTEXT
  5
2105
330
20FD
100
AcDbEntity
  8
Dim
  6
Continuous
 62
     0
100
AcDbMText
 10
459.7066601636466
 20
1435.255276217322
 30
0.0
 40
24.4326171875
 41
0.0
 46
0.0
 71
     5
 72
     1
  1
\A1;100
  7
ＭＳ ゴシック
 11
0.0
 21
1.0
 31
0.0
 73
     1
 44
1.0
  0
POINT
  5
2106
330
20FD
100
AcDbEntity
  8
Defpoints
 62
     0
100
AcDbPoint
 10
673.4226992091967
 20
1485.25518878852
 30
0.0
  0
POINT
  5
2107
330
20FD
100
AcDbEntity
  8
Defpoints
 62
     0
100
AcDbPoint
 10
649.0560155192011
 20
1385.255363646124
 30
0.0
  0
POINT
  5
2108
330
20FD
100
AcDbEntity
  8
Defpoints
 62
     0
100
AcDbPoint
 10
481.9229687573966
 20
1385.255363646124
 30
0.0
  0
ENDBLK
  5
20FF
330
20FD
100
AcDbEntity
  8
0
100
AcDbBlockEnd
  0
BLOCK
  5
2111
330
2110
100
AcDbEntity
  8
0
100
AcDbBlockBegin
  2
*D50
 70
     1
 10
0.0
 20
0.0
 30
0.0
  3
*D50
  1
*D51
  0
LINE
  5
2113
330
2110
100
AcDbEntity
  8
Dim
  6
Continuous
 62
     0
370
    -2
100
AcDbLine
 10
571.986084114661
 20
920.2552591677132
 30
0.0
 11
421.4849301200315
 21
920.2552591677132
 31
0.0
  0
LINE
  5
2114
330
2110
100
AcDbEntity
  8
Dim
  6
Continuous
 62
     0
370
    -2
100
AcDbLine
 10
571.986084114661
 20
1235.255259167713
 30
0.0
 11
421.4849301200315
 21
1235.255259167713
 31
0.0
  0
LINE
  5
2115
330
2110
100
AcDbEntity
  8
Dim
  6
Continuous
 62
     0
370
    -2
100
AcDbLine
 10
421.4849301200315
 20
929.2552591677132
 30
0.0
 11
421.4849301200315
 21
1226.255259167713
 31
0.0
  0
INSERT
  5
2116
330
2110
100
AcDbEntity
  8
Dim
 62
     0
370
    -2
100
AcDbBlockReference
  2
_DOT
 10
421.4849301200315
 20
920.2552591677132
 30
0.0
 41
9.0
 42
9.0
 43
9.0
 50
270.0
  0
INSERT
  5
2117
330
2110
100
AcDbEntity
  8
Dim
 62
     0
370
    -2
100
AcDbBlockReference
  2
_DOT
 10
421.4849301200315
 20
1235.255259167713
 30
0.0
 41
9.0
 42
9.0
 43
9.0
 50
90.0
  0
MTEXT
  5
2118
330
2110
100
AcDbEntity
  8
Dim
  6
Continuous
 62
     0
100
AcDbMText
 10
399.2686215262815
 20
1077.755259167713
 30
0.0
 40
24.4326171875
 41
0.0
 46
0.0
 71
     5
 72
     1
  1
\A1;315
  7
ＭＳ ゴシック
 11
0.0
 21
1.0
 31
0.0
 73
     1
 44
1.0
  0
POINT
  5
2119
330
2110
100
AcDbEntity
  8
Defpoints
 62
     0
100
AcDbPoint
 10
596.986084114661
 20
920.2552591677132
 30
0.0
  0
POINT
  5
211A
330
2110
100
AcDbEntity
  8
Defpoints
 62
     0
100
AcDbPoint
 10
596.986084114661
 20
1235.255259167713
 30
0.0
  0
POINT
  5
211B
330
2110
100
AcDbEntity
  8
Defpoints
 62
     0
100
AcDbPoint
 10
421.4849301200315
 20
1235.255259167713
 30
0.0
  0
ENDBLK
  5
2112
330
2110
100
AcDbEntity
  8
0
100
AcDbBlockEnd
  0
BLOCK
  5
2121
330
2120
100
AcDbEntity
  8
0
100
AcDbBlockBegin
  2
*D51
 70
     1
 10
0.0
 20
0.0
 30
0.0
  3
*D51
  1
*D52
  0
LINE
  5
2123
330
2120
100
AcDbEntity
  8
Dim
  6
Continuous
 62
     0
370
    -2
100
AcDbLine
 10
781.0912404657008
 20
927.9202574377132
 30
0.0
 11
937.6565568224199
 21
927.9202574377132
 31
0.0
  0
LINE
  5
2124
330
2120
100
AcDbEntity
  8
Dim
  6
Continuous
 62
     0
370
    -2
100
AcDbLine
 10
781.0912404657008
 20
1012.920257437713
 30
0.0
 11
937.6565568224199
 21
1012.920257437713
 31
0.0
  0
LINE
  5
2125
330
2120
100
AcDbEntity
  8
Dim
  6
Continuous
 62
     0
370
    -2
100
AcDbLine
 10
937.6565568224199
 20
936.9202574377132
 30
0.0
 11
937.6565568224199
 21
1003.920257437713
 31
0.0
  0
INSERT
  5
2126
330
2120
100
AcDbEntity
  8
Dim
 62
     0
370
    -2
100
AcDbBlockReference
  2
_DOT
 10
937.6565568224199
 20
927.9202574377132
 30
0.0
 41
9.0
 42
9.0
 43
9.0
 50
270.0
  0
INSERT
  5
2127
330
2120
100
AcDbEntity
  8
Dim
 62
     0
370
    -2
100
AcDbBlockReference
  2
_DOT
 10
937.6565568224199
 20
1012.920257437713
 30
0.0
 41
9.0
 42
9.0
 43
9.0
 50
90.0
  0
MTEXT
  5
2128
330
2120
100
AcDbEntity
  8
Dim
  6
Continuous
 62
     0
100
AcDbMText
 10
915.4402482286699
 20
970.4202574377132
 30
0.0
 40
24.4326171875
 41
0.0
 46
0.0
 71
     5
 72
     1
  1
\A1;85
  7
ＭＳ ゴシック
 11
0.0
 21
1.0
 31
0.0
 73
     1
 44
1.0
  0
POINT
  5
2129
330
2120
100
AcDbEntity
  8
Defpoints
 62
     0
100
AcDbPoint
 10
756.0912404657008
 20
927.9202574377132
 30
0.0
  0
POINT
  5
212A
330
2120
100
AcDbEntity
  8
Defpoints
 62
     0
100
AcDbPoint
 10
756.0912404657008
 20
1012.920257437713
 30
0.0
  0
POINT
  5
212B
330
2120
100
AcDbEntity
  8
Defpoints
 62
     0
100
AcDbPoint
 10
937.6565568224199
 20
1012.920257437713
 30
0.0
  0
ENDBLK
  5
2122
330
2120
100
AcDbEntity
  8
0
100
AcDbBlockEnd
  0
BLOCK
  5
2130
330
212F
100
AcDbEntity
  8
0
100
AcDbBlockBegin
  2
*D52
 70
     1
 10
0.0
 20
0.0
 30
0.0
  3
*D52
  1
*D53
  0
LINE
  5
2132
330
212F
100
AcDbEntity
  8
Dim
  6
Continuous
 62
     0
370
    -2
100
AcDbLine
 10
830.7483759695907
 20
1012.920257437713
 30
0.0
 11
937.6565568224199
 21
1012.920257437713
 31
0.0
  0
LINE
  5
2133
330
212F
100
AcDbEntity
  8
Dim
  6
Continuous
 62
     0
370
    -2
100
AcDbLine
 10
830.7483759695907
 20
1107.920257437713
 30
0.0
 11
937.6565568224199
 21
1107.920257437713
 31
0.0
  0
LINE
  5
2134
330
212F
100
AcDbEntity
  8
Dim
  6
Continuous
 62
     0
370
    -2
100
AcDbLine
 10
937.6565568224199
 20
1021.920257437713
 30
0.0
 11
937.6565568224199
 21
1098.920257437713
 31
0.0
  0
INSERT
  5
2135
330
212F
100
AcDbEntity
  8
Dim
 62
     0
370
    -2
100
AcDbBlockReference
  2
_DOT
 10
937.6565568224199
 20
1012.920257437713
 30
0.0
 41
9.0
 42
9.0
 43
9.0
 50
270.0
  0
INSERT
  5
2136
330
212F
100
AcDbEntity
  8
Dim
 62
     0
370
    -2
100
AcDbBlockReference
  2
_DOT
 10
937.6565568224199
 20
1107.920257437713
 30
0.0
 41
9.0
 42
9.0
 43
9.0
 50
90.0
  0
MTEXT
  5
2137
330
212F
100
AcDbEntity
  8
Dim
  6
Continuous
 62
     0
100
AcDbMText
 10
915.4402482286699
 20
1060.420257437713
 30
0.0
 40
24.4326171875
 41
0.0
 46
0.0
 71
     5
 72
     1
  1
\A1;95
  7
ＭＳ ゴシック
 11
0.0
 21
1.0
 31
0.0
 73
     1
 44
1.0
  0
POINT
  5
2138
330
212F
100
AcDbEntity
  8
Defpoints
 62
     0
100
AcDbPoint
 10
805.7483759695907
 20
1012.920257437713
 30
0.0
  0
POINT
  5
2139
330
212F
100
AcDbEntity
  8
Defpoints
 62
     0
100
AcDbPoint
 10
805.7483759695907
 20
1107.920257437713
 30
0.0
  0
POINT
  5
213A
330
212F
100
AcDbEntity
  8
Defpoints
 62
     0
100
AcDbPoint
 10
937.6565568224199
 20
1107.920257437713
 30
0.0
  0
ENDBLK
  5
2131
330
212F
100
AcDbEntity
  8
0
100
AcDbBlockEnd
  0
BLOCK
  5
2140
330
213F
100
AcDbEntity
  8
0
100
AcDbBlockBegin
  2
*D53
 70
     1
 10
0.0
 20
0.0
 30
0.0
  3
*D53
  1
*D54
  0
LINE
  5
2142
330
213F
100
AcDbEntity
  8
Dim
  6
Continuous
 62
     0
370
    -2
100
AcDbLine
 10
774.8823848935983
 20
927.9202574377132
 30
0.0
 11
934.3462013167591
 21
927.9202574377132
 31
0.0
  0
LINE
  5
2143
330
213F
100
AcDbEntity
  8
Dim
  6
Continuous
 62
     0
370
    -2
100
AcDbLine
 10
774.8823848935983
 20
1015.292474661161
 30
0.0
 11
934.3462013167591
 21
1015.292474661161
 31
0.0
  0
LINE
  5
2144
330
213F
100
AcDbEntity
  8
Dim
  6
Continuous
 62
     0
370
    -2
100
AcDbLine
 10
934.3462013167591
 20
936.9202574377132
 30
0.0
 11
934.3462013167591
 21
1006.292474661161
 31
0.0
  0
INSERT
  5
2145
330
213F
100
AcDbEntity
  8
Dim
 62
     0
370
    -2
100
AcDbBlockReference
  2
_DOT
 10
934.3462013167591
 20
927.9202574377132
 30
0.0
 41
9.0
 42
9.0
 43
9.0
 50
270.0
  0
INSERT
  5
2146
330
213F
100
AcDbEntity
  8
Dim
 62
     0
370
    -2
100
AcDbBlockReference
  2
_DOT
 10
934.3462013167591
 20
1015.292474661161
 30
0.0
 41
9.0
 42
9.0
 43
9.0
 50
90.0
  0
MTEXT
  5
2147
330
213F
100
AcDbEntity
  8
Dim
  6
Continuous
 62
     0
100
AcDbMText
 10
912.1298927230091
 20
971.6063660494372
 30
0.0
 40
24.4326171875
 41
0.0
 46
0.0
 71
     5
 72
     1
  1
\A1;87
  7
ＭＳ ゴシック
 11
0.0
 21
1.0
 31
0.0
 73
     1
 44
1.0
  0
POINT
  5
2148
330
213F
100
AcDbEntity
  8
Defpoints
 62
     0
100
AcDbPoint
 10
749.8823848935983
 20
927.9202574377132
 30
0.0
  0
POINT
  5
2149
330
213F
100
AcDbEntity
  8
Defpoints
 62
     0
100
AcDbPoint
 10
749.8823848935983
 20
1015.292474661161
 30
0.0
  0
POINT
  5
214A
330
213F
100
AcDbEntity
  8
Defpoints
 62
     0
100
AcDbPoint
 10
934.3462013167591
 20
1015.292474661161
 30
0.0
  0
ENDBLK
  5
2141
330
213F
100
AcDbEntity
  8
0
100
AcDbBlockEnd
  0
BLOCK
  5
214F
330
214E
100
AcDbEntity
  8
0
100
AcDbBlockBegin
  2
*D54
 70
     1
 10
0.0
 20
0.0
 30
0.0
  3
*D54
  1
*D55
  0
LINE
  5
2151
330
214E
100
AcDbEntity
  8
Dim
  6
Continuous
 62
     0
370
    -2
100
AcDbLine
 10
774.8823848935983
 20
1015.292474661161
 30
0.0
 11
977.8264940707646
 21
1015.292474661161
 31
0.0
  0
LINE
  5
2152
330
214E
100
AcDbEntity
  8
Dim
  6
Continuous
 62
     0
370
    -2
100
AcDbLine
 10
804.0560155192009
 20
1110.255259167713
 30
0.0
 11
977.8264940707646
 21
1110.255259167713
 31
0.0
  0
LINE
  5
2153
330
214E
100
AcDbEntity
  8
Dim
  6
Continuous
 62
     0
370
    -2
100
AcDbLine
 10
977.8264940707646
 20
1024.292474661161
 30
0.0
 11
977.8264940707646
 21
1101.255259167713
 31
0.0
  0
INSERT
  5
2154
330
214E
100
AcDbEntity
  8
Dim
 62
     0
370
    -2
100
AcDbBlockReference
  2
_DOT
 10
977.8264940707646
 20
1015.292474661161
 30
0.0
 41
9.0
 42
9.0
 43
9.0
 50
270.0
  0
INSERT
  5
2155
330
214E
100
AcDbEntity
  8
Dim
 62
     0
370
    -2
100
AcDbBlockReference
  2
_DOT
 10
977.8264940707646
 20
1110.255259167713
 30
0.0
 41
9.0
 42
9.0
 43
9.0
 50
90.0
  0
MTEXT
  5
2156
330
214E
100
AcDbEntity
  8
Dim
  6
Continuous
 62
     0
100
AcDbMText
 10
955.6101854770146
 20
1062.773866914437
 30
0.0
 40
24.4326171875
 41
0.0
 46
0.0
 71
     5
 72
     1
  1
\A1;95
  7
ＭＳ ゴシック
 11
0.0
 21
1.0
 31
0.0
 73
     1
 44
1.0
  0
POINT
  5
2157
330
214E
100
AcDbEntity
  8
Defpoints
 62
     0
100
AcDbPoint
 10
749.8823848935983
 20
1015.292474661161
 30
0.0
  0
POINT
  5
2158
330
214E
100
AcDbEntity
  8
Defpoints
 62
     0
100
AcDbPoint
 10
779.0560155192009
 20
1110.255259167713
 30
0.0
  0
POINT
  5
2159
330
214E
100
AcDbEntity
  8
Defpoints
 62
     0
100
AcDbPoint
 10
977.8264940707646
 20
1110.255259167713
 30
0.0
  0
ENDBLK
  5
2150
330
214E
100
AcDbEntity
  8
0
100
AcDbBlockEnd
  0
BLOCK
  5
215C
330
215B
100
AcDbEntity
  8
0
100
AcDbBlockBegin
  2
*D55
 70
     1
 10
0.0
 20
0.0
 30
0.0
  3
*D55
  1
*D56
  0
LINE
  5
215E
330
215B
100
AcDbEntity
  8
Dim
  6
Continuous
 62
     0
370
    -2
100
AcDbLine
 10
802.5412490800692
 20
1110.255259167713
 30
0.0
 11
977.8264940707646
 21
1110.255259167713
 31
0.0
  0
LINE
  5
215F
330
215B
100
AcDbEntity
  8
Dim
  6
Continuous
 62
     0
370
    -2
100
AcDbLine
 10
802.5412490800692
 20
1440.255259167713
 30
0.0
 11
977.8264940707646
 21
1440.255259167713
 31
0.0
  0
LINE
  5
2160
330
215B
100
AcDbEntity
  8
Dim
  6
Continuous
 62
     0
370
    -2
100
AcDbLine
 10
977.8264940707646
 20
1119.255259167713
 30
0.0
 11
977.8264940707646
 21
1431.255259167713
 31
0.0
  0
INSERT
  5
2161
330
215B
100
AcDbEntity
  8
Dim
 62
     0
370
    -2
100
AcDbBlockReference
  2
_DOT
 10
977.8264940707646
 20
1110.255259167713
 30
0.0
 41
9.0
 42
9.0
 43
9.0
 50
270.0
  0
INSERT
  5
2162
330
215B
100
AcDbEntity
  8
Dim
 62
     0
370
    -2
100
AcDbBlockReference
  2
_DOT
 10
977.8264940707646
 20
1440.255259167713
 30
0.0
 41
9.0
 42
9.0
 43
9.0
 50
90.0
  0
MTEXT
  5
2163
330
215B
100
AcDbEntity
  8
Dim
  6
Continuous
 62
     0
100
AcDbMText
 10
955.6101854770146
 20
1275.255259167713
 30
0.0
 40
24.4326171875
 41
0.0
 46
0.0
 71
     5
 72
     1
  1
\A1;330
  7
ＭＳ ゴシック
 11
0.0
 21
1.0
 31
0.0
 73
     1
 44
1.0
  0
POINT
  5
2164
330
215B
100
AcDbEntity
  8
Defpoints
 62
     0
100
AcDbPoint
 10
777.5412490800692
 20
1110.255259167713
 30
0.0
  0
POINT
  5
2165
330
215B
100
AcDbEntity
  8
Defpoints
 62
     0
100
AcDbPoint
 10
777.5412490800692
 20
1440.255259167713
 30
0.0
  0
POINT
  5
2166
330
215B
100
AcDbEntity
  8
Defpoints
 62
     0
100
AcDbPoint
 10
977.8264940707646
 20
1440.255259167713
 30
0.0
  0
ENDBLK
  5
215D
330
215B
100
AcDbEntity
  8
0
100
AcDbBlockEnd
  0
BLOCK
  5
2190
330
218F
100
AcDbEntity
  8
0
100
AcDbBlockBegin
  2
*D56
 70
     1
 10
0.0
 20
0.0
 30
0.0
  3
*D56
  1
*D57
  0
LINE
  5
2192
330
218F
100
AcDbEntity
  8
Dim
  6
Continuous
 62
     0
370
    -2
100
AcDbLine
 10
525.1435756237952
 20
2214.930454910202
 30
0.0
 11
525.1435756237952
 21
1976.097308634063
 31
0.0
  0
LINE
  5
2193
330
218F
100
AcDbEntity
  8
Dim
  6
Continuous
 62
     0
370
    -2
100
AcDbLine
 10
822.968455414607
 20
2214.930454910202
 30
0.0
 11
822.968455414607
 21
1976.097308634063
 31
0.0
  0
LINE
  5
2194
330
218F
100
AcDbEntity
  8
Dim
  6
Continuous
 62
     0
370
    -2
100
AcDbLine
 10
534.1435756237952
 20
1976.097308634063
 30
0.0
 11
813.968455414607
 21
1976.097308634063
 31
0.0
  0
INSERT
  5
2195
330
218F
100
AcDbEntity
  8
Dim
 62
     0
370
    -2
100
AcDbBlockReference
  2
_DOT
 10
525.1435756237952
 20
1976.097308634063
 30
0.0
 41
9.0
 42
9.0
 43
9.0
 50
180.0
  0
INSERT
  5
2196
330
218F
100
AcDbEntity
  8
Dim
 62
     0
370
    -2
100
AcDbBlockReference
  2
_DOT
 10
822.968455414607
 20
1976.097308634063
 30
0.0
 41
9.0
 42
9.0
 43
9.0
  0
MTEXT
  5
2197
330
218F
100
AcDbEntity
  8
Dim
  6
Continuous
 62
     0
100
AcDbMText
 10
674.0560155192011
 20
1998.313617227813
 30
0.0
 40
24.4326171875
 41
0.0
 46
0.0
 71
     5
 72
     1
  1
\A1;298
  7
ＭＳ ゴシック
 73
     1
 44
1.0
  0
POINT
  5
2198
330
218F
100
AcDbEntity
  8
Defpoints
 62
     0
100
AcDbPoint
 10
525.1435756237952
 20
2239.930454910202
 30
0.0
  0
POINT
  5
2199
330
218F
100
AcDbEntity
  8
Defpoints
 62
     0
100
AcDbPoint
 10
822.968455414607
 20
2239.930454910202
 30
0.0
  0
POINT
  5
219A
330
218F
100
AcDbEntity
  8
Defpoints
 62
     0
100
AcDbPoint
 10
822.968455414607
 20
1976.097308634063
 30
0.0
  0
ENDBLK
  5
2191
330
218F
100
AcDbEntity
  8
0
100
AcDbBlockEnd
  0
BLOCK
  5
219D
330
219C
100
AcDbEntity
  8
0
100
AcDbBlockBegin
  2
*D57
 70
     1
 10
0.0
 20
0.0
 30
0.0
  3
*D57
  1
*D58
  0
LINE
  5
219F
330
219C
100
AcDbEntity
  8
Dim
  6
Continuous
 62
     0
370
    -2
100
AcDbLine
 10
531.5560155192011
 20
2105.701342911619
 30
0.0
 11
531.5560155192011
 21
1927.855544043504
 31
0.0
  0
LINE
  5
21A0
330
219C
100
AcDbEntity
  8
Dim
  6
Continuous
 62
     0
370
    -2
100
AcDbLine
 10
816.5560155192011
 20
2105.701342911619
 30
0.0
 11
816.5560155192011
 21
1927.855544043504
 31
0.0
  0
LINE
  5
21A1
330
219C
100
AcDbEntity
  8
Dim
  6
Continuous
 62
     0
370
    -2
100
AcDbLine
 10
540.5560155192011
 20
1927.855544043504
 30
0.0
 11
807.5560155192011
 21
1927.855544043504
 31
0.0
  0
INSERT
  5
21A2
330
219C
100
AcDbEntity
  8
Dim
 62
     0
370
    -2
100
AcDbBlockReference
  2
_DOT
 10
531.5560155192011
 20
1927.855544043504
 30
0.0
 41
9.0
 42
9.0
 43
9.0
 50
180.0
  0
INSERT
  5
21A3
330
219C
100
AcDbEntity
  8
Dim
 62
     0
370
    -2
100
AcDbBlockReference
  2
_DOT
 10
816.5560155192011
 20
1927.855544043504
 30
0.0
 41
9.0
 42
9.0
 43
9.0
  0
MTEXT
  5
21A4
330
219C
100
AcDbEntity
  8
Dim
  6
Continuous
 62
     0
100
AcDbMText
 10
674.0560155192011
 20
1950.071852637254
 30
0.0
 40
24.4326171875
 41
0.0
 46
0.0
 71
     5
 72
     1
  1
\A1;285
  7
ＭＳ ゴシック
 73
     1
 44
1.0
  0
POINT
  5
21A5
330
219C
100
AcDbEntity
  8
Defpoints
 62
     0
100
AcDbPoint
 10
531.5560155192011
 20
2130.701342911619
 30
0.0
  0
POINT
  5
21A6
330
219C
100
AcDbEntity
  8
Defpoints
 62
     0
100
AcDbPoint
 10
816.5560155192011
 20
2130.701342911619
 30
0.0
  0
POINT
  5
21A7
330
219C
100
AcDbEntity
  8
Defpoints
 62
     0
100
AcDbPoint
 10
816.5560155192011
 20
1927.855544043504
 30
0.0
  0
ENDBLK
  5
219E
330
219C
100
AcDbEntity
  8
0
100
AcDbBlockEnd
  0
BLOCK
  5
21C6
330
21C5
100
AcDbEntity
  8
0
100
AcDbBlockBegin
  2
*D58
 70
     1
 10
0.0
 20
0.0
 30
0.0
  3
*D58
  1
*D59
  0
LINE
  5
21C8
330
21C5
100
AcDbEntity
  8
Dim
  6
Continuous
 62
     0
370
    -2
100
AcDbLine
 10
602.8124534890583
 20
911.5988560926485
 30
0.0
 11
602.8124534890583
 21
874.0451352921563
 31
0.0
  0
LINE
  5
21C9
330
21C5
100
AcDbEntity
  8
Dim
  6
Continuous
 62
     0
370
    -2
100
AcDbLine
 10
752.8124534890583
 20
911.5988560926485
 30
0.0
 11
752.8124534890583
 21
874.0451352921563
 31
0.0
  0
LINE
  5
21CA
330
21C5
100
AcDbEntity
  8
Dim
  6
Continuous
 62
     0
370
    -2
100
AcDbLine
 10
611.8124534890583
 20
874.0451352921563
 30
0.0
 11
743.8124534890583
 21
874.0451352921563
 31
0.0
  0
INSERT
  5
21CB
330
21C5
100
AcDbEntity
  8
Dim
 62
     0
370
    -2
100
AcDbBlockReference
  2
_DOT
 10
602.8124534890583
 20
874.0451352921563
 30
0.0
 41
9.0
 42
9.0
 43
9.0
 50
180.0
  0
INSERT
  5
21CC
330
21C5
100
AcDbEntity
  8
Dim
 62
     0
370
    -2
100
AcDbBlockReference
  2
_DOT
 10
752.8124534890583
 20
874.0451352921563
 30
0.0
 41
9.0
 42
9.0
 43
9.0
  0
MTEXT
  5
21CD
330
21C5
100
AcDbEntity
  8
Dim
  6
Continuous
 62
     0
100
AcDbMText
 10
677.8124534890583
 20
896.2614438859063
 30
0.0
 40
24.4326171875
 41
0.0
 46
0.0
 71
     5
 72
     1
  1
\A1;150
  7
ＭＳ ゴシック
 73
     1
 44
1.0
  0
POINT
  5
21CE
330
21C5
100
AcDbEntity
  8
Defpoints
 62
     0
100
AcDbPoint
 10
602.8124534890583
 20
936.5988560926485
 30
0.0
  0
POINT
  5
21CF
330
21C5
100
AcDbEntity
  8
Defpoints
 62
     0
100
AcDbPoint
 10
752.8124534890583
 20
936.5988560926485
 30
0.0
  0
POINT
  5
21D0
330
21C5
100
AcDbEntity
  8
Defpoints
 62
     0
100
AcDbPoint
 10
752.8124534890583
 20
874.0451352921563
 30
0.0
  0
ENDBLK
  5
21C7
330
21C5
100
AcDbEntity
  8
0
100
AcDbBlockEnd
  0
BLOCK
  5
21EE
330
21ED
100
AcDbEntity
  8
0
100
AcDbBlockBegin
  2
*D59
 70
     1
 10
0.0
 20
0.0
 30
0.0
  3
*D59
  1
*D59
  0
LINE
  5
21F0
330
21ED
100
AcDbEntity
  8
Dim
  6
Continuous
 62
     0
370
    -2
100
AcDbLine
 10
1416.440439034873
 20
910.2484568791218
 30
0.0
 11
1416.440439034873
 21
807.6189693362646
 31
0.0
  0
LINE
  5
21F1
330
21ED
100
AcDbEntity
  8
Dim
  6
Continuous
 62
     0
370
    -2
100
AcDbLine
 10
1551.440439034873
 20
910.2484568791218
 30
0.0
 11
1551.440439034873
 21
807.6189693362646
 31
0.0
  0
LINE
  5
21F2
330
21ED
100
AcDbEntity
  8
Dim
  6
Continuous
 62
     0
370
    -2
100
AcDbLine
 10
1425.440439034873
 20
807.6189693362646
 30
0.0
 11
1542.440439034873
 21
807.6189693362646
 31
0.0
  0
INSERT
  5
21F3
330
21ED
100
AcDbEntity
  8
Dim
 62
     0
370
    -2
100
AcDbBlockReference
  2
_DOT
 10
1416.440439034873
 20
807.6189693362646
 30
0.0
 41
9.0
 42
9.0
 43
9.0
 50
180.0
  0
INSERT
  5
21F4
330
21ED
100
AcDbEntity
  8
Dim
 62
     0
370
    -2
100
AcDbBlockReference
  2
_DOT
 10
1551.440439034873
 20
807.6189693362646
 30
0.0
 41
9.0
 42
9.0
 43
9.0
  0
MTEXT
  5
21F5
330
21ED
100
AcDbEntity
  8
Dim
  6
Continuous
 62
     0
100
AcDbMText
 10
1483.940439034873
 20
829.8352779300146
 30
0.0
 40
24.4326171875
 41
0.0
 46
0.0
 71
     5
 72
     1
  1
\A1;135
  7
ＭＳ ゴシック
 73
     1
 44
1.0
  0
POINT
  5
21F6
330
21ED
100
AcDbEntity
  8
Defpoints
 62
     0
100
AcDbPoint
 10
1416.440439034873
 20
935.2484568791218
 30
0.0
  0
POINT
  5
21F7
330
21ED
100
AcDbEntity
  8
Defpoints
 62
     0
100
AcDbPoint
 10
1551.440439034873
 20
935.2484568791218
 30
0.0
  0
POINT
  5
21F8
330
21ED
100
AcDbEntity
  8
Defpoints
 62
     0
100
AcDbPoint
 10
1551.440439034873
 20
807.6189693362646
 30
0.0
  0
ENDBLK
  5
21EF
330
21ED
100
AcDbEntity
  8
0
100
AcDbBlockEnd
  0
BLOCK
  5
21FB
330
21FA
100
AcDbEntity
  8
0
100
AcDbBlockBegin
  2
*D60
 70
     1
 10
0.0
 20
0.0
 30
0.0
  3
*D60
  1
*D60
  0
LINE
  5
21FD
330
21FA
100
AcDbEntity
  8
Dim
  6
Continuous
 62
     0
370
    -2
100
AcDbLine
 10
1614.691647826082
 20
874.2503962901108
 30
0.0
 11
1614.691647826082
 21
793.4379151648361
 31
0.0
  0
LINE
  5
21FE
330
21FA
100
AcDbEntity
  8
Dim
  6
Continuous
 62
     0
370
    -2
100
AcDbLine
 10
1424.691647826082
 20
954.9733200351657
 30
0.0
 11
1424.691647826082
 21
793.4379151648361
 31
0.0
  0
LINE
  5
21FF
330
21FA
100
AcDbEntity
  8
Dim
  6
Continuous
 62
     0
370
    -2
100
AcDbLine
 10
1605.691647826082
 20
793.4379151648361
 30
0.0
 11
1433.691647826082
 21
793.4379151648361
 31
0.0
  0
INSERT
  5
2200
330
21FA
100
AcDbEntity
  8
Dim
 62
     0
370
    -2
100
AcDbBlockReference
  2
_DOT
 10
1614.691647826082
 20
793.4379151648361
 30
0.0
 41
9.0
 42
9.0
 43
9.0
  0
INSERT
  5
2201
330
21FA
100
AcDbEntity
  8
Dim
 62
     0
370
    -2
100
AcDbBlockReference
  2
_DOT
 10
1424.691647826082
 20
793.4379151648361
 30
0.0
 41
9.0
 42
9.0
 43
9.0
 50
180.0
  0
MTEXT
  5
2202
330
21FA
100
AcDbEntity
  8
Dim
  6
Continuous
 62
     0
100
AcDbMText
 10
1519.691647826082
 20
815.6542237585861
 30
0.0
 40
24.4326171875
 41
0.0
 46
0.0
 71
     5
 72
     1
  1
\A1;190
  7
ＭＳ ゴシック
 73
     1
 44
1.0
  0
POINT
  5
2203
330
21FA
100
AcDbEntity
  8
Defpoints
 62
     0
100
AcDbPoint
 10
1614.691647826082
 20
899.2503962901108
 30
0.0
  0
POINT
  5
2204
330
21FA
100
AcDbEntity
  8
Defpoints
 62
     0
100
AcDbPoint
 10
1424.691647826082
 20
979.9733200351657
 30
0.0
  0
POINT
  5
2205
330
21FA
100
AcDbEntity
  8
Defpoints
 62
     0
100
AcDbPoint
 10
1424.691647826082
 20
793.4379151648361
 30
0.0
  0
ENDBLK
  5
21FC
330
21FA
100
AcDbEntity
  8
0
100
AcDbBlockEnd
  0
BLOCK
  5
2208
330
2207
100
AcDbEntity
  8
0
100
AcDbBlockBegin
  2
*D61
 70
     1
 10
0.0
 20
0.0
 30
0.0
  3
*D61
  1
*D61
  0
LINE
  5
220A
330
2207
100
AcDbEntity
  8
Dim
  6
Continuous
 62
     0
370
    -2
100
AcDbLine
 10
1325.503694587974
 20
1305.347376577049
 30
0.0
 11
1325.503694587974
 21
1380.157200472131
 31
0.0
  0
LINE
  5
220B
330
2207
100
AcDbEntity
  8
Dim
  6
Continuous
 62
     0
370
    -2
100
AcDbLine
 10
1615.503694587974
 20
1305.347376577049
 30
0.0
 11
1615.503694587974
 21
1380.157200472131
 31
0.0
  0
LINE
  5
220C
330
2207
100
AcDbEntity
  8
Dim
  6
Continuous
 62
     0
370
    -2
100
AcDbLine
 10
1334.503694587974
 20
1380.157200472131
 30
0.0
 11
1606.503694587974
 21
1380.157200472131
 31
0.0
  0
INSERT
  5
220D
330
2207
100
AcDbEntity
  8
Dim
 62
     0
370
    -2
100
AcDbBlockReference
  2
_DOT
 10
1325.503694587974
 20
1380.157200472131
 30
0.0
 41
9.0
 42
9.0
 43
9.0
 50
180.0
  0
INSERT
  5
220E
330
2207
100
AcDbEntity
  8
Dim
 62
     0
370
    -2
100
AcDbBlockReference
  2
_DOT
 10
1615.503694587974
 20
1380.157200472131
 30
0.0
 41
9.0
 42
9.0
 43
9.0
  0
MTEXT
  5
220F
330
2207
100
AcDbEntity
  8
Dim
  6
Continuous
 62
     0
100
AcDbMText
 10
1470.503694587974
 20
1402.373509065881
 30
0.0
 40
24.4326171875
 41
0.0
 46
0.0
 71
     5
 72
     1
  1
\A1;290
  7
ＭＳ ゴシック
 73
     1
 44
1.0
  0
POINT
  5
2210
330
2207
100
AcDbEntity
  8
Defpoints
 62
     0
100
AcDbPoint
 10
1325.503694587974
 20
1280.347376577049
 30
0.0
  0
POINT
  5
2211
330
2207
100
AcDbEntity
  8
Defpoints
 62
     0
100
AcDbPoint
 10
1615.503694587974
 20
1280.347376577049
 30
0.0
  0
POINT
  5
2212
330
2207
100
AcDbEntity
  8
Defpoints
 62
     0
100
AcDbPoint
 10
1615.503694587974
 20
1380.157200472131
 30
0.0
  0
ENDBLK
  5
2209
330
2207
100
AcDbEntity
  8
0
100
AcDbBlockEnd
  0
BLOCK
  5
2215
330
2214
100
AcDbEntity
  8
0
100
AcDbBlockBegin
  2
*D62
 70
     1
 10
0.0
 20
0.0
 30
0.0
  3
*D62
  1
*D62
  0
LINE
  5
2217
330
2214
100
AcDbEntity
  8
Dim
  6
Continuous
 62
     0
370
    -2
100
AcDbLine
 10
1614.691647826082
 20
1260.866911580327
 30
0.0
 11
1614.691647826082
 21
1555.445660978361
 31
0.0
  0
LINE
  5
2218
330
2214
100
AcDbEntity
  8
Dim
  6
Continuous
 62
     0
370
    -2
100
AcDbLine
 10
1324.691647826082
 20
1260.866911580327
 30
0.0
 11
1324.691647826082
 21
1555.445660978361
 31
0.0
  0
LINE
  5
2219
330
2214
100
AcDbEntity
  8
Dim
  6
Continuous
 62
     0
370
    -2
100
AcDbLine
 10
1605.691647826082
 20
1555.445660978361
 30
0.0
 11
1333.691647826082
 21
1555.445660978361
 31
0.0
  0
INSERT
  5
221A
330
2214
100
AcDbEntity
  8
Dim
 62
     0
370
    -2
100
AcDbBlockReference
  2
_DOT
 10
1614.691647826082
 20
1555.445660978361
 30
0.0
 41
9.0
 42
9.0
 43
9.0
  0
INSERT
  5
221B
330
2214
100
AcDbEntity
  8
Dim
 62
     0
370
    -2
100
AcDbBlockReference
  2
_DOT
 10
1324.691647826082
 20
1555.445660978361
 30
0.0
 41
9.0
 42
9.0
 43
9.0
 50
180.0
  0
MTEXT
  5
221C
330
2214
100
AcDbEntity
  8
Dim
  6
Continuous
 62
     0
100
AcDbMText
 10
1469.691647826082
 20
1577.661969572111
 30
0.0
 40
24.4326171875
 41
0.0
 46
0.0
 71
     5
 72
     1
  1
\A1;290
  7
ＭＳ ゴシック
 73
     1
 44
1.0
  0
POINT
  5
221D
330
2214
100
AcDbEntity
  8
Defpoints
 62
     0
100
AcDbPoint
 10
1614.691647826082
 20
1235.866911580327
 30
0.0
  0
POINT
  5
221E
330
2214
100
AcDbEntity
  8
Defpoints
 62
     0
100
AcDbPoint
 10
1324.691647826082
 20
1235.866911580327
 30
0.0
  0
POINT
  5
221F
330
2214
100
AcDbEntity
  8
Defpoints
 62
     0
100
AcDbPoint
 10
1324.691647826082
 20
1555.445660978361
 30
0.0
  0
ENDBLK
  5
2216
330
2214
100
AcDbEntity
  8
0
100
AcDbBlockEnd
  0
BLOCK
  5
224B
330
224A
100
AcDbEntity
  8
0
100
AcDbBlockBegin
  2
*D63
 70
     1
 10
0.0
 20
0.0
 30
0.0
  3
*D63
  1
*D63
  0
LINE
  5
224D
330
224A
100
AcDbEntity
  8
Dim
  6
Continuous
 62
     0
370
    -2
100
AcDbLine
 10
594.0560155192009
 20
916.1686146540626
 30
0.0
 11
594.0560155192009
 21
848.4550641819043
 31
0.0
  0
LINE
  5
224E
330
224A
100
AcDbEntity
  8
Dim
  6
Continuous
 62
     0
370
    -2
100
AcDbLine
 10
752.8124534890583
 20
916.1686146540626
 30
0.0
 11
752.8124534890583
 21
848.4550641819043
 31
0.0
  0
LINE
  5
224F
330
224A
100
AcDbEntity
  8
Dim
  6
Continuous
 62
     0
370
    -2
100
AcDbLine
 10
603.0560155192009
 20
848.4550641819043
 30
0.0
 11
743.8124534890583
 21
848.4550641819043
 31
0.0
  0
INSERT
  5
2250
330
224A
100
AcDbEntity
  8
Dim
 62
     0
370
    -2
100
AcDbBlockReference
  2
_DOT
 10
594.0560155192009
 20
848.4550641819043
 30
0.0
 41
9.0
 42
9.0
 43
9.0
 50
180.0
  0
INSERT
  5
2251
330
224A
100
AcDbEntity
  8
Dim
 62
     0
370
    -2
100
AcDbBlockReference
  2
_DOT
 10
752.8124534890583
 20
848.4550641819043
 30
0.0
 41
9.0
 42
9.0
 43
9.0
  0
MTEXT
  5
2252
330
224A
100
AcDbEntity
  8
Dim
  6
Continuous
 62
     0
100
AcDbMText
 10
673.4342345041296
 20
870.6713727756543
 30
0.0
 40
24.4326171875
 41
0.0
 46
0.0
 71
     5
 72
     1
  1
\A1;159
  7
ＭＳ ゴシック
 73
     1
 44
1.0
  0
POINT
  5
2253
330
224A
100
AcDbEntity
  8
Defpoints
 62
     0
100
AcDbPoint
 10
594.0560155192009
 20
941.1686146540626
 30
0.0
  0
POINT
  5
2254
330
224A
100
AcDbEntity
  8
Defpoints
 62
     0
100
AcDbPoint
 10
752.8124534890583
 20
941.1686146540626
 30
0.0
  0
POINT
  5
2255
330
224A
100
AcDbEntity
  8
Defpoints
 62
     0
100
AcDbPoint
 10
752.8124534890583
 20
848.4550641819043
 30
0.0
  0
ENDBLK
  5
224C
330
224A
100
AcDbEntity
  8
0
100
AcDbBlockEnd
  0
BLOCK
  5
2270
330
226F
100
AcDbEntity
  8
0
100
AcDbBlockBegin
  2
*D64
 70
     1
 10
0.0
 20
0.0
 30
0.0
  3
*D64
  1
*D64
  0
LINE
  5
2272
330
226F
100
AcDbEntity
  8
Dim
  6
Continuous
 62
     0
370
    -2
100
AcDbLine
 10
1747.625225834882
 20
920.2552591677131
 30
0.0
 11
1809.195107299849
 21
920.2552591677131
 31
0.0
  0
LINE
  5
2273
330
226F
100
AcDbEntity
  8
Dim
  6
Continuous
 62
     0
370
    -2
100
AcDbLine
 10
1725.98275546864
 20
1015.255259167713
 30
0.0
 11
1809.195107299849
 21
1015.255259167713
 31
0.0
  0
LINE
  5
2274
330
226F
100
AcDbEntity
  8
Dim
  6
Continuous
 62
     0
370
    -2
100
AcDbLine
 10
1809.195107299849
 20
929.2552591677131
 30
0.0
 11
1809.195107299849
 21
1006.255259167713
 31
0.0
  0
INSERT
  5
2275
330
226F
100
AcDbEntity
  8
Dim
 62
     0
370
    -2
100
AcDbBlockReference
  2
_DOT
 10
1809.195107299849
 20
920.2552591677131
 30
0.0
 41
9.0
 42
9.0
 43
9.0
 50
270.0
  0
INSERT
  5
2276
330
226F
100
AcDbEntity
  8
Dim
 62
     0
370
    -2
100
AcDbBlockReference
  2
_DOT
 10
1809.195107299849
 20
1015.255259167713
 30
0.0
 41
9.0
 42
9.0
 43
9.0
 50
90.0
  0
MTEXT
  5
2277
330
226F
100
AcDbEntity
  8
Dim
  6
Continuous
 62
     0
100
AcDbMText
 10
1786.978798706099
 20
967.7552591677131
 30
0.0
 40
24.4326171875
 41
0.0
 46
0.0
 71
     5
 72
     1
  1
\A1;95
  7
ＭＳ ゴシック
 11
0.0
 21
1.0
 31
0.0
 73
     1
 44
1.0
  0
POINT
  5
2278
330
226F
100
AcDbEntity
  8
Defpoints
 62
     0
100
AcDbPoint
 10
1722.625225834882
 20
920.2552591677131
 30
0.0
  0
POINT
  5
2279
330
226F
100
AcDbEntity
  8
Defpoints
 62
     0
100
AcDbPoint
 10
1700.98275546864
 20
1015.255259167713
 30
0.0
  0
POINT
  5
227A
330
226F
100
AcDbEntity
  8
Defpoints
 62
     0
100
AcDbPoint
 10
1809.195107299849
 20
1015.255259167713
 30
0.0
  0
ENDBLK
  5
2271
330
226F
100
AcDbEntity
  8
0
100
AcDbBlockEnd
  0
BLOCK
  5
227F
330
227E
100
AcDbEntity
  8
0
100
AcDbBlockBegin
  2
*D65
 70
     1
 10
0.0
 20
0.0
 30
0.0
  3
*D65
  1
*D65
  0
LINE
  5
2281
330
227E
100
AcDbEntity
  8
Dim
  6
Continuous
 62
     0
370
    -2
100
AcDbLine
 10
1587.619965080455
 20
1015.255259167713
 30
0.0
 11
1653.458531781507
 21
1015.255259167713
 31
0.0
  0
LINE
  5
2282
330
227E
100
AcDbEntity
  8
Dim
  6
Continuous
 62
     0
370
    -2
100
AcDbLine
 10
1596.440439034873
 20
920.2552591677131
 30
0.0
 11
1653.458531781507
 21
920.2552591677131
 31
0.0
  0
LINE
  5
2283
330
227E
100
AcDbEntity
  8
Dim
  6
Continuous
 62
     0
370
    -2
100
AcDbLine
 10
1653.458531781507
 20
1006.255259167713
 30
0.0
 11
1653.458531781507
 21
929.2552591677131
 31
0.0
  0
INSERT
  5
2284
330
227E
100
AcDbEntity
  8
Dim
 62
     0
370
    -2
100
AcDbBlockReference
  2
_DOT
 10
1653.458531781507
 20
1015.255259167713
 30
0.0
 41
9.0
 42
9.0
 43
9.0
 50
90.0
  0
INSERT
  5
2285
330
227E
100
AcDbEntity
  8
Dim
 62
     0
370
    -2
100
AcDbBlockReference
  2
_DOT
 10
1653.458531781507
 20
920.2552591677131
 30
0.0
 41
9.0
 42
9.0
 43
9.0
 50
270.0
  0
MTEXT
  5
2286
330
227E
100
AcDbEntity
  8
Dim
  6
Continuous
 62
     0
100
AcDbMText
 10
1631.242223187757
 20
967.7552591677131
 30
0.0
 40
24.4326171875
 41
0.0
 46
0.0
 71
     5
 72
     1
  1
\A1;95
  7
ＭＳ ゴシック
 11
0.0
 21
1.0
 31
0.0
 73
     1
 44
1.0
  0
POINT
  5
2287
330
227E
100
AcDbEntity
  8
Defpoints
 62
     0
100
AcDbPoint
 10
1562.619965080455
 20
1015.255259167713
 30
0.0
  0
POINT
  5
2288
330
227E
100
AcDbEntity
  8
Defpoints
 62
     0
100
AcDbPoint
 10
1571.440439034873
 20
920.2552591677131
 30
0.0
  0
POINT
  5
2289
330
227E
100
AcDbEntity
  8
Defpoints
 62
     0
100
AcDbPoint
 10
1653.458531781507
 20
920.2552591677131
 30
0.0
  0
ENDBLK
  5
2280
330
227E
100
AcDbEntity
  8
0
100
AcDbBlockEnd
  0
BLOCK
  5
23C1
330
23C0
100
AcDbEntity
  8
0
100
AcDbBlockBegin
  2
*D66
 70
     1
 10
0.0
 20
0.0
 30
0.0
  3
*D66
  1
*D69
  0
LINE
  5
23C3
330
23C0
100
AcDbEntity
  8
Dim
  6
Continuous
 62
     0
370
    -2
100
AcDbLine
 10
1578.816435437165
 20
2427.596151119199
 30
0.0
 11
1680.750222279378
 21
2427.596151119199
 31
0.0
  0
LINE
  5
23C4
330
23C0
100
AcDbEntity
  8
Dim
  6
Continuous
 62
     0
370
    -2
100
AcDbLine
 10
1601.732320833988
 20
2382.596151119199
 30
0.0
 11
1680.750222279378
 21
2382.596151119199
 31
0.0
  0
LINE
  5
23C5
330
23C0
100
AcDbEntity
  8
Dim
  6
Continuous
 62
     0
370
    -2
100
AcDbLine
 10
1680.750222279378
 20
2418.596151119199
 30
0.0
 11
1680.750222279378
 21
2391.596151119199
 31
0.0
  0
INSERT
  5
23C6
330
23C0
100
AcDbEntity
  8
Dim
 62
     0
370
    -2
100
AcDbBlockReference
  2
_DOT
 10
1680.750222279378
 20
2427.596151119199
 30
0.0
 41
9.0
 42
9.0
 43
9.0
 50
90.0
  0
INSERT
  5
23C7
330
23C0
100
AcDbEntity
  8
Dim
 62
     0
370
    -2
100
AcDbBlockReference
  2
_DOT
 10
1680.750222279378
 20
2382.596151119199
 30
0.0
 41
9.0
 42
9.0
 43
9.0
 50
270.0
  0
MTEXT
  5
23C8
330
23C0
100
AcDbEntity
  8
Dim
  6
Continuous
 62
     0
100
AcDbMText
 10
1658.533913685628
 20
2405.096151119199
 30
0.0
 40
24.4326171875
 41
0.0
 46
0.0
 71
     5
 72
     1
  1
\A1;45
  7
ＭＳ ゴシック
 11
0.0
 21
1.0
 31
0.0
 73
     1
 44
1.0
  0
POINT
  5
23C9
330
23C0
100
AcDbEntity
  8
Defpoints
 62
     0
100
AcDbPoint
 10
1553.816435437165
 20
2427.596151119199
 30
0.0
  0
POINT
  5
23CA
330
23C0
100
AcDbEntity
  8
Defpoints
 62
     0
100
AcDbPoint
 10
1576.732320833988
 20
2382.596151119199
 30
0.0
  0
POINT
  5
23CB
330
23C0
100
AcDbEntity
  8
Defpoints
 62
     0
100
AcDbPoint
 10
1680.750222279378
 20
2382.596151119199
 30
0.0
  0
ENDBLK
  5
23C2
330
23C0
100
AcDbEntity
  8
0
100
AcDbBlockEnd
  0
BLOCK
  5
2490
330
248F
100
AcDbEntity
  8
0
100
AcDbBlockBegin
  2
*D67
 70
     1
 10
0.0
 20
0.0
 30
0.0
  3
*D67
  1
*D70
  0
LINE
  5
2492
330
248F
100
AcDbEntity
  8
Dim
  6
Continuous
 62
     0
370
    -2
100
AcDbLine
 10
1617.536805692605
 20
1485.261497639278
 30
0.0
 11
1674.554898439239
 21
1485.261497639278
 31
0.0
  0
LINE
  5
2493
330
248F
100
AcDbEntity
  8
Dim
  6
Continuous
 62
     0
370
    -2
100
AcDbLine
 10
1608.716331738187
 20
1440.255259167713
 30
0.0
 11
1674.554898439239
 21
1440.255259167713
 31
0.0
  0
LINE
  5
2494
330
248F
100
AcDbEntity
  8
Dim
  6
Continuous
 62
     0
370
    -2
100
AcDbLine
 10
1674.554898439239
 20
1476.261497639278
 30
0.0
 11
1674.554898439239
 21
1449.255259167713
 31
0.0
  0
INSERT
  5
2495
330
248F
100
AcDbEntity
  8
Dim
 62
     0
370
    -2
100
AcDbBlockReference
  2
_DOT
 10
1674.554898439239
 20
1485.261497639278
 30
0.0
 41
9.0
 42
9.0
 43
9.0
 50
90.0
  0
INSERT
  5
2496
330
248F
100
AcDbEntity
  8
Dim
 62
     0
370
    -2
100
AcDbBlockReference
  2
_DOT
 10
1674.554898439239
 20
1440.255259167713
 30
0.0
 41
9.0
 42
9.0
 43
9.0
 50
270.0
  0
MTEXT
  5
2497
330
248F
100
AcDbEntity
  8
Dim
  6
Continuous
 62
     0
100
AcDbMText
 10
1652.338589845489
 20
1462.758378403495
 30
0.0
 40
24.4326171875
 41
0.0
 46
0.0
 71
     5
 72
     1
  1
\A1;45
  7
ＭＳ ゴシック
 11
0.0
 21
1.0
 31
0.0
 73
     1
 44
1.0
  0
POINT
  5
2498
330
248F
100
AcDbEntity
  8
Defpoints
 62
     0
100
AcDbPoint
 10
1592.536805692605
 20
1485.261497639278
 30
0.0
  0
POINT
  5
2499
330
248F
100
AcDbEntity
  8
Defpoints
 62
     0
100
AcDbPoint
 10
1583.716331738187
 20
1440.255259167713
 30
0.0
  0
POINT
  5
249A
330
248F
100
AcDbEntity
  8
Defpoints
 62
     0
100
AcDbPoint
 10
1674.554898439239
 20
1440.255259167713
 30
0.0
  0
ENDBLK
  5
2491
330
248F
100
AcDbEntity
  8
0
100
AcDbBlockEnd
  0
BLOCK
  5
249C
330
249B
100
AcDbEntity
  8
0
100
AcDbBlockBegin
  2
*D68
 70
     1
 10
0.0
 20
0.0
 30
0.0
  3
*D68
  1
*D71
  0
LINE
  5
249E
330
249B
100
AcDbEntity
  8
Dim
  6
Continuous
 62
     0
370
    -2
100
AcDbLine
 10
1592.536805692605
 20
1485.261497639278
 30
0.0
 11
1857.045430319749
 21
1485.261497639278
 31
0.0
  0
LINE
  5
249F
330
249B
100
AcDbEntity
  8
Dim
  6
Continuous
 62
     0
370
    -2
100
AcDbLine
 10
1592.536805692605
 20
920.2552591677131
 30
0.0
 11
1857.045430319749
 21
920.2552591677131
 31
0.0
  0
LINE
  5
24A0
330
249B
100
AcDbEntity
  8
Dim
  6
Continuous
 62
     0
370
    -2
100
AcDbLine
 10
1857.045430319749
 20
1476.261497639278
 30
0.0
 11
1857.045430319749
 21
929.2552591677131
 31
0.0
  0
INSERT
  5
24A1
330
249B
100
AcDbEntity
  8
Dim
 62
     0
370
    -2
100
AcDbBlockReference
  2
_DOT
 10
1857.045430319749
 20
1485.261497639278
 30
0.0
 41
9.0
 42
9.0
 43
9.0
 50
90.0
  0
INSERT
  5
24A2
330
249B
100
AcDbEntity
  8
Dim
 62
     0
370
    -2
100
AcDbBlockReference
  2
_DOT
 10
1857.045430319749
 20
920.2552591677131
 30
0.0
 41
9.0
 42
9.0
 43
9.0
 50
270.0
  0
MTEXT
  5
24A3
330
249B
100
AcDbEntity
  8
Dim
  6
Continuous
 62
     0
100
AcDbMText
 10
1834.829121725999
 20
1202.758378403495
 30
0.0
 40
24.4326171875
 41
0.0
 46
0.0
 71
     5
 72
     1
  1
\A1;565
  7
ＭＳ ゴシック
 11
0.0
 21
1.0
 31
0.0
 73
     1
 44
1.0
  0
POINT
  5
24A4
330
249B
100
AcDbEntity
  8
Defpoints
 62
     0
100
AcDbPoint
 10
1567.536805692605
 20
1485.261497639278
 30
0.0
  0
POINT
  5
24A5
330
249B
100
AcDbEntity
  8
Defpoints
 62
     0
100
AcDbPoint
 10
1567.536805692605
 20
920.2552591677131
 30
0.0
  0
POINT
  5
24A6
330
249B
100
AcDbEntity
  8
Defpoints
 62
     0
100
AcDbPoint
 10
1857.045430319749
 20
920.2552591677131
 30
0.0
  0
ENDBLK
  5
249D
330
249B
100
AcDbEntity
  8
0
100
AcDbBlockEnd
  0
BLOCK
  5
24A8
330
24A7
100
AcDbEntity
  8
0
100
AcDbBlockBegin
  2
*D69
 70
     1
 10
0.0
 20
0.0
 30
0.0
  3
*D69
  1
*D72
  0
LINE
  5
24AA
330
24A7
100
AcDbEntity
  8
Dim
  6
Continuous
 62
     0
370
    -2
100
AcDbLine
 10
1495.016507551207
 20
1385.255259167713
 30
0.0
 11
1674.554898439239
 21
1385.255259167713
 31
0.0
  0
LINE
  5
24AB
330
24A7
100
AcDbEntity
  8
Dim
  6
Continuous
 62
     0
370
    -2
100
AcDbLine
 10
1608.716331738187
 20
1015.255259167713
 30
0.0
 11
1674.554898439239
 21
1015.255259167713
 31
0.0
  0
LINE
  5
24AC
330
24A7
100
AcDbEntity
  8
Dim
  6
Continuous
 62
     0
370
    -2
100
AcDbLine
 10
1674.554898439239
 20
1376.255259167713
 30
0.0
 11
1674.554898439239
 21
1024.255259167713
 31
0.0
  0
INSERT
  5
24AD
330
24A7
100
AcDbEntity
  8
Dim
 62
     0
370
    -2
100
AcDbBlockReference
  2
_DOT
 10
1674.554898439239
 20
1385.255259167713
 30
0.0
 41
9.0
 42
9.0
 43
9.0
 50
90.0
  0
INSERT
  5
24AE
330
24A7
100
AcDbEntity
  8
Dim
 62
     0
370
    -2
100
AcDbBlockReference
  2
_DOT
 10
1674.554898439239
 20
1015.255259167713
 30
0.0
 41
9.0
 42
9.0
 43
9.0
 50
270.0
  0
MTEXT
  5
24AF
330
24A7
100
AcDbEntity
  8
Dim
  6
Continuous
 62
     0
100
AcDbMText
 10
1652.338589845489
 20
1200.255259167713
 30
0.0
 40
24.4326171875
 41
0.0
 46
0.0
 71
     5
 72
     1
  1
\A1;370
  7
ＭＳ ゴシック
 11
0.0
 21
1.0
 31
0.0
 73
     1
 44
1.0
  0
POINT
  5
24B0
330
24A7
100
AcDbEntity
  8
Defpoints
 62
     0
100
AcDbPoint
 10
1470.016507551207
 20
1385.255259167713
 30
0.0
  0
POINT
  5
24B1
330
24A7
100
AcDbEntity
  8
Defpoints
 62
     0
100
AcDbPoint
 10
1583.716331738187
 20
1015.255259167713
 30
0.0
  0
POINT
  5
24B2
330
24A7
100
AcDbEntity
  8
Defpoints
 62
     0
100
AcDbPoint
 10
1674.554898439239
 20
1015.255259167713
 30
0.0
  0
ENDBLK
  5
24A9
330
24A7
100
AcDbEntity
  8
0
100
AcDbBlockEnd
  0
BLOCK
  5
24B4
330
24B3
100
AcDbEntity
  8
0
100
AcDbBlockBegin
  2
*D70
 70
     1
 10
0.0
 20
0.0
 30
0.0
  3
*D70
  1
*D73
  0
LINE
  5
24B6
330
24B3
100
AcDbEntity
  8
Dim
  6
Continuous
 62
     0
370
    -2
100
AcDbLine
 10
1617.536805692605
 20
1485.261497639278
 30
0.0
 11
1769.218889285129
 21
1485.261497639278
 31
0.0
  0
LINE
  5
24B7
330
24B3
100
AcDbEntity
  8
Dim
  6
Continuous
 62
     0
370
    -2
100
AcDbLine
 10
1608.716331738187
 20
1015.255259167713
 30
0.0
 11
1769.218889285129
 21
1015.255259167713
 31
0.0
  0
LINE
  5
24B8
330
24B3
100
AcDbEntity
  8
Dim
  6
Continuous
 62
     0
370
    -2
100
AcDbLine
 10
1769.218889285129
 20
1476.261497639278
 30
0.0
 11
1769.218889285129
 21
1024.255259167713
 31
0.0
  0
INSERT
  5
24B9
330
24B3
100
AcDbEntity
  8
Dim
 62
     0
370
    -2
100
AcDbBlockReference
  2
_DOT
 10
1769.218889285129
 20
1485.261497639278
 30
0.0
 41
9.0
 42
9.0
 43
9.0
 50
90.0
  0
INSERT
  5
24BA
330
24B3
100
AcDbEntity
  8
Dim
 62
     0
370
    -2
100
AcDbBlockReference
  2
_DOT
 10
1769.218889285129
 20
1015.255259167713
 30
0.0
 41
9.0
 42
9.0
 43
9.0
 50
270.0
  0
MTEXT
  5
24BB
330
24B3
100
AcDbEntity
  8
Dim
  6
Continuous
 62
     0
100
AcDbMText
 10
1747.002580691379
 20
1250.258378403495
 30
0.0
 40
24.4326171875
 41
0.0
 46
0.0
 71
     5
 72
     1
  1
\A1;470
  7
ＭＳ ゴシック
 11
0.0
 21
1.0
 31
0.0
 73
     1
 44
1.0
  0
POINT
  5
24BC
330
24B3
100
AcDbEntity
  8
Defpoints
 62
     0
100
AcDbPoint
 10
1592.536805692605
 20
1485.261497639278
 30
0.0
  0
POINT
  5
24BD
330
24B3
100
AcDbEntity
  8
Defpoints
 62
     0
100
AcDbPoint
 10
1583.716331738187
 20
1015.255259167713
 30
0.0
  0
POINT
  5
24BE
330
24B3
100
AcDbEntity
  8
Defpoints
 62
     0
100
AcDbPoint
 10
1769.218889285129
 20
1015.255259167713
 30
0.0
  0
ENDBLK
  5
24B5
330
24B3
100
AcDbEntity
  8
0
100
AcDbBlockEnd
  0
BLOCK
  5
24C0
330
24BF
100
AcDbEntity
  8
0
100
AcDbBlockBegin
  2
*D71
 70
     1
 10
0.0
 20
0.0
 30
0.0
  3
*D71
  1
*D74
  0
LINE
  5
24C2
330
24BF
100
AcDbEntity
  8
Dim
  6
Continuous
 62
     0
370
    -2
100
AcDbLine
 10
1437.536805692605
 20
910.2484568791218
 30
0.0
 11
1437.536805692605
 21
807.6189693362646
 31
0.0
  0
LINE
  5
24C3
330
24BF
100
AcDbEntity
  8
Dim
  6
Continuous
 62
     0
370
    -2
100
AcDbLine
 10
1572.536805692605
 20
910.2484568791218
 30
0.0
 11
1572.536805692605
 21
807.6189693362646
 31
0.0
  0
LINE
  5
24C4
330
24BF
100
AcDbEntity
  8
Dim
  6
Continuous
 62
     0
370
    -2
100
AcDbLine
 10
1446.536805692605
 20
807.6189693362646
 30
0.0
 11
1563.536805692605
 21
807.6189693362646
 31
0.0
  0
INSERT
  5
24C5
330
24BF
100
AcDbEntity
  8
Dim
 62
     0
370
    -2
100
AcDbBlockReference
  2
_DOT
 10
1437.536805692605
 20
807.6189693362646
 30
0.0
 41
9.0
 42
9.0
 43
9.0
 50
180.0
  0
INSERT
  5
24C6
330
24BF
100
AcDbEntity
  8
Dim
 62
     0
370
    -2
100
AcDbBlockReference
  2
_DOT
 10
1572.536805692605
 20
807.6189693362646
 30
0.0
 41
9.0
 42
9.0
 43
9.0
  0
MTEXT
  5
24C7
330
24BF
100
AcDbEntity
  8
Dim
  6
Continuous
 62
     0
100
AcDbMText
 10
1505.036805692605
 20
829.8352779300146
 30
0.0
 40
24.4326171875
 41
0.0
 46
0.0
 71
     5
 72
     1
  1
\A1;135
  7
ＭＳ ゴシック
 73
     1
 44
1.0
  0
POINT
  5
24C8
330
24BF
100
AcDbEntity
  8
Defpoints
 62
     0
100
AcDbPoint
 10
1437.536805692605
 20
935.2484568791218
 30
0.0
  0
POINT
  5
24C9
330
24BF
100
AcDbEntity
  8
Defpoints
 62
     0
100
AcDbPoint
 10
1572.536805692605
 20
935.2484568791218
 30
0.0
  0
POINT
  5
24CA
330
24BF
100
AcDbEntity
  8
Defpoints
 62
     0
100
AcDbPoint
 10
1572.536805692605
 20
807.6189693362646
 30
0.0
  0
ENDBLK
  5
24C1
330
24BF
100
AcDbEntity
  8
0
100
AcDbBlockEnd
  0
BLOCK
  5
24CC
330
24CB
100
AcDbEntity
  8
0
100
AcDbBlockBegin
  2
*D72
 70
     1
 10
0.0
 20
0.0
 30
0.0
  3
*D72
  1
*D75
  0
LINE
  5
24CE
330
24CB
100
AcDbEntity
  8
Dim
  6
Continuous
 62
     0
370
    -2
100
AcDbLine
 10
1608.716331738187
 20
1015.255259167713
 30
0.0
 11
1674.554898439239
 21
1015.255259167713
 31
0.0
  0
LINE
  5
24CF
330
24CB
100
AcDbEntity
  8
Dim
  6
Continuous
 62
     0
370
    -2
100
AcDbLine
 10
1617.536805692605
 20
920.2552591677131
 30
0.0
 11
1674.554898439239
 21
920.2552591677131
 31
0.0
  0
LINE
  5
24D0
330
24CB
100
AcDbEntity
  8
Dim
  6
Continuous
 62
     0
370
    -2
100
AcDbLine
 10
1674.554898439239
 20
1006.255259167713
 30
0.0
 11
1674.554898439239
 21
929.2552591677131
 31
0.0
  0
INSERT
  5
24D1
330
24CB
100
AcDbEntity
  8
Dim
 62
     0
370
    -2
100
AcDbBlockReference
  2
_DOT
 10
1674.554898439239
 20
1015.255259167713
 30
0.0
 41
9.0
 42
9.0
 43
9.0
 50
90.0
  0
INSERT
  5
24D2
330
24CB
100
AcDbEntity
  8
Dim
 62
     0
370
    -2
100
AcDbBlockReference
  2
_DOT
 10
1674.554898439239
 20
920.2552591677131
 30
0.0
 41
9.0
 42
9.0
 43
9.0
 50
270.0
  0
MTEXT
  5
24D3
330
24CB
100
AcDbEntity
  8
Dim
  6
Continuous
 62
     0
100
AcDbMText
 10
1652.338589845489
 20
967.7552591677131
 30
0.0
 40
24.4326171875
 41
0.0
 46
0.0
 71
     5
 72
     1
  1
\A1;95
  7
ＭＳ ゴシック
 11
0.0
 21
1.0
 31
0.0
 73
     1
 44
1.0
  0
POINT
  5
24D4
330
24CB
100
AcDbEntity
  8
Defpoints
 62
     0
100
AcDbPoint
 10
1583.716331738187
 20
1015.255259167713
 30
0.0
  0
POINT
  5
24D5
330
24CB
100
AcDbEntity
  8
Defpoints
 62
     0
100
AcDbPoint
 10
1592.536805692605
 20
920.2552591677131
 30
0.0
  0
POINT
  5
24D6
330
24CB
100
AcDbEntity
  8
Defpoints
 62
     0
100
AcDbPoint
 10
1674.554898439239
 20
920.2552591677131
 30
0.0
  0
ENDBLK
  5
24CD
330
24CB
100
AcDbEntity
  8
0
100
AcDbBlockEnd
  0
BLOCK
  5
24F4
330
24F3
100
AcDbEntity
  8
0
100
AcDbBlockBegin
  2
*D73
 70
     1
 10
0.0
 20
0.0
 30
0.0
  3
*D73
  1
*D76
  0
LINE
  5
24F6
330
24F3
100
AcDbEntity
  8
Dim
  6
Continuous
 62
     0
370
    -2
100
AcDbLine
 10
2662.742413459142
 20
1485.352880789529
 30
0.0
 11
2764.676200301355
 21
1485.352880789529
 31
0.0
  0
LINE
  5
24F7
330
24F3
100
AcDbEntity
  8
Dim
  6
Continuous
 62
     0
370
    -2
100
AcDbLine
 10
2685.658298855966
 20
1440.352880789529
 30
0.0
 11
2764.676200301355
 21
1440.352880789529
 31
0.0
  0
LINE
  5
24F8
330
24F3
100
AcDbEntity
  8
Dim
  6
Continuous
 62
     0
370
    -2
100
AcDbLine
 10
2764.676200301355
 20
1476.352880789529
 30
0.0
 11
2764.676200301355
 21
1449.352880789529
 31
0.0
  0
INSERT
  5
24F9
330
24F3
100
AcDbEntity
  8
Dim
 62
     0
370
    -2
100
AcDbBlockReference
  2
_DOT
 10
2764.676200301355
 20
1485.352880789529
 30
0.0
 41
9.0
 42
9.0
 43
9.0
 50
90.0
  0
INSERT
  5
24FA
330
24F3
100
AcDbEntity
  8
Dim
 62
     0
370
    -2
100
AcDbBlockReference
  2
_DOT
 10
2764.676200301355
 20
1440.352880789529
 30
0.0
 41
9.0
 42
9.0
 43
9.0
 50
270.0
  0
MTEXT
  5
24FB
330
24F3
100
AcDbEntity
  8
Dim
  6
Continuous
 62
     0
100
AcDbMText
 10
2742.459891707605
 20
1462.852880789529
 30
0.0
 40
24.4326171875
 41
0.0
 46
0.0
 71
     5
 72
     1
  1
\A1;45
  7
ＭＳ ゴシック
 11
0.0
 21
1.0
 31
0.0
 73
     1
 44
1.0
  0
POINT
  5
24FC
330
24F3
100
AcDbEntity
  8
Defpoints
 62
     0
100
AcDbPoint
 10
2637.742413459142
 20
1485.352880789529
 30
0.0
  0
POINT
  5
24FD
330
24F3
100
AcDbEntity
  8
Defpoints
 62
     0
100
AcDbPoint
 10
2660.658298855966
 20
1440.352880789529
 30
0.0
  0
POINT
  5
24FE
330
24F3
100
AcDbEntity
  8
Defpoints
 62
     0
100
AcDbPoint
 10
2764.676200301355
 20
1440.352880789529
 30
0.0
  0
ENDBLK
  5
24F5
330
24F3
100
AcDbEntity
  8
0
100
AcDbBlockEnd
  0
BLOCK
  5
2541
330
2540
100
AcDbEntity
  8
0
100
AcDbBlockBegin
  2
*D74
 70
     1
 10
0.0
 20
0.0
 30
0.0
  3
*D74
  1
*D74
  0
LINE
  5
2543
330
2540
100
AcDbEntity
  8
Dim
  6
Continuous
 62
     0
370
    -2
100
AcDbLine
 10
774.8823848935983
 20
1015.292474661161
 30
0.0
 11
977.8264940707646
 21
1015.292474661161
 31
0.0
  0
LINE
  5
2544
330
2540
100
AcDbEntity
  8
Dim
  6
Continuous
 62
     0
370
    -2
100
AcDbLine
 10
774.8823848935983
 20
920.292474661161
 30
0.0
 11
977.8264940707646
 21
920.292474661161
 31
0.0
  0
LINE
  5
2545
330
2540
100
AcDbEntity
  8
Dim
  6
Continuous
 62
     0
370
    -2
100
AcDbLine
 10
977.8264940707646
 20
1006.292474661161
 30
0.0
 11
977.8264940707646
 21
929.292474661161
 31
0.0
  0
INSERT
  5
2546
330
2540
100
AcDbEntity
  8
Dim
 62
     0
370
    -2
100
AcDbBlockReference
  2
_DOT
 10
977.8264940707646
 20
1015.292474661161
 30
0.0
 41
9.0
 42
9.0
 43
9.0
 50
90.0
  0
INSERT
  5
2547
330
2540
100
AcDbEntity
  8
Dim
 62
     0
370
    -2
100
AcDbBlockReference
  2
_DOT
 10
977.8264940707646
 20
920.292474661161
 30
0.0
 41
9.0
 42
9.0
 43
9.0
 50
270.0
  0
MTEXT
  5
2548
330
2540
100
AcDbEntity
  8
Dim
  6
Continuous
 62
     0
100
AcDbMText
 10
955.6101854770146
 20
967.792474661161
 30
0.0
 40
24.4326171875
 41
0.0
 46
0.0
 71
     5
 72
     1
  1
\A1;95
  7
ＭＳ ゴシック
 11
0.0
 21
1.0
 31
0.0
 73
     1
 44
1.0
  0
POINT
  5
2549
330
2540
100
AcDbEntity
  8
Defpoints
 62
     0
100
AcDbPoint
 10
749.8823848935983
 20
1015.292474661161
 30
0.0
  0
POINT
  5
254A
330
2540
100
AcDbEntity
  8
Defpoints
 62
     0
100
AcDbPoint
 10
749.8823848935983
 20
920.292474661161
 30
0.0
  0
POINT
  5
254B
330
2540
100
AcDbEntity
  8
Defpoints
 62
     0
100
AcDbPoint
 10
977.8264940707646
 20
920.292474661161
 30
0.0
  0
ENDBLK
  5
2542
330
2540
100
AcDbEntity
  8
0
100
AcDbBlockEnd
  0
BLOCK
  5
254E
330
254D
100
AcDbEntity
  8
0
100
AcDbBlockBegin
  2
*D75
 70
     1
 10
0.0
 20
0.0
 30
0.0
  3
*D75
  1
*D75
  0
LINE
  5
2550
330
254D
100
AcDbEntity
  8
Dim
  6
Continuous
 62
     0
370
    -2
100
AcDbLine
 10
844.1703930877592
 20
1110.255259167713
 30
0.0
 11
911.8914910648402
 21
1110.255259167713
 31
0.0
  0
LINE
  5
2551
330
254D
100
AcDbEntity
  8
Dim
  6
Continuous
 62
     0
370
    -2
100
AcDbLine
 10
755.2482845416836
 20
1235.255259167713
 30
0.0
 11
911.8914910648402
 21
1235.255259167713
 31
0.0
  0
LINE
  5
2552
330
254D
100
AcDbEntity
  8
Dim
  6
Continuous
 62
     0
370
    -2
100
AcDbLine
 10
911.8914910648402
 20
1119.255259167713
 30
0.0
 11
911.8914910648402
 21
1226.255259167713
 31
0.0
  0
INSERT
  5
2553
330
254D
100
AcDbEntity
  8
Dim
 62
     0
370
    -2
100
AcDbBlockReference
  2
_DOT
 10
911.8914910648402
 20
1110.255259167713
 30
0.0
 41
9.0
 42
9.0
 43
9.0
 50
270.0
  0
INSERT
  5
2554
330
254D
100
AcDbEntity
  8
Dim
 62
     0
370
    -2
100
AcDbBlockReference
  2
_DOT
 10
911.8914910648402
 20
1235.255259167713
 30
0.0
 41
9.0
 42
9.0
 43
9.0
 50
90.0
  0
MTEXT
  5
2555
330
254D
100
AcDbEntity
  8
Dim
  6
Continuous
 62
     0
100
AcDbMText
 10
889.6751824710902
 20
1172.755259167713
 30
0.0
 40
24.4326171875
 41
0.0
 46
0.0
 71
     5
 72
     1
  1
\A1;125
  7
ＭＳ ゴシック
 11
0.0
 21
1.0
 31
0.0
 73
     1
 44
1.0
  0
POINT
  5
2556
330
254D
100
AcDbEntity
  8
Defpoints
 62
     0
100
AcDbPoint
 10
819.1703930877592
 20
1110.255259167713
 30
0.0
  0
POINT
  5
2557
330
254D
100
AcDbEntity
  8
Defpoints
 62
     0
100
AcDbPoint
 10
730.2482845416836
 20
1235.255259167713
 30
0.0
  0
POINT
  5
2558
330
254D
100
AcDbEntity
  8
Defpoints
 62
     0
100
AcDbPoint
 10
911.8914910648402
 20
1235.255259167713
 30
0.0
  0
ENDBLK
  5
254F
330
254D
100
AcDbEntity
  8
0
100
AcDbBlockEnd
  0
ENDSEC
  0
SECTION
  2
ENTITIES
  0
MTEXT
  5
177
330
A
100
AcDbEntity
  8
template
390
1D
100
AcDbMText
 10
82.00000000048226
 20
348.023957835319
 30
0.0
 40
16.28841145833333
 41
0.0
 46
0.0
 71
     1
 72
     1
  1
品名
  7
ＭＳ ゴシック
 73
     1
 44
0.7828267384257843
  0
MTEXT
  5
178
330
A
100
AcDbEntity
  8
template
390
1D
100
AcDbMText
 10
82.00000000048226
 20
263.0239578353188
 30
0.0
 40
16.28841145833333
 41
0.0
 46
0.0
 71
     1
 72
     1
  1
仕様
  7
ＭＳ ゴシック
 73
     1
 44
0.7828267384257843
  0
LINE
  5
179
330
A
100
AcDbEntity
  8
template
390
1D
100
AcDbLine
 10
2025.0
 20
271.4388797103189
 30
0.0
 11
75.00000000000023
 21
271.4388797103189
 31
0.0
  0
LWPOLYLINE
  5
17A
330
A
100
AcDbEntity
  8
template
390
1D
100
AcDbPolyline
 90
        5
 70
   128
 43
0.0
 10
2025.0
 20
2901.438879710319
 10
75.00000000000023
 20
2901.438879710319
 10
75.00000000000023
 20
101.4388797103188
 10
2025.0
 20
101.4388797103188
 10
2025.0
 20
2901.438879710319
  0
LINE
  5
17B
330
A
100
AcDbEntity
  8
template
390
1D
100
AcDbLine
 10
2025.0
 20
356.4388797103188
 30
0.0
 11
75.00000000000023
 21
356.4388797103188
 31
0.0
  0
LINE
  5
17C
330
A
100
AcDbEntity
  8
template
390
1D
100
AcDbLine
 10
2025.000000000482
 20
186.4388797103189
 30
0.0
 11
1272.000000000482
 21
186.4388797103189
 31
0.0
  0
MTEXT
  5
17E
330
A
100
AcDbEntity
  8
template
390
1D
100
AcDbMText
 10
1301.871406252743
 20
156.5284852370108
 30
0.0
 40
24.4326171875
 41
0.0
 46
0.0
 71
     1
 72
     1
  1
大洋金物株式会社 ティーフォルム事業部
  7
ＭＳ ゴシック
 73
     1
 44
0.7828267384257843
  0
MTEXT
  5
180
330
A
100
AcDbEntity
  8
template
390
1D
100
AcDbMText
 10
1834.000000000742
 20
234.4414968978188
 30
0.0
 40
24.4326171875
 41
0.0
 46
0.0
 71
     1
 72
     1
  1
1:10
  7
ＭＳ ゴシック
 73
     1
 44
0.7828267384257843
  0
MTEXT
  5
181
330
A
100
AcDbEntity
  8
template
390
1D
100
AcDbMText
 10
1781.000000000742
 20
263.0239578353188
 30
0.0
 40
16.28841145833333
 41
0.0
 46
0.0
 71
     1
 72
     1
  1
縮尺
  7
ＭＳ ゴシック
 73
     1
 44
0.7828267384257843
  0
LINE
  5
182
330
A
100
AcDbEntity
  8
template
390
1D
100
AcDbLine
 10
1774.000000000742
 20
186.4388797103189
 30
0.0
 11
1774.000000000742
 21
271.4388797103189
 31
0.0
  0
MTEXT
  5
183
330
A
100
AcDbEntity
  8
template
390
1D
100
AcDbMText
 10
1530.000000000742
 20
263.0239578353188
 30
0.0
 40
16.28841145833333
 41
0.0
 46
0.0
 71
     1
 72
     1
  1
容量
  7
ＭＳ ゴシック
 73
     1
 44
0.7828267384257843
  0
LINE
  5
184
330
A
100
AcDbEntity
  8
template
390
1D
100
AcDbLine
 10
1523.000000000742
 20
186.4388797103189
 30
0.0
 11
1523.000000000742
 21
271.4388797103189
 31
0.0
  0
MTEXT
  5
185
330
A
100
AcDbEntity
  8
template
390
1D
100
AcDbMText
 10
1279.000000000742
 20
348.023957835319
 30
0.0
 40
16.28841145833333
 41
0.0
 46
0.0
 71
     1
 72
     1
  1
品番
  7
ＭＳ ゴシック
 73
     1
 44
0.7828267384257843
  0
MTEXT
  5
186
330
A
100
AcDbEntity
  8
template
390
1D
100
AcDbMText
 10
1279.000000000742
 20
263.0239578353188
 30
0.0
 40
16.28841145833333
 41
0.0
 46
0.0
 71
     1
 72
     1
  1
重量
  7
ＭＳ ゴシック
 73
     1
 44
0.7828267384257843
  0
MTEXT
  5
187
330
A
100
AcDbEntity
  8
template
390
1D
100
AcDbMText
 10
1332.000000000742
 20
319.4414968978188
 30
0.0
 40
24.4326171875
 41
0.0
 46
24.4326171875
 71
     1
 72
     1
  1
{FAA71-3101}
  7
ＭＳ ゴシック
 73
     1
 44
0.7828267384257843
1001
ACAD
1000
ACAD_MTEXT_DEFINED_HEIGHT_BEGIN
1070
    46
1040
24.4326171875
1000
ACAD_MTEXT_DEFINED_HEIGHT_END
  0
LINE
  5
188
330
A
100
AcDbEntity
  8
template
390
1D
100
AcDbLine
 10
1272.000000000742
 20
101.4388797103188
 30
0.0
 11
1272.000000000742
 21
356.4388797103188
 31
0.0
  0
MTEXT
  5
189
330
A
100
AcDbEntity
  8
template
390
1D
100
AcDbMText
 10
135.0000000004822
 20
319.4414968978188
 30
0.0
 40
24.4326171875
 41
0.0
 46
27.5355595703125
 71
     1
 72
     1
  1
{小便器 -DURAVIT, D-Code-}
  7
ＭＳ ゴシック
 73
     1
 44
0.7828267384257843
1001
ACAD
1000
ACAD_MTEXT_DEFINED_HEIGHT_BEGIN
1070
    46
1040
27.5355595703125
1000
ACAD_MTEXT_DEFINED_HEIGHT_END
  0
MTEXT
  5
18A
330
A
100
AcDbEntity
  8
template
390
1D
100
AcDbMText
 10
135.0000000004822
 20
234.4414968978188
 30
0.0
 40
24.4326171875
 41
0.0
 46
65.556517578125
 71
     1
 72
     1
  1
{給排水部品、壁取付金具付属/\P陶器/ホワイト}
  7
ＭＳ ゴシック
 73
     1
 44
0.9822934569727008
1001
ACAD
1000
ACAD_MTEXT_DEFINED_HEIGHT_BEGIN
1070
    46
1040
65.556517578125
1000
ACAD_MTEXT_DEFINED_HEIGHT_END
  0
INSERT
  5
3D0
330
A
100
AcDbEntity
  8
template
100
AcDbBlockReference
  2
名称未設定-1
 10
1873.559250554905
 20
30.23897196054438
 30
0.0
 41
0.7619999999999999
 42
0.7619999999999999
 43
0.7619999999999999
  0
MTEXT
  5
BDB
102
{ACAD_XDICTIONARY
360
BDC
102
}
330
A
100
AcDbEntity
  8
template
  6
Continuous
100
AcDbMText
 10
78.95663872901252
 20
86.10730750352229
 30
0.0
 40
23.0
 41
0.0
 46
23.0
 71
     1
 72
     1
  1
{20161027N}
  7
ＭＳ ゴシック
 73
     1
 44
1.0
1001
ACAD
1000
ACAD_MTEXT_DEFINED_HEIGHT_BEGIN
1070
    46
1040
23.0
1000
ACAD_MTEXT_DEFINED_HEIGHT_END
  0
LWPOLYLINE
  5
BEE
330
A
100
AcDbEntity
  8
PRINT BORDER
100
AcDbPolyline
 90
        4
 70
     1
 43
0.0
 10
0.0
 20
0.0
 10
0.0
 20
2970.0
 10
2100.0
 20
2970.0
 10
2100.0
 20
0.0
  0
INSERT
  5
1273
330
A
100
AcDbEntity
  8
0
 62
     7
100
AcDbBlockReference
  2
BLOCK_2
 10
591.2037060744204
 20
943.564364962162
 30
0.0
  0
INSERT
  5
127B
330
A
100
AcDbEntity
  8
0
 62
     7
100
AcDbBlockReference
  2
BLOCK_2
 10
1291.863324028138
 20
1038.76992320659
 30
0.0
  0
INSERT
  5
127C
330
A
100
AcDbEntity
  8
0
 62
     7
100
AcDbBlockReference
  2
BLOCK_2
 10
652.1648429406905
 20
1595.641631888467
 30
0.0
  0
CIRCLE
  5
142C
330
A
100
AcDbEntity
  8
Dim
  6
Continuous
100
AcDbCircle
 10
1366.841726484681
 20
1758.85027442579
 30
0.0
 40
0.0
  0
ARC
  5
1F76
330
A
100
AcDbEntity
  8
MODEL
100
AcDbCircle
 10
815.9727604580646
 20
2240.175917891133
 30
0.0
 40
7.0
100
AcDbArc
 50
357.9904461869791
 51
90.0
  0
LINE
  5
1F77
330
A
100
AcDbEntity
  8
MODEL
100
AcDbLine
 10
576.0673947392124
 20
2217.175917891133
 30
0.0
 11
772.0446362991895
 21
2217.175917891134
 31
0.0
  0
ARC
  5
1F78
330
A
100
AcDbEntity
  8
MODEL
100
AcDbCircle
 10
674.0560155192011
 20
2198.095333754306
 30
0.0
 40
40.49999999999999
100
AcDbArc
 50
151.8926177709442
 51
28.10738222905582
  0
LINE
  5
1F7A
330
A
100
AcDbEntity
  8
MODEL
100
AcDbLine
 10
532.1392705803376
 20
2247.175917891133
 30
0.0
 11
815.9727604580646
 21
2247.175917891133
 31
0.0
  0
ARC
  5
1F7B
330
A
100
AcDbEntity
  8
MODEL
100
AcDbCircle
 10
674.0560155192011
 20
2256.847235707833
 30
0.0
 40
171.8510546736176
100
AcDbArc
 50
237.8162739345148
 51
302.183726065485
  0
ARC
  5
1F7C
330
A
100
AcDbEntity
  8
MODEL
100
AcDbCircle
 10
610.7546308364897
 20
2152.668458404282
 30
0.0
 40
50.0
100
AcDbArc
 50
182.0095538130209
 51
235.6217907988126
  0
ARC
  5
1F7D
330
A
100
AcDbEntity
  8
MODEL
100
AcDbCircle
 10
532.1392705803376
 20
2240.175917891133
 30
0.0
 40
7.0
100
AcDbArc
 50
90.0
 51
182.0095538130209
  0
LINE
  5
1F7E
330
A
100
AcDbEntity
  8
MODEL
100
AcDbLine
 10
559.0778498447526
 20
2199.579793508872
 30
0.0
 11
560.7853811469013
 21
2150.91515139763
 31
0.0
  0
ARC
  5
1F7F
330
A
100
AcDbEntity
  8
MODEL
100
AcDbCircle
 10
576.0673947392124
 20
2200.175917891133
 30
0.0
 40
17.0
100
AcDbArc
 50
90.0
 51
182.0095538130209
  0
ARC
  5
1F80
330
A
100
AcDbEntity
  8
MODEL
100
AcDbCircle
 10
737.3574002019125
 20
2152.668458404282
 30
0.0
 40
50.0
100
AcDbArc
 50
304.3782092011875
 51
357.9904461869791
  0
ARC
  5
1F81
330
A
100
AcDbEntity
  8
MODEL
100
AcDbCircle
 10
674.0560155192011
 20
2198.095333754306
 30
0.0
 40
37.5
100
AcDbArc
 50
149.415031919273
 51
30.58496808072699
  0
ARC
  5
1F82
330
A
100
AcDbEntity
  8
MODEL
100
AcDbCircle
 10
674.0560155192011
 20
2198.095333754306
 30
0.0
 40
27.5
100
AcDbArc
 50
136.0651937639101
 51
43.93480623608993
  0
LINE
  5
1F85
330
A
100
AcDbEntity
  8
MODEL
100
AcDbLine
 10
789.0341811936496
 20
2199.579793508872
 30
0.0
 11
787.3266498915009
 21
2150.91515139763
 31
0.0
  0
ARC
  5
1F86
330
A
100
AcDbEntity
  8
MODEL
100
AcDbCircle
 10
772.0446362991895
 20
2200.175917891133
 30
0.0
 40
17.0
100
AcDbArc
 50
357.9904461869791
 51
90.0
  0
LWPOLYLINE
  5
1F87
102
{ACAD_REACTORS
330
1FED
102
}
330
A
100
AcDbEntity
  8
MODEL
100
AcDbPolyline
 90
       11
 70
     1
 43
0.0
 10
826.5560155192011
 20
2342.175917891137
 10
826.5560155192013
 20
2344.175917891133
 42
0.4142135623731256
 10
823.5560155192013
 20
2347.175917891133
 10
524.5560155192011
 20
2347.175917891133
 42
0.4142135623730951
 10
521.5560155192011
 20
2344.175917891133
 10
521.5560155192011
 20
2342.175917891127
 10
528.4516256398588
 20
2145.651029452382
 42
0.2163791955563541
 10
557.0695921053668
 20
2093.242437522356
 42
0.1563138464669854
 10
674.0560155192
 20
2057.175917891133
 42
0.1563138464669888
 10
791.0424389330356
 20
2093.242437522357
 42
0.2163791955563534
 10
819.6604053985433
 20
2145.651029452382
  0
ARC
  5
1F88
330
A
100
AcDbEntity
  8
MODEL
100
AcDbCircle
 10
723.4342345041296
 20
1326.18892545128
 30
0.0
 40
90.0
100
AcDbArc
 50
276.056926957506
 51
0.0
  0
ARC
  5
1F89
330
A
100
AcDbEntity
  8
MODEL
100
AcDbCircle
 10
671.206254198059
 20
1454.061501612359
 30
0.0
 40
208.8326424790611
100
AcDbArc
 50
247.9416210868789
 51
270.9671476357518
  0
ARC
  5
1F8A
330
A
100
AcDbEntity
  8
MODEL
100
AcDbCircle
 10
623.4342345041296
 20
1326.18892545128
 30
0.0
 40
90.0
100
AcDbArc
 50
180.0
 51
263.943073042494
  0
ARC
  5
1F8B
330
A
100
AcDbEntity
  8
MODEL
100
AcDbCircle
 10
675.6622148102001
 20
1454.061501612359
 30
0.0
 40
208.8326424790611
100
AcDbArc
 50
269.032852364248
 51
292.0583789131209
  0
ARC
  5
1F8C
330
A
100
AcDbEntity
  8
MODEL
100
AcDbCircle
 10
679.82574713693
 20
1737.167608108448
 30
0.0
 40
503.2858305931587
100
AcDbArc
 50
269.2723487914894
 51
276.056926957506
  0
LINE
  5
1F8D
330
A
100
AcDbEntity
  8
MODEL
100
AcDbLine
 10
609.6875327318144
 20
1106.475087420836
 30
0.0
 11
617.2431562288193
 21
936.5988560926485
 31
0.0
  0
LINE
  5
1F8E
330
A
100
AcDbEntity
  8
MODEL
100
AcDbLine
 10
594.0560155192009
 20
1110.814838176962
 30
0.0
 11
594.0560155192009
 21
936.5988560926485
 31
0.0
  0
LINE
  5
1F8F
330
A
100
AcDbEntity
  8
HIDDEN
 48
0.5
100
AcDbLine
 10
674.0560155192009
 20
1042.755259167713
 30
0.0
 11
674.0560155192009
 21
987.7552591677132
 31
0.0
  0
LINE
  5
1F90
330
A
100
AcDbEntity
  8
HIDDEN
 48
0.5
100
AcDbLine
 10
646.5560155192009
 20
1015.255259167713
 30
0.0
 11
701.5560155192009
 21
1015.255259167713
 31
0.0
  0
ARC
  5
1F91
330
A
100
AcDbEntity
  8
MODEL
100
AcDbCircle
 10
640.7686992758818
 20
1186.961746850659
 30
0.0
 40
84.94566972456268
100
AcDbArc
 50
214.9572395611318
 51
233.3220014560862
  0
CIRCLE
  5
1F93
330
A
100
AcDbEntity
  8
MODEL
100
AcDbCircle
 10
569.0560155192009
 20
1110.255259167713
 30
0.0
 40
8.0
  0
ARC
  5
1F95
330
A
100
AcDbEntity
  8
MODEL
100
AcDbCircle
 10
584.0560155192009
 20
1110.814838176962
 30
0.0
 40
10.0
100
AcDbArc
 50
0.0
 51
53.32200145608532
  0
ARC
  5
1F96
330
A
100
AcDbEntity
  8
MODEL
100
AcDbCircle
 10
667.0427218713291
 20
1737.167608108448
 30
0.0
 40
503.2858305931587
100
AcDbArc
 50
263.943073042494
 51
270.7276512085106
  0
LINE
  5
1F97
330
A
100
AcDbEntity
  8
MODEL
100
AcDbLine
 10
737.1809362764448
 20
1106.475087420836
 30
0.0
 11
729.6253127794398
 21
936.5988560926485
 31
0.0
  0
LINE
  5
1F98
330
A
100
AcDbEntity
  8
MODEL
100
AcDbLine
 10
752.8124534890583
 20
1109.904257050302
 30
0.0
 11
752.8124534890583
 21
936.5988560926485
 31
0.0
  0
ARC
  5
1F99
330
A
100
AcDbEntity
  8
MODEL
100
AcDbCircle
 10
707.3433317625204
 20
1186.961746850659
 30
0.0
 40
84.94566972456268
100
AcDbArc
 50
305.7478778443498
 51
325.0427604388683
  0
ARC
  5
1F9A
330
A
100
AcDbEntity
  8
MODEL
100
AcDbCircle
 10
762.8124534890583
 20
1109.904257050302
 30
0.0
 40
10.0
100
AcDbArc
 50
125.7478778443494
 51
180.0
  0
CIRCLE
  5
1F9B
330
A
100
AcDbEntity
  8
MODEL
100
AcDbCircle
 10
779.0560155192009
 20
1110.255259167713
 30
0.0
 40
8.0
  0
ARC
  5
1F9E
330
A
100
AcDbEntity
  8
MODEL
100
AcDbCircle
 10
673.4342345041296
 20
698.8017844682909
 30
0.0
 40
745.84509582755
100
AcDbArc
 50
82.47944192190793
 51
97.52055807809202
  0
ARC
  5
1F9F
330
A
100
AcDbEntity
  8
MODEL
100
AcDbCircle
 10
673.447591678015
 20
33.38587420879037
 30
0.0
 40
1441.870393763156
100
AcDbArc
 50
85.54499308945714
 51
94.41053251427942
  0
LINE
  5
1FA0
330
A
100
AcDbEntity
  8
MODEL
100
AcDbLine
 10
533.4342345041296
 20
1448.25519253737
 30
0.0
 11
533.4342345041296
 21
1334.301195782625
 31
0.0
  0
LINE
  5
1FA1
330
A
100
AcDbEntity
  8
MODEL
100
AcDbLine
 10
558.4342345041296
 20
1418.403134617737
 30
0.0
 11
558.4342345041296
 21
1311.489149339645
 31
0.0
  0
ARC
  5
1FA2
330
A
100
AcDbEntity
  8
MODEL
100
AcDbCircle
 10
613.4342345041296
 20
1311.489149339645
 30
0.0
 40
55.0
100
AcDbArc
 50
180.0
 51
247.9416210868789
  0
ELLIPSE
  5
1FA4
330
A
100
AcDbEntity
  8
MODEL
100
AcDbEllipse
 10
674.0560155192011
 20
1385.255363646124
 30
0.0
 11
-22.5
 21
0.0
 31
0.0
210
0.0
220
0.0
230
1.0
 40
0.9306253259466984
 41
0.0
 42
6.283185307179586
  0
ARC
  5
1FA6
330
A
100
AcDbEntity
  8
MODEL
100
AcDbCircle
 10
553.4342345041296
 20
1448.25519253737
 30
0.0
 40
20.0
100
AcDbArc
 50
105.8854276673968
 51
180.0
  0
ARC
  5
1FA7
330
A
100
AcDbEntity
  8
MODEL
100
AcDbCircle
 10
578.4342345041296
 20
1418.403134617737
 30
0.0
 40
20.0
100
AcDbArc
 50
97.52055807809192
 51
180.0
  0
LINE
  5
1FA8
330
A
100
AcDbEntity
  8
MODEL
100
AcDbLine
 10
813.4342345041296
 20
1448.25519253737
 30
0.0
 11
813.4342345041296
 21
1333.620332243553
 31
0.0
  0
LINE
  5
1FA9
330
A
100
AcDbEntity
  8
MODEL
100
AcDbLine
 10
788.4342345041296
 20
1418.403134617737
 30
0.0
 11
788.4342345041296
 21
1311.489149339645
 31
0.0
  0
ARC
  5
1FAA
330
A
100
AcDbEntity
  8
MODEL
100
AcDbCircle
 10
733.4342345041296
 20
1311.489149339645
 30
0.0
 40
55.0
100
AcDbArc
 50
292.0583789131211
 51
0.0
  0
ARC
  5
1FAB
330
A
100
AcDbEntity
  8
MODEL
100
AcDbCircle
 10
768.4342345041296
 20
1418.403134617737
 30
0.0
 40
20.0
100
AcDbArc
 50
0.0
 51
82.47944192190809
  0
ARC
  5
1FAC
330
A
100
AcDbEntity
  8
MODEL
100
AcDbCircle
 10
793.4342345041296
 20
1448.25519253737
 30
0.0
 40
20.0
100
AcDbArc
 50
0.0
 51
70.95573865512651
  0
ARC
  5
1FAD
330
A
100
AcDbEntity
  8
MODEL
100
AcDbCircle
 10
883.4291815685112
 20
1317.527921453878
 30
0.0
 40
360.0623228563952
100
AcDbArc
 50
185.80434840789
 51
209.8541960596566
  0
LINE
  5
1FAE
330
A
100
AcDbEntity
  8
MODEL
100
AcDbLine
 10
590.7772285425585
 20
927.9202574377132
 30
0.0
 11
756.0912404657008
 21
927.9202574377132
 31
0.0
  0
ARC
  5
1FAF
330
A
100
AcDbEntity
  8
MODEL
100
AcDbCircle
 10
476.1462612434493
 20
1312.461977012055
 30
0.0
 40
347.6008427230636
100
AcDbArc
 50
329.9294191171933
 51
354.825845034815
  0
LWPOLYLINE
  5
1FB0
330
A
100
AcDbEntity
  8
MODEL
100
AcDbPolyline
 90
       10
 70
     1
 43
0.0
 10
823.4342345041293
 20
1295.261267811304
 10
823.4342345041298
 20
1450.228406127888
 42
0.3898022698638627
 10
795.953023250458
 20
1480.122480845988
 42
0.0422188261476345
 10
550.8957785678638
 20
1480.041867521578
 42
0.3896128116304072
 10
523.4342345041296
 20
1450.149456420103
 10
523.4342345041298
 20
1295.261267811318
 42
0.0756193582139653
 10
592.2625146184182
 20
923.6157802217781
 42
0.3194238689092734
 10
596.986084114661
 20
920.2552591677132
 10
749.8823848935983
 20
920.2552591677131
 42
0.3194238689092618
 10
754.6059543898411
 20
923.615780221778
 42
0.0756193582139626
  0
LINE
  5
1FB1
330
A
100
AcDbEntity
  8
HIDDEN
 48
0.5
100
AcDbLine
 10
661.5811033079191
 20
1440.25518878852
 30
0.0
 11
686.5309277304831
 21
1440.25518878852
 31
0.0
  0
LINE
  5
1FB2
330
A
100
AcDbEntity
  8
HIDDEN
 48
0.5
100
AcDbLine
 10
674.0560155192011
 20
1452.730100999802
 30
0.0
 11
674.0560155192011
 21
1427.780276577237
 31
0.0
  0
CIRCLE
  5
1FB3
330
A
100
AcDbEntity
  8
HIDDEN
 48
0.5
100
AcDbCircle
 10
674.0560155192011
 20
1440.25518878852
 30
0.0
 40
8.75
  0
CIRCLE
  5
1FCB
330
A
100
AcDbEntity
  8
HIDDEN
 48
0.5
100
AcDbCircle
 10
674.0560155192009
 20
1015.255259167713
 30
0.0
 40
17.5
  0
DIMENSION
  5
1FEB
102
{ACAD_REACTORS
330
1FED
102
}
102
{ACAD_XDICTIONARY
360
1FEC
102
}
330
A
100
AcDbEntity
  8
Dim
  6
Continuous
100
AcDbDimension
  2
*D33
 10
390.3631383711897
 20
2057.175917891133
 30
0.0
 11
368.1468297774397
 21
2202.175917891133
 31
0.0
 70
    32
 71
     5
 42
290.0
 73
     0
 74
     0
 75
     0
  3
JIS
100
AcDbAlignedDimension
 13
524.5560155192011
 23
2347.175917891133
 33
0.0
 14
674.0560155191998
 24
2057.175917891133
 34
0.0
 50
90.0
100
AcDbRotatedDimension
1001
ACAD
1000
DSTYLE
1002
{
1070
   179
1070
     0
1070
   271
1070
     0
1070
    43
1040
25.0
1070
    44
1040
0.0
1070
    42
1040
25.0
1002
}
  0
DIMENSION
  5
1FFA
330
A
100
AcDbEntity
  8
Dim
  6
Continuous
100
AcDbDimension
  2
*D34
 10
826.5560155192012
 20
2438.713204269817
 30
0.0
 11
674.0560155192012
 21
2460.929512863567
 31
0.0
 70
    32
 71
     5
 42
305.0
 73
     0
 74
     0
 75
     0
  3
JIS
100
AcDbAlignedDimension
 13
521.5560155192012
 23
2344.175917891133
 33
0.0
 14
826.5560155192012
 24
2344.175917891133
 34
0.0
100
AcDbRotatedDimension
1001
ACAD
1000
DSTYLE
1002
{
1070
   179
1070
     0
1070
   271
1070
     0
1070
    43
1040
25.0
1070
    44
1040
0.0
1070
    42
1040
25.0
1002
}
  0
LINE
  5
2014
330
A
100
AcDbEntity
  8
Dim
  6
Continuous
100
AcDbLine
 10
686.7529266302167
 20
1452.298379737723
 30
0.0
 11
823.1861497882824
 21
1585.420726483577
 31
0.0
  0
MTEXT
  5
2015
330
A
100
AcDbEntity
  8
Dim
390
1D
100
AcDbMText
 10
838.1307459201498
 20
1614.707064830702
 30
0.0
 40
24.0
 41
1169.771715461011
 46
27.408
 71
     1
 72
     1
  1
{給水位置G1/2}
  7
ＭＳ ゴシック
 73
     1
 44
1.174240107638677
1001
ACAD
1000
ACAD_MTEXT_DEFINED_HEIGHT_BEGIN
1070
    46
1040
27.408
1000
ACAD_MTEXT_DEFINED_HEIGHT_END
  0
DIMENSION
  5
2055
330
A
100
AcDbEntity
  8
Dim
  6
Continuous
100
AcDbDimension
  2
*D45
 10
421.4849301200315
 20
1485.25518878852
 30
0.0
 11
399.2686215262815
 21
1360.255223978117
 31
0.0
 70
    32
 71
     5
 42
249.9999296208068
 73
     0
 74
     0
 75
     0
  3
JIS
100
AcDbAlignedDimension
 13
596.986084114661
 23
1235.255259167713
 33
0.0
 14
673.4226992091967
 24
1485.25518878852
 34
0.0
 50
90.0
100
AcDbRotatedDimension
1001
ACAD
1000
DSTYLE
1002
{
1070
   179
1070
     0
1070
   271
1070
     0
1070
    43
1040
25.0
1070
    44
1040
0.0
1070
    42
1040
25.0
1002
}
  0
DIMENSION
  5
20BD
330
A
100
AcDbEntity
  8
Dim
  6
Continuous
100
AcDbDimension
  2
*D46
 10
779.0560155192009
 20
783.9094433114401
 30
0.0
 11
674.0560155192009
 21
783.9094433114401
 31
0.0
 70
   160
 71
     5
 42
210.0
 73
     0
 74
     0
 75
     0
  3
JIS
100
AcDbAlignedDimension
 13
569.0560155192009
 23
1102.012303272749
 33
0.0
 14
779.0560155192009
 24
1102.012303272749
 34
0.0
100
AcDbRotatedDimension
1001
ACAD
1000
DSTYLE
1002
{
1070
   179
1070
     0
1070
   271
1070
     0
1070
    43
1040
25.0
1070
    44
1040
0.0
1070
    42
1040
25.0
1002
}
  0
DIMENSION
  5
20FA
330
A
100
AcDbEntity
  8
Dim
  6
Continuous
100
AcDbDimension
  2
*D49
 10
481.9229687573966
 20
1385.255363646124
 30
0.0
 11
459.7066601636466
 21
1435.255276217322
 31
0.0
 70
    32
 71
     5
 42
99.99982514239605
 73
     0
 74
     0
 75
     0
  3
JIS
100
AcDbAlignedDimension
 13
673.4226992091967
 23
1485.25518878852
 33
0.0
 14
649.0560155192011
 24
1385.255363646124
 34
0.0
 50
90.0
100
AcDbRotatedDimension
1001
ACAD
1000
DSTYLE
1002
{
1070
   179
1070
     0
1070
   271
1070
     0
1070
    43
1040
25.0
1070
    44
1040
0.0
1070
    42
1040
25.0
1002
}
  0
DIMENSION
  5
210F
330
A
100
AcDbEntity
  8
Dim
  6
Continuous
100
AcDbDimension
  2
*D50
 10
421.4849301200315
 20
1235.255259167713
 30
0.0
 11
399.2686215262815
 21
1077.755259167713
 31
0.0
 70
    32
 71
     5
 42
314.9999999999999
 73
     0
 74
     0
 75
     0
  3
JIS
100
AcDbAlignedDimension
 13
596.986084114661
 23
920.2552591677132
 33
0.0
 14
596.986084114661
 24
1235.255259167713
 34
0.0
 50
90.0
100
AcDbRotatedDimension
1001
ACAD
1000
DSTYLE
1002
{
1070
   179
1070
     0
1070
   271
1070
     0
1070
    43
1040
25.0
1070
    44
1040
0.0
1070
    42
1040
25.0
1002
}
  0
DIMENSION
  5
214B
330
A
100
AcDbEntity
  8
Dim
  6
Continuous
100
AcDbDimension
  2
*D54
 10
977.8264940707646
 20
1110.255259167713
 30
0.0
 11
955.6101854770146
 21
1062.773866914437
 31
0.0
 70
    32
 71
     5
 42
94.96278450655188
 73
     0
 74
     0
 75
     0
  3
JIS
100
AcDbAlignedDimension
 13
749.8823848935983
 23
1015.292474661161
 33
0.0
 14
779.0560155192009
 24
1110.255259167713
 34
0.0
 50
90.0
100
AcDbRotatedDimension
1001
ACAD
1000
DSTYLE
1002
{
1070
   179
1070
     0
1070
   271
1070
     0
1070
    43
1040
25.0
1070
    44
1040
0.0
1070
    42
1040
25.0
1002
}
  0
DIMENSION
  5
215A
330
A
100
AcDbEntity
  8
Dim
  6
Continuous
100
AcDbDimension
  2
*D55
 10
977.8264940707646
 20
1440.255259167713
 30
0.0
 11
955.6101854770146
 21
1275.255259167713
 31
0.0
 70
    32
 71
     5
 42
330.0
 73
     0
 74
     0
 75
     0
  3
JIS
100
AcDbAlignedDimension
 13
777.5412490800692
 23
1110.255259167713
 33
0.0
 14
777.5412490800692
 24
1440.255259167713
 34
0.0
 50
90.0
100
AcDbRotatedDimension
1001
ACAD
1000
DSTYLE
1002
{
1070
   179
1070
     0
1070
   271
1070
     0
1070
    43
1040
25.0
1070
    44
1040
0.0
1070
    42
1040
25.0
1002
}
  0
DIMENSION
  5
219B
330
A
100
AcDbEntity
  8
Dim
  6
Continuous
100
AcDbDimension
  2
*D57
 10
816.5560155192011
 20
1927.855544043504
 30
0.0
 11
674.0560155192011
 21
1950.071852637254
 31
0.0
 70
    32
 71
     5
 42
285.0
 73
     0
 74
     0
 75
     0
  3
JIS
100
AcDbAlignedDimension
 13
531.5560155192011
 23
2130.701342911619
 33
0.0
 14
816.5560155192011
 24
2130.701342911619
 34
0.0
100
AcDbRotatedDimension
1001
ACAD
1000
DSTYLE
1002
{
1070
   179
1070
     0
1070
   271
1070
     0
1070
    43
1040
25.0
1070
    44
1040
0.0
1070
    42
1040
25.0
1002
}
  0
MTEXT
  5
2306
330
A
100
AcDbEntity
  8
Dim
390
1D
100
AcDbMText
 10
1029.908747285518
 20
1175.484067509983
 30
0.0
 40
24.0
 41
1169.771715461011
 46
26.688
 71
     1
 72
     1
  1
{壁取付位置}
  7
ＭＳ ゴシック
 73
     1
 44
1.174240107638677
1001
ACAD
1000
ACAD_MTEXT_DEFINED_HEIGHT_BEGIN
1070
    46
1040
26.688
1000
ACAD_MTEXT_DEFINED_HEIGHT_END
  0
MTEXT
  5
2338
330
A
100
AcDbEntity
  8
Dim
390
1D
100
AcDbMText
 10
870.025469173965
 20
828.8147837787083
 30
0.0
 40
24.0
 41
1169.771715461011
 46
26.688
 71
     1
 72
     1
  1
{排水位置}
  7
ＭＳ ゴシック
 73
     1
 44
1.174240107638677
1001
ACAD
1000
ACAD_MTEXT_DEFINED_HEIGHT_BEGIN
1070
    46
1040
26.688
1000
ACAD_MTEXT_DEFINED_HEIGHT_END
  0
LINE
  5
2339
330
A
100
AcDbEntity
  8
Dim
  6
Continuous
100
AcDbLine
 10
860.2078162860529
 20
831.3374430842027
 30
0.0
 11
686.5048572302954
 21
1002.955814462682
 31
0.0
  0
LINE
  5
233A
330
A
100
AcDbEntity
  8
Dim
  6
Continuous
100
AcDbLine
 10
1011.95300929844
 20
1156.179962834369
 30
0.0
 11
786.2612975979573
 21
1113.731451073455
 31
0.0
  0
MTEXT
  5
2446
330
A
100
AcDbEntity
  8
Dim
390
1D
100
AcDbMText
 10
1681.068647418593
 20
842.3511585789931
 30
0.0
 40
24.0
 41
1169.771715461011
 46
24.72
 71
     1
 72
     1
  1
{%%c32}
  7
ＭＳ ゴシック
 73
     1
 44
1.174240107638677
1001
ACAD
1000
ACAD_MTEXT_DEFINED_HEIGHT_BEGIN
1070
    46
1040
24.72
1000
ACAD_MTEXT_DEFINED_HEIGHT_END
  0
LINE
  5
2447
330
A
100
AcDbEntity
  8
Dim
  6
Continuous
100
AcDbLine
 10
1697.081190275737
 20
852.9064237483515
 30
0.0
 11
1543.901377778944
 21
997.7552591677131
 31
0.0
  0
ARC
  5
2448
330
A
100
AcDbEntity
  8
HIDDEN
100
AcDbCircle
 10
1118.931611672654
 20
1244.880132879012
 30
0.0
 40
381.2254311252907
100
AcDbArc
 50
341.8262940921778
 51
30.67130502880288
  0
ARC
  5
2449
330
A
100
AcDbEntity
  8
HIDDEN
100
AcDbCircle
 10
1293.090337448432
 20
1234.151143313381
 30
0.0
 40
10.0
100
AcDbArc
 50
34.25506351584066
 51
142.3564890530829
  0
ARC
  5
244A
330
A
100
AcDbEntity
  8
HIDDEN
100
AcDbCircle
 10
1465.670235824886
 20
1121.738567992691
 30
0.0
 40
15.0
100
AcDbArc
 50
270.0
 51
354.1713518942903
  0
LINE
  5
244B
330
A
100
AcDbEntity
  8
HIDDEN
100
AcDbLine
 10
1467.536805692606
 20
1116.313863659745
 30
0.0
 11
1469.853505875394
 21
1116.313863659745
 31
0.0
  0
ARC
  5
244C
330
A
100
AcDbEntity
  8
HIDDEN
100
AcDbCircle
 10
1571.376238886613
 20
1350.932149543924
 30
0.0
 40
292.0032338938114
100
AcDbArc
 50
202.3742046341659
 51
233.4635590322341
  0
LINE
  5
244D
330
A
100
AcDbEntity
  8
HIDDEN
  6
CENTER
 48
0.25
100
AcDbLine
 10
1437.536805692606
 20
947.946918382285
 30
0.0
 11
1437.536805692606
 21
1148.741499243692
 31
0.0
  0
LINE
  5
244E
330
A
100
AcDbEntity
  8
HIDDEN
100
AcDbLine
 10
1400.262283899016
 20
1106.738567992691
 30
0.0
 11
1417.536805692606
 21
1106.738567992691
 31
0.0
  0
LINE
  5
244F
330
A
100
AcDbEntity
  8
HIDDEN
100
AcDbLine
 10
1397.536805692606
 20
1116.313863659745
 30
0.0
 11
1407.536805692606
 21
1116.313863659745
 31
0.0
  0
LINE
  5
2450
330
A
100
AcDbEntity
  8
HIDDEN
100
AcDbLine
 10
1417.536805692606
 20
1113.137308728513
 30
0.0
 11
1417.536805692606
 21
1106.738567992691
 31
0.0
  0
LINE
  5
2451
330
A
100
AcDbEntity
  8
HIDDEN
100
AcDbLine
 10
1457.536805692606
 20
1113.137308728513
 30
0.0
 11
1457.536805692606
 21
1106.738567992691
 31
0.0
  0
LINE
  5
2452
330
A
100
AcDbEntity
  8
HIDDEN
100
AcDbLine
 10
1457.536805692606
 20
1106.738567992691
 30
0.0
 11
1465.670235824886
 21
1106.738567992691
 31
0.0
  0
LINE
  5
2453
330
A
100
AcDbEntity
  8
HIDDEN
  6
CENTER
 48
0.25
100
AcDbLine
 10
1440.481800113178
 20
1015.255259167713
 30
0.0
 11
1572.536805692605
 21
1015.255259167713
 31
0.0
  0
ARC
  5
2454
330
A
100
AcDbEntity
  8
HIDDEN
100
AcDbCircle
 10
1455.322367461603
 20
1444.622533625145
 30
0.0
 40
10.0
100
AcDbArc
 50
142.3564890530793
 51
211.8343298108396
  0
LINE
  5
2455
330
A
100
AcDbEntity
  8
HIDDEN
100
AcDbLine
 10
1474.418266948257
 20
1386.996151137863
 30
0.0
 11
1488.62950845508
 21
1392.584797510476
 31
0.0
  0
LINE
  5
2456
330
A
100
AcDbEntity
  8
HIDDEN
100
AcDbLine
 10
1474.418266948257
 20
1386.996151137863
 30
0.0
 11
1458.351945490354
 21
1380.641935131724
 31
0.0
  0
LINE
  5
2457
330
A
100
AcDbEntity
  8
HIDDEN
100
AcDbLine
 10
1466.471455809768
 20
1394.616488347422
 30
0.0
 11
1478.377166927963
 21
1399.298472621782
 31
0.0
  0
LINE
  5
2458
330
A
100
AcDbEntity
  8
HIDDEN
100
AcDbLine
 10
1473.402865319556
 20
1375.851376049466
 30
0.0
 11
1485.832440125422
 21
1380.739372507664
 31
0.0
  0
ARC
  5
2459
330
A
100
AcDbEntity
  8
HIDDEN
100
AcDbCircle
 10
1466.206126959763
 20
1131.430399290788
 30
0.0
 40
15.8984000586734
100
AcDbArc
 50
294.1980217817733
 51
339.9367230937396
  0
ARC
  5
245A
330
A
100
AcDbEntity
  8
HIDDEN
100
AcDbCircle
 10
1469.853505875394
 20
1123.313863659745
 30
0.0
 40
7.0
100
AcDbArc
 50
270.0
 51
294.1980217817777
  0
LINE
  5
245B
330
A
100
AcDbEntity
  8
HIDDEN
100
AcDbLine
 10
1464.075249411877
 20
1032.755259167713
 30
0.0
 11
1572.536805692605
 21
1032.755259167713
 31
0.0
  0
LINE
  5
245C
330
A
100
AcDbEntity
  8
HIDDEN
100
AcDbLine
 10
1464.075249411877
 20
997.7552591677131
 30
0.0
 11
1572.536805692605
 21
997.7552591677131
 31
0.0
  0
LINE
  5
245D
330
A
100
AcDbEntity
  8
HIDDEN
100
AcDbLine
 10
1471.046578631294
 20
1037.755259167713
 30
0.0
 11
1471.046578631294
 21
992.7552591677131
 31
0.0
  0
LINE
  5
245E
330
A
100
AcDbEntity
  8
HIDDEN
100
AcDbLine
 10
1464.046578631294
 20
1037.755259167713
 30
0.0
 11
1471.046578631294
 21
1037.755259167713
 31
0.0
  0
LINE
  5
245F
330
A
100
AcDbEntity
  8
HIDDEN
100
AcDbLine
 10
1464.046578631294
 20
992.7552591677132
 30
0.0
 11
1471.046578631294
 21
992.7552591677132
 31
0.0
  0
LINE
  5
2460
330
A
100
AcDbEntity
  8
HIDDEN
100
AcDbLine
 10
1464.046578631294
 20
1037.755259167713
 30
0.0
 11
1464.046578631294
 21
992.7552591677131
 31
0.0
  0
LINE
  5
2461
330
A
100
AcDbEntity
  8
HIDDEN
100
AcDbLine
 10
1420.036805692606
 20
1098.410928830959
 30
0.0
 11
1420.036805692606
 21
1084.252438066817
 31
0.0
  0
LINE
  5
2462
330
A
100
AcDbEntity
  8
HIDDEN
100
AcDbLine
 10
1455.036805692606
 20
1098.410928830959
 30
0.0
 11
1455.036805692606
 21
1084.252438066817
 31
0.0
  0
LINE
  5
2463
330
A
100
AcDbEntity
  8
HIDDEN
100
AcDbLine
 10
1408.899544795811
 20
1106.738567992691
 30
0.0
 11
1408.899544795811
 21
1100.949628857877
 31
0.0
  0
LINE
  5
2464
330
A
100
AcDbEntity
  8
HIDDEN
100
AcDbLine
 10
1408.899544795811
 20
1100.949628857877
 30
0.0
 11
1466.174066589402
 21
1100.949628857877
 31
0.0
  0
LINE
  5
2465
330
A
100
AcDbEntity
  8
HIDDEN
100
AcDbLine
 10
1466.174066589402
 20
1106.738567992691
 30
0.0
 11
1466.174066589402
 21
1100.949628857877
 31
0.0
  0
LINE
  5
2466
330
A
100
AcDbEntity
  8
HIDDEN
100
AcDbLine
 10
1417.536805692606
 20
1106.738567992691
 30
0.0
 11
1457.536805692606
 21
1106.738567992691
 31
0.0
  0
LINE
  5
2467
330
A
100
AcDbEntity
  8
HIDDEN
100
AcDbLine
 10
1417.536805692606
 20
1113.137308728513
 30
0.0
 11
1457.536805692606
 21
1113.137308728513
 31
0.0
  0
LINE
  5
2468
330
A
100
AcDbEntity
  8
HIDDEN
100
AcDbLine
 10
1407.536805692606
 20
1116.313863659745
 30
0.0
 11
1417.536805692606
 21
1113.137308728513
 31
0.0
  0
LINE
  5
2469
330
A
100
AcDbEntity
  8
HIDDEN
100
AcDbLine
 10
1457.536805692606
 20
1113.137308728513
 30
0.0
 11
1467.536805692606
 21
1116.313863659745
 31
0.0
  0
LINE
  5
246A
330
A
100
AcDbEntity
  8
HIDDEN
100
AcDbLine
 10
1420.12338577497
 20
1119.989879059755
 30
0.0
 11
1420.102234396424
 21
1113.137308728513
 31
0.0
  0
LINE
  5
246B
330
A
100
AcDbEntity
  8
HIDDEN
100
AcDbLine
 10
1454.950225610243
 20
1119.989879059755
 30
0.0
 11
1454.971376988789
 21
1113.137308728513
 31
0.0
  0
LINE
  5
246C
330
A
100
AcDbEntity
  8
HIDDEN
100
AcDbLine
 10
1407.832200251151
 20
1119.989879059755
 30
0.0
 11
1467.323932527482
 21
1119.989879059755
 31
0.0
  0
LINE
  5
246D
330
A
100
AcDbEntity
  8
HIDDEN
100
AcDbLine
 10
1433.026207606767
 20
1119.989879059755
 30
0.0
 11
1433.026207606767
 21
1113.137308728513
 31
0.0
  0
LINE
  5
246E
330
A
100
AcDbEntity
  8
HIDDEN
100
AcDbLine
 10
1441.494780748236
 20
1119.989879059755
 30
0.0
 11
1441.494780748236
 21
1113.137308728513
 31
0.0
  0
ARC
  5
246F
330
A
100
AcDbEntity
  8
HIDDEN
100
AcDbCircle
 10
1437.578066389317
 20
1005.717010330768
 30
0.0
 40
118.0809259781695
100
AcDbArc
 50
75.40938484668277
 51
104.5906151533172
  0
LINE
  5
2470
330
A
100
AcDbEntity
  8
HIDDEN
100
AcDbLine
 10
1412.701629875973
 20
1098.410928830959
 30
0.0
 11
1412.701629875973
 21
1100.949628857877
 31
0.0
  0
LINE
  5
2471
330
A
100
AcDbEntity
  8
HIDDEN
100
AcDbLine
 10
1462.371981509239
 20
1098.410928830959
 30
0.0
 11
1462.371981509239
 21
1100.949628857877
 31
0.0
  0
LINE
  5
2472
330
A
100
AcDbEntity
  8
HIDDEN
100
AcDbLine
 10
1412.701629875973
 20
1098.410928830959
 30
0.0
 11
1462.371981509239
 21
1098.410928830959
 31
0.0
  0
LINE
  5
2473
330
A
100
AcDbEntity
  8
HIDDEN
100
AcDbLine
 10
1420.036805692606
 20
1032.530203153692
 30
0.0
 11
1464.046578631294
 21
1032.530203153692
 31
0.0
  0
LINE
  5
2474
330
A
100
AcDbEntity
  8
HIDDEN
100
AcDbLine
 10
1455.036805692606
 20
1032.530203153692
 30
0.0
 11
1461.68068684115
 21
990.3264268096841
 31
0.0
  0
LINE
  5
2475
330
A
100
AcDbEntity
  8
HIDDEN
100
AcDbLine
 10
1461.68068684115
 20
990.3264268096841
 30
0.0
 11
1413.392924544063
 21
990.3264268096841
 31
0.0
  0
LINE
  5
2476
330
A
100
AcDbEntity
  8
HIDDEN
100
AcDbLine
 10
1420.036805692606
 20
1032.530203153692
 30
0.0
 11
1413.392924544063
 21
990.3264268096841
 31
0.0
  0
LINE
  5
2477
330
A
100
AcDbEntity
  8
HIDDEN
100
AcDbLine
 10
1417.159903723297
 20
990.3264268096841
 30
0.0
 11
1417.159903723297
 21
934.6752236050183
 31
0.0
  0
LINE
  5
2478
330
A
100
AcDbEntity
  8
HIDDEN
100
AcDbLine
 10
1457.913707661915
 20
990.3264268096841
 30
0.0
 11
1457.913707661915
 21
934.6752236050183
 31
0.0
  0
LINE
  5
2479
330
A
100
AcDbEntity
  8
HIDDEN
100
AcDbLine
 10
1420.036805692606
 20
1035.530203153692
 30
0.0
 11
1455.036805692606
 21
1035.530203153692
 31
0.0
  0
LINE
  5
247A
330
A
100
AcDbEntity
  8
HIDDEN
100
AcDbLine
 10
1420.036805692606
 20
1049.252438066817
 30
0.0
 11
1455.036805692606
 21
1049.252438066817
 31
0.0
  0
LINE
  5
247B
330
A
100
AcDbEntity
  8
HIDDEN
100
AcDbLine
 10
1415.036805692606
 20
1074.252438066817
 30
0.0
 11
1460.036805692606
 21
1074.252438066817
 31
0.0
  0
LINE
  5
247C
330
A
100
AcDbEntity
  8
HIDDEN
100
AcDbLine
 10
1415.036805692606
 20
1084.252438066817
 30
0.0
 11
1460.036805692606
 21
1084.252438066817
 31
0.0
  0
LINE
  5
247D
330
A
100
AcDbEntity
  8
HIDDEN
100
AcDbLine
 10
1460.036805692606
 20
1084.252438066817
 30
0.0
 11
1460.036805692606
 21
1074.252438066817
 31
0.0
  0
LINE
  5
247E
330
A
100
AcDbEntity
  8
HIDDEN
100
AcDbLine
 10
1415.036805692606
 20
1084.252438066817
 30
0.0
 11
1415.036805692606
 21
1074.252438066817
 31
0.0
  0
LINE
  5
247F
330
A
100
AcDbEntity
  8
HIDDEN
100
AcDbLine
 10
1420.036805692606
 20
1049.252438066817
 30
0.0
 11
1420.036805692606
 21
1032.530203153692
 31
0.0
  0
LINE
  5
2480
330
A
100
AcDbEntity
  8
HIDDEN
100
AcDbLine
 10
1455.036805692606
 20
1049.252438066817
 30
0.0
 11
1455.036805692606
 21
1032.530203153692
 31
0.0
  0
LINE
  5
2481
330
A
100
AcDbEntity
  8
HIDDEN
100
AcDbLine
 10
1452.036805692606
 20
1074.252438066817
 30
0.0
 11
1452.036805692606
 21
1049.252438066817
 31
0.0
  0
LINE
  5
2482
330
A
100
AcDbEntity
  8
HIDDEN
100
AcDbLine
 10
1423.036805692606
 20
1074.252438066817
 30
0.0
 11
1423.036805692606
 21
1049.252438066817
 31
0.0
  0
ARC
  5
2483
330
A
100
AcDbEntity
  8
HIDDEN
100
AcDbCircle
 10
2482.659123678849
 20
-1784.14015856222
 30
0.0
 40
3086.869406115703
100
AcDbArc
 50
110.5268013272859
 51
111.4204221504984
  0
ARC
  5
2484
330
A
100
AcDbEntity
  8
HIDDEN
100
AcDbCircle
 10
1361.298429299145
 20
1075.754096101879
 30
0.0
 40
15.0
100
AcDbArc
 50
113.5391095117387
 51
201.8977655580782
  0
LWPOLYLINE
  5
2485
330
A
100
AcDbEntity
  8
MODEL
100
AcDbPolyline
 90
       10
 70
     1
 43
0.0
 10
1572.536805692605
 20
1480.261497639278
 42
0.4384296712441851
 10
1567.127436280975
 20
1485.244711129068
 10
1473.643703381126
 20
1479.069345838416
 42
0.2151899320827541
 10
1466.384587949583
 20
1475.198559706761
 10
1284.549877346616
 20
1239.451935435359
 42
0.3022142584828944
 10
1283.774805692604
 20
1228.402204835233
 10
1404.554162263151
 20
927.9202574377132
 42
0.3090856075086429
 10
1411.122453445984
 20
923.5313027862151
 10
1567.536805692605
 20
920.2552591677131
 42
0.4142135623730918
 10
1572.536805692605
 20
925.2552591677131
  0
DIMENSION
  5
2487
330
A
100
AcDbEntity
  8
Dim
  6
Continuous
100
AcDbDimension
  2
*D67
 10
1674.554898439239
 20
1440.255259167713
 30
0.0
 11
1652.338589845489
 21
1462.758378403495
 31
0.0
 70
    32
 71
     5
 42
45.00623847156521
 73
     0
 74
     1
 75
     1
  3
JIS
100
AcDbAlignedDimension
 13
1592.536805692605
 23
1485.261497639278
 33
0.0
 14
1583.716331738187
 24
1440.255259167713
 34
0.0
 50
90.0
100
AcDbRotatedDimension
1001
ACAD
1000
DSTYLE
1002
{
1070
   172
1070
     1
1070
   290
1070
     0
1070
   179
1070
     0
1070
   271
1070
     0
1070
    43
1040
25.0
1070
    44
1040
0.0
1070
    42
1040
25.0
1002
}
  0
DIMENSION
  5
2488
330
A
100
AcDbEntity
  8
Dim
  6
Continuous
100
AcDbDimension
  2
*D68
 10
1857.045430319749
 20
920.2552591677131
 30
0.0
 11
1834.829121725999
 21
1202.758378403495
 31
0.0
 70
    32
 71
     5
 42
565.006238471565
 73
     0
 74
     0
 75
     0
  3
JIS
100
AcDbAlignedDimension
 13
1567.536805692605
 23
1485.261497639278
 33
0.0
 14
1567.536805692605
 24
920.2552591677131
 34
0.0
 50
90.0
100
AcDbRotatedDimension
1001
ACAD
1000
DSTYLE
1002
{
1070
   179
1070
     0
1070
   271
1070
     0
1070
    43
1040
25.0
1070
    44
1040
0.0
1070
    42
1040
25.0
1002
}
  0
DIMENSION
  5
2489
330
A
100
AcDbEntity
  8
Dim
  6
Continuous
100
AcDbDimension
  2
*D69
 10
1674.554898439239
 20
1015.255259167713
 30
0.0
 11
1652.338589845489
 21
1200.255259167713
 31
0.0
 70
    32
 71
     5
 42
369.9999999999999
 73
     0
 74
     0
 75
     0
  3
JIS
100
AcDbAlignedDimension
 13
1470.016507551207
 23
1385.255259167713
 33
0.0
 14
1583.716331738187
 24
1015.255259167713
 34
0.0
 50
90.0
100
AcDbRotatedDimension
1001
ACAD
1000
DSTYLE
1002
{
1070
   179
1070
     0
1070
   271
1070
     0
1070
    43
1040
25.0
1070
    44
1040
0.0
1070
    42
1040
25.0
1002
}
  0
DIMENSION
  5
248A
330
A
100
AcDbEntity
  8
Dim
  6
Continuous
100
AcDbDimension
  2
*D70
 10
1769.218889285129
 20
1015.255259167713
 30
0.0
 11
1747.002580691379
 21
1250.258378403495
 31
0.0
 70
    32
 71
     5
 42
470.0062384715651
 73
     0
 74
     0
 75
     0
  3
JIS
100
AcDbAlignedDimension
 13
1592.536805692605
 23
1485.261497639278
 33
0.0
 14
1583.716331738187
 24
1015.255259167713
 34
0.0
 50
90.0
100
AcDbRotatedDimension
1001
ACAD
1000
DSTYLE
1002
{
1070
   179
1070
     0
1070
   271
1070
     0
1070
    43
1040
25.0
1070
    44
1040
0.0
1070
    42
1040
25.0
1002
}
  0
DIMENSION
  5
248B
330
A
100
AcDbEntity
  8
Dim
  6
Continuous
100
AcDbDimension
  2
*D71
 10
1572.536805692605
 20
807.6189693362646
 30
0.0
 11
1505.036805692605
 21
829.8352779300146
 31
0.0
 70
    32
 71
     5
 42
135.0
 73
     0
 74
     0
 75
     0
  3
JIS
100
AcDbAlignedDimension
 13
1437.536805692605
 23
935.2484568791218
 33
0.0
 14
1572.536805692605
 24
935.2484568791218
 34
0.0
100
AcDbRotatedDimension
1001
ACAD
1000
DSTYLE
1002
{
1070
   179
1070
     0
1070
   271
1070
     0
1070
    43
1040
25.0
1070
    44
1040
0.0
1070
    42
1040
25.0
1002
}
  0
ARC
  5
248C
330
A
100
AcDbEntity
  8
HIDDEN
100
AcDbCircle
 10
1437.536805692606
 20
960.8336617383635
 30
0.0
 40
33.15843813334515
100
AcDbArc
 50
232.0821199037975
 51
307.9178800962025
  0
MTEXT
  5
248D
330
A
100
AcDbEntity
  8
Dim
390
1D
100
AcDbMText
 10
1616.299409616395
 20
808.2620860515206
 30
0.0
 40
24.0
 41
1169.771715461011
 46
24.72
 71
     1
 72
     1
  1
{排水トラップ}
  7
ＭＳ ゴシック
 73
     1
 44
1.174240107638677
1001
ACAD
1000
ACAD_MTEXT_DEFINED_HEIGHT_BEGIN
1070
    46
1040
24.72
1000
ACAD_MTEXT_DEFINED_HEIGHT_END
  0
DIMENSION
  5
248E
330
A
100
AcDbEntity
  8
Dim
  6
Continuous
100
AcDbDimension
  2
*D72
 10
1674.554898439239
 20
920.2552591677131
 30
0.0
 11
1652.338589845489
 21
967.7552591677131
 31
0.0
 70
    32
 71
     5
 42
94.99999999999989
 73
     0
 74
     0
 75
     0
  3
JIS
100
AcDbAlignedDimension
 13
1583.716331738187
 23
1015.255259167713
 33
0.0
 14
1592.536805692605
 24
920.2552591677131
 34
0.0
 50
90.0
100
AcDbRotatedDimension
1001
ACAD
1000
DSTYLE
1002
{
1070
   179
1070
     0
1070
   271
1070
     0
1070
    43
1040
25.0
1070
    44
1040
0.0
1070
    42
1040
25.0
1002
}
  0
LINE
  5
24D7
330
A
100
AcDbEntity
  8
HIDDEN
100
AcDbLine
 10
1474.418266948257
 20
1386.996151137863
 30
0.0
 11
1488.62950845508
 21
1392.584797510476
 31
0.0
  0
LINE
  5
24D8
330
A
100
AcDbEntity
  8
HIDDEN
100
AcDbLine
 10
1474.418266948257
 20
1386.996151137863
 30
0.0
 11
1458.351945490354
 21
1380.641935131724
 31
0.0
  0
LINE
  5
24D9
330
A
100
AcDbEntity
  8
HIDDEN
  6
CENTER
 48
0.25
100
AcDbLine
 10
1526.843798164798
 20
1440.255259167713
 30
0.0
 11
1593.036625666111
 21
1440.255259167713
 31
0.0
  0
LINE
  5
24DB
102
{ACAD_REACTORS
330
24F2
102
}
330
A
100
AcDbEntity
  8
MODEL
  6
Continuous
100
AcDbLine
 10
1580.921450226792
 20
1440.255259167713
 30
0.0
 11
1580.921450226792
 21
1451.891564240723
 31
0.0
  0
LINE
  5
24DC
102
{ACAD_REACTORS
330
24F2
102
}
330
A
100
AcDbEntity
  8
MODEL
  6
Continuous
100
AcDbLine
 10
1580.921450226792
 20
1451.891564240723
 30
0.0
 11
1555.129946474945
 21
1451.891564240723
 31
0.0
  0
CIRCLE
  5
24DD
102
{ACAD_REACTORS
330
24F2
102
}
330
A
100
AcDbEntity
  8
MODEL
  6
Continuous
100
AcDbCircle
 10
1555.129946474945
 20
1440.255259167713
 30
0.0
 40
11.63630507301025
  0
LINE
  5
24DE
102
{ACAD_REACTORS
330
24F2
102
}
330
A
100
AcDbEntity
  8
MODEL
  6
Continuous
100
AcDbLine
 10
1580.921450226792
 20
1428.618954094702
 30
0.0
 11
1555.129946474945
 21
1428.618954094702
 31
0.0
  0
LINE
  5
24DF
102
{ACAD_REACTORS
330
24F2
102
}
330
A
100
AcDbEntity
  8
MODEL
  6
Continuous
100
AcDbLine
 10
1580.921450226792
 20
1440.255259167713
 30
0.0
 11
1580.921450226792
 21
1428.618954094702
 31
0.0
  0
LINE
  5
24E0
102
{ACAD_REACTORS
330
24F1
102
}
330
A
100
AcDbEntity
  8
MODEL
  6
Continuous
100
AcDbLine
 10
1457.739075802302
 20
1403.353395896091
 30
0.0
 11
1472.812743016249
 21
1364.282138701802
 31
0.0
  0
LINE
  5
24E1
102
{ACAD_REACTORS
330
24F1
102
}
330
A
100
AcDbEntity
  8
MODEL
  6
Continuous
100
AcDbLine
 10
1457.739075802302
 20
1403.353395896091
 30
0.0
 11
1464.392718348182
 21
1405.920367135292
 31
0.0
  0
LINE
  5
24E2
102
{ACAD_REACTORS
330
24F1
102
}
330
A
100
AcDbEntity
  8
MODEL
  6
Continuous
100
AcDbLine
 10
1472.812743016249
 20
1364.282138701802
 30
0.0
 11
1479.46638556213
 21
1366.849109941003
 31
0.0
  0
LINE
  5
24E3
102
{ACAD_REACTORS
330
24F1
102
}
330
A
100
AcDbEntity
  8
MODEL
  6
Continuous
100
AcDbLine
 10
1464.392718348182
 20
1405.920367135292
 30
0.0
 11
1479.46638556213
 21
1366.849109941003
 31
0.0
  0
LINE
  5
24E4
102
{ACAD_REACTORS
330
24F1
102
}
330
A
100
AcDbEntity
  8
MODEL
  6
Continuous
100
AcDbLine
 10
1466.894781400514
 20
1399.434967952302
 30
0.0
 11
1471.590345334788
 21
1401.246513656479
 31
0.0
  0
LINE
  5
24E5
102
{ACAD_REACTORS
330
24F1
102
}
330
A
100
AcDbEntity
  8
MODEL
  6
Continuous
100
AcDbLine
 10
1471.590345334788
 20
1401.246513656479
 30
0.0
 11
1476.62511588943
 21
1388.196284242323
 31
0.0
  0
LINE
  5
24E6
102
{ACAD_REACTORS
330
24F1
102
}
330
A
100
AcDbEntity
  8
MODEL
  6
Continuous
100
AcDbLine
 10
1476.964322509798
 20
1373.334509123992
 30
0.0
 11
1481.659886444072
 21
1375.146054828169
 31
0.0
  0
LINE
  5
24E7
102
{ACAD_REACTORS
330
24F1
102
}
330
A
100
AcDbEntity
  8
MODEL
  6
Continuous
100
AcDbLine
 10
1481.659886444072
 20
1375.146054828169
 30
0.0
 11
1476.62511588943
 21
1388.196284242323
 31
0.0
  0
LINE
  5
24E8
102
{ACAD_REACTORS
330
24F1
102
}
330
A
100
AcDbEntity
  8
MODEL
  6
Continuous
100
AcDbLine
 10
1481.067619681691
 20
1400.260364996736
 30
0.0
 11
1488.019124635983
 21
1382.241920373972
 31
0.0
  0
LINE
  5
24E9
102
{ACAD_REACTORS
330
24F1
102
}
330
A
100
AcDbEntity
  8
MODEL
  6
Continuous
100
AcDbLine
 10
1473.149363412284
 20
1397.205506553705
 30
0.0
 11
1481.067619681691
 21
1400.260364996736
 31
0.0
  0
LINE
  5
24EA
102
{ACAD_REACTORS
330
24F1
102
}
330
A
100
AcDbEntity
  8
MODEL
  6
Continuous
100
AcDbLine
 10
1480.100868366576
 20
1379.187061930941
 30
0.0
 11
1488.019124635983
 21
1382.241920373972
 31
0.0
  0
LINE
  5
24EB
102
{ACAD_REACTORS
330
24F1
102
}
330
A
100
AcDbEntity
  8
MODEL
  6
Continuous
100
AcDbLine
 10
1487.091613235445
 20
1384.646049108321
 30
0.0
 11
1479.173356966038
 21
1381.591190665288
 31
0.0
  0
LINE
  5
24EC
102
{ACAD_REACTORS
330
24F1
102
}
330
A
100
AcDbEntity
  8
MODEL
  6
Continuous
100
AcDbLine
 10
1481.995131082229
 20
1397.856236262388
 30
0.0
 11
1474.076874812822
 21
1394.801377819358
 31
0.0
  0
LINE
  5
24ED
102
{ACAD_REACTORS
330
24F1
102
}
330
A
100
AcDbEntity
  8
MODEL
  6
Continuous
100
AcDbLine
 10
1482.175439055893
 20
1397.388874265256
 30
0.0
 11
1488.723326435607
 21
1399.850428487373
 31
0.0
  0
LINE
  5
24EE
102
{ACAD_REACTORS
330
24F1
102
}
330
A
100
AcDbEntity
  8
MODEL
  6
Continuous
100
AcDbLine
 10
1486.891059439333
 20
1385.165888695989
 30
0.0
 11
1493.466252849332
 21
1387.637708102927
 31
0.0
  0
SPLINE
  5
24EF
102
{ACAD_REACTORS
330
24F1
102
}
330
A
100
AcDbEntity
  8
MODEL
  6
Continuous
100
AcDbSpline
210
0.0
220
0.0
230
1.0
 70
  1064
 71
     3
 72
    11
 73
     7
 74
     5
 42
0.000000001
 43
0.0000000001
 44
0.0
 40
0.0
 40
0.0
 40
0.0
 40
0.0
 40
4.986599791516473
 40
9.338309911666922
 40
12.64007273016627
 40
14.32376846909118
 40
14.32376846909118
 40
14.32376846909118
 40
14.32376846909118
 10
1488.723326435607
 20
1399.850428487373
 30
0.0
 10
1488.424516011652
 20
1398.034773021792
 30
0.0
 10
1487.8649394544
 20
1394.634629810128
 30
0.0
 10
1491.570545816647
 20
1392.218511761333
 30
0.0
 10
1494.43440618988
 20
1389.823422263995
 30
0.0
 10
1493.710672993427
 20
1388.189513842601
 30
0.0
 10
1493.466252849332
 20
1387.637708102927
 30
0.0
 11
1488.723326435607
 21
1399.850428487373
 31
0.0
 11
1488.767097465437
 21
1394.864020804712
 31
0.0
 11
1491.911886225572
 21
1391.856083866552
 31
0.0
 11
1493.942562455846
 21
1389.252626212311
 31
0.0
 11
1493.466252849332
 21
1387.637708102927
 31
0.0
  0
SPLINE
  5
24F0
330
A
100
AcDbEntity
  8
MODEL
  6
CENTER
 48
0.25
100
AcDbSpline
210
0.0
220
0.0
230
1.0
 70
  1064
 71
     3
 72
    22
 73
    18
 74
    16
 42
0.000000001
 43
0.0000000001
 44
0.0
 40
0.0
 40
0.0
 40
0.0
 40
0.0
 40
38.62456562877337
 40
76.54974288248204
 40
129.4412416687891
 40
192.5049174529278
 40
219.0834622643276
 40
241.4310571874756
 40
256.70073045859
 40
277.7837945461141
 40
332.4028776316812
 40
385.6943293391046
 40
397.5427940674853
 40
414.0493923481779
 40
423.3923122177394
 40
433.3882160264858
 40
441.2354452060776
 40
441.2354452060776
 40
441.2354452060776
 40
441.2354452060776
 10
1555.129946474945
 20
1440.255259167713
 30
0.0
 10
1551.751400631428
 20
1427.689078083199
 30
0.0
 10
1545.055485443059
 20
1402.784256103334
 30
0.0
 10
1551.032010899116
 20
1359.444923677497
 30
0.0
 10
1563.332880441188
 20
1309.212799246846
 30
0.0
 10
1566.532708476247
 20
1263.676557804778
 30
0.0
 10
1554.895182442181
 20
1221.891093450632
 30
0.0
 10
1527.671325301273
 20
1222.697882397104
 30
0.0
 10
1515.257715629174
 20
1239.586549170326
 30
0.0
 10
1515.095063415862
 20
1270.740983668314
 30
0.0
 10
1513.507318849973
 20
1313.014419135125
 30
0.0
 10
1517.735436604181
 20
1353.727469465031
 30
0.0
 10
1520.665624450717
 20
1379.760360088043
 30
0.0
 10
1520.054679424686
 20
1395.021543444742
 30
0.0
 10
1506.886011389785
 20
1398.626498032886
 30
0.0
 10
1498.281908610736
 20
1395.660069948836
 30
0.0
 10
1492.570006575575
 20
1394.01363470922
 30
0.0
 10
1490.057969908552
 20
1393.289549165327
 30
0.0
 11
1555.129946474945
 21
1440.255259167713
 31
0.0
 11
1547.598843891423
 21
1402.372023246162
 31
0.0
 11
1550.875765236786
 21
1364.588682258082
 31
0.0
 11
1561.132788198901
 21
1312.701264478657
 31
0.0
 11
1561.745507479295
 21
1249.640565319114
 31
0.0
 11
1549.832905348583
 21
1225.881168130487
 31
0.0
 11
1527.492290776979
 21
1226.439683494777
 31
0.0
 11
1517.83200587992
 21
1238.265156741723
 31
0.0
 11
1515.093249689739
 21
1259.169577466761
 31
0.0
 11
1514.807289823222
 21
1313.78791197142
 31
0.0
 11
1519.224029324028
 21
1366.896020931038
 31
0.0
 11
1520.240527287036
 21
1378.700801670674
 31
0.0
 11
1516.237089155805
 21
1394.7145541956
 31
0.0
 11
1507.355577832864
 21
1397.614365966994
 31
0.0
 11
1497.581558957786
 21
1395.519933350906
 31
0.0
 11
1490.057969908552
 21
1393.289549165327
 31
0.0
  0
MTEXT
  5
2511
330
A
100
AcDbEntity
  8
Dim
390
1D
100
AcDbMText
 10
1285.133189976751
 20
1603.322772736949
 30
0.0
 40
24.0
 41
255.0789847827687
 46
26.688
 71
     1
 72
     1
  1
{給水部詳細}
  7
ＭＳ ゴシック
 73
     1
 44
1.174240107638677
1001
ACAD
1000
ACAD_MTEXT_DEFINED_HEIGHT_BEGIN
1070
    46
1040
26.688
1000
ACAD_MTEXT_DEFINED_HEIGHT_END
  0
LINE
  5
2512
330
A
100
AcDbEntity
  8
Dim
  6
Continuous
100
AcDbLine
 10
1431.075613382829
 20
1563.752349531028
 30
0.0
 11
1484.887259711796
 21
1407.466224058677
 31
0.0
  0
DIMENSION
  5
253D
102
{ACAD_XDICTIONARY
360
253E
102
}
330
A
100
AcDbEntity
  8
Dim
  6
Continuous
100
AcDbDimension
  2
*D74
 10
977.8264940707646
 20
920.292474661161
 30
0.0
 11
955.6101854770146
 21
967.792474661161
 31
0.0
 70
    32
 71
     5
 42
95.0
 73
     0
 74
     0
 75
     0
  3
JIS
100
AcDbAlignedDimension
 13
749.8823848935983
 23
1015.292474661161
 33
0.0
 14
749.8823848935983
 24
920.292474661161
 34
0.0
 50
90.0
100
AcDbRotatedDimension
1001
ACAD
1000
DSTYLE
1002
{
1070
   179
1070
     0
1070
   271
1070
     0
1070
    43
1040
25.0
1070
    44
1040
0.0
1070
    42
1040
25.0
1002
}
  0
DIMENSION
  5
254C
330
A
100
AcDbEntity
  8
Dim
  6
Continuous
100
AcDbDimension
  2
*D75
 10
911.8914910648402
 20
1235.255259167713
 30
0.0
 11
889.6751824710902
 21
1172.755259167713
 31
0.0
 70
    32
 71
     5
 42
125.0
 73
     0
 74
     0
 75
     0
  3
JIS
100
AcDbAlignedDimension
 13
819.1703930877592
 23
1110.255259167713
 33
0.0
 14
730.2482845416836
 24
1235.255259167713
 34
0.0
 50
90.0
100
AcDbRotatedDimension
1001
ACAD
1000
DSTYLE
1002
{
1070
   179
1070
     0
1070
   271
1070
     0
1070
    43
1040
25.0
1070
    44
1040
0.0
1070
    42
1040
25.0
1002
}
  0
VIEWPORT
  5
349
330
B
100
AcDbEntity
 67
     1
  8
0
100
AcDbViewport
 10
202.5
 20
128.5
 30
0.0
 40
486.0
 41
308.4
 68
     1
 69
     1
 12
202.5
 22
128.5
 13
0.0
 23
0.0
 14
0.5
 24
0.5
 15
0.0
 25
0.0
 16
0.0
 26
0.0
 36
1.0
 17
0.0
 27
0.0
 37
0.0
 42
50.0
 43
0.0
 44
0.0
 45
308.4
 50
0.0
 51
0.0
 72
   100
 90
   557152
  1

281
     0
 71
     1
 74
     0
110
0.0
120
0.0
130
0.0
111
1.0
121
0.0
131
0.0
112
0.0
122
1.0
132
0.0
 79
     0
146
0.0
170
     0
 61
     5
348
26C
292
     1
282
     1
141
0.0
142
0.0
 63
   256
  0
VIEWPORT
  5
34A
330
B
100
AcDbEntity
 67
     1
  8
0
100
AcDbViewport
 10
202.5
 20
128.5
 30
0.0
 40
324.0
 41
205.6
 68
     2
 69
     2
 12
986.6781359294573
 22
1427.077061889956
 13
0.0
 23
0.0
 14
0.5
 24
0.5
 15
0.0
 25
0.0
 16
0.0
 26
0.0
 36
1.0
 17
0.0
 27
0.0
 37
0.0
 42
50.0
 43
0.0
 44
0.0
 45
2890.021615685494
 50
0.0
 51
0.0
 72
   100
 90
   557152
  1

281
     0
 71
     1
 74
     0
110
0.0
120
0.0
130
0.0
111
1.0
121
0.0
131
0.0
112
0.0
122
1.0
132
0.0
 79
     0
146
0.0
170
     0
 61
     5
348
26C
292
     1
282
     1
141
0.0
142
0.0
 63
   256
  0
ENDSEC
  0
SECTION
  2
OBJECTS
  0
DICTIONARY
  5
19
330
0
100
AcDbDictionary
281
     1
  3
ACAD_COLOR
350
38F
  3
ACAD_DETAILVIEWSTYLE
350
8CF
  3
ACAD_FIELDLIST
350
BA6
  3
ACAD_GROUP
350
1A
  3
ACAD_IMAGE_VARS
350
27B
  3
ACAD_LAYOUT
350
1E
  3
ACAD_MATERIAL
350
263
  3
ACAD_MLEADERSTYLE
350
336
  3
ACAD_MLINESTYLE
350
1B
  3
ACAD_PLOTSETTINGS
350
22
  3
ACAD_PLOTSTYLENAME
350
1F
  3
ACAD_SCALELIST
350
241
  3
ACAD_SECTIONVIEWSTYLE
350
8D0
  3
ACAD_TABLESTYLE
350
278
  3
ACAD_VISUALSTYLE
350
267
  3
ACDB_RECOMPOSE_DATA
350
2561
  3
AcDbVariableDictionary
350
330
  3
APPDATA
350
27A
  3
DimOffsetDictionary
350
C08
  0
SUN
  5
8C2
330
15
100
AcDbSun
 90
        1
290
     0
 63
     7
421
 16777215
 40
1.0
291
     1
 91
  2455826
 92
 54000000
292
     0
 70
     2
 71
   256
280
     1
  0
DICTIONARY
  5
2E1
330
2
100
AcDbDictionary
280
     1
281
     1
  3
ACAD_LAYERSTATES
360
2E2
  3
ACLYDICTIONARY
360
BFE
  0
DICTIONARY
  5
BDC
330
BDB
100
AcDbDictionary
280
     1
281
     1
  3
ACAD_FIELD
360
BE4
  0
DICTIONARY
  5
1FEC
330
1FEB
100
AcDbDictionary
280
     1
281
     1
  3
ACAD_DIMASSOC
360
1FED
  0
DICTIONARY
  5
253E
330
253D
100
AcDbDictionary
280
     1
281
     1
  0
DICTIONARY
  5
38F
102
{ACAD_REACTORS
330
19
102
}
330
19
100
AcDbDictionary
281
     1
  0
DICTIONARY
  5
8CF
102
{ACAD_REACTORS
330
19
102
}
330
19
100
AcDbDictionary
281
     1
  0
FIELDLIST
  5
BA6
102
{ACAD_REACTORS
330
19
102
}
330
19
100
AcDbIdSet
 90
        2
330
BDF
330
BDE
100
AcDbFieldList
  0
DICTIONARY
  5
1A
102
{ACAD_REACTORS
330
19
102
}
330
19
100
AcDbDictionary
281
     1
  3
*A1
350
24F2
  3
*A2
350
24F1
  0
RASTERVARIABLES
  5
27B
102
{ACAD_REACTORS
330
19
102
}
330
19
100
AcDbRasterVariables
 90
        0
 70
     1
 71
     1
 72
     1
  0
DICTIONARY
  5
1E
102
{ACAD_REACTORS
330
19
102
}
330
19
100
AcDbDictionary
281
     1
  3
Layout1
350
21
  3
Model
350
20
  0
DICTIONARY
  5
263
102
{ACAD_REACTORS
330
19
102
}
330
19
100
AcDbDictionary
281
     1
  3
ByBlock
350
1AFC
  3
ByLayer
350
264
  3
Global
350
266
  0
DICTIONARY
  5
336
102
{ACAD_REACTORS
330
19
102
}
330
19
100
AcDbDictionary
281
     1
  3
Standard
350
8D1
  0
DICTIONARY
  5
1B
102
{ACAD_REACTORS
330
19
102
}
330
19
100
AcDbDictionary
281
     1
  3
Standard
350
1C
  0
DICTIONARY
  5
22
102
{ACAD_REACTORS
330
19
102
}
330
19
100
AcDbDictionary
281
     1
  0
ACDBDICTIONARYWDFLT
  5
1F
102
{ACAD_REACTORS
330
19
102
}
330
19
100
AcDbDictionary
281
     1
  3
Normal
350
1D
100
AcDbDictionaryWithDefault
340
1D
  0
DICTIONARY
  5
241
102
{ACAD_REACTORS
330
19
102
}
330
19
100
AcDbDictionary
281
     1
  3
A0
350
242
  3
A1
350
243
  3
A2
350
244
  3
A3
350
245
  3
A4
350
246
  3
A5
350
247
  3
A6
350
248
  3
A7
350
249
  3
A8
350
24A
  3
A9
350
24B
  3
B0
350
24C
  3
B1
350
24D
  3
B2
350
24E
  3
B3
350
24F
  3
B4
350
250
  3
B5
350
251
  3
B6
350
252
  3
B7
350
253
  3
B8
350
254
  3
B9
350
255
  3
C0
350
256
  3
C1
350
257
  3
C2
350
258
  3
C3
350
259
  3
C4
350
25A
  3
C5
350
25B
  3
C6
350
25C
  3
C7
350
25D
  3
C8
350
25E
  3
C9
350
25F
  3
D0
350
260
  3
D1
350
261
  3
D2
350
262
  0
DICTIONARY
  5
8D0
102
{ACAD_REACTORS
330
19
102
}
330
19
100
AcDbDictionary
281
     1
  0
DICTIONARY
  5
278
102
{ACAD_REACTORS
330
19
102
}
330
19
100
AcDbDictionary
281
     1
  3
Standard
350
279
  0
DICTIONARY
  5
267
102
{ACAD_REACTORS
330
19
102
}
330
19
100
AcDbDictionary
281
     1
  3
2dWireframe
350
26C
  3
3D Hidden
350
26E
  3
3dWireframe
350
26D
  3
Basic
350
26F
  3
Brighten
350
273
  3
ColorChange
350
277
  3
Conceptual
350
271
  3
Dim
350
272
  3
EdgeColorOff
350
8BC
  3
Facepattern
350
276
  3
Flat
350
268
  3
FlatWithEdges
350
269
  3
Gouraud
350
26A
  3
GouraudWithEdges
350
26B
  3
Hidden
350
8B9
  3
JitterOff
350
8BA
  3
Linepattern
350
275
  3
OverhangOff
350
8BB
  3
Realistic
350
270
  3
Shaded
350
8C1
  3
Shaded with edges
350
8C0
  3
Shades of Gray
350
8BD
  3
Sketchy
350
8BE
  3
Thicken
350
274
  3
Wireframe
350
8B8
  3
X-Ray
350
8BF
  0
XRECORD
  5
2561
102
{ACAD_REACTORS
330
19
102
}
330
19
100
AcDbXrecord
280
     1
 90
        1
330
279
  0
DICTIONARY
  5
330
102
{ACAD_REACTORS
330
19
102
}
330
19
100
AcDbDictionary
281
     1
  3
CANNOSCALE
350
331
  3
CMLEADERSTYLE
350
8DA
  3
CTABLESTYLE
350
335
  3
HPTRANSPARENCY
350
C07
  3
XCLIPFRAME
350
64A
  0
DICTIONARY
  5
27A
102
{ACAD_REACTORS
330
19
102
}
330
19
100
AcDbDictionary
281
     1
  0
DICTIONARY
  5
C08
102
{ACAD_REACTORS
330
19
102
}
330
19
100
AcDbDictionary
281
     1
  3
DIMRAILANGLE
350
C0B
  3
DIMRAILFIRSTOFFSET
350
C09
  3
DIMRAILOFFSET
350
C0A
  3
DIMRAILSENABLED
350
C0C
  0
DICTIONARY
  5
2E2
102
{ACAD_REACTORS
330
2E1
102
}
330
2E1
100
AcDbDictionary
281
     1
  3
ARGON_LAYERP_15
350
870
  0
DICTIONARY
  5
BFE
102
{ACAD_REACTORS
330
2E1
102
}
330
2E1
100
AcDbDictionary
281
     1
1001
ACAD
1000
<All
  0
DICTIONARY
  5
BE4
102
{ACAD_REACTORS
330
BDC
102
}
330
BDC
100
AcDbDictionary
280
     1
281
     1
  3
TEXT
360
BDE
  0
DIMASSOC
  5
1FED
102
{ACAD_REACTORS
330
1FEC
102
}
330
1FEC
100
AcDbDimAssoc
330
1FEB
 90
        3
 70
     0
 71
     1
  1
AcDbOsnapPointRef
 72
     1
331
1F87
 73
     2
 91
        3
 40
1.0
 10
0.0
 20
0.0
 30
0.0
 75
     0
  1
AcDbOsnapPointRef
 72
    13
331
1F87
 73
     2
 91
        9
 40
0.62023626472319
 10
0.0
 20
0.0
 30
0.0
 75
     0
  0
GROUP
  5
24F2
102
{ACAD_REACTORS
330
1A
102
}
330
1A
100
AcDbGroup
300

 70
     1
 71
     1
340
24DB
340
24DC
340
24DD
340
24DE
340
24DF
  0
GROUP
  5
24F1
102
{ACAD_REACTORS
330
1A
102
}
330
1A
100
AcDbGroup
300

 70
     1
 71
     1
340
24E0
340
24E1
340
24E2
340
24E3
340
24E4
340
24E5
340
24E6
340
24E7
340
24E8
340
24E9
340
24EA
340
24EB
340
24EC
340
24ED
340
24EE
340
24EF
  0
LAYOUT
  5
21
102
{ACAD_REACTORS
330
1E
102
}
330
1E
100
AcDbPlotSettings
  1

  2
none_device
  4
ISO_A3_(420.00_x_297.00_MM)
  6

 40
7.5
 41
20.0
 42
7.5
 43
20.0
 44
420.0
 45
297.0
 46
0.0
 47
0.0
 48
0.0
 49
0.0
140
0.0
141
0.0
142
1.0
143
1.0
 70
     0
 72
     1
 73
     0
 74
     0
  7

 75
     0
 76
     0
 77
     2
 78
   300
147
1.0
148
0.0
149
0.0
100
AcDbLayout
  1
Layout1
 70
     0
 71
     0
 10
0.0
 20
0.0
 11
0.0
 21
0.0
 12
0.0
 22
0.0
 32
0.0
 14
0.0
 24
0.0
 34
0.0
 15
0.0
 25
0.0
 35
0.0
146
0.0
 13
0.0
 23
0.0
 33
0.0
 16
0.0
 26
0.0
 36
0.0
 17
0.0
 27
0.0
 37
0.0
 76
     0
330
B
331
349
  0
LAYOUT
  5
20
102
{ACAD_REACTORS
330
1E
102
}
330
1E
100
AcDbPlotSettings
  1

  2
none_device
  4
ISO_A3_(420.00_x_297.00_MM)
  6

 40
7.5
 41
20.0
 42
7.5
 43
20.0
 44
420.0
 45
297.0
 46
0.0
 47
0.0
 48
0.0
 49
0.0
140
0.0
141
0.0
142
1.0
143
1.0
 70
  1024
 72
     1
 73
     0
 74
     0
  7

 75
     0
 76
     0
 77
     2
 78
   300
147
1.0
148
0.0
149
0.0
100
AcDbLayout
  1
Model
 70
     0
 71
     1
 10
0.0
 20
0.0
 11
2100.0
 21
2970.0
 12
0.0
 22
0.0
 32
0.0
 14
0.0
 24
0.0
 34
0.0
 15
2100.0
 25
2970.0
 35
0.0
146
0.0
 13
0.0
 23
0.0
 33
0.0
 16
0.0
 26
0.0
 36
0.0
 17
0.0
 27
0.0
 37
0.0
 76
     0
330
A
331
15
  0
MATERIAL
  5
1AFC
102
{ACAD_REACTORS
330
263
102
}
330
263
100
AcDbMaterial
  1
ByBlock
 72
     1
 94
      127
  0
MATERIAL
  5
264
102
{ACAD_REACTORS
330
263
102
}
330
263
100
AcDbMaterial
  1
ByLayer
 72
     1
 94
      127
  0
MATERIAL
  5
266
102
{ACAD_REACTORS
330
263
102
}
330
263
100
AcDbMaterial
  1
Global
 72
     1
 94
      127
  0
MLEADERSTYLE
  5
8D1
102
{ACAD_REACTORS
330
336
102
}
330
336
100
AcDbMLeaderStyle
170
     2
171
     1
172
     0
 90
        2
 40
0.0
 41
0.0
173
     1
 91
-1056964608
340
11
 92
       -2
290
     1
 42
2.0
291
     1
 43
8.0
  3
Standard
341
0
 44
4.0
300

342
17
174
     1
178
     6
175
     1
176
     0
 93
-1056964608
 45
4.0
292
     0
297
     0
 46
4.0
343
0
 94
-1056964608
 47
1.0
 49
1.0
140
1.0
293
     1
141
0.0
294
     1
177
     0
142
1.0
295
     0
296
     0
143
3.75
1001
ACAD_MLEADERVER
1070
     2
  0
MLINESTYLE
  5
1C
102
{ACAD_REACTORS
330
1B
102
}
330
1B
100
AcDbMlineStyle
  2
Standard
 70
     0
  3

 62
     0
 51
90.0
 52
90.0
 71
     2
 49
0.5
 62
   256
  6
BYLAYER
 49
-0.5
 62
   256
  6
BYLAYER
  0
ACDBPLACEHOLDER
  5
1D
102
{ACAD_REACTORS
330
1F
102
}
330
1F
  0
SCALE
  5
242
102
{ACAD_REACTORS
330
241
102
}
330
241
100
AcDbScale
 70
     0
300
1:1
140
1.0
141
1.0
290
     1
  0
SCALE
  5
243
102
{ACAD_REACTORS
330
241
102
}
330
241
100
AcDbScale
 70
     0
300
1:2
140
1.0
141
2.0
290
     0
  0
SCALE
  5
244
102
{ACAD_REACTORS
330
241
102
}
330
241
100
AcDbScale
 70
     0
300
1:4
140
1.0
141
4.0
290
     0
  0
SCALE
  5
245
102
{ACAD_REACTORS
330
241
102
}
330
241
100
AcDbScale
 70
     0
300
1:5
140
1.0
141
5.0
290
     0
  0
SCALE
  5
246
102
{ACAD_REACTORS
330
241
102
}
330
241
100
AcDbScale
 70
     0
300
1:8
140
1.0
141
8.0
290
     0
  0
SCALE
  5
247
102
{ACAD_REACTORS
330
241
102
}
330
241
100
AcDbScale
 70
     0
300
1:10
140
1.0
141
10.0
290
     0
  0
SCALE
  5
248
102
{ACAD_REACTORS
330
241
102
}
330
241
100
AcDbScale
 70
     0
300
1:16
140
1.0
141
16.0
290
     0
  0
SCALE
  5
249
102
{ACAD_REACTORS
330
241
102
}
330
241
100
AcDbScale
 70
     0
300
1:20
140
1.0
141
20.0
290
     0
  0
SCALE
  5
24A
102
{ACAD_REACTORS
330
241
102
}
330
241
100
AcDbScale
 70
     0
300
1:30
140
1.0
141
30.0
290
     0
  0
SCALE
  5
24B
102
{ACAD_REACTORS
330
241
102
}
330
241
100
AcDbScale
 70
     0
300
1:40
140
1.0
141
40.0
290
     0
  0
SCALE
  5
24C
102
{ACAD_REACTORS
330
241
102
}
330
241
100
AcDbScale
 70
     0
300
1:50
140
1.0
141
50.0
290
     0
  0
SCALE
  5
24D
102
{ACAD_REACTORS
330
241
102
}
330
241
100
AcDbScale
 70
     0
300
1:100
140
1.0
141
100.0
290
     0
  0
SCALE
  5
24E
102
{ACAD_REACTORS
330
241
102
}
330
241
100
AcDbScale
 70
     0
300
2:1
140
2.0
141
1.0
290
     0
  0
SCALE
  5
24F
102
{ACAD_REACTORS
330
241
102
}
330
241
100
AcDbScale
 70
     0
300
4:1
140
4.0
141
1.0
290
     0
  0
SCALE
  5
250
102
{ACAD_REACTORS
330
241
102
}
330
241
100
AcDbScale
 70
     0
300
8:1
140
8.0
141
1.0
290
     0
  0
SCALE
  5
251
102
{ACAD_REACTORS
330
241
102
}
330
241
100
AcDbScale
 70
     0
300
10:1
140
10.0
141
1.0
290
     0
  0
SCALE
  5
252
102
{ACAD_REACTORS
330
241
102
}
330
241
100
AcDbScale
 70
     0
300
100:1
140
100.0
141
1.0
290
     0
  0
SCALE
  5
253
102
{ACAD_REACTORS
330
241
102
}
330
241
100
AcDbScale
 70
     0
300
1/128" = 1'-0"
140
0.0078125
141
12.0
290
     0
  0
SCALE
  5
254
102
{ACAD_REACTORS
330
241
102
}
330
241
100
AcDbScale
 70
     0
300
1/64" = 1'-0"
140
0.015625
141
12.0
290
     0
  0
SCALE
  5
255
102
{ACAD_REACTORS
330
241
102
}
330
241
100
AcDbScale
 70
     0
300
1/32" = 1'-0"
140
0.03125
141
12.0
290
     0
  0
SCALE
  5
256
102
{ACAD_REACTORS
330
241
102
}
330
241
100
AcDbScale
 70
     0
300
1/16" = 1'-0"
140
0.0625
141
12.0
290
     0
  0
SCALE
  5
257
102
{ACAD_REACTORS
330
241
102
}
330
241
100
AcDbScale
 70
     0
300
3/32" = 1'-0"
140
0.09375
141
12.0
290
     0
  0
SCALE
  5
258
102
{ACAD_REACTORS
330
241
102
}
330
241
100
AcDbScale
 70
     0
300
1/8" = 1'-0"
140
0.125
141
12.0
290
     0
  0
SCALE
  5
259
102
{ACAD_REACTORS
330
241
102
}
330
241
100
AcDbScale
 70
     0
300
3/16" = 1'-0"
140
0.1875
141
12.0
290
     0
  0
SCALE
  5
25A
102
{ACAD_REACTORS
330
241
102
}
330
241
100
AcDbScale
 70
     0
300
1/4" = 1'-0"
140
0.25
141
12.0
290
     0
  0
SCALE
  5
25B
102
{ACAD_REACTORS
330
241
102
}
330
241
100
AcDbScale
 70
     0
300
3/8" = 1'-0"
140
0.375
141
12.0
290
     0
  0
SCALE
  5
25C
102
{ACAD_REACTORS
330
241
102
}
330
241
100
AcDbScale
 70
     0
300
1/2" = 1'-0"
140
0.5
141
12.0
290
     0
  0
SCALE
  5
25D
102
{ACAD_REACTORS
330
241
102
}
330
241
100
AcDbScale
 70
     0
300
3/4" = 1'-0"
140
0.75
141
12.0
290
     0
  0
SCALE
  5
25E
102
{ACAD_REACTORS
330
241
102
}
330
241
100
AcDbScale
 70
     0
300
1" = 1'-0"
140
1.0
141
12.0
290
     0
  0
SCALE
  5
25F
102
{ACAD_REACTORS
330
241
102
}
330
241
100
AcDbScale
 70
     0
300
1-1/2" = 1'-0"
140
1.5
141
12.0
290
     0
  0
SCALE
  5
260
102
{ACAD_REACTORS
330
241
102
}
330
241
100
AcDbScale
 70
     0
300
3" = 1'-0"
140
3.0
141
12.0
290
     0
  0
SCALE
  5
261
102
{ACAD_REACTORS
330
241
102
}
330
241
100
AcDbScale
 70
     0
300
6" = 1'-0"
140
6.0
141
12.0
290
     0
  0
SCALE
  5
262
102
{ACAD_REACTORS
330
241
102
}
330
241
100
AcDbScale
 70
     0
300
1'-0" = 1'-0"
140
12.0
141
12.0
290
     0
  0
TABLESTYLE
  5
279
102
{ACAD_REACTORS
330
278
102
}
102
{ACAD_XDICTIONARY
360
255F
102
}
330
278
100
AcDbTableStyle
  3
Standard
 70
     0
 71
     0
 40
0.06
 41
0.06
280
     0
281
     0
  7
Standard
140
4.5
170
     2
 62
     0
 63
   257
283
     0
 90
        4
 91
        0
  1

274
    -2
284
     1
 64
     0
275
    -2
285
     1
 65
     0
276
    -2
286
     1
 66
     0
277
    -2
287
     1
 67
     0
278
    -2
288
     1
 68
     0
279
    -2
289
     1
 69
     0
  7
Standard
140
6.0
170
     5
 62
     0
 63
   257
283
     0
 90
        4
 91
        0
  1

274
    -2
284
     1
 64
     0
275
    -2
285
     1
 65
     0
276
    -2
286
     1
 66
     0
277
    -2
287
     1
 67
     0
278
    -2
288
     1
 68
     0
279
    -2
289
     1
 69
     0
  7
Standard
140
4.5
170
     5
 62
     0
 63
   257
283
     0
 90
        4
 91
        0
  1

274
    -2
284
     1
 64
     0
275
    -2
285
     1
 65
     0
276
    -2
286
     1
 66
     0
277
    -2
287
     1
 67
     0
278
    -2
288
     1
 68
     0
279
    -2
289
     1
 69
     0
  0
VISUALSTYLE
  5
26C
102
{ACAD_REACTORS
330
267
102
}
330
267
100
AcDbVisualStyle
  2
2dWireframe
 70
     4
 71
     0
 72
     2
 73
     0
 90
        0
 40
-0.6
 41
-30.0
 62
     5
 63
     7
421
 16777215
 74
     1
 91
        4
 64
     7
 65
   257
 75
     1
175
     1
 42
1.0
 92
        0
 66
   257
 43
1.0
 76
     1
 77
     6
 78
     2
 67
     7
 79
     5
170
     0
171
     0
290
     0
174
     0
 93
        1
 44
0.0
173
     0
291
     0
 45
0.0
  0
VISUALSTYLE
  5
26E
102
{ACAD_REACTORS
330
267
102
}
330
267
100
AcDbVisualStyle
  2
3D Hidden
 70
     6
 71
     1
 72
     2
 73
     2
 90
        0
 40
-0.6
 41
-30.0
 62
     5
 63
     7
421
 16777215
 74
     2
 91
        2
 64
     7
 65
   257
 75
     2
175
     1
 42
40.0
 92
        0
 66
   257
 43
1.0
 76
     1
 77
     6
 78
     2
 67
     7
 79
     3
170
     0
171
     0
290
     0
174
     0
 93
        1
 44
0.0
173
     0
291
     0
 45
0.0
  0
VISUALSTYLE
  5
26D
102
{ACAD_REACTORS
330
267
102
}
330
267
100
AcDbVisualStyle
  2
3dWireframe
 70
     5
 71
     0
 72
     2
 73
     0
 90
        0
 40
-0.6
 41
-30.0
 62
     5
 63
     7
421
 16777215
 74
     1
 91
        4
 64
     7
 65
   257
 75
     1
175
     1
 42
1.0
 92
        0
 66
   257
 43
1.0
 76
     1
 77
     6
 78
     2
 67
     7
 79
     5
170
     0
171
     0
290
     0
174
     0
 93
        1
 44
0.0
173
     0
291
     0
 45
0.0
  0
VISUALSTYLE
  5
26F
102
{ACAD_REACTORS
330
267
102
}
330
267
100
AcDbVisualStyle
  2
Basic
 70
     7
 71
     1
 72
     0
 73
     1
 90
        0
 40
-0.6
 41
-30.0
 62
     5
 63
     7
421
 16777215
 74
     0
 91
        4
 64
     7
 65
   257
 75
     1
175
     1
 42
1.0
 92
        8
 66
     7
 43
1.0
 76
     1
 77
     6
 78
     2
 67
     7
 79
     5
170
     0
171
     0
290
     0
174
     0
 93
        1
 44
0.0
173
     0
291
     1
 45
0.0
  0
VISUALSTYLE
  5
273
102
{ACAD_REACTORS
330
267
102
}
330
267
100
AcDbVisualStyle
  2
Brighten
 70
    12
 71
     2
 72
     2
 73
     0
 90
        0
 40
-0.6
 41
-30.0
 62
     5
 63
     7
421
 16777215
 74
     1
 91
        4
 64
     7
 65
   257
 75
     1
175
     1
 42
1.0
 92
        8
 66
     7
 43
1.0
 76
     1
 77
     6
 78
     2
 67
     7
 79
     5
170
     0
171
     0
290
     0
174
     0
 93
        1
 44
50.0
173
     0
291
     1
 45
0.0
  0
VISUALSTYLE
  5
277
102
{ACAD_REACTORS
330
267
102
}
330
267
100
AcDbVisualStyle
  2
ColorChange
 70
    16
 71
     2
 72
     2
 73
     3
 90
        0
 40
-0.6
 41
-30.0
 62
     5
 63
     8
421
  8421504
 74
     1
 91
        4
 64
     7
 65
   257
 75
     1
175
     1
 42
1.0
 92
        8
 66
     8
424
  8421504
 43
1.0
 76
     1
 77
     6
 78
     2
 67
     7
 79
     5
170
     0
171
     0
290
     0
174
     0
 93
        1
 44
0.0
173
     0
291
     1
 45
0.0
  0
VISUALSTYLE
  5
271
102
{ACAD_REACTORS
330
267
102
}
330
267
100
AcDbVisualStyle
  2
Conceptual
 70
     9
 71
     3
 72
     2
 73
     0
 90
        0
 40
-0.6
 41
-30.0
 62
     5
 63
     7
421
 16777215
 74
     2
 91
        2
 64
     7
 65
   257
 75
     1
175
     1
 42
40.0
 92
        8
 66
     7
 43
1.0
 76
     1
 77
     6
 78
     2
 67
     7
 79
     3
170
     0
171
     0
290
     0
174
     0
 93
        1
 44
0.0
173
     0
291
     0
 45
0.0
  0
VISUALSTYLE
  5
272
102
{ACAD_REACTORS
330
267
102
}
330
267
100
AcDbVisualStyle
  2
Dim
 70
    11
 71
     2
 72
     2
 73
     0
 90
        0
 40
-0.6
 41
-30.0
 62
     5
 63
     7
421
 16777215
 74
     1
 91
        4
 64
     7
 65
   257
 75
     1
175
     1
 42
1.0
 92
        8
 66
     7
 43
1.0
 76
     1
 77
     6
 78
     2
 67
     7
 79
     5
170
     0
171
     0
290
     0
174
     0
 93
        1
 44
-50.0
173
     0
291
     1
 45
0.0
  0
VISUALSTYLE
  5
8BC
102
{ACAD_REACTORS
330
267
102
}
330
267
100
AcDbVisualStyle
  2
EdgeColorOff
 70
    22
 71
     2
 72
     2
 73
     0
 90
        0
 40
0.6
 41
30.0
 62
     5
 63
     7
421
 16777215
 74
     1
 91
        4
 64
     7
 65
   257
 75
     1
175
     1
 42
1.0
 92
        8
 66
     7
 43
1.0
 76
     1
 77
     6
 78
     2
 67
     7
 79
     5
170
     0
171
     0
290
     0
174
     0
 93
        1
 44
0.0
173
     0
291
     1
 45
0.0
  0
VISUALSTYLE
  5
276
102
{ACAD_REACTORS
330
267
102
}
330
267
100
AcDbVisualStyle
  2
Facepattern
 70
    15
 71
     2
 72
     2
 73
     0
 90
        0
 40
-0.6
 41
-30.0
 62
     5
 63
     7
421
 16777215
 74
     1
 91
        4
 64
     7
 65
   257
 75
     1
175
     1
 42
1.0
 92
        8
 66
     7
 43
1.0
 76
     1
 77
     6
 78
     2
 67
     7
 79
     5
170
     0
171
     0
290
     0
174
     0
 93
        1
 44
0.0
173
     0
291
     1
 45
0.0
  0
VISUALSTYLE
  5
268
102
{ACAD_REACTORS
330
267
102
}
330
267
100
AcDbVisualStyle
  2
Flat
 70
     0
 71
     2
 72
     1
 73
     1
 90
        2
 40
-0.6
 41
30.0
 62
     5
 63
     7
421
 16777215
 74
     0
 91
        4
 64
     7
 65
   257
 75
     1
175
     1
 42
1.0
 92
        8
 66
     7
 43
1.0
 76
     1
 77
     6
 78
     2
 67
     7
 79
     5
170
     0
171
     0
290
     0
174
     0
 93
       13
 44
0.0
173
     0
291
     1
 45
0.0
  0
VISUALSTYLE
  5
269
102
{ACAD_REACTORS
330
267
102
}
330
267
100
AcDbVisualStyle
  2
FlatWithEdges
 70
     1
 71
     2
 72
     1
 73
     1
 90
        2
 40
-0.6
 41
30.0
 62
     5
 63
     7
421
 16777215
 74
     1
 91
        4
 64
     7
 65
   257
 75
     1
175
     1
 42
1.0
 92
        0
 66
   257
 43
1.0
 76
     1
 77
     6
 78
     2
 67
     7
 79
     5
170
     0
171
     0
290
     0
174
     0
 93
       13
 44
0.0
173
     0
291
     1
 45
0.0
  0
VISUALSTYLE
  5
26A
102
{ACAD_REACTORS
330
267
102
}
330
267
100
AcDbVisualStyle
  2
Gouraud
 70
     2
 71
     2
 72
     2
 73
     1
 90
        2
 40
-0.6
 41
30.0
 62
     5
 63
     7
421
 16777215
 74
     0
 91
        4
 64
     7
 65
   257
 75
     1
175
     1
 42
1.0
 92
        0
 66
     7
 43
1.0
 76
     1
 77
     6
 78
     2
 67
     7
 79
     5
170
     0
171
     0
290
     0
174
     0
 93
       13
 44
0.0
173
     0
291
     1
 45
0.0
  0
VISUALSTYLE
  5
26B
102
{ACAD_REACTORS
330
267
102
}
330
267
100
AcDbVisualStyle
  2
GouraudWithEdges
 70
     3
 71
     2
 72
     2
 73
     1
 90
        2
 40
-0.6
 41
30.0
 62
     5
 63
     7
421
 16777215
 74
     1
 91
        4
 64
     7
 65
   257
 75
     1
175
     1
 42
1.0
 92
        0
 66
   257
 43
1.0
 76
     1
 77
     6
 78
     2
 67
     7
 79
     5
170
     0
171
     0
290
     0
174
     0
 93
       13
 44
0.0
173
     0
291
     1
 45
0.0
  0
VISUALSTYLE
  5
8B9
102
{ACAD_REACTORS
330
267
102
}
330
267
100
AcDbVisualStyle
  2
Hidden
 70
     6
 71
     1
 72
     2
 73
     2
 90
        0
 40
0.6
 41
30.0
 62
     5
 63
     7
421
 16777215
 74
     2
 91
        2
 64
     7
 65
   257
 75
     2
175
     1
 42
40.0
 92
        0
 66
   257
 43
1.0
 76
     1
 77
     6
 78
     2
 67
     7
 79
     3
170
     0
171
     0
290
     0
174
     0
 93
        1
 44
0.0
173
     0
291
     0
 45
0.0
  0
VISUALSTYLE
  5
8BA
102
{ACAD_REACTORS
330
267
102
}
330
267
100
AcDbVisualStyle
  2
JitterOff
 70
    20
 71
     2
 72
     2
 73
     0
 90
        0
 40
0.6
 41
30.0
 62
     5
 63
     7
421
 16777215
 74
     1
 91
        4
 64
     7
 65
   257
 75
     1
175
     1
 42
1.0
 92
       10
 66
     7
 43
1.0
 76
     1
 77
     6
 78
     2
 67
     7
 79
     5
170
     0
171
     0
290
     0
174
     0
 93
        1
 44
0.0
173
     0
291
     1
 45
0.0
  0
VISUALSTYLE
  5
275
102
{ACAD_REACTORS
330
267
102
}
330
267
100
AcDbVisualStyle
  2
Linepattern
 70
    14
 71
     2
 72
     2
 73
     0
 90
        0
 40
-0.6
 41
-30.0
 62
     5
 63
     7
421
 16777215
 74
     1
 91
        4
 64
     7
 65
   257
 75
     7
175
     7
 42
1.0
 92
        8
 66
     7
 43
1.0
 76
     1
 77
     6
 78
     2
 67
     7
 79
     5
170
     0
171
     0
290
     0
174
     0
 93
        1
 44
0.0
173
     0
291
     1
 45
0.0
  0
VISUALSTYLE
  5
8BB
102
{ACAD_REACTORS
330
267
102
}
330
267
100
AcDbVisualStyle
  2
OverhangOff
 70
    21
 71
     2
 72
     2
 73
     0
 90
        0
 40
0.6
 41
30.0
 62
     5
 63
     7
421
 16777215
 74
     1
 91
        4
 64
     7
 65
   257
 75
     1
175
     1
 42
1.0
 92
        9
 66
     7
 43
1.0
 76
     1
 77
     6
 78
     2
 67
     7
 79
     5
170
     0
171
     0
290
     0
174
     0
 93
        1
 44
0.0
173
     0
291
     1
 45
0.0
  0
VISUALSTYLE
  5
270
102
{ACAD_REACTORS
330
267
102
}
330
267
100
AcDbVisualStyle
  2
Realistic
 70
     8
 71
     2
 72
     2
 73
     0
 90
        0
 40
-0.6
 41
-30.0
 62
     5
 63
     7
421
 16777215
 74
     1
 91
        0
 64
     7
 65
   257
 75
     1
175
     1
 42
1.0
 92
        8
 66
     8
424
  7895160
 43
1.0
 76
     1
 77
     6
 78
     2
 67
     7
 79
     5
170
     0
171
     0
290
     0
174
     0
 93
       13
 44
0.0
173
     0
291
     0
 45
0.0
  0
VISUALSTYLE
  5
8C1
102
{ACAD_REACTORS
330
267
102
}
330
267
100
AcDbVisualStyle
  2
Shaded
 70
    27
 71
     2
 72
     2
 73
     1
 90
        2
 40
0.6
 41
30.0
 62
     5
 63
     7
421
 16777215
 74
     0
 91
        4
 64
     7
 65
   257
 75
     1
175
     1
 42
1.0
 92
        8
 66
   257
 43
1.0
 76
     1
 77
     6
 78
     2
 67
     8
425
  7895160
 79
     3
170
     0
171
     0
290
     0
174
     0
 93
        5
 44
0.0
173
     0
291
     0
 45
0.0
  0
VISUALSTYLE
  5
8C0
102
{ACAD_REACTORS
330
267
102
}
330
267
100
AcDbVisualStyle
  2
Shaded with edges
 70
    26
 71
     2
 72
     2
 73
     1
 90
        2
 40
0.6
 41
30.0
 62
     5
 63
     7
421
 16777215
 74
     1
 91
       10
 64
     7
 65
   257
 75
     2
175
     1
 42
1.0
 92
        8
 66
   257
 43
1.0
 76
     1
 77
     6
 78
     2
 67
     7
 79
     3
170
     0
171
     0
290
     0
174
     0
 93
        5
 44
0.0
173
     0
291
     0
 45
0.0
  0
VISUALSTYLE
  5
8BD
102
{ACAD_REACTORS
330
267
102
}
330
267
100
AcDbVisualStyle
  2
Shades of Gray
 70
    23
 71
     2
 72
     2
 73
     3
 90
        0
 40
0.6
 41
30.0
 62
     5
 63
     7
421
 16777215
 74
     2
 91
        2
 64
     7
 65
     7
 75
     1
175
     1
 42
40.0
 92
        8
 66
     7
 43
1.0
 76
     1
 77
     6
 78
     2
 67
     7
 79
     3
170
     0
171
     0
290
     0
174
     0
 93
        1
 44
0.0
173
     0
291
     0
 45
0.0
  0
VISUALSTYLE
  5
8BE
102
{ACAD_REACTORS
330
267
102
}
330
267
100
AcDbVisualStyle
  2
Sketchy
 70
    24
 71
     1
 72
     2
 73
     2
 90
        0
 40
0.6
 41
30.0
 62
     5
 63
     7
421
 16777215
 74
     2
 91
        2
 64
     7
 65
     7
 75
     1
175
     1
 42
40.0
 92
       11
 66
     7
 43
1.0
 76
     1
 77
     6
 78
     2
 67
     7
 79
     6
170
     0
171
     0
290
     0
174
     0
 93
        1
 44
0.0
173
     0
291
     0
 45
0.0
  0
VISUALSTYLE
  5
274
102
{ACAD_REACTORS
330
267
102
}
330
267
100
AcDbVisualStyle
  2
Thicken
 70
    13
 71
     2
 72
     2
 73
     0
 90
        0
 40
-0.6
 41
-30.0
 62
     5
 63
     7
421
 16777215
 74
     1
 91
        4
 64
     7
 65
   257
 75
     1
175
     1
 42
1.0
 92
       12
 66
     7
 43
1.0
 76
     1
 77
     6
 78
     2
 67
     7
 79
     5
170
     0
171
     0
290
     0
174
     0
 93
        1
 44
0.0
173
     0
291
     1
 45
0.0
  0
VISUALSTYLE
  5
8B8
102
{ACAD_REACTORS
330
267
102
}
330
267
100
AcDbVisualStyle
  2
Wireframe
 70
     5
 71
     0
 72
     2
 73
     0
 90
        0
 40
0.6
 41
30.0
 62
     5
 63
     7
421
 16777215
 74
     1
 91
        4
 64
     7
 65
   257
 75
     1
175
     1
 42
1.0
 92
        0
 66
   257
 43
1.0
 76
     1
 77
     6
 78
     2
 67
     7
 79
     3
170
     0
171
     0
290
     0
174
     0
 93
        1
 44
0.0
173
     0
291
     0
 45
0.0
  0
VISUALSTYLE
  5
8BF
102
{ACAD_REACTORS
330
267
102
}
330
267
100
AcDbVisualStyle
  2
X-Ray
 70
    25
 71
     2
 72
     2
 73
     1
 90
        1
 40
0.5
 41
30.0
 62
     5
 63
     7
421
 16777215
 74
     1
 91
        0
 64
     7
 65
   257
 75
     1
175
     1
 42
1.0
 92
        8
 66
     7
 43
1.0
 76
     1
 77
     6
 78
     2
 67
     7
 79
     3
170
     0
171
     0
290
     0
174
     0
 93
       13
 44
0.0
173
     0
291
     0
 45
0.0
  0
DICTIONARYVAR
  5
331
102
{ACAD_REACTORS
330
330
102
}
330
330
100
DictionaryVariables
280
     0
  1
1:1
  0
DICTIONARYVAR
  5
8DA
102
{ACAD_REACTORS
330
330
102
}
330
330
100
DictionaryVariables
280
     0
  1
Standard
  0
DICTIONARYVAR
  5
335
102
{ACAD_REACTORS
330
330
102
}
330
330
100
DictionaryVariables
280
     0
  1
Standard
  0
DICTIONARYVAR
  5
C07
102
{ACAD_REACTORS
330
330
102
}
330
330
100
DictionaryVariables
280
     0
  1
ByLayer
  0
DICTIONARYVAR
  5
64A
102
{ACAD_REACTORS
330
330
102
}
330
330
100
DictionaryVariables
280
     0
  1
0
  0
DICTIONARYVAR
  5
C0B
102
{ACAD_REACTORS
330
C08
102
}
330
C08
100
DictionaryVariables
280
     0
  1
0.261799
  0
DICTIONARYVAR
  5
C09
102
{ACAD_REACTORS
330
C08
102
}
330
C08
100
DictionaryVariables
280
     0
  1
0.400000
  0
DICTIONARYVAR
  5
C0A
102
{ACAD_REACTORS
330
C08
102
}
330
C08
100
DictionaryVariables
280
     0
  1
0.250000
  0
DICTIONARYVAR
  5
C0C
102
{ACAD_REACTORS
330
C08
102
}
330
C08
100
DictionaryVariables
280
     0
  1
1
  0
XRECORD
  5
870
102
{ACAD_REACTORS
330
2E2
102
}
330
2E2
100
AcDbXrecord
280
     1
 91
     1023
301

290
     0
302
MODEL
330
14
 90
        8
 62
     7
370
    -3
331
13
  1
Color_7
330
4A
 90
        0
 62
     7
370
     9
331
13
  1
Color_7
330
4B
 90
        8
 62
     7
370
    -3
331
13
  1
Color_7
330
0
 90
        8
 62
     7
370
    -3
331
13
  1
Color_7
330
4D
 90
        9
 62
     7
370
    -3
331
13
  1
Color_7
330
382
 90
        8
 62
     7
370
    -3
331
13
  1
Color_7
330
5C4
 90
        8
 62
     7
370
     9
331
0
  1
Color_7
330
5EB
 90
        8
 62
     7
370
     9
331
13
  1
Color_7
330
0
 90
        8
 62
     7
370
    -3
331
13
  1
Color_7
  0
FIELD
  5
BDE
102
{ACAD_REACTORS
330
BE4
102
}
330
BE4
100
AcDbField
  1
_text
  2
{%<\_FldIdx 0>%N}
 90
        1
360
BDF
 97
        0
 91
       63
 92
        0
 94
        8
 95
        2
 96
        0
300

 93
        1
  6
ACFD_FIELDTEXT_CHECKSUM
 93
        2
 90
        2
140
4513.0
 94
        0
300

302

304
ACVALUE_END
  7
ACFD_FIELD_VALUE
 93
        6
 90
        4
  1
{20161027N}
 94
        0
300

302

304
ACVALUE_END
301
{20161027N}
 98
       11
  0
DICTIONARY
  5
255F
330
279
100
AcDbDictionary
280
     1
281
     1
  3
ACAD_ROUNDTRIP_2008_TABLESTYLE_CELLSTYLEMAP
360
2560
  0
FIELD
  5
BDF
330
BDE
100
AcDbField
  1
AcVar
  2
\AcVar Date \f "yyyyMMdd"
 90
        0
 97
        0
 91
       63
 92
        0
 94
        8
 95
        2
 96
        0
300

 93
        1
  6
Variable
 93
        2
 90
        4
  1
Date
 94
        0
300

302

304
ACVALUE_END
  7
ACFD_FIELD_VALUE
 93
        6
 90
        8
 92
       16
310
E0070A0000001B000600040029000000
 94
        0
300
yyyyMMdd
302

304
ACVALUE_END
301
20161027
 98
        8
  0
CELLSTYLEMAP
  5
2560
102
{ACAD_REACTORS
330
255F
102
}
330
255F
100
AcDbCellStyleMap
 90
        3
300
CELLSTYLE
  1
TABLEFORMAT_BEGIN
 90
        5
170
     1
 91
        0
 92
    32768
 62
   257
 93
        1
300
CONTENTFORMAT
  1
CONTENTFORMAT_BEGIN
 90
        0
 91
        0
 92
        4
 93
        0
300

 40
0.0
140
1.0
 94
        5
 62
     0
340
17
144
6.0
309
CONTENTFORMAT_END
171
     1
301
MARGIN
  1
CELLMARGIN_BEGIN
 40
0.06
 40
0.06
 40
0.06
 40
0.06
 40
0.18
 40
0.18
309
CELLMARGIN_END
 94
        6
 95
        1
302
GRIDFORMAT
  1
GRIDFORMAT_BEGIN
 90
        0
 91
        1
 62
     0
 92
       -2
340
0
 93
        0
 40
0.045
309
GRIDFORMAT_END
 95
        2
302
GRIDFORMAT
  1
GRIDFORMAT_BEGIN
 90
        0
 91
        1
 62
     0
 92
       -2
340
0
 93
        0
 40
0.045
309
GRIDFORMAT_END
 95
        4
302
GRIDFORMAT
  1
GRIDFORMAT_BEGIN
 90
        0
 91
        1
 62
     0
 92
       -2
340
0
 93
        0
 40
0.045
309
GRIDFORMAT_END
 95
        8
302
GRIDFORMAT
  1
GRIDFORMAT_BEGIN
 90
        0
 91
        1
 62
     0
 92
       -2
340
0
 93
        0
 40
0.045
309
GRIDFORMAT_END
 95
       16
302
GRIDFORMAT
  1
GRIDFORMAT_BEGIN
 90
        0
 91
        1
 62
     0
 92
       -2
340
0
 93
        0
 40
0.045
309
GRIDFORMAT_END
 95
       32
302
GRIDFORMAT
  1
GRIDFORMAT_BEGIN
 90
        0
 91
        1
 62
     0
 92
       -2
340
0
 93
        0
 40
0.045
309
GRIDFORMAT_END
309
TABLEFORMAT_END
  1
CELLSTYLE_BEGIN
 90
        1
 91
        1
300
_TITLE
309
CELLSTYLE_END
300
CELLSTYLE
  1
TABLEFORMAT_BEGIN
 90
        5
170
     1
 91
        0
 92
        0
 62
   257
 93
        1
300
CONTENTFORMAT
  1
CONTENTFORMAT_BEGIN
 90
        0
 91
        0
 92
        4
 93
        0
300

 40
0.0
140
1.0
 94
        5
 62
     0
340
17
144
4.5
309
CONTENTFORMAT_END
171
     1
301
MARGIN
  1
CELLMARGIN_BEGIN
 40
0.06
 40
0.06
 40
0.06
 40
0.06
 40
0.18
 40
0.18
309
CELLMARGIN_END
 94
        6
 95
        1
302
GRIDFORMAT
  1
GRIDFORMAT_BEGIN
 90
        0
 91
        1
 62
     0
 92
       -2
340
0
 93
        0
 40
0.045
309
GRIDFORMAT_END
 95
        2
302
GRIDFORMAT
  1
GRIDFORMAT_BEGIN
 90
        0
 91
        1
 62
     0
 92
       -2
340
0
 93
        0
 40
0.045
309
GRIDFORMAT_END
 95
        4
302
GRIDFORMAT
  1
GRIDFORMAT_BEGIN
 90
        0
 91
        1
 62
     0
 92
       -2
340
0
 93
        0
 40
0.045
309
GRIDFORMAT_END
 95
        8
302
GRIDFORMAT
  1
GRIDFORMAT_BEGIN
 90
        0
 91
        1
 62
     0
 92
       -2
340
0
 93
        0
 40
0.045
309
GRIDFORMAT_END
 95
       16
302
GRIDFORMAT
  1
GRIDFORMAT_BEGIN
 90
        0
 91
        1
 62
     0
 92
       -2
340
0
 93
        0
 40
0.045
309
GRIDFORMAT_END
 95
       32
302
GRIDFORMAT
  1
GRIDFORMAT_BEGIN
 90
        0
 91
        1
 62
     0
 92
       -2
340
0
 93
        0
 40
0.045
309
GRIDFORMAT_END
309
TABLEFORMAT_END
  1
CELLSTYLE_BEGIN
 90
        2
 91
        1
300
_HEADER
309
CELLSTYLE_END
300
CELLSTYLE
  1
TABLEFORMAT_BEGIN
 90
        5
170
     1
 91
        0
 92
        0
 62
   257
 93
        1
300
CONTENTFORMAT
  1
CONTENTFORMAT_BEGIN
 90
        0
 91
        0
 92
        4
 93
        0
300

 40
0.0
140
1.0
 94
        2
 62
     0
340
17
144
4.5
309
CONTENTFORMAT_END
171
     1
301
MARGIN
  1
CELLMARGIN_BEGIN
 40
0.06
 40
0.06
 40
0.06
 40
0.06
 40
0.18
 40
0.18
309
CELLMARGIN_END
 94
        6
 95
        1
302
GRIDFORMAT
  1
GRIDFORMAT_BEGIN
 90
        0
 91
        1
 62
     0
 92
       -2
340
0
 93
        0
 40
0.045
309
GRIDFORMAT_END
 95
        2
302
GRIDFORMAT
  1
GRIDFORMAT_BEGIN
 90
        0
 91
        1
 62
     0
 92
       -2
340
0
 93
        0
 40
0.045
309
GRIDFORMAT_END
 95
        4
302
GRIDFORMAT
  1
GRIDFORMAT_BEGIN
 90
        0
 91
        1
 62
     0
 92
       -2
340
0
 93
        0
 40
0.045
309
GRIDFORMAT_END
 95
        8
302
GRIDFORMAT
  1
GRIDFORMAT_BEGIN
 90
        0
 91
        1
 62
     0
 92
       -2
340
0
 93
        0
 40
0.045
309
GRIDFORMAT_END
 95
       16
302
GRIDFORMAT
  1
GRIDFORMAT_BEGIN
 90
        0
 91
        1
 62
     0
 92
       -2
340
0
 93
        0
 40
0.045
309
GRIDFORMAT_END
 95
       32
302
GRIDFORMAT
  1
GRIDFORMAT_BEGIN
 90
        0
 91
        1
 62
     0
 92
       -2
340
0
 93
        0
 40
0.045
309
GRIDFORMAT_END
309
TABLEFORMAT_END
  1
CELLSTYLE_BEGIN
 90
        3
 91
        2
300
_DATA
309
CELLSTYLE_END
  0
ENDSEC
  0
EOF
