  0
SECTION
  2
HEADER
  9
$ACADVER
  1
AC1021
  9
$ACADMAINTVER
 70
    25
  9
$DWGCODEPAGE
  3
ANSI_932
  9
$LASTSAVEDBY
  1
howeNelson
  9
$INSBASE
 10
0.0
 20
0.0
 30
0.0
  9
$EXTMIN
 10
0.0
 20
0.0
 30
0.0
  9
$EXTMAX
 10
2100.0
 20
2970.0
 30
0.0
  9
$LIMMIN
 10
0.0
 20
0.0
  9
$LIMMAX
 10
2100.0
 20
2970.0
  9
$ORTHOMODE
 70
     0
  9
$REGENMODE
 70
     1
  9
$FILLMODE
 70
     1
  9
$QTEXTMODE
 70
     0
  9
$MIRRTEXT
 70
     1
  9
$LTSCALE
 40
5.0
  9
$ATTMODE
 70
     1
  9
$TEXTSIZE
 40
533.0403732820173
  9
$TRACEWID
 40
1.0
  9
$TEXTSTYLE
  7
Standard
  9
$CLAYER
  8
Dim
  9
$CELTYPE
  6
Continuous
  9
$CECOLOR
 62
   256
  9
$CELTSCALE
 40
1.0
  9
$DISPSILH
 70
     0
  9
$DIMSCALE
 40
1.0
  9
$DIMASZ
 40
9.0
  9
$DIMEXO
 40
25.0
  9
$DIMDLI
 40
25.0
  9
$DIMRND
 40
0.0
  9
$DIMDLE
 40
0.0
  9
$DIMEXE
 40
0.0
  9
$DIMTP
 40
0.0
  9
$DIMTM
 40
0.0
  9
$DIMTXT
 40
24.4326171875
  9
$DIMCEN
 40
0.0
  9
$DIMTSZ
 40
0.0
  9
$DIMTOL
 70
     0
  9
$DIMLIM
 70
     0
  9
$DIMTIH
 70
     0
  9
$DIMTOH
 70
     0
  9
$DIMSE1
 70
     0
  9
$DIMSE2
 70
     0
  9
$DIMTAD
 70
     1
  9
$DIMZIN
 70
    11
  9
$DIMBLK
  1
DOT
  9
$DIMASO
 70
     1
  9
$DIMSHO
 70
     1
  9
$DIMPOST
  1
<>
  9
$DIMAPOST
  1
[]
  9
$DIMALT
 70
     0
  9
$DIMALTD
 70
     1
  9
$DIMALTF
 40
1.0
  9
$DIMLFAC
 40
1.0
  9
$DIMTOFL
 70
     0
  9
$DIMTVP
 40
0.0
  9
$DIMTIX
 70
     1
  9
$DIMSOXD
 70
     0
  9
$DIMSAH
 70
     0
  9
$DIMBLK1
  1

  9
$DIMBLK2
  1

  9
$DIMSTYLE
  2
JIS
  9
$DIMCLRD
 70
     0
  9
$DIMCLRE
 70
     0
  9
$DIMCLRT
 70
     0
  9
$DIMTFAC
 40
1.0
  9
$DIMGAP
 40
10.0
  9
$DIMJUST
 70
     0
  9
$DIMSD1
 70
     0
  9
$DIMSD2
 70
     0
  9
$DIMTOLJ
 70
     1
  9
$DIMTZIN
 70
    11
  9
$DIMALTZ
 70
    11
  9
$DIMALTTZ
 70
    11
  9
$DIMUPT
 70
     0
  9
$DIMDEC
 70
     0
  9
$DIMTDEC
 70
     1
  9
$DIMALTU
 70
     2
  9
$DIMALTTD
 70
     2
  9
$DIMTXSTY
  7
ＭＳ ゴシック
  9
$DIMAUNIT
 70
     0
  9
$DIMADEC
 70
     0
  9
$DIMALTRND
 40
0.0
  9
$DIMAZIN
 70
     0
  9
$DIMDSEP
 70
    46
  9
$DIMATFIT
 70
     0
  9
$DIMFRAC
 70
     2
  9
$DIMLDRBLK
  1
DOT
  9
$DIMLUNIT
 70
     2
  9
$DIMLWD
 70
    -2
  9
$DIMLWE
 70
    -2
  9
$DIMTMOVE
 70
     0
  9
$DIMFXL
 40
1.0
  9
$DIMFXLON
 70
     0
  9
$DIMJOGANG
 40
0.7853981633974483
  9
$DIMTFILL
 70
     0
  9
$DIMTFILLCLR
 70
     0
  9
$DIMARCSYM
 70
     0
  9
$DIMLTYPE
  6

  9
$DIMLTEX1
  6

  9
$DIMLTEX2
  6

  9
$LUNITS
 70
     2
  9
$LUPREC
 70
     0
  9
$SKETCHINC
 40
0.1
  9
$FILLETRAD
 40
0.0
  9
$AUNITS
 70
     0
  9
$AUPREC
 70
     0
  9
$MENU
  1
acad
  9
$ELEVATION
 40
0.0
  9
$PELEVATION
 40
0.0
  9
$THICKNESS
 40
0.0
  9
$LIMCHECK
 70
     0
  9
$CHAMFERA
 40
0.0
  9
$CHAMFERB
 40
0.0
  9
$CHAMFERC
 40
0.0
  9
$CHAMFERD
 40
0.0
  9
$SKPOLY
 70
     0
  9
$TDCREATE
 40
2447893.375
  9
$TDUCREATE
 40
0.0
  9
$TDUPDATE
 40
2457681.556999051
  9
$TDUUPDATE
 40
2457681.181999051
  9
$TDINDWG
 40
0.196065162
  9
$TDUSRTIMER
 40
2457681.180502384
  9
$USRTIMER
 70
     1
  9
$ANGBASE
 50
0.0
  9
$ANGDIR
 70
     0
  9
$PDMODE
 70
     1
  9
$PDSIZE
 40
-2.0
  9
$PLINEWID
 40
0.0
  9
$SPLFRAME
 70
     0
  9
$SPLINETYPE
 70
     6
  9
$SPLINESEGS
 70
     8
  9
$HANDSEED
  5
1F0A
  9
$SURFTAB1
 70
     6
  9
$SURFTAB2
 70
     6
  9
$SURFTYPE
 70
     6
  9
$SURFU
 70
     6
  9
$SURFV
 70
     6
  9
$UCSBASE
  2

  9
$UCSNAME
  2

  9
$UCSORG
 10
0.0
 20
0.0
 30
0.0
  9
$UCSXDIR
 10
1.0
 20
0.0
 30
0.0
  9
$UCSYDIR
 10
0.0
 20
1.0
 30
0.0
  9
$UCSORTHOREF
  2

  9
$UCSORTHOVIEW
 70
     0
  9
$UCSORGTOP
 10
0.0
 20
0.0
 30
0.0
  9
$UCSORGBOTTOM
 10
0.0
 20
0.0
 30
0.0
  9
$UCSORGLEFT
 10
0.0
 20
0.0
 30
0.0
  9
$UCSORGRIGHT
 10
0.0
 20
0.0
 30
0.0
  9
$UCSORGFRONT
 10
0.0
 20
0.0
 30
0.0
  9
$UCSORGBACK
 10
0.0
 20
0.0
 30
0.0
  9
$PUCSBASE
  2

  9
$PUCSNAME
  2

  9
$PUCSORG
 10
0.0
 20
0.0
 30
0.0
  9
$PUCSXDIR
 10
1.0
 20
0.0
 30
0.0
  9
$PUCSYDIR
 10
0.0
 20
1.0
 30
0.0
  9
$PUCSORTHOREF
  2

  9
$PUCSORTHOVIEW
 70
     0
  9
$PUCSORGTOP
 10
0.0
 20
0.0
 30
0.0
  9
$PUCSORGBOTTOM
 10
0.0
 20
0.0
 30
0.0
  9
$PUCSORGLEFT
 10
0.0
 20
0.0
 30
0.0
  9
$PUCSORGRIGHT
 10
0.0
 20
0.0
 30
0.0
  9
$PUCSORGFRONT
 10
0.0
 20
0.0
 30
0.0
  9
$PUCSORGBACK
 10
0.0
 20
0.0
 30
0.0
  9
$USERI1
 70
     0
  9
$USERI2
 70
     0
  9
$USERI3
 70
     0
  9
$USERI4
 70
     0
  9
$USERI5
 70
     0
  9
$USERR1
 40
0.0
  9
$USERR2
 40
0.0
  9
$USERR3
 40
0.0
  9
$USERR4
 40
0.0
  9
$USERR5
 40
0.0
  9
$WORLDVIEW
 70
     1
  9
$SHADEDGE
 70
     3
  9
$SHADEDIF
 70
    70
  9
$TILEMODE
 70
     1
  9
$MAXACTVP
 70
    64
  9
$PINSBASE
 10
0.0
 20
0.0
 30
0.0
  9
$PLIMCHECK
 70
     0
  9
$PEXTMIN
 10
0.0
 20
0.0
 30
0.0
  9
$PEXTMAX
 10
0.0
 20
0.0
 30
0.0
  9
$PLIMMIN
 10
-95.87226993865028
 20
-25.69999999999999
  9
$PLIMMAX
 10
201.1277300613497
 20
184.3
  9
$UNITMODE
 70
     0
  9
$VISRETAIN
 70
     0
  9
$PLINEGEN
 70
     1
  9
$PSLTSCALE
 70
     0
  9
$TREEDEPTH
 70
  3020
  9
$CMLSTYLE
  2
Standard
  9
$CMLJUST
 70
     0
  9
$CMLSCALE
 40
1.0
  9
$PROXYGRAPHICS
 70
     0
  9
$MEASUREMENT
 70
     1
  9
$CELWEIGHT
370
    -1
  9
$ENDCAPS
280
     0
  9
$JOINSTYLE
280
     0
  9
$LWDISPLAY
290
     1
  9
$INSUNITS
 70
     4
  9
$HYPERLINKBASE
  1

  9
$STYLESHEET
  1

  9
$XEDIT
290
     1
  9
$CEPSNTYPE
380
     0
  9
$PSTYLEMODE
290
     1
  9
$FINGERPRINTGUID
  2

  9
$VERSIONGUID
  2

  9
$EXTNAMES
290
     1
  9
$PSVPSCALE
 40
0.0
  9
$OLESTARTUP
290
     0
  9
$SORTENTS
280
   127
  9
$INDEXCTL
280
     0
  9
$HIDETEXT
280
     1
  9
$XCLIPFRAME
290
     0
  9
$HALOGAP
280
     0
  9
$OBSCOLOR
 70
   257
  9
$OBSLTYPE
280
     0
  9
$INTERSECTIONDISPLAY
280
     0
  9
$INTERSECTIONCOLOR
 70
   257
  9
$DIMASSOC
280
     2
  9
$PROJECTNAME
  1

  9
$CAMERADISPLAY
290
     0
  9
$LENSLENGTH
 40
50.0
  9
$CAMERAHEIGHT
 40
0.0
  9
$STEPSPERSEC
 40
2.0
  9
$STEPSIZE
 40
6.0
  9
$3DDWFPREC
 40
2.0
  9
$PSOLWIDTH
 40
0.25
  9
$PSOLHEIGHT
 40
4.0
  9
$LOFTANG1
 40
1.570796326794897
  9
$LOFTANG2
 40
1.570796326794897
  9
$LOFTMAG1
 40
0.0
  9
$LOFTMAG2
 40
0.0
  9
$LOFTPARAM
 70
     7
  9
$LOFTNORMALS
280
     1
  9
$LATITUDE
 40
37.795
  9
$LONGITUDE
 40
-122.394
  9
$NORTHDIRECTION
 40
0.0
  9
$TIMEZONE
 70
 -8000
  9
$LIGHTGLYPHDISPLAY
280
     1
  9
$TILEMODELIGHTSYNCH
280
     1
  9
$SOLIDHIST
280
     1
  9
$SHOWHIST
280
     1
  9
$DWFFRAME
280
     2
  9
$DGNFRAME
280
     2
  9
$REALWORLDSCALE
290
     1
  9
$INTERFERECOLOR
 62
   256
  9
$CSHADOW
280
     0
  9
$SHADOWPLANELOCATION
 40
0.0
  0
ENDSEC
  0
SECTION
  2
CLASSES
  0
CLASS
  1
LWPOLYLINE
  2
AcDbPolyline
  3
ObjectDBX Classes
 90
        0
 91
        1
280
     0
281
     1
  0
CLASS
  1
IMAGE
  2
AcDbRasterImage
  3
ISM
 90
      127
 91
        6
280
     0
281
     1
  0
CLASS
  1
OLE2FRAME
  2
AcDbOle2Frame
  3
ObjectDBX Classes
 90
        0
 91
        1
280
     0
281
     1
  0
CLASS
  1
HATCH
  2
AcDbHatch
  3
ObjectDBX Classes
 90
        0
 91
        1
280
     0
281
     1
  0
CLASS
  1
DICTIONARYVAR
  2
AcDbDictionaryVar
  3
ObjectDBX Classes
 90
        0
 91
        5
280
     0
281
     0
  0
CLASS
  1
RASTERVARIABLES
  2
AcDbRasterVariables
  3
ISM
 90
        0
 91
        5
280
     0
281
     0
  0
CLASS
  1
IMAGEDEF
  2
AcDbRasterImageDef
  3
ISM
 90
        0
 91
        5
280
     0
281
     0
  0
CLASS
  1
IMAGEDEF_REACTOR
  2
AcDbRasterImageDefReactor
  3
ISM
 90
        1
 91
        5
280
     0
281
     0
  0
CLASS
  1
IDBUFFER
  2
AcDbIdBuffer
  3
ObjectDBX Classes
 90
        0
 91
        5
280
     0
281
     0
  0
CLASS
  1
SPATIAL_FILTER
  2
AcDbSpatialFilter
  3
ObjectDBX Classes
 90
        0
 91
        5
280
     0
281
     0
  0
CLASS
  1
XRECORD
  2
AcDbXrecord
  3
ObjectDBX Classes
 90
        0
 91
        1
280
     0
281
     0
  0
CLASS
  1
SORTENTSTABLE
  2
AcDbSortentsTable
  3
ObjectDBX Classes
 90
        0
 91
        5
280
     0
281
     0
  0
CLASS
  1
LAYER_INDEX
  2
AcDbLayerIndex
  3
ObjectDBX Classes
 90
        0
 91
        5
280
     0
281
     0
  0
CLASS
  1
SPATIAL_INDEX
  2
AcDbSpatialIndex
  3
AutoCAD 2000
 90
        0
 91
        5
280
     0
281
     0
  0
CLASS
  1
OBJECT_PTR
  2
CAseDLPNTableRecord
  3
ASE-LPNTableRecord
 90
        1
 91
        5
280
     0
281
     0
  0
CLASS
  1
LAYOUT
  2
AcDbLayout
  3
ObjectDBX Classes
 90
        0
 91
        1
280
     0
281
     0
  0
CLASS
  1
PLOTSETTINGS
  2
AcDbPlotSettings
  3
ObjectDBX Classes
 90
        0
 91
        5
280
     0
281
     0
  0
CLASS
  1
ACDBDICTIONARYWDFLT
  2
AcDbDictionaryWithDefault
  3
ObjectDBX Classes
 90
        0
 91
        5
280
     0
281
     0
  0
CLASS
  1
ACDBPLACEHOLDER
  2
AcDbPlaceHolder
  3
ObjectDBX Classes
 90
        0
 91
        1
280
     0
281
     0
  0
CLASS
  1
SCALE
  2
AcDbScale
  3
ObjectDBX Classes
 90
     1153
 91
        5
280
     0
281
     0
  0
CLASS
  1
MATERIAL
  2
AcDbMaterial
  3
ObjectDBX Classes
 90
     1153
 91
        5
280
     0
281
     0
  0
CLASS
  1
VISUALSTYLE
  2
AcDbVisualStyle
  3
ObjectDBX Classes
 90
     4095
 91
        5
280
     0
281
     0
  0
CLASS
  1
TABLESTYLE
  2
AcDbTableStyle
  3
ObjectDBX Classes
 90
     4095
 91
        5
280
     0
281
     0
  0
CLASS
  1
DIMASSOC
  2
AcDbDimAssoc
  3
"AcDbDimAssoc|Product Desc:     AcDim ARX App For Dimension|Company:          Autodesk, Inc.|WEB Address:      www.autodesk.com"
 90
        0
 91
        5
280
     0
281
     0
  0
CLASS
  1
CELLSTYLEMAP
  2
AcDbCellStyleMap
  3
ObjectDBX Classes
 90
     1152
 91
        5
280
     0
281
     0
  0
CLASS
  1
SUN
  2
AcDbSun
  3
SCENEOE
 90
     1153
 91
        5
280
     0
281
     0
  0
CLASS
  1
MLEADERSTYLE
  2
AcDbMLeaderStyle
  3
ACDB_MLEADERSTYLE_CLASS
 90
     4095
 91
        5
280
     0
281
     0
  0
CLASS
  1
FIELD
  2
AcDbField
  3
ObjectDBX Classes
 90
     1152
 91
        5
280
     0
281
     0
  0
CLASS
  1
FIELDLIST
  2
AcDbFieldList
  3
ObjectDBX Classes
 90
     1152
 91
        5
280
     0
281
     0
  0
ENDSEC
  0
SECTION
  2
TABLES
  0
TABLE
  2
VPORT
  5
7
330
0
100
AcDbSymbolTable
 70
     1
  0
VPORT
  5
15
330
7
100
AcDbSymbolTableRecord
100
AcDbViewportTableRecord
  2
*ACTIVE
 70
     0
 10
0.0
 20
0.0
 11
1.0
 21
1.0
 12
672.9525617540357
 22
1782.612370234518
 13
0.0
 23
0.0
 14
1.0
 24
1.0
 15
0.0
 25
0.0
 16
0.0
 26
0.0
 36
1.0
 17
377.0474382459643
 27
-297.612370234518
 37
0.0
 40
3029.4
 41
2.255405405405405
 42
50.0
 43
0.0
 44
0.0
 50
0.0
 51
0.0
 71
    16
 72
  2000
 73
     1
 74
     1
 75
     0
 76
     0
 77
     0
 78
     0
281
     0
 65
     1
110
0.0
120
0.0
130
0.0
111
1.0
121
0.0
131
0.0
112
0.0
122
1.0
132
0.0
 79
     0
146
0.0
348
26C
 60
     3
 61
     5
292
     1
282
     1
141
0.0
142
0.0
 63
   256
361
8C2
  0
ENDTAB
  0
TABLE
  2
LTYPE
  5
4
330
0
100
AcDbSymbolTable
 70
     6
  0
LTYPE
  5
11
330
4
100
AcDbSymbolTableRecord
100
AcDbLinetypeTableRecord
  2
ByBlock
 70
     0
  3

 72
    65
 73
     0
 40
0.0
  0
LTYPE
  5
12
330
4
100
AcDbSymbolTableRecord
100
AcDbLinetypeTableRecord
  2
ByLayer
 70
     0
  3

 72
    65
 73
     0
 40
0.0
  0
LTYPE
  5
13
330
4
100
AcDbSymbolTableRecord
100
AcDbLinetypeTableRecord
  2
Continuous
 70
     0
  3
Solid line
 72
    65
 73
     0
 40
0.0
  0
LTYPE
  5
8D4
330
4
100
AcDbSymbolTableRecord
100
AcDbLinetypeTableRecord
  2
HIDDEN
 70
     0
  3
Hidden _ _ _ _ _ _ _ _ _ _ _ _ _ _ _ _ _ _ _ _ 
 72
    65
 73
     2
 40
9.524999999999999
 49
6.35
 74
     0
 49
-3.175
 74
     0
  0
LTYPE
  5
BF2
330
4
100
AcDbSymbolTableRecord
100
AcDbLinetypeTableRecord
  2
BORDER
 70
     0
  3
Border __  __  . __  __  . __  __  . __  __  . 
 72
    65
 73
     6
 40
44.45
 49
12.7
 74
     0
 49
-6.35
 74
     0
 49
12.7
 74
     0
 49
-6.35
 74
     0
 49
0.0
 74
     0
 49
-6.35
 74
     0
  0
LTYPE
  5
1AFE
330
4
100
AcDbSymbolTableRecord
100
AcDbLinetypeTableRecord
  2
ACDINTGL
 70
     0
  3
_ _ _ _ _
 72
    65
 73
     2
 40
3.0
 49
2.0
 74
     0
 49
-1.0
 74
     0
  0
LTYPE
  5
1AFF
330
4
100
AcDbSymbolTableRecord
100
AcDbLinetypeTableRecord
  2
STYLE_11
 70
     0
  3

 72
    65
 73
     4
 40
2.706692913385826
 49
1.919291338582677
 74
     0
 49
-0.2952755905511811
 74
     0
 49
0.1968503937007873
 74
     0
 49
-0.2952755905511808
 74
     0
  0
LTYPE
  5
1C71
330
4
100
AcDbSymbolTableRecord
100
AcDbLinetypeTableRecord
  2
AM_DIN_G_W050
 70
     0
  3
____ . ____ . ____ . ____ . ____ . ____ . ____
 72
    65
 73
     4
 40
13.75
 49
9.75
 74
     0
 49
-1.5
 74
     0
 49
1.0
 74
     0
 49
-1.5
 74
     0
  0
ENDTAB
  0
TABLE
  2
LAYER
  5
2
102
{ACAD_XDICTIONARY
360
2E1
102
}
330
0
100
AcDbSymbolTable
 70
     8
  0
LAYER
  5
14
330
2
100
AcDbSymbolTableRecord
100
AcDbLayerTableRecord
  2
0
 70
     0
 62
     7
  6
Continuous
370
    -3
390
1D
347
266
  0
LAYER
  5
4A
330
2
100
AcDbSymbolTableRecord
100
AcDbLayerTableRecord
  2
Defpoints
 70
     0
 62
     7
  6
Continuous
290
     0
370
    20
390
1D
347
266
  0
LAYER
  5
4B
330
2
100
AcDbSymbolTableRecord
100
AcDbLayerTableRecord
  2
template
 70
     0
 62
     7
  6
Continuous
370
    20
390
1D
347
266
  0
LAYER
  5
4D
330
2
100
AcDbSymbolTableRecord
100
AcDbLayerTableRecord
  2
MODEL
 70
     0
 62
     7
  6
Continuous
370
    20
390
1D
347
266
  0
LAYER
  5
382
330
2
100
AcDbSymbolTableRecord
100
AcDbLayerTableRecord
  2
レイヤー 1
 70
     0
 62
     7
  6
Continuous
370
    -3
390
1D
347
266
  0
LAYER
  5
5C4
330
2
100
AcDbSymbolTableRecord
100
AcDbLayerTableRecord
  2
HIDDEN
 70
     0
 62
   253
  6
HIDDEN
370
    20
390
1D
347
266
1001
AcAecLayerStandard
1000

1000

  0
LAYER
  5
5EB
330
2
100
AcDbSymbolTableRecord
100
AcDbLayerTableRecord
  2
Dim
 70
     0
 62
     3
  6
Continuous
370
    13
390
1D
347
266
1001
AcAecLayerStandard
1000

1000

  0
LAYER
  5
BF1
330
2
100
AcDbSymbolTableRecord
100
AcDbLayerTableRecord
  2
PRINT BORDER
 70
     0
 62
     4
  6
BORDER
290
     0
370
    20
390
1D
347
266
1001
AcAecLayerStandard
1000

1000

  0
ENDTAB
  0
TABLE
  2
STYLE
  5
3
330
0
100
AcDbSymbolTable
 70
     2
  0
STYLE
  5
17
330
3
100
AcDbSymbolTableRecord
100
AcDbTextStyleTableRecord
  2
Standard
 70
     0
 40
0.0
 41
1.0
 50
0.0
 71
     0
 42
533.0403732820173
  3
txt
  4
BIGFONT.SHX
  0
STYLE
  5
39
330
3
100
AcDbSymbolTableRecord
100
AcDbTextStyleTableRecord
  2
ＭＳ ゴシック
 70
     0
 40
0.0
 41
1.0
 50
0.0
 71
     0
 42
2.5
  3
msgothic.ttc
  4
ＭＳ ゴシック
1001
ACAD
1000
ＭＳ ゴシック
1071
        0
  0
ENDTAB
  0
TABLE
  2
VIEW
  5
5
330
0
100
AcDbSymbolTable
 70
     0
  0
ENDTAB
  0
TABLE
  2
UCS
  5
6
330
0
100
AcDbSymbolTable
 70
     0
  0
ENDTAB
  0
TABLE
  2
APPID
  5
8
330
0
100
AcDbSymbolTable
 70
    13
  0
APPID
  5
16
330
8
100
AcDbSymbolTableRecord
100
AcDbRegAppTableRecord
  2
ACAD
 70
     0
  0
APPID
  5
5C5
330
8
100
AcDbSymbolTableRecord
100
AcDbRegAppTableRecord
  2
AcAecLayerStandard
 70
     0
  0
APPID
  5
913
330
8
100
AcDbSymbolTableRecord
100
AcDbRegAppTableRecord
  2
ACAD_DSTYLE_DIMBREAK
 70
     0
  0
APPID
  5
914
330
8
100
AcDbSymbolTableRecord
100
AcDbRegAppTableRecord
  2
ACAD_DSTYLE_DIMJAG
 70
     0
  0
APPID
  5
915
330
8
100
AcDbSymbolTableRecord
100
AcDbRegAppTableRecord
  2
ACAD_DSTYLE_DIMTALN
 70
     0
  0
APPID
  5
E4F
330
8
100
AcDbSymbolTableRecord
100
AcDbRegAppTableRecord
  2
ACAD_MLEADERVER
 70
     0
  0
APPID
  5
E79
330
8
100
AcDbSymbolTableRecord
100
AcDbRegAppTableRecord
  2
ACAD_PSEXT
 70
     0
  0
APPID
  5
E7A
330
8
100
AcDbSymbolTableRecord
100
AcDbRegAppTableRecord
  2
ACAD_NAV_VCDISPLAY
 70
     0
  0
APPID
  5
166E
330
8
100
AcDbSymbolTableRecord
100
AcDbRegAppTableRecord
  2
AcadAnnotative
 70
     0
  0
APPID
  5
166F
330
8
100
AcDbSymbolTableRecord
100
AcDbRegAppTableRecord
  2
GradientColor1ACI
 70
     0
  0
APPID
  5
1670
330
8
100
AcDbSymbolTableRecord
100
AcDbRegAppTableRecord
  2
GradientColor2ACI
 70
     0
  0
APPID
  5
1B02
330
8
100
AcDbSymbolTableRecord
100
AcDbRegAppTableRecord
  2
GENIUS_GENODEF_13
 70
     0
  0
APPID
  5
1B03
330
8
100
AcDbSymbolTableRecord
100
AcDbRegAppTableRecord
  2
GENIUS_GENOBJ-N-FIL_13
 70
     0
  0
ENDTAB
  0
TABLE
  2
DIMSTYLE
  5
9
330
0
100
AcDbSymbolTable
 70
     3
100
AcDbDimStyleTable
  0
DIMSTYLE
105
18
330
9
100
AcDbSymbolTableRecord
100
AcDbDimStyleTableRecord
  2
Standard
 70
     0
178
     0
340
17
  0
DIMSTYLE
105
5C
102
{ACAD_REACTORS
330
1D60
330
1D6D
330
1D7D
330
1D91
330
1D9E
330
1DAE
330
1DC9
330
1DDA
330
1DEA
330
1DFA
330
1E16
330
1E25
330
1E32
330
1E3F
330
1EEE
102
}
330
9
100
AcDbSymbolTableRecord
100
AcDbDimStyleTableRecord
  2
JIS
 70
     0
  3
<>
  4
[]
 41
9.0
 42
0.0
 43
6.99999999999994
 44
19.9999999999962
 73
     0
 74
     0
 77
     1
 78
    11
140
24.4326171875
141
0.0
143
1.0
147
10.0
171
     1
174
     1
178
     0
179
     2
271
     1
272
     1
276
     2
284
    11
285
    11
286
    11
289
     0
340
39
341
4E
342
4E
  0
DIMSTYLE
105
1B00
330
9
100
AcDbSymbolTableRecord
100
AcDbDimStyleTableRecord
  2
AM_DIN
 70
     0
  4
"
 41
3.5
 42
1.0
 43
10.0
 44
1.0
 47
0.1
 48
0.1
 50
89.99999999999996
 73
     0
 74
     0
 77
     1
 78
     8
 79
     2
140
3.5
141
0.0
143
0.0393701
146
0.71
147
1.5
172
     1
176
   256
177
   256
271
     2
178
   140
271
     2
272
     3
274
     4
283
     0
284
     8
340
17
371
    -1
372
    -1
345
11
346
11
347
11
  0
ENDTAB
  0
TABLE
  2
BLOCK_RECORD
  5
1
330
0
100
AcDbSymbolTable
 70
    36
  0
BLOCK_RECORD
  5
A
330
1
100
AcDbSymbolTableRecord
100
AcDbBlockTableRecord
  2
*MODEL_SPACE
340
20
 70
     0
280
     1
281
     0
  0
BLOCK_RECORD
  5
B
330
1
100
AcDbSymbolTableRecord
100
AcDbBlockTableRecord
  2
*PAPER_SPACE
340
21
 70
     0
280
     1
281
     0
  0
BLOCK_RECORD
  5
4E
330
1
100
AcDbSymbolTableRecord
100
AcDbBlockTableRecord
  2
_DOT
340
0
102
{BLKREFS
331
19BF
331
19C0
331
19DB
331
19DC
331
19EB
331
19EC
331
19FA
331
19FB
331
1A0A
331
1A0B
331
1A1F
331
1A20
331
1A2C
331
1A2D
331
1A3C
331
1A3D
331
1A49
331
1A4A
331
1A8F
331
1A90
331
1AAA
331
1AAB
331
1D30
331
1D31
331
1D67
331
1D68
331
1D74
331
1D75
331
1D84
331
1D85
331
1D98
331
1D99
331
1DA5
331
1DA6
331
1DB7
331
1DB8
331
1DD0
331
1DD1
331
1DE1
331
1DE2
331
1DF1
331
1DF2
331
1E01
331
1E02
331
1E1F
331
1E20
331
1E2C
331
1E2D
331
1E39
331
1E3A
331
1E46
331
1E47
331
1EF6
331
1EF5
102
}
 70
     0
280
     1
281
     0
  0
BLOCK_RECORD
  5
3A5
330
1
100
AcDbSymbolTableRecord
100
AcDbBlockTableRecord
  2
名称未設定-1
340
0
102
{BLKREFS
331
3D0
102
}
 70
     1
280
     1
281
     0
  0
BLOCK_RECORD
  5
3A8
330
1
100
AcDbSymbolTableRecord
100
AcDbBlockTableRecord
  2
block 2
340
0
102
{BLKREFS
331
3A7
102
}
 70
     0
280
     1
281
     0
  0
BLOCK_RECORD
  5
3AB
330
1
100
AcDbSymbolTableRecord
100
AcDbBlockTableRecord
  2
block 3
340
0
102
{BLKREFS
331
3AA
102
}
 70
     0
280
     1
281
     0
  0
BLOCK_RECORD
  5
3AE
330
1
100
AcDbSymbolTableRecord
100
AcDbBlockTableRecord
  2
block 4
340
0
102
{BLKREFS
331
3AD
102
}
 70
     0
280
     1
281
     0
  0
BLOCK_RECORD
  5
3BD
330
1
100
AcDbSymbolTableRecord
100
AcDbBlockTableRecord
  2
block 5
340
0
102
{BLKREFS
331
3BC
102
}
 70
     0
280
     1
281
     0
  0
BLOCK_RECORD
  5
11F0
330
1
100
AcDbSymbolTableRecord
100
AcDbBlockTableRecord
  2
BLOCK_2
340
0
102
{BLKREFS
331
1273
331
127B
331
127C
102
}
 70
     0
280
     1
281
     0
  0
BLOCK_RECORD
  5
19B9
330
1
100
AcDbSymbolTableRecord
100
AcDbBlockTableRecord
  2
*D7
340
0
 70
     0
280
     1
281
     0
  0
BLOCK_RECORD
  5
19D5
330
1
100
AcDbSymbolTableRecord
100
AcDbBlockTableRecord
  2
*D8
340
0
 70
     0
280
     1
281
     0
  0
BLOCK_RECORD
  5
19E5
330
1
100
AcDbSymbolTableRecord
100
AcDbBlockTableRecord
  2
*D9
340
0
 70
     0
280
     1
281
     0
  0
BLOCK_RECORD
  5
19F4
330
1
100
AcDbSymbolTableRecord
100
AcDbBlockTableRecord
  2
*D10
340
0
 70
     0
280
     1
281
     0
  0
BLOCK_RECORD
  5
1A04
330
1
100
AcDbSymbolTableRecord
100
AcDbBlockTableRecord
  2
*D11
340
0
 70
     0
280
     1
281
     0
  0
BLOCK_RECORD
  5
1A19
330
1
100
AcDbSymbolTableRecord
100
AcDbBlockTableRecord
  2
*D12
340
0
 70
     0
280
     1
281
     0
  0
BLOCK_RECORD
  5
1A26
330
1
100
AcDbSymbolTableRecord
100
AcDbBlockTableRecord
  2
*D13
340
0
 70
     0
280
     1
281
     0
  0
BLOCK_RECORD
  5
1A36
330
1
100
AcDbSymbolTableRecord
100
AcDbBlockTableRecord
  2
*D14
340
0
 70
     0
280
     1
281
     0
  0
BLOCK_RECORD
  5
1A43
330
1
100
AcDbSymbolTableRecord
100
AcDbBlockTableRecord
  2
*D15
340
0
 70
     0
280
     1
281
     0
  0
BLOCK_RECORD
  5
1A89
330
1
100
AcDbSymbolTableRecord
100
AcDbBlockTableRecord
  2
*D16
340
0
 70
     0
280
     1
281
     0
  0
BLOCK_RECORD
  5
1AA5
330
1
100
AcDbSymbolTableRecord
100
AcDbBlockTableRecord
  2
*D17
340
0
 70
     0
280
     1
281
     0
  0
BLOCK_RECORD
  5
1D2A
330
1
100
AcDbSymbolTableRecord
100
AcDbBlockTableRecord
  2
*D18
340
0
 70
     0
280
     1
281
     0
  0
BLOCK_RECORD
  5
1D61
330
1
100
AcDbSymbolTableRecord
100
AcDbBlockTableRecord
  2
*D19
340
0
 70
     0
280
     1
281
     0
  0
BLOCK_RECORD
  5
1D6E
330
1
100
AcDbSymbolTableRecord
100
AcDbBlockTableRecord
  2
*D20
340
0
 70
     0
280
     1
281
     0
  0
BLOCK_RECORD
  5
1D7E
330
1
100
AcDbSymbolTableRecord
100
AcDbBlockTableRecord
  2
*D21
340
0
 70
     0
280
     1
281
     0
  0
BLOCK_RECORD
  5
1D92
330
1
100
AcDbSymbolTableRecord
100
AcDbBlockTableRecord
  2
*D22
340
0
 70
     0
280
     1
281
     0
  0
BLOCK_RECORD
  5
1D9F
330
1
100
AcDbSymbolTableRecord
100
AcDbBlockTableRecord
  2
*D23
340
0
 70
     0
280
     1
281
     0
  0
BLOCK_RECORD
  5
1DB1
330
1
100
AcDbSymbolTableRecord
100
AcDbBlockTableRecord
  2
*D24
340
0
 70
     0
280
     1
281
     0
  0
BLOCK_RECORD
  5
1DCA
330
1
100
AcDbSymbolTableRecord
100
AcDbBlockTableRecord
  2
*D25
340
0
 70
     0
280
     1
281
     0
  0
BLOCK_RECORD
  5
1DDB
330
1
100
AcDbSymbolTableRecord
100
AcDbBlockTableRecord
  2
*D26
340
0
 70
     0
280
     1
281
     0
  0
BLOCK_RECORD
  5
1DEB
330
1
100
AcDbSymbolTableRecord
100
AcDbBlockTableRecord
  2
*D27
340
0
 70
     0
280
     1
281
     0
  0
BLOCK_RECORD
  5
1DFB
330
1
100
AcDbSymbolTableRecord
100
AcDbBlockTableRecord
  2
*D28
340
0
 70
     0
280
     1
281
     0
  0
BLOCK_RECORD
  5
1E19
330
1
100
AcDbSymbolTableRecord
100
AcDbBlockTableRecord
  2
*D29
340
0
 70
     0
280
     1
281
     0
  0
BLOCK_RECORD
  5
1E26
330
1
100
AcDbSymbolTableRecord
100
AcDbBlockTableRecord
  2
*D30
340
0
 70
     0
280
     1
281
     0
  0
BLOCK_RECORD
  5
1E33
330
1
100
AcDbSymbolTableRecord
100
AcDbBlockTableRecord
  2
*D31
340
0
 70
     0
280
     1
281
     0
  0
BLOCK_RECORD
  5
1E40
330
1
100
AcDbSymbolTableRecord
100
AcDbBlockTableRecord
  2
*D32
340
0
 70
     0
280
     1
281
     0
  0
BLOCK_RECORD
  5
1EEF
330
1
100
AcDbSymbolTableRecord
100
AcDbBlockTableRecord
  2
*D35
340
0
 70
     0
280
     1
281
     0
  0
ENDTAB
  0
ENDSEC
  0
SECTION
  2
BLOCKS
  0
BLOCK
  5
D
330
A
100
AcDbEntity
  8
0
390
1D
100
AcDbBlockBegin
  2
*MODEL_SPACE
 70
     0
 10
0.0
 20
0.0
 30
0.0
  3
*MODEL_SPACE
  1
*MODEL_SPACE
  0
ENDBLK
  5
E
330
A
100
AcDbEntity
  8
0
390
1D
100
AcDbBlockEnd
  0
BLOCK
  5
F
330
B
100
AcDbEntity
 67
     1
  8
0
390
1D
100
AcDbBlockBegin
  2
*PAPER_SPACE
 70
     0
 10
0.0
 20
0.0
 30
0.0
  3
*PAPER_SPACE
  1
*PAPER_SPACE
  0
ENDBLK
  5
10
330
B
100
AcDbEntity
 67
     1
  8
0
390
1D
100
AcDbBlockEnd
  0
BLOCK
  5
2BB
330
4E
100
AcDbEntity
  8
0
390
1D
100
AcDbBlockBegin
  2
_DOT
 70
     0
 10
0.0
 20
0.0
 30
0.0
  3
_DOT
  1
_DOT
  0
POLYLINE
  5
2BD
330
4E
100
AcDbEntity
  8
0
  6
ByBlock
 62
     0
370
    -2
390
1D
100
AcDb2dPolyline
 66
     1
 10
0.0
 20
0.0
 30
0.0
 70
     1
 40
0.5
 41
0.5
  0
VERTEX
  5
2BE
330
2BD
100
AcDbEntity
  8
0
  6
ByBlock
 62
     0
370
    -2
390
1D
100
AcDbVertex
100
AcDb2dVertex
 10
-0.25
 20
0.0
 30
0.0
 42
1.0
  0
VERTEX
  5
2BF
330
2BD
100
AcDbEntity
  8
0
  6
ByBlock
 62
     0
370
    -2
390
1D
100
AcDbVertex
100
AcDb2dVertex
 10
0.25
 20
0.0
 30
0.0
 42
1.0
  0
SEQEND
  5
2C0
330
2BD
100
AcDbEntity
  8
0
390
1D
  0
LINE
  5
2C1
330
4E
100
AcDbEntity
  8
0
  6
ByBlock
 62
     0
370
    -2
390
1D
100
AcDbLine
 10
-0.5
 20
0.0
 30
0.0
 11
-1.0
 21
0.0
 31
0.0
  0
ENDBLK
  5
2C2
330
4E
100
AcDbEntity
  8
0
390
1D
100
AcDbBlockEnd
  0
BLOCK
  5
3A6
330
3A5
100
AcDbEntity
  8
0
100
AcDbBlockBegin
  2
名称未設定-1
 70
     0
 10
0.0
 20
0.0
 30
0.0
  3
名称未設定-1
  1
名称未設定-1
  0
INSERT
  5
3A7
330
3A5
100
AcDbEntity
  8
レイヤー 1
100
AcDbBlockReference
  2
block 2
 10
0.0
 20
0.0
 30
0.0
  0
ENDBLK
  5
3CC
330
3A5
100
AcDbEntity
  8
0
100
AcDbBlockEnd
  0
BLOCK
  5
3A9
330
3A8
100
AcDbEntity
  8
0
100
AcDbBlockBegin
  2
block 2
 70
     0
 10
0.0
 20
0.0
 30
0.0
  3
block 2
  1
block 2
  0
INSERT
  5
3AA
330
3A8
100
AcDbEntity
  8
レイヤー 1
100
AcDbBlockReference
  2
block 3
 10
0.0
 20
0.0
 30
0.0
  0
ENDBLK
  5
3CB
330
3A8
100
AcDbEntity
  8
0
100
AcDbBlockEnd
  0
BLOCK
  5
3AC
330
3AB
100
AcDbEntity
  8
0
100
AcDbBlockBegin
  2
block 3
 70
     0
 10
0.0
 20
0.0
 30
0.0
  3
block 3
  1
block 3
  0
INSERT
  5
3AD
330
3AB
100
AcDbEntity
  8
レイヤー 1
100
AcDbBlockReference
  2
block 4
 10
0.0
 20
0.0
 30
0.0
  0
ENDBLK
  5
3CA
330
3AB
100
AcDbEntity
  8
0
100
AcDbBlockEnd
  0
BLOCK
  5
3AF
330
3AE
100
AcDbEntity
  8
0
100
AcDbBlockBegin
  2
block 4
 70
     0
 10
0.0
 20
0.0
 30
0.0
  3
block 4
  1
block 4
  0
POLYLINE
  5
3B0
330
3AE
100
AcDbEntity
  8
レイヤー 1
370
     0
100
AcDb2dPolyline
 66
     1
 10
0.0
 20
0.0
 30
0.0
  0
VERTEX
  5
3B1
330
3B0
100
AcDbEntity
  8
レイヤー 1
370
     0
100
AcDbVertex
100
AcDb2dVertex
 10
83.79545727667795
 20
167.6444858234922
 30
0.0
  0
VERTEX
  5
3B2
330
3B0
100
AcDbEntity
  8
レイヤー 1
370
     0
100
AcDbVertex
100
AcDb2dVertex
 10
83.79545727667795
 20
159.7968976406313
 30
0.0
  0
VERTEX
  5
3B3
330
3B0
100
AcDbEntity
  8
レイヤー 1
370
     0
100
AcDbVertex
100
AcDb2dVertex
 10
71.3631329975216
 20
159.7968976406313
 30
0.0
  0
VERTEX
  5
3B4
330
3B0
100
AcDbEntity
  8
レイヤー 1
370
     0
100
AcDbVertex
100
AcDb2dVertex
 10
71.3631329975216
 20
127.8027915271048
 30
0.0
  0
VERTEX
  5
3B5
330
3B0
100
AcDbEntity
  8
レイヤー 1
370
     0
100
AcDbVertex
100
AcDb2dVertex
 10
60.43011526263018
 20
127.8027915271048
 30
0.0
  0
VERTEX
  5
3B6
330
3B0
100
AcDbEntity
  8
レイヤー 1
370
     0
100
AcDbVertex
100
AcDb2dVertex
 10
60.43011526263018
 20
159.7968976406313
 30
0.0
  0
VERTEX
  5
3B7
330
3B0
100
AcDbEntity
  8
レイヤー 1
370
     0
100
AcDbVertex
100
AcDb2dVertex
 10
48.21793273020759
 20
159.7968976406313
 30
0.0
  0
VERTEX
  5
3B8
330
3B0
100
AcDbEntity
  8
レイヤー 1
370
     0
100
AcDbVertex
100
AcDb2dVertex
 10
48.21793273020759
 20
167.6444858234922
 30
0.0
  0
VERTEX
  5
3B9
330
3B0
100
AcDbEntity
  8
レイヤー 1
370
     0
100
AcDbVertex
100
AcDb2dVertex
 10
83.79545727667795
 20
167.6444858234922
 30
0.0
  0
SEQEND
  5
3BA
330
3B0
100
AcDbEntity
  8
レイヤー 1
370
     0
  0
HATCH
  5
3BB
330
3AE
100
AcDbEntity
  8
レイヤー 1
 62
   250
420
  2234388
100
AcDbHatch
 10
0.0
 20
0.0
 30
0.0
210
0.0
220
0.0
230
1.0
  2
SOLID
 70
     1
 71
     0
 91
        1
 92
        1
 93
        8
 72
     1
 10
83.79545727667795
 20
167.6444858234922
 11
83.79545727667795
 21
159.7968976406313
 72
     1
 10
83.79545727667795
 20
159.7968976406313
 11
71.3631329975216
 21
159.7968976406313
 72
     1
 10
71.3631329975216
 20
159.7968976406313
 11
71.3631329975216
 21
127.8027915271048
 72
     1
 10
71.3631329975216
 20
127.8027915271048
 11
60.43011526263018
 21
127.8027915271048
 72
     1
 10
60.43011526263018
 20
127.8027915271048
 11
60.43011526263018
 21
159.7968976406313
 72
     1
 10
60.43011526263018
 20
159.7968976406313
 11
48.21793273020759
 21
159.7968976406313
 72
     1
 10
48.21793273020759
 20
159.7968976406313
 11
48.21793273020759
 21
167.6444858234922
 72
     1
 10
48.21793273020759
 20
167.6444858234922
 11
83.79545727667795
 21
167.6444858234922
 97
        0
 75
     2
 76
     1
 98
        0
  0
INSERT
  5
3BC
330
3AE
100
AcDbEntity
  8
レイヤー 1
100
AcDbBlockReference
  2
block 5
 10
0.0
 20
0.0
 30
0.0
  0
ENDBLK
  5
3C9
330
3AE
100
AcDbEntity
  8
0
100
AcDbBlockEnd
  0
BLOCK
  5
3BE
330
3BD
100
AcDbEntity
  8
0
100
AcDbBlockBegin
  2
block 5
 70
     0
 10
0.0
 20
0.0
 30
0.0
  3
block 5
  1
block 5
  0
SPLINE
  5
3BF
330
3BD
100
AcDbEntity
  8
レイヤー 1
370
     0
100
AcDbSpline
210
0.0
220
0.0
230
1.0
 70
    11
 71
     3
 72
    56
 73
    52
 74
     0
 42
0.000000001
 43
0.0000000001
 40
0.0
 40
0.0
 40
0.0
 40
0.0
 40
1.0
 40
1.0
 40
1.0
 40
2.0
 40
2.0
 40
2.0
 40
3.0
 40
3.0
 40
3.0
 40
4.0
 40
4.0
 40
4.0
 40
5.0
 40
5.0
 40
5.0
 40
6.0
 40
6.0
 40
6.0
 40
7.0
 40
7.0
 40
7.0
 40
8.0
 40
8.0
 40
8.0
 40
9.0
 40
9.0
 40
9.0
 40
10.0
 40
10.0
 40
10.0
 40
11.0
 40
11.0
 40
11.0
 40
12.0
 40
12.0
 40
12.0
 40
13.0
 40
13.0
 40
13.0
 40
14.0
 40
14.0
 40
14.0
 40
15.0
 40
15.0
 40
15.0
 40
16.0
 40
16.0
 40
16.0
 40
17.0
 40
17.0
 40
17.0
 40
17.0
 10
100.4504378777679
 20
166.69157178364
 30
0.0
 10
101.9848844191641
 20
167.1313385124438
 30
0.0
 10
103.9637485713373
 20
166.7649523658846
 30
0.0
 10
103.9637485713373
 20
166.7649523658846
 30
0.0
 10
103.9637485713373
 20
166.7649523658846
 30
0.0
 10
103.0132460999156
 20
163.911205638077
 30
0.0
 10
103.0132460999156
 20
163.911205638077
 30
0.0
 10
103.0132460999156
 20
163.911205638077
 30
0.0
 10
101.0674548862189
 20
164.3601018759394
 30
0.0
 10
99.57090442016032
 20
163.1805004036133
 30
0.0
 10
98.40508333886608
 20
162.258247733807
 30
0.0
 10
97.65301849830304
 20
159.804132345923
 30
0.0
 10
97.3598406791005
 20
158.8699940888517
 30
0.0
 10
97.3598406791005
 20
158.8699940888517
 30
0.0
 10
96.07137411762282
 20
154.9119212747295
 30
0.0
 10
96.07137411762282
 20
154.9119212747295
 30
0.0
 10
96.07137411762282
 20
154.9119212747295
 30
0.0
 10
100.3012651448482
 20
154.9119212747295
 30
0.0
 10
100.3012651448482
 20
154.9119212747295
 30
0.0
 10
100.3012651448482
 20
154.9119212747295
 30
0.0
 10
99.64152892419852
 20
152.4199098115079
 30
0.0
 10
99.64152892419852
 20
152.4199098115079
 30
0.0
 10
99.64152892419852
 20
152.4199098115079
 30
0.0
 10
95.38097652692731
 20
152.4199098115079
 30
0.0
 10
95.38097652692731
 20
152.4199098115079
 30
0.0
 10
95.38097652692731
 20
152.4199098115079
 30
0.0
 10
87.75353009080013
 20
127.8027915271048
 30
0.0
 10
87.75353009080013
 20
127.8027915271048
 30
0.0
 10
87.75353009080013
 20
127.8027915271048
 30
0.0
 10
85.36538832498108
 20
127.8027915271048
 30
0.0
 10
85.36538832498108
 20
127.8027915271048
 30
0.0
 10
85.36538832498108
 20
127.8027915271048
 30
0.0
 10
93.00006946639998
 20
152.4199098115079
 30
0.0
 10
93.00006946639998
 20
152.4199098115079
 30
0.0
 10
93.00006946639998
 20
152.4199098115079
 30
0.0
 10
89.85297266450198
 20
152.4199098115079
 30
0.0
 10
89.85297266450198
 20
152.4199098115079
 30
0.0
 10
89.85297266450198
 20
152.4199098115079
 30
0.0
 10
90.51270888515164
 20
154.9119212747295
 30
0.0
 10
90.51270888515164
 20
154.9119212747295
 30
0.0
 10
90.51270888515164
 20
154.9119212747295
 30
0.0
 10
93.6904670570955
 20
154.9119212747295
 30
0.0
 10
93.6904670570955
 20
154.9119212747295
 30
0.0
 10
93.6904670570955
 20
154.9119212747295
 30
0.0
 10
94.81598049462158
 20
158.3616699146644
 30
0.0
 10
94.81598049462158
 20
158.3616699146644
 30
0.0
 10
95.7237637538445
 20
161.2605474231013
 30
0.0
 10
96.4968436907311
 20
162.8139420021662
 30
0.0
 10
97.15657991138076
 20
163.9844139654337
 30
0.0
 10
97.81183750494507
 20
165.1523021053827
 30
0.0
 10
99.1047826935081
 20
166.3084769129547
 30
0.0
 10
100.4504378777679
 20
166.69157178364
 30
0.0
  0
HATCH
  5
3C0
330
3BD
100
AcDbEntity
  8
レイヤー 1
 62
   250
420
  2234388
100
AcDbHatch
 10
0.0
 20
0.0
 30
0.0
210
0.0
220
0.0
230
1.0
  2
SOLID
 70
     1
 71
     0
 91
        1
 92
        1
 93
        1
 72
     4
 94
        3
 73
     0
 74
     1
 95
       56
 96
       52
 40
0.0
 40
0.0
 40
0.0
 40
0.0
 40
1.0
 40
1.0
 40
1.0
 40
2.0
 40
2.0
 40
2.0
 40
3.0
 40
3.0
 40
3.0
 40
4.0
 40
4.0
 40
4.0
 40
5.0
 40
5.0
 40
5.0
 40
6.0
 40
6.0
 40
6.0
 40
7.0
 40
7.0
 40
7.0
 40
8.0
 40
8.0
 40
8.0
 40
9.0
 40
9.0
 40
9.0
 40
10.0
 40
10.0
 40
10.0
 40
11.0
 40
11.0
 40
11.0
 40
12.0
 40
12.0
 40
12.0
 40
13.0
 40
13.0
 40
13.0
 40
14.0
 40
14.0
 40
14.0
 40
15.0
 40
15.0
 40
15.0
 40
16.0
 40
16.0
 40
16.0
 40
17.0
 40
17.0
 40
17.0
 40
17.0
 10
100.4504378777679
 20
166.69157178364
 10
101.9848844191641
 20
167.1313385124438
 10
103.9637485713373
 20
166.7649523658846
 10
103.9637485713373
 20
166.7649523658846
 10
103.9637485713373
 20
166.7649523658846
 10
103.0132460999156
 20
163.911205638077
 10
103.0132460999156
 20
163.911205638077
 10
103.0132460999156
 20
163.911205638077
 10
101.0674548862189
 20
164.3601018759394
 10
99.57090442016032
 20
163.1805004036133
 10
98.40508333886608
 20
162.258247733807
 10
97.65301849830304
 20
159.804132345923
 10
97.3598406791005
 20
158.8699940888517
 10
97.3598406791005
 20
158.8699940888517
 10
96.07137411762282
 20
154.9119212747295
 10
96.07137411762282
 20
154.9119212747295
 10
96.07137411762282
 20
154.9119212747295
 10
100.3012651448482
 20
154.9119212747295
 10
100.3012651448482
 20
154.9119212747295
 10
100.3012651448482
 20
154.9119212747295
 10
99.64152892419852
 20
152.4199098115079
 10
99.64152892419852
 20
152.4199098115079
 10
99.64152892419852
 20
152.4199098115079
 10
95.38097652692731
 20
152.4199098115079
 10
95.38097652692731
 20
152.4199098115079
 10
95.38097652692731
 20
152.4199098115079
 10
87.75353009080013
 20
127.8027915271048
 10
87.75353009080013
 20
127.8027915271048
 10
87.75353009080013
 20
127.8027915271048
 10
85.36538832498108
 20
127.8027915271048
 10
85.36538832498108
 20
127.8027915271048
 10
85.36538832498108
 20
127.8027915271048
 10
93.00006946639998
 20
152.4199098115079
 10
93.00006946639998
 20
152.4199098115079
 10
93.00006946639998
 20
152.4199098115079
 10
89.85297266450198
 20
152.4199098115079
 10
89.85297266450198
 20
152.4199098115079
 10
89.85297266450198
 20
152.4199098115079
 10
90.51270888515164
 20
154.9119212747295
 10
90.51270888515164
 20
154.9119212747295
 10
90.51270888515164
 20
154.9119212747295
 10
93.6904670570955
 20
154.9119212747295
 10
93.6904670570955
 20
154.9119212747295
 10
93.6904670570955
 20
154.9119212747295
 10
94.81598049462158
 20
158.3616699146644
 10
94.81598049462158
 20
158.3616699146644
 10
95.7237637538445
 20
161.2605474231013
 10
96.4968436907311
 20
162.8139420021662
 10
97.15657991138076
 20
163.9844139654337
 10
97.81183750494507
 20
165.1523021053827
 10
99.1047826935081
 20
166.3084769129547
 10
100.4504378777679
 20
166.69157178364
 97
        0
 75
     2
 76
     1
 98
        0
  0
SPLINE
  5
3C1
330
3BD
100
AcDbEntity
  8
レイヤー 1
370
     0
100
AcDbSpline
210
0.0
220
0.0
230
1.0
 70
    11
 71
     3
 72
    38
 73
    34
 74
     0
 42
0.000000001
 43
0.0000000001
 40
0.0
 40
0.0
 40
0.0
 40
0.0
 40
1.0
 40
1.0
 40
1.0
 40
2.0
 40
2.0
 40
2.0
 40
3.0
 40
3.0
 40
3.0
 40
4.0
 40
4.0
 40
4.0
 40
5.0
 40
5.0
 40
5.0
 40
6.0
 40
6.0
 40
6.0
 40
7.0
 40
7.0
 40
7.0
 40
8.0
 40
8.0
 40
8.0
 40
9.0
 40
9.0
 40
9.0
 40
10.0
 40
10.0
 40
10.0
 40
11.0
 40
11.0
 40
11.0
 40
11.0
 10
126.377554584636
 20
154.8151140277308
 30
0.0
 10
126.377554584636
 20
154.8151140277308
 30
0.0
 10
128.8311532078563
 20
154.8151140277308
 30
0.0
 10
128.8311532078563
 20
154.8151140277308
 30
0.0
 10
128.8311532078563
 20
154.8151140277308
 30
0.0
 10
127.7345785914971
 20
151.3062819612468
 30
0.0
 10
127.7345785914971
 20
151.3062819612468
 30
0.0
 10
128.571392836906
 20
152.2922689395754
 30
0.0
 10
129.8860421413442
 20
153.604506675583
 30
0.0
 10
131.0163787157314
 20
154.2664822097754
 30
0.0
 10
132.7044766171327
 20
155.2500576196734
 30
0.0
 10
133.6642808525008
 20
155.3847609420097
 30
0.0
 10
134.7284715499351
 20
155.3565111403944
 30
0.0
 10
134.7284715499351
 20
155.3565111403944
 30
0.0
 10
133.6877075172549
 20
152.0345756272799
 30
0.0
 10
133.6877075172549
 20
152.0345756272799
 30
0.0
 10
133.011434827367
 20
152.3184516825359
 30
0.0
 10
130.930940291334
 20
151.7768823149844
 30
0.0
 10
129.739280976855
 20
150.9162968950455
 30
0.0
 10
128.66613302525
 20
150.1454562717016
 30
0.0
 10
127.9192358313239
 20
149.4857200510519
 30
0.0
 10
127.0393578639405
 20
147.8282835196966
 30
0.0
 10
126.164647543194
 20
146.1699857139017
 30
0.0
 10
125.4742499524985
 20
143.5262176944419
 30
0.0
 10
124.2822461282437
 20
139.6959580071401
 30
0.0
 10
124.2822461282437
 20
139.6959580071401
 30
0.0
 10
120.5753209406769
 20
127.8027915271048
 30
0.0
 10
120.5753209406769
 20
127.8027915271048
 30
0.0
 10
120.5753209406769
 20
127.8027915271048
 30
0.0
 10
118.1964809388044
 20
127.8027915271048
 30
0.0
 10
118.1964809388044
 20
127.8027915271048
 30
0.0
 10
118.1964809388044
 20
127.8027915271048
 30
0.0
 10
126.377554584636
 20
154.8151140277308
 30
0.0
 10
126.377554584636
 20
154.8151140277308
 30
0.0
  0
HATCH
  5
3C2
330
3BD
100
AcDbEntity
  8
レイヤー 1
 62
   250
420
  2234388
100
AcDbHatch
 10
0.0
 20
0.0
 30
0.0
210
0.0
220
0.0
230
1.0
  2
SOLID
 70
     1
 71
     0
 91
        1
 92
        1
 93
        1
 72
     4
 94
        3
 73
     0
 74
     1
 95
       38
 96
       34
 40
0.0
 40
0.0
 40
0.0
 40
0.0
 40
1.0
 40
1.0
 40
1.0
 40
2.0
 40
2.0
 40
2.0
 40
3.0
 40
3.0
 40
3.0
 40
4.0
 40
4.0
 40
4.0
 40
5.0
 40
5.0
 40
5.0
 40
6.0
 40
6.0
 40
6.0
 40
7.0
 40
7.0
 40
7.0
 40
8.0
 40
8.0
 40
8.0
 40
9.0
 40
9.0
 40
9.0
 40
10.0
 40
10.0
 40
10.0
 40
11.0
 40
11.0
 40
11.0
 40
11.0
 10
126.377554584636
 20
154.8151140277308
 10
126.377554584636
 20
154.8151140277308
 10
128.8311532078563
 20
154.8151140277308
 10
128.8311532078563
 20
154.8151140277308
 10
128.8311532078563
 20
154.8151140277308
 10
127.7345785914971
 20
151.3062819612468
 10
127.7345785914971
 20
151.3062819612468
 10
128.571392836906
 20
152.2922689395754
 10
129.8860421413442
 20
153.604506675583
 10
131.0163787157314
 20
154.2664822097754
 10
132.7044766171327
 20
155.2500576196734
 10
133.6642808525008
 20
155.3847609420097
 10
134.7284715499351
 20
155.3565111403944
 10
134.7284715499351
 20
155.3565111403944
 10
133.6877075172549
 20
152.0345756272799
 10
133.6877075172549
 20
152.0345756272799
 10
133.011434827367
 20
152.3184516825359
 10
130.930940291334
 20
151.7768823149844
 10
129.739280976855
 20
150.9162968950455
 10
128.66613302525
 20
150.1454562717016
 10
127.9192358313239
 20
149.4857200510519
 10
127.0393578639405
 20
147.8282835196966
 10
126.164647543194
 20
146.1699857139017
 10
125.4742499524985
 20
143.5262176944419
 10
124.2822461282437
 20
139.6959580071401
 10
124.2822461282437
 20
139.6959580071401
 10
120.5753209406769
 20
127.8027915271048
 10
120.5753209406769
 20
127.8027915271048
 10
120.5753209406769
 20
127.8027915271048
 10
118.1964809388044
 20
127.8027915271048
 10
118.1964809388044
 20
127.8027915271048
 10
118.1964809388044
 20
127.8027915271048
 10
126.377554584636
 20
154.8151140277308
 10
126.377554584636
 20
154.8151140277308
 97
        0
 75
     2
 76
     1
 98
        0
  0
SPLINE
  5
3C3
330
3BD
100
AcDbEntity
  8
レイヤー 1
370
     0
100
AcDbSpline
210
0.0
220
0.0
230
1.0
 70
    11
 71
     3
 72
   104
 73
   100
 74
     0
 42
0.000000001
 43
0.0000000001
 40
0.0
 40
0.0
 40
0.0
 40
0.0
 40
1.0
 40
1.0
 40
1.0
 40
2.0
 40
2.0
 40
2.0
 40
3.0
 40
3.0
 40
3.0
 40
4.0
 40
4.0
 40
4.0
 40
5.0
 40
5.0
 40
5.0
 40
6.0
 40
6.0
 40
6.0
 40
7.0
 40
7.0
 40
7.0
 40
8.0
 40
8.0
 40
8.0
 40
9.0
 40
9.0
 40
9.0
 40
10.0
 40
10.0
 40
10.0
 40
11.0
 40
11.0
 40
11.0
 40
12.0
 40
12.0
 40
12.0
 40
13.0
 40
13.0
 40
13.0
 40
14.0
 40
14.0
 40
14.0
 40
15.0
 40
15.0
 40
15.0
 40
16.0
 40
16.0
 40
16.0
 40
17.0
 40
17.0
 40
17.0
 40
18.0
 40
18.0
 40
18.0
 40
19.0
 40
19.0
 40
19.0
 40
20.0
 40
20.0
 40
20.0
 40
21.0
 40
21.0
 40
21.0
 40
22.0
 40
22.0
 40
22.0
 40
23.0
 40
23.0
 40
23.0
 40
24.0
 40
24.0
 40
24.0
 40
25.0
 40
25.0
 40
25.0
 40
26.0
 40
26.0
 40
26.0
 40
27.0
 40
27.0
 40
27.0
 40
28.0
 40
28.0
 40
28.0
 40
29.0
 40
29.0
 40
29.0
 40
30.0
 40
30.0
 40
30.0
 40
31.0
 40
31.0
 40
31.0
 40
32.0
 40
32.0
 40
32.0
 40
33.0
 40
33.0
 40
33.0
 40
33.0
 10
139.8926730891197
 20
154.8294111834263
 30
0.0
 10
139.8926730891197
 20
154.8294111834263
 30
0.0
 10
142.0344903652445
 20
154.8294111834263
 30
0.0
 10
142.0344903652445
 20
154.8294111834263
 30
0.0
 10
142.0344903652445
 20
154.8294111834263
 30
0.0
 10
140.9516961399171
 20
151.3157559800812
 30
0.0
 10
140.9516961399171
 20
151.3157559800812
 30
0.0
 10
141.8928968473923
 20
152.7887075264977
 30
0.0
 10
142.7341897198865
 20
153.4484437471474
 30
0.0
 10
143.8552245303272
 20
154.2926649527359
 30
0.0
 10
144.9803934580775
 20
155.1296514530327
 30
0.0
 10
146.3139908001845
 20
155.3044901642492
 30
0.0
 10
147.241066606852
 20
155.3044901642492
 30
0.0
 10
148.3855280820469
 20
155.3044901642492
 30
0.0
 10
149.4969166187653
 20
155.0752189084569
 30
0.0
 10
150.0784491203092
 20
153.8172414621372
 30
0.0
 10
150.5228667310863
 20
152.833838307127
 30
0.0
 10
150.5414702589793
 20
152.7201500811143
 30
0.0
 10
150.4140016419347
 20
150.7765981809602
 30
0.0
 10
151.5818897818837
 20
152.7699317437168
 30
0.0
 10
152.4424752018226
 20
153.6256940267945
 30
0.0
 10
153.9038856707499
 20
154.4507949398263
 30
0.0
 10
155.4455669174378
 20
155.3044901642492
 30
0.0
 10
156.339225275853
 20
155.3659851592288
 30
0.0
 10
157.3748216618963
 20
155.2147453676543
 30
0.0
 10
158.911679771723
 20
154.9877134254046
 30
0.0
 10
159.8859534176746
 20
154.4390816074493
 30
0.0
 10
160.3965169054045
 20
152.7816450760939
 30
0.0
 10
160.9070803931344
 20
151.1219692311958
 30
0.0
 10
160.6328506116007
 20
150.2303779314354
 30
0.0
 10
159.9992971339115
 20
147.597634224801
 30
0.0
 10
159.7105979417943
 20
146.4014962832367
 30
0.0
 10
159.2947746424084
 20
144.9400858143094
 30
0.0
 10
158.7463150793409
 20
143.2092687007094
 30
0.0
 10
158.7463150793409
 20
143.2092687007094
 30
0.0
 10
153.9038856707499
 20
127.8027915271048
 30
0.0
 10
153.9038856707499
 20
127.8027915271048
 30
0.0
 10
153.9038856707499
 20
127.8027915271048
 30
0.0
 10
151.3882752878863
 20
127.8027915271048
 30
0.0
 10
151.3882752878863
 20
127.8027915271048
 30
0.0
 10
151.3882752878863
 20
127.8027915271048
 30
0.0
 10
155.6250565106276
 20
141.2751908193897
 30
0.0
 10
155.6250565106276
 20
141.2751908193897
 30
0.0
 10
156.5094131050963
 20
144.0936252951782
 30
0.0
 10
157.109893644309
 20
146.1506931664571
 30
0.0
 10
157.4220195011804
 20
147.4415712963654
 30
0.0
 10
157.8095929989511
 20
149.0530157726519
 30
0.0
 10
157.9656559273867
 20
149.5826995529385
 30
0.0
 10
157.7816877071116
 20
150.7529992613181
 30
0.0
 10
157.6111553680925
 20
151.8430281919372
 30
0.0
 10
157.0582171779396
 20
152.5547853887321
 30
0.0
 10
156.1170164704645
 20
152.5547853887321
 30
0.0
 10
155.1096698860365
 20
152.5547853887321
 30
0.0
 10
154.2962823053817
 20
152.4412694176073
 30
0.0
 10
153.156643967048
 20
151.2945686288697
 30
0.0
 10
152.0170056287143
 20
150.1476955852443
 30
0.0
 10
151.076149431015
 20
148.7930831468137
 30
0.0
 10
150.3337308641742
 20
147.2290087646991
 30
0.0
 10
149.5957909244188
 20
145.6683794803425
 30
0.0
 10
148.8530278478023
 20
143.6822806228776
 30
0.0
 10
148.0964843801539
 20
141.2751908193897
 30
0.0
 10
148.0964843801539
 20
141.2751908193897
 30
0.0
 10
143.8552245303272
 20
127.8027915271048
 30
0.0
 10
143.8552245303272
 20
127.8027915271048
 30
0.0
 10
143.8552245303272
 20
127.8027915271048
 30
0.0
 10
141.486030802177
 20
127.8027915271048
 30
0.0
 10
141.486030802177
 20
127.8027915271048
 30
0.0
 10
141.486030802177
 20
127.8027915271048
 30
0.0
 10
146.3329388378533
 20
143.2092687007094
 30
0.0
 10
146.3329388378533
 20
143.2092687007094
 30
0.0
 10
146.8483254624444
 20
144.8408669988801
 30
0.0
 10
147.2314203331297
 20
146.1837661049335
 30
0.0
 10
147.4867020769946
 20
147.224185627838
 30
0.0
 10
147.9169947869641
 20
149.0197705792876
 30
0.0
 10
148.0306830129768
 20
150.2400242051577
 30
0.0
 10
147.709255392159
 20
151.3157559800812
 30
0.0
 10
147.3874832615654
 20
152.3916600098926
 30
0.0
 10
146.8245542879144
 20
152.6683013598569
 30
0.0
 10
145.8840425999909
 20
152.6683013598569
 30
0.0
 10
145.0989048209514
 20
152.6683013598569
 30
0.0
 10
144.3282364524954
 20
152.3275811915945
 30
0.0
 10
143.4531816219731
 20
151.6538923250251
 30
0.0
 10
142.34627171234
 20
150.8074318058939
 30
0.0
 10
141.901854101563
 20
150.1097995099067
 30
0.0
 10
141.3578731655808
 20
149.289521733736
 30
0.0
 10
140.6299240093235
 20
148.192602607601
 30
0.0
 10
140.2850697237515
 20
147.455696197173
 30
0.0
 10
139.6652966370942
 20
145.8385673095858
 30
0.0
 10
139.0506911970739
 20
144.2214384219986
 30
0.0
 10
138.463991048893
 20
142.3252566160164
 30
0.0
 10
138.0571250036777
 20
141.0154304484394
 30
0.0
 10
138.0571250036777
 20
141.0154304484394
 30
0.0
 10
133.9009590684727
 20
127.8027915271048
 30
0.0
 10
133.9009590684727
 20
127.8027915271048
 30
0.0
 10
133.9009590684727
 20
127.8027915271048
 30
0.0
 10
131.4180771143097
 20
127.8027915271048
 30
0.0
 10
131.4180771143097
 20
127.8027915271048
 30
0.0
 10
131.4180771143097
 20
127.8027915271048
 30
0.0
 10
139.8926730891197
 20
154.8294111834263
 30
0.0
 10
139.8926730891197
 20
154.8294111834263
 30
0.0
  0
HATCH
  5
3C4
330
3BD
100
AcDbEntity
  8
レイヤー 1
 62
   250
420
  2234388
100
AcDbHatch
 10
0.0
 20
0.0
 30
0.0
210
0.0
220
0.0
230
1.0
  2
SOLID
 70
     1
 71
     0
 91
        1
 92
        1
 93
        1
 72
     4
 94
        3
 73
     0
 74
     1
 95
      104
 96
      100
 40
0.0
 40
0.0
 40
0.0
 40
0.0
 40
1.0
 40
1.0
 40
1.0
 40
2.0
 40
2.0
 40
2.0
 40
3.0
 40
3.0
 40
3.0
 40
4.0
 40
4.0
 40
4.0
 40
5.0
 40
5.0
 40
5.0
 40
6.0
 40
6.0
 40
6.0
 40
7.0
 40
7.0
 40
7.0
 40
8.0
 40
8.0
 40
8.0
 40
9.0
 40
9.0
 40
9.0
 40
10.0
 40
10.0
 40
10.0
 40
11.0
 40
11.0
 40
11.0
 40
12.0
 40
12.0
 40
12.0
 40
13.0
 40
13.0
 40
13.0
 40
14.0
 40
14.0
 40
14.0
 40
15.0
 40
15.0
 40
15.0
 40
16.0
 40
16.0
 40
16.0
 40
17.0
 40
17.0
 40
17.0
 40
18.0
 40
18.0
 40
18.0
 40
19.0
 40
19.0
 40
19.0
 40
20.0
 40
20.0
 40
20.0
 40
21.0
 40
21.0
 40
21.0
 40
22.0
 40
22.0
 40
22.0
 40
23.0
 40
23.0
 40
23.0
 40
24.0
 40
24.0
 40
24.0
 40
25.0
 40
25.0
 40
25.0
 40
26.0
 40
26.0
 40
26.0
 40
27.0
 40
27.0
 40
27.0
 40
28.0
 40
28.0
 40
28.0
 40
29.0
 40
29.0
 40
29.0
 40
30.0
 40
30.0
 40
30.0
 40
31.0
 40
31.0
 40
31.0
 40
32.0
 40
32.0
 40
32.0
 40
33.0
 40
33.0
 40
33.0
 40
33.0
 10
139.8926730891197
 20
154.8294111834263
 10
139.8926730891197
 20
154.8294111834263
 10
142.0344903652445
 20
154.8294111834263
 10
142.0344903652445
 20
154.8294111834263
 10
142.0344903652445
 20
154.8294111834263
 10
140.9516961399171
 20
151.3157559800812
 10
140.9516961399171
 20
151.3157559800812
 10
141.8928968473923
 20
152.7887075264977
 10
142.7341897198865
 20
153.4484437471474
 10
143.8552245303272
 20
154.2926649527359
 10
144.9803934580775
 20
155.1296514530327
 10
146.3139908001845
 20
155.3044901642492
 10
147.241066606852
 20
155.3044901642492
 10
148.3855280820469
 20
155.3044901642492
 10
149.4969166187653
 20
155.0752189084569
 10
150.0784491203092
 20
153.8172414621372
 10
150.5228667310863
 20
152.833838307127
 10
150.5414702589793
 20
152.7201500811143
 10
150.4140016419347
 20
150.7765981809602
 10
151.5818897818837
 20
152.7699317437168
 10
152.4424752018226
 20
153.6256940267945
 10
153.9038856707499
 20
154.4507949398263
 10
155.4455669174378
 20
155.3044901642492
 10
156.339225275853
 20
155.3659851592288
 10
157.3748216618963
 20
155.2147453676543
 10
158.911679771723
 20
154.9877134254046
 10
159.8859534176746
 20
154.4390816074493
 10
160.3965169054045
 20
152.7816450760939
 10
160.9070803931344
 20
151.1219692311958
 10
160.6328506116007
 20
150.2303779314354
 10
159.9992971339115
 20
147.597634224801
 10
159.7105979417943
 20
146.4014962832367
 10
159.2947746424084
 20
144.9400858143094
 10
158.7463150793409
 20
143.2092687007094
 10
158.7463150793409
 20
143.2092687007094
 10
153.9038856707499
 20
127.8027915271048
 10
153.9038856707499
 20
127.8027915271048
 10
153.9038856707499
 20
127.8027915271048
 10
151.3882752878863
 20
127.8027915271048
 10
151.3882752878863
 20
127.8027915271048
 10
151.3882752878863
 20
127.8027915271048
 10
155.6250565106276
 20
141.2751908193897
 10
155.6250565106276
 20
141.2751908193897
 10
156.5094131050963
 20
144.0936252951782
 10
157.109893644309
 20
146.1506931664571
 10
157.4220195011804
 20
147.4415712963654
 10
157.8095929989511
 20
149.0530157726519
 10
157.9656559273867
 20
149.5826995529385
 10
157.7816877071116
 20
150.7529992613181
 10
157.6111553680925
 20
151.8430281919372
 10
157.0582171779396
 20
152.5547853887321
 10
156.1170164704645
 20
152.5547853887321
 10
155.1096698860365
 20
152.5547853887321
 10
154.2962823053817
 20
152.4412694176073
 10
153.156643967048
 20
151.2945686288697
 10
152.0170056287143
 20
150.1476955852443
 10
151.076149431015
 20
148.7930831468137
 10
150.3337308641742
 20
147.2290087646991
 10
149.5957909244188
 20
145.6683794803425
 10
148.8530278478023
 20
143.6822806228776
 10
148.0964843801539
 20
141.2751908193897
 10
148.0964843801539
 20
141.2751908193897
 10
143.8552245303272
 20
127.8027915271048
 10
143.8552245303272
 20
127.8027915271048
 10
143.8552245303272
 20
127.8027915271048
 10
141.486030802177
 20
127.8027915271048
 10
141.486030802177
 20
127.8027915271048
 10
141.486030802177
 20
127.8027915271048
 10
146.3329388378533
 20
143.2092687007094
 10
146.3329388378533
 20
143.2092687007094
 10
146.8483254624444
 20
144.8408669988801
 10
147.2314203331297
 20
146.1837661049335
 10
147.4867020769946
 20
147.224185627838
 10
147.9169947869641
 20
149.0197705792876
 10
148.0306830129768
 20
150.2400242051577
 10
147.709255392159
 20
151.3157559800812
 10
147.3874832615654
 20
152.3916600098926
 10
146.8245542879144
 20
152.6683013598569
 10
145.8840425999909
 20
152.6683013598569
 10
145.0989048209514
 20
152.6683013598569
 10
144.3282364524954
 20
152.3275811915945
 10
143.4531816219731
 20
151.6538923250251
 10
142.34627171234
 20
150.8074318058939
 10
141.901854101563
 20
150.1097995099067
 10
141.3578731655808
 20
149.289521733736
 10
140.6299240093235
 20
148.192602607601
 10
140.2850697237515
 20
147.455696197173
 10
139.6652966370942
 20
145.8385673095858
 10
139.0506911970739
 20
144.2214384219986
 10
138.463991048893
 20
142.3252566160164
 10
138.0571250036777
 20
141.0154304484394
 10
138.0571250036777
 20
141.0154304484394
 10
133.9009590684727
 20
127.8027915271048
 10
133.9009590684727
 20
127.8027915271048
 10
133.9009590684727
 20
127.8027915271048
 10
131.4180771143097
 20
127.8027915271048
 10
131.4180771143097
 20
127.8027915271048
 10
131.4180771143097
 20
127.8027915271048
 10
139.8926730891197
 20
154.8294111834263
 10
139.8926730891197
 20
154.8294111834263
 97
        0
 75
     2
 76
     1
 98
        0
  0
SPLINE
  5
3C5
330
3BD
100
AcDbEntity
  8
レイヤー 1
370
     0
100
AcDbSpline
210
0.0
220
0.0
230
1.0
 70
    11
 71
     3
 72
    29
 73
    25
 74
     0
 42
0.000000001
 43
0.0000000001
 40
0.0
 40
0.0
 40
0.0
 40
0.0
 40
1.0
 40
1.0
 40
1.0
 40
2.0
 40
2.0
 40
2.0
 40
3.0
 40
3.0
 40
3.0
 40
4.0
 40
4.0
 40
4.0
 40
5.0
 40
5.0
 40
5.0
 40
6.0
 40
6.0
 40
6.0
 40
7.0
 40
7.0
 40
7.0
 40
8.0
 40
8.0
 40
8.0
 40
8.0
 10
101.6420971922469
 20
132.8388354296931
 30
0.0
 10
101.630039350094
 20
134.7164137077823
 30
0.0
 10
102.2236296937908
 20
138.0598810818841
 30
0.0
 10
103.7487744712405
 20
142.5378191476827
 30
0.0
 10
105.819967243327
 20
148.5896501242061
 30
0.0
 10
107.0602024361932
 20
150.8074318058939
 30
0.0
 10
108.1522984254671
 20
151.8833358357054
 30
0.0
 10
109.741177511439
 20
153.4532668840085
 30
0.0
 10
111.8740375333931
 20
153.5290590346837
 30
0.0
 10
112.5075910110823
 20
153.4532668840085
 30
0.0
 10
113.4012493694975
 20
153.3490526768302
 30
0.0
 10
114.6683563248758
 20
152.7580461564518
 30
0.0
 10
114.7493161221879
 20
150.7838328862519
 30
0.0
 10
114.8106388622796
 20
149.0909118479895
 30
0.0
 10
114.3186789024427
 20
145.9191825971221
 30
0.0
 10
112.6164561002338
 20
140.9489400617108
 30
0.0
 10
110.6444821435766
 20
135.1746117095912
 30
0.0
 10
109.4669477299053
 20
132.8960240524753
 30
0.0
 10
108.5212683953448
 20
131.9072809959403
 30
0.0
 10
106.7346406980658
 20
130.0538184021569
 30
0.0
 10
104.8222669326213
 20
130.2336525051225
 30
0.0
 10
104.5408024457958
 20
130.2336525051225
 30
0.0
 10
104.1721769856939
 20
130.2336525051225
 30
0.0
 10
101.6465758193322
 20
130.6305277668397
 30
0.0
 10
101.6420971922469
 20
132.8388354296931
 30
0.0
  0
SPLINE
  5
3C6
330
3BD
100
AcDbEntity
  8
レイヤー 1
370
     0
100
AcDbSpline
210
0.0
220
0.0
230
1.0
 70
    11
 71
     3
 72
    32
 73
    28
 74
     0
 42
0.000000001
 43
0.0000000001
 40
0.0
 40
0.0
 40
0.0
 40
0.0
 40
1.0
 40
1.0
 40
1.0
 40
2.0
 40
2.0
 40
2.0
 40
3.0
 40
3.0
 40
3.0
 40
4.0
 40
4.0
 40
4.0
 40
5.0
 40
5.0
 40
5.0
 40
6.0
 40
6.0
 40
6.0
 40
7.0
 40
7.0
 40
7.0
 40
8.0
 40
8.0
 40
8.0
 40
9.0
 40
9.0
 40
9.0
 40
9.0
 10
106.2595617172429
 20
153.4105476718098
 30
0.0
 10
104.8222669326213
 20
151.5474388043041
 30
0.0
 10
103.7177685914188
 20
149.8758773721411
 30
0.0
 10
101.9232171692965
 20
144.6141795664062
 30
0.0
 10
100.2754269116635
 20
139.7999999594306
 30
0.0
 10
99.22777268346732
 20
136.3052927937542
 30
0.0
 10
99.06964269637689
 20
132.039572749846
 30
0.0
 10
98.94665270641765
 20
128.8673267343149
 30
0.0
 10
100.8807305877373
 20
127.8027915271048
 30
0.0
 10
103.7129454545577
 20
127.8027915271048
 30
0.0
 10
104.9352661390825
 20
127.8027915271048
 30
0.0
 10
108.0151835347002
 20
127.8827177950895
 30
0.0
 10
110.2045431598849
 20
130.5926316915021
 30
0.0
 10
111.7417457794874
 20
132.4984597712065
 30
0.0
 10
113.155269389579
 20
134.475256864725
 30
0.0
 10
115.0562743324223
 20
140.9489400617108
 30
0.0
 10
116.6361961642235
 20
146.3680788349845
 30
0.0
 10
117.7282921534974
 20
149.8639917848761
 30
0.0
 10
117.6480213757369
 20
151.8595646611754
 30
0.0
 10
117.6480213757369
 20
151.8595646611754
 30
0.0
 10
117.6480213757369
 20
151.8595646611754
 30
0.0
 10
117.6480213757369
 20
151.8595646611754
 30
0.0
 10
117.13229024137
 20
155.18150017429
 30
0.0
 10
114.7162431837115
 20
155.886194920681
 30
0.0
 10
113.3351034925446
 20
155.886194920681
 30
0.0
 10
111.9829026225447
 20
155.886194920681
 30
0.0
 10
108.3414342923792
 20
156.1251124501957
 30
0.0
 10
106.2595617172429
 20
153.4105476718098
 30
0.0
  0
HATCH
  5
3C7
330
3BD
100
AcDbEntity
  8
レイヤー 1
 62
   250
420
  2234388
100
AcDbHatch
 10
0.0
 20
0.0
 30
0.0
210
0.0
220
0.0
230
1.0
  2
SOLID
 70
     1
 71
     0
 91
        2
 92
        1
 93
        1
 72
     4
 94
        3
 73
     0
 74
     1
 95
       29
 96
       25
 40
0.0
 40
0.0
 40
0.0
 40
0.0
 40
1.0
 40
1.0
 40
1.0
 40
2.0
 40
2.0
 40
2.0
 40
3.0
 40
3.0
 40
3.0
 40
4.0
 40
4.0
 40
4.0
 40
5.0
 40
5.0
 40
5.0
 40
6.0
 40
6.0
 40
6.0
 40
7.0
 40
7.0
 40
7.0
 40
8.0
 40
8.0
 40
8.0
 40
8.0
 10
101.6420971922469
 20
132.8388354296931
 10
101.630039350094
 20
134.7164137077823
 10
102.2236296937908
 20
138.0598810818841
 10
103.7487744712405
 20
142.5378191476827
 10
105.819967243327
 20
148.5896501242061
 10
107.0602024361932
 20
150.8074318058939
 10
108.1522984254671
 20
151.8833358357054
 10
109.741177511439
 20
153.4532668840085
 10
111.8740375333931
 20
153.5290590346837
 10
112.5075910110823
 20
153.4532668840085
 10
113.4012493694975
 20
153.3490526768302
 10
114.6683563248758
 20
152.7580461564518
 10
114.7493161221879
 20
150.7838328862519
 10
114.8106388622796
 20
149.0909118479895
 10
114.3186789024427
 20
145.9191825971221
 10
112.6164561002338
 20
140.9489400617108
 10
110.6444821435766
 20
135.1746117095912
 10
109.4669477299053
 20
132.8960240524753
 10
108.5212683953448
 20
131.9072809959403
 10
106.7346406980658
 20
130.0538184021569
 10
104.8222669326213
 20
130.2336525051225
 10
104.5408024457958
 20
130.2336525051225
 10
104.1721769856939
 20
130.2336525051225
 10
101.6465758193322
 20
130.6305277668397
 10
101.6420971922469
 20
132.8388354296931
 97
        0
 92
        1
 93
        1
 72
     4
 94
        3
 73
     0
 74
     1
 95
       32
 96
       28
 40
0.0
 40
0.0
 40
0.0
 40
0.0
 40
1.0
 40
1.0
 40
1.0
 40
2.0
 40
2.0
 40
2.0
 40
3.0
 40
3.0
 40
3.0
 40
4.0
 40
4.0
 40
4.0
 40
5.0
 40
5.0
 40
5.0
 40
6.0
 40
6.0
 40
6.0
 40
7.0
 40
7.0
 40
7.0
 40
8.0
 40
8.0
 40
8.0
 40
9.0
 40
9.0
 40
9.0
 40
9.0
 10
106.2595617172429
 20
153.4105476718098
 10
104.8222669326213
 20
151.5474388043041
 10
103.7177685914188
 20
149.8758773721411
 10
101.9232171692965
 20
144.6141795664062
 10
100.2754269116635
 20
139.7999999594306
 10
99.22777268346732
 20
136.3052927937542
 10
99.06964269637689
 20
132.039572749846
 10
98.94665270641765
 20
128.8673267343149
 10
100.8807305877373
 20
127.8027915271048
 10
103.7129454545577
 20
127.8027915271048
 10
104.9352661390825
 20
127.8027915271048
 10
108.0151835347002
 20
127.8827177950895
 10
110.2045431598849
 20
130.5926316915021
 10
111.7417457794874
 20
132.4984597712065
 10
113.155269389579
 20
134.475256864725
 10
115.0562743324223
 20
140.9489400617108
 10
116.6361961642235
 20
146.3680788349845
 10
117.7282921534974
 20
149.8639917848761
 10
117.6480213757369
 20
151.8595646611754
 10
117.6480213757369
 20
151.8595646611754
 10
117.6480213757369
 20
151.8595646611754
 10
117.6480213757369
 20
151.8595646611754
 10
117.13229024137
 20
155.18150017429
 10
114.7162431837115
 20
155.886194920681
 10
113.3351034925446
 20
155.886194920681
 10
111.9829026225447
 20
155.886194920681
 10
108.3414342923792
 20
156.1251124501957
 10
106.2595617172429
 20
153.4105476718098
 97
        0
 75
     2
 76
     1
 98
        0
  0
ENDBLK
  5
3C8
330
3BD
100
AcDbEntity
  8
0
100
AcDbBlockEnd
  0
BLOCK
  5
11F1
330
11F0
100
AcDbEntity
  8
0
100
AcDbBlockBegin
  2
BLOCK_2
 70
     0
 10
0.0
 20
0.0
 30
0.0
  3
BLOCK_2
  1
BLOCK_2
  0
ENDBLK
  5
11F2
330
11F0
100
AcDbEntity
  8
0
100
AcDbBlockEnd
  0
BLOCK
  5
19BA
330
19B9
100
AcDbEntity
  8
0
100
AcDbBlockBegin
  2
*D7
 70
     1
 10
0.0
 20
0.0
 30
0.0
  3
*D7
  1
*D171
  0
LINE
  5
19BC
330
19B9
100
AcDbEntity
  8
Dim
  6
Continuous
 62
     0
370
    -2
100
AcDbLine
 10
-1099.996083546581
 20
2038.96504316011
 30
0.0
 11
-1099.996083546581
 21
2303.281849329459
 31
0.0
  0
LINE
  5
19BD
330
19B9
100
AcDbEntity
  8
Dim
  6
Continuous
 62
     0
370
    -2
100
AcDbLine
 10
-1799.89088807097
 20
2038.96504316011
 30
0.0
 11
-1799.89088807097
 21
2303.281849329459
 31
0.0
  0
LINE
  5
19BE
330
19B9
100
AcDbEntity
  8
Dim
  6
Continuous
 62
     0
370
    -2
100
AcDbLine
 10
-1108.996083546581
 20
2303.281849329459
 30
0.0
 11
-1790.89088807097
 21
2303.281849329459
 31
0.0
  0
INSERT
  5
19BF
330
19B9
100
AcDbEntity
  8
Dim
 62
     0
370
    -2
100
AcDbBlockReference
  2
_DOT
 10
-1099.996083546581
 20
2303.281849329459
 30
0.0
 41
9.0
 42
9.0
 43
9.0
  0
INSERT
  5
19C0
330
19B9
100
AcDbEntity
  8
Dim
 62
     0
370
    -2
100
AcDbBlockReference
  2
_DOT
 10
-1799.89088807097
 20
2303.281849329459
 30
0.0
 41
9.0
 42
9.0
 43
9.0
 50
180.0
  0
MTEXT
  5
19C1
330
19B9
100
AcDbEntity
  8
Dim
  6
Continuous
 62
     0
100
AcDbMText
 10
-1449.943485808775
 20
2325.498157923209
 30
0.0
 40
24.4326171875
 41
0.0
 46
0.0
 71
     5
 72
     1
  1
\A1;700
  7
ＭＳ ゴシック
 73
     1
 44
1.0
  0
POINT
  5
19C2
330
19B9
100
AcDbEntity
  8
Defpoints
 62
     0
100
AcDbPoint
 10
-1099.996083546581
 20
2013.96504316011
 30
0.0
  0
POINT
  5
19C3
330
19B9
100
AcDbEntity
  8
Defpoints
 62
     0
100
AcDbPoint
 10
-1799.89088807097
 20
2013.96504316011
 30
0.0
  0
POINT
  5
19C4
330
19B9
100
AcDbEntity
  8
Defpoints
 62
     0
100
AcDbPoint
 10
-1799.89088807097
 20
2303.281849329459
 30
0.0
  0
ENDBLK
  5
19BB
330
19B9
100
AcDbEntity
  8
0
100
AcDbBlockEnd
  0
BLOCK
  5
19D6
330
19D5
100
AcDbEntity
  8
0
100
AcDbBlockBegin
  2
*D8
 70
     1
 10
0.0
 20
0.0
 30
0.0
  3
*D8
  1
*D173
  0
LINE
  5
19D8
330
19D5
100
AcDbEntity
  8
Dim
  6
Continuous
 62
     0
370
    -2
100
AcDbLine
 10
-1249.325954287327
 20
2198.454981313166
 30
0.0
 11
-1025.715534479406
 21
2198.454981313166
 31
0.0
  0
LINE
  5
19D9
330
19D5
100
AcDbEntity
  8
Dim
  6
Continuous
 62
     0
370
    -2
100
AcDbLine
 10
-1249.325954287327
 20
1828.454981313166
 30
0.0
 11
-1025.715534479406
 21
1828.454981313166
 31
0.0
  0
LINE
  5
19DA
330
19D5
100
AcDbEntity
  8
Dim
  6
Continuous
 62
     0
370
    -2
100
AcDbLine
 10
-1025.715534479406
 20
2189.454981313166
 30
0.0
 11
-1025.715534479406
 21
1837.454981313166
 31
0.0
  0
INSERT
  5
19DB
330
19D5
100
AcDbEntity
  8
Dim
 62
     0
370
    -2
100
AcDbBlockReference
  2
_DOT
 10
-1025.715534479406
 20
2198.454981313166
 30
0.0
 41
9.0
 42
9.0
 43
9.0
 50
90.0
  0
INSERT
  5
19DC
330
19D5
100
AcDbEntity
  8
Dim
 62
     0
370
    -2
100
AcDbBlockReference
  2
_DOT
 10
-1025.715534479406
 20
1828.454981313166
 30
0.0
 41
9.0
 42
9.0
 43
9.0
 50
270.0
  0
MTEXT
  5
19DD
330
19D5
100
AcDbEntity
  8
Dim
  6
Continuous
 62
     0
100
AcDbMText
 10
-1047.931843073156
 20
2013.454981313166
 30
0.0
 40
24.4326171875
 41
0.0
 46
0.0
 71
     5
 72
     1
  1
\A1;370
  7
ＭＳ ゴシック
 11
0.0
 21
1.0
 31
0.0
 73
     1
 44
1.0
  0
POINT
  5
19DE
330
19D5
100
AcDbEntity
  8
Defpoints
 62
     0
100
AcDbPoint
 10
-1274.325954287327
 20
2198.454981313166
 30
0.0
  0
POINT
  5
19DF
330
19D5
100
AcDbEntity
  8
Defpoints
 62
     0
100
AcDbPoint
 10
-1274.325954287327
 20
1828.454981313166
 30
0.0
  0
POINT
  5
19E0
330
19D5
100
AcDbEntity
  8
Defpoints
 62
     0
100
AcDbPoint
 10
-1025.715534479406
 20
1828.454981313166
 30
0.0
  0
ENDBLK
  5
19D7
330
19D5
100
AcDbEntity
  8
0
100
AcDbBlockEnd
  0
BLOCK
  5
19E6
330
19E5
100
AcDbEntity
  8
0
100
AcDbBlockBegin
  2
*D9
 70
     1
 10
0.0
 20
0.0
 30
0.0
  3
*D9
  1
*D174
  0
LINE
  5
19E8
330
19E5
100
AcDbEntity
  8
Dim
  6
Continuous
 62
     0
370
    -2
100
AcDbLine
 10
-1658.462652838284
 20
2171.208593363257
 30
0.0
 11
-1848.980854296902
 21
2171.208593363257
 31
0.0
  0
LINE
  5
19E9
330
19E5
100
AcDbEntity
  8
Dim
  6
Continuous
 62
     0
370
    -2
100
AcDbLine
 10
-1658.462652838284
 20
1856.208593363257
 30
0.0
 11
-1848.980854296902
 21
1856.208593363257
 31
0.0
  0
LINE
  5
19EA
330
19E5
100
AcDbEntity
  8
Dim
  6
Continuous
 62
     0
370
    -2
100
AcDbLine
 10
-1848.980854296902
 20
2162.208593363257
 30
0.0
 11
-1848.980854296902
 21
1865.208593363257
 31
0.0
  0
INSERT
  5
19EB
330
19E5
100
AcDbEntity
  8
Dim
 62
     0
370
    -2
100
AcDbBlockReference
  2
_DOT
 10
-1848.980854296902
 20
2171.208593363257
 30
0.0
 41
9.0
 42
9.0
 43
9.0
 50
90.0
  0
INSERT
  5
19EC
330
19E5
100
AcDbEntity
  8
Dim
 62
     0
370
    -2
100
AcDbBlockReference
  2
_DOT
 10
-1848.980854296902
 20
1856.208593363257
 30
0.0
 41
9.0
 42
9.0
 43
9.0
 50
270.0
  0
MTEXT
  5
19ED
330
19E5
100
AcDbEntity
  8
Dim
  6
Continuous
 62
     0
100
AcDbMText
 10
-1871.197162890652
 20
2013.708593363257
 30
0.0
 40
24.4326171875
 41
0.0
 46
0.0
 71
     5
 72
     1
  1
\A1;315
  7
ＭＳ ゴシック
 11
0.0
 21
1.0
 31
0.0
 73
     1
 44
1.0
  0
POINT
  5
19EE
330
19E5
100
AcDbEntity
  8
Defpoints
 62
     0
100
AcDbPoint
 10
-1633.462652838284
 20
2171.208593363257
 30
0.0
  0
POINT
  5
19EF
330
19E5
100
AcDbEntity
  8
Defpoints
 62
     0
100
AcDbPoint
 10
-1633.462652838284
 20
1856.208593363257
 30
0.0
  0
POINT
  5
19F0
330
19E5
100
AcDbEntity
  8
Defpoints
 62
     0
100
AcDbPoint
 10
-1848.980854296902
 20
1856.208593363257
 30
0.0
  0
ENDBLK
  5
19E7
330
19E5
100
AcDbEntity
  8
0
100
AcDbBlockEnd
  0
BLOCK
  5
19F5
330
19F4
100
AcDbEntity
  8
0
100
AcDbBlockBegin
  2
*D10
 70
     1
 10
0.0
 20
0.0
 30
0.0
  3
*D10
  1
*D175
  0
LINE
  5
19F7
330
19F4
100
AcDbEntity
  8
Dim
  6
Continuous
 62
     0
370
    -2
100
AcDbLine
 10
-1769.89088878071
 20
1962.447941487623
 30
0.0
 11
-1769.89088878071
 21
1742.239402837962
 31
0.0
  0
LINE
  5
19F8
330
19F4
100
AcDbEntity
  8
Dim
  6
Continuous
 62
     0
370
    -2
100
AcDbLine
 10
-1129.996082836847
 20
1962.447941487651
 30
0.0
 11
-1129.996082836847
 21
1742.239402837962
 31
0.0
  0
LINE
  5
19F9
330
19F4
100
AcDbEntity
  8
Dim
  6
Continuous
 62
     0
370
    -2
100
AcDbLine
 10
-1760.89088878071
 20
1742.239402837962
 30
0.0
 11
-1138.996082836847
 21
1742.239402837962
 31
0.0
  0
INSERT
  5
19FA
330
19F4
100
AcDbEntity
  8
Dim
 62
     0
370
    -2
100
AcDbBlockReference
  2
_DOT
 10
-1769.89088878071
 20
1742.239402837962
 30
0.0
 41
9.0
 42
9.0
 43
9.0
 50
180.0
  0
INSERT
  5
19FB
330
19F4
100
AcDbEntity
  8
Dim
 62
     0
370
    -2
100
AcDbBlockReference
  2
_DOT
 10
-1129.996082836847
 20
1742.239402837962
 30
0.0
 41
9.0
 42
9.0
 43
9.0
  0
MTEXT
  5
19FC
330
19F4
100
AcDbEntity
  8
Dim
  6
Continuous
 62
     0
100
AcDbMText
 10
-1449.943485808778
 20
1764.455711431712
 30
0.0
 40
24.4326171875
 41
0.0
 46
0.0
 71
     5
 72
     1
  1
\A1;640
  7
ＭＳ ゴシック
 73
     1
 44
1.0
  0
POINT
  5
19FD
330
19F4
100
AcDbEntity
  8
Defpoints
 62
     0
100
AcDbPoint
 10
-1769.89088878071
 20
1987.447941487623
 30
0.0
  0
POINT
  5
19FE
330
19F4
100
AcDbEntity
  8
Defpoints
 62
     0
100
AcDbPoint
 10
-1129.996082836847
 20
1987.447941487651
 30
0.0
  0
POINT
  5
19FF
330
19F4
100
AcDbEntity
  8
Defpoints
 62
     0
100
AcDbPoint
 10
-1129.996082836847
 20
1742.239402837962
 30
0.0
  0
ENDBLK
  5
19F6
330
19F4
100
AcDbEntity
  8
0
100
AcDbBlockEnd
  0
BLOCK
  5
1A05
330
1A04
100
AcDbEntity
  8
0
100
AcDbBlockBegin
  2
*D11
 70
     1
 10
0.0
 20
0.0
 30
0.0
  3
*D11
  1
*D176
  0
LINE
  5
1A07
330
1A04
100
AcDbEntity
  8
Dim
  6
Continuous
 62
     0
370
    -2
100
AcDbLine
 10
-327.3720526930472
 20
986.4496762339288
 30
0.0
 11
-327.3720526930472
 21
735.8857509555712
 31
0.0
  0
LINE
  5
1A08
330
1A04
100
AcDbEntity
  8
Dim
  6
Continuous
 62
     0
370
    -2
100
AcDbLine
 10
-512.3720526930472
 20
778.9884752019805
 30
0.0
 11
-512.3720526930472
 21
735.8857509555712
 31
0.0
  0
LINE
  5
1A09
330
1A04
100
AcDbEntity
  8
Dim
  6
Continuous
 62
     0
370
    -2
100
AcDbLine
 10
-336.3720526930472
 20
735.8857509555712
 30
0.0
 11
-503.3720526930472
 21
735.8857509555712
 31
0.0
  0
INSERT
  5
1A0A
330
1A04
100
AcDbEntity
  8
Dim
 62
     0
370
    -2
100
AcDbBlockReference
  2
_DOT
 10
-327.3720526930472
 20
735.8857509555712
 30
0.0
 41
9.0
 42
9.0
 43
9.0
  0
INSERT
  5
1A0B
330
1A04
100
AcDbEntity
  8
Dim
 62
     0
370
    -2
100
AcDbBlockReference
  2
_DOT
 10
-512.3720526930472
 20
735.8857509555712
 30
0.0
 41
9.0
 42
9.0
 43
9.0
 50
180.0
  0
MTEXT
  5
1A0C
330
1A04
100
AcDbEntity
  8
Dim
  6
Continuous
 62
     0
100
AcDbMText
 10
-419.8720526930472
 20
758.1020595493212
 30
0.0
 40
24.4326171875
 41
0.0
 46
0.0
 71
     5
 72
     1
  1
\A1;185
  7
ＭＳ ゴシック
 73
     1
 44
1.0
  0
POINT
  5
1A0D
330
1A04
100
AcDbEntity
  8
Defpoints
 62
     0
100
AcDbPoint
 10
-327.3720526930472
 20
1011.449676233929
 30
0.0
  0
POINT
  5
1A0E
330
1A04
100
AcDbEntity
  8
Defpoints
 62
     0
100
AcDbPoint
 10
-512.3720526930472
 20
803.9884752019805
 30
0.0
  0
POINT
  5
1A0F
330
1A04
100
AcDbEntity
  8
Defpoints
 62
     0
100
AcDbPoint
 10
-512.3720526930472
 20
735.8857509555712
 30
0.0
  0
ENDBLK
  5
1A06
330
1A04
100
AcDbEntity
  8
0
100
AcDbBlockEnd
  0
BLOCK
  5
1A1A
330
1A19
100
AcDbEntity
  8
0
100
AcDbBlockBegin
  2
*D12
 70
     1
 10
0.0
 20
0.0
 30
0.0
  3
*D12
  1
*D177
  0
LINE
  5
1A1C
330
1A19
100
AcDbEntity
  8
Dim
  6
Continuous
 62
     0
370
    -2
100
AcDbLine
 10
-719.6927189960682
 20
1042.146970822732
 30
0.0
 11
-761.3768901128972
 21
1042.146970822732
 31
0.0
  0
LINE
  5
1A1D
330
1A19
100
AcDbEntity
  8
Dim
  6
Continuous
 62
     0
370
    -2
100
AcDbLine
 10
-702.471264939091
 20
967.2331786268264
 30
0.0
 11
-761.3768901128972
 21
967.2331786268264
 31
0.0
  0
LINE
  5
1A1E
330
1A19
100
AcDbEntity
  8
Dim
  6
Continuous
 62
     0
370
    -2
100
AcDbLine
 10
-761.3768901128972
 20
1033.146970822732
 30
0.0
 11
-761.3768901128972
 21
976.2331786268264
 31
0.0
  0
INSERT
  5
1A1F
330
1A19
100
AcDbEntity
  8
Dim
 62
     0
370
    -2
100
AcDbBlockReference
  2
_DOT
 10
-761.3768901128972
 20
1042.146970822732
 30
0.0
 41
9.0
 42
9.0
 43
9.0
 50
90.0
  0
INSERT
  5
1A20
330
1A19
100
AcDbEntity
  8
Dim
 62
     0
370
    -2
100
AcDbBlockReference
  2
_DOT
 10
-761.3768901128972
 20
967.2331786268264
 30
0.0
 41
9.0
 42
9.0
 43
9.0
 50
270.0
  0
MTEXT
  5
1A21
330
1A19
100
AcDbEntity
  8
Dim
  6
Continuous
 62
     0
100
AcDbMText
 10
-783.5931987066472
 20
1004.690074724779
 30
0.0
 40
24.4326171875
 41
0.0
 46
0.0
 71
     5
 72
     1
  1
\A1;75
  7
ＭＳ ゴシック
 11
0.0
 21
1.0
 31
0.0
 73
     1
 44
1.0
  0
POINT
  5
1A22
330
1A19
100
AcDbEntity
  8
Defpoints
 62
     0
100
AcDbPoint
 10
-694.6927189960682
 20
1042.146970822732
 30
0.0
  0
POINT
  5
1A23
330
1A19
100
AcDbEntity
  8
Defpoints
 62
     0
100
AcDbPoint
 10
-677.471264939091
 20
967.2331786268264
 30
0.0
  0
POINT
  5
1A24
330
1A19
100
AcDbEntity
  8
Defpoints
 62
     0
100
AcDbPoint
 10
-761.3768901128972
 20
967.2331786268264
 30
0.0
  0
ENDBLK
  5
1A1B
330
1A19
100
AcDbEntity
  8
0
100
AcDbBlockEnd
  0
BLOCK
  5
1A27
330
1A26
100
AcDbEntity
  8
0
100
AcDbBlockBegin
  2
*D13
 70
     1
 10
0.0
 20
0.0
 30
0.0
  3
*D13
  1
*D178
  0
LINE
  5
1A29
330
1A26
100
AcDbEntity
  8
Dim
  6
Continuous
 62
     0
370
    -2
100
AcDbLine
 10
-727.471264939091
 20
967.2331786268264
 30
0.0
 11
-761.3768901128972
 21
967.2331786268264
 31
0.0
  0
LINE
  5
1A2A
330
1A26
100
AcDbEntity
  8
Dim
  6
Continuous
 62
     0
370
    -2
100
AcDbLine
 10
-664.2463188304221
 20
892.2331786268264
 30
0.0
 11
-761.3768901128972
 21
892.2331786268264
 31
0.0
  0
LINE
  5
1A2B
330
1A26
100
AcDbEntity
  8
Dim
  6
Continuous
 62
     0
370
    -2
100
AcDbLine
 10
-761.3768901128972
 20
958.2331786268264
 30
0.0
 11
-761.3768901128972
 21
901.2331786268264
 31
0.0
  0
INSERT
  5
1A2C
330
1A26
100
AcDbEntity
  8
Dim
 62
     0
370
    -2
100
AcDbBlockReference
  2
_DOT
 10
-761.3768901128972
 20
967.2331786268264
 30
0.0
 41
9.0
 42
9.0
 43
9.0
 50
90.0
  0
INSERT
  5
1A2D
330
1A26
100
AcDbEntity
  8
Dim
 62
     0
370
    -2
100
AcDbBlockReference
  2
_DOT
 10
-761.3768901128972
 20
892.2331786268264
 30
0.0
 41
9.0
 42
9.0
 43
9.0
 50
270.0
  0
MTEXT
  5
1A2E
330
1A26
100
AcDbEntity
  8
Dim
  6
Continuous
 62
     0
100
AcDbMText
 10
-783.5931987066472
 20
929.7331786268264
 30
0.0
 40
24.4326171875
 41
0.0
 46
0.0
 71
     5
 72
     1
  1
\A1;75
  7
ＭＳ ゴシック
 11
0.0
 21
1.0
 31
0.0
 73
     1
 44
1.0
  0
POINT
  5
1A2F
330
1A26
100
AcDbEntity
  8
Defpoints
 62
     0
100
AcDbPoint
 10
-702.471264939091
 20
967.2331786268264
 30
0.0
  0
POINT
  5
1A30
330
1A26
100
AcDbEntity
  8
Defpoints
 62
     0
100
AcDbPoint
 10
-639.2463188304221
 20
892.2331786268264
 30
0.0
  0
POINT
  5
1A31
330
1A26
100
AcDbEntity
  8
Defpoints
 62
     0
100
AcDbPoint
 10
-761.3768901128972
 20
892.2331786268264
 30
0.0
  0
ENDBLK
  5
1A28
330
1A26
100
AcDbEntity
  8
0
100
AcDbBlockEnd
  0
BLOCK
  5
1A37
330
1A36
100
AcDbEntity
  8
0
100
AcDbBlockBegin
  2
*D14
 70
     1
 10
0.0
 20
0.0
 30
0.0
  3
*D14
  1
*D179
  0
LINE
  5
1A39
330
1A36
100
AcDbEntity
  8
Dim
  6
Continuous
 62
     0
370
    -2
100
AcDbLine
 10
-1079.023640787445
 20
1042.154778093721
 30
0.0
 11
-1010.950968915361
 21
1042.154778093721
 31
0.0
  0
LINE
  5
1A3A
330
1A36
100
AcDbEntity
  8
Dim
  6
Continuous
 62
     0
370
    -2
100
AcDbLine
 10
-1127.580864198037
 20
892.1547780937206
 30
0.0
 11
-1010.950968915361
 21
892.1547780937206
 31
0.0
  0
LINE
  5
1A3B
330
1A36
100
AcDbEntity
  8
Dim
  6
Continuous
 62
     0
370
    -2
100
AcDbLine
 10
-1010.950968915361
 20
1033.154778093721
 30
0.0
 11
-1010.950968915361
 21
901.1547780937206
 31
0.0
  0
INSERT
  5
1A3C
330
1A36
100
AcDbEntity
  8
Dim
 62
     0
370
    -2
100
AcDbBlockReference
  2
_DOT
 10
-1010.950968915361
 20
1042.154778093721
 30
0.0
 41
9.0
 42
9.0
 43
9.0
 50
90.0
  0
INSERT
  5
1A3D
330
1A36
100
AcDbEntity
  8
Dim
 62
     0
370
    -2
100
AcDbBlockReference
  2
_DOT
 10
-1010.950968915361
 20
892.1547780937206
 30
0.0
 41
9.0
 42
9.0
 43
9.0
 50
270.0
  0
MTEXT
  5
1A3E
330
1A36
100
AcDbEntity
  8
Dim
  6
Continuous
 62
     0
100
AcDbMText
 10
-1033.167277509111
 20
967.1547780937207
 30
0.0
 40
24.4326171875
 41
0.0
 46
0.0
 71
     5
 72
     1
  1
\A1;150
  7
ＭＳ ゴシック
 11
0.0
 21
1.0
 31
0.0
 73
     1
 44
1.0
  0
POINT
  5
1A3F
330
1A36
100
AcDbEntity
  8
Defpoints
 62
     0
100
AcDbPoint
 10
-1104.023640787445
 20
1042.154778093721
 30
0.0
  0
POINT
  5
1A40
330
1A36
100
AcDbEntity
  8
Defpoints
 62
     0
100
AcDbPoint
 10
-1152.580864198037
 20
892.1547780937206
 30
0.0
  0
POINT
  5
1A41
330
1A36
100
AcDbEntity
  8
Defpoints
 62
     0
100
AcDbPoint
 10
-1010.950968915361
 20
892.1547780937206
 30
0.0
  0
ENDBLK
  5
1A38
330
1A36
100
AcDbEntity
  8
0
100
AcDbBlockEnd
  0
BLOCK
  5
1A44
330
1A43
100
AcDbEntity
  8
0
100
AcDbBlockBegin
  2
*D15
 70
     1
 10
0.0
 20
0.0
 30
0.0
  3
*D15
  1
*D180
  0
LINE
  5
1A46
330
1A43
100
AcDbEntity
  8
Dim
  6
Continuous
 62
     0
370
    -2
100
AcDbLine
 10
-1730.498314026006
 20
864.0829322445534
 30
0.0
 11
-1730.498314026006
 21
800.3750743564613
 31
0.0
  0
LINE
  5
1A47
330
1A43
100
AcDbEntity
  8
Dim
  6
Continuous
 62
     0
370
    -2
100
AcDbLine
 10
-1165.498314026006
 20
864.0829322445534
 30
0.0
 11
-1165.498314026006
 21
800.3750743564613
 31
0.0
  0
LINE
  5
1A48
330
1A43
100
AcDbEntity
  8
Dim
  6
Continuous
 62
     0
370
    -2
100
AcDbLine
 10
-1721.498314026006
 20
800.3750743564613
 30
0.0
 11
-1174.498314026006
 21
800.3750743564613
 31
0.0
  0
INSERT
  5
1A49
330
1A43
100
AcDbEntity
  8
Dim
 62
     0
370
    -2
100
AcDbBlockReference
  2
_DOT
 10
-1730.498314026006
 20
800.3750743564613
 30
0.0
 41
9.0
 42
9.0
 43
9.0
 50
180.0
  0
INSERT
  5
1A4A
330
1A43
100
AcDbEntity
  8
Dim
 62
     0
370
    -2
100
AcDbBlockReference
  2
_DOT
 10
-1165.498314026006
 20
800.3750743564613
 30
0.0
 41
9.0
 42
9.0
 43
9.0
  0
MTEXT
  5
1A4B
330
1A43
100
AcDbEntity
  8
Dim
  6
Continuous
 62
     0
100
AcDbMText
 10
-1447.998314026006
 20
822.5913829502113
 30
0.0
 40
24.4326171875
 41
0.0
 46
0.0
 71
     5
 72
     1
  1
\A1;565
  7
ＭＳ ゴシック
 73
     1
 44
1.0
  0
POINT
  5
1A4C
330
1A43
100
AcDbEntity
  8
Defpoints
 62
     0
100
AcDbPoint
 10
-1730.498314026006
 20
889.0829322445534
 30
0.0
  0
POINT
  5
1A4D
330
1A43
100
AcDbEntity
  8
Defpoints
 62
     0
100
AcDbPoint
 10
-1165.498314026006
 20
889.0829322445534
 30
0.0
  0
POINT
  5
1A4E
330
1A43
100
AcDbEntity
  8
Defpoints
 62
     0
100
AcDbPoint
 10
-1165.498314026006
 20
800.3750743564613
 30
0.0
  0
ENDBLK
  5
1A45
330
1A43
100
AcDbEntity
  8
0
100
AcDbBlockEnd
  0
BLOCK
  5
1A8A
330
1A89
100
AcDbEntity
  8
0
100
AcDbBlockBegin
  2
*D16
 70
     1
 10
0.0
 20
0.0
 30
0.0
  3
*D16
  1
*D182
  0
LINE
  5
1A8C
330
1A89
100
AcDbEntity
  8
Dim
  6
Continuous
 62
     0
370
    -2
100
AcDbLine
 10
-629.8720526930472
 20
868.9935144224153
 30
0.0
 11
-629.8720526930472
 21
803.9884752019805
 31
0.0
  0
LINE
  5
1A8D
330
1A89
100
AcDbEntity
  8
Dim
  6
Continuous
 62
     0
370
    -2
100
AcDbLine
 10
-394.8720526930472
 20
868.9935144224153
 30
0.0
 11
-394.8720526930472
 21
803.9884752019805
 31
0.0
  0
LINE
  5
1A8E
330
1A89
100
AcDbEntity
  8
Dim
  6
Continuous
 62
     0
370
    -2
100
AcDbLine
 10
-620.8720526930472
 20
803.9884752019805
 30
0.0
 11
-403.8720526930472
 21
803.9884752019805
 31
0.0
  0
INSERT
  5
1A8F
330
1A89
100
AcDbEntity
  8
Dim
 62
     0
370
    -2
100
AcDbBlockReference
  2
_DOT
 10
-629.8720526930472
 20
803.9884752019805
 30
0.0
 41
9.0
 42
9.0
 43
9.0
 50
180.0
  0
INSERT
  5
1A90
330
1A89
100
AcDbEntity
  8
Dim
 62
     0
370
    -2
100
AcDbBlockReference
  2
_DOT
 10
-394.8720526930472
 20
803.9884752019805
 30
0.0
 41
9.0
 42
9.0
 43
9.0
  0
MTEXT
  5
1A91
330
1A89
100
AcDbEntity
  8
Dim
  6
Continuous
 62
     0
100
AcDbMText
 10
-512.3720526930472
 20
826.2047837957305
 30
0.0
 40
24.4326171875
 41
0.0
 46
0.0
 71
     5
 72
     1
  1
\A1;235
  7
ＭＳ ゴシック
 73
     1
 44
1.0
  0
POINT
  5
1A92
330
1A89
100
AcDbEntity
  8
Defpoints
 62
     0
100
AcDbPoint
 10
-629.8720526930472
 20
893.9935144224153
 30
0.0
  0
POINT
  5
1A93
330
1A89
100
AcDbEntity
  8
Defpoints
 62
     0
100
AcDbPoint
 10
-394.8720526930472
 20
893.9935144224153
 30
0.0
  0
POINT
  5
1A94
330
1A89
100
AcDbEntity
  8
Defpoints
 62
     0
100
AcDbPoint
 10
-394.8720526930472
 20
803.9884752019805
 30
0.0
  0
ENDBLK
  5
1A8B
330
1A89
100
AcDbEntity
  8
0
100
AcDbBlockEnd
  0
BLOCK
  5
1AA6
330
1AA5
100
AcDbEntity
  8
0
100
AcDbBlockBegin
  2
*D17
 70
     1
 10
0.0
 20
0.0
 30
0.0
  3
*D17
  1
*D183
  0
LINE
  5
1AA8
330
1AA5
100
AcDbEntity
  8
Dim
  6
Continuous
 62
     0
370
    -2
100
AcDbLine
 10
-512.3720447192811
 20
1042.148728416899
 30
0.0
 11
-512.3720447192811
 21
1212.524648338775
 31
0.0
  0
LINE
  5
1AA9
330
1AA5
100
AcDbEntity
  8
Dim
  6
Continuous
 62
     0
370
    -2
100
AcDbLine
 10
-512.3720447192811
 20
929.8244651276623
 30
0.0
 11
-512.3720447192811
 21
1033.148728416899
 31
0.0
  0
INSERT
  5
1AAA
330
1AA5
100
AcDbEntity
  8
Dim
 62
     0
370
    -2
100
AcDbBlockReference
  2
_DOT
 10
-512.3720447192811
 20
920.8244651276623
 30
0.0
 41
9.0
 42
9.0
 43
9.0
 50
270.0
  0
INSERT
  5
1AAB
330
1AA5
100
AcDbEntity
  8
Dim
 62
     0
370
    -2
100
AcDbBlockReference
  2
_DOT
 10
-512.3720447192811
 20
1042.148728416899
 30
0.0
 41
9.0
 42
9.0
 43
9.0
 50
90.0
  0
MTEXT
  5
1AAC
330
1AA5
100
AcDbEntity
  8
Dim
  6
Continuous
 62
     0
100
AcDbMText
 10
-536.7506399341248
 20
1136.336688377837
 30
0.0
 40
24.4326171875
 41
0.0
 46
0.0
 71
     5
 72
     1
  1
\A1;120(深さ)
  7
ＭＳ ゴシック
 11
0.0
 21
1.0
 31
0.0
 73
     1
 44
1.0
  0
POINT
  5
1AAD
330
1AA5
100
AcDbEntity
  8
Defpoints
 62
     0
100
AcDbPoint
 10
-512.372057990432
 20
920.8244651276623
 30
0.0
  0
POINT
  5
1AAE
330
1AA5
100
AcDbEntity
  8
Defpoints
 62
     0
100
AcDbPoint
 10
-512.3720507163941
 20
1042.148728416899
 30
0.0
  0
POINT
  5
1AB3
330
1AA5
100
AcDbEntity
  8
Defpoints
 62
     0
100
AcDbPoint
 10
-512.3720447192811
 20
1042.148728416899
 30
0.0
  0
ENDBLK
  5
1AA7
330
1AA5
100
AcDbEntity
  8
0
100
AcDbBlockEnd
  0
BLOCK
  5
1D2B
330
1D2A
100
AcDbEntity
  8
0
100
AcDbBlockBegin
  2
*D18
 70
     1
 10
0.0
 20
0.0
 30
0.0
  3
*D18
  1
*D21
  0
LINE
  5
1D2D
330
1D2A
100
AcDbEntity
  8
Dim
  6
Continuous
 62
     0
370
    -2
100
AcDbLine
 10
1576.401501298723
 20
906.5842408933662
 30
0.0
 11
1993.195881265048
 21
906.5842408933662
 31
0.0
  0
LINE
  5
1D2E
330
1D2A
100
AcDbEntity
  8
Dim
  6
Continuous
 62
     0
370
    -2
100
AcDbLine
 10
1576.401501298723
 20
1491.584240893366
 30
0.0
 11
1993.195881265048
 21
1491.584240893366
 31
0.0
  0
LINE
  5
1D2F
330
1D2A
100
AcDbEntity
  8
Dim
  6
Continuous
 62
     0
370
    -2
100
AcDbLine
 10
1993.195881265048
 20
915.5842408933662
 30
0.0
 11
1993.195881265048
 21
1482.584240893366
 31
0.0
  0
INSERT
  5
1D30
330
1D2A
100
AcDbEntity
  8
Dim
 62
     0
370
    -2
100
AcDbBlockReference
  2
_DOT
 10
1993.195881265048
 20
906.5842408933662
 30
0.0
 41
9.0
 42
9.0
 43
9.0
 50
270.0
  0
INSERT
  5
1D31
330
1D2A
100
AcDbEntity
  8
Dim
 62
     0
370
    -2
100
AcDbBlockReference
  2
_DOT
 10
1993.195881265048
 20
1491.584240893366
 30
0.0
 41
9.0
 42
9.0
 43
9.0
 50
90.0
  0
MTEXT
  5
1D32
330
1D2A
100
AcDbEntity
  8
Dim
  6
Continuous
 62
     0
100
AcDbMText
 10
1970.979572671298
 20
1199.084240893366
 30
0.0
 40
24.4326171875
 41
0.0
 46
0.0
 71
     5
 72
     1
  1
\A1;585
  7
ＭＳ ゴシック
 11
0.0
 21
1.0
 31
0.0
 73
     1
 44
1.0
  0
POINT
  5
1D33
330
1D2A
100
AcDbEntity
  8
Defpoints
 62
     0
100
AcDbPoint
 10
1551.401501298723
 20
906.5842408933662
 30
0.0
  0
POINT
  5
1D34
330
1D2A
100
AcDbEntity
  8
Defpoints
 62
     0
100
AcDbPoint
 10
1551.401501298723
 20
1491.584240893366
 30
0.0
  0
POINT
  5
1D35
330
1D2A
100
AcDbEntity
  8
Defpoints
 62
     0
100
AcDbPoint
 10
1993.195881265048
 20
1491.584240893366
 30
0.0
  0
ENDBLK
  5
1D2C
330
1D2A
100
AcDbEntity
  8
0
100
AcDbBlockEnd
  0
BLOCK
  5
1D62
330
1D61
100
AcDbEntity
  8
0
100
AcDbBlockBegin
  2
*D19
 70
     1
 10
0.0
 20
0.0
 30
0.0
  3
*D19
  1
*D22
  0
LINE
  5
1D64
330
1D61
100
AcDbEntity
  8
Dim
  6
Continuous
 62
     0
370
    -2
100
AcDbLine
 10
463.9946304697561
 20
2320.042820875376
 30
0.0
 11
463.9946304697561
 21
2381.465523557275
 31
0.0
  0
LINE
  5
1D65
330
1D61
100
AcDbEntity
  8
Dim
  6
Continuous
 62
     0
370
    -2
100
AcDbLine
 10
763.9946304697561
 20
2320.042820875376
 30
0.0
 11
763.9946304697561
 21
2381.465523557275
 31
0.0
  0
LINE
  5
1D66
330
1D61
100
AcDbEntity
  8
Dim
  6
Continuous
 62
     0
370
    -2
100
AcDbLine
 10
472.9946304697561
 20
2381.465523557275
 30
0.0
 11
754.9946304697561
 21
2381.465523557275
 31
0.0
  0
INSERT
  5
1D67
330
1D61
100
AcDbEntity
  8
Dim
 62
     0
370
    -2
100
AcDbBlockReference
  2
_DOT
 10
463.9946304697561
 20
2381.465523557275
 30
0.0
 41
9.0
 42
9.0
 43
9.0
 50
180.0
  0
INSERT
  5
1D68
330
1D61
100
AcDbEntity
  8
Dim
 62
     0
370
    -2
100
AcDbBlockReference
  2
_DOT
 10
763.9946304697561
 20
2381.465523557275
 30
0.0
 41
9.0
 42
9.0
 43
9.0
  0
MTEXT
  5
1D69
330
1D61
100
AcDbEntity
  8
Dim
  6
Continuous
 62
     0
100
AcDbMText
 10
613.9946304697561
 20
2403.681832151025
 30
0.0
 40
24.4326171875
 41
0.0
 46
0.0
 71
     5
 72
     1
  1
\A1;300
  7
ＭＳ ゴシック
 73
     1
 44
1.0
  0
POINT
  5
1D6A
330
1D61
100
AcDbEntity
  8
Defpoints
 62
     0
100
AcDbPoint
 10
463.9946304697561
 20
2295.042820875376
 30
0.0
  0
POINT
  5
1D6B
330
1D61
100
AcDbEntity
  8
Defpoints
 62
     0
100
AcDbPoint
 10
763.9946304697561
 20
2295.042820875376
 30
0.0
  0
POINT
  5
1D6C
330
1D61
100
AcDbEntity
  8
Defpoints
 62
     0
100
AcDbPoint
 10
763.9946304697561
 20
2381.465523557275
 30
0.0
  0
ENDBLK
  5
1D63
330
1D61
100
AcDbEntity
  8
0
100
AcDbBlockEnd
  0
BLOCK
  5
1D6F
330
1D6E
100
AcDbEntity
  8
0
100
AcDbBlockBegin
  2
*D20
 70
     1
 10
0.0
 20
0.0
 30
0.0
  3
*D20
  1
*D23
  0
LINE
  5
1D71
330
1D6E
100
AcDbEntity
  8
Dim
  6
Continuous
 62
     0
370
    -2
100
AcDbLine
 10
443.9946304697564
 20
2300.042820875376
 30
0.0
 11
368.5880848675574
 21
2300.042820875376
 31
0.0
  0
LINE
  5
1D72
330
1D6E
100
AcDbEntity
  8
Dim
  6
Continuous
 62
     0
370
    -2
100
AcDbLine
 10
564.8997979675133
 20
1950.042820875376
 30
0.0
 11
368.5880848675574
 21
1950.042820875376
 31
0.0
  0
LINE
  5
1D73
330
1D6E
100
AcDbEntity
  8
Dim
  6
Continuous
 62
     0
370
    -2
100
AcDbLine
 10
368.5880848675574
 20
2291.042820875376
 30
0.0
 11
368.5880848675574
 21
1959.042820875376
 31
0.0
  0
INSERT
  5
1D74
330
1D6E
100
AcDbEntity
  8
Dim
 62
     0
370
    -2
100
AcDbBlockReference
  2
_DOT
 10
368.5880848675574
 20
2300.042820875376
 30
0.0
 41
9.0
 42
9.0
 43
9.0
 50
90.0
  0
INSERT
  5
1D75
330
1D6E
100
AcDbEntity
  8
Dim
 62
     0
370
    -2
100
AcDbBlockReference
  2
_DOT
 10
368.5880848675574
 20
1950.042820875376
 30
0.0
 41
9.0
 42
9.0
 43
9.0
 50
270.0
  0
MTEXT
  5
1D76
330
1D6E
100
AcDbEntity
  8
Dim
  6
Continuous
 62
     0
100
AcDbMText
 10
346.3717762738074
 20
2125.042820875376
 30
0.0
 40
24.4326171875
 41
0.0
 46
0.0
 71
     5
 72
     1
  1
\A1;350
  7
ＭＳ ゴシック
 11
0.0
 21
1.0
 31
0.0
 73
     1
 44
1.0
  0
POINT
  5
1D77
330
1D6E
100
AcDbEntity
  8
Defpoints
 62
     0
100
AcDbPoint
 10
468.9946304697564
 20
2300.042820875376
 30
0.0
  0
POINT
  5
1D78
330
1D6E
100
AcDbEntity
  8
Defpoints
 62
     0
100
AcDbPoint
 10
589.8997979675133
 20
1950.042820875376
 30
0.0
  0
POINT
  5
1D79
330
1D6E
100
AcDbEntity
  8
Defpoints
 62
     0
100
AcDbPoint
 10
368.5880848675574
 20
1950.042820875376
 30
0.0
  0
ENDBLK
  5
1D70
330
1D6E
100
AcDbEntity
  8
0
100
AcDbBlockEnd
  0
BLOCK
  5
1D7F
330
1D7E
100
AcDbEntity
  8
0
100
AcDbBlockBegin
  2
*D21
 70
     1
 10
0.0
 20
0.0
 30
0.0
  3
*D21
  1
*D24
  0
LINE
  5
1D81
330
1D7E
100
AcDbEntity
  8
Dim
  6
Continuous
 62
     0
370
    -2
100
AcDbLine
 10
691.5874754448122
 20
1155.057522657055
 30
0.0
 11
691.5874754448122
 21
1098.856030945055
 31
0.0
  0
LINE
  5
1D82
330
1D7E
100
AcDbEntity
  8
Dim
  6
Continuous
 62
     0
370
    -2
100
AcDbLine
 10
536.5874754448121
 20
1155.057522657055
 30
0.0
 11
536.5874754448121
 21
1098.856030945055
 31
0.0
  0
LINE
  5
1D83
330
1D7E
100
AcDbEntity
  8
Dim
  6
Continuous
 62
     0
370
    -2
100
AcDbLine
 10
682.5874754448122
 20
1098.856030945055
 30
0.0
 11
545.5874754448121
 21
1098.856030945055
 31
0.0
  0
INSERT
  5
1D84
330
1D7E
100
AcDbEntity
  8
Dim
 62
     0
370
    -2
100
AcDbBlockReference
  2
_DOT
 10
691.5874754448122
 20
1098.856030945055
 30
0.0
 41
9.0
 42
9.0
 43
9.0
  0
INSERT
  5
1D85
330
1D7E
100
AcDbEntity
  8
Dim
 62
     0
370
    -2
100
AcDbBlockReference
  2
_DOT
 10
536.5874754448121
 20
1098.856030945055
 30
0.0
 41
9.0
 42
9.0
 43
9.0
 50
180.0
  0
MTEXT
  5
1D86
330
1D7E
100
AcDbEntity
  8
Dim
  6
Continuous
 62
     0
100
AcDbMText
 10
614.0874754448121
 20
1121.072339538805
 30
0.0
 40
24.4326171875
 41
0.0
 46
0.0
 71
     5
 72
     1
  1
\A1;155
  7
ＭＳ ゴシック
 73
     1
 44
1.0
  0
POINT
  5
1D87
330
1D7E
100
AcDbEntity
  8
Defpoints
 62
     0
100
AcDbPoint
 10
691.5874754448122
 20
1180.057522657055
 30
0.0
  0
POINT
  5
1D88
330
1D7E
100
AcDbEntity
  8
Defpoints
 62
     0
100
AcDbPoint
 10
536.5874754448121
 20
1180.057522657055
 30
0.0
  0
POINT
  5
1D89
330
1D7E
100
AcDbEntity
  8
Defpoints
 62
     0
100
AcDbPoint
 10
536.5874754448121
 20
1098.856030945055
 30
0.0
  0
ENDBLK
  5
1D80
330
1D7E
100
AcDbEntity
  8
0
100
AcDbBlockEnd
  0
BLOCK
  5
1D93
330
1D92
100
AcDbEntity
  8
0
100
AcDbBlockBegin
  2
*D22
 70
     1
 10
0.0
 20
0.0
 30
0.0
  3
*D22
  1
*D25
  0
LINE
  5
1D95
330
1D92
100
AcDbEntity
  8
Dim
  6
Continuous
 62
     0
370
    -2
100
AcDbLine
 10
589.0873746602504
 20
885.7780219789279
 30
0.0
 11
341.5126344781764
 21
885.7780219789279
 31
0.0
  0
LINE
  5
1D96
330
1D92
100
AcDbEntity
  8
Dim
  6
Continuous
 62
     0
370
    -2
100
AcDbLine
 10
589.0873746602504
 20
1265.778021978928
 30
0.0
 11
341.5126344781764
 21
1265.778021978928
 31
0.0
  0
LINE
  5
1D97
330
1D92
100
AcDbEntity
  8
Dim
  6
Continuous
 62
     0
370
    -2
100
AcDbLine
 10
341.5126344781764
 20
894.7780219789279
 30
0.0
 11
341.5126344781764
 21
1256.778021978928
 31
0.0
  0
INSERT
  5
1D98
330
1D92
100
AcDbEntity
  8
Dim
 62
     0
370
    -2
100
AcDbBlockReference
  2
_DOT
 10
341.5126344781764
 20
885.7780219789279
 30
0.0
 41
9.0
 42
9.0
 43
9.0
 50
270.0
  0
INSERT
  5
1D99
330
1D92
100
AcDbEntity
  8
Dim
 62
     0
370
    -2
100
AcDbBlockReference
  2
_DOT
 10
341.5126344781764
 20
1265.778021978928
 30
0.0
 41
9.0
 42
9.0
 43
9.0
 50
90.0
  0
MTEXT
  5
1D9A
330
1D92
100
AcDbEntity
  8
Dim
  6
Continuous
 62
     0
100
AcDbMText
 10
319.2963258844264
 20
1075.778021978928
 30
0.0
 40
24.4326171875
 41
0.0
 46
0.0
 71
     5
 72
     1
  1
\A1;380
  7
ＭＳ ゴシック
 11
0.0
 21
1.0
 31
0.0
 73
     1
 44
1.0
  0
POINT
  5
1D9B
330
1D92
100
AcDbEntity
  8
Defpoints
 62
     0
100
AcDbPoint
 10
614.0873746602504
 20
885.7780219789279
 30
0.0
  0
POINT
  5
1D9C
330
1D92
100
AcDbEntity
  8
Defpoints
 62
     0
100
AcDbPoint
 10
614.0873746602504
 20
1265.778021978928
 30
0.0
  0
POINT
  5
1D9D
330
1D92
100
AcDbEntity
  8
Defpoints
 62
     0
100
AcDbPoint
 10
341.5126344781764
 20
1265.778021978928
 30
0.0
  0
ENDBLK
  5
1D94
330
1D92
100
AcDbEntity
  8
0
100
AcDbBlockEnd
  0
BLOCK
  5
1DA0
330
1D9F
100
AcDbEntity
  8
0
100
AcDbBlockBegin
  2
*D23
 70
     1
 10
0.0
 20
0.0
 30
0.0
  3
*D23
  1
*D26
  0
LINE
  5
1DA2
330
1D9F
100
AcDbEntity
  8
Dim
  6
Continuous
 62
     0
370
    -2
100
AcDbLine
 10
474.685931005649
 20
1265.778021978928
 30
0.0
 11
423.3264085441104
 21
1265.778021978928
 31
0.0
  0
LINE
  5
1DA3
330
1D9F
100
AcDbEntity
  8
Dim
  6
Continuous
 62
     0
370
    -2
100
AcDbLine
 10
474.685931005649
 20
1190.778021978928
 30
0.0
 11
423.3264085441104
 21
1190.778021978928
 31
0.0
  0
LINE
  5
1DA4
330
1D9F
100
AcDbEntity
  8
Dim
  6
Continuous
 62
     0
370
    -2
100
AcDbLine
 10
423.3264085441104
 20
1256.778021978928
 30
0.0
 11
423.3264085441104
 21
1199.778021978928
 31
0.0
  0
INSERT
  5
1DA5
330
1D9F
100
AcDbEntity
  8
Dim
 62
     0
370
    -2
100
AcDbBlockReference
  2
_DOT
 10
423.3264085441104
 20
1265.778021978928
 30
0.0
 41
9.0
 42
9.0
 43
9.0
 50
90.0
  0
INSERT
  5
1DA6
330
1D9F
100
AcDbEntity
  8
Dim
 62
     0
370
    -2
100
AcDbBlockReference
  2
_DOT
 10
423.3264085441104
 20
1190.778021978928
 30
0.0
 41
9.0
 42
9.0
 43
9.0
 50
270.0
  0
MTEXT
  5
1DA7
330
1D9F
100
AcDbEntity
  8
Dim
  6
Continuous
 62
     0
100
AcDbMText
 10
401.1100999503604
 20
1228.278021978928
 30
0.0
 40
24.4326171875
 41
0.0
 46
0.0
 71
     5
 72
     1
  1
\A1;75
  7
ＭＳ ゴシック
 11
0.0
 21
1.0
 31
0.0
 73
     1
 44
1.0
  0
POINT
  5
1DA8
330
1D9F
100
AcDbEntity
  8
Defpoints
 62
     0
100
AcDbPoint
 10
499.685931005649
 20
1265.778021978928
 30
0.0
  0
POINT
  5
1DA9
330
1D9F
100
AcDbEntity
  8
Defpoints
 62
     0
100
AcDbPoint
 10
499.685931005649
 20
1190.778021978928
 30
0.0
  0
POINT
  5
1DAA
330
1D9F
100
AcDbEntity
  8
Defpoints
 62
     0
100
AcDbPoint
 10
423.3264085441104
 20
1190.778021978928
 30
0.0
  0
ENDBLK
  5
1DA1
330
1D9F
100
AcDbEntity
  8
0
100
AcDbBlockEnd
  0
BLOCK
  5
1DB2
330
1DB1
100
AcDbEntity
  8
0
100
AcDbBlockBegin
  2
*D24
 70
     1
 10
0.0
 20
0.0
 30
0.0
  3
*D24
  1
*D27
  0
LINE
  5
1DB4
330
1DB1
100
AcDbEntity
  8
Dim
  6
Continuous
 62
     0
370
    -2
100
AcDbLine
 10
424.0061697748797
 20
1265.778021978928
 30
0.0
 11
341.5126344781764
 21
1265.778021978928
 31
0.0
  0
LINE
  5
1DB5
330
1DB1
100
AcDbEntity
  8
Dim
  6
Continuous
 62
     0
370
    -2
100
AcDbLine
 10
481.2641947806783
 20
1470.778021978928
 30
0.0
 11
341.5126344781764
 21
1470.778021978928
 31
0.0
  0
LINE
  5
1DB6
330
1DB1
100
AcDbEntity
  8
Dim
  6
Continuous
 62
     0
370
    -2
100
AcDbLine
 10
341.5126344781764
 20
1274.778021978928
 30
0.0
 11
341.5126344781764
 21
1461.778021978928
 31
0.0
  0
INSERT
  5
1DB7
330
1DB1
100
AcDbEntity
  8
Dim
 62
     0
370
    -2
100
AcDbBlockReference
  2
_DOT
 10
341.5126344781764
 20
1265.778021978928
 30
0.0
 41
9.0
 42
9.0
 43
9.0
 50
270.0
  0
INSERT
  5
1DB8
330
1DB1
100
AcDbEntity
  8
Dim
 62
     0
370
    -2
100
AcDbBlockReference
  2
_DOT
 10
341.5126344781764
 20
1470.778021978928
 30
0.0
 41
9.0
 42
9.0
 43
9.0
 50
90.0
  0
MTEXT
  5
1DB9
330
1DB1
100
AcDbEntity
  8
Dim
  6
Continuous
 62
     0
100
AcDbMText
 10
319.2963258844264
 20
1368.278021978928
 30
0.0
 40
24.4326171875
 41
0.0
 46
0.0
 71
     5
 72
     1
  1
\A1;205
  7
ＭＳ ゴシック
 11
0.0
 21
1.0
 31
0.0
 73
     1
 44
1.0
  0
POINT
  5
1DBA
330
1DB1
100
AcDbEntity
  8
Defpoints
 62
     0
100
AcDbPoint
 10
449.0061697748797
 20
1265.778021978928
 30
0.0
  0
POINT
  5
1DBB
330
1DB1
100
AcDbEntity
  8
Defpoints
 62
     0
100
AcDbPoint
 10
506.2641947806783
 20
1470.778021978928
 30
0.0
  0
POINT
  5
1DBC
330
1DB1
100
AcDbEntity
  8
Defpoints
 62
     0
100
AcDbPoint
 10
341.5126344781764
 20
1470.778021978928
 30
0.0
  0
ENDBLK
  5
1DB3
330
1DB1
100
AcDbEntity
  8
0
100
AcDbBlockEnd
  0
BLOCK
  5
1DCB
330
1DCA
100
AcDbEntity
  8
0
100
AcDbBlockBegin
  2
*D25
 70
     1
 10
0.0
 20
0.0
 30
0.0
  3
*D25
  1
*D28
  0
LINE
  5
1DCD
330
1DCA
100
AcDbEntity
  8
Dim
  6
Continuous
 62
     0
370
    -2
100
AcDbLine
 10
516.5873704887614
 20
877.6054159631203
 30
0.0
 11
516.5873704887614
 21
796.7929348378456
 31
0.0
  0
LINE
  5
1DCE
330
1DCA
100
AcDbEntity
  8
Dim
  6
Continuous
 62
     0
370
    -2
100
AcDbLine
 10
711.5873704887614
 20
877.6054159631203
 30
0.0
 11
711.5873704887614
 21
796.7929348378456
 31
0.0
  0
LINE
  5
1DCF
330
1DCA
100
AcDbEntity
  8
Dim
  6
Continuous
 62
     0
370
    -2
100
AcDbLine
 10
525.5873704887614
 20
796.7929348378456
 30
0.0
 11
702.5873704887614
 21
796.7929348378456
 31
0.0
  0
INSERT
  5
1DD0
330
1DCA
100
AcDbEntity
  8
Dim
 62
     0
370
    -2
100
AcDbBlockReference
  2
_DOT
 10
516.5873704887614
 20
796.7929348378456
 30
0.0
 41
9.0
 42
9.0
 43
9.0
 50
180.0
  0
INSERT
  5
1DD1
330
1DCA
100
AcDbEntity
  8
Dim
 62
     0
370
    -2
100
AcDbBlockReference
  2
_DOT
 10
711.5873704887614
 20
796.7929348378456
 30
0.0
 41
9.0
 42
9.0
 43
9.0
  0
MTEXT
  5
1DD2
330
1DCA
100
AcDbEntity
  8
Dim
  6
Continuous
 62
     0
100
AcDbMText
 10
614.0873704887614
 20
819.0092434315956
 30
0.0
 40
24.4326171875
 41
0.0
 46
0.0
 71
     5
 72
     1
  1
\A1;195
  7
ＭＳ ゴシック
 73
     1
 44
1.0
  0
POINT
  5
1DD3
330
1DCA
100
AcDbEntity
  8
Defpoints
 62
     0
100
AcDbPoint
 10
516.5873704887614
 20
902.6054159631203
 30
0.0
  0
POINT
  5
1DD4
330
1DCA
100
AcDbEntity
  8
Defpoints
 62
     0
100
AcDbPoint
 10
711.5873704887614
 20
902.6054159631203
 30
0.0
  0
POINT
  5
1DD5
330
1DCA
100
AcDbEntity
  8
Defpoints
 62
     0
100
AcDbPoint
 10
711.5873704887614
 20
796.7929348378456
 30
0.0
  0
ENDBLK
  5
1DCC
330
1DCA
100
AcDbEntity
  8
0
100
AcDbBlockEnd
  0
BLOCK
  5
1DDC
330
1DDB
100
AcDbEntity
  8
0
100
AcDbBlockBegin
  2
*D26
 70
     1
 10
0.0
 20
0.0
 30
0.0
  3
*D26
  1
*D29
  0
LINE
  5
1DDE
330
1DDB
100
AcDbEntity
  8
Dim
  6
Continuous
 62
     0
370
    -2
100
AcDbLine
 10
682.7213874954152
 20
885.7780219789279
 30
0.0
 11
854.3739056749041
 21
885.7780219789279
 31
0.0
  0
LINE
  5
1DDF
330
1DDB
100
AcDbEntity
  8
Dim
  6
Continuous
 62
     0
370
    -2
100
AcDbLine
 10
668.5933221928262
 20
1005.777407354091
 30
0.0
 11
854.3739056749041
 21
1005.777407354091
 31
0.0
  0
LINE
  5
1DE0
330
1DDB
100
AcDbEntity
  8
Dim
  6
Continuous
 62
     0
370
    -2
100
AcDbLine
 10
854.3739056749041
 20
894.7780219789279
 30
0.0
 11
854.3739056749041
 21
996.7774073540913
 31
0.0
  0
INSERT
  5
1DE1
330
1DDB
100
AcDbEntity
  8
Dim
 62
     0
370
    -2
100
AcDbBlockReference
  2
_DOT
 10
854.3739056749041
 20
885.7780219789279
 30
0.0
 41
9.0
 42
9.0
 43
9.0
 50
270.0
  0
INSERT
  5
1DE2
330
1DDB
100
AcDbEntity
  8
Dim
 62
     0
370
    -2
100
AcDbBlockReference
  2
_DOT
 10
854.3739056749041
 20
1005.777407354091
 30
0.0
 41
9.0
 42
9.0
 43
9.0
 50
90.0
  0
MTEXT
  5
1DE3
330
1DDB
100
AcDbEntity
  8
Dim
  6
Continuous
 62
     0
100
AcDbMText
 10
832.1575970811541
 20
945.7777146665096
 30
0.0
 40
24.4326171875
 41
0.0
 46
0.0
 71
     5
 72
     1
  1
\A1;120
  7
ＭＳ ゴシック
 11
0.0
 21
1.0
 31
0.0
 73
     1
 44
1.0
  0
POINT
  5
1DE4
330
1DDB
100
AcDbEntity
  8
Defpoints
 62
     0
100
AcDbPoint
 10
657.7213874954152
 20
885.7780219789279
 30
0.0
  0
POINT
  5
1DE5
330
1DDB
100
AcDbEntity
  8
Defpoints
 62
     0
100
AcDbPoint
 10
643.5933221928262
 20
1005.777407354091
 30
0.0
  0
POINT
  5
1DE6
330
1DDB
100
AcDbEntity
  8
Defpoints
 62
     0
100
AcDbPoint
 10
854.3739056749041
 20
1005.777407354091
 30
0.0
  0
ENDBLK
  5
1DDD
330
1DDB
100
AcDbEntity
  8
0
100
AcDbBlockEnd
  0
BLOCK
  5
1DEC
330
1DEB
100
AcDbEntity
  8
0
100
AcDbBlockBegin
  2
*D27
 70
     1
 10
0.0
 20
0.0
 30
0.0
  3
*D27
  1
*D30
  0
LINE
  5
1DEE
330
1DEB
100
AcDbEntity
  8
Dim
  6
Continuous
 62
     0
370
    -2
100
AcDbLine
 10
693.5933221928262
 20
1005.777407354091
 30
0.0
 11
854.3739056749041
 21
1005.777407354091
 31
0.0
  0
LINE
  5
1DEF
330
1DEB
100
AcDbEntity
  8
Dim
  6
Continuous
 62
     0
370
    -2
100
AcDbLine
 10
744.0882455346898
 20
1190.777311358189
 30
0.0
 11
854.3739056749041
 21
1190.777311358189
 31
0.0
  0
LINE
  5
1DF0
330
1DEB
100
AcDbEntity
  8
Dim
  6
Continuous
 62
     0
370
    -2
100
AcDbLine
 10
854.3739056749041
 20
1014.777407354091
 30
0.0
 11
854.3739056749041
 21
1181.777311358189
 31
0.0
  0
INSERT
  5
1DF1
330
1DEB
100
AcDbEntity
  8
Dim
 62
     0
370
    -2
100
AcDbBlockReference
  2
_DOT
 10
854.3739056749041
 20
1005.777407354091
 30
0.0
 41
9.0
 42
9.0
 43
9.0
 50
270.0
  0
INSERT
  5
1DF2
330
1DEB
100
AcDbEntity
  8
Dim
 62
     0
370
    -2
100
AcDbBlockReference
  2
_DOT
 10
854.3739056749041
 20
1190.777311358189
 30
0.0
 41
9.0
 42
9.0
 43
9.0
 50
90.0
  0
MTEXT
  5
1DF3
330
1DEB
100
AcDbEntity
  8
Dim
  6
Continuous
 62
     0
100
AcDbMText
 10
832.1575970811541
 20
1098.27735935614
 30
0.0
 40
24.4326171875
 41
0.0
 46
0.0
 71
     5
 72
     1
  1
\A1;185
  7
ＭＳ ゴシック
 11
0.0
 21
1.0
 31
0.0
 73
     1
 44
1.0
  0
POINT
  5
1DF4
330
1DEB
100
AcDbEntity
  8
Defpoints
 62
     0
100
AcDbPoint
 10
668.5933221928262
 20
1005.777407354091
 30
0.0
  0
POINT
  5
1DF5
330
1DEB
100
AcDbEntity
  8
Defpoints
 62
     0
100
AcDbPoint
 10
719.0882455346898
 20
1190.777311358189
 30
0.0
  0
POINT
  5
1DF6
330
1DEB
100
AcDbEntity
  8
Defpoints
 62
     0
100
AcDbPoint
 10
854.3739056749041
 20
1190.777311358189
 30
0.0
  0
ENDBLK
  5
1DED
330
1DEB
100
AcDbEntity
  8
0
100
AcDbBlockEnd
  0
BLOCK
  5
1DFC
330
1DFB
100
AcDbEntity
  8
0
100
AcDbBlockBegin
  2
*D28
 70
     1
 10
0.0
 20
0.0
 30
0.0
  3
*D28
  1
*D31
  0
LINE
  5
1DFE
330
1DFB
100
AcDbEntity
  8
Dim
  6
Continuous
 62
     0
370
    -2
100
AcDbLine
 10
769.0882455346898
 20
1190.777311358189
 30
0.0
 11
854.3739056749041
 21
1190.777311358189
 31
0.0
  0
LINE
  5
1DFF
330
1DFB
100
AcDbEntity
  8
Dim
  6
Continuous
 62
     0
370
    -2
100
AcDbLine
 10
660.5702973149964
 20
1410.777407354091
 30
0.0
 11
854.3739056749041
 21
1410.777407354091
 31
0.0
  0
LINE
  5
1E00
330
1DFB
100
AcDbEntity
  8
Dim
  6
Continuous
 62
     0
370
    -2
100
AcDbLine
 10
854.3739056749041
 20
1199.777311358189
 30
0.0
 11
854.3739056749041
 21
1401.777407354091
 31
0.0
  0
INSERT
  5
1E01
330
1DFB
100
AcDbEntity
  8
Dim
 62
     0
370
    -2
100
AcDbBlockReference
  2
_DOT
 10
854.3739056749041
 20
1190.777311358189
 30
0.0
 41
9.0
 42
9.0
 43
9.0
 50
270.0
  0
INSERT
  5
1E02
330
1DFB
100
AcDbEntity
  8
Dim
 62
     0
370
    -2
100
AcDbBlockReference
  2
_DOT
 10
854.3739056749041
 20
1410.777407354091
 30
0.0
 41
9.0
 42
9.0
 43
9.0
 50
90.0
  0
MTEXT
  5
1E03
330
1DFB
100
AcDbEntity
  8
Dim
  6
Continuous
 62
     0
100
AcDbMText
 10
832.1575970811541
 20
1300.77735935614
 30
0.0
 40
24.4326171875
 41
0.0
 46
0.0
 71
     5
 72
     1
  1
\A1;220
  7
ＭＳ ゴシック
 11
0.0
 21
1.0
 31
0.0
 73
     1
 44
1.0
  0
POINT
  5
1E04
330
1DFB
100
AcDbEntity
  8
Defpoints
 62
     0
100
AcDbPoint
 10
744.0882455346898
 20
1190.777311358189
 30
0.0
  0
POINT
  5
1E05
330
1DFB
100
AcDbEntity
  8
Defpoints
 62
     0
100
AcDbPoint
 10
635.5702973149964
 20
1410.777407354091
 30
0.0
  0
POINT
  5
1E06
330
1DFB
100
AcDbEntity
  8
Defpoints
 62
     0
100
AcDbPoint
 10
854.3739056749041
 20
1410.777407354091
 30
0.0
  0
ENDBLK
  5
1DFD
330
1DFB
100
AcDbEntity
  8
0
100
AcDbBlockEnd
  0
BLOCK
  5
1E1A
330
1E19
100
AcDbEntity
  8
0
100
AcDbBlockBegin
  2
*D29
 70
     1
 10
0.0
 20
0.0
 30
0.0
  3
*D29
  1
*D32
  0
LINE
  5
1E1C
330
1E19
100
AcDbEntity
  8
Dim
  6
Continuous
 62
     0
370
    -2
100
AcDbLine
 10
1562.298465598663
 20
1470.776741163754
 30
0.0
 11
1640.84043970798
 21
1470.776741163754
 31
0.0
  0
LINE
  5
1E1D
330
1E19
100
AcDbEntity
  8
Dim
  6
Continuous
 62
     0
370
    -2
100
AcDbLine
 10
1582.885036359298
 20
1410.776835260251
 30
0.0
 11
1640.84043970798
 21
1410.776835260251
 31
0.0
  0
LINE
  5
1E1E
330
1E19
100
AcDbEntity
  8
Dim
  6
Continuous
 62
     0
370
    -2
100
AcDbLine
 10
1640.84043970798
 20
1461.776741163754
 30
0.0
 11
1640.84043970798
 21
1419.776835260251
 31
0.0
  0
INSERT
  5
1E1F
330
1E19
100
AcDbEntity
  8
Dim
 62
     0
370
    -2
100
AcDbBlockReference
  2
_DOT
 10
1640.84043970798
 20
1470.776741163754
 30
0.0
 41
9.0
 42
9.0
 43
9.0
 50
90.0
  0
INSERT
  5
1E20
330
1E19
100
AcDbEntity
  8
Dim
 62
     0
370
    -2
100
AcDbBlockReference
  2
_DOT
 10
1640.84043970798
 20
1410.776835260251
 30
0.0
 41
9.0
 42
9.0
 43
9.0
 50
270.0
  0
MTEXT
  5
1E21
330
1E19
100
AcDbEntity
  8
Dim
  6
Continuous
 62
     0
100
AcDbMText
 10
1618.62413111423
 20
1440.776788212002
 30
0.0
 40
24.4326171875
 41
0.0
 46
0.0
 71
     5
 72
     1
  1
\A1;60
  7
ＭＳ ゴシック
 11
0.0
 21
1.0
 31
0.0
 73
     1
 44
1.0
  0
POINT
  5
1E22
330
1E19
100
AcDbEntity
  8
Defpoints
 62
     0
100
AcDbPoint
 10
1537.298465598663
 20
1470.776741163754
 30
0.0
  0
POINT
  5
1E23
330
1E19
100
AcDbEntity
  8
Defpoints
 62
     0
100
AcDbPoint
 10
1557.885036359298
 20
1410.776835260251
 30
0.0
  0
POINT
  5
1E24
330
1E19
100
AcDbEntity
  8
Defpoints
 62
     0
100
AcDbPoint
 10
1640.84043970798
 20
1410.776835260251
 30
0.0
  0
ENDBLK
  5
1E1B
330
1E19
100
AcDbEntity
  8
0
100
AcDbBlockEnd
  0
BLOCK
  5
1E27
330
1E26
100
AcDbEntity
  8
0
100
AcDbBlockBegin
  2
*D30
 70
     1
 10
0.0
 20
0.0
 30
0.0
  3
*D30
  1
*D33
  0
LINE
  5
1E29
330
1E26
100
AcDbEntity
  8
Dim
  6
Continuous
 62
     0
370
    -2
100
AcDbLine
 10
1587.298465598663
 20
1470.776741163754
 30
0.0
 11
1823.33097158849
 21
1470.776741163754
 31
0.0
  0
LINE
  5
1E2A
330
1E26
100
AcDbEntity
  8
Dim
  6
Continuous
 62
     0
370
    -2
100
AcDbLine
 10
1587.298465598663
 20
885.7767411637535
 30
0.0
 11
1823.33097158849
 21
885.7767411637535
 31
0.0
  0
LINE
  5
1E2B
330
1E26
100
AcDbEntity
  8
Dim
  6
Continuous
 62
     0
370
    -2
100
AcDbLine
 10
1823.33097158849
 20
1461.776741163754
 30
0.0
 11
1823.33097158849
 21
894.7767411637535
 31
0.0
  0
INSERT
  5
1E2C
330
1E26
100
AcDbEntity
  8
Dim
 62
     0
370
    -2
100
AcDbBlockReference
  2
_DOT
 10
1823.33097158849
 20
1470.776741163754
 30
0.0
 41
9.0
 42
9.0
 43
9.0
 50
90.0
  0
INSERT
  5
1E2D
330
1E26
100
AcDbEntity
  8
Dim
 62
     0
370
    -2
100
AcDbBlockReference
  2
_DOT
 10
1823.33097158849
 20
885.7767411637535
 30
0.0
 41
9.0
 42
9.0
 43
9.0
 50
270.0
  0
MTEXT
  5
1E2E
330
1E26
100
AcDbEntity
  8
Dim
  6
Continuous
 62
     0
100
AcDbMText
 10
1801.11466299474
 20
1178.276741163754
 30
0.0
 40
24.4326171875
 41
0.0
 46
0.0
 71
     5
 72
     1
  1
\A1;585
  7
ＭＳ ゴシック
 11
0.0
 21
1.0
 31
0.0
 73
     1
 44
1.0
  0
POINT
  5
1E2F
330
1E26
100
AcDbEntity
  8
Defpoints
 62
     0
100
AcDbPoint
 10
1562.298465598663
 20
1470.776741163754
 30
0.0
  0
POINT
  5
1E30
330
1E26
100
AcDbEntity
  8
Defpoints
 62
     0
100
AcDbPoint
 10
1562.298465598663
 20
885.7767411637535
 30
0.0
  0
POINT
  5
1E31
330
1E26
100
AcDbEntity
  8
Defpoints
 62
     0
100
AcDbPoint
 10
1823.33097158849
 20
885.7767411637535
 30
0.0
  0
ENDBLK
  5
1E28
330
1E26
100
AcDbEntity
  8
0
100
AcDbBlockEnd
  0
BLOCK
  5
1E34
330
1E33
100
AcDbEntity
  8
0
100
AcDbBlockBegin
  2
*D31
 70
     1
 10
0.0
 20
0.0
 30
0.0
  3
*D31
  1
*D34
  0
LINE
  5
1E36
330
1E33
100
AcDbEntity
  8
Dim
  6
Continuous
 62
     0
370
    -2
100
AcDbLine
 10
1587.298465598663
 20
1410.776741163754
 30
0.0
 11
1640.84043970798
 21
1410.776741163754
 31
0.0
  0
LINE
  5
1E37
330
1E33
100
AcDbEntity
  8
Dim
  6
Continuous
 62
     0
370
    -2
100
AcDbLine
 10
1587.298465598663
 20
1085.776741163754
 30
0.0
 11
1640.84043970798
 21
1085.776741163754
 31
0.0
  0
LINE
  5
1E38
330
1E33
100
AcDbEntity
  8
Dim
  6
Continuous
 62
     0
370
    -2
100
AcDbLine
 10
1640.84043970798
 20
1401.776741163754
 30
0.0
 11
1640.84043970798
 21
1094.776741163754
 31
0.0
  0
INSERT
  5
1E39
330
1E33
100
AcDbEntity
  8
Dim
 62
     0
370
    -2
100
AcDbBlockReference
  2
_DOT
 10
1640.84043970798
 20
1410.776741163754
 30
0.0
 41
9.0
 42
9.0
 43
9.0
 50
90.0
  0
INSERT
  5
1E3A
330
1E33
100
AcDbEntity
  8
Dim
 62
     0
370
    -2
100
AcDbBlockReference
  2
_DOT
 10
1640.84043970798
 20
1085.776741163754
 30
0.0
 41
9.0
 42
9.0
 43
9.0
 50
270.0
  0
MTEXT
  5
1E3B
330
1E33
100
AcDbEntity
  8
Dim
  6
Continuous
 62
     0
100
AcDbMText
 10
1618.62413111423
 20
1248.276741163754
 30
0.0
 40
24.4326171875
 41
0.0
 46
0.0
 71
     5
 72
     1
  1
\A1;325
  7
ＭＳ ゴシック
 11
0.0
 21
1.0
 31
0.0
 73
     1
 44
1.0
  0
POINT
  5
1E3C
330
1E33
100
AcDbEntity
  8
Defpoints
 62
     0
100
AcDbPoint
 10
1562.298465598663
 20
1410.776741163754
 30
0.0
  0
POINT
  5
1E3D
330
1E33
100
AcDbEntity
  8
Defpoints
 62
     0
100
AcDbPoint
 10
1562.298465598663
 20
1085.776741163754
 30
0.0
  0
POINT
  5
1E3E
330
1E33
100
AcDbEntity
  8
Defpoints
 62
     0
100
AcDbPoint
 10
1640.84043970798
 20
1085.776741163754
 30
0.0
  0
ENDBLK
  5
1E35
330
1E33
100
AcDbEntity
  8
0
100
AcDbBlockEnd
  0
BLOCK
  5
1E41
330
1E40
100
AcDbEntity
  8
0
100
AcDbBlockBegin
  2
*D32
 70
     1
 10
0.0
 20
0.0
 30
0.0
  3
*D32
  1
*D35
  0
LINE
  5
1E43
330
1E40
100
AcDbEntity
  8
Dim
  6
Continuous
 62
     0
370
    -2
100
AcDbLine
 10
1655.782799749475
 20
1410.776741163754
 30
0.0
 11
1735.50443055387
 21
1410.776741163754
 31
0.0
  0
LINE
  5
1E44
330
1E40
100
AcDbEntity
  8
Dim
  6
Continuous
 62
     0
370
    -2
100
AcDbLine
 10
1655.782799749475
 20
1005.776741163754
 30
0.0
 11
1735.50443055387
 21
1005.776741163754
 31
0.0
  0
LINE
  5
1E45
330
1E40
100
AcDbEntity
  8
Dim
  6
Continuous
 62
     0
370
    -2
100
AcDbLine
 10
1735.50443055387
 20
1401.776741163754
 30
0.0
 11
1735.50443055387
 21
1014.776741163754
 31
0.0
  0
INSERT
  5
1E46
330
1E40
100
AcDbEntity
  8
Dim
 62
     0
370
    -2
100
AcDbBlockReference
  2
_DOT
 10
1735.50443055387
 20
1410.776741163754
 30
0.0
 41
9.0
 42
9.0
 43
9.0
 50
90.0
  0
INSERT
  5
1E47
330
1E40
100
AcDbEntity
  8
Dim
 62
     0
370
    -2
100
AcDbBlockReference
  2
_DOT
 10
1735.50443055387
 20
1005.776741163754
 30
0.0
 41
9.0
 42
9.0
 43
9.0
 50
270.0
  0
MTEXT
  5
1E48
330
1E40
100
AcDbEntity
  8
Dim
  6
Continuous
 62
     0
100
AcDbMText
 10
1713.28812196012
 20
1208.276741163754
 30
0.0
 40
24.4326171875
 41
0.0
 46
0.0
 71
     5
 72
     1
  1
\A1;405
  7
ＭＳ ゴシック
 11
0.0
 21
1.0
 31
0.0
 73
     1
 44
1.0
  0
POINT
  5
1E49
330
1E40
100
AcDbEntity
  8
Defpoints
 62
     0
100
AcDbPoint
 10
1630.782799749475
 20
1410.776741163754
 30
0.0
  0
POINT
  5
1E4A
330
1E40
100
AcDbEntity
  8
Defpoints
 62
     0
100
AcDbPoint
 10
1630.782799749475
 20
1005.776741163754
 30
0.0
  0
POINT
  5
1E4B
330
1E40
100
AcDbEntity
  8
Defpoints
 62
     0
100
AcDbPoint
 10
1735.50443055387
 20
1005.776741163754
 30
0.0
  0
ENDBLK
  5
1E42
330
1E40
100
AcDbEntity
  8
0
100
AcDbBlockEnd
  0
BLOCK
  5
1EF0
330
1EEF
100
AcDbEntity
  8
0
100
AcDbBlockBegin
  2
*D35
 70
     1
 10
0.0
 20
0.0
 30
0.0
  3
*D35
  1
*D35
  0
LINE
  5
1EF2
330
1EEF
100
AcDbEntity
  8
Dim
  6
Continuous
 62
     0
370
    -2
100
AcDbLine
 10
1542.298466669004
 20
1490.776741225511
 30
0.0
 11
1542.298466669004
 21
1549.42259284148
 31
0.0
  0
LINE
  5
1EF3
330
1EEF
100
AcDbEntity
  8
Dim
  6
Continuous
 62
     0
370
    -2
100
AcDbLine
 10
1477.298466669004
 20
1452.776835260251
 30
0.0
 11
1477.298466669004
 21
1549.42259284148
 31
0.0
  0
LINE
  5
1EF4
330
1EEF
100
AcDbEntity
  8
Dim
  6
Continuous
 62
     0
370
    -2
100
AcDbLine
 10
1533.298466669004
 20
1549.42259284148
 30
0.0
 11
1486.298466669004
 21
1549.42259284148
 31
0.0
  0
INSERT
  5
1EF5
330
1EEF
100
AcDbEntity
  8
Dim
 62
     0
370
    -2
100
AcDbBlockReference
  2
_DOT
 10
1542.298466669004
 20
1549.42259284148
 30
0.0
 41
9.0
 42
9.0
 43
9.0
  0
INSERT
  5
1EF6
330
1EEF
100
AcDbEntity
  8
Dim
 62
     0
370
    -2
100
AcDbBlockReference
  2
_DOT
 10
1477.298466669004
 20
1549.42259284148
 30
0.0
 41
9.0
 42
9.0
 43
9.0
 50
180.0
  0
MTEXT
  5
1EF7
330
1EEF
100
AcDbEntity
  8
Dim
  6
Continuous
 62
     0
100
AcDbMText
 10
1509.798466669004
 20
1571.63890143523
 30
0.0
 40
24.4326171875
 41
0.0
 46
0.0
 71
     5
 72
     1
  1
\A1;65
  7
ＭＳ ゴシック
 73
     1
 44
1.0
  0
POINT
  5
1EF8
330
1EEF
100
AcDbEntity
  8
Defpoints
 62
     0
100
AcDbPoint
 10
1542.298466669004
 20
1465.776741225511
 30
0.0
  0
POINT
  5
1EF9
330
1EEF
100
AcDbEntity
  8
Defpoints
 62
     0
100
AcDbPoint
 10
1477.298466669004
 20
1427.776835260251
 30
0.0
  0
POINT
  5
1EFA
330
1EEF
100
AcDbEntity
  8
Defpoints
 62
     0
100
AcDbPoint
 10
1477.298466669004
 20
1549.42259284148
 30
0.0
  0
ENDBLK
  5
1EF1
330
1EEF
100
AcDbEntity
  8
0
100
AcDbBlockEnd
  0
ENDSEC
  0
SECTION
  2
ENTITIES
  0
MTEXT
  5
177
330
A
100
AcDbEntity
  8
template
390
1D
100
AcDbMText
 10
82.00000000048226
 20
348.023957835319
 30
0.0
 40
16.28841145833333
 41
0.0
 46
0.0
 71
     1
 72
     1
  1
品名
  7
ＭＳ ゴシック
 73
     1
 44
0.7828267384257843
  0
MTEXT
  5
178
330
A
100
AcDbEntity
  8
template
390
1D
100
AcDbMText
 10
82.00000000048226
 20
263.0239578353188
 30
0.0
 40
16.28841145833333
 41
0.0
 46
0.0
 71
     1
 72
     1
  1
仕様
  7
ＭＳ ゴシック
 73
     1
 44
0.7828267384257843
  0
LINE
  5
179
330
A
100
AcDbEntity
  8
template
390
1D
100
AcDbLine
 10
2025.0
 20
271.4388797103189
 30
0.0
 11
75.00000000000023
 21
271.4388797103189
 31
0.0
  0
LWPOLYLINE
  5
17A
330
A
100
AcDbEntity
  8
template
390
1D
100
AcDbPolyline
 90
        5
 70
   128
 43
0.0
 10
2025.0
 20
2901.438879710319
 10
75.00000000000023
 20
2901.438879710319
 10
75.00000000000023
 20
101.4388797103188
 10
2025.0
 20
101.4388797103188
 10
2025.0
 20
2901.438879710319
  0
LINE
  5
17B
330
A
100
AcDbEntity
  8
template
390
1D
100
AcDbLine
 10
2025.0
 20
356.4388797103188
 30
0.0
 11
75.00000000000023
 21
356.4388797103188
 31
0.0
  0
LINE
  5
17C
330
A
100
AcDbEntity
  8
template
390
1D
100
AcDbLine
 10
2025.000000000482
 20
186.4388797103189
 30
0.0
 11
1272.000000000482
 21
186.4388797103189
 31
0.0
  0
MTEXT
  5
17E
330
A
100
AcDbEntity
  8
template
390
1D
100
AcDbMText
 10
1301.871406252743
 20
156.5284852370108
 30
0.0
 40
24.4326171875
 41
0.0
 46
0.0
 71
     1
 72
     1
  1
大洋金物株式会社 ティーフォルム事業部
  7
ＭＳ ゴシック
 73
     1
 44
0.7828267384257843
  0
MTEXT
  5
180
330
A
100
AcDbEntity
  8
template
390
1D
100
AcDbMText
 10
1834.000000000742
 20
234.4414968978188
 30
0.0
 40
24.4326171875
 41
0.0
 46
0.0
 71
     1
 72
     1
  1
1:10
  7
ＭＳ ゴシック
 73
     1
 44
0.7828267384257843
  0
MTEXT
  5
181
330
A
100
AcDbEntity
  8
template
390
1D
100
AcDbMText
 10
1781.000000000742
 20
263.0239578353188
 30
0.0
 40
16.28841145833333
 41
0.0
 46
0.0
 71
     1
 72
     1
  1
縮尺
  7
ＭＳ ゴシック
 73
     1
 44
0.7828267384257843
  0
LINE
  5
182
330
A
100
AcDbEntity
  8
template
390
1D
100
AcDbLine
 10
1774.000000000742
 20
186.4388797103189
 30
0.0
 11
1774.000000000742
 21
271.4388797103189
 31
0.0
  0
MTEXT
  5
183
330
A
100
AcDbEntity
  8
template
390
1D
100
AcDbMText
 10
1530.000000000742
 20
263.0239578353188
 30
0.0
 40
16.28841145833333
 41
0.0
 46
0.0
 71
     1
 72
     1
  1
容量
  7
ＭＳ ゴシック
 73
     1
 44
0.7828267384257843
  0
LINE
  5
184
330
A
100
AcDbEntity
  8
template
390
1D
100
AcDbLine
 10
1523.000000000742
 20
186.4388797103189
 30
0.0
 11
1523.000000000742
 21
271.4388797103189
 31
0.0
  0
MTEXT
  5
185
330
A
100
AcDbEntity
  8
template
390
1D
100
AcDbMText
 10
1279.000000000742
 20
348.023957835319
 30
0.0
 40
16.28841145833333
 41
0.0
 46
0.0
 71
     1
 72
     1
  1
品番
  7
ＭＳ ゴシック
 73
     1
 44
0.7828267384257843
  0
MTEXT
  5
186
330
A
100
AcDbEntity
  8
template
390
1D
100
AcDbMText
 10
1279.000000000742
 20
263.0239578353188
 30
0.0
 40
16.28841145833333
 41
0.0
 46
0.0
 71
     1
 72
     1
  1
重量
  7
ＭＳ ゴシック
 73
     1
 44
0.7828267384257843
  0
MTEXT
  5
187
330
A
100
AcDbEntity
  8
template
390
1D
100
AcDbMText
 10
1332.000000000742
 20
319.4414968978188
 30
0.0
 40
24.4326171875
 41
0.0
 46
24.4326171875
 71
     1
 72
     1
  1
{FAA71-3511}
  7
ＭＳ ゴシック
 73
     1
 44
0.7828267384257843
1001
ACAD
1000
ACAD_MTEXT_DEFINED_HEIGHT_BEGIN
1070
    46
1040
24.4326171875
1000
ACAD_MTEXT_DEFINED_HEIGHT_END
  0
LINE
  5
188
330
A
100
AcDbEntity
  8
template
390
1D
100
AcDbLine
 10
1272.000000000742
 20
101.4388797103188
 30
0.0
 11
1272.000000000742
 21
356.4388797103188
 31
0.0
  0
MTEXT
  5
189
330
A
100
AcDbEntity
  8
template
390
1D
100
AcDbMText
 10
135.0000000004822
 20
319.4414968978188
 30
0.0
 40
24.4326171875
 41
0.0
 46
28.5128642578125
 71
     1
 72
     1
  1
{小便器 -DURAVIT, ME by Starck-}
  7
ＭＳ ゴシック
 73
     1
 44
0.7828267384257843
1001
ACAD
1000
ACAD_MTEXT_DEFINED_HEIGHT_BEGIN
1070
    46
1040
28.5128642578125
1000
ACAD_MTEXT_DEFINED_HEIGHT_END
  0
MTEXT
  5
18A
330
A
100
AcDbEntity
  8
template
390
1D
100
AcDbMText
 10
135.0000000004822
 20
234.4414968978188
 30
0.0
 40
24.4326171875
 41
0.0
 46
65.556517578125
 71
     1
 72
     1
  1
{給排水部品、壁取付金具付属/\P陶器/ホワイト}
  7
ＭＳ ゴシック
 73
     1
 44
0.9822934569727008
1001
ACAD
1000
ACAD_MTEXT_DEFINED_HEIGHT_BEGIN
1070
    46
1040
65.556517578125
1000
ACAD_MTEXT_DEFINED_HEIGHT_END
  0
INSERT
  5
3D0
330
A
100
AcDbEntity
  8
template
100
AcDbBlockReference
  2
名称未設定-1
 10
1873.559250554905
 20
30.23897196054438
 30
0.0
 41
0.7619999999999999
 42
0.7619999999999999
 43
0.7619999999999999
  0
MTEXT
  5
BDB
102
{ACAD_XDICTIONARY
360
BDC
102
}
330
A
100
AcDbEntity
  8
template
  6
Continuous
100
AcDbMText
 10
78.95663872901252
 20
86.10730750352229
 30
0.0
 40
23.0
 41
0.0
 46
23.0
 71
     1
 72
     1
  1
{20161019N}
  7
ＭＳ ゴシック
 73
     1
 44
1.0
1001
ACAD
1000
ACAD_MTEXT_DEFINED_HEIGHT_BEGIN
1070
    46
1040
23.0
1000
ACAD_MTEXT_DEFINED_HEIGHT_END
  0
LWPOLYLINE
  5
BEE
330
A
100
AcDbEntity
  8
PRINT BORDER
100
AcDbPolyline
 90
        4
 70
     1
 43
0.0
 10
0.0
 20
0.0
 10
0.0
 20
2970.0
 10
2100.0
 20
2970.0
 10
2100.0
 20
0.0
  0
INSERT
  5
1273
330
A
100
AcDbEntity
  8
0
 62
     7
100
AcDbBlockReference
  2
BLOCK_2
 10
591.2037060744204
 20
943.564364962162
 30
0.0
  0
INSERT
  5
127B
330
A
100
AcDbEntity
  8
0
 62
     7
100
AcDbBlockReference
  2
BLOCK_2
 10
1291.863324028138
 20
1038.76992320659
 30
0.0
  0
INSERT
  5
127C
330
A
100
AcDbEntity
  8
0
 62
     7
100
AcDbBlockReference
  2
BLOCK_2
 10
652.1648429406905
 20
1595.641631888467
 30
0.0
  0
CIRCLE
  5
142C
330
A
100
AcDbEntity
  8
Dim
  6
Continuous
100
AcDbCircle
 10
1366.841726484681
 20
1758.85027442579
 30
0.0
 40
0.0
  0
CIRCLE
  5
1B74
330
A
100
AcDbEntity
  8
HIDDEN
100
AcDbCircle
 10
1510.420796439804
 20
1186.508406826825
 30
0.0
 40
5.0
  0
ARC
  5
1B75
330
A
100
AcDbEntity
  8
HIDDEN
100
AcDbCircle
 10
1509.611582061774
 20
1187.317621204855
 30
0.0
 40
5.0
100
AcDbArc
 50
231.5713374068996
 51
38.42866259310044
  0
LINE
  5
1B76
330
A
100
AcDbEntity
  8
HIDDEN
  6
ACDINTGL
 48
5.0
100
AcDbLine
 10
1537.298467175999
 20
898.0726695910523
 30
0.0
 11
1377.062224315185
 21
902.5337213682471
 31
0.0
  0
ELLIPSE
  5
1B77
330
A
100
AcDbEntity
  8
HIDDEN
  6
ACDINTGL
 48
5.0
100
AcDbEllipse
 10
1644.003147804077
 20
1107.558348563529
 30
0.0
 11
15.49951448318003
 21
239.8893302912632
 31
0.0
210
0.0
220
0.0
230
-1.0
 40
0.9483969866604983
 41
4.657995583205973
 42
4.773225675554082
  0
LINE
  5
1B78
330
A
100
AcDbEntity
  8
HIDDEN
  6
ACDINTGL
 48
5.0
100
AcDbLine
 10
1507.720913784742
 20
1428.265577115448
 30
0.0
 11
1507.720913758254
 21
1450.209869973589
 31
0.0
  0
ARC
  5
1B79
330
A
100
AcDbEntity
  8
HIDDEN
  6
ACDINTGL
 48
5.0
100
AcDbCircle
 10
1514.720913758254
 20
1450.209869982038
 30
0.0
 40
7.0
100
AcDbArc
 50
91.14570892540583
 51
180.0000000691577
1001
GENIUS_GENOBJ-N-FIL_13
1002
{
1000
OWNER
1000
GEN
1002
}
1001
GENIUS_GENODEF_13
1002
{
1000
HIER
1070
     0
1002
}
1002
{
1000
MANEDIT
1070
     0
1002
}
1002
{
1000
NOSEL
1070
     0
1002
}
1002
{
1000
BEHIND
1070
     0
1002
}
1002
{
1000
OTHER
1070
     0
1002
}
1002
{
1000
REACTOR
1002
}
  0
LINE
  5
1B7A
330
A
100
AcDbEntity
  8
HIDDEN
  6
ACDINTGL
 48
5.0
100
AcDbLine
 10
1477.298466714186
 20
1393.77683526025
 30
0.0
 11
1477.298466669004
 21
1427.776835260251
 31
0.0
  0
LINE
  5
1B7B
330
A
100
AcDbEntity
  8
HIDDEN
  6
ACDINTGL
 48
5.0
100
AcDbLine
 10
1368.350875326977
 20
1083.668641698606
 30
0.0
 11
1363.864588198007
 21
1114.109672683444
 31
0.0
  0
ARC
  5
1B7C
330
A
100
AcDbEntity
  8
HIDDEN
  6
ACDINTGL
 48
5.0
100
AcDbCircle
 10
1356.939391082379
 20
1113.089062616036
 30
0.0
 40
7.0
100
AcDbArc
 50
8.383691446869827
 51
87.65979909941652
1001
GENIUS_GENOBJ-N-FIL_13
1002
{
1000
OWNER
1000
GEN
1002
}
1001
GENIUS_GENODEF_13
1002
{
1000
HIER
1070
     0
1002
}
1002
{
1000
MANEDIT
1070
     0
1002
}
1002
{
1000
NOSEL
1070
     0
1002
}
1002
{
1000
BEHIND
1070
     0
1002
}
1002
{
1000
OTHER
1070
     0
1002
}
1002
{
1000
REACTOR
1002
}
  0
ARC
  5
1B7D
330
A
100
AcDbEntity
  8
HIDDEN
  6
ACDINTGL
 48
5.0
100
AcDbCircle
 10
1202.690057602852
 20
1256.065130859473
 30
0.0
 40
3.000000001285006
100
AcDbArc
 50
319.0000000945931
 51
44.99999540542
  0
LINE
  5
1B7E
330
A
100
AcDbEntity
  8
HIDDEN
  6
ACDINTGL
 48
5.0
100
AcDbLine
 10
1204.811378005088
 20
1258.186451146173
 30
0.0
 11
1202.721458039044
 21
1260.276371106664
 31
0.0
  0
LINE
  5
1B7F
330
A
100
AcDbEntity
  8
HIDDEN
  6
ACDINTGL
 48
5.0
100
AcDbLine
 10
1396.290846642112
 20
1421.179895133361
 30
0.0
 11
1423.619638157043
 21
1387.431648291283
 31
0.0
  0
ARC
  5
1B80
330
A
100
AcDbEntity
  8
HIDDEN
  6
ACDINTGL
 48
5.0
100
AcDbCircle
 10
1401.730877284527
 20
1425.585126865504
 30
0.0
 40
7.000000000770248
100
AcDbArc
 50
139.5655652503702
 51
218.9998840882368
  0
ARC
  5
1B81
330
A
100
AcDbEntity
  8
HIDDEN
  6
ACDINTGL
 48
5.0
100
AcDbCircle
 10
1199.009151020908
 20
1256.564064013695
 30
0.0
 40
5.249999784647589
100
AcDbArc
 50
45.00000057753868
 51
131.9999981521761
  0
LINE
  5
1B82
330
A
100
AcDbEntity
  8
HIDDEN
  6
ACDINTGL
 48
5.0
100
AcDbLine
 10
1402.116788810287
 20
1057.225698164902
 30
0.0
 11
1490.366143139208
 21
1060.77683539737
 31
0.0
  0
LINE
  5
1B83
330
A
100
AcDbEntity
  8
HIDDEN
  6
ACDINTGL
 48
5.0
100
AcDbLine
 10
1477.29846671413
 20
1393.819119228732
 30
0.0
 11
1507.720913831223
 21
1393.28809347947
 31
0.0
  0
LINE
  5
1B84
330
A
100
AcDbEntity
  8
HIDDEN
  6
ACDINTGL
 48
5.0
100
AcDbLine
 10
1477.29846666906
 20
1427.734551285329
 30
0.0
 11
1507.720913784742
 21
1428.265577115448
 31
0.0
  0
ARC
  5
1B85
330
A
100
AcDbEntity
  8
HIDDEN
  6
ACDINTGL
 48
5.0
100
AcDbCircle
 10
1519.037816716381
 20
1393.588611988098
 30
0.0
 40
11.9999999998
100
AcDbArc
 50
4.502538703453193
 51
84.96044138327139
  0
LINE
  5
1B86
330
A
100
AcDbEntity
  8
HIDDEN
  6
ACDINTGL
 48
5.0
100
AcDbLine
 10
1490.366143139208
 20
1110.777029999876
 30
0.0
 11
1448.226543843522
 21
1112.050268658159
 31
0.0
  0
LINE
  5
1B87
330
A
100
AcDbEntity
  8
HIDDEN
  6
STYLE_11
 48
5.0
100
AcDbLine
 10
1470.057731871035
 20
1410.776835260251
 30
0.0
 11
1557.885036359298
 21
1410.776835260251
 31
0.0
  0
LINE
  5
1B88
330
A
100
AcDbEntity
  8
HIDDEN
  6
STYLE_11
100
AcDbLine
 10
1452.129366784848
 20
1085.776932698623
 30
0.0
 11
1547.980478924231
 21
1085.776932698623
 31
0.0
  0
LINE
  5
1B89
330
A
100
AcDbEntity
  8
HIDDEN
  6
ACDINTGL
 48
5.0
100
AcDbLine
 10
1537.298465636032
 20
1457.208470596171
 30
0.0
 11
1514.580948335228
 21
1457.208470533603
 31
0.0
  0
LINE
  5
1B8A
330
A
100
AcDbEntity
  8
HIDDEN
  6
ACDINTGL
 48
5.0
100
AcDbLine
 10
1507.72091383388
 20
1393.288093479424
 30
0.0
 11
1507.720913784742
 21
1428.265577115448
 31
0.0
  0
ARC
  5
1B8B
330
A
100
AcDbEntity
  8
HIDDEN
  6
ACDINTGL
 48
5.0
100
AcDbCircle
 10
1399.258041482008
 20
1088.355170269171
 30
0.0
 40
31.26046176526155
100
AcDbArc
 50
188.622216584208
 51
275.246989707552
  0
ARC
  5
1B8C
330
A
100
AcDbEntity
  8
HIDDEN
  6
ACDINTGL
 48
5.0
100
AcDbCircle
 10
1362.45529733586
 20
1117.73734203567
 30
0.0
 40
54.20889903951702
100
AcDbArc
 50
332.4078681883065
 51
350.9270816764155
  0
LINE
  5
1B8D
330
A
100
AcDbEntity
  8
HIDDEN
  6
ACDINTGL
 48
5.0
100
AcDbLine
 10
1370.259837461903
 20
909.72916966455
 30
0.0
 11
1374.59477900006
 21
1062.799920408024
 31
0.0
  0
ARC
  5
1B8E
330
A
100
AcDbEntity
  8
HIDDEN
  6
ACDINTGL
 48
5.0
100
AcDbCircle
 10
1377.257032099496
 20
909.5310101236989
 30
0.0
 40
7.0
100
AcDbArc
 50
178.3778253813172
 51
268.4052706959632
1001
GENIUS_GENODEF_13
1002
{
1000
HIER
1070
     0
1002
}
1002
{
1000
MANEDIT
1070
     0
1002
}
1002
{
1000
NOSEL
1070
     0
1002
}
1002
{
1000
BEHIND
1070
     0
1002
}
1002
{
1000
OTHER
1070
     0
1002
}
1002
{
1000
REACTOR
1002
}
1001
GENIUS_GENOBJ-N-FIL_13
1002
{
1000
OWNER
1000
GEN
1002
}
  0
LINE
  5
1B8F
330
A
100
AcDbEntity
  8
HIDDEN
  6
ACDINTGL
 48
5.0
100
AcDbLine
 10
1432.298480895934
 20
900.9959182084515
 30
0.0
 11
1432.29848253461
 21
885.7780219789277
 31
0.0
  0
LINE
  5
1B90
330
A
100
AcDbEntity
  8
HIDDEN
  6
ACDINTGL
 48
5.0
100
AcDbLine
 10
1507.720913854784
 20
1377.557816374584
 30
0.0
 11
1507.72091383388
 21
1393.288093479424
 31
0.0
  0
LINE
  5
1B91
330
A
100
AcDbEntity
  8
HIDDEN
  6
ACDINTGL
 48
5.0
100
AcDbLine
 10
1531.033920049678
 20
1377.557816405565
 30
0.0
 11
1531.000782992157
 21
1394.530651201631
 31
0.0
  0
LINE
  5
1B92
330
A
100
AcDbEntity
  8
HIDDEN
  6
ACDINTGL
 48
5.0
100
AcDbLine
 10
1520.091938989266
 20
1405.542223418499
 30
0.0
 11
1507.720913816665
 21
1405.542223401119
 31
0.0
  0
ARC
  5
1B93
330
A
100
AcDbEntity
  8
HIDDEN
  6
ACDINTGL
 48
5.0
100
AcDbCircle
 10
1278.48588168718
 20
1384.527642603443
 30
0.0
 40
229.3409654870737
100
AcDbArc
 50
326.0056548642253
 51
358.2584745682534
  0
ARC
  5
1B94
330
A
100
AcDbEntity
  8
HIDDEN
  6
ACDINTGL
 48
5.0
100
AcDbCircle
 10
1278.590851043056
 20
1384.475593522682
 30
0.0
 40
252.5378362339477
100
AcDbArc
 50
326.0055586364048
 51
358.4302985049893
  0
ARC
  5
1B95
330
A
100
AcDbEntity
  8
HIDDEN
  6
ACDINTGL
 48
5.0
100
AcDbCircle
 10
1666.324750951325
 20
1105.623603758763
 30
0.0
 40
225.2999021288522
100
AcDbArc
 50
142.3392167272874
 51
176.4746031262998
  0
ARC
  5
1B96
330
A
100
AcDbEntity
  8
HIDDEN
  6
ACDINTGL
 48
5.0
100
AcDbCircle
 10
1448.437950814768
 20
1119.047075579356
 30
0.0
 40
7.0
100
AcDbArc
 50
176.4746031262974
 51
268.2693472421541
1001
GENIUS_GENODEF_13
1002
{
1000
HIER
1070
     0
1002
}
1002
{
1000
MANEDIT
1070
     0
1002
}
1002
{
1000
NOSEL
1070
     0
1002
}
1002
{
1000
BEHIND
1070
     0
1002
}
1002
{
1000
OTHER
1070
     0
1002
}
1002
{
1000
REACTOR
1002
}
1001
GENIUS_GENOBJ-N-FIL_13
1002
{
1000
OWNER
1000
GEN
1002
}
  0
ARC
  5
1B97
330
A
100
AcDbEntity
  8
HIDDEN
  6
ACDINTGL
 48
5.0
100
AcDbCircle
 10
1336.831109170204
 20
1281.90617285141
 30
0.0
 40
160.855236707053
100
AcDbArc
 50
214.7121444313225
 51
267.6597990994164
  0
ARC
  5
1B98
330
A
100
AcDbEntity
  8
HIDDEN
  6
ACDINTGL
 48
5.0
100
AcDbCircle
 10
1628.430362055174
 20
1117.863471923032
 30
0.0
 40
211.4254590004819
100
AcDbArc
 50
139.0970531044161
 51
174.8570294889454
  0
ARC
  5
1B99
330
A
100
AcDbEntity
  8
HIDDEN
  6
ACDINTGL
 48
5.0
100
AcDbCircle
 10
1369.024557096955
 20
1383.792019670813
 30
0.0
 40
7.0
100
AcDbArc
 50
41.63871527300775
 51
132.3973716260879
1001
GENIUS_GENODEF_13
1002
{
1000
HIER
1070
     0
1002
}
1002
{
1000
MANEDIT
1070
     0
1002
}
1002
{
1000
NOSEL
1070
     0
1002
}
1002
{
1000
BEHIND
1070
     0
1002
}
1002
{
1000
OTHER
1070
     0
1002
}
1002
{
1000
REACTOR
1002
}
1001
GENIUS_GENOBJ-N-FIL_13
1002
{
1000
OWNER
1000
GEN
1002
}
  0
LINE
  5
1B9A
330
A
100
AcDbEntity
  8
HIDDEN
  6
ACDINTGL
 48
5.0
100
AcDbLine
 10
1388.671655143683
 20
1372.228379734522
 30
0.0
 11
1374.256002189324
 21
1388.443039155349
 31
0.0
  0
ARC
  5
1B9B
330
A
100
AcDbEntity
  8
HIDDEN
  6
ACDINTGL
 48
5.0
100
AcDbCircle
 10
1383.440210051315
 20
1367.577360249986
 30
0.0
 40
7.0
100
AcDbArc
 50
312.3973716260905
 51
41.63871527300775
1001
GENIUS_GENOBJ-N-FIL_13
1002
{
1000
OWNER
1000
GEN
1002
}
1001
GENIUS_GENODEF_13
1002
{
1000
HIER
1070
     0
1002
}
1002
{
1000
MANEDIT
1070
     0
1002
}
1002
{
1000
NOSEL
1070
     0
1002
}
1002
{
1000
BEHIND
1070
     0
1002
}
1002
{
1000
OTHER
1070
     0
1002
}
1002
{
1000
REACTOR
1002
}
  0
ARC
  5
1B9C
330
A
100
AcDbEntity
  8
HIDDEN
  6
ACDINTGL
 48
5.0
100
AcDbCircle
 10
1529.96892261939
 20
1460.22647090509
 30
0.0
 40
128.4668578897577
100
AcDbArc
 50
215.5543497967231
 51
257.5906552346858
  0
ARC
  5
1B9D
330
A
100
AcDbEntity
  8
HIDDEN
  6
ACDINTGL
 48
5.0
100
AcDbCircle
 10
1420.465105952776
 20
1380.614776862422
 30
0.0
 40
7.0
100
AcDbArc
 50
44.55820412450808
 51
130.2861712440959
1001
GENIUS_GENOBJ-N-FIL_13
1002
{
1000
OWNER
1000
GEN
1002
}
1001
GENIUS_GENODEF_13
1002
{
1000
HIER
1070
     0
1002
}
1002
{
1000
MANEDIT
1070
     0
1002
}
1002
{
1000
NOSEL
1070
     0
1002
}
1002
{
1000
BEHIND
1070
     0
1002
}
1002
{
1000
OTHER
1070
     0
1002
}
1002
{
1000
REACTOR
1002
}
  0
LINE
  5
1B9E
330
A
100
AcDbEntity
  8
HIDDEN
  6
ACDINTGL
 48
5.0
100
AcDbLine
 10
1521.801877597036
 20
985.9473631645612
 30
0.0
 11
1519.739076072131
 21
985.9473631645612
 31
0.0
  0
LINE
  5
1B9F
330
A
100
AcDbEntity
  8
HIDDEN
  6
STYLE_11
100
AcDbLine
 10
1527.649181063989
 20
1005.776939164561
 30
0.0
 11
1645.081541406511
 21
1005.776939164561
 31
0.0
  0
LWPOLYLINE
  5
1BA0
330
A
100
AcDbEntity
  8
HIDDEN
  6
ACDINTGL
 48
5.0
100
AcDbPolyline
 90
        3
 70
   128
 43
0.0
 10
1541.239076072131
 20
1112.491439164561
 42
0.388522648307385
 10
1524.334934567755
 20
1127.962001913039
 42
0.3885226483073852
 10
1507.430793063377
 20
1112.491439164561
 42
0.3885226483073852
  0
LWPOLYLINE
  5
1BA1
330
A
100
AcDbEntity
  8
HIDDEN
  6
ACDINTGL
 48
5.0
100
AcDbPolyline
 90
        3
 70
   128
 43
0.0
 10
1541.239076072131
 20
1036.550300913039
 42
-0.3885226483073861
 10
1524.334934567755
 20
1021.079738164561
 42
-0.388522648307385
 10
1507.430793063377
 20
1036.550300913039
 42
-0.388522648307385
  0
LINE
  5
1BA2
330
A
100
AcDbEntity
  8
HIDDEN
  6
ACDINTGL
 48
5.0
100
AcDbLine
 10
1507.430793063377
 20
1036.550300913039
 30
0.0
 11
1507.430793063377
 21
1112.491439164561
 31
0.0
  0
LINE
  5
1BA3
330
A
100
AcDbEntity
  8
HIDDEN
  6
ACDINTGL
 48
5.0
100
AcDbLine
 10
1541.239076072131
 20
1036.550300913039
 30
0.0
 11
1541.239076072131
 21
1112.491439164561
 31
0.0
  0
LINE
  5
1BA4
330
A
100
AcDbEntity
  8
HIDDEN
  6
ACDINTGL
 48
5.0
100
AcDbLine
 10
1524.334934567755
 20
980.7769391645613
 30
0.0
 11
1524.334934567755
 21
1132.157820183105
 31
0.0
  0
LINE
  5
1BA5
330
A
100
AcDbEntity
  8
HIDDEN
  6
ACDINTGL
 48
5.0
100
AcDbLine
 10
1639.497363678723
 20
1030.776939164561
 30
0.0
 11
1539.667847170251
 21
1030.776939164561
 31
0.0
  0
LINE
  5
1BA6
330
A
100
AcDbEntity
  8
HIDDEN
  6
ACDINTGL
 48
5.0
100
AcDbLine
 10
1509.467821572334
 20
995.968142235922
 30
0.0
 11
1509.739076072131
 21
1029.392303755742
 31
0.0
  0
ARC
  5
1BA7
330
A
100
AcDbEntity
  8
HIDDEN
  6
ACDINTGL
 48
5.0
100
AcDbCircle
 10
1519.467821572334
 20
995.968142235922
 30
0.0
 40
10.0
100
AcDbArc
 50
180.0
 51
240.5059414740512
  0
LINE
  5
1BA8
330
A
100
AcDbEntity
  8
HIDDEN
  6
ACDINTGL
 48
5.0
100
AcDbLine
 10
1521.801877597036
 20
1132.157820183105
 30
0.0
 11
1537.497732627834
 21
1132.157820183105
 31
0.0
  0
LINE
  5
1BA9
330
A
100
AcDbEntity
  8
HIDDEN
  6
ACDINTGL
 48
5.0
100
AcDbLine
 10
1537.497732627834
 20
1132.157820183105
 30
0.0
 11
1537.497732627834
 21
1146.381930422605
 31
0.0
  0
LINE
  5
1BAA
330
A
100
AcDbEntity
  8
HIDDEN
  6
ACDINTGL
 48
5.0
100
AcDbLine
 10
1537.497732627834
 20
1146.381930422605
 30
0.0
 11
1539.457302939844
 21
1146.381930422604
 31
0.0
  0
LINE
  5
1BAB
330
A
100
AcDbEntity
  8
HIDDEN
  6
ACDINTGL
 48
5.0
100
AcDbLine
 10
1539.457302939844
 20
1146.381930422604
 30
0.0
 11
1539.457302939844
 21
1118.69299581363
 31
0.0
  0
LINE
  5
1BAC
330
A
100
AcDbEntity
  8
HIDDEN
  6
ACDINTGL
 48
5.0
100
AcDbLine
 10
1537.50324478061
 20
1141.454065840503
 30
0.0
 11
1539.457302939844
 21
1141.454065840503
 31
0.0
  0
LINE
  5
1BAD
330
A
100
AcDbEntity
  8
HIDDEN
  6
ACDINTGL
 48
5.0
100
AcDbLine
 10
1537.50324478061
 20
1136.551005945896
 30
0.0
 11
1539.457302939844
 21
1136.551005945896
 31
0.0
  0
LINE
  5
1BAE
330
A
100
AcDbEntity
  8
HIDDEN
  6
STYLE_11
100
AcDbLine
 10
1533.53481044707
 20
1138.946036327241
 30
0.0
 11
1549.224837659624
 21
1138.946036327241
 31
0.0
  0
LINE
  5
1BAF
330
A
100
AcDbEntity
  8
HIDDEN
  6
ACDINTGL
 48
5.0
100
AcDbLine
 10
1521.801877597036
 20
980.7769391645613
 30
0.0
 11
1521.801877597036
 21
1132.157820183105
 31
0.0
  0
LINE
  5
1BB0
330
A
100
AcDbEntity
  8
HIDDEN
  6
ACDINTGL
 48
5.0
100
AcDbLine
 10
1639.497363678723
 20
980.7769391645613
 30
0.0
 11
1639.497363678723
 21
1030.776939164561
 31
0.0
  0
LINE
  5
1BB1
330
A
100
AcDbEntity
  8
HIDDEN
  6
ACDINTGL
 48
5.0
100
AcDbLine
 10
1639.497363678723
 20
980.7769391645613
 30
0.0
 11
1521.801877597036
 21
980.7769391645613
 31
0.0
  0
LINE
  5
1BB2
330
A
100
AcDbEntity
  8
HIDDEN
  6
ACDINTGL
 48
5.0
100
AcDbLine
 10
1490.366144403023
 20
1110.77702996169
 30
0.0
 11
1507.430793063377
 21
1110.777029999876
 31
0.0
  0
LINE
  5
1BB3
330
A
100
AcDbEntity
  8
HIDDEN
  6
ACDINTGL
 48
5.0
100
AcDbLine
 10
1490.366143139208
 20
1060.77683539737
 30
0.0
 11
1507.430793063377
 21
1060.776932698623
 31
0.0
  0
LINE
  5
1BB4
330
A
100
AcDbEntity
  8
HIDDEN
  6
ACDINTGL
 48
5.0
100
AcDbLine
 10
1475.635441407154
 20
1115.915863926939
 30
0.0
 11
1508.094551559486
 21
1115.915863978157
 31
0.0
  0
LINE
  5
1BB5
330
A
100
AcDbEntity
  8
HIDDEN
  6
ACDINTGL
 48
5.0
100
AcDbLine
 10
1475.635441407154
 20
1055.63800136787
 30
0.0
 11
1507.430793063377
 21
1055.638001419088
 31
0.0
  0
LINE
  5
1BB6
330
A
100
AcDbEntity
  8
HIDDEN
  6
ACDINTGL
 48
5.0
100
AcDbLine
 10
1475.635441407154
 20
1115.915863978157
 30
0.0
 11
1475.635441407154
 21
1055.638001419088
 31
0.0
  0
LINE
  5
1BB7
330
A
100
AcDbEntity
  8
HIDDEN
  6
ACDINTGL
 48
5.0
100
AcDbLine
 10
1537.298466308097
 20
1213.193338777074
 30
0.0
 11
1469.073292979438
 21
1213.193338589169
 31
0.0
  0
LINE
  5
1BB8
102
{ACAD_REACTORS
330
1E18
102
}
330
A
100
AcDbEntity
  8
MODEL
100
AcDbLine
 10
1537.298467209861
 20
885.7781387796308
 30
0.0
 11
1537.298465598663
 21
1470.776741163754
 31
0.0
  0
LINE
  5
1BB9
330
A
100
AcDbEntity
  8
HIDDEN
  6
ACDINTGL
 48
5.0
100
AcDbLine
 10
1364.304677518994
 20
1388.961423579345
 30
0.0
 11
1204.95418634774
 21
1254.096953775397
 31
0.0
  0
LINE
  5
1BBA
330
A
100
AcDbEntity
  8
HIDDEN
  6
ACDINTGL
 48
5.0
100
AcDbLine
 10
1415.938866157161
 20
1385.954547766927
 30
0.0
 11
1236.496576513094
 21
1233.850862622315
 31
0.0
  0
LINE
  5
1BBB
330
A
100
AcDbEntity
  8
HIDDEN
  6
ACDINTGL
 48
5.0
100
AcDbLine
 10
1330.262930544403
 20
1121.18509083159
 30
0.0
 11
1357.225221070397
 21
1120.083224554249
 31
0.0
  0
LINE
  5
1BBC
330
A
100
AcDbEntity
  8
HIDDEN
  6
ACDINTGL
 48
5.0
100
AcDbLine
 10
1464.401254190011
 20
1251.898642559426
 30
0.0
 11
1487.792105969212
 21
1243.050459121756
 31
0.0
  0
LINE
  5
1BBD
330
A
100
AcDbEntity
  8
HIDDEN
  6
ACDINTGL
 48
5.0
100
AcDbLine
 10
1498.8984687332
 20
1110.777029980783
 30
0.0
 11
1498.898468101293
 21
1060.776884047996
 31
0.0
  0
LWPOLYLINE
  5
1BBE
330
A
100
AcDbEntity
  8
MODEL
100
AcDbPolyline
 90
       11
 70
     1
 43
0.0
 10
1542.298466669004
 20
1465.776741225511
 10
1537.298466655233
 20
1470.776741184198
 10
1444.829050755061
 20
1468.987435597619
 42
0.1808370560141712
 10
1440.270563055983
 20
1467.181738129054
 10
1194.598572798963
 20
1259.654199504804
 42
0.2881001918223909
 10
1192.590981196929
 20
1252.481288898383
 42
0.0665815110672986
 10
1246.559353690182
 20
1065.31027032562
 42
0.0387829508731151
 10
1332.009154600584
 20
889.0440180652067
 42
0.257517065190078
 10
1337.930131152516
 20
885.7779217730952
 10
1537.298251788555
 20
885.7779223221971
 10
1542.29846825266
 20
890.7781388413885
  0
LINE
  5
1C2C
102
{ACAD_REACTORS
330
1D1C
102
}
330
A
100
AcDbEntity
  8
HIDDEN
100
AcDbLine
 10
614.0873704887614
 20
976.2714556500264
 30
0.0
 11
614.0873704887614
 21
1035.283359058156
 31
0.0
  0
LINE
  5
1C2D
102
{ACAD_REACTORS
330
1D1C
102
}
330
A
100
AcDbEntity
  8
HIDDEN
100
AcDbLine
 10
584.5814187846966
 20
1005.777407354091
 30
0.0
 11
643.5933221928262
 21
1005.777407354091
 31
0.0
  0
CIRCLE
  5
1C2E
102
{ACAD_REACTORS
330
1D1C
102
}
330
A
100
AcDbEntity
  8
HIDDEN
 48
5.0
100
AcDbCircle
 10
614.0873704887614
 20
1005.777407354091
 30
0.0
 40
25.0
  0
CIRCLE
  5
1C2F
102
{ACAD_REACTORS
330
1D1C
102
}
330
A
100
AcDbEntity
  8
HIDDEN
 48
5.0
100
AcDbCircle
 10
614.0874754448124
 20
1410.777407354091
 30
0.0
 40
17.5
  0
LINE
  5
1C30
102
{ACAD_REACTORS
330
1D1C
102
}
330
A
100
AcDbEntity
  8
HIDDEN
100
AcDbLine
 10
503.1015975016061
 20
1190.777311358189
 30
0.0
 11
563.8116501093849
 21
1190.777311358189
 31
0.0
  0
LINE
  5
1C31
102
{ACAD_REACTORS
330
1D1C
102
}
330
A
100
AcDbEntity
  8
HIDDEN
 48
5.0
100
AcDbLine
 10
509.0864954428331
 20
1179.522974448132
 30
0.0
 11
509.0864954428331
 21
1202.031648268246
 31
0.0
  0
LINE
  5
1C32
102
{ACAD_REACTORS
330
1D1C
102
}
330
A
100
AcDbEntity
  8
HIDDEN
 48
5.0
100
AcDbLine
 10
509.0864954428331
 20
1202.031648268246
 30
0.0
 11
555.5495181906742
 21
1210.152307259807
 31
0.0
  0
ARC
  5
1C33
102
{ACAD_REACTORS
330
1D1C
102
}
330
A
100
AcDbEntity
  8
HIDDEN
 48
5.0
100
AcDbCircle
 10
530.0023591528818
 20
1190.777311358189
 30
0.0
 40
4.256192728762556
100
AcDbArc
 50
90.0
 51
270.0
  0
ARC
  5
1C34
102
{ACAD_REACTORS
330
1D1C
102
}
330
A
100
AcDbEntity
  8
HIDDEN
 48
5.0
100
AcDbCircle
 10
543.5181577606139
 20
1190.777311358189
 30
0.0
 40
4.256192728762556
100
AcDbArc
 50
270.0
 51
90.0
  0
LINE
  5
1C35
102
{ACAD_REACTORS
330
1D1C
102
}
330
A
100
AcDbEntity
  8
HIDDEN
 48
5.0
100
AcDbLine
 10
530.0023591528818
 20
1195.033504086952
 30
0.0
 11
543.5181577606139
 21
1195.033504086952
 31
0.0
  0
LINE
  5
1C36
102
{ACAD_REACTORS
330
1D1C
102
}
330
A
100
AcDbEntity
  8
HIDDEN
 48
5.0
100
AcDbLine
 10
530.0023591528818
 20
1186.521118629427
 30
0.0
 11
543.5181577606139
 21
1186.521118629427
 31
0.0
  0
ARC
  5
1C37
102
{ACAD_REACTORS
330
1D1C
102
}
330
A
100
AcDbEntity
  8
HIDDEN
 48
5.0
100
AcDbCircle
 10
555.8938522014645
 20
1208.182171708884
 30
0.0
 40
2.0
100
AcDbArc
 50
0.0
 51
99.91383729307782
1001
GENIUS_GENOBJ-N-FIL_13
1002
{
1000
OWNER
1000
GEN
1002
}
1001
GENIUS_GENODEF_13
1002
{
1000
HIER
1070
     0
1002
}
1002
{
1000
MANEDIT
1070
     0
1002
}
1002
{
1000
NOSEL
1070
     0
1002
}
1002
{
1000
BEHIND
1070
     0
1002
}
1002
{
1000
OTHER
1070
     0
1002
}
1002
{
1000
REACTOR
1002
}
  0
LINE
  5
1C38
102
{ACAD_REACTORS
330
1D1C
102
}
330
A
100
AcDbEntity
  8
HIDDEN
 48
5.0
100
AcDbLine
 10
554.2152669411724
 20
1192.718804050643
 30
0.0
 11
554.2152669411724
 21
1205.811721758408
 31
0.0
  0
LINE
  5
1C39
102
{ACAD_REACTORS
330
1D1C
102
}
330
A
100
AcDbEntity
  8
HIDDEN
 48
5.0
100
AcDbLine
 10
554.2152669411724
 20
1205.811721758408
 30
0.0
 11
527.587090514877
 21
1201.031774778353
 31
0.0
  0
ARC
  5
1C3A
102
{ACAD_REACTORS
330
1D1C
102
}
330
A
100
AcDbEntity
  8
HIDDEN
 48
5.0
100
AcDbCircle
 10
529.7828897998994
 20
1190.928829128982
 30
0.0
 40
10.33881256693649
100
AcDbArc
 50
102.2621026301956
 51
181.2623854292827
  0
LINE
  5
1C3B
102
{ACAD_REACTORS
330
1D1C
102
}
330
A
100
AcDbEntity
  8
HIDDEN
 48
5.0
100
AcDbLine
 10
509.0864954428331
 20
1179.522974448132
 30
0.0
 11
555.5495181906742
 21
1171.402315456572
 31
0.0
  0
LINE
  5
1C3C
102
{ACAD_REACTORS
330
1D1C
102
}
330
A
100
AcDbEntity
  8
HIDDEN
 48
5.0
100
AcDbLine
 10
557.8938522014645
 20
1208.0643359991
 30
0.0
 11
557.8938522014645
 21
1173.372451007495
 31
0.0
  0
ARC
  5
1C3D
102
{ACAD_REACTORS
330
1D1C
102
}
330
A
100
AcDbEntity
  8
HIDDEN
 48
5.0
100
AcDbCircle
 10
555.8938522014645
 20
1173.372451007495
 30
0.0
 40
2.0
100
AcDbArc
 50
260.0861627069222
 51
0.0
1001
GENIUS_GENOBJ-N-FIL_13
1002
{
1000
OWNER
1000
GEN
1002
}
1001
GENIUS_GENODEF_13
1002
{
1000
HIER
1070
     0
1002
}
1002
{
1000
MANEDIT
1070
     0
1002
}
1002
{
1000
NOSEL
1070
     0
1002
}
1002
{
1000
BEHIND
1070
     0
1002
}
1002
{
1000
OTHER
1070
     0
1002
}
1002
{
1000
REACTOR
1002
}
  0
LINE
  5
1C3E
102
{ACAD_REACTORS
330
1D1C
102
}
330
A
100
AcDbEntity
  8
HIDDEN
 48
5.0
100
AcDbLine
 10
554.2152669411724
 20
1188.835818665736
 30
0.0
 11
554.2152669411724
 21
1175.742900957971
 31
0.0
  0
LINE
  5
1C3F
102
{ACAD_REACTORS
330
1D1C
102
}
330
A
100
AcDbEntity
  8
HIDDEN
 48
5.0
100
AcDbLine
 10
554.2152669411724
 20
1175.742900957971
 30
0.0
 11
527.587090514877
 21
1180.522847938025
 31
0.0
  0
ARC
  5
1C40
102
{ACAD_REACTORS
330
1D1C
102
}
330
A
100
AcDbEntity
  8
HIDDEN
 48
5.0
100
AcDbCircle
 10
529.7828897998994
 20
1190.625793587396
 30
0.0
 40
10.33881256693649
100
AcDbArc
 50
178.7376145707147
 51
257.737897369798
  0
LINE
  5
1C41
102
{ACAD_REACTORS
330
1D1C
102
}
330
A
100
AcDbEntity
  8
HIDDEN
100
AcDbLine
 10
530.0023591528818
 20
1183.207256366009
 30
0.0
 11
530.0023591528818
 21
1197.687277252601
 31
0.0
  0
LINE
  5
1C42
102
{ACAD_REACTORS
330
1D1C
102
}
330
A
100
AcDbEntity
  8
HIDDEN
100
AcDbLine
 10
543.3450007315363
 20
1183.207256366009
 30
0.0
 11
543.3450007315363
 21
1197.687277252601
 31
0.0
  0
LINE
  5
1C43
102
{ACAD_REACTORS
330
1D1C
102
}
330
A
100
AcDbEntity
  8
HIDDEN
100
AcDbLine
 10
635.5702973149964
 20
1410.777407354091
 30
0.0
 11
592.6046535746283
 21
1410.777407354091
 31
0.0
  0
LINE
  5
1C44
102
{ACAD_REACTORS
330
1D1C
102
}
330
A
100
AcDbEntity
  8
HIDDEN
100
AcDbLine
 10
614.0874754448124
 20
1432.260229224275
 30
0.0
 11
614.0874754448124
 21
1389.294585483907
 31
0.0
  0
ARC
  5
1C45
330
A
100
AcDbEntity
  8
MODEL
100
AcDbCircle
 10
559.5210481686469
 20
1360.044153888289
 30
0.0
 40
94.69003230948947
100
AcDbArc
 50
194.507662708688
 51
242.5772188280698
  0
ARC
  5
1C46
330
A
100
AcDbEntity
  8
MODEL
100
AcDbCircle
 10
555.9091505980724
 20
1345.479425102547
 30
0.0
 40
53.21603368243915
100
AcDbArc
 50
88.77604360656636
 51
135.5687254015979
  0
ARC
  5
1C47
330
A
100
AcDbEntity
  8
MODEL
100
AcDbCircle
 10
2494.651947990186
 20
1421.889245486888
 30
0.0
 40
1991.194851484831
100
AcDbArc
 50
180.8553920511777
 51
182.5695936864791
  0
ARC
  5
1C48
330
A
100
AcDbEntity
  8
MODEL
100
AcDbCircle
 10
548.6739834509705
 20
1392.83478844716
 30
0.0
 40
45.0
100
AcDbArc
 50
96.86897843130754
 51
180.8553920511773
1001
GENIUS_GENOBJ-N-FIL_13
1002
{
1000
OWNER
1000
GEN
1002
}
1001
GENIUS_GENODEF_13
1002
{
1000
HIER
1070
     0
1002
}
1002
{
1000
MANEDIT
1070
     0
1002
}
1002
{
1000
NOSEL
1070
     0
1002
}
1002
{
1000
BEHIND
1070
     0
1002
}
1002
{
1000
OTHER
1070
     0
1002
}
1002
{
1000
REACTOR
1002
}
  0
LINE
  5
1C49
102
{ACAD_REACTORS
330
1D1C
102
}
330
A
100
AcDbEntity
  8
HIDDEN
100
AcDbLine
 10
725.0731434759167
 20
1190.777311358189
 30
0.0
 11
664.3630908681379
 21
1190.777311358189
 31
0.0
  0
LINE
  5
1C4A
102
{ACAD_REACTORS
330
1D1C
102
}
330
A
100
AcDbEntity
  8
HIDDEN
 48
5.0
100
AcDbLine
 10
719.0882455346898
 20
1179.522974448132
 30
0.0
 11
719.0882455346898
 21
1202.031648268246
 31
0.0
  0
LINE
  5
1C4B
102
{ACAD_REACTORS
330
1D1C
102
}
330
A
100
AcDbEntity
  8
HIDDEN
 48
5.0
100
AcDbLine
 10
719.0882455346898
 20
1202.031648268246
 30
0.0
 11
672.6252227868486
 21
1210.152307259807
 31
0.0
  0
ARC
  5
1C4C
102
{ACAD_REACTORS
330
1D1C
102
}
330
A
100
AcDbEntity
  8
HIDDEN
 48
5.0
100
AcDbCircle
 10
698.172381824641
 20
1190.777311358189
 30
0.0
 40
4.256192728762556
100
AcDbArc
 50
270.0
 51
90.0
  0
ARC
  5
1C4D
102
{ACAD_REACTORS
330
1D1C
102
}
330
A
100
AcDbEntity
  8
HIDDEN
 48
5.0
100
AcDbCircle
 10
684.6565832169089
 20
1190.777311358189
 30
0.0
 40
4.256192728762556
100
AcDbArc
 50
90.0
 51
270.0
  0
LINE
  5
1C4E
102
{ACAD_REACTORS
330
1D1C
102
}
330
A
100
AcDbEntity
  8
HIDDEN
 48
5.0
100
AcDbLine
 10
698.172381824641
 20
1195.033504086952
 30
0.0
 11
684.6565832169089
 21
1195.033504086952
 31
0.0
  0
LINE
  5
1C4F
102
{ACAD_REACTORS
330
1D1C
102
}
330
A
100
AcDbEntity
  8
HIDDEN
 48
5.0
100
AcDbLine
 10
698.172381824641
 20
1186.521118629427
 30
0.0
 11
684.6565832169089
 21
1186.521118629427
 31
0.0
  0
ARC
  5
1C50
102
{ACAD_REACTORS
330
1D1C
102
}
330
A
100
AcDbEntity
  8
HIDDEN
 48
5.0
100
AcDbCircle
 10
672.2808887760583
 20
1208.182171708884
 30
0.0
 40
2.0
100
AcDbArc
 50
80.0861627069222
 51
180.0
1001
GENIUS_GENOBJ-N-FIL_13
1002
{
1000
OWNER
1000
GEN
1002
}
1001
GENIUS_GENODEF_13
1002
{
1000
HIER
1070
     0
1002
}
1002
{
1000
MANEDIT
1070
     0
1002
}
1002
{
1000
NOSEL
1070
     0
1002
}
1002
{
1000
BEHIND
1070
     0
1002
}
1002
{
1000
OTHER
1070
     0
1002
}
1002
{
1000
REACTOR
1002
}
  0
LINE
  5
1C51
102
{ACAD_REACTORS
330
1D1C
102
}
330
A
100
AcDbEntity
  8
HIDDEN
 48
5.0
100
AcDbLine
 10
673.9594740363503
 20
1192.718804050643
 30
0.0
 11
673.9594740363503
 21
1205.811721758408
 31
0.0
  0
LINE
  5
1C52
102
{ACAD_REACTORS
330
1D1C
102
}
330
A
100
AcDbEntity
  8
HIDDEN
 48
5.0
100
AcDbLine
 10
673.9594740363503
 20
1205.811721758408
 30
0.0
 11
700.5876504626458
 21
1201.031774778353
 31
0.0
  0
ARC
  5
1C53
102
{ACAD_REACTORS
330
1D1C
102
}
330
A
100
AcDbEntity
  8
HIDDEN
 48
5.0
100
AcDbCircle
 10
698.3918511776234
 20
1190.928829128982
 30
0.0
 40
10.33881256693649
100
AcDbArc
 50
358.7376145707174
 51
77.73789736980439
  0
LINE
  5
1C54
102
{ACAD_REACTORS
330
1D1C
102
}
330
A
100
AcDbEntity
  8
HIDDEN
 48
5.0
100
AcDbLine
 10
719.0882455346898
 20
1179.522974448132
 30
0.0
 11
672.6252227868486
 21
1171.402315456572
 31
0.0
  0
LINE
  5
1C55
102
{ACAD_REACTORS
330
1D1C
102
}
330
A
100
AcDbEntity
  8
HIDDEN
 48
5.0
100
AcDbLine
 10
670.2808887760583
 20
1208.0643359991
 30
0.0
 11
670.2808887760583
 21
1173.372451007495
 31
0.0
  0
ARC
  5
1C56
102
{ACAD_REACTORS
330
1D1C
102
}
330
A
100
AcDbEntity
  8
HIDDEN
 48
5.0
100
AcDbCircle
 10
672.2808887760583
 20
1173.372451007495
 30
0.0
 40
2.0
100
AcDbArc
 50
180.0
 51
279.9138372930777
1001
GENIUS_GENOBJ-N-FIL_13
1002
{
1000
OWNER
1000
GEN
1002
}
1001
GENIUS_GENODEF_13
1002
{
1000
HIER
1070
     0
1002
}
1002
{
1000
MANEDIT
1070
     0
1002
}
1002
{
1000
NOSEL
1070
     0
1002
}
1002
{
1000
BEHIND
1070
     0
1002
}
1002
{
1000
OTHER
1070
     0
1002
}
1002
{
1000
REACTOR
1002
}
  0
LINE
  5
1C57
102
{ACAD_REACTORS
330
1D1C
102
}
330
A
100
AcDbEntity
  8
HIDDEN
 48
5.0
100
AcDbLine
 10
673.9594740363503
 20
1188.835818665736
 30
0.0
 11
673.9594740363503
 21
1175.742900957971
 31
0.0
  0
LINE
  5
1C58
102
{ACAD_REACTORS
330
1D1C
102
}
330
A
100
AcDbEntity
  8
HIDDEN
 48
5.0
100
AcDbLine
 10
673.9594740363503
 20
1175.742900957971
 30
0.0
 11
700.5876504626458
 21
1180.522847938025
 31
0.0
  0
ARC
  5
1C59
102
{ACAD_REACTORS
330
1D1C
102
}
330
A
100
AcDbEntity
  8
HIDDEN
 48
5.0
100
AcDbCircle
 10
698.3918511776234
 20
1190.625793587396
 30
0.0
 40
10.33881256693649
100
AcDbArc
 50
282.2621026302027
 51
1.262385429285251
  0
LINE
  5
1C5A
102
{ACAD_REACTORS
330
1D1C
102
}
330
A
100
AcDbEntity
  8
HIDDEN
100
AcDbLine
 10
698.172381824641
 20
1183.207256366009
 30
0.0
 11
698.172381824641
 21
1197.687277252601
 31
0.0
  0
LINE
  5
1C5B
102
{ACAD_REACTORS
330
1D1C
102
}
330
A
100
AcDbEntity
  8
HIDDEN
100
AcDbLine
 10
684.8297402459865
 20
1183.207256366009
 30
0.0
 11
684.8297402459865
 21
1197.687277252601
 31
0.0
  0
LWPOLYLINE
  5
1C5C
330
A
100
AcDbEntity
  8
MODEL
100
AcDbPolyline
 90
       11
 70
     1
 43
0.0
 10
759.2581924960506
 20
1308.450938841327
 42
0.0172251173485678
 10
764.0874754446253
 20
1458.972274842776
 42
0.3953321586557102
 10
753.900616444509
 20
1469.013071412381
 42
0.0126269433348493
 10
474.0885304478671
 20
1469.008378391048
 42
0.3902463642687339
 10
464.087475444626
 20
1458.972274843074
 42
0.0172251173486035
 10
468.9167583932013
 20
1308.450938841304
 42
0.0303833902423153
 10
518.5002305232041
 20
897.0836186229586
 42
0.341898001289771
 10
527.6146557528132
 20
888.9069804546349
 42
0.0180867842726279
 10
614.0873746602507
 20
885.7780219789277
 42
0.0180868264055321
 10
700.5602951364646
 20
888.9069804546367
 42
0.3418980012890153
 10
709.6747203660462
 20
897.083618622959
 42
0.030383390242317
  0
ARC
  5
1C5D
330
A
100
AcDbEntity
  8
MODEL
100
AcDbCircle
 10
555.4089624630353
 20
1334.859971590364
 30
0.0
 40
50.0
100
AcDbArc
 50
182.5695936864792
 51
232.1104626310472
1001
GENIUS_GENODEF_13
1002
{
1000
HIER
1070
     0
1002
}
1002
{
1000
MANEDIT
1070
     0
1002
}
1002
{
1000
NOSEL
1070
     0
1002
}
1002
{
1000
BEHIND
1070
     0
1002
}
1002
{
1000
OTHER
1070
     0
1002
}
1002
{
1000
REACTOR
1002
}
1001
GENIUS_GENOBJ-N-FIL_13
1002
{
1000
OWNER
1000
GEN
1002
}
  0
ARC
  5
1C5E
330
A
100
AcDbEntity
  8
MODEL
100
AcDbCircle
 10
497.519374460589
 20
1306.351941281189
 30
0.0
 40
79.05592238510705
100
AcDbArc
 50
58.05139321820843
 51
75.0543723678145
  0
ARC
  5
1C5F
330
A
100
AcDbEntity
  8
MODEL
100
AcDbCircle
 10
615.3130057751972
 20
1518.033793337326
 30
0.0
 40
163.3385237505933
100
AcDbArc
 50
242.2865620505849
 51
269.5780560259083
  0
ARC
  5
1C60
330
A
100
AcDbEntity
  8
MODEL
100
AcDbCircle
 10
611.4045875690783
 20
1550.968220652661
 30
0.0
 40
161.6958941842156
100
AcDbArc
 50
250.355768715195
 51
270.9507056870608
  0
ARC
  5
1C61
330
A
100
AcDbEntity
  8
MODEL
100
AcDbCircle
 10
561.9589508914833
 20
1338.682608020833
 30
0.0
 40
62.29734232860892
100
AcDbArc
 50
135.0000000000002
 51
157.6380724669825
  0
ARC
  5
1C62
330
A
100
AcDbEntity
  8
MODEL
100
AcDbCircle
 10
668.6539027209776
 20
1360.044153888289
 30
0.0
 40
94.69003230948947
100
AcDbArc
 50
297.4227811719334
 51
345.4923372913108
  0
ARC
  5
1C63
330
A
100
AcDbEntity
  8
MODEL
100
AcDbCircle
 10
672.2658002915521
 20
1345.479425102547
 30
0.0
 40
53.21603368243915
100
AcDbArc
 50
44.4312745984022
 51
91.22395639343047
  0
ARC
  5
1C64
330
A
100
AcDbEntity
  8
MODEL
100
AcDbCircle
 10
-1266.476997100562
 20
1421.889245486898
 30
0.0
 40
1991.194851484831
100
AcDbArc
 50
357.4304063135207
 51
359.144607948822
  0
ARC
  5
1C65
330
A
100
AcDbEntity
  8
MODEL
100
AcDbCircle
 10
679.5009674386541
 20
1392.83478844716
 30
0.0
 40
45.0
100
AcDbArc
 50
359.1446079488222
 51
83.13102156869246
1001
GENIUS_GENOBJ-N-FIL_13
1002
{
1000
OWNER
1000
GEN
1002
}
1001
GENIUS_GENODEF_13
1002
{
1000
HIER
1070
     0
1002
}
1002
{
1000
MANEDIT
1070
     0
1002
}
1002
{
1000
NOSEL
1070
     0
1002
}
1002
{
1000
BEHIND
1070
     0
1002
}
1002
{
1000
OTHER
1070
     0
1002
}
1002
{
1000
REACTOR
1002
}
  0
ARC
  5
1C66
330
A
100
AcDbEntity
  8
MODEL
100
AcDbCircle
 10
672.765988426589
 20
1334.859971590363
 30
0.0
 40
50.0
100
AcDbArc
 50
307.8895373689558
 51
357.4304063135207
1001
GENIUS_GENODEF_13
1002
{
1000
HIER
1070
     0
1002
}
1002
{
1000
MANEDIT
1070
     0
1002
}
1002
{
1000
NOSEL
1070
     0
1002
}
1002
{
1000
BEHIND
1070
     0
1002
}
1002
{
1000
OTHER
1070
     0
1002
}
1002
{
1000
REACTOR
1002
}
1001
GENIUS_GENOBJ-N-FIL_13
1002
{
1000
OWNER
1000
GEN
1002
}
  0
ARC
  5
1C67
330
A
100
AcDbEntity
  8
MODEL
100
AcDbCircle
 10
730.6555764290352
 20
1306.351941281189
 30
0.0
 40
79.05592238510705
100
AcDbArc
 50
104.9456276321887
 51
121.9486067817879
  0
ARC
  5
1C68
330
A
100
AcDbEntity
  8
MODEL
100
AcDbCircle
 10
612.8619451144281
 20
1518.033793337326
 30
0.0
 40
163.3385237505933
100
AcDbArc
 50
270.4219439740917
 51
297.7134379494184
  0
ARC
  5
1C69
330
A
100
AcDbEntity
  8
MODEL
100
AcDbCircle
 10
616.7703633205472
 20
1550.968220652661
 30
0.0
 40
161.6958941842156
100
AcDbArc
 50
269.0492943129357
 51
289.6442312848083
  0
ARC
  5
1C6A
330
A
100
AcDbEntity
  8
MODEL
100
AcDbCircle
 10
666.2159999981411
 20
1338.682608020832
 30
0.0
 40
62.29734232860892
100
AcDbArc
 50
22.36192753301818
 51
44.99999999999955
  0
ARC
  5
1C6B
330
A
100
AcDbEntity
  8
MODEL
100
AcDbCircle
 10
614.0874754448124
 20
1493.051171089664
 30
0.0
 40
238.2273767877469
100
AcDbArc
 50
245.6624706060364
 51
294.3375293939637
  0
ARC
  5
1C6C
330
A
100
AcDbEntity
  8
MODEL
100
AcDbCircle
 10
614.0874754448124
 20
1410.264058594007
 30
0.0
 40
145.545508646933
100
AcDbArc
 50
232.110418007304
 51
307.8895819926988
  0
ARC
  5
1C6D
330
A
100
AcDbEntity
  8
MODEL
100
AcDbCircle
 10
614.0874754448109
 20
891.1110991260672
 30
0.0
 40
550.9679769060978
100
AcDbArc
 50
82.6174898137118
 51
97.3825101862882
  0
ARC
  5
1CBA
330
A
100
AcDbEntity
  8
MODEL
100
AcDbCircle
 10
612.8437104383349
 20
1636.03648466791
 30
0.0
 40
536.3849480748379
100
AcDbArc
 50
89.87706973071954
 51
95.9484529353866
  0
ARC
  5
1CBB
330
A
100
AcDbEntity
  8
MODEL
100
AcDbCircle
 10
562.5687949841905
 20
2109.546201710647
 30
0.0
 40
60.22187597396943
100
AcDbArc
 50
95.06107820709056
 51
143.8926584845484
  0
ARC
  5
1CBC
330
A
100
AcDbEntity
  8
MODEL
100
AcDbCircle
 10
1412.031149714972
 20
2111.524119989017
 30
0.0
 40
907.3538936553825
100
AcDbArc
 50
179.6575190224233
 51
183.8236068645901
  0
ARC
  5
1CBD
330
A
100
AcDbEntity
  8
MODEL
100
AcDbCircle
 10
593.6956275521011
 20
2058.612235419099
 30
0.0
 40
87.32956667321571
100
AcDbArc
 50
184.9892929639441
 51
239.8807308388589
  0
ARC
  5
1CBE
330
A
100
AcDbEntity
  8
MODEL
100
AcDbCircle
 10
613.9304810336295
 20
2139.84196289505
 30
0.0
 40
21.41971194232333
100
AcDbArc
 50
194.3174200051835
 51
270.171362368881
  0
ARC
  5
1CBF
330
A
100
AcDbEntity
  8
MODEL
100
AcDbCircle
 10
733.8431244242086
 20
2162.509687571214
 30
0.0
 40
143.4198331650384
100
AcDbArc
 50
184.5283551798833
 51
191.2438337136253
  0
ARC
  5
1CC0
330
A
100
AcDbEntity
  8
MODEL
100
AcDbCircle
 10
733.8760014502391
 20
2159.813638515078
 30
0.0
 40
150.0560094119372
100
AcDbArc
 50
181.6950626557873
 51
190.5635240955827
  0
ARC
  5
1CC1
330
A
100
AcDbEntity
  8
MODEL
100
AcDbCircle
 10
613.9067844674905
 20
2137.072323309146
 30
0.0
 40
27.95328588020809
100
AcDbArc
 50
189.8205324734308
 51
270.1798804125332
  0
ARC
  5
1CC2
330
A
100
AcDbEntity
  8
MODEL
100
AcDbCircle
 10
614.1736946343892
 20
2512.921333034258
 30
0.0
 40
352.7164790833441
100
AcDbArc
 50
258.6593185333553
 51
269.9708984785597
  0
ARC
  5
1CC3
330
A
100
AcDbEntity
  8
MODEL
100
AcDbCircle
 10
603.3329874713423
 20
2150.383547682891
 30
0.0
 40
12.48782528867393
100
AcDbArc
 50
124.6132499479811
 51
176.3141413655334
  0
LINE
  5
1CC4
330
A
100
AcDbEntity
  8
MODEL
100
AcDbLine
 10
763.9944571641036
 20
2295.042820875376
 30
0.0
 11
463.9946304697561
 21
2295.042820875376
 31
0.0
  0
LINE
  5
1CC5
330
A
100
AcDbEntity
  8
MODEL
100
AcDbLine
 10
763.9944571641036
 20
2200.411698240614
 30
0.0
 11
763.9922441188821
 21
2200.411698240614
 31
0.0
  0
LINE
  5
1CC6
330
A
100
AcDbEntity
  8
MODEL
100
AcDbLine
 10
758.0841505913738
 20
2200.411698240614
 30
0.0
 11
469.9049370424858
 21
2200.411698240614
 31
0.0
  0
LINE
  5
1CC7
330
A
100
AcDbEntity
  8
MODEL
100
AcDbLine
 10
463.9968435149788
 20
2200.411698240614
 30
0.0
 11
463.9946304697561
 21
2200.411698240614
 31
0.0
  0
ARC
  5
1CC8
330
A
100
AcDbEntity
  8
MODEL
100
AcDbCircle
 10
548.5040702822006
 20
2118.121731499504
 30
0.0
 40
43.8263319180509
100
AcDbArc
 50
142.1143336811668
 51
181.5350073995342
  0
ARC
  5
1CC9
330
A
100
AcDbEntity
  8
MODEL
100
AcDbCircle
 10
611.1103792737366
 20
2085.024087672496
 30
0.0
 40
118.9278871062948
100
AcDbArc
 50
239.0087203775729
 51
271.3896375539497
  0
ARC
  5
1CCA
330
A
100
AcDbEntity
  8
MODEL
100
AcDbCircle
 10
608.924415193069
 20
2117.843669973709
 30
0.0
 40
141.1050071171638
100
AcDbArc
 50
233.7757078148891
 51
272.0591722657335
  0
ARC
  5
1CCB
330
A
100
AcDbEntity
  8
MODEL
100
AcDbCircle
 10
615.1453771955246
 20
1636.03648466791
 30
0.0
 40
536.3849480748379
100
AcDbArc
 50
84.0515470646134
 51
90.12293026928374
  0
ARC
  5
1CCC
330
A
100
AcDbEntity
  8
MODEL
100
AcDbCircle
 10
665.4202926496691
 20
2109.546201710647
 30
0.0
 40
60.22187597396943
100
AcDbArc
 50
36.10734151545163
 51
84.93892179290947
  0
ARC
  5
1CCD
330
A
100
AcDbEntity
  8
MODEL
100
AcDbCircle
 10
-184.0420620811122
 20
2111.524119989017
 30
0.0
 40
907.3538936553825
100
AcDbArc
 50
356.1763931354099
 51
0.3424809775766632
  0
ARC
  5
1CCE
330
A
100
AcDbEntity
  8
MODEL
100
AcDbCircle
 10
634.2934600817584
 20
2058.612235419099
 30
0.0
 40
87.32956667321571
100
AcDbArc
 50
300.1192691611431
 51
355.0107070360559
  0
ARC
  5
1CCF
330
A
100
AcDbEntity
  8
MODEL
100
AcDbCircle
 10
614.0586066002301
 20
2139.84196289505
 30
0.0
 40
21.41971194232333
100
AcDbArc
 50
269.828637631119
 51
345.6825799948165
  0
ARC
  5
1CD0
330
A
100
AcDbEntity
  8
MODEL
100
AcDbCircle
 10
494.1459632096511
 20
2162.509687571214
 30
0.0
 40
143.4198331650384
100
AcDbArc
 50
348.7561662863744
 51
355.4716448201168
  0
ARC
  5
1CD1
330
A
100
AcDbEntity
  8
MODEL
100
AcDbCircle
 10
494.1130861836205
 20
2159.813638515078
 30
0.0
 40
150.0560094119372
100
AcDbArc
 50
349.4364759044173
 51
358.3049373442131
  0
ARC
  5
1CD2
330
A
100
AcDbEntity
  8
MODEL
100
AcDbCircle
 10
614.082303166369
 20
2137.072323309146
 30
0.0
 40
27.95328588020809
100
AcDbArc
 50
269.8201195874668
 51
350.1794675265692
  0
ARC
  5
1CD3
330
A
100
AcDbEntity
  8
MODEL
100
AcDbCircle
 10
613.8153929994706
 20
2512.921333034258
 30
0.0
 40
352.7164790833441
100
AcDbArc
 50
270.0291015214403
 51
281.3406814666447
  0
ARC
  5
1CD4
330
A
100
AcDbEntity
  8
MODEL
100
AcDbCircle
 10
624.6561001625173
 20
2150.383547682891
 30
0.0
 40
12.48782528867393
100
AcDbArc
 50
3.685858634466606
 51
55.3867500520205
  0
ARC
  5
1CD5
330
A
100
AcDbEntity
  8
MODEL
100
AcDbCircle
 10
679.485017351659
 20
2118.121731499504
 30
0.0
 40
43.8263319180509
100
AcDbArc
 50
358.4649926004657
 51
37.88566631883322
  0
ARC
  5
1CD6
330
A
100
AcDbEntity
  8
MODEL
100
AcDbCircle
 10
616.8787083601229
 20
2085.024087672496
 30
0.0
 40
118.9278871062948
100
AcDbArc
 50
268.6103624460536
 51
300.991279622427
  0
ARC
  5
1CD7
330
A
100
AcDbEntity
  8
MODEL
100
AcDbCircle
 10
619.0646724407907
 20
2117.843669973709
 30
0.0
 40
141.1050071171638
100
AcDbArc
 50
267.9408277342662
 51
306.2242921851088
  0
LWPOLYLINE
  5
1CD8
330
A
100
AcDbEntity
  8
MODEL
100
AcDbPolyline
 90
       10
 70
     1
 43
0.0
 10
763.9922441162746
 20
2200.4115867403
 10
763.9944571641036
 20
2295.042820875376
 10
758.9944571641036
 20
2300.042820875376
 10
468.9946304697564
 20
2300.042820875376
 10
463.9946304697561
 20
2295.042820875376
 10
463.9968435175864
 20
2200.411586740341
 42
0.0063372040948321
 10
467.0755176497989
 20
2059.87569381084
 42
0.2686307540315397
 10
534.114773808464
 20
1965.176994394686
 42
0.1894619065341046
 10
693.8743138253933
 20
1965.176994394685
 42
0.2686307540319207
 10
760.9135699840665
 20
2059.875693811007
 42
0.0063372040948227
  0
DIMENSION
  5
1D60
330
A
100
AcDbEntity
  8
Dim
  6
Continuous
100
AcDbDimension
  2
*D19
 10
763.9946304697561
 20
2381.465523557275
 30
0.0
 11
613.9946304697561
 21
2403.681832151025
 31
0.0
 70
    32
 71
     5
 42
300.0
 73
     0
 74
     0
 75
     0
  3
JIS
100
AcDbAlignedDimension
 13
463.9946304697561
 23
2295.042820875376
 33
0.0
 14
763.9946304697561
 24
2295.042820875376
 34
0.0
100
AcDbRotatedDimension
1001
ACAD
1000
DSTYLE
1002
{
1070
   179
1070
     0
1070
   271
1070
     0
1070
    43
1040
25.0
1070
    44
1040
0.0
1070
    42
1040
25.0
1002
}
  0
DIMENSION
  5
1D6D
330
A
100
AcDbEntity
  8
Dim
  6
Continuous
100
AcDbDimension
  2
*D20
 10
368.5880848675574
 20
1950.042820875376
 30
0.0
 11
346.3717762738074
 21
2125.042820875376
 31
0.0
 70
    32
 71
     5
 42
350.0
 73
     0
 74
     0
 75
     0
  3
JIS
100
AcDbAlignedDimension
 13
468.9946304697564
 23
2300.042820875376
 33
0.0
 14
589.8997979675133
 24
1950.042820875376
 34
0.0
 50
90.0
100
AcDbRotatedDimension
1001
ACAD
1000
DSTYLE
1002
{
1070
   179
1070
     0
1070
   271
1070
     0
1070
    43
1040
25.0
1070
    44
1040
0.0
1070
    42
1040
25.0
1002
}
  0
DIMENSION
  5
1D7D
330
A
100
AcDbEntity
  8
Dim
  6
Continuous
100
AcDbDimension
  2
*D21
 10
536.5874754448121
 20
1098.856030945055
 30
0.0
 11
614.0874754448121
 21
1121.072339538805
 31
0.0
 70
    32
 71
     5
 42
155.0000000000001
 73
     0
 74
     0
 75
     0
 52
-270.0
  3
JIS
100
AcDbAlignedDimension
 13
691.5874754448122
 23
1180.057522657055
 33
0.0
 14
536.5874754448121
 24
1180.057522657055
 34
0.0
 50
180.0
100
AcDbRotatedDimension
1001
ACAD
1000
DSTYLE
1002
{
1070
   179
1070
     0
1070
   271
1070
     0
1070
    43
1040
25.0
1070
    44
1040
0.0
1070
    42
1040
25.0
1002
}
  0
DIMENSION
  5
1D91
330
A
100
AcDbEntity
  8
Dim
  6
Continuous
100
AcDbDimension
  2
*D22
 10
341.5126344781764
 20
1265.778021978928
 30
0.0
 11
319.2963258844264
 21
1075.778021978928
 31
0.0
 70
    32
 71
     5
 42
380.0
 73
     0
 74
     0
 75
     0
  3
JIS
100
AcDbAlignedDimension
 13
614.0873746602504
 23
885.7780219789279
 33
0.0
 14
614.0873746602504
 24
1265.778021978928
 34
0.0
 50
90.0
100
AcDbRotatedDimension
1001
ACAD
1000
DSTYLE
1002
{
1070
   179
1070
     0
1070
   271
1070
     0
1070
    43
1040
25.0
1070
    44
1040
0.0
1070
    42
1040
25.0
1002
}
  0
DIMENSION
  5
1D9E
330
A
100
AcDbEntity
  8
Dim
  6
Continuous
100
AcDbDimension
  2
*D23
 10
423.3264085441104
 20
1190.778021978928
 30
0.0
 11
401.1100999503604
 21
1228.278021978928
 31
0.0
 70
    32
 71
     5
 42
75.0
 73
     0
 74
     0
 75
     0
  3
JIS
100
AcDbAlignedDimension
 13
499.685931005649
 23
1265.778021978928
 33
0.0
 14
499.685931005649
 24
1190.778021978928
 34
0.0
 50
90.0
100
AcDbRotatedDimension
1001
ACAD
1000
DSTYLE
1002
{
1070
   179
1070
     0
1070
   271
1070
     0
1070
    43
1040
25.0
1070
    44
1040
0.0
1070
    42
1040
25.0
1002
}
  0
DIMENSION
  5
1DAE
330
A
100
AcDbEntity
  8
Dim
  6
Continuous
100
AcDbDimension
  2
*D24
 10
341.5126344781764
 20
1470.778021978928
 30
0.0
 11
319.2963258844264
 21
1368.278021978928
 31
0.0
 70
    32
 71
     5
 42
205.0
 73
     0
 74
     0
 75
     0
  3
JIS
100
AcDbAlignedDimension
 13
449.0061697748797
 23
1265.778021978928
 33
0.0
 14
506.2641947806783
 24
1470.778021978928
 34
0.0
 50
90.0
100
AcDbRotatedDimension
1001
ACAD
1000
DSTYLE
1002
{
1070
   179
1070
     0
1070
   271
1070
     0
1070
    43
1040
25.0
1070
    44
1040
0.0
1070
    42
1040
25.0
1002
}
  0
DIMENSION
  5
1DC9
330
A
100
AcDbEntity
  8
Dim
  6
Continuous
100
AcDbDimension
  2
*D25
 10
711.5873704887614
 20
796.7929348378456
 30
0.0
 11
614.0873704887614
 21
819.0092434315956
 31
0.0
 70
    32
 71
     5
 42
195.0
 73
     0
 74
     0
 75
     0
  3
JIS
100
AcDbAlignedDimension
 13
516.5873704887614
 23
902.6054159631203
 33
0.0
 14
711.5873704887614
 24
902.6054159631203
 34
0.0
100
AcDbRotatedDimension
1001
ACAD
1000
DSTYLE
1002
{
1070
   179
1070
     0
1070
   271
1070
     0
1070
    43
1040
25.0
1070
    44
1040
0.0
1070
    42
1040
25.0
1002
}
  0
DIMENSION
  5
1DDA
330
A
100
AcDbEntity
  8
Dim
  6
Continuous
100
AcDbDimension
  2
*D26
 10
854.3739056749041
 20
1005.777407354091
 30
0.0
 11
832.1575970811541
 21
945.7777146665096
 31
0.0
 70
    32
 71
     5
 42
119.9993853751635
 73
     0
 74
     0
 75
     0
  3
JIS
100
AcDbAlignedDimension
 13
657.7213874954152
 23
885.7780219789279
 33
0.0
 14
643.5933221928262
 24
1005.777407354091
 34
0.0
 50
90.0
100
AcDbRotatedDimension
1001
ACAD
1000
DSTYLE
1002
{
1070
   179
1070
     0
1070
   271
1070
     0
1070
    43
1040
25.0
1070
    44
1040
0.0
1070
    42
1040
25.0
1002
}
  0
DIMENSION
  5
1DEA
330
A
100
AcDbEntity
  8
Dim
  6
Continuous
100
AcDbDimension
  2
*D27
 10
854.3739056749041
 20
1190.777311358189
 30
0.0
 11
832.1575970811541
 21
1098.27735935614
 31
0.0
 70
    32
 71
     5
 42
184.999904004098
 73
     0
 74
     0
 75
     0
  3
JIS
100
AcDbAlignedDimension
 13
668.5933221928262
 23
1005.777407354091
 33
0.0
 14
719.0882455346898
 24
1190.777311358189
 34
0.0
 50
90.0
100
AcDbRotatedDimension
1001
ACAD
1000
DSTYLE
1002
{
1070
   179
1070
     0
1070
   271
1070
     0
1070
    43
1040
25.0
1070
    44
1040
0.0
1070
    42
1040
25.0
1002
}
  0
DIMENSION
  5
1DFA
330
A
100
AcDbEntity
  8
Dim
  6
Continuous
100
AcDbDimension
  2
*D28
 10
854.3739056749041
 20
1410.777407354091
 30
0.0
 11
832.1575970811541
 21
1300.77735935614
 31
0.0
 70
    32
 71
     5
 42
220.000095995902
 73
     0
 74
     0
 75
     0
  3
JIS
100
AcDbAlignedDimension
 13
744.0882455346898
 23
1190.777311358189
 33
0.0
 14
635.5702973149964
 24
1410.777407354091
 34
0.0
 50
90.0
100
AcDbRotatedDimension
1001
ACAD
1000
DSTYLE
1002
{
1070
   179
1070
     0
1070
   271
1070
     0
1070
    43
1040
25.0
1070
    44
1040
0.0
1070
    42
1040
25.0
1002
}
  0
DIMENSION
  5
1E16
102
{ACAD_REACTORS
330
1E18
102
}
102
{ACAD_XDICTIONARY
360
1E17
102
}
330
A
100
AcDbEntity
  8
Dim
  6
Continuous
100
AcDbDimension
  2
*D29
 10
1640.84043970798
 20
1410.776835260251
 30
0.0
 11
1618.62413111423
 21
1440.776788212002
 31
0.0
 70
    32
 71
     5
 42
59.99990590350308
 73
     0
 74
     0
 75
     0
  3
JIS
100
AcDbAlignedDimension
 13
1537.298465598663
 23
1470.776741163754
 33
0.0
 14
1557.885036359298
 24
1410.776835260251
 34
0.0
 50
90.0
100
AcDbRotatedDimension
1001
ACAD
1000
DSTYLE
1002
{
1070
   179
1070
     0
1070
   271
1070
     0
1070
    43
1040
25.0
1070
    44
1040
0.0
1070
    42
1040
25.0
1002
}
  0
DIMENSION
  5
1E25
330
A
100
AcDbEntity
  8
Dim
  6
Continuous
100
AcDbDimension
  2
*D30
 10
1823.33097158849
 20
885.7767411637535
 30
0.0
 11
1801.11466299474
 21
1178.276741163754
 31
0.0
 70
    32
 71
     5
 42
585.0
 73
     0
 74
     0
 75
     0
  3
JIS
100
AcDbAlignedDimension
 13
1562.298465598663
 23
1470.776741163754
 33
0.0
 14
1562.298465598663
 24
885.7767411637535
 34
0.0
 50
90.0
100
AcDbRotatedDimension
1001
ACAD
1000
DSTYLE
1002
{
1070
   179
1070
     0
1070
   271
1070
     0
1070
    43
1040
25.0
1070
    44
1040
0.0
1070
    42
1040
25.0
1002
}
  0
DIMENSION
  5
1E32
330
A
100
AcDbEntity
  8
Dim
  6
Continuous
100
AcDbDimension
  2
*D31
 10
1640.84043970798
 20
1085.776741163754
 30
0.0
 11
1618.62413111423
 21
1248.276741163754
 31
0.0
 70
    32
 71
     5
 42
325.0
 73
     0
 74
     0
 75
     0
  3
JIS
100
AcDbAlignedDimension
 13
1562.298465598663
 23
1410.776741163754
 33
0.0
 14
1562.298465598663
 24
1085.776741163754
 34
0.0
 50
90.0
100
AcDbRotatedDimension
1001
ACAD
1000
DSTYLE
1002
{
1070
   179
1070
     0
1070
   271
1070
     0
1070
    43
1040
25.0
1070
    44
1040
0.0
1070
    42
1040
25.0
1002
}
  0
DIMENSION
  5
1E3F
330
A
100
AcDbEntity
  8
Dim
  6
Continuous
100
AcDbDimension
  2
*D32
 10
1735.50443055387
 20
1005.776741163754
 30
0.0
 11
1713.28812196012
 21
1208.276741163754
 31
0.0
 70
    32
 71
     5
 42
405.0
 73
     0
 74
     0
 75
     0
  3
JIS
100
AcDbAlignedDimension
 13
1630.782799749475
 23
1410.776741163754
 33
0.0
 14
1630.782799749475
 24
1005.776741163754
 34
0.0
 50
90.0
100
AcDbRotatedDimension
1001
ACAD
1000
DSTYLE
1002
{
1070
   179
1070
     0
1070
   271
1070
     0
1070
    43
1040
25.0
1070
    44
1040
0.0
1070
    42
1040
25.0
1002
}
  0
MTEXT
  5
1E5B
330
A
100
AcDbEntity
  8
Dim
390
1D
100
AcDbMText
 10
1469.554487158897
 20
818.5150520174551
 30
0.0
 40
24.0
 41
1169.771715461011
 46
24.72
 71
     1
 72
     1
  1
{排水トラップ}
  7
ＭＳ ゴシック
 73
     1
 44
1.174240107638677
1001
ACAD
1000
ACAD_MTEXT_DEFINED_HEIGHT_BEGIN
1070
    46
1040
24.72
1000
ACAD_MTEXT_DEFINED_HEIGHT_END
  0
LINE
  5
1E5C
330
A
100
AcDbEntity
  8
Dim
  6
Continuous
100
AcDbLine
 10
1560.56298957648
 20
829.0703171868134
 30
0.0
 11
1620.559757224831
 21
980.7769391645613
 31
0.0
  0
LINE
  5
1E5D
330
A
100
AcDbEntity
  8
Dim
  6
Continuous
100
AcDbLine
 10
628.3057206162166
 20
1420.979931759641
 30
0.0
 11
764.7389437742822
 21
1554.102278505495
 31
0.0
  0
MTEXT
  5
1E5E
330
A
100
AcDbEntity
  8
Dim
390
1D
100
AcDbMText
 10
779.6835399061499
 20
1583.38861685262
 30
0.0
 40
24.0
 41
1169.771715461011
 46
27.408
 71
     1
 72
     1
  1
{給水位置G1/2}
  7
ＭＳ ゴシック
 73
     1
 44
1.174240107638677
1001
ACAD
1000
ACAD_MTEXT_DEFINED_HEIGHT_BEGIN
1070
    46
1040
27.408
1000
ACAD_MTEXT_DEFINED_HEIGHT_END
  0
MTEXT
  5
1EB8
330
A
100
AcDbEntity
  8
Dim
390
1D
100
AcDbMText
 10
890.851889090265
 20
1301.782157162475
 30
0.0
 40
24.0
 41
1169.771715461011
 46
26.688
 71
     1
 72
     1
  1
{壁取付位置}
  7
ＭＳ ゴシック
 73
     1
 44
1.174240107638677
1001
ACAD
1000
ACAD_MTEXT_DEFINED_HEIGHT_BEGIN
1070
    46
1040
26.688
1000
ACAD_MTEXT_DEFINED_HEIGHT_END
  0
LINE
  5
1EB9
330
A
100
AcDbEntity
  8
Dim
  6
Continuous
100
AcDbLine
 10
881.034236202353
 20
1286.851211333904
 30
0.0
 11
708.9111886351366
 21
1203.810361828651
 31
0.0
  0
MTEXT
  5
1EEC
330
A
100
AcDbEntity
  8
Dim
390
1D
100
AcDbMText
 10
819.304158501911
 20
817.3025398153848
 30
0.0
 40
24.0
 41
1169.771715461011
 46
26.688
 71
     1
 72
     1
  1
{排水位置}
  7
ＭＳ ゴシック
 73
     1
 44
1.174240107638677
1001
ACAD
1000
ACAD_MTEXT_DEFINED_HEIGHT_BEGIN
1070
    46
1040
26.688
1000
ACAD_MTEXT_DEFINED_HEIGHT_END
  0
LINE
  5
1EED
330
A
100
AcDbEntity
  8
Dim
  6
Continuous
100
AcDbLine
 10
809.4865056139989
 20
819.8251991208792
 30
0.0
 11
635.7835465582415
 21
991.4435704993587
 31
0.0
  0
DIMENSION
  5
1EEE
330
A
100
AcDbEntity
  8
Dim
  6
Continuous
100
AcDbDimension
  2
*D35
 10
1477.298466669004
 20
1549.42259284148
 30
0.0
 11
1509.798466669004
 21
1571.63890143523
 31
0.0
 70
    32
 71
     5
 42
65.0
 73
     0
 74
     0
 75
     0
  3
JIS
100
AcDbAlignedDimension
 13
1542.298466669004
 23
1465.776741225511
 33
0.0
 14
1477.298466669004
 24
1427.776835260251
 34
0.0
100
AcDbRotatedDimension
1001
ACAD
1000
DSTYLE
1002
{
1070
   179
1070
     0
1070
   271
1070
     0
1070
    43
1040
25.0
1070
    44
1040
0.0
1070
    42
1040
25.0
1002
}
  0
VIEWPORT
  5
349
330
B
100
AcDbEntity
 67
     1
  8
0
100
AcDbViewport
 10
202.5
 20
128.5
 30
0.0
 40
486.0
 41
308.4
 68
     1
 69
     1
 12
202.5
 22
128.5
 13
0.0
 23
0.0
 14
0.5
 24
0.5
 15
0.0
 25
0.0
 16
0.0
 26
0.0
 36
1.0
 17
0.0
 27
0.0
 37
0.0
 42
50.0
 43
0.0
 44
0.0
 45
308.4
 50
0.0
 51
0.0
 72
   100
 90
   557152
  1

281
     0
 71
     1
 74
     0
110
0.0
120
0.0
130
0.0
111
1.0
121
0.0
131
0.0
112
0.0
122
1.0
132
0.0
 79
     0
146
0.0
170
     0
 61
     5
348
26C
292
     1
282
     1
141
0.0
142
0.0
 63
   256
  0
VIEWPORT
  5
34A
330
B
100
AcDbEntity
 67
     1
  8
0
100
AcDbViewport
 10
202.5
 20
128.5
 30
0.0
 40
324.0
 41
205.6
 68
     2
 69
     2
 12
986.6781359294573
 22
1427.077061889956
 13
0.0
 23
0.0
 14
0.5
 24
0.5
 15
0.0
 25
0.0
 16
0.0
 26
0.0
 36
1.0
 17
0.0
 27
0.0
 37
0.0
 42
50.0
 43
0.0
 44
0.0
 45
2890.021615685494
 50
0.0
 51
0.0
 72
   100
 90
   557152
  1

281
     0
 71
     1
 74
     0
110
0.0
120
0.0
130
0.0
111
1.0
121
0.0
131
0.0
112
0.0
122
1.0
132
0.0
 79
     0
146
0.0
170
     0
 61
     5
348
26C
292
     1
282
     1
141
0.0
142
0.0
 63
   256
  0
ENDSEC
  0
SECTION
  2
OBJECTS
  0
DICTIONARY
  5
19
330
0
100
AcDbDictionary
281
     1
  3
ACAD_COLOR
350
38F
  3
ACAD_DETAILVIEWSTYLE
350
8CF
  3
ACAD_FIELDLIST
350
BA6
  3
ACAD_GROUP
350
1A
  3
ACAD_IMAGE_VARS
350
27B
  3
ACAD_LAYOUT
350
1E
  3
ACAD_MATERIAL
350
263
  3
ACAD_MLEADERSTYLE
350
336
  3
ACAD_MLINESTYLE
350
1B
  3
ACAD_PLOTSETTINGS
350
22
  3
ACAD_PLOTSTYLENAME
350
1F
  3
ACAD_SCALELIST
350
241
  3
ACAD_SECTIONVIEWSTYLE
350
8D0
  3
ACAD_TABLESTYLE
350
278
  3
ACAD_VISUALSTYLE
350
267
  3
ACDB_RECOMPOSE_DATA
350
1F09
  3
AcDbVariableDictionary
350
330
  3
APPDATA
350
27A
  3
DimOffsetDictionary
350
C08
  0
SUN
  5
8C2
330
15
100
AcDbSun
 90
        1
290
     0
 63
     7
421
 16777215
 40
1.0
291
     1
 91
  2455826
 92
 54000000
292
     0
 70
     2
 71
   256
280
     1
  0
DICTIONARY
  5
2E1
330
2
100
AcDbDictionary
280
     1
281
     1
  3
ACAD_LAYERSTATES
360
2E2
  3
ACLYDICTIONARY
360
BFE
  0
DICTIONARY
  5
BDC
330
BDB
100
AcDbDictionary
280
     1
281
     1
  3
ACAD_FIELD
360
BE4
  0
DICTIONARY
  5
1E17
330
1E16
100
AcDbDictionary
280
     1
281
     1
  3
ACAD_DIMASSOC
360
1E18
  0
DICTIONARY
  5
38F
102
{ACAD_REACTORS
330
19
102
}
330
19
100
AcDbDictionary
281
     1
  0
DICTIONARY
  5
8CF
102
{ACAD_REACTORS
330
19
102
}
330
19
100
AcDbDictionary
281
     1
  0
FIELDLIST
  5
BA6
102
{ACAD_REACTORS
330
19
102
}
330
19
100
AcDbIdSet
 90
        2
330
BDF
330
BDE
100
AcDbFieldList
  0
DICTIONARY
  5
1A
102
{ACAD_REACTORS
330
19
102
}
330
19
100
AcDbDictionary
281
     1
  3
*A2
350
1D1C
  0
RASTERVARIABLES
  5
27B
102
{ACAD_REACTORS
330
19
102
}
330
19
100
AcDbRasterVariables
 90
        0
 70
     1
 71
     1
 72
     1
  0
DICTIONARY
  5
1E
102
{ACAD_REACTORS
330
19
102
}
330
19
100
AcDbDictionary
281
     1
  3
Layout1
350
21
  3
Model
350
20
  0
DICTIONARY
  5
263
102
{ACAD_REACTORS
330
19
102
}
330
19
100
AcDbDictionary
281
     1
  3
ByBlock
350
1AFC
  3
ByLayer
350
264
  3
Global
350
266
  0
DICTIONARY
  5
336
102
{ACAD_REACTORS
330
19
102
}
330
19
100
AcDbDictionary
281
     1
  3
Standard
350
8D1
  0
DICTIONARY
  5
1B
102
{ACAD_REACTORS
330
19
102
}
330
19
100
AcDbDictionary
281
     1
  3
Standard
350
1C
  0
DICTIONARY
  5
22
102
{ACAD_REACTORS
330
19
102
}
330
19
100
AcDbDictionary
281
     1
  0
ACDBDICTIONARYWDFLT
  5
1F
102
{ACAD_REACTORS
330
19
102
}
330
19
100
AcDbDictionary
281
     1
  3
Normal
350
1D
100
AcDbDictionaryWithDefault
340
1D
  0
DICTIONARY
  5
241
102
{ACAD_REACTORS
330
19
102
}
330
19
100
AcDbDictionary
281
     1
  3
A0
350
242
  3
A1
350
243
  3
A2
350
244
  3
A3
350
245
  3
A4
350
246
  3
A5
350
247
  3
A6
350
248
  3
A7
350
249
  3
A8
350
24A
  3
A9
350
24B
  3
B0
350
24C
  3
B1
350
24D
  3
B2
350
24E
  3
B3
350
24F
  3
B4
350
250
  3
B5
350
251
  3
B6
350
252
  3
B7
350
253
  3
B8
350
254
  3
B9
350
255
  3
C0
350
256
  3
C1
350
257
  3
C2
350
258
  3
C3
350
259
  3
C4
350
25A
  3
C5
350
25B
  3
C6
350
25C
  3
C7
350
25D
  3
C8
350
25E
  3
C9
350
25F
  3
D0
350
260
  3
D1
350
261
  3
D2
350
262
  0
DICTIONARY
  5
8D0
102
{ACAD_REACTORS
330
19
102
}
330
19
100
AcDbDictionary
281
     1
  0
DICTIONARY
  5
278
102
{ACAD_REACTORS
330
19
102
}
330
19
100
AcDbDictionary
281
     1
  3
Standard
350
279
  0
DICTIONARY
  5
267
102
{ACAD_REACTORS
330
19
102
}
330
19
100
AcDbDictionary
281
     1
  3
2dWireframe
350
26C
  3
3D Hidden
350
26E
  3
3dWireframe
350
26D
  3
Basic
350
26F
  3
Brighten
350
273
  3
ColorChange
350
277
  3
Conceptual
350
271
  3
Dim
350
272
  3
EdgeColorOff
350
8BC
  3
Facepattern
350
276
  3
Flat
350
268
  3
FlatWithEdges
350
269
  3
Gouraud
350
26A
  3
GouraudWithEdges
350
26B
  3
Hidden
350
8B9
  3
JitterOff
350
8BA
  3
Linepattern
350
275
  3
OverhangOff
350
8BB
  3
Realistic
350
270
  3
Shaded
350
8C1
  3
Shaded with edges
350
8C0
  3
Shades of Gray
350
8BD
  3
Sketchy
350
8BE
  3
Thicken
350
274
  3
Wireframe
350
8B8
  3
X-Ray
350
8BF
  0
XRECORD
  5
1F09
102
{ACAD_REACTORS
330
19
102
}
330
19
100
AcDbXrecord
280
     1
 90
        1
330
279
  0
DICTIONARY
  5
330
102
{ACAD_REACTORS
330
19
102
}
330
19
100
AcDbDictionary
281
     1
  3
CANNOSCALE
350
331
  3
CMLEADERSTYLE
350
8DA
  3
CTABLESTYLE
350
335
  3
HPTRANSPARENCY
350
C07
  3
XCLIPFRAME
350
64A
  0
DICTIONARY
  5
27A
102
{ACAD_REACTORS
330
19
102
}
330
19
100
AcDbDictionary
281
     1
  0
DICTIONARY
  5
C08
102
{ACAD_REACTORS
330
19
102
}
330
19
100
AcDbDictionary
281
     1
  3
DIMRAILANGLE
350
C0B
  3
DIMRAILFIRSTOFFSET
350
C09
  3
DIMRAILOFFSET
350
C0A
  3
DIMRAILSENABLED
350
C0C
  0
DICTIONARY
  5
2E2
102
{ACAD_REACTORS
330
2E1
102
}
330
2E1
100
AcDbDictionary
281
     1
  3
ARGON_LAYERP_15
350
870
  0
DICTIONARY
  5
BFE
102
{ACAD_REACTORS
330
2E1
102
}
330
2E1
100
AcDbDictionary
281
     1
1001
ACAD
1000
<All
  0
DICTIONARY
  5
BE4
102
{ACAD_REACTORS
330
BDC
102
}
330
BDC
100
AcDbDictionary
280
     1
281
     1
  3
TEXT
360
BDE
  0
DIMASSOC
  5
1E18
102
{ACAD_REACTORS
330
1E17
102
}
330
1E17
100
AcDbDimAssoc
330
1E16
 90
        1
 70
     0
 71
     1
  1
AcDbOsnapPointRef
 72
     1
331
1BB8
 73
     0
 91
        0
 40
0.0
 10
0.0
 20
0.0
 30
0.0
 75
     0
  0
GROUP
  5
1D1C
102
{ACAD_REACTORS
330
1A
102
}
330
1A
100
AcDbGroup
300

 70
     1
 71
     1
340
1C2F
340
1C43
340
1C44
340
1C30
340
1C31
340
1C32
340
1C33
340
1C34
340
1C35
340
1C36
340
1C37
340
1C38
340
1C39
340
1C3A
340
1C3B
340
1C3C
340
1C3D
340
1C3E
340
1C3F
340
1C40
340
1C41
340
1C42
340
1C49
340
1C4A
340
1C4B
340
1C4C
340
1C4D
340
1C4E
340
1C4F
340
1C50
340
1C51
340
1C52
340
1C53
340
1C54
340
1C55
340
1C56
340
1C57
340
1C58
340
1C59
340
1C5A
340
1C5B
340
1C2C
340
1C2D
340
1C2E
  0
LAYOUT
  5
21
102
{ACAD_REACTORS
330
1E
102
}
330
1E
100
AcDbPlotSettings
  1

  2
none_device
  4
ISO_A3_(420.00_x_297.00_MM)
  6

 40
7.5
 41
20.0
 42
7.5
 43
20.0
 44
420.0
 45
297.0
 46
0.0
 47
0.0
 48
0.0
 49
0.0
140
0.0
141
0.0
142
1.0
143
1.0
 70
     0
 72
     1
 73
     0
 74
     0
  7

 75
     0
 76
     0
 77
     2
 78
   300
147
1.0
148
0.0
149
0.0
100
AcDbLayout
  1
Layout1
 70
     0
 71
     0
 10
0.0
 20
0.0
 11
0.0
 21
0.0
 12
0.0
 22
0.0
 32
0.0
 14
0.0
 24
0.0
 34
0.0
 15
0.0
 25
0.0
 35
0.0
146
0.0
 13
0.0
 23
0.0
 33
0.0
 16
0.0
 26
0.0
 36
0.0
 17
0.0
 27
0.0
 37
0.0
 76
     0
330
B
331
349
  0
LAYOUT
  5
20
102
{ACAD_REACTORS
330
1E
102
}
330
1E
100
AcDbPlotSettings
  1

  2
none_device
  4
ISO_A3_(420.00_x_297.00_MM)
  6

 40
7.5
 41
20.0
 42
7.5
 43
20.0
 44
420.0
 45
297.0
 46
0.0
 47
0.0
 48
0.0
 49
0.0
140
0.0
141
0.0
142
1.0
143
1.0
 70
  1024
 72
     1
 73
     0
 74
     0
  7

 75
     0
 76
     0
 77
     2
 78
   300
147
1.0
148
0.0
149
0.0
100
AcDbLayout
  1
Model
 70
     0
 71
     1
 10
0.0
 20
0.0
 11
2100.0
 21
2970.0
 12
0.0
 22
0.0
 32
0.0
 14
0.0
 24
0.0
 34
0.0
 15
2100.0
 25
2970.0
 35
0.0
146
0.0
 13
0.0
 23
0.0
 33
0.0
 16
0.0
 26
0.0
 36
0.0
 17
0.0
 27
0.0
 37
0.0
 76
     0
330
A
331
15
  0
MATERIAL
  5
1AFC
102
{ACAD_REACTORS
330
263
102
}
330
263
100
AcDbMaterial
  1
ByBlock
 72
     1
 94
      127
  0
MATERIAL
  5
264
102
{ACAD_REACTORS
330
263
102
}
330
263
100
AcDbMaterial
  1
ByLayer
 72
     1
 94
      127
  0
MATERIAL
  5
266
102
{ACAD_REACTORS
330
263
102
}
330
263
100
AcDbMaterial
  1
Global
 72
     1
 94
      127
  0
MLEADERSTYLE
  5
8D1
102
{ACAD_REACTORS
330
336
102
}
330
336
100
AcDbMLeaderStyle
170
     2
171
     1
172
     0
 90
        2
 40
0.0
 41
0.0
173
     1
 91
-1056964608
340
11
 92
       -2
290
     1
 42
2.0
291
     1
 43
8.0
  3
Standard
341
0
 44
4.0
300

342
17
174
     1
178
     6
175
     1
176
     0
 93
-1056964608
 45
4.0
292
     0
297
     0
 46
4.0
343
0
 94
-1056964608
 47
1.0
 49
1.0
140
1.0
293
     1
141
0.0
294
     1
177
     0
142
1.0
295
     0
296
     0
143
3.75
1001
ACAD_MLEADERVER
1070
     2
  0
MLINESTYLE
  5
1C
102
{ACAD_REACTORS
330
1B
102
}
330
1B
100
AcDbMlineStyle
  2
Standard
 70
     0
  3

 62
     0
 51
90.0
 52
90.0
 71
     2
 49
0.5
 62
   256
  6
BYLAYER
 49
-0.5
 62
   256
  6
BYLAYER
  0
ACDBPLACEHOLDER
  5
1D
102
{ACAD_REACTORS
330
1F
102
}
330
1F
  0
SCALE
  5
242
102
{ACAD_REACTORS
330
241
102
}
330
241
100
AcDbScale
 70
     0
300
1:1
140
1.0
141
1.0
290
     1
  0
SCALE
  5
243
102
{ACAD_REACTORS
330
241
102
}
330
241
100
AcDbScale
 70
     0
300
1:2
140
1.0
141
2.0
290
     0
  0
SCALE
  5
244
102
{ACAD_REACTORS
330
241
102
}
330
241
100
AcDbScale
 70
     0
300
1:4
140
1.0
141
4.0
290
     0
  0
SCALE
  5
245
102
{ACAD_REACTORS
330
241
102
}
330
241
100
AcDbScale
 70
     0
300
1:5
140
1.0
141
5.0
290
     0
  0
SCALE
  5
246
102
{ACAD_REACTORS
330
241
102
}
330
241
100
AcDbScale
 70
     0
300
1:8
140
1.0
141
8.0
290
     0
  0
SCALE
  5
247
102
{ACAD_REACTORS
330
241
102
}
330
241
100
AcDbScale
 70
     0
300
1:10
140
1.0
141
10.0
290
     0
  0
SCALE
  5
248
102
{ACAD_REACTORS
330
241
102
}
330
241
100
AcDbScale
 70
     0
300
1:16
140
1.0
141
16.0
290
     0
  0
SCALE
  5
249
102
{ACAD_REACTORS
330
241
102
}
330
241
100
AcDbScale
 70
     0
300
1:20
140
1.0
141
20.0
290
     0
  0
SCALE
  5
24A
102
{ACAD_REACTORS
330
241
102
}
330
241
100
AcDbScale
 70
     0
300
1:30
140
1.0
141
30.0
290
     0
  0
SCALE
  5
24B
102
{ACAD_REACTORS
330
241
102
}
330
241
100
AcDbScale
 70
     0
300
1:40
140
1.0
141
40.0
290
     0
  0
SCALE
  5
24C
102
{ACAD_REACTORS
330
241
102
}
330
241
100
AcDbScale
 70
     0
300
1:50
140
1.0
141
50.0
290
     0
  0
SCALE
  5
24D
102
{ACAD_REACTORS
330
241
102
}
330
241
100
AcDbScale
 70
     0
300
1:100
140
1.0
141
100.0
290
     0
  0
SCALE
  5
24E
102
{ACAD_REACTORS
330
241
102
}
330
241
100
AcDbScale
 70
     0
300
2:1
140
2.0
141
1.0
290
     0
  0
SCALE
  5
24F
102
{ACAD_REACTORS
330
241
102
}
330
241
100
AcDbScale
 70
     0
300
4:1
140
4.0
141
1.0
290
     0
  0
SCALE
  5
250
102
{ACAD_REACTORS
330
241
102
}
330
241
100
AcDbScale
 70
     0
300
8:1
140
8.0
141
1.0
290
     0
  0
SCALE
  5
251
102
{ACAD_REACTORS
330
241
102
}
330
241
100
AcDbScale
 70
     0
300
10:1
140
10.0
141
1.0
290
     0
  0
SCALE
  5
252
102
{ACAD_REACTORS
330
241
102
}
330
241
100
AcDbScale
 70
     0
300
100:1
140
100.0
141
1.0
290
     0
  0
SCALE
  5
253
102
{ACAD_REACTORS
330
241
102
}
330
241
100
AcDbScale
 70
     0
300
1/128" = 1'-0"
140
0.0078125
141
12.0
290
     0
  0
SCALE
  5
254
102
{ACAD_REACTORS
330
241
102
}
330
241
100
AcDbScale
 70
     0
300
1/64" = 1'-0"
140
0.015625
141
12.0
290
     0
  0
SCALE
  5
255
102
{ACAD_REACTORS
330
241
102
}
330
241
100
AcDbScale
 70
     0
300
1/32" = 1'-0"
140
0.03125
141
12.0
290
     0
  0
SCALE
  5
256
102
{ACAD_REACTORS
330
241
102
}
330
241
100
AcDbScale
 70
     0
300
1/16" = 1'-0"
140
0.0625
141
12.0
290
     0
  0
SCALE
  5
257
102
{ACAD_REACTORS
330
241
102
}
330
241
100
AcDbScale
 70
     0
300
3/32" = 1'-0"
140
0.09375
141
12.0
290
     0
  0
SCALE
  5
258
102
{ACAD_REACTORS
330
241
102
}
330
241
100
AcDbScale
 70
     0
300
1/8" = 1'-0"
140
0.125
141
12.0
290
     0
  0
SCALE
  5
259
102
{ACAD_REACTORS
330
241
102
}
330
241
100
AcDbScale
 70
     0
300
3/16" = 1'-0"
140
0.1875
141
12.0
290
     0
  0
SCALE
  5
25A
102
{ACAD_REACTORS
330
241
102
}
330
241
100
AcDbScale
 70
     0
300
1/4" = 1'-0"
140
0.25
141
12.0
290
     0
  0
SCALE
  5
25B
102
{ACAD_REACTORS
330
241
102
}
330
241
100
AcDbScale
 70
     0
300
3/8" = 1'-0"
140
0.375
141
12.0
290
     0
  0
SCALE
  5
25C
102
{ACAD_REACTORS
330
241
102
}
330
241
100
AcDbScale
 70
     0
300
1/2" = 1'-0"
140
0.5
141
12.0
290
     0
  0
SCALE
  5
25D
102
{ACAD_REACTORS
330
241
102
}
330
241
100
AcDbScale
 70
     0
300
3/4" = 1'-0"
140
0.75
141
12.0
290
     0
  0
SCALE
  5
25E
102
{ACAD_REACTORS
330
241
102
}
330
241
100
AcDbScale
 70
     0
300
1" = 1'-0"
140
1.0
141
12.0
290
     0
  0
SCALE
  5
25F
102
{ACAD_REACTORS
330
241
102
}
330
241
100
AcDbScale
 70
     0
300
1-1/2" = 1'-0"
140
1.5
141
12.0
290
     0
  0
SCALE
  5
260
102
{ACAD_REACTORS
330
241
102
}
330
241
100
AcDbScale
 70
     0
300
3" = 1'-0"
140
3.0
141
12.0
290
     0
  0
SCALE
  5
261
102
{ACAD_REACTORS
330
241
102
}
330
241
100
AcDbScale
 70
     0
300
6" = 1'-0"
140
6.0
141
12.0
290
     0
  0
SCALE
  5
262
102
{ACAD_REACTORS
330
241
102
}
330
241
100
AcDbScale
 70
     0
300
1'-0" = 1'-0"
140
12.0
141
12.0
290
     0
  0
TABLESTYLE
  5
279
102
{ACAD_REACTORS
330
278
102
}
102
{ACAD_XDICTIONARY
360
1F07
102
}
330
278
100
AcDbTableStyle
  3
Standard
 70
     0
 71
     0
 40
0.06
 41
0.06
280
     0
281
     0
  7
Standard
140
4.5
170
     2
 62
     0
 63
   257
283
     0
 90
        4
 91
        0
  1

274
    -2
284
     1
 64
     0
275
    -2
285
     1
 65
     0
276
    -2
286
     1
 66
     0
277
    -2
287
     1
 67
     0
278
    -2
288
     1
 68
     0
279
    -2
289
     1
 69
     0
  7
Standard
140
6.0
170
     5
 62
     0
 63
   257
283
     0
 90
        4
 91
        0
  1

274
    -2
284
     1
 64
     0
275
    -2
285
     1
 65
     0
276
    -2
286
     1
 66
     0
277
    -2
287
     1
 67
     0
278
    -2
288
     1
 68
     0
279
    -2
289
     1
 69
     0
  7
Standard
140
4.5
170
     5
 62
     0
 63
   257
283
     0
 90
        4
 91
        0
  1

274
    -2
284
     1
 64
     0
275
    -2
285
     1
 65
     0
276
    -2
286
     1
 66
     0
277
    -2
287
     1
 67
     0
278
    -2
288
     1
 68
     0
279
    -2
289
     1
 69
     0
  0
VISUALSTYLE
  5
26C
102
{ACAD_REACTORS
330
267
102
}
330
267
100
AcDbVisualStyle
  2
2dWireframe
 70
     4
 71
     0
 72
     2
 73
     0
 90
        0
 40
-0.6
 41
-30.0
 62
     5
 63
     7
421
 16777215
 74
     1
 91
        4
 64
     7
 65
   257
 75
     1
175
     1
 42
1.0
 92
        0
 66
   257
 43
1.0
 76
     1
 77
     6
 78
     2
 67
     7
 79
     5
170
     0
171
     0
290
     0
174
     0
 93
        1
 44
0.0
173
     0
291
     0
 45
0.0
  0
VISUALSTYLE
  5
26E
102
{ACAD_REACTORS
330
267
102
}
330
267
100
AcDbVisualStyle
  2
3D Hidden
 70
     6
 71
     1
 72
     2
 73
     2
 90
        0
 40
-0.6
 41
-30.0
 62
     5
 63
     7
421
 16777215
 74
     2
 91
        2
 64
     7
 65
   257
 75
     2
175
     1
 42
40.0
 92
        0
 66
   257
 43
1.0
 76
     1
 77
     6
 78
     2
 67
     7
 79
     3
170
     0
171
     0
290
     0
174
     0
 93
        1
 44
0.0
173
     0
291
     0
 45
0.0
  0
VISUALSTYLE
  5
26D
102
{ACAD_REACTORS
330
267
102
}
330
267
100
AcDbVisualStyle
  2
3dWireframe
 70
     5
 71
     0
 72
     2
 73
     0
 90
        0
 40
-0.6
 41
-30.0
 62
     5
 63
     7
421
 16777215
 74
     1
 91
        4
 64
     7
 65
   257
 75
     1
175
     1
 42
1.0
 92
        0
 66
   257
 43
1.0
 76
     1
 77
     6
 78
     2
 67
     7
 79
     5
170
     0
171
     0
290
     0
174
     0
 93
        1
 44
0.0
173
     0
291
     0
 45
0.0
  0
VISUALSTYLE
  5
26F
102
{ACAD_REACTORS
330
267
102
}
330
267
100
AcDbVisualStyle
  2
Basic
 70
     7
 71
     1
 72
     0
 73
     1
 90
        0
 40
-0.6
 41
-30.0
 62
     5
 63
     7
421
 16777215
 74
     0
 91
        4
 64
     7
 65
   257
 75
     1
175
     1
 42
1.0
 92
        8
 66
     7
 43
1.0
 76
     1
 77
     6
 78
     2
 67
     7
 79
     5
170
     0
171
     0
290
     0
174
     0
 93
        1
 44
0.0
173
     0
291
     1
 45
0.0
  0
VISUALSTYLE
  5
273
102
{ACAD_REACTORS
330
267
102
}
330
267
100
AcDbVisualStyle
  2
Brighten
 70
    12
 71
     2
 72
     2
 73
     0
 90
        0
 40
-0.6
 41
-30.0
 62
     5
 63
     7
421
 16777215
 74
     1
 91
        4
 64
     7
 65
   257
 75
     1
175
     1
 42
1.0
 92
        8
 66
     7
 43
1.0
 76
     1
 77
     6
 78
     2
 67
     7
 79
     5
170
     0
171
     0
290
     0
174
     0
 93
        1
 44
50.0
173
     0
291
     1
 45
0.0
  0
VISUALSTYLE
  5
277
102
{ACAD_REACTORS
330
267
102
}
330
267
100
AcDbVisualStyle
  2
ColorChange
 70
    16
 71
     2
 72
     2
 73
     3
 90
        0
 40
-0.6
 41
-30.0
 62
     5
 63
     8
421
  8421504
 74
     1
 91
        4
 64
     7
 65
   257
 75
     1
175
     1
 42
1.0
 92
        8
 66
     8
424
  8421504
 43
1.0
 76
     1
 77
     6
 78
     2
 67
     7
 79
     5
170
     0
171
     0
290
     0
174
     0
 93
        1
 44
0.0
173
     0
291
     1
 45
0.0
  0
VISUALSTYLE
  5
271
102
{ACAD_REACTORS
330
267
102
}
330
267
100
AcDbVisualStyle
  2
Conceptual
 70
     9
 71
     3
 72
     2
 73
     0
 90
        0
 40
-0.6
 41
-30.0
 62
     5
 63
     7
421
 16777215
 74
     2
 91
        2
 64
     7
 65
   257
 75
     1
175
     1
 42
40.0
 92
        8
 66
     7
 43
1.0
 76
     1
 77
     6
 78
     2
 67
     7
 79
     3
170
     0
171
     0
290
     0
174
     0
 93
        1
 44
0.0
173
     0
291
     0
 45
0.0
  0
VISUALSTYLE
  5
272
102
{ACAD_REACTORS
330
267
102
}
330
267
100
AcDbVisualStyle
  2
Dim
 70
    11
 71
     2
 72
     2
 73
     0
 90
        0
 40
-0.6
 41
-30.0
 62
     5
 63
     7
421
 16777215
 74
     1
 91
        4
 64
     7
 65
   257
 75
     1
175
     1
 42
1.0
 92
        8
 66
     7
 43
1.0
 76
     1
 77
     6
 78
     2
 67
     7
 79
     5
170
     0
171
     0
290
     0
174
     0
 93
        1
 44
-50.0
173
     0
291
     1
 45
0.0
  0
VISUALSTYLE
  5
8BC
102
{ACAD_REACTORS
330
267
102
}
330
267
100
AcDbVisualStyle
  2
EdgeColorOff
 70
    22
 71
     2
 72
     2
 73
     0
 90
        0
 40
0.6
 41
30.0
 62
     5
 63
     7
421
 16777215
 74
     1
 91
        4
 64
     7
 65
   257
 75
     1
175
     1
 42
1.0
 92
        8
 66
     7
 43
1.0
 76
     1
 77
     6
 78
     2
 67
     7
 79
     5
170
     0
171
     0
290
     0
174
     0
 93
        1
 44
0.0
173
     0
291
     1
 45
0.0
  0
VISUALSTYLE
  5
276
102
{ACAD_REACTORS
330
267
102
}
330
267
100
AcDbVisualStyle
  2
Facepattern
 70
    15
 71
     2
 72
     2
 73
     0
 90
        0
 40
-0.6
 41
-30.0
 62
     5
 63
     7
421
 16777215
 74
     1
 91
        4
 64
     7
 65
   257
 75
     1
175
     1
 42
1.0
 92
        8
 66
     7
 43
1.0
 76
     1
 77
     6
 78
     2
 67
     7
 79
     5
170
     0
171
     0
290
     0
174
     0
 93
        1
 44
0.0
173
     0
291
     1
 45
0.0
  0
VISUALSTYLE
  5
268
102
{ACAD_REACTORS
330
267
102
}
330
267
100
AcDbVisualStyle
  2
Flat
 70
     0
 71
     2
 72
     1
 73
     1
 90
        2
 40
-0.6
 41
30.0
 62
     5
 63
     7
421
 16777215
 74
     0
 91
        4
 64
     7
 65
   257
 75
     1
175
     1
 42
1.0
 92
        8
 66
     7
 43
1.0
 76
     1
 77
     6
 78
     2
 67
     7
 79
     5
170
     0
171
     0
290
     0
174
     0
 93
       13
 44
0.0
173
     0
291
     1
 45
0.0
  0
VISUALSTYLE
  5
269
102
{ACAD_REACTORS
330
267
102
}
330
267
100
AcDbVisualStyle
  2
FlatWithEdges
 70
     1
 71
     2
 72
     1
 73
     1
 90
        2
 40
-0.6
 41
30.0
 62
     5
 63
     7
421
 16777215
 74
     1
 91
        4
 64
     7
 65
   257
 75
     1
175
     1
 42
1.0
 92
        0
 66
   257
 43
1.0
 76
     1
 77
     6
 78
     2
 67
     7
 79
     5
170
     0
171
     0
290
     0
174
     0
 93
       13
 44
0.0
173
     0
291
     1
 45
0.0
  0
VISUALSTYLE
  5
26A
102
{ACAD_REACTORS
330
267
102
}
330
267
100
AcDbVisualStyle
  2
Gouraud
 70
     2
 71
     2
 72
     2
 73
     1
 90
        2
 40
-0.6
 41
30.0
 62
     5
 63
     7
421
 16777215
 74
     0
 91
        4
 64
     7
 65
   257
 75
     1
175
     1
 42
1.0
 92
        0
 66
     7
 43
1.0
 76
     1
 77
     6
 78
     2
 67
     7
 79
     5
170
     0
171
     0
290
     0
174
     0
 93
       13
 44
0.0
173
     0
291
     1
 45
0.0
  0
VISUALSTYLE
  5
26B
102
{ACAD_REACTORS
330
267
102
}
330
267
100
AcDbVisualStyle
  2
GouraudWithEdges
 70
     3
 71
     2
 72
     2
 73
     1
 90
        2
 40
-0.6
 41
30.0
 62
     5
 63
     7
421
 16777215
 74
     1
 91
        4
 64
     7
 65
   257
 75
     1
175
     1
 42
1.0
 92
        0
 66
   257
 43
1.0
 76
     1
 77
     6
 78
     2
 67
     7
 79
     5
170
     0
171
     0
290
     0
174
     0
 93
       13
 44
0.0
173
     0
291
     1
 45
0.0
  0
VISUALSTYLE
  5
8B9
102
{ACAD_REACTORS
330
267
102
}
330
267
100
AcDbVisualStyle
  2
Hidden
 70
     6
 71
     1
 72
     2
 73
     2
 90
        0
 40
0.6
 41
30.0
 62
     5
 63
     7
421
 16777215
 74
     2
 91
        2
 64
     7
 65
   257
 75
     2
175
     1
 42
40.0
 92
        0
 66
   257
 43
1.0
 76
     1
 77
     6
 78
     2
 67
     7
 79
     3
170
     0
171
     0
290
     0
174
     0
 93
        1
 44
0.0
173
     0
291
     0
 45
0.0
  0
VISUALSTYLE
  5
8BA
102
{ACAD_REACTORS
330
267
102
}
330
267
100
AcDbVisualStyle
  2
JitterOff
 70
    20
 71
     2
 72
     2
 73
     0
 90
        0
 40
0.6
 41
30.0
 62
     5
 63
     7
421
 16777215
 74
     1
 91
        4
 64
     7
 65
   257
 75
     1
175
     1
 42
1.0
 92
       10
 66
     7
 43
1.0
 76
     1
 77
     6
 78
     2
 67
     7
 79
     5
170
     0
171
     0
290
     0
174
     0
 93
        1
 44
0.0
173
     0
291
     1
 45
0.0
  0
VISUALSTYLE
  5
275
102
{ACAD_REACTORS
330
267
102
}
330
267
100
AcDbVisualStyle
  2
Linepattern
 70
    14
 71
     2
 72
     2
 73
     0
 90
        0
 40
-0.6
 41
-30.0
 62
     5
 63
     7
421
 16777215
 74
     1
 91
        4
 64
     7
 65
   257
 75
     7
175
     7
 42
1.0
 92
        8
 66
     7
 43
1.0
 76
     1
 77
     6
 78
     2
 67
     7
 79
     5
170
     0
171
     0
290
     0
174
     0
 93
        1
 44
0.0
173
     0
291
     1
 45
0.0
  0
VISUALSTYLE
  5
8BB
102
{ACAD_REACTORS
330
267
102
}
330
267
100
AcDbVisualStyle
  2
OverhangOff
 70
    21
 71
     2
 72
     2
 73
     0
 90
        0
 40
0.6
 41
30.0
 62
     5
 63
     7
421
 16777215
 74
     1
 91
        4
 64
     7
 65
   257
 75
     1
175
     1
 42
1.0
 92
        9
 66
     7
 43
1.0
 76
     1
 77
     6
 78
     2
 67
     7
 79
     5
170
     0
171
     0
290
     0
174
     0
 93
        1
 44
0.0
173
     0
291
     1
 45
0.0
  0
VISUALSTYLE
  5
270
102
{ACAD_REACTORS
330
267
102
}
330
267
100
AcDbVisualStyle
  2
Realistic
 70
     8
 71
     2
 72
     2
 73
     0
 90
        0
 40
-0.6
 41
-30.0
 62
     5
 63
     7
421
 16777215
 74
     1
 91
        0
 64
     7
 65
   257
 75
     1
175
     1
 42
1.0
 92
        8
 66
     8
424
  7895160
 43
1.0
 76
     1
 77
     6
 78
     2
 67
     7
 79
     5
170
     0
171
     0
290
     0
174
     0
 93
       13
 44
0.0
173
     0
291
     0
 45
0.0
  0
VISUALSTYLE
  5
8C1
102
{ACAD_REACTORS
330
267
102
}
330
267
100
AcDbVisualStyle
  2
Shaded
 70
    27
 71
     2
 72
     2
 73
     1
 90
        2
 40
0.6
 41
30.0
 62
     5
 63
     7
421
 16777215
 74
     0
 91
        4
 64
     7
 65
   257
 75
     1
175
     1
 42
1.0
 92
        8
 66
   257
 43
1.0
 76
     1
 77
     6
 78
     2
 67
     8
425
  7895160
 79
     3
170
     0
171
     0
290
     0
174
     0
 93
        5
 44
0.0
173
     0
291
     0
 45
0.0
  0
VISUALSTYLE
  5
8C0
102
{ACAD_REACTORS
330
267
102
}
330
267
100
AcDbVisualStyle
  2
Shaded with edges
 70
    26
 71
     2
 72
     2
 73
     1
 90
        2
 40
0.6
 41
30.0
 62
     5
 63
     7
421
 16777215
 74
     1
 91
       10
 64
     7
 65
   257
 75
     2
175
     1
 42
1.0
 92
        8
 66
   257
 43
1.0
 76
     1
 77
     6
 78
     2
 67
     7
 79
     3
170
     0
171
     0
290
     0
174
     0
 93
        5
 44
0.0
173
     0
291
     0
 45
0.0
  0
VISUALSTYLE
  5
8BD
102
{ACAD_REACTORS
330
267
102
}
330
267
100
AcDbVisualStyle
  2
Shades of Gray
 70
    23
 71
     2
 72
     2
 73
     3
 90
        0
 40
0.6
 41
30.0
 62
     5
 63
     7
421
 16777215
 74
     2
 91
        2
 64
     7
 65
     7
 75
     1
175
     1
 42
40.0
 92
        8
 66
     7
 43
1.0
 76
     1
 77
     6
 78
     2
 67
     7
 79
     3
170
     0
171
     0
290
     0
174
     0
 93
        1
 44
0.0
173
     0
291
     0
 45
0.0
  0
VISUALSTYLE
  5
8BE
102
{ACAD_REACTORS
330
267
102
}
330
267
100
AcDbVisualStyle
  2
Sketchy
 70
    24
 71
     1
 72
     2
 73
     2
 90
        0
 40
0.6
 41
30.0
 62
     5
 63
     7
421
 16777215
 74
     2
 91
        2
 64
     7
 65
     7
 75
     1
175
     1
 42
40.0
 92
       11
 66
     7
 43
1.0
 76
     1
 77
     6
 78
     2
 67
     7
 79
     6
170
     0
171
     0
290
     0
174
     0
 93
        1
 44
0.0
173
     0
291
     0
 45
0.0
  0
VISUALSTYLE
  5
274
102
{ACAD_REACTORS
330
267
102
}
330
267
100
AcDbVisualStyle
  2
Thicken
 70
    13
 71
     2
 72
     2
 73
     0
 90
        0
 40
-0.6
 41
-30.0
 62
     5
 63
     7
421
 16777215
 74
     1
 91
        4
 64
     7
 65
   257
 75
     1
175
     1
 42
1.0
 92
       12
 66
     7
 43
1.0
 76
     1
 77
     6
 78
     2
 67
     7
 79
     5
170
     0
171
     0
290
     0
174
     0
 93
        1
 44
0.0
173
     0
291
     1
 45
0.0
  0
VISUALSTYLE
  5
8B8
102
{ACAD_REACTORS
330
267
102
}
330
267
100
AcDbVisualStyle
  2
Wireframe
 70
     5
 71
     0
 72
     2
 73
     0
 90
        0
 40
0.6
 41
30.0
 62
     5
 63
     7
421
 16777215
 74
     1
 91
        4
 64
     7
 65
   257
 75
     1
175
     1
 42
1.0
 92
        0
 66
   257
 43
1.0
 76
     1
 77
     6
 78
     2
 67
     7
 79
     3
170
     0
171
     0
290
     0
174
     0
 93
        1
 44
0.0
173
     0
291
     0
 45
0.0
  0
VISUALSTYLE
  5
8BF
102
{ACAD_REACTORS
330
267
102
}
330
267
100
AcDbVisualStyle
  2
X-Ray
 70
    25
 71
     2
 72
     2
 73
     1
 90
        1
 40
0.5
 41
30.0
 62
     5
 63
     7
421
 16777215
 74
     1
 91
        0
 64
     7
 65
   257
 75
     1
175
     1
 42
1.0
 92
        8
 66
     7
 43
1.0
 76
     1
 77
     6
 78
     2
 67
     7
 79
     3
170
     0
171
     0
290
     0
174
     0
 93
       13
 44
0.0
173
     0
291
     0
 45
0.0
  0
DICTIONARYVAR
  5
331
102
{ACAD_REACTORS
330
330
102
}
330
330
100
DictionaryVariables
280
     0
  1
1:1
  0
DICTIONARYVAR
  5
8DA
102
{ACAD_REACTORS
330
330
102
}
330
330
100
DictionaryVariables
280
     0
  1
Standard
  0
DICTIONARYVAR
  5
335
102
{ACAD_REACTORS
330
330
102
}
330
330
100
DictionaryVariables
280
     0
  1
Standard
  0
DICTIONARYVAR
  5
C07
102
{ACAD_REACTORS
330
330
102
}
330
330
100
DictionaryVariables
280
     0
  1
ByLayer
  0
DICTIONARYVAR
  5
64A
102
{ACAD_REACTORS
330
330
102
}
330
330
100
DictionaryVariables
280
     0
  1
0
  0
DICTIONARYVAR
  5
C0B
102
{ACAD_REACTORS
330
C08
102
}
330
C08
100
DictionaryVariables
280
     0
  1
0.261799
  0
DICTIONARYVAR
  5
C09
102
{ACAD_REACTORS
330
C08
102
}
330
C08
100
DictionaryVariables
280
     0
  1
0.400000
  0
DICTIONARYVAR
  5
C0A
102
{ACAD_REACTORS
330
C08
102
}
330
C08
100
DictionaryVariables
280
     0
  1
0.250000
  0
DICTIONARYVAR
  5
C0C
102
{ACAD_REACTORS
330
C08
102
}
330
C08
100
DictionaryVariables
280
     0
  1
1
  0
XRECORD
  5
870
102
{ACAD_REACTORS
330
2E2
102
}
330
2E2
100
AcDbXrecord
280
     1
 91
     1023
301

290
     0
302
MODEL
330
14
 90
        8
 62
     7
370
    -3
331
13
  1
Color_7
330
4A
 90
        0
 62
     7
370
     9
331
13
  1
Color_7
330
4B
 90
        8
 62
     7
370
    -3
331
13
  1
Color_7
330
0
 90
        8
 62
     7
370
    -3
331
13
  1
Color_7
330
4D
 90
        9
 62
     7
370
    -3
331
13
  1
Color_7
330
382
 90
        8
 62
     7
370
    -3
331
13
  1
Color_7
330
5C4
 90
        8
 62
     7
370
     9
331
0
  1
Color_7
330
5EB
 90
        8
 62
     7
370
     9
331
13
  1
Color_7
330
0
 90
        8
 62
     7
370
    -3
331
13
  1
Color_7
  0
FIELD
  5
BDE
102
{ACAD_REACTORS
330
BE4
102
}
330
BE4
100
AcDbField
  1
_text
  2
{%<\_FldIdx 0>%N}
 90
        1
360
BDF
 97
        0
 91
       63
 92
        0
 94
        8
 95
        2
 96
        0
300

 93
        1
  6
ACFD_FIELDTEXT_CHECKSUM
 93
        2
 90
        2
140
4523.0
 94
        0
300

302

304
ACVALUE_END
  7
ACFD_FIELD_VALUE
 93
        6
 90
        4
  1
{20161019N}
 94
        0
300

302

304
ACVALUE_END
301
{20161019N}
 98
       11
  0
DICTIONARY
  5
1F07
330
279
100
AcDbDictionary
280
     1
281
     1
  3
ACAD_ROUNDTRIP_2008_TABLESTYLE_CELLSTYLEMAP
360
1F08
  0
FIELD
  5
BDF
330
BDE
100
AcDbField
  1
AcVar
  2
\AcVar Date \f "yyyyMMdd"
 90
        0
 97
        0
 91
       63
 92
        0
 94
        8
 95
        2
 96
        0
300

 93
        1
  6
Variable
 93
        2
 90
        4
  1
Date
 94
        0
300

302

304
ACVALUE_END
  7
ACFD_FIELD_VALUE
 93
        6
 90
        8
 92
       16
310
E0070A00000013000400160004000000
 94
        0
300
yyyyMMdd
302

304
ACVALUE_END
301
20161019
 98
        8
  0
CELLSTYLEMAP
  5
1F08
102
{ACAD_REACTORS
330
1F07
102
}
330
1F07
100
AcDbCellStyleMap
 90
        3
300
CELLSTYLE
  1
TABLEFORMAT_BEGIN
 90
        5
170
     1
 91
        0
 92
    32768
 62
   257
 93
        1
300
CONTENTFORMAT
  1
CONTENTFORMAT_BEGIN
 90
        0
 91
        0
 92
        4
 93
        0
300

 40
0.0
140
1.0
 94
        5
 62
     0
340
17
144
6.0
309
CONTENTFORMAT_END
171
     1
301
MARGIN
  1
CELLMARGIN_BEGIN
 40
0.06
 40
0.06
 40
0.06
 40
0.06
 40
0.18
 40
0.18
309
CELLMARGIN_END
 94
        6
 95
        1
302
GRIDFORMAT
  1
GRIDFORMAT_BEGIN
 90
        0
 91
        1
 62
     0
 92
       -2
340
0
 93
        0
 40
0.045
309
GRIDFORMAT_END
 95
        2
302
GRIDFORMAT
  1
GRIDFORMAT_BEGIN
 90
        0
 91
        1
 62
     0
 92
       -2
340
0
 93
        0
 40
0.045
309
GRIDFORMAT_END
 95
        4
302
GRIDFORMAT
  1
GRIDFORMAT_BEGIN
 90
        0
 91
        1
 62
     0
 92
       -2
340
0
 93
        0
 40
0.045
309
GRIDFORMAT_END
 95
        8
302
GRIDFORMAT
  1
GRIDFORMAT_BEGIN
 90
        0
 91
        1
 62
     0
 92
       -2
340
0
 93
        0
 40
0.045
309
GRIDFORMAT_END
 95
       16
302
GRIDFORMAT
  1
GRIDFORMAT_BEGIN
 90
        0
 91
        1
 62
     0
 92
       -2
340
0
 93
        0
 40
0.045
309
GRIDFORMAT_END
 95
       32
302
GRIDFORMAT
  1
GRIDFORMAT_BEGIN
 90
        0
 91
        1
 62
     0
 92
       -2
340
0
 93
        0
 40
0.045
309
GRIDFORMAT_END
309
TABLEFORMAT_END
  1
CELLSTYLE_BEGIN
 90
        1
 91
        1
300
_TITLE
309
CELLSTYLE_END
300
CELLSTYLE
  1
TABLEFORMAT_BEGIN
 90
        5
170
     1
 91
        0
 92
        0
 62
   257
 93
        1
300
CONTENTFORMAT
  1
CONTENTFORMAT_BEGIN
 90
        0
 91
        0
 92
        4
 93
        0
300

 40
0.0
140
1.0
 94
        5
 62
     0
340
17
144
4.5
309
CONTENTFORMAT_END
171
     1
301
MARGIN
  1
CELLMARGIN_BEGIN
 40
0.06
 40
0.06
 40
0.06
 40
0.06
 40
0.18
 40
0.18
309
CELLMARGIN_END
 94
        6
 95
        1
302
GRIDFORMAT
  1
GRIDFORMAT_BEGIN
 90
        0
 91
        1
 62
     0
 92
       -2
340
0
 93
        0
 40
0.045
309
GRIDFORMAT_END
 95
        2
302
GRIDFORMAT
  1
GRIDFORMAT_BEGIN
 90
        0
 91
        1
 62
     0
 92
       -2
340
0
 93
        0
 40
0.045
309
GRIDFORMAT_END
 95
        4
302
GRIDFORMAT
  1
GRIDFORMAT_BEGIN
 90
        0
 91
        1
 62
     0
 92
       -2
340
0
 93
        0
 40
0.045
309
GRIDFORMAT_END
 95
        8
302
GRIDFORMAT
  1
GRIDFORMAT_BEGIN
 90
        0
 91
        1
 62
     0
 92
       -2
340
0
 93
        0
 40
0.045
309
GRIDFORMAT_END
 95
       16
302
GRIDFORMAT
  1
GRIDFORMAT_BEGIN
 90
        0
 91
        1
 62
     0
 92
       -2
340
0
 93
        0
 40
0.045
309
GRIDFORMAT_END
 95
       32
302
GRIDFORMAT
  1
GRIDFORMAT_BEGIN
 90
        0
 91
        1
 62
     0
 92
       -2
340
0
 93
        0
 40
0.045
309
GRIDFORMAT_END
309
TABLEFORMAT_END
  1
CELLSTYLE_BEGIN
 90
        2
 91
        1
300
_HEADER
309
CELLSTYLE_END
300
CELLSTYLE
  1
TABLEFORMAT_BEGIN
 90
        5
170
     1
 91
        0
 92
        0
 62
   257
 93
        1
300
CONTENTFORMAT
  1
CONTENTFORMAT_BEGIN
 90
        0
 91
        0
 92
        4
 93
        0
300

 40
0.0
140
1.0
 94
        2
 62
     0
340
17
144
4.5
309
CONTENTFORMAT_END
171
     1
301
MARGIN
  1
CELLMARGIN_BEGIN
 40
0.06
 40
0.06
 40
0.06
 40
0.06
 40
0.18
 40
0.18
309
CELLMARGIN_END
 94
        6
 95
        1
302
GRIDFORMAT
  1
GRIDFORMAT_BEGIN
 90
        0
 91
        1
 62
     0
 92
       -2
340
0
 93
        0
 40
0.045
309
GRIDFORMAT_END
 95
        2
302
GRIDFORMAT
  1
GRIDFORMAT_BEGIN
 90
        0
 91
        1
 62
     0
 92
       -2
340
0
 93
        0
 40
0.045
309
GRIDFORMAT_END
 95
        4
302
GRIDFORMAT
  1
GRIDFORMAT_BEGIN
 90
        0
 91
        1
 62
     0
 92
       -2
340
0
 93
        0
 40
0.045
309
GRIDFORMAT_END
 95
        8
302
GRIDFORMAT
  1
GRIDFORMAT_BEGIN
 90
        0
 91
        1
 62
     0
 92
       -2
340
0
 93
        0
 40
0.045
309
GRIDFORMAT_END
 95
       16
302
GRIDFORMAT
  1
GRIDFORMAT_BEGIN
 90
        0
 91
        1
 62
     0
 92
       -2
340
0
 93
        0
 40
0.045
309
GRIDFORMAT_END
 95
       32
302
GRIDFORMAT
  1
GRIDFORMAT_BEGIN
 90
        0
 91
        1
 62
     0
 92
       -2
340
0
 93
        0
 40
0.045
309
GRIDFORMAT_END
309
TABLEFORMAT_END
  1
CELLSTYLE_BEGIN
 90
        3
 91
        2
300
_DATA
309
CELLSTYLE_END
  0
ENDSEC
  0
EOF
