  0
SECTION
  2
HEADER
  9
$ACADVER
  1
AC1021
  9
$ACADMAINTVER
 70
    25
  9
$DWGCODEPAGE
  3
ANSI_932
  9
$LASTSAVEDBY
  1
howeNelson
  9
$INSBASE
 10
0.0
 20
0.0
 30
0.0
  9
$EXTMIN
 10
0.0
 20
0.0
 30
-0.0000000000000142
  9
$EXTMAX
 10
2100.0
 20
2970.0
 30
0.0000000000000071
  9
$LIMMIN
 10
0.0
 20
0.0
  9
$LIMMAX
 10
2100.0
 20
2970.0
  9
$ORTHOMODE
 70
     0
  9
$REGENMODE
 70
     1
  9
$FILLMODE
 70
     1
  9
$QTEXTMODE
 70
     0
  9
$MIRRTEXT
 70
     1
  9
$LTSCALE
 40
5.0
  9
$ATTMODE
 70
     1
  9
$TEXTSIZE
 40
2.5
  9
$TRACEWID
 40
1.0
  9
$TEXTSTYLE
  7
ＭＳ ゴシック
  9
$CLAYER
  8
DIM
  9
$CELTYPE
  6
ByLayer
  9
$CECOLOR
 62
   256
  9
$CELTSCALE
 40
1.0
  9
$DISPSILH
 70
     0
  9
$DIMSCALE
 40
1.0
  9
$DIMASZ
 40
10.0
  9
$DIMEXO
 40
30.0
  9
$DIMDLI
 40
0.9999999999999999
  9
$DIMRND
 40
0.0
  9
$DIMDLE
 40
0.0
  9
$DIMEXE
 40
0.0
  9
$DIMTP
 40
0.0
  9
$DIMTM
 40
0.0
  9
$DIMTXT
 40
24.0
  9
$DIMCEN
 40
0.0
  9
$DIMTSZ
 40
0.0
  9
$DIMTOL
 70
     0
  9
$DIMLIM
 70
     0
  9
$DIMTIH
 70
     0
  9
$DIMTOH
 70
     0
  9
$DIMSE1
 70
     0
  9
$DIMSE2
 70
     0
  9
$DIMTAD
 70
     1
  9
$DIMZIN
 70
    11
  9
$DIMBLK
  1
DOT
  9
$DIMASO
 70
     1
  9
$DIMSHO
 70
     1
  9
$DIMPOST
  1
<>
  9
$DIMAPOST
  1
[]
  9
$DIMALT
 70
     0
  9
$DIMALTD
 70
     1
  9
$DIMALTF
 40
1.0
  9
$DIMLFAC
 40
1.0
  9
$DIMTOFL
 70
     0
  9
$DIMTVP
 40
0.0
  9
$DIMTIX
 70
     1
  9
$DIMSOXD
 70
     0
  9
$DIMSAH
 70
     0
  9
$DIMBLK1
  1

  9
$DIMBLK2
  1

  9
$DIMSTYLE
  2
tfrom線あり
  9
$DIMCLRD
 70
     0
  9
$DIMCLRE
 70
     0
  9
$DIMCLRT
 70
     0
  9
$DIMTFAC
 40
1.0
  9
$DIMGAP
 40
10.0
  9
$DIMJUST
 70
     0
  9
$DIMSD1
 70
     0
  9
$DIMSD2
 70
     0
  9
$DIMTOLJ
 70
     1
  9
$DIMTZIN
 70
    11
  9
$DIMALTZ
 70
    11
  9
$DIMALTTZ
 70
    11
  9
$DIMUPT
 70
     0
  9
$DIMDEC
 70
     0
  9
$DIMTDEC
 70
     1
  9
$DIMALTU
 70
     2
  9
$DIMALTTD
 70
     2
  9
$DIMTXSTY
  7
ＭＳ ゴシック
  9
$DIMAUNIT
 70
     0
  9
$DIMADEC
 70
     2
  9
$DIMALTRND
 40
0.0
  9
$DIMAZIN
 70
     0
  9
$DIMDSEP
 70
    46
  9
$DIMATFIT
 70
     0
  9
$DIMFRAC
 70
     2
  9
$DIMLDRBLK
  1
DOT
  9
$DIMLUNIT
 70
     2
  9
$DIMLWD
 70
    -2
  9
$DIMLWE
 70
    -2
  9
$DIMTMOVE
 70
     0
  9
$DIMFXL
 40
1.0
  9
$DIMFXLON
 70
     0
  9
$DIMJOGANG
 40
0.7853981633974483
  9
$DIMTFILL
 70
     0
  9
$DIMTFILLCLR
 70
     0
  9
$DIMARCSYM
 70
     0
  9
$DIMLTYPE
  6

  9
$DIMLTEX1
  6

  9
$DIMLTEX2
  6

  9
$LUNITS
 70
     2
  9
$LUPREC
 70
     0
  9
$SKETCHINC
 40
0.1
  9
$FILLETRAD
 40
5.0
  9
$AUNITS
 70
     0
  9
$AUPREC
 70
     0
  9
$MENU
  1
acad
  9
$ELEVATION
 40
0.0
  9
$PELEVATION
 40
0.0
  9
$THICKNESS
 40
0.0
  9
$LIMCHECK
 70
     0
  9
$CHAMFERA
 40
0.0
  9
$CHAMFERB
 40
0.0
  9
$CHAMFERC
 40
0.0
  9
$CHAMFERD
 40
0.0
  9
$SKPOLY
 70
     0
  9
$TDCREATE
 40
2447893.375
  9
$TDUCREATE
 40
0.0
  9
$TDUPDATE
 40
2458816.405003241
  9
$TDUUPDATE
 40
2458816.030003241
  9
$TDINDWG
 40
0.3595177199
  9
$TDUSRTIMER
 40
0.0008721759
  9
$USRTIMER
 70
     1
  9
$ANGBASE
 50
0.0
  9
$ANGDIR
 70
     0
  9
$PDMODE
 70
     1
  9
$PDSIZE
 40
-2.0
  9
$PLINEWID
 40
0.0
  9
$SPLFRAME
 70
     0
  9
$SPLINETYPE
 70
     6
  9
$SPLINESEGS
 70
     8
  9
$HANDSEED
  5
47FE
  9
$SURFTAB1
 70
     6
  9
$SURFTAB2
 70
     6
  9
$SURFTYPE
 70
     6
  9
$SURFU
 70
     6
  9
$SURFV
 70
     6
  9
$UCSBASE
  2

  9
$UCSNAME
  2

  9
$UCSORG
 10
0.0
 20
0.0
 30
0.0
  9
$UCSXDIR
 10
1.0
 20
0.0
 30
0.0
  9
$UCSYDIR
 10
0.0
 20
1.0
 30
0.0
  9
$UCSORTHOREF
  2

  9
$UCSORTHOVIEW
 70
     1
  9
$UCSORGTOP
 10
0.0
 20
0.0
 30
0.0
  9
$UCSORGBOTTOM
 10
0.0
 20
0.0
 30
0.0
  9
$UCSORGLEFT
 10
0.0
 20
0.0
 30
0.0
  9
$UCSORGRIGHT
 10
0.0
 20
0.0
 30
0.0
  9
$UCSORGFRONT
 10
0.0
 20
0.0
 30
0.0
  9
$UCSORGBACK
 10
0.0
 20
0.0
 30
0.0
  9
$PUCSBASE
  2

  9
$PUCSNAME
  2

  9
$PUCSORG
 10
0.0
 20
0.0
 30
0.0
  9
$PUCSXDIR
 10
1.0
 20
0.0
 30
0.0
  9
$PUCSYDIR
 10
0.0
 20
1.0
 30
0.0
  9
$PUCSORTHOREF
  2

  9
$PUCSORTHOVIEW
 70
     0
  9
$PUCSORGTOP
 10
0.0
 20
0.0
 30
0.0
  9
$PUCSORGBOTTOM
 10
0.0
 20
0.0
 30
0.0
  9
$PUCSORGLEFT
 10
0.0
 20
0.0
 30
0.0
  9
$PUCSORGRIGHT
 10
0.0
 20
0.0
 30
0.0
  9
$PUCSORGFRONT
 10
0.0
 20
0.0
 30
0.0
  9
$PUCSORGBACK
 10
0.0
 20
0.0
 30
0.0
  9
$USERI1
 70
     0
  9
$USERI2
 70
     0
  9
$USERI3
 70
     0
  9
$USERI4
 70
     0
  9
$USERI5
 70
     0
  9
$USERR1
 40
0.0
  9
$USERR2
 40
0.0
  9
$USERR3
 40
0.0
  9
$USERR4
 40
0.0
  9
$USERR5
 40
0.0
  9
$WORLDVIEW
 70
     1
  9
$SHADEDGE
 70
     3
  9
$SHADEDIF
 70
    70
  9
$TILEMODE
 70
     1
  9
$MAXACTVP
 70
    64
  9
$PINSBASE
 10
0.0
 20
0.0
 30
0.0
  9
$PLIMCHECK
 70
     0
  9
$PEXTMIN
 10
0.0
 20
0.0
 30
0.0
  9
$PEXTMAX
 10
0.0
 20
0.0
 30
0.0
  9
$PLIMMIN
 10
-7.5
 20
-20.0
  9
$PLIMMAX
 10
412.5
 20
277.0
  9
$UNITMODE
 70
     0
  9
$VISRETAIN
 70
     0
  9
$PLINEGEN
 70
     1
  9
$PSLTSCALE
 70
     0
  9
$TREEDEPTH
 70
  3020
  9
$CMLSTYLE
  2
Standard
  9
$CMLJUST
 70
     0
  9
$CMLSCALE
 40
1.0
  9
$PROXYGRAPHICS
 70
     0
  9
$MEASUREMENT
 70
     1
  9
$CELWEIGHT
370
    -1
  9
$ENDCAPS
280
     0
  9
$JOINSTYLE
280
     0
  9
$LWDISPLAY
290
     1
  9
$INSUNITS
 70
     4
  9
$HYPERLINKBASE
  1

  9
$STYLESHEET
  1

  9
$XEDIT
290
     1
  9
$CEPSNTYPE
380
     0
  9
$PSTYLEMODE
290
     1
  9
$FINGERPRINTGUID
  2

  9
$VERSIONGUID
  2

  9
$EXTNAMES
290
     1
  9
$PSVPSCALE
 40
0.0
  9
$OLESTARTUP
290
     0
  9
$SORTENTS
280
   127
  9
$INDEXCTL
280
     0
  9
$HIDETEXT
280
     1
  9
$XCLIPFRAME
290
     0
  9
$HALOGAP
280
     0
  9
$OBSCOLOR
 70
   257
  9
$OBSLTYPE
280
     0
  9
$INTERSECTIONDISPLAY
280
     0
  9
$INTERSECTIONCOLOR
 70
   257
  9
$DIMASSOC
280
     2
  9
$PROJECTNAME
  1

  9
$CAMERADISPLAY
290
     0
  9
$LENSLENGTH
 40
50.0
  9
$CAMERAHEIGHT
 40
0.0
  9
$STEPSPERSEC
 40
2.0
  9
$STEPSIZE
 40
6.0
  9
$3DDWFPREC
 40
2.0
  9
$PSOLWIDTH
 40
0.25
  9
$PSOLHEIGHT
 40
4.0
  9
$LOFTANG1
 40
1.570796326794897
  9
$LOFTANG2
 40
1.570796326794897
  9
$LOFTMAG1
 40
0.0
  9
$LOFTMAG2
 40
0.0
  9
$LOFTPARAM
 70
     7
  9
$LOFTNORMALS
280
     1
  9
$LATITUDE
 40
37.795
  9
$LONGITUDE
 40
-122.394
  9
$NORTHDIRECTION
 40
0.0
  9
$TIMEZONE
 70
 -8000
  9
$LIGHTGLYPHDISPLAY
280
     1
  9
$TILEMODELIGHTSYNCH
280
     1
  9
$SOLIDHIST
280
     1
  9
$SHOWHIST
280
     1
  9
$DWFFRAME
280
     2
  9
$DGNFRAME
280
     2
  9
$REALWORLDSCALE
290
     1
  9
$INTERFERECOLOR
 62
   256
  9
$CSHADOW
280
     0
  9
$SHADOWPLANELOCATION
 40
0.0
  0
ENDSEC
  0
SECTION
  2
CLASSES
  0
CLASS
  1
LWPOLYLINE
  2
AcDbPolyline
  3
ObjectDBX Classes
 90
        0
 91
        1
280
     0
281
     1
  0
CLASS
  1
IMAGE
  2
AcDbRasterImage
  3
ISM
 90
      127
 91
        5
280
     0
281
     1
  0
CLASS
  1
OLE2FRAME
  2
AcDbOle2Frame
  3
ObjectDBX Classes
 90
        0
 91
        1
280
     0
281
     1
  0
CLASS
  1
HATCH
  2
AcDbHatch
  3
ObjectDBX Classes
 90
        0
 91
        1
280
     0
281
     1
  0
CLASS
  1
DICTIONARYVAR
  2
AcDbDictionaryVar
  3
ObjectDBX Classes
 90
        0
 91
        4
280
     0
281
     0
  0
CLASS
  1
RASTERVARIABLES
  2
AcDbRasterVariables
  3
ISM
 90
        0
 91
        4
280
     0
281
     0
  0
CLASS
  1
IMAGEDEF
  2
AcDbRasterImageDef
  3
ISM
 90
        0
 91
        4
280
     0
281
     0
  0
CLASS
  1
IMAGEDEF_REACTOR
  2
AcDbRasterImageDefReactor
  3
ISM
 90
        1
 91
        4
280
     0
281
     0
  0
CLASS
  1
IDBUFFER
  2
AcDbIdBuffer
  3
ObjectDBX Classes
 90
        0
 91
        4
280
     0
281
     0
  0
CLASS
  1
SPATIAL_FILTER
  2
AcDbSpatialFilter
  3
ObjectDBX Classes
 90
        0
 91
        4
280
     0
281
     0
  0
CLASS
  1
XRECORD
  2
AcDbXrecord
  3
ObjectDBX Classes
 90
        0
 91
        1
280
     0
281
     0
  0
CLASS
  1
SORTENTSTABLE
  2
AcDbSortentsTable
  3
ObjectDBX Classes
 90
        0
 91
        4
280
     0
281
     0
  0
CLASS
  1
LAYER_INDEX
  2
AcDbLayerIndex
  3
ObjectDBX Classes
 90
        0
 91
        4
280
     0
281
     0
  0
CLASS
  1
SPATIAL_INDEX
  2
AcDbSpatialIndex
  3
AutoCAD 2000
 90
        0
 91
        4
280
     0
281
     0
  0
CLASS
  1
OBJECT_PTR
  2
CAseDLPNTableRecord
  3
ASE-LPNTableRecord
 90
        1
 91
        4
280
     0
281
     0
  0
CLASS
  1
LAYOUT
  2
AcDbLayout
  3
ObjectDBX Classes
 90
        0
 91
        1
280
     0
281
     0
  0
CLASS
  1
PLOTSETTINGS
  2
AcDbPlotSettings
  3
ObjectDBX Classes
 90
        0
 91
        4
280
     0
281
     0
  0
CLASS
  1
ACDBDICTIONARYWDFLT
  2
AcDbDictionaryWithDefault
  3
ObjectDBX Classes
 90
        0
 91
        4
280
     0
281
     0
  0
CLASS
  1
ACDBPLACEHOLDER
  2
AcDbPlaceHolder
  3
ObjectDBX Classes
 90
        0
 91
        1
280
     0
281
     0
  0
CLASS
  1
SCALE
  2
AcDbScale
  3
ObjectDBX Classes
 90
     1153
 91
        4
280
     0
281
     0
  0
CLASS
  1
MATERIAL
  2
AcDbMaterial
  3
ObjectDBX Classes
 90
     1153
 91
        4
280
     0
281
     0
  0
CLASS
  1
VISUALSTYLE
  2
AcDbVisualStyle
  3
ObjectDBX Classes
 90
     4095
 91
        4
280
     0
281
     0
  0
CLASS
  1
TABLESTYLE
  2
AcDbTableStyle
  3
ObjectDBX Classes
 90
     4095
 91
        4
280
     0
281
     0
  0
CLASS
  1
DIMASSOC
  2
AcDbDimAssoc
  3
"AcDbDimAssoc|Product Desc:     AcDim ARX App For Dimension|Company:          Autodesk, Inc.|WEB Address:      www.autodesk.com"
 90
        0
 91
        4
280
     0
281
     0
  0
CLASS
  1
CELLSTYLEMAP
  2
AcDbCellStyleMap
  3
ObjectDBX Classes
 90
     1152
 91
        4
280
     0
281
     0
  0
CLASS
  1
SUN
  2
AcDbSun
  3
SCENEOE
 90
     1153
 91
        4
280
     0
281
     0
  0
CLASS
  1
MLEADERSTYLE
  2
AcDbMLeaderStyle
  3
ACDB_MLEADERSTYLE_CLASS
 90
     4095
 91
        4
280
     0
281
     0
  0
CLASS
  1
FIELD
  2
AcDbField
  3
ObjectDBX Classes
 90
     1152
 91
        4
280
     0
281
     0
  0
CLASS
  1
FIELDLIST
  2
AcDbFieldList
  3
ObjectDBX Classes
 90
     1152
 91
        4
280
     0
281
     0
  0
CLASS
  1
MULTILEADER
  2
AcDbMLeader
  3
ACDB_MLEADER_CLASS
 90
     1025
 91
        4
280
     0
281
     1
  0
ENDSEC
  0
SECTION
  2
TABLES
  0
TABLE
  2
VPORT
  5
7
330
0
100
AcDbSymbolTable
 70
     1
  0
VPORT
  5
15
330
7
100
AcDbSymbolTableRecord
100
AcDbViewportTableRecord
  2
*ACTIVE
 70
     0
 10
0.0
 20
0.0
 11
1.0
 21
1.0
 12
855.0246741298777
 22
1619.646242172068
 13
0.0
 23
0.0
 14
1.0
 24
1.0
 15
0.0
 25
0.0
 16
0.0
 26
0.0
 36
1.0
 17
194.9753258701223
 27
-134.646242172068
 37
-626.0614769007404
 40
3029.4
 41
2.310294117647059
 42
50.0
 43
0.0
 44
0.0
 50
0.0
 51
0.0
 71
    16
 72
  2000
 73
     1
 74
     1
 75
     0
 76
     0
 77
     0
 78
     0
281
     0
 65
     1
110
0.0
120
0.0
130
0.0
111
1.0
121
0.0
131
0.0
112
0.0
122
1.0
132
0.0
 79
     1
146
0.0
348
26C
 60
     3
 61
     5
292
     1
282
     1
141
0.0
142
0.0
 63
   256
361
904
  0
ENDTAB
  0
TABLE
  2
LTYPE
  5
4
330
0
100
AcDbSymbolTable
 70
     3
  0
LTYPE
  5
11
330
4
100
AcDbSymbolTableRecord
100
AcDbLinetypeTableRecord
  2
ByBlock
 70
     0
  3

 72
    65
 73
     0
 40
0.0
  0
LTYPE
  5
12
330
4
100
AcDbSymbolTableRecord
100
AcDbLinetypeTableRecord
  2
ByLayer
 70
     0
  3

 72
    65
 73
     0
 40
0.0
  0
LTYPE
  5
13
330
4
100
AcDbSymbolTableRecord
100
AcDbLinetypeTableRecord
  2
Continuous
 70
     0
  3
Solid line
 72
    65
 73
     0
 40
0.0
  0
LTYPE
  5
DAF
330
4
100
AcDbSymbolTableRecord
100
AcDbLinetypeTableRecord
  2
BORDER
 70
     0
  3
Border __  __  . __  __  . __  __  . __  __  . 
 72
    65
 73
     6
 40
44.45
 49
12.7
 74
     0
 49
-6.35
 74
     0
 49
12.7
 74
     0
 49
-6.35
 74
     0
 49
0.0
 74
     0
 49
-6.35
 74
     0
  0
LTYPE
  5
33DD
330
4
100
AcDbSymbolTableRecord
100
AcDbLinetypeTableRecord
  2
HIDDEN
 70
     0
  3
Hidden _ _ _ _ _ _ _ _ _ _ _ _ _ _ _ _ _ _ _ _ 
 72
    65
 73
     2
 40
9.524999999999999
 49
6.35
 74
     0
 49
-3.175
 74
     0
  0
ENDTAB
  0
TABLE
  2
LAYER
  5
2
102
{ACAD_XDICTIONARY
360
2E1
102
}
330
0
100
AcDbSymbolTable
 70
    10
  0
LAYER
  5
14
330
2
100
AcDbSymbolTableRecord
100
AcDbLayerTableRecord
  2
0
 70
     0
 62
     7
  6
Continuous
370
    -3
390
1D
347
266
  0
LAYER
  5
4B
330
2
100
AcDbSymbolTableRecord
100
AcDbLayerTableRecord
  2
TEMPLATE
 70
     0
 62
     7
  6
Continuous
370
    20
390
1D
347
266
  0
LAYER
  5
4C
330
2
100
AcDbSymbolTableRecord
100
AcDbLayerTableRecord
  2
DIM
 70
     0
 62
     3
  6
Continuous
370
    13
390
1D
347
266
  0
LAYER
  5
4D
330
2
100
AcDbSymbolTableRecord
100
AcDbLayerTableRecord
  2
MODEL
 70
     0
 62
     7
  6
Continuous
370
    20
390
1D
347
266
  0
LAYER
  5
D5D
330
2
100
AcDbSymbolTableRecord
100
AcDbLayerTableRecord
  2
Defpoints
 70
     0
 62
     7
  6
Continuous
290
     0
370
    -3
390
1D
347
266
  0
LAYER
  5
DAE
330
2
100
AcDbSymbolTableRecord
100
AcDbLayerTableRecord
  2
BORDER
 70
     0
 62
     4
  6
BORDER
290
     0
370
    20
390
1D
347
266
1001
AcAecLayerStandard
1000

1000

  0
LAYER
  5
157B
330
2
100
AcDbSymbolTableRecord
100
AcDbLayerTableRecord
  2
Layer3
 70
     0
 62
     7
  6
Continuous
370
    20
390
1D
347
266
  0
LAYER
  5
157F
330
2
100
AcDbSymbolTableRecord
100
AcDbLayerTableRecord
  2
Layer9
 70
     0
 62
     7
  6
Continuous
370
    20
390
1D
347
266
  0
LAYER
  5
1582
330
2
100
AcDbSymbolTableRecord
100
AcDbLayerTableRecord
  2
Standard
 70
     0
 62
     7
  6
Continuous
370
    20
390
1D
347
266
  0
LAYER
  5
33DC
330
2
100
AcDbSymbolTableRecord
100
AcDbLayerTableRecord
  2
HIDDEN
 70
     0
 62
     8
  6
HIDDEN
370
    20
390
1D
347
266
1001
AcAecLayerStandard
1000

1000

  0
ENDTAB
  0
TABLE
  2
STYLE
  5
3
330
0
100
AcDbSymbolTable
 70
     2
  0
STYLE
  5
17
330
3
100
AcDbSymbolTableRecord
100
AcDbTextStyleTableRecord
  2
Standard
 70
     0
 40
0.0
 41
1.0
 50
0.0
 71
     0
 42
2.5
  3
txt
  4
BIGFONT.SHX
  0
STYLE
  5
39
330
3
100
AcDbSymbolTableRecord
100
AcDbTextStyleTableRecord
  2
ＭＳ ゴシック
 70
     0
 40
0.0
 41
1.0
 50
0.0
 71
     0
 42
2.5
  3
msgothic.ttc
  4
ＭＳ ゴシック
1001
ACAD
1000
ＭＳ ゴシック
1071
        0
  0
ENDTAB
  0
TABLE
  2
VIEW
  5
5
330
0
100
AcDbSymbolTable
 70
     0
  0
ENDTAB
  0
TABLE
  2
UCS
  5
6
330
0
100
AcDbSymbolTable
 70
     0
  0
ENDTAB
  0
TABLE
  2
APPID
  5
8
330
0
100
AcDbSymbolTable
 70
     3
  0
APPID
  5
16
330
8
100
AcDbSymbolTableRecord
100
AcDbRegAppTableRecord
  2
ACAD
 70
     0
  0
APPID
  5
7AC
330
8
100
AcDbSymbolTableRecord
100
AcDbRegAppTableRecord
  2
AcAecLayerStandard
 70
     0
  0
APPID
  5
F3A
330
8
100
AcDbSymbolTableRecord
100
AcDbRegAppTableRecord
  2
ACAD_MLEADERVER
 70
     0
  0
ENDTAB
  0
TABLE
  2
DIMSTYLE
  5
9
330
0
100
AcDbSymbolTable
 70
     2
100
AcDbDimStyleTable
  0
DIMSTYLE
105
18
330
9
100
AcDbSymbolTableRecord
100
AcDbDimStyleTableRecord
  2
Standard
 70
     0
178
     0
340
17
  0
DIMSTYLE
105
57
102
{ACAD_REACTORS
330
4255
330
4271
330
427E
330
428C
330
42C8
330
4303
330
455A
330
4647
330
465A
330
468C
330
469C
330
4710
330
4722
330
472F
330
473C
330
474C
330
475B
330
476A
330
4780
330
47D9
102
}
330
9
100
AcDbSymbolTableRecord
100
AcDbDimStyleTableRecord
  2
tfrom線あり
 70
     0
  3
<>
  4
[]
 41
10.0
 42
30.0
 43
0.9999999999999999
 44
0.0
 73
     0
 74
     0
 77
     1
 78
    11
140
24.0
141
0.0
143
1.0
147
10.0
171
     1
174
     1
178
     0
179
     2
271
     0
272
     1
276
     2
284
    11
285
    11
286
    11
289
     0
340
39
341
4E
342
4E
  0
ENDTAB
  0
TABLE
  2
BLOCK_RECORD
  5
1
330
0
100
AcDbSymbolTable
 70
    24
  0
BLOCK_RECORD
  5
A
102
{ACAD_XDICTIONARY
360
374D
102
}
330
1
100
AcDbSymbolTableRecord
100
AcDbBlockTableRecord
  2
*MODEL_SPACE
340
20
 70
     0
280
     1
281
     0
  0
BLOCK_RECORD
  5
B
330
1
100
AcDbSymbolTableRecord
100
AcDbBlockTableRecord
  2
*PAPER_SPACE
340
21
 70
     0
280
     1
281
     0
  0
BLOCK_RECORD
  5
4E
330
1
100
AcDbSymbolTableRecord
100
AcDbBlockTableRecord
  2
_DOT
340
0
102
{BLKREFS
331
425C
331
425D
331
4278
331
4279
331
4285
331
4286
331
4293
331
4294
331
42D1
331
42D2
331
430C
331
430D
331
4563
331
4564
331
464E
331
464F
331
4663
331
4664
331
4693
331
4694
331
46A3
331
46A4
331
4717
331
4718
331
4729
331
472A
331
4736
331
4737
331
4745
331
4746
331
4755
331
4756
331
4764
331
4765
331
4773
331
4774
331
4789
331
478A
331
47E3
331
47E2
102
}
 70
     0
280
     1
281
     0
  0
BLOCK_RECORD
  5
68D
330
1
100
AcDbSymbolTableRecord
100
AcDbBlockTableRecord
  2
block 2
340
0
102
{BLKREFS
331
68C
331
39A3
102
}
 70
     0
280
     1
281
     0
  0
BLOCK_RECORD
  5
199A
330
1
100
AcDbSymbolTableRecord
100
AcDbBlockTableRecord
  2
SEANNOT_GROUP
340
0
102
{BLKREFS
331
28CA
102
}
 70
     0
280
     1
281
     0
  0
BLOCK_RECORD
  5
1F2F
330
1
100
AcDbSymbolTableRecord
100
AcDbBlockTableRecord
  2
SEANNOT_GROUP1
340
0
102
{BLKREFS
331
2B9B
102
}
 70
     0
280
     1
281
     0
  0
BLOCK_RECORD
  5
4256
330
1
100
AcDbSymbolTableRecord
100
AcDbBlockTableRecord
  2
*D4
340
0
 70
     0
280
     1
281
     0
  0
BLOCK_RECORD
  5
4272
330
1
100
AcDbSymbolTableRecord
100
AcDbBlockTableRecord
  2
*D5
340
0
 70
     0
280
     1
281
     0
  0
BLOCK_RECORD
  5
427F
330
1
100
AcDbSymbolTableRecord
100
AcDbBlockTableRecord
  2
*D6
340
0
 70
     0
280
     1
281
     0
  0
BLOCK_RECORD
  5
428D
330
1
100
AcDbSymbolTableRecord
100
AcDbBlockTableRecord
  2
*D7
340
0
 70
     0
280
     1
281
     0
  0
BLOCK_RECORD
  5
42CB
330
1
100
AcDbSymbolTableRecord
100
AcDbBlockTableRecord
  2
*D8
340
0
 70
     0
280
     1
281
     0
  0
BLOCK_RECORD
  5
4306
330
1
100
AcDbSymbolTableRecord
100
AcDbBlockTableRecord
  2
*D9
340
0
 70
     0
280
     1
281
     0
  0
BLOCK_RECORD
  5
455D
330
1
100
AcDbSymbolTableRecord
100
AcDbBlockTableRecord
  2
*D10
340
0
 70
     0
280
     1
281
     0
  0
BLOCK_RECORD
  5
4648
330
1
100
AcDbSymbolTableRecord
100
AcDbBlockTableRecord
  2
*D11
340
0
 70
     0
280
     1
281
     0
  0
BLOCK_RECORD
  5
465D
330
1
100
AcDbSymbolTableRecord
100
AcDbBlockTableRecord
  2
*D12
340
0
 70
     0
280
     1
281
     0
  0
BLOCK_RECORD
  5
468D
330
1
100
AcDbSymbolTableRecord
100
AcDbBlockTableRecord
  2
*D13
340
0
 70
     0
280
     1
281
     0
  0
BLOCK_RECORD
  5
469D
330
1
100
AcDbSymbolTableRecord
100
AcDbBlockTableRecord
  2
*D14
340
0
 70
     0
280
     1
281
     0
  0
BLOCK_RECORD
  5
4711
330
1
100
AcDbSymbolTableRecord
100
AcDbBlockTableRecord
  2
*D15
340
0
 70
     0
280
     1
281
     0
  0
BLOCK_RECORD
  5
4723
330
1
100
AcDbSymbolTableRecord
100
AcDbBlockTableRecord
  2
*D16
340
0
 70
     0
280
     1
281
     0
  0
BLOCK_RECORD
  5
4730
330
1
100
AcDbSymbolTableRecord
100
AcDbBlockTableRecord
  2
*D17
340
0
 70
     0
280
     1
281
     0
  0
BLOCK_RECORD
  5
473F
330
1
100
AcDbSymbolTableRecord
100
AcDbBlockTableRecord
  2
*D18
340
0
 70
     0
280
     1
281
     0
  0
BLOCK_RECORD
  5
474F
330
1
100
AcDbSymbolTableRecord
100
AcDbBlockTableRecord
  2
*D19
340
0
 70
     0
280
     1
281
     0
  0
BLOCK_RECORD
  5
475E
330
1
100
AcDbSymbolTableRecord
100
AcDbBlockTableRecord
  2
*D20
340
0
 70
     0
280
     1
281
     0
  0
BLOCK_RECORD
  5
476D
330
1
100
AcDbSymbolTableRecord
100
AcDbBlockTableRecord
  2
*D21
340
0
 70
     0
280
     1
281
     0
  0
BLOCK_RECORD
  5
4783
330
1
100
AcDbSymbolTableRecord
100
AcDbBlockTableRecord
  2
*D22
340
0
 70
     0
280
     1
281
     0
  0
BLOCK_RECORD
  5
47DC
330
1
100
AcDbSymbolTableRecord
100
AcDbBlockTableRecord
  2
*D23
340
0
 70
     0
280
     1
281
     0
  0
ENDTAB
  0
ENDSEC
  0
SECTION
  2
BLOCKS
  0
BLOCK
  5
D
330
A
100
AcDbEntity
  8
0
390
1D
100
AcDbBlockBegin
  2
*MODEL_SPACE
 70
     0
 10
0.0
 20
0.0
 30
0.0
  3
*MODEL_SPACE
  1
*MODEL_SPACE
  0
ENDBLK
  5
E
330
A
100
AcDbEntity
  8
0
390
1D
100
AcDbBlockEnd
  0
BLOCK
  5
F
330
B
100
AcDbEntity
 67
     1
  8
0
390
1D
100
AcDbBlockBegin
  2
*PAPER_SPACE
 70
     0
 10
0.0
 20
0.0
 30
0.0
  3
*PAPER_SPACE
  1
*PAPER_SPACE
  0
ENDBLK
  5
10
330
B
100
AcDbEntity
 67
     1
  8
0
390
1D
100
AcDbBlockEnd
  0
BLOCK
  5
466C
330
4E
100
AcDbEntity
  8
0
390
1D
100
AcDbBlockBegin
  2
_DOT
 70
     0
 10
0.0
 20
0.0
 30
0.0
  3
_DOT
  1
_DOT
  0
POLYLINE
  5
466E
330
4E
100
AcDbEntity
  8
0
  6
ByBlock
 62
     0
370
    -2
390
1D
100
AcDb2dPolyline
 66
     1
 10
0.0
 20
0.0
 30
0.0
 70
     1
 40
0.5
 41
0.5
  0
VERTEX
  5
466F
330
466E
100
AcDbEntity
  8
0
  6
ByBlock
 62
     0
370
    -2
390
1D
100
AcDbVertex
100
AcDb2dVertex
 10
-0.25
 20
0.0
 30
0.0
 42
1.0
  0
VERTEX
  5
4670
330
466E
100
AcDbEntity
  8
0
  6
ByBlock
 62
     0
370
    -2
390
1D
100
AcDbVertex
100
AcDb2dVertex
 10
0.25
 20
0.0
 30
0.0
 42
1.0
  0
SEQEND
  5
4671
330
466E
100
AcDbEntity
  8
0
390
1D
  0
LINE
  5
4672
330
4E
100
AcDbEntity
  8
0
  6
ByBlock
 62
     0
370
    -2
390
1D
100
AcDbLine
 10
-0.5
 20
0.0
 30
0.0
 11
-1.0
 21
0.0
 31
0.0
  0
ENDBLK
  5
4673
330
4E
100
AcDbEntity
  8
0
390
1D
100
AcDbBlockEnd
  0
BLOCK
  5
68E
330
68D
100
AcDbEntity
  8
0
100
AcDbBlockBegin
  2
block 2
 70
     0
 10
0.0
 20
0.0
 30
0.0
  3
block 2
  1
block 2
  0
ENDBLK
  5
6B0
330
68D
100
AcDbEntity
  8
0
100
AcDbBlockEnd
  0
BLOCK
  5
199B
330
199A
100
AcDbEntity
  8
0
100
AcDbBlockBegin
  2
SEANNOT_GROUP
 70
     0
 10
0.0
 20
0.0
 30
0.0
  3
SEANNOT_GROUP
  1
SEANNOT_GROUP
  0
ENDBLK
  5
199C
330
199A
100
AcDbEntity
  8
0
100
AcDbBlockEnd
  0
BLOCK
  5
1F30
330
1F2F
100
AcDbEntity
  8
0
100
AcDbBlockBegin
  2
SEANNOT_GROUP1
 70
     0
 10
0.0
 20
0.0
 30
0.0
  3
SEANNOT_GROUP1
  1
SEANNOT_GROUP1
  0
ENDBLK
  5
1F31
330
1F2F
100
AcDbEntity
  8
0
100
AcDbBlockEnd
  0
BLOCK
  5
4257
330
4256
100
AcDbEntity
  8
0
100
AcDbBlockBegin
  2
*D4
 70
     1
 10
0.0
 20
0.0
 30
0.0
  3
*D4
  1

  0
LINE
  5
4259
330
4256
100
AcDbEntity
  8
DIM
 62
     0
370
    -2
100
AcDbLine
 10
374.1296465934015
 20
2337.65907108564
 30
0.0
 11
374.1296465934015
 21
2387.920492029644
 31
0.0
  0
LINE
  5
425A
330
4256
100
AcDbEntity
  8
DIM
 62
     0
370
    -2
100
AcDbLine
 10
854.129646593402
 20
2201.979049966104
 30
0.0
 11
854.129646593402
 21
2387.920492029644
 31
0.0
  0
LINE
  5
425B
330
4256
100
AcDbEntity
  8
DIM
 62
     0
370
    -2
100
AcDbLine
 10
384.1296465934015
 20
2387.920492029644
 30
0.0
 11
844.129646593402
 21
2387.920492029644
 31
0.0
  0
INSERT
  5
425C
330
4256
100
AcDbEntity
  8
DIM
 62
     0
370
    -2
100
AcDbBlockReference
  2
_DOT
 10
374.1296465934015
 20
2387.920492029644
 30
0.0
 41
10.0
 42
10.0
 43
10.0
 50
180.0
  0
INSERT
  5
425D
330
4256
100
AcDbEntity
  8
DIM
 62
     0
370
    -2
100
AcDbBlockReference
  2
_DOT
 10
854.129646593402
 20
2387.920492029644
 30
0.0
 41
10.0
 42
10.0
 43
10.0
  0
MTEXT
  5
425E
330
4256
100
AcDbEntity
  8
DIM
 62
     0
100
AcDbMText
 10
614.1296465934017
 20
2409.920492029644
 30
0.0
 40
24.0
 41
0.0
 46
0.0
 71
     5
 72
     1
  1
\A1;480
  7
ＭＳ ゴシック
 73
     1
 44
1.0
  0
POINT
  5
425F
330
4256
100
AcDbEntity
  8
Defpoints
 62
     0
100
AcDbPoint
 10
374.1296465934015
 20
2307.65907108564
 30
0.0
  0
POINT
  5
4260
330
4256
100
AcDbEntity
  8
Defpoints
 62
     0
100
AcDbPoint
 10
854.129646593402
 20
2171.979049966104
 30
0.0
  0
POINT
  5
4261
330
4256
100
AcDbEntity
  8
Defpoints
 62
     0
100
AcDbPoint
 10
854.129646593402
 20
2387.920492029644
 30
0.0
  0
ENDBLK
  5
4258
330
4256
100
AcDbEntity
  8
0
100
AcDbBlockEnd
  0
BLOCK
  5
4273
330
4272
100
AcDbEntity
  8
0
100
AcDbBlockBegin
  2
*D5
 70
     1
 10
0.0
 20
0.0
 30
0.0
  3
*D5
  1

  0
LINE
  5
4275
330
4272
100
AcDbEntity
  8
DIM
 62
     0
370
    -2
100
AcDbLine
 10
771.0704269238477
 20
2294.661385238021
 30
0.0
 11
1005.4718458944
 21
2294.661385238021
 31
0.0
  0
LINE
  5
4276
330
4272
100
AcDbEntity
  8
DIM
 62
     0
370
    -2
100
AcDbLine
 10
771.0704269238477
 20
1969.661385238021
 30
0.0
 11
1005.4718458944
 21
1969.661385238021
 31
0.0
  0
LINE
  5
4277
330
4272
100
AcDbEntity
  8
DIM
 62
     0
370
    -2
100
AcDbLine
 10
1005.4718458944
 20
2284.661385238021
 30
0.0
 11
1005.4718458944
 21
1979.661385238021
 31
0.0
  0
INSERT
  5
4278
330
4272
100
AcDbEntity
  8
DIM
 62
     0
370
    -2
100
AcDbBlockReference
  2
_DOT
 10
1005.4718458944
 20
2294.661385238021
 30
0.0
 41
10.0
 42
10.0
 43
10.0
 50
90.0
  0
INSERT
  5
4279
330
4272
100
AcDbEntity
  8
DIM
 62
     0
370
    -2
100
AcDbBlockReference
  2
_DOT
 10
1005.4718458944
 20
1969.661385238021
 30
0.0
 41
10.0
 42
10.0
 43
10.0
 50
270.0
  0
MTEXT
  5
427A
330
4272
100
AcDbEntity
  8
DIM
 62
     0
100
AcDbMText
 10
983.4718458944
 20
2132.161385238021
 30
0.0
 40
24.0
 41
0.0
 46
0.0
 71
     5
 72
     1
  1
\A1;325
  7
ＭＳ ゴシック
 11
0.0
 21
1.0
 31
0.0
 73
     1
 44
1.0
  0
POINT
  5
427B
330
4272
100
AcDbEntity
  8
Defpoints
 62
     0
100
AcDbPoint
 10
741.0704269238477
 20
2294.661385238021
 30
0.0
  0
POINT
  5
427C
330
4272
100
AcDbEntity
  8
Defpoints
 62
     0
100
AcDbPoint
 10
741.0704269238477
 20
1969.661385238021
 30
0.0
  0
POINT
  5
427D
330
4272
100
AcDbEntity
  8
Defpoints
 62
     0
100
AcDbPoint
 10
1005.4718458944
 20
1969.661385238021
 30
0.0
  0
ENDBLK
  5
4274
330
4272
100
AcDbEntity
  8
0
100
AcDbBlockEnd
  0
BLOCK
  5
4280
330
427F
100
AcDbEntity
  8
0
100
AcDbBlockBegin
  2
*D6
 70
     1
 10
0.0
 20
0.0
 30
0.0
  3
*D6
  1

  0
LINE
  5
4282
330
427F
100
AcDbEntity
  8
DIM
 62
     0
370
    -2
100
AcDbLine
 10
344.1296465944542
 20
2292.006740727129
 30
0.0
 11
272.9717135490896
 21
2292.006740727129
 31
0.0
  0
LINE
  5
4283
330
427F
100
AcDbEntity
  8
DIM
 62
     0
370
    -2
100
AcDbLine
 10
344.1296465944542
 20
1972.006740727129
 30
0.0
 11
272.9717135490896
 21
1972.006740727129
 31
0.0
  0
LINE
  5
4284
330
427F
100
AcDbEntity
  8
DIM
 62
     0
370
    -2
100
AcDbLine
 10
272.9717135490896
 20
2282.006740727129
 30
0.0
 11
272.9717135490896
 21
1982.006740727129
 31
0.0
  0
INSERT
  5
4285
330
427F
100
AcDbEntity
  8
DIM
 62
     0
370
    -2
100
AcDbBlockReference
  2
_DOT
 10
272.9717135490896
 20
2292.006740727129
 30
0.0
 41
10.0
 42
10.0
 43
10.0
 50
90.0
  0
INSERT
  5
4286
330
427F
100
AcDbEntity
  8
DIM
 62
     0
370
    -2
100
AcDbBlockReference
  2
_DOT
 10
272.9717135490896
 20
1972.006740727129
 30
0.0
 41
10.0
 42
10.0
 43
10.0
 50
270.0
  0
MTEXT
  5
4287
330
427F
100
AcDbEntity
  8
DIM
 62
     0
100
AcDbMText
 10
250.9717135490896
 20
2132.006740727129
 30
0.0
 40
24.0
 41
0.0
 46
0.0
 71
     5
 72
     1
  1
\A1;320
  7
ＭＳ ゴシック
 11
0.0
 21
1.0
 31
0.0
 73
     1
 44
1.0
  0
POINT
  5
4288
330
427F
100
AcDbEntity
  8
Defpoints
 62
     0
100
AcDbPoint
 10
374.1296465944542
 20
2292.006740727129
 30
0.0
  0
POINT
  5
4289
330
427F
100
AcDbEntity
  8
Defpoints
 62
     0
100
AcDbPoint
 10
374.1296465944542
 20
1972.006740727129
 30
0.0
  0
POINT
  5
428A
330
427F
100
AcDbEntity
  8
Defpoints
 62
     0
100
AcDbPoint
 10
272.9717135490896
 20
1972.006740727129
 30
0.0
  0
ENDBLK
  5
4281
330
427F
100
AcDbEntity
  8
0
100
AcDbBlockEnd
  0
BLOCK
  5
428E
330
428D
100
AcDbEntity
  8
0
100
AcDbBlockBegin
  2
*D7
 70
     1
 10
0.0
 20
0.0
 30
0.0
  3
*D7
  1

  0
LINE
  5
4290
330
428D
100
AcDbEntity
  8
DIM
 62
     0
370
    -2
100
AcDbLine
 10
877.1352693038816
 20
1302.181280823446
 30
0.0
 11
936.8703862404051
 21
1302.181280823446
 31
0.0
  0
LINE
  5
4291
330
428D
100
AcDbEntity
  8
DIM
 62
     0
370
    -2
100
AcDbLine
 10
666.0317855670964
 20
1002.181280823446
 30
0.0
 11
936.8703862404051
 21
1002.181280823446
 31
0.0
  0
LINE
  5
4292
330
428D
100
AcDbEntity
  8
DIM
 62
     0
370
    -2
100
AcDbLine
 10
936.8703862404051
 20
1292.181280823446
 30
0.0
 11
936.8703862404051
 21
1012.181280823446
 31
0.0
  0
INSERT
  5
4293
330
428D
100
AcDbEntity
  8
DIM
 62
     0
370
    -2
100
AcDbBlockReference
  2
_DOT
 10
936.8703862404051
 20
1302.181280823446
 30
0.0
 41
10.0
 42
10.0
 43
10.0
 50
90.0
  0
INSERT
  5
4294
330
428D
100
AcDbEntity
  8
DIM
 62
     0
370
    -2
100
AcDbBlockReference
  2
_DOT
 10
936.8703862404051
 20
1002.181280823446
 30
0.0
 41
10.0
 42
10.0
 43
10.0
 50
270.0
  0
MTEXT
  5
4295
330
428D
100
AcDbEntity
  8
DIM
 62
     0
100
AcDbMText
 10
914.8703862404051
 20
1152.181280823446
 30
0.0
 40
24.0
 41
0.0
 46
0.0
 71
     5
 72
     1
  1
\A1;300
  7
ＭＳ ゴシック
 11
0.0
 21
1.0
 31
0.0
 73
     1
 44
1.0
  0
POINT
  5
4296
330
428D
100
AcDbEntity
  8
Defpoints
 62
     0
100
AcDbPoint
 10
847.1352693038816
 20
1302.181280823446
 30
0.0
  0
POINT
  5
4297
330
428D
100
AcDbEntity
  8
Defpoints
 62
     0
100
AcDbPoint
 10
636.0317855670964
 20
1002.181280823446
 30
0.0
  0
POINT
  5
4298
330
428D
100
AcDbEntity
  8
Defpoints
 62
     0
100
AcDbPoint
 10
936.8703862404051
 20
1002.181280823446
 30
0.0
  0
ENDBLK
  5
428F
330
428D
100
AcDbEntity
  8
0
100
AcDbBlockEnd
  0
BLOCK
  5
42CC
330
42CB
100
AcDbEntity
  8
0
100
AcDbBlockBegin
  2
*D8
 70
     1
 10
0.0
 20
0.0
 30
0.0
  3
*D8
  1

  0
LINE
  5
42CE
330
42CB
100
AcDbEntity
  8
DIM
 62
     0
370
    -2
100
AcDbLine
 10
1272.363533642645
 20
1302.181280823447
 30
0.0
 11
1246.316003494804
 21
1302.181280823447
 31
0.0
  0
LINE
  5
42CF
330
42CB
100
AcDbEntity
  8
DIM
 62
     0
370
    -2
100
AcDbLine
 10
1364.812505950865
 20
1167.181280823446
 30
0.0
 11
1246.316003494804
 21
1167.181280823446
 31
0.0
  0
LINE
  5
42D0
330
42CB
100
AcDbEntity
  8
DIM
 62
     0
370
    -2
100
AcDbLine
 10
1246.316003494804
 20
1292.181280823447
 30
0.0
 11
1246.316003494804
 21
1177.181280823446
 31
0.0
  0
INSERT
  5
42D1
330
42CB
100
AcDbEntity
  8
DIM
 62
     0
370
    -2
100
AcDbBlockReference
  2
_DOT
 10
1246.316003494804
 20
1302.181280823447
 30
0.0
 41
10.0
 42
10.0
 43
10.0
 50
90.0
  0
INSERT
  5
42D2
330
42CB
100
AcDbEntity
  8
DIM
 62
     0
370
    -2
100
AcDbBlockReference
  2
_DOT
 10
1246.316003494804
 20
1167.181280823446
 30
0.0
 41
10.0
 42
10.0
 43
10.0
 50
270.0
  0
MTEXT
  5
42D3
330
42CB
100
AcDbEntity
  8
DIM
 62
     0
100
AcDbMText
 10
1224.316003494804
 20
1234.681280823446
 30
0.0
 40
24.0
 41
0.0
 46
0.0
 71
     5
 72
     1
  1
\A1;135
  7
ＭＳ ゴシック
 11
0.0
 21
1.0
 31
0.0
 73
     1
 44
1.0
  0
POINT
  5
42D4
330
42CB
100
AcDbEntity
  8
Defpoints
 62
     0
100
AcDbPoint
 10
1302.363533642645
 20
1302.181280823447
 30
0.0
  0
POINT
  5
42D5
330
42CB
100
AcDbEntity
  8
Defpoints
 62
     0
100
AcDbPoint
 10
1394.812505950865
 20
1167.181280823446
 30
0.0
  0
POINT
  5
42D6
330
42CB
100
AcDbEntity
  8
Defpoints
 62
     0
100
AcDbPoint
 10
1246.316003494804
 20
1167.181280823446
 30
0.0
  0
ENDBLK
  5
42CD
330
42CB
100
AcDbEntity
  8
0
100
AcDbBlockEnd
  0
BLOCK
  5
4307
330
4306
100
AcDbEntity
  8
0
100
AcDbBlockBegin
  2
*D9
 70
     1
 10
0.0
 20
0.0
 30
0.0
  3
*D9
  1

  0
LINE
  5
4309
330
4306
100
AcDbEntity
  8
DIM
 62
     0
370
    -2
100
AcDbLine
 10
1379.623107182378
 20
1347.32367575723
 30
0.0
 11
1379.623107182378
 21
1400.83106785599
 31
0.0
  0
LINE
  5
430A
330
4306
100
AcDbEntity
  8
DIM
 62
     0
370
    -2
100
AcDbLine
 10
1559.610687595704
 20
1347.32367575723
 30
0.0
 11
1559.610687595704
 21
1400.83106785599
 31
0.0
  0
LINE
  5
430B
330
4306
100
AcDbEntity
  8
DIM
 62
     0
370
    -2
100
AcDbLine
 10
1389.623107182378
 20
1400.83106785599
 30
0.0
 11
1549.610687595704
 21
1400.83106785599
 31
0.0
  0
INSERT
  5
430C
330
4306
100
AcDbEntity
  8
DIM
 62
     0
370
    -2
100
AcDbBlockReference
  2
_DOT
 10
1379.623107182378
 20
1400.83106785599
 30
0.0
 41
10.0
 42
10.0
 43
10.0
 50
180.0
  0
INSERT
  5
430D
330
4306
100
AcDbEntity
  8
DIM
 62
     0
370
    -2
100
AcDbBlockReference
  2
_DOT
 10
1559.610687595704
 20
1400.83106785599
 30
0.0
 41
10.0
 42
10.0
 43
10.0
  0
MTEXT
  5
430E
330
4306
100
AcDbEntity
  8
DIM
 62
     0
100
AcDbMText
 10
1469.616897389041
 20
1422.83106785599
 30
0.0
 40
24.0
 41
0.0
 46
0.0
 71
     5
 72
     1
  1
\A1;180
  7
ＭＳ ゴシック
 73
     1
 44
1.0
  0
POINT
  5
430F
330
4306
100
AcDbEntity
  8
Defpoints
 62
     0
100
AcDbPoint
 10
1379.623107182378
 20
1317.32367575723
 30
0.0
  0
POINT
  5
4310
330
4306
100
AcDbEntity
  8
Defpoints
 62
     0
100
AcDbPoint
 10
1559.610687595704
 20
1317.32367575723
 30
0.0
  0
POINT
  5
4311
330
4306
100
AcDbEntity
  8
Defpoints
 62
     0
100
AcDbPoint
 10
1559.610687595704
 20
1400.83106785599
 30
0.0
  0
ENDBLK
  5
4308
330
4306
100
AcDbEntity
  8
0
100
AcDbBlockEnd
  0
BLOCK
  5
455E
330
455D
100
AcDbEntity
  8
0
100
AcDbBlockBegin
  2
*D10
 70
     1
 10
0.0
 20
0.0
 30
0.0
  3
*D10
  1

  0
LINE
  5
4560
330
455D
100
AcDbEntity
  8
DIM
 62
     0
370
    -2
100
AcDbLine
 10
874.7698259519113
 20
1002.181280823447
 30
0.0
 11
1006.941477440405
 21
1002.181280823447
 31
0.0
  0
LINE
  5
4561
330
455D
100
AcDbEntity
  8
DIM
 62
     0
370
    -2
100
AcDbLine
 10
506.2697467524048
 20
1352.181280823447
 30
0.0
 11
1006.941477440405
 21
1352.181280823447
 31
0.0
  0
LINE
  5
4562
330
455D
100
AcDbEntity
  8
DIM
 62
     0
370
    -2
100
AcDbLine
 10
1006.941477440405
 20
1012.181280823447
 30
0.0
 11
1006.941477440405
 21
1342.181280823447
 31
0.0
  0
INSERT
  5
4563
330
455D
100
AcDbEntity
  8
DIM
 62
     0
370
    -2
100
AcDbBlockReference
  2
_DOT
 10
1006.941477440405
 20
1002.181280823447
 30
0.0
 41
10.0
 42
10.0
 43
10.0
 50
270.0
  0
INSERT
  5
4564
330
455D
100
AcDbEntity
  8
DIM
 62
     0
370
    -2
100
AcDbBlockReference
  2
_DOT
 10
1006.941477440405
 20
1352.181280823447
 30
0.0
 41
10.0
 42
10.0
 43
10.0
 50
90.0
  0
MTEXT
  5
4565
330
455D
100
AcDbEntity
  8
DIM
 62
     0
100
AcDbMText
 10
984.941477440405
 20
1177.181280823446
 30
0.0
 40
24.0
 41
0.0
 46
0.0
 71
     5
 72
     1
  1
\A1;350
  7
ＭＳ ゴシック
 11
0.0
 21
1.0
 31
0.0
 73
     1
 44
1.0
  0
POINT
  5
4566
330
455D
100
AcDbEntity
  8
Defpoints
 62
     0
100
AcDbPoint
 10
844.7698259519113
 20
1002.181280823447
 30
0.0
  0
POINT
  5
4567
330
455D
100
AcDbEntity
  8
Defpoints
 62
     0
100
AcDbPoint
 10
476.2697467524048
 20
1352.181280823447
 30
0.0
  0
POINT
  5
4568
330
455D
100
AcDbEntity
  8
Defpoints
 62
     0
100
AcDbPoint
 10
1006.941477440405
 20
1352.181280823447
 30
0.0
  0
ENDBLK
  5
455F
330
455D
100
AcDbEntity
  8
0
100
AcDbBlockEnd
  0
BLOCK
  5
4649
330
4648
100
AcDbEntity
  8
0
100
AcDbBlockBegin
  2
*D11
 70
     1
 10
0.0
 20
0.0
 30
0.0
  3
*D11
  1

  0
LINE
  5
464B
330
4648
100
AcDbEntity
  8
DIM
 62
     0
370
    -2
100
AcDbLine
 10
374.1296355521954
 20
1007.178097601278
 30
0.0
 11
374.1296355521954
 21
928.6961861422077
 31
0.0
  0
LINE
  5
464C
330
4648
100
AcDbEntity
  8
DIM
 62
     0
370
    -2
100
AcDbLine
 10
734.1296355521954
 20
1007.178097601278
 30
0.0
 11
734.1296355521954
 21
928.6961861422077
 31
0.0
  0
LINE
  5
464D
330
4648
100
AcDbEntity
  8
DIM
 62
     0
370
    -2
100
AcDbLine
 10
384.1296355521954
 20
928.6961861422077
 30
0.0
 11
724.1296355521954
 21
928.6961861422077
 31
0.0
  0
INSERT
  5
464E
330
4648
100
AcDbEntity
  8
DIM
 62
     0
370
    -2
100
AcDbBlockReference
  2
_DOT
 10
374.1296355521954
 20
928.6961861422077
 30
0.0
 41
10.0
 42
10.0
 43
10.0
 50
180.0
  0
INSERT
  5
464F
330
4648
100
AcDbEntity
  8
DIM
 62
     0
370
    -2
100
AcDbBlockReference
  2
_DOT
 10
734.1296355521954
 20
928.6961861422077
 30
0.0
 41
10.0
 42
10.0
 43
10.0
  0
MTEXT
  5
4650
330
4648
100
AcDbEntity
  8
DIM
 62
     0
100
AcDbMText
 10
554.1296355521954
 20
950.6961861422077
 30
0.0
 40
24.0
 41
0.0
 46
0.0
 71
     5
 72
     1
  1
\A1;360
  7
ＭＳ ゴシック
 73
     1
 44
1.0
  0
POINT
  5
4651
330
4648
100
AcDbEntity
  8
Defpoints
 62
     0
100
AcDbPoint
 10
374.1296355521954
 20
1037.178097601278
 30
0.0
  0
POINT
  5
4652
330
4648
100
AcDbEntity
  8
Defpoints
 62
     0
100
AcDbPoint
 10
734.1296355521954
 20
1037.178097601278
 30
0.0
  0
POINT
  5
4653
330
4648
100
AcDbEntity
  8
Defpoints
 62
     0
100
AcDbPoint
 10
734.1296355521954
 20
928.6961861422077
 30
0.0
  0
ENDBLK
  5
464A
330
4648
100
AcDbEntity
  8
0
100
AcDbBlockEnd
  0
BLOCK
  5
465E
330
465D
100
AcDbEntity
  8
0
100
AcDbBlockBegin
  2
*D12
 70
     1
 10
0.0
 20
0.0
 30
0.0
  3
*D12
  1

  0
LINE
  5
4660
330
465D
100
AcDbEntity
  8
DIM
 62
     0
370
    -2
100
AcDbLine
 10
449.2608268934605
 20
2209.221594207822
 30
0.0
 11
330.0188077847044
 21
2209.221594207822
 31
0.0
  0
LINE
  5
4661
330
465D
100
AcDbEntity
  8
DIM
 62
     0
370
    -2
100
AcDbLine
 10
449.2608268934605
 20
2054.271433229954
 30
0.0
 11
330.0188077847044
 21
2054.271433229954
 31
0.0
  0
LINE
  5
4662
330
465D
100
AcDbEntity
  8
DIM
 62
     0
370
    -2
100
AcDbLine
 10
330.0188077847044
 20
2199.221594207822
 30
0.0
 11
330.0188077847044
 21
2064.271433229954
 31
0.0
  0
INSERT
  5
4663
330
465D
100
AcDbEntity
  8
DIM
 62
     0
370
    -2
100
AcDbBlockReference
  2
_DOT
 10
330.0188077847044
 20
2209.221594207822
 30
0.0
 41
10.0
 42
10.0
 43
10.0
 50
90.0
  0
INSERT
  5
4664
330
465D
100
AcDbEntity
  8
DIM
 62
     0
370
    -2
100
AcDbBlockReference
  2
_DOT
 10
330.0188077847044
 20
2054.271433229954
 30
0.0
 41
10.0
 42
10.0
 43
10.0
 50
270.0
  0
MTEXT
  5
4665
330
465D
100
AcDbEntity
  8
DIM
 62
     0
100
AcDbMText
 10
308.0188077847044
 20
2131.746513718888
 30
0.0
 40
24.0
 41
0.0
 46
0.0
 71
     5
 72
     1
  1
\A1;155
  7
ＭＳ ゴシック
 11
0.0
 21
1.0
 31
0.0
 73
     1
 44
1.0
  0
POINT
  5
4666
330
465D
100
AcDbEntity
  8
Defpoints
 62
     0
100
AcDbPoint
 10
479.2608268934605
 20
2209.221594207822
 30
0.0
  0
POINT
  5
4667
330
465D
100
AcDbEntity
  8
Defpoints
 62
     0
100
AcDbPoint
 10
479.2608268934605
 20
2054.271433229954
 30
0.0
  0
POINT
  5
4668
330
465D
100
AcDbEntity
  8
Defpoints
 62
     0
100
AcDbPoint
 10
330.0188077847044
 20
2054.271433229954
 30
0.0
  0
ENDBLK
  5
465F
330
465D
100
AcDbEntity
  8
0
100
AcDbBlockEnd
  0
BLOCK
  5
468E
330
468D
100
AcDbEntity
  8
0
100
AcDbBlockBegin
  2
*D13
 70
     1
 10
0.0
 20
0.0
 30
0.0
  3
*D13
  1

  0
LINE
  5
4690
330
468D
100
AcDbEntity
  8
DIM
 62
     0
370
    -2
100
AcDbLine
 10
814.1317322291029
 20
2102.006521888114
 30
0.0
 11
814.1317322291029
 21
1889.898569399807
 31
0.0
  0
LINE
  5
4691
330
468D
100
AcDbEntity
  8
DIM
 62
     0
370
    -2
100
AcDbLine
 10
529.1317322291029
 20
2102.006521888113
 30
0.0
 11
529.1317322291029
 21
1889.898569399807
 31
0.0
  0
LINE
  5
4692
330
468D
100
AcDbEntity
  8
DIM
 62
     0
370
    -2
100
AcDbLine
 10
804.1317322291029
 20
1889.898569399807
 30
0.0
 11
539.1317322291029
 21
1889.898569399807
 31
0.0
  0
INSERT
  5
4693
330
468D
100
AcDbEntity
  8
DIM
 62
     0
370
    -2
100
AcDbBlockReference
  2
_DOT
 10
814.1317322291029
 20
1889.898569399807
 30
0.0
 41
10.0
 42
10.0
 43
10.0
  0
INSERT
  5
4694
330
468D
100
AcDbEntity
  8
DIM
 62
     0
370
    -2
100
AcDbBlockReference
  2
_DOT
 10
529.1317322291029
 20
1889.898569399807
 30
0.0
 41
10.0
 42
10.0
 43
10.0
 50
180.0
  0
MTEXT
  5
4695
330
468D
100
AcDbEntity
  8
DIM
 62
     0
100
AcDbMText
 10
671.6317322291029
 20
1911.898569399807
 30
0.0
 40
24.0
 41
0.0
 46
0.0
 71
     5
 72
     1
  1
\A1;285
  7
ＭＳ ゴシック
 73
     1
 44
1.0
  0
POINT
  5
4696
330
468D
100
AcDbEntity
  8
Defpoints
 62
     0
100
AcDbPoint
 10
814.1317322291029
 20
2132.006521888114
 30
0.0
  0
POINT
  5
4697
330
468D
100
AcDbEntity
  8
Defpoints
 62
     0
100
AcDbPoint
 10
529.1317322291029
 20
2132.006521888113
 30
0.0
  0
POINT
  5
4698
330
468D
100
AcDbEntity
  8
Defpoints
 62
     0
100
AcDbPoint
 10
529.1317322291029
 20
1889.898569399807
 30
0.0
  0
ENDBLK
  5
468F
330
468D
100
AcDbEntity
  8
0
100
AcDbBlockEnd
  0
BLOCK
  5
469E
330
469D
100
AcDbEntity
  8
0
100
AcDbBlockBegin
  2
*D14
 70
     1
 10
0.0
 20
0.0
 30
0.0
  3
*D14
  1

  0
LINE
  5
46A0
330
469D
100
AcDbEntity
  8
DIM
 62
     0
370
    -2
100
AcDbLine
 10
1374.40109425245
 20
1014.958578605567
 30
0.0
 11
1374.40109425245
 21
939.1601357614081
 31
0.0
  0
LINE
  5
46A1
330
469D
100
AcDbEntity
  8
DIM
 62
     0
370
    -2
100
AcDbLine
 10
1564.40109425245
 20
1014.958578605567
 30
0.0
 11
1564.40109425245
 21
939.1601357614081
 31
0.0
  0
LINE
  5
46A2
330
469D
100
AcDbEntity
  8
DIM
 62
     0
370
    -2
100
AcDbLine
 10
1384.40109425245
 20
939.1601357614081
 30
0.0
 11
1554.40109425245
 21
939.1601357614081
 31
0.0
  0
INSERT
  5
46A3
330
469D
100
AcDbEntity
  8
DIM
 62
     0
370
    -2
100
AcDbBlockReference
  2
_DOT
 10
1374.40109425245
 20
939.1601357614081
 30
0.0
 41
10.0
 42
10.0
 43
10.0
 50
180.0
  0
INSERT
  5
46A4
330
469D
100
AcDbEntity
  8
DIM
 62
     0
370
    -2
100
AcDbBlockReference
  2
_DOT
 10
1564.40109425245
 20
939.1601357614081
 30
0.0
 41
10.0
 42
10.0
 43
10.0
  0
MTEXT
  5
46A5
330
469D
100
AcDbEntity
  8
DIM
 62
     0
100
AcDbMText
 10
1469.40109425245
 20
961.1601357614081
 30
0.0
 40
24.0
 41
0.0
 46
0.0
 71
     5
 72
     1
  1
\A1;190
  7
ＭＳ ゴシック
 73
     1
 44
1.0
  0
POINT
  5
46A6
330
469D
100
AcDbEntity
  8
Defpoints
 62
     0
100
AcDbPoint
 10
1374.40109425245
 20
1044.958578605567
 30
0.0
  0
POINT
  5
46A7
330
469D
100
AcDbEntity
  8
Defpoints
 62
     0
100
AcDbPoint
 10
1564.40109425245
 20
1044.958578605567
 30
0.0
  0
POINT
  5
46A8
330
469D
100
AcDbEntity
  8
Defpoints
 62
     0
100
AcDbPoint
 10
1564.40109425245
 20
939.1601357614081
 30
0.0
  0
ENDBLK
  5
469F
330
469D
100
AcDbEntity
  8
0
100
AcDbBlockEnd
  0
BLOCK
  5
4712
330
4711
100
AcDbEntity
  8
0
100
AcDbBlockBegin
  2
*D15
 70
     1
 10
0.0
 20
0.0
 30
0.0
  3
*D15
  1

  0
LINE
  5
4714
330
4711
100
AcDbEntity
  8
DIM
 62
     0
370
    -2
100
AcDbLine
 10
720.9453545916987
 20
2009.661385238021
 30
0.0
 11
921.7602489408001
 21
2009.661385238021
 31
0.0
  0
LINE
  5
4715
330
4711
100
AcDbEntity
  8
DIM
 62
     0
370
    -2
100
AcDbLine
 10
720.9453545916987
 20
2254.661385238021
 30
0.0
 11
921.7602489408001
 21
2254.661385238021
 31
0.0
  0
LINE
  5
4716
330
4711
100
AcDbEntity
  8
DIM
 62
     0
370
    -2
100
AcDbLine
 10
921.7602489408001
 20
2019.661385238021
 30
0.0
 11
921.7602489408001
 21
2244.661385238021
 31
0.0
  0
INSERT
  5
4717
330
4711
100
AcDbEntity
  8
DIM
 62
     0
370
    -2
100
AcDbBlockReference
  2
_DOT
 10
921.7602489408001
 20
2009.661385238021
 30
0.0
 41
10.0
 42
10.0
 43
10.0
 50
270.0
  0
INSERT
  5
4718
330
4711
100
AcDbEntity
  8
DIM
 62
     0
370
    -2
100
AcDbBlockReference
  2
_DOT
 10
921.7602489408001
 20
2254.661385238021
 30
0.0
 41
10.0
 42
10.0
 43
10.0
 50
90.0
  0
MTEXT
  5
4719
330
4711
100
AcDbEntity
  8
DIM
 62
     0
100
AcDbMText
 10
899.7602489408001
 20
2132.161385238021
 30
0.0
 40
24.0
 41
0.0
 46
0.0
 71
     5
 72
     1
  1
\A1;245
  7
ＭＳ ゴシック
 11
0.0
 21
1.0
 31
0.0
 73
     1
 44
1.0
  0
POINT
  5
471A
330
4711
100
AcDbEntity
  8
Defpoints
 62
     0
100
AcDbPoint
 10
690.9453545916987
 20
2009.661385238021
 30
0.0
  0
POINT
  5
471B
330
4711
100
AcDbEntity
  8
Defpoints
 62
     0
100
AcDbPoint
 10
690.9453545916987
 20
2254.661385238021
 30
0.0
  0
POINT
  5
471C
330
4711
100
AcDbEntity
  8
Defpoints
 62
     0
100
AcDbPoint
 10
921.7602489408001
 20
2254.661385238021
 30
0.0
  0
ENDBLK
  5
4713
330
4711
100
AcDbEntity
  8
0
100
AcDbBlockEnd
  0
BLOCK
  5
4724
330
4723
100
AcDbEntity
  8
0
100
AcDbBlockBegin
  2
*D16
 70
     1
 10
0.0
 20
0.0
 30
0.0
  3
*D16
  1

  0
LINE
  5
4726
330
4723
100
AcDbEntity
  8
DIM
 62
     0
370
    -2
100
AcDbLine
 10
362.7743022471082
 20
1335.118897498339
 30
0.0
 11
294.7557437237762
 21
1335.118897498339
 31
0.0
  0
LINE
  5
4727
330
4723
100
AcDbEntity
  8
DIM
 62
     0
370
    -2
100
AcDbLine
 10
362.7743022471082
 20
1280.118897498339
 30
0.0
 11
294.7557437237762
 21
1280.118897498339
 31
0.0
  0
LINE
  5
4728
330
4723
100
AcDbEntity
  8
DIM
 62
     0
370
    -2
100
AcDbLine
 10
294.7557437237762
 20
1325.118897498339
 30
0.0
 11
294.7557437237762
 21
1290.118897498339
 31
0.0
  0
INSERT
  5
4729
330
4723
100
AcDbEntity
  8
DIM
 62
     0
370
    -2
100
AcDbBlockReference
  2
_DOT
 10
294.7557437237762
 20
1335.118897498339
 30
0.0
 41
10.0
 42
10.0
 43
10.0
 50
90.0
  0
INSERT
  5
472A
330
4723
100
AcDbEntity
  8
DIM
 62
     0
370
    -2
100
AcDbBlockReference
  2
_DOT
 10
294.7557437237762
 20
1280.118897498339
 30
0.0
 41
10.0
 42
10.0
 43
10.0
 50
270.0
  0
MTEXT
  5
472B
330
4723
100
AcDbEntity
  8
DIM
 62
     0
100
AcDbMText
 10
272.7557437237762
 20
1307.618897498339
 30
0.0
 40
24.0
 41
0.0
 46
0.0
 71
     5
 72
     1
  1
\A1;55
  7
ＭＳ ゴシック
 11
0.0
 21
1.0
 31
0.0
 73
     1
 44
1.0
  0
POINT
  5
472C
330
4723
100
AcDbEntity
  8
Defpoints
 62
     0
100
AcDbPoint
 10
392.7743022471082
 20
1335.118897498339
 30
0.0
  0
POINT
  5
472D
330
4723
100
AcDbEntity
  8
Defpoints
 62
     0
100
AcDbPoint
 10
392.7743022471082
 20
1280.118897498339
 30
0.0
  0
POINT
  5
472E
330
4723
100
AcDbEntity
  8
Defpoints
 62
     0
100
AcDbPoint
 10
294.7557437237762
 20
1280.118897498339
 30
0.0
  0
ENDBLK
  5
4725
330
4723
100
AcDbEntity
  8
0
100
AcDbBlockEnd
  0
BLOCK
  5
4731
330
4730
100
AcDbEntity
  8
0
100
AcDbBlockBegin
  2
*D17
 70
     1
 10
0.0
 20
0.0
 30
0.0
  3
*D17
  1

  0
LINE
  5
4733
330
4730
100
AcDbEntity
  8
DIM
 62
     0
370
    -2
100
AcDbLine
 10
355.992394743778
 20
1220.286864069478
 30
0.0
 11
294.7557437237762
 21
1220.286864069478
 31
0.0
  0
LINE
  5
4734
330
4730
100
AcDbEntity
  8
DIM
 62
     0
370
    -2
100
AcDbLine
 10
355.6100937811997
 20
1122.636338895725
 30
0.0
 11
294.7557437237762
 21
1122.636338895725
 31
0.0
  0
LINE
  5
4735
330
4730
100
AcDbEntity
  8
DIM
 62
     0
370
    -2
100
AcDbLine
 10
294.7557437237762
 20
1210.286864069478
 30
0.0
 11
294.7557437237762
 21
1132.636338895725
 31
0.0
  0
INSERT
  5
4736
330
4730
100
AcDbEntity
  8
DIM
 62
     0
370
    -2
100
AcDbBlockReference
  2
_DOT
 10
294.7557437237762
 20
1220.286864069478
 30
0.0
 41
10.0
 42
10.0
 43
10.0
 50
90.0
  0
INSERT
  5
4737
330
4730
100
AcDbEntity
  8
DIM
 62
     0
370
    -2
100
AcDbBlockReference
  2
_DOT
 10
294.7557437237762
 20
1122.636338895725
 30
0.0
 41
10.0
 42
10.0
 43
10.0
 50
270.0
  0
MTEXT
  5
4738
330
4730
100
AcDbEntity
  8
DIM
 62
     0
100
AcDbMText
 10
272.7557437237762
 20
1171.461601482602
 30
0.0
 40
24.0
 41
0.0
 46
0.0
 71
     5
 72
     1
  1
\A1;98
  7
ＭＳ ゴシック
 11
0.0
 21
1.0
 31
0.0
 73
     1
 44
1.0
  0
POINT
  5
4739
330
4730
100
AcDbEntity
  8
Defpoints
 62
     0
100
AcDbPoint
 10
385.992394743778
 20
1220.286864069478
 30
0.0
  0
POINT
  5
473A
330
4730
100
AcDbEntity
  8
Defpoints
 62
     0
100
AcDbPoint
 10
385.6100937811997
 20
1122.636338895725
 30
0.0
  0
POINT
  5
473B
330
4730
100
AcDbEntity
  8
Defpoints
 62
     0
100
AcDbPoint
 10
294.7557437237762
 20
1122.636338895725
 30
0.0
  0
ENDBLK
  5
4732
330
4730
100
AcDbEntity
  8
0
100
AcDbBlockEnd
  0
BLOCK
  5
4740
330
473F
100
AcDbEntity
  8
0
100
AcDbBlockBegin
  2
*D18
 70
     1
 10
0.0
 20
0.0
 30
0.0
  3
*D18
  1

  0
LINE
  5
4742
330
473F
100
AcDbEntity
  8
DIM
 62
     0
370
    -2
100
AcDbLine
 10
1623.749924761123
 20
1271.347447815641
 30
0.0
 11
1678.246018966174
 21
1271.347447815641
 31
0.0
  0
LINE
  5
4743
330
473F
100
AcDbEntity
  8
DIM
 62
     0
370
    -2
100
AcDbLine
 10
1557.928691956464
 20
1306.347447815641
 30
0.0
 11
1678.246018966174
 21
1306.347447815641
 31
0.0
  0
LINE
  5
4744
330
473F
100
AcDbEntity
  8
DIM
 62
     0
370
    -2
100
AcDbLine
 10
1678.246018966174
 20
1281.347447815641
 30
0.0
 11
1678.246018966174
 21
1296.347447815641
 31
0.0
  0
INSERT
  5
4745
330
473F
100
AcDbEntity
  8
DIM
 62
     0
370
    -2
100
AcDbBlockReference
  2
_DOT
 10
1678.246018966174
 20
1271.347447815641
 30
0.0
 41
10.0
 42
10.0
 43
10.0
 50
270.0
  0
INSERT
  5
4746
330
473F
100
AcDbEntity
  8
DIM
 62
     0
370
    -2
100
AcDbBlockReference
  2
_DOT
 10
1678.246018966174
 20
1306.347447815641
 30
0.0
 41
10.0
 42
10.0
 43
10.0
 50
90.0
  0
MTEXT
  5
4747
330
473F
100
AcDbEntity
  8
DIM
 62
     0
100
AcDbMText
 10
1656.246018966174
 20
1288.847447815641
 30
0.0
 40
24.0
 41
0.0
 46
0.0
 71
     5
 72
     1
  1
\A1;35
  7
ＭＳ ゴシック
 11
0.0
 21
1.0
 31
0.0
 73
     1
 44
1.0
  0
POINT
  5
4748
330
473F
100
AcDbEntity
  8
Defpoints
 62
     0
100
AcDbPoint
 10
1593.749924761123
 20
1271.347447815641
 30
0.0
  0
POINT
  5
4749
330
473F
100
AcDbEntity
  8
Defpoints
 62
     0
100
AcDbPoint
 10
1527.928691956464
 20
1306.347447815641
 30
0.0
  0
POINT
  5
474A
330
473F
100
AcDbEntity
  8
Defpoints
 62
     0
100
AcDbPoint
 10
1678.246018966174
 20
1306.347447815641
 30
0.0
  0
ENDBLK
  5
4741
330
473F
100
AcDbEntity
  8
0
100
AcDbBlockEnd
  0
BLOCK
  5
4750
330
474F
100
AcDbEntity
  8
0
100
AcDbBlockBegin
  2
*D19
 70
     1
 10
0.0
 20
0.0
 30
0.0
  3
*D19
  1

  0
LINE
  5
4752
330
474F
100
AcDbEntity
  8
DIM
 62
     0
370
    -2
100
AcDbLine
 10
1499.574154905603
 20
1002.181280823447
 30
0.0
 11
1761.953906947432
 21
1002.181280823447
 31
0.0
  0
LINE
  5
4753
330
474F
100
AcDbEntity
  8
DIM
 62
     0
370
    -2
100
AcDbLine
 10
1652.120083938688
 20
1328.181280254984
 30
0.0
 11
1761.953906947432
 21
1328.181280254984
 31
0.0
  0
LINE
  5
4754
330
474F
100
AcDbEntity
  8
DIM
 62
     0
370
    -2
100
AcDbLine
 10
1761.953906947432
 20
1012.181280823447
 30
0.0
 11
1761.953906947432
 21
1318.181280254984
 31
0.0
  0
INSERT
  5
4755
330
474F
100
AcDbEntity
  8
DIM
 62
     0
370
    -2
100
AcDbBlockReference
  2
_DOT
 10
1761.953906947432
 20
1002.181280823447
 30
0.0
 41
10.0
 42
10.0
 43
10.0
 50
270.0
  0
INSERT
  5
4756
330
474F
100
AcDbEntity
  8
DIM
 62
     0
370
    -2
100
AcDbBlockReference
  2
_DOT
 10
1761.953906947432
 20
1328.181280254984
 30
0.0
 41
10.0
 42
10.0
 43
10.0
 50
90.0
  0
MTEXT
  5
4757
330
474F
100
AcDbEntity
  8
DIM
 62
     0
100
AcDbMText
 10
1739.953906947432
 20
1165.181280539216
 30
0.0
 40
24.0
 41
0.0
 46
0.0
 71
     5
 72
     1
  1
\A1;326
  7
ＭＳ ゴシック
 11
0.0
 21
1.0
 31
0.0
 73
     1
 44
1.0
  0
POINT
  5
4758
330
474F
100
AcDbEntity
  8
Defpoints
 62
     0
100
AcDbPoint
 10
1469.574154905603
 20
1002.181280823447
 30
0.0
  0
POINT
  5
4759
330
474F
100
AcDbEntity
  8
Defpoints
 62
     0
100
AcDbPoint
 10
1622.120083938688
 20
1328.181280254984
 30
0.0
  0
POINT
  5
475A
330
474F
100
AcDbEntity
  8
Defpoints
 62
     0
100
AcDbPoint
 10
1761.953906947432
 20
1328.181280254984
 30
0.0
  0
ENDBLK
  5
4751
330
474F
100
AcDbEntity
  8
0
100
AcDbBlockEnd
  0
BLOCK
  5
475F
330
475E
100
AcDbEntity
  8
0
100
AcDbBlockBegin
  2
*D20
 70
     1
 10
0.0
 20
0.0
 30
0.0
  3
*D20
  1

  0
LINE
  5
4761
330
475E
100
AcDbEntity
  8
DIM
 62
     0
370
    -2
100
AcDbLine
 10
1259.666651917204
 20
1302.181280823447
 30
0.0
 11
1246.316003494804
 21
1302.181280823447
 31
0.0
  0
LINE
  5
4762
330
475E
100
AcDbEntity
  8
DIM
 62
     0
370
    -2
100
AcDbLine
 10
1308.249275149205
 20
1352.181280823447
 30
0.0
 11
1246.316003494804
 21
1352.181280823447
 31
0.0
  0
LINE
  5
4763
330
475E
100
AcDbEntity
  8
DIM
 62
     0
370
    -2
100
AcDbLine
 10
1246.316003494804
 20
1312.181280823447
 30
0.0
 11
1246.316003494804
 21
1342.181280823447
 31
0.0
  0
INSERT
  5
4764
330
475E
100
AcDbEntity
  8
DIM
 62
     0
370
    -2
100
AcDbBlockReference
  2
_DOT
 10
1246.316003494804
 20
1302.181280823447
 30
0.0
 41
10.0
 42
10.0
 43
10.0
 50
270.0
  0
INSERT
  5
4765
330
475E
100
AcDbEntity
  8
DIM
 62
     0
370
    -2
100
AcDbBlockReference
  2
_DOT
 10
1246.316003494804
 20
1352.181280823447
 30
0.0
 41
10.0
 42
10.0
 43
10.0
 50
90.0
  0
MTEXT
  5
4766
330
475E
100
AcDbEntity
  8
DIM
 62
     0
100
AcDbMText
 10
1224.316003494804
 20
1327.181280823447
 30
0.0
 40
24.0
 41
0.0
 46
0.0
 71
     5
 72
     1
  1
\A1;50
  7
ＭＳ ゴシック
 11
0.0
 21
1.0
 31
0.0
 73
     1
 44
1.0
  0
POINT
  5
4767
330
475E
100
AcDbEntity
  8
Defpoints
 62
     0
100
AcDbPoint
 10
1289.666651917204
 20
1302.181280823447
 30
0.0
  0
POINT
  5
4768
330
475E
100
AcDbEntity
  8
Defpoints
 62
     0
100
AcDbPoint
 10
1338.249275149205
 20
1352.181280823447
 30
0.0
  0
POINT
  5
4769
330
475E
100
AcDbEntity
  8
Defpoints
 62
     0
100
AcDbPoint
 10
1246.316003494804
 20
1352.181280823447
 30
0.0
  0
ENDBLK
  5
4760
330
475E
100
AcDbEntity
  8
0
100
AcDbBlockEnd
  0
BLOCK
  5
476E
330
476D
100
AcDbEntity
  8
0
100
AcDbBlockBegin
  2
*D21
 70
     1
 10
0.0
 20
0.0
 30
0.0
  3
*D21
  1

  0
LINE
  5
4770
330
476D
100
AcDbEntity
  8
DIM
 62
     0
370
    -2
100
AcDbLine
 10
1334.812505950865
 20
1167.181280823446
 30
0.0
 11
1246.316003494804
 21
1167.181280823446
 31
0.0
  0
LINE
  5
4771
330
476D
100
AcDbEntity
  8
DIM
 62
     0
370
    -2
100
AcDbLine
 10
1422.465153805204
 20
1002.181280823446
 30
0.0
 11
1246.316003494804
 21
1002.181280823446
 31
0.0
  0
LINE
  5
4772
330
476D
100
AcDbEntity
  8
DIM
 62
     0
370
    -2
100
AcDbLine
 10
1246.316003494804
 20
1157.181280823446
 30
0.0
 11
1246.316003494804
 21
1012.181280823446
 31
0.0
  0
INSERT
  5
4773
330
476D
100
AcDbEntity
  8
DIM
 62
     0
370
    -2
100
AcDbBlockReference
  2
_DOT
 10
1246.316003494804
 20
1167.181280823446
 30
0.0
 41
10.0
 42
10.0
 43
10.0
 50
90.0
  0
INSERT
  5
4774
330
476D
100
AcDbEntity
  8
DIM
 62
     0
370
    -2
100
AcDbBlockReference
  2
_DOT
 10
1246.316003494804
 20
1002.181280823446
 30
0.0
 41
10.0
 42
10.0
 43
10.0
 50
270.0
  0
MTEXT
  5
4775
330
476D
100
AcDbEntity
  8
DIM
 62
     0
100
AcDbMText
 10
1224.316003494804
 20
1084.681280823446
 30
0.0
 40
24.0
 41
0.0
 46
0.0
 71
     5
 72
     1
  1
\A1;165
  7
ＭＳ ゴシック
 11
0.0
 21
1.0
 31
0.0
 73
     1
 44
1.0
  0
POINT
  5
4776
330
476D
100
AcDbEntity
  8
Defpoints
 62
     0
100
AcDbPoint
 10
1364.812505950865
 20
1167.181280823446
 30
0.0
  0
POINT
  5
4777
330
476D
100
AcDbEntity
  8
Defpoints
 62
     0
100
AcDbPoint
 10
1452.465153805204
 20
1002.181280823446
 30
0.0
  0
POINT
  5
4778
330
476D
100
AcDbEntity
  8
Defpoints
 62
     0
100
AcDbPoint
 10
1246.316003494804
 20
1002.181280823446
 30
0.0
  0
ENDBLK
  5
476F
330
476D
100
AcDbEntity
  8
0
100
AcDbBlockEnd
  0
BLOCK
  5
4784
330
4783
100
AcDbEntity
  8
0
100
AcDbBlockBegin
  2
*D22
 70
     1
 10
0.0
 20
0.0
 30
0.0
  3
*D22
  1

  0
LINE
  5
4786
330
4783
100
AcDbEntity
  8
DIM
 62
     0
370
    -2
100
AcDbLine
 10
1653.99825078159
 20
1002.181280823447
 30
0.0
 11
1806.058421340108
 21
1002.181280823447
 31
0.0
  0
LINE
  5
4787
330
4783
100
AcDbEntity
  8
DIM
 62
     0
370
    -2
100
AcDbLine
 10
1653.99825078159
 20
1332.181280823447
 30
0.0
 11
1806.058421340108
 21
1332.181280823447
 31
0.0
  0
LINE
  5
4788
330
4783
100
AcDbEntity
  8
DIM
 62
     0
370
    -2
100
AcDbLine
 10
1806.058421340108
 20
1012.181280823447
 30
0.0
 11
1806.058421340108
 21
1322.181280823447
 31
0.0
  0
INSERT
  5
4789
330
4783
100
AcDbEntity
  8
DIM
 62
     0
370
    -2
100
AcDbBlockReference
  2
_DOT
 10
1806.058421340108
 20
1002.181280823447
 30
0.0
 41
10.0
 42
10.0
 43
10.0
 50
270.0
  0
INSERT
  5
478A
330
4783
100
AcDbEntity
  8
DIM
 62
     0
370
    -2
100
AcDbBlockReference
  2
_DOT
 10
1806.058421340108
 20
1332.181280823447
 30
0.0
 41
10.0
 42
10.0
 43
10.0
 50
90.0
  0
MTEXT
  5
478B
330
4783
100
AcDbEntity
  8
DIM
 62
     0
100
AcDbMText
 10
1784.058421340108
 20
1167.181280823447
 30
0.0
 40
24.0
 41
0.0
 46
0.0
 71
     5
 72
     1
  1
\A1;330
  7
ＭＳ ゴシック
 11
0.0
 21
1.0
 31
0.0
 73
     1
 44
1.0
  0
POINT
  5
478C
330
4783
100
AcDbEntity
  8
Defpoints
 62
     0
100
AcDbPoint
 10
1623.99825078159
 20
1002.181280823447
 30
0.0
  0
POINT
  5
478D
330
4783
100
AcDbEntity
  8
Defpoints
 62
     0
100
AcDbPoint
 10
1623.99825078159
 20
1332.181280823447
 30
0.0
  0
POINT
  5
478E
330
4783
100
AcDbEntity
  8
Defpoints
 62
     0
100
AcDbPoint
 10
1806.058421340108
 20
1332.181280823447
 30
0.0
  0
ENDBLK
  5
4785
330
4783
100
AcDbEntity
  8
0
100
AcDbBlockEnd
  0
BLOCK
  5
47DD
330
47DC
100
AcDbEntity
  8
0
100
AcDbBlockBegin
  2
*D23
 70
     1
 10
0.0
 20
0.0
 30
0.0
  3
*D23
  1

  0
LINE
  5
47DF
330
47DC
100
AcDbEntity
  8
DIM
 62
     0
370
    -2
100
AcDbLine
 10
1653.749924761123
 20
1271.347447815641
 30
0.0
 11
1722.214815993601
 21
1271.347447815641
 31
0.0
  0
LINE
  5
47E0
330
47DC
100
AcDbEntity
  8
DIM
 62
     0
370
    -2
100
AcDbLine
 10
1682.120083938688
 20
1328.181280254984
 30
0.0
 11
1722.214815993601
 21
1328.181280254984
 31
0.0
  0
LINE
  5
47E1
330
47DC
100
AcDbEntity
  8
DIM
 62
     0
370
    -2
100
AcDbLine
 10
1722.214815993601
 20
1281.347447815641
 30
0.0
 11
1722.214815993601
 21
1318.181280254984
 31
0.0
  0
INSERT
  5
47E2
330
47DC
100
AcDbEntity
  8
DIM
 62
     0
370
    -2
100
AcDbBlockReference
  2
_DOT
 10
1722.214815993601
 20
1271.347447815641
 30
0.0
 41
10.0
 42
10.0
 43
10.0
 50
270.0
  0
INSERT
  5
47E3
330
47DC
100
AcDbEntity
  8
DIM
 62
     0
370
    -2
100
AcDbBlockReference
  2
_DOT
 10
1722.214815993601
 20
1328.181280254984
 30
0.0
 41
10.0
 42
10.0
 43
10.0
 50
90.0
  0
MTEXT
  5
47E4
330
47DC
100
AcDbEntity
  8
DIM
 62
     0
100
AcDbMText
 10
1700.214815993601
 20
1299.764364035313
 30
0.0
 40
24.0
 41
0.0
 46
0.0
 71
     5
 72
     1
  1
\A1;61
  7
ＭＳ ゴシック
 11
0.0
 21
1.0
 31
0.0
 73
     1
 44
1.0
  0
POINT
  5
47E5
330
47DC
100
AcDbEntity
  8
Defpoints
 62
     0
100
AcDbPoint
 10
1623.749924761123
 20
1271.347447815641
 30
0.0
  0
POINT
  5
47E6
330
47DC
100
AcDbEntity
  8
Defpoints
 62
     0
100
AcDbPoint
 10
1652.120083938688
 20
1328.181280254984
 30
0.0
  0
POINT
  5
47E7
330
47DC
100
AcDbEntity
  8
Defpoints
 62
     0
100
AcDbPoint
 10
1722.214815993601
 20
1328.181280254984
 30
0.0
  0
ENDBLK
  5
47DE
330
47DC
100
AcDbEntity
  8
0
100
AcDbBlockEnd
  0
ENDSEC
  0
SECTION
  2
ENTITIES
  0
MTEXT
  5
177
330
A
100
AcDbEntity
  8
TEMPLATE
390
1D
100
AcDbMText
 10
79.20214454773075
 20
343.7317516314282
 30
0.0
 40
16.28841145833333
 41
0.0
 46
0.0
 71
     1
 72
     1
  1
品名
  7
ＭＳ ゴシック
 73
     1
 44
0.7828267384257843
  0
MTEXT
  5
178
330
A
100
AcDbEntity
  8
TEMPLATE
390
1D
100
AcDbMText
 10
79.20214454773075
 20
258.731751631428
 30
0.0
 40
16.28841145833333
 41
0.0
 46
0.0
 71
     1
 72
     1
  1
仕様
  7
ＭＳ ゴシック
 73
     1
 44
0.7828267384257843
  0
LINE
  5
179
330
A
100
AcDbEntity
  8
TEMPLATE
390
1D
100
AcDbLine
 10
2022.202144547248
 20
267.1466735064284
 30
0.0
 11
72.20214454724874
 21
267.1466735064284
 31
0.0
  0
LWPOLYLINE
  5
17A
330
A
100
AcDbEntity
  8
TEMPLATE
390
1D
100
AcDbPolyline
 90
        5
 70
   128
 43
0.0
 10
2022.202144547248
 20
2897.146673506426
 10
72.20214454724874
 20
2897.146673506426
 10
72.20214454724874
 20
97.14667350642826
 10
2022.202144547248
 20
97.14667350642826
 10
2022.202144547248
 20
2897.146673506426
  0
LINE
  5
17B
330
A
100
AcDbEntity
  8
TEMPLATE
390
1D
100
AcDbLine
 10
2022.202144547248
 20
352.1466735064282
 30
0.0
 11
72.20214454724874
 21
352.1466735064282
 31
0.0
  0
LINE
  5
17C
330
A
100
AcDbEntity
  8
TEMPLATE
390
1D
100
AcDbLine
 10
2022.202144547732
 20
182.1466735064282
 30
0.0
 11
1269.20214454773
 21
182.1466735064282
 31
0.0
  0
MTEXT
  5
17E
330
A
100
AcDbEntity
  8
TEMPLATE
390
1D
100
AcDbMText
 10
1299.073550799991
 20
152.2362790331201
 30
0.0
 40
24.4326171875
 41
0.0
 46
0.0
 71
     1
 72
     1
  1
大洋金物株式会社 ティーフォルム事業部
  7
ＭＳ ゴシック
 73
     1
 44
0.7828267384257843
  0
MTEXT
  5
180
330
A
100
AcDbEntity
  8
TEMPLATE
390
1D
100
AcDbMText
 10
1831.20214454799
 20
230.1492906939282
 30
0.0
 40
24.4326171875
 41
0.0
 46
24.4326171875
 71
     1
 72
     1
  1
{1:10}
  7
ＭＳ ゴシック
 73
     1
 44
0.7828267384257843
1001
ACAD
1000
ACAD_MTEXT_DEFINED_HEIGHT_BEGIN
1070
    46
1040
24.4326171875
1000
ACAD_MTEXT_DEFINED_HEIGHT_END
  0
MTEXT
  5
181
330
A
100
AcDbEntity
  8
TEMPLATE
390
1D
100
AcDbMText
 10
1778.20214454799
 20
258.731751631428
 30
0.0
 40
16.28841145833333
 41
0.0
 46
0.0
 71
     1
 72
     1
  1
縮尺
  7
ＭＳ ゴシック
 73
     1
 44
0.7828267384257843
  0
LINE
  5
182
330
A
100
AcDbEntity
  8
TEMPLATE
390
1D
100
AcDbLine
 10
1771.20214454799
 20
182.1466735064282
 30
0.0
 11
1771.20214454799
 21
267.1466735064284
 31
0.0
  0
MTEXT
  5
183
330
A
100
AcDbEntity
  8
TEMPLATE
390
1D
100
AcDbMText
 10
1527.20214454799
 20
258.731751631428
 30
0.0
 40
16.28841145833333
 41
0.0
 46
0.0
 71
     1
 72
     1
  1
容量
  7
ＭＳ ゴシック
 73
     1
 44
0.7828267384257843
  0
LINE
  5
184
330
A
100
AcDbEntity
  8
TEMPLATE
390
1D
100
AcDbLine
 10
1520.20214454799
 20
182.1466735064282
 30
0.0
 11
1520.20214454799
 21
267.1466735064284
 31
0.0
  0
MTEXT
  5
185
330
A
100
AcDbEntity
  8
TEMPLATE
390
1D
100
AcDbMText
 10
1276.20214454799
 20
343.7317516314282
 30
0.0
 40
16.28841145833333
 41
0.0
 46
0.0
 71
     1
 72
     1
  1
品番
  7
ＭＳ ゴシック
 73
     1
 44
0.7828267384257843
  0
MTEXT
  5
186
330
A
100
AcDbEntity
  8
TEMPLATE
390
1D
100
AcDbMText
 10
1276.20214454799
 20
258.731751631428
 30
0.0
 40
16.28841145833333
 41
0.0
 46
0.0
 71
     1
 72
     1
  1
重量
  7
ＭＳ ゴシック
 73
     1
 44
0.7828267384257843
  0
MTEXT
  5
187
330
A
100
AcDbEntity
  8
TEMPLATE
390
1D
100
AcDbMText
 10
1329.20214454799
 20
315.1492906939282
 30
0.0
 40
24.4326171875
 41
0.0
 46
24.4326171875
 71
     1
 72
     1
  1
{FAA71-4101}
  7
ＭＳ ゴシック
 73
     1
 44
0.7828267384257843
1001
ACAD
1000
ACAD_MTEXT_DEFINED_HEIGHT_BEGIN
1070
    46
1040
24.4326171875
1000
ACAD_MTEXT_DEFINED_HEIGHT_END
  0
LINE
  5
188
330
A
100
AcDbEntity
  8
TEMPLATE
390
1D
100
AcDbLine
 10
1269.20214454799
 20
97.14667350642826
 30
0.0
 11
1269.20214454799
 21
352.1466735064282
 31
0.0
  0
MTEXT
  5
189
330
A
100
AcDbEntity
  8
TEMPLATE
390
1D
100
AcDbMText
 10
132.2021445477307
 20
315.1492906939282
 30
0.0
 40
24.4326171875
 41
0.0
 46
28.5128642578125
 71
     1
 72
     1
  1
{壁掛便器　-DURAVIT, DuraStyle-}
  7
ＭＳ ゴシック
 73
     1
 44
0.7828267384257843
1001
ACAD
1000
ACAD_MTEXT_DEFINED_HEIGHT_BEGIN
1070
    46
1040
28.5128642578125
1000
ACAD_MTEXT_DEFINED_HEIGHT_END
  0
MTEXT
  5
7D9
330
A
100
AcDbEntity
  8
TEMPLATE
390
1D
100
AcDbMText
 10
125.2543452760364
 20
226.8119760293952
 30
0.0
 40
24.4326171875
 41
0.0
 46
67.394517578125
 71
     1
 72
     1
  1
{ウォッシュダウン式、ソフトクローズ便座\P陶器/ホワイト}
  7
ＭＳ ゴシック
 73
     1
 44
0.9331787841240657
1001
ACAD
1000
ACAD_MTEXT_DEFINED_HEIGHT_BEGIN
1070
    46
1040
67.394517578125
1000
ACAD_MTEXT_DEFINED_HEIGHT_END
  0
INSERT
  5
68C
330
A
100
AcDbEntity
  8
TEMPLATE
100
AcDbBlockReference
  2
block 2
 10
919.2743017702577
 20
8.373076514336368
 30
0.0
 41
0.3809999999999999
 42
0.3809999999999999
 43
0.3809999999999999
  0
LWPOLYLINE
  5
DAC
330
A
100
AcDbEntity
  8
BORDER
100
AcDbPolyline
 90
        4
 70
     1
 43
0.0
 10
0.0
 20
0.0
 10
0.0
 20
2970.0
 10
2100.0
 20
2970.0
 10
2100.0
 20
0.0
  0
MTEXT
  5
1466
102
{ACAD_XDICTIONARY
360
1468
102
}
330
A
100
AcDbEntity
  8
TEMPLATE
 48
0.05
100
AcDbMText
 10
74.728656548571
 20
83.86172105142839
 30
0.0
 40
22.0
 41
0.0
 46
22.0
 71
     1
 72
     1
  1
{20191128N}
  7
ＭＳ ゴシック
 73
     1
 44
1.0
1001
ACAD
1000
ACAD_MTEXT_DEFINED_HEIGHT_BEGIN
1070
    46
1040
22.0
1000
ACAD_MTEXT_DEFINED_HEIGHT_END
  0
POINT
  5
262A
330
A
100
AcDbEntity
  8
Layer9
  6
Continuous
 62
     7
100
AcDbPoint
 10
1037.460145007193
 20
1010.220672371878
 30
0.0
  0
POINT
  5
262B
330
A
100
AcDbEntity
  8
Layer9
  6
Continuous
 62
     7
100
AcDbPoint
 10
1037.460146257193
 20
1010.220672788578
 30
0.0
  0
POINT
  5
262C
330
A
100
AcDbEntity
  8
Layer9
  6
Continuous
 62
     7
100
AcDbPoint
 10
1037.853693340493
 20
1015.267975288578
 30
0.0
  0
POINT
  5
2812
330
A
100
AcDbEntity
  8
Layer9
  6
Continuous
 62
     7
100
AcDbPoint
 10
925.7934783404928
 20
1010.220672371878
 30
0.0
  0
POINT
  5
2813
330
A
100
AcDbEntity
  8
Layer9
  6
Continuous
 62
     7
100
AcDbPoint
 10
925.7934795904928
 20
1010.220672788578
 30
0.0
  0
POINT
  5
2814
330
A
100
AcDbEntity
  8
Layer9
  6
Continuous
 62
     7
100
AcDbPoint
 10
926.1870266737928
 20
1015.267975288578
 30
0.0
  0
INSERT
  5
28CA
330
A
100
AcDbEntity
  8
Layer3
100
AcDbBlockReference
  2
SEANNOT_GROUP
 10
859.7083018867928
 20
826.1905269541776
 30
0.0
  0
POINT
  5
2A52
330
A
100
AcDbEntity
  8
Standard
  6
Continuous
 62
     7
100
AcDbPoint
 10
1036.111241014893
 20
1018.794321538578
 30
0.0
  0
INSERT
  5
2B9B
330
A
100
AcDbEntity
  8
Layer3
100
AcDbBlockReference
  2
SEANNOT_GROUP1
 10
859.7083018867928
 20
826.1905269541776
 30
0.0
  0
HATCH
  5
369B
102
{ACAD_REACTORS
330
36AC
102
}
330
A
100
AcDbEntity
  8
TEMPLATE
100
AcDbHatch
 10
0.0
 20
0.0
 30
0.0
210
0.0
220
0.0
230
1.0
  2
SOLID
 70
     1
 71
     1
 91
        6
 92
        1
 93
        8
 72
     1
 10
1934.476782902687
 20
153.1053194253001
 11
1934.476782902687
 21
147.1959117946397
 72
     1
 10
1934.476782902687
 20
147.1959117946397
 11
1925.116191352377
 21
147.1959117946397
 72
     1
 10
1925.116191352377
 20
147.1959117946397
 11
1925.116191352377
 21
123.105319426746
 72
     1
 10
1925.116191352377
 20
123.105319426746
 11
1916.883578199102
 21
123.105319426746
 72
     1
 10
1916.883578199102
 20
123.105319426746
 11
1916.883578199102
 21
147.1959117946397
 72
     1
 10
1916.883578199102
 20
147.1959117946397
 11
1907.688876764557
 21
147.1959117946397
 72
     1
 10
1907.688876764557
 20
147.1959117946397
 11
1907.688876764557
 21
153.1053194253001
 72
     1
 10
1907.688876764557
 20
153.1053194253001
 11
1934.476782902687
 21
153.1053194253001
 97
        1
330
369C
 92
        1
 93
        1
 72
     4
 94
        3
 73
     0
 74
     1
 95
       56
 96
       52
 40
0.0
 40
0.0
 40
0.0
 40
0.0
 40
1.0
 40
1.0
 40
1.0
 40
2.0
 40
2.0
 40
2.0
 40
3.0
 40
3.0
 40
3.0
 40
4.0
 40
4.0
 40
4.0
 40
5.0
 40
5.0
 40
5.0
 40
6.0
 40
6.0
 40
6.0
 40
7.0
 40
7.0
 40
7.0
 40
8.0
 40
8.0
 40
8.0
 40
9.0
 40
9.0
 40
9.0
 40
10.0
 40
10.0
 40
10.0
 40
11.0
 40
11.0
 40
11.0
 40
12.0
 40
12.0
 40
12.0
 40
13.0
 40
13.0
 40
13.0
 40
14.0
 40
14.0
 40
14.0
 40
15.0
 40
15.0
 40
15.0
 40
16.0
 40
16.0
 40
16.0
 40
17.0
 40
17.0
 40
17.0
 40
17.0
 10
1947.01896833698
 20
152.3909504648878
 10
1948.1728345189
 20
152.715738018898
 10
1949.662423612235
 20
152.4440650580081
 10
1949.662423612235
 20
152.4440650580081
 10
1949.662423612235
 20
152.4440650580081
 10
1948.946790018651
 20
150.2964947655846
 10
1948.946790018651
 20
150.2964947655846
 10
1948.946790018651
 20
150.2964947655846
 10
1947.484427733556
 20
150.6348957237139
 10
1946.356523726704
 20
149.7454866546012
 10
1945.480058550036
 20
149.0499384113589
 10
1944.912238256914
 20
147.2017886193686
 10
1944.69442379101
 20
146.4990989182278
 10
1944.69442379101
 20
146.4990989182278
 10
1943.723334297183
 20
143.518432927829
 10
1943.723334297183
 20
143.518432927829
 10
1943.723334297183
 20
143.518432927829
 10
1946.907457447503
 20
143.518432927829
 10
1946.907457447503
 20
143.518432927829
 10
1946.907457447503
 20
143.518432927829
 10
1946.412241976351
 20
141.642461206109
 10
1946.412241976351
 20
141.642461206109
 10
1946.412241976351
 20
141.642461206109
 10
1943.202156650962
 20
141.642461206109
 10
1943.202156650962
 20
141.642461206109
 10
1943.202156650962
 20
141.642461206109
 10
1937.458713526257
 20
123.105319426746
 10
1937.458713526257
 20
123.105319426746
 10
1937.458713526257
 20
123.105319426746
 10
1935.660479549369
 20
123.105319426746
 10
1935.660479549369
 20
123.105319426746
 10
1935.660479549369
 20
123.105319426746
 10
1941.409129987127
 20
141.642461206109
 10
1941.409129987127
 20
141.642461206109
 10
1941.409129987127
 20
141.642461206109
 10
1939.040397670409
 20
141.642461206109
 10
1939.040397670409
 20
141.642461206109
 10
1939.040397670409
 20
141.642461206109
 10
1939.536952164915
 20
143.518432927829
 10
1939.536952164915
 20
143.518432927829
 10
1939.536952164915
 20
143.518432927829
 10
1941.930307633347
 20
143.518432927829
 10
1941.930307633347
 20
143.518432927829
 10
1941.930307633347
 20
143.518432927829
 10
1942.77686795507
 20
146.1179236028939
 10
1942.77686795507
 20
146.1179236028939
 10
1943.461406450716
 20
148.2973328951149
 10
1944.042245026465
 20
149.4674161376772
 10
1944.540138544327
 20
150.3496093587049
 10
1945.032750358952
 20
151.232546481597
 10
1946.007708142475
 20
152.0998616653363
 10
1947.01896833698
 20
152.3909504648878
 97
        1
330
36A7
 92
        1
 93
        1
 72
     4
 94
        3
 73
     0
 74
     1
 95
       32
 96
       28
 40
0.0
 40
0.0
 40
0.0
 40
0.0
 40
1.0
 40
1.0
 40
1.0
 40
2.0
 40
2.0
 40
2.0
 40
3.0
 40
3.0
 40
3.0
 40
4.0
 40
4.0
 40
4.0
 40
5.0
 40
5.0
 40
5.0
 40
6.0
 40
6.0
 40
6.0
 40
7.0
 40
7.0
 40
7.0
 40
8.0
 40
8.0
 40
8.0
 40
9.0
 40
9.0
 40
9.0
 40
9.0
 10
1951.394524713372
 20
142.3847264864374
 10
1950.311998720255
 20
140.9844800070205
 10
1949.478382290974
 20
139.7243102486757
 10
1948.128795528524
 20
135.7635535518901
 10
1946.888041608841
 20
132.1406026917421
 10
1946.098464169936
 20
129.5048096056932
 10
1945.979216701069
 20
126.2947242803041
 10
1945.888460673606
 20
123.9059066132458
 10
1947.343086379314
 20
123.105319426746
 10
1949.475853024634
 20
123.105319426746
 10
1950.395018168326
 20
123.105319426746
 10
1952.714504181618
 20
123.1637901132903
 10
1954.3662638814
 20
125.2056519507783
 10
1955.522584939468
 20
126.6401923061455
 10
1956.588298750451
 20
128.1272521331414
 10
1958.017036671275
 20
133.0053142189559
 10
1959.205940631009
 20
137.0833842397621
 10
1960.029142434186
 20
139.7191029356247
 10
1959.968291261677
 20
141.2197761667398
 10
1959.968291261677
 20
141.2197761667398
 10
1959.968291261677
 20
141.2197761667398
 10
1959.968291261677
 20
141.2197761667398
 10
1959.580569609936
 20
143.7233035012931
 10
1957.762919794387
 20
144.2522921170894
 10
1956.724432791643
 20
144.2522921170894
 10
1955.70156772805
 20
144.2522921170894
 10
1952.960735698745
 20
144.4292663706373
 10
1951.394524713372
 20
142.3847264864374
 97
        1
330
36AA
 92
        1
 93
        1
 72
     4
 94
        3
 73
     0
 74
     1
 95
       38
 96
       34
 40
0.0
 40
0.0
 40
0.0
 40
0.0
 40
1.0
 40
1.0
 40
1.0
 40
2.0
 40
2.0
 40
2.0
 40
3.0
 40
3.0
 40
3.0
 40
4.0
 40
4.0
 40
4.0
 40
5.0
 40
5.0
 40
5.0
 40
6.0
 40
6.0
 40
6.0
 40
7.0
 40
7.0
 40
7.0
 40
8.0
 40
8.0
 40
8.0
 40
9.0
 40
9.0
 40
9.0
 40
10.0
 40
10.0
 40
10.0
 40
11.0
 40
11.0
 40
11.0
 40
11.0
 10
1966.542747159137
 20
143.4464976175386
 10
1966.542747159137
 20
143.4464976175386
 10
1968.39149207262
 20
143.4464976175386
 10
1968.39149207262
 20
143.4464976175386
 10
1968.39149207262
 20
143.4464976175386
 10
1967.56561222273
 20
140.8022984404216
 10
1967.56561222273
 20
140.8022984404216
 10
1968.193167835563
 20
141.54456372075
 10
1969.183598777865
 20
142.5331349083912
 10
1970.034176169654
 20
143.0316235477459
 10
1971.304760554101
 20
143.7738888280742
 10
1972.030808773784
 20
143.8717863134333
 10
1972.829313035064
 20
143.8522960845852
 10
1972.829313035064
 20
143.8522960845852
 10
1972.048959979278
 20
141.3520419182353
 10
1972.048959979278
 20
141.3520419182353
 10
1971.540726225497
 20
141.5672527276151
 10
1969.974515240128
 20
141.1575859708734
 10
1969.076030568268
 20
140.5112840310564
 10
1968.265772657532
 20
139.9285113104618
 10
1967.705614553615
 20
139.4326263276327
 10
1967.04190531017
 20
138.1859955832205
 10
1966.383254599404
 20
136.9375050841474
 10
1965.86341597654
 20
134.9467493047458
 10
1964.968799594376
 20
132.058773486655
 10
1964.968799594376
 20
132.058773486655
 10
1962.174852971949
 20
123.105319426746
 10
1962.174852971949
 20
123.105319426746
 10
1962.174852971949
 20
123.105319426746
 10
1960.380561674943
 20
123.105319426746
 10
1960.380561674943
 20
123.105319426746
 10
1960.380561674943
 20
123.105319426746
 10
1966.542747159137
 20
143.4464976175386
 10
1966.542747159137
 20
143.4464976175386
 97
        1
330
36A8
 92
        1
 93
        1
 72
     4
 94
        3
 73
     0
 74
     1
 95
      104
 96
      100
 40
0.0
 40
0.0
 40
0.0
 40
0.0
 40
1.0
 40
1.0
 40
1.0
 40
2.0
 40
2.0
 40
2.0
 40
3.0
 40
3.0
 40
3.0
 40
4.0
 40
4.0
 40
4.0
 40
5.0
 40
5.0
 40
5.0
 40
6.0
 40
6.0
 40
6.0
 40
7.0
 40
7.0
 40
7.0
 40
8.0
 40
8.0
 40
8.0
 40
9.0
 40
9.0
 40
9.0
 40
10.0
 40
10.0
 40
10.0
 40
11.0
 40
11.0
 40
11.0
 40
12.0
 40
12.0
 40
12.0
 40
13.0
 40
13.0
 40
13.0
 40
14.0
 40
14.0
 40
14.0
 40
15.0
 40
15.0
 40
15.0
 40
16.0
 40
16.0
 40
16.0
 40
17.0
 40
17.0
 40
17.0
 40
18.0
 40
18.0
 40
18.0
 40
19.0
 40
19.0
 40
19.0
 40
20.0
 40
20.0
 40
20.0
 40
21.0
 40
21.0
 40
21.0
 40
22.0
 40
22.0
 40
22.0
 40
23.0
 40
23.0
 40
23.0
 40
24.0
 40
24.0
 40
24.0
 40
25.0
 40
25.0
 40
25.0
 40
26.0
 40
26.0
 40
26.0
 40
27.0
 40
27.0
 40
27.0
 40
28.0
 40
28.0
 40
28.0
 40
29.0
 40
29.0
 40
29.0
 40
30.0
 40
30.0
 40
30.0
 40
31.0
 40
31.0
 40
31.0
 40
32.0
 40
32.0
 40
32.0
 40
33.0
 40
33.0
 40
33.0
 40
33.0
 10
1976.718878323425
 20
143.4575073651321
 10
1976.718878323425
 20
143.4575073651321
 10
1978.332996588864
 20
143.4575073651321
 10
1978.332996588864
 20
143.4575073651321
 10
1978.332996588864
 20
143.4575073651321
 10
1977.517531365076
 20
140.810778921676
 10
1977.517531365076
 20
140.810778921676
 10
1978.225279598895
 20
141.920531723033
 10
1978.860571791119
 20
142.4151520726926
 10
1979.704602846502
 20
143.054312554611
 10
1980.551163168223
 20
143.6843974337833
 10
1981.556025806694
 20
143.812794895584
 10
1982.253508194784
 20
143.812794895584
 10
1983.117029479015
 20
143.812794895584
 10
1983.950645908296
 20
143.6422925882567
 10
1984.388804106443
 20
142.6958262461422
 10
1984.72460140805
 20
141.9536353560001
 10
1984.740223347202
 20
141.8660781065566
 10
1984.644260006691
 20
140.4010377747479
 10
1985.521915426345
 20
141.9030500292188
 10
1986.170151511008
 20
142.5500214807137
 10
1987.272167732975
 20
143.1716258786317
 10
1988.42863757142
 20
143.812794895584
 10
1989.102761440966
 20
143.8607765658398
 10
1989.885941323838
 20
143.7453229964802
 10
1991.039733115569
 20
143.5748950793392
 10
1991.776195961356
 20
143.1632197875635
 10
1992.161239566385
 20
141.9121256319649
 10
1992.54762219477
 20
140.6648997660613
 10
1992.338883331611
 20
139.9959088193793
 10
1991.861744675765
 20
138.0103603530286
 10
1991.64393020986
 20
137.1060732466272
 10
1991.328813380087
 20
136.0111240923725
 10
1990.916542966819
 20
134.7082543670094
 10
1990.916542966819
 20
134.7082543670094
 10
1987.272167732975
 20
123.105319426746
 10
1987.272167732975
 20
123.105319426746
 10
1987.272167732975
 20
123.105319426746
 10
1985.376705782409
 20
123.105319426746
 10
1985.376705782409
 20
123.105319426746
 10
1985.376705782409
 20
123.105319426746
 10
1988.567449659321
 20
133.2490164697431
 10
1988.567449659321
 20
133.2490164697431
 10
1989.233836949479
 20
135.3713684889626
 10
1989.684939040069
 20
136.9212880235028
 10
1989.918375445127
 20
137.893047029008
 10
1990.211323999339
 20
139.1052351170969
 10
1990.327967811683
 20
139.505231149601
 10
1990.189304504152
 20
140.3874987608153
 10
1990.062246065708
 20
141.2087664191461
 10
1989.647297605728
 20
141.7435574694851
 10
1988.936871325198
 20
141.7435574694851
 10
1988.17972800758
 20
141.7435574694851
 10
1987.566455310545
 20
141.659273388245
 10
1986.708290119737
 20
140.7971655175569
 10
1985.84997614856
 20
139.9285113104618
 10
1985.140740111011
 20
138.9088450248874
 10
1984.584599077163
 20
137.7361581257997
 10
1984.029648286297
 20
136.5563297688134
 10
1983.466960916042
 20
135.0608638507494
 10
1982.896536966398
 20
133.2490164697431
 10
1982.896536966398
 20
133.2490164697431
 10
1979.704602846502
 20
123.105319426746
 10
1979.704602846502
 20
123.105319426746
 10
1979.704602846502
 20
123.105319426746
 10
1977.921916418581
 20
123.105319426746
 10
1977.921916418581
 20
123.105319426746
 10
1977.921916418581
 20
123.105319426746
 10
1981.571498965475
 20
134.7030470539584
 10
1981.571498965475
 20
134.7030470539584
 10
1981.956542570504
 20
135.9373290274211
 10
1982.245771615394
 20
136.9433819088763
 10
1982.436359273062
 20
137.729686179579
 10
1982.760402925207
 20
139.0832156219098
 10
1982.851158952669
 20
139.9985124759046
 10
1982.606117678524
 20
140.810778921676
 10
1982.364944694076
 20
141.6204417109219
 10
1981.941069411725
 20
141.8272464292334
 10
1981.233172397533
 20
141.8272464292334
 10
1980.639389929345
 20
141.8272464292334
 10
1980.059890376953
 20
141.5724600406662
 10
1979.398710399847
 20
141.0654909200569
 10
1978.566284213549
 20
140.4276694614944
 10
1978.233164958657
 20
139.9038881587491
 10
1977.824762835085
 20
139.2815398589669
 10
1977.273680333915
 20
138.458263665602
 10
1977.015695167332
 20
137.9040567766015
 10
1976.550310160944
 20
136.687926008631
 10
1976.084776374184
 20
135.4646537827621
 10
1975.644088909695
 20
134.0411231749885
 10
1975.336708659311
 20
133.0564946672286
 10
1975.336708659311
 20
133.0564946672286
 10
1972.205774492298
 20
123.105319426746
 10
1972.205774492298
 20
123.105319426746
 10
1972.205774492298
 20
123.105319426746
 10
1970.338878373326
 20
123.105319426746
 10
1970.338878373326
 20
123.105319426746
 10
1970.338878373326
 20
123.105319426746
 10
1976.718878323425
 20
143.4575073651321
 10
1976.718878323425
 20
143.4575073651321
 97
        1
330
36A9
 92
       16
 93
        1
 72
     4
 94
        3
 73
     0
 74
     1
 95
       29
 96
       25
 40
0.0
 40
0.0
 40
0.0
 40
0.0
 40
1.0
 40
1.0
 40
1.0
 40
2.0
 40
2.0
 40
2.0
 40
3.0
 40
3.0
 40
3.0
 40
4.0
 40
4.0
 40
4.0
 40
5.0
 40
5.0
 40
5.0
 40
6.0
 40
6.0
 40
6.0
 40
7.0
 40
7.0
 40
7.0
 40
8.0
 40
8.0
 40
8.0
 40
8.0
 10
1947.916188375669
 20
126.8949043045264
 10
1947.908303015907
 20
128.3120373562658
 10
1948.355685597176
 20
130.8298476066162
 10
1949.501740809517
 20
134.1986815898748
 10
1951.062744481836
 20
138.7603622127471
 10
1951.998870588036
 20
140.4276694614944
 10
1952.818055321147
 20
141.2392663955878
 10
1954.014844640642
 20
142.4210288974216
 10
1955.623755593032
 20
142.4799459250845
 10
1956.098364982539
 20
142.4210288974216
 10
1956.77382787544
 20
142.3399435941987
 10
1957.727956406759
 20
141.8978427161679
 10
1957.784939289575
 20
140.4095182560024
 10
1957.830466083678
 20
139.1357350935386
 10
1957.463424903768
 20
136.7501905946838
 10
1956.178706383896
 20
133.0053142189559
 10
1954.698044112936
 20
128.6536370924121
 10
1953.808635043822
 20
126.9429603649685
 10
1953.095679496951
 20
126.1974219164366
 10
1951.752490290537
 20
124.7997790935452
 10
1950.311998720255
 20
124.9339789898883
 10
1950.0993915674
 20
124.9339789898883
 10
1949.823255195324
 20
124.9339789898883
 10
1947.920056665365
 20
125.2336226608809
 10
1947.916188375669
 20
126.8949043045264
 97
        1
330
36AB
 75
     0
 76
     1
 98
        1
 10
1859.334883625664
 20
72.26751235270598
1001
ACAD
1010
0.0
1020
0.0
1030
0.0
  0
POLYLINE
  5
369C
102
{ACAD_REACTORS
330
369B
330
36AC
102
}
330
A
100
AcDbEntity
  8
TEMPLATE
100
AcDb2dPolyline
 66
     1
 10
0.0
 20
0.0
 30
0.0
  0
VERTEX
  5
369D
330
369C
100
AcDbEntity
  8
TEMPLATE
100
AcDbVertex
100
AcDb2dVertex
 10
1934.476782902687
 20
153.1053194253001
 30
0.0
  0
VERTEX
  5
369E
330
369C
100
AcDbEntity
  8
TEMPLATE
100
AcDbVertex
100
AcDb2dVertex
 10
1934.476782902687
 20
147.1959117946397
 30
0.0
  0
VERTEX
  5
369F
330
369C
100
AcDbEntity
  8
TEMPLATE
100
AcDbVertex
100
AcDb2dVertex
 10
1925.116191352377
 20
147.1959117946397
 30
0.0
  0
VERTEX
  5
36A0
330
369C
100
AcDbEntity
  8
TEMPLATE
100
AcDbVertex
100
AcDb2dVertex
 10
1925.116191352377
 20
123.105319426746
 30
0.0
  0
VERTEX
  5
36A1
330
369C
100
AcDbEntity
  8
TEMPLATE
100
AcDbVertex
100
AcDb2dVertex
 10
1916.883578199102
 20
123.105319426746
 30
0.0
  0
VERTEX
  5
36A2
330
369C
100
AcDbEntity
  8
TEMPLATE
100
AcDbVertex
100
AcDb2dVertex
 10
1916.883578199102
 20
147.1959117946397
 30
0.0
  0
VERTEX
  5
36A3
330
369C
100
AcDbEntity
  8
TEMPLATE
100
AcDbVertex
100
AcDb2dVertex
 10
1907.688876764557
 20
147.1959117946397
 30
0.0
  0
VERTEX
  5
36A4
330
369C
100
AcDbEntity
  8
TEMPLATE
100
AcDbVertex
100
AcDb2dVertex
 10
1907.688876764557
 20
153.1053194253001
 30
0.0
  0
VERTEX
  5
36A5
330
369C
100
AcDbEntity
  8
TEMPLATE
100
AcDbVertex
100
AcDb2dVertex
 10
1934.476782902687
 20
153.1053194253001
 30
0.0
  0
SEQEND
  5
36A6
330
369C
100
AcDbEntity
  8
TEMPLATE
  0
SPLINE
  5
36A7
102
{ACAD_REACTORS
330
369B
330
36AC
102
}
330
A
100
AcDbEntity
  8
TEMPLATE
100
AcDbSpline
210
0.0
220
0.0
230
1.0
 70
    11
 71
     3
 72
    56
 73
    52
 74
     0
 42
0.000000001
 43
0.0000000001
 40
0.0
 40
0.0
 40
0.0
 40
0.0
 40
1.0
 40
1.0
 40
1.0
 40
2.0
 40
2.0
 40
2.0
 40
3.0
 40
3.0
 40
3.0
 40
4.0
 40
4.0
 40
4.0
 40
5.0
 40
5.0
 40
5.0
 40
6.0
 40
6.0
 40
6.0
 40
7.0
 40
7.0
 40
7.0
 40
8.0
 40
8.0
 40
8.0
 40
9.0
 40
9.0
 40
9.0
 40
10.0
 40
10.0
 40
10.0
 40
11.0
 40
11.0
 40
11.0
 40
12.0
 40
12.0
 40
12.0
 40
13.0
 40
13.0
 40
13.0
 40
14.0
 40
14.0
 40
14.0
 40
15.0
 40
15.0
 40
15.0
 40
16.0
 40
16.0
 40
16.0
 40
17.0
 40
17.0
 40
17.0
 40
17.0
 10
1947.01896833698
 20
152.3909504648878
 30
0.0
 10
1948.1728345189
 20
152.715738018898
 30
0.0
 10
1949.662423612235
 20
152.4440650580081
 30
0.0
 10
1949.662423612235
 20
152.4440650580081
 30
0.0
 10
1949.662423612235
 20
152.4440650580081
 30
0.0
 10
1948.946790018651
 20
150.2964947655846
 30
0.0
 10
1948.946790018651
 20
150.2964947655846
 30
0.0
 10
1948.946790018651
 20
150.2964947655846
 30
0.0
 10
1947.484427733556
 20
150.6348957237139
 30
0.0
 10
1946.356523726704
 20
149.7454866546012
 30
0.0
 10
1945.480058550036
 20
149.0499384113589
 30
0.0
 10
1944.912238256914
 20
147.2017886193686
 30
0.0
 10
1944.69442379101
 20
146.4990989182278
 30
0.0
 10
1944.69442379101
 20
146.4990989182278
 30
0.0
 10
1943.723334297183
 20
143.518432927829
 30
0.0
 10
1943.723334297183
 20
143.518432927829
 30
0.0
 10
1943.723334297183
 20
143.518432927829
 30
0.0
 10
1946.907457447503
 20
143.518432927829
 30
0.0
 10
1946.907457447503
 20
143.518432927829
 30
0.0
 10
1946.907457447503
 20
143.518432927829
 30
0.0
 10
1946.412241976351
 20
141.642461206109
 30
0.0
 10
1946.412241976351
 20
141.642461206109
 30
0.0
 10
1946.412241976351
 20
141.642461206109
 30
0.0
 10
1943.202156650962
 20
141.642461206109
 30
0.0
 10
1943.202156650962
 20
141.642461206109
 30
0.0
 10
1943.202156650962
 20
141.642461206109
 30
0.0
 10
1937.458713526257
 20
123.105319426746
 30
0.0
 10
1937.458713526257
 20
123.105319426746
 30
0.0
 10
1937.458713526257
 20
123.105319426746
 30
0.0
 10
1935.660479549369
 20
123.105319426746
 30
0.0
 10
1935.660479549369
 20
123.105319426746
 30
0.0
 10
1935.660479549369
 20
123.105319426746
 30
0.0
 10
1941.409129987127
 20
141.642461206109
 30
0.0
 10
1941.409129987127
 20
141.642461206109
 30
0.0
 10
1941.409129987127
 20
141.642461206109
 30
0.0
 10
1939.040397670409
 20
141.642461206109
 30
0.0
 10
1939.040397670409
 20
141.642461206109
 30
0.0
 10
1939.040397670409
 20
141.642461206109
 30
0.0
 10
1939.536952164915
 20
143.518432927829
 30
0.0
 10
1939.536952164915
 20
143.518432927829
 30
0.0
 10
1939.536952164915
 20
143.518432927829
 30
0.0
 10
1941.930307633347
 20
143.518432927829
 30
0.0
 10
1941.930307633347
 20
143.518432927829
 30
0.0
 10
1941.930307633347
 20
143.518432927829
 30
0.0
 10
1942.77686795507
 20
146.1179236028939
 30
0.0
 10
1942.77686795507
 20
146.1179236028939
 30
0.0
 10
1943.461406450716
 20
148.2973328951149
 30
0.0
 10
1944.042245026465
 20
149.4674161376772
 30
0.0
 10
1944.540138544327
 20
150.3496093587049
 30
0.0
 10
1945.032750358952
 20
151.232546481597
 30
0.0
 10
1946.007708142475
 20
152.0998616653363
 30
0.0
 10
1947.01896833698
 20
152.3909504648878
 30
0.0
  0
SPLINE
  5
36A8
102
{ACAD_REACTORS
330
369B
330
36AC
102
}
330
A
100
AcDbEntity
  8
TEMPLATE
100
AcDbSpline
210
0.0
220
0.0
230
1.0
 70
    11
 71
     3
 72
    38
 73
    34
 74
     0
 42
0.000000001
 43
0.0000000001
 40
0.0
 40
0.0
 40
0.0
 40
0.0
 40
1.0
 40
1.0
 40
1.0
 40
2.0
 40
2.0
 40
2.0
 40
3.0
 40
3.0
 40
3.0
 40
4.0
 40
4.0
 40
4.0
 40
5.0
 40
5.0
 40
5.0
 40
6.0
 40
6.0
 40
6.0
 40
7.0
 40
7.0
 40
7.0
 40
8.0
 40
8.0
 40
8.0
 40
9.0
 40
9.0
 40
9.0
 40
10.0
 40
10.0
 40
10.0
 40
11.0
 40
11.0
 40
11.0
 40
11.0
 10
1966.542747159137
 20
143.4464976175386
 30
0.0
 10
1966.542747159137
 20
143.4464976175386
 30
0.0
 10
1968.39149207262
 20
143.4464976175386
 30
0.0
 10
1968.39149207262
 20
143.4464976175386
 30
0.0
 10
1968.39149207262
 20
143.4464976175386
 30
0.0
 10
1967.56561222273
 20
140.8022984404216
 30
0.0
 10
1967.56561222273
 20
140.8022984404216
 30
0.0
 10
1968.193167835563
 20
141.54456372075
 30
0.0
 10
1969.183598777865
 20
142.5331349083912
 30
0.0
 10
1970.034176169654
 20
143.0316235477459
 30
0.0
 10
1971.304760554101
 20
143.7738888280742
 30
0.0
 10
1972.030808773784
 20
143.8717863134333
 30
0.0
 10
1972.829313035064
 20
143.8522960845852
 30
0.0
 10
1972.829313035064
 20
143.8522960845852
 30
0.0
 10
1972.048959979278
 20
141.3520419182353
 30
0.0
 10
1972.048959979278
 20
141.3520419182353
 30
0.0
 10
1971.540726225497
 20
141.5672527276151
 30
0.0
 10
1969.974515240128
 20
141.1575859708734
 30
0.0
 10
1969.076030568268
 20
140.5112840310564
 30
0.0
 10
1968.265772657532
 20
139.9285113104618
 30
0.0
 10
1967.705614553615
 20
139.4326263276327
 30
0.0
 10
1967.04190531017
 20
138.1859955832205
 30
0.0
 10
1966.383254599404
 20
136.9375050841474
 30
0.0
 10
1965.86341597654
 20
134.9467493047458
 30
0.0
 10
1964.968799594376
 20
132.058773486655
 30
0.0
 10
1964.968799594376
 20
132.058773486655
 30
0.0
 10
1962.174852971949
 20
123.105319426746
 30
0.0
 10
1962.174852971949
 20
123.105319426746
 30
0.0
 10
1962.174852971949
 20
123.105319426746
 30
0.0
 10
1960.380561674943
 20
123.105319426746
 30
0.0
 10
1960.380561674943
 20
123.105319426746
 30
0.0
 10
1960.380561674943
 20
123.105319426746
 30
0.0
 10
1966.542747159137
 20
143.4464976175386
 30
0.0
 10
1966.542747159137
 20
143.4464976175386
 30
0.0
  0
SPLINE
  5
36A9
102
{ACAD_REACTORS
330
369B
330
36AC
102
}
330
A
100
AcDbEntity
  8
TEMPLATE
100
AcDbSpline
210
0.0
220
0.0
230
1.0
 70
    11
 71
     3
 72
   104
 73
   100
 74
     0
 42
0.000000001
 43
0.0000000001
 40
0.0
 40
0.0
 40
0.0
 40
0.0
 40
1.0
 40
1.0
 40
1.0
 40
2.0
 40
2.0
 40
2.0
 40
3.0
 40
3.0
 40
3.0
 40
4.0
 40
4.0
 40
4.0
 40
5.0
 40
5.0
 40
5.0
 40
6.0
 40
6.0
 40
6.0
 40
7.0
 40
7.0
 40
7.0
 40
8.0
 40
8.0
 40
8.0
 40
9.0
 40
9.0
 40
9.0
 40
10.0
 40
10.0
 40
10.0
 40
11.0
 40
11.0
 40
11.0
 40
12.0
 40
12.0
 40
12.0
 40
13.0
 40
13.0
 40
13.0
 40
14.0
 40
14.0
 40
14.0
 40
15.0
 40
15.0
 40
15.0
 40
16.0
 40
16.0
 40
16.0
 40
17.0
 40
17.0
 40
17.0
 40
18.0
 40
18.0
 40
18.0
 40
19.0
 40
19.0
 40
19.0
 40
20.0
 40
20.0
 40
20.0
 40
21.0
 40
21.0
 40
21.0
 40
22.0
 40
22.0
 40
22.0
 40
23.0
 40
23.0
 40
23.0
 40
24.0
 40
24.0
 40
24.0
 40
25.0
 40
25.0
 40
25.0
 40
26.0
 40
26.0
 40
26.0
 40
27.0
 40
27.0
 40
27.0
 40
28.0
 40
28.0
 40
28.0
 40
29.0
 40
29.0
 40
29.0
 40
30.0
 40
30.0
 40
30.0
 40
31.0
 40
31.0
 40
31.0
 40
32.0
 40
32.0
 40
32.0
 40
33.0
 40
33.0
 40
33.0
 40
33.0
 10
1976.718878323425
 20
143.4575073651321
 30
0.0
 10
1976.718878323425
 20
143.4575073651321
 30
0.0
 10
1978.332996588864
 20
143.4575073651321
 30
0.0
 10
1978.332996588864
 20
143.4575073651321
 30
0.0
 10
1978.332996588864
 20
143.4575073651321
 30
0.0
 10
1977.517531365076
 20
140.810778921676
 30
0.0
 10
1977.517531365076
 20
140.810778921676
 30
0.0
 10
1978.225279598895
 20
141.920531723033
 30
0.0
 10
1978.860571791119
 20
142.4151520726926
 30
0.0
 10
1979.704602846502
 20
143.054312554611
 30
0.0
 10
1980.551163168223
 20
143.6843974337833
 30
0.0
 10
1981.556025806694
 20
143.812794895584
 30
0.0
 10
1982.253508194784
 20
143.812794895584
 30
0.0
 10
1983.117029479015
 20
143.812794895584
 30
0.0
 10
1983.950645908296
 20
143.6422925882567
 30
0.0
 10
1984.388804106443
 20
142.6958262461422
 30
0.0
 10
1984.72460140805
 20
141.9536353560001
 30
0.0
 10
1984.740223347202
 20
141.8660781065566
 30
0.0
 10
1984.644260006691
 20
140.4010377747479
 30
0.0
 10
1985.521915426345
 20
141.9030500292188
 30
0.0
 10
1986.170151511008
 20
142.5500214807137
 30
0.0
 10
1987.272167732975
 20
143.1716258786317
 30
0.0
 10
1988.42863757142
 20
143.812794895584
 30
0.0
 10
1989.102761440966
 20
143.8607765658398
 30
0.0
 10
1989.885941323838
 20
143.7453229964802
 30
0.0
 10
1991.039733115569
 20
143.5748950793392
 30
0.0
 10
1991.776195961356
 20
143.1632197875635
 30
0.0
 10
1992.161239566385
 20
141.9121256319649
 30
0.0
 10
1992.54762219477
 20
140.6648997660613
 30
0.0
 10
1992.338883331611
 20
139.9959088193793
 30
0.0
 10
1991.861744675765
 20
138.0103603530286
 30
0.0
 10
1991.64393020986
 20
137.1060732466272
 30
0.0
 10
1991.328813380087
 20
136.0111240923725
 30
0.0
 10
1990.916542966819
 20
134.7082543670094
 30
0.0
 10
1990.916542966819
 20
134.7082543670094
 30
0.0
 10
1987.272167732975
 20
123.105319426746
 30
0.0
 10
1987.272167732975
 20
123.105319426746
 30
0.0
 10
1987.272167732975
 20
123.105319426746
 30
0.0
 10
1985.376705782409
 20
123.105319426746
 30
0.0
 10
1985.376705782409
 20
123.105319426746
 30
0.0
 10
1985.376705782409
 20
123.105319426746
 30
0.0
 10
1988.567449659321
 20
133.2490164697431
 30
0.0
 10
1988.567449659321
 20
133.2490164697431
 30
0.0
 10
1989.233836949479
 20
135.3713684889626
 30
0.0
 10
1989.684939040069
 20
136.9212880235028
 30
0.0
 10
1989.918375445127
 20
137.893047029008
 30
0.0
 10
1990.211323999339
 20
139.1052351170969
 30
0.0
 10
1990.327967811683
 20
139.505231149601
 30
0.0
 10
1990.189304504152
 20
140.3874987608153
 30
0.0
 10
1990.062246065708
 20
141.2087664191461
 30
0.0
 10
1989.647297605728
 20
141.7435574694851
 30
0.0
 10
1988.936871325198
 20
141.7435574694851
 30
0.0
 10
1988.17972800758
 20
141.7435574694851
 30
0.0
 10
1987.566455310545
 20
141.659273388245
 30
0.0
 10
1986.708290119737
 20
140.7971655175569
 30
0.0
 10
1985.84997614856
 20
139.9285113104618
 30
0.0
 10
1985.140740111011
 20
138.9088450248874
 30
0.0
 10
1984.584599077163
 20
137.7361581257997
 30
0.0
 10
1984.029648286297
 20
136.5563297688134
 30
0.0
 10
1983.466960916042
 20
135.0608638507494
 30
0.0
 10
1982.896536966398
 20
133.2490164697431
 30
0.0
 10
1982.896536966398
 20
133.2490164697431
 30
0.0
 10
1979.704602846502
 20
123.105319426746
 30
0.0
 10
1979.704602846502
 20
123.105319426746
 30
0.0
 10
1979.704602846502
 20
123.105319426746
 30
0.0
 10
1977.921916418581
 20
123.105319426746
 30
0.0
 10
1977.921916418581
 20
123.105319426746
 30
0.0
 10
1977.921916418581
 20
123.105319426746
 30
0.0
 10
1981.571498965475
 20
134.7030470539584
 30
0.0
 10
1981.571498965475
 20
134.7030470539584
 30
0.0
 10
1981.956542570504
 20
135.9373290274211
 30
0.0
 10
1982.245771615394
 20
136.9433819088763
 30
0.0
 10
1982.436359273062
 20
137.729686179579
 30
0.0
 10
1982.760402925207
 20
139.0832156219098
 30
0.0
 10
1982.851158952669
 20
139.9985124759046
 30
0.0
 10
1982.606117678524
 20
140.810778921676
 30
0.0
 10
1982.364944694076
 20
141.6204417109219
 30
0.0
 10
1981.941069411725
 20
141.8272464292334
 30
0.0
 10
1981.233172397533
 20
141.8272464292334
 30
0.0
 10
1980.639389929345
 20
141.8272464292334
 30
0.0
 10
1980.059890376953
 20
141.5724600406662
 30
0.0
 10
1979.398710399847
 20
141.0654909200569
 30
0.0
 10
1978.566284213549
 20
140.4276694614944
 30
0.0
 10
1978.233164958657
 20
139.9038881587491
 30
0.0
 10
1977.824762835085
 20
139.2815398589669
 30
0.0
 10
1977.273680333915
 20
138.458263665602
 30
0.0
 10
1977.015695167332
 20
137.9040567766015
 30
0.0
 10
1976.550310160944
 20
136.687926008631
 30
0.0
 10
1976.084776374184
 20
135.4646537827621
 30
0.0
 10
1975.644088909695
 20
134.0411231749885
 30
0.0
 10
1975.336708659311
 20
133.0564946672286
 30
0.0
 10
1975.336708659311
 20
133.0564946672286
 30
0.0
 10
1972.205774492298
 20
123.105319426746
 30
0.0
 10
1972.205774492298
 20
123.105319426746
 30
0.0
 10
1972.205774492298
 20
123.105319426746
 30
0.0
 10
1970.338878373326
 20
123.105319426746
 30
0.0
 10
1970.338878373326
 20
123.105319426746
 30
0.0
 10
1970.338878373326
 20
123.105319426746
 30
0.0
 10
1976.718878323425
 20
143.4575073651321
 30
0.0
 10
1976.718878323425
 20
143.4575073651321
 30
0.0
  0
SPLINE
  5
36AA
102
{ACAD_REACTORS
330
369B
330
36AC
102
}
330
A
100
AcDbEntity
  8
TEMPLATE
100
AcDbSpline
210
0.0
220
0.0
230
1.0
 70
    11
 71
     3
 72
    32
 73
    28
 74
     0
 42
0.000000001
 43
0.0000000001
 40
0.0
 40
0.0
 40
0.0
 40
0.0
 40
1.0
 40
1.0
 40
1.0
 40
2.0
 40
2.0
 40
2.0
 40
3.0
 40
3.0
 40
3.0
 40
4.0
 40
4.0
 40
4.0
 40
5.0
 40
5.0
 40
5.0
 40
6.0
 40
6.0
 40
6.0
 40
7.0
 40
7.0
 40
7.0
 40
8.0
 40
8.0
 40
8.0
 40
9.0
 40
9.0
 40
9.0
 40
9.0
 10
1951.394524713372
 20
142.3847264864374
 30
0.0
 10
1950.311998720255
 20
140.9844800070205
 30
0.0
 10
1949.478382290974
 20
139.7243102486757
 30
0.0
 10
1948.128795528524
 20
135.7635535518901
 30
0.0
 10
1946.888041608841
 20
132.1406026917421
 30
0.0
 10
1946.098464169936
 20
129.5048096056932
 30
0.0
 10
1945.979216701069
 20
126.2947242803041
 30
0.0
 10
1945.888460673606
 20
123.9059066132458
 30
0.0
 10
1947.343086379314
 20
123.105319426746
 30
0.0
 10
1949.475853024634
 20
123.105319426746
 30
0.0
 10
1950.395018168326
 20
123.105319426746
 30
0.0
 10
1952.714504181618
 20
123.1637901132903
 30
0.0
 10
1954.3662638814
 20
125.2056519507783
 30
0.0
 10
1955.522584939468
 20
126.6401923061455
 30
0.0
 10
1956.588298750451
 20
128.1272521331414
 30
0.0
 10
1958.017036671275
 20
133.0053142189559
 30
0.0
 10
1959.205940631009
 20
137.0833842397621
 30
0.0
 10
1960.029142434186
 20
139.7191029356247
 30
0.0
 10
1959.968291261677
 20
141.2197761667398
 30
0.0
 10
1959.968291261677
 20
141.2197761667398
 30
0.0
 10
1959.968291261677
 20
141.2197761667398
 30
0.0
 10
1959.968291261677
 20
141.2197761667398
 30
0.0
 10
1959.580569609936
 20
143.7233035012931
 30
0.0
 10
1957.762919794387
 20
144.2522921170894
 30
0.0
 10
1956.724432791643
 20
144.2522921170894
 30
0.0
 10
1955.70156772805
 20
144.2522921170894
 30
0.0
 10
1952.960735698745
 20
144.4292663706373
 30
0.0
 10
1951.394524713372
 20
142.3847264864374
 30
0.0
  0
SPLINE
  5
36AB
102
{ACAD_REACTORS
330
369B
330
36AC
102
}
330
A
100
AcDbEntity
  8
TEMPLATE
100
AcDbSpline
210
0.0
220
0.0
230
1.0
 70
    11
 71
     3
 72
    29
 73
    25
 74
     0
 42
0.000000001
 43
0.0000000001
 40
0.0
 40
0.0
 40
0.0
 40
0.0
 40
1.0
 40
1.0
 40
1.0
 40
2.0
 40
2.0
 40
2.0
 40
3.0
 40
3.0
 40
3.0
 40
4.0
 40
4.0
 40
4.0
 40
5.0
 40
5.0
 40
5.0
 40
6.0
 40
6.0
 40
6.0
 40
7.0
 40
7.0
 40
7.0
 40
8.0
 40
8.0
 40
8.0
 40
8.0
 10
1947.916188375669
 20
126.8949043045264
 30
0.0
 10
1947.908303015907
 20
128.3120373562658
 30
0.0
 10
1948.355685597176
 20
130.8298476066162
 30
0.0
 10
1949.501740809517
 20
134.1986815898748
 30
0.0
 10
1951.062744481836
 20
138.7603622127471
 30
0.0
 10
1951.998870588036
 20
140.4276694614944
 30
0.0
 10
1952.818055321147
 20
141.2392663955878
 30
0.0
 10
1954.014844640642
 20
142.4210288974216
 30
0.0
 10
1955.623755593032
 20
142.4799459250845
 30
0.0
 10
1956.098364982539
 20
142.4210288974216
 30
0.0
 10
1956.77382787544
 20
142.3399435941987
 30
0.0
 10
1957.727956406759
 20
141.8978427161679
 30
0.0
 10
1957.784939289575
 20
140.4095182560024
 30
0.0
 10
1957.830466083678
 20
139.1357350935386
 30
0.0
 10
1957.463424903768
 20
136.7501905946838
 30
0.0
 10
1956.178706383896
 20
133.0053142189559
 30
0.0
 10
1954.698044112936
 20
128.6536370924121
 30
0.0
 10
1953.808635043822
 20
126.9429603649685
 30
0.0
 10
1953.095679496951
 20
126.1974219164366
 30
0.0
 10
1951.752490290537
 20
124.7997790935452
 30
0.0
 10
1950.311998720255
 20
124.9339789898883
 30
0.0
 10
1950.0993915674
 20
124.9339789898883
 30
0.0
 10
1949.823255195324
 20
124.9339789898883
 30
0.0
 10
1947.920056665365
 20
125.2336226608809
 30
0.0
 10
1947.916188375669
 20
126.8949043045264
 30
0.0
  0
INSERT
  5
39A3
330
A
100
AcDbEntity
  8
0
100
AcDbBlockReference
  2
block 2
 10
2698.826089635285
 20
1219.29949817153
 30
0.0
  0
POLYLINE
  5
3F22
330
A
100
AcDbEntity
  8
HIDDEN
 48
0.5
100
AcDb2dPolyline
 66
     1
 10
0.0
 20
0.0
 30
0.0
  0
VERTEX
  5
3F23
330
3F22
100
AcDbEntity
  8
HIDDEN
 48
0.5
100
AcDbVertex
100
AcDb2dVertex
 10
523.0400495721183
 20
1214.76134663996
 30
0.0
  0
VERTEX
  5
3F24
330
3F22
100
AcDbEntity
  8
HIDDEN
 48
0.5
100
AcDbVertex
100
AcDb2dVertex
 10
523.0400495721183
 20
1214.76134663996
 30
0.0
  0
SEQEND
  5
3F25
330
3F22
100
AcDbEntity
  8
HIDDEN
 48
0.5
  0
POLYLINE
  5
3F2E
330
A
100
AcDbEntity
  8
MODEL
  6
BORDER
 48
0.25
100
AcDb2dPolyline
 66
     1
 10
0.0
 20
0.0
 30
0.0
  0
VERTEX
  5
3F2F
330
3F2E
100
AcDbEntity
  8
MODEL
  6
BORDER
 48
0.25
100
AcDbVertex
100
AcDb2dVertex
 10
448.9307689718448
 20
1171.461601482602
 30
0.0
  0
VERTEX
  5
3F30
330
3F2E
100
AcDbEntity
  8
MODEL
  6
BORDER
 48
0.25
100
AcDbVertex
100
AcDb2dVertex
 10
361.5199073143713
 20
1171.461601482602
 30
0.0
  0
SEQEND
  5
3F31
330
3F2E
100
AcDbEntity
  8
MODEL
  6
BORDER
 48
0.25
  0
SPLINE
  5
3F46
102
{ACAD_REACTORS
330
424C
102
}
330
A
100
AcDbEntity
  8
HIDDEN
 48
0.5
100
AcDbSpline
210
0.0
220
0.0
230
1.0
 70
     8
 71
     3
 72
     8
 73
     4
 74
     0
 42
0.000000001
 43
0.0000000001
 40
0.0
 40
0.0
 40
0.0
 40
0.0
 40
1.0
 40
1.0
 40
1.0
 40
1.0
 10
499.5201147877156
 20
1243.517886413566
 30
0.0
 10
499.5315145167156
 20
1243.467553264242
 30
0.0
 10
499.5425358667976
 20
1243.418738326478
 30
0.0
 10
499.553127296002
 20
1243.371693554285
 30
0.0
  0
SPLINE
  5
3F47
102
{ACAD_REACTORS
330
424C
102
}
330
A
100
AcDbEntity
  8
HIDDEN
 48
0.5
100
AcDbSpline
210
0.0
220
0.0
230
1.0
 70
    24
 71
     3
 72
     8
 73
     4
 74
     0
 42
0.000000001
 43
0.0000000001
 40
0.0
 40
0.0
 40
0.0
 40
0.0
 40
1.0
 40
1.0
 40
1.0
 40
1.0
 10
399.1299358561723
 20
1121.004930780927
 30
0.0
 10
405.8237849304983
 20
1120.888089073023
 30
0.0
 10
412.5176340048174
 20
1120.771247365112
 30
0.0
 10
419.2114830791375
 20
1120.654405657202
 30
0.0
  0
SPLINE
  5
3F48
102
{ACAD_REACTORS
330
424C
102
}
330
A
100
AcDbEntity
  8
HIDDEN
 48
0.5
100
AcDbSpline
210
0.0
220
0.0
230
1.0
 70
    24
 71
     3
 72
     8
 73
     4
 74
     0
 42
0.000000001
 43
0.0000000001
 40
0.0
 40
0.0
 40
0.0
 40
0.0
 40
1.0
 40
1.0
 40
1.0
 40
1.0
 10
399.1299358561728
 20
1223.355382016978
 30
0.0
 10
403.7311143607876
 20
1223.435695981047
 30
0.0
 10
408.3322928654029
 20
1223.516009945117
 30
0.0
 10
412.9334713700191
 20
1223.59632390918
 30
0.0
  0
SPLINE
  5
3F49
102
{ACAD_REACTORS
330
424C
102
}
330
A
100
AcDbEntity
  8
HIDDEN
 48
0.5
100
AcDbSpline
210
0.0
220
0.0
230
1.0
 70
     8
 71
     3
 72
     8
 73
     4
 74
     0
 42
0.000000001
 43
0.0000000001
 40
0.0
 40
0.0
 40
0.0
 40
0.0
 40
1.0
 40
1.0
 40
1.0
 40
1.0
 10
396.2074298792095
 20
1228.796750199682
 30
0.0
 10
396.2160174932214
 20
1228.871932356145
 30
0.0
 10
396.2253154059063
 20
1228.947026565806
 30
0.0
 10
396.235323617258
 20
1229.02203282868
 30
0.0
  0
POLYLINE
  5
3F4A
330
A
100
AcDbEntity
  8
MODEL
 62
   250
420
  1842203
100
AcDb2dPolyline
 66
     1
 10
0.0
 20
0.0
 30
0.0
  0
VERTEX
  5
3F4B
330
3F4A
100
AcDbEntity
  8
MODEL
 62
   250
420
  1842203
100
AcDbVertex
100
AcDb2dVertex
 10
726.276592425223
 20
1176.180141903268
 30
0.0
  0
VERTEX
  5
3F4C
330
3F4A
100
AcDbEntity
  8
MODEL
100
AcDbVertex
100
AcDb2dVertex
 10
726.276592425223
 20
1176.180141903268
 30
0.0
  0
SEQEND
  5
3F4D
330
3F4A
100
AcDbEntity
  8
MODEL
 62
   250
420
  1842203
  0
POLYLINE
  5
3F4E
330
A
100
AcDbEntity
  8
MODEL
 62
   250
420
  1842203
100
AcDb2dPolyline
 66
     1
 10
0.0
 20
0.0
 30
0.0
  0
VERTEX
  5
3F4F
330
3F4E
100
AcDbEntity
  8
MODEL
 62
   250
420
  1842203
100
AcDbVertex
100
AcDb2dVertex
 10
726.271673177283
 20
1176.178262658443
 30
0.0
  0
VERTEX
  5
3F50
330
3F4E
100
AcDbEntity
  8
MODEL
100
AcDbVertex
100
AcDb2dVertex
 10
726.271673177283
 20
1176.178262658443
 30
0.0
  0
SEQEND
  5
3F51
330
3F4E
100
AcDbEntity
  8
MODEL
 62
   250
420
  1842203
  0
POLYLINE
  5
3F52
330
A
100
AcDbEntity
  8
HIDDEN
 48
0.5
100
AcDb2dPolyline
 66
     1
 10
0.0
 20
0.0
 30
0.0
  0
VERTEX
  5
3F53
330
3F52
100
AcDbEntity
  8
HIDDEN
 48
0.5
100
AcDbVertex
100
AcDb2dVertex
 10
496.1311450133521
 20
1260.475581521881
 30
0.0
  0
VERTEX
  5
3F54
330
3F52
100
AcDbEntity
  8
HIDDEN
 48
0.5
100
AcDbVertex
100
AcDb2dVertex
 10
496.1311450133521
 20
1260.475581521881
 30
0.0
  0
SEQEND
  5
3F55
330
3F52
100
AcDbEntity
  8
HIDDEN
 48
0.5
  0
SPLINE
  5
3F56
102
{ACAD_REACTORS
330
424C
102
}
330
A
100
AcDbEntity
  8
HIDDEN
 48
0.5
100
AcDbSpline
210
0.0
220
0.0
230
1.0
 70
     8
 71
     3
 72
     8
 73
     4
 74
     0
 42
0.000000001
 43
0.0000000001
 40
0.0
 40
0.0
 40
0.0
 40
0.0
 40
1.0
 40
1.0
 40
1.0
 40
1.0
 10
499.570182822134
 20
1243.317972844684
 30
0.0
 10
498.3706070032426
 20
1249.026385668527
 30
0.0
 10
497.0249970772315
 20
1255.458709306117
 30
0.0
 10
495.9322633194956
 20
1261.188534089427
 30
0.0
  0
POLYLINE
  5
3F57
330
A
100
AcDbEntity
  8
MODEL
 62
   250
420
  1842203
100
AcDb2dPolyline
 66
     1
 10
0.0
 20
0.0
 30
0.0
  0
VERTEX
  5
3F58
330
3F57
100
AcDbEntity
  8
MODEL
 62
   250
420
  1842203
100
AcDbVertex
100
AcDb2dVertex
 10
374.1440111303023
 20
1301.115339684251
 30
0.0
  0
VERTEX
  5
3F59
330
3F57
100
AcDbEntity
  8
MODEL
 62
   250
420
  1842203
100
AcDbVertex
100
AcDb2dVertex
 10
374.1410986851611
 20
1301.074838601817
 30
0.0
  0
VERTEX
  5
3F5A
330
3F57
100
AcDbEntity
  8
MODEL
 62
   250
420
  1842203
100
AcDbVertex
100
AcDb2dVertex
 10
374.1385152537714
 20
1301.034315202391
 30
0.0
  0
VERTEX
  5
3F5B
330
3F57
100
AcDbEntity
  8
MODEL
 62
   250
420
  1842203
100
AcDbVertex
100
AcDb2dVertex
 10
374.1362610011051
 20
1300.993772160202
 30
0.0
  0
VERTEX
  5
3F5C
330
3F57
100
AcDbEntity
  8
MODEL
 62
   250
420
  1842203
100
AcDbVertex
100
AcDb2dVertex
 10
374.1343360695423
 20
1300.953212150996
 30
0.0
  0
SEQEND
  5
3F5D
330
3F57
100
AcDbEntity
  8
MODEL
 62
   250
420
  1842203
  0
SPLINE
  5
3F63
102
{ACAD_REACTORS
330
424C
102
}
330
A
100
AcDbEntity
  8
HIDDEN
 48
0.5
100
AcDbSpline
210
0.0
220
0.0
230
1.0
 70
     8
 71
     3
 72
     8
 73
     4
 74
     0
 42
0.000000001
 43
0.0000000001
 40
0.0
 40
0.0
 40
0.0
 40
0.0
 40
1.0
 40
1.0
 40
1.0
 40
1.0
 10
411.3137041304458
 20
1239.522697364667
 30
0.0
 10
414.524661418734
 20
1239.640697393852
 30
0.0
 10
416.1301400628754
 20
1241.306259787733
 30
0.0
 10
416.1301400628754
 20
1244.519384546291
 30
0.0
  0
SPLINE
  5
3F64
102
{ACAD_REACTORS
330
424C
102
}
330
A
100
AcDbEntity
  8
HIDDEN
 48
0.5
100
AcDbSpline
210
0.0
220
0.0
230
1.0
 70
     8
 71
     3
 72
    11
 73
     7
 74
     0
 42
0.000000001
 43
0.0000000001
 40
0.0
 40
0.0
 40
0.0
 40
0.0
 40
1.0
 40
1.0
 40
1.0
 40
2.0
 40
2.0
 40
2.0
 40
2.0
 10
396.129899819714
 20
1227.389191436812
 30
0.0
 10
396.1305558464287
 20
1231.396348339642
 30
0.0
 10
397.7339830974611
 20
1234.601758539985
 30
0.0
 10
400.9401815728165
 20
1237.005422037843
 30
0.0
 10
402.9473825290092
 20
1238.509862849947
 30
0.0
 10
405.2044069497656
 20
1239.306556606195
 30
0.0
 10
407.7112548350865
 20
1239.395503306582
 30
0.0
  0
SPLINE
  5
3F65
102
{ACAD_REACTORS
330
424C
102
}
330
A
100
AcDbEntity
  8
HIDDEN
 48
0.5
100
AcDbSpline
210
0.0
220
0.0
230
1.0
 70
    24
 71
     3
 72
     8
 73
     4
 74
     0
 42
0.000000001
 43
0.0000000001
 40
0.0
 40
0.0
 40
0.0
 40
0.0
 40
1.0
 40
1.0
 40
1.0
 40
1.0
 10
416.1301400628886
 20
1244.527021545238
 30
0.0
 10
416.1301400628886
 20
1244.535079961902
 30
0.0
 10
416.1301400628886
 20
1244.543138378566
 30
0.0
 10
416.1301400628886
 20
1244.55119679523
 30
0.0
  0
SPLINE
  5
3F66
102
{ACAD_REACTORS
330
424C
102
}
330
A
100
AcDbEntity
  8
HIDDEN
 48
0.5
100
AcDbSpline
210
0.0
220
0.0
230
1.0
 70
     8
 71
     3
 72
     8
 73
     4
 74
     0
 42
0.000000001
 43
0.0000000001
 40
0.0
 40
0.0
 40
0.0
 40
0.0
 40
1.0
 40
1.0
 40
1.0
 40
1.0
 10
416.8361484730403
 20
1334.682108961908
 30
0.0
 10
408.4949489753963
 20
1334.827705140717
 30
0.0
 10
398.7237418317927
 20
1334.973301319527
 30
0.0
 10
390.3825423341482
 20
1335.118897498339
 30
0.0
  0
SPLINE
  5
3F67
102
{ACAD_REACTORS
330
424C
102
}
330
A
100
AcDbEntity
  8
HIDDEN
 48
0.5
100
AcDbSpline
210
0.0
220
0.0
230
1.0
 70
     8
 71
     3
 72
     8
 73
     4
 74
     0
 42
0.000000001
 43
0.0000000001
 40
0.0
 40
0.0
 40
0.0
 40
0.0
 40
1.0
 40
1.0
 40
1.0
 40
1.0
 10
389.0257231639584
 20
1339.38731688799
 30
0.0
 10
388.1104684733273
 20
1340.350853796793
 30
0.0
 10
386.9892794269149
 20
1340.867400112968
 30
0.0
 10
385.6621560247099
 20
1340.936955836498
 30
0.0
  0
SPLINE
  5
3F68
102
{ACAD_REACTORS
330
424C
102
}
330
A
100
AcDbEntity
  8
HIDDEN
 48
0.5
100
AcDbSpline
210
0.0
220
0.0
230
1.0
 70
     8
 71
     3
 72
     8
 73
     4
 74
     0
 42
0.000000001
 43
0.0000000001
 40
0.0
 40
0.0
 40
0.0
 40
0.0
 40
1.0
 40
1.0
 40
1.0
 40
1.0
 10
390.3825219435957
 20
1336.367784005552
 30
0.0
 10
390.2834229741629
 20
1337.53205075424
 30
0.0
 10
389.8317118331893
 20
1338.537977025169
 30
0.0
 10
389.0273885206821
 20
1339.38556281834
 30
0.0
  0
POLYLINE
  5
3F69
330
A
100
AcDbEntity
  8
HIDDEN
 48
0.5
100
AcDb2dPolyline
 66
     1
 10
0.0
 20
0.0
 30
0.0
  0
VERTEX
  5
3F6A
330
3F69
100
AcDbEntity
  8
HIDDEN
 48
0.5
100
AcDbVertex
100
AcDb2dVertex
 10
391.106514777975
 20
1335.909808712265
 30
0.0
  0
VERTEX
  5
3F6B
330
3F69
100
AcDbEntity
  8
HIDDEN
 48
0.5
100
AcDbVertex
100
AcDb2dVertex
 10
391.106514777975
 20
1335.909808712265
 30
0.0
  0
SEQEND
  5
3F6C
330
3F69
100
AcDbEntity
  8
HIDDEN
 48
0.5
  0
SPLINE
  5
3F6D
102
{ACAD_REACTORS
330
424C
102
}
330
A
100
AcDbEntity
  8
HIDDEN
 48
0.5
100
AcDbSpline
210
0.0
220
0.0
230
1.0
 70
     8
 71
     3
 72
     8
 73
     4
 74
     0
 42
0.000000001
 43
0.0000000001
 40
0.0
 40
0.0
 40
0.0
 40
0.0
 40
1.0
 40
1.0
 40
1.0
 40
1.0
 10
385.9912800204547
 20
1340.858566112831
 30
0.0
 10
387.1863717597184
 20
1340.716083640727
 30
0.0
 10
388.1983026903699
 20
1340.20846939768
 30
0.0
 10
389.0270728124087
 20
1339.335723383678
 30
0.0
  0
SPLINE
  5
3F6E
102
{ACAD_REACTORS
330
424C
102
}
330
A
100
AcDbEntity
  8
HIDDEN
 48
0.5
100
AcDbSpline
210
0.0
220
0.0
230
1.0
 70
     8
 71
     3
 72
     8
 73
     4
 74
     0
 42
0.000000001
 43
0.0000000001
 40
0.0
 40
0.0
 40
0.0
 40
0.0
 40
1.0
 40
1.0
 40
1.0
 40
1.0
 10
385.9054377752782
 20
1340.867400354506
 30
0.0
 10
385.9223869270986
 20
1340.865795842305
 30
0.0
 10
385.9430348488881
 20
1340.863832892818
 30
0.0
 10
385.9678835079535
 20
1340.861159889379
 30
0.0
  0
SPLINE
  5
3F6F
330
A
100
AcDbEntity
  8
MODEL
100
AcDbSpline
210
0.0
220
0.0
230
1.0
 70
     8
 71
     3
 72
     8
 73
     4
 74
     0
 42
0.000000001
 43
0.0000000001
 40
0.0
 40
0.0
 40
0.0
 40
0.0
 40
1.0
 40
1.0
 40
1.0
 40
1.0
 10
737.302993707207
 20
1144.707441565432
 30
0.0
 10
735.4479530923004
 20
1141.995724891825
 30
0.0
 10
734.5777604259838
 20
1138.998111612354
 30
0.0
 10
734.6924157082576
 20
1135.714601727017
 30
0.0
  0
SPLINE
  5
3F70
330
A
100
AcDbEntity
  8
MODEL
100
AcDbSpline
210
0.0
220
0.0
230
1.0
 70
     8
 71
     3
 72
     8
 73
     4
 74
     0
 42
0.000000001
 43
0.0000000001
 40
0.0
 40
0.0
 40
0.0
 40
0.0
 40
1.0
 40
1.0
 40
1.0
 40
1.0
 10
744.7298667924297
 20
1150.396766473288
 30
0.0
 10
741.6319216479669
 20
1149.312911008965
 30
0.0
 10
739.1563643349082
 20
1147.416567382603
 30
0.0
 10
737.3031948532471
 20
1144.707735594196
 30
0.0
  0
POLYLINE
  5
3F71
330
A
100
AcDbEntity
  8
MODEL
 62
   250
420
  1842203
100
AcDb2dPolyline
 66
     1
 10
0.0
 20
0.0
 30
0.0
  0
VERTEX
  5
3F72
330
3F71
100
AcDbEntity
  8
MODEL
 62
   250
420
  1842203
100
AcDbVertex
100
AcDb2dVertex
 10
744.7383129755594
 20
1150.399718632796
 30
0.0
  0
VERTEX
  5
3F73
330
3F71
100
AcDbEntity
  8
MODEL
100
AcDbVertex
100
AcDb2dVertex
 10
744.7383129755594
 20
1150.399718632796
 30
0.0
  0
SEQEND
  5
3F74
330
3F71
100
AcDbEntity
  8
MODEL
 62
   250
420
  1842203
  0
SPLINE
  5
3F75
330
A
100
AcDbEntity
  8
MODEL
100
AcDbSpline
210
0.0
220
0.0
230
1.0
 70
    24
 71
     3
 72
     8
 73
     4
 74
     0
 42
0.000000001
 43
0.0000000001
 40
0.0
 40
0.0
 40
0.0
 40
0.0
 40
1.0
 40
1.0
 40
1.0
 40
1.0
 10
374.1296355521954
 20
1048.829558010942
 30
0.0
 10
374.1296355521954
 20
1048.86082294877
 30
0.0
 10
374.1296355521954
 20
1048.892087886604
 30
0.0
 10
374.1296355521954
 20
1048.923352824439
 30
0.0
  0
SPLINE
  5
3F76
330
A
100
AcDbEntity
  8
MODEL
100
AcDbSpline
210
0.0
220
0.0
230
1.0
 70
    24
 71
     3
 72
     8
 73
     4
 74
     0
 42
0.000000001
 43
0.0000000001
 40
0.0
 40
0.0
 40
0.0
 40
0.0
 40
1.0
 40
1.0
 40
1.0
 40
1.0
 10
374.1296355521954
 20
1048.736789082034
 30
0.0
 10
374.1296355521954
 20
1048.759851626556
 30
0.0
 10
374.1296355521954
 20
1048.782914171079
 30
0.0
 10
374.1296355521954
 20
1048.8059767156
 30
0.0
  0
SPLINE
  5
3F77
330
A
100
AcDbEntity
  8
MODEL
100
AcDbSpline
210
0.0
220
0.0
230
1.0
 70
    24
 71
     3
 72
     8
 73
     4
 74
     0
 42
0.000000001
 43
0.0000000001
 40
0.0
 40
0.0
 40
0.0
 40
0.0
 40
1.0
 40
1.0
 40
1.0
 40
1.0
 10
374.1296355521954
 20
1048.624292387237
 30
0.0
 10
374.1296355521954
 20
1048.651613190519
 30
0.0
 10
374.1296355521954
 20
1048.678933993788
 30
0.0
 10
374.1296355521954
 20
1048.70625479707
 30
0.0
  0
SPLINE
  5
3F78
330
A
100
AcDbEntity
  8
MODEL
100
AcDbSpline
210
0.0
220
0.0
230
1.0
 70
    24
 71
     3
 72
     8
 73
     4
 74
     0
 42
0.000000001
 43
0.0000000001
 40
0.0
 40
0.0
 40
0.0
 40
0.0
 40
1.0
 40
1.0
 40
1.0
 40
1.0
 10
457.6842208235325
 20
1314.576707052854
 30
0.0
 10
455.8139456054146
 20
1325.183564895067
 30
0.0
 10
453.943670387298
 20
1335.79042273728
 30
0.0
 10
452.0733951691809
 20
1346.397280579483
 30
0.0
  0
SPLINE
  5
3F79
330
A
100
AcDbEntity
  8
MODEL
100
AcDbSpline
210
0.0
220
0.0
230
1.0
 70
     8
 71
     3
 72
     8
 73
     4
 74
     0
 42
0.000000001
 43
0.0000000001
 40
0.0
 40
0.0
 40
0.0
 40
0.0
 40
1.0
 40
1.0
 40
1.0
 40
1.0
 10
472.0734557104265
 20
1302.186172698599
 30
0.0
 10
463.9003417890603
 20
1302.39495719157
 30
0.0
 10
459.1039301608439
 20
1306.525135309788
 30
0.0
 10
457.6842208257976
 20
1314.576707053255
 30
0.0
  0
SPLINE
  5
3F7A
102
{ACAD_REACTORS
330
424C
102
}
330
A
100
AcDbEntity
  8
HIDDEN
 48
0.5
100
AcDbSpline
210
0.0
220
0.0
230
1.0
 70
     8
 71
     3
 72
    11
 73
     7
 74
     0
 42
0.000000001
 43
0.0000000001
 40
0.0
 40
0.0
 40
0.0
 40
0.0
 40
1.0
 40
1.0
 40
1.0
 40
2.0
 40
2.0
 40
2.0
 40
2.0
 10
559.4515349994786
 20
1176.175053806181
 30
0.0
 10
559.9234665191575
 20
1175.247521498193
 30
0.0
 10
560.3953980388364
 20
1174.319989190199
 30
0.0
 10
560.8673295585154
 20
1173.392456882212
 30
0.0
 10
561.7357997766717
 20
1171.410375682428
 30
0.0
 10
562.6042699948207
 20
1169.428294482638
 30
0.0
 10
563.4727402129711
 20
1167.446213282854
 30
0.0
  0
SPLINE
  5
3F7B
102
{ACAD_REACTORS
330
424C
102
}
330
A
100
AcDbEntity
  8
HIDDEN
 48
0.5
100
AcDbSpline
210
0.0
220
0.0
230
1.0
 70
     8
 71
     3
 72
    29
 73
    25
 74
     0
 42
0.000000001
 43
0.0000000001
 40
0.0
 40
0.0
 40
0.0
 40
0.0
 40
1.0
 40
1.0
 40
1.0
 40
2.0
 40
2.0
 40
2.0
 40
3.0
 40
3.0
 40
3.0
 40
4.0
 40
4.0
 40
4.0
 40
5.0
 40
5.0
 40
5.0
 40
6.0
 40
6.0
 40
6.0
 40
7.0
 40
7.0
 40
7.0
 40
8.0
 40
8.0
 40
8.0
 40
8.0
 10
537.6541210447795
 20
1205.018847423957
 30
0.0
 10
538.1325690834778
 20
1204.577248786622
 30
0.0
 10
538.6078079805288
 20
1204.132103719888
 30
0.0
 10
539.0761075769783
 20
1203.679776180578
 30
0.0
 10
539.560783180933
 20
1203.211631161951
 30
0.0
 10
540.0380256766966
 20
1202.735792558791
 30
0.0
 10
540.5103750374319
 20
1202.255164549731
 30
0.0
 10
541.5958253285544
 20
1201.150690074417
 30
0.0
 10
542.6554363392206
 20
1200.020924083264
 30
0.0
 10
543.6878508672457
 20
1198.86680578347
 30
0.0
 10
544.6840987817086
 20
1197.753117513887
 30
0.0
 10
545.6550222838578
 20
1196.616753227221
 30
0.0
 10
546.6037809419036
 20
1195.462276455962
 30
0.0
 10
547.6108167662751
 20
1194.236886355735
 30
0.0
 10
548.5928811833796
 20
1192.991090326743
 30
0.0
 10
549.5493236669668
 20
1191.725870658004
 30
0.0
 10
550.5385174959379
 20
1190.4173262237
 30
0.0
 10
551.5003046101469
 20
1189.088005131229
 30
0.0
 10
552.4352276583418
 20
1187.740106689786
 30
0.0
 10
553.2990335609188
 20
1186.494739349615
 30
0.0
 10
554.1399069135518
 20
1185.233513427831
 30
0.0
 10
554.9543978026791
 20
1183.955386223454
 30
0.0
 10
556.5647738520397
 20
1181.428328566377
 30
0.0
 10
558.0720169395222
 20
1178.835201289495
 30
0.0
 10
559.4613545187703
 20
1176.180149824432
 30
0.0
  0
POLYLINE
  5
3F7C
330
A
100
AcDbEntity
  8
HIDDEN
 48
0.5
100
AcDb2dPolyline
 66
     1
 10
0.0
 20
0.0
 30
0.0
  0
VERTEX
  5
3F7D
330
3F7C
100
AcDbEntity
  8
HIDDEN
 48
0.5
100
AcDbVertex
100
AcDb2dVertex
 10
537.6517716230587
 20
1205.021030782801
 30
0.0
  0
VERTEX
  5
3F7E
330
3F7C
100
AcDbEntity
  8
HIDDEN
 48
0.5
100
AcDbVertex
100
AcDb2dVertex
 10
537.6517716230587
 20
1205.021030782801
 30
0.0
  0
SEQEND
  5
3F7F
330
3F7C
100
AcDbEntity
  8
HIDDEN
 48
0.5
  0
SPLINE
  5
3F80
330
A
100
AcDbEntity
  8
MODEL
100
AcDbSpline
210
0.0
220
0.0
230
1.0
 70
     8
 71
     3
 72
     8
 73
     4
 74
     0
 42
0.000000001
 43
0.0000000001
 40
0.0
 40
0.0
 40
0.0
 40
0.0
 40
1.0
 40
1.0
 40
1.0
 40
1.0
 10
839.1342233387481
 20
1262.830018913848
 30
0.0
 10
839.1342232650418
 20
1262.200078520382
 30
0.0
 10
839.0192831894437
 20
1261.591859261719
 30
0.0
 10
838.7894031119476
 20
1261.005361137856
 30
0.0
  0
SPLINE
  5
3F81
102
{ACAD_REACTORS
330
424C
102
}
330
A
100
AcDbEntity
  8
HIDDEN
 48
0.5
100
AcDbSpline
210
0.0
220
0.0
230
1.0
 70
     8
 71
     3
 72
     8
 73
     4
 74
     0
 42
0.000000001
 43
0.0000000001
 40
0.0
 40
0.0
 40
0.0
 40
0.0
 40
1.0
 40
1.0
 40
1.0
 40
1.0
 10
515.6245648440031
 20
1229.696361573421
 30
0.0
 10
516.3145962989765
 20
1228.396251917458
 30
0.0
 10
517.9908697822871
 20
1226.011085840556
 30
0.0
 10
518.2612823790482
 20
1225.593960577192
 30
0.0
  0
SPLINE
  5
3F82
102
{ACAD_REACTORS
330
424C
102
}
330
A
100
AcDbEntity
  8
HIDDEN
 48
0.5
100
AcDbSpline
210
0.0
220
0.0
230
1.0
 70
     8
 71
     3
 72
     8
 73
     4
 74
     0
 42
0.000000001
 43
0.0000000001
 40
0.0
 40
0.0
 40
0.0
 40
0.0
 40
1.0
 40
1.0
 40
1.0
 40
1.0
 10
385.6621560234007
 20
1340.940292201167
 30
0.0
 10
383.1621054416983
 20
1341.071314290412
 30
0.0
 10
381.3680632701603
 20
1341.20233637966
 30
0.0
 10
378.8680126884638
 20
1341.333358468908
 30
0.0
  0
SPLINE
  5
3F83
102
{ACAD_REACTORS
330
424C
102
}
330
A
100
AcDbEntity
  8
HIDDEN
 48
0.5
100
AcDbSpline
210
0.0
220
0.0
230
1.0
 70
     8
 71
     3
 72
     8
 73
     4
 74
     0
 42
0.000000001
 43
0.0000000001
 40
0.0
 40
0.0
 40
0.0
 40
0.0
 40
1.0
 40
1.0
 40
1.0
 40
1.0
 10
378.8680126884638
 20
1341.333358468908
 30
0.0
 10
375.7977530396934
 20
1341.49426336224
 30
0.0
 10
374.2189731150456
 20
1343.111332495867
 30
0.0
 10
374.1316729145365
 20
1346.184565869785
 30
0.0
  0
SPLINE
  5
3F84
102
{ACAD_REACTORS
330
424C
102
}
330
A
100
AcDbEntity
  8
HIDDEN
 48
0.5
100
AcDbSpline
210
0.0
220
0.0
230
1.0
 70
     8
 71
     3
 72
     8
 73
     4
 74
     0
 42
0.000000001
 43
0.0000000001
 40
0.0
 40
0.0
 40
0.0
 40
0.0
 40
1.0
 40
1.0
 40
1.0
 40
1.0
 10
396.1299011787014
 20
1227.4324468633
 30
0.0
 10
396.1299011765518
 20
1227.42056682585
 30
0.0
 10
396.3389742268419
 20
1223.346948260992
 30
0.0
 10
396.3389742246859
 20
1223.335068223542
 30
0.0
  0
SPLINE
  5
3F85
102
{ACAD_REACTORS
330
424C
102
}
330
A
100
AcDbEntity
  8
HIDDEN
 48
0.5
100
AcDbSpline
210
0.0
220
0.0
230
1.0
 70
     8
 71
     3
 72
     8
 73
     4
 74
     0
 42
0.000000001
 43
0.0000000001
 40
0.0
 40
0.0
 40
0.0
 40
0.0
 40
1.0
 40
1.0
 40
1.0
 40
1.0
 10
390.4095264221619
 20
1121.149624858379
 30
0.0
 10
389.1001808120714
 20
1121.173200289849
 30
0.0
 10
388.4455080070265
 20
1121.839766923924
 30
0.0
 10
388.4455080070329
 20
1123.149324760616
 30
0.0
  0
SPLINE
  5
3F86
102
{ACAD_REACTORS
330
424C
102
}
330
A
100
AcDbEntity
  8
HIDDEN
 48
0.5
100
AcDbSpline
210
0.0
220
0.0
230
1.0
 70
     8
 71
     3
 72
     8
 73
     4
 74
     0
 42
0.000000001
 43
0.0000000001
 40
0.0
 40
0.0
 40
0.0
 40
0.0
 40
1.0
 40
1.0
 40
1.0
 40
1.0
 10
388.4238073244182
 20
1221.210988979045
 30
0.0
 10
388.4238073252782
 20
1222.52050092676
 30
0.0
 10
389.0784567766336
 20
1223.18706713726
 30
0.0
 10
390.387755678506
 20
1223.210687610561
 30
0.0
  0
SPLINE
  5
3F87
102
{ACAD_REACTORS
330
424C
102
}
330
A
100
AcDbEntity
  8
HIDDEN
 48
0.5
100
AcDbSpline
210
0.0
220
0.0
230
1.0
 70
     8
 71
     3
 72
     8
 73
     4
 74
     0
 42
0.000000001
 43
0.0000000001
 40
0.0
 40
0.0
 40
0.0
 40
0.0
 40
1.0
 40
1.0
 40
1.0
 40
1.0
 10
399.1298666443013
 20
1121.004932023213
 30
0.0
 10
396.4511891461025
 20
1121.053162968258
 30
0.0
 10
392.8812009113744
 20
1121.101393913328
 30
0.0
 10
390.2025234131756
 20
1121.149624858379
 30
0.0
  0
SPLINE
  5
3F88
102
{ACAD_REACTORS
330
424C
102
}
330
A
100
AcDbEntity
  8
HIDDEN
 48
0.5
100
AcDbSpline
210
0.0
220
0.0
230
1.0
 70
     8
 71
     3
 72
     8
 73
     4
 74
     0
 42
0.000000001
 43
0.0000000001
 40
0.0
 40
0.0
 40
0.0
 40
0.0
 40
1.0
 40
1.0
 40
1.0
 40
1.0
 10
390.1994518207484
 20
1223.210688877515
 30
0.0
 10
392.8781523113416
 20
1223.25891992221
 30
0.0
 10
396.4512353656492
 20
1223.307150966905
 30
0.0
 10
399.1299358562442
 20
1223.355382011594
 30
0.0
  0
SPLINE
  5
3F89
102
{ACAD_REACTORS
330
424C
102
}
330
A
100
AcDbEntity
  8
HIDDEN
 48
0.5
100
AcDbSpline
210
0.0
220
0.0
230
1.0
 70
    24
 71
     3
 72
     8
 73
     4
 74
     0
 42
0.000000001
 43
0.0000000001
 40
0.0
 40
0.0
 40
0.0
 40
0.0
 40
1.0
 40
1.0
 40
1.0
 40
1.0
 10
419.2114830790724
 20
1120.654405653466
 30
0.0
 10
420.8510448302504
 20
1120.625786962931
 30
0.0
 10
422.4906065814289
 20
1120.597168272396
 30
0.0
 10
424.1301683326069
 20
1120.568549581866
 30
0.0
  0
SPLINE
  5
3F8A
102
{ACAD_REACTORS
330
424C
102
}
330
A
100
AcDbEntity
  8
HIDDEN
 48
0.5
100
AcDbSpline
210
0.0
220
0.0
230
1.0
 70
    24
 71
     3
 72
     8
 73
     4
 74
     0
 42
0.000000001
 43
0.0000000001
 40
0.0
 40
0.0
 40
0.0
 40
0.0
 40
1.0
 40
1.0
 40
1.0
 40
1.0
 10
424.1302361602202
 20
1223.791764390214
 30
0.0
 10
420.3979812301827
 20
1223.726617561406
 30
0.0
 10
416.6657263001466
 20
1223.661470732604
 30
0.0
 10
412.9334713701151
 20
1223.596323903796
 30
0.0
  0
SPLINE
  5
3F8B
102
{ACAD_REACTORS
330
424C
102
}
330
A
100
AcDbEntity
  8
HIDDEN
 48
0.5
100
AcDbSpline
210
0.0
220
0.0
230
1.0
 70
    24
 71
     3
 72
     8
 73
     4
 74
     0
 42
0.000000001
 43
0.0000000001
 40
0.0
 40
0.0
 40
0.0
 40
0.0
 40
1.0
 40
1.0
 40
1.0
 40
1.0
 10
489.9982477899407
 20
1094.028035134557
 30
0.0
 10
489.7455852516105
 20
1096.431963107319
 30
0.0
 10
489.492922713288
 20
1098.835891080082
 30
0.0
 10
489.2402601749632
 20
1101.239819052845
 30
0.0
  0
SPLINE
  5
3F8C
102
{ACAD_REACTORS
330
424C
102
}
330
A
100
AcDbEntity
  8
HIDDEN
 48
0.5
100
AcDbSpline
210
0.0
220
0.0
230
1.0
 70
    24
 71
     3
 72
     8
 73
     4
 74
     0
 42
0.000000001
 43
0.0000000001
 40
0.0
 40
0.0
 40
0.0
 40
0.0
 40
1.0
 40
1.0
 40
1.0
 40
1.0
 10
424.1302361601042
 20
1120.568548397937
 30
0.0
 10
426.4224901078614
 20
1120.528536939756
 30
0.0
 10
428.714744055625
 20
1120.488525481577
 30
0.0
 10
431.0069980033823
 20
1120.448514023402
 30
0.0
  0
SPLINE
  5
3F8D
102
{ACAD_REACTORS
330
424C
102
}
330
A
100
AcDbEntity
  8
HIDDEN
 48
0.5
100
AcDbSpline
210
0.0
220
0.0
230
1.0
 70
    24
 71
     3
 72
     8
 73
     4
 74
     0
 42
0.000000001
 43
0.0000000001
 40
0.0
 40
0.0
 40
0.0
 40
0.0
 40
1.0
 40
1.0
 40
1.0
 40
1.0
 10
489.2402089676948
 20
1101.240306258377
 30
0.0
 10
488.9089617586187
 20
1104.391913248754
 30
0.0
 10
488.577714549554
 20
1107.543520239132
 30
0.0
 10
488.2464673404775
 20
1110.695127229503
 30
0.0
  0
SPLINE
  5
3F8E
102
{ACAD_REACTORS
330
424C
102
}
330
A
100
AcDbEntity
  8
HIDDEN
 48
0.5
100
AcDbSpline
210
0.0
220
0.0
230
1.0
 70
     8
 71
     3
 72
     8
 73
     4
 74
     0
 42
0.000000001
 43
0.0000000001
 40
0.0
 40
0.0
 40
0.0
 40
0.0
 40
1.0
 40
1.0
 40
1.0
 40
1.0
 10
431.0070851233995
 20
1120.448512502718
 30
0.0
 10
431.0885223477253
 20
1120.447091015005
 30
0.0
 10
431.1699347585172
 20
1120.444248036492
 30
0.0
 10
431.2512727641824
 20
1120.439985297189
 30
0.0
  0
SPLINE
  5
3F8F
102
{ACAD_REACTORS
330
424C
102
}
330
A
100
AcDbEntity
  8
HIDDEN
 48
0.5
100
AcDbSpline
210
0.0
220
0.0
230
1.0
 70
     8
 71
     3
 72
     8
 73
     4
 74
     0
 42
0.000000001
 43
0.0000000001
 40
0.0
 40
0.0
 40
0.0
 40
0.0
 40
1.0
 40
1.0
 40
1.0
 40
1.0
 10
456.8166770325815
 20
1119.034719120086
 30
0.0
 10
456.2824134976327
 20
1119.062718713221
 30
0.0
 10
431.7855362991313
 20
1120.41198570406
 30
0.0
 10
431.2512727641824
 20
1120.439985297189
 30
0.0
  0
SPLINE
  5
3F90
102
{ACAD_REACTORS
330
424C
102
}
330
A
100
AcDbEntity
  8
HIDDEN
 48
0.5
100
AcDbSpline
210
0.0
220
0.0
230
1.0
 70
     8
 71
     3
 72
     8
 73
     4
 74
     0
 42
0.000000001
 43
0.0000000001
 40
0.0
 40
0.0
 40
0.0
 40
0.0
 40
1.0
 40
1.0
 40
1.0
 40
1.0
 10
426.1231969671512
 20
1223.791764390214
 30
0.0
 10
448.2307882036416
 20
1224.950374124468
 30
0.0
 10
475.4664533811506
 20
1226.23754702991
 30
0.0
 10
497.5740446176346
 20
1227.39615676417
 30
0.0
  0
SPLINE
  5
3F91
102
{ACAD_REACTORS
330
424C
102
}
330
A
100
AcDbEntity
  8
HIDDEN
 48
0.5
100
AcDbSpline
210
0.0
220
0.0
230
1.0
 70
     8
 71
     3
 72
    14
 73
    10
 74
     0
 42
0.000000001
 43
0.0000000001
 40
0.0
 40
0.0
 40
0.0
 40
0.0
 40
1.0
 40
1.0
 40
1.0
 40
2.0
 40
2.0
 40
2.0
 40
3.0
 40
3.0
 40
3.0
 40
3.0
 10
696.9966783614791
 20
1153.926665189786
 30
0.0
 10
698.1185371554116
 20
1156.170768517228
 30
0.0
 10
699.3301781691457
 20
1158.114499594089
 30
0.0
 10
700.6367169220721
 20
1159.853647238696
 30
0.0
 10
701.9432556750048
 20
1161.59279488331
 30
0.0
 10
703.346118714655
 20
1163.12956663113
 30
0.0
 10
704.8786386105721
 20
1164.545688264771
 30
0.0
 10
707.9425816752846
 20
1167.376918103759
 30
0.0
 10
711.5570908603227
 20
1169.743951435698
 30
0.0
 10
715.8901814236901
 20
1171.962153203504
 30
0.0
  0
SPLINE
  5
3F92
330
A
100
AcDbEntity
  8
MODEL
100
AcDbSpline
210
0.0
220
0.0
230
1.0
 70
    24
 71
     3
 72
     8
 73
     4
 74
     0
 42
0.000000001
 43
0.0000000001
 40
0.0
 40
0.0
 40
0.0
 40
0.0
 40
1.0
 40
1.0
 40
1.0
 40
1.0
 10
737.8810284806764
 20
1044.422481096203
 30
0.0
 10
736.818362712711
 20
1074.853175130223
 30
0.0
 10
735.755696944746
 20
1105.283869164242
 30
0.0
 10
734.6930311767806
 20
1135.714563198266
 30
0.0
  0
SPLINE
  5
3F93
102
{ACAD_REACTORS
330
424C
102
}
330
A
100
AcDbEntity
  8
HIDDEN
 48
0.5
100
AcDbSpline
210
0.0
220
0.0
230
1.0
 70
     8
 71
     3
 72
     8
 73
     4
 74
     0
 42
0.000000001
 43
0.0000000001
 40
0.0
 40
0.0
 40
0.0
 40
0.0
 40
1.0
 40
1.0
 40
1.0
 40
1.0
 10
435.1905531680477
 20
1037.18078304268
 30
0.0
 10
441.0195463461637
 20
1037.315906807208
 30
0.0
 10
444.2553628390892
 20
1040.280986333067
 30
0.0
 10
444.8980026468221
 20
1046.076021620256
 30
0.0
  0
SPLINE
  5
3F94
330
A
100
AcDbEntity
  8
MODEL
100
AcDbSpline
210
0.0
220
0.0
230
1.0
 70
     8
 71
     3
 72
    29
 73
    25
 74
     0
 42
0.000000001
 43
0.0000000001
 40
0.0
 40
0.0
 40
0.0
 40
0.0
 40
1.0
 40
1.0
 40
1.0
 40
2.0
 40
2.0
 40
2.0
 40
3.0
 40
3.0
 40
3.0
 40
4.0
 40
4.0
 40
4.0
 40
5.0
 40
5.0
 40
5.0
 40
6.0
 40
6.0
 40
6.0
 40
7.0
 40
7.0
 40
7.0
 40
8.0
 40
8.0
 40
8.0
 40
8.0
 10
853.693687057857
 20
1257.982350616787
 30
0.0
 10
851.6004938873575
 20
1252.371036261662
 30
0.0
 10
849.1874047279853
 20
1246.879484372361
 30
0.0
 10
846.4892407232883
 20
1241.532717459642
 30
0.0
 10
843.4324535544442
 20
1235.475291571106
 30
0.0
 10
840.0097746397796
 20
1229.60369627659
 30
0.0
 10
836.2755150860171
 20
1223.938625816844
 30
0.0
 10
832.4987821530249
 20
1218.209120980595
 30
0.0
 10
828.403340451046
 20
1212.690865713779
 30
0.0
 10
824.0334615084848
 20
1207.399860949924
 30
0.0
 10
819.6830932557
 20
1202.132479529845
 30
0.0
 10
815.0607329131476
 20
1197.090323881139
 30
0.0
 10
810.1954149437947
 20
1192.294497119404
 30
0.0
 10
805.3743704397511
 20
1187.542311466249
 30
0.0
 10
800.3147699265314
 20
1183.031992005955
 30
0.0
 10
795.034546831032
 20
1178.795889360057
 30
0.0
 10
789.8995990567037
 20
1174.676335042008
 30
0.0
 10
784.5560017188386
 20
1170.816116001642
 30
0.0
 10
779.0165084762207
 20
1167.25904320481
 30
0.0
 10
773.5167551352947
 20
1163.72748857671
 30
0.0
 10
767.8239064923337
 20
1160.494746297592
 30
0.0
 10
761.9562303924863
 20
1157.615859998382
 30
0.0
 10
756.3663631234085
 20
1154.873276389224
 30
0.0
 10
750.6178311353979
 20
1152.451834896953
 30
0.0
 10
744.7390289714454
 20
1150.399698161018
 30
0.0
  0
SPLINE
  5
3F95
330
A
100
AcDbEntity
  8
MODEL
100
AcDbSpline
210
0.0
220
0.0
230
1.0
 70
     8
 71
     3
 72
     8
 73
     4
 74
     0
 42
0.000000001
 43
0.0000000001
 40
0.0
 40
0.0
 40
0.0
 40
0.0
 40
1.0
 40
1.0
 40
1.0
 40
1.0
 10
847.1352693038816
 20
1302.181280823446
 30
0.0
 10
851.8019917312085
 20
1302.181280844336
 30
0.0
 10
854.1353530928814
 20
1299.847919641117
 30
0.0
 10
854.135353388901
 20
1295.18119721379
 30
0.0
  0
SPLINE
  5
3F96
102
{ACAD_REACTORS
330
424C
102
}
330
A
100
AcDbEntity
  8
HIDDEN
 48
0.5
100
AcDbSpline
210
0.0
220
0.0
230
1.0
 70
     8
 71
     3
 72
     8
 73
     4
 74
     0
 42
0.000000001
 43
0.0000000001
 40
0.0
 40
0.0
 40
0.0
 40
0.0
 40
1.0
 40
1.0
 40
1.0
 40
1.0
 10
814.1348231530342
 20
1296.18120875047
 30
0.0
 10
814.1348222127185
 20
1300.069191542869
 30
0.0
 10
816.0780288027463
 20
1302.06839951016
 30
0.0
 10
819.9644429231193
 20
1302.178832652375
 30
0.0
  0
POLYLINE
  5
3F97
330
A
100
AcDbEntity
  8
HIDDEN
 48
0.5
100
AcDb2dPolyline
 66
     1
 10
0.0
 20
0.0
 30
0.0
  0
VERTEX
  5
3F98
330
3F97
100
AcDbEntity
  8
HIDDEN
 48
0.5
100
AcDbVertex
100
AcDb2dVertex
 10
811.2658510070228
 20
1242.242483137763
 30
0.0
  0
VERTEX
  5
3F99
330
3F97
100
AcDbEntity
  8
HIDDEN
 48
0.5
100
AcDbVertex
100
AcDb2dVertex
 10
808.2849419251465
 20
1236.422822867106
 30
0.0
  0
VERTEX
  5
3F9A
330
3F97
100
AcDbEntity
  8
HIDDEN
 48
0.5
100
AcDbVertex
100
AcDb2dVertex
 10
804.8784594592707
 20
1230.846809691937
 30
0.0
  0
VERTEX
  5
3F9B
330
3F97
100
AcDbEntity
  8
HIDDEN
 48
0.5
100
AcDbVertex
100
AcDb2dVertex
 10
801.0609226673364
 20
1225.512139808096
 30
0.0
  0
VERTEX
  5
3F9C
330
3F97
100
AcDbEntity
  8
HIDDEN
 48
0.5
100
AcDbVertex
100
AcDb2dVertex
 10
796.8513301575626
 20
1220.415798750501
 30
0.0
  0
VERTEX
  5
3F9D
330
3F97
100
AcDbEntity
  8
HIDDEN
 48
0.5
100
AcDbVertex
100
AcDb2dVertex
 10
792.2725856026786
 20
1215.554152535025
 30
0.0
  0
VERTEX
  5
3F9E
330
3F97
100
AcDbEntity
  8
HIDDEN
 48
0.5
100
AcDbVertex
100
AcDb2dVertex
 10
787.3509232541378
 20
1210.923038800324
 30
0.0
  0
VERTEX
  5
3F9F
330
3F97
100
AcDbEntity
  8
HIDDEN
 48
0.5
100
AcDbVertex
100
AcDb2dVertex
 10
782.115333456356
 20
1206.517857949692
 30
0.0
  0
VERTEX
  5
3FA0
330
3F97
100
AcDbEntity
  8
HIDDEN
 48
0.5
100
AcDbVertex
100
AcDb2dVertex
 10
776.5969881609185
 20
1202.333664292927
 30
0.0
  0
VERTEX
  5
3FA1
330
3F97
100
AcDbEntity
  8
HIDDEN
 48
0.5
100
AcDbVertex
100
AcDb2dVertex
 10
770.8286664408179
 20
1198.36525718817
 30
0.0
  0
VERTEX
  5
3FA2
330
3F97
100
AcDbEntity
  8
HIDDEN
 48
0.5
100
AcDbVertex
100
AcDb2dVertex
 10
764.8441800046749
 20
1194.607272183769
 30
0.0
  0
VERTEX
  5
3FA3
330
3F97
100
AcDbEntity
  8
HIDDEN
 48
0.5
100
AcDbVertex
100
AcDb2dVertex
 10
758.6777987109558
 20
1191.05427216013
 30
0.0
  0
VERTEX
  5
3FA4
330
3F97
100
AcDbEntity
  8
HIDDEN
 48
0.5
100
AcDbVertex
100
AcDb2dVertex
 10
752.3636760822046
 20
1187.700838471559
 30
0.0
  0
VERTEX
  5
3FA5
330
3F97
100
AcDbEntity
  8
HIDDEN
 48
0.5
100
AcDbVertex
100
AcDb2dVertex
 10
745.9352748192528
 20
1184.541662088127
 30
0.0
  0
VERTEX
  5
3FA6
330
3F97
100
AcDbEntity
  8
HIDDEN
 48
0.5
100
AcDbVertex
100
AcDb2dVertex
 10
739.4247923154785
 20
1181.571634737526
 30
0.0
  0
VERTEX
  5
3FA7
330
3F97
100
AcDbEntity
  8
HIDDEN
 48
0.5
100
AcDbVertex
100
AcDb2dVertex
 10
732.8625861709752
 20
1178.785940046901
 30
0.0
  0
VERTEX
  5
3FA8
330
3F97
100
AcDbEntity
  8
HIDDEN
 48
0.5
100
AcDbVertex
100
AcDb2dVertex
 10
715.8901814236901
 20
1171.962153203504
 30
0.0
  0
SEQEND
  5
3FA9
330
3F97
100
AcDbEntity
  8
HIDDEN
 48
0.5
  0
SPLINE
  5
3FAA
102
{ACAD_REACTORS
330
424C
102
}
330
A
100
AcDbEntity
  8
HIDDEN
 48
0.5
100
AcDbSpline
210
0.0
220
0.0
230
1.0
 70
     8
 71
     3
 72
     8
 73
     4
 74
     0
 42
0.000000001
 43
0.0000000001
 40
0.0
 40
0.0
 40
0.0
 40
0.0
 40
1.0
 40
1.0
 40
1.0
 40
1.0
 10
835.2111400580061
 20
1253.527689748353
 30
0.0
 10
834.1351833123504
 20
1251.214887832458
 30
0.0
 10
832.3133327665632
 20
1249.886652599604
 30
0.0
 10
829.762502387905
 20
1249.886652589182
 30
0.0
  0
SPLINE
  5
3FAB
102
{ACAD_REACTORS
330
424C
102
}
330
A
100
AcDbEntity
  8
HIDDEN
 48
0.5
100
AcDbSpline
210
0.0
220
0.0
230
1.0
 70
     8
 71
     3
 72
     8
 73
     4
 74
     0
 42
0.000000001
 43
0.0000000001
 40
0.0
 40
0.0
 40
0.0
 40
0.0
 40
1.0
 40
1.0
 40
1.0
 40
1.0
 10
838.7895290091742
 20
1261.003281165062
 30
0.0
 10
837.6828232946018
 20
1258.181924208929
 30
0.0
 10
836.4900269775467
 20
1256.275288856598
 30
0.0
 10
835.2111400580061
 20
1253.527689748353
 30
0.0
  0
SPLINE
  5
3FAC
102
{ACAD_REACTORS
330
424C
102
}
330
A
100
AcDbEntity
  8
HIDDEN
 48
0.5
100
AcDbSpline
210
0.0
220
0.0
230
1.0
 70
     8
 71
     3
 72
     8
 73
     4
 74
     0
 42
0.000000001
 43
0.0000000001
 40
0.0
 40
0.0
 40
0.0
 40
0.0
 40
1.0
 40
1.0
 40
1.0
 40
1.0
 10
495.9116499706156
 20
1261.265672048722
 30
0.0
 10
495.9299844046222
 20
1261.215882402516
 30
0.0
 10
495.9475299539831
 20
1261.165802273345
 30
0.0
 10
495.9642773018727
 20
1261.115456802843
 30
0.0
  0
SPLINE
  5
3FAD
102
{ACAD_REACTORS
330
424C
102
}
330
A
100
AcDbEntity
  8
HIDDEN
 48
0.5
100
AcDbSpline
210
0.0
220
0.0
230
1.0
 70
     8
 71
     3
 72
     8
 73
     4
 74
     0
 42
0.000000001
 43
0.0000000001
 40
0.0
 40
0.0
 40
0.0
 40
0.0
 40
1.0
 40
1.0
 40
1.0
 40
1.0
 10
491.4814131221069
 20
1264.53119317742
 30
0.0
 10
493.6709657946722
 20
1264.416376313676
 30
0.0
 10
495.1465699928754
 20
1263.330959567578
 30
0.0
 10
495.9082257167224
 20
1261.274942939122
 30
0.0
  0
SPLINE
  5
3FAE
102
{ACAD_REACTORS
330
424C
102
}
330
A
100
AcDbEntity
  8
HIDDEN
 48
0.5
100
AcDbSpline
210
0.0
220
0.0
230
1.0
 70
     8
 71
     3
 72
     8
 73
     4
 74
     0
 42
0.000000001
 43
0.0000000001
 40
0.0
 40
0.0
 40
0.0
 40
0.0
 40
1.0
 40
1.0
 40
1.0
 40
1.0
 10
499.7635804591323
 20
1242.395918030416
 30
0.0
 10
499.7364903020589
 20
1242.524282132358
 30
0.0
 10
499.5972196108883
 20
1243.189598263807
 30
0.0
 10
499.570182822134
 20
1243.317972844684
 30
0.0
  0
POLYLINE
  5
3FAF
330
A
100
AcDbEntity
  8
HIDDEN
 48
0.5
100
AcDb2dPolyline
 66
     1
 10
0.0
 20
0.0
 30
0.0
  0
VERTEX
  5
3FB0
330
3FAF
100
AcDbEntity
  8
HIDDEN
 48
0.5
100
AcDbVertex
100
AcDb2dVertex
 10
500.0209126868408
 20
1241.180548104608
 30
0.0
  0
VERTEX
  5
3FB1
330
3FAF
100
AcDbEntity
  8
HIDDEN
 48
0.5
100
AcDbVertex
100
AcDb2dVertex
 10
499.7635804591323
 20
1242.395918030416
 30
0.0
  0
SEQEND
  5
3FB2
330
3FAF
100
AcDbEntity
  8
HIDDEN
 48
0.5
  0
SPLINE
  5
3FB3
102
{ACAD_REACTORS
330
424C
102
}
330
A
100
AcDbEntity
  8
HIDDEN
 48
0.5
100
AcDbSpline
210
0.0
220
0.0
230
1.0
 70
     8
 71
     3
 72
     8
 73
     4
 74
     0
 42
0.000000001
 43
0.0000000001
 40
0.0
 40
0.0
 40
0.0
 40
0.0
 40
1.0
 40
1.0
 40
1.0
 40
1.0
 10
393.0396180679109
 20
1269.642620746001
 30
0.0
 10
425.5502338602446
 20
1267.938811556476
 30
0.0
 10
458.9707973297727
 20
1266.235002366947
 30
0.0
 10
491.4814131221069
 20
1264.53119317742
 30
0.0
  0
SPLINE
  5
3FB5
102
{ACAD_REACTORS
330
424C
102
}
330
A
100
AcDbEntity
  8
HIDDEN
 48
0.5
100
AcDbSpline
210
0.0
220
0.0
230
1.0
 70
    24
 71
     3
 72
     8
 73
     4
 74
     0
 42
0.000000001
 43
0.0000000001
 40
0.0
 40
0.0
 40
0.0
 40
0.0
 40
1.0
 40
1.0
 40
1.0
 40
1.0
 10
416.1301400628818
 20
1244.860831224245
 30
0.0
 10
416.1301400628818
 20
1244.757619747905
 30
0.0
 10
416.1301400628818
 20
1244.654408271565
 30
0.0
 10
416.1301400628818
 20
1244.55119679523
 30
0.0
  0
SPLINE
  5
3FB6
102
{ACAD_REACTORS
330
424C
102
}
330
A
100
AcDbEntity
  8
HIDDEN
 48
0.5
100
AcDbSpline
210
0.0
220
0.0
230
1.0
 70
     8
 71
     3
 72
     8
 73
     4
 74
     0
 42
0.000000001
 43
0.0000000001
 40
0.0
 40
0.0
 40
0.0
 40
0.0
 40
1.0
 40
1.0
 40
1.0
 40
1.0
 10
416.1301395940709
 20
1268.439183458158
 30
0.0
 10
416.13013974765
 20
1261.224527687413
 30
0.0
 10
416.1301399015319
 20
1249.067827282494
 30
0.0
 10
416.1301400557209
 20
1245.046301498121
 30
0.0
  0
SPLINE
  5
3FB7
102
{ACAD_REACTORS
330
424C
102
}
330
A
100
AcDbEntity
  8
HIDDEN
 48
0.5
100
AcDbSpline
210
0.0
220
0.0
230
1.0
 70
     8
 71
     3
 72
     8
 73
     4
 74
     0
 42
0.000000001
 43
0.0000000001
 40
0.0
 40
0.0
 40
0.0
 40
0.0
 40
1.0
 40
1.0
 40
1.0
 40
1.0
 10
416.836147889363
 20
1334.682108961908
 30
0.0
 10
416.8361476742243
 20
1331.649678082174
 30
0.0
 10
416.8361474590861
 20
1290.357606917757
 30
0.0
 10
416.8361472439478
 20
1279.739730582537
 30
0.0
  0
SPLINE
  5
3FB8
330
A
100
AcDbEntity
  8
MODEL
100
AcDbSpline
210
0.0
220
0.0
230
1.0
 70
    24
 71
     3
 72
     8
 73
     4
 74
     0
 42
0.000000001
 43
0.0000000001
 40
0.0
 40
0.0
 40
0.0
 40
0.0
 40
1.0
 40
1.0
 40
1.0
 40
1.0
 10
374.1296355521954
 20
1048.923352824439
 30
0.0
 10
374.1296355521954
 20
1049.240375427316
 30
0.0
 10
374.1296355521954
 20
1049.557398030193
 30
0.0
 10
374.1296355521954
 20
1049.874420633076
 30
0.0
  0
SPLINE
  5
3FB9
330
A
100
AcDbEntity
  8
MODEL
100
AcDbSpline
210
0.0
220
0.0
230
1.0
 70
    24
 71
     3
 72
     8
 73
     4
 74
     0
 42
0.000000001
 43
0.0000000001
 40
0.0
 40
0.0
 40
0.0
 40
0.0
 40
1.0
 40
1.0
 40
1.0
 40
1.0
 10
374.1296355521954
 20
1048.805976715549
 30
0.0
 10
374.1296355521954
 20
1048.813837148196
 30
0.0
 10
374.1296355521954
 20
1048.821697580843
 30
0.0
 10
374.1296355521954
 20
1048.829558013489
 30
0.0
  0
SPLINE
  5
3FBA
330
A
100
AcDbEntity
  8
MODEL
100
AcDbSpline
210
0.0
220
0.0
230
1.0
 70
    24
 71
     3
 72
     8
 73
     4
 74
     0
 42
0.000000001
 43
0.0000000001
 40
0.0
 40
0.0
 40
0.0
 40
0.0
 40
1.0
 40
1.0
 40
1.0
 40
1.0
 10
374.1296355521954
 20
1048.65571979941
 30
0.0
 10
374.1296355521954
 20
1048.682742893618
 30
0.0
 10
374.1296355521954
 20
1048.709765987827
 30
0.0
 10
374.1296355521954
 20
1048.736789082034
 30
0.0
  0
SPLINE
  5
3FBB
330
A
100
AcDbEntity
  8
MODEL
100
AcDbSpline
210
0.0
220
0.0
230
1.0
 70
    24
 71
     3
 72
     8
 73
     4
 74
     0
 42
0.000000001
 43
0.0000000001
 40
0.0
 40
0.0
 40
0.0
 40
0.0
 40
1.0
 40
1.0
 40
1.0
 40
1.0
 10
374.1296371491794
 20
1054.910432467788
 30
0.0
 10
374.1296402972571
 20
1078.469640833892
 30
0.0
 10
374.1296434453297
 20
1102.028849199996
 30
0.0
 10
374.1296465934015
 20
1125.588057566099
 30
0.0
  0
SPLINE
  5
3FBC
330
A
100
AcDbEntity
  8
MODEL
100
AcDbSpline
210
0.0
220
0.0
230
1.0
 70
    24
 71
     3
 72
     8
 73
     4
 74
     0
 42
0.000000001
 43
0.0000000001
 40
0.0
 40
0.0
 40
0.0
 40
0.0
 40
1.0
 40
1.0
 40
1.0
 40
1.0
 10
374.1296355522022
 20
1042.959126112098
 30
0.0
 10
374.1296358060235
 20
1044.858671169891
 30
0.0
 10
374.1296360598494
 20
1046.758216227679
 30
0.0
 10
374.1296363136767
 20
1048.657761285473
 30
0.0
  0
POLYLINE
  5
3FBD
330
A
100
AcDbEntity
  8
HIDDEN
 48
0.5
100
AcDb2dPolyline
 66
     1
 10
0.0
 20
0.0
 30
0.0
  0
VERTEX
  5
3FBE
330
3FBD
100
AcDbEntity
  8
HIDDEN
 48
0.5
100
AcDbVertex
100
AcDb2dVertex
 10
411.3045795560256
 20
1239.554434728753
 30
0.0
  0
VERTEX
  5
3FBF
330
3FBD
100
AcDbEntity
  8
HIDDEN
 48
0.5
100
AcDbVertex
100
AcDb2dVertex
 10
411.3045794988752
 20
1239.546633159136
 30
0.0
  0
VERTEX
  5
3FC0
330
3FBD
100
AcDbEntity
  8
HIDDEN
 48
0.5
100
AcDbVertex
100
AcDb2dVertex
 10
411.304579464942
 20
1239.538735196921
 30
0.0
  0
VERTEX
  5
3FC1
330
3FBD
100
AcDbEntity
  8
HIDDEN
 48
0.5
100
AcDbVertex
100
AcDb2dVertex
 10
411.3045794310469
 20
1239.530740928665
 30
0.0
  0
VERTEX
  5
3FC2
330
3FBD
100
AcDbEntity
  8
HIDDEN
 48
0.5
100
AcDbVertex
100
AcDb2dVertex
 10
411.3045793740057
 20
1239.522650440104
 30
0.0
  0
SEQEND
  5
3FC3
330
3FBD
100
AcDbEntity
  8
HIDDEN
 48
0.5
  0
SPLINE
  5
3FC4
102
{ACAD_REACTORS
330
424C
102
}
330
A
100
AcDbEntity
  8
HIDDEN
 48
0.5
100
AcDbSpline
210
0.0
220
0.0
230
1.0
 70
     8
 71
     3
 72
     8
 73
     4
 74
     0
 42
0.000000001
 43
0.0000000001
 40
0.0
 40
0.0
 40
0.0
 40
0.0
 40
1.0
 40
1.0
 40
1.0
 40
1.0
 10
407.7112448502471
 20
1239.395784840184
 30
0.0
 10
407.7112507597099
 20
1239.406469246408
 30
0.0
 10
407.7112449021406
 20
1239.416915050143
 30
0.0
 10
407.7112428671417
 20
1239.4271214004
 30
0.0
  0
SPLINE
  5
3FC5
102
{ACAD_REACTORS
330
424C
102
}
330
A
100
AcDbEntity
  8
HIDDEN
 48
0.5
100
AcDbSpline
210
0.0
220
0.0
230
1.0
 70
    24
 71
     3
 72
     8
 73
     4
 74
     0
 42
0.000000001
 43
0.0000000001
 40
0.0
 40
0.0
 40
0.0
 40
0.0
 40
1.0
 40
1.0
 40
1.0
 40
1.0
 10
388.4238073244178
 20
1123.149324760616
 30
0.0
 10
388.4238073244178
 20
1139.491844806896
 30
0.0
 10
388.4238073244182
 20
1204.865197015578
 30
0.0
 10
388.4238073244182
 20
1221.207717061852
 30
0.0
  0
SPLINE
  5
3FC6
102
{ACAD_REACTORS
330
424C
102
}
330
A
100
AcDbEntity
  8
HIDDEN
 48
0.5
100
AcDbSpline
210
0.0
220
0.0
230
1.0
 70
     8
 71
     3
 72
    23
 73
    19
 74
     0
 42
0.000000001
 43
0.0000000001
 40
0.0
 40
0.0
 40
0.0
 40
0.0
 40
1.0
 40
1.0
 40
1.0
 40
2.0
 40
2.0
 40
2.0
 40
3.0
 40
3.0
 40
3.0
 40
4.0
 40
4.0
 40
4.0
 40
5.0
 40
5.0
 40
5.0
 40
6.0
 40
6.0
 40
6.0
 40
6.0
 10
489.9982477899407
 20
1094.028035134557
 30
0.0
 10
490.3981086479648
 20
1090.22890152823
 30
0.0
 10
490.7994602035915
 20
1086.42787996107
 30
0.0
 10
491.2786050826526
 20
1082.637349461819
 30
0.0
 10
491.6328820795834
 20
1079.834652781291
 30
0.0
 10
492.0296889932997
 20
1077.037691608978
 30
0.0
 10
492.4975568239911
 20
1074.25144341732
 30
0.0
 10
493.3036821697319
 20
1069.450802852958
 30
0.0
 10
494.3207624016909
 20
1064.681965362817
 30
0.0
 10
495.6927320648174
 20
1060.011689442705
 30
0.0
 10
496.9181840963047
 20
1055.840169278868
 30
0.0
 10
498.4267731638056
 20
1051.74728327077
 30
0.0
 10
500.301558846862
 20
1047.824635121057
 30
0.0
 10
501.205502392012
 20
1045.933297616783
 30
0.0
 10
502.1945781035797
 20
1044.08153644138
 30
0.0
 10
503.2704356646859
 20
1042.282423370795
 30
0.0
 10
504.3199371094015
 20
1040.527384567303
 30
0.0
 10
505.452020560565
 20
1038.822445942067
 30
0.0
 10
506.6687325271287
 20
1037.178097601278
 30
0.0
  0
SPLINE
  5
3FC7
102
{ACAD_REACTORS
330
424C
102
}
330
A
100
AcDbEntity
  8
HIDDEN
 48
0.5
100
AcDbSpline
210
0.0
220
0.0
230
1.0
 70
     8
 71
     3
 72
     8
 73
     4
 74
     0
 42
0.000000001
 43
0.0000000001
 40
0.0
 40
0.0
 40
0.0
 40
0.0
 40
1.0
 40
1.0
 40
1.0
 40
1.0
 10
641.9969808514898
 20
1037.178097603151
 30
0.0
 10
642.8600561481944
 20
1038.624448337821
 30
0.0
 10
643.6684879687232
 20
1040.100722727085
 30
0.0
 10
644.4222763130765
 20
1041.606920770945
 30
0.0
  0
SPLINE
  5
3FC8
330
A
100
AcDbEntity
  8
MODEL
100
AcDbSpline
210
0.0
220
0.0
230
1.0
 70
     8
 71
     3
 72
    53
 73
    49
 74
     0
 42
0.000000001
 43
0.0000000001
 40
0.0
 40
0.0
 40
0.0
 40
0.0
 40
1.0
 40
1.0
 40
1.0
 40
2.0
 40
2.0
 40
2.0
 40
3.0
 40
3.0
 40
3.0
 40
4.0
 40
4.0
 40
4.0
 40
5.0
 40
5.0
 40
5.0
 40
6.0
 40
6.0
 40
6.0
 40
7.0
 40
7.0
 40
7.0
 40
8.0
 40
8.0
 40
8.0
 40
9.0
 40
9.0
 40
9.0
 40
10.0
 40
10.0
 40
10.0
 40
11.0
 40
11.0
 40
11.0
 40
12.0
 40
12.0
 40
12.0
 40
13.0
 40
13.0
 40
13.0
 40
14.0
 40
14.0
 40
14.0
 40
15.0
 40
15.0
 40
15.0
 40
16.0
 40
16.0
 40
16.0
 40
16.0
 10
641.9969808514898
 20
1037.178097603151
 30
0.0
 10
638.9644107658919
 20
1032.087155612459
 30
0.0
 10
635.2233720049503
 20
1027.4149461436
 30
0.0
 10
630.8977489628614
 20
1023.364503697821
 30
0.0
 10
628.7122231571652
 20
1021.318013191454
 30
0.0
 10
626.377465450556
 20
1019.430246547109
 30
0.0
 10
623.921417687272
 20
1017.717364500234
 30
0.0
 10
621.474118986845
 20
1016.010584172119
 30
0.0
 10
618.9063928222886
 20
1014.477444694436
 30
0.0
 10
616.2447490865284
 20
1013.129527419916
 30
0.0
 10
613.596624029461
 20
1011.788456313526
 30
0.0
 10
610.8555330065174
 20
1010.630730674864
 30
0.0
 10
608.0500891711667
 20
1009.660568856326
 30
0.0
 10
605.113581345428
 20
1008.645083272016
 30
0.0
 10
602.1065674185784
 20
1007.835095989555
 30
0.0
 10
599.0598198831808
 20
1007.226018476602
 30
0.0
 10
596.0624813047934
 20
1006.626818344129
 30
0.0
 10
593.026687384352
 20
1006.222064530357
 30
0.0
 10
589.9789818152008
 20
1005.988819912155
 30
0.0
 10
586.5877485915248
 20
1005.729284704253
 30
0.0
 10
579.9368419530028
 20
1005.581138425986
 30
0.0
 10
575.4580927640095
 20
1006.232403582053
 30
0.0
 10
573.4087367830707
 20
1006.530405119188
 30
0.0
 10
569.5263098226446
 20
1006.843793708968
 30
0.0
 10
566.2658672629982
 20
1007.300720739409
 30
0.0
 10
562.9171403718033
 20
1007.729210026888
 30
0.0
 10
559.5839621302198
 20
1008.280234885932
 30
0.0
 10
556.2768948394596
 20
1008.959441349413
 30
0.0
 10
553.198625670655
 20
1009.591657186577
 30
0.0
 10
550.1429794816709
 20
1010.334931784908
 30
0.0
 10
547.1228954800786
 20
1011.203481991102
 30
0.0
 10
544.1638762735688
 20
1012.054470486983
 30
0.0
 10
541.2389956892057
 20
1013.025719769824
 30
0.0
 10
538.3660499638731
 20
1014.133171804886
 30
0.0
 10
535.8028950747489
 20
1015.121206863516
 30
0.0
 10
533.2810786001587
 20
1016.217654767361
 30
0.0
 10
530.8200996917826
 20
1017.438069631966
 30
0.0
 10
528.3991849185759
 20
1018.63861644083
 30
0.0
 10
526.0371429939682
 20
1019.959126761817
 30
0.0
 10
523.7567396706563
 20
1021.409002778101
 30
0.0
 10
521.4976965796409
 20
1022.845298000071
 30
0.0
 10
519.3187698570705
 20
1024.408546765381
 30
0.0
 10
517.2455846236389
 20
1026.102014369377
 30
0.0
 10
515.1876568231469
 20
1027.783019040482
 30
0.0
 10
513.233919847622
 20
1029.592332933804
 30
0.0
 10
511.4070202978987
 20
1031.521853627515
 30
0.0
 10
509.7149798959244
 20
1033.308939825384
 30
0.0
 10
508.1317421605345
 20
1035.199140859754
 30
0.0
 10
506.6687325271287
 20
1037.178097601278
 30
0.0
  0
SPLINE
  5
3FC9
102
{ACAD_REACTORS
330
424C
102
}
330
A
100
AcDbEntity
  8
HIDDEN
 48
0.5
100
AcDbSpline
210
0.0
220
0.0
230
1.0
 70
     8
 71
     3
 72
     8
 73
     4
 74
     0
 42
0.000000001
 43
0.0000000001
 40
0.0
 40
0.0
 40
0.0
 40
0.0
 40
1.0
 40
1.0
 40
1.0
 40
1.0
 10
488.2464673404775
 20
1110.695127229503
 30
0.0
 10
487.7703242568077
 20
1115.225325060992
 30
0.0
 10
485.2577983372739
 20
1117.609623141501
 30
0.0
 10
480.7088895818633
 20
1117.848021471043
 30
0.0
  0
SPLINE
  5
3FCA
102
{ACAD_REACTORS
330
424C
102
}
330
A
100
AcDbEntity
  8
HIDDEN
 48
0.5
100
AcDbSpline
210
0.0
220
0.0
230
1.0
 70
     8
 71
     3
 72
    17
 73
    13
 74
     0
 42
0.000000001
 43
0.0000000001
 40
0.0
 40
0.0
 40
0.0
 40
0.0
 40
1.0
 40
1.0
 40
1.0
 40
2.0
 40
2.0
 40
2.0
 40
3.0
 40
3.0
 40
3.0
 40
4.0
 40
4.0
 40
4.0
 40
4.0
 10
696.9961030474633
 20
1153.925514367798
 30
0.0
 10
689.0940742460107
 20
1138.105895674963
 30
0.0
 10
678.7094653363797
 20
1109.987758351244
 30
0.0
 10
670.8027711083932
 20
1094.170473104482
 30
0.0
 10
665.9286560991591
 20
1084.419840892876
 30
0.0
 10
661.0598853839842
 20
1074.666535322026
 30
0.0
 10
656.177893280857
 20
1064.919845703907
 30
0.0
 10
655.0275117615383
 20
1062.623157922682
 30
0.0
 10
653.8763961228233
 20
1060.326837493159
 30
0.0
 10
652.7204354614823
 20
1058.032955822485
 30
0.0
 10
649.959847358637
 20
1052.554860709781
 30
0.0
 10
647.1716272173376
 20
1047.090674278936
 30
0.0
 10
644.4222763130765
 20
1041.606920770945
 30
0.0
  0
SPLINE
  5
3FCB
102
{ACAD_REACTORS
330
424C
102
}
330
A
100
AcDbEntity
  8
HIDDEN
 48
0.5
100
AcDbSpline
210
0.0
220
0.0
230
1.0
 70
    24
 71
     3
 72
     8
 73
     4
 74
     0
 42
0.000000001
 43
0.0000000001
 40
0.0
 40
0.0
 40
0.0
 40
0.0
 40
1.0
 40
1.0
 40
1.0
 40
1.0
 10
480.7088895818633
 20
1117.848021471043
 30
0.0
 10
473.1610423601774
 20
1118.24358735406
 30
0.0
 10
465.6131951384846
 20
1118.639153237076
 30
0.0
 10
458.0653479167922
 20
1119.034719120086
 30
0.0
  0
SPLINE
  5
3FCC
102
{ACAD_REACTORS
330
424C
102
}
330
A
100
AcDbEntity
  8
HIDDEN
 48
0.5
100
AcDbSpline
210
0.0
220
0.0
230
1.0
 70
     8
 71
     3
 72
    11
 73
     7
 74
     0
 42
0.000000001
 43
0.0000000001
 40
0.0
 40
0.0
 40
0.0
 40
0.0
 40
1.0
 40
1.0
 40
1.0
 40
2.0
 40
2.0
 40
2.0
 40
2.0
 10
497.5760047499471
 20
1227.396262354361
 30
0.0
 10
499.2408431011258
 20
1227.484169356202
 30
0.0
 10
500.5373952779896
 20
1228.220534693575
 30
0.0
 10
501.4656612805438
 20
1229.605358366482
 30
0.0
 10
502.3939272830912
 20
1230.990182039389
 30
0.0
 10
502.5824336915543
 20
1232.469285413526
 30
0.0
 10
502.0311805059309
 20
1234.042668488894
 30
0.0
  0
SPLINE
  5
3FCD
102
{ACAD_REACTORS
330
424C
102
}
330
A
100
AcDbEntity
  8
HIDDEN
 48
0.5
100
AcDbSpline
210
0.0
220
0.0
230
1.0
 70
     8
 71
     3
 72
     8
 73
     4
 74
     0
 42
0.000000001
 43
0.0000000001
 40
0.0
 40
0.0
 40
0.0
 40
0.0
 40
1.0
 40
1.0
 40
1.0
 40
1.0
 10
502.0262176989995
 20
1234.056766930894
 30
0.0
 10
501.2018052155622
 20
1236.387453857439
 30
0.0
 10
500.5333702115054
 20
1238.762047582002
 30
0.0
 10
500.0209126868408
 20
1241.180548104608
 30
0.0
  0
SPLINE
  5
3FCE
102
{ACAD_REACTORS
330
424C
102
}
330
A
100
AcDbEntity
  8
HIDDEN
 48
0.5
100
AcDbSpline
210
0.0
220
0.0
230
1.0
 70
     8
 71
     3
 72
     8
 73
     4
 74
     0
 42
0.000000001
 43
0.0000000001
 40
0.0
 40
0.0
 40
0.0
 40
0.0
 40
1.0
 40
1.0
 40
1.0
 40
1.0
 10
450.7385429819492
 20
1112.787955956527
 30
0.0
 10
451.2082351046565
 20
1117.183837510448
 30
0.0
 10
453.6505034162728
 20
1119.266091898303
 30
0.0
 10
458.0653479167922
 20
1119.034719120086
 30
0.0
  0
SPLINE
  5
3FCF
102
{ACAD_REACTORS
330
424C
102
}
330
A
100
AcDbEntity
  8
HIDDEN
 48
0.5
100
AcDbSpline
210
0.0
220
0.0
230
1.0
 70
     8
 71
     3
 72
     8
 73
     4
 74
     0
 42
0.000000001
 43
0.0000000001
 40
0.0
 40
0.0
 40
0.0
 40
0.0
 40
1.0
 40
1.0
 40
1.0
 40
1.0
 10
390.3825219435957
 20
1336.367784005552
 30
0.0
 10
390.3825219969217
 20
1315.282761890674
 30
0.0
 10
390.4005330625264
 20
1293.723567342571
 30
0.0
 10
390.4005331598796
 20
1272.638545227689
 30
0.0
  0
SPLINE
  5
3FD0
102
{ACAD_REACTORS
330
424C
102
}
330
A
100
AcDbEntity
  8
HIDDEN
 48
0.5
100
AcDbSpline
210
0.0
220
0.0
230
1.0
 70
     8
 71
     3
 72
     8
 73
     4
 74
     0
 42
0.000000001
 43
0.0000000001
 40
0.0
 40
0.0
 40
0.0
 40
0.0
 40
1.0
 40
1.0
 40
1.0
 40
1.0
 10
390.4005331598796
 20
1272.638545227689
 30
0.0
 10
390.4005332863085
 20
1270.740594752426
 30
0.0
 10
391.3482080113308
 20
1269.741953258524
 30
0.0
 10
393.2435573349462
 20
1269.642620746001
 30
0.0
  0
SPLINE
  5
3FD1
102
{ACAD_REACTORS
330
424C
102
}
330
A
100
AcDbEntity
  8
HIDDEN
 48
0.5
100
AcDbSpline
210
0.0
220
0.0
230
1.0
 70
    24
 71
     3
 72
     8
 73
     4
 74
     0
 42
0.000000001
 43
0.0000000001
 40
0.0
 40
0.0
 40
0.0
 40
0.0
 40
1.0
 40
1.0
 40
1.0
 40
1.0
 10
385.6621560231119
 20
1340.886797665366
 30
0.0
 10
385.6621560229573
 20
1340.904351895183
 30
0.0
 10
385.6621560227968
 20
1340.921906125013
 30
0.0
 10
385.6621560226372
 20
1340.939460354835
 30
0.0
  0
SPLINE
  5
3FD2
102
{ACAD_REACTORS
330
424C
102
}
330
A
100
AcDbEntity
  8
HIDDEN
 48
0.5
100
AcDbSpline
210
0.0
220
0.0
230
1.0
 70
     8
 71
     3
 72
     8
 73
     4
 74
     0
 42
0.000000001
 43
0.0000000001
 40
0.0
 40
0.0
 40
0.0
 40
0.0
 40
1.0
 40
1.0
 40
1.0
 40
1.0
 10
385.9526959655409
 20
1340.862988708986
 30
0.0
 10
385.980529604004
 20
1340.859884161996
 30
0.0
 10
386.0083370825241
 20
1340.85654513016
 30
0.0
 10
386.0361145757984
 20
1340.852972558847
 30
0.0
  0
SPLINE
  5
3FD3
102
{ACAD_REACTORS
330
424C
102
}
330
A
100
AcDbEntity
  8
HIDDEN
 48
0.5
100
AcDbSpline
210
0.0
220
0.0
230
1.0
 70
     8
 71
     3
 72
    11
 73
     7
 74
     0
 42
0.000000001
 43
0.0000000001
 40
0.0
 40
0.0
 40
0.0
 40
0.0
 40
1.0
 40
1.0
 40
1.0
 40
2.0
 40
2.0
 40
2.0
 40
2.0
 10
385.8986949645437
 20
1340.868714286814
 30
0.0
 10
385.9060242860351
 20
1340.867977552246
 30
0.0
 10
385.9133519688144
 20
1340.867224553669
 30
0.0
 10
385.9206779432725
 20
1340.866455308276
 30
0.0
 10
385.9912800204547
 20
1340.858566112831
 30
0.0
 10
452.9663012654796
 20
1341.333358468908
 30
0.0
 10
452.9663012654796
 20
1341.333358468908
 30
0.0
  0
SPLINE
  5
3FD4
330
A
100
AcDbEntity
  8
MODEL
100
AcDbSpline
210
0.0
220
0.0
230
1.0
 70
     8
 71
     3
 72
    11
 73
     7
 74
     0
 42
0.000000001
 43
0.0000000001
 40
0.0
 40
0.0
 40
0.0
 40
0.0
 40
1.0
 40
1.0
 40
1.0
 40
2.0
 40
2.0
 40
2.0
 40
2.0
 10
737.8810284806764
 20
1044.422481096203
 30
0.0
 10
737.9501611023584
 20
1042.442781539022
 30
0.0
 10
737.2967008504124
 20
1040.740459401021
 30
0.0
 10
735.920647724864
 20
1039.315514682193
 30
0.0
 10
734.544594599302
 20
1037.890569963365
 30
0.0
 10
732.8661149008321
 20
1037.178097603061
 30
0.0
 10
730.8852086294278
 20
1037.178097601277
 30
0.0
  0
SPLINE
  5
3FD5
330
A
100
AcDbEntity
  8
MODEL
100
AcDbSpline
210
0.0
220
0.0
230
1.0
 70
    24
 71
     3
 72
     8
 73
     4
 74
     0
 42
0.000000001
 43
0.0000000001
 40
0.0
 40
0.0
 40
0.0
 40
0.0
 40
1.0
 40
1.0
 40
1.0
 40
1.0
 10
374.1296355521954
 20
1037.178097601278
 30
0.0
 10
374.1593315385835
 20
1037.178097601278
 30
0.0
 10
374.1890275249712
 20
1037.178097601278
 30
0.0
 10
374.2187235113593
 20
1037.178097601278
 30
0.0
  0
SPLINE
  5
3FD6
330
A
100
AcDbEntity
  8
MODEL
100
AcDbSpline
210
0.0
220
0.0
230
1.0
 70
    24
 71
     3
 72
     8
 73
     4
 74
     0
 42
0.000000001
 43
0.0000000001
 40
0.0
 40
0.0
 40
0.0
 40
0.0
 40
1.0
 40
1.0
 40
1.0
 40
1.0
 10
374.129636205068
 20
1037.178097601278
 30
0.0
 10
475.3646555926739
 20
1037.178097601278
 30
0.0
 10
405.4337131395218
 20
1037.178097601278
 30
0.0
 10
506.6687325271287
 20
1037.178097601278
 30
0.0
  0
SPLINE
  5
3FD7
330
A
100
AcDbEntity
  8
MODEL
100
AcDbSpline
210
0.0
220
0.0
230
1.0
 70
    24
 71
     3
 72
     8
 73
     4
 74
     0
 42
0.000000001
 43
0.0000000001
 40
0.0
 40
0.0
 40
0.0
 40
0.0
 40
1.0
 40
1.0
 40
1.0
 40
1.0
 10
642.1013004314045
 20
1037.178097601278
 30
0.0
 10
743.33631981901
 20
1037.178097601277
 30
0.0
 10
630.1599072874724
 20
1037.178097601278
 30
0.0
 10
731.3949266750778
 20
1037.178097601277
 30
0.0
  0
SPLINE
  5
3FD8
330
A
100
AcDbEntity
  8
MODEL
100
AcDbSpline
210
0.0
220
0.0
230
1.0
 70
    24
 71
     3
 72
     8
 73
     4
 74
     0
 42
0.000000001
 43
0.0000000001
 40
0.0
 40
0.0
 40
0.0
 40
0.0
 40
1.0
 40
1.0
 40
1.0
 40
1.0
 10
374.2250115031957
 20
1037.178097601278
 30
0.0
 10
374.2514942170274
 20
1037.178097601278
 30
0.0
 10
374.277976930864
 20
1037.178097601278
 30
0.0
 10
374.3044596446957
 20
1037.178097601278
 30
0.0
  0
SPLINE
  5
3FD9
330
A
100
AcDbEntity
  8
MODEL
100
AcDbSpline
210
0.0
220
0.0
230
1.0
 70
    24
 71
     3
 72
     8
 73
     4
 74
     0
 42
0.000000001
 43
0.0000000001
 40
0.0
 40
0.0
 40
0.0
 40
0.0
 40
1.0
 40
1.0
 40
1.0
 40
1.0
 10
445.1725185800465
 20
1352.181813197131
 30
0.0
 10
421.4915575707614
 20
1352.181813338383
 30
0.0
 10
397.8105965614754
 20
1352.181813479632
 30
0.0
 10
374.1296355521959
 20
1352.181813620891
 30
0.0
  0
SPLINE
  5
3FDA
330
A
100
AcDbEntity
  8
MODEL
100
AcDbSpline
210
0.0
220
0.0
230
1.0
 70
     8
 71
     3
 72
     8
 73
     4
 74
     0
 42
0.000000001
 43
0.0000000001
 40
0.0
 40
0.0
 40
0.0
 40
0.0
 40
1.0
 40
1.0
 40
1.0
 40
1.0
 10
853.693687057857
 20
1257.982350616787
 30
0.0
 10
853.9881308403219
 20
1258.771481685819
 30
0.0
 10
854.1353529506696
 20
1259.587184070166
 30
0.0
 10
854.135353388901
 20
1260.429457769829
 30
0.0
  0
SPLINE
  5
3FDB
330
A
100
AcDbEntity
  8
MODEL
100
AcDbSpline
210
0.0
220
0.0
230
1.0
 70
     8
 71
     3
 72
     8
 73
     4
 74
     0
 42
0.000000001
 43
0.0000000001
 40
0.0
 40
0.0
 40
0.0
 40
0.0
 40
1.0
 40
1.0
 40
1.0
 40
1.0
 10
445.179656119597
 20
1352.181813197086
 30
0.0
 10
449.0955017310403
 20
1352.181813065905
 30
0.0
 10
451.3934143202873
 20
1350.253635451366
 30
0.0
 10
452.0733938873268
 20
1346.397280353465
 30
0.0
  0
SPLINE
  5
3FDC
330
A
100
AcDbEntity
  8
MODEL
100
AcDbSpline
210
0.0
220
0.0
230
1.0
 70
    24
 71
     3
 72
     8
 73
     4
 74
     0
 42
0.000000001
 43
0.0000000001
 40
0.0
 40
0.0
 40
0.0
 40
0.0
 40
1.0
 40
1.0
 40
1.0
 40
1.0
 10
854.135353388901
 20
1295.18119721379
 30
0.0
 10
854.135353388901
 20
1283.597284065804
 30
0.0
 10
854.135353388901
 20
1272.013370917815
 30
0.0
 10
854.135353388901
 20
1260.429457769829
 30
0.0
  0
SPLINE
  5
3FDD
102
{ACAD_REACTORS
330
424C
102
}
330
A
100
AcDbEntity
  8
HIDDEN
 48
0.5
100
AcDbSpline
210
0.0
220
0.0
230
1.0
 70
     8
 71
     3
 72
     8
 73
     4
 74
     0
 42
0.000000001
 43
0.0000000001
 40
0.0
 40
0.0
 40
0.0
 40
0.0
 40
1.0
 40
1.0
 40
1.0
 40
1.0
 10
560.7756089905147
 20
1173.582693194016
 30
0.0
 10
560.3545055663103
 20
1174.454235207592
 30
0.0
 10
559.921958097772
 20
1175.320060022582
 30
0.0
 10
559.4779665848941
 20
1176.180167638985
 30
0.0
  0
SPLINE
  5
3FDE
102
{ACAD_REACTORS
330
424C
102
}
330
A
100
AcDbEntity
  8
HIDDEN
 48
0.5
100
AcDbSpline
210
0.0
220
0.0
230
1.0
 70
     8
 71
     3
 72
     8
 73
     4
 74
     0
 42
0.000000001
 43
0.0000000001
 40
0.0
 40
0.0
 40
0.0
 40
0.0
 40
1.0
 40
1.0
 40
1.0
 40
1.0
 10
569.6226046733632
 20
1146.179721100366
 30
0.0
 10
567.9883281923662
 20
1155.82881205431
 30
0.0
 10
564.9054414768566
 20
1164.993040346986
 30
0.0
 10
560.8673005837904
 20
1173.392443990896
 30
0.0
  0
SPLINE
  5
3FDF
330
A
100
AcDbEntity
  8
MODEL
100
AcDbSpline
210
0.0
220
0.0
230
1.0
 70
     8
 71
     3
 72
     8
 73
     4
 74
     0
 42
0.000000001
 43
0.0000000001
 40
0.0
 40
0.0
 40
0.0
 40
0.0
 40
1.0
 40
1.0
 40
1.0
 40
1.0
 10
472.0349520598547
 20
1302.178179342445
 30
0.0
 10
597.5951560720914
 20
1302.178179342415
 30
0.0
 10
721.575065291649
 20
1302.181280823472
 30
0.0
 10
847.1352693038816
 20
1302.181280823446
 30
0.0
  0
SPLINE
  5
3FE0
102
{ACAD_REACTORS
330
424C
102
}
330
A
100
AcDbEntity
  8
HIDDEN
 48
0.5
100
AcDbSpline
210
0.0
220
0.0
230
1.0
 70
     8
 71
     3
 72
     8
 73
     4
 74
     0
 42
0.000000001
 43
0.0000000001
 40
0.0
 40
0.0
 40
0.0
 40
0.0
 40
1.0
 40
1.0
 40
1.0
 40
1.0
 10
523.6953825947362
 20
1302.181280823447
 30
0.0
 10
527.3206060173602
 20
1302.181290911432
 30
0.0
 10
529.3109994090883
 20
1300.377423762025
 30
0.0
 10
529.6665627699085
 20
1296.769679375222
 30
0.0
  0
SPLINE
  5
3FE1
102
{ACAD_REACTORS
330
424C
102
}
330
A
100
AcDbEntity
  8
HIDDEN
 48
0.5
100
AcDbSpline
210
0.0
220
0.0
230
1.0
 70
     8
 71
     3
 72
     8
 73
     4
 74
     0
 42
0.000000001
 43
0.0000000001
 40
0.0
 40
0.0
 40
0.0
 40
0.0
 40
1.0
 40
1.0
 40
1.0
 40
1.0
 10
515.4507447294604
 20
1243.503037446271
 30
0.0
 10
515.4566237851905
 20
1243.503273124722
 30
0.0
 10
515.5726867656645
 20
1243.501457218728
 30
0.0
 10
515.7983849585462
 20
1243.497566956555
 30
0.0
  0
SPLINE
  5
3FE2
102
{ACAD_REACTORS
330
424C
102
}
330
A
100
AcDbEntity
  8
HIDDEN
 48
0.5
100
AcDbSpline
210
0.0
220
0.0
230
1.0
 70
     8
 71
     3
 72
    14
 73
    10
 74
     0
 42
0.000000001
 43
0.0000000001
 40
0.0
 40
0.0
 40
0.0
 40
0.0
 40
1.0
 40
1.0
 40
1.0
 40
2.0
 40
2.0
 40
2.0
 40
3.0
 40
3.0
 40
3.0
 40
3.0
 10
839.1351734995983
 20
1285.181076616358
 30
0.0
 10
839.1351736664647
 20
1289.1811203078
 30
0.0
 10
837.1351519041768
 20
1291.181144332123
 30
0.0
 10
833.1351082127376
 20
1291.181148689338
 30
0.0
 10
831.3892493622875
 20
1291.342714818458
 30
0.0
 10
817.9773704493455
 20
1291.42563208805
 30
0.0
 10
817.9773704493455
 20
1291.42563208805
 30
0.0
 10
815.4414342286104
 20
1291.550102394113
 30
0.0
 10
814.1348228113798
 20
1292.642207670943
 30
0.0
 10
814.1348231170309
 20
1295.181196716355
 30
0.0
  0
SPLINE
  5
3FE3
102
{ACAD_REACTORS
330
424C
102
}
330
A
100
AcDbEntity
  8
HIDDEN
 48
0.5
100
AcDbSpline
210
0.0
220
0.0
230
1.0
 70
     8
 71
     3
 72
    11
 73
     7
 74
     0
 42
0.000000001
 43
0.0000000001
 40
0.0
 40
0.0
 40
0.0
 40
0.0
 40
1.0
 40
1.0
 40
1.0
 40
2.0
 40
2.0
 40
2.0
 40
2.0
 10
511.8000227280691
 20
1238.227201755606
 30
0.0
 10
511.3722007129518
 20
1239.495823451169
 30
0.0
 10
511.5391983551444
 20
1240.680603890575
 30
0.0
 10
512.3010156546516
 20
1241.781543073836
 30
0.0
 10
513.0628329541573
 20
1242.882482257098
 30
0.0
 10
514.1127426457601
 20
1243.45631371458
 30
0.0
 10
515.4507447294604
 20
1243.503037446271
 30
0.0
  0
SPLINE
  5
3FE4
102
{ACAD_REACTORS
330
424C
102
}
330
A
100
AcDbEntity
  8
HIDDEN
 48
0.5
100
AcDbSpline
210
0.0
220
0.0
230
1.0
 70
    24
 71
     3
 72
     8
 73
     4
 74
     0
 42
0.000000001
 43
0.0000000001
 40
0.0
 40
0.0
 40
0.0
 40
0.0
 40
1.0
 40
1.0
 40
1.0
 40
1.0
 10
515.7983849585462
 20
1243.497566956555
 30
0.0
 10
522.3172067250589
 20
1243.725223990539
 30
0.0
 10
528.836028491572
 20
1243.952881024516
 30
0.0
 10
535.3548502580911
 20
1244.180538058491
 30
0.0
  0
SPLINE
  5
3FE5
102
{ACAD_REACTORS
330
424C
102
}
330
A
100
AcDbEntity
  8
HIDDEN
 48
0.5
100
AcDbSpline
210
0.0
220
0.0
230
1.0
 70
     8
 71
     3
 72
     8
 73
     4
 74
     0
 42
0.000000001
 43
0.0000000001
 40
0.0
 40
0.0
 40
0.0
 40
0.0
 40
1.0
 40
1.0
 40
1.0
 40
1.0
 10
529.6665627699085
 20
1296.769679375222
 30
0.0
 10
531.3940707983079
 20
1279.240168108772
 30
0.0
 10
533.1191596540889
 20
1261.710223781299
 30
0.0
 10
534.8417688409377
 20
1244.180186929668
 30
0.0
  0
SPLINE
  5
3FE6
102
{ACAD_REACTORS
330
424C
102
}
330
A
100
AcDbEntity
  8
HIDDEN
 48
0.5
100
AcDbSpline
210
0.0
220
0.0
230
1.0
 70
    24
 71
     3
 72
     8
 73
     4
 74
     0
 42
0.000000001
 43
0.0000000001
 40
0.0
 40
0.0
 40
0.0
 40
0.0
 40
1.0
 40
1.0
 40
1.0
 40
1.0
 10
839.1351734995983
 20
1285.181076616358
 30
0.0
 10
839.1351730589286
 20
1277.730727416047
 30
0.0
 10
839.135172618262
 20
1270.280378215735
 30
0.0
 10
839.1351721775959
 20
1262.830029015427
 30
0.0
  0
SPLINE
  5
3FE7
102
{ACAD_REACTORS
330
424C
102
}
330
A
100
AcDbEntity
  8
HIDDEN
 48
0.5
100
AcDbSpline
210
0.0
220
0.0
230
1.0
 70
     8
 71
     3
 72
     8
 73
     4
 74
     0
 42
0.000000001
 43
0.0000000001
 40
0.0
 40
0.0
 40
0.0
 40
0.0
 40
1.0
 40
1.0
 40
1.0
 40
1.0
 10
822.2893753114058
 20
1249.886652589182
 30
0.0
 10
817.295248861054
 20
1249.794977070171
 30
0.0
 10
813.3795621864906
 20
1246.77742411953
 30
0.0
 10
811.2693875489408
 20
1242.250077611706
 30
0.0
  0
SPLINE
  5
3FE8
102
{ACAD_REACTORS
330
424C
102
}
330
A
100
AcDbEntity
  8
HIDDEN
 48
0.5
100
AcDbSpline
210
0.0
220
0.0
230
1.0
 70
     8
 71
     3
 72
     8
 73
     4
 74
     0
 42
0.000000001
 43
0.0000000001
 40
0.0
 40
0.0
 40
0.0
 40
0.0
 40
1.0
 40
1.0
 40
1.0
 40
1.0
 10
514.7447885461215
 20
1231.3674255394
 30
0.0
 10
513.5812117337741
 20
1233.575893685497
 30
0.0
 10
512.5996231277568
 20
1235.862485757564
 30
0.0
 10
511.8000227280691
 20
1238.227201755606
 30
0.0
  0
SPLINE
  5
3FE9
102
{ACAD_REACTORS
330
424C
102
}
330
A
100
AcDbEntity
  8
HIDDEN
 48
0.5
100
AcDbSpline
210
0.0
220
0.0
230
1.0
 70
     8
 71
     3
 72
    14
 73
    10
 74
     0
 42
0.000000001
 43
0.0000000001
 40
0.0
 40
0.0
 40
0.0
 40
0.0
 40
1.0
 40
1.0
 40
1.0
 40
2.0
 40
2.0
 40
2.0
 40
3.0
 40
3.0
 40
3.0
 40
3.0
 10
536.2558612051416
 20
1206.300310812421
 30
0.0
 10
534.132453825925
 20
1208.250494828785
 30
0.0
 10
532.0206569957604
 20
1210.211760717443
 30
0.0
 10
529.9575455679233
 20
1212.220492724962
 30
0.0
 10
527.4423744225264
 20
1214.66936907551
 30
0.0
 10
525.0031774414133
 20
1217.18611027469
 30
0.0
 10
522.7190606066429
 20
1219.852373047661
 30
0.0
 10
520.6795215403185
 20
1222.233138778991
 30
0.0
 10
518.7718959949752
 20
1224.72192887114
 30
0.0
 10
517.0615651053845
 20
1227.391772093509
 30
0.0
  0
SPLINE
  5
3FEA
102
{ACAD_REACTORS
330
424C
102
}
330
A
100
AcDbEntity
  8
HIDDEN
 48
0.5
100
AcDbSpline
210
0.0
220
0.0
230
1.0
 70
    24
 71
     3
 72
     8
 73
     4
 74
     0
 42
0.000000001
 43
0.0000000001
 40
0.0
 40
0.0
 40
0.0
 40
0.0
 40
1.0
 40
1.0
 40
1.0
 40
1.0
 10
829.762502387905
 20
1249.886652589182
 30
0.0
 10
761.077390656686
 20
1249.886652589183
 30
0.0
 10
602.9660381896515
 20
1249.886652589183
 30
0.0
 10
534.2809264584384
 20
1249.886652589183
 30
0.0
  0
SPLINE
  5
3FEB
330
A
100
AcDbEntity
  8
MODEL
100
AcDbSpline
210
0.0
220
0.0
230
1.0
 70
     8
 71
     3
 72
     8
 73
     4
 74
     0
 42
0.000000001
 43
0.0000000001
 40
0.0
 40
0.0
 40
0.0
 40
0.0
 40
1.0
 40
1.0
 40
1.0
 40
1.0
 10
374.1307776893063
 20
1295.017108442554
 30
0.0
 10
374.1319875636527
 20
1295.052377044724
 30
0.0
 10
374.1341568208704
 20
1295.087588234792
 30
0.0
 10
374.1372854609458
 20
1295.122742012765
 30
0.0
  0
POLYLINE
  5
3FEC
330
A
100
AcDbEntity
  8
MODEL
 62
   250
420
  1842203
100
AcDb2dPolyline
 66
     1
 10
0.0
 20
0.0
 30
0.0
  0
VERTEX
  5
3FED
330
3FEC
100
AcDbEntity
  8
MODEL
 62
   250
420
  1842203
100
AcDbVertex
100
AcDb2dVertex
 10
524.8351511246938
 20
1302.174874426688
 30
0.0
  0
VERTEX
  5
3FEE
330
3FEC
100
AcDbEntity
  8
MODEL
 62
   250
420
  1842203
100
AcDbVertex
100
AcDb2dVertex
 10
524.7761831007138
 20
1302.177318572494
 30
0.0
  0
VERTEX
  5
3FEF
330
3FEC
100
AcDbEntity
  8
MODEL
 62
   250
420
  1842203
100
AcDbVertex
100
AcDb2dVertex
 10
524.7171939198302
 20
1302.179178462223
 30
0.0
  0
SEQEND
  5
3FF0
330
3FEC
100
AcDbEntity
  8
MODEL
 62
   250
420
  1842203
  0
SPLINE
  5
3FF1
330
A
100
AcDbEntity
  8
MODEL
100
AcDbSpline
210
0.0
220
0.0
230
1.0
 70
     8
 71
     3
 72
     8
 73
     4
 74
     0
 42
0.000000001
 43
0.0000000001
 40
0.0
 40
0.0
 40
0.0
 40
0.0
 40
1.0
 40
1.0
 40
1.0
 40
1.0
 10
374.1296643139967
 20
1352.181813620891
 30
0.0
 10
374.1311298357441
 20
1280.433677188913
 30
0.0
 10
374.1325953574924
 20
1108.926234033256
 30
0.0
 10
374.1340608792389
 20
1037.178097601278
 30
0.0
  0
POLYLINE
  5
3FF2
330
A
100
AcDbEntity
  8
HIDDEN
 48
0.5
100
AcDb2dPolyline
 66
     1
 10
0.0
 20
0.0
 30
0.0
  0
VERTEX
  5
3FF3
330
3FF2
100
AcDbEntity
  8
HIDDEN
 48
0.5
100
AcDbVertex
100
AcDb2dVertex
 10
398.0631255355556
 20
1132.653412716802
 30
0.0
  0
VERTEX
  5
3FF4
330
3FF2
100
AcDbEntity
  8
HIDDEN
 48
0.5
100
AcDbVertex
100
AcDb2dVertex
 10
388.4435361297587
 20
1132.462052061034
 30
0.0
  0
SEQEND
  5
3FF5
330
3FF2
100
AcDbEntity
  8
HIDDEN
 48
0.5
  0
SPLINE
  5
3FF6
102
{ACAD_REACTORS
330
424C
102
}
330
A
100
AcDbEntity
  8
HIDDEN
 48
0.5
100
AcDbSpline
210
0.0
220
0.0
230
1.0
 70
     8
 71
     3
 72
     8
 73
     4
 74
     0
 42
0.000000001
 43
0.0000000001
 40
0.0
 40
0.0
 40
0.0
 40
0.0
 40
1.0
 40
1.0
 40
1.0
 40
1.0
 10
397.9574914709879
 20
1210.234936558354
 30
0.0
 10
397.5337395129222
 20
1210.234936558354
 30
0.0
 10
388.4238073244182
 20
1210.489187733192
 30
0.0
 10
388.4238073244182
 20
1210.489187733192
 30
0.0
  0
SPLINE
  5
3FF7
102
{ACAD_REACTORS
330
424C
102
}
330
A
100
AcDbEntity
  8
HIDDEN
 48
0.5
100
AcDbSpline
210
0.0
220
0.0
230
1.0
 70
     8
 71
     3
 72
     8
 73
     4
 74
     0
 42
0.000000001
 43
0.0000000001
 40
0.0
 40
0.0
 40
0.0
 40
0.0
 40
1.0
 40
1.0
 40
1.0
 40
1.0
 10
450.7385429819492
 20
1112.787955956527
 30
0.0
 10
450.6687709909224
 20
1112.171791558777
 30
0.0
 10
444.8980026468221
 20
1046.076021620256
 30
0.0
 10
444.8980026468221
 20
1046.076021620256
 30
0.0
  0
SPLINE
  5
3FF8
102
{ACAD_REACTORS
330
424C
102
}
330
A
100
AcDbEntity
  8
HIDDEN
 48
0.5
100
AcDbSpline
210
0.0
220
0.0
230
1.0
 70
     8
 71
     3
 72
     8
 73
     4
 74
     0
 42
0.000000001
 43
0.0000000001
 40
0.0
 40
0.0
 40
0.0
 40
0.0
 40
1.0
 40
1.0
 40
1.0
 40
1.0
 10
416.8361472439478
 20
1279.739730582537
 30
0.0
 10
413.5771471806779
 20
1279.551326700921
 30
0.0
 10
390.4005331598796
 20
1278.791204940931
 30
0.0
 10
390.4005331598796
 20
1278.791204940931
 30
0.0
  0
SPLINE
  5
3FF9
102
{ACAD_REACTORS
330
424C
102
}
330
A
100
AcDbEntity
  8
HIDDEN
 48
0.5
100
AcDbSpline
210
0.0
220
0.0
230
1.0
 70
     8
 71
     3
 72
     8
 73
     4
 74
     0
 42
0.000000001
 43
0.0000000001
 40
0.0
 40
0.0
 40
0.0
 40
0.0
 40
1.0
 40
1.0
 40
1.0
 40
1.0
 10
397.9642041077491
 20
1210.234936558354
 30
0.0
 10
397.8971095117267
 20
1197.228993241986
 30
0.0
 10
397.7321240103684
 20
1145.855013057376
 30
0.0
 10
398.0746317837043
 20
1132.653412716802
 30
0.0
  0
SPLINE
  5
3FFA
102
{ACAD_REACTORS
330
424C
102
}
330
A
100
AcDbEntity
  8
HIDDEN
 48
0.5
100
AcDbSpline
210
0.0
220
0.0
230
1.0
 70
     8
 71
     3
 72
     8
 73
     4
 74
     0
 42
0.000000001
 43
0.0000000001
 40
0.0
 40
0.0
 40
0.0
 40
0.0
 40
1.0
 40
1.0
 40
1.0
 40
1.0
 10
569.6226046733632
 20
1146.179721100366
 30
0.0
 10
571.7429718572475
 20
1133.22192164327
 30
0.0
 10
574.1103879922107
 20
1081.951060715766
 30
0.0
 10
574.482898535377
 20
1080.088507999943
 30
0.0
  0
SPLINE
  5
40EE
330
A
100
AcDbEntity
  8
MODEL
100
AcDbSpline
210
0.0
220
0.0
230
1.0
 70
     8
 71
     3
 72
    80
 73
    76
 74
     0
 42
0.000000001
 43
0.0000000001
 40
0.0
 40
0.0
 40
0.0
 40
0.0
 40
1.0
 40
1.0
 40
1.0
 40
2.0
 40
2.0
 40
2.0
 40
3.0
 40
3.0
 40
3.0
 40
4.0
 40
4.0
 40
4.0
 40
5.0
 40
5.0
 40
5.0
 40
6.0
 40
6.0
 40
6.0
 40
7.0
 40
7.0
 40
7.0
 40
8.0
 40
8.0
 40
8.0
 40
9.0
 40
9.0
 40
9.0
 40
10.0
 40
10.0
 40
10.0
 40
11.0
 40
11.0
 40
11.0
 40
12.0
 40
12.0
 40
12.0
 40
13.0
 40
13.0
 40
13.0
 40
14.0
 40
14.0
 40
14.0
 40
15.0
 40
15.0
 40
15.0
 40
16.0
 40
16.0
 40
16.0
 40
17.0
 40
17.0
 40
17.0
 40
18.0
 40
18.0
 40
18.0
 40
19.0
 40
19.0
 40
19.0
 40
20.0
 40
20.0
 40
20.0
 40
21.0
 40
21.0
 40
21.0
 40
22.0
 40
22.0
 40
22.0
 40
23.0
 40
23.0
 40
23.0
 40
24.0
 40
24.0
 40
24.0
 40
25.0
 40
25.0
 40
25.0
 40
25.0
 10
1469.574150979302
 20
1005.730795750716
 30
0.0
 10
1468.658995881173
 20
1005.72977663369
 30
0.0
 10
1467.743978221936
 20
1005.745669257915
 30
0.0
 10
1466.82941049787
 20
1005.778468195726
 30
0.0
 10
1465.712410681406
 20
1005.815558259879
 30
0.0
 10
1464.596848074852
 20
1005.88326596772
 30
0.0
 10
1463.483561768269
 20
1005.981540391709
 30
0.0
 10
1461.968139120864
 20
1006.113310042785
 30
0.0
 10
1460.459834755368
 20
1006.310507867881
 30
0.0
 10
1458.961472186937
 20
1006.57276471668
 30
0.0
 10
1457.478215577954
 20
1006.8334226795
 30
0.0
 10
1456.008420070664
 20
1007.161590180068
 30
0.0
 10
1454.555156652505
 20
1007.556581545947
 30
0.0
 10
1453.47913759613
 20
1007.849533089902
 30
0.0
 10
1452.41389587904
 20
1008.179529606495
 30
0.0
 10
1451.360706464361
 20
1008.546176130551
 30
0.0
 10
1451.26386681089
 20
1008.579891658396
 30
0.0
 10
1451.167132659466
 20
1008.613916469171
 30
0.0
 10
1451.070509466428
 20
1008.648248664197
 30
0.0
 10
1450.30054215067
 20
1008.921839076746
 30
0.0
 10
1449.537765204309
 20
1009.214879536871
 30
0.0
 10
1448.782669862628
 20
1009.527181323836
 30
0.0
 10
1448.336017385319
 20
1009.711911249254
 30
0.0
 10
1447.892180893517
 20
1009.903308086689
 30
0.0
 10
1447.451259893631
 20
1010.101328925714
 30
0.0
 10
1446.951962004793
 20
1010.325568885652
 30
0.0
 10
1446.456524881291
 20
1010.558214534832
 30
0.0
 10
1445.965090020823
 20
1010.799199429257
 30
0.0
 10
1445.63430432346
 20
1010.961481806393
 30
0.0
 10
1445.305344764932
 20
1011.1274346803
 30
0.0
 10
1444.97825207259
 20
1011.297037504921
 30
0.0
 10
1444.697815749686
 20
1011.442462049232
 30
0.0
 10
1444.418821178861
 20
1011.590633769672
 30
0.0
 10
1444.141295270833
 20
1011.741538374188
 30
0.0
 10
1444.07342785344
 20
1011.778429059368
 30
0.0
 10
1444.001846143596
 20
1011.817546235542
 30
0.0
 10
1443.926584690436
 20
1011.858944883484
 30
0.0
 10
1443.158617751215
 20
1012.282213966563
 30
0.0
 10
1442.401897225883
 20
1012.725276019737
 30
0.0
 10
1441.656933129027
 20
1013.187832428001
 30
0.0
 10
1441.147182692619
 20
1013.506965777172
 30
0.0
 10
1440.642270275082
 20
1013.83369969428
 30
0.0
 10
1440.142309194773
 20
1014.167960849892
 30
0.0
 10
1440.003517428663
 20
1014.261287089334
 30
0.0
 10
1439.90018249201
 20
1014.331477420684
 30
0.0
 10
1439.773810074647
 20
1014.417963207798
 30
0.0
 10
1439.642212762978
 20
1014.508024768053
 30
0.0
 10
1439.551519102863
 20
1014.570567122887
 30
0.0
 10
1439.413513813176
 20
1014.666635257696
 30
0.0
 10
1439.238716516015
 20
1014.788315016107
 30
0.0
 10
1439.061379231593
 20
1014.913340784364
 30
0.0
 10
1438.887060029336
 20
1015.037827203643
 30
0.0
 10
1438.696662203242
 20
1015.173795836481
 30
0.0
 10
1438.506055257717
 20
1015.311810905906
 30
0.0
 10
1438.316639061232
 20
1015.450889858421
 30
0.0
 10
1437.96484874729
 20
1015.711610609892
 30
0.0
 10
1437.61512716917
 20
1015.975099799479
 30
0.0
 10
1437.267496112766
 20
1016.241341013145
 30
0.0
 10
1437.18695206119
 20
1016.303971954677
 30
0.0
 10
1437.106408009615
 20
1016.366602896208
 30
0.0
 10
1437.025863958036
 20
1016.42923383774
 30
0.0
 10
1435.870986132712
 20
1017.333360394152
 30
0.0
 10
1434.754196210687
 20
1018.284132654736
 30
0.0
 10
1433.677376896137
 20
1019.279947790826
 30
0.0
 10
1433.05346605923
 20
1019.857409192314
 30
0.0
 10
1432.443565498151
 20
1020.449648762257
 30
0.0
 10
1431.848025158372
 20
1021.0563266886
 30
0.0
 10
1430.200285898832
 20
1022.73549876227
 30
0.0
 10
1428.666629970901
 20
1024.519472701296
 30
0.0
 10
1427.25370734451
 20
1026.400513150688
 30
0.0
 10
1425.108316225114
 20
1029.259454637574
 30
0.0
 10
1423.254520591255
 20
1032.315545478589
 30
0.0
 10
1421.710297352694
 20
1035.539149683525
 30
0.0
 10
1421.449758757761
 20
1036.082752536976
 30
0.0
 10
1421.198179938853
 20
1036.630559546422
 30
0.0
 10
1420.955628710593
 20
1037.182423047118
 30
0.0
  0
SPLINE
  5
40EF
330
A
100
AcDbEntity
  8
MODEL
100
AcDbSpline
210
0.0
220
0.0
230
1.0
 70
     8
 71
     3
 72
    11
 73
     7
 74
     0
 42
0.000000001
 43
0.0000000001
 40
0.0
 40
0.0
 40
0.0
 40
0.0
 40
1.0
 40
1.0
 40
1.0
 40
2.0
 40
2.0
 40
2.0
 40
2.0
 10
1366.42706755059
 20
1070.355653027681
 30
0.0
 10
1354.289196183353
 20
1110.534231047583
 30
0.0
 10
1342.151795863815
 20
1150.712968544467
 30
0.0
 10
1330.014607658973
 20
1190.891787275764
 30
0.0
 10
1328.473874693561
 20
1195.992213295849
 30
0.0
 10
1326.928575877474
 20
1201.107762192149
 30
0.0
 10
1325.378708692113
 20
1206.238433203828
 30
0.0
  0
SPLINE
  5
40F0
330
A
100
AcDbEntity
  8
MODEL
100
AcDbSpline
210
0.0
220
0.0
230
1.0
 70
     8
 71
     3
 72
    11
 73
     7
 74
     0
 42
0.000000001
 43
0.0000000001
 40
0.0
 40
0.0
 40
0.0
 40
0.0
 40
1.0
 40
1.0
 40
1.0
 40
2.0
 40
2.0
 40
2.0
 40
2.0
 10
1375.079783092791
 20
1042.240264997565
 30
0.0
 10
1374.289889617206
 20
1044.873998553966
 30
0.0
 10
1369.416613541097
 20
1060.437895363116
 30
0.0
 10
1368.61156108898
 20
1063.111946279422
 30
0.0
 10
1367.888883396937
 20
1065.512382349796
 30
0.0
 10
1367.154419824417
 20
1067.947984014571
 30
0.0
 10
1366.427067941275
 20
1070.355652000597
 30
0.0
  0
SPLINE
  5
40F1
330
A
100
AcDbEntity
  8
MODEL
100
AcDbSpline
210
0.0
220
0.0
230
1.0
 70
     8
 71
     3
 72
     8
 73
     4
 74
     0
 42
0.000000001
 43
0.0000000001
 40
0.0
 40
0.0
 40
0.0
 40
0.0
 40
1.0
 40
1.0
 40
1.0
 40
1.0
 10
1314.58434617843
 20
1230.980800776689
 30
0.0
 10
1314.476346588136
 20
1231.283517202538
 30
0.0
 10
1314.369106767479
 20
1231.586498981781
 30
0.0
 10
1314.262630917997
 20
1231.889740912248
 30
0.0
  0
SPLINE
  5
40F2
330
A
100
AcDbEntity
  8
MODEL
100
AcDbSpline
210
0.0
220
0.0
230
1.0
 70
     8
 71
     3
 72
    11
 73
     7
 74
     0
 42
0.000000001
 43
0.0000000001
 40
0.0
 40
0.0
 40
0.0
 40
0.0
 40
1.0
 40
1.0
 40
1.0
 40
2.0
 40
2.0
 40
2.0
 40
2.0
 10
1314.064012833347
 20
1232.458696318916
 30
0.0
 10
1312.54901829678
 20
1236.827693315005
 30
0.0
 10
1311.176933373962
 20
1241.241119316206
 30
0.0
 10
1309.947758064891
 20
1245.698974322508
 30
0.0
 10
1308.781007985725
 20
1249.913953540715
 30
0.0
 10
1307.735596683961
 20
1254.158815691452
 30
0.0
 10
1306.811524159596
 20
1258.433560774717
 30
0.0
  0
SPLINE
  5
40F3
330
A
100
AcDbEntity
  8
MODEL
100
AcDbSpline
210
0.0
220
0.0
230
1.0
 70
     8
 71
     3
 72
    17
 73
    13
 74
     0
 42
0.000000001
 43
0.0000000001
 40
0.8019207083067089
 40
0.8019207083067089
 40
0.8019207083067089
 40
0.8019207083067089
 40
1.0
 40
1.0
 40
1.0
 40
2.0
 40
2.0
 40
2.0
 40
3.0
 40
3.0
 40
3.0
 40
4.0
 40
4.0
 40
4.0
 40
4.0
 10
1308.959056717909
 20
1346.330425837194
 30
0.0
 10
1309.010187721171
 20
1346.492958724525
 30
0.0
 10
1309.067451972821
 20
1346.654294580112
 30
0.0
 10
1309.130849472859
 20
1346.814433403954
 30
0.0
 10
1309.486611776315
 20
1347.713070681587
 30
0.0
 10
1310.006201095438
 20
1348.504097487803
 30
0.0
 10
1310.689617430225
 20
1349.187513822587
 30
0.0
 10
1311.373033765013
 20
1349.870930157378
 30
0.0
 10
1312.164060571225
 20
1350.3905194765
 30
0.0
 10
1313.062697848858
 20
1350.746281779954
 30
0.0
 10
1313.862786773444
 20
1351.063029689112
 30
0.0
 10
1314.693052143019
 20
1351.226681165582
 30
0.0
 10
1315.553493957583
 20
1351.237236209374
 30
0.0
  0
SPLINE
  5
40F4
330
A
100
AcDbEntity
  8
MODEL
100
AcDbSpline
210
0.0
220
0.0
230
1.0
 70
     8
 71
     3
 72
     8
 73
     4
 74
     0
 42
0.000000001
 43
0.0000000001
 40
0.0
 40
0.0
 40
0.0
 40
0.0
 40
1.0
 40
1.0
 40
1.0
 40
1.0
 10
1306.809950170412
 20
1258.441234617497
 30
0.0
 10
1306.703610553556
 20
1258.930699102333
 30
0.0
 10
1306.650357084827
 20
1259.425872739111
 30
0.0
 10
1306.650189764225
 20
1259.926755527827
 30
0.0
  0
SPLINE
  5
40F6
330
A
100
AcDbEntity
  8
MODEL
100
AcDbSpline
210
0.0
220
0.0
230
1.0
 70
    24
 71
     3
 72
     8
 73
     4
 74
     0
 42
0.000000001
 43
0.0000000001
 40
0.0
 40
0.0
 40
0.0
 40
0.0
 40
1.0
 40
1.0
 40
1.0
 40
1.0
 10
1306.65016928847
 20
1259.934708131635
 30
0.0
 10
1306.650169288454
 20
1271.683798787387
 30
0.0
 10
1306.650169288439
 20
1283.432889443134
 30
0.0
 10
1306.650169288422
 20
1295.181980098887
 30
0.0
  0
SPLINE
  5
40F7
330
A
100
AcDbEntity
  8
MODEL
100
AcDbSpline
210
0.0
220
0.0
230
1.0
 70
     8
 71
     3
 72
    11
 73
     7
 74
     0
 42
0.000000001
 43
0.0000000001
 40
0.0
 40
0.0
 40
0.0
 40
0.0
 40
1.0
 40
1.0
 40
1.0
 40
1.076466332944396
 40
1.076466332944396
 40
1.076466332944396
 40
1.076466332944396
 10
1308.258321110852
 20
1299.646139084984
 30
0.0
 10
1308.302337230989
 20
1300.921642006801
 30
0.0
 10
1308.337726304892
 20
1302.197384242771
 30
0.0
 10
1308.364488332567
 20
1303.473365792896
 30
0.0
 10
1308.369659493109
 20
1303.726246848901
 30
0.0
 10
1308.374673507317
 20
1303.979129841104
 30
0.0
 10
1308.379530375191
 20
1304.232014769505
 30
0.0
  0
SPLINE
  5
40F8
330
A
100
AcDbEntity
  8
MODEL
100
AcDbSpline
210
0.0
220
0.0
230
1.0
 70
     8
 71
     3
 72
    11
 73
     7
 74
     0
 42
0.000000001
 43
0.0000000001
 40
0.0
 40
0.0
 40
0.0
 40
0.0
 40
1.0
 40
1.0
 40
1.0
 40
2.0
 40
2.0
 40
2.0
 40
2.0
 10
1306.650121726327
 20
1295.181980098875
 30
0.0
 10
1306.650129226725
 20
1297.114970163329
 30
0.0
 10
1307.333545567625
 20
1298.764882987404
 30
0.0
 10
1308.700370749017
 20
1300.131718571092
 30
0.0
 10
1310.067206590475
 20
1301.498543609108
 30
0.0
 10
1311.717119583877
 20
1302.181959945299
 30
0.0
 10
1313.650109729221
 20
1302.181967579648
 30
0.0
  0
SPLINE
  5
40F9
330
A
100
AcDbEntity
  8
MODEL
100
AcDbSpline
210
0.0
220
0.0
230
1.0
 70
     8
 71
     3
 72
    80
 73
    76
 74
     0
 42
0.000000001
 43
0.0000000001
 40
0.0
 40
0.0
 40
0.0
 40
0.0
 40
1.0
 40
1.0
 40
1.0
 40
2.0
 40
2.0
 40
2.0
 40
3.0
 40
3.0
 40
3.0
 40
4.0
 40
4.0
 40
4.0
 40
5.0
 40
5.0
 40
5.0
 40
6.0
 40
6.0
 40
6.0
 40
7.0
 40
7.0
 40
7.0
 40
8.0
 40
8.0
 40
8.0
 40
9.0
 40
9.0
 40
9.0
 40
10.0
 40
10.0
 40
10.0
 40
11.0
 40
11.0
 40
11.0
 40
12.0
 40
12.0
 40
12.0
 40
13.0
 40
13.0
 40
13.0
 40
14.0
 40
14.0
 40
14.0
 40
15.0
 40
15.0
 40
15.0
 40
16.0
 40
16.0
 40
16.0
 40
17.0
 40
17.0
 40
17.0
 40
18.0
 40
18.0
 40
18.0
 40
19.0
 40
19.0
 40
19.0
 40
20.0
 40
20.0
 40
20.0
 40
21.0
 40
21.0
 40
21.0
 40
22.0
 40
22.0
 40
22.0
 40
23.0
 40
23.0
 40
23.0
 40
24.0
 40
24.0
 40
24.0
 40
25.0
 40
25.0
 40
25.0
 40
25.0
 10
1518.192272315428
 20
1037.182423047118
 30
0.0
 10
1517.949721087169
 20
1036.630559546422
 30
0.0
 10
1517.698142268261
 20
1036.082752536976
 30
0.0
 10
1517.437603673325
 20
1035.539149683525
 30
0.0
 10
1515.893380434761
 20
1032.315545478589
 30
0.0
 10
1514.039584800908
 20
1029.259454637574
 30
0.0
 10
1511.894193681513
 20
1026.400513150688
 30
0.0
 10
1510.48127105512
 20
1024.519472701296
 30
0.0
 10
1508.94761512719
 20
1022.73549876227
 30
0.0
 10
1507.299875867649
 20
1021.0563266886
 30
0.0
 10
1506.704335527865
 20
1020.449648762251
 30
0.0
 10
1506.094434966778
 20
1019.857409192301
 30
0.0
 10
1505.470524129872
 20
1019.279947790807
 30
0.0
 10
1504.39370481531
 20
1018.284132654749
 30
0.0
 10
1503.276914893283
 20
1017.333360394165
 30
0.0
 10
1502.122037067987
 20
1016.42923383774
 30
0.0
 10
1502.041493016407
 20
1016.366602896208
 30
0.0
 10
1501.960948964828
 20
1016.303971954677
 30
0.0
 10
1501.880404913256
 20
1016.241341013145
 30
0.0
 10
1501.532773856879
 20
1015.975099799493
 30
0.0
 10
1501.18305227878
 20
1015.711610609917
 30
0.0
 10
1500.831261964861
 20
1015.450889858472
 30
0.0
 10
1500.641845762362
 20
1015.311810901542
 30
0.0
 10
1500.451238828663
 20
1015.173795840684
 30
0.0
 10
1500.260840996779
 20
1015.037827203707
 30
0.0
 10
1500.086521785911
 20
1014.913340778281
 30
0.0
 10
1499.909184518602
 20
1014.788315022088
 30
0.0
 10
1499.734387213151
 20
1014.666635257908
 30
0.0
 10
1499.596381920682
 20
1014.570567121168
 30
0.0
 10
1499.50568826627
 20
1014.508024770266
 30
0.0
 10
1499.374090951537
 20
1014.417963207914
 30
0.0
 10
1499.24771853476
 20
1014.331477421191
 30
0.0
 10
1499.144383596685
 20
1014.261287088878
 30
0.0
 10
1499.005591831236
 20
1014.167960849879
 30
0.0
 10
1498.50563075094
 20
1013.833699694261
 30
0.0
 10
1498.000718333406
 20
1013.506965777153
 30
0.0
 10
1497.490967896995
 20
1013.187832428001
 30
0.0
 10
1496.746003800158
 20
1012.72527601973
 30
0.0
 10
1495.989283274848
 20
1012.282213966563
 30
0.0
 10
1495.221316335633
 20
1011.858944883509
 30
0.0
 10
1495.146054477781
 20
1011.817546012963
 30
0.0
 10
1495.074472789225
 20
1011.778428850989
 30
0.0
 10
1495.006605755195
 20
1011.741538374188
 30
0.0
 10
1494.729079847167
 20
1011.590633769704
 30
0.0
 10
1494.450085276346
 20
1011.442462049264
 30
0.0
 10
1494.169648953467
 20
1011.29703750494
 30
0.0
 10
1493.842556261109
 20
1011.127434680275
 30
0.0
 10
1493.513596702553
 20
1010.961481806355
 30
0.0
 10
1493.182811005153
 20
1010.799199429237
 30
0.0
 10
1492.691376144682
 20
1010.558214534806
 30
0.0
 10
1492.195939021177
 20
1010.325568885626
 30
0.0
 10
1491.696641132343
 20
1010.101328925688
 30
0.0
 10
1491.255720132479
 20
1009.903308086677
 30
0.0
 10
1490.811883640712
 20
1009.71191124926
 30
0.0
 10
1490.36523116343
 20
1009.527181323856
 30
0.0
 10
1489.610135821738
 20
1009.214879536883
 30
0.0
 10
1488.847358875361
 20
1008.921839076752
 30
0.0
 10
1488.077391559597
 20
1008.648248664197
 30
0.0
 10
1487.980767660326
 20
1008.613916218235
 30
0.0
 10
1487.884033507257
 20
1008.579891411946
 30
0.0
 10
1487.787194561664
 20
1008.546176130551
 30
0.0
 10
1486.734005146997
 20
1008.179529606502
 30
0.0
 10
1485.668763429914
 20
1007.849533089908
 30
0.0
 10
1484.592744373546
 20
1007.556581545953
 30
0.0
 10
1483.139480955377
 20
1007.161590180068
 30
0.0
 10
1481.669685448075
 20
1006.8334226795
 30
0.0
 10
1480.186428839082
 20
1006.57276471668
 30
0.0
 10
1478.688066270648
 20
1006.310507867881
 30
0.0
 10
1477.179761905159
 20
1006.113310042778
 30
0.0
 10
1475.664339257753
 20
1005.981540391709
 30
0.0
 10
1474.551052951169
 20
1005.883265967714
 30
0.0
 10
1473.435490344619
 20
1005.815558259872
 30
0.0
 10
1472.318490528152
 20
1005.778468195726
 30
0.0
 10
1471.404057698816
 20
1005.74567389998
 30
0.0
 10
1470.489175034364
 20
1005.729781276455
 30
0.0
 10
1469.574154905603
 20
1005.730795751422
 30
0.0
  0
SPLINE
  5
40FA
330
A
100
AcDbEntity
  8
MODEL
100
AcDbSpline
210
0.0
220
0.0
230
1.0
 70
     8
 71
     3
 72
     8
 73
     4
 74
     0
 42
0.000000001
 43
0.0000000001
 40
0.0
 40
0.0
 40
0.0
 40
0.0
 40
1.0
 40
1.0
 40
1.0
 40
1.0
 10
1560.861271135012
 20
1138.099010947902
 30
0.0
 10
1561.999678566207
 20
1105.499286959438
 30
0.0
 10
1563.154241342106
 20
1077.026432990269
 30
0.0
 10
1564.2926487733
 20
1044.426709001798
 30
0.0
  0
SPLINE
  5
40FB
330
A
100
AcDbEntity
  8
MODEL
100
AcDbSpline
210
0.0
220
0.0
230
1.0
 70
     8
 71
     3
 72
     8
 73
     4
 74
     0
 42
0.000000001
 43
0.0000000001
 40
0.0
 40
0.0
 40
0.0
 40
0.0
 40
1.0
 40
1.0
 40
1.0
 40
1.0
 10
1557.327074273669
 20
1037.186537538319
 30
0.0
 10
1557.400538699209
 20
1037.189091412941
 30
0.0
 10
1557.484214167075
 20
1037.192146705989
 30
0.0
 10
1557.557100109592
 20
1037.195257261464
 30
0.0
  0
SPLINE
  5
40FC
330
A
100
AcDbEntity
  8
MODEL
100
AcDbSpline
210
0.0
220
0.0
230
1.0
 70
     8
 71
     3
 72
    11
 73
     7
 74
     0
 42
0.000000001
 43
0.0000000001
 40
0.0
 40
0.0
 40
0.0
 40
0.0
 40
1.0
 40
1.0
 40
1.0
 40
2.0
 40
2.0
 40
2.0
 40
2.0
 10
1613.769192333909
 20
1206.238433203828
 30
0.0
 10
1612.219325148541
 20
1201.107762192136
 30
0.0
 10
1610.674026332455
 20
1195.992213295836
 30
0.0
 10
1609.133293367052
 20
1190.891787275764
 30
0.0
 10
1596.996105161261
 20
1150.712968541329
 30
0.0
 10
1576.309554057648
 20
1082.534347984399
 30
0.0
 10
1564.171682690908
 20
1042.355769966147
 30
0.0
  0
SPLINE
  5
40FD
330
A
100
AcDbEntity
  8
MODEL
100
AcDbSpline
210
0.0
220
0.0
230
1.0
 70
     8
 71
     3
 72
    11
 73
     7
 74
     0
 42
0.000000001
 43
0.0000000001
 40
0.0
 40
0.0
 40
0.0
 40
0.0
 40
1.0
 40
1.0
 40
1.0
 40
2.0
 40
2.0
 40
2.0
 40
2.0
 10
1632.336376866352
 20
1258.433560774365
 30
0.0
 10
1631.412304342003
 20
1254.158815691214
 30
0.0
 10
1630.366893040261
 20
1249.913953540594
 30
0.0
 10
1629.200142961128
 20
1245.698974322502
 30
0.0
 10
1627.970967666476
 20
1241.241119368799
 30
0.0
 10
1626.598882761548
 20
1236.82769341907
 30
0.0
 10
1625.08388824634
 20
1232.458696473308
 30
0.0
  0
SPLINE
  5
40FE
330
A
100
AcDbEntity
  8
MODEL
100
AcDbSpline
210
0.0
220
0.0
230
1.0
 70
     8
 71
     3
 72
    17
 73
    13
 74
     0
 42
0.000000001
 43
0.0000000001
 40
0.0
 40
0.0
 40
0.0
 40
0.0
 40
1.0
 40
1.0
 40
1.0
 40
2.0
 40
2.0
 40
2.0
 40
3.0
 40
3.0
 40
3.0
 40
3.197869719840563
 40
3.197869719840563
 40
3.197869719840563
 40
3.197869719840563
 10
1623.594407068439
 20
1351.237236209374
 30
0.0
 10
1624.454848883003
 20
1351.226681165582
 30
0.0
 10
1625.285114252578
 20
1351.063029689112
 30
0.0
 10
1626.085203177164
 20
1350.746281779954
 30
0.0
 10
1626.983840454797
 20
1350.3905194765
 30
0.0
 10
1627.774867261006
 20
1349.870930157378
 30
0.0
 10
1628.458283595796
 20
1349.187513822587
 30
0.0
 10
1629.141699930587
 20
1348.504097487803
 30
0.0
 10
1629.66128924971
 20
1347.713070681587
 30
0.0
 10
1630.017051553163
 20
1346.814433403961
 30
0.0
 10
1630.080381977376
 20
1346.654464010196
 30
0.0
 10
1630.137592124536
 20
1346.493300116314
 30
0.0
 10
1630.188681994641
 20
1346.330941722314
 30
0.0
  0
SPLINE
  5
40FF
330
A
100
AcDbEntity
  8
MODEL
100
AcDbSpline
210
0.0
220
0.0
230
1.0
 70
     8
 71
     3
 72
     8
 73
     4
 74
     0
 42
0.000000001
 43
0.0000000001
 40
0.0
 40
0.0
 40
0.0
 40
0.0
 40
1.0
 40
1.0
 40
1.0
 40
1.0
 10
1632.497711261736
 20
1259.926755340104
 30
0.0
 10
1632.497543927734
 20
1259.425872614686
 30
0.0
 10
1632.444290459028
 20
1258.930699040485
 30
0.0
 10
1632.33795085561
 20
1258.441234617497
 30
0.0
  0
SPLINE
  5
4101
330
A
100
AcDbEntity
  8
MODEL
100
AcDbSpline
210
0.0
220
0.0
230
1.0
 70
    24
 71
     3
 72
     8
 73
     4
 74
     0
 42
0.000000001
 43
0.0000000001
 40
0.0
 40
0.0
 40
0.0
 40
0.0
 40
1.0
 40
1.0
 40
1.0
 40
1.0
 10
1632.4977317376
 20
1295.181980098887
 30
0.0
 10
1632.497731737581
 20
1283.432889443134
 30
0.0
 10
1632.497731737568
 20
1271.683798787387
 30
0.0
 10
1632.497731737555
 20
1259.934708131635
 30
0.0
  0
SPLINE
  5
4102
330
A
100
AcDbEntity
  8
MODEL
100
AcDbSpline
210
0.0
220
0.0
230
1.0
 70
     8
 71
     3
 72
    11
 73
     7
 74
     0
 42
0.000000001
 43
0.0000000001
 40
0.9235336670557566
 40
0.9235336670557566
 40
0.9235336670557566
 40
0.9235336670557566
 40
1.0
 40
1.0
 40
1.0
 40
2.0
 40
2.0
 40
2.0
 40
2.0
 10
1630.768370650828
 20
1304.232014769503
 30
0.0
 10
1630.773227518702
 20
1303.979129841103
 30
0.0
 10
1630.778241532909
 20
1303.726246848901
 30
0.0
 10
1630.783412693451
 20
1303.473365792896
 30
0.0
 10
1630.81017472113
 20
1302.197384242771
 30
0.0
 10
1630.845563795033
 20
1300.921642006801
 30
0.0
 10
1630.889579915166
 20
1299.646139084984
 30
0.0
  0
SPLINE
  5
4103
330
A
100
AcDbEntity
  8
MODEL
100
AcDbSpline
210
0.0
220
0.0
230
1.0
 70
     8
 71
     3
 72
    11
 73
     7
 74
     0
 42
0.000000001
 43
0.0000000001
 40
0.0
 40
0.0
 40
0.0
 40
0.0
 40
1.0
 40
1.0
 40
1.0
 40
2.0
 40
2.0
 40
2.0
 40
2.0
 10
1625.497791280169
 20
1302.181967579648
 30
0.0
 10
1627.430770463478
 20
1302.181933469511
 30
0.0
 10
1629.080683462422
 20
1301.498517133327
 30
0.0
 10
1630.447530277005
 20
1300.131718571092
 30
0.0
 10
1631.814355458398
 20
1298.764882987404
 30
0.0
 10
1632.497771799297
 20
1297.114970163329
 30
0.0
 10
1632.497779299699
 20
1295.181980098875
 30
0.0
  0
SPLINE
  5
4104
330
A
100
AcDbEntity
  8
MODEL
100
AcDbSpline
210
0.0
220
0.0
230
1.0
 70
     8
 71
     3
 72
     8
 73
     4
 74
     0
 42
0.000000001
 43
0.0000000001
 40
0.0
 40
0.0
 40
0.0
 40
0.0
 40
1.0
 40
1.0
 40
1.0
 40
1.0
 10
1381.475114231229
 20
1037.197990630439
 30
0.0
 10
1376.964688022759
 20
1037.499404627233
 30
0.0
 10
1374.788385550806
 20
1039.908976795797
 30
0.0
 10
1374.946206815377
 20
1044.426707136131
 30
0.0
  0
SPLINE
  5
4105
330
A
100
AcDbEntity
  8
MODEL
100
AcDbSpline
210
0.0
220
0.0
230
1.0
 70
     8
 71
     3
 72
    23
 73
    19
 74
     0
 42
0.000000001
 43
0.0000000001
 40
0.0
 40
0.0
 40
0.0
 40
0.0
 40
1.0
 40
1.0
 40
1.0
 40
2.0
 40
2.0
 40
2.0
 40
3.0
 40
3.0
 40
3.0
 40
4.0
 40
4.0
 40
4.0
 40
5.0
 40
5.0
 40
5.0
 40
6.0
 40
6.0
 40
6.0
 40
6.0
 10
1328.706754927719
 20
1200.095368714527
 30
0.0
 10
1330.273996614455
 20
1197.319981318056
 30
0.0
 10
1331.907316885683
 20
1194.582145915792
 30
0.0
 10
1333.608060755928
 20
1191.886658790288
 30
0.0
 10
1335.194861085398
 20
1189.371759319731
 30
0.0
 10
1336.840353382092
 20
1186.8937238509
 30
0.0
 10
1338.545561768657
 20
1184.457390595855
 30
0.0
 10
1341.909684802314
 20
1179.650866721391
 30
0.0
 10
1345.506231414874
 20
1175.006653838745
 30
0.0
 10
1349.368532892642
 20
1170.590100821712
 30
0.0
 10
1352.846153879495
 20
1166.613431069235
 30
0.0
 10
1356.539228280057
 20
1162.821330262169
 30
0.0
 10
1360.503484134776
 20
1159.330145401716
 30
0.0
 10
1362.330370083201
 20
1157.721269285065
 30
0.0
 10
1364.214847679277
 20
1156.176299622584
 30
0.0
 10
1366.165792332369
 20
1154.720454558332
 30
0.0
 10
1367.937528744542
 20
1153.398339291393
 30
0.0
 10
1369.764082094788
 20
1152.149727167238
 30
0.0
 10
1371.650325735816
 20
1150.99599318104
 30
0.0
  0
SPLINE
  5
4106
330
A
100
AcDbEntity
  8
MODEL
100
AcDbSpline
210
0.0
220
0.0
230
1.0
 70
     8
 71
     3
 72
     8
 73
     4
 74
     0
 42
0.000000001
 43
0.0000000001
 40
0.0
 40
0.0
 40
0.0
 40
0.0
 40
1.0
 40
1.0
 40
1.0
 40
1.0
 10
1314.5848756447
 20
1230.980989673365
 30
0.0
 10
1318.411168510189
 20
1220.282961617152
 30
0.0
 10
1323.118461604528
 20
1209.987754630879
 30
0.0
 10
1328.706754927719
 20
1200.095368714527
 30
0.0
  0
SPLINE
  5
4107
330
A
100
AcDbEntity
  8
MODEL
100
AcDbSpline
210
0.0
220
0.0
230
1.0
 70
     8
 71
     3
 72
     8
 73
     4
 74
     0
 42
0.000000001
 43
0.0000000001
 40
0.0
 40
0.0
 40
0.0
 40
0.0
 40
1.0
 40
1.0
 40
1.0
 40
1.0
 10
1314.064450207904
 20
1232.458848215425
 30
0.0
 10
1314.130408741093
 20
1232.269080228679
 30
0.0
 10
1314.196655625012
 20
1232.079443190045
 30
0.0
 10
1314.263189683881
 20
1231.889938097326
 30
0.0
  0
SPLINE
  5
4108
330
A
100
AcDbEntity
  8
MODEL
100
AcDbSpline
210
0.0
220
0.0
230
1.0
 70
     8
 71
     3
 72
     8
 73
     4
 74
     0
 42
0.000000001
 43
0.0000000001
 40
0.0
 40
0.0
 40
0.0
 40
0.0
 40
1.0
 40
1.0
 40
1.0
 40
1.0
 10
1315.553493984515
 20
1351.237236229408
 30
0.0
 10
1366.891714747301
 20
1351.867026858097
 30
0.0
 10
1418.231866923475
 20
1352.181885917965
 30
0.0
 10
1469.573950513052
 20
1352.181813409009
 30
0.0
  0
SPLINE
  5
4109
330
A
100
AcDbEntity
  8
MODEL
100
AcDbSpline
210
0.0
220
0.0
230
1.0
 70
     8
 71
     3
 72
     8
 73
     4
 74
     0
 42
0.000000001
 43
0.0000000001
 40
0.0
 40
0.0
 40
0.0
 40
0.0
 40
1.0
 40
1.0
 40
1.0
 40
1.0
 10
1557.672786794796
 20
1037.197990630439
 30
0.0
 10
1562.183213003263
 20
1037.499404627233
 30
0.0
 10
1564.450470037874
 20
1039.908978661458
 30
0.0
 10
1564.2926487733
 20
1044.426709001798
 30
0.0
  0
POLYLINE
  5
410A
330
A
100
AcDbEntity
  8
MODEL
 62
   250
420
  1842203
100
AcDb2dPolyline
 66
     1
 10
0.0
 20
0.0
 30
0.0
  0
VERTEX
  5
410B
330
410A
100
AcDbEntity
  8
MODEL
 62
   250
420
  1842203
100
AcDbVertex
100
AcDb2dVertex
 10
1557.367826730298
 20
1037.184289384762
 30
0.0
  0
VERTEX
  5
410C
330
410A
100
AcDbEntity
  8
MODEL
 62
   250
420
  1842203
100
AcDbVertex
100
AcDb2dVertex
 10
1557.462572791347
 20
1037.187119504223
 30
0.0
  0
VERTEX
  5
410D
330
410A
100
AcDbEntity
  8
MODEL
 62
   250
420
  1842203
100
AcDbVertex
100
AcDb2dVertex
 10
1557.557271882786
 20
1037.191232302932
 30
0.0
  0
SEQEND
  5
410E
330
410A
100
AcDbEntity
  8
MODEL
 62
   250
420
  1842203
  0
SPLINE
  5
410F
330
A
100
AcDbEntity
  8
MODEL
100
AcDbSpline
210
0.0
220
0.0
230
1.0
 70
     8
 71
     3
 72
     8
 73
     4
 74
     0
 42
0.000000001
 43
0.0000000001
 40
0.0
 40
0.0
 40
0.0
 40
0.0
 40
1.0
 40
1.0
 40
1.0
 40
1.0
 10
1557.327074273669
 20
1037.182423047118
 30
0.0
 10
1528.087477297683
 20
1037.182423047118
 30
0.0
 10
1410.714711207218
 20
1037.197990630439
 30
0.0
 10
1381.475114231229
 20
1037.197990630439
 30
0.0
  0
SPLINE
  5
4110
330
A
100
AcDbEntity
  8
MODEL
100
AcDbSpline
210
0.0
220
0.0
230
1.0
 70
    24
 71
     3
 72
     8
 73
     4
 74
     0
 42
0.000000001
 43
0.0000000001
 40
0.0
 40
0.0
 40
0.0
 40
0.0
 40
1.0
 40
1.0
 40
1.0
 40
1.0
 10
1557.574974509436
 20
1037.182423047118
 30
0.0
 10
1557.52477352505
 20
1037.182423047118
 30
0.0
 10
1557.474572540671
 20
1037.182423047118
 30
0.0
 10
1557.424371556285
 20
1037.182423047118
 30
0.0
  0
SPLINE
  5
4111
330
A
100
AcDbEntity
  8
MODEL
100
AcDbSpline
210
0.0
220
0.0
230
1.0
 70
     8
 71
     3
 72
    23
 73
    19
 74
     0
 42
0.000000001
 43
0.0000000001
 40
0.0
 40
0.0
 40
0.0
 40
0.0
 40
1.0
 40
1.0
 40
1.0
 40
2.0
 40
2.0
 40
2.0
 40
3.0
 40
3.0
 40
3.0
 40
4.0
 40
4.0
 40
4.0
 40
5.0
 40
5.0
 40
5.0
 40
6.0
 40
6.0
 40
6.0
 40
6.0
 10
1610.441146076421
 20
1200.095368675781
 30
0.0
 10
1608.873904393878
 20
1197.319981288166
 30
0.0
 10
1607.240584127239
 20
1194.582145894558
 30
0.0
 10
1605.539840261996
 20
1191.886658777448
 30
0.0
 10
1603.953039935022
 20
1189.371759311292
 30
0.0
 10
1602.307547641029
 20
1186.893723846755
 30
0.0
 10
1600.602339257365
 20
1184.457390595855
 30
0.0
 10
1597.238216223708
 20
1179.650866721391
 30
0.0
 10
1593.641669611152
 20
1175.006653838745
 30
0.0
 10
1589.779368133377
 20
1170.590100821712
 30
0.0
 10
1586.301747146527
 20
1166.613431069235
 30
0.0
 10
1582.608672745965
 20
1162.821330262169
 30
0.0
 10
1578.644416891246
 20
1159.330145401716
 30
0.0
 10
1576.817530942818
 20
1157.721269285065
 30
0.0
 10
1574.933053346741
 20
1156.176299622584
 30
0.0
 10
1572.982108693653
 20
1154.720454558332
 30
0.0
 10
1571.21037228148
 20
1153.398339291387
 30
0.0
 10
1569.383818931231
 20
1152.149727167238
 30
0.0
 10
1567.497575290209
 20
1150.99599318104
 30
0.0
  0
SPLINE
  5
4112
330
A
100
AcDbEntity
  8
MODEL
100
AcDbSpline
210
0.0
220
0.0
230
1.0
 70
     8
 71
     3
 72
    11
 73
     7
 74
     0
 42
0.000000001
 43
0.0000000001
 40
0.0
 40
0.0
 40
0.0
 40
0.0
 40
1.0
 40
1.0
 40
1.0
 40
2.0
 40
2.0
 40
2.0
 40
2.0
 10
1625.083450912439
 20
1232.4588484868
 30
0.0
 10
1623.160731798512
 20
1226.927031458254
 30
0.0
 10
1620.992987479199
 20
1221.506487217726
 30
0.0
 10
1618.60934247497
 20
1216.22193157394
 30
0.0
 10
1616.09437766698
 20
1210.646239117044
 30
0.0
 10
1613.352491910163
 20
1205.251757105817
 30
0.0
 10
1610.441146076421
 20
1200.095368675781
 30
0.0
  0
SPLINE
  5
4113
330
A
100
AcDbEntity
  8
MODEL
100
AcDbSpline
210
0.0
220
0.0
230
1.0
 70
     8
 71
     3
 72
     8
 73
     4
 74
     0
 42
0.000000001
 43
0.0000000001
 40
0.0
 40
0.0
 40
0.0
 40
0.0
 40
1.0
 40
1.0
 40
1.0
 40
1.0
 10
1623.594407041507
 20
1351.237236229408
 30
0.0
 10
1572.256186278752
 20
1351.867026858097
 30
0.0
 10
1520.916034102599
 20
1352.181885917965
 30
0.0
 10
1469.573950513052
 20
1352.181813409009
 30
0.0
  0
SPLINE
  5
4114
330
A
100
AcDbEntity
  8
MODEL
100
AcDbSpline
210
0.0
220
0.0
230
1.0
 70
    24
 71
     3
 72
     8
 73
     4
 74
     0
 42
0.000000001
 43
0.0000000001
 40
0.0
 40
0.0
 40
0.0
 40
0.0
 40
1.0
 40
1.0
 40
1.0
 40
1.0
 10
1625.497791280169
 20
1302.181967579648
 30
0.0
 10
1573.523588480474
 20
1302.181967579667
 30
0.0
 10
1365.625544913619
 20
1302.181967579693
 30
0.0
 10
1313.651342113925
 20
1302.181967579712
 30
0.0
  0
SPLINE
  5
4115
330
A
100
AcDbEntity
  8
MODEL
100
AcDbSpline
210
0.0
220
0.0
230
1.0
 70
     8
 71
     3
 72
     8
 73
     4
 74
     0
 42
0.000000001
 43
0.0000000001
 40
0.0
 40
0.0
 40
0.0
 40
0.0
 40
1.0
 40
1.0
 40
1.0
 40
1.0
 10
1374.946206815377
 20
1044.426707136131
 30
0.0
 10
1374.972193929068
 20
1044.427517383399
 30
0.0
 10
1378.788523464655
 20
1137.684763474907
 30
0.0
 10
1378.812782830175
 20
1137.675410947792
 30
0.0
  0
SPLINE
  5
4116
330
A
100
AcDbEntity
  8
MODEL
100
AcDbSpline
210
0.0
220
0.0
230
1.0
 70
     8
 71
     3
 72
     8
 73
     4
 74
     0
 42
0.000000001
 43
0.0000000001
 40
0.0
 40
0.0
 40
0.0
 40
0.0
 40
1.0
 40
1.0
 40
1.0
 40
1.0
 10
1373.713260671781
 20
1149.47834004699
 30
0.0
 10
1373.188457117199
 20
1149.906267317703
 30
0.0
 10
1372.228044439999
 20
1150.642748763166
 30
0.0
 10
1371.650325735816
 20
1150.99599318104
 30
0.0
  0
SPLINE
  5
4117
330
A
100
AcDbEntity
  8
MODEL
100
AcDbSpline
210
0.0
220
0.0
230
1.0
 70
     8
 71
     3
 72
     8
 73
     4
 74
     0
 42
0.000000001
 43
0.0000000001
 40
0.0
 40
0.0
 40
0.0
 40
0.0
 40
1.0
 40
1.0
 40
1.0
 40
1.0
 10
1378.812782830175
 20
1137.675410947792
 30
0.0
 10
1378.980362543451
 20
1142.416550189221
 30
0.0
 10
1377.280521823985
 20
1146.350859888958
 30
0.0
 10
1373.713260671781
 20
1149.47834004699
 30
0.0
  0
SPLINE
  5
4118
330
A
100
AcDbEntity
  8
MODEL
100
AcDbSpline
210
0.0
220
0.0
230
1.0
 70
     8
 71
     3
 72
     8
 73
     4
 74
     0
 42
0.000000001
 43
0.0000000001
 40
0.0
 40
0.0
 40
0.0
 40
0.0
 40
1.0
 40
1.0
 40
1.0
 40
1.0
 10
1560.861271135012
 20
1138.099010947902
 30
0.0
 10
1560.69369142195
 20
1142.840150189339
 30
0.0
 10
1562.393532141592
 20
1146.774459889
 30
0.0
 10
1565.960793293936
 20
1149.901940046872
 30
0.0
  0
SPLINE
  5
4119
330
A
100
AcDbEntity
  8
MODEL
100
AcDbSpline
210
0.0
220
0.0
230
1.0
 70
     8
 71
     3
 72
    11
 73
     7
 74
     0
 42
0.000000001
 43
0.0000000001
 40
0.0
 40
0.0
 40
0.0
 40
0.0
 40
1.0
 40
1.0
 40
1.0
 40
2.0
 40
2.0
 40
2.0
 40
2.0
 10
1307.067531697683
 20
1259.998563893263
 30
0.0
 10
1306.923706489243
 20
1259.987387905761
 30
0.0
 10
1306.810870218636
 20
1259.976576836481
 30
0.0
 10
1306.740355627476
 20
1259.963878616301
 30
0.0
 10
1306.673101694466
 20
1259.951767573246
 30
0.0
 10
1306.646497197114
 20
1259.939497337172
 30
0.0
 10
1306.65059331506
 20
1259.926442375425
 30
0.0
  0
SPLINE
  5
411A
330
A
100
AcDbEntity
  8
MODEL
100
AcDbSpline
210
0.0
220
0.0
230
1.0
 70
     8
 71
     3
 72
    44
 73
    40
 74
     0
 42
0.000000001
 43
0.0000000001
 40
0.0
 40
0.0
 40
0.0
 40
0.0
 40
1.0
 40
1.0
 40
1.0
 40
2.0
 40
2.0
 40
2.0
 40
3.0
 40
3.0
 40
3.0
 40
4.0
 40
4.0
 40
4.0
 40
5.0
 40
5.0
 40
5.0
 40
6.0
 40
6.0
 40
6.0
 40
7.0
 40
7.0
 40
7.0
 40
8.0
 40
8.0
 40
8.0
 40
9.0
 40
9.0
 40
9.0
 40
10.0
 40
10.0
 40
10.0
 40
11.0
 40
11.0
 40
11.0
 40
12.0
 40
12.0
 40
12.0
 40
13.0
 40
13.0
 40
13.0
 40
13.0
 10
1469.573950355888
 20
1260.430717809427
 30
0.0
 10
1459.082208059287
 20
1260.43097818341
 30
0.0
 10
1448.590466490005
 20
1260.426631776651
 30
0.0
 10
1438.098725721306
 20
1260.421130809259
 30
0.0
 10
1423.798859030616
 20
1260.413633187829
 30
0.0
 10
1409.498993827148
 20
1260.403990772227
 30
0.0
 10
1395.199131399572
 20
1260.390569287697
 30
0.0
 10
1383.771085987342
 20
1260.379843217051
 30
0.0
 10
1372.343042348004
 20
1260.366703548001
 30
0.0
 10
1360.915004102519
 20
1260.350703058799
 30
0.0
 10
1355.163139864956
 20
1260.342649826947
 30
0.0
 10
1349.411276993774
 20
1260.333871884787
 30
0.0
 10
1343.659409973739
 20
1260.326014545773
 30
0.0
 10
1341.171037239886
 20
1260.322615303737
 30
0.0
 10
1338.682663729532
 20
1260.319388361851
 30
0.0
 10
1336.194294605543
 20
1260.315268608415
 30
0.0
 10
1333.67622774018
 20
1260.311099687288
 30
0.0
 10
1331.158165366503
 20
1260.306016516713
 30
0.0
 10
1328.640100476316
 20
1260.299417553025
 30
0.0
 10
1325.247647562037
 20
1260.290527125429
 30
0.0
 10
1321.855190080104
 20
1260.278885424415
 30
0.0
 10
1318.462801492931
 20
1260.257299295362
 30
0.0
 10
1316.665371956488
 20
1260.245862060231
 30
0.0
 10
1314.86796176104
 20
1260.231633101802
 30
0.0
 10
1313.070649150294
 20
1260.206776267451
 30
0.0
 10
1311.804908317647
 20
1260.189271071072
 30
0.0
 10
1310.539215882621
 20
1260.166494925703
 30
0.0
 10
1309.274027587283
 20
1260.125374328147
 30
0.0
 10
1308.919309173797
 20
1260.113845425154
 30
0.0
 10
1308.56463038884
 20
1260.100874533374
 30
0.0
 10
1308.210340488608
 20
1260.079646522761
 30
0.0
 10
1308.100596216388
 20
1260.073070968185
 30
0.0
 10
1307.990889257762
 20
1260.065703140864
 30
0.0
 10
1307.88122969725
 20
1260.057893417916
 30
0.0
 10
1307.759512420311
 20
1260.0492249698
 30
0.0
 10
1307.637853537943
 20
1260.040012105338
 30
0.0
 10
1307.516160349148
 20
1260.031087710837
 30
0.0
 10
1307.366630978586
 20
1260.020121944342
 30
0.0
 10
1307.21704981205
 20
1260.009591710842
 30
0.0
 10
1307.067531697683
 20
1259.998563893263
 30
0.0
  0
SPLINE
  5
411B
330
A
100
AcDbEntity
  8
MODEL
100
AcDbSpline
210
0.0
220
0.0
230
1.0
 70
     8
 71
     3
 72
     8
 73
     4
 74
     0
 42
0.000000001
 43
0.0000000001
 40
0.0
 40
0.0
 40
0.0
 40
0.0
 40
1.0
 40
1.0
 40
1.0
 40
1.0
 10
1565.900804749715
 20
1149.8490504733
 30
0.0
 10
1566.425604373295
 20
1150.276973549604
 30
0.0
 10
1566.919861446125
 20
1150.642751735994
 30
0.0
 10
1567.497575290209
 20
1150.99599318104
 30
0.0
  0
SPLINE
  5
411C
330
A
100
AcDbEntity
  8
MODEL
100
AcDbSpline
210
0.0
220
0.0
230
1.0
 70
     8
 71
     3
 72
    11
 73
     7
 74
     0
 42
0.000000001
 43
0.0000000001
 40
0.0
 40
0.0
 40
0.0
 40
0.0
 40
1.0
 40
1.0
 40
1.0
 40
2.0
 40
2.0
 40
2.0
 40
2.0
 10
1632.080369328335
 20
1259.998563893263
 30
0.0
 10
1632.224194536779
 20
1259.987387905761
 30
0.0
 10
1632.337030807385
 20
1259.976576836481
 30
0.0
 10
1632.407545398546
 20
1259.963878616301
 30
0.0
 10
1632.474799660632
 20
1259.951767513985
 30
0.0
 10
1632.501404089257
 20
1259.93949721709
 30
0.0
 10
1632.497307650835
 20
1259.926442183788
 30
0.0
  0
SPLINE
  5
411D
330
A
100
AcDbEntity
  8
MODEL
100
AcDbSpline
210
0.0
220
0.0
230
1.0
 70
     8
 71
     3
 72
    44
 73
    40
 74
     0
 42
0.000000001
 43
0.0000000001
 40
0.0
 40
0.0
 40
0.0
 40
0.0
 40
1.0
 40
1.0
 40
1.0
 40
2.0
 40
2.0
 40
2.0
 40
3.0
 40
3.0
 40
3.0
 40
4.0
 40
4.0
 40
4.0
 40
5.0
 40
5.0
 40
5.0
 40
6.0
 40
6.0
 40
6.0
 40
7.0
 40
7.0
 40
7.0
 40
8.0
 40
8.0
 40
8.0
 40
9.0
 40
9.0
 40
9.0
 40
10.0
 40
10.0
 40
10.0
 40
11.0
 40
11.0
 40
11.0
 40
12.0
 40
12.0
 40
12.0
 40
13.0
 40
13.0
 40
13.0
 40
13.0
 10
1469.573950513502
 20
1260.430717809427
 30
0.0
 10
1480.06569344139
 20
1260.430978182216
 30
0.0
 10
1490.557435641952
 20
1260.426631775784
 30
0.0
 10
1501.049177041931
 20
1260.421130808207
 30
0.0
 10
1515.349043153751
 20
1260.413633187284
 30
0.0
 10
1529.648907778353
 20
1260.403990771675
 30
0.0
 10
1543.948769627069
 20
1260.390569287665
 30
0.0
 10
1555.376815039222
 20
1260.379843216987
 30
0.0
 10
1566.804858678476
 20
1260.366703548053
 30
0.0
 10
1578.232896923884
 20
1260.350703058825
 30
0.0
 10
1583.984761161406
 20
1260.34264982696
 30
0.0
 10
1589.736624032545
 20
1260.333871884749
 30
0.0
 10
1595.488491052542
 20
1260.326014545754
 30
0.0
 10
1597.976863786383
 20
1260.322615303724
 30
0.0
 10
1600.465237296717
 20
1260.319388361857
 30
0.0
 10
1602.953606420684
 20
1260.315268608428
 30
0.0
 10
1605.471673286034
 20
1260.311099687301
 30
0.0
 10
1607.989735659689
 20
1260.306016516713
 30
0.0
 10
1610.507800549866
 20
1260.299417553019
 30
0.0
 10
1613.90025346411
 20
1260.290527125416
 30
0.0
 10
1617.292710946021
 20
1260.278885424415
 30
0.0
 10
1620.685099533168
 20
1260.257299295362
 30
0.0
 10
1622.482529069594
 20
1260.245862060231
 30
0.0
 10
1624.27993926502
 20
1260.231633101802
 30
0.0
 10
1626.077251875747
 20
1260.206776267451
 30
0.0
 10
1627.342992708392
 20
1260.189271071072
 30
0.0
 10
1628.6086851434
 20
1260.166494925703
 30
0.0
 10
1629.873873438729
 20
1260.125374328147
 30
0.0
 10
1630.228591852218
 20
1260.113845425154
 30
0.0
 10
1630.583270637168
 20
1260.100874533374
 30
0.0
 10
1630.937560537407
 20
1260.079646522761
 30
0.0
 10
1631.047304809622
 20
1260.073070968185
 30
0.0
 10
1631.15701176825
 20
1260.065703140864
 30
0.0
 10
1631.266671328765
 20
1260.057893417916
 30
0.0
 10
1631.388388605707
 20
1260.0492249698
 30
0.0
 10
1631.510047488072
 20
1260.040012105338
 30
0.0
 10
1631.63174067687
 20
1260.031087710837
 30
0.0
 10
1631.781270047429
 20
1260.020121944342
 30
0.0
 10
1631.930851213969
 20
1260.009591710848
 30
0.0
 10
1632.080369328335
 20
1259.998563893263
 30
0.0
  0
SPLINE
  5
4122
102
{ACAD_REACTORS
330
424B
102
}
330
A
100
AcDbEntity
  8
HIDDEN
 48
0.5
100
AcDbSpline
210
0.0
220
0.0
230
1.0
 70
    11
 71
     3
 72
    17
 73
    13
 74
     0
 42
0.000000001
 43
0.0000000001
 40
0.0
 40
0.0
 40
0.0
 40
0.0
 40
1.0
 40
1.0
 40
1.0
 40
2.0
 40
2.0
 40
2.0
 40
3.0
 40
3.0
 40
3.0
 40
4.0
 40
4.0
 40
4.0
 40
4.0
 10
1440.662916912385
 20
1306.796215163178
 30
0.0
 10
1440.662916912385
 20
1291.658956373982
 30
0.0
 10
1452.934089724234
 20
1279.387783562133
 30
0.0
 10
1468.071348513425
 20
1279.387783562133
 30
0.0
 10
1483.208607302615
 20
1279.387783562133
 30
0.0
 10
1495.479780114462
 20
1291.658956373982
 30
0.0
 10
1495.479780114462
 20
1306.796215163178
 30
0.0
 10
1495.479780114462
 20
1321.933473952362
 30
0.0
 10
1483.208607302615
 20
1334.204646764211
 30
0.0
 10
1468.071348513425
 20
1334.204646764211
 30
0.0
 10
1452.934089724234
 20
1334.204646764211
 30
0.0
 10
1440.662916912385
 20
1321.933473952362
 30
0.0
 10
1440.662916912385
 20
1306.796215163178
 30
0.0
  0
SPLINE
  5
4123
102
{ACAD_REACTORS
330
424B
102
}
330
A
100
AcDbEntity
  8
HIDDEN
 48
0.5
100
AcDbSpline
210
0.0
220
0.0
230
1.0
 70
    11
 71
     3
 72
    17
 73
    13
 74
     0
 42
0.000000001
 43
0.0000000001
 40
0.0
 40
0.0
 40
0.0
 40
0.0
 40
1.0
 40
1.0
 40
1.0
 40
2.0
 40
2.0
 40
2.0
 40
3.0
 40
3.0
 40
3.0
 40
4.0
 40
4.0
 40
4.0
 40
4.0
 10
1429.58543294834
 20
1172.690950075873
 30
0.0
 10
1429.58543294834
 20
1194.782601664896
 30
0.0
 10
1447.493451102911
 20
1212.691050455951
 30
0.0
 10
1469.585102691934
 20
1212.691050455951
 30
0.0
 10
1491.676754280958
 20
1212.691050455951
 30
0.0
 10
1509.585633708496
 20
1194.782601664896
 30
0.0
 10
1509.585633708496
 20
1172.690950075873
 30
0.0
 10
1509.585633708496
 20
1150.598867850367
 30
0.0
 10
1491.676754280958
 20
1132.690419059312
 30
0.0
 10
1469.585102691934
 20
1132.690419059312
 30
0.0
 10
1447.493451102911
 20
1132.690419059312
 30
0.0
 10
1429.58543294834
 20
1150.598867850367
 30
0.0
 10
1429.58543294834
 20
1172.690950075873
 30
0.0
  0
SPLINE
  5
4124
102
{ACAD_REACTORS
330
424B
102
}
330
A
100
AcDbEntity
  8
HIDDEN
 48
0.5
100
AcDbSpline
210
0.0
220
0.0
230
1.0
 70
    11
 71
     3
 72
    17
 73
    13
 74
     0
 42
0.000000001
 43
0.0000000001
 40
0.0
 40
0.0
 40
0.0
 40
0.0
 40
1.0
 40
1.0
 40
1.0
 40
2.0
 40
2.0
 40
2.0
 40
3.0
 40
3.0
 40
3.0
 40
4.0
 40
4.0
 40
4.0
 40
4.0
 10
1418.585685257532
 20
1172.690950075873
 30
0.0
 10
1418.585685257532
 20
1200.857590533635
 30
0.0
 10
1441.418892870654
 20
1223.690367510275
 30
0.0
 10
1469.585102691934
 20
1223.690367510275
 30
0.0
 10
1497.752173786181
 20
1223.690367510275
 30
0.0
 10
1520.585381399304
 20
1200.857590533635
 30
0.0
 10
1520.585381399304
 20
1172.690950075873
 30
0.0
 10
1520.585381399304
 20
1144.52430961811
 30
0.0
 10
1497.752173786181
 20
1121.691102004987
 30
0.0
 10
1469.585102691934
 20
1121.691102004987
 30
0.0
 10
1441.418892870654
 20
1121.691102004987
 30
0.0
 10
1418.585685257532
 20
1144.52430961811
 30
0.0
 10
1418.585685257532
 20
1172.690950075873
 30
0.0
  0
POLYLINE
  5
4125
330
A
100
AcDbEntity
  8
HIDDEN
 48
0.5
100
AcDb2dPolyline
 66
     1
 10
0.0
 20
0.0
 30
0.0
  0
VERTEX
  5
4126
330
4125
100
AcDbEntity
  8
HIDDEN
 48
0.5
100
AcDbVertex
100
AcDb2dVertex
 10
1469.585099561435
 20
1247.690601541987
 30
0.0
  0
VERTEX
  5
4127
330
4125
100
AcDbEntity
  8
HIDDEN
 48
0.5
100
AcDbVertex
100
AcDb2dVertex
 10
1469.585099561435
 20
1236.440513043823
 30
0.0
  0
SEQEND
  5
4128
330
4125
100
AcDbEntity
  8
HIDDEN
 48
0.5
  0
POLYLINE
  5
4129
330
A
100
AcDbEntity
  8
HIDDEN
 48
0.5
100
AcDb2dPolyline
 66
     1
 10
0.0
 20
0.0
 30
0.0
  0
VERTEX
  5
412A
330
4129
100
AcDbEntity
  8
HIDDEN
 48
0.5
100
AcDbVertex
100
AcDb2dVertex
 10
1469.585099561435
 20
1232.190546359908
 30
0.0
  0
VERTEX
  5
412B
330
4129
100
AcDbEntity
  8
HIDDEN
 48
0.5
100
AcDbVertex
100
AcDb2dVertex
 10
1469.585099561435
 20
1225.815601716998
 30
0.0
  0
SEQEND
  5
412C
330
4129
100
AcDbEntity
  8
HIDDEN
 48
0.5
  0
POLYLINE
  5
412D
330
A
100
AcDbEntity
  8
HIDDEN
 48
0.5
100
AcDb2dPolyline
 66
     1
 10
0.0
 20
0.0
 30
0.0
  0
VERTEX
  5
412E
330
412D
100
AcDbEntity
  8
HIDDEN
 48
0.5
100
AcDbVertex
100
AcDb2dVertex
 10
1469.585099561435
 20
1223.690612992079
 30
0.0
  0
VERTEX
  5
412F
330
412D
100
AcDbEntity
  8
HIDDEN
 48
0.5
100
AcDbVertex
100
AcDb2dVertex
 10
1469.585099561435
 20
1111.065930657362
 30
0.0
  0
SEQEND
  5
4130
330
412D
100
AcDbEntity
  8
HIDDEN
 48
0.5
  0
POLYLINE
  5
4131
330
A
100
AcDbEntity
  8
HIDDEN
 48
0.5
100
AcDb2dPolyline
 66
     1
 10
0.0
 20
0.0
 30
0.0
  0
VERTEX
  5
4132
330
4131
100
AcDbEntity
  8
HIDDEN
 48
0.5
100
AcDbVertex
100
AcDb2dVertex
 10
1469.585099561435
 20
1108.940952698365
 30
0.0
  0
VERTEX
  5
4133
330
4131
100
AcDbEntity
  8
HIDDEN
 48
0.5
100
AcDbVertex
100
AcDb2dVertex
 10
1469.585099561435
 20
1097.690864200202
 30
0.0
  0
SEQEND
  5
4134
330
4131
100
AcDbEntity
  8
HIDDEN
 48
0.5
  0
POLYLINE
  5
4135
330
A
100
AcDbEntity
  8
HIDDEN
 48
0.5
100
AcDb2dPolyline
 66
     1
 10
0.0
 20
0.0
 30
0.0
  0
VERTEX
  5
4136
330
4135
100
AcDbEntity
  8
HIDDEN
 48
0.5
100
AcDbVertex
100
AcDb2dVertex
 10
1394.585882228906
 20
1172.690948189563
 30
0.0
  0
VERTEX
  5
4137
330
4135
100
AcDbEntity
  8
HIDDEN
 48
0.5
100
AcDbVertex
100
AcDb2dVertex
 10
1405.835965344109
 20
1172.690948189563
 30
0.0
  0
SEQEND
  5
4138
330
4135
100
AcDbEntity
  8
HIDDEN
 48
0.5
  0
POLYLINE
  5
4139
330
A
100
AcDbEntity
  8
HIDDEN
 48
0.5
100
AcDb2dPolyline
 66
     1
 10
0.0
 20
0.0
 30
0.0
  0
VERTEX
  5
413A
330
4139
100
AcDbEntity
  8
HIDDEN
 48
0.5
100
AcDbVertex
100
AcDb2dVertex
 10
1410.085918570619
 20
1172.690948189563
 30
0.0
  0
VERTEX
  5
413B
330
4139
100
AcDbEntity
  8
HIDDEN
 48
0.5
100
AcDbVertex
100
AcDb2dVertex
 10
1416.460844373164
 20
1172.690948189563
 30
0.0
  0
SEQEND
  5
413C
330
4139
100
AcDbEntity
  8
HIDDEN
 48
0.5
  0
POLYLINE
  5
413D
330
A
100
AcDbEntity
  8
HIDDEN
 48
0.5
100
AcDb2dPolyline
 66
     1
 10
0.0
 20
0.0
 30
0.0
  0
VERTEX
  5
413E
330
413D
100
AcDbEntity
  8
HIDDEN
 48
0.5
100
AcDbVertex
100
AcDb2dVertex
 10
1418.58582233216
 20
1172.690948189563
 30
0.0
  0
VERTEX
  5
413F
330
413D
100
AcDbEntity
  8
HIDDEN
 48
0.5
100
AcDbVertex
100
AcDb2dVertex
 10
1531.210127859559
 20
1172.690948189563
 30
0.0
  0
SEQEND
  5
4140
330
413D
100
AcDbEntity
  8
HIDDEN
 48
0.5
  0
POLYLINE
  5
4141
330
A
100
AcDbEntity
  8
HIDDEN
 48
0.5
100
AcDb2dPolyline
 66
     1
 10
0.0
 20
0.0
 30
0.0
  0
VERTEX
  5
4142
330
4141
100
AcDbEntity
  8
HIDDEN
 48
0.5
100
AcDbVertex
100
AcDb2dVertex
 10
1533.335095052632
 20
1172.690948189563
 30
0.0
  0
VERTEX
  5
4143
330
4141
100
AcDbEntity
  8
HIDDEN
 48
0.5
100
AcDbVertex
100
AcDb2dVertex
 10
1544.585183550796
 20
1172.690948189563
 30
0.0
  0
SEQEND
  5
4144
330
4141
100
AcDbEntity
  8
HIDDEN
 48
0.5
  0
POLYLINE
  5
4145
330
A
100
AcDbEntity
  8
HIDDEN
 48
0.5
100
AcDb2dPolyline
 66
     1
 10
0.0
 20
0.0
 30
0.0
  0
VERTEX
  5
4146
330
4145
100
AcDbEntity
  8
HIDDEN
 48
0.5
100
AcDbVertex
100
AcDb2dVertex
 10
1469.585099561435
 20
1381.520750925983
 30
0.0
  0
VERTEX
  5
4147
330
4145
100
AcDbEntity
  8
HIDDEN
 48
0.5
100
AcDbVertex
100
AcDb2dVertex
 10
1469.585099561435
 20
1370.270667810781
 30
0.0
  0
SEQEND
  5
4148
330
4145
100
AcDbEntity
  8
HIDDEN
 48
0.5
  0
POLYLINE
  5
4149
330
A
100
AcDbEntity
  8
HIDDEN
 48
0.5
100
AcDb2dPolyline
 66
     1
 10
0.0
 20
0.0
 30
0.0
  0
VERTEX
  5
414A
330
4149
100
AcDbEntity
  8
HIDDEN
 48
0.5
100
AcDbVertex
100
AcDb2dVertex
 10
1469.585099561435
 20
1366.020701126866
 30
0.0
  0
VERTEX
  5
414B
330
4149
100
AcDbEntity
  8
HIDDEN
 48
0.5
100
AcDbVertex
100
AcDb2dVertex
 10
1469.585099561435
 20
1359.645751100994
 30
0.0
  0
SEQEND
  5
414C
330
4149
100
AcDbEntity
  8
HIDDEN
 48
0.5
  0
POLYLINE
  5
414D
330
A
100
AcDbEntity
  8
HIDDEN
 48
0.5
100
AcDb2dPolyline
 66
     1
 10
0.0
 20
0.0
 30
0.0
  0
VERTEX
  5
414E
330
414D
100
AcDbEntity
  8
HIDDEN
 48
0.5
100
AcDbVertex
100
AcDb2dVertex
 10
1469.585099561435
 20
1357.520766413296
 30
0.0
  0
VERTEX
  5
414F
330
414D
100
AcDbEntity
  8
HIDDEN
 48
0.5
100
AcDbVertex
100
AcDb2dVertex
 10
1469.585099561435
 20
1244.89609080728
 30
0.0
  0
SEQEND
  5
4150
330
414D
100
AcDbEntity
  8
HIDDEN
 48
0.5
  0
POLYLINE
  5
4151
330
A
100
AcDbEntity
  8
HIDDEN
 48
0.5
100
AcDb2dPolyline
 66
     1
 10
0.0
 20
0.0
 30
0.0
  0
VERTEX
  5
4152
330
4151
100
AcDbEntity
  8
HIDDEN
 48
0.5
100
AcDbVertex
100
AcDb2dVertex
 10
1469.585099561435
 20
1242.771102082361
 30
0.0
  0
VERTEX
  5
4153
330
4151
100
AcDbEntity
  8
HIDDEN
 48
0.5
100
AcDbVertex
100
AcDb2dVertex
 10
1469.585099561435
 20
1231.521024350121
 30
0.0
  0
SEQEND
  5
4154
330
4151
100
AcDbEntity
  8
HIDDEN
 48
0.5
  0
POLYLINE
  5
415D
330
A
100
AcDbEntity
  8
HIDDEN
 48
0.5
100
AcDb2dPolyline
 66
     1
 10
0.0
 20
0.0
 30
0.0
  0
VERTEX
  5
415E
330
415D
100
AcDbEntity
  8
HIDDEN
 48
0.5
100
AcDbVertex
100
AcDb2dVertex
 10
1413.272946797735
 20
1306.521100265039
 30
0.0
  0
VERTEX
  5
415F
330
415D
100
AcDbEntity
  8
HIDDEN
 48
0.5
100
AcDbVertex
100
AcDb2dVertex
 10
1525.897252325134
 20
1306.521100265039
 30
0.0
  0
SEQEND
  5
4160
330
415D
100
AcDbEntity
  8
HIDDEN
 48
0.5
  0
SPLINE
  5
4165
102
{ACAD_REACTORS
330
424B
102
}
330
A
100
AcDbEntity
  8
HIDDEN
 48
0.5
100
AcDbSpline
210
0.0
220
0.0
230
1.0
 70
     8
 71
     3
 72
    29
 73
    25
 74
     0
 42
0.000000001
 43
0.0000000001
 40
0.0
 40
0.0
 40
0.0
 40
0.0
 40
1.0
 40
1.0
 40
1.0
 40
2.0
 40
2.0
 40
2.0
 40
3.0
 40
3.0
 40
3.0
 40
4.0
 40
4.0
 40
4.0
 40
5.0
 40
5.0
 40
5.0
 40
6.0
 40
6.0
 40
6.0
 40
7.0
 40
7.0
 40
7.0
 40
8.0
 40
8.0
 40
8.0
 40
8.0
 10
1391.894853661538
 20
1271.468029407155
 30
0.0
 10
1391.894853661538
 20
1274.854801628503
 30
0.0
 10
1390.520679822347
 20
1277.923976480249
 30
0.0
 10
1388.299866757884
 20
1280.143282302958
 30
0.0
 10
1385.903783009448
 20
1282.539366051391
 30
0.0
 10
1382.763552475016
 20
1283.738269206612
 30
0.0
 10
1379.623106620331
 20
1283.738269206612
 30
0.0
 10
1376.234827157229
 20
1283.738269206612
 30
0.0
 10
1373.165652305486
 20
1282.365817929425
 30
0.0
 10
1370.94483924102
 20
1280.143282302958
 30
0.0
 10
1368.548540172336
 20
1277.748705796275
 30
0.0
 10
1367.35135957912
 20
1274.60847526184
 30
0.0
 10
1367.35135957912
 20
1271.468029407155
 30
0.0
 10
1367.35135957912
 20
1268.07802738205
 30
0.0
 10
1368.725533418307
 20
1265.008852530303
 30
0.0
 10
1370.94483924102
 20
1262.789762027851
 30
0.0
 10
1373.340922989456
 20
1260.39346295916
 30
0.0
 10
1376.481153523891
 20
1259.19455980394
 30
0.0
 10
1379.623106620331
 20
1259.19455980394
 30
0.0
 10
1383.011601403682
 20
1259.19455980394
 30
0.0
 10
1386.079053693418
 20
1260.567226401377
 30
0.0
 10
1388.299866757884
 20
1262.789762027851
 30
0.0
 10
1390.697673068325
 20
1265.185845776284
 30
0.0
 10
1391.894853661538
 20
1268.326076310713
 30
0.0
 10
1391.894853661538
 20
1271.466522165404
 30
0.0
  0
POLYLINE
  5
4166
330
A
100
AcDbEntity
  8
HIDDEN
 48
0.5
100
AcDb2dPolyline
 66
     1
 10
0.0
 20
0.0
 30
0.0
  0
VERTEX
  5
4167
330
4166
100
AcDbEntity
  8
HIDDEN
 48
0.5
100
AcDbVertex
100
AcDb2dVertex
 10
1379.623107182379
 20
1295.172846601759
 30
0.0
  0
VERTEX
  5
4168
330
4166
100
AcDbEntity
  8
HIDDEN
 48
0.5
100
AcDbVertex
100
AcDb2dVertex
 10
1379.623107182379
 20
1247.522049029524
 30
0.0
  0
SEQEND
  5
4169
330
4166
100
AcDbEntity
  8
HIDDEN
 48
0.5
  0
POLYLINE
  5
417E
330
A
100
AcDbEntity
  8
HIDDEN
 48
0.5
100
AcDb2dPolyline
 66
     1
 10
0.0
 20
0.0
 30
0.0
  0
VERTEX
  5
417F
330
417E
100
AcDbEntity
  8
HIDDEN
 48
0.5
100
AcDbVertex
100
AcDb2dVertex
 10
1411.727985652932
 20
1271.347447815641
 30
0.0
  0
VERTEX
  5
4180
330
417E
100
AcDbEntity
  8
HIDDEN
 48
0.5
100
AcDbVertex
100
AcDb2dVertex
 10
1347.518228711825
 20
1271.347447815641
 30
0.0
  0
SEQEND
  5
4181
330
417E
100
AcDbEntity
  8
HIDDEN
 48
0.5
  0
SPLINE
  5
4186
102
{ACAD_REACTORS
330
424B
102
}
330
A
100
AcDbEntity
  8
HIDDEN
 48
0.5
100
AcDbSpline
210
0.0
220
0.0
230
1.0
 70
     8
 71
     3
 72
    29
 73
    25
 74
     0
 42
0.000000001
 43
0.0000000001
 40
0.0
 40
0.0
 40
0.0
 40
0.0
 40
1.0
 40
1.0
 40
1.0
 40
2.0
 40
2.0
 40
2.0
 40
3.0
 40
3.0
 40
3.0
 40
4.0
 40
4.0
 40
4.0
 40
5.0
 40
5.0
 40
5.0
 40
6.0
 40
6.0
 40
6.0
 40
7.0
 40
7.0
 40
7.0
 40
8.0
 40
8.0
 40
8.0
 40
8.0
 10
1571.882443214914
 20
1271.468029407155
 30
0.0
 10
1571.882443214914
 20
1274.854801628503
 30
0.0
 10
1570.508269375719
 20
1277.923976480249
 30
0.0
 10
1568.28745631126
 20
1280.143282302958
 30
0.0
 10
1565.891372562827
 20
1282.539366051391
 30
0.0
 10
1562.751142028391
 20
1283.738269206612
 30
0.0
 10
1559.610696173706
 20
1283.738269206612
 30
0.0
 10
1556.222416710608
 20
1283.738269206612
 30
0.0
 10
1553.153241858862
 20
1282.365817929425
 30
0.0
 10
1550.932428794395
 20
1280.143282302958
 30
0.0
 10
1548.536129725712
 20
1277.748705796275
 30
0.0
 10
1547.338949132499
 20
1274.60847526184
 30
0.0
 10
1547.338949132499
 20
1271.468029407155
 30
0.0
 10
1547.338949132499
 20
1268.07802738205
 30
0.0
 10
1548.713122971686
 20
1265.008852530303
 30
0.0
 10
1550.932428794395
 20
1262.789762027851
 30
0.0
 10
1553.328512542829
 20
1260.39346295916
 30
0.0
 10
1556.468743077264
 20
1259.19455980394
 30
0.0
 10
1559.610696173706
 20
1259.19455980394
 30
0.0
 10
1562.999190957054
 20
1259.19455980394
 30
0.0
 10
1566.066643246794
 20
1260.567226401377
 30
0.0
 10
1568.28745631126
 20
1262.789762027851
 30
0.0
 10
1570.685262621701
 20
1265.185845776284
 30
0.0
 10
1571.882443214914
 20
1268.326076310713
 30
0.0
 10
1571.882443214914
 20
1271.466522165404
 30
0.0
  0
POLYLINE
  5
4187
330
A
100
AcDbEntity
  8
HIDDEN
 48
0.5
100
AcDb2dPolyline
 66
     1
 10
0.0
 20
0.0
 30
0.0
  0
VERTEX
  5
4188
330
4187
100
AcDbEntity
  8
HIDDEN
 48
0.5
100
AcDbVertex
100
AcDb2dVertex
 10
1559.610687595704
 20
1298.733601877635
 30
0.0
  0
VERTEX
  5
4189
330
4187
100
AcDbEntity
  8
HIDDEN
 48
0.5
100
AcDbVertex
100
AcDb2dVertex
 10
1559.610687595704
 20
1287.483521453914
 30
0.0
  0
SEQEND
  5
418A
330
4187
100
AcDbEntity
  8
HIDDEN
 48
0.5
  0
POLYLINE
  5
418B
330
A
100
AcDbEntity
  8
HIDDEN
 48
0.5
100
AcDb2dPolyline
 66
     1
 10
0.0
 20
0.0
 30
0.0
  0
VERTEX
  5
418C
330
418B
100
AcDbEntity
  8
HIDDEN
 48
0.5
100
AcDbVertex
100
AcDb2dVertex
 10
1559.610687595704
 20
1284.987377520077
 30
0.0
  0
VERTEX
  5
418D
330
418B
100
AcDbEntity
  8
HIDDEN
 48
0.5
100
AcDbVertex
100
AcDb2dVertex
 10
1559.610687595704
 20
1281.243172385243
 30
0.0
  0
SEQEND
  5
418E
330
418B
100
AcDbEntity
  8
HIDDEN
 48
0.5
  0
POLYLINE
  5
4193
330
A
100
AcDbEntity
  8
HIDDEN
 48
0.5
100
AcDb2dPolyline
 66
     1
 10
0.0
 20
0.0
 30
0.0
  0
VERTEX
  5
4194
330
4193
100
AcDbEntity
  8
HIDDEN
 48
0.5
100
AcDbVertex
100
AcDb2dVertex
 10
1559.610687595704
 20
1257.529735035283
 30
0.0
  0
VERTEX
  5
4195
330
4193
100
AcDbEntity
  8
HIDDEN
 48
0.5
100
AcDbVertex
100
AcDb2dVertex
 10
1559.610687595704
 20
1246.27965192008
 30
0.0
  0
SEQEND
  5
4196
330
4193
100
AcDbEntity
  8
HIDDEN
 48
0.5
  0
SPLINE
  5
41A7
330
A
100
AcDbEntity
  8
MODEL
100
AcDbSpline
210
0.0
220
0.0
230
1.0
 70
    24
 71
     3
 72
     8
 73
     4
 74
     0
 42
0.000000001
 43
0.0000000001
 40
0.0
 40
0.0
 40
0.0
 40
0.0
 40
1.0
 40
1.0
 40
1.0
 40
1.0
 10
374.1296465934015
 20
2260.435757474733
 30
0.0
 10
374.1296465934015
 20
2260.438697952724
 30
0.0
 10
374.1296465934015
 20
2260.441638430713
 30
0.0
 10
374.1296465934015
 20
2260.444578908704
 30
0.0
  0
SPLINE
  5
41A8
330
A
100
AcDbEntity
  8
MODEL
100
AcDbSpline
210
0.0
220
0.0
230
1.0
 70
     8
 71
     3
 72
    65
 73
    61
 74
     0
 42
0.000000001
 43
0.0000000001
 40
0.0
 40
0.0
 40
0.0
 40
0.0
 40
1.0
 40
1.0
 40
1.0
 40
2.0
 40
2.0
 40
2.0
 40
3.0
 40
3.0
 40
3.0
 40
4.0
 40
4.0
 40
4.0
 40
5.0
 40
5.0
 40
5.0
 40
6.0
 40
6.0
 40
6.0
 40
7.0
 40
7.0
 40
7.0
 40
8.0
 40
8.0
 40
8.0
 40
9.0
 40
9.0
 40
9.0
 40
10.0
 40
10.0
 40
10.0
 40
11.0
 40
11.0
 40
11.0
 40
12.0
 40
12.0
 40
12.0
 40
13.0
 40
13.0
 40
13.0
 40
14.0
 40
14.0
 40
14.0
 40
15.0
 40
15.0
 40
15.0
 40
16.0
 40
16.0
 40
16.0
 40
17.0
 40
17.0
 40
17.0
 40
18.0
 40
18.0
 40
18.0
 40
19.0
 40
19.0
 40
19.0
 40
20.0
 40
20.0
 40
20.0
 40
20.0
 10
612.4201460236332
 20
2254.69205230384
 30
0.0
 10
613.2846403245385
 20
2254.682451320347
 30
0.0
 10
614.1496842531124
 20
2254.672381083053
 30
0.0
 10
615.015276168474
 20
2254.661830831152
 30
0.0
 10
618.4407362620386
 20
2254.620107475665
 30
0.0
 10
621.8660960897828
 20
2254.570835358816
 30
0.0
 10
625.291339016339
 20
2254.514014719892
 30
0.0
 10
631.8356601818723
 20
2254.405420566946
 30
0.0
 10
638.379475199501
 20
2254.269710498666
 30
0.0
 10
644.9226717169086
 20
2254.106886845087
 30
0.0
 10
646.8903465157669
 20
2254.058044699692
 30
0.0
 10
648.8579468026487
 20
2254.006287764992
 30
0.0
 10
650.8254682597753
 20
2253.951616154567
 30
0.0
 10
655.7882153897681
 20
2253.81960141538
 30
0.0
 10
660.7498311687773
 20
2253.6503210883
 30
0.0
 10
665.7100357710451
 20
2253.443784720412
 30
0.0
 10
669.1529309680818
 20
2253.299604596845
 30
0.0
 10
672.5939991212172
 20
2253.116943130584
 30
0.0
 10
676.0328101368077
 20
2252.895823152196
 30
0.0
 10
679.1863897421053
 20
2252.692911329684
 30
0.0
 10
682.3362442769862
 20
2252.438639931873
 30
0.0
 10
685.4815373490728
 20
2252.133076476386
 30
0.0
 10
686.9284335960997
 20
2251.991262931569
 30
0.0
 10
688.373873647728
 20
2251.835304961945
 30
0.0
 10
689.8177192356425
 20
2251.66521748618
 30
0.0
 10
693.9494613934899
 20
2251.185754349184
 30
0.0
 10
698.0611192049446
 20
2250.556907626844
 30
0.0
 10
702.1472934953972
 20
2249.779503081765
 30
0.0
 10
707.3848903378321
 20
2248.77961482453
 30
0.0
 10
712.5551128661737
 20
2247.475392367204
 30
0.0
 10
717.6402933779614
 20
2245.871292503311
 30
0.0
 10
720.9595477386529
 20
2244.822327475393
 30
0.0
 10
724.2399514210142
 20
2243.657540447002
 30
0.0
 10
727.4774643186788
 20
2242.378365956078
 30
0.0
 10
730.7065004994652
 20
2241.103510679388
 30
0.0
 10
733.890686565705
 20
2239.720438111191
 30
0.0
 10
737.02639695381
 20
2238.230723039347
 30
0.0
 10
738.2908186931186
 20
2237.630125597679
 30
0.0
 10
739.5471385822607
 20
2237.01276026182
 30
0.0
 10
740.7951342690567
 20
2236.378736297359
 30
0.0
 10
745.9264230286644
 20
2233.765336834687
 30
0.0
 10
750.9175452594982
 20
2230.893285309591
 30
0.0
 10
755.7554741333593
 20
2227.770077776069
 30
0.0
 10
760.694560441807
 20
2224.587153741484
 30
0.0
 10
765.5541632254831
 20
2221.105884255294
 30
0.0
 10
770.1244051719341
 20
2217.411017109225
 30
0.0
 10
771.5893375481896
 20
2216.227072713729
 30
0.0
 10
773.0310632477799
 20
2215.014976098026
 30
0.0
 10
774.449041342893
 20
2213.775182034312
 30
0.0
 10
779.7342657972772
 20
2209.152428851774
 30
0.0
 10
784.660515369123
 20
2204.15175407222
 30
0.0
 10
789.1355581606749
 20
2198.737749076071
 30
0.0
 10
796.307888380044
 20
2190.060506544445
 30
0.0
 10
802.1924911881961
 20
2180.471832417767
 30
0.0
 10
806.4742539259146
 20
2170.048162556402
 30
0.0
 10
808.2268834054175
 20
2165.786170725552
 30
0.0
 10
809.6921802107104
 20
2161.417052996411
 30
0.0
 10
810.8636558863486
 20
2156.960156183599
 30
0.0
 10
812.9991306169568
 20
2148.824189756112
 30
0.0
 10
814.1317685982226
 20
2140.422332908326
 30
0.0
 10
814.1317322291029
 20
2132.006741351825
 30
0.0
  0
SPLINE
  5
41A9
330
A
100
AcDbEntity
  8
MODEL
100
AcDbSpline
210
0.0
220
0.0
230
1.0
 70
     8
 71
     3
 72
    65
 73
    61
 74
     0
 42
0.000000001
 43
0.0000000001
 40
0.0
 40
0.0
 40
0.0
 40
0.0
 40
1.0
 40
1.0
 40
1.0
 40
2.0
 40
2.0
 40
2.0
 40
3.0
 40
3.0
 40
3.0
 40
4.0
 40
4.0
 40
4.0
 40
5.0
 40
5.0
 40
5.0
 40
6.0
 40
6.0
 40
6.0
 40
7.0
 40
7.0
 40
7.0
 40
8.0
 40
8.0
 40
8.0
 40
9.0
 40
9.0
 40
9.0
 40
10.0
 40
10.0
 40
10.0
 40
11.0
 40
11.0
 40
11.0
 40
12.0
 40
12.0
 40
12.0
 40
13.0
 40
13.0
 40
13.0
 40
14.0
 40
14.0
 40
14.0
 40
15.0
 40
15.0
 40
15.0
 40
16.0
 40
16.0
 40
16.0
 40
17.0
 40
17.0
 40
17.0
 40
18.0
 40
18.0
 40
18.0
 40
19.0
 40
19.0
 40
19.0
 40
20.0
 40
20.0
 40
20.0
 40
20.0
 10
612.4201460236327
 20
2009.321210936099
 30
0.0
 10
613.284640324538
 20
2009.330811919591
 30
0.0
 10
614.1496842531119
 20
2009.340882156886
 30
0.0
 10
615.0152761684735
 20
2009.351432408787
 30
0.0
 10
618.4407362620382
 20
2009.393155764274
 30
0.0
 10
621.8660960897823
 20
2009.442427881123
 30
0.0
 10
625.2913390163385
 20
2009.499248520047
 30
0.0
 10
631.8356601818718
 20
2009.607842672993
 30
0.0
 10
638.3794751995006
 20
2009.743552741273
 30
0.0
 10
644.9226717169081
 20
2009.906376394853
 30
0.0
 10
646.8903465157664
 20
2009.955218540247
 30
0.0
 10
648.8579468026483
 20
2010.006975474947
 30
0.0
 10
650.8254682597749
 20
2010.061647085373
 30
0.0
 10
655.7882153897676
 20
2010.193661824559
 30
0.0
 10
660.7498311687768
 20
2010.36294215164
 30
0.0
 10
665.7100357710447
 20
2010.569478519528
 30
0.0
 10
669.1529309680814
 20
2010.713658643094
 30
0.0
 10
672.5939991212167
 20
2010.896320109354
 30
0.0
 10
676.0328101368073
 20
2011.117440087742
 30
0.0
 10
679.1863897421049
 20
2011.320351910255
 30
0.0
 10
682.3362442769858
 20
2011.574623308066
 30
0.0
 10
685.4815373490724
 20
2011.880186763553
 30
0.0
 10
686.9284335960992
 20
2012.02200030837
 30
0.0
 10
688.3738736477276
 20
2012.177958277993
 30
0.0
 10
689.817719235642
 20
2012.348045753759
 30
0.0
 10
693.9494613934894
 20
2012.827508890755
 30
0.0
 10
698.0611192049441
 20
2013.456355613094
 30
0.0
 10
702.1472934953968
 20
2014.233760158173
 30
0.0
 10
707.3848903378316
 20
2015.233648415409
 30
0.0
 10
712.5551128661732
 20
2016.537870872734
 30
0.0
 10
717.6402933779609
 20
2018.141970736627
 30
0.0
 10
720.9595477386524
 20
2019.190935764545
 30
0.0
 10
724.2399514210138
 20
2020.355722792936
 30
0.0
 10
727.4774643186784
 20
2021.634897283861
 30
0.0
 10
730.7065004994647
 20
2022.909752560551
 30
0.0
 10
733.8906865657045
 20
2024.292825128747
 30
0.0
 10
737.0263969538096
 20
2025.782540200591
 30
0.0
 10
738.2908186931181
 20
2026.383137642259
 30
0.0
 10
739.5471385822602
 20
2027.000502978118
 30
0.0
 10
740.7951342690567
 20
2027.63452694258
 30
0.0
 10
745.9264230286644
 20
2030.247926405251
 30
0.0
 10
750.9175452594982
 20
2033.119977930348
 30
0.0
 10
755.7554741333593
 20
2036.243185463869
 30
0.0
 10
760.694560441807
 20
2039.426109498455
 30
0.0
 10
765.5541632254831
 20
2042.907378984645
 30
0.0
 10
770.1244051719341
 20
2046.602246130713
 30
0.0
 10
771.5893375481896
 20
2047.786190526208
 30
0.0
 10
773.0310632477799
 20
2048.998287141912
 30
0.0
 10
774.449041342893
 20
2050.238081205627
 30
0.0
 10
779.7342657972772
 20
2054.860834388165
 30
0.0
 10
784.660515369123
 20
2059.861509167718
 30
0.0
 10
789.1355581606749
 20
2065.275514163868
 30
0.0
 10
796.307888380044
 20
2073.952756695493
 30
0.0
 10
802.1924911881961
 20
2083.541430822172
 30
0.0
 10
806.4742539259146
 20
2093.965100683537
 30
0.0
 10
808.2268834054175
 20
2098.227092514387
 30
0.0
 10
809.6921802107104
 20
2102.596210243527
 30
0.0
 10
810.8636558863486
 20
2107.05310705634
 30
0.0
 10
812.9991306169568
 20
2115.189073483826
 30
0.0
 10
814.1317685982226
 20
2123.590930331613
 30
0.0
 10
814.1317322291029
 20
2132.006521888114
 30
0.0
  0
POLYLINE
  5
41AA
330
A
100
AcDbEntity
  8
MODEL
100
AcDb2dPolyline
 66
     1
 10
0.0
 20
0.0
 30
0.0
  0
VERTEX
  5
41AB
330
41AA
100
AcDbEntity
  8
MODEL
100
AcDbVertex
100
AcDb2dVertex
 10
374.1357175707844
 20
2003.597951988392
 30
0.0
  0
VERTEX
  5
41AC
330
41AA
100
AcDbEntity
  8
MODEL
100
AcDbVertex
100
AcDb2dVertex
 10
374.1339024932354
 20
2003.557885593849
 30
0.0
  0
VERTEX
  5
41AD
330
41AA
100
AcDbEntity
  8
MODEL
100
AcDbVertex
100
AcDb2dVertex
 10
374.1324088457986
 20
2003.517805936993
 30
0.0
  0
SEQEND
  5
41AE
330
41AA
100
AcDbEntity
  8
MODEL
  0
SPLINE
  5
41AF
330
A
100
AcDbEntity
  8
MODEL
100
AcDbSpline
210
0.0
220
0.0
230
1.0
 70
    24
 71
     3
 72
     8
 73
     4
 74
     0
 42
0.000000001
 43
0.0000000001
 40
0.0
 40
0.0
 40
0.0
 40
0.0
 40
1.0
 40
1.0
 40
1.0
 40
1.0
 10
374.129646593401
 20
2003.57772397953
 30
0.0
 10
374.129646593401
 20
2003.574783501535
 30
0.0
 10
374.129646593401
 20
2003.571843023546
 30
0.0
 10
374.129646593401
 20
2003.568902545558
 30
0.0
  0
SPLINE
  5
41B0
330
A
100
AcDbEntity
  8
MODEL
100
AcDbSpline
210
0.0
220
0.0
230
1.0
 70
    24
 71
     3
 72
     8
 73
     4
 74
     0
 42
0.000000001
 43
0.0000000001
 40
0.0
 40
0.0
 40
0.0
 40
0.0
 40
1.0
 40
1.0
 40
1.0
 40
1.0
 10
374.129646593401
 20
1973.537083337488
 30
0.0
 10
374.129646593401
 20
2024.052987335123
 30
0.0
 10
374.1296465934015
 20
2239.960494119136
 30
0.0
 10
374.1296465934015
 20
2290.476398116771
 30
0.0
  0
SPLINE
  5
41B1
330
A
100
AcDbEntity
  8
MODEL
100
AcDbSpline
210
0.0
220
0.0
230
1.0
 70
     8
 71
     3
 72
     8
 73
     4
 74
     0
 42
0.000000001
 43
0.0000000001
 40
0.0
 40
0.0
 40
0.0
 40
0.0
 40
1.0
 40
1.0
 40
1.0
 40
1.0
 10
374.1296465944542
 20
2290.476398116771
 30
0.0
 10
397.1314896388576
 20
2291.460286134397
 30
0.0
 10
420.1391438500859
 20
2292.28133132957
 30
0.0
 10
443.1526092281397
 20
2292.939533702289
 30
0.0
  0
POLYLINE
  5
41B2
330
A
100
AcDbEntity
  8
MODEL
100
AcDb2dPolyline
 66
     1
 10
0.0
 20
0.0
 30
0.0
  0
VERTEX
  5
41B3
330
41B2
100
AcDbEntity
  8
MODEL
100
AcDbVertex
100
AcDb2dVertex
 10
443.1526092746117
 20
2292.93953370362
 30
0.0
  0
VERTEX
  5
41B4
330
41B2
100
AcDbEntity
  8
MODEL
100
AcDbVertex
100
AcDb2dVertex
 10
448.6025702549809
 20
2293.092462457546
 30
0.0
  0
SEQEND
  5
41B5
330
41B2
100
AcDbEntity
  8
MODEL
  0
SPLINE
  5
41B6
330
A
100
AcDbEntity
  8
MODEL
100
AcDbSpline
210
0.0
220
0.0
230
1.0
 70
     8
 71
     3
 72
     8
 73
     4
 74
     0
 42
0.000000001
 43
0.0000000001
 40
0.0
 40
0.0
 40
0.0
 40
0.0
 40
1.0
 40
1.0
 40
1.0
 40
1.0
 10
524.1219483049176
 20
2294.586606579574
 30
0.0
 10
506.1770368187094
 20
2294.370743643009
 30
0.0
 10
488.2338694669497
 20
2294.055581630793
 30
0.0
 10
470.292446249658
 20
2293.641120542928
 30
0.0
  0
SPLINE
  5
41B7
330
A
100
AcDbEntity
  8
MODEL
100
AcDbSpline
210
0.0
220
0.0
230
1.0
 70
     8
 71
     3
 72
    62
 73
    58
 74
     0
 42
0.000000001
 43
0.0000000001
 40
0.0
 40
0.0
 40
0.0
 40
0.0
 40
1.0
 40
1.0
 40
1.0
 40
2.0
 40
2.0
 40
2.0
 40
3.0
 40
3.0
 40
3.0
 40
4.0
 40
4.0
 40
4.0
 40
5.0
 40
5.0
 40
5.0
 40
6.0
 40
6.0
 40
6.0
 40
7.0
 40
7.0
 40
7.0
 40
8.0
 40
8.0
 40
8.0
 40
9.0
 40
9.0
 40
9.0
 40
10.0
 40
10.0
 40
10.0
 40
11.0
 40
11.0
 40
11.0
 40
12.0
 40
12.0
 40
12.0
 40
13.0
 40
13.0
 40
13.0
 40
14.0
 40
14.0
 40
14.0
 40
15.0
 40
15.0
 40
15.0
 40
16.0
 40
16.0
 40
16.0
 40
17.0
 40
17.0
 40
17.0
 40
18.0
 40
18.0
 40
18.0
 40
19.0
 40
19.0
 40
19.0
 40
19.0
 10
854.1319804742643
 20
2132.006740723043
 30
0.0
 10
854.13177074134
 20
2138.610832996246
 30
0.0
 10
853.6418776233704
 20
2145.214154089013
 30
0.0
 10
852.6860171655403
 20
2151.748592676719
 30
0.0
 10
851.4916878429476
 20
2159.913248456702
 30
0.0
 10
849.5698892115506
 20
2167.970364707487
 30
0.0
 10
846.9723556436443
 20
2175.802513002864
 30
0.0
 10
844.8951903602738
 20
2182.06563380882
 30
0.0
 10
842.3859132563816
 20
2188.184894489277
 30
0.0
 10
839.4783407404866
 20
2194.108047025762
 30
0.0
 10
835.8427293201576
 20
2201.514321809368
 30
0.0
 10
831.5843888700465
 20
2208.613984388699
 30
0.0
 10
826.7898678621477
 20
2215.328519985636
 30
0.0
 10
822.4947945088261
 20
2221.343599046679
 30
0.0
 10
817.7694306324888
 20
2227.049609663756
 30
0.0
 10
812.6894135303596
 20
2232.417876050356
 30
0.0
 10
807.6333402303417
 20
2237.760840020551
 30
0.0
 10
802.2259490218271
 20
2242.76923605782
 30
0.0
 10
796.545801931707
 20
2247.443141997135
 30
0.0
 10
790.3425808141192
 20
2252.54745911505
 30
0.0
 10
783.8140556359745
 20
2257.25284446128
 30
0.0
 10
777.0495540046345
 20
2261.58776757442
 30
0.0
 10
770.4905211347632
 20
2265.791019304849
 30
0.0
 10
763.7096294584812
 20
2269.645972263318
 30
0.0
 10
756.7211030877284
 20
2273.085408249209
 30
0.0
 10
751.2987228436123
 20
2275.754058083433
 30
0.0
 10
745.7513429932551
 20
2278.172559655624
 30
0.0
 10
740.1037118210998
 20
2280.325955802477
 30
0.0
 10
734.6023111814084
 20
2282.423595428487
 30
0.0
 10
729.0057834977702
 20
2284.269680311931
 30
0.0
 10
723.3285541988616
 20
2285.827371768724
 30
0.0
 10
718.3633504926406
 20
2287.189700994341
 30
0.0
 10
713.3364186027206
 20
2288.331439809763
 30
0.0
 10
708.2728599026509
 20
2289.264901350974
 30
0.0
 10
701.6945144738434
 20
2290.477612178734
 30
0.0
 10
695.0543502196961
 20
2291.3387920819
 30
0.0
 10
688.3947319218128
 20
2291.969343387842
 30
0.0
 10
680.6197143945124
 20
2292.705503815701
 30
0.0
 10
672.818180503607
 20
2293.127311514444
 30
0.0
 10
665.0147058708076
 20
2293.438317758732
 30
0.0
 10
661.676456337867
 20
2293.571363164601
 30
0.0
 10
658.3378516406001
 20
2293.684131416021
 30
0.0
 10
654.9986486493003
 20
2293.78591170973
 30
0.0
 10
651.5275838002767
 20
2293.891711207619
 30
0.0
 10
648.0558724721541
 20
2293.985637805978
 30
0.0
 10
644.5840644706564
 20
2294.073236927997
 30
0.0
 10
636.3203782102264
 20
2294.28174260019
 30
0.0
 10
628.0561442493195
 20
2294.454400120513
 30
0.0
 10
619.7912064716834
 20
2294.587719245208
 30
0.0
 10
605.8695175887674
 20
2294.812285651644
 30
0.0
 10
591.9458317693261
 20
2294.92523737893
 30
0.0
 10
578.0222283319122
 20
2294.931465655181
 30
0.0
 10
569.7183561186648
 20
2294.935180125382
 30
0.0
 10
561.4145132069548
 20
2294.900935322796
 30
0.0
 10
553.1108043648105
 20
2294.849012893953
 30
0.0
 10
543.4476252637278
 20
2294.788589806049
 30
0.0
 10
533.7846277250846
 20
2294.704226958832
 30
0.0
 10
524.1219483049176
 20
2294.586606579574
 30
0.0
  0
SPLINE
  5
41B8
330
A
100
AcDbEntity
  8
MODEL
100
AcDbSpline
210
0.0
220
0.0
230
1.0
 70
     8
 71
     3
 72
     8
 73
     4
 74
     0
 42
0.000000001
 43
0.0000000001
 40
0.0
 40
0.0
 40
0.0
 40
0.0
 40
1.0
 40
1.0
 40
1.0
 40
1.0
 10
470.292446249658
 20
2293.641120542928
 30
0.0
 10
463.1060861475453
 20
2293.475214552835
 30
0.0
 10
455.9201247571691
 20
2293.293538072797
 30
0.0
 10
448.7345620785181
 20
2293.096091102811
 30
0.0
  0
SPLINE
  5
41B9
330
A
100
AcDbEntity
  8
MODEL
100
AcDbSpline
210
0.0
220
0.0
230
1.0
 70
     8
 71
     3
 72
    20
 73
    16
 74
     0
 42
0.000000001
 43
0.0000000001
 40
0.0
 40
0.0
 40
0.0
 40
0.0
 40
1.0
 40
1.0
 40
1.0
 40
2.0
 40
2.0
 40
2.0
 40
3.0
 40
3.0
 40
3.0
 40
4.0
 40
4.0
 40
4.0
 40
5.0
 40
5.0
 40
5.0
 40
5.0
 10
612.4201459564665
 20
2254.692052214605
 30
0.0
 10
609.0818139998232
 20
2254.728846347709
 30
0.0
 10
605.7434830618581
 20
2254.759515837341
 30
0.0
 10
602.4050123206848
 20
2254.783235504345
 30
0.0
 10
602.0118710331517
 20
2254.786028753457
 30
0.0
 10
601.6187278068742
 20
2254.788725625017
 30
0.0
 10
601.2255913379136
 20
2254.787428044278
 30
0.0
 10
600.8780981388036
 20
2254.786281113077
 30
0.0
 10
600.530610219028
 20
2254.782013401602
 30
0.0
 10
600.1831852059281
 20
2254.774712250774
 30
0.0
 10
598.0924272861985
 20
2254.730774887784
 30
0.0
 10
596.0039475150156
 20
2254.576982316428
 30
0.0
 10
593.9293261320463
 20
2254.314035623024
 30
0.0
 10
588.8726966660583
 20
2253.673136031045
 30
0.0
 10
583.8983970427848
 20
2252.3837741824
 30
0.0
 10
579.1686478795023
 20
2250.483272348409
 30
0.0
  0
POLYLINE
  5
41BA
330
A
100
AcDbEntity
  8
MODEL
100
AcDb2dPolyline
 66
     1
 10
0.0
 20
0.0
 30
0.0
  0
VERTEX
  5
41BB
330
41BA
100
AcDbEntity
  8
MODEL
100
AcDbVertex
100
AcDb2dVertex
 10
760.3561868092024
 20
2224.701276748098
 30
0.0
  0
VERTEX
  5
41BC
330
41BA
100
AcDbEntity
  8
MODEL
100
AcDbVertex
100
AcDb2dVertex
 10
759.4669107246418
 20
2225.311060749441
 30
0.0
  0
SEQEND
  5
41BD
330
41BA
100
AcDbEntity
  8
MODEL
  0
POLYLINE
  5
41BE
330
A
100
AcDbEntity
  8
MODEL
100
AcDb2dPolyline
 66
     1
 10
0.0
 20
0.0
 30
0.0
  0
VERTEX
  5
41BF
330
41BE
100
AcDbEntity
  8
MODEL
100
AcDbVertex
100
AcDb2dVertex
 10
761.2673634150965
 20
2224.067911342246
 30
0.0
  0
VERTEX
  5
41C0
330
41BE
100
AcDbEntity
  8
MODEL
100
AcDbVertex
100
AcDb2dVertex
 10
760.3832171611198
 20
2224.68261340386
 30
0.0
  0
SEQEND
  5
41C1
330
41BE
100
AcDbEntity
  8
MODEL
  0
POLYLINE
  5
41C2
330
A
100
AcDbEntity
  8
MODEL
100
AcDb2dPolyline
 66
     1
 10
0.0
 20
0.0
 30
0.0
  0
VERTEX
  5
41C3
330
41C2
100
AcDbEntity
  8
MODEL
100
AcDbVertex
100
AcDb2dVertex
 10
762.1748414327744
 20
2223.428310221487
 30
0.0
  0
VERTEX
  5
41C4
330
41C2
100
AcDbEntity
  8
MODEL
100
AcDbVertex
100
AcDb2dVertex
 10
761.2946575105061
 20
2224.048803352258
 30
0.0
  0
SEQEND
  5
41C5
330
41C2
100
AcDbEntity
  8
MODEL
  0
POLYLINE
  5
41C6
330
A
100
AcDbEntity
  8
MODEL
100
AcDb2dPolyline
 66
     1
 10
0.0
 20
0.0
 30
0.0
  0
VERTEX
  5
41C7
330
41C6
100
AcDbEntity
  8
MODEL
100
AcDbVertex
100
AcDb2dVertex
 10
763.0783110072075
 20
2222.782593447778
 30
0.0
  0
VERTEX
  5
41C8
330
41C6
100
AcDbEntity
  8
MODEL
100
AcDbVertex
100
AcDb2dVertex
 10
762.201114983548
 20
2223.409659318201
 30
0.0
  0
SEQEND
  5
41C9
330
41C6
100
AcDbEntity
  8
MODEL
  0
SPLINE
  5
41CA
330
A
100
AcDbEntity
  8
MODEL
100
AcDbSpline
210
0.0
220
0.0
230
1.0
 70
     8
 71
     3
 72
     8
 73
     4
 74
     0
 42
0.000000001
 43
0.0000000001
 40
0.0
 40
0.0
 40
0.0
 40
0.0
 40
1.0
 40
1.0
 40
1.0
 40
1.0
 10
763.1058978552096
 20
2222.769934661193
 30
0.0
 10
765.8794607876284
 20
2220.776854801732
 30
0.0
 10
768.5843806667463
 20
2218.694605062255
 30
0.0
 10
771.220657492559
 20
2216.523185442767
 30
0.0
  0
SPLINE
  5
41CB
330
A
100
AcDbEntity
  8
MODEL
100
AcDbSpline
210
0.0
220
0.0
230
1.0
 70
     8
 71
     3
 72
    35
 73
    31
 74
     0
 42
0.000000001
 43
0.0000000001
 40
0.0
 40
0.0
 40
0.0
 40
0.0
 40
1.0
 40
1.0
 40
1.0
 40
2.0
 40
2.0
 40
2.0
 40
3.0
 40
3.0
 40
3.0
 40
4.0
 40
4.0
 40
4.0
 40
5.0
 40
5.0
 40
5.0
 40
6.0
 40
6.0
 40
6.0
 40
7.0
 40
7.0
 40
7.0
 40
8.0
 40
8.0
 40
8.0
 40
9.0
 40
9.0
 40
9.0
 40
10.0
 40
10.0
 40
10.0
 40
10.0
 10
625.2914177632601
 20
2254.518765168282
 30
0.0
 10
630.9924980021133
 20
2254.425756506037
 30
0.0
 10
636.6934243357869
 20
2254.311777593718
 30
0.0
 10
642.3937397836139
 20
2254.177778007371
 30
0.0
 10
647.297138193876
 20
2254.062511867337
 30
0.0
 10
652.2000845851721
 20
2253.932431627057
 30
0.0
 10
657.1023959356212
 20
2253.77426468344
 30
0.0
 10
663.6999129531091
 20
2253.561404049443
 30
0.0
 10
670.2962798035537
 20
2253.297673616072
 30
0.0
 10
676.8821291607046
 20
2252.850535848966
 30
0.0
 10
682.0711596362571
 20
2252.498233302326
 30
0.0
 10
687.2536608948199
 20
2252.032072230261
 30
0.0
 10
692.4099985524176
 20
2251.353438163012
 30
0.0
 10
696.8608009028303
 20
2250.767660756227
 30
0.0
 10
701.2921096807859
 20
2250.023577245866
 30
0.0
 10
705.6781174916168
 20
2249.066658668043
 30
0.0
 10
707.9220034039754
 20
2248.577098181911
 30
0.0
 10
710.1540324420248
 20
2248.031831188729
 30
0.0
 10
712.3701553529108
 20
2247.42889091735
 30
0.0
 10
714.7445136649403
 20
2246.782899561016
 30
0.0
 10
717.1006133010742
 20
2246.070704930673
 30
0.0
 10
719.4374262225124
 20
2245.2999661317
 30
0.0
 10
724.1121321877981
 20
2243.758132282624
 30
0.0
 10
728.7096556313609
 20
2241.982013505307
 30
0.0
 10
733.2111065628965
 20
2239.99011736489
 30
0.0
 10
737.6709584740406
 20
2238.016628828904
 30
0.0
 10
742.0365053281475
 20
2235.831332606151
 30
0.0
 10
746.2969938758492
 20
2233.457829017942
 30
0.0
 10
750.8080292129398
 20
2230.944746670873
 30
0.0
 10
755.2012865842044
 20
2228.220670244263
 30
0.0
 10
759.470168154397
 20
2225.315842308853
 30
0.0
  0
SPLINE
  5
41CC
330
A
100
AcDbEntity
  8
MODEL
100
AcDbSpline
210
0.0
220
0.0
230
1.0
 70
     8
 71
     3
 72
    23
 73
    19
 74
     0
 42
0.000000001
 43
0.0000000001
 40
0.0
 40
0.0
 40
0.0
 40
0.0
 40
1.0
 40
1.0
 40
1.0
 40
2.0
 40
2.0
 40
2.0
 40
3.0
 40
3.0
 40
3.0
 40
4.0
 40
4.0
 40
4.0
 40
5.0
 40
5.0
 40
5.0
 40
6.0
 40
6.0
 40
6.0
 40
6.0
 10
584.4274753779923
 20
2252.300201117889
 30
0.0
 10
585.1639731759346
 20
2252.519366013545
 30
0.0
 10
585.9047156287124
 20
2252.724482824143
 30
0.0
 10
586.6491313132242
 20
2252.915142589945
 30
0.0
 10
587.3934412354083
 20
2253.105775267892
 30
0.0
 10
588.1414233456417
 20
2253.281955008702
 30
0.0
 10
588.892527041085
 20
2253.443724527575
 30
0.0
 10
590.3945545266397
 20
2253.767224818074
 30
0.0
 10
591.9090653624498
 20
2254.033098026228
 30
0.0
 10
593.4315577189855
 20
2254.239862352468
 30
0.0
 10
594.9541903923027
 20
2254.446645734633
 30
0.0
 10
596.4848060576101
 20
2254.594309339135
 30
0.0
 10
598.0188531498479
 20
2254.683563826452
 30
0.0
 10
598.7482426612314
 20
2254.726001432975
 30
0.0
 10
599.478407912984
 20
2254.755234529607
 30
0.0
 10
600.208855295059
 20
2254.769848233679
 30
0.0
 10
601.0396709526758
 20
2254.786469956818
 30
0.0
 10
601.8708516005058
 20
2254.784178663547
 30
0.0
 10
602.7017685664728
 20
2254.777623252044
 30
0.0
  0
SPLINE
  5
41CD
330
A
100
AcDbEntity
  8
MODEL
100
AcDbSpline
210
0.0
220
0.0
230
1.0
 70
     8
 71
     3
 72
     8
 73
     4
 74
     0
 42
0.000000001
 43
0.0000000001
 40
0.0
 40
0.0
 40
0.0
 40
0.0
 40
1.0
 40
1.0
 40
1.0
 40
1.0
 10
560.2471667705499
 20
2235.920904880746
 30
0.0
 10
565.7226826935162
 20
2241.817925896659
 30
0.0
 10
572.1417667010714
 20
2246.390281044249
 30
0.0
 10
579.5044187932235
 20
2249.637970323516
 30
0.0
  0
SPLINE
  5
41CE
330
A
100
AcDbEntity
  8
MODEL
100
AcDbSpline
210
0.0
220
0.0
230
1.0
 70
     8
 71
     3
 72
     8
 73
     4
 74
     0
 42
0.000000001
 43
0.0000000001
 40
0.0
 40
0.0
 40
0.0
 40
0.0
 40
1.0
 40
1.0
 40
1.0
 40
1.0
 10
534.840646889862
 20
2132.006791598596
 30
0.0
 10
534.8405518023278
 20
2138.677864218985
 30
0.0
 10
535.0115777356659
 20
2145.344546930093
 30
0.0
 10
535.3537246898768
 20
2152.00683973192
 30
0.0
  0
SPLINE
  5
41CF
330
A
100
AcDbEntity
  8
MODEL
100
AcDbSpline
210
0.0
220
0.0
230
1.0
 70
     8
 71
     3
 72
    38
 73
    34
 74
     0
 42
0.000000001
 43
0.0000000001
 40
0.0
 40
0.0
 40
0.0
 40
0.0
 40
1.0
 40
1.0
 40
1.0
 40
2.0
 40
2.0
 40
2.0
 40
3.0
 40
3.0
 40
3.0
 40
4.0
 40
4.0
 40
4.0
 40
5.0
 40
5.0
 40
5.0
 40
6.0
 40
6.0
 40
6.0
 40
7.0
 40
7.0
 40
7.0
 40
8.0
 40
8.0
 40
8.0
 40
9.0
 40
9.0
 40
9.0
 40
10.0
 40
10.0
 40
10.0
 40
11.0
 40
11.0
 40
11.0
 40
11.0
 10
535.3537246898768
 20
2152.00683973192
 30
0.0
 10
535.5816982312658
 20
2156.447472773375
 30
0.0
 10
535.9434140409994
 20
2160.881113667755
 30
0.0
 10
536.4368216002963
 20
2165.300087759651
 30
0.0
 10
536.9294417542192
 20
2169.712009823556
 30
0.0
 10
537.5533336720641
 20
2174.109311859713
 30
0.0
 10
538.3075010621319
 20
2178.484120948099
 30
0.0
 10
539.4367480949622
 20
2185.034709381527
 30
0.0
 10
540.8580773155022
 20
2191.53486783547
 30
0.0
 10
542.5644873185488
 20
2197.959331539254
 30
0.0
 10
543.1328554288102
 20
2200.099180865202
 30
0.0
 10
543.7328507264297
 20
2202.230632529183
 30
0.0
 10
544.3644494787268
 20
2204.352659547542
 30
0.0
 10
545.1715822272731
 20
2207.064440553419
 30
0.0
 10
546.0303259397251
 20
2209.760830360768
 30
0.0
 10
546.9383285066165
 20
2212.440545888444
 30
0.0
 10
547.3708112143127
 20
2213.716897596592
 30
0.0
 10
547.8144689250521
 20
2214.989466530494
 30
0.0
 10
548.2716898679655
 20
2216.25715327385
 30
0.0
 10
548.3346286582632
 20
2216.431656807293
 30
0.0
 10
548.3978244572127
 20
2216.606067828477
 30
0.0
 10
548.4620250586977
 20
2216.780108669369
 30
0.0
 10
548.6228627831993
 20
2217.2161222296
 30
0.0
 10
548.7900068620061
 20
2217.64981245961
 30
0.0
 10
548.9623235899844
 20
2218.081438297649
 30
0.0
 10
549.5835228482733
 20
2219.637443066357
 30
0.0
 10
550.2719454333892
 20
2221.16661916536
 30
0.0
 10
551.0261753915379
 20
2222.662614141007
 30
0.0
 10
552.2002780508801
 20
2224.991415404207
 30
0.0
 10
553.5338507639844
 20
2227.239809331854
 30
0.0
 10
555.0130646485118
 20
2229.387819336975
 30
0.0
 10
556.5970774871876
 20
2231.688010986955
 30
0.0
 10
558.3480992232321
 20
2233.873090899985
 30
0.0
 10
560.2471667705499
 20
2235.920904880746
 30
0.0
  0
SPLINE
  5
41D0
330
A
100
AcDbEntity
  8
MODEL
100
AcDbSpline
210
0.0
220
0.0
230
1.0
 70
     8
 71
     3
 72
     8
 73
     4
 74
     0
 42
0.000000001
 43
0.0000000001
 40
0.0
 40
0.0
 40
0.0
 40
0.0
 40
1.0
 40
1.0
 40
1.0
 40
1.0
 10
374.1296465944538
 20
1973.537083337488
 30
0.0
 10
397.1314896388571
 20
1972.553195319859
 30
0.0
 10
420.1391438500855
 20
1971.732150124686
 30
0.0
 10
443.1526092281392
 20
1971.07394775197
 30
0.0
  0
POLYLINE
  5
41D1
330
A
100
AcDbEntity
  8
MODEL
100
AcDb2dPolyline
 66
     1
 10
0.0
 20
0.0
 30
0.0
  0
VERTEX
  5
41D2
330
41D1
100
AcDbEntity
  8
MODEL
100
AcDbVertex
100
AcDb2dVertex
 10
443.1526092746112
 20
1971.073947750642
 30
0.0
  0
VERTEX
  5
41D3
330
41D1
100
AcDbEntity
  8
MODEL
100
AcDbVertex
100
AcDb2dVertex
 10
448.6025702549805
 20
1970.92101899671
 30
0.0
  0
SEQEND
  5
41D4
330
41D1
100
AcDbEntity
  8
MODEL
  0
SPLINE
  5
41D5
330
A
100
AcDbEntity
  8
MODEL
100
AcDbSpline
210
0.0
220
0.0
230
1.0
 70
     8
 71
     3
 72
     8
 73
     4
 74
     0
 42
0.000000001
 43
0.0000000001
 40
0.0
 40
0.0
 40
0.0
 40
0.0
 40
1.0
 40
1.0
 40
1.0
 40
1.0
 10
524.121948242614
 20
1969.426874874599
 30
0.0
 10
506.1770367771719
 20
1969.642737811427
 30
0.0
 10
488.2338694461841
 20
1969.957899823671
 30
0.0
 10
470.2924462496576
 20
1970.372360911331
 30
0.0
  0
SPLINE
  5
41D6
330
A
100
AcDbEntity
  8
MODEL
100
AcDbSpline
210
0.0
220
0.0
230
1.0
 70
     8
 71
     3
 72
    62
 73
    58
 74
     0
 42
0.000000001
 43
0.0000000001
 40
0.0
 40
0.0
 40
0.0
 40
0.0
 40
1.0
 40
1.0
 40
1.0
 40
2.0
 40
2.0
 40
2.0
 40
3.0
 40
3.0
 40
3.0
 40
4.0
 40
4.0
 40
4.0
 40
5.0
 40
5.0
 40
5.0
 40
6.0
 40
6.0
 40
6.0
 40
7.0
 40
7.0
 40
7.0
 40
8.0
 40
8.0
 40
8.0
 40
9.0
 40
9.0
 40
9.0
 40
10.0
 40
10.0
 40
10.0
 40
11.0
 40
11.0
 40
11.0
 40
12.0
 40
12.0
 40
12.0
 40
13.0
 40
13.0
 40
13.0
 40
14.0
 40
14.0
 40
14.0
 40
15.0
 40
15.0
 40
15.0
 40
16.0
 40
16.0
 40
16.0
 40
17.0
 40
17.0
 40
17.0
 40
18.0
 40
18.0
 40
18.0
 40
19.0
 40
19.0
 40
19.0
 40
19.0
 10
854.1319804742643
 20
2132.006740723043
 30
0.0
 10
854.1317707412886
 20
2125.402648449971
 30
0.0
 10
853.6418776232808
 20
2118.799327357326
 30
0.0
 10
852.6860171654084
 20
2112.264888769754
 30
0.0
 10
851.4916878427807
 20
2104.100232989952
 30
0.0
 10
849.5698892113614
 20
2096.043116739357
 30
0.0
 10
846.9723556434487
 20
2088.210968444162
 30
0.0
 10
844.895190360081
 20
2081.947847638363
 30
0.0
 10
842.3859132561925
 20
2075.828586958063
 30
0.0
 10
839.4783407403133
 20
2069.905434421732
 30
0.0
 10
835.8427293200098
 20
2062.499159638331
 30
0.0
 10
831.584388869931
 20
2055.39949705921
 30
0.0
 10
826.7898678620804
 20
2048.684961462464
 30
0.0
 10
822.4947945087811
 20
2042.669882401556
 30
0.0
 10
817.7694306324634
 20
2036.963871784626
 30
0.0
 10
812.6894135303596
 20
2031.595605398165
 30
0.0
 10
807.6333402303412
 20
2026.252641428086
 30
0.0
 10
802.2259490218235
 20
2021.244245390932
 30
0.0
 10
796.5458019317098
 20
2016.570339451738
 30
0.0
 10
790.3425808141187
 20
2011.46602233395
 30
0.0
 10
783.8140556359708
 20
2006.760636987848
 30
0.0
 10
777.049554004634
 20
2002.425713874852
 30
0.0
 10
770.4905211347627
 20
1998.222462144544
 30
0.0
 10
763.7096294584776
 20
1994.367509186211
 30
0.0
 10
756.7211030877247
 20
1990.928073200454
 30
0.0
 10
751.2987228436086
 20
1988.25942336633
 30
0.0
 10
745.7513429932515
 20
1985.840921794238
 30
0.0
 10
740.1037118210993
 20
1983.687525647491
 30
0.0
 10
734.6023111814047
 20
1981.589886021578
 30
0.0
 10
729.0057834977661
 20
1979.743801138236
 30
0.0
 10
723.3285541988612
 20
1978.186109681542
 30
0.0
 10
718.3633504926338
 20
1976.823780456011
 30
0.0
 10
713.336418602717
 20
1975.682041640673
 30
0.0
 10
708.2728599026505
 20
1974.748580099546
 30
0.0
 10
701.6945144738397
 20
1973.535869271895
 30
0.0
 10
695.0543502196892
 20
1972.674689368841
 30
0.0
 10
688.3947319218187
 20
1972.044138063008
 30
0.0
 10
680.6197143945055
 20
1971.307977635274
 30
0.0
 10
672.8181805036065
 20
1970.886169936658
 30
0.0
 10
665.0147058708103
 20
1970.575163692491
 30
0.0
 10
661.6764563378665
 20
1970.442118286673
 30
0.0
 10
658.3378516405996
 20
1970.329350035305
 30
0.0
 10
654.9986486492999
 20
1970.22756974165
 30
0.0
 10
651.5275838002794
 20
1970.12177024382
 30
0.0
 10
648.0558724721536
 20
1970.027843645518
 30
0.0
 10
644.5840644706559
 20
1969.940244523547
 30
0.0
 10
636.320378210226
 20
1969.731738851485
 30
0.0
 10
628.056144249319
 20
1969.559081331291
 30
0.0
 10
619.7912064716829
 20
1969.425762206728
 30
0.0
 10
605.8695175887606
 20
1969.201195800507
 30
0.0
 10
591.9458317693257
 20
1969.088244073436
 30
0.0
 10
578.0222283319054
 20
1969.082015797409
 30
0.0
 10
569.7183561186644
 20
1969.078301327334
 30
0.0
 10
561.4145132069543
 20
1969.112546130054
 30
0.0
 10
553.1108043648101
 20
1969.164468559022
 30
0.0
 10
543.4476252429554
 20
1969.224891647207
 30
0.0
 10
533.7846276835535
 20
1969.309254494815
 30
0.0
 10
524.1219482426204
 20
1969.426874874599
 30
0.0
  0
SPLINE
  5
41D7
330
A
100
AcDbEntity
  8
MODEL
100
AcDbSpline
210
0.0
220
0.0
230
1.0
 70
     8
 71
     3
 72
     8
 73
     4
 74
     0
 42
0.000000001
 43
0.0000000001
 40
0.0
 40
0.0
 40
0.0
 40
0.0
 40
1.0
 40
1.0
 40
1.0
 40
1.0
 10
470.2924462496576
 20
1970.372360911331
 30
0.0
 10
463.1060861475448
 20
1970.538266901426
 30
0.0
 10
455.9201247571687
 20
1970.719943381466
 30
0.0
 10
448.7345620785177
 20
1970.917390351449
 30
0.0
  0
SPLINE
  5
41D8
330
A
100
AcDbEntity
  8
MODEL
100
AcDbSpline
210
0.0
220
0.0
230
1.0
 70
     8
 71
     3
 72
    20
 73
    16
 74
     0
 42
0.000000001
 43
0.0000000001
 40
0.0
 40
0.0
 40
0.0
 40
0.0
 40
1.0
 40
1.0
 40
1.0
 40
2.0
 40
2.0
 40
2.0
 40
3.0
 40
3.0
 40
3.0
 40
4.0
 40
4.0
 40
4.0
 40
5.0
 40
5.0
 40
5.0
 40
5.0
 10
612.4201459273459
 20
2009.321429239329
 30
0.0
 10
609.0818139804114
 20
2009.28463510638
 30
0.0
 10
605.7434830521479
 20
2009.253965616844
 30
0.0
 10
602.4050123206844
 20
2009.230245949904
 30
0.0
 10
602.0118710331512
 20
2009.227452700801
 30
0.0
 10
601.6187278068737
 20
2009.224755829235
 30
0.0
 10
601.2255913379131
 20
2009.226053409973
 30
0.0
 10
600.8780981388031
 20
2009.227200341172
 30
0.0
 10
600.5306102190275
 20
2009.231468052653
 30
0.0
 10
600.1831852059208
 20
2009.238769203477
 30
0.0
 10
598.092427286198
 20
2009.282706566479
 30
0.0
 10
596.0039475150088
 20
2009.436499137824
 30
0.0
 10
593.9293261320458
 20
2009.699445831234
 30
0.0
 10
588.8726966660579
 20
2010.34034542321
 30
0.0
 10
583.8983970427844
 20
2011.629707271862
 30
0.0
 10
579.1686478795018
 20
2013.530209105844
 30
0.0
  0
SPLINE
  5
41D9
330
A
100
AcDbEntity
  8
MODEL
100
AcDbSpline
210
0.0
220
0.0
230
1.0
 70
     8
 71
     3
 72
     8
 73
     4
 74
     0
 42
0.000000001
 43
0.0000000001
 40
0.0
 40
0.0
 40
0.0
 40
0.0
 40
1.0
 40
1.0
 40
1.0
 40
1.0
 10
814.1317322350965
 20
2132.006740727127
 30
0.0
 10
814.1282910446935
 20
2127.094542490538
 30
0.0
 10
813.7521140847011
 20
2122.21105624403
 30
0.0
 10
813.0032013551231
 20
2117.356281987605
 30
0.0
  0
SPLINE
  5
41DA
330
A
100
AcDbEntity
  8
MODEL
100
AcDbSpline
210
0.0
220
0.0
230
1.0
 70
     8
 71
     3
 72
    23
 73
    19
 74
     0
 42
0.000000001
 43
0.0000000001
 40
0.0
 40
0.0
 40
0.0
 40
0.0
 40
1.0
 40
1.0
 40
1.0
 40
2.0
 40
2.0
 40
2.0
 40
3.0
 40
3.0
 40
3.0
 40
4.0
 40
4.0
 40
4.0
 40
5.0
 40
5.0
 40
5.0
 40
6.0
 40
6.0
 40
6.0
 40
6.0
 10
584.4274753779919
 20
2011.713280336366
 30
0.0
 10
585.1639731759342
 20
2011.494115440721
 30
0.0
 10
585.904715628712
 20
2011.288998630116
 30
0.0
 10
586.6491313132237
 20
2011.09833886431
 30
0.0
 10
587.3934412354079
 20
2010.907706186366
 30
0.0
 10
588.1414233456412
 20
2010.731526445553
 30
0.0
 10
588.8925270410846
 20
2010.569756926681
 30
0.0
 10
590.3945545266392
 20
2010.24625663618
 30
0.0
 10
591.9090653624494
 20
2009.980383428034
 30
0.0
 10
593.431557718985
 20
2009.773619101791
 30
0.0
 10
594.9541903923023
 20
2009.56683571962
 30
0.0
 10
596.4848060576096
 20
2009.419172115124
 30
0.0
 10
598.0188531498475
 20
2009.329917627807
 30
0.0
 10
598.748242661231
 20
2009.28748002128
 30
0.0
 10
599.4784079129836
 20
2009.258246924652
 30
0.0
 10
600.2088552950718
 20
2009.243633220582
 30
0.0
 10
601.0396709526754
 20
2009.227011497437
 30
0.0
 10
601.8708516005054
 20
2009.229302790716
 30
0.0
 10
602.7017685664723
 20
2009.235858202218
 30
0.0
  0
SPLINE
  5
41DB
330
A
100
AcDbEntity
  8
MODEL
100
AcDbSpline
210
0.0
220
0.0
230
1.0
 70
     8
 71
     3
 72
     8
 73
     4
 74
     0
 42
0.000000001
 43
0.0000000001
 40
0.0
 40
0.0
 40
0.0
 40
0.0
 40
1.0
 40
1.0
 40
1.0
 40
1.0
 10
560.2471667705499
 20
2028.092576573513
 30
0.0
 10
565.7226737847591
 20
2022.195559791571
 30
0.0
 10
572.141749189087
 20
2017.623208709232
 30
0.0
 10
579.5043929835383
 20
2014.375523326507
 30
0.0
  0
SPLINE
  5
41DC
330
A
100
AcDbEntity
  8
MODEL
100
AcDbSpline
210
0.0
220
0.0
230
1.0
 70
     8
 71
     3
 72
     8
 73
     4
 74
     0
 42
0.000000001
 43
0.0000000001
 40
0.0
 40
0.0
 40
0.0
 40
0.0
 40
1.0
 40
1.0
 40
1.0
 40
1.0
 10
534.8406468898879
 20
2132.006740714977
 30
0.0
 10
534.8405509328973
 20
2125.335651130343
 30
0.0
 10
535.0115768662354
 20
2118.668951466131
 30
0.0
 10
535.3537246899023
 20
2112.006641722345
 30
0.0
  0
SPLINE
  5
41DD
330
A
100
AcDbEntity
  8
MODEL
100
AcDbSpline
210
0.0
220
0.0
230
1.0
 70
     8
 71
     3
 72
    38
 73
    34
 74
     0
 42
0.000000001
 43
0.0000000001
 40
0.0
 40
0.0
 40
0.0
 40
0.0
 40
1.0
 40
1.0
 40
1.0
 40
2.0
 40
2.0
 40
2.0
 40
3.0
 40
3.0
 40
3.0
 40
4.0
 40
4.0
 40
4.0
 40
5.0
 40
5.0
 40
5.0
 40
6.0
 40
6.0
 40
6.0
 40
7.0
 40
7.0
 40
7.0
 40
8.0
 40
8.0
 40
8.0
 40
9.0
 40
9.0
 40
9.0
 40
10.0
 40
10.0
 40
10.0
 40
11.0
 40
11.0
 40
11.0
 40
11.0
 10
535.3537246899023
 20
2112.006641722345
 30
0.0
 10
535.5816985039314
 20
2107.566007435865
 30
0.0
 10
535.9434144843008
 20
2103.132365296173
 30
0.0
 10
536.4368222370776
 20
2098.713389960831
 30
0.0
 10
536.9294424361956
 20
2094.301467980763
 30
0.0
 10
537.5533343431184
 20
2089.904166021517
 30
0.0
 10
538.3075017435367
 20
2085.52935701463
 30
0.0
 10
539.4367486102688
 20
2078.978769756578
 30
0.0
 10
540.8580776184303
 20
2072.478612472069
 30
0.0
 10
542.5644873174579
 20
2066.054149914638
 30
0.0
 10
543.1328554278734
 20
2063.914300588707
 30
0.0
 10
543.7328507267507
 20
2061.782848925174
 30
0.0
 10
544.3644494792916
 20
2059.660821906905
 30
0.0
 10
545.1715822281458
 20
2056.94904090115
 30
0.0
 10
546.0303259392181
 20
2054.252651093317
 30
0.0
 10
546.9383285063982
 20
2051.572935565741
 30
0.0
 10
547.3708112142226
 20
2050.296583857637
 30
0.0
 10
547.8144689254755
 20
2049.024014923913
 30
0.0
 10
548.2716898680169
 20
2047.75632818043
 30
0.0
 10
548.3346286582632
 20
2047.58182464697
 30
0.0
 10
548.3978244571485
 20
2047.40741362576
 30
0.0
 10
548.4620250585886
 20
2047.233372784851
 30
0.0
 10
548.6228627830001
 20
2046.797359224585
 30
0.0
 10
548.7900068618778
 20
2046.3636689946
 30
0.0
 10
548.9623235899071
 20
2045.932043156575
 30
0.0
 10
549.5835228483888
 20
2044.376038387943
 30
0.0
 10
550.2719454334274
 20
2042.846862288911
 30
0.0
 10
551.0261753915443
 20
2041.350867313251
 30
0.0
 10
552.2002780508355
 20
2039.022066050035
 30
0.0
 10
553.5338507639908
 20
2036.773672122404
 30
0.0
 10
555.0130646485245
 20
2034.625662117284
 30
0.0
 10
556.597077487213
 20
2032.32547046731
 30
0.0
 10
558.3480992232062
 20
2030.140390554267
 30
0.0
 10
560.2471667705499
 20
2028.092576573513
 30
0.0
  0
SPLINE
  5
41DE
330
A
100
AcDbEntity
  8
MODEL
100
AcDbSpline
210
0.0
220
0.0
230
1.0
 70
    24
 71
     3
 72
     8
 73
     4
 74
     0
 42
0.000000001
 43
0.0000000001
 40
0.0
 40
0.0
 40
0.0
 40
0.0
 40
1.0
 40
1.0
 40
1.0
 40
1.0
 10
374.1301719258477
 20
2225.981296120174
 30
0.0
 10
374.1301719258477
 20
2225.981296120174
 30
0.0
 10
374.13427291585
 20
2225.981396788914
 30
0.0
 10
374.1363234108512
 20
2225.98144712328
 30
0.0
  0
POLYLINE
  5
41DF
330
A
100
AcDbEntity
  8
MODEL
100
AcDb2dPolyline
 66
     1
 10
0.0
 20
0.0
 30
0.0
  0
VERTEX
  5
41E0
330
41DF
100
AcDbEntity
  8
MODEL
100
AcDbVertex
100
AcDb2dVertex
 10
374.1363234108512
 20
2225.98144712328
 30
0.0
  0
VERTEX
  5
41E1
330
41DF
100
AcDbEntity
  8
MODEL
100
AcDbVertex
100
AcDb2dVertex
 10
374.1360724157062
 20
2225.990862543223
 30
0.0
  0
VERTEX
  5
41E2
330
41DF
100
AcDbEntity
  8
MODEL
100
AcDbVertex
100
AcDb2dVertex
 10
374.1358126842188
 20
2226.000620260546
 30
0.0
  0
VERTEX
  5
41E3
330
41DF
100
AcDbEntity
  8
MODEL
100
AcDbVertex
100
AcDb2dVertex
 10
374.135544234477
 20
2226.010719590206
 30
0.0
  0
VERTEX
  5
41E4
330
41DF
100
AcDbEntity
  8
MODEL
100
AcDbVertex
100
AcDb2dVertex
 10
374.1352670852002
 20
2226.021159822748
 30
0.0
  0
VERTEX
  5
41E5
330
41DF
100
AcDbEntity
  8
MODEL
100
AcDbVertex
100
AcDb2dVertex
 10
374.1349812557614
 20
2226.031940224425
 30
0.0
  0
VERTEX
  5
41E6
330
41DF
100
AcDbEntity
  8
MODEL
100
AcDbVertex
100
AcDb2dVertex
 10
374.1346867661364
 20
2226.043060037318
 30
0.0
  0
VERTEX
  5
41E7
330
41DF
100
AcDbEntity
  8
MODEL
100
AcDbVertex
100
AcDb2dVertex
 10
374.1343836369183
 20
2226.054518479464
 30
0.0
  0
VERTEX
  5
41E8
330
41DF
100
AcDbEntity
  8
MODEL
100
AcDbVertex
100
AcDb2dVertex
 10
374.1340718892498
 20
2226.066314744964
 30
0.0
  0
SEQEND
  5
41E9
330
41DF
100
AcDbEntity
  8
MODEL
  0
SPLINE
  5
41EA
330
A
100
AcDbEntity
  8
MODEL
100
AcDbSpline
210
0.0
220
0.0
230
1.0
 70
     8
 71
     3
 72
     8
 73
     4
 74
     0
 42
0.000000001
 43
0.0000000001
 40
0.0
 40
0.0
 40
0.0
 40
0.0
 40
1.0
 40
1.0
 40
1.0
 40
1.0
 10
452.0728554387611
 20
2132.006740726864
 30
0.0
 10
452.0728398830474
 20
2183.385332649425
 30
0.0
 10
451.4632942309618
 20
2234.756692207036
 30
0.0
 10
450.2442184825136
 20
2286.120819399702
 30
0.0
  0
SPLINE
  5
41EB
330
A
100
AcDbEntity
  8
MODEL
100
AcDbSpline
210
0.0
220
0.0
230
1.0
 70
     8
 71
     3
 72
    23
 73
    19
 74
     0
 42
0.000000001
 43
0.0000000001
 40
0.0
 40
0.0
 40
0.0
 40
0.0
 40
1.0
 40
1.0
 40
1.0
 40
2.0
 40
2.0
 40
2.0
 40
3.0
 40
3.0
 40
3.0
 40
4.0
 40
4.0
 40
4.0
 40
5.0
 40
5.0
 40
5.0
 40
6.0
 40
6.0
 40
6.0
 40
6.0
 10
577.5987083017808
 20
2132.006635760948
 30
0.0
 10
577.5956136889577
 20
2134.103296257215
 30
0.0
 10
577.5917149728016
 20
2136.199955711081
 30
0.0
 10
577.5839157541618
 20
2138.296603128666
 30
0.0
 10
577.5772391655692
 20
2140.091456291088
 30
0.0
 10
577.5677041467143
 20
2141.886300632885
 30
0.0
 10
577.5555265222001
 20
2143.681125253233
 30
0.0
 10
577.5302578389314
 20
2147.405402906417
 30
0.0
 10
577.4936109854202
 20
2151.129595645683
 30
0.0
 10
577.4434173276136
 20
2154.853629989017
 30
0.0
 10
577.4043321131971
 20
2157.753491986693
 30
0.0
 10
577.3570327197726
 20
2160.653257940133
 30
0.0
 10
577.2845225099991
 20
2163.552478419753
 30
0.0
 10
577.2613931441979
 20
2164.477274130942
 30
0.0
 10
577.2356986090895
 20
2165.402014340842
 30
0.0
 10
577.2000249763751
 20
2166.326422357643
 30
0.0
 10
577.1757032132118
 20
2166.956670278587
 30
0.0
 10
577.1467428523479
 20
2167.586763785755
 30
0.0
 10
577.1039941111862
 20
2168.216036065437
 30
0.0
  0
SPLINE
  5
41EC
330
A
100
AcDbEntity
  8
MODEL
100
AcDbSpline
210
0.0
220
0.0
230
1.0
 70
     8
 71
     3
 72
     8
 73
     4
 74
     0
 42
0.000000001
 43
0.0000000001
 40
0.0
 40
0.0
 40
0.0
 40
0.0
 40
1.0
 40
1.0
 40
1.0
 40
1.0
 10
570.6074071261332
 20
2173.985081013165
 30
0.0
 10
569.9498444747651
 20
2160.00001525204
 30
0.0
 10
569.6211212739013
 20
2146.007224287485
 30
0.0
 10
569.6212375235423
 20
2132.006708119504
 30
0.0
  0
SPLINE
  5
41ED
330
A
100
AcDbEntity
  8
MODEL
100
AcDbSpline
210
0.0
220
0.0
230
1.0
 70
     8
 71
     3
 72
     8
 73
     4
 74
     0
 42
0.000000001
 43
0.0000000001
 40
0.0
 40
0.0
 40
0.0
 40
0.0
 40
1.0
 40
1.0
 40
1.0
 40
1.0
 10
635.3021951205815
 20
2132.006528156281
 30
0.0
 10
635.3015255799478
 20
2135.393452377579
 30
0.0
 10
634.8789743707698
 20
2138.726898424435
 30
0.0
 10
634.0345414930325
 20
2142.006866296849
 30
0.0
  0
SPLINE
  5
41EE
330
A
100
AcDbEntity
  8
MODEL
100
AcDbSpline
210
0.0
220
0.0
230
1.0
 70
     8
 71
     3
 72
     8
 73
     4
 74
     0
 42
0.000000001
 43
0.0000000001
 40
0.0
 40
0.0
 40
0.0
 40
0.0
 40
1.0
 40
1.0
 40
1.0
 40
1.0
 10
588.4167474160586
 20
2184.233900738196
 30
0.0
 10
587.3279616008203
 20
2184.226899956071
 30
0.0
 10
582.3703765922864
 20
2184.190826161627
 30
0.0
 10
581.2801327741463
 20
2184.183827906762
 30
0.0
  0
SPLINE
  5
41EF
330
A
100
AcDbEntity
  8
MODEL
100
AcDbSpline
210
0.0
220
0.0
230
1.0
 70
     8
 71
     3
 72
    32
 73
    28
 74
     0
 42
0.000000001
 43
0.0000000001
 40
0.0
 40
0.0
 40
0.0
 40
0.0
 40
1.0
 40
1.0
 40
1.0
 40
2.0
 40
2.0
 40
2.0
 40
3.0
 40
3.0
 40
3.0
 40
4.0
 40
4.0
 40
4.0
 40
5.0
 40
5.0
 40
5.0
 40
6.0
 40
6.0
 40
6.0
 40
7.0
 40
7.0
 40
7.0
 40
8.0
 40
8.0
 40
8.0
 40
9.0
 40
9.0
 40
9.0
 40
9.0
 10
634.0345414930325
 20
2142.006866296849
 30
0.0
 10
633.3653557851708
 20
2144.6077354379
 30
0.0
 10
632.4357062484742
 20
2147.140749201707
 30
0.0
 10
631.2631112213649
 20
2149.556361007209
 30
0.0
 10
630.1816446332591
 20
2151.784243095307
 30
0.0
 10
628.8935263562989
 20
2153.912261988093
 30
0.0
 10
627.4239240731545
 20
2155.905564182855
 30
0.0
 10
625.8786873436061
 20
2158.001453526359
 30
0.0
 10
624.1328054177361
 20
2159.948402702121
 30
0.0
 10
622.2193327905397
 20
2161.714638521125
 30
0.0
 10
620.1451394871583
 20
2163.629227972738
 30
0.0
 10
617.8740198180003
 20
2165.331471367488
 30
0.0
 10
615.4552806084339
 20
2166.786449856763
 30
0.0
 10
611.1521598677277
 20
2169.374967084968
 30
0.0
 10
606.3818068645801
 20
2171.180863388567
 30
0.0
 10
601.4461918884504
 20
2172.108402985959
 30
0.0
 10
600.194995978462
 20
2172.343537565175
 30
0.0
 10
598.9331796649362
 20
2172.522225385947
 30
0.0
 10
597.6660437006703
 20
2172.643503085711
 30
0.0
 10
596.9776422192467
 20
2172.709390054855
 30
0.0
 10
596.287670663261
 20
2172.758332646441
 30
0.0
 10
595.5974875593452
 20
2172.803119062819
 30
0.0
 10
594.532538380794
 20
2172.872224285859
 30
0.0
 10
593.4670855417421
 20
2172.931434345583
 30
0.0
 10
592.4010155791889
 20
2172.979240495167
 30
0.0
 10
588.9217232802134
 20
2173.135263621165
 30
0.0
 10
585.4358576956911
 20
2173.169818097274
 30
0.0
 10
581.9564336916269
 20
2173.000425752726
 30
0.0
  0
SPLINE
  5
41F0
330
A
100
AcDbEntity
  8
MODEL
100
AcDbSpline
210
0.0
220
0.0
230
1.0
 70
     8
 71
     3
 72
    26
 73
    22
 74
     0
 42
0.000000001
 43
0.0000000001
 40
0.0
 40
0.0
 40
0.0
 40
0.0
 40
1.0
 40
1.0
 40
1.0
 40
2.0
 40
2.0
 40
2.0
 40
3.0
 40
3.0
 40
3.0
 40
4.0
 40
4.0
 40
4.0
 40
5.0
 40
5.0
 40
5.0
 40
6.0
 40
6.0
 40
6.0
 40
7.0
 40
7.0
 40
7.0
 40
7.0
 10
581.2801327741463
 20
2184.183827906762
 30
0.0
 10
580.9368385330549
 20
2184.179798659446
 30
0.0
 10
580.5934800497816
 20
2184.16244976546
 30
0.0
 10
580.2518776188572
 20
2184.127906333881
 30
0.0
 10
579.926605422063
 20
2184.095014243961
 30
0.0
 10
579.6029253952756
 20
2184.046532284478
 30
0.0
 10
579.2820506562216
 20
2183.983685746231
 30
0.0
 10
578.6146943801532
 20
2183.852977321348
 30
0.0
 10
577.9594726031878
 20
2183.660133748599
 30
0.0
 10
577.3284283968142
 20
2183.406918374674
 30
0.0
 10
576.0647624593066
 20
2182.899854622799
 30
0.0
 10
574.8980487178646
 20
2182.150699603746
 30
0.0
 10
573.9123710992444
 20
2181.211442992981
 30
0.0
 10
572.9264673279777
 20
2180.271970880343
 30
0.0
 10
572.1216827624717
 20
2179.142309932642
 30
0.0
 10
571.5559138859658
 20
2177.903366484985
 30
0.0
 10
571.2783571984087
 20
2177.295561683966
 30
0.0
 10
571.0583248575394
 20
2176.661455662128
 30
0.0
 10
570.9003235604864
 20
2176.012271480968
 30
0.0
 10
570.7386410224562
 20
2175.34796208593
 30
0.0
 10
570.6419136988525
 20
2174.667863740528
 30
0.0
 10
570.6074071261332
 20
2173.985081013165
 30
0.0
  0
SPLINE
  5
41F1
330
A
100
AcDbEntity
  8
MODEL
100
AcDbSpline
210
0.0
220
0.0
230
1.0
 70
     8
 71
     3
 72
     8
 73
     4
 74
     0
 42
0.000000001
 43
0.0000000001
 40
0.0
 40
0.0
 40
0.0
 40
0.0
 40
1.0
 40
1.0
 40
1.0
 40
1.0
 10
530.5113963682679
 20
2152.006840535695
 30
0.0
 10
529.9470545145732
 20
2145.35209745351
 30
0.0
 10
529.6650814928767
 20
2138.685411347231
 30
0.0
 10
529.6654773031664
 20
2132.006782216864
 30
0.0
  0
SPLINE
  5
41F2
330
A
100
AcDbEntity
  8
MODEL
100
AcDbSpline
210
0.0
220
0.0
230
1.0
 70
     8
 71
     3
 72
    38
 73
    34
 74
     0
 42
0.000000001
 43
0.0000000001
 40
0.0
 40
0.0
 40
0.0
 40
0.0
 40
1.0
 40
1.0
 40
1.0
 40
2.0
 40
2.0
 40
2.0
 40
3.0
 40
3.0
 40
3.0
 40
4.0
 40
4.0
 40
4.0
 40
5.0
 40
5.0
 40
5.0
 40
6.0
 40
6.0
 40
6.0
 40
7.0
 40
7.0
 40
7.0
 40
8.0
 40
8.0
 40
8.0
 40
9.0
 40
9.0
 40
9.0
 40
10.0
 40
10.0
 40
10.0
 40
11.0
 40
11.0
 40
11.0
 40
11.0
 10
599.6800715965419
 20
2184.259912666749
 30
0.0
 10
603.3047557151071
 20
2184.246076103916
 30
0.0
 10
606.9300611713152
 20
2184.203821048767
 30
0.0
 10
610.5537296766001
 20
2184.108108611635
 30
0.0
 10
613.768085215564
 20
2184.023207412204
 30
0.0
 10
616.9811527228167
 20
2183.896243373201
 30
0.0
 10
620.1911719035324
 20
2183.706110538478
 30
0.0
 10
622.9989022345949
 20
2183.53980569825
 30
0.0
 10
625.8043004127749
 20
2183.325172935146
 30
0.0
 10
628.6025510446843
 20
2183.044187897306
 30
0.0
 10
631.1981622950484
 20
2182.783550798866
 30
0.0
 10
633.7876237162727
 20
2182.465823457485
 30
0.0
 10
636.367192448844
 20
2182.074569004638
 30
0.0
 10
641.1079838158776
 20
2181.355512478269
 30
0.0
 10
645.8153616944815
 20
2180.388111202006
 30
0.0
 10
650.4123817670898
 20
2179.024867068866
 30
0.0
 10
654.1951867547214
 20
2177.903078034937
 30
0.0
 10
657.9032646363225
 20
2176.513250044725
 30
0.0
 10
661.4296403693988
 20
2174.742723442906
 30
0.0
 10
664.6949408706678
 20
2173.103277780267
 30
0.0
 10
667.804447918561
 20
2171.13741687224
 30
0.0
 10
670.6046772039444
 20
2168.792397288747
 30
0.0
 10
671.8808888403937
 20
2167.723648634567
 30
0.0
 10
673.0928602732456
 20
2166.576144785348
 30
0.0
 10
674.2260637007444
 20
2165.355551821413
 30
0.0
 10
675.3596172491566
 20
2164.134581736194
 30
0.0
 10
676.4143541114695
 20
2162.840477365229
 30
0.0
 10
677.3764372074452
 20
2161.481444863177
 30
0.0
 10
679.3685664089303
 20
2158.667375741247
 30
0.0
 10
680.9634373715103
 20
2155.574923602306
 30
0.0
 10
682.158627749171
 20
2152.340155494809
 30
0.0
 10
683.3903017189873
 20
2149.006644992366
 30
0.0
 10
684.1975219118012
 20
2145.521997425335
 30
0.0
 10
684.7010640643675
 20
2142.006805662668
 30
0.0
  0
SPLINE
  5
41F3
330
A
100
AcDbEntity
  8
MODEL
100
AcDbSpline
210
0.0
220
0.0
230
1.0
 70
     8
 71
     3
 72
     8
 73
     4
 74
     0
 42
0.000000001
 43
0.0000000001
 40
0.0
 40
0.0
 40
0.0
 40
0.0
 40
1.0
 40
1.0
 40
1.0
 40
1.0
 10
684.7010640643675
 20
2142.006805662671
 30
0.0
 10
685.1709676745882
 20
2138.689937929509
 30
0.0
 10
685.4063006505871
 20
2135.356510004654
 30
0.0
 10
685.4070629923676
 20
2132.00652188811
 30
0.0
  0
SPLINE
  5
41F4
330
A
100
AcDbEntity
  8
MODEL
100
AcDbSpline
210
0.0
220
0.0
230
1.0
 70
     8
 71
     3
 72
     8
 73
     4
 74
     0
 42
0.000000001
 43
0.0000000001
 40
0.0
 40
0.0
 40
0.0
 40
0.0
 40
1.0
 40
1.0
 40
1.0
 40
1.0
 10
588.4167474160586
 20
2184.233900738196
 30
0.0
 10
592.1711445806945
 20
2184.261722746513
 30
0.0
 10
595.9255859741888
 20
2184.270393389365
 30
0.0
 10
599.6800715965419
 20
2184.259912666749
 30
0.0
  0
SPLINE
  5
41F5
330
A
100
AcDbEntity
  8
MODEL
100
AcDbSpline
210
0.0
220
0.0
230
1.0
 70
     8
 71
     3
 72
    32
 73
    28
 74
     0
 42
0.000000001
 43
0.0000000001
 40
0.0
 40
0.0
 40
0.0
 40
0.0
 40
1.0
 40
1.0
 40
1.0
 40
2.0
 40
2.0
 40
2.0
 40
3.0
 40
3.0
 40
3.0
 40
4.0
 40
4.0
 40
4.0
 40
5.0
 40
5.0
 40
5.0
 40
6.0
 40
6.0
 40
6.0
 40
7.0
 40
7.0
 40
7.0
 40
8.0
 40
8.0
 40
8.0
 40
9.0
 40
9.0
 40
9.0
 40
9.0
 10
579.1686478795023
 20
2250.483272348409
 30
0.0
 10
575.6908005653295
 20
2249.086962962679
 30
0.0
 10
572.3435687108613
 20
2247.363093688808
 30
0.0
 10
569.1872015577642
 20
2245.341981363901
 30
0.0
 10
566.1174610534131
 20
2243.37633856422
 30
0.0
 10
563.2282524337015
 20
2241.129544520653
 30
0.0
 10
560.5665241117263
 20
2238.638988246808
 30
0.0
 10
557.8686506592467
 20
2236.11461128556
 30
0.0
 10
555.4044776229498
 20
2233.339806769765
 30
0.0
 10
553.2185188892331
 20
2230.361409730208
 30
0.0
 10
551.1740877872244
 20
2227.575845918839
 30
0.0
 10
549.3730118080357
 20
2224.612198942187
 30
0.0
 10
547.8376735906036
 20
2221.516243240111
 30
0.0
 10
547.4020848400069
 20
2220.637893791855
 30
0.0
 10
546.9878854825201
 20
2219.748894734295
 30
0.0
 10
546.5980701103808
 20
2218.849530534608
 30
0.0
 10
546.1767080145664
 20
2217.877383176734
 30
0.0
 10
545.7838362630177
 20
2216.89312514608
 30
0.0
 10
545.397783150519
 20
2215.906225143084
 30
0.0
 10
544.1194726921453
 20
2212.638372730104
 30
0.0
 10
542.9159234347139
 20
2209.341553096015
 30
0.0
 10
541.7889642206051
 20
2206.018701813926
 30
0.0
 10
539.7584925307638
 20
2200.031834344927
 30
0.0
 10
537.9766487026905
 20
2193.960462510872
 30
0.0
 10
536.4499278640556
 20
2187.82565735658
 30
0.0
 10
533.5240984548259
 20
2176.068829987681
 30
0.0
 10
531.5352447507212
 20
2164.079034668357
 30
0.0
 10
530.5113963682679
 20
2152.006840535695
 30
0.0
  0
SPLINE
  5
41F6
330
A
100
AcDbEntity
  8
MODEL
100
AcDbSpline
210
0.0
220
0.0
230
1.0
 70
     8
 71
     3
 72
     8
 73
     4
 74
     0
 42
0.000000001
 43
0.0000000001
 40
0.0
 40
0.0
 40
0.0
 40
0.0
 40
1.0
 40
1.0
 40
1.0
 40
1.0
 10
584.9495463887692
 20
2251.65130266814
 30
0.0
 10
583.7494711316804
 20
2251.28315513658
 30
0.0
 10
580.6765096495146
 20
2250.087321246813
 30
0.0
 10
579.5044187932235
 20
2249.637970323516
 30
0.0
  0
SPLINE
  5
41F7
330
A
100
AcDbEntity
  8
MODEL
100
AcDbSpline
210
0.0
220
0.0
230
1.0
 70
     8
 71
     3
 72
    20
 73
    16
 74
     0
 42
0.000000001
 43
0.0000000001
 40
0.0
 40
0.0
 40
0.0
 40
0.0
 40
1.0
 40
1.0
 40
1.0
 40
2.0
 40
2.0
 40
2.0
 40
3.0
 40
3.0
 40
3.0
 40
4.0
 40
4.0
 40
4.0
 40
5.0
 40
5.0
 40
5.0
 40
5.0
 10
623.225138827434
 20
2254.358046013649
 30
0.0
 10
620.8672762442761
 20
2254.410842608625
 30
0.0
 10
618.5091769318788
 20
2254.45971573843
 30
0.0
 10
616.1509701837776
 20
2254.496590917621
 30
0.0
 10
614.3833468228213
 20
2254.524231169361
 30
0.0
 10
612.6156630997539
 20
2254.545130445125
 30
0.0
 10
610.847786625648
 20
2254.549572773224
 30
0.0
 10
608.0921279771396
 20
2254.556497204907
 30
0.0
 10
605.3360010075035
 20
2254.523436710894
 30
0.0
 10
602.5831856905711
 20
2254.39791320855
 30
0.0
 10
600.1982582717446
 20
2254.289164742713
 30
0.0
 10
597.8158165085852
 20
2254.111015521046
 30
0.0
 10
595.446092221262
 20
2253.821567435442
 30
0.0
 10
593.3260509618062
 20
2253.562616684406
 30
0.0
 10
591.2161884397096
 20
2253.214585213444
 30
0.0
 10
589.1309827603209
 20
2252.752069461811
 30
0.0
  0
SPLINE
  5
41F8
330
A
100
AcDbEntity
  8
MODEL
100
AcDbSpline
210
0.0
220
0.0
230
1.0
 70
     8
 71
     3
 72
     8
 73
     4
 74
     0
 42
0.000000001
 43
0.0000000001
 40
0.0
 40
0.0
 40
0.0
 40
0.0
 40
1.0
 40
1.0
 40
1.0
 40
1.0
 10
589.1309827603209
 20
2252.752069461811
 30
0.0
 10
587.7225320098728
 20
2252.440754330419
 30
0.0
 10
586.3287198860244
 20
2252.07383206586
 30
0.0
 10
584.9495463887692
 20
2251.65130266814
 30
0.0
  0
SPLINE
  5
41F9
330
A
100
AcDbEntity
  8
MODEL
100
AcDbSpline
210
0.0
220
0.0
230
1.0
 70
     8
 71
     3
 72
     8
 73
     4
 74
     0
 42
0.000000001
 43
0.0000000001
 40
0.0
 40
0.0
 40
0.0
 40
0.0
 40
1.0
 40
1.0
 40
1.0
 40
1.0
 10
450.2442184825131
 20
1977.892662054551
 30
0.0
 10
451.4632942309618
 20
2029.256789247046
 30
0.0
 10
452.0728398830474
 20
2080.628148804481
 30
0.0
 10
452.0728554387611
 20
2132.006740726864
 30
0.0
  0
SPLINE
  5
41FA
330
A
100
AcDbEntity
  8
MODEL
100
AcDbSpline
210
0.0
220
0.0
230
1.0
 70
     8
 71
     3
 72
    23
 73
    19
 74
     0
 42
0.000000001
 43
0.0000000001
 40
0.0
 40
0.0
 40
0.0
 40
0.0
 40
1.0
 40
1.0
 40
1.0
 40
2.0
 40
2.0
 40
2.0
 40
3.0
 40
3.0
 40
3.0
 40
4.0
 40
4.0
 40
4.0
 40
5.0
 40
5.0
 40
5.0
 40
6.0
 40
6.0
 40
6.0
 40
6.0
 10
577.5987083017808
 20
2132.006635760948
 30
0.0
 10
577.5956930770103
 20
2129.917999768326
 30
0.0
 10
577.5917235555917
 20
2127.8293680714
 30
0.0
 10
577.58397619895
 20
2125.740745764064
 30
0.0
 10
577.5773723182951
 20
2123.960394981003
 30
0.0
 10
577.5680234882116
 20
2122.180051020355
 30
0.0
 10
577.5560329091236
 20
2120.39972784925
 30
0.0
 10
577.5309734935122
 20
2116.678985260848
 30
0.0
 10
577.4943754780124
 20
2112.958333476751
 30
0.0
 10
577.4444906170097
 20
2109.237832253537
 30
0.0
 10
577.4055651521558
 20
2106.334702192093
 30
0.0
 10
577.3585496231153
 20
2103.431663803814
 30
0.0
 10
577.2863191601359
 20
2100.529170841494
 30
0.0
 10
577.2622237313567
 20
2099.560925456056
 30
0.0
 10
577.2353223110431
 20
2098.592740767211
 30
0.0
 10
577.197509367888
 20
2097.624922290077
 30
0.0
 10
577.1736951483626
 20
2097.015399736514
 30
0.0
 10
577.145553029929
 20
2096.406022435568
 30
0.0
 10
577.1039941112631
 20
2095.797445385404
 30
0.0
  0
SPLINE
  5
41FB
330
A
100
AcDbEntity
  8
MODEL
100
AcDbSpline
210
0.0
220
0.0
230
1.0
 70
     8
 71
     3
 72
     8
 73
     4
 74
     0
 42
0.000000001
 43
0.0000000001
 40
0.0
 40
0.0
 40
0.0
 40
0.0
 40
1.0
 40
1.0
 40
1.0
 40
1.0
 10
455.6864123456389
 20
2286.273543864381
 30
0.0
 10
458.3498327398474
 20
2183.429008439549
 30
0.0
 10
458.3498327398474
 20
2080.584473014716
 30
0.0
 10
455.6864123456385
 20
1977.739937589887
 30
0.0
  0
SPLINE
  5
41FC
330
A
100
AcDbEntity
  8
MODEL
100
AcDbSpline
210
0.0
220
0.0
230
1.0
 70
     8
 71
     3
 72
     8
 73
     4
 74
     0
 42
0.000000001
 43
0.0000000001
 40
0.0
 40
0.0
 40
0.0
 40
0.0
 40
1.0
 40
1.0
 40
1.0
 40
1.0
 10
635.3021951205815
 20
2132.006528156281
 30
0.0
 10
635.3014890774248
 20
2128.61974800258
 30
0.0
 10
634.8789378682436
 20
2125.286443669623
 30
0.0
 10
634.0345414930325
 20
2122.006615157406
 30
0.0
  0
SPLINE
  5
41FD
330
A
100
AcDbEntity
  8
MODEL
100
AcDbSpline
210
0.0
220
0.0
230
1.0
 70
     8
 71
     3
 72
     8
 73
     4
 74
     0
 42
0.000000001
 43
0.0000000001
 40
0.0
 40
0.0
 40
0.0
 40
0.0
 40
1.0
 40
1.0
 40
1.0
 40
1.0
 10
588.4167474160586
 20
2079.779580716062
 30
0.0
 10
587.3279616008203
 20
2079.786581498188
 30
0.0
 10
582.3703765922864
 20
2079.822655292631
 30
0.0
 10
581.2801327741463
 20
2079.829653547494
 30
0.0
  0
SPLINE
  5
41FE
330
A
100
AcDbEntity
  8
MODEL
100
AcDbSpline
210
0.0
220
0.0
230
1.0
 70
     8
 71
     3
 72
    32
 73
    28
 74
     0
 42
0.000000001
 43
0.0000000001
 40
0.0
 40
0.0
 40
0.0
 40
0.0
 40
1.0
 40
1.0
 40
1.0
 40
2.0
 40
2.0
 40
2.0
 40
3.0
 40
3.0
 40
3.0
 40
4.0
 40
4.0
 40
4.0
 40
5.0
 40
5.0
 40
5.0
 40
6.0
 40
6.0
 40
6.0
 40
7.0
 40
7.0
 40
7.0
 40
8.0
 40
8.0
 40
8.0
 40
9.0
 40
9.0
 40
9.0
 40
9.0
 10
634.0345414930325
 20
2122.006615157406
 30
0.0
 10
633.3653557851708
 20
2119.405746016355
 30
0.0
 10
632.4357062484778
 20
2116.872732252551
 30
0.0
 10
631.2631112213649
 20
2114.457120447049
 30
0.0
 10
630.1816446332591
 20
2112.229238358951
 30
0.0
 10
628.8935263562989
 20
2110.10121946616
 30
0.0
 10
627.4239240731545
 20
2108.1079172714
 30
0.0
 10
625.8786873436061
 20
2106.012027927894
 30
0.0
 10
624.1328054177361
 20
2104.065078752134
 30
0.0
 10
622.2193327905397
 20
2102.29884293313
 30
0.0
 10
620.1451394871583
 20
2100.384253481524
 30
0.0
 10
617.8740198180003
 20
2098.68201008677
 30
0.0
 10
615.4552806084339
 20
2097.227031597492
 30
0.0
 10
611.1521598677277
 20
2094.63851436929
 30
0.0
 10
606.3818068645801
 20
2092.832618065692
 30
0.0
 10
601.4461918884504
 20
2091.905078468302
 30
0.0
 10
600.194995978462
 20
2091.669943889086
 30
0.0
 10
598.9331796649362
 20
2091.491256068315
 30
0.0
 10
597.6660437006703
 20
2091.369978368552
 30
0.0
 10
596.9776422192467
 20
2091.304091399404
 30
0.0
 10
596.287670663261
 20
2091.255148807818
 30
0.0
 10
595.5974875593452
 20
2091.210362391439
 30
0.0
 10
594.532538380794
 20
2091.141257168403
 30
0.0
 10
593.4670855417421
 20
2091.082047108676
 30
0.0
 10
592.4010155791889
 20
2091.034240959092
 30
0.0
 10
588.9217232802134
 20
2090.878217833093
 30
0.0
 10
585.4358576956911
 20
2090.843663356984
 30
0.0
 10
581.9564336916269
 20
2091.013055701533
 30
0.0
  0
SPLINE
  5
41FF
330
A
100
AcDbEntity
  8
MODEL
100
AcDbSpline
210
0.0
220
0.0
230
1.0
 70
     8
 71
     3
 72
     8
 73
     4
 74
     0
 42
0.000000001
 43
0.0000000001
 40
0.0
 40
0.0
 40
0.0
 40
0.0
 40
1.0
 40
1.0
 40
1.0
 40
1.0
 10
570.6074071261332
 20
2090.028400441093
 30
0.0
 10
569.9499309747989
 20
2104.013446483888
 30
0.0
 10
569.6212077739356
 20
2118.006215710025
 30
0.0
 10
569.6212375235423
 20
2132.006708119504
 30
0.0
  0
SPLINE
  5
4200
330
A
100
AcDbEntity
  8
MODEL
100
AcDbSpline
210
0.0
220
0.0
230
1.0
 70
     8
 71
     3
 72
    26
 73
    22
 74
     0
 42
0.000000001
 43
0.0000000001
 40
0.0
 40
0.0
 40
0.0
 40
0.0
 40
1.0
 40
1.0
 40
1.0
 40
2.0
 40
2.0
 40
2.0
 40
3.0
 40
3.0
 40
3.0
 40
4.0
 40
4.0
 40
4.0
 40
5.0
 40
5.0
 40
5.0
 40
6.0
 40
6.0
 40
6.0
 40
7.0
 40
7.0
 40
7.0
 40
7.0
 10
581.2801327741463
 20
2079.829653547494
 30
0.0
 10
580.9368385330549
 20
2079.833682794811
 30
0.0
 10
580.5934800497816
 20
2079.851031688799
 30
0.0
 10
580.2518776188572
 20
2079.88557512038
 30
0.0
 10
579.926605422063
 20
2079.918467210301
 30
0.0
 10
579.6029253952756
 20
2079.966949169784
 30
0.0
 10
579.2820506562216
 20
2080.029795708027
 30
0.0
 10
578.6146943801532
 20
2080.160504132911
 30
0.0
 10
577.9594726031878
 20
2080.353347705659
 30
0.0
 10
577.3284283968142
 20
2080.606563079584
 30
0.0
 10
576.0647624593066
 20
2081.113626831456
 30
0.0
 10
574.8980487178646
 20
2081.862781850509
 30
0.0
 10
573.9123710992444
 20
2082.802038461275
 30
0.0
 10
572.9264673279777
 20
2083.741510573912
 30
0.0
 10
572.1216827624717
 20
2084.87117152162
 30
0.0
 10
571.5559138859658
 20
2086.110114969274
 30
0.0
 10
571.2783571984087
 20
2086.717919770293
 30
0.0
 10
571.0583248575458
 20
2087.352025792131
 30
0.0
 10
570.9003235604864
 20
2088.00120997329
 30
0.0
 10
570.7386410224562
 20
2088.665519368325
 30
0.0
 10
570.6419136988525
 20
2089.345617713728
 30
0.0
 10
570.6074071261332
 20
2090.028400441093
 30
0.0
  0
SPLINE
  5
4201
330
A
100
AcDbEntity
  8
MODEL
100
AcDbSpline
210
0.0
220
0.0
230
1.0
 70
     8
 71
     3
 72
     8
 73
     4
 74
     0
 42
0.000000001
 43
0.0000000001
 40
0.0
 40
0.0
 40
0.0
 40
0.0
 40
1.0
 40
1.0
 40
1.0
 40
1.0
 10
530.5113963682679
 20
2112.006640918565
 30
0.0
 10
529.9470533456151
 20
2118.661397805215
 30
0.0
 10
529.6650803239058
 20
2125.328097740626
 30
0.0
 10
529.6654773031473
 20
2132.006740724802
 30
0.0
  0
SPLINE
  5
4202
330
A
100
AcDbEntity
  8
MODEL
100
AcDbSpline
210
0.0
220
0.0
230
1.0
 70
     8
 71
     3
 72
    38
 73
    34
 74
     0
 42
0.000000001
 43
0.0000000001
 40
0.0
 40
0.0
 40
0.0
 40
0.0
 40
1.0
 40
1.0
 40
1.0
 40
2.0
 40
2.0
 40
2.0
 40
3.0
 40
3.0
 40
3.0
 40
4.0
 40
4.0
 40
4.0
 40
5.0
 40
5.0
 40
5.0
 40
6.0
 40
6.0
 40
6.0
 40
7.0
 40
7.0
 40
7.0
 40
8.0
 40
8.0
 40
8.0
 40
9.0
 40
9.0
 40
9.0
 40
10.0
 40
10.0
 40
10.0
 40
11.0
 40
11.0
 40
11.0
 40
11.0
 10
599.6800715965419
 20
2079.753568787509
 30
0.0
 10
603.3047557151071
 20
2079.767405350343
 30
0.0
 10
606.9300611713152
 20
2079.809660405492
 30
0.0
 10
610.5537296766001
 20
2079.905372842627
 30
0.0
 10
613.768085215564
 20
2079.990274042058
 30
0.0
 10
616.9811527228167
 20
2080.117238081061
 30
0.0
 10
620.1911719035324
 20
2080.307370915783
 30
0.0
 10
622.9989022345949
 20
2080.473675756014
 30
0.0
 10
625.8043004127749
 20
2080.688308519113
 30
0.0
 10
628.6025510446843
 20
2080.969293556956
 30
0.0
 10
631.1981622950484
 20
2081.229930655396
 30
0.0
 10
633.7876237162727
 20
2081.547657996773
 30
0.0
 10
636.367192448844
 20
2081.938912449621
 30
0.0
 10
641.1079838158776
 20
2082.65796897599
 30
0.0
 10
645.8153616944815
 20
2083.625370252255
 30
0.0
 10
650.4123817670898
 20
2084.988614385396
 30
0.0
 10
654.1951867547214
 20
2086.110403419325
 30
0.0
 10
657.9032646363225
 20
2087.500231409536
 30
0.0
 10
661.4296403693988
 20
2089.270758011353
 30
0.0
 10
664.6949408706678
 20
2090.910203673991
 30
0.0
 10
667.804447918561
 20
2092.876064582018
 30
0.0
 10
670.6046772039444
 20
2095.221084165508
 30
0.0
 10
671.8808888403937
 20
2096.289832819692
 30
0.0
 10
673.0928602732456
 20
2097.437336668907
 30
0.0
 10
674.2260637007444
 20
2098.657929632842
 30
0.0
 10
675.3596172491566
 20
2099.878899718061
 30
0.0
 10
676.4143541114695
 20
2101.173004089025
 30
0.0
 10
677.3764372074452
 20
2102.532036591074
 30
0.0
 10
679.3685664089303
 20
2105.346105713007
 30
0.0
 10
680.9634373715103
 20
2108.438557851952
 30
0.0
 10
682.158627749171
 20
2111.673325959449
 30
0.0
 10
683.3903017189873
 20
2115.006836461891
 30
0.0
 10
684.1975219118012
 20
2118.491484028926
 30
0.0
 10
684.7010640643675
 20
2122.006675791587
 30
0.0
  0
SPLINE
  5
4203
330
A
100
AcDbEntity
  8
MODEL
100
AcDbSpline
210
0.0
220
0.0
230
1.0
 70
     8
 71
     3
 72
     8
 73
     4
 74
     0
 42
0.000000001
 43
0.0000000001
 40
0.0
 40
0.0
 40
0.0
 40
0.0
 40
1.0
 40
1.0
 40
1.0
 40
1.0
 10
684.7010640643675
 20
2122.006675791587
 30
0.0
 10
685.1709470298933
 20
2125.323398364791
 30
0.0
 10
685.406280005895
 20
2128.656680396964
 30
0.0
 10
685.4070629923676
 20
2132.00652188811
 30
0.0
  0
SPLINE
  5
4204
330
A
100
AcDbEntity
  8
MODEL
100
AcDbSpline
210
0.0
220
0.0
230
1.0
 70
     8
 71
     3
 72
     8
 73
     4
 74
     0
 42
0.000000001
 43
0.0000000001
 40
0.0
 40
0.0
 40
0.0
 40
0.0
 40
1.0
 40
1.0
 40
1.0
 40
1.0
 10
588.4167474160586
 20
2079.779580716062
 30
0.0
 10
592.1711445806945
 20
2079.751758707745
 30
0.0
 10
595.9255859741888
 20
2079.743088064894
 30
0.0
 10
599.6800715965419
 20
2079.753568787509
 30
0.0
  0
SPLINE
  5
4205
330
A
100
AcDbEntity
  8
MODEL
100
AcDbSpline
210
0.0
220
0.0
230
1.0
 70
     8
 71
     3
 72
    32
 73
    28
 74
     0
 42
0.000000001
 43
0.0000000001
 40
0.0
 40
0.0
 40
0.0
 40
0.0
 40
1.0
 40
1.0
 40
1.0
 40
2.0
 40
2.0
 40
2.0
 40
3.0
 40
3.0
 40
3.0
 40
4.0
 40
4.0
 40
4.0
 40
5.0
 40
5.0
 40
5.0
 40
6.0
 40
6.0
 40
6.0
 40
7.0
 40
7.0
 40
7.0
 40
8.0
 40
8.0
 40
8.0
 40
9.0
 40
9.0
 40
9.0
 40
9.0
 10
579.1686478795018
 20
2013.530209105844
 30
0.0
 10
575.690800565329
 20
2014.926518491584
 30
0.0
 10
572.3435687108608
 20
2016.650387765448
 30
0.0
 10
569.1872015577637
 20
2018.671500090361
 30
0.0
 10
566.1174610534063
 20
2020.637142890039
 30
0.0
 10
563.2282524337011
 20
2022.883936933605
 30
0.0
 10
560.5665241117258
 20
2025.374493207449
 30
0.0
 10
557.8686506592467
 20
2027.898870168701
 30
0.0
 10
555.4044776229498
 20
2030.673674684492
 30
0.0
 10
553.2185188892331
 20
2033.652071724047
 30
0.0
 10
551.1740877872244
 20
2036.437635535423
 30
0.0
 10
549.3730118080421
 20
2039.401282512068
 30
0.0
 10
547.8376735906036
 20
2042.497238214148
 30
0.0
 10
547.4020848400069
 20
2043.375587662397
 30
0.0
 10
546.9878854825201
 20
2044.26458671996
 30
0.0
 10
546.5980701103808
 20
2045.163950919645
 30
0.0
 10
546.1767080145664
 20
2046.136098277521
 30
0.0
 10
545.7838362630177
 20
2047.120356308171
 30
0.0
 10
545.397783150519
 20
2048.107256311171
 30
0.0
 10
544.1194726921453
 20
2051.375108724151
 30
0.0
 10
542.9159234347139
 20
2054.671928358242
 30
0.0
 10
541.7889642206051
 20
2057.994779640329
 30
0.0
 10
539.7584925307638
 20
2063.981647109327
 30
0.0
 10
537.9766487026905
 20
2070.053018943383
 30
0.0
 10
536.4499278640556
 20
2076.187824097674
 30
0.0
 10
533.5240984548259
 20
2087.944651466578
 30
0.0
 10
531.5352447507212
 20
2099.934446785902
 30
0.0
 10
530.5113963682679
 20
2112.006640918565
 30
0.0
  0
SPLINE
  5
4206
330
A
100
AcDbEntity
  8
MODEL
100
AcDbSpline
210
0.0
220
0.0
230
1.0
 70
     8
 71
     3
 72
     8
 73
     4
 74
     0
 42
0.000000001
 43
0.0000000001
 40
0.0
 40
0.0
 40
0.0
 40
0.0
 40
1.0
 40
1.0
 40
1.0
 40
1.0
 10
584.9495463887688
 20
2012.362178786118
 30
0.0
 10
583.7494711316799
 20
2012.730326317679
 30
0.0
 10
580.6764838398299
 20
2013.926172403216
 30
0.0
 10
579.5043929835383
 20
2014.375523326507
 30
0.0
  0
SPLINE
  5
4207
330
A
100
AcDbEntity
  8
MODEL
100
AcDbSpline
210
0.0
220
0.0
230
1.0
 70
     8
 71
     3
 72
    20
 73
    16
 74
     0
 42
0.000000001
 43
0.0000000001
 40
0.0
 40
0.0
 40
0.0
 40
0.0
 40
1.0
 40
1.0
 40
1.0
 40
2.0
 40
2.0
 40
2.0
 40
3.0
 40
3.0
 40
3.0
 40
4.0
 40
4.0
 40
4.0
 40
5.0
 40
5.0
 40
5.0
 40
5.0
 10
623.2251388274335
 20
2009.655435440606
 30
0.0
 10
620.8672762442757
 20
2009.602638845627
 30
0.0
 10
618.5091769318783
 20
2009.553765715826
 30
0.0
 10
616.1509701837772
 20
2009.516890536637
 30
0.0
 10
614.3833468228208
 20
2009.489250284895
 30
0.0
 10
612.6156630997534
 20
2009.468351009137
 30
0.0
 10
610.8477866256476
 20
2009.463908681027
 30
0.0
 10
608.0921279771392
 20
2009.456984249349
 30
0.0
 10
605.336001007503
 20
2009.490044743367
 30
0.0
 10
602.5831856905706
 20
2009.615568245709
 30
0.0
 10
600.1982582717442
 20
2009.724316711545
 30
0.0
 10
597.8158165085847
 20
2009.902465933212
 30
0.0
 10
595.4460922212616
 20
2010.191914018816
 30
0.0
 10
593.3260509618058
 20
2010.450864769849
 30
0.0
 10
591.2161884397092
 20
2010.798896240815
 30
0.0
 10
589.1309827603204
 20
2011.261411992444
 30
0.0
  0
SPLINE
  5
4208
330
A
100
AcDbEntity
  8
MODEL
100
AcDbSpline
210
0.0
220
0.0
230
1.0
 70
     8
 71
     3
 72
     8
 73
     4
 74
     0
 42
0.000000001
 43
0.0000000001
 40
0.0
 40
0.0
 40
0.0
 40
0.0
 40
1.0
 40
1.0
 40
1.0
 40
1.0
 10
589.1309827603204
 20
2011.261411992444
 30
0.0
 10
587.7225320098723
 20
2011.572727123837
 30
0.0
 10
586.3287198860239
 20
2011.939649388398
 30
0.0
 10
584.9495463887688
 20
2012.362178786118
 30
0.0
  0
SPLINE
  5
4209
330
A
100
AcDbEntity
  8
MODEL
100
AcDbSpline
210
0.0
220
0.0
230
1.0
 70
    11
 71
     3
 72
    17
 73
    13
 74
     0
 42
0.000000001
 43
0.0000000001
 40
0.0
 40
0.0
 40
0.0
 40
0.0
 40
1.0
 40
1.0
 40
1.0
 40
2.0
 40
2.0
 40
2.0
 40
3.0
 40
3.0
 40
3.0
 40
4.0
 40
4.0
 40
4.0
 40
4.0
 10
499.3514551647563
 20
2209.221594207822
 30
0.0
 10
499.3514551647563
 20
2214.769954541506
 30
0.0
 10
494.854716682582
 20
2219.267554302838
 30
0.0
 10
489.3063563488977
 20
2219.267554302838
 30
0.0
 10
483.7584266547924
 20
2219.267554302838
 30
0.0
 10
479.2608268934605
 20
2214.769954541506
 30
0.0
 10
479.2608268934605
 20
2209.221594207822
 30
0.0
 10
479.2608268934605
 20
2203.674095153295
 30
0.0
 10
483.7584266547924
 20
2199.176495391963
 30
0.0
 10
489.3063563488977
 20
2199.176495391963
 30
0.0
 10
494.854716682582
 20
2199.176495391963
 30
0.0
 10
499.3514551647563
 20
2203.674095153295
 30
0.0
 10
499.3514551647563
 20
2209.221594207822
 30
0.0
  0
SPLINE
  5
422A
330
A
100
AcDbEntity
  8
MODEL
100
AcDbSpline
210
0.0
220
0.0
230
1.0
 70
    11
 71
     3
 72
    17
 73
    13
 74
     0
 42
0.000000001
 43
0.0000000001
 40
0.0
 40
0.0
 40
0.0
 40
0.0
 40
1.0
 40
1.0
 40
1.0
 40
2.0
 40
2.0
 40
2.0
 40
3.0
 40
3.0
 40
3.0
 40
4.0
 40
4.0
 40
4.0
 40
4.0
 10
499.3514551647563
 20
2054.271433229954
 30
0.0
 10
499.3514551647563
 20
2059.819793563638
 30
0.0
 10
494.854716682582
 20
2064.317393324968
 30
0.0
 10
489.3063563488977
 20
2064.317393324968
 30
0.0
 10
483.7584266547924
 20
2064.317393324968
 30
0.0
 10
479.2608268934605
 20
2059.819793563638
 30
0.0
 10
479.2608268934605
 20
2054.271433229954
 30
0.0
 10
479.2608268934605
 20
2048.723934175428
 30
0.0
 10
483.7584266547924
 20
2044.226334414095
 30
0.0
 10
489.3063563488977
 20
2044.226334414095
 30
0.0
 10
494.854716682582
 20
2044.226334414095
 30
0.0
 10
499.3514551647563
 20
2048.723934175428
 30
0.0
 10
499.3514551647563
 20
2054.271433229954
 30
0.0
  0
DIMENSION
  5
4255
330
A
100
AcDbEntity
  8
DIM
100
AcDbDimension
  2
*D4
 10
854.129646593402
 20
2387.920492029644
 30
0.0
 11
614.1296465934017
 21
2409.920492029644
 31
0.0
 70
    32
 71
     5
 42
480.0000000000005
 73
     0
 74
     0
 75
     0
  3
tfrom線あり
100
AcDbAlignedDimension
 13
374.1296465934015
 23
2307.65907108564
 33
0.0
 14
854.129646593402
 24
2171.979049966104
 34
0.0
100
AcDbRotatedDimension
1001
ACAD
1000
DSTYLE
1002
{
1070
   144
1040
1.0
1002
}
  0
DIMENSION
  5
4271
330
A
100
AcDbEntity
  8
DIM
100
AcDbDimension
  2
*D5
 10
1005.4718458944
 20
1969.661385238021
 30
0.0
 11
983.4718458944
 21
2132.161385238021
 31
0.0
 70
    32
 71
     5
 42
325.0
 73
     0
 74
     0
 75
     0
  3
tfrom線あり
100
AcDbAlignedDimension
 13
741.0704269238477
 23
2294.661385238021
 33
0.0
 14
741.0704269238477
 24
1969.661385238021
 34
0.0
 50
90.0
100
AcDbRotatedDimension
1001
ACAD
1000
DSTYLE
1002
{
1070
   144
1040
1.0
1002
}
  0
DIMENSION
  5
427E
330
A
100
AcDbEntity
  8
DIM
100
AcDbDimension
  2
*D6
 10
272.9717135490896
 20
1972.006740727129
 30
0.0
 11
250.9717135490896
 21
2132.006740727129
 31
0.0
 70
    32
 71
     5
 42
320.0
 73
     0
 74
     0
 75
     0
  3
tfrom線あり
100
AcDbAlignedDimension
 13
374.1296465944542
 23
2292.006740727129
 33
0.0
 14
374.1296465944542
 24
1972.006740727129
 34
0.0
 50
90.0
100
AcDbRotatedDimension
1001
ACAD
1000
DSTYLE
1002
{
1070
   144
1040
1.0
1002
}
  0
DIMENSION
  5
428C
330
A
100
AcDbEntity
  8
DIM
100
AcDbDimension
  2
*D7
 10
936.8703862404051
 20
1002.181280823446
 30
0.0
 11
914.8703862404051
 21
1152.181280823446
 31
0.0
 70
    32
 71
     5
 42
300.0000000000001
 73
     0
 74
     0
 75
     0
  3
tfrom線あり
100
AcDbAlignedDimension
 13
847.1352693038816
 23
1302.181280823446
 33
0.0
 14
636.0317855670964
 24
1002.181280823446
 34
0.0
 50
90.0
100
AcDbRotatedDimension
1001
ACAD
1000
DSTYLE
1002
{
1070
   144
1040
1.0
1002
}
  0
DIMENSION
  5
42C8
330
A
100
AcDbEntity
  8
DIM
100
AcDbDimension
  2
*D8
 10
1246.316003494804
 20
1167.181280823446
 30
0.0
 11
1246.316003494804
 21
1234.681280823446
 31
0.0
 70
   160
 71
     5
 42
135.0000000000009
 73
     0
 74
     0
 75
     0
  3
tfrom線あり
100
AcDbAlignedDimension
 13
1302.363533642645
 23
1302.181280823447
 33
0.0
 14
1394.812505950865
 24
1167.181280823446
 34
0.0
 50
90.0
100
AcDbRotatedDimension
1001
ACAD
1000
DSTYLE
1002
{
1070
   144
1040
1.0
1002
}
  0
DIMENSION
  5
4303
330
A
100
AcDbEntity
  8
DIM
100
AcDbDimension
  2
*D9
 10
1559.610687595704
 20
1400.83106785599
 30
0.0
 11
1469.616897389041
 21
1422.83106785599
 31
0.0
 70
    32
 71
     5
 42
179.987580413326
 73
     0
 74
     0
 75
     0
  3
tfrom線あり
100
AcDbAlignedDimension
 13
1379.623107182378
 23
1317.32367575723
 33
0.0
 14
1559.610687595704
 24
1317.32367575723
 34
0.0
100
AcDbRotatedDimension
1001
ACAD
1000
DSTYLE
1002
{
1070
   144
1040
1.0
1002
}
  0
LINE
  5
44C9
102
{ACAD_REACTORS
330
4529
102
}
330
A
100
AcDbEntity
  8
MODEL
100
AcDbLine
 10
1304.085099561435
 20
1334.232014769504
 30
0.0
 11
1635.085099561435
 21
1334.232014769503
 31
0.0
  0
LINE
  5
44CA
102
{ACAD_REACTORS
330
4529
102
}
330
A
100
AcDbEntity
  8
MODEL
100
AcDbLine
 10
1309.085099561435
 20
1346.332014769504
 30
0.0
 11
1630.085099561435
 21
1346.332014769504
 31
0.0
  0
LINE
  5
44CB
102
{ACAD_REACTORS
330
4529
102
}
330
A
100
AcDbEntity
  8
MODEL
100
AcDbLine
 10
1304.085099561435
 20
1304.232014769504
 30
0.0
 11
1635.085099561435
 21
1304.232014769504
 31
0.0
  0
LINE
  5
44CC
102
{ACAD_REACTORS
330
4529
102
}
330
A
100
AcDbEntity
  8
MODEL
100
AcDbLine
 10
1304.085099561435
 20
1341.332014769504
 30
0.0
 11
1304.085099561435
 21
1304.232014769504
 31
0.0
  0
LINE
  5
44DD
102
{ACAD_REACTORS
330
4529
102
}
330
A
100
AcDbEntity
  8
MODEL
100
AcDbLine
 10
1635.085099561435
 20
1341.332014769504
 30
0.0
 11
1635.085099561435
 21
1304.232014769504
 31
0.0
  0
LINE
  5
44F9
102
{ACAD_REACTORS
330
450B
102
}
330
A
100
AcDbEntity
  8
MODEL
100
AcDbLine
 10
854.3343150206329
 20
1329.232014769503
 30
0.0
 11
854.3343150206329
 21
1309.232014769503
 31
0.0
  0
CIRCLE
  5
44FA
102
{ACAD_REACTORS
330
450B
102
}
330
A
100
AcDbEntity
  8
MODEL
100
AcDbCircle
 10
484.3343150206333
 20
1319.232014769503
 30
0.0
 40
15.0
  0
LINE
  5
44FB
102
{ACAD_REACTORS
330
450B
102
}
330
A
100
AcDbEntity
  8
MODEL
100
AcDbLine
 10
488.3481023178442
 20
1345.265469666049
 30
0.0
 11
484.3343150206333
 21
1334.232014769503
 31
0.0
  0
LINE
  5
44FC
102
{ACAD_REACTORS
330
450B
102
}
330
A
100
AcDbEntity
  8
MODEL
100
AcDbLine
 10
492.7731481657052
 20
1345.265469666049
 30
0.0
 11
504.0096439561221
 21
1334.232014769503
 31
0.0
  0
ARC
  5
44FD
102
{ACAD_REACTORS
330
450B
102
}
330
A
100
AcDbEntity
  8
MODEL
100
AcDbCircle
 10
490.5606252417747
 20
1343.503828635098
 30
0.0
 40
2.828186134406134
100
AcDbArc
 50
38.5272833190656
 51
141.4727166809344
  0
LINE
  5
44FE
102
{ACAD_REACTORS
330
450B
102
}
330
A
100
AcDbEntity
  8
MODEL
100
AcDbLine
 10
504.0096439561221
 20
1334.232014769503
 30
0.0
 11
849.3343150206329
 21
1334.232014769503
 31
0.0
  0
ARC
  5
44FF
102
{ACAD_REACTORS
330
450B
102
}
330
A
100
AcDbEntity
  8
MODEL
100
AcDbCircle
 10
528.5741866101221
 20
1323.663536495312
 30
0.0
 40
19.44533878976464
100
AcDbArc
 50
227.6859118023624
 51
272.1600483700927
  0
LINE
  5
4500
102
{ACAD_REACTORS
330
450B
102
}
330
A
100
AcDbEntity
  8
MODEL
100
AcDbLine
 10
849.3343150206329
 20
1304.232014769503
 30
0.0
 11
529.3071013856156
 21
1304.232014769503
 31
0.0
  0
ARC
  5
4501
102
{ACAD_REACTORS
330
450B
102
}
330
A
100
AcDbEntity
  8
MODEL
100
AcDbCircle
 10
849.3343150206329
 20
1329.232014769503
 30
0.0
 40
4.999999999999998
100
AcDbArc
 50
0.0
 51
90.0
  0
LINE
  5
4502
330
A
100
AcDbEntity
  8
HIDDEN
 48
0.5
100
AcDbLine
 10
849.6437608790784
 20
1306.244542690616
 30
0.0
 11
849.6437608790784
 21
1324.161779324338
 31
0.0
  0
LINE
  5
4503
330
A
100
AcDbEntity
  8
HIDDEN
 48
0.5
100
AcDbLine
 10
844.6437608790784
 20
1329.161779324338
 30
0.0
 11
519.5926297240903
 21
1329.161779324338
 31
0.0
  0
ARC
  5
4504
330
A
100
AcDbEntity
  8
HIDDEN
 48
0.5
100
AcDbCircle
 10
844.6437608790784
 20
1324.161779324338
 30
0.0
 40
4.999999999999998
100
AcDbArc
 50
0.0
 51
90.0
  0
ARC
  5
4507
102
{ACAD_REACTORS
330
450B
102
}
330
A
100
AcDbEntity
  8
MODEL
100
AcDbCircle
 10
849.3343150206329
 20
1309.232014769503
 30
0.0
 40
4.999999999999998
100
AcDbArc
 50
270.0
 51
0.0
  0
ARC
  5
4508
330
A
100
AcDbEntity
  8
HIDDEN
 48
0.5
100
AcDbCircle
 10
521.3087237130758
 20
1364.250937393768
 30
0.0
 40
35.13109723023917
100
AcDbArc
 50
256.6668748995315
 51
267.2000849470414
  0
LINE
  5
4509
102
{ACAD_REACTORS
330
450B
102
}
330
A
100
AcDbEntity
  8
MODEL
100
AcDbLine
 10
497.4562602437727
 20
1326.187610634139
 30
0.0
 11
515.4836942537536
 21
1309.284377600696
 31
0.0
  0
LINE
  5
4515
102
{ACAD_REACTORS
330
4526
102
}
330
A
100
AcDbEntity
  8
HIDDEN
 48
0.5
100
AcDbLine
 10
1322.854683139417
 20
1329.161779324338
 30
0.0
 11
1616.315515983452
 21
1329.161779324338
 31
0.0
  0
SPLINE
  5
4517
102
{ACAD_REACTORS
330
4526
102
}
330
A
100
AcDbEntity
  8
HIDDEN
 48
0.5
100
AcDbSpline
210
0.0
220
0.0
230
1.0
 70
  1064
 71
     3
 72
    10
 73
     6
 74
     4
 42
0.000000001
 43
0.0000000001
 44
0.0
 40
0.0
 40
0.0
 40
0.0
 40
0.0
 40
11.35237551035568
 40
19.40595712957357
 40
26.12624208409223
 40
26.12624208409223
 40
26.12624208409223
 40
26.12624208409223
 10
1310.257232273812
 20
1309.361779324338
 30
0.0
 10
1311.161176486611
 20
1312.87645986358
 30
0.0
 10
1312.706395161335
 20
1318.884518688488
 30
0.0
 10
1314.930198686634
 20
1328.824693275261
 30
0.0
 10
1320.377042020606
 20
1329.056387199368
 30
0.0
 10
1322.854683139417
 20
1329.161779324338
 30
0.0
 11
1310.257232273812
 21
1309.361779324338
 31
0.0
 11
1313.005535194136
 21
1320.37646319571
 31
0.0
 11
1316.28858450923
 21
1327.73049366152
 31
0.0
 11
1322.854683139417
 21
1329.161779324338
 31
0.0
  0
SPLINE
  5
4525
102
{ACAD_REACTORS
330
4526
102
}
330
A
100
AcDbEntity
  8
HIDDEN
 48
0.5
100
AcDbSpline
210
0.0
220
0.0
230
1.0
 70
  1064
 71
     3
 72
    10
 73
     6
 74
     4
 42
0.000000001
 43
0.0000000001
 44
0.0
 40
0.0
 40
0.0
 40
0.0
 40
0.0
 40
11.35237551035546
 40
19.40595712957325
 40
26.12624208409303
 40
26.12624208409303
 40
26.12624208409303
 40
26.12624208409303
 10
1628.912966849057
 20
1309.361779324338
 30
0.0
 10
1628.009022636259
 20
1312.876459863579
 30
0.0
 10
1626.463803961535
 20
1318.884518688488
 30
0.0
 10
1624.240000436235
 20
1328.824693275261
 30
0.0
 10
1618.793157102263
 20
1329.056387199368
 30
0.0
 10
1616.315515983452
 20
1329.161779324338
 30
0.0
 11
1628.912966849057
 21
1309.361779324338
 31
0.0
 11
1626.164663928734
 21
1320.37646319571
 31
0.0
 11
1622.88161461364
 21
1327.73049366152
 31
0.0
 11
1616.315515983452
 21
1329.161779324338
 31
0.0
  0
ARC
  5
4527
102
{ACAD_REACTORS
330
4529
102
}
330
A
100
AcDbEntity
  8
MODEL
100
AcDbCircle
 10
1309.085099561435
 20
1341.332014769504
 30
0.0
 40
4.999999999999998
100
AcDbArc
 50
90.0
 51
180.0
  0
ARC
  5
4528
102
{ACAD_REACTORS
330
4529
102
}
330
A
100
AcDbEntity
  8
MODEL
100
AcDbCircle
 10
1630.085099561435
 20
1341.332014769504
 30
0.0
 40
4.999999999999998
100
AcDbArc
 50
0.0
 51
90.0
  0
POLYLINE
  5
4540
330
A
100
AcDbEntity
  8
HIDDEN
 48
0.5
100
AcDb2dPolyline
 66
     1
 10
0.0
 20
0.0
 30
0.0
  0
VERTEX
  5
4541
330
4540
100
AcDbEntity
  8
HIDDEN
 48
0.5
100
AcDbVertex
100
AcDb2dVertex
 10
1559.610687595704
 20
1295.172846601758
 30
0.0
  0
VERTEX
  5
4542
330
4540
100
AcDbEntity
  8
HIDDEN
 48
0.5
100
AcDbVertex
100
AcDb2dVertex
 10
1559.610687595704
 20
1247.522049029524
 30
0.0
  0
SEQEND
  5
4543
330
4540
100
AcDbEntity
  8
HIDDEN
 48
0.5
  0
POLYLINE
  5
4544
330
A
100
AcDbEntity
  8
HIDDEN
 48
0.5
100
AcDb2dPolyline
 66
     1
 10
0.0
 20
0.0
 30
0.0
  0
VERTEX
  5
4545
330
4544
100
AcDbEntity
  8
HIDDEN
 48
0.5
100
AcDbVertex
100
AcDb2dVertex
 10
1591.715566066257
 20
1271.347447815641
 30
0.0
  0
VERTEX
  5
4546
330
4544
100
AcDbEntity
  8
HIDDEN
 48
0.5
100
AcDbVertex
100
AcDb2dVertex
 10
1527.505809125149
 20
1271.347447815641
 30
0.0
  0
SEQEND
  5
4547
330
4544
100
AcDbEntity
  8
HIDDEN
 48
0.5
  0
DIMENSION
  5
455A
102
{ACAD_REACTORS
330
455C
102
}
102
{ACAD_XDICTIONARY
360
455B
102
}
330
A
100
AcDbEntity
  8
DIM
100
AcDbDimension
  2
*D10
 10
1006.941477440405
 20
1352.181280823447
 30
0.0
 11
1006.941477440405
 21
1177.181280823446
 31
0.0
 70
   160
 71
     5
 42
350.0
 73
     0
 74
     0
 75
     0
  3
tfrom線あり
100
AcDbAlignedDimension
 13
844.7698259519113
 23
1002.181280823447
 33
0.0
 14
476.2697467524048
 24
1352.181280823447
 34
0.0
 50
90.0
100
AcDbRotatedDimension
1001
ACAD
1000
DSTYLE
1002
{
1070
   144
1040
1.0
1002
}
  0
LINE
  5
456A
330
A
100
AcDbEntity
  8
DIM
100
AcDbLine
 10
1379.623107182379
 20
1271.347447815641
 30
0.0
 11
1174.463098501307
 21
800.0028930571591
 31
0.0
  0
LINE
  5
456C
330
A
100
AcDbEntity
  8
DIM
100
AcDbLine
 10
1559.610687595704
 20
1271.347447815641
 30
0.0
 11
1354.450678914632
 21
800.0028930571591
 31
0.0
  0
LINE
  5
456D
330
A
100
AcDbEntity
  8
DIM
100
AcDbLine
 10
1174.463098501307
 20
800.0028930571591
 30
0.0
 11
1682.967399861978
 21
800.0028930571591
 31
0.0
  0
MTEXT
  5
45A1
330
A
100
AcDbEntity
  8
DIM
390
1D
100
AcDbMText
 10
1398.558838003011
 20
842.3935666244261
 30
0.0
 40
24.4326171875
 41
0.0
 46
27.1690703125
 71
     1
 72
     1
  1
{壁取付ボルト位置}
  7
ＭＳ ゴシック
 73
     1
 44
0.7828267384257843
1001
ACAD
1000
ACAD_MTEXT_DEFINED_HEIGHT_BEGIN
1070
    46
1040
27.1690703125
1000
ACAD_MTEXT_DEFINED_HEIGHT_END
  0
LINE
  5
4608
330
A
100
AcDbEntity
  8
MODEL
100
AcDbLine
 10
403.6093454035945
 20
1334.900503230122
 30
0.0
 11
403.6093454035949
 21
1470.867679533868
 31
0.0
  0
LINE
  5
4609
330
A
100
AcDbEntity
  8
MODEL
100
AcDbLine
 10
393.2533308326574
 20
1132.557732388918
 30
0.0
 11
328.5896494871046
 21
1048.284181790208
 31
0.0
  0
MTEXT
  5
460A
330
A
100
AcDbEntity
  8
DIM
390
1D
100
AcDbMText
 10
313.7301846345963
 20
1533.406181227757
 30
0.0
 40
24.4326171875
 41
0.0
 46
26.7781484375
 71
     1
 72
     1
  1
{洗浄管差込口}
  7
ＭＳ ゴシック
 73
     1
 44
0.7828267384257843
1001
ACAD
1000
ACAD_MTEXT_DEFINED_HEIGHT_BEGIN
1070
    46
1040
26.7781484375
1000
ACAD_MTEXT_DEFINED_HEIGHT_END
  0
MTEXT
  5
460B
330
A
100
AcDbEntity
  8
DIM
390
1D
100
AcDbMText
 10
133.1254665575276
 20
1061.387244227505
 30
0.0
 40
24.4326171875
 41
0.0
 46
26.7781484375
 71
     1
 72
     1
  1
{排水管差込口}
  7
ＭＳ ゴシック
 73
     1
 44
0.7828267384257843
1001
ACAD
1000
ACAD_MTEXT_DEFINED_HEIGHT_BEGIN
1070
    46
1040
26.7781484375
1000
ACAD_MTEXT_DEFINED_HEIGHT_END
  0
POLYLINE
  5
4610
330
A
100
AcDbEntity
  8
MODEL
  6
BORDER
 48
0.25
100
AcDb2dPolyline
 66
     1
 10
0.0
 20
0.0
 30
0.0
  0
VERTEX
  5
4611
330
4610
100
AcDbEntity
  8
MODEL
  6
BORDER
 48
0.25
100
AcDbVertex
100
AcDb2dVertex
 10
438.3741220221714
 20
1306.461601482603
 30
0.0
  0
VERTEX
  5
4612
330
4610
100
AcDbEntity
  8
MODEL
  6
BORDER
 48
0.25
100
AcDbVertex
100
AcDb2dVertex
 10
350.9632603646978
 20
1306.461601482603
 30
0.0
  0
SEQEND
  5
4613
330
4610
100
AcDbEntity
  8
MODEL
  6
BORDER
 48
0.25
  0
MTEXT
  5
4633
330
A
100
AcDbEntity
  8
TEMPLATE
390
1D
100
AcDbMText
 10
1329.20214454799
 20
228.4479938491282
 30
0.0
 40
24.4326171875
 41
0.0
 46
28.390701171875
 71
     1
 72
     1
  1
{19kg}
  7
ＭＳ ゴシック
 73
     1
 44
0.7828267384257843
1001
ACAD
1000
ACAD_MTEXT_DEFINED_HEIGHT_BEGIN
1070
    46
1040
28.390701171875
1000
ACAD_MTEXT_DEFINED_HEIGHT_END
  0
DIMENSION
  5
4647
330
A
100
AcDbEntity
  8
DIM
100
AcDbDimension
  2
*D11
 10
734.1296355521954
 20
928.6961861422077
 30
0.0
 11
554.1296355521954
 21
950.6961861422077
 31
0.0
 70
    32
 71
     5
 42
360.0
 73
     0
 74
     0
 75
     0
  3
tfrom線あり
100
AcDbAlignedDimension
 13
374.1296355521954
 23
1037.178097601278
 33
0.0
 14
734.1296355521954
 24
1037.178097601278
 34
0.0
100
AcDbRotatedDimension
1001
ACAD
1000
DSTYLE
1002
{
1070
   144
1040
1.0
1002
}
  0
DIMENSION
  5
465A
330
A
100
AcDbEntity
  8
DIM
100
AcDbDimension
  2
*D12
 10
330.0188077847044
 20
2054.271433229954
 30
0.0
 11
308.0188077847044
 21
2131.746513718888
 31
0.0
 70
    32
 71
     5
 42
154.9501609778681
 73
     0
 74
     0
 75
     0
  3
tfrom線あり
100
AcDbAlignedDimension
 13
479.2608268934605
 23
2209.221594207822
 33
0.0
 14
479.2608268934605
 24
2054.271433229954
 34
0.0
 50
90.0
100
AcDbRotatedDimension
1001
ACAD
1000
DSTYLE
1002
{
1070
   144
1040
1.0
1002
}
  0
DIMENSION
  5
468C
330
A
100
AcDbEntity
  8
DIM
100
AcDbDimension
  2
*D13
 10
529.1317322291029
 20
1889.898569399807
 30
0.0
 11
671.6317322291029
 21
1911.898569399807
 31
0.0
 70
    32
 71
     5
 42
285.0
 73
     0
 74
     0
 75
     0
  3
tfrom線あり
100
AcDbAlignedDimension
 13
814.1317322291029
 23
2132.006521888114
 33
0.0
 14
529.1317322291029
 24
2132.006521888113
 34
0.0
100
AcDbRotatedDimension
1001
ACAD
1000
DSTYLE
1002
{
1070
   144
1040
1.0
1002
}
  0
DIMENSION
  5
469C
330
A
100
AcDbEntity
  8
DIM
100
AcDbDimension
  2
*D14
 10
1564.40109425245
 20
939.1601357614081
 30
0.0
 11
1469.40109425245
 21
961.1601357614081
 31
0.0
 70
    32
 71
     5
 42
190.0
 73
     0
 74
     0
 75
     0
  3
tfrom線あり
100
AcDbAlignedDimension
 13
1374.40109425245
 23
1044.958578605567
 33
0.0
 14
1564.40109425245
 24
1044.958578605567
 34
0.0
100
AcDbRotatedDimension
1001
ACAD
1000
DSTYLE
1002
{
1070
   144
1040
1.0
1002
}
  0
DIMENSION
  5
4710
330
A
100
AcDbEntity
  8
DIM
100
AcDbDimension
  2
*D15
 10
921.7602489408001
 20
2254.661385238021
 30
0.0
 11
921.7602489408001
 21
2132.161385238021
 31
0.0
 70
   160
 71
     5
 42
245.0
 73
     0
 74
     0
 75
     0
  3
tfrom線あり
100
AcDbAlignedDimension
 13
690.9453545916987
 23
2009.661385238021
 33
0.0
 14
690.9453545916987
 24
2254.661385238021
 34
0.0
 50
90.0
100
AcDbRotatedDimension
1001
ACAD
1000
DSTYLE
1002
{
1070
   144
1040
1.0
1002
}
  0
DIMENSION
  5
4722
330
A
100
AcDbEntity
  8
DIM
100
AcDbDimension
  2
*D16
 10
294.7557437237762
 20
1280.118897498339
 30
0.0
 11
272.7557437237762
 21
1307.618897498339
 31
0.0
 70
    32
 71
     5
 42
55.0
 73
     0
 74
     0
 75
     0
  3
tfrom線あり
100
AcDbAlignedDimension
 13
392.7743022471082
 23
1335.118897498339
 33
0.0
 14
392.7743022471082
 24
1280.118897498339
 34
0.0
 50
90.0
100
AcDbRotatedDimension
1001
ACAD
1000
DSTYLE
1002
{
1070
   144
1040
1.0
1002
}
  0
DIMENSION
  5
472F
330
A
100
AcDbEntity
  8
DIM
100
AcDbDimension
  2
*D17
 10
294.7557437237762
 20
1122.636338895725
 30
0.0
 11
272.7557437237762
 21
1171.461601482602
 31
0.0
 70
    32
 71
     5
 42
97.65052517375284
 73
     0
 74
     0
 75
     0
  3
tfrom線あり
100
AcDbAlignedDimension
 13
385.992394743778
 23
1220.286864069478
 33
0.0
 14
385.6100937811997
 24
1122.636338895725
 34
0.0
 50
90.0
100
AcDbRotatedDimension
1001
ACAD
1000
DSTYLE
1002
{
1070
   144
1040
1.0
1002
}
  0
DIMENSION
  5
473C
330
A
100
AcDbEntity
  8
DIM
100
AcDbDimension
  2
*D18
 10
1678.246018966174
 20
1306.347447815641
 30
0.0
 11
1678.246018966174
 21
1288.847447815641
 31
0.0
 70
   160
 71
     5
 42
34.99999999999999
 73
     0
 74
     0
 75
     0
  3
tfrom線あり
100
AcDbAlignedDimension
 13
1593.749924761123
 23
1271.347447815641
 33
0.0
 14
1527.928691956464
 24
1306.347447815641
 34
0.0
 50
90.0
100
AcDbRotatedDimension
1001
ACAD
1000
DSTYLE
1002
{
1070
   144
1040
1.0
1002
}
  0
DIMENSION
  5
474C
330
A
100
AcDbEntity
  8
DIM
100
AcDbDimension
  2
*D19
 10
1761.953906947432
 20
1328.181280254984
 30
0.0
 11
1739.953906947432
 21
1165.181280539216
 31
0.0
 70
    32
 71
     5
 42
325.9999994315369
 73
     0
 74
     0
 75
     0
  3
tfrom線あり
100
AcDbAlignedDimension
 13
1469.574154905603
 23
1002.181280823447
 33
0.0
 14
1622.120083938688
 24
1328.181280254984
 34
0.0
 50
90.0
100
AcDbRotatedDimension
1001
ACAD
1000
DSTYLE
1002
{
1070
   144
1040
1.0
1002
}
  0
DIMENSION
  5
475B
330
A
100
AcDbEntity
  8
DIM
100
AcDbDimension
  2
*D20
 10
1246.316003494804
 20
1352.181280823447
 30
0.0
 11
1224.316003494804
 21
1327.181280823447
 31
0.0
 70
    32
 71
     5
 42
50.0
 73
     0
 74
     0
 75
     0
  3
tfrom線あり
100
AcDbAlignedDimension
 13
1289.666651917204
 23
1302.181280823447
 33
0.0
 14
1338.249275149205
 24
1352.181280823447
 34
0.0
 50
90.0
100
AcDbRotatedDimension
1001
ACAD
1000
DSTYLE
1002
{
1070
   144
1040
1.0
1002
}
  0
DIMENSION
  5
476A
330
A
100
AcDbEntity
  8
DIM
100
AcDbDimension
  2
*D21
 10
1246.316003494804
 20
1002.181280823446
 30
0.0
 11
1224.316003494804
 21
1084.681280823446
 31
0.0
 70
    32
 71
     5
 42
165.0000000000001
 73
     0
 74
     0
 75
     0
  3
tfrom線あり
100
AcDbAlignedDimension
 13
1364.812505950865
 23
1167.181280823446
 33
0.0
 14
1452.465153805204
 24
1002.181280823446
 34
0.0
 50
90.0
100
AcDbRotatedDimension
1001
ACAD
1000
DSTYLE
1002
{
1070
   144
1040
1.0
1002
}
  0
DIMENSION
  5
4780
330
A
100
AcDbEntity
  8
DIM
100
AcDbDimension
  2
*D22
 10
1806.058421340108
 20
1332.181280823447
 30
0.0
 11
1784.058421340108
 21
1167.181280823447
 31
0.0
 70
    32
 71
     5
 42
330.0
 73
     0
 74
     0
 75
     0
  3
tfrom線あり
100
AcDbAlignedDimension
 13
1623.99825078159
 23
1002.181280823447
 33
0.0
 14
1623.99825078159
 24
1332.181280823447
 34
0.0
 50
90.0
100
AcDbRotatedDimension
1001
ACAD
1000
DSTYLE
1002
{
1070
   144
1040
1.0
1002
}
  0
DIMENSION
  5
47D9
102
{ACAD_XDICTIONARY
360
47DA
102
}
330
A
100
AcDbEntity
  8
DIM
100
AcDbDimension
  2
*D23
 10
1722.214815993601
 20
1328.181280254984
 30
0.0
 11
1700.214815993601
 21
1299.764364035313
 31
0.0
 70
    32
  1
61
 71
     5
 42
56.83383243934281
 73
     0
 74
     0
 75
     0
  3
tfrom線あり
100
AcDbAlignedDimension
 13
1623.749924761123
 23
1271.347447815641
 33
0.0
 14
1652.120083938688
 24
1328.181280254984
 34
0.0
 50
90.0
100
AcDbRotatedDimension
1001
ACAD
1000
DSTYLE
1002
{
1070
   144
1040
1.0
1002
}
  0
VIEWPORT
  5
349
330
B
100
AcDbEntity
 67
     1
  8
0
100
AcDbViewport
 10
202.5
 20
128.5
 30
0.0
 40
486.0
 41
308.4
 68
     1
 69
     1
 12
202.5
 22
128.5
 13
0.0
 23
0.0
 14
0.5
 24
0.5
 15
0.0
 25
0.0
 16
0.0
 26
0.0
 36
1.0
 17
0.0
 27
0.0
 37
0.0
 42
50.0
 43
0.0
 44
0.0
 45
308.4
 50
0.0
 51
0.0
 72
   100
 90
   557152
  1

281
     0
 71
     1
 74
     0
110
0.0
120
0.0
130
0.0
111
1.0
121
0.0
131
0.0
112
0.0
122
1.0
132
0.0
 79
     0
146
0.0
170
     0
 61
     5
348
26C
292
     1
282
     1
141
0.0
142
0.0
 63
   256
  0
VIEWPORT
  5
34A
330
B
100
AcDbEntity
 67
     1
  8
0
100
AcDbViewport
 10
202.5
 20
128.5
 30
0.0
 40
324.0
 41
205.6
 68
     2
 69
     2
 12
986.6781359294573
 22
1427.077061889956
 13
0.0
 23
0.0
 14
0.5
 24
0.5
 15
0.0
 25
0.0
 16
0.0
 26
0.0
 36
1.0
 17
0.0
 27
0.0
 37
0.0
 42
50.0
 43
0.0
 44
0.0
 45
2890.021615685494
 50
0.0
 51
0.0
 72
   100
 90
   557152
  1

281
     0
 71
     1
 74
     0
110
0.0
120
0.0
130
0.0
111
1.0
121
0.0
131
0.0
112
0.0
122
1.0
132
0.0
 79
     0
146
0.0
170
     0
 61
     5
348
26C
292
     1
282
     1
141
0.0
142
0.0
 63
   256
  0
ENDSEC
  0
SECTION
  2
OBJECTS
  0
DICTIONARY
  5
19
330
0
100
AcDbDictionary
281
     1
  3
ACAD_COLOR
350
674
  3
ACAD_DETAILVIEWSTYLE
350
BBF
  3
ACAD_FIELDLIST
350
146A
  3
ACAD_GROUP
350
1A
  3
ACAD_IMAGE_VARS
350
27B
  3
ACAD_LAYOUT
350
1E
  3
ACAD_MATERIAL
350
263
  3
ACAD_MLEADERSTYLE
350
336
  3
ACAD_MLINESTYLE
350
1B
  3
ACAD_PLOTSETTINGS
350
22
  3
ACAD_PLOTSTYLENAME
350
1F
  3
ACAD_SCALELIST
350
241
  3
ACAD_SECTIONVIEWSTYLE
350
BC0
  3
ACAD_TABLESTYLE
350
278
  3
ACAD_VISUALSTYLE
350
267
  3
ACDB_RECOMPOSE_DATA
350
47FD
  3
AcDbVariableDictionary
350
330
  3
APPDATA
350
27A
  3
DimOffsetDictionary
350
E3E
  0
SUN
  5
904
330
15
100
AcDbSun
 90
        1
290
     0
 63
     7
421
 16777215
 40
1.0
291
     1
 91
  2455826
 92
 54000000
292
     0
 70
     2
 71
   256
280
     1
  0
DICTIONARY
  5
2E1
330
2
100
AcDbDictionary
280
     1
281
     1
  3
ACAD_LAYERSTATES
360
2E2
  3
ACLYDICTIONARY
360
47B0
  0
DICTIONARY
  5
374D
330
A
100
AcDbDictionary
280
     1
281
     1
  3
ACAD_SORTENTS
360
374E
  0
DICTIONARY
  5
1468
330
1466
100
AcDbDictionary
280
     1
281
     1
  3
ACAD_FIELD
360
47F1
  0
DICTIONARY
  5
455B
330
455A
100
AcDbDictionary
280
     1
281
     1
  3
ACAD_DIMASSOC
360
455C
  0
DICTIONARY
  5
47DA
330
47D9
100
AcDbDictionary
280
     1
281
     1
  0
DICTIONARY
  5
674
102
{ACAD_REACTORS
330
19
102
}
330
19
100
AcDbDictionary
281
     1
  0
DICTIONARY
  5
BBF
102
{ACAD_REACTORS
330
19
102
}
330
19
100
AcDbDictionary
281
     1
  0
FIELDLIST
  5
146A
102
{ACAD_REACTORS
330
19
102
}
330
19
100
AcDbIdSet
 90
        2
330
146B
330
1467
100
AcDbFieldList
  0
DICTIONARY
  5
1A
102
{ACAD_REACTORS
330
19
102
}
330
19
100
AcDbDictionary
281
     1
  3
*A1
350
36AC
  3
*A2
350
424B
  3
*A3
350
424C
  3
*A4
350
450B
  3
*A5
350
4526
  3
*A6
350
4529
  0
RASTERVARIABLES
  5
27B
102
{ACAD_REACTORS
330
19
102
}
330
19
100
AcDbRasterVariables
 90
        0
 70
     1
 71
     1
 72
     1
  0
DICTIONARY
  5
1E
102
{ACAD_REACTORS
330
19
102
}
330
19
100
AcDbDictionary
281
     1
  3
Layout1
350
21
  3
Model
350
20
  0
DICTIONARY
  5
263
102
{ACAD_REACTORS
330
19
102
}
330
19
100
AcDbDictionary
281
     1
  3
ByBlock
350
265
  3
ByLayer
350
264
  3
Global
350
266
  0
DICTIONARY
  5
336
102
{ACAD_REACTORS
330
19
102
}
330
19
100
AcDbDictionary
281
     1
  3
Standard
350
DAB
  0
DICTIONARY
  5
1B
102
{ACAD_REACTORS
330
19
102
}
330
19
100
AcDbDictionary
281
     1
  3
Standard
350
1C
  0
DICTIONARY
  5
22
102
{ACAD_REACTORS
330
19
102
}
330
19
100
AcDbDictionary
281
     1
  0
ACDBDICTIONARYWDFLT
  5
1F
102
{ACAD_REACTORS
330
19
102
}
330
19
100
AcDbDictionary
281
     1
  3
Normal
350
1D
100
AcDbDictionaryWithDefault
340
1D
  0
DICTIONARY
  5
241
102
{ACAD_REACTORS
330
19
102
}
330
19
100
AcDbDictionary
281
     1
  3
A0
350
242
  3
A1
350
243
  3
A2
350
244
  3
A3
350
245
  3
A4
350
246
  3
A5
350
247
  3
A6
350
248
  3
A7
350
249
  3
A8
350
24A
  3
A9
350
24B
  3
B0
350
24C
  3
B1
350
24D
  3
B2
350
24E
  3
B3
350
24F
  3
B4
350
250
  3
B5
350
251
  3
B6
350
252
  3
B7
350
253
  3
B8
350
254
  3
B9
350
255
  3
C0
350
256
  3
C1
350
257
  3
C2
350
258
  3
C3
350
259
  3
C4
350
25A
  3
C5
350
25B
  3
C6
350
25C
  3
C7
350
25D
  3
C8
350
25E
  3
C9
350
25F
  3
D0
350
260
  3
D1
350
261
  3
D2
350
262
  0
DICTIONARY
  5
BC0
102
{ACAD_REACTORS
330
19
102
}
330
19
100
AcDbDictionary
281
     1
  0
DICTIONARY
  5
278
102
{ACAD_REACTORS
330
19
102
}
330
19
100
AcDbDictionary
281
     1
  3
Standard
350
279
  0
DICTIONARY
  5
267
102
{ACAD_REACTORS
330
19
102
}
330
19
100
AcDbDictionary
281
     1
  3
2dWireframe
350
26C
  3
3D Hidden
350
26E
  3
3dWireframe
350
26D
  3
Basic
350
26F
  3
Brighten
350
273
  3
ColorChange
350
277
  3
Conceptual
350
271
  3
Dim
350
272
  3
EdgeColorOff
350
8FE
  3
Facepattern
350
276
  3
Flat
350
268
  3
FlatWithEdges
350
269
  3
Gouraud
350
26A
  3
GouraudWithEdges
350
26B
  3
Hidden
350
8FB
  3
JitterOff
350
8FC
  3
Linepattern
350
275
  3
OverhangOff
350
8FD
  3
Realistic
350
270
  3
Shaded
350
903
  3
Shaded with edges
350
902
  3
Shades of Gray
350
8FF
  3
Sketchy
350
900
  3
Thicken
350
274
  3
Wireframe
350
8FA
  3
X-Ray
350
901
  0
XRECORD
  5
47FD
102
{ACAD_REACTORS
330
19
102
}
330
19
100
AcDbXrecord
280
     1
 90
        1
330
279
  0
DICTIONARY
  5
330
102
{ACAD_REACTORS
330
19
102
}
330
19
100
AcDbDictionary
281
     1
  3
CANNOSCALE
350
331
  3
CMLEADERSTYLE
350
DB1
  3
CTABLESTYLE
350
335
  3
HPTRANSPARENCY
350
D52
  3
XCLIPFRAME
350
896
  0
DICTIONARY
  5
27A
102
{ACAD_REACTORS
330
19
102
}
330
19
100
AcDbDictionary
281
     1
  0
DICTIONARY
  5
E3E
102
{ACAD_REACTORS
330
19
102
}
330
19
100
AcDbDictionary
281
     1
  3
DIMRAILANGLE
350
ECE
  3
DIMRAILFIRSTOFFSET
350
ECC
  3
DIMRAILOFFSET
350
ECD
  3
DIMRAILSENABLED
350
ECF
  0
DICTIONARY
  5
2E2
102
{ACAD_REACTORS
330
2E1
102
}
330
2E1
100
AcDbDictionary
281
     1
  0
DICTIONARY
  5
47B0
102
{ACAD_REACTORS
330
2E1
102
}
330
2E1
100
AcDbDictionary
281
     1
1001
ACAD
1000
<All
  0
SORTENTSTABLE
  5
374E
102
{ACAD_REACTORS
330
374D
102
}
330
374D
100
AcDbSortentsTable
330
A
331
0
  5
35AD
331
369B
  5
35AE
331
369C
  5
369A
331
36A7
  5
369B
331
36A8
  5
369C
331
36A9
  5
36A7
331
36AA
  5
36A8
331
36AB
  5
36A9
  0
DICTIONARY
  5
47F1
102
{ACAD_REACTORS
330
1468
102
}
330
1468
100
AcDbDictionary
280
     1
281
     1
  3
TEXT
360
1467
  0
DIMASSOC
  5
455C
102
{ACAD_REACTORS
330
455B
102
}
330
455B
100
AcDbDimAssoc
330
455A
 90
        0
 70
     0
 71
     1
  0
GROUP
  5
36AC
102
{ACAD_REACTORS
330
1A
102
}
330
1A
100
AcDbGroup
300

 70
     1
 71
     1
340
369B
340
369C
340
36A7
340
36A8
340
36A9
340
36AA
340
36AB
  0
GROUP
  5
424B
102
{ACAD_REACTORS
330
1A
102
}
330
1A
100
AcDbGroup
300

 70
     1
 71
     1
340
4122
340
4123
340
4124
340
4165
340
4186
  0
GROUP
  5
424C
102
{ACAD_REACTORS
330
1A
102
}
330
1A
100
AcDbGroup
300

 70
     1
 71
     1
340
3F46
340
3F47
340
3F48
340
3F49
340
3F56
340
3F63
340
3F64
340
3F65
340
3F66
340
3F67
340
3F68
340
3F6D
340
3F6E
340
3F7A
340
3F7B
340
3F81
340
3F82
340
3F83
340
3F84
340
3F85
340
3F86
340
3F87
340
3F88
340
3F89
340
3F8A
340
3F8B
340
3F8C
340
3F8D
340
3F8E
340
3F8F
340
3F90
340
3F91
340
3F93
340
3F96
340
3FAA
340
3FAB
340
3FAC
340
3FAD
340
3FAE
340
3FB3
340
3FB5
340
3FB6
340
3FB7
340
3FC4
340
3FC5
340
3FC6
340
3FC7
340
3FC9
340
3FCA
340
3FCB
340
3FCC
340
3FCD
340
3FCE
340
3FCF
340
3FD0
340
3FD1
340
3FD2
340
3FD3
340
3FDD
340
3FDE
340
3FE0
340
3FE1
340
3FE2
340
3FE3
340
3FE4
340
3FE5
340
3FE6
340
3FE7
340
3FE8
340
3FE9
340
3FEA
340
3FF6
340
3FF7
340
3FF8
340
3FF9
340
3FFA
  0
GROUP
  5
450B
102
{ACAD_REACTORS
330
1A
102
}
330
1A
100
AcDbGroup
300

 70
     1
 71
     1
340
44F9
340
44FA
340
44FB
340
44FC
340
44FD
340
44FE
340
44FF
340
4500
340
4501
340
4507
340
4509
  0
GROUP
  5
4526
102
{ACAD_REACTORS
330
1A
102
}
330
1A
100
AcDbGroup
300

 70
     1
 71
     1
340
4515
340
4517
340
4525
  0
GROUP
  5
4529
102
{ACAD_REACTORS
330
1A
102
}
330
1A
100
AcDbGroup
300

 70
     1
 71
     1
340
44CC
340
44C9
340
44CA
340
44CB
340
44DD
340
4527
340
4528
  0
LAYOUT
  5
21
102
{ACAD_REACTORS
330
1E
102
}
330
1E
100
AcDbPlotSettings
  1

  2
none_device
  4
ISO_A3_(420.00_x_297.00_MM)
  6

 40
7.5
 41
20.0
 42
7.5
 43
20.0
 44
420.0
 45
297.0
 46
0.0
 47
0.0
 48
0.0
 49
0.0
140
0.0
141
0.0
142
1.0
143
1.0
 70
     0
 72
     1
 73
     0
 74
     0
  7

 75
     0
 76
     0
 77
     2
 78
   300
147
1.0
148
0.0
149
0.0
100
AcDbLayout
  1
Layout1
 70
     0
 71
     0
 10
-7.5
 20
-20.0
 11
412.5
 21
277.0
 12
0.0
 22
0.0
 32
0.0
 14
0.0
 24
0.0
 34
0.0
 15
0.0
 25
0.0
 35
0.0
146
0.0
 13
0.0
 23
0.0
 33
0.0
 16
0.0
 26
0.0
 36
0.0
 17
0.0
 27
0.0
 37
0.0
 76
     0
330
B
331
349
  0
LAYOUT
  5
20
102
{ACAD_REACTORS
330
1E
102
}
330
1E
100
AcDbPlotSettings
  1

  2
none_device
  4
ISO_A3_(420.00_x_297.00_MM)
  6

 40
7.5
 41
20.0
 42
7.5
 43
20.0
 44
420.0
 45
297.0
 46
0.0
 47
0.0
 48
0.0
 49
0.0
140
0.0
141
0.0
142
1.0
143
1.0
 70
  1024
 72
     1
 73
     0
 74
     0
  7

 75
     0
 76
     0
 77
     2
 78
   300
147
1.0
148
0.0
149
0.0
100
AcDbLayout
  1
Model
 70
     0
 71
     1
 10
0.0
 20
0.0
 11
2100.0
 21
2970.0
 12
0.0
 22
0.0
 32
0.0
 14
0.0
 24
0.0
 34
-0.0000000000000142
 15
2100.0
 25
2970.0
 35
0.0000000000000071
146
0.0
 13
0.0
 23
0.0
 33
0.0
 16
0.0
 26
0.0
 36
0.0
 17
0.0
 27
0.0
 37
0.0
 76
     0
330
A
331
15
  0
MATERIAL
  5
265
102
{ACAD_REACTORS
330
263
102
}
330
263
100
AcDbMaterial
  1
ByBlock
 72
     1
 94
      127
  0
MATERIAL
  5
264
102
{ACAD_REACTORS
330
263
102
}
330
263
100
AcDbMaterial
  1
ByLayer
 72
     1
 94
      127
  0
MATERIAL
  5
266
102
{ACAD_REACTORS
330
263
102
}
330
263
100
AcDbMaterial
  1
Global
 72
     1
 94
      127
  0
MLEADERSTYLE
  5
DAB
102
{ACAD_REACTORS
330
336
102
}
330
336
100
AcDbMLeaderStyle
170
     2
171
     1
172
     0
 90
        2
 40
0.0
 41
0.0
173
     1
 91
-1056964608
340
11
 92
       -2
290
     1
 42
2.0
291
     1
 43
8.0
  3
Standard
341
0
 44
4.0
300

342
17
174
     1
178
     6
175
     1
176
     0
 93
-1056964608
 45
4.0
292
     0
297
     0
 46
4.0
343
0
 94
-1056964608
 47
1.0
 49
1.0
140
1.0
293
     1
141
0.0
294
     1
177
     0
142
1.0
295
     0
296
     0
143
3.75
1001
ACAD_MLEADERVER
1070
     2
  0
MLINESTYLE
  5
1C
102
{ACAD_REACTORS
330
1B
102
}
330
1B
100
AcDbMlineStyle
  2
Standard
 70
     0
  3

 62
     0
 51
90.0
 52
90.0
 71
     2
 49
0.5
 62
   256
  6
BYLAYER
 49
-0.5
 62
   256
  6
BYLAYER
  0
ACDBPLACEHOLDER
  5
1D
102
{ACAD_REACTORS
330
1F
102
}
330
1F
  0
SCALE
  5
242
102
{ACAD_REACTORS
330
241
102
}
330
241
100
AcDbScale
 70
     0
300
1:1
140
1.0
141
1.0
290
     1
  0
SCALE
  5
243
102
{ACAD_REACTORS
330
241
102
}
330
241
100
AcDbScale
 70
     0
300
1:2
140
1.0
141
2.0
290
     0
  0
SCALE
  5
244
102
{ACAD_REACTORS
330
241
102
}
330
241
100
AcDbScale
 70
     0
300
1:4
140
1.0
141
4.0
290
     0
  0
SCALE
  5
245
102
{ACAD_REACTORS
330
241
102
}
330
241
100
AcDbScale
 70
     0
300
1:5
140
1.0
141
5.0
290
     0
  0
SCALE
  5
246
102
{ACAD_REACTORS
330
241
102
}
330
241
100
AcDbScale
 70
     0
300
1:8
140
1.0
141
8.0
290
     0
  0
SCALE
  5
247
102
{ACAD_REACTORS
330
241
102
}
330
241
100
AcDbScale
 70
     0
300
1:10
140
1.0
141
10.0
290
     0
  0
SCALE
  5
248
102
{ACAD_REACTORS
330
241
102
}
330
241
100
AcDbScale
 70
     0
300
1:16
140
1.0
141
16.0
290
     0
  0
SCALE
  5
249
102
{ACAD_REACTORS
330
241
102
}
330
241
100
AcDbScale
 70
     0
300
1:20
140
1.0
141
20.0
290
     0
  0
SCALE
  5
24A
102
{ACAD_REACTORS
330
241
102
}
330
241
100
AcDbScale
 70
     0
300
1:30
140
1.0
141
30.0
290
     0
  0
SCALE
  5
24B
102
{ACAD_REACTORS
330
241
102
}
330
241
100
AcDbScale
 70
     0
300
1:40
140
1.0
141
40.0
290
     0
  0
SCALE
  5
24C
102
{ACAD_REACTORS
330
241
102
}
330
241
100
AcDbScale
 70
     0
300
1:50
140
1.0
141
50.0
290
     0
  0
SCALE
  5
24D
102
{ACAD_REACTORS
330
241
102
}
330
241
100
AcDbScale
 70
     0
300
1:100
140
1.0
141
100.0
290
     0
  0
SCALE
  5
24E
102
{ACAD_REACTORS
330
241
102
}
330
241
100
AcDbScale
 70
     0
300
2:1
140
2.0
141
1.0
290
     0
  0
SCALE
  5
24F
102
{ACAD_REACTORS
330
241
102
}
330
241
100
AcDbScale
 70
     0
300
4:1
140
4.0
141
1.0
290
     0
  0
SCALE
  5
250
102
{ACAD_REACTORS
330
241
102
}
330
241
100
AcDbScale
 70
     0
300
8:1
140
8.0
141
1.0
290
     0
  0
SCALE
  5
251
102
{ACAD_REACTORS
330
241
102
}
330
241
100
AcDbScale
 70
     0
300
10:1
140
10.0
141
1.0
290
     0
  0
SCALE
  5
252
102
{ACAD_REACTORS
330
241
102
}
330
241
100
AcDbScale
 70
     0
300
100:1
140
100.0
141
1.0
290
     0
  0
SCALE
  5
253
102
{ACAD_REACTORS
330
241
102
}
330
241
100
AcDbScale
 70
     0
300
1/128" = 1'-0"
140
0.0078125
141
12.0
290
     0
  0
SCALE
  5
254
102
{ACAD_REACTORS
330
241
102
}
330
241
100
AcDbScale
 70
     0
300
1/64" = 1'-0"
140
0.015625
141
12.0
290
     0
  0
SCALE
  5
255
102
{ACAD_REACTORS
330
241
102
}
330
241
100
AcDbScale
 70
     0
300
1/32" = 1'-0"
140
0.03125
141
12.0
290
     0
  0
SCALE
  5
256
102
{ACAD_REACTORS
330
241
102
}
330
241
100
AcDbScale
 70
     0
300
1/16" = 1'-0"
140
0.0625
141
12.0
290
     0
  0
SCALE
  5
257
102
{ACAD_REACTORS
330
241
102
}
330
241
100
AcDbScale
 70
     0
300
3/32" = 1'-0"
140
0.09375
141
12.0
290
     0
  0
SCALE
  5
258
102
{ACAD_REACTORS
330
241
102
}
330
241
100
AcDbScale
 70
     0
300
1/8" = 1'-0"
140
0.125
141
12.0
290
     0
  0
SCALE
  5
259
102
{ACAD_REACTORS
330
241
102
}
330
241
100
AcDbScale
 70
     0
300
3/16" = 1'-0"
140
0.1875
141
12.0
290
     0
  0
SCALE
  5
25A
102
{ACAD_REACTORS
330
241
102
}
330
241
100
AcDbScale
 70
     0
300
1/4" = 1'-0"
140
0.25
141
12.0
290
     0
  0
SCALE
  5
25B
102
{ACAD_REACTORS
330
241
102
}
330
241
100
AcDbScale
 70
     0
300
3/8" = 1'-0"
140
0.375
141
12.0
290
     0
  0
SCALE
  5
25C
102
{ACAD_REACTORS
330
241
102
}
330
241
100
AcDbScale
 70
     0
300
1/2" = 1'-0"
140
0.5
141
12.0
290
     0
  0
SCALE
  5
25D
102
{ACAD_REACTORS
330
241
102
}
330
241
100
AcDbScale
 70
     0
300
3/4" = 1'-0"
140
0.75
141
12.0
290
     0
  0
SCALE
  5
25E
102
{ACAD_REACTORS
330
241
102
}
330
241
100
AcDbScale
 70
     0
300
1" = 1'-0"
140
1.0
141
12.0
290
     0
  0
SCALE
  5
25F
102
{ACAD_REACTORS
330
241
102
}
330
241
100
AcDbScale
 70
     0
300
1-1/2" = 1'-0"
140
1.5
141
12.0
290
     0
  0
SCALE
  5
260
102
{ACAD_REACTORS
330
241
102
}
330
241
100
AcDbScale
 70
     0
300
3" = 1'-0"
140
3.0
141
12.0
290
     0
  0
SCALE
  5
261
102
{ACAD_REACTORS
330
241
102
}
330
241
100
AcDbScale
 70
     0
300
6" = 1'-0"
140
6.0
141
12.0
290
     0
  0
SCALE
  5
262
102
{ACAD_REACTORS
330
241
102
}
330
241
100
AcDbScale
 70
     0
300
1'-0" = 1'-0"
140
12.0
141
12.0
290
     0
  0
TABLESTYLE
  5
279
102
{ACAD_REACTORS
330
278
102
}
102
{ACAD_XDICTIONARY
360
47FB
102
}
330
278
100
AcDbTableStyle
  3
Standard
 70
     0
 71
     0
 40
0.06
 41
0.06
280
     0
281
     0
  7
Standard
140
4.5
170
     2
 62
     0
 63
   257
283
     0
 90
        4
 91
        0
  1

274
    -2
284
     1
 64
     0
275
    -2
285
     1
 65
     0
276
    -2
286
     1
 66
     0
277
    -2
287
     1
 67
     0
278
    -2
288
     1
 68
     0
279
    -2
289
     1
 69
     0
  7
Standard
140
6.0
170
     5
 62
     0
 63
   257
283
     0
 90
        4
 91
        0
  1

274
    -2
284
     1
 64
     0
275
    -2
285
     1
 65
     0
276
    -2
286
     1
 66
     0
277
    -2
287
     1
 67
     0
278
    -2
288
     1
 68
     0
279
    -2
289
     1
 69
     0
  7
Standard
140
4.5
170
     5
 62
     0
 63
   257
283
     0
 90
        4
 91
        0
  1

274
    -2
284
     1
 64
     0
275
    -2
285
     1
 65
     0
276
    -2
286
     1
 66
     0
277
    -2
287
     1
 67
     0
278
    -2
288
     1
 68
     0
279
    -2
289
     1
 69
     0
  0
VISUALSTYLE
  5
26C
102
{ACAD_REACTORS
330
267
102
}
330
267
100
AcDbVisualStyle
  2
2dWireframe
 70
     4
 71
     0
 72
     2
 73
     0
 90
        0
 40
-0.6
 41
-30.0
 62
     5
 63
     7
421
 16777215
 74
     1
 91
        4
 64
     7
 65
   257
 75
     1
175
     1
 42
1.0
 92
        0
 66
   257
 43
1.0
 76
     1
 77
     6
 78
     2
 67
     7
 79
     5
170
     0
171
     0
290
     0
174
     0
 93
        1
 44
0.0
173
     0
291
     0
 45
0.0
  0
VISUALSTYLE
  5
26E
102
{ACAD_REACTORS
330
267
102
}
330
267
100
AcDbVisualStyle
  2
3D Hidden
 70
     6
 71
     1
 72
     2
 73
     2
 90
        0
 40
-0.6
 41
-30.0
 62
     5
 63
     7
421
 16777215
 74
     2
 91
        2
 64
     7
 65
   257
 75
     2
175
     1
 42
40.0
 92
        0
 66
   257
 43
1.0
 76
     1
 77
     6
 78
     2
 67
     7
 79
     3
170
     0
171
     0
290
     0
174
     0
 93
        1
 44
0.0
173
     0
291
     0
 45
0.0
  0
VISUALSTYLE
  5
26D
102
{ACAD_REACTORS
330
267
102
}
330
267
100
AcDbVisualStyle
  2
3dWireframe
 70
     5
 71
     0
 72
     2
 73
     0
 90
        0
 40
-0.6
 41
-30.0
 62
     5
 63
     7
421
 16777215
 74
     1
 91
        4
 64
     7
 65
   257
 75
     1
175
     1
 42
1.0
 92
        0
 66
   257
 43
1.0
 76
     1
 77
     6
 78
     2
 67
     7
 79
     5
170
     0
171
     0
290
     0
174
     0
 93
        1
 44
0.0
173
     0
291
     0
 45
0.0
  0
VISUALSTYLE
  5
26F
102
{ACAD_REACTORS
330
267
102
}
330
267
100
AcDbVisualStyle
  2
Basic
 70
     7
 71
     1
 72
     0
 73
     1
 90
        0
 40
-0.6
 41
-30.0
 62
     5
 63
     7
421
 16777215
 74
     0
 91
        4
 64
     7
 65
   257
 75
     1
175
     1
 42
1.0
 92
        8
 66
     7
 43
1.0
 76
     1
 77
     6
 78
     2
 67
     7
 79
     5
170
     0
171
     0
290
     0
174
     0
 93
        1
 44
0.0
173
     0
291
     1
 45
0.0
  0
VISUALSTYLE
  5
273
102
{ACAD_REACTORS
330
267
102
}
330
267
100
AcDbVisualStyle
  2
Brighten
 70
    12
 71
     2
 72
     2
 73
     0
 90
        0
 40
-0.6
 41
-30.0
 62
     5
 63
     7
421
 16777215
 74
     1
 91
        4
 64
     7
 65
   257
 75
     1
175
     1
 42
1.0
 92
        8
 66
     7
 43
1.0
 76
     1
 77
     6
 78
     2
 67
     7
 79
     5
170
     0
171
     0
290
     0
174
     0
 93
        1
 44
50.0
173
     0
291
     1
 45
0.0
  0
VISUALSTYLE
  5
277
102
{ACAD_REACTORS
330
267
102
}
330
267
100
AcDbVisualStyle
  2
ColorChange
 70
    16
 71
     2
 72
     2
 73
     3
 90
        0
 40
-0.6
 41
-30.0
 62
     5
 63
     8
421
  8421504
 74
     1
 91
        4
 64
     7
 65
   257
 75
     1
175
     1
 42
1.0
 92
        8
 66
     8
424
  8421504
 43
1.0
 76
     1
 77
     6
 78
     2
 67
     7
 79
     5
170
     0
171
     0
290
     0
174
     0
 93
        1
 44
0.0
173
     0
291
     1
 45
0.0
  0
VISUALSTYLE
  5
271
102
{ACAD_REACTORS
330
267
102
}
330
267
100
AcDbVisualStyle
  2
Conceptual
 70
     9
 71
     3
 72
     2
 73
     0
 90
        0
 40
-0.6
 41
-30.0
 62
     5
 63
     7
421
 16777215
 74
     2
 91
        2
 64
     7
 65
   257
 75
     1
175
     1
 42
40.0
 92
        8
 66
     7
 43
1.0
 76
     1
 77
     6
 78
     2
 67
     7
 79
     3
170
     0
171
     0
290
     0
174
     0
 93
        1
 44
0.0
173
     0
291
     0
 45
0.0
  0
VISUALSTYLE
  5
272
102
{ACAD_REACTORS
330
267
102
}
330
267
100
AcDbVisualStyle
  2
Dim
 70
    11
 71
     2
 72
     2
 73
     0
 90
        0
 40
-0.6
 41
-30.0
 62
     5
 63
     7
421
 16777215
 74
     1
 91
        4
 64
     7
 65
   257
 75
     1
175
     1
 42
1.0
 92
        8
 66
     7
 43
1.0
 76
     1
 77
     6
 78
     2
 67
     7
 79
     5
170
     0
171
     0
290
     0
174
     0
 93
        1
 44
-50.0
173
     0
291
     1
 45
0.0
  0
VISUALSTYLE
  5
8FE
102
{ACAD_REACTORS
330
267
102
}
330
267
100
AcDbVisualStyle
  2
EdgeColorOff
 70
    22
 71
     2
 72
     2
 73
     0
 90
        0
 40
0.6
 41
30.0
 62
     5
 63
     7
421
 16777215
 74
     1
 91
        4
 64
     7
 65
   257
 75
     1
175
     1
 42
1.0
 92
        8
 66
     7
 43
1.0
 76
     1
 77
     6
 78
     2
 67
     7
 79
     5
170
     0
171
     0
290
     0
174
     0
 93
        1
 44
0.0
173
     0
291
     1
 45
0.0
  0
VISUALSTYLE
  5
276
102
{ACAD_REACTORS
330
267
102
}
330
267
100
AcDbVisualStyle
  2
Facepattern
 70
    15
 71
     2
 72
     2
 73
     0
 90
        0
 40
-0.6
 41
-30.0
 62
     5
 63
     7
421
 16777215
 74
     1
 91
        4
 64
     7
 65
   257
 75
     1
175
     1
 42
1.0
 92
        8
 66
     7
 43
1.0
 76
     1
 77
     6
 78
     2
 67
     7
 79
     5
170
     0
171
     0
290
     0
174
     0
 93
        1
 44
0.0
173
     0
291
     1
 45
0.0
  0
VISUALSTYLE
  5
268
102
{ACAD_REACTORS
330
267
102
}
330
267
100
AcDbVisualStyle
  2
Flat
 70
     0
 71
     2
 72
     1
 73
     1
 90
        2
 40
-0.6
 41
30.0
 62
     5
 63
     7
421
 16777215
 74
     0
 91
        4
 64
     7
 65
   257
 75
     1
175
     1
 42
1.0
 92
        8
 66
     7
 43
1.0
 76
     1
 77
     6
 78
     2
 67
     7
 79
     5
170
     0
171
     0
290
     0
174
     0
 93
       13
 44
0.0
173
     0
291
     1
 45
0.0
  0
VISUALSTYLE
  5
269
102
{ACAD_REACTORS
330
267
102
}
330
267
100
AcDbVisualStyle
  2
FlatWithEdges
 70
     1
 71
     2
 72
     1
 73
     1
 90
        2
 40
-0.6
 41
30.0
 62
     5
 63
     7
421
 16777215
 74
     1
 91
        4
 64
     7
 65
   257
 75
     1
175
     1
 42
1.0
 92
        0
 66
   257
 43
1.0
 76
     1
 77
     6
 78
     2
 67
     7
 79
     5
170
     0
171
     0
290
     0
174
     0
 93
       13
 44
0.0
173
     0
291
     1
 45
0.0
  0
VISUALSTYLE
  5
26A
102
{ACAD_REACTORS
330
267
102
}
330
267
100
AcDbVisualStyle
  2
Gouraud
 70
     2
 71
     2
 72
     2
 73
     1
 90
        2
 40
-0.6
 41
30.0
 62
     5
 63
     7
421
 16777215
 74
     0
 91
        4
 64
     7
 65
   257
 75
     1
175
     1
 42
1.0
 92
        0
 66
     7
 43
1.0
 76
     1
 77
     6
 78
     2
 67
     7
 79
     5
170
     0
171
     0
290
     0
174
     0
 93
       13
 44
0.0
173
     0
291
     1
 45
0.0
  0
VISUALSTYLE
  5
26B
102
{ACAD_REACTORS
330
267
102
}
330
267
100
AcDbVisualStyle
  2
GouraudWithEdges
 70
     3
 71
     2
 72
     2
 73
     1
 90
        2
 40
-0.6
 41
30.0
 62
     5
 63
     7
421
 16777215
 74
     1
 91
        4
 64
     7
 65
   257
 75
     1
175
     1
 42
1.0
 92
        0
 66
   257
 43
1.0
 76
     1
 77
     6
 78
     2
 67
     7
 79
     5
170
     0
171
     0
290
     0
174
     0
 93
       13
 44
0.0
173
     0
291
     1
 45
0.0
  0
VISUALSTYLE
  5
8FB
102
{ACAD_REACTORS
330
267
102
}
330
267
100
AcDbVisualStyle
  2
Hidden
 70
     6
 71
     1
 72
     2
 73
     2
 90
        0
 40
0.6
 41
30.0
 62
     5
 63
     7
421
 16777215
 74
     2
 91
        2
 64
     7
 65
   257
 75
     2
175
     1
 42
40.0
 92
        0
 66
   257
 43
1.0
 76
     1
 77
     6
 78
     2
 67
     7
 79
     3
170
     0
171
     0
290
     0
174
     0
 93
        1
 44
0.0
173
     0
291
     0
 45
0.0
  0
VISUALSTYLE
  5
8FC
102
{ACAD_REACTORS
330
267
102
}
330
267
100
AcDbVisualStyle
  2
JitterOff
 70
    20
 71
     2
 72
     2
 73
     0
 90
        0
 40
0.6
 41
30.0
 62
     5
 63
     7
421
 16777215
 74
     1
 91
        4
 64
     7
 65
   257
 75
     1
175
     1
 42
1.0
 92
       10
 66
     7
 43
1.0
 76
     1
 77
     6
 78
     2
 67
     7
 79
     5
170
     0
171
     0
290
     0
174
     0
 93
        1
 44
0.0
173
     0
291
     1
 45
0.0
  0
VISUALSTYLE
  5
275
102
{ACAD_REACTORS
330
267
102
}
330
267
100
AcDbVisualStyle
  2
Linepattern
 70
    14
 71
     2
 72
     2
 73
     0
 90
        0
 40
-0.6
 41
-30.0
 62
     5
 63
     7
421
 16777215
 74
     1
 91
        4
 64
     7
 65
   257
 75
     7
175
     7
 42
1.0
 92
        8
 66
     7
 43
1.0
 76
     1
 77
     6
 78
     2
 67
     7
 79
     5
170
     0
171
     0
290
     0
174
     0
 93
        1
 44
0.0
173
     0
291
     1
 45
0.0
  0
VISUALSTYLE
  5
8FD
102
{ACAD_REACTORS
330
267
102
}
330
267
100
AcDbVisualStyle
  2
OverhangOff
 70
    21
 71
     2
 72
     2
 73
     0
 90
        0
 40
0.6
 41
30.0
 62
     5
 63
     7
421
 16777215
 74
     1
 91
        4
 64
     7
 65
   257
 75
     1
175
     1
 42
1.0
 92
        9
 66
     7
 43
1.0
 76
     1
 77
     6
 78
     2
 67
     7
 79
     5
170
     0
171
     0
290
     0
174
     0
 93
        1
 44
0.0
173
     0
291
     1
 45
0.0
  0
VISUALSTYLE
  5
270
102
{ACAD_REACTORS
330
267
102
}
330
267
100
AcDbVisualStyle
  2
Realistic
 70
     8
 71
     2
 72
     2
 73
     0
 90
        0
 40
-0.6
 41
-30.0
 62
     5
 63
     7
421
 16777215
 74
     1
 91
        0
 64
     7
 65
   257
 75
     1
175
     1
 42
1.0
 92
        8
 66
     8
424
  7895160
 43
1.0
 76
     1
 77
     6
 78
     2
 67
     7
 79
     5
170
     0
171
     0
290
     0
174
     0
 93
       13
 44
0.0
173
     0
291
     0
 45
0.0
  0
VISUALSTYLE
  5
903
102
{ACAD_REACTORS
330
267
102
}
330
267
100
AcDbVisualStyle
  2
Shaded
 70
    27
 71
     2
 72
     2
 73
     1
 90
        2
 40
0.6
 41
30.0
 62
     5
 63
     7
421
 16777215
 74
     0
 91
        4
 64
     7
 65
   257
 75
     1
175
     1
 42
1.0
 92
        8
 66
   257
 43
1.0
 76
     1
 77
     6
 78
     2
 67
     8
425
  7895160
 79
     3
170
     0
171
     0
290
     0
174
     0
 93
        5
 44
0.0
173
     0
291
     0
 45
0.0
  0
VISUALSTYLE
  5
902
102
{ACAD_REACTORS
330
267
102
}
330
267
100
AcDbVisualStyle
  2
Shaded with edges
 70
    26
 71
     2
 72
     2
 73
     1
 90
        2
 40
0.6
 41
30.0
 62
     5
 63
     7
421
 16777215
 74
     1
 91
       10
 64
     7
 65
   257
 75
     2
175
     1
 42
1.0
 92
        8
 66
   257
 43
1.0
 76
     1
 77
     6
 78
     2
 67
     7
 79
     3
170
     0
171
     0
290
     0
174
     0
 93
        5
 44
0.0
173
     0
291
     0
 45
0.0
  0
VISUALSTYLE
  5
8FF
102
{ACAD_REACTORS
330
267
102
}
330
267
100
AcDbVisualStyle
  2
Shades of Gray
 70
    23
 71
     2
 72
     2
 73
     3
 90
        0
 40
0.6
 41
30.0
 62
     5
 63
     7
421
 16777215
 74
     2
 91
        2
 64
     7
 65
     7
 75
     1
175
     1
 42
40.0
 92
        8
 66
     7
 43
1.0
 76
     1
 77
     6
 78
     2
 67
     7
 79
     3
170
     0
171
     0
290
     0
174
     0
 93
        1
 44
0.0
173
     0
291
     0
 45
0.0
  0
VISUALSTYLE
  5
900
102
{ACAD_REACTORS
330
267
102
}
330
267
100
AcDbVisualStyle
  2
Sketchy
 70
    24
 71
     1
 72
     2
 73
     2
 90
        0
 40
0.6
 41
30.0
 62
     5
 63
     7
421
 16777215
 74
     2
 91
        2
 64
     7
 65
     7
 75
     1
175
     1
 42
40.0
 92
       11
 66
     7
 43
1.0
 76
     1
 77
     6
 78
     2
 67
     7
 79
     6
170
     0
171
     0
290
     0
174
     0
 93
        1
 44
0.0
173
     0
291
     0
 45
0.0
  0
VISUALSTYLE
  5
274
102
{ACAD_REACTORS
330
267
102
}
330
267
100
AcDbVisualStyle
  2
Thicken
 70
    13
 71
     2
 72
     2
 73
     0
 90
        0
 40
-0.6
 41
-30.0
 62
     5
 63
     7
421
 16777215
 74
     1
 91
        4
 64
     7
 65
   257
 75
     1
175
     1
 42
1.0
 92
       12
 66
     7
 43
1.0
 76
     1
 77
     6
 78
     2
 67
     7
 79
     5
170
     0
171
     0
290
     0
174
     0
 93
        1
 44
0.0
173
     0
291
     1
 45
0.0
  0
VISUALSTYLE
  5
8FA
102
{ACAD_REACTORS
330
267
102
}
330
267
100
AcDbVisualStyle
  2
Wireframe
 70
     5
 71
     0
 72
     2
 73
     0
 90
        0
 40
0.6
 41
30.0
 62
     5
 63
     7
421
 16777215
 74
     1
 91
        4
 64
     7
 65
   257
 75
     1
175
     1
 42
1.0
 92
        0
 66
   257
 43
1.0
 76
     1
 77
     6
 78
     2
 67
     7
 79
     3
170
     0
171
     0
290
     0
174
     0
 93
        1
 44
0.0
173
     0
291
     0
 45
0.0
  0
VISUALSTYLE
  5
901
102
{ACAD_REACTORS
330
267
102
}
330
267
100
AcDbVisualStyle
  2
X-Ray
 70
    25
 71
     2
 72
     2
 73
     1
 90
        1
 40
0.5
 41
30.0
 62
     5
 63
     7
421
 16777215
 74
     1
 91
        0
 64
     7
 65
   257
 75
     1
175
     1
 42
1.0
 92
        8
 66
     7
 43
1.0
 76
     1
 77
     6
 78
     2
 67
     7
 79
     3
170
     0
171
     0
290
     0
174
     0
 93
       13
 44
0.0
173
     0
291
     0
 45
0.0
  0
DICTIONARYVAR
  5
331
102
{ACAD_REACTORS
330
330
102
}
330
330
100
DictionaryVariables
280
     0
  1
1:1
  0
DICTIONARYVAR
  5
DB1
102
{ACAD_REACTORS
330
330
102
}
330
330
100
DictionaryVariables
280
     0
  1
Standard
  0
DICTIONARYVAR
  5
335
102
{ACAD_REACTORS
330
330
102
}
330
330
100
DictionaryVariables
280
     0
  1
Standard
  0
DICTIONARYVAR
  5
D52
102
{ACAD_REACTORS
330
330
102
}
330
330
100
DictionaryVariables
280
     0
  1
ByLayer
  0
DICTIONARYVAR
  5
896
102
{ACAD_REACTORS
330
330
102
}
330
330
100
DictionaryVariables
280
     0
  1
0
  0
DICTIONARYVAR
  5
ECE
102
{ACAD_REACTORS
330
E3E
102
}
330
E3E
100
DictionaryVariables
280
     0
  1
0.261799
  0
DICTIONARYVAR
  5
ECC
102
{ACAD_REACTORS
330
E3E
102
}
330
E3E
100
DictionaryVariables
280
     0
  1
0.400000
  0
DICTIONARYVAR
  5
ECD
102
{ACAD_REACTORS
330
E3E
102
}
330
E3E
100
DictionaryVariables
280
     0
  1
0.250000
  0
DICTIONARYVAR
  5
ECF
102
{ACAD_REACTORS
330
E3E
102
}
330
E3E
100
DictionaryVariables
280
     0
  1
1
  0
FIELD
  5
1467
102
{ACAD_REACTORS
330
479B
330
47F1
102
}
330
47F1
100
AcDbField
  1
_text
  2
{%<\_FldIdx 0>%N}
 90
        1
360
146B
 97
        0
 91
       63
 92
        0
 94
       11
 95
        2
 96
        0
300

 93
        1
  6
ACFD_FIELDTEXT_CHECKSUM
 93
        2
 90
        2
140
4544.0
 94
        0
300

302

304
ACVALUE_END
  7
ACFD_FIELD_VALUE
 93
        6
 90
        4
  1
{20191128N}
 94
        0
300

302

304
ACVALUE_END
301
{20191128N}
 98
       11
  0
DICTIONARY
  5
47FB
330
279
100
AcDbDictionary
280
     1
281
     1
  3
ACAD_ROUNDTRIP_2008_TABLESTYLE_CELLSTYLEMAP
360
47FC
  0
FIELD
  5
146B
330
1467
100
AcDbField
  1
AcVar
  2
\AcVar Date \f "yyyyMMdd"
 90
        0
 97
        0
 91
       63
 92
        0
 94
        8
 95
       64
 96
        0
300
Variable not supported
 93
        1
  6
Variable
 93
        2
 90
        4
  1
Date
 94
        0
300

302

304
ACVALUE_END
  7
ACFD_FIELD_VALUE
 93
        6
 90
        8
 92
       16
310
E3070B0000001C0009002B0003000000
 94
        0
300
yyyyMMdd
302

304
ACVALUE_END
301
20191128
 98
        8
  0
CELLSTYLEMAP
  5
47FC
102
{ACAD_REACTORS
330
47FB
102
}
330
47FB
100
AcDbCellStyleMap
 90
        3
300
CELLSTYLE
  1
TABLEFORMAT_BEGIN
 90
        5
170
     1
 91
        0
 92
    32768
 62
   257
 93
        1
300
CONTENTFORMAT
  1
CONTENTFORMAT_BEGIN
 90
        0
 91
        0
 92
        4
 93
        0
300

 40
0.0
140
1.0
 94
        5
 62
     0
340
17
144
6.0
309
CONTENTFORMAT_END
171
     1
301
MARGIN
  1
CELLMARGIN_BEGIN
 40
0.06
 40
0.06
 40
0.06
 40
0.06
 40
0.18
 40
0.18
309
CELLMARGIN_END
 94
        6
 95
        1
302
GRIDFORMAT
  1
GRIDFORMAT_BEGIN
 90
        0
 91
        1
 62
     0
 92
       -2
340
0
 93
        0
 40
0.045
309
GRIDFORMAT_END
 95
        2
302
GRIDFORMAT
  1
GRIDFORMAT_BEGIN
 90
        0
 91
        1
 62
     0
 92
       -2
340
0
 93
        0
 40
0.045
309
GRIDFORMAT_END
 95
        4
302
GRIDFORMAT
  1
GRIDFORMAT_BEGIN
 90
        0
 91
        1
 62
     0
 92
       -2
340
0
 93
        0
 40
0.045
309
GRIDFORMAT_END
 95
        8
302
GRIDFORMAT
  1
GRIDFORMAT_BEGIN
 90
        0
 91
        1
 62
     0
 92
       -2
340
0
 93
        0
 40
0.045
309
GRIDFORMAT_END
 95
       16
302
GRIDFORMAT
  1
GRIDFORMAT_BEGIN
 90
        0
 91
        1
 62
     0
 92
       -2
340
0
 93
        0
 40
0.045
309
GRIDFORMAT_END
 95
       32
302
GRIDFORMAT
  1
GRIDFORMAT_BEGIN
 90
        0
 91
        1
 62
     0
 92
       -2
340
0
 93
        0
 40
0.045
309
GRIDFORMAT_END
309
TABLEFORMAT_END
  1
CELLSTYLE_BEGIN
 90
        1
 91
        1
300
_TITLE
309
CELLSTYLE_END
300
CELLSTYLE
  1
TABLEFORMAT_BEGIN
 90
        5
170
     1
 91
        0
 92
        0
 62
   257
 93
        1
300
CONTENTFORMAT
  1
CONTENTFORMAT_BEGIN
 90
        0
 91
        0
 92
        4
 93
        0
300

 40
0.0
140
1.0
 94
        5
 62
     0
340
17
144
4.5
309
CONTENTFORMAT_END
171
     1
301
MARGIN
  1
CELLMARGIN_BEGIN
 40
0.06
 40
0.06
 40
0.06
 40
0.06
 40
0.18
 40
0.18
309
CELLMARGIN_END
 94
        6
 95
        1
302
GRIDFORMAT
  1
GRIDFORMAT_BEGIN
 90
        0
 91
        1
 62
     0
 92
       -2
340
0
 93
        0
 40
0.045
309
GRIDFORMAT_END
 95
        2
302
GRIDFORMAT
  1
GRIDFORMAT_BEGIN
 90
        0
 91
        1
 62
     0
 92
       -2
340
0
 93
        0
 40
0.045
309
GRIDFORMAT_END
 95
        4
302
GRIDFORMAT
  1
GRIDFORMAT_BEGIN
 90
        0
 91
        1
 62
     0
 92
       -2
340
0
 93
        0
 40
0.045
309
GRIDFORMAT_END
 95
        8
302
GRIDFORMAT
  1
GRIDFORMAT_BEGIN
 90
        0
 91
        1
 62
     0
 92
       -2
340
0
 93
        0
 40
0.045
309
GRIDFORMAT_END
 95
       16
302
GRIDFORMAT
  1
GRIDFORMAT_BEGIN
 90
        0
 91
        1
 62
     0
 92
       -2
340
0
 93
        0
 40
0.045
309
GRIDFORMAT_END
 95
       32
302
GRIDFORMAT
  1
GRIDFORMAT_BEGIN
 90
        0
 91
        1
 62
     0
 92
       -2
340
0
 93
        0
 40
0.045
309
GRIDFORMAT_END
309
TABLEFORMAT_END
  1
CELLSTYLE_BEGIN
 90
        2
 91
        1
300
_HEADER
309
CELLSTYLE_END
300
CELLSTYLE
  1
TABLEFORMAT_BEGIN
 90
        5
170
     1
 91
        0
 92
        0
 62
   257
 93
        1
300
CONTENTFORMAT
  1
CONTENTFORMAT_BEGIN
 90
        0
 91
        0
 92
        4
 93
        0
300

 40
0.0
140
1.0
 94
        2
 62
     0
340
17
144
4.5
309
CONTENTFORMAT_END
171
     1
301
MARGIN
  1
CELLMARGIN_BEGIN
 40
0.06
 40
0.06
 40
0.06
 40
0.06
 40
0.18
 40
0.18
309
CELLMARGIN_END
 94
        6
 95
        1
302
GRIDFORMAT
  1
GRIDFORMAT_BEGIN
 90
        0
 91
        1
 62
     0
 92
       -2
340
0
 93
        0
 40
0.045
309
GRIDFORMAT_END
 95
        2
302
GRIDFORMAT
  1
GRIDFORMAT_BEGIN
 90
        0
 91
        1
 62
     0
 92
       -2
340
0
 93
        0
 40
0.045
309
GRIDFORMAT_END
 95
        4
302
GRIDFORMAT
  1
GRIDFORMAT_BEGIN
 90
        0
 91
        1
 62
     0
 92
       -2
340
0
 93
        0
 40
0.045
309
GRIDFORMAT_END
 95
        8
302
GRIDFORMAT
  1
GRIDFORMAT_BEGIN
 90
        0
 91
        1
 62
     0
 92
       -2
340
0
 93
        0
 40
0.045
309
GRIDFORMAT_END
 95
       16
302
GRIDFORMAT
  1
GRIDFORMAT_BEGIN
 90
        0
 91
        1
 62
     0
 92
       -2
340
0
 93
        0
 40
0.045
309
GRIDFORMAT_END
 95
       32
302
GRIDFORMAT
  1
GRIDFORMAT_BEGIN
 90
        0
 91
        1
 62
     0
 92
       -2
340
0
 93
        0
 40
0.045
309
GRIDFORMAT_END
309
TABLEFORMAT_END
  1
CELLSTYLE_BEGIN
 90
        3
 91
        2
300
_DATA
309
CELLSTYLE_END
  0
ENDSEC
  0
EOF
