  0
SECTION
  2
HEADER
  9
$ACADVER
  1
AC1021
  9
$ACADMAINTVER
 70
    25
  9
$DWGCODEPAGE
  3
ANSI_932
  9
$LASTSAVEDBY
  1
howeNelson
  9
$INSBASE
 10
0.0
 20
0.0
 30
0.0
  9
$EXTMIN
 10
0.0
 20
0.0
 30
-0.0000000000002274
  9
$EXTMAX
 10
4200.000000000001
 20
5940.000000000001
 30
0.0000000000001137
  9
$LIMMIN
 10
0.0
 20
0.0
  9
$LIMMAX
 10
4200.000000000001
 20
5940.000000000001
  9
$ORTHOMODE
 70
     0
  9
$REGENMODE
 70
     1
  9
$FILLMODE
 70
     1
  9
$QTEXTMODE
 70
     0
  9
$MIRRTEXT
 70
     1
  9
$LTSCALE
 40
5.0
  9
$ATTMODE
 70
     1
  9
$TEXTSIZE
 40
533.0403732820173
  9
$TRACEWID
 40
1.0
  9
$TEXTSTYLE
  7
Standard
  9
$CLAYER
  8
寸法
  9
$CELTYPE
  6
Continuous
  9
$CECOLOR
 62
   256
  9
$CELTSCALE
 40
1.0
  9
$DISPSILH
 70
     0
  9
$DIMSCALE
 40
1.0
  9
$DIMASZ
 40
18.0
  9
$DIMEXO
 40
25.0
  9
$DIMDLI
 40
25.0
  9
$DIMRND
 40
0.0
  9
$DIMDLE
 40
0.0
  9
$DIMEXE
 40
0.0
  9
$DIMTP
 40
0.0
  9
$DIMTM
 40
0.0
  9
$DIMTXT
 40
48.0
  9
$DIMCEN
 40
0.0
  9
$DIMTSZ
 40
0.0
  9
$DIMTOL
 70
     0
  9
$DIMLIM
 70
     0
  9
$DIMTIH
 70
     0
  9
$DIMTOH
 70
     0
  9
$DIMSE1
 70
     0
  9
$DIMSE2
 70
     0
  9
$DIMTAD
 70
     1
  9
$DIMZIN
 70
    11
  9
$DIMBLK
  1
DOT
  9
$DIMASO
 70
     1
  9
$DIMSHO
 70
     1
  9
$DIMPOST
  1
<>
  9
$DIMAPOST
  1
[]
  9
$DIMALT
 70
     0
  9
$DIMALTD
 70
     1
  9
$DIMALTF
 40
1.0
  9
$DIMLFAC
 40
1.0
  9
$DIMTOFL
 70
     0
  9
$DIMTVP
 40
0.0
  9
$DIMTIX
 70
     1
  9
$DIMSOXD
 70
     0
  9
$DIMSAH
 70
     0
  9
$DIMBLK1
  1

  9
$DIMBLK2
  1

  9
$DIMSTYLE
  2
JIS
  9
$DIMCLRD
 70
     0
  9
$DIMCLRE
 70
     0
  9
$DIMCLRT
 70
     0
  9
$DIMTFAC
 40
1.0
  9
$DIMGAP
 40
30.0
  9
$DIMJUST
 70
     0
  9
$DIMSD1
 70
     0
  9
$DIMSD2
 70
     0
  9
$DIMTOLJ
 70
     1
  9
$DIMTZIN
 70
    11
  9
$DIMALTZ
 70
    11
  9
$DIMALTTZ
 70
    11
  9
$DIMUPT
 70
     0
  9
$DIMDEC
 70
     0
  9
$DIMTDEC
 70
     1
  9
$DIMALTU
 70
     2
  9
$DIMALTTD
 70
     2
  9
$DIMTXSTY
  7
ＭＳ ゴシック
  9
$DIMAUNIT
 70
     0
  9
$DIMADEC
 70
     0
  9
$DIMALTRND
 40
0.0
  9
$DIMAZIN
 70
     0
  9
$DIMDSEP
 70
    46
  9
$DIMATFIT
 70
     0
  9
$DIMFRAC
 70
     2
  9
$DIMLDRBLK
  1
DOT
  9
$DIMLUNIT
 70
     2
  9
$DIMLWD
 70
    -2
  9
$DIMLWE
 70
    -2
  9
$DIMTMOVE
 70
     0
  9
$DIMFXL
 40
1.0
  9
$DIMFXLON
 70
     0
  9
$DIMJOGANG
 40
0.7853981633974483
  9
$DIMTFILL
 70
     0
  9
$DIMTFILLCLR
 70
     0
  9
$DIMARCSYM
 70
     0
  9
$DIMLTYPE
  6

  9
$DIMLTEX1
  6

  9
$DIMLTEX2
  6

  9
$LUNITS
 70
     2
  9
$LUPREC
 70
     0
  9
$SKETCHINC
 40
0.1
  9
$FILLETRAD
 40
0.0
  9
$AUNITS
 70
     0
  9
$AUPREC
 70
     0
  9
$MENU
  1
acad
  9
$ELEVATION
 40
0.0
  9
$PELEVATION
 40
0.0
  9
$THICKNESS
 40
0.0
  9
$LIMCHECK
 70
     0
  9
$CHAMFERA
 40
0.0
  9
$CHAMFERB
 40
0.0
  9
$CHAMFERC
 40
0.0
  9
$CHAMFERD
 40
0.0
  9
$SKPOLY
 70
     0
  9
$TDCREATE
 40
2447893.375
  9
$TDUCREATE
 40
0.0
  9
$TDUPDATE
 40
2457863.665312998
  9
$TDUUPDATE
 40
2457863.290312998
  9
$TDINDWG
 40
0.2757484144
  9
$TDUSRTIMER
 40
2457863.287583403
  9
$USRTIMER
 70
     1
  9
$ANGBASE
 50
0.0
  9
$ANGDIR
 70
     0
  9
$PDMODE
 70
     1
  9
$PDSIZE
 40
-2.0
  9
$PLINEWID
 40
0.0
  9
$SPLFRAME
 70
     0
  9
$SPLINETYPE
 70
     6
  9
$SPLINESEGS
 70
     8
  9
$HANDSEED
  5
983D
  9
$SURFTAB1
 70
     6
  9
$SURFTAB2
 70
     6
  9
$SURFTYPE
 70
     6
  9
$SURFU
 70
     6
  9
$SURFV
 70
     6
  9
$UCSBASE
  2

  9
$UCSNAME
  2

  9
$UCSORG
 10
0.0
 20
0.0
 30
0.0
  9
$UCSXDIR
 10
1.0
 20
0.0
 30
0.0
  9
$UCSYDIR
 10
0.0
 20
1.0
 30
0.0
  9
$UCSORTHOREF
  2

  9
$UCSORTHOVIEW
 70
     0
  9
$UCSORGTOP
 10
0.0
 20
0.0
 30
0.0
  9
$UCSORGBOTTOM
 10
0.0
 20
0.0
 30
0.0
  9
$UCSORGLEFT
 10
0.0
 20
0.0
 30
0.0
  9
$UCSORGRIGHT
 10
0.0
 20
0.0
 30
0.0
  9
$UCSORGFRONT
 10
0.0
 20
0.0
 30
0.0
  9
$UCSORGBACK
 10
0.0
 20
0.0
 30
0.0
  9
$PUCSBASE
  2

  9
$PUCSNAME
  2

  9
$PUCSORG
 10
0.0
 20
0.0
 30
0.0
  9
$PUCSXDIR
 10
1.0
 20
0.0
 30
0.0
  9
$PUCSYDIR
 10
0.0
 20
1.0
 30
0.0
  9
$PUCSORTHOREF
  2

  9
$PUCSORTHOVIEW
 70
     0
  9
$PUCSORGTOP
 10
0.0
 20
0.0
 30
0.0
  9
$PUCSORGBOTTOM
 10
0.0
 20
0.0
 30
0.0
  9
$PUCSORGLEFT
 10
0.0
 20
0.0
 30
0.0
  9
$PUCSORGRIGHT
 10
0.0
 20
0.0
 30
0.0
  9
$PUCSORGFRONT
 10
0.0
 20
0.0
 30
0.0
  9
$PUCSORGBACK
 10
0.0
 20
0.0
 30
0.0
  9
$USERI1
 70
     0
  9
$USERI2
 70
     0
  9
$USERI3
 70
     0
  9
$USERI4
 70
     0
  9
$USERI5
 70
     0
  9
$USERR1
 40
0.0
  9
$USERR2
 40
0.0
  9
$USERR3
 40
0.0
  9
$USERR4
 40
0.0
  9
$USERR5
 40
0.0
  9
$WORLDVIEW
 70
     1
  9
$SHADEDGE
 70
     3
  9
$SHADEDIF
 70
    70
  9
$TILEMODE
 70
     1
  9
$MAXACTVP
 70
    64
  9
$PINSBASE
 10
0.0
 20
0.0
 30
0.0
  9
$PLIMCHECK
 70
     0
  9
$PEXTMIN
 10
0.0
 20
0.0
 30
0.0
  9
$PEXTMAX
 10
0.0
 20
0.0
 30
0.0
  9
$PLIMMIN
 10
-95.87226993865028
 20
-25.69999999999999
  9
$PLIMMAX
 10
201.1277300613497
 20
184.3
  9
$UNITMODE
 70
     0
  9
$VISRETAIN
 70
     0
  9
$PLINEGEN
 70
     1
  9
$PSLTSCALE
 70
     0
  9
$TREEDEPTH
 70
  3020
  9
$CMLSTYLE
  2
Standard
  9
$CMLJUST
 70
     0
  9
$CMLSCALE
 40
1.0
  9
$PROXYGRAPHICS
 70
     0
  9
$MEASUREMENT
 70
     1
  9
$CELWEIGHT
370
    -1
  9
$ENDCAPS
280
     0
  9
$JOINSTYLE
280
     0
  9
$LWDISPLAY
290
     1
  9
$INSUNITS
 70
     4
  9
$HYPERLINKBASE
  1

  9
$STYLESHEET
  1

  9
$XEDIT
290
     1
  9
$CEPSNTYPE
380
     0
  9
$PSTYLEMODE
290
     1
  9
$FINGERPRINTGUID
  2

  9
$VERSIONGUID
  2

  9
$EXTNAMES
290
     1
  9
$PSVPSCALE
 40
0.0
  9
$OLESTARTUP
290
     0
  9
$SORTENTS
280
   127
  9
$INDEXCTL
280
     0
  9
$HIDETEXT
280
     1
  9
$XCLIPFRAME
290
     0
  9
$HALOGAP
280
     0
  9
$OBSCOLOR
 70
   257
  9
$OBSLTYPE
280
     0
  9
$INTERSECTIONDISPLAY
280
     0
  9
$INTERSECTIONCOLOR
 70
   257
  9
$DIMASSOC
280
     2
  9
$PROJECTNAME
  1

  9
$CAMERADISPLAY
290
     0
  9
$LENSLENGTH
 40
50.0
  9
$CAMERAHEIGHT
 40
0.0
  9
$STEPSPERSEC
 40
2.0
  9
$STEPSIZE
 40
6.0
  9
$3DDWFPREC
 40
2.0
  9
$PSOLWIDTH
 40
0.25
  9
$PSOLHEIGHT
 40
4.0
  9
$LOFTANG1
 40
1.570796326794897
  9
$LOFTANG2
 40
1.570796326794897
  9
$LOFTMAG1
 40
0.0
  9
$LOFTMAG2
 40
0.0
  9
$LOFTPARAM
 70
     7
  9
$LOFTNORMALS
280
     1
  9
$LATITUDE
 40
37.795
  9
$LONGITUDE
 40
-122.394
  9
$NORTHDIRECTION
 40
0.0
  9
$TIMEZONE
 70
 -8000
  9
$LIGHTGLYPHDISPLAY
280
     1
  9
$TILEMODELIGHTSYNCH
280
     1
  9
$SOLIDHIST
280
     1
  9
$SHOWHIST
280
     1
  9
$DWFFRAME
280
     2
  9
$DGNFRAME
280
     2
  9
$REALWORLDSCALE
290
     1
  9
$INTERFERECOLOR
 62
   256
  9
$CSHADOW
280
     0
  9
$SHADOWPLANELOCATION
 40
0.0
  0
ENDSEC
  0
SECTION
  2
CLASSES
  0
CLASS
  1
LWPOLYLINE
  2
AcDbPolyline
  3
ObjectDBX Classes
 90
        0
 91
        1
280
     0
281
     1
  0
CLASS
  1
IMAGE
  2
AcDbRasterImage
  3
ISM
 90
      127
 91
        5
280
     0
281
     1
  0
CLASS
  1
OLE2FRAME
  2
AcDbOle2Frame
  3
ObjectDBX Classes
 90
        0
 91
        1
280
     0
281
     1
  0
CLASS
  1
HATCH
  2
AcDbHatch
  3
ObjectDBX Classes
 90
        0
 91
        1
280
     0
281
     1
  0
CLASS
  1
DICTIONARYVAR
  2
AcDbDictionaryVar
  3
ObjectDBX Classes
 90
        0
 91
        4
280
     0
281
     0
  0
CLASS
  1
RASTERVARIABLES
  2
AcDbRasterVariables
  3
ISM
 90
        0
 91
        4
280
     0
281
     0
  0
CLASS
  1
IMAGEDEF
  2
AcDbRasterImageDef
  3
ISM
 90
        0
 91
        4
280
     0
281
     0
  0
CLASS
  1
IMAGEDEF_REACTOR
  2
AcDbRasterImageDefReactor
  3
ISM
 90
        1
 91
        4
280
     0
281
     0
  0
CLASS
  1
IDBUFFER
  2
AcDbIdBuffer
  3
ObjectDBX Classes
 90
        0
 91
        4
280
     0
281
     0
  0
CLASS
  1
SPATIAL_FILTER
  2
AcDbSpatialFilter
  3
ObjectDBX Classes
 90
        0
 91
        4
280
     0
281
     0
  0
CLASS
  1
XRECORD
  2
AcDbXrecord
  3
ObjectDBX Classes
 90
        0
 91
        1
280
     0
281
     0
  0
CLASS
  1
SORTENTSTABLE
  2
AcDbSortentsTable
  3
ObjectDBX Classes
 90
        0
 91
        4
280
     0
281
     0
  0
CLASS
  1
LAYER_INDEX
  2
AcDbLayerIndex
  3
ObjectDBX Classes
 90
        0
 91
        4
280
     0
281
     0
  0
CLASS
  1
SPATIAL_INDEX
  2
AcDbSpatialIndex
  3
AutoCAD 2000
 90
        0
 91
        4
280
     0
281
     0
  0
CLASS
  1
OBJECT_PTR
  2
CAseDLPNTableRecord
  3
ASE-LPNTableRecord
 90
        1
 91
        4
280
     0
281
     0
  0
CLASS
  1
LAYOUT
  2
AcDbLayout
  3
ObjectDBX Classes
 90
        0
 91
        1
280
     0
281
     0
  0
CLASS
  1
PLOTSETTINGS
  2
AcDbPlotSettings
  3
ObjectDBX Classes
 90
        0
 91
        4
280
     0
281
     0
  0
CLASS
  1
ACDBDICTIONARYWDFLT
  2
AcDbDictionaryWithDefault
  3
ObjectDBX Classes
 90
        0
 91
        4
280
     0
281
     0
  0
CLASS
  1
ACDBPLACEHOLDER
  2
AcDbPlaceHolder
  3
ObjectDBX Classes
 90
        0
 91
        1
280
     0
281
     0
  0
CLASS
  1
SCALE
  2
AcDbScale
  3
ObjectDBX Classes
 90
     1153
 91
        4
280
     0
281
     0
  0
CLASS
  1
MATERIAL
  2
AcDbMaterial
  3
ObjectDBX Classes
 90
     1153
 91
        4
280
     0
281
     0
  0
CLASS
  1
VISUALSTYLE
  2
AcDbVisualStyle
  3
ObjectDBX Classes
 90
     4095
 91
        4
280
     0
281
     0
  0
CLASS
  1
TABLESTYLE
  2
AcDbTableStyle
  3
ObjectDBX Classes
 90
     4095
 91
        4
280
     0
281
     0
  0
CLASS
  1
DIMASSOC
  2
AcDbDimAssoc
  3
"AcDbDimAssoc|Product Desc:     AcDim ARX App For Dimension|Company:          Autodesk, Inc.|WEB Address:      www.autodesk.com"
 90
        0
 91
        4
280
     0
281
     0
  0
CLASS
  1
CELLSTYLEMAP
  2
AcDbCellStyleMap
  3
ObjectDBX Classes
 90
     1152
 91
        4
280
     0
281
     0
  0
CLASS
  1
SUN
  2
AcDbSun
  3
SCENEOE
 90
     1153
 91
        4
280
     0
281
     0
  0
CLASS
  1
MLEADERSTYLE
  2
AcDbMLeaderStyle
  3
ACDB_MLEADERSTYLE_CLASS
 90
     4095
 91
        4
280
     0
281
     0
  0
CLASS
  1
FIELD
  2
AcDbField
  3
ObjectDBX Classes
 90
     1152
 91
        4
280
     0
281
     0
  0
CLASS
  1
FIELDLIST
  2
AcDbFieldList
  3
ObjectDBX Classes
 90
     1152
 91
        4
280
     0
281
     0
  0
ENDSEC
  0
SECTION
  2
TABLES
  0
TABLE
  2
VPORT
  5
7
330
0
100
AcDbSymbolTable
 70
     1
  0
VPORT
  5
15
330
7
100
AcDbSymbolTableRecord
100
AcDbViewportTableRecord
  2
*ACTIVE
 70
     0
 10
0.0
 20
0.0
 11
1.0
 21
1.0
 12
1568.046423173968
 22
3024.908751102676
 13
0.0
 23
0.0
 14
1.0
 24
1.0
 15
0.0
 25
0.0
 16
0.0
 26
0.0
 36
1.0
 17
531.9535768260321
 27
-54.90875110267552
 37
-796.100446371116
 40
6058.800000000001
 41
2.295518207282913
 42
50.0
 43
0.0
 44
0.0
 50
0.0
 51
0.0
 71
    16
 72
  2000
 73
     1
 74
     1
 75
     0
 76
     0
 77
     0
 78
     0
281
     0
 65
     1
110
0.0
120
0.0
130
0.0
111
1.0
121
0.0
131
0.0
112
0.0
122
1.0
132
0.0
 79
     0
146
0.0
348
26C
 60
     3
 61
     5
292
     1
282
     1
141
0.0
142
0.0
 63
   256
361
BE4
  0
ENDTAB
  0
TABLE
  2
LTYPE
  5
4
330
0
100
AcDbSymbolTable
 70
     3
  0
LTYPE
  5
11
330
4
100
AcDbSymbolTableRecord
100
AcDbLinetypeTableRecord
  2
ByBlock
 70
     0
  3

 72
    65
 73
     0
 40
0.0
  0
LTYPE
  5
12
330
4
100
AcDbSymbolTableRecord
100
AcDbLinetypeTableRecord
  2
ByLayer
 70
     0
  3

 72
    65
 73
     0
 40
0.0
  0
LTYPE
  5
13
330
4
100
AcDbSymbolTableRecord
100
AcDbLinetypeTableRecord
  2
Continuous
 70
     0
  3
Solid line
 72
    65
 73
     0
 40
0.0
  0
LTYPE
  5
1A38
330
4
100
AcDbSymbolTableRecord
100
AcDbLinetypeTableRecord
  2
HIDDEN
 70
     0
  3
Hidden _ _ _ _ _ _ _ _ _ _ _ _ _ _ _ _ _ _ _ _ 
 72
    65
 73
     2
 40
9.524999999999999
 49
6.35
 74
     0
 49
-3.175
 74
     0
  0
LTYPE
  5
97EB
330
4
100
AcDbSymbolTableRecord
100
AcDbLinetypeTableRecord
  2
BORDER
 70
     0
  3
Border __  __  . __  __  . __  __  . __  __  . 
 72
    65
 73
     6
 40
44.45
 49
12.7
 74
     0
 49
-6.35
 74
     0
 49
12.7
 74
     0
 49
-6.35
 74
     0
 49
0.0
 74
     0
 49
-6.35
 74
     0
  0
ENDTAB
  0
TABLE
  2
LAYER
  5
2
102
{ACAD_XDICTIONARY
360
2E1
102
}
330
0
100
AcDbSymbolTable
 70
     9
  0
LAYER
  5
14
330
2
100
AcDbSymbolTableRecord
100
AcDbLayerTableRecord
  2
0
 70
     0
 62
     7
  6
Continuous
370
    -3
390
1D
347
266
  0
LAYER
  5
4A
330
2
100
AcDbSymbolTableRecord
100
AcDbLayerTableRecord
  2
Defpoints
 70
     0
 62
     7
  6
Continuous
290
     0
370
    13
390
1D
347
266
  0
LAYER
  5
4B
330
2
100
AcDbSymbolTableRecord
100
AcDbLayerTableRecord
  2
TEMPLATE
 70
     0
 62
     7
  6
Continuous
370
    20
390
1D
347
266
  0
LAYER
  5
4D
330
2
100
AcDbSymbolTableRecord
100
AcDbLayerTableRecord
  2
HIDDEN
 70
     0
 62
   252
  6
HIDDEN
370
    20
390
1D
347
266
  0
LAYER
  5
382
330
2
100
AcDbSymbolTableRecord
100
AcDbLayerTableRecord
  2
LOGO
 70
     0
 62
     7
  6
Continuous
370
    -3
390
1D
347
266
  0
LAYER
  5
3A55
330
2
100
AcDbSymbolTableRecord
100
AcDbLayerTableRecord
  2
寸法
 70
     0
 62
     3
  6
Continuous
370
    13
390
1D
347
266
1001
AcAecLayerStandard
1000

1000

  0
LAYER
  5
3A56
330
2
100
AcDbSymbolTableRecord
100
AcDbLayerTableRecord
  2
モデル
 70
     0
 62
     7
  6
Continuous
370
    20
390
1D
347
266
1001
AcAecLayerStandard
1000

1000

  0
LAYER
  5
9265
330
2
100
AcDbSymbolTableRecord
100
AcDbLayerTableRecord
  2
STANDARD
 70
     0
 62
     7
  6
Continuous
370
    -3
390
1D
347
266
  0
LAYER
  5
97EA
330
2
100
AcDbSymbolTableRecord
100
AcDbLayerTableRecord
  2
BORDER
 70
     0
 62
     4
  6
BORDER
290
     0
370
    20
390
1D
347
266
1001
AcAecLayerStandard
1000

1000

  0
ENDTAB
  0
TABLE
  2
STYLE
  5
3
330
0
100
AcDbSymbolTable
 70
     2
  0
STYLE
  5
17
330
3
100
AcDbSymbolTableRecord
100
AcDbTextStyleTableRecord
  2
Standard
 70
     0
 40
0.0
 41
1.0
 50
0.0
 71
     0
 42
533.0403732820173
  3
txt
  4
BIGFONT.SHX
  0
STYLE
  5
39
330
3
100
AcDbSymbolTableRecord
100
AcDbTextStyleTableRecord
  2
ＭＳ ゴシック
 70
     0
 40
0.0
 41
1.0
 50
0.0
 71
     0
 42
533.0403732820173
  3
msgothic.ttc
  4
ＭＳ ゴシック
1001
ACAD
1000
ＭＳ ゴシック
1071
        0
  0
ENDTAB
  0
TABLE
  2
VIEW
  5
5
330
0
100
AcDbSymbolTable
 70
     0
  0
ENDTAB
  0
TABLE
  2
UCS
  5
6
330
0
100
AcDbSymbolTable
 70
     0
  0
ENDTAB
  0
TABLE
  2
APPID
  5
8
330
0
100
AcDbSymbolTable
 70
     7
  0
APPID
  5
16
330
8
100
AcDbSymbolTableRecord
100
AcDbRegAppTableRecord
  2
ACAD
 70
     0
  0
APPID
  5
5C5
330
8
100
AcDbSymbolTableRecord
100
AcDbRegAppTableRecord
  2
AcAecLayerStandard
 70
     0
  0
APPID
  5
694
330
8
100
AcDbSymbolTableRecord
100
AcDbRegAppTableRecord
  2
ACAD_DSTYLE_DIMJAG
 70
     0
  0
APPID
  5
695
330
8
100
AcDbSymbolTableRecord
100
AcDbRegAppTableRecord
  2
ACAD_DSTYLE_DIMTALN
 70
     0
  0
APPID
  5
69A
330
8
100
AcDbSymbolTableRecord
100
AcDbRegAppTableRecord
  2
ACAD_PSEXT
 70
     0
  0
APPID
  5
9257
330
8
100
AcDbSymbolTableRecord
100
AcDbRegAppTableRecord
  2
ACAD_MLEADERVER
 70
     0
  0
APPID
  5
980D
330
8
100
AcDbSymbolTableRecord
100
AcDbRegAppTableRecord
  2
ACAD_DSTYLE_DIMRADIAL_EXTENSION
 70
     0
  0
ENDTAB
  0
TABLE
  2
DIMSTYLE
  5
9
330
0
100
AcDbSymbolTable
 70
     2
100
AcDbDimStyleTable
  0
DIMSTYLE
105
18
330
9
100
AcDbSymbolTableRecord
100
AcDbDimStyleTableRecord
  2
Standard
 70
     0
178
     0
340
17
  0
DIMSTYLE
105
5C
102
{ACAD_REACTORS
330
9642
330
9651
330
9663
330
9672
330
9682
330
96A6
330
96B5
330
96C8
330
96D8
330
96E5
330
9703
330
9719
330
9726
330
9738
330
976F
330
980E
102
}
330
9
100
AcDbSymbolTableRecord
100
AcDbDimStyleTableRecord
  2
JIS
 70
     0
  3
<>
  4
[]
 41
9.0
 42
0.0
 43
6.99999999999994
 44
19.9999999999962
 73
     0
 74
     0
 77
     1
 78
    11
140
24.4326171875
141
0.0
143
1.0
147
10.0
171
     1
174
     1
178
     0
179
     2
271
     1
272
     1
276
     2
284
    11
285
    11
286
    11
289
     0
340
39
341
4E
342
4E
  0
ENDTAB
  0
TABLE
  2
BLOCK_RECORD
  5
1
330
0
100
AcDbSymbolTable
 70
    22
  0
BLOCK_RECORD
  5
A
330
1
100
AcDbSymbolTableRecord
100
AcDbBlockTableRecord
  2
*MODEL_SPACE
340
20
 70
     0
280
     1
281
     0
  0
BLOCK_RECORD
  5
B
330
1
100
AcDbSymbolTableRecord
100
AcDbBlockTableRecord
  2
*PAPER_SPACE
340
21
 70
     0
280
     1
281
     0
  0
BLOCK_RECORD
  5
4E
330
1
100
AcDbSymbolTableRecord
100
AcDbBlockTableRecord
  2
_DOT
340
0
102
{BLKREFS
331
964B
331
964C
331
965A
331
965B
331
966C
331
966D
331
967B
331
967C
331
968B
331
968C
331
96AF
331
96B0
331
96BE
331
96BF
331
96CF
331
96D0
331
96DF
331
96E0
331
96EE
331
96EF
331
970C
331
970D
331
9720
331
9721
331
972F
331
9730
331
973F
331
9740
331
9778
331
9779
331
9816
102
}
 70
     0
280
     1
281
     0
  0
BLOCK_RECORD
  5
3A5
330
1
100
AcDbSymbolTableRecord
100
AcDbBlockTableRecord
  2
名称未設定-1
340
0
102
{BLKREFS
331
3D0
102
}
 70
     1
280
     1
281
     0
  0
BLOCK_RECORD
  5
3A8
330
1
100
AcDbSymbolTableRecord
100
AcDbBlockTableRecord
  2
block 2
340
0
102
{BLKREFS
331
3A7
102
}
 70
     0
280
     1
281
     0
  0
BLOCK_RECORD
  5
3AB
330
1
100
AcDbSymbolTableRecord
100
AcDbBlockTableRecord
  2
block 3
340
0
102
{BLKREFS
331
3AA
102
}
 70
     0
280
     1
281
     0
  0
BLOCK_RECORD
  5
3AE
330
1
100
AcDbSymbolTableRecord
100
AcDbBlockTableRecord
  2
block 4
340
0
102
{BLKREFS
331
3AD
102
}
 70
     0
280
     1
281
     0
  0
BLOCK_RECORD
  5
3BD
330
1
100
AcDbSymbolTableRecord
100
AcDbBlockTableRecord
  2
block 5
340
0
102
{BLKREFS
331
3BC
102
}
 70
     0
280
     1
281
     0
  0
BLOCK_RECORD
  5
9645
330
1
100
AcDbSymbolTableRecord
100
AcDbBlockTableRecord
  2
*D6
340
0
 70
     0
280
     1
281
     0
  0
BLOCK_RECORD
  5
9654
330
1
100
AcDbSymbolTableRecord
100
AcDbBlockTableRecord
  2
*D7
340
0
 70
     0
280
     1
281
     0
  0
BLOCK_RECORD
  5
9666
330
1
100
AcDbSymbolTableRecord
100
AcDbBlockTableRecord
  2
*D8
340
0
 70
     0
280
     1
281
     0
  0
BLOCK_RECORD
  5
9675
330
1
100
AcDbSymbolTableRecord
100
AcDbBlockTableRecord
  2
*D9
340
0
 70
     0
280
     1
281
     0
  0
BLOCK_RECORD
  5
9685
330
1
100
AcDbSymbolTableRecord
100
AcDbBlockTableRecord
  2
*D10
340
0
 70
     0
280
     1
281
     0
  0
BLOCK_RECORD
  5
96A9
330
1
100
AcDbSymbolTableRecord
100
AcDbBlockTableRecord
  2
*D11
340
0
 70
     0
280
     1
281
     0
  0
BLOCK_RECORD
  5
96B8
330
1
100
AcDbSymbolTableRecord
100
AcDbBlockTableRecord
  2
*D12
340
0
 70
     0
280
     1
281
     0
  0
BLOCK_RECORD
  5
96C9
330
1
100
AcDbSymbolTableRecord
100
AcDbBlockTableRecord
  2
*D13
340
0
 70
     0
280
     1
281
     0
  0
BLOCK_RECORD
  5
96D9
330
1
100
AcDbSymbolTableRecord
100
AcDbBlockTableRecord
  2
*D14
340
0
 70
     0
280
     1
281
     0
  0
BLOCK_RECORD
  5
96E8
330
1
100
AcDbSymbolTableRecord
100
AcDbBlockTableRecord
  2
*D15
340
0
 70
     0
280
     1
281
     0
  0
BLOCK_RECORD
  5
9706
330
1
100
AcDbSymbolTableRecord
100
AcDbBlockTableRecord
  2
*D16
340
0
 70
     0
280
     1
281
     0
  0
BLOCK_RECORD
  5
971A
330
1
100
AcDbSymbolTableRecord
100
AcDbBlockTableRecord
  2
*D17
340
0
 70
     0
280
     1
281
     0
  0
BLOCK_RECORD
  5
9729
330
1
100
AcDbSymbolTableRecord
100
AcDbBlockTableRecord
  2
*D18
340
0
 70
     0
280
     1
281
     0
  0
BLOCK_RECORD
  5
9739
330
1
100
AcDbSymbolTableRecord
100
AcDbBlockTableRecord
  2
*D19
340
0
 70
     0
280
     1
281
     0
  0
BLOCK_RECORD
  5
9772
330
1
100
AcDbSymbolTableRecord
100
AcDbBlockTableRecord
  2
*D20
340
0
 70
     0
280
     1
281
     0
  0
BLOCK_RECORD
  5
9811
330
1
100
AcDbSymbolTableRecord
100
AcDbBlockTableRecord
  2
*D21
340
0
 70
     0
280
     1
281
     0
  0
ENDTAB
  0
ENDSEC
  0
SECTION
  2
BLOCKS
  0
BLOCK
  5
D
330
A
100
AcDbEntity
  8
0
390
1D
100
AcDbBlockBegin
  2
*MODEL_SPACE
 70
     0
 10
0.0
 20
0.0
 30
0.0
  3
*MODEL_SPACE
  1
*MODEL_SPACE
  0
ENDBLK
  5
E
330
A
100
AcDbEntity
  8
0
390
1D
100
AcDbBlockEnd
  0
BLOCK
  5
F
330
B
100
AcDbEntity
 67
     1
  8
0
390
1D
100
AcDbBlockBegin
  2
*PAPER_SPACE
 70
     0
 10
0.0
 20
0.0
 30
0.0
  3
*PAPER_SPACE
  1
*PAPER_SPACE
  0
ENDBLK
  5
10
330
B
100
AcDbEntity
 67
     1
  8
0
390
1D
100
AcDbBlockEnd
  0
BLOCK
  5
E45
330
4E
100
AcDbEntity
  8
0
390
1D
100
AcDbBlockBegin
  2
_DOT
 70
     0
 10
0.0
 20
0.0
 30
0.0
  3
_DOT
  1
_DOT
  0
POLYLINE
  5
E47
330
4E
100
AcDbEntity
  8
0
  6
ByBlock
 62
     0
370
    -2
390
1D
100
AcDb2dPolyline
 66
     1
 10
0.0
 20
0.0
 30
0.0
 70
     1
 40
0.5
 41
0.5
  0
VERTEX
  5
E48
330
E47
100
AcDbEntity
  8
0
  6
ByBlock
 62
     0
370
    -2
390
1D
100
AcDbVertex
100
AcDb2dVertex
 10
-0.25
 20
0.0
 30
0.0
 42
1.0
  0
VERTEX
  5
E49
330
E47
100
AcDbEntity
  8
0
  6
ByBlock
 62
     0
370
    -2
390
1D
100
AcDbVertex
100
AcDb2dVertex
 10
0.25
 20
0.0
 30
0.0
 42
1.0
  0
SEQEND
  5
E4A
330
E47
100
AcDbEntity
  8
0
390
1D
  0
LINE
  5
E4B
330
4E
100
AcDbEntity
  8
0
  6
ByBlock
 62
     0
370
    -2
390
1D
100
AcDbLine
 10
-0.5
 20
0.0
 30
0.0
 11
-1.0
 21
0.0
 31
0.0
  0
ENDBLK
  5
E4C
330
4E
100
AcDbEntity
  8
0
390
1D
100
AcDbBlockEnd
  0
BLOCK
  5
3A6
330
3A5
100
AcDbEntity
  8
0
100
AcDbBlockBegin
  2
名称未設定-1
 70
     0
 10
0.0
 20
0.0
 30
0.0
  3
名称未設定-1
  1
名称未設定-1
  0
INSERT
  5
3A7
330
3A5
100
AcDbEntity
  8
LOGO
100
AcDbBlockReference
  2
block 2
 10
0.0
 20
0.0
 30
0.0
  0
ENDBLK
  5
3CC
330
3A5
100
AcDbEntity
  8
0
100
AcDbBlockEnd
  0
BLOCK
  5
3A9
330
3A8
100
AcDbEntity
  8
0
100
AcDbBlockBegin
  2
block 2
 70
     0
 10
0.0
 20
0.0
 30
0.0
  3
block 2
  1
block 2
  0
INSERT
  5
3AA
330
3A8
100
AcDbEntity
  8
LOGO
100
AcDbBlockReference
  2
block 3
 10
0.0
 20
0.0
 30
0.0
  0
ENDBLK
  5
3CB
330
3A8
100
AcDbEntity
  8
0
100
AcDbBlockEnd
  0
BLOCK
  5
3AC
330
3AB
100
AcDbEntity
  8
0
100
AcDbBlockBegin
  2
block 3
 70
     0
 10
0.0
 20
0.0
 30
0.0
  3
block 3
  1
block 3
  0
INSERT
  5
3AD
330
3AB
100
AcDbEntity
  8
LOGO
100
AcDbBlockReference
  2
block 4
 10
0.0
 20
0.0
 30
0.0
  0
ENDBLK
  5
3CA
330
3AB
100
AcDbEntity
  8
0
100
AcDbBlockEnd
  0
BLOCK
  5
3AF
330
3AE
100
AcDbEntity
  8
0
100
AcDbBlockBegin
  2
block 4
 70
     0
 10
0.0
 20
0.0
 30
0.0
  3
block 4
  1
block 4
  0
POLYLINE
  5
3B0
330
3AE
100
AcDbEntity
  8
LOGO
370
     0
100
AcDb2dPolyline
 66
     1
 10
0.0
 20
0.0
 30
0.0
  0
VERTEX
  5
3B1
330
3B0
100
AcDbEntity
  8
LOGO
370
     0
100
AcDbVertex
100
AcDb2dVertex
 10
83.79545727667795
 20
167.6444858234922
 30
0.0
  0
VERTEX
  5
3B2
330
3B0
100
AcDbEntity
  8
LOGO
370
     0
100
AcDbVertex
100
AcDb2dVertex
 10
83.79545727667795
 20
159.7968976406313
 30
0.0
  0
VERTEX
  5
3B3
330
3B0
100
AcDbEntity
  8
LOGO
370
     0
100
AcDbVertex
100
AcDb2dVertex
 10
71.3631329975216
 20
159.7968976406313
 30
0.0
  0
VERTEX
  5
3B4
330
3B0
100
AcDbEntity
  8
LOGO
370
     0
100
AcDbVertex
100
AcDb2dVertex
 10
71.3631329975216
 20
127.8027915271048
 30
0.0
  0
VERTEX
  5
3B5
330
3B0
100
AcDbEntity
  8
LOGO
370
     0
100
AcDbVertex
100
AcDb2dVertex
 10
60.43011526263018
 20
127.8027915271048
 30
0.0
  0
VERTEX
  5
3B6
330
3B0
100
AcDbEntity
  8
LOGO
370
     0
100
AcDbVertex
100
AcDb2dVertex
 10
60.43011526263018
 20
159.7968976406313
 30
0.0
  0
VERTEX
  5
3B7
330
3B0
100
AcDbEntity
  8
LOGO
370
     0
100
AcDbVertex
100
AcDb2dVertex
 10
48.21793273020759
 20
159.7968976406313
 30
0.0
  0
VERTEX
  5
3B8
330
3B0
100
AcDbEntity
  8
LOGO
370
     0
100
AcDbVertex
100
AcDb2dVertex
 10
48.21793273020759
 20
167.6444858234922
 30
0.0
  0
VERTEX
  5
3B9
330
3B0
100
AcDbEntity
  8
LOGO
370
     0
100
AcDbVertex
100
AcDb2dVertex
 10
83.79545727667795
 20
167.6444858234922
 30
0.0
  0
SEQEND
  5
3BA
330
3B0
100
AcDbEntity
  8
LOGO
370
     0
  0
HATCH
  5
3BB
330
3AE
100
AcDbEntity
  8
LOGO
 62
   250
420
  2234388
100
AcDbHatch
 10
0.0
 20
0.0
 30
0.0
210
0.0
220
0.0
230
1.0
  2
SOLID
 70
     1
 71
     0
 91
        1
 92
        1
 93
        8
 72
     1
 10
83.79545727667795
 20
167.6444858234922
 11
83.79545727667795
 21
159.7968976406313
 72
     1
 10
83.79545727667795
 20
159.7968976406313
 11
71.3631329975216
 21
159.7968976406313
 72
     1
 10
71.3631329975216
 20
159.7968976406313
 11
71.3631329975216
 21
127.8027915271048
 72
     1
 10
71.3631329975216
 20
127.8027915271048
 11
60.43011526263018
 21
127.8027915271048
 72
     1
 10
60.43011526263018
 20
127.8027915271048
 11
60.43011526263018
 21
159.7968976406313
 72
     1
 10
60.43011526263018
 20
159.7968976406313
 11
48.21793273020759
 21
159.7968976406313
 72
     1
 10
48.21793273020759
 20
159.7968976406313
 11
48.21793273020759
 21
167.6444858234922
 72
     1
 10
48.21793273020759
 20
167.6444858234922
 11
83.79545727667795
 21
167.6444858234922
 97
        0
 75
     2
 76
     1
 98
        0
  0
INSERT
  5
3BC
330
3AE
100
AcDbEntity
  8
LOGO
100
AcDbBlockReference
  2
block 5
 10
0.0
 20
0.0
 30
0.0
  0
ENDBLK
  5
3C9
330
3AE
100
AcDbEntity
  8
0
100
AcDbBlockEnd
  0
BLOCK
  5
3BE
330
3BD
100
AcDbEntity
  8
0
100
AcDbBlockBegin
  2
block 5
 70
     0
 10
0.0
 20
0.0
 30
0.0
  3
block 5
  1
block 5
  0
SPLINE
  5
3BF
330
3BD
100
AcDbEntity
  8
LOGO
370
     0
100
AcDbSpline
210
0.0
220
0.0
230
1.0
 70
    11
 71
     3
 72
    56
 73
    52
 74
     0
 42
0.000000001
 43
0.0000000001
 40
0.0
 40
0.0
 40
0.0
 40
0.0
 40
1.0
 40
1.0
 40
1.0
 40
2.0
 40
2.0
 40
2.0
 40
3.0
 40
3.0
 40
3.0
 40
4.0
 40
4.0
 40
4.0
 40
5.0
 40
5.0
 40
5.0
 40
6.0
 40
6.0
 40
6.0
 40
7.0
 40
7.0
 40
7.0
 40
8.0
 40
8.0
 40
8.0
 40
9.0
 40
9.0
 40
9.0
 40
10.0
 40
10.0
 40
10.0
 40
11.0
 40
11.0
 40
11.0
 40
12.0
 40
12.0
 40
12.0
 40
13.0
 40
13.0
 40
13.0
 40
14.0
 40
14.0
 40
14.0
 40
15.0
 40
15.0
 40
15.0
 40
16.0
 40
16.0
 40
16.0
 40
17.0
 40
17.0
 40
17.0
 40
17.0
 10
100.4504378777679
 20
166.69157178364
 30
0.0
 10
101.9848844191641
 20
167.1313385124438
 30
0.0
 10
103.9637485713373
 20
166.7649523658846
 30
0.0
 10
103.9637485713373
 20
166.7649523658846
 30
0.0
 10
103.9637485713373
 20
166.7649523658846
 30
0.0
 10
103.0132460999156
 20
163.911205638077
 30
0.0
 10
103.0132460999156
 20
163.911205638077
 30
0.0
 10
103.0132460999156
 20
163.911205638077
 30
0.0
 10
101.0674548862189
 20
164.3601018759394
 30
0.0
 10
99.57090442016032
 20
163.1805004036133
 30
0.0
 10
98.40508333886608
 20
162.258247733807
 30
0.0
 10
97.65301849830304
 20
159.804132345923
 30
0.0
 10
97.3598406791005
 20
158.8699940888517
 30
0.0
 10
97.3598406791005
 20
158.8699940888517
 30
0.0
 10
96.07137411762282
 20
154.9119212747295
 30
0.0
 10
96.07137411762282
 20
154.9119212747295
 30
0.0
 10
96.07137411762282
 20
154.9119212747295
 30
0.0
 10
100.3012651448482
 20
154.9119212747295
 30
0.0
 10
100.3012651448482
 20
154.9119212747295
 30
0.0
 10
100.3012651448482
 20
154.9119212747295
 30
0.0
 10
99.64152892419852
 20
152.4199098115079
 30
0.0
 10
99.64152892419852
 20
152.4199098115079
 30
0.0
 10
99.64152892419852
 20
152.4199098115079
 30
0.0
 10
95.38097652692731
 20
152.4199098115079
 30
0.0
 10
95.38097652692731
 20
152.4199098115079
 30
0.0
 10
95.38097652692731
 20
152.4199098115079
 30
0.0
 10
87.75353009080013
 20
127.8027915271048
 30
0.0
 10
87.75353009080013
 20
127.8027915271048
 30
0.0
 10
87.75353009080013
 20
127.8027915271048
 30
0.0
 10
85.36538832498108
 20
127.8027915271048
 30
0.0
 10
85.36538832498108
 20
127.8027915271048
 30
0.0
 10
85.36538832498108
 20
127.8027915271048
 30
0.0
 10
93.00006946639998
 20
152.4199098115079
 30
0.0
 10
93.00006946639998
 20
152.4199098115079
 30
0.0
 10
93.00006946639998
 20
152.4199098115079
 30
0.0
 10
89.85297266450198
 20
152.4199098115079
 30
0.0
 10
89.85297266450198
 20
152.4199098115079
 30
0.0
 10
89.85297266450198
 20
152.4199098115079
 30
0.0
 10
90.51270888515164
 20
154.9119212747295
 30
0.0
 10
90.51270888515164
 20
154.9119212747295
 30
0.0
 10
90.51270888515164
 20
154.9119212747295
 30
0.0
 10
93.6904670570955
 20
154.9119212747295
 30
0.0
 10
93.6904670570955
 20
154.9119212747295
 30
0.0
 10
93.6904670570955
 20
154.9119212747295
 30
0.0
 10
94.81598049462158
 20
158.3616699146644
 30
0.0
 10
94.81598049462158
 20
158.3616699146644
 30
0.0
 10
95.7237637538445
 20
161.2605474231013
 30
0.0
 10
96.4968436907311
 20
162.8139420021662
 30
0.0
 10
97.15657991138076
 20
163.9844139654337
 30
0.0
 10
97.81183750494507
 20
165.1523021053827
 30
0.0
 10
99.1047826935081
 20
166.3084769129547
 30
0.0
 10
100.4504378777679
 20
166.69157178364
 30
0.0
  0
HATCH
  5
3C0
330
3BD
100
AcDbEntity
  8
LOGO
 62
   250
420
  2234388
100
AcDbHatch
 10
0.0
 20
0.0
 30
0.0
210
0.0
220
0.0
230
1.0
  2
SOLID
 70
     1
 71
     0
 91
        1
 92
        1
 93
        1
 72
     4
 94
        3
 73
     0
 74
     1
 95
       56
 96
       52
 40
0.0
 40
0.0
 40
0.0
 40
0.0
 40
1.0
 40
1.0
 40
1.0
 40
2.0
 40
2.0
 40
2.0
 40
3.0
 40
3.0
 40
3.0
 40
4.0
 40
4.0
 40
4.0
 40
5.0
 40
5.0
 40
5.0
 40
6.0
 40
6.0
 40
6.0
 40
7.0
 40
7.0
 40
7.0
 40
8.0
 40
8.0
 40
8.0
 40
9.0
 40
9.0
 40
9.0
 40
10.0
 40
10.0
 40
10.0
 40
11.0
 40
11.0
 40
11.0
 40
12.0
 40
12.0
 40
12.0
 40
13.0
 40
13.0
 40
13.0
 40
14.0
 40
14.0
 40
14.0
 40
15.0
 40
15.0
 40
15.0
 40
16.0
 40
16.0
 40
16.0
 40
17.0
 40
17.0
 40
17.0
 40
17.0
 10
100.4504378777679
 20
166.69157178364
 10
101.9848844191641
 20
167.1313385124438
 10
103.9637485713373
 20
166.7649523658846
 10
103.9637485713373
 20
166.7649523658846
 10
103.9637485713373
 20
166.7649523658846
 10
103.0132460999156
 20
163.911205638077
 10
103.0132460999156
 20
163.911205638077
 10
103.0132460999156
 20
163.911205638077
 10
101.0674548862189
 20
164.3601018759394
 10
99.57090442016032
 20
163.1805004036133
 10
98.40508333886608
 20
162.258247733807
 10
97.65301849830304
 20
159.804132345923
 10
97.3598406791005
 20
158.8699940888517
 10
97.3598406791005
 20
158.8699940888517
 10
96.07137411762282
 20
154.9119212747295
 10
96.07137411762282
 20
154.9119212747295
 10
96.07137411762282
 20
154.9119212747295
 10
100.3012651448482
 20
154.9119212747295
 10
100.3012651448482
 20
154.9119212747295
 10
100.3012651448482
 20
154.9119212747295
 10
99.64152892419852
 20
152.4199098115079
 10
99.64152892419852
 20
152.4199098115079
 10
99.64152892419852
 20
152.4199098115079
 10
95.38097652692731
 20
152.4199098115079
 10
95.38097652692731
 20
152.4199098115079
 10
95.38097652692731
 20
152.4199098115079
 10
87.75353009080013
 20
127.8027915271048
 10
87.75353009080013
 20
127.8027915271048
 10
87.75353009080013
 20
127.8027915271048
 10
85.36538832498108
 20
127.8027915271048
 10
85.36538832498108
 20
127.8027915271048
 10
85.36538832498108
 20
127.8027915271048
 10
93.00006946639998
 20
152.4199098115079
 10
93.00006946639998
 20
152.4199098115079
 10
93.00006946639998
 20
152.4199098115079
 10
89.85297266450198
 20
152.4199098115079
 10
89.85297266450198
 20
152.4199098115079
 10
89.85297266450198
 20
152.4199098115079
 10
90.51270888515164
 20
154.9119212747295
 10
90.51270888515164
 20
154.9119212747295
 10
90.51270888515164
 20
154.9119212747295
 10
93.6904670570955
 20
154.9119212747295
 10
93.6904670570955
 20
154.9119212747295
 10
93.6904670570955
 20
154.9119212747295
 10
94.81598049462158
 20
158.3616699146644
 10
94.81598049462158
 20
158.3616699146644
 10
95.7237637538445
 20
161.2605474231013
 10
96.4968436907311
 20
162.8139420021662
 10
97.15657991138076
 20
163.9844139654337
 10
97.81183750494507
 20
165.1523021053827
 10
99.1047826935081
 20
166.3084769129547
 10
100.4504378777679
 20
166.69157178364
 97
        0
 75
     2
 76
     1
 98
        0
  0
SPLINE
  5
3C1
330
3BD
100
AcDbEntity
  8
LOGO
370
     0
100
AcDbSpline
210
0.0
220
0.0
230
1.0
 70
    11
 71
     3
 72
    38
 73
    34
 74
     0
 42
0.000000001
 43
0.0000000001
 40
0.0
 40
0.0
 40
0.0
 40
0.0
 40
1.0
 40
1.0
 40
1.0
 40
2.0
 40
2.0
 40
2.0
 40
3.0
 40
3.0
 40
3.0
 40
4.0
 40
4.0
 40
4.0
 40
5.0
 40
5.0
 40
5.0
 40
6.0
 40
6.0
 40
6.0
 40
7.0
 40
7.0
 40
7.0
 40
8.0
 40
8.0
 40
8.0
 40
9.0
 40
9.0
 40
9.0
 40
10.0
 40
10.0
 40
10.0
 40
11.0
 40
11.0
 40
11.0
 40
11.0
 10
126.377554584636
 20
154.8151140277308
 30
0.0
 10
126.377554584636
 20
154.8151140277308
 30
0.0
 10
128.8311532078563
 20
154.8151140277308
 30
0.0
 10
128.8311532078563
 20
154.8151140277308
 30
0.0
 10
128.8311532078563
 20
154.8151140277308
 30
0.0
 10
127.7345785914971
 20
151.3062819612468
 30
0.0
 10
127.7345785914971
 20
151.3062819612468
 30
0.0
 10
128.571392836906
 20
152.2922689395754
 30
0.0
 10
129.8860421413442
 20
153.604506675583
 30
0.0
 10
131.0163787157314
 20
154.2664822097754
 30
0.0
 10
132.7044766171327
 20
155.2500576196734
 30
0.0
 10
133.6642808525008
 20
155.3847609420097
 30
0.0
 10
134.7284715499351
 20
155.3565111403944
 30
0.0
 10
134.7284715499351
 20
155.3565111403944
 30
0.0
 10
133.6877075172549
 20
152.0345756272799
 30
0.0
 10
133.6877075172549
 20
152.0345756272799
 30
0.0
 10
133.011434827367
 20
152.3184516825359
 30
0.0
 10
130.930940291334
 20
151.7768823149844
 30
0.0
 10
129.739280976855
 20
150.9162968950455
 30
0.0
 10
128.66613302525
 20
150.1454562717016
 30
0.0
 10
127.9192358313239
 20
149.4857200510519
 30
0.0
 10
127.0393578639405
 20
147.8282835196966
 30
0.0
 10
126.164647543194
 20
146.1699857139017
 30
0.0
 10
125.4742499524985
 20
143.5262176944419
 30
0.0
 10
124.2822461282437
 20
139.6959580071401
 30
0.0
 10
124.2822461282437
 20
139.6959580071401
 30
0.0
 10
120.5753209406769
 20
127.8027915271048
 30
0.0
 10
120.5753209406769
 20
127.8027915271048
 30
0.0
 10
120.5753209406769
 20
127.8027915271048
 30
0.0
 10
118.1964809388044
 20
127.8027915271048
 30
0.0
 10
118.1964809388044
 20
127.8027915271048
 30
0.0
 10
118.1964809388044
 20
127.8027915271048
 30
0.0
 10
126.377554584636
 20
154.8151140277308
 30
0.0
 10
126.377554584636
 20
154.8151140277308
 30
0.0
  0
HATCH
  5
3C2
330
3BD
100
AcDbEntity
  8
LOGO
 62
   250
420
  2234388
100
AcDbHatch
 10
0.0
 20
0.0
 30
0.0
210
0.0
220
0.0
230
1.0
  2
SOLID
 70
     1
 71
     0
 91
        1
 92
        1
 93
        1
 72
     4
 94
        3
 73
     0
 74
     1
 95
       38
 96
       34
 40
0.0
 40
0.0
 40
0.0
 40
0.0
 40
1.0
 40
1.0
 40
1.0
 40
2.0
 40
2.0
 40
2.0
 40
3.0
 40
3.0
 40
3.0
 40
4.0
 40
4.0
 40
4.0
 40
5.0
 40
5.0
 40
5.0
 40
6.0
 40
6.0
 40
6.0
 40
7.0
 40
7.0
 40
7.0
 40
8.0
 40
8.0
 40
8.0
 40
9.0
 40
9.0
 40
9.0
 40
10.0
 40
10.0
 40
10.0
 40
11.0
 40
11.0
 40
11.0
 40
11.0
 10
126.377554584636
 20
154.8151140277308
 10
126.377554584636
 20
154.8151140277308
 10
128.8311532078563
 20
154.8151140277308
 10
128.8311532078563
 20
154.8151140277308
 10
128.8311532078563
 20
154.8151140277308
 10
127.7345785914971
 20
151.3062819612468
 10
127.7345785914971
 20
151.3062819612468
 10
128.571392836906
 20
152.2922689395754
 10
129.8860421413442
 20
153.604506675583
 10
131.0163787157314
 20
154.2664822097754
 10
132.7044766171327
 20
155.2500576196734
 10
133.6642808525008
 20
155.3847609420097
 10
134.7284715499351
 20
155.3565111403944
 10
134.7284715499351
 20
155.3565111403944
 10
133.6877075172549
 20
152.0345756272799
 10
133.6877075172549
 20
152.0345756272799
 10
133.011434827367
 20
152.3184516825359
 10
130.930940291334
 20
151.7768823149844
 10
129.739280976855
 20
150.9162968950455
 10
128.66613302525
 20
150.1454562717016
 10
127.9192358313239
 20
149.4857200510519
 10
127.0393578639405
 20
147.8282835196966
 10
126.164647543194
 20
146.1699857139017
 10
125.4742499524985
 20
143.5262176944419
 10
124.2822461282437
 20
139.6959580071401
 10
124.2822461282437
 20
139.6959580071401
 10
120.5753209406769
 20
127.8027915271048
 10
120.5753209406769
 20
127.8027915271048
 10
120.5753209406769
 20
127.8027915271048
 10
118.1964809388044
 20
127.8027915271048
 10
118.1964809388044
 20
127.8027915271048
 10
118.1964809388044
 20
127.8027915271048
 10
126.377554584636
 20
154.8151140277308
 10
126.377554584636
 20
154.8151140277308
 97
        0
 75
     2
 76
     1
 98
        0
  0
SPLINE
  5
3C3
330
3BD
100
AcDbEntity
  8
LOGO
370
     0
100
AcDbSpline
210
0.0
220
0.0
230
1.0
 70
    11
 71
     3
 72
   104
 73
   100
 74
     0
 42
0.000000001
 43
0.0000000001
 40
0.0
 40
0.0
 40
0.0
 40
0.0
 40
1.0
 40
1.0
 40
1.0
 40
2.0
 40
2.0
 40
2.0
 40
3.0
 40
3.0
 40
3.0
 40
4.0
 40
4.0
 40
4.0
 40
5.0
 40
5.0
 40
5.0
 40
6.0
 40
6.0
 40
6.0
 40
7.0
 40
7.0
 40
7.0
 40
8.0
 40
8.0
 40
8.0
 40
9.0
 40
9.0
 40
9.0
 40
10.0
 40
10.0
 40
10.0
 40
11.0
 40
11.0
 40
11.0
 40
12.0
 40
12.0
 40
12.0
 40
13.0
 40
13.0
 40
13.0
 40
14.0
 40
14.0
 40
14.0
 40
15.0
 40
15.0
 40
15.0
 40
16.0
 40
16.0
 40
16.0
 40
17.0
 40
17.0
 40
17.0
 40
18.0
 40
18.0
 40
18.0
 40
19.0
 40
19.0
 40
19.0
 40
20.0
 40
20.0
 40
20.0
 40
21.0
 40
21.0
 40
21.0
 40
22.0
 40
22.0
 40
22.0
 40
23.0
 40
23.0
 40
23.0
 40
24.0
 40
24.0
 40
24.0
 40
25.0
 40
25.0
 40
25.0
 40
26.0
 40
26.0
 40
26.0
 40
27.0
 40
27.0
 40
27.0
 40
28.0
 40
28.0
 40
28.0
 40
29.0
 40
29.0
 40
29.0
 40
30.0
 40
30.0
 40
30.0
 40
31.0
 40
31.0
 40
31.0
 40
32.0
 40
32.0
 40
32.0
 40
33.0
 40
33.0
 40
33.0
 40
33.0
 10
139.8926730891197
 20
154.8294111834263
 30
0.0
 10
139.8926730891197
 20
154.8294111834263
 30
0.0
 10
142.0344903652445
 20
154.8294111834263
 30
0.0
 10
142.0344903652445
 20
154.8294111834263
 30
0.0
 10
142.0344903652445
 20
154.8294111834263
 30
0.0
 10
140.9516961399171
 20
151.3157559800812
 30
0.0
 10
140.9516961399171
 20
151.3157559800812
 30
0.0
 10
141.8928968473923
 20
152.7887075264977
 30
0.0
 10
142.7341897198865
 20
153.4484437471474
 30
0.0
 10
143.8552245303272
 20
154.2926649527359
 30
0.0
 10
144.9803934580775
 20
155.1296514530327
 30
0.0
 10
146.3139908001845
 20
155.3044901642492
 30
0.0
 10
147.241066606852
 20
155.3044901642492
 30
0.0
 10
148.3855280820469
 20
155.3044901642492
 30
0.0
 10
149.4969166187653
 20
155.0752189084569
 30
0.0
 10
150.0784491203092
 20
153.8172414621372
 30
0.0
 10
150.5228667310863
 20
152.833838307127
 30
0.0
 10
150.5414702589793
 20
152.7201500811143
 30
0.0
 10
150.4140016419347
 20
150.7765981809602
 30
0.0
 10
151.5818897818837
 20
152.7699317437168
 30
0.0
 10
152.4424752018226
 20
153.6256940267945
 30
0.0
 10
153.9038856707499
 20
154.4507949398263
 30
0.0
 10
155.4455669174378
 20
155.3044901642492
 30
0.0
 10
156.339225275853
 20
155.3659851592288
 30
0.0
 10
157.3748216618963
 20
155.2147453676543
 30
0.0
 10
158.911679771723
 20
154.9877134254046
 30
0.0
 10
159.8859534176746
 20
154.4390816074493
 30
0.0
 10
160.3965169054045
 20
152.7816450760939
 30
0.0
 10
160.9070803931344
 20
151.1219692311958
 30
0.0
 10
160.6328506116007
 20
150.2303779314354
 30
0.0
 10
159.9992971339115
 20
147.597634224801
 30
0.0
 10
159.7105979417943
 20
146.4014962832367
 30
0.0
 10
159.2947746424084
 20
144.9400858143094
 30
0.0
 10
158.7463150793409
 20
143.2092687007094
 30
0.0
 10
158.7463150793409
 20
143.2092687007094
 30
0.0
 10
153.9038856707499
 20
127.8027915271048
 30
0.0
 10
153.9038856707499
 20
127.8027915271048
 30
0.0
 10
153.9038856707499
 20
127.8027915271048
 30
0.0
 10
151.3882752878863
 20
127.8027915271048
 30
0.0
 10
151.3882752878863
 20
127.8027915271048
 30
0.0
 10
151.3882752878863
 20
127.8027915271048
 30
0.0
 10
155.6250565106276
 20
141.2751908193897
 30
0.0
 10
155.6250565106276
 20
141.2751908193897
 30
0.0
 10
156.5094131050963
 20
144.0936252951782
 30
0.0
 10
157.109893644309
 20
146.1506931664571
 30
0.0
 10
157.4220195011804
 20
147.4415712963654
 30
0.0
 10
157.8095929989511
 20
149.0530157726519
 30
0.0
 10
157.9656559273867
 20
149.5826995529385
 30
0.0
 10
157.7816877071116
 20
150.7529992613181
 30
0.0
 10
157.6111553680925
 20
151.8430281919372
 30
0.0
 10
157.0582171779396
 20
152.5547853887321
 30
0.0
 10
156.1170164704645
 20
152.5547853887321
 30
0.0
 10
155.1096698860365
 20
152.5547853887321
 30
0.0
 10
154.2962823053817
 20
152.4412694176073
 30
0.0
 10
153.156643967048
 20
151.2945686288697
 30
0.0
 10
152.0170056287143
 20
150.1476955852443
 30
0.0
 10
151.076149431015
 20
148.7930831468137
 30
0.0
 10
150.3337308641742
 20
147.2290087646991
 30
0.0
 10
149.5957909244188
 20
145.6683794803425
 30
0.0
 10
148.8530278478023
 20
143.6822806228776
 30
0.0
 10
148.0964843801539
 20
141.2751908193897
 30
0.0
 10
148.0964843801539
 20
141.2751908193897
 30
0.0
 10
143.8552245303272
 20
127.8027915271048
 30
0.0
 10
143.8552245303272
 20
127.8027915271048
 30
0.0
 10
143.8552245303272
 20
127.8027915271048
 30
0.0
 10
141.486030802177
 20
127.8027915271048
 30
0.0
 10
141.486030802177
 20
127.8027915271048
 30
0.0
 10
141.486030802177
 20
127.8027915271048
 30
0.0
 10
146.3329388378533
 20
143.2092687007094
 30
0.0
 10
146.3329388378533
 20
143.2092687007094
 30
0.0
 10
146.8483254624444
 20
144.8408669988801
 30
0.0
 10
147.2314203331297
 20
146.1837661049335
 30
0.0
 10
147.4867020769946
 20
147.224185627838
 30
0.0
 10
147.9169947869641
 20
149.0197705792876
 30
0.0
 10
148.0306830129768
 20
150.2400242051577
 30
0.0
 10
147.709255392159
 20
151.3157559800812
 30
0.0
 10
147.3874832615654
 20
152.3916600098926
 30
0.0
 10
146.8245542879144
 20
152.6683013598569
 30
0.0
 10
145.8840425999909
 20
152.6683013598569
 30
0.0
 10
145.0989048209514
 20
152.6683013598569
 30
0.0
 10
144.3282364524954
 20
152.3275811915945
 30
0.0
 10
143.4531816219731
 20
151.6538923250251
 30
0.0
 10
142.34627171234
 20
150.8074318058939
 30
0.0
 10
141.901854101563
 20
150.1097995099067
 30
0.0
 10
141.3578731655808
 20
149.289521733736
 30
0.0
 10
140.6299240093235
 20
148.192602607601
 30
0.0
 10
140.2850697237515
 20
147.455696197173
 30
0.0
 10
139.6652966370942
 20
145.8385673095858
 30
0.0
 10
139.0506911970739
 20
144.2214384219986
 30
0.0
 10
138.463991048893
 20
142.3252566160164
 30
0.0
 10
138.0571250036777
 20
141.0154304484394
 30
0.0
 10
138.0571250036777
 20
141.0154304484394
 30
0.0
 10
133.9009590684727
 20
127.8027915271048
 30
0.0
 10
133.9009590684727
 20
127.8027915271048
 30
0.0
 10
133.9009590684727
 20
127.8027915271048
 30
0.0
 10
131.4180771143097
 20
127.8027915271048
 30
0.0
 10
131.4180771143097
 20
127.8027915271048
 30
0.0
 10
131.4180771143097
 20
127.8027915271048
 30
0.0
 10
139.8926730891197
 20
154.8294111834263
 30
0.0
 10
139.8926730891197
 20
154.8294111834263
 30
0.0
  0
HATCH
  5
3C4
330
3BD
100
AcDbEntity
  8
LOGO
 62
   250
420
  2234388
100
AcDbHatch
 10
0.0
 20
0.0
 30
0.0
210
0.0
220
0.0
230
1.0
  2
SOLID
 70
     1
 71
     0
 91
        1
 92
        1
 93
        1
 72
     4
 94
        3
 73
     0
 74
     1
 95
      104
 96
      100
 40
0.0
 40
0.0
 40
0.0
 40
0.0
 40
1.0
 40
1.0
 40
1.0
 40
2.0
 40
2.0
 40
2.0
 40
3.0
 40
3.0
 40
3.0
 40
4.0
 40
4.0
 40
4.0
 40
5.0
 40
5.0
 40
5.0
 40
6.0
 40
6.0
 40
6.0
 40
7.0
 40
7.0
 40
7.0
 40
8.0
 40
8.0
 40
8.0
 40
9.0
 40
9.0
 40
9.0
 40
10.0
 40
10.0
 40
10.0
 40
11.0
 40
11.0
 40
11.0
 40
12.0
 40
12.0
 40
12.0
 40
13.0
 40
13.0
 40
13.0
 40
14.0
 40
14.0
 40
14.0
 40
15.0
 40
15.0
 40
15.0
 40
16.0
 40
16.0
 40
16.0
 40
17.0
 40
17.0
 40
17.0
 40
18.0
 40
18.0
 40
18.0
 40
19.0
 40
19.0
 40
19.0
 40
20.0
 40
20.0
 40
20.0
 40
21.0
 40
21.0
 40
21.0
 40
22.0
 40
22.0
 40
22.0
 40
23.0
 40
23.0
 40
23.0
 40
24.0
 40
24.0
 40
24.0
 40
25.0
 40
25.0
 40
25.0
 40
26.0
 40
26.0
 40
26.0
 40
27.0
 40
27.0
 40
27.0
 40
28.0
 40
28.0
 40
28.0
 40
29.0
 40
29.0
 40
29.0
 40
30.0
 40
30.0
 40
30.0
 40
31.0
 40
31.0
 40
31.0
 40
32.0
 40
32.0
 40
32.0
 40
33.0
 40
33.0
 40
33.0
 40
33.0
 10
139.8926730891197
 20
154.8294111834263
 10
139.8926730891197
 20
154.8294111834263
 10
142.0344903652445
 20
154.8294111834263
 10
142.0344903652445
 20
154.8294111834263
 10
142.0344903652445
 20
154.8294111834263
 10
140.9516961399171
 20
151.3157559800812
 10
140.9516961399171
 20
151.3157559800812
 10
141.8928968473923
 20
152.7887075264977
 10
142.7341897198865
 20
153.4484437471474
 10
143.8552245303272
 20
154.2926649527359
 10
144.9803934580775
 20
155.1296514530327
 10
146.3139908001845
 20
155.3044901642492
 10
147.241066606852
 20
155.3044901642492
 10
148.3855280820469
 20
155.3044901642492
 10
149.4969166187653
 20
155.0752189084569
 10
150.0784491203092
 20
153.8172414621372
 10
150.5228667310863
 20
152.833838307127
 10
150.5414702589793
 20
152.7201500811143
 10
150.4140016419347
 20
150.7765981809602
 10
151.5818897818837
 20
152.7699317437168
 10
152.4424752018226
 20
153.6256940267945
 10
153.9038856707499
 20
154.4507949398263
 10
155.4455669174378
 20
155.3044901642492
 10
156.339225275853
 20
155.3659851592288
 10
157.3748216618963
 20
155.2147453676543
 10
158.911679771723
 20
154.9877134254046
 10
159.8859534176746
 20
154.4390816074493
 10
160.3965169054045
 20
152.7816450760939
 10
160.9070803931344
 20
151.1219692311958
 10
160.6328506116007
 20
150.2303779314354
 10
159.9992971339115
 20
147.597634224801
 10
159.7105979417943
 20
146.4014962832367
 10
159.2947746424084
 20
144.9400858143094
 10
158.7463150793409
 20
143.2092687007094
 10
158.7463150793409
 20
143.2092687007094
 10
153.9038856707499
 20
127.8027915271048
 10
153.9038856707499
 20
127.8027915271048
 10
153.9038856707499
 20
127.8027915271048
 10
151.3882752878863
 20
127.8027915271048
 10
151.3882752878863
 20
127.8027915271048
 10
151.3882752878863
 20
127.8027915271048
 10
155.6250565106276
 20
141.2751908193897
 10
155.6250565106276
 20
141.2751908193897
 10
156.5094131050963
 20
144.0936252951782
 10
157.109893644309
 20
146.1506931664571
 10
157.4220195011804
 20
147.4415712963654
 10
157.8095929989511
 20
149.0530157726519
 10
157.9656559273867
 20
149.5826995529385
 10
157.7816877071116
 20
150.7529992613181
 10
157.6111553680925
 20
151.8430281919372
 10
157.0582171779396
 20
152.5547853887321
 10
156.1170164704645
 20
152.5547853887321
 10
155.1096698860365
 20
152.5547853887321
 10
154.2962823053817
 20
152.4412694176073
 10
153.156643967048
 20
151.2945686288697
 10
152.0170056287143
 20
150.1476955852443
 10
151.076149431015
 20
148.7930831468137
 10
150.3337308641742
 20
147.2290087646991
 10
149.5957909244188
 20
145.6683794803425
 10
148.8530278478023
 20
143.6822806228776
 10
148.0964843801539
 20
141.2751908193897
 10
148.0964843801539
 20
141.2751908193897
 10
143.8552245303272
 20
127.8027915271048
 10
143.8552245303272
 20
127.8027915271048
 10
143.8552245303272
 20
127.8027915271048
 10
141.486030802177
 20
127.8027915271048
 10
141.486030802177
 20
127.8027915271048
 10
141.486030802177
 20
127.8027915271048
 10
146.3329388378533
 20
143.2092687007094
 10
146.3329388378533
 20
143.2092687007094
 10
146.8483254624444
 20
144.8408669988801
 10
147.2314203331297
 20
146.1837661049335
 10
147.4867020769946
 20
147.224185627838
 10
147.9169947869641
 20
149.0197705792876
 10
148.0306830129768
 20
150.2400242051577
 10
147.709255392159
 20
151.3157559800812
 10
147.3874832615654
 20
152.3916600098926
 10
146.8245542879144
 20
152.6683013598569
 10
145.8840425999909
 20
152.6683013598569
 10
145.0989048209514
 20
152.6683013598569
 10
144.3282364524954
 20
152.3275811915945
 10
143.4531816219731
 20
151.6538923250251
 10
142.34627171234
 20
150.8074318058939
 10
141.901854101563
 20
150.1097995099067
 10
141.3578731655808
 20
149.289521733736
 10
140.6299240093235
 20
148.192602607601
 10
140.2850697237515
 20
147.455696197173
 10
139.6652966370942
 20
145.8385673095858
 10
139.0506911970739
 20
144.2214384219986
 10
138.463991048893
 20
142.3252566160164
 10
138.0571250036777
 20
141.0154304484394
 10
138.0571250036777
 20
141.0154304484394
 10
133.9009590684727
 20
127.8027915271048
 10
133.9009590684727
 20
127.8027915271048
 10
133.9009590684727
 20
127.8027915271048
 10
131.4180771143097
 20
127.8027915271048
 10
131.4180771143097
 20
127.8027915271048
 10
131.4180771143097
 20
127.8027915271048
 10
139.8926730891197
 20
154.8294111834263
 10
139.8926730891197
 20
154.8294111834263
 97
        0
 75
     2
 76
     1
 98
        0
  0
SPLINE
  5
3C5
330
3BD
100
AcDbEntity
  8
LOGO
370
     0
100
AcDbSpline
210
0.0
220
0.0
230
1.0
 70
    11
 71
     3
 72
    29
 73
    25
 74
     0
 42
0.000000001
 43
0.0000000001
 40
0.0
 40
0.0
 40
0.0
 40
0.0
 40
1.0
 40
1.0
 40
1.0
 40
2.0
 40
2.0
 40
2.0
 40
3.0
 40
3.0
 40
3.0
 40
4.0
 40
4.0
 40
4.0
 40
5.0
 40
5.0
 40
5.0
 40
6.0
 40
6.0
 40
6.0
 40
7.0
 40
7.0
 40
7.0
 40
8.0
 40
8.0
 40
8.0
 40
8.0
 10
101.6420971922469
 20
132.8388354296931
 30
0.0
 10
101.630039350094
 20
134.7164137077823
 30
0.0
 10
102.2236296937908
 20
138.0598810818841
 30
0.0
 10
103.7487744712405
 20
142.5378191476827
 30
0.0
 10
105.819967243327
 20
148.5896501242061
 30
0.0
 10
107.0602024361932
 20
150.8074318058939
 30
0.0
 10
108.1522984254671
 20
151.8833358357054
 30
0.0
 10
109.741177511439
 20
153.4532668840085
 30
0.0
 10
111.8740375333931
 20
153.5290590346837
 30
0.0
 10
112.5075910110823
 20
153.4532668840085
 30
0.0
 10
113.4012493694975
 20
153.3490526768302
 30
0.0
 10
114.6683563248758
 20
152.7580461564518
 30
0.0
 10
114.7493161221879
 20
150.7838328862519
 30
0.0
 10
114.8106388622796
 20
149.0909118479895
 30
0.0
 10
114.3186789024427
 20
145.9191825971221
 30
0.0
 10
112.6164561002338
 20
140.9489400617108
 30
0.0
 10
110.6444821435766
 20
135.1746117095912
 30
0.0
 10
109.4669477299053
 20
132.8960240524753
 30
0.0
 10
108.5212683953448
 20
131.9072809959403
 30
0.0
 10
106.7346406980658
 20
130.0538184021569
 30
0.0
 10
104.8222669326213
 20
130.2336525051225
 30
0.0
 10
104.5408024457958
 20
130.2336525051225
 30
0.0
 10
104.1721769856939
 20
130.2336525051225
 30
0.0
 10
101.6465758193322
 20
130.6305277668397
 30
0.0
 10
101.6420971922469
 20
132.8388354296931
 30
0.0
  0
SPLINE
  5
3C6
330
3BD
100
AcDbEntity
  8
LOGO
370
     0
100
AcDbSpline
210
0.0
220
0.0
230
1.0
 70
    11
 71
     3
 72
    32
 73
    28
 74
     0
 42
0.000000001
 43
0.0000000001
 40
0.0
 40
0.0
 40
0.0
 40
0.0
 40
1.0
 40
1.0
 40
1.0
 40
2.0
 40
2.0
 40
2.0
 40
3.0
 40
3.0
 40
3.0
 40
4.0
 40
4.0
 40
4.0
 40
5.0
 40
5.0
 40
5.0
 40
6.0
 40
6.0
 40
6.0
 40
7.0
 40
7.0
 40
7.0
 40
8.0
 40
8.0
 40
8.0
 40
9.0
 40
9.0
 40
9.0
 40
9.0
 10
106.2595617172429
 20
153.4105476718098
 30
0.0
 10
104.8222669326213
 20
151.5474388043041
 30
0.0
 10
103.7177685914188
 20
149.8758773721411
 30
0.0
 10
101.9232171692965
 20
144.6141795664062
 30
0.0
 10
100.2754269116635
 20
139.7999999594306
 30
0.0
 10
99.22777268346732
 20
136.3052927937542
 30
0.0
 10
99.06964269637689
 20
132.039572749846
 30
0.0
 10
98.94665270641765
 20
128.8673267343149
 30
0.0
 10
100.8807305877373
 20
127.8027915271048
 30
0.0
 10
103.7129454545577
 20
127.8027915271048
 30
0.0
 10
104.9352661390825
 20
127.8027915271048
 30
0.0
 10
108.0151835347002
 20
127.8827177950895
 30
0.0
 10
110.2045431598849
 20
130.5926316915021
 30
0.0
 10
111.7417457794874
 20
132.4984597712065
 30
0.0
 10
113.155269389579
 20
134.475256864725
 30
0.0
 10
115.0562743324223
 20
140.9489400617108
 30
0.0
 10
116.6361961642235
 20
146.3680788349845
 30
0.0
 10
117.7282921534974
 20
149.8639917848761
 30
0.0
 10
117.6480213757369
 20
151.8595646611754
 30
0.0
 10
117.6480213757369
 20
151.8595646611754
 30
0.0
 10
117.6480213757369
 20
151.8595646611754
 30
0.0
 10
117.6480213757369
 20
151.8595646611754
 30
0.0
 10
117.13229024137
 20
155.18150017429
 30
0.0
 10
114.7162431837115
 20
155.886194920681
 30
0.0
 10
113.3351034925446
 20
155.886194920681
 30
0.0
 10
111.9829026225447
 20
155.886194920681
 30
0.0
 10
108.3414342923792
 20
156.1251124501957
 30
0.0
 10
106.2595617172429
 20
153.4105476718098
 30
0.0
  0
HATCH
  5
3C7
330
3BD
100
AcDbEntity
  8
LOGO
 62
   250
420
  2234388
100
AcDbHatch
 10
0.0
 20
0.0
 30
0.0
210
0.0
220
0.0
230
1.0
  2
SOLID
 70
     1
 71
     0
 91
        2
 92
        1
 93
        1
 72
     4
 94
        3
 73
     0
 74
     1
 95
       29
 96
       25
 40
0.0
 40
0.0
 40
0.0
 40
0.0
 40
1.0
 40
1.0
 40
1.0
 40
2.0
 40
2.0
 40
2.0
 40
3.0
 40
3.0
 40
3.0
 40
4.0
 40
4.0
 40
4.0
 40
5.0
 40
5.0
 40
5.0
 40
6.0
 40
6.0
 40
6.0
 40
7.0
 40
7.0
 40
7.0
 40
8.0
 40
8.0
 40
8.0
 40
8.0
 10
101.6420971922469
 20
132.8388354296931
 10
101.630039350094
 20
134.7164137077823
 10
102.2236296937908
 20
138.0598810818841
 10
103.7487744712405
 20
142.5378191476827
 10
105.819967243327
 20
148.5896501242061
 10
107.0602024361932
 20
150.8074318058939
 10
108.1522984254671
 20
151.8833358357054
 10
109.741177511439
 20
153.4532668840085
 10
111.8740375333931
 20
153.5290590346837
 10
112.5075910110823
 20
153.4532668840085
 10
113.4012493694975
 20
153.3490526768302
 10
114.6683563248758
 20
152.7580461564518
 10
114.7493161221879
 20
150.7838328862519
 10
114.8106388622796
 20
149.0909118479895
 10
114.3186789024427
 20
145.9191825971221
 10
112.6164561002338
 20
140.9489400617108
 10
110.6444821435766
 20
135.1746117095912
 10
109.4669477299053
 20
132.8960240524753
 10
108.5212683953448
 20
131.9072809959403
 10
106.7346406980658
 20
130.0538184021569
 10
104.8222669326213
 20
130.2336525051225
 10
104.5408024457958
 20
130.2336525051225
 10
104.1721769856939
 20
130.2336525051225
 10
101.6465758193322
 20
130.6305277668397
 10
101.6420971922469
 20
132.8388354296931
 97
        0
 92
        1
 93
        1
 72
     4
 94
        3
 73
     0
 74
     1
 95
       32
 96
       28
 40
0.0
 40
0.0
 40
0.0
 40
0.0
 40
1.0
 40
1.0
 40
1.0
 40
2.0
 40
2.0
 40
2.0
 40
3.0
 40
3.0
 40
3.0
 40
4.0
 40
4.0
 40
4.0
 40
5.0
 40
5.0
 40
5.0
 40
6.0
 40
6.0
 40
6.0
 40
7.0
 40
7.0
 40
7.0
 40
8.0
 40
8.0
 40
8.0
 40
9.0
 40
9.0
 40
9.0
 40
9.0
 10
106.2595617172429
 20
153.4105476718098
 10
104.8222669326213
 20
151.5474388043041
 10
103.7177685914188
 20
149.8758773721411
 10
101.9232171692965
 20
144.6141795664062
 10
100.2754269116635
 20
139.7999999594306
 10
99.22777268346732
 20
136.3052927937542
 10
99.06964269637689
 20
132.039572749846
 10
98.94665270641765
 20
128.8673267343149
 10
100.8807305877373
 20
127.8027915271048
 10
103.7129454545577
 20
127.8027915271048
 10
104.9352661390825
 20
127.8027915271048
 10
108.0151835347002
 20
127.8827177950895
 10
110.2045431598849
 20
130.5926316915021
 10
111.7417457794874
 20
132.4984597712065
 10
113.155269389579
 20
134.475256864725
 10
115.0562743324223
 20
140.9489400617108
 10
116.6361961642235
 20
146.3680788349845
 10
117.7282921534974
 20
149.8639917848761
 10
117.6480213757369
 20
151.8595646611754
 10
117.6480213757369
 20
151.8595646611754
 10
117.6480213757369
 20
151.8595646611754
 10
117.6480213757369
 20
151.8595646611754
 10
117.13229024137
 20
155.18150017429
 10
114.7162431837115
 20
155.886194920681
 10
113.3351034925446
 20
155.886194920681
 10
111.9829026225447
 20
155.886194920681
 10
108.3414342923792
 20
156.1251124501957
 10
106.2595617172429
 20
153.4105476718098
 97
        0
 75
     2
 76
     1
 98
        0
  0
ENDBLK
  5
3C8
330
3BD
100
AcDbEntity
  8
0
100
AcDbBlockEnd
  0
BLOCK
  5
9646
330
9645
100
AcDbEntity
  8
0
100
AcDbBlockBegin
  2
*D6
 70
     1
 10
0.0
 20
0.0
 30
0.0
  3
*D6
  1
*D129
  0
LINE
  5
9648
330
9645
100
AcDbEntity
  8
寸法
  6
Continuous
 62
     0
440
 33554687
370
    -2
100
AcDbLine
 10
1262.254915103811
 20
3520.264183807442
 30
0.0
 11
1923.28140706789
 21
3520.264183807442
 31
0.0
  0
LINE
  5
9649
330
9645
100
AcDbEntity
  8
寸法
  6
Continuous
 62
     0
440
 33554687
370
    -2
100
AcDbLine
 10
1570.117134047032
 20
1720.264183807442
 30
0.0
 11
1923.28140706789
 21
1720.264183807442
 31
0.0
  0
LINE
  5
964A
330
9645
100
AcDbEntity
  8
寸法
  6
Continuous
 62
     0
440
 33554687
370
    -2
100
AcDbLine
 10
1923.28140706789
 20
3502.264183807442
 30
0.0
 11
1923.28140706789
 21
1738.264183807442
 31
0.0
  0
INSERT
  5
964B
330
9645
100
AcDbEntity
  8
寸法
 62
     0
370
    -2
100
AcDbBlockReference
  2
_DOT
 10
1923.28140706789
 20
3520.264183807442
 30
0.0
 41
18.0
 42
18.0
 43
18.0
 50
90.0
  0
INSERT
  5
964C
330
9645
100
AcDbEntity
  8
寸法
 62
     0
370
    -2
100
AcDbBlockReference
  2
_DOT
 10
1923.28140706789
 20
1720.264183807442
 30
0.0
 41
18.0
 42
18.0
 43
18.0
 50
270.0
  0
MTEXT
  5
964D
330
9645
100
AcDbEntity
  8
寸法
  6
Continuous
 62
     0
440
 33554687
100
AcDbMText
 10
1869.28140706789
 20
2620.264183807442
 30
0.0
 40
48.0
 41
0.0
 46
0.0
 71
     5
 72
     1
  1
\A1;1800
  7
ＭＳ ゴシック
 11
0.0
 21
1.0
 31
0.0
 73
     1
 44
1.0
  0
POINT
  5
964E
330
9645
100
AcDbEntity
  8
Defpoints
 62
     0
440
 33554687
100
AcDbPoint
 10
1237.254915103811
 20
3520.264183807442
 30
0.0
  0
POINT
  5
964F
330
9645
100
AcDbEntity
  8
Defpoints
 62
     0
440
 33554687
100
AcDbPoint
 10
1545.117134047032
 20
1720.264183807442
 30
0.0
  0
POINT
  5
9650
330
9645
100
AcDbEntity
  8
Defpoints
 62
     0
440
 33554687
100
AcDbPoint
 10
1923.28140706789
 20
1720.264183807442
 30
0.0
  0
ENDBLK
  5
9647
330
9645
100
AcDbEntity
  8
0
100
AcDbBlockEnd
  0
BLOCK
  5
9655
330
9654
100
AcDbEntity
  8
0
100
AcDbBlockBegin
  2
*D7
 70
     1
 10
0.0
 20
0.0
 30
0.0
  3
*D7
  1
*D130
  0
LINE
  5
9657
330
9654
100
AcDbEntity
  8
寸法
  6
Continuous
 62
     0
440
 33554687
370
    -2
100
AcDbLine
 10
1218.133762732845
 20
1800.264183807442
 30
0.0
 11
1785.342699175882
 21
1800.264183807442
 31
0.0
  0
LINE
  5
9658
330
9654
100
AcDbEntity
  8
寸法
  6
Continuous
 62
     0
440
 33554687
370
    -2
100
AcDbLine
 10
1218.133762732845
 20
3440.264183807442
 30
0.0
 11
1785.342699175882
 21
3440.264183807442
 31
0.0
  0
LINE
  5
9659
330
9654
100
AcDbEntity
  8
寸法
  6
Continuous
 62
     0
440
 33554687
370
    -2
100
AcDbLine
 10
1785.342699175882
 20
1818.264183807442
 30
0.0
 11
1785.342699175882
 21
3422.264183807442
 31
0.0
  0
INSERT
  5
965A
330
9654
100
AcDbEntity
  8
寸法
 62
     0
370
    -2
100
AcDbBlockReference
  2
_DOT
 10
1785.342699175882
 20
1800.264183807442
 30
0.0
 41
18.0
 42
18.0
 43
18.0
 50
270.0
  0
INSERT
  5
965B
330
9654
100
AcDbEntity
  8
寸法
 62
     0
370
    -2
100
AcDbBlockReference
  2
_DOT
 10
1785.342699175882
 20
3440.264183807442
 30
0.0
 41
18.0
 42
18.0
 43
18.0
 50
90.0
  0
MTEXT
  5
965C
330
9654
100
AcDbEntity
  8
寸法
  6
Continuous
 62
     0
440
 33554687
100
AcDbMText
 10
1731.342699175882
 20
2620.264183807442
 30
0.0
 40
48.0
 41
0.0
 46
0.0
 71
     5
 72
     1
  1
\A1;1640
  7
ＭＳ ゴシック
 11
0.0
 21
1.0
 31
0.0
 73
     1
 44
1.0
  0
POINT
  5
965D
330
9654
100
AcDbEntity
  8
Defpoints
 62
     0
440
 33554687
100
AcDbPoint
 10
1193.133762732845
 20
1800.264183807442
 30
0.0
  0
POINT
  5
965E
330
9654
100
AcDbEntity
  8
Defpoints
 62
     0
440
 33554687
100
AcDbPoint
 10
1193.133762732845
 20
3440.264183807442
 30
0.0
  0
POINT
  5
965F
330
9654
100
AcDbEntity
  8
Defpoints
 62
     0
440
 33554687
100
AcDbPoint
 10
1785.342699175882
 20
3440.264183807442
 30
0.0
  0
ENDBLK
  5
9656
330
9654
100
AcDbEntity
  8
0
100
AcDbBlockEnd
  0
BLOCK
  5
9667
330
9666
100
AcDbEntity
  8
0
100
AcDbBlockBegin
  2
*D8
 70
     1
 10
0.0
 20
0.0
 30
0.0
  3
*D8
  1
*D131
  0
LINE
  5
9669
330
9666
100
AcDbEntity
  8
寸法
  6
Continuous
 62
     0
440
 33554687
370
    -2
100
AcDbLine
 10
1046.641593089499
 20
2008.264183807442
 30
0.0
 11
621.484851337067
 21
2008.264183807442
 31
0.0
  0
LINE
  5
966A
330
9666
100
AcDbEntity
  8
寸法
  6
Continuous
 62
     0
440
 33554687
370
    -2
100
AcDbLine
 10
1046.641593089499
 20
3333.264183807442
 30
0.0
 11
621.4848513370671
 21
3333.264183807442
 31
0.0
  0
LINE
  5
966B
330
9666
100
AcDbEntity
  8
寸法
  6
Continuous
 62
     0
440
 33554687
370
    -2
100
AcDbLine
 10
621.484851337067
 20
2026.264183807442
 30
0.0
 11
621.4848513370671
 21
3315.264183807442
 31
0.0
  0
INSERT
  5
966C
330
9666
100
AcDbEntity
  8
寸法
 62
     0
370
    -2
100
AcDbBlockReference
  2
_DOT
 10
621.484851337067
 20
2008.264183807442
 30
0.0
 41
18.0
 42
18.0
 43
18.0
 50
270.0
  0
INSERT
  5
966D
330
9666
100
AcDbEntity
  8
寸法
 62
     0
370
    -2
100
AcDbBlockReference
  2
_DOT
 10
621.4848513370671
 20
3333.264183807442
 30
0.0
 41
18.0
 42
18.0
 43
18.0
 50
90.0
  0
MTEXT
  5
966E
330
9666
100
AcDbEntity
  8
寸法
  6
Continuous
 62
     0
440
 33554687
100
AcDbMText
 10
567.4848513370671
 20
2670.764183807442
 30
0.0
 40
48.0
 41
0.0
 46
0.0
 71
     5
 72
     1
  1
\A1;1325
  7
ＭＳ ゴシック
 11
8.580138695971021E-17
 21
1.0
 31
0.0
 73
     1
 44
1.0
  0
POINT
  5
966F
330
9666
100
AcDbEntity
  8
Defpoints
 62
     0
440
 33554687
100
AcDbPoint
 10
1071.641593089499
 20
2008.264183807442
 30
0.0
  0
POINT
  5
9670
330
9666
100
AcDbEntity
  8
Defpoints
 62
     0
440
 33554687
100
AcDbPoint
 10
1071.641593089499
 20
3333.264183807442
 30
0.0
  0
POINT
  5
9671
330
9666
100
AcDbEntity
  8
Defpoints
 62
     0
440
 33554687
100
AcDbPoint
 10
621.4848513370671
 20
3333.264183807442
 30
0.0
  0
ENDBLK
  5
9668
330
9666
100
AcDbEntity
  8
0
100
AcDbBlockEnd
  0
BLOCK
  5
9676
330
9675
100
AcDbEntity
  8
0
100
AcDbBlockBegin
  2
*D9
 70
     1
 10
0.0
 20
0.0
 30
0.0
  3
*D9
  1
*D132
  0
LINE
  5
9678
330
9675
100
AcDbEntity
  8
寸法
  6
Continuous
 62
     0
440
 33554687
370
    -2
100
AcDbLine
 10
1595.117134047032
 20
1720.264183807442
 30
0.0
 11
1785.342699175882
 21
1720.264183807442
 31
0.0
  0
LINE
  5
9679
330
9675
100
AcDbEntity
  8
寸法
  6
Continuous
 62
     0
440
 33554687
370
    -2
100
AcDbLine
 10
1595.117134047032
 20
1800.264183807442
 30
0.0
 11
1785.342699175882
 21
1800.264183807442
 31
0.0
  0
LINE
  5
967A
330
9675
100
AcDbEntity
  8
寸法
  6
Continuous
 62
     0
440
 33554687
370
    -2
100
AcDbLine
 10
1785.342699175882
 20
1738.264183807442
 30
0.0
 11
1785.342699175882
 21
1782.264183807442
 31
0.0
  0
INSERT
  5
967B
330
9675
100
AcDbEntity
  8
寸法
 62
     0
370
    -2
100
AcDbBlockReference
  2
_DOT
 10
1785.342699175882
 20
1720.264183807442
 30
0.0
 41
18.0
 42
18.0
 43
18.0
 50
270.0
  0
INSERT
  5
967C
330
9675
100
AcDbEntity
  8
寸法
 62
     0
370
    -2
100
AcDbBlockReference
  2
_DOT
 10
1785.342699175882
 20
1800.264183807442
 30
0.0
 41
18.0
 42
18.0
 43
18.0
 50
90.0
  0
MTEXT
  5
967D
330
9675
100
AcDbEntity
  8
寸法
  6
Continuous
 62
     0
440
 33554687
100
AcDbMText
 10
1731.342699175882
 20
1760.264183807442
 30
0.0
 40
48.0
 41
0.0
 46
0.0
 71
     5
 72
     1
  1
\A1;80
  7
ＭＳ ゴシック
 11
0.0
 21
1.0
 31
0.0
 73
     1
 44
1.0
  0
POINT
  5
967E
330
9675
100
AcDbEntity
  8
Defpoints
 62
     0
440
 33554687
100
AcDbPoint
 10
1570.117134047032
 20
1720.264183807442
 30
0.0
  0
POINT
  5
967F
330
9675
100
AcDbEntity
  8
Defpoints
 62
     0
440
 33554687
100
AcDbPoint
 10
1570.117134047032
 20
1800.264183807442
 30
0.0
  0
POINT
  5
9680
330
9675
100
AcDbEntity
  8
Defpoints
 62
     0
440
 33554687
100
AcDbPoint
 10
1785.342699175882
 20
1800.264183807442
 30
0.0
  0
ENDBLK
  5
9677
330
9675
100
AcDbEntity
  8
0
100
AcDbBlockEnd
  0
BLOCK
  5
9686
330
9685
100
AcDbEntity
  8
0
100
AcDbBlockBegin
  2
*D10
 70
     1
 10
0.0
 20
0.0
 30
0.0
  3
*D10
  1
*D133
  0
LINE
  5
9688
330
9685
100
AcDbEntity
  8
寸法
  6
Continuous
 62
     0
440
 33554687
370
    -2
100
AcDbLine
 10
1527.347609738194
 20
3216.830218604351
 30
0.0
 11
1527.347609738194
 21
3707.22542468976
 31
0.0
  0
LINE
  5
9689
330
9685
100
AcDbEntity
  8
寸法
  6
Continuous
 62
     0
440
 33554687
370
    -2
100
AcDbLine
 10
1217.347609738195
 20
2720.781403685017
 30
0.0
 11
1217.347609738195
 21
3707.22542468976
 31
0.0
  0
LINE
  5
968A
330
9685
100
AcDbEntity
  8
寸法
  6
Continuous
 62
     0
440
 33554687
370
    -2
100
AcDbLine
 10
1509.347609738194
 20
3707.22542468976
 30
0.0
 11
1235.347609738195
 21
3707.22542468976
 31
0.0
  0
INSERT
  5
968B
330
9685
100
AcDbEntity
  8
寸法
 62
     0
370
    -2
100
AcDbBlockReference
  2
_DOT
 10
1527.347609738194
 20
3707.22542468976
 30
0.0
 41
18.0
 42
18.0
 43
18.0
  0
INSERT
  5
968C
330
9685
100
AcDbEntity
  8
寸法
 62
     0
370
    -2
100
AcDbBlockReference
  2
_DOT
 10
1217.347609738195
 20
3707.22542468976
 30
0.0
 41
18.0
 42
18.0
 43
18.0
 50
180.0
  0
MTEXT
  5
968D
330
9685
100
AcDbEntity
  8
寸法
  6
Continuous
 62
     0
440
 33554687
100
AcDbMText
 10
1372.347609738195
 20
3761.22542468976
 30
0.0
 40
48.0
 41
0.0
 46
0.0
 71
     5
 72
     1
  1
\A1;310
  7
ＭＳ ゴシック
 73
     1
 44
1.0
  0
POINT
  5
968E
330
9685
100
AcDbEntity
  8
Defpoints
 62
     0
440
 33554687
100
AcDbPoint
 10
1527.347609738194
 20
3191.830218604351
 30
0.0
  0
POINT
  5
968F
330
9685
100
AcDbEntity
  8
Defpoints
 62
     0
440
 33554687
100
AcDbPoint
 10
1217.347609738195
 20
2695.781403685017
 30
0.0
  0
POINT
  5
9690
330
9685
100
AcDbEntity
  8
Defpoints
 62
     0
440
 33554687
100
AcDbPoint
 10
1217.347609738195
 20
3707.22542468976
 30
0.0
  0
ENDBLK
  5
9687
330
9685
100
AcDbEntity
  8
0
100
AcDbBlockEnd
  0
BLOCK
  5
96AA
330
96A9
100
AcDbEntity
  8
0
100
AcDbBlockBegin
  2
*D11
 70
     1
 10
0.0
 20
0.0
 30
0.0
  3
*D11
  1
*D135
  0
LINE
  5
96AC
330
96A9
100
AcDbEntity
  8
寸法
  6
Continuous
 62
     0
440
 33554687
370
    -2
100
AcDbLine
 10
807.3476097381954
 20
1994.462820347899
 30
0.0
 11
807.3476097381955
 21
1477.891833490286
 31
0.0
  0
LINE
  5
96AD
330
96A9
100
AcDbEntity
  8
寸法
  6
Continuous
 62
     0
440
 33554687
370
    -2
100
AcDbLine
 10
1447.347609738194
 20
1994.462820347899
 30
0.0
 11
1447.347609738194
 21
1477.891833490286
 31
0.0
  0
LINE
  5
96AE
330
96A9
100
AcDbEntity
  8
寸法
  6
Continuous
 62
     0
440
 33554687
370
    -2
100
AcDbLine
 10
825.3476097381955
 20
1477.891833490286
 30
0.0
 11
1429.347609738194
 21
1477.891833490286
 31
0.0
  0
INSERT
  5
96AF
330
96A9
100
AcDbEntity
  8
寸法
 62
     0
370
    -2
100
AcDbBlockReference
  2
_DOT
 10
807.3476097381955
 20
1477.891833490286
 30
0.0
 41
18.0
 42
18.0
 43
18.0
 50
180.0
  0
INSERT
  5
96B0
330
96A9
100
AcDbEntity
  8
寸法
 62
     0
370
    -2
100
AcDbBlockReference
  2
_DOT
 10
1447.347609738194
 20
1477.891833490286
 30
0.0
 41
18.0
 42
18.0
 43
18.0
  0
MTEXT
  5
96B1
330
96A9
100
AcDbEntity
  8
寸法
  6
Continuous
 62
     0
440
 33554687
100
AcDbMText
 10
1127.347609738195
 20
1531.891833490286
 30
0.0
 40
48.0
 41
0.0
 46
0.0
 71
     5
 72
     1
  1
\A1;640
  7
ＭＳ ゴシック
 73
     1
 44
1.0
  0
POINT
  5
96B2
330
96A9
100
AcDbEntity
  8
Defpoints
 62
     0
440
 33554687
100
AcDbPoint
 10
807.3476097381954
 20
2019.462820347899
 30
0.0
  0
POINT
  5
96B3
330
96A9
100
AcDbEntity
  8
Defpoints
 62
     0
440
 33554687
100
AcDbPoint
 10
1447.347609738194
 20
2019.462820347899
 30
0.0
  0
POINT
  5
96B4
330
96A9
100
AcDbEntity
  8
Defpoints
 62
     0
440
 33554687
100
AcDbPoint
 10
1447.347609738194
 20
1477.891833490286
 30
0.0
  0
ENDBLK
  5
96AB
330
96A9
100
AcDbEntity
  8
0
100
AcDbBlockEnd
  0
BLOCK
  5
96B9
330
96B8
100
AcDbEntity
  8
0
100
AcDbBlockBegin
  2
*D12
 70
     1
 10
0.0
 20
0.0
 30
0.0
  3
*D12
  1
*D136
  0
LINE
  5
96BB
330
96B8
100
AcDbEntity
  8
寸法
  6
Continuous
 62
     0
440
 33554687
370
    -2
100
AcDbLine
 10
807.3476097381954
 20
1994.462820347899
 30
0.0
 11
807.3476097381955
 21
1477.891833490286
 31
0.0
  0
LINE
  5
96BC
330
96B8
100
AcDbEntity
  8
寸法
  6
Continuous
 62
     0
440
 33554687
370
    -2
100
AcDbLine
 10
727.3476097381954
 20
1694.397114809216
 30
0.0
 11
727.3476097381954
 21
1477.891833490286
 31
0.0
  0
LINE
  5
96BD
330
96B8
100
AcDbEntity
  8
寸法
  6
Continuous
 62
     0
440
 33554687
370
    -2
100
AcDbLine
 10
789.3476097381955
 20
1477.891833490286
 30
0.0
 11
745.3476097381954
 21
1477.891833490286
 31
0.0
  0
INSERT
  5
96BE
330
96B8
100
AcDbEntity
  8
寸法
 62
     0
370
    -2
100
AcDbBlockReference
  2
_DOT
 10
807.3476097381955
 20
1477.891833490286
 30
0.0
 41
18.0
 42
18.0
 43
18.0
  0
INSERT
  5
96BF
330
96B8
100
AcDbEntity
  8
寸法
 62
     0
370
    -2
100
AcDbBlockReference
  2
_DOT
 10
727.3476097381954
 20
1477.891833490286
 30
0.0
 41
18.0
 42
18.0
 43
18.0
 50
180.0
  0
MTEXT
  5
96C0
330
96B8
100
AcDbEntity
  8
寸法
  6
Continuous
 62
     0
440
 33554687
100
AcDbMText
 10
767.3476097381955
 20
1531.891833490286
 30
0.0
 40
48.0
 41
0.0
 46
0.0
 71
     5
 72
     1
  1
\A1;80
  7
ＭＳ ゴシック
 73
     1
 44
1.0
  0
POINT
  5
96C1
330
96B8
100
AcDbEntity
  8
Defpoints
 62
     0
440
 33554687
100
AcDbPoint
 10
807.3476097381954
 20
2019.462820347899
 30
0.0
  0
POINT
  5
96C2
330
96B8
100
AcDbEntity
  8
Defpoints
 62
     0
440
 33554687
100
AcDbPoint
 10
727.3476097381954
 20
1719.397114809216
 30
0.0
  0
POINT
  5
96C3
330
96B8
100
AcDbEntity
  8
Defpoints
 62
     0
440
 33554687
100
AcDbPoint
 10
727.3476097381954
 20
1477.891833490286
 30
0.0
  0
ENDBLK
  5
96BA
330
96B8
100
AcDbEntity
  8
0
100
AcDbBlockEnd
  0
BLOCK
  5
96CA
330
96C9
100
AcDbEntity
  8
0
100
AcDbBlockBegin
  2
*D13
 70
     1
 10
0.0
 20
0.0
 30
0.0
  3
*D13
  1
*D137
  0
LINE
  5
96CC
330
96C9
100
AcDbEntity
  8
寸法
  6
Continuous
 62
     0
440
 33554687
370
    -2
100
AcDbLine
 10
727.3476097381954
 20
1697.656712583403
 30
0.0
 11
727.3476097381954
 21
1344.067171693715
 31
0.0
  0
LINE
  5
96CD
330
96C9
100
AcDbEntity
  8
寸法
  6
Continuous
 62
     0
440
 33554687
370
    -2
100
AcDbLine
 10
1527.347609738195
 20
1677.410493465807
 30
0.0
 11
1527.347609738195
 21
1344.067171693715
 31
0.0
  0
LINE
  5
96CE
330
96C9
100
AcDbEntity
  8
寸法
  6
Continuous
 62
     0
440
 33554687
370
    -2
100
AcDbLine
 10
745.3476097381954
 20
1344.067171693715
 30
0.0
 11
1509.347609738195
 21
1344.067171693715
 31
0.0
  0
INSERT
  5
96CF
330
96C9
100
AcDbEntity
  8
寸法
 62
     0
370
    -2
100
AcDbBlockReference
  2
_DOT
 10
727.3476097381954
 20
1344.067171693715
 30
0.0
 41
18.0
 42
18.0
 43
18.0
 50
180.0
  0
INSERT
  5
96D0
330
96C9
100
AcDbEntity
  8
寸法
 62
     0
370
    -2
100
AcDbBlockReference
  2
_DOT
 10
1527.347609738195
 20
1344.067171693715
 30
0.0
 41
18.0
 42
18.0
 43
18.0
  0
MTEXT
  5
96D1
330
96C9
100
AcDbEntity
  8
寸法
  6
Continuous
 62
     0
440
 33554687
100
AcDbMText
 10
1127.347609738195
 20
1398.067171693715
 30
0.0
 40
48.0
 41
0.0
 46
0.0
 71
     5
 72
     1
  1
\A1;800
  7
ＭＳ ゴシック
 73
     1
 44
1.0
  0
POINT
  5
96D2
330
96C9
100
AcDbEntity
  8
Defpoints
 62
     0
440
 33554687
100
AcDbPoint
 10
727.3476097381954
 20
1722.656712583403
 30
0.0
  0
POINT
  5
96D3
330
96C9
100
AcDbEntity
  8
Defpoints
 62
     0
440
 33554687
100
AcDbPoint
 10
1527.347609738195
 20
1702.410493465807
 30
0.0
  0
POINT
  5
96D4
330
96C9
100
AcDbEntity
  8
Defpoints
 62
     0
440
 33554687
100
AcDbPoint
 10
1527.347609738195
 20
1344.067171693715
 30
0.0
  0
ENDBLK
  5
96CB
330
96C9
100
AcDbEntity
  8
0
100
AcDbBlockEnd
  0
BLOCK
  5
96DA
330
96D9
100
AcDbEntity
  8
0
100
AcDbBlockBegin
  2
*D14
 70
     1
 10
0.0
 20
0.0
 30
0.0
  3
*D14
  1
*D138
  0
LINE
  5
96DC
330
96D9
100
AcDbEntity
  8
寸法
  6
Continuous
 62
     0
440
 33554687
370
    -2
100
AcDbLine
 10
727.3476097381954
 20
3558.939435516208
 30
0.0
 11
727.3476097381954
 21
3872.154536597573
 31
0.0
  0
LINE
  5
96DD
330
96D9
100
AcDbEntity
  8
寸法
  6
Continuous
 62
     0
440
 33554687
370
    -2
100
AcDbLine
 10
1527.347609738195
 20
3732.22542468976
 30
0.0
 11
1527.347609738195
 21
3872.154536597573
 31
0.0
  0
LINE
  5
96DE
330
96D9
100
AcDbEntity
  8
寸法
  6
Continuous
 62
     0
440
 33554687
370
    -2
100
AcDbLine
 10
745.3476097381954
 20
3872.154536597573
 30
0.0
 11
1509.347609738195
 21
3872.154536597573
 31
0.0
  0
INSERT
  5
96DF
330
96D9
100
AcDbEntity
  8
寸法
 62
     0
370
    -2
100
AcDbBlockReference
  2
_DOT
 10
727.3476097381954
 20
3872.154536597573
 30
0.0
 41
18.0
 42
18.0
 43
18.0
 50
180.0
  0
INSERT
  5
96E0
330
96D9
100
AcDbEntity
  8
寸法
 62
     0
370
    -2
100
AcDbBlockReference
  2
_DOT
 10
1527.347609738195
 20
3872.154536597573
 30
0.0
 41
18.0
 42
18.0
 43
18.0
  0
MTEXT
  5
96E1
330
96D9
100
AcDbEntity
  8
寸法
  6
Continuous
 62
     0
440
 33554687
100
AcDbMText
 10
1127.347609738195
 20
3926.154536597573
 30
0.0
 40
48.0
 41
0.0
 46
0.0
 71
     5
 72
     1
  1
\A1;800
  7
ＭＳ ゴシック
 73
     1
 44
1.0
  0
POINT
  5
96E2
330
96D9
100
AcDbEntity
  8
Defpoints
 62
     0
440
 33554687
100
AcDbPoint
 10
727.3476097381954
 20
3533.939435516208
 30
0.0
  0
POINT
  5
96E3
330
96D9
100
AcDbEntity
  8
Defpoints
 62
     0
440
 33554687
100
AcDbPoint
 10
1527.347609738195
 20
3707.22542468976
 30
0.0
  0
POINT
  5
96E4
330
96D9
100
AcDbEntity
  8
Defpoints
 62
     0
440
 33554687
100
AcDbPoint
 10
1527.347609738195
 20
3872.154536597573
 30
0.0
  0
ENDBLK
  5
96DB
330
96D9
100
AcDbEntity
  8
0
100
AcDbBlockEnd
  0
BLOCK
  5
96E9
330
96E8
100
AcDbEntity
  8
0
100
AcDbBlockBegin
  2
*D15
 70
     1
 10
0.0
 20
0.0
 30
0.0
  3
*D15
  1
*D139
  0
LINE
  5
96EB
330
96E8
100
AcDbEntity
  8
寸法
  6
Continuous
 62
     0
440
 33554687
370
    -2
100
AcDbLine
 10
916.3476097381954
 20
2095.264183807442
 30
0.0
 11
916.3476097381954
 21
1580.395829760001
 31
0.0
  0
LINE
  5
96EC
330
96E8
100
AcDbEntity
  8
寸法
  6
Continuous
 62
     0
440
 33554687
370
    -2
100
AcDbLine
 10
1338.347609738195
 20
2095.264183807442
 30
0.0
 11
1338.347609738195
 21
1580.395829760001
 31
0.0
  0
LINE
  5
96ED
330
96E8
100
AcDbEntity
  8
寸法
  6
Continuous
 62
     0
440
 33554687
370
    -2
100
AcDbLine
 10
934.3476097381954
 20
1580.395829760001
 30
0.0
 11
1320.347609738195
 21
1580.395829760001
 31
0.0
  0
INSERT
  5
96EE
330
96E8
100
AcDbEntity
  8
寸法
 62
     0
370
    -2
100
AcDbBlockReference
  2
_DOT
 10
916.3476097381954
 20
1580.395829760001
 30
0.0
 41
18.0
 42
18.0
 43
18.0
 50
180.0
  0
INSERT
  5
96EF
330
96E8
100
AcDbEntity
  8
寸法
 62
     0
370
    -2
100
AcDbBlockReference
  2
_DOT
 10
1338.347609738195
 20
1580.395829760001
 30
0.0
 41
18.0
 42
18.0
 43
18.0
  0
MTEXT
  5
96F0
330
96E8
100
AcDbEntity
  8
寸法
  6
Continuous
 62
     0
440
 33554687
100
AcDbMText
 10
1127.347609738195
 20
1634.395829760001
 30
0.0
 40
48.0
 41
0.0
 46
0.0
 71
     5
 72
     1
  1
\A1;422
  7
ＭＳ ゴシック
 73
     1
 44
1.0
  0
POINT
  5
96F1
330
96E8
100
AcDbEntity
  8
Defpoints
 62
     0
440
 33554687
100
AcDbPoint
 10
916.3476097381954
 20
2120.264183807442
 30
0.0
  0
POINT
  5
96F2
330
96E8
100
AcDbEntity
  8
Defpoints
 62
     0
440
 33554687
100
AcDbPoint
 10
1338.347609738195
 20
2120.264183807442
 30
0.0
  0
POINT
  5
96F3
330
96E8
100
AcDbEntity
  8
Defpoints
 62
     0
440
 33554687
100
AcDbPoint
 10
1338.347609738195
 20
1580.395829760001
 30
0.0
  0
ENDBLK
  5
96EA
330
96E8
100
AcDbEntity
  8
0
100
AcDbBlockEnd
  0
BLOCK
  5
9707
330
9706
100
AcDbEntity
  8
0
100
AcDbBlockBegin
  2
*D16
 70
     1
 10
0.0
 20
0.0
 30
0.0
  3
*D16
  1
*D140
  0
LINE
  5
9709
330
9706
100
AcDbEntity
  8
寸法
  6
Continuous
 62
     0
440
 33554687
370
    -2
100
AcDbLine
 10
2646.018269738194
 20
1701.581855381932
 30
0.0
 11
2646.018269738194
 21
1523.256760722652
 31
0.0
  0
LINE
  5
970A
330
9706
100
AcDbEntity
  8
寸法
  6
Continuous
 62
     0
440
 33554687
370
    -2
100
AcDbLine
 10
3096.018269738194
 20
2595.264183807442
 30
0.0
 11
3096.018269738194
 21
1523.256760722652
 31
0.0
  0
LINE
  5
970B
330
9706
100
AcDbEntity
  8
寸法
  6
Continuous
 62
     0
440
 33554687
370
    -2
100
AcDbLine
 10
2664.018269738194
 20
1523.256760722652
 30
0.0
 11
3078.018269738194
 21
1523.256760722652
 31
0.0
  0
INSERT
  5
970C
330
9706
100
AcDbEntity
  8
寸法
 62
     0
370
    -2
100
AcDbBlockReference
  2
_DOT
 10
2646.018269738194
 20
1523.256760722652
 30
0.0
 41
18.0
 42
18.0
 43
18.0
 50
180.0
  0
INSERT
  5
970D
330
9706
100
AcDbEntity
  8
寸法
 62
     0
370
    -2
100
AcDbBlockReference
  2
_DOT
 10
3096.018269738194
 20
1523.256760722652
 30
0.0
 41
18.0
 42
18.0
 43
18.0
  0
MTEXT
  5
970E
330
9706
100
AcDbEntity
  8
寸法
  6
Continuous
 62
     0
440
 33554687
100
AcDbMText
 10
2871.018269738193
 20
1577.256760722652
 30
0.0
 40
48.0
 41
0.0
 46
0.0
 71
     5
 72
     1
  1
\A1;450
  7
ＭＳ ゴシック
 73
     1
 44
1.0
  0
POINT
  5
970F
330
9706
100
AcDbEntity
  8
Defpoints
 62
     0
440
 33554687
100
AcDbPoint
 10
2646.018269738194
 20
1726.581855381932
 30
0.0
  0
POINT
  5
9710
330
9706
100
AcDbEntity
  8
Defpoints
 62
     0
440
 33554687
100
AcDbPoint
 10
3096.018269738194
 20
2620.264183807442
 30
0.0
  0
POINT
  5
9711
330
9706
100
AcDbEntity
  8
Defpoints
 62
     0
440
 33554687
100
AcDbPoint
 10
3096.018269738194
 20
1523.256760722652
 30
0.0
  0
ENDBLK
  5
9708
330
9706
100
AcDbEntity
  8
0
100
AcDbBlockEnd
  0
BLOCK
  5
971B
330
971A
100
AcDbEntity
  8
0
100
AcDbBlockBegin
  2
*D17
 70
     1
 10
0.0
 20
0.0
 30
0.0
  3
*D17
  1
*D141
  0
LINE
  5
971D
330
971A
100
AcDbEntity
  8
寸法
  6
Continuous
 62
     0
440
 33554687
370
    -2
100
AcDbLine
 10
2646.018269738194
 20
3535.064183807443
 30
0.0
 11
2646.018269738194
 21
3707.22542468976
 31
0.0
  0
LINE
  5
971E
330
971A
100
AcDbEntity
  8
寸法
  6
Continuous
 62
     0
440
 33554687
370
    -2
100
AcDbLine
 10
3116.018269738194
 20
3554.159306249685
 30
0.0
 11
3116.018269738194
 21
3707.22542468976
 31
0.0
  0
LINE
  5
971F
330
971A
100
AcDbEntity
  8
寸法
  6
Continuous
 62
     0
440
 33554687
370
    -2
100
AcDbLine
 10
2664.018269738194
 20
3707.22542468976
 30
0.0
 11
3098.018269738194
 21
3707.22542468976
 31
0.0
  0
INSERT
  5
9720
330
971A
100
AcDbEntity
  8
寸法
 62
     0
370
    -2
100
AcDbBlockReference
  2
_DOT
 10
2646.018269738194
 20
3707.22542468976
 30
0.0
 41
18.0
 42
18.0
 43
18.0
 50
180.0
  0
INSERT
  5
9721
330
971A
100
AcDbEntity
  8
寸法
 62
     0
370
    -2
100
AcDbBlockReference
  2
_DOT
 10
3116.018269738194
 20
3707.22542468976
 30
0.0
 41
18.0
 42
18.0
 43
18.0
  0
MTEXT
  5
9722
330
971A
100
AcDbEntity
  8
寸法
  6
Continuous
 62
     0
440
 33554687
100
AcDbMText
 10
2881.018269738194
 20
3761.22542468976
 30
0.0
 40
48.0
 41
0.0
 46
0.0
 71
     5
 72
     1
  1
\A1;470
  7
ＭＳ ゴシック
 73
     1
 44
1.0
  0
POINT
  5
9723
330
971A
100
AcDbEntity
  8
Defpoints
 62
     0
440
 33554687
100
AcDbPoint
 10
2646.018269738194
 20
3510.064183807443
 30
0.0
  0
POINT
  5
9724
330
971A
100
AcDbEntity
  8
Defpoints
 62
     0
440
 33554687
100
AcDbPoint
 10
3116.018269738194
 20
3529.159306249685
 30
0.0
  0
POINT
  5
9725
330
971A
100
AcDbEntity
  8
Defpoints
 62
     0
440
 33554687
100
AcDbPoint
 10
3116.018269738194
 20
3707.22542468976
 30
0.0
  0
ENDBLK
  5
971C
330
971A
100
AcDbEntity
  8
0
100
AcDbBlockEnd
  0
BLOCK
  5
972A
330
9729
100
AcDbEntity
  8
0
100
AcDbBlockBegin
  2
*D18
 70
     1
 10
0.0
 20
0.0
 30
0.0
  3
*D18
  1
*D142
  0
LINE
  5
972C
330
9729
100
AcDbEntity
  8
寸法
  6
Continuous
 62
     0
440
 33554687
370
    -2
100
AcDbLine
 10
2646.018269738194
 20
3560.064183807443
 30
0.0
 11
2646.018269738194
 21
3872.154536597573
 31
0.0
  0
LINE
  5
972D
330
9729
100
AcDbEntity
  8
寸法
  6
Continuous
 62
     0
440
 33554687
370
    -2
100
AcDbLine
 10
3246.018269738194
 20
3492.204183807443
 30
0.0
 11
3246.018269738194
 21
3872.154536597573
 31
0.0
  0
LINE
  5
972E
330
9729
100
AcDbEntity
  8
寸法
  6
Continuous
 62
     0
440
 33554687
370
    -2
100
AcDbLine
 10
2664.018269738194
 20
3872.154536597573
 30
0.0
 11
3228.018269738194
 21
3872.154536597573
 31
0.0
  0
INSERT
  5
972F
330
9729
100
AcDbEntity
  8
寸法
 62
     0
370
    -2
100
AcDbBlockReference
  2
_DOT
 10
2646.018269738194
 20
3872.154536597573
 30
0.0
 41
18.0
 42
18.0
 43
18.0
 50
180.0
  0
INSERT
  5
9730
330
9729
100
AcDbEntity
  8
寸法
 62
     0
370
    -2
100
AcDbBlockReference
  2
_DOT
 10
3246.018269738194
 20
3872.154536597573
 30
0.0
 41
18.0
 42
18.0
 43
18.0
  0
MTEXT
  5
9731
330
9729
100
AcDbEntity
  8
寸法
  6
Continuous
 62
     0
440
 33554687
100
AcDbMText
 10
2946.018269738194
 20
3926.154536597573
 30
0.0
 40
48.0
 41
0.0
 46
0.0
 71
     5
 72
     1
  1
\A1;600
  7
ＭＳ ゴシック
 73
     1
 44
1.0
  0
POINT
  5
9732
330
9729
100
AcDbEntity
  8
Defpoints
 62
     0
440
 33554687
100
AcDbPoint
 10
2646.018269738194
 20
3535.064183807443
 30
0.0
  0
POINT
  5
9733
330
9729
100
AcDbEntity
  8
Defpoints
 62
     0
440
 33554687
100
AcDbPoint
 10
3246.018269738194
 20
3467.204183807443
 30
0.0
  0
POINT
  5
9734
330
9729
100
AcDbEntity
  8
Defpoints
 62
     0
440
 33554687
100
AcDbPoint
 10
3246.018269738194
 20
3872.154536597573
 30
0.0
  0
ENDBLK
  5
972B
330
9729
100
AcDbEntity
  8
0
100
AcDbBlockEnd
  0
BLOCK
  5
973A
330
9739
100
AcDbEntity
  8
0
100
AcDbBlockBegin
  2
*D19
 70
     1
 10
0.0
 20
0.0
 30
0.0
  3
*D19
  1
*D143
  0
LINE
  5
973C
330
9739
100
AcDbEntity
  8
寸法
  6
Continuous
 62
     0
440
 33554687
370
    -2
100
AcDbLine
 10
3275.848382951145
 20
1712.204183807443
 30
0.0
 11
3432.267337461377
 21
1712.204183807443
 31
0.0
  0
LINE
  5
973D
330
9739
100
AcDbEntity
  8
寸法
  6
Continuous
 62
     0
440
 33554687
370
    -2
100
AcDbLine
 10
3275.848382951145
 20
3467.204183807443
 30
0.0
 11
3432.267337461377
 21
3467.204183807443
 31
0.0
  0
LINE
  5
973E
330
9739
100
AcDbEntity
  8
寸法
  6
Continuous
 62
     0
440
 33554687
370
    -2
100
AcDbLine
 10
3432.267337461377
 20
1730.204183807443
 30
0.0
 11
3432.267337461377
 21
3449.204183807443
 31
0.0
  0
INSERT
  5
973F
330
9739
100
AcDbEntity
  8
寸法
 62
     0
370
    -2
100
AcDbBlockReference
  2
_DOT
 10
3432.267337461377
 20
1712.204183807443
 30
0.0
 41
18.0
 42
18.0
 43
18.0
 50
270.0
  0
INSERT
  5
9740
330
9739
100
AcDbEntity
  8
寸法
 62
     0
370
    -2
100
AcDbBlockReference
  2
_DOT
 10
3432.267337461377
 20
3467.204183807443
 30
0.0
 41
18.0
 42
18.0
 43
18.0
 50
90.0
  0
MTEXT
  5
9741
330
9739
100
AcDbEntity
  8
寸法
  6
Continuous
 62
     0
440
 33554687
100
AcDbMText
 10
3378.267337461377
 20
2589.704183807443
 30
0.0
 40
48.0
 41
0.0
 46
0.0
 71
     5
 72
     1
  1
\A1;1755
  7
ＭＳ ゴシック
 11
0.0
 21
1.0
 31
0.0
 73
     1
 44
1.0
  0
POINT
  5
9742
330
9739
100
AcDbEntity
  8
Defpoints
 62
     0
440
 33554687
100
AcDbPoint
 10
3250.848382951145
 20
1712.204183807443
 30
0.0
  0
POINT
  5
9743
330
9739
100
AcDbEntity
  8
Defpoints
 62
     0
440
 33554687
100
AcDbPoint
 10
3250.848382951145
 20
3467.204183807443
 30
0.0
  0
POINT
  5
9744
330
9739
100
AcDbEntity
  8
Defpoints
 62
     0
440
 33554687
100
AcDbPoint
 10
3432.267337461377
 20
3467.204183807443
 30
0.0
  0
ENDBLK
  5
973B
330
9739
100
AcDbEntity
  8
0
100
AcDbBlockEnd
  0
BLOCK
  5
9773
330
9772
100
AcDbEntity
  8
0
100
AcDbBlockBegin
  2
*D20
 70
     1
 10
0.0
 20
0.0
 30
0.0
  3
*D20
  1
*D145
  0
LINE
  5
9775
330
9772
100
AcDbEntity
  8
寸法
  6
Continuous
 62
     0
440
 33554687
370
    -2
100
AcDbLine
 10
3271.018269738194
 20
5069.690122801592
 30
0.0
 11
3432.267337461377
 21
5069.690122801592
 31
0.0
  0
LINE
  5
9776
330
9772
100
AcDbEntity
  8
寸法
  6
Continuous
 62
     0
440
 33554687
370
    -2
100
AcDbLine
 10
3271.018269738194
 20
4314.690122801592
 30
0.0
 11
3432.267337461377
 21
4314.690122801592
 31
0.0
  0
LINE
  5
9777
330
9772
100
AcDbEntity
  8
寸法
  6
Continuous
 62
     0
440
 33554687
370
    -2
100
AcDbLine
 10
3432.267337461377
 20
5051.690122801592
 30
0.0
 11
3432.267337461377
 21
4332.690122801592
 31
0.0
  0
INSERT
  5
9778
330
9772
100
AcDbEntity
  8
寸法
 62
     0
370
    -2
100
AcDbBlockReference
  2
_DOT
 10
3432.267337461377
 20
5069.690122801592
 30
0.0
 41
18.0
 42
18.0
 43
18.0
 50
90.0
  0
INSERT
  5
9779
330
9772
100
AcDbEntity
  8
寸法
 62
     0
370
    -2
100
AcDbBlockReference
  2
_DOT
 10
3432.267337461377
 20
4314.690122801592
 30
0.0
 41
18.0
 42
18.0
 43
18.0
 50
270.0
  0
MTEXT
  5
977A
330
9772
100
AcDbEntity
  8
寸法
  6
Continuous
 62
     0
440
 33554687
100
AcDbMText
 10
3378.267337461377
 20
4692.190122801592
 30
0.0
 40
48.0
 41
0.0
 46
0.0
 71
     5
 72
     1
  1
\A1;755
  7
ＭＳ ゴシック
 11
0.0
 21
1.0
 31
0.0
 73
     1
 44
1.0
  0
POINT
  5
977B
330
9772
100
AcDbEntity
  8
Defpoints
 62
     0
440
 33554687
100
AcDbPoint
 10
3246.018269738194
 20
5069.690122801592
 30
0.0
  0
POINT
  5
977C
330
9772
100
AcDbEntity
  8
Defpoints
 62
     0
440
 33554687
100
AcDbPoint
 10
3246.018269738194
 20
4314.690122801592
 30
0.0
  0
POINT
  5
977D
330
9772
100
AcDbEntity
  8
Defpoints
 62
     0
440
 33554687
100
AcDbPoint
 10
3432.267337461377
 20
4314.690122801592
 30
0.0
  0
ENDBLK
  5
9774
330
9772
100
AcDbEntity
  8
0
100
AcDbBlockEnd
  0
BLOCK
  5
9812
330
9811
100
AcDbEntity
  8
0
100
AcDbBlockBegin
  2
*D21
 70
     1
 10
0.0
 20
0.0
 30
0.0
  3
*D21
  1
*D21
  0
LINE
  5
9814
330
9811
100
AcDbEntity
  8
寸法
  6
Continuous
 62
     0
440
 33554687
370
    -2
100
AcDbLine
 10
1435.852739372612
 20
3402.307770845423
 30
0.0
 11
1743.422324912389
 21
3683.496058613025
 31
0.0
  0
MTEXT
  5
9815
330
9811
100
AcDbEntity
  8
寸法
  6
Continuous
 62
     0
440
 33554687
100
AcDbMText
 10
1640.774081156853
 20
3662.818026842468
 30
0.0
 40
48.0
 41
0.0
 46
0.0
 71
     5
 72
     1
  1
\A1;R400
  7
ＭＳ ゴシック
 11
0.7380505493646348
 21
0.6747454235358407
 31
0.0
 73
     1
 44
1.0
  0
INSERT
  5
9816
330
9811
100
AcDbEntity
  8
寸法
 62
     0
370
    -2
100
AcDbBlockReference
  2
_DOT
 10
1422.567829484049
 20
3390.162353221778
 30
0.0
 41
18.0
 42
18.0
 43
18.0
 50
222.4343840002795
  0
POINT
  5
9817
330
9811
100
AcDbEntity
  8
Defpoints
 62
     0
440
 33554687
100
AcDbPoint
 10
1422.567829484049
 20
3390.162353221778
 30
0.0
  0
POINT
  5
9818
330
9811
100
AcDbEntity
  8
Defpoints
 62
     0
440
 33554687
100
AcDbPoint
 10
1127.347609738195
 20
3120.264183807442
 30
0.0
  0
ENDBLK
  5
9813
330
9811
100
AcDbEntity
  8
0
100
AcDbBlockEnd
  0
ENDSEC
  0
SECTION
  2
ENTITIES
  0
MTEXT
  5
177
330
A
100
AcDbEntity
  8
TEMPLATE
390
1D
100
AcDbMText
 10
158.5094110653718
 20
697.5697439524535
 30
0.0
 40
32.57682291666666
 41
0.0
 46
0.0
 71
     1
 72
     1
  1
品名
  7
ＭＳ ゴシック
 73
     1
 44
0.7828267384257843
  0
MTEXT
  5
178
330
A
100
AcDbEntity
  8
TEMPLATE
390
1D
100
AcDbMText
 10
158.5094110653718
 20
527.5697439524531
 30
0.0
 40
32.57682291666666
 41
0.0
 46
0.0
 71
     1
 72
     1
  1
仕様
  7
ＭＳ ゴシック
 73
     1
 44
0.7828267384257843
  0
LINE
  5
179
330
A
100
AcDbEntity
  8
TEMPLATE
390
1D
100
AcDbLine
 10
4044.509411064408
 20
544.3995877024532
 30
0.0
 11
144.5094110644077
 21
544.3995877024532
 31
0.0
  0
LWPOLYLINE
  5
17A
330
A
100
AcDbEntity
  8
TEMPLATE
390
1D
100
AcDbPolyline
 90
        5
 70
   128
 43
0.0
 10
4044.509411064408
 20
5804.399587702454
 10
144.5094110644077
 20
5804.399587702454
 10
144.5094110644077
 20
204.3995877024531
 10
4044.509411064408
 20
204.3995877024531
 10
4044.509411064408
 20
5804.399587702454
  0
LINE
  5
17B
330
A
100
AcDbEntity
  8
TEMPLATE
390
1D
100
AcDbLine
 10
4044.509411064408
 20
714.399587702453
 30
0.0
 11
144.5094110644077
 21
714.399587702453
 31
0.0
  0
LINE
  5
17C
330
A
100
AcDbEntity
  8
TEMPLATE
390
1D
100
AcDbLine
 10
4044.509411065372
 20
374.3995877024532
 30
0.0
 11
2538.509411065372
 21
374.3995877024532
 31
0.0
  0
MTEXT
  5
17E
330
A
100
AcDbEntity
  8
TEMPLATE
390
1D
100
AcDbMText
 10
2598.252223569894
 20
314.5787987558371
 30
0.0
 40
48.865234375
 41
0.0
 46
0.0
 71
     1
 72
     1
  1
大洋金物株式会社 ティーフォルム事業部
  7
ＭＳ ゴシック
 73
     1
 44
0.7828267384257843
  0
MTEXT
  5
180
330
A
100
AcDbEntity
  8
TEMPLATE
390
1D
100
AcDbMText
 10
3662.509411065892
 20
470.404822077453
 30
0.0
 40
48.865234375
 41
0.0
 46
24.4326171875
 71
     1
 72
     1
  1
{1:20}
  7
ＭＳ ゴシック
 73
     1
 44
0.7828267384257843
1001
ACAD
1000
ACAD_MTEXT_DEFINED_HEIGHT_BEGIN
1070
    46
1040
24.4326171875
1000
ACAD_MTEXT_DEFINED_HEIGHT_END
  0
MTEXT
  5
181
330
A
100
AcDbEntity
  8
TEMPLATE
390
1D
100
AcDbMText
 10
3556.509411065892
 20
527.5697439524531
 30
0.0
 40
32.57682291666666
 41
0.0
 46
0.0
 71
     1
 72
     1
  1
縮尺
  7
ＭＳ ゴシック
 73
     1
 44
0.7828267384257843
  0
LINE
  5
182
330
A
100
AcDbEntity
  8
TEMPLATE
390
1D
100
AcDbLine
 10
3542.509411065892
 20
374.3995877024532
 30
0.0
 11
3542.509411065892
 21
544.3995877024532
 31
0.0
  0
MTEXT
  5
183
330
A
100
AcDbEntity
  8
TEMPLATE
390
1D
100
AcDbMText
 10
3054.509411065892
 20
527.5697439524531
 30
0.0
 40
32.57682291666666
 41
0.0
 46
0.0
 71
     1
 72
     1
  1
容量
  7
ＭＳ ゴシック
 73
     1
 44
0.7828267384257843
  0
LINE
  5
184
330
A
100
AcDbEntity
  8
TEMPLATE
390
1D
100
AcDbLine
 10
3040.509411065892
 20
374.3995877024532
 30
0.0
 11
3040.509411065892
 21
544.3995877024532
 31
0.0
  0
MTEXT
  5
185
330
A
100
AcDbEntity
  8
TEMPLATE
390
1D
100
AcDbMText
 10
2552.509411065892
 20
697.5697439524535
 30
0.0
 40
32.57682291666666
 41
0.0
 46
0.0
 71
     1
 72
     1
  1
品番
  7
ＭＳ ゴシック
 73
     1
 44
0.7828267384257843
  0
MTEXT
  5
186
330
A
100
AcDbEntity
  8
TEMPLATE
390
1D
100
AcDbMText
 10
2552.509411065892
 20
527.5697439524531
 30
0.0
 40
32.57682291666666
 41
0.0
 46
0.0
 71
     1
 72
     1
  1
重量
  7
ＭＳ ゴシック
 73
     1
 44
0.7828267384257843
  0
MTEXT
  5
187
330
A
100
AcDbEntity
  8
TEMPLATE
390
1D
100
AcDbMText
 10
2658.509411065892
 20
640.404822077453
 30
0.0
 40
48.865234375
 41
0.0
 46
48.865234375
 71
     1
 72
     1
  1
{FAB72-3704}
  7
ＭＳ ゴシック
 73
     1
 44
0.7828267384257843
1001
ACAD
1000
ACAD_MTEXT_DEFINED_HEIGHT_BEGIN
1070
    46
1040
48.865234375
1000
ACAD_MTEXT_DEFINED_HEIGHT_END
  0
LINE
  5
188
330
A
100
AcDbEntity
  8
TEMPLATE
390
1D
100
AcDbLine
 10
2538.509411065892
 20
204.3995877024531
 30
0.0
 11
2538.509411065892
 21
714.399587702453
 31
0.0
  0
MTEXT
  5
189
330
A
100
AcDbEntity
  8
TEMPLATE
390
1D
100
AcDbMText
 10
264.5094110653717
 20
640.404822077453
 30
0.0
 40
48.865234375
 41
0.0
 46
57.025728515625
 71
     1
 72
     1
  1
{アクリルバス -HOESCH,Happy D-}
  7
ＭＳ ゴシック
 73
     1
 44
0.7828267384257843
1001
ACAD
1000
ACAD_MTEXT_DEFINED_HEIGHT_BEGIN
1070
    46
1040
57.025728515625
1000
ACAD_MTEXT_DEFINED_HEIGHT_END
  0
MTEXT
  5
18A
330
A
100
AcDbEntity
  8
TEMPLATE
390
1D
100
AcDbMText
 10
264.5094110653717
 20
509.5733518788759
 30
0.0
 40
48.865234375
 41
0.0
 46
157.3714019567855
 71
     1
 72
     1
  1
{バス用ポップアップ排水金具付属/\Pホワイト}
  7
ＭＳ ゴシック
 73
     1
 44
1.304711230709641
1001
ACAD
1000
ACAD_MTEXT_DEFINED_HEIGHT_BEGIN
1070
    46
1040
157.3714019567855
1000
ACAD_MTEXT_DEFINED_HEIGHT_END
  0
INSERT
  5
3D0
330
A
100
AcDbEntity
  8
TEMPLATE
100
AcDbBlockReference
  2
名称未設定-1
 10
3741.627912174218
 20
61.99977220290424
 30
0.0
 41
1.524
 42
1.524
 43
1.524
  0
MTEXT
  5
C6B
330
A
100
AcDbEntity
  8
TEMPLATE
390
1D
100
AcDbMText
 10
3160.509411065892
 20
470.404822077453
 30
0.0
 40
48.865234375
 41
0.0
 46
48.865234375
 71
     1
 72
     1
  1
{155L}
  7
ＭＳ ゴシック
 73
     1
 44
0.7828267384257843
1001
ACAD
1000
ACAD_MTEXT_DEFINED_HEIGHT_BEGIN
1070
    46
1040
48.865234375
1000
ACAD_MTEXT_DEFINED_HEIGHT_END
  0
ARC
  5
942E
330
A
100
AcDbEntity
  8
モデル
100
AcDbCircle
 10
2656.008900738194
 20
3510.304927807443
 30
0.0
 40
9.993530999999999
100
AcDbArc
 50
136.3800239999962
 51
181.3803840000026
  0
ARC
  5
942F
330
A
100
AcDbEntity
  8
モデル
100
AcDbCircle
 10
2656.007272738194
 20
3510.274162807443
 30
0.0
 40
9.99288
100
AcDbArc
 50
89.91842699999796
 51
136.3704109999942
  0
LINE
  5
9430
330
A
100
AcDbEntity
  8
モデル
100
AcDbLine
 10
2656.021499738195
 20
3520.267032807443
 30
0.0
 11
3116.018269738194
 21
3528.294183807443
 31
0.0
  0
LINE
  5
9432
330
A
100
AcDbEntity
  8
モデル
100
AcDbLine
 10
2655.858269738194
 20
1720.234183807443
 30
0.0
 11
2655.858269738194
 21
1720.234183807443
 31
0.0
  0
ARC
  5
9433
330
A
100
AcDbEntity
  8
モデル
100
AcDbCircle
 10
2656.099761738194
 20
1730.25760080744
 30
0.0
 40
9.996333999997578
100
AcDbArc
 50
223.6296829999919
 51
268.615713000005
  0
LINE
  5
9434
330
A
100
AcDbEntity
  8
モデル
100
AcDbLine
 10
2648.864269738195
 20
1723.330183807443
 30
0.0
 11
2648.864269738195
 21
1723.330183807443
 31
0.0
  0
ARC
  5
9435
330
A
100
AcDbEntity
  8
モデル
100
AcDbCircle
 10
2656.098997738194
 20
1730.224347807442
 30
0.0
 40
9.993537
100
AcDbArc
 50
181.0903309999966
 51
223.6192069999961
  0
LINE
  5
9436
330
A
100
AcDbEntity
  8
モデル
100
AcDbLine
 10
2646.107269738195
 20
1730.034183807443
 30
0.0
 11
2646.107269738195
 21
1730.414183807443
 31
0.0
  0
LINE
  5
9437
330
A
100
AcDbEntity
  8
モデル
100
AcDbLine
 10
2646.107269738195
 20
1730.414183807443
 30
0.0
 11
2646.107269738195
 21
1730.846183807443
 31
0.0
  0
LINE
  5
9438
330
A
100
AcDbEntity
  8
モデル
100
AcDbLine
 10
2646.107269738195
 20
1730.846183807443
 30
0.0
 11
2646.114269738195
 21
1730.839183807443
 31
0.0
  0
LINE
  5
9439
330
A
100
AcDbEntity
  8
HIDDEN
100
AcDbLine
 10
2646.114269738195
 20
1730.839183807443
 30
0.0
 11
2647.189269738195
 21
1790.814183807443
 31
0.0
  0
LINE
  5
943A
330
A
100
AcDbEntity
  8
HIDDEN
100
AcDbLine
 10
2647.189269738195
 20
1790.814183807443
 30
0.0
 11
2647.189269738195
 21
1790.814183807443
 31
0.0
  0
ARC
  5
943B
330
A
100
AcDbEntity
  8
HIDDEN
100
AcDbCircle
 10
2657.188207738194
 20
1790.414207807443
 30
0.0
 40
10.006934
100
AcDbArc
 50
134.8864789999996
 51
177.7092799999984
  0
LINE
  5
943C
330
A
100
AcDbEntity
  8
HIDDEN
100
AcDbLine
 10
2650.126269738194
 20
1797.504183807443
 30
0.0
 11
2650.126269738194
 21
1797.504183807443
 31
0.0
  0
ARC
  5
943D
330
A
100
AcDbEntity
  8
HIDDEN
100
AcDbCircle
 10
2657.188187738195
 20
1790.413217807442
 30
0.0
 40
10.007621
100
AcDbArc
 50
92.0896980000023
 51
134.8824039999946
  0
LINE
  5
943E
330
A
100
AcDbEntity
  8
HIDDEN
100
AcDbLine
 10
2656.823269738195
 20
1800.414183807443
 30
0.0
 11
2656.828269738195
 21
1800.414183807443
 31
0.0
  0
LINE
  5
943F
330
A
100
AcDbEntity
  8
HIDDEN
100
AcDbLine
 10
2656.828269738195
 20
1800.414183807443
 30
0.0
 11
2686.018269738194
 21
1801.137183807443
 31
0.0
  0
LINE
  5
9440
330
A
100
AcDbEntity
  8
HIDDEN
100
AcDbLine
 10
2686.018269738194
 20
1801.137183807443
 30
0.0
 11
2687.662269738194
 21
1801.448183807443
 31
0.0
  0
LINE
  5
9441
330
A
100
AcDbEntity
  8
HIDDEN
100
AcDbLine
 10
2687.662269738194
 20
1801.448183807443
 30
0.0
 11
3027.938269738194
 21
1983.716183807443
 31
0.0
  0
LINE
  5
9442
330
A
100
AcDbEntity
  8
HIDDEN
100
AcDbLine
 10
3027.938269738194
 20
1983.716183807443
 30
0.0
 11
3027.938269738194
 21
1983.716183807443
 31
0.0
  0
ARC
  5
9443
330
A
100
AcDbEntity
  8
HIDDEN
100
AcDbCircle
 10
2986.625055738195
 20
2061.412742807443
 30
0.0
 40
87.99736800000001
100
AcDbArc
 50
298.0007020000002
 51
328.001491
  0
LINE
  5
9444
330
A
100
AcDbEntity
  8
HIDDEN
100
AcDbLine
 10
3061.252269738195
 20
2014.783183807443
 30
0.0
 11
3061.252269738195
 21
2014.783183807443
 31
0.0
  0
ARC
  5
9445
330
A
100
AcDbEntity
  8
HIDDEN
100
AcDbCircle
 10
2986.619317738194
 20
2061.417180807443
 30
0.0
 40
88.004586
100
AcDbArc
 50
328.0010209999995
 51
357.999557
  0
LINE
  5
9446
330
A
100
AcDbEntity
  8
HIDDEN
100
AcDbLine
 10
3074.570269738194
 20
2058.345183807442
 30
0.0
 11
3096.018681738195
 21
2568.520199807443
 31
0.0
  0
LINE
  5
9447
330
A
100
AcDbEntity
  8
HIDDEN
100
AcDbLine
 10
3116.018269738194
 20
3498.274183807443
 30
0.0
 11
3116.018269738194
 21
3490.274183807443
 31
0.0
  0
LINE
  5
9448
330
A
100
AcDbEntity
  8
モデル
100
AcDbLine
 10
2646.018269738194
 20
1734.846183807443
 30
0.0
 11
2646.018269738194
 21
3510.064183807443
 31
0.0
  0
LINE
  5
9449
330
A
100
AcDbEntity
  8
モデル
100
AcDbLine
 10
3116.018269738194
 20
3528.324183807443
 30
0.0
 11
3116.018269738194
 21
2620.264183807442
 31
0.0
  0
LINE
  5
944B
330
A
100
AcDbEntity
  8
HIDDEN
100
AcDbLine
 10
3110.126330738194
 20
2595.166273807443
 30
0.0
 11
3110.126330738194
 21
2620.264183807442
 31
0.0
  0
LINE
  5
944C
330
A
100
AcDbEntity
  8
HIDDEN
100
AcDbLine
 10
3114.167782738195
 20
2620.264183807442
 30
0.0
 11
3114.167782738195
 21
2595.166273807443
 31
0.0
  0
LINE
  5
944D
330
A
100
AcDbEntity
  8
HIDDEN
100
AcDbLine
 10
3110.126330738194
 20
2595.166273807443
 30
0.0
 11
3114.167782738195
 21
2595.166273807443
 31
0.0
  0
LINE
  5
944E
330
A
100
AcDbEntity
  8
HIDDEN
100
AcDbLine
 10
3097.346447738195
 20
2573.030867807443
 30
0.0
 11
3110.126330738194
 21
2595.166273807443
 31
0.0
  0
ARC
  5
9451
330
A
100
AcDbEntity
  8
HIDDEN
100
AcDbCircle
 10
3106.006701738194
 20
2568.030867807443
 30
0.0
 40
10.0
100
AcDbArc
 50
150.0000000000001
 51
177.1952179999996
  0
LINE
  5
9452
330
A
100
AcDbEntity
  8
HIDDEN
100
AcDbLine
 10
3096.018681738195
 20
2568.520199807443
 30
0.0
 11
3096.018269738194
 21
2620.264183807442
 31
0.0
  0
LINE
  5
9454
330
A
100
AcDbEntity
  8
HIDDEN
100
AcDbLine
 10
3115.130610738194
 20
2451.747570807443
 30
0.0
 11
3097.468412738194
 21
2469.409768807443
 31
0.0
  0
LINE
  5
945F
330
A
100
AcDbEntity
  8
HIDDEN
100
AcDbLine
 10
3115.130610738194
 20
2451.747570807443
 30
0.0
 11
3102.215195738195
 21
2144.539652807443
 31
0.0
  0
LINE
  5
9460
330
A
100
AcDbEntity
  8
HIDDEN
100
AcDbLine
 10
3102.215195738195
 20
2144.539652807443
 30
0.0
 11
3082.363835738194
 21
2124.688292807443
 31
0.0
  0
LINE
  5
946B
330
A
100
AcDbEntity
  8
モデル
100
AcDbLine
 10
1527.347609738194
 20
1730.264183807442
 30
0.0
 11
1527.347609738194
 21
3120.264183807442
 31
0.0
  0
ARC
  5
946C
330
A
100
AcDbEntity
  8
モデル
100
AcDbCircle
 10
1517.347609738194
 20
1730.264183807442
 30
0.0
 40
10.0
100
AcDbArc
 50
270.0
 51
0.0
  0
ARC
  5
946D
102
{ACAD_REACTORS
330
9810
102
}
330
A
100
AcDbEntity
  8
モデル
100
AcDbCircle
 10
1127.347609738195
 20
3120.264183807442
 30
0.0
 40
400.0
100
AcDbArc
 50
0.0
 51
90.0
  0
LINE
  5
946E
330
A
100
AcDbEntity
  8
モデル
100
AcDbLine
 10
1127.347609738195
 20
3520.264183807442
 30
0.0
 11
737.3476097381954
 21
3520.264183807442
 31
0.0
  0
ARC
  5
946F
330
A
100
AcDbEntity
  8
モデル
100
AcDbCircle
 10
737.3476097381954
 20
3510.264183807442
 30
0.0
 40
10.0
100
AcDbArc
 50
90.0
 51
180.0
  0
LINE
  5
9470
330
A
100
AcDbEntity
  8
モデル
100
AcDbLine
 10
727.3476097381954
 20
3518.264183807442
 30
0.0
 11
727.3476097381954
 21
1730.264183807442
 31
0.0
  0
ARC
  5
9471
330
A
100
AcDbEntity
  8
モデル
100
AcDbCircle
 10
737.3476097381954
 20
1730.264183807442
 30
0.0
 40
10.0
100
AcDbArc
 50
180.0
 51
270.0
  0
LINE
  5
9472
330
A
100
AcDbEntity
  8
モデル
100
AcDbLine
 10
737.3476097381954
 20
1720.264183807442
 30
0.0
 11
1517.347609738194
 21
1720.264183807442
 31
0.0
  0
LINE
  5
9473
330
A
100
AcDbEntity
  8
HIDDEN
100
AcDbLine
 10
1127.347609738195
 20
1710.264183807442
 30
0.0
 11
1127.347609738195
 21
3530.264183807442
 31
0.0
  0
LINE
  5
9474
330
A
100
AcDbEntity
  8
HIDDEN
100
AcDbLine
 10
717.3476097381954
 20
2620.264183807442
 30
0.0
 11
1551.751587738195
 21
2620.264183807442
 31
0.0
  0
ARC
  5
9475
330
A
100
AcDbEntity
  8
モデル
100
AcDbCircle
 10
1127.347609738195
 20
3120.264183807442
 30
0.0
 40
320.0
100
AcDbArc
 50
0.0
 51
180.0
  0
ARC
  5
9476
330
A
100
AcDbEntity
  8
モデル
100
AcDbCircle
 10
1127.347609738195
 20
2120.264183807442
 30
0.0
 40
320.0
100
AcDbArc
 50
180.0
 51
0.0
  0
LINE
  5
9477
330
A
100
AcDbEntity
  8
モデル
100
AcDbLine
 10
807.3476097381954
 20
3120.264183807442
 30
0.0
 11
807.3476097381954
 21
2120.264183807442
 31
0.0
  0
LINE
  5
9478
330
A
100
AcDbEntity
  8
モデル
100
AcDbLine
 10
1447.347609738194
 20
2120.264183807442
 30
0.0
 11
1447.347609738194
 21
3120.264183807442
 31
0.0
  0
ARC
  5
9479
330
A
100
AcDbEntity
  8
モデル
100
AcDbCircle
 10
1127.347609738195
 20
2219.264183807442
 30
0.0
 40
211.0
100
AcDbArc
 50
180.0
 51
0.0
  0
ARC
  5
947B
330
A
100
AcDbEntity
  8
モデル
100
AcDbCircle
 10
1127.347609738195
 20
3120.264183807442
 30
0.0
 40
211.0
100
AcDbArc
 50
90.0
 51
180.0
  0
LINE
  5
947C
330
A
100
AcDbEntity
  8
モデル
100
AcDbLine
 10
916.3476097381954
 20
3120.264183807442
 30
0.0
 11
916.3476097381954
 21
2219.264183807442
 31
0.0
  0
LINE
  5
947D
330
A
100
AcDbEntity
  8
モデル
100
AcDbLine
 10
1338.347609738195
 20
2219.264183807442
 30
0.0
 11
1338.347609738195
 21
3120.264183807442
 31
0.0
  0
LINE
  5
947E
330
A
100
AcDbEntity
  8
HIDDEN
100
AcDbLine
 10
1217.347609738195
 20
2674.299273307443
 30
0.0
 11
1217.347609738195
 21
2566.229094307443
 31
0.0
  0
CIRCLE
  5
947F
330
A
100
AcDbEntity
  8
モデル
100
AcDbCircle
 10
1217.347609738195
 20
2620.264183807442
 30
0.0
 40
26.0
  0
CIRCLE
  5
9480
330
A
100
AcDbEntity
  8
モデル
100
AcDbCircle
 10
1217.347609738195
 20
2620.264183807442
 30
0.0
 40
45.0
  0
POLYLINE
  5
9485
330
A
100
AcDbEntity
  8
モデル
100
AcDb2dPolyline
 66
     1
 10
0.0
 20
0.0
 30
0.0
 70
     1
  0
VERTEX
  5
9486
330
9485
100
AcDbEntity
  8
モデル
100
AcDbVertex
100
AcDb2dVertex
 10
1432.309425738194
 20
2590.263884807443
 30
0.0
  0
VERTEX
  5
9487
330
9485
100
AcDbEntity
  8
モデル
100
AcDbVertex
100
AcDb2dVertex
 10
1433.087801738195
 20
2590.633238807443
 30
0.0
  0
VERTEX
  5
9488
330
9485
100
AcDbEntity
  8
モデル
100
AcDbVertex
100
AcDb2dVertex
 10
1433.847011738195
 20
2591.732204807443
 30
0.0
  0
VERTEX
  5
9489
330
9485
100
AcDbEntity
  8
モデル
100
AcDbVertex
100
AcDb2dVertex
 10
1434.568361738195
 20
2593.533721807443
 30
0.0
  0
VERTEX
  5
948A
330
9485
100
AcDbEntity
  8
モデル
100
AcDbVertex
100
AcDb2dVertex
 10
1435.234088738194
 20
2595.993432807443
 30
0.0
  0
VERTEX
  5
948B
330
9485
100
AcDbEntity
  8
モデル
100
AcDbVertex
100
AcDb2dVertex
 10
1435.827800738194
 20
2599.050769807443
 30
0.0
  0
VERTEX
  5
948C
330
9485
100
AcDbEntity
  8
モデル
100
AcDbVertex
100
AcDb2dVertex
 10
1436.334878738195
 20
2602.630450807444
 30
0.0
  0
VERTEX
  5
948D
330
9485
100
AcDbEntity
  8
モデル
100
AcDbVertex
100
AcDb2dVertex
 10
1436.742836738194
 20
2606.644333807443
 30
0.0
  0
VERTEX
  5
948E
330
9485
100
AcDbEntity
  8
モデル
100
AcDbVertex
100
AcDb2dVertex
 10
1437.041629738194
 20
2610.993581807443
 30
0.0
  0
VERTEX
  5
948F
330
9485
100
AcDbEntity
  8
モデル
100
AcDbVertex
100
AcDb2dVertex
 10
1437.223899738195
 20
2615.571103807443
 30
0.0
  0
VERTEX
  5
9490
330
9485
100
AcDbEntity
  8
モデル
100
AcDbVertex
100
AcDb2dVertex
 10
1437.285159738194
 20
2620.264183807442
 30
0.0
  0
VERTEX
  5
9491
330
9485
100
AcDbEntity
  8
モデル
100
AcDbVertex
100
AcDb2dVertex
 10
1437.223899738195
 20
2624.957264807444
 30
0.0
  0
VERTEX
  5
9492
330
9485
100
AcDbEntity
  8
モデル
100
AcDbVertex
100
AcDb2dVertex
 10
1437.041629738194
 20
2629.534785807443
 30
0.0
  0
VERTEX
  5
9493
330
9485
100
AcDbEntity
  8
モデル
100
AcDbVertex
100
AcDb2dVertex
 10
1436.742836738194
 20
2633.884034807444
 30
0.0
  0
VERTEX
  5
9494
330
9485
100
AcDbEntity
  8
モデル
100
AcDbVertex
100
AcDb2dVertex
 10
1436.334878738195
 20
2637.897917807443
 30
0.0
  0
VERTEX
  5
9495
330
9485
100
AcDbEntity
  8
モデル
100
AcDbVertex
100
AcDb2dVertex
 10
1435.827800738194
 20
2641.477598807443
 30
0.0
  0
VERTEX
  5
9496
330
9485
100
AcDbEntity
  8
モデル
100
AcDbVertex
100
AcDb2dVertex
 10
1435.234088738194
 20
2644.534935807443
 30
0.0
  0
VERTEX
  5
9497
330
9485
100
AcDbEntity
  8
モデル
100
AcDbVertex
100
AcDb2dVertex
 10
1434.568361738195
 20
2646.994645807443
 30
0.0
  0
VERTEX
  5
9498
330
9485
100
AcDbEntity
  8
モデル
100
AcDbVertex
100
AcDb2dVertex
 10
1433.847011738195
 20
2648.796163807443
 30
0.0
  0
VERTEX
  5
9499
330
9485
100
AcDbEntity
  8
モデル
100
AcDbVertex
100
AcDb2dVertex
 10
1433.087801738195
 20
2649.895129807443
 30
0.0
  0
VERTEX
  5
949A
330
9485
100
AcDbEntity
  8
モデル
100
AcDbVertex
100
AcDb2dVertex
 10
1432.309425738194
 20
2650.264482807444
 30
0.0
  0
VERTEX
  5
949B
330
9485
100
AcDbEntity
  8
モデル
100
AcDbVertex
100
AcDb2dVertex
 10
1431.531049738194
 20
2649.895129807443
 30
0.0
  0
VERTEX
  5
949C
330
9485
100
AcDbEntity
  8
モデル
100
AcDbVertex
100
AcDb2dVertex
 10
1430.771839738194
 20
2648.796163807443
 30
0.0
  0
VERTEX
  5
949D
330
9485
100
AcDbEntity
  8
モデル
100
AcDbVertex
100
AcDb2dVertex
 10
1430.050489738194
 20
2646.994645807443
 30
0.0
  0
VERTEX
  5
949E
330
9485
100
AcDbEntity
  8
モデル
100
AcDbVertex
100
AcDb2dVertex
 10
1429.384762738195
 20
2644.534935807443
 30
0.0
  0
VERTEX
  5
949F
330
9485
100
AcDbEntity
  8
モデル
100
AcDbVertex
100
AcDb2dVertex
 10
1428.791050738195
 20
2641.477598807443
 30
0.0
  0
VERTEX
  5
94A0
330
9485
100
AcDbEntity
  8
モデル
100
AcDbVertex
100
AcDb2dVertex
 10
1428.283972738194
 20
2637.897917807443
 30
0.0
  0
VERTEX
  5
94A1
330
9485
100
AcDbEntity
  8
モデル
100
AcDbVertex
100
AcDb2dVertex
 10
1427.876014738194
 20
2633.884034807444
 30
0.0
  0
VERTEX
  5
94A2
330
9485
100
AcDbEntity
  8
モデル
100
AcDbVertex
100
AcDb2dVertex
 10
1427.577221738195
 20
2629.534785807443
 30
0.0
  0
VERTEX
  5
94A3
330
9485
100
AcDbEntity
  8
モデル
100
AcDbVertex
100
AcDb2dVertex
 10
1427.394951738195
 20
2624.957264807444
 30
0.0
  0
VERTEX
  5
94A4
330
9485
100
AcDbEntity
  8
モデル
100
AcDbVertex
100
AcDb2dVertex
 10
1427.333692738194
 20
2620.264183807442
 30
0.0
  0
VERTEX
  5
94A5
330
9485
100
AcDbEntity
  8
モデル
100
AcDbVertex
100
AcDb2dVertex
 10
1427.394951738195
 20
2615.571103807443
 30
0.0
  0
VERTEX
  5
94A6
330
9485
100
AcDbEntity
  8
モデル
100
AcDbVertex
100
AcDb2dVertex
 10
1427.577221738195
 20
2610.993581807443
 30
0.0
  0
VERTEX
  5
94A7
330
9485
100
AcDbEntity
  8
モデル
100
AcDbVertex
100
AcDb2dVertex
 10
1427.876014738194
 20
2606.644333807443
 30
0.0
  0
VERTEX
  5
94A8
330
9485
100
AcDbEntity
  8
モデル
100
AcDbVertex
100
AcDb2dVertex
 10
1428.283972738194
 20
2602.630450807444
 30
0.0
  0
VERTEX
  5
94A9
330
9485
100
AcDbEntity
  8
モデル
100
AcDbVertex
100
AcDb2dVertex
 10
1428.791050738195
 20
2599.050769807443
 30
0.0
  0
VERTEX
  5
94AA
330
9485
100
AcDbEntity
  8
モデル
100
AcDbVertex
100
AcDb2dVertex
 10
1429.384762738195
 20
2595.993432807443
 30
0.0
  0
VERTEX
  5
94AB
330
9485
100
AcDbEntity
  8
モデル
100
AcDbVertex
100
AcDb2dVertex
 10
1430.050489738194
 20
2593.533721807443
 30
0.0
  0
VERTEX
  5
94AC
330
9485
100
AcDbEntity
  8
モデル
100
AcDbVertex
100
AcDb2dVertex
 10
1430.771839738194
 20
2591.732204807443
 30
0.0
  0
VERTEX
  5
94AD
330
9485
100
AcDbEntity
  8
モデル
100
AcDbVertex
100
AcDb2dVertex
 10
1431.531049738194
 20
2590.633238807443
 30
0.0
  0
SEQEND
  5
94AE
330
9485
100
AcDbEntity
  8
モデル
  0
LINE
  5
958C
330
A
100
AcDbEntity
  8
モデル
100
AcDbLine
 10
2655.858269738194
 20
3520.294183807443
 30
0.0
 11
2655.858269738194
 21
3520.294183807443
 31
0.0
  0
ARC
  5
958D
330
A
100
AcDbEntity
  8
モデル
100
AcDbCircle
 10
2656.099761738195
 20
3510.270766807443
 30
0.0
 40
9.996334
100
AcDbArc
 50
91.38428700000001
 51
136.3703169999885
  0
LINE
  5
958E
330
A
100
AcDbEntity
  8
モデル
100
AcDbLine
 10
2648.864269738195
 20
3517.198183807443
 30
0.0
 11
2648.864269738195
 21
3517.198183807443
 31
0.0
  0
ARC
  5
958F
330
A
100
AcDbEntity
  8
モデル
100
AcDbCircle
 10
2656.098997738194
 20
3510.304019807442
 30
0.0
 40
9.993537
100
AcDbArc
 50
136.3807929999827
 51
178.9096689999721
  0
LINE
  5
9590
330
A
100
AcDbEntity
  8
モデル
100
AcDbLine
 10
2646.107269738195
 20
3510.494183807443
 30
0.0
 11
2646.107269738195
 21
3510.114183807443
 31
0.0
  0
LINE
  5
9591
330
A
100
AcDbEntity
  8
モデル
100
AcDbLine
 10
2646.107269738195
 20
3510.114183807443
 30
0.0
 11
2646.107269738195
 21
3509.682183807443
 31
0.0
  0
LINE
  5
9592
330
A
100
AcDbEntity
  8
モデル
100
AcDbLine
 10
2646.107269738195
 20
3509.682183807443
 30
0.0
 11
2646.114269738195
 21
3509.689183807443
 31
0.0
  0
LINE
  5
9593
330
A
100
AcDbEntity
  8
HIDDEN
100
AcDbLine
 10
2646.114269738195
 20
3509.689183807443
 30
0.0
 11
2647.189269738195
 21
3449.714183807443
 31
0.0
  0
LINE
  5
9594
330
A
100
AcDbEntity
  8
HIDDEN
100
AcDbLine
 10
2647.189269738195
 20
3449.714183807443
 30
0.0
 11
2647.189269738195
 21
3449.714183807443
 31
0.0
  0
ARC
  5
9595
330
A
100
AcDbEntity
  8
HIDDEN
100
AcDbCircle
 10
2657.188207738194
 20
3450.114159807443
 30
0.0
 40
10.006934
100
AcDbArc
 50
182.2907199999808
 51
225.1135210000078
  0
LINE
  5
9596
330
A
100
AcDbEntity
  8
HIDDEN
100
AcDbLine
 10
2650.126269738194
 20
3443.024183807443
 30
0.0
 11
2650.126269738194
 21
3443.024183807443
 31
0.0
  0
ARC
  5
9597
330
A
100
AcDbEntity
  8
HIDDEN
100
AcDbCircle
 10
2657.188187738195
 20
3450.115149807442
 30
0.0
 40
10.007621
100
AcDbArc
 50
225.1175960000054
 51
267.9103019999977
  0
LINE
  5
9598
330
A
100
AcDbEntity
  8
HIDDEN
100
AcDbLine
 10
2656.823269738195
 20
3440.114183807443
 30
0.0
 11
2656.828269738195
 21
3440.114183807443
 31
0.0
  0
LINE
  5
9599
330
A
100
AcDbEntity
  8
HIDDEN
100
AcDbLine
 10
2656.828269738195
 20
3440.114183807443
 30
0.0
 11
2686.018269738194
 21
3439.391183807443
 31
0.0
  0
LINE
  5
959A
330
A
100
AcDbEntity
  8
HIDDEN
100
AcDbLine
 10
2686.018269738194
 20
3439.391183807443
 30
0.0
 11
2687.662269738194
 21
3439.080183807443
 31
0.0
  0
LINE
  5
959B
330
A
100
AcDbEntity
  8
HIDDEN
100
AcDbLine
 10
2687.662269738194
 20
3439.080183807443
 30
0.0
 11
3027.938269738194
 21
3256.812183807443
 31
0.0
  0
LINE
  5
959C
330
A
100
AcDbEntity
  8
HIDDEN
100
AcDbLine
 10
3027.938269738194
 20
3256.812183807443
 30
0.0
 11
3027.938269738194
 21
3256.812183807443
 31
0.0
  0
ARC
  5
959D
330
A
100
AcDbEntity
  8
HIDDEN
100
AcDbCircle
 10
2986.625055738195
 20
3179.115624807443
 30
0.0
 40
87.99736800000001
100
AcDbArc
 50
31.99850900001849
 51
61.99929799999515
  0
LINE
  5
959E
330
A
100
AcDbEntity
  8
HIDDEN
100
AcDbLine
 10
3061.252269738195
 20
3225.745183807443
 30
0.0
 11
3061.252269738195
 21
3225.745183807443
 31
0.0
  0
ARC
  5
959F
330
A
100
AcDbEntity
  8
HIDDEN
100
AcDbCircle
 10
2986.619317738194
 20
3179.111186807443
 30
0.0
 40
88.004586
100
AcDbArc
 50
2.000443000024945
 51
31.99897900001567
  0
LINE
  5
95A0
330
A
100
AcDbEntity
  8
HIDDEN
100
AcDbLine
 10
3074.570269738195
 20
3182.183183807442
 30
0.0
 11
3096.018681738195
 21
2672.008167807443
 31
0.0
  0
LINE
  5
95A1
330
A
100
AcDbEntity
  8
HIDDEN
100
AcDbLine
 10
3110.126330738194
 20
2645.362093807443
 30
0.0
 11
3110.126330738194
 21
2620.264183807442
 31
0.0
  0
LINE
  5
95A2
330
A
100
AcDbEntity
  8
HIDDEN
100
AcDbLine
 10
3114.167782738195
 20
2620.264183807442
 30
0.0
 11
3114.167782738195
 21
2645.362093807443
 31
0.0
  0
LINE
  5
95A3
330
A
100
AcDbEntity
  8
HIDDEN
100
AcDbLine
 10
3110.126330738194
 20
2645.362093807443
 30
0.0
 11
3114.167782738195
 21
2645.362093807443
 31
0.0
  0
LINE
  5
95A4
330
A
100
AcDbEntity
  8
HIDDEN
100
AcDbLine
 10
3097.346447738195
 20
2667.497499807442
 30
0.0
 11
3110.126330738194
 21
2645.362093807443
 31
0.0
  0
ARC
  5
95A7
330
A
100
AcDbEntity
  8
HIDDEN
100
AcDbCircle
 10
3106.006701738194
 20
2672.497499807442
 30
0.0
 40
10.0
100
AcDbArc
 50
182.8047820000004
 51
209.9999999999999
  0
LINE
  5
95A8
330
A
100
AcDbEntity
  8
HIDDEN
100
AcDbLine
 10
3096.018681738195
 20
2672.008167807443
 30
0.0
 11
3096.018269738194
 21
2620.264183807442
 31
0.0
  0
LINE
  5
95AA
330
A
100
AcDbEntity
  8
HIDDEN
100
AcDbLine
 10
3115.130610738194
 20
2788.780796807442
 30
0.0
 11
3097.468412738194
 21
2771.118598807442
 31
0.0
  0
LINE
  5
95B5
330
A
100
AcDbEntity
  8
HIDDEN
100
AcDbLine
 10
3115.130610738194
 20
2788.780796807442
 30
0.0
 11
3102.215195738195
 21
3095.988714807442
 31
0.0
  0
LINE
  5
95B6
330
A
100
AcDbEntity
  8
HIDDEN
100
AcDbLine
 10
3102.215195738195
 20
3095.988714807442
 30
0.0
 11
3082.363835738195
 21
3115.840074807443
 31
0.0
  0
LINE
  5
95B7
330
A
100
AcDbEntity
  8
モデル
100
AcDbLine
 10
2655.858270146315
 20
1720.264184211973
 30
0.0
 11
3116.018269738194
 21
1712.234183807442
 31
0.0
  0
LINE
  5
95B9
330
A
100
AcDbEntity
  8
モデル
100
AcDbLine
 10
3116.018269738194
 20
1712.204183807443
 30
0.0
 11
3116.018269738194
 21
2620.264183807442
 31
0.0
  0
MTEXT
  5
95CC
330
A
100
AcDbEntity
  8
TEMPLATE
390
1D
100
AcDbMText
 10
2658.509411065892
 20
470.404822077453
 30
0.0
 40
48.865234375
 41
0.0
 46
56.78140234375
 71
     1
 72
     1
  1
{26kg}
  7
ＭＳ ゴシック
 73
     1
 44
0.7828267384257843
1001
ACAD
1000
ACAD_MTEXT_DEFINED_HEIGHT_BEGIN
1070
    46
1040
56.78140234375
1000
ACAD_MTEXT_DEFINED_HEIGHT_END
  0
ARC
  5
9612
330
A
100
AcDbEntity
  8
モデル
100
AcDbCircle
 10
1127.347609738195
 20
3120.264183807442
 30
0.0
 40
211.0
100
AcDbArc
 50
0.0
 51
90.0
  0
DIMENSION
  5
9642
330
A
100
AcDbEntity
  8
寸法
  6
Continuous
440
 33554687
100
AcDbDimension
  2
*D6
 10
1923.28140706789
 20
1720.264183807442
 30
0.0
 11
1869.28140706789
 21
2620.264183807442
 31
0.0
 70
    32
 71
     5
 42
1800.0
 73
     0
 74
     0
 75
     0
  3
JIS
100
AcDbAlignedDimension
 13
1237.254915103811
 23
3520.264183807442
 33
0.0
 14
1545.117134047032
 24
1720.264183807442
 34
0.0
 50
90.0
100
AcDbRotatedDimension
1001
ACAD
1000
DSTYLE
1002
{
1070
   179
1070
     0
1070
    41
1040
18.0
1070
   271
1070
     0
1070
    43
1040
25.0
1070
    44
1040
0.0
1070
    42
1040
25.0
1070
   147
1040
30.0
1070
   140
1040
48.0
1002
}
  0
DIMENSION
  5
9651
330
A
100
AcDbEntity
  8
寸法
  6
Continuous
440
 33554687
100
AcDbDimension
  2
*D7
 10
1785.342699175882
 20
3440.264183807442
 30
0.0
 11
1731.342699175882
 21
2620.264183807442
 31
0.0
 70
    32
 71
     5
 42
1640.0
 73
     0
 74
     0
 75
     0
  3
JIS
100
AcDbAlignedDimension
 13
1193.133762732845
 23
1800.264183807442
 33
0.0
 14
1193.133762732845
 24
3440.264183807442
 34
0.0
 50
90.0
100
AcDbRotatedDimension
1001
ACAD
1000
DSTYLE
1002
{
1070
   179
1070
     0
1070
    41
1040
18.0
1070
   271
1070
     0
1070
    43
1040
25.0
1070
    44
1040
0.0
1070
    42
1040
25.0
1070
   147
1040
30.0
1070
   140
1040
48.0
1002
}
  0
DIMENSION
  5
9663
330
A
100
AcDbEntity
  8
寸法
  6
Continuous
440
 33554687
100
AcDbDimension
  2
*D8
 10
621.4848513370671
 20
3333.264183807442
 30
0.0
 11
567.4848513370671
 21
2670.764183807442
 31
0.0
 70
    32
 71
     5
 42
1325.0
 73
     0
 74
     0
 75
     0
  3
JIS
100
AcDbAlignedDimension
 13
1071.641593089499
 23
2008.264183807442
 33
0.0
 14
1071.641593089499
 24
3333.264183807442
 34
0.0
 50
90.0
100
AcDbRotatedDimension
1001
ACAD
1000
DSTYLE
1002
{
1070
   179
1070
     0
1070
    41
1040
18.0
1070
   271
1070
     0
1070
    43
1040
25.0
1070
    44
1040
0.0
1070
    42
1040
25.0
1070
   147
1040
30.0
1070
   140
1040
48.0
1002
}
  0
DIMENSION
  5
9672
330
A
100
AcDbEntity
  8
寸法
  6
Continuous
440
 33554687
100
AcDbDimension
  2
*D9
 10
1785.342699175882
 20
1800.264183807442
 30
0.0
 11
1785.342699175882
 21
1760.264183807442
 31
0.0
 70
   160
 71
     5
 42
80.0
 73
     0
 74
     0
 75
     0
  3
JIS
100
AcDbAlignedDimension
 13
1570.117134047032
 23
1720.264183807442
 33
0.0
 14
1570.117134047032
 24
1800.264183807442
 34
0.0
 50
90.0
100
AcDbRotatedDimension
1001
ACAD
1000
DSTYLE
1002
{
1070
   179
1070
     0
1070
    41
1040
18.0
1070
   271
1070
     0
1070
    43
1040
25.0
1070
    44
1040
0.0
1070
    42
1040
25.0
1070
   147
1040
30.0
1070
   140
1040
48.0
1002
}
  0
DIMENSION
  5
9682
330
A
100
AcDbEntity
  8
寸法
  6
Continuous
440
 33554687
100
AcDbDimension
  2
*D10
 10
1217.347609738195
 20
3707.22542468976
 30
0.0
 11
1372.347609738195
 21
3761.22542468976
 31
0.0
 70
    32
 71
     5
 42
309.999999999999
 73
     0
 74
     0
 75
     0
 52
-270.0
  3
JIS
100
AcDbAlignedDimension
 13
1527.347609738194
 23
3191.830218604351
 33
0.0
 14
1217.347609738195
 24
2695.781403685017
 34
0.0
 50
180.0
100
AcDbRotatedDimension
1001
ACAD
1000
DSTYLE
1002
{
1070
   179
1070
     0
1070
    41
1040
18.0
1070
   271
1070
     0
1070
    43
1040
25.0
1070
    44
1040
0.0
1070
    42
1040
25.0
1070
   147
1040
30.0
1070
   140
1040
48.0
1002
}
  0
DIMENSION
  5
96A6
330
A
100
AcDbEntity
  8
寸法
  6
Continuous
440
 33554687
100
AcDbDimension
  2
*D11
 10
1447.347609738194
 20
1477.891833490286
 30
0.0
 11
1127.347609738195
 21
1477.891833490286
 31
0.0
 70
   160
 71
     5
 42
639.9999999999986
 73
     0
 74
     0
 75
     0
 52
-270.0
  3
JIS
100
AcDbAlignedDimension
 13
807.3476097381954
 23
2019.462820347899
 33
0.0
 14
1447.347609738194
 24
2019.462820347899
 34
0.0
 50
180.0
100
AcDbRotatedDimension
1001
ACAD
1000
DSTYLE
1002
{
1070
   179
1070
     0
1070
    41
1040
18.0
1070
   271
1070
     0
1070
    43
1040
25.0
1070
    44
1040
0.0
1070
    42
1040
25.0
1070
   147
1040
30.0
1070
   140
1040
48.0
1002
}
  0
DIMENSION
  5
96B5
330
A
100
AcDbEntity
  8
寸法
  6
Continuous
440
 33554687
100
AcDbDimension
  2
*D12
 10
727.3476097381954
 20
1477.891833490286
 30
0.0
 11
767.3476097381955
 21
1477.891833490286
 31
0.0
 70
   160
 71
     5
 42
79.99999999999996
 73
     0
 74
     0
 75
     0
 52
-270.0
  3
JIS
100
AcDbAlignedDimension
 13
807.3476097381954
 23
2019.462820347899
 33
0.0
 14
727.3476097381954
 24
1719.397114809216
 34
0.0
 50
180.0
100
AcDbRotatedDimension
1001
ACAD
1000
DSTYLE
1002
{
1070
   179
1070
     0
1070
    41
1040
18.0
1070
   271
1070
     0
1070
    43
1040
25.0
1070
    44
1040
0.0
1070
    42
1040
25.0
1070
   147
1040
30.0
1070
   140
1040
48.0
1002
}
  0
DIMENSION
  5
96C8
330
A
100
AcDbEntity
  8
寸法
  6
Continuous
440
 33554687
100
AcDbDimension
  2
*D13
 10
1527.347609738195
 20
1344.067171693715
 30
0.0
 11
1127.347609738195
 21
1344.067171693715
 31
0.0
 70
   160
 71
     5
 42
799.9999999999995
 73
     0
 74
     0
 75
     0
 52
-270.0
  3
JIS
100
AcDbAlignedDimension
 13
727.3476097381954
 23
1722.656712583403
 33
0.0
 14
1527.347609738195
 24
1702.410493465807
 34
0.0
 50
180.0
100
AcDbRotatedDimension
1001
ACAD
1000
DSTYLE
1002
{
1070
   179
1070
     0
1070
    41
1040
18.0
1070
   271
1070
     0
1070
    43
1040
25.0
1070
    44
1040
0.0
1070
    42
1040
25.0
1070
   147
1040
30.0
1070
   140
1040
48.0
1002
}
  0
DIMENSION
  5
96D8
330
A
100
AcDbEntity
  8
寸法
  6
Continuous
440
 33554687
100
AcDbDimension
  2
*D14
 10
1527.347609738195
 20
3872.154536597573
 30
0.0
 11
1127.347609738195
 21
3926.154536597573
 31
0.0
 70
    32
 71
     5
 42
800.0
 73
     0
 74
     0
 75
     0
 52
270.0
  3
JIS
100
AcDbAlignedDimension
 13
727.3476097381954
 23
3533.939435516208
 33
0.0
 14
1527.347609738195
 24
3707.22542468976
 34
0.0
 50
-180.0
100
AcDbRotatedDimension
1001
ACAD
1000
DSTYLE
1002
{
1070
   179
1070
     0
1070
    41
1040
18.0
1070
   271
1070
     0
1070
    43
1040
25.0
1070
    44
1040
0.0
1070
    42
1040
25.0
1070
   147
1040
30.0
1070
   140
1040
48.0
1002
}
  0
DIMENSION
  5
96E5
330
A
100
AcDbEntity
  8
寸法
  6
Continuous
440
 33554687
100
AcDbDimension
  2
*D15
 10
1338.347609738195
 20
1580.395829760001
 30
0.0
 11
1127.347609738195
 21
1580.395829760001
 31
0.0
 70
   160
 71
     5
 42
421.9999999999995
 73
     0
 74
     0
 75
     0
 52
270.0
  3
JIS
100
AcDbAlignedDimension
 13
916.3476097381954
 23
2120.264183807442
 33
0.0
 14
1338.347609738195
 24
2120.264183807442
 34
0.0
 50
-180.0
100
AcDbRotatedDimension
1001
ACAD
1000
DSTYLE
1002
{
1070
   179
1070
     0
1070
    41
1040
18.0
1070
   271
1070
     0
1070
    43
1040
25.0
1070
    44
1040
0.0
1070
    42
1040
25.0
1070
   147
1040
30.0
1070
   140
1040
48.0
1002
}
  0
DIMENSION
  5
9703
330
A
100
AcDbEntity
  8
寸法
  6
Continuous
440
 33554687
100
AcDbDimension
  2
*D16
 10
3096.018269738194
 20
1523.256760722652
 30
0.0
 11
2871.018269738193
 21
1523.256760722652
 31
0.0
 70
   160
 71
     5
 42
449.9999999999999
 73
     0
 74
     0
 75
     0
 52
-270.0
  3
JIS
100
AcDbAlignedDimension
 13
2646.018269738194
 23
1726.581855381932
 33
0.0
 14
3096.018269738194
 24
2620.264183807442
 34
0.0
 50
180.0
100
AcDbRotatedDimension
1001
ACAD
1000
DSTYLE
1002
{
1070
   179
1070
     0
1070
    41
1040
18.0
1070
   271
1070
     0
1070
    43
1040
25.0
1070
    44
1040
0.0
1070
    42
1040
25.0
1070
   147
1040
30.0
1070
   140
1040
48.0
1002
}
  0
DIMENSION
  5
9719
330
A
100
AcDbEntity
  8
寸法
  6
Continuous
440
 33554687
100
AcDbDimension
  2
*D17
 10
3116.018269738194
 20
3707.22542468976
 30
0.0
 11
2881.018269738194
 21
3761.22542468976
 31
0.0
 70
    32
 71
     5
 42
470.0
 73
     0
 74
     0
 75
     0
 52
-270.0
  3
JIS
100
AcDbAlignedDimension
 13
2646.018269738194
 23
3510.064183807443
 33
0.0
 14
3116.018269738194
 24
3529.159306249685
 34
0.0
 50
180.0
100
AcDbRotatedDimension
1001
ACAD
1000
DSTYLE
1002
{
1070
   179
1070
     0
1070
    41
1040
18.0
1070
   271
1070
     0
1070
    43
1040
25.0
1070
    44
1040
0.0
1070
    42
1040
25.0
1070
   147
1040
30.0
1070
   140
1040
48.0
1002
}
  0
DIMENSION
  5
9726
330
A
100
AcDbEntity
  8
寸法
  6
Continuous
440
 33554687
100
AcDbDimension
  2
*D18
 10
3246.018269738194
 20
3872.154536597573
 30
0.0
 11
2946.018269738194
 21
3926.154536597573
 31
0.0
 70
    32
 71
     5
 42
600.0
 73
     0
 74
     0
 75
     0
 52
-270.0
  3
JIS
100
AcDbAlignedDimension
 13
2646.018269738194
 23
3535.064183807443
 33
0.0
 14
3246.018269738194
 24
3467.204183807443
 34
0.0
 50
180.0
100
AcDbRotatedDimension
1001
ACAD
1000
DSTYLE
1002
{
1070
   179
1070
     0
1070
    41
1040
18.0
1070
   271
1070
     0
1070
    43
1040
25.0
1070
    44
1040
0.0
1070
    42
1040
25.0
1070
   147
1040
30.0
1070
   140
1040
48.0
1002
}
  0
DIMENSION
  5
9738
330
A
100
AcDbEntity
  8
寸法
  6
Continuous
440
 33554687
100
AcDbDimension
  2
*D19
 10
3432.267337461377
 20
3467.204183807443
 30
0.0
 11
3378.267337461377
 21
2589.704183807443
 31
0.0
 70
    32
 71
     5
 42
1755.0
 73
     0
 74
     0
 75
     0
  3
JIS
100
AcDbAlignedDimension
 13
3250.848382951145
 23
1712.204183807443
 33
0.0
 14
3250.848382951145
 24
3467.204183807443
 34
0.0
 50
90.0
100
AcDbRotatedDimension
1001
ACAD
1000
DSTYLE
1002
{
1070
   179
1070
     0
1070
    41
1040
18.0
1070
   271
1070
     0
1070
    43
1040
25.0
1070
    44
1040
0.0
1070
    42
1040
25.0
1070
   147
1040
30.0
1070
   140
1040
48.0
1002
}
  0
LINE
  5
9745
330
A
100
AcDbEntity
  8
モデル
  6
Continuous
440
 33554687
100
AcDbLine
 10
3246.018269738194
 20
3467.204183807443
 30
0.0
 11
3246.018269738194
 21
1712.204183807444
 31
0.0
  0
LINE
  5
9746
330
A
100
AcDbEntity
  8
モデル
  6
Continuous
440
 33554687
100
AcDbLine
 10
3246.018269738194
 20
1712.204183807444
 30
0.0
 11
3116.018269738194
 21
1712.204183807443
 31
0.0
  0
LINE
  5
9747
330
A
100
AcDbEntity
  8
モデル
  6
Continuous
440
 33554687
100
AcDbLine
 10
3246.018269738194
 20
3467.204183807443
 30
0.0
 11
3116.018269738194
 21
3467.204183807443
 31
0.0
  0
LINE
  5
9757
330
A
100
AcDbEntity
  8
モデル
  6
Continuous
440
 33554687
100
AcDbLine
 10
3116.018269738194
 20
4314.690122801592
 30
0.0
 11
3116.018269738194
 21
5114.690122801592
 31
0.0
  0
LINE
  5
9765
330
A
100
AcDbEntity
  8
モデル
  6
Continuous
440
 33554687
100
AcDbLine
 10
3246.018269738194
 20
4314.690122801592
 30
0.0
 11
3246.018269738194
 21
5069.690122801592
 31
0.0
  0
LINE
  5
9766
330
A
100
AcDbEntity
  8
モデル
  6
Continuous
440
 33554687
100
AcDbLine
 10
3246.018269738194
 20
5069.690122801592
 30
0.0
 11
3116.018269738194
 21
5069.690122801592
 31
0.0
  0
LINE
  5
9768
330
A
100
AcDbEntity
  8
モデル
  6
Continuous
440
 33554687
100
AcDbLine
 10
2646.018269738194
 20
4314.690122801592
 30
0.0
 11
2646.018269738194
 21
5114.690122801592
 31
0.0
  0
LINE
  5
9769
330
A
100
AcDbEntity
  8
モデル
  6
Continuous
440
 33554687
100
AcDbLine
 10
3246.018269738194
 20
4314.690122801592
 30
0.0
 11
2646.018269738194
 21
4314.690122801592
 31
0.0
  0
LINE
  5
976A
330
A
100
AcDbEntity
  8
モデル
  6
Continuous
440
 33554687
100
AcDbLine
 10
3116.018269738194
 20
5114.690122801592
 30
0.0
 11
2646.018269738194
 21
5114.690122801592
 31
0.0
  0
DIMENSION
  5
976F
330
A
100
AcDbEntity
  8
寸法
  6
Continuous
440
 33554687
100
AcDbDimension
  2
*D20
 10
3432.267337461377
 20
4314.690122801592
 30
0.0
 11
3378.267337461377
 21
4692.190122801592
 31
0.0
 70
    32
 71
     5
 42
755.0
 73
     0
 74
     0
 75
     0
  3
JIS
100
AcDbAlignedDimension
 13
3246.018269738194
 23
5069.690122801592
 33
0.0
 14
3246.018269738194
 24
4314.690122801592
 34
0.0
 50
90.0
100
AcDbRotatedDimension
1001
ACAD
1000
DSTYLE
1002
{
1070
   179
1070
     0
1070
    41
1040
18.0
1070
   271
1070
     0
1070
    43
1040
25.0
1070
    44
1040
0.0
1070
    42
1040
25.0
1070
   147
1040
30.0
1070
   140
1040
48.0
1002
}
  0
MTEXT
  5
97CF
102
{ACAD_XDICTIONARY
360
97D1
102
}
330
A
100
AcDbEntity
  8
TEMPLATE
  6
Continuous
440
 33554687
100
AcDbMText
 10
147.9301883146389
 20
182.0161753830892
 30
0.0
 40
43.0
 41
0.0
 46
43.0
 71
     1
 72
     1
  1
{20170419N}
  7
ＭＳ ゴシック
 73
     1
 44
1.0
1001
ACAD
1000
ACAD_MTEXT_DEFINED_HEIGHT_BEGIN
1070
    46
1040
43.0
1000
ACAD_MTEXT_DEFINED_HEIGHT_END
  0
LWPOLYLINE
  5
97E4
330
A
100
AcDbEntity
  8
BORDER
 62
     4
440
 33554687
100
AcDbPolyline
 90
        4
 70
     1
 43
0.0
 10
0.0
 20
0.0
 10
0.0
 20
5940.000000000001
 10
4200.000000000001
 20
5940.000000000001
 10
4200.000000000001
 20
0.0
  0
DIMENSION
  5
980E
102
{ACAD_REACTORS
330
9810
102
}
102
{ACAD_XDICTIONARY
360
980F
102
}
330
A
100
AcDbEntity
  8
寸法
  6
Continuous
440
 33554687
100
AcDbDimension
  2
*D21
 10
1127.347609738195
 20
3120.264183807442
 30
0.0
 11
1677.210334027789
 21
3622.963297176778
 31
0.0
 70
   164
  1
<>
 71
     5
 42
400.0000000000001
 73
     0
 74
     0
 75
     0
  3
JIS
100
AcDbRadialDimension
 15
1422.567829484049
 25
3390.162353221778
 35
0.0
 40
0.0
1001
ACAD
1000
DSTYLE
1002
{
1070
     3
1000
R<>
1070
   179
1070
     0
1070
    41
1040
18.0
1070
   271
1070
     0
1070
    43
1040
25.0
1070
    44
1040
0.0
1070
    42
1040
25.0
1070
   147
1040
30.0
1070
   140
1040
48.0
1002
}
1001
ACAD_DSTYLE_DIMRADIAL_EXTENSION
1070
   387
1070
     1
1070
   388
1040
0.0
1070
   390
1040
1.570796326794897
  0
VIEWPORT
  5
349
330
B
100
AcDbEntity
 67
     1
  8
0
100
AcDbViewport
 10
202.5
 20
128.5
 30
0.0
 40
486.0
 41
308.4
 68
     1
 69
     1
 12
202.5
 22
128.5
 13
0.0
 23
0.0
 14
0.5
 24
0.5
 15
0.0
 25
0.0
 16
0.0
 26
0.0
 36
1.0
 17
0.0
 27
0.0
 37
0.0
 42
50.0
 43
0.0
 44
0.0
 45
308.4
 50
0.0
 51
0.0
 72
   100
 90
   557152
  1

281
     0
 71
     1
 74
     0
110
0.0
120
0.0
130
0.0
111
1.0
121
0.0
131
0.0
112
0.0
122
1.0
132
0.0
 79
     0
146
0.0
170
     0
 61
     5
348
26C
292
     1
282
     1
141
0.0
142
0.0
 63
   256
  0
VIEWPORT
  5
34A
330
B
100
AcDbEntity
 67
     1
  8
0
100
AcDbViewport
 10
202.5
 20
128.5
 30
0.0
 40
324.0
 41
205.6
 68
     2
 69
     2
 12
986.6781359294573
 22
1427.077061889956
 13
0.0
 23
0.0
 14
0.5
 24
0.5
 15
0.0
 25
0.0
 16
0.0
 26
0.0
 36
1.0
 17
0.0
 27
0.0
 37
0.0
 42
50.0
 43
0.0
 44
0.0
 45
2890.021615685494
 50
0.0
 51
0.0
 72
   100
 90
   557152
  1

281
     0
 71
     1
 74
     0
110
0.0
120
0.0
130
0.0
111
1.0
121
0.0
131
0.0
112
0.0
122
1.0
132
0.0
 79
     0
146
0.0
170
     0
 61
     5
348
26C
292
     1
282
     1
141
0.0
142
0.0
 63
   256
  0
ENDSEC
  0
SECTION
  2
OBJECTS
  0
DICTIONARY
  5
19
330
0
100
AcDbDictionary
281
     1
  3
ACAD_COLOR
350
38F
  3
ACAD_DETAILVIEWSTYLE
350
BE8
  3
ACAD_FIELDLIST
350
97D3
  3
ACAD_GROUP
350
1A
  3
ACAD_IMAGE_VARS
350
27B
  3
ACAD_LAYOUT
350
1E
  3
ACAD_MATERIAL
350
263
  3
ACAD_MLEADERSTYLE
350
336
  3
ACAD_MLINESTYLE
350
1B
  3
ACAD_PLOTSETTINGS
350
22
  3
ACAD_PLOTSTYLENAME
350
1F
  3
ACAD_SCALELIST
350
241
  3
ACAD_SECTIONVIEWSTYLE
350
BE9
  3
ACAD_TABLESTYLE
350
278
  3
ACAD_VISUALSTYLE
350
267
  3
ACDB_RECOMPOSE_DATA
350
983C
  3
AcDbVariableDictionary
350
330
  3
APPDATA
350
27A
  0
SUN
  5
BE4
330
15
100
AcDbSun
 90
        1
290
     0
 63
     7
421
 16777215
 40
1.0
291
     1
 91
  2455826
 92
 54000000
292
     0
 70
     2
 71
   256
280
     1
  0
DICTIONARY
  5
2E1
330
2
100
AcDbDictionary
280
     1
281
     1
  3
ACAD_LAYERSTATES
360
2E2
  3
ACLYDICTIONARY
360
97F8
  0
DICTIONARY
  5
97D1
330
97CF
100
AcDbDictionary
280
     1
281
     1
  3
ACAD_FIELD
360
97D5
  0
DICTIONARY
  5
980F
330
980E
100
AcDbDictionary
280
     1
281
     1
  3
ACAD_DIMASSOC
360
9810
  0
DICTIONARY
  5
38F
102
{ACAD_REACTORS
330
19
102
}
330
19
100
AcDbDictionary
281
     1
  0
DICTIONARY
  5
BE8
102
{ACAD_REACTORS
330
19
102
}
330
19
100
AcDbDictionary
281
     1
  0
FIELDLIST
  5
97D3
102
{ACAD_REACTORS
330
19
102
}
330
19
100
AcDbIdSet
 90
        2
330
97D4
330
97D0
100
AcDbFieldList
  0
DICTIONARY
  5
1A
102
{ACAD_REACTORS
330
19
102
}
330
19
100
AcDbDictionary
281
     1
  0
RASTERVARIABLES
  5
27B
102
{ACAD_REACTORS
330
19
102
}
330
19
100
AcDbRasterVariables
 90
        0
 70
     1
 71
     1
 72
     1
  0
DICTIONARY
  5
1E
102
{ACAD_REACTORS
330
19
102
}
330
19
100
AcDbDictionary
281
     1
  3
Layout1
350
21
  3
Model
350
20
  0
DICTIONARY
  5
263
102
{ACAD_REACTORS
330
19
102
}
330
19
100
AcDbDictionary
281
     1
  3
ByBlock
350
97D6
  3
ByLayer
350
264
  3
Global
350
266
  0
DICTIONARY
  5
336
102
{ACAD_REACTORS
330
19
102
}
330
19
100
AcDbDictionary
281
     1
  3
Standard
350
9234
  0
DICTIONARY
  5
1B
102
{ACAD_REACTORS
330
19
102
}
330
19
100
AcDbDictionary
281
     1
  3
Standard
350
1C
  0
DICTIONARY
  5
22
102
{ACAD_REACTORS
330
19
102
}
330
19
100
AcDbDictionary
281
     1
  0
ACDBDICTIONARYWDFLT
  5
1F
102
{ACAD_REACTORS
330
19
102
}
330
19
100
AcDbDictionary
281
     1
  3
Normal
350
1D
100
AcDbDictionaryWithDefault
340
1D
  0
DICTIONARY
  5
241
102
{ACAD_REACTORS
330
19
102
}
330
19
100
AcDbDictionary
281
     1
  3
A0
350
242
  3
A1
350
243
  3
A2
350
244
  3
A3
350
245
  3
A4
350
246
  3
A5
350
247
  3
A6
350
248
  3
A7
350
249
  3
A8
350
24A
  3
A9
350
24B
  3
B0
350
24C
  3
B1
350
24D
  3
B2
350
24E
  3
B3
350
24F
  3
B4
350
250
  3
B5
350
251
  3
B6
350
252
  3
B7
350
253
  3
B8
350
254
  3
B9
350
255
  3
C0
350
256
  3
C1
350
257
  3
C2
350
258
  3
C3
350
259
  3
C4
350
25A
  3
C5
350
25B
  3
C6
350
25C
  3
C7
350
25D
  3
C8
350
25E
  3
C9
350
25F
  3
D0
350
260
  3
D1
350
261
  3
D2
350
262
  0
DICTIONARY
  5
BE9
102
{ACAD_REACTORS
330
19
102
}
330
19
100
AcDbDictionary
281
     1
  0
DICTIONARY
  5
278
102
{ACAD_REACTORS
330
19
102
}
330
19
100
AcDbDictionary
281
     1
  3
Standard
350
279
  0
DICTIONARY
  5
267
102
{ACAD_REACTORS
330
19
102
}
330
19
100
AcDbDictionary
281
     1
  3
2dWireframe
350
26C
  3
3D Hidden
350
26E
  3
3dWireframe
350
26D
  3
Basic
350
26F
  3
Brighten
350
273
  3
ColorChange
350
277
  3
Conceptual
350
271
  3
Dim
350
272
  3
EdgeColorOff
350
BDE
  3
Facepattern
350
276
  3
Flat
350
268
  3
FlatWithEdges
350
269
  3
Gouraud
350
26A
  3
GouraudWithEdges
350
26B
  3
Hidden
350
BDB
  3
JitterOff
350
BDC
  3
Linepattern
350
275
  3
OverhangOff
350
BDD
  3
Realistic
350
270
  3
Shaded
350
BE3
  3
Shaded with edges
350
BE2
  3
Shades of Gray
350
BDF
  3
Sketchy
350
BE0
  3
Thicken
350
274
  3
Wireframe
350
BDA
  3
X-Ray
350
BE1
  0
XRECORD
  5
983C
102
{ACAD_REACTORS
330
19
102
}
330
19
100
AcDbXrecord
280
     1
 90
        1
330
279
  0
DICTIONARY
  5
330
102
{ACAD_REACTORS
330
19
102
}
330
19
100
AcDbDictionary
281
     1
  3
CANNOSCALE
350
331
  3
CETRANSPARENCY
350
9630
  3
CMLEADERSTYLE
350
924A
  3
CTABLESTYLE
350
335
  3
HPTRANSPARENCY
350
C00
  3
XCLIPFRAME
350
64A
  0
DICTIONARY
  5
27A
102
{ACAD_REACTORS
330
19
102
}
330
19
100
AcDbDictionary
281
     1
  0
DICTIONARY
  5
2E2
102
{ACAD_REACTORS
330
2E1
102
}
330
2E1
100
AcDbDictionary
281
     1
  3
ARGON_LAYERP_14
350
C3A
  0
DICTIONARY
  5
97F8
102
{ACAD_REACTORS
330
2E1
102
}
330
2E1
100
AcDbDictionary
281
     1
1001
ACAD
1000
<All
  0
DICTIONARY
  5
97D5
102
{ACAD_REACTORS
330
97D1
102
}
330
97D1
100
AcDbDictionary
280
     1
281
     1
  3
TEXT
360
97D0
  0
DIMASSOC
  5
9810
102
{ACAD_REACTORS
330
980F
102
}
330
980F
100
AcDbDimAssoc
330
980E
 90
        2
 70
     0
 71
     1
  1
AcDbOsnapPointRef
 72
     3
331
946D
 73
     0
 91
        0
 40
0.0
 10
0.0
 20
0.0
 30
0.0
 75
     0
  0
LAYOUT
  5
21
102
{ACAD_REACTORS
330
1E
102
}
330
1E
100
AcDbPlotSettings
  1

  2
none_device
  4
ISO_A3_(420.00_x_297.00_MM)
  6

 40
7.5
 41
20.0
 42
7.5
 43
20.0
 44
420.0
 45
297.0
 46
0.0
 47
0.0
 48
0.0
 49
0.0
140
0.0
141
0.0
142
1.0
143
1.0
 70
     0
 72
     1
 73
     0
 74
     0
  7

 75
     0
 76
     0
 77
     2
 78
   300
147
1.0
148
0.0
149
0.0
100
AcDbLayout
  1
Layout1
 70
     0
 71
     0
 10
0.0
 20
0.0
 11
0.0
 21
0.0
 12
0.0
 22
0.0
 32
0.0
 14
0.0
 24
0.0
 34
0.0
 15
0.0
 25
0.0
 35
0.0
146
0.0
 13
0.0
 23
0.0
 33
0.0
 16
0.0
 26
0.0
 36
0.0
 17
0.0
 27
0.0
 37
0.0
 76
     0
330
B
331
349
  0
LAYOUT
  5
20
102
{ACAD_REACTORS
330
1E
102
}
330
1E
100
AcDbPlotSettings
  1

  2
none_device
  4
ISO_A3_(420.00_x_297.00_MM)
  6

 40
7.5
 41
20.0
 42
7.5
 43
20.0
 44
420.0
 45
297.0
 46
0.0
 47
0.0
 48
0.0
 49
0.0
140
0.0
141
0.0
142
1.0
143
1.0
 70
  1024
 72
     1
 73
     0
 74
     0
  7

 75
     0
 76
     0
 77
     2
 78
   300
147
1.0
148
0.0
149
0.0
100
AcDbLayout
  1
Model
 70
     0
 71
     1
 10
0.0
 20
0.0
 11
4200.000000000001
 21
5940.000000000001
 12
0.0
 22
0.0
 32
0.0
 14
0.0
 24
0.0
 34
-0.0000000000002274
 15
4200.000000000001
 25
5940.000000000001
 35
0.0000000000001137
146
0.0
 13
0.0
 23
0.0
 33
0.0
 16
0.0
 26
0.0
 36
0.0
 17
0.0
 27
0.0
 37
0.0
 76
     0
330
A
331
15
  0
MATERIAL
  5
97D6
102
{ACAD_REACTORS
330
263
102
}
330
263
100
AcDbMaterial
  1
ByBlock
 72
     1
 94
      127
  0
MATERIAL
  5
264
102
{ACAD_REACTORS
330
263
102
}
330
263
100
AcDbMaterial
  1
ByLayer
 72
     1
 94
      127
  0
MATERIAL
  5
266
102
{ACAD_REACTORS
330
263
102
}
330
263
100
AcDbMaterial
  1
Global
 72
     1
 94
      127
  0
MLEADERSTYLE
  5
9234
102
{ACAD_REACTORS
330
336
102
}
330
336
100
AcDbMLeaderStyle
170
     2
171
     1
172
     0
 90
        2
 40
0.0
 41
0.0
173
     1
 91
-1056964608
340
11
 92
       -2
290
     1
 42
2.0
291
     1
 43
8.0
  3
Standard
341
0
 44
4.0
300

342
17
174
     1
178
     6
175
     1
176
     0
 93
-1056964608
 45
4.0
292
     0
297
     0
 46
4.0
343
0
 94
-1056964608
 47
1.0
 49
1.0
140
1.0
293
     1
141
0.0
294
     1
177
     0
142
1.0
295
     0
296
     0
143
3.75
1001
ACAD_MLEADERVER
1070
     2
  0
MLINESTYLE
  5
1C
102
{ACAD_REACTORS
330
1B
102
}
330
1B
100
AcDbMlineStyle
  2
Standard
 70
     0
  3

 62
     0
 51
90.0
 52
90.0
 71
     2
 49
0.5
 62
   256
  6
BYLAYER
 49
-0.5
 62
   256
  6
BYLAYER
  0
ACDBPLACEHOLDER
  5
1D
102
{ACAD_REACTORS
330
1F
102
}
330
1F
  0
SCALE
  5
242
102
{ACAD_REACTORS
330
241
102
}
330
241
100
AcDbScale
 70
     0
300
1:1
140
1.0
141
1.0
290
     1
  0
SCALE
  5
243
102
{ACAD_REACTORS
330
241
102
}
330
241
100
AcDbScale
 70
     0
300
1:2
140
1.0
141
2.0
290
     0
  0
SCALE
  5
244
102
{ACAD_REACTORS
330
241
102
}
330
241
100
AcDbScale
 70
     0
300
1:4
140
1.0
141
4.0
290
     0
  0
SCALE
  5
245
102
{ACAD_REACTORS
330
241
102
}
330
241
100
AcDbScale
 70
     0
300
1:5
140
1.0
141
5.0
290
     0
  0
SCALE
  5
246
102
{ACAD_REACTORS
330
241
102
}
330
241
100
AcDbScale
 70
     0
300
1:8
140
1.0
141
8.0
290
     0
  0
SCALE
  5
247
102
{ACAD_REACTORS
330
241
102
}
330
241
100
AcDbScale
 70
     0
300
1:10
140
1.0
141
10.0
290
     0
  0
SCALE
  5
248
102
{ACAD_REACTORS
330
241
102
}
330
241
100
AcDbScale
 70
     0
300
1:16
140
1.0
141
16.0
290
     0
  0
SCALE
  5
249
102
{ACAD_REACTORS
330
241
102
}
330
241
100
AcDbScale
 70
     0
300
1:20
140
1.0
141
20.0
290
     0
  0
SCALE
  5
24A
102
{ACAD_REACTORS
330
241
102
}
330
241
100
AcDbScale
 70
     0
300
1:30
140
1.0
141
30.0
290
     0
  0
SCALE
  5
24B
102
{ACAD_REACTORS
330
241
102
}
330
241
100
AcDbScale
 70
     0
300
1:40
140
1.0
141
40.0
290
     0
  0
SCALE
  5
24C
102
{ACAD_REACTORS
330
241
102
}
330
241
100
AcDbScale
 70
     0
300
1:50
140
1.0
141
50.0
290
     0
  0
SCALE
  5
24D
102
{ACAD_REACTORS
330
241
102
}
330
241
100
AcDbScale
 70
     0
300
1:100
140
1.0
141
100.0
290
     0
  0
SCALE
  5
24E
102
{ACAD_REACTORS
330
241
102
}
330
241
100
AcDbScale
 70
     0
300
2:1
140
2.0
141
1.0
290
     0
  0
SCALE
  5
24F
102
{ACAD_REACTORS
330
241
102
}
330
241
100
AcDbScale
 70
     0
300
4:1
140
4.0
141
1.0
290
     0
  0
SCALE
  5
250
102
{ACAD_REACTORS
330
241
102
}
330
241
100
AcDbScale
 70
     0
300
8:1
140
8.0
141
1.0
290
     0
  0
SCALE
  5
251
102
{ACAD_REACTORS
330
241
102
}
330
241
100
AcDbScale
 70
     0
300
10:1
140
10.0
141
1.0
290
     0
  0
SCALE
  5
252
102
{ACAD_REACTORS
330
241
102
}
330
241
100
AcDbScale
 70
     0
300
100:1
140
100.0
141
1.0
290
     0
  0
SCALE
  5
253
102
{ACAD_REACTORS
330
241
102
}
330
241
100
AcDbScale
 70
     0
300
1/128" = 1'-0"
140
0.0078125
141
12.0
290
     0
  0
SCALE
  5
254
102
{ACAD_REACTORS
330
241
102
}
330
241
100
AcDbScale
 70
     0
300
1/64" = 1'-0"
140
0.015625
141
12.0
290
     0
  0
SCALE
  5
255
102
{ACAD_REACTORS
330
241
102
}
330
241
100
AcDbScale
 70
     0
300
1/32" = 1'-0"
140
0.03125
141
12.0
290
     0
  0
SCALE
  5
256
102
{ACAD_REACTORS
330
241
102
}
330
241
100
AcDbScale
 70
     0
300
1/16" = 1'-0"
140
0.0625
141
12.0
290
     0
  0
SCALE
  5
257
102
{ACAD_REACTORS
330
241
102
}
330
241
100
AcDbScale
 70
     0
300
3/32" = 1'-0"
140
0.09375
141
12.0
290
     0
  0
SCALE
  5
258
102
{ACAD_REACTORS
330
241
102
}
330
241
100
AcDbScale
 70
     0
300
1/8" = 1'-0"
140
0.125
141
12.0
290
     0
  0
SCALE
  5
259
102
{ACAD_REACTORS
330
241
102
}
330
241
100
AcDbScale
 70
     0
300
3/16" = 1'-0"
140
0.1875
141
12.0
290
     0
  0
SCALE
  5
25A
102
{ACAD_REACTORS
330
241
102
}
330
241
100
AcDbScale
 70
     0
300
1/4" = 1'-0"
140
0.25
141
12.0
290
     0
  0
SCALE
  5
25B
102
{ACAD_REACTORS
330
241
102
}
330
241
100
AcDbScale
 70
     0
300
3/8" = 1'-0"
140
0.375
141
12.0
290
     0
  0
SCALE
  5
25C
102
{ACAD_REACTORS
330
241
102
}
330
241
100
AcDbScale
 70
     0
300
1/2" = 1'-0"
140
0.5
141
12.0
290
     0
  0
SCALE
  5
25D
102
{ACAD_REACTORS
330
241
102
}
330
241
100
AcDbScale
 70
     0
300
3/4" = 1'-0"
140
0.75
141
12.0
290
     0
  0
SCALE
  5
25E
102
{ACAD_REACTORS
330
241
102
}
330
241
100
AcDbScale
 70
     0
300
1" = 1'-0"
140
1.0
141
12.0
290
     0
  0
SCALE
  5
25F
102
{ACAD_REACTORS
330
241
102
}
330
241
100
AcDbScale
 70
     0
300
1-1/2" = 1'-0"
140
1.5
141
12.0
290
     0
  0
SCALE
  5
260
102
{ACAD_REACTORS
330
241
102
}
330
241
100
AcDbScale
 70
     0
300
3" = 1'-0"
140
3.0
141
12.0
290
     0
  0
SCALE
  5
261
102
{ACAD_REACTORS
330
241
102
}
330
241
100
AcDbScale
 70
     0
300
6" = 1'-0"
140
6.0
141
12.0
290
     0
  0
SCALE
  5
262
102
{ACAD_REACTORS
330
241
102
}
330
241
100
AcDbScale
 70
     0
300
1'-0" = 1'-0"
140
12.0
141
12.0
290
     0
  0
TABLESTYLE
  5
279
102
{ACAD_REACTORS
330
278
102
}
102
{ACAD_XDICTIONARY
360
983A
102
}
330
278
100
AcDbTableStyle
  3
Standard
 70
     0
 71
     0
 40
0.06
 41
0.06
280
     0
281
     0
  7
Standard
140
4.5
170
     2
 62
     0
 63
   257
283
     0
 90
        4
 91
        0
  1

274
    -2
284
     1
 64
     0
275
    -2
285
     1
 65
     0
276
    -2
286
     1
 66
     0
277
    -2
287
     1
 67
     0
278
    -2
288
     1
 68
     0
279
    -2
289
     1
 69
     0
  7
Standard
140
6.0
170
     5
 62
     0
 63
   257
283
     0
 90
        4
 91
        0
  1

274
    -2
284
     1
 64
     0
275
    -2
285
     1
 65
     0
276
    -2
286
     1
 66
     0
277
    -2
287
     1
 67
     0
278
    -2
288
     1
 68
     0
279
    -2
289
     1
 69
     0
  7
Standard
140
4.5
170
     5
 62
     0
 63
   257
283
     0
 90
        4
 91
        0
  1

274
    -2
284
     1
 64
     0
275
    -2
285
     1
 65
     0
276
    -2
286
     1
 66
     0
277
    -2
287
     1
 67
     0
278
    -2
288
     1
 68
     0
279
    -2
289
     1
 69
     0
  0
VISUALSTYLE
  5
26C
102
{ACAD_REACTORS
330
267
102
}
330
267
100
AcDbVisualStyle
  2
2dWireframe
 70
     4
 71
     0
 72
     2
 73
     0
 90
        0
 40
-0.6
 41
-30.0
 62
     5
 63
     7
421
 16777215
 74
     1
 91
        4
 64
     7
 65
   257
 75
     1
175
     1
 42
1.0
 92
        0
 66
   257
 43
1.0
 76
     1
 77
     6
 78
     2
 67
     7
 79
     5
170
     0
171
     0
290
     0
174
     0
 93
        1
 44
0.0
173
     0
291
     0
 45
0.0
  0
VISUALSTYLE
  5
26E
102
{ACAD_REACTORS
330
267
102
}
330
267
100
AcDbVisualStyle
  2
3D Hidden
 70
     6
 71
     1
 72
     2
 73
     2
 90
        0
 40
-0.6
 41
-30.0
 62
     5
 63
     7
421
 16777215
 74
     2
 91
        2
 64
     7
 65
   257
 75
     2
175
     1
 42
40.0
 92
        0
 66
   257
 43
1.0
 76
     1
 77
     6
 78
     2
 67
     7
 79
     3
170
     0
171
     0
290
     0
174
     0
 93
        1
 44
0.0
173
     0
291
     0
 45
0.0
  0
VISUALSTYLE
  5
26D
102
{ACAD_REACTORS
330
267
102
}
330
267
100
AcDbVisualStyle
  2
3dWireframe
 70
     5
 71
     0
 72
     2
 73
     0
 90
        0
 40
-0.6
 41
-30.0
 62
     5
 63
     7
421
 16777215
 74
     1
 91
        4
 64
     7
 65
   257
 75
     1
175
     1
 42
1.0
 92
        0
 66
   257
 43
1.0
 76
     1
 77
     6
 78
     2
 67
     7
 79
     5
170
     0
171
     0
290
     0
174
     0
 93
        1
 44
0.0
173
     0
291
     0
 45
0.0
  0
VISUALSTYLE
  5
26F
102
{ACAD_REACTORS
330
267
102
}
330
267
100
AcDbVisualStyle
  2
Basic
 70
     7
 71
     1
 72
     0
 73
     1
 90
        0
 40
-0.6
 41
-30.0
 62
     5
 63
     7
421
 16777215
 74
     0
 91
        4
 64
     7
 65
   257
 75
     1
175
     1
 42
1.0
 92
        8
 66
     7
 43
1.0
 76
     1
 77
     6
 78
     2
 67
     7
 79
     5
170
     0
171
     0
290
     0
174
     0
 93
        1
 44
0.0
173
     0
291
     1
 45
0.0
  0
VISUALSTYLE
  5
273
102
{ACAD_REACTORS
330
267
102
}
330
267
100
AcDbVisualStyle
  2
Brighten
 70
    12
 71
     2
 72
     2
 73
     0
 90
        0
 40
-0.6
 41
-30.0
 62
     5
 63
     7
421
 16777215
 74
     1
 91
        4
 64
     7
 65
   257
 75
     1
175
     1
 42
1.0
 92
        8
 66
     7
 43
1.0
 76
     1
 77
     6
 78
     2
 67
     7
 79
     5
170
     0
171
     0
290
     0
174
     0
 93
        1
 44
50.0
173
     0
291
     1
 45
0.0
  0
VISUALSTYLE
  5
277
102
{ACAD_REACTORS
330
267
102
}
330
267
100
AcDbVisualStyle
  2
ColorChange
 70
    16
 71
     2
 72
     2
 73
     3
 90
        0
 40
-0.6
 41
-30.0
 62
     5
 63
     8
421
  8421504
 74
     1
 91
        4
 64
     7
 65
   257
 75
     1
175
     1
 42
1.0
 92
        8
 66
     8
424
  8421504
 43
1.0
 76
     1
 77
     6
 78
     2
 67
     7
 79
     5
170
     0
171
     0
290
     0
174
     0
 93
        1
 44
0.0
173
     0
291
     1
 45
0.0
  0
VISUALSTYLE
  5
271
102
{ACAD_REACTORS
330
267
102
}
330
267
100
AcDbVisualStyle
  2
Conceptual
 70
     9
 71
     3
 72
     2
 73
     0
 90
        0
 40
-0.6
 41
-30.0
 62
     5
 63
     7
421
 16777215
 74
     2
 91
        2
 64
     7
 65
   257
 75
     1
175
     1
 42
40.0
 92
        8
 66
     7
 43
1.0
 76
     1
 77
     6
 78
     2
 67
     7
 79
     3
170
     0
171
     0
290
     0
174
     0
 93
        1
 44
0.0
173
     0
291
     0
 45
0.0
  0
VISUALSTYLE
  5
272
102
{ACAD_REACTORS
330
267
102
}
330
267
100
AcDbVisualStyle
  2
Dim
 70
    11
 71
     2
 72
     2
 73
     0
 90
        0
 40
-0.6
 41
-30.0
 62
     5
 63
     7
421
 16777215
 74
     1
 91
        4
 64
     7
 65
   257
 75
     1
175
     1
 42
1.0
 92
        8
 66
     7
 43
1.0
 76
     1
 77
     6
 78
     2
 67
     7
 79
     5
170
     0
171
     0
290
     0
174
     0
 93
        1
 44
-50.0
173
     0
291
     1
 45
0.0
  0
VISUALSTYLE
  5
BDE
102
{ACAD_REACTORS
330
267
102
}
330
267
100
AcDbVisualStyle
  2
EdgeColorOff
 70
    22
 71
     2
 72
     2
 73
     0
 90
        0
 40
0.6
 41
30.0
 62
     5
 63
     7
421
 16777215
 74
     1
 91
        4
 64
     7
 65
   257
 75
     1
175
     1
 42
1.0
 92
        8
 66
     7
 43
1.0
 76
     1
 77
     6
 78
     2
 67
     7
 79
     5
170
     0
171
     0
290
     0
174
     0
 93
        1
 44
0.0
173
     0
291
     1
 45
0.0
  0
VISUALSTYLE
  5
276
102
{ACAD_REACTORS
330
267
102
}
330
267
100
AcDbVisualStyle
  2
Facepattern
 70
    15
 71
     2
 72
     2
 73
     0
 90
        0
 40
-0.6
 41
-30.0
 62
     5
 63
     7
421
 16777215
 74
     1
 91
        4
 64
     7
 65
   257
 75
     1
175
     1
 42
1.0
 92
        8
 66
     7
 43
1.0
 76
     1
 77
     6
 78
     2
 67
     7
 79
     5
170
     0
171
     0
290
     0
174
     0
 93
        1
 44
0.0
173
     0
291
     1
 45
0.0
  0
VISUALSTYLE
  5
268
102
{ACAD_REACTORS
330
267
102
}
330
267
100
AcDbVisualStyle
  2
Flat
 70
     0
 71
     2
 72
     1
 73
     1
 90
        2
 40
-0.6
 41
30.0
 62
     5
 63
     7
421
 16777215
 74
     0
 91
        4
 64
     7
 65
   257
 75
     1
175
     1
 42
1.0
 92
        8
 66
     7
 43
1.0
 76
     1
 77
     6
 78
     2
 67
     7
 79
     5
170
     0
171
     0
290
     0
174
     0
 93
       13
 44
0.0
173
     0
291
     1
 45
0.0
  0
VISUALSTYLE
  5
269
102
{ACAD_REACTORS
330
267
102
}
330
267
100
AcDbVisualStyle
  2
FlatWithEdges
 70
     1
 71
     2
 72
     1
 73
     1
 90
        2
 40
-0.6
 41
30.0
 62
     5
 63
     7
421
 16777215
 74
     1
 91
        4
 64
     7
 65
   257
 75
     1
175
     1
 42
1.0
 92
        0
 66
   257
 43
1.0
 76
     1
 77
     6
 78
     2
 67
     7
 79
     5
170
     0
171
     0
290
     0
174
     0
 93
       13
 44
0.0
173
     0
291
     1
 45
0.0
  0
VISUALSTYLE
  5
26A
102
{ACAD_REACTORS
330
267
102
}
330
267
100
AcDbVisualStyle
  2
Gouraud
 70
     2
 71
     2
 72
     2
 73
     1
 90
        2
 40
-0.6
 41
30.0
 62
     5
 63
     7
421
 16777215
 74
     0
 91
        4
 64
     7
 65
   257
 75
     1
175
     1
 42
1.0
 92
        0
 66
     7
 43
1.0
 76
     1
 77
     6
 78
     2
 67
     7
 79
     5
170
     0
171
     0
290
     0
174
     0
 93
       13
 44
0.0
173
     0
291
     1
 45
0.0
  0
VISUALSTYLE
  5
26B
102
{ACAD_REACTORS
330
267
102
}
330
267
100
AcDbVisualStyle
  2
GouraudWithEdges
 70
     3
 71
     2
 72
     2
 73
     1
 90
        2
 40
-0.6
 41
30.0
 62
     5
 63
     7
421
 16777215
 74
     1
 91
        4
 64
     7
 65
   257
 75
     1
175
     1
 42
1.0
 92
        0
 66
   257
 43
1.0
 76
     1
 77
     6
 78
     2
 67
     7
 79
     5
170
     0
171
     0
290
     0
174
     0
 93
       13
 44
0.0
173
     0
291
     1
 45
0.0
  0
VISUALSTYLE
  5
BDB
102
{ACAD_REACTORS
330
267
102
}
330
267
100
AcDbVisualStyle
  2
Hidden
 70
     6
 71
     1
 72
     2
 73
     2
 90
        0
 40
0.6
 41
30.0
 62
     5
 63
     7
421
 16777215
 74
     2
 91
        2
 64
     7
 65
   257
 75
     2
175
     1
 42
40.0
 92
        0
 66
   257
 43
1.0
 76
     1
 77
     6
 78
     2
 67
     7
 79
     3
170
     0
171
     0
290
     0
174
     0
 93
        1
 44
0.0
173
     0
291
     0
 45
0.0
  0
VISUALSTYLE
  5
BDC
102
{ACAD_REACTORS
330
267
102
}
330
267
100
AcDbVisualStyle
  2
JitterOff
 70
    20
 71
     2
 72
     2
 73
     0
 90
        0
 40
0.6
 41
30.0
 62
     5
 63
     7
421
 16777215
 74
     1
 91
        4
 64
     7
 65
   257
 75
     1
175
     1
 42
1.0
 92
       10
 66
     7
 43
1.0
 76
     1
 77
     6
 78
     2
 67
     7
 79
     5
170
     0
171
     0
290
     0
174
     0
 93
        1
 44
0.0
173
     0
291
     1
 45
0.0
  0
VISUALSTYLE
  5
275
102
{ACAD_REACTORS
330
267
102
}
330
267
100
AcDbVisualStyle
  2
Linepattern
 70
    14
 71
     2
 72
     2
 73
     0
 90
        0
 40
-0.6
 41
-30.0
 62
     5
 63
     7
421
 16777215
 74
     1
 91
        4
 64
     7
 65
   257
 75
     7
175
     7
 42
1.0
 92
        8
 66
     7
 43
1.0
 76
     1
 77
     6
 78
     2
 67
     7
 79
     5
170
     0
171
     0
290
     0
174
     0
 93
        1
 44
0.0
173
     0
291
     1
 45
0.0
  0
VISUALSTYLE
  5
BDD
102
{ACAD_REACTORS
330
267
102
}
330
267
100
AcDbVisualStyle
  2
OverhangOff
 70
    21
 71
     2
 72
     2
 73
     0
 90
        0
 40
0.6
 41
30.0
 62
     5
 63
     7
421
 16777215
 74
     1
 91
        4
 64
     7
 65
   257
 75
     1
175
     1
 42
1.0
 92
        9
 66
     7
 43
1.0
 76
     1
 77
     6
 78
     2
 67
     7
 79
     5
170
     0
171
     0
290
     0
174
     0
 93
        1
 44
0.0
173
     0
291
     1
 45
0.0
  0
VISUALSTYLE
  5
270
102
{ACAD_REACTORS
330
267
102
}
330
267
100
AcDbVisualStyle
  2
Realistic
 70
     8
 71
     2
 72
     2
 73
     0
 90
        0
 40
-0.6
 41
-30.0
 62
     5
 63
     7
421
 16777215
 74
     1
 91
        0
 64
     7
 65
   257
 75
     1
175
     1
 42
1.0
 92
        8
 66
     8
424
  7895160
 43
1.0
 76
     1
 77
     6
 78
     2
 67
     7
 79
     5
170
     0
171
     0
290
     0
174
     0
 93
       13
 44
0.0
173
     0
291
     0
 45
0.0
  0
VISUALSTYLE
  5
BE3
102
{ACAD_REACTORS
330
267
102
}
330
267
100
AcDbVisualStyle
  2
Shaded
 70
    27
 71
     2
 72
     2
 73
     1
 90
        2
 40
0.6
 41
30.0
 62
     5
 63
     7
421
 16777215
 74
     0
 91
        4
 64
     7
 65
   257
 75
     1
175
     1
 42
1.0
 92
        8
 66
   257
 43
1.0
 76
     1
 77
     6
 78
     2
 67
     8
425
  7895160
 79
     3
170
     0
171
     0
290
     0
174
     0
 93
        5
 44
0.0
173
     0
291
     0
 45
0.0
  0
VISUALSTYLE
  5
BE2
102
{ACAD_REACTORS
330
267
102
}
330
267
100
AcDbVisualStyle
  2
Shaded with edges
 70
    26
 71
     2
 72
     2
 73
     1
 90
        2
 40
0.6
 41
30.0
 62
     5
 63
     7
421
 16777215
 74
     1
 91
       10
 64
     7
 65
   257
 75
     2
175
     1
 42
1.0
 92
        8
 66
   257
 43
1.0
 76
     1
 77
     6
 78
     2
 67
     7
 79
     3
170
     0
171
     0
290
     0
174
     0
 93
        5
 44
0.0
173
     0
291
     0
 45
0.0
  0
VISUALSTYLE
  5
BDF
102
{ACAD_REACTORS
330
267
102
}
330
267
100
AcDbVisualStyle
  2
Shades of Gray
 70
    23
 71
     2
 72
     2
 73
     3
 90
        0
 40
0.6
 41
30.0
 62
     5
 63
     7
421
 16777215
 74
     2
 91
        2
 64
     7
 65
     7
 75
     1
175
     1
 42
40.0
 92
        8
 66
     7
 43
1.0
 76
     1
 77
     6
 78
     2
 67
     7
 79
     3
170
     0
171
     0
290
     0
174
     0
 93
        1
 44
0.0
173
     0
291
     0
 45
0.0
  0
VISUALSTYLE
  5
BE0
102
{ACAD_REACTORS
330
267
102
}
330
267
100
AcDbVisualStyle
  2
Sketchy
 70
    24
 71
     1
 72
     2
 73
     2
 90
        0
 40
0.6
 41
30.0
 62
     5
 63
     7
421
 16777215
 74
     2
 91
        2
 64
     7
 65
     7
 75
     1
175
     1
 42
40.0
 92
       11
 66
     7
 43
1.0
 76
     1
 77
     6
 78
     2
 67
     7
 79
     6
170
     0
171
     0
290
     0
174
     0
 93
        1
 44
0.0
173
     0
291
     0
 45
0.0
  0
VISUALSTYLE
  5
274
102
{ACAD_REACTORS
330
267
102
}
330
267
100
AcDbVisualStyle
  2
Thicken
 70
    13
 71
     2
 72
     2
 73
     0
 90
        0
 40
-0.6
 41
-30.0
 62
     5
 63
     7
421
 16777215
 74
     1
 91
        4
 64
     7
 65
   257
 75
     1
175
     1
 42
1.0
 92
       12
 66
     7
 43
1.0
 76
     1
 77
     6
 78
     2
 67
     7
 79
     5
170
     0
171
     0
290
     0
174
     0
 93
        1
 44
0.0
173
     0
291
     1
 45
0.0
  0
VISUALSTYLE
  5
BDA
102
{ACAD_REACTORS
330
267
102
}
330
267
100
AcDbVisualStyle
  2
Wireframe
 70
     5
 71
     0
 72
     2
 73
     0
 90
        0
 40
0.6
 41
30.0
 62
     5
 63
     7
421
 16777215
 74
     1
 91
        4
 64
     7
 65
   257
 75
     1
175
     1
 42
1.0
 92
        0
 66
   257
 43
1.0
 76
     1
 77
     6
 78
     2
 67
     7
 79
     3
170
     0
171
     0
290
     0
174
     0
 93
        1
 44
0.0
173
     0
291
     0
 45
0.0
  0
VISUALSTYLE
  5
BE1
102
{ACAD_REACTORS
330
267
102
}
330
267
100
AcDbVisualStyle
  2
X-Ray
 70
    25
 71
     2
 72
     2
 73
     1
 90
        1
 40
0.5
 41
30.0
 62
     5
 63
     7
421
 16777215
 74
     1
 91
        0
 64
     7
 65
   257
 75
     1
175
     1
 42
1.0
 92
        8
 66
     7
 43
1.0
 76
     1
 77
     6
 78
     2
 67
     7
 79
     3
170
     0
171
     0
290
     0
174
     0
 93
       13
 44
0.0
173
     0
291
     0
 45
0.0
  0
DICTIONARYVAR
  5
331
102
{ACAD_REACTORS
330
330
102
}
330
330
100
DictionaryVariables
280
     0
  1
1:1
  0
DICTIONARYVAR
  5
9630
102
{ACAD_REACTORS
330
330
102
}
330
330
100
DictionaryVariables
280
     0
  1
33554687
  0
DICTIONARYVAR
  5
924A
102
{ACAD_REACTORS
330
330
102
}
330
330
100
DictionaryVariables
280
     0
  1
Standard
  0
DICTIONARYVAR
  5
335
102
{ACAD_REACTORS
330
330
102
}
330
330
100
DictionaryVariables
280
     0
  1
Standard
  0
DICTIONARYVAR
  5
C00
102
{ACAD_REACTORS
330
330
102
}
330
330
100
DictionaryVariables
280
     0
  1
ByLayer
  0
DICTIONARYVAR
  5
64A
102
{ACAD_REACTORS
330
330
102
}
330
330
100
DictionaryVariables
280
     0
  1
0
  0
XRECORD
  5
C3A
102
{ACAD_REACTORS
330
2E2
102
}
330
2E2
100
AcDbXrecord
280
     1
 91
     1023
301

290
     0
302
DIM
330
14
 90
        8
 62
     7
370
    -3
331
13
  1
Color_7
330
4A
 90
        0
 62
     7
370
     9
331
13
  1
Color_7
330
4B
 90
        8
 62
     7
370
    -3
331
13
  1
Color_7
330
4D
 90
        8
 62
     7
370
    -3
331
13
  1
Color_7
330
382
 90
        8
 62
     7
370
    -3
331
13
  1
Color_7
330
0
 90
        8
 62
     7
370
     9
331
0
  1
Color_7
330
0
 90
        8
 62
     7
370
     9
331
13
  1
Color_7
  0
FIELD
  5
97D0
102
{ACAD_REACTORS
330
97D5
102
}
330
97D5
100
AcDbField
  1
_text
  2
{%<\_FldIdx 0>%N}
 90
        1
360
97D4
 97
        0
 91
       63
 92
        0
 94
        8
 95
        2
 96
        0
300

 93
        1
  6
ACFD_FIELDTEXT_CHECKSUM
 93
        2
 90
        2
140
4550.0
 94
        0
300

302

304
ACVALUE_END
  7
ACFD_FIELD_VALUE
 93
        6
 90
        4
  1
{20170419N}
 94
        0
300

302

304
ACVALUE_END
301
{20170419N}
 98
       11
  0
DICTIONARY
  5
983A
330
279
100
AcDbDictionary
280
     1
281
     1
  3
ACAD_ROUNDTRIP_2008_TABLESTYLE_CELLSTYLEMAP
360
983B
  0
FIELD
  5
97D4
330
97D0
100
AcDbField
  1
AcVar
  2
\AcVar Date \f "yyyyMMdd"
 90
        0
 97
        0
 91
       63
 92
        0
 94
        8
 95
        2
 96
        0
300

 93
        1
  6
Variable
 93
        2
 90
        4
  1
Date
 94
        0
300

302

304
ACVALUE_END
  7
ACFD_FIELD_VALUE
 93
        6
 90
        8
 92
       16
310
E10704000000130006003A0003000000
 94
        0
300
yyyyMMdd
302

304
ACVALUE_END
301
20170419
 98
        8
  0
CELLSTYLEMAP
  5
983B
102
{ACAD_REACTORS
330
983A
102
}
330
983A
100
AcDbCellStyleMap
 90
        3
300
CELLSTYLE
  1
TABLEFORMAT_BEGIN
 90
        5
170
     1
 91
        0
 92
    32768
 62
   257
 93
        1
300
CONTENTFORMAT
  1
CONTENTFORMAT_BEGIN
 90
        0
 91
        0
 92
        4
 93
        0
300

 40
0.0
140
1.0
 94
        5
 62
     0
340
17
144
6.0
309
CONTENTFORMAT_END
171
     1
301
MARGIN
  1
CELLMARGIN_BEGIN
 40
0.06
 40
0.06
 40
0.06
 40
0.06
 40
0.18
 40
0.18
309
CELLMARGIN_END
 94
        6
 95
        1
302
GRIDFORMAT
  1
GRIDFORMAT_BEGIN
 90
        0
 91
        1
 62
     0
 92
       -2
340
0
 93
        0
 40
0.045
309
GRIDFORMAT_END
 95
        2
302
GRIDFORMAT
  1
GRIDFORMAT_BEGIN
 90
        0
 91
        1
 62
     0
 92
       -2
340
0
 93
        0
 40
0.045
309
GRIDFORMAT_END
 95
        4
302
GRIDFORMAT
  1
GRIDFORMAT_BEGIN
 90
        0
 91
        1
 62
     0
 92
       -2
340
0
 93
        0
 40
0.045
309
GRIDFORMAT_END
 95
        8
302
GRIDFORMAT
  1
GRIDFORMAT_BEGIN
 90
        0
 91
        1
 62
     0
 92
       -2
340
0
 93
        0
 40
0.045
309
GRIDFORMAT_END
 95
       16
302
GRIDFORMAT
  1
GRIDFORMAT_BEGIN
 90
        0
 91
        1
 62
     0
 92
       -2
340
0
 93
        0
 40
0.045
309
GRIDFORMAT_END
 95
       32
302
GRIDFORMAT
  1
GRIDFORMAT_BEGIN
 90
        0
 91
        1
 62
     0
 92
       -2
340
0
 93
        0
 40
0.045
309
GRIDFORMAT_END
309
TABLEFORMAT_END
  1
CELLSTYLE_BEGIN
 90
        1
 91
        1
300
_TITLE
309
CELLSTYLE_END
300
CELLSTYLE
  1
TABLEFORMAT_BEGIN
 90
        5
170
     1
 91
        0
 92
        0
 62
   257
 93
        1
300
CONTENTFORMAT
  1
CONTENTFORMAT_BEGIN
 90
        0
 91
        0
 92
        4
 93
        0
300

 40
0.0
140
1.0
 94
        5
 62
     0
340
17
144
4.5
309
CONTENTFORMAT_END
171
     1
301
MARGIN
  1
CELLMARGIN_BEGIN
 40
0.06
 40
0.06
 40
0.06
 40
0.06
 40
0.18
 40
0.18
309
CELLMARGIN_END
 94
        6
 95
        1
302
GRIDFORMAT
  1
GRIDFORMAT_BEGIN
 90
        0
 91
        1
 62
     0
 92
       -2
340
0
 93
        0
 40
0.045
309
GRIDFORMAT_END
 95
        2
302
GRIDFORMAT
  1
GRIDFORMAT_BEGIN
 90
        0
 91
        1
 62
     0
 92
       -2
340
0
 93
        0
 40
0.045
309
GRIDFORMAT_END
 95
        4
302
GRIDFORMAT
  1
GRIDFORMAT_BEGIN
 90
        0
 91
        1
 62
     0
 92
       -2
340
0
 93
        0
 40
0.045
309
GRIDFORMAT_END
 95
        8
302
GRIDFORMAT
  1
GRIDFORMAT_BEGIN
 90
        0
 91
        1
 62
     0
 92
       -2
340
0
 93
        0
 40
0.045
309
GRIDFORMAT_END
 95
       16
302
GRIDFORMAT
  1
GRIDFORMAT_BEGIN
 90
        0
 91
        1
 62
     0
 92
       -2
340
0
 93
        0
 40
0.045
309
GRIDFORMAT_END
 95
       32
302
GRIDFORMAT
  1
GRIDFORMAT_BEGIN
 90
        0
 91
        1
 62
     0
 92
       -2
340
0
 93
        0
 40
0.045
309
GRIDFORMAT_END
309
TABLEFORMAT_END
  1
CELLSTYLE_BEGIN
 90
        2
 91
        1
300
_HEADER
309
CELLSTYLE_END
300
CELLSTYLE
  1
TABLEFORMAT_BEGIN
 90
        5
170
     1
 91
        0
 92
        0
 62
   257
 93
        1
300
CONTENTFORMAT
  1
CONTENTFORMAT_BEGIN
 90
        0
 91
        0
 92
        4
 93
        0
300

 40
0.0
140
1.0
 94
        2
 62
     0
340
17
144
4.5
309
CONTENTFORMAT_END
171
     1
301
MARGIN
  1
CELLMARGIN_BEGIN
 40
0.06
 40
0.06
 40
0.06
 40
0.06
 40
0.18
 40
0.18
309
CELLMARGIN_END
 94
        6
 95
        1
302
GRIDFORMAT
  1
GRIDFORMAT_BEGIN
 90
        0
 91
        1
 62
     0
 92
       -2
340
0
 93
        0
 40
0.045
309
GRIDFORMAT_END
 95
        2
302
GRIDFORMAT
  1
GRIDFORMAT_BEGIN
 90
        0
 91
        1
 62
     0
 92
       -2
340
0
 93
        0
 40
0.045
309
GRIDFORMAT_END
 95
        4
302
GRIDFORMAT
  1
GRIDFORMAT_BEGIN
 90
        0
 91
        1
 62
     0
 92
       -2
340
0
 93
        0
 40
0.045
309
GRIDFORMAT_END
 95
        8
302
GRIDFORMAT
  1
GRIDFORMAT_BEGIN
 90
        0
 91
        1
 62
     0
 92
       -2
340
0
 93
        0
 40
0.045
309
GRIDFORMAT_END
 95
       16
302
GRIDFORMAT
  1
GRIDFORMAT_BEGIN
 90
        0
 91
        1
 62
     0
 92
       -2
340
0
 93
        0
 40
0.045
309
GRIDFORMAT_END
 95
       32
302
GRIDFORMAT
  1
GRIDFORMAT_BEGIN
 90
        0
 91
        1
 62
     0
 92
       -2
340
0
 93
        0
 40
0.045
309
GRIDFORMAT_END
309
TABLEFORMAT_END
  1
CELLSTYLE_BEGIN
 90
        3
 91
        2
300
_DATA
309
CELLSTYLE_END
  0
ENDSEC
  0
EOF
