  0
SECTION
  2
HEADER
  9
$ACADVER
  1
AC1021
  9
$ACADMAINTVER
 70
    25
  9
$DWGCODEPAGE
  3
ANSI_932
  9
$LASTSAVEDBY
  1
howeNelson
  9
$INSBASE
 10
0.0
 20
0.0
 30
0.0
  9
$EXTMIN
 10
0.0
 20
0.0
 30
-0.0000000000000142
  9
$EXTMAX
 10
630.0
 20
891.0
 30
0.0000000000000142
  9
$LIMMIN
 10
0.0
 20
0.0
  9
$LIMMAX
 10
630.0
 20
891.0
  9
$ORTHOMODE
 70
     0
  9
$REGENMODE
 70
     1
  9
$FILLMODE
 70
     1
  9
$QTEXTMODE
 70
     0
  9
$MIRRTEXT
 70
     1
  9
$LTSCALE
 40
1.5
  9
$ATTMODE
 70
     1
  9
$TEXTSIZE
 40
2.5
  9
$TRACEWID
 40
1.0
  9
$TEXTSTYLE
  7
ＭＳ ゴシック
  9
$CLAYER
  8
DIM
  9
$CELTYPE
  6
ByLayer
  9
$CECOLOR
 62
   256
  9
$CELTSCALE
 40
1.0
  9
$DISPSILH
 70
     0
  9
$DIMSCALE
 40
1.0
  9
$DIMASZ
 40
3.0
  9
$DIMEXO
 40
10.0
  9
$DIMDLI
 40
0.9999999999999999
  9
$DIMRND
 40
0.0
  9
$DIMDLE
 40
0.0
  9
$DIMEXE
 40
0.0
  9
$DIMTP
 40
0.0
  9
$DIMTM
 40
0.0
  9
$DIMTXT
 40
8.0
  9
$DIMCEN
 40
0.0
  9
$DIMTSZ
 40
0.0
  9
$DIMTOL
 70
     0
  9
$DIMLIM
 70
     0
  9
$DIMTIH
 70
     0
  9
$DIMTOH
 70
     0
  9
$DIMSE1
 70
     0
  9
$DIMSE2
 70
     0
  9
$DIMTAD
 70
     1
  9
$DIMZIN
 70
    11
  9
$DIMBLK
  1
DOT
  9
$DIMASO
 70
     1
  9
$DIMSHO
 70
     1
  9
$DIMPOST
  1
<>
  9
$DIMAPOST
  1
[]
  9
$DIMALT
 70
     0
  9
$DIMALTD
 70
     1
  9
$DIMALTF
 40
1.0
  9
$DIMLFAC
 40
1.0
  9
$DIMTOFL
 70
     0
  9
$DIMTVP
 40
0.0
  9
$DIMTIX
 70
     1
  9
$DIMSOXD
 70
     0
  9
$DIMSAH
 70
     0
  9
$DIMBLK1
  1

  9
$DIMBLK2
  1

  9
$DIMSTYLE
  2
tfrom線あり
  9
$DIMCLRD
 70
     0
  9
$DIMCLRE
 70
     0
  9
$DIMCLRT
 70
     0
  9
$DIMTFAC
 40
1.0
  9
$DIMGAP
 40
6.0
  9
$DIMJUST
 70
     0
  9
$DIMSD1
 70
     0
  9
$DIMSD2
 70
     0
  9
$DIMTOLJ
 70
     1
  9
$DIMTZIN
 70
    11
  9
$DIMALTZ
 70
    11
  9
$DIMALTTZ
 70
    11
  9
$DIMUPT
 70
     0
  9
$DIMDEC
 70
     0
  9
$DIMTDEC
 70
     1
  9
$DIMALTU
 70
     2
  9
$DIMALTTD
 70
     2
  9
$DIMTXSTY
  7
ＭＳ ゴシック
  9
$DIMAUNIT
 70
     0
  9
$DIMADEC
 70
     2
  9
$DIMALTRND
 40
0.0
  9
$DIMAZIN
 70
     0
  9
$DIMDSEP
 70
    46
  9
$DIMATFIT
 70
     0
  9
$DIMFRAC
 70
     2
  9
$DIMLDRBLK
  1
DOT
  9
$DIMLUNIT
 70
     2
  9
$DIMLWD
 70
    -2
  9
$DIMLWE
 70
    -2
  9
$DIMTMOVE
 70
     0
  9
$DIMFXL
 40
1.0
  9
$DIMFXLON
 70
     0
  9
$DIMJOGANG
 40
0.7853981633974483
  9
$DIMTFILL
 70
     0
  9
$DIMTFILLCLR
 70
     0
  9
$DIMARCSYM
 70
     0
  9
$DIMLTYPE
  6

  9
$DIMLTEX1
  6

  9
$DIMLTEX2
  6

  9
$LUNITS
 70
     2
  9
$LUPREC
 70
     0
  9
$SKETCHINC
 40
0.1
  9
$FILLETRAD
 40
0.0
  9
$AUNITS
 70
     0
  9
$AUPREC
 70
     0
  9
$MENU
  1
acad
  9
$ELEVATION
 40
0.0
  9
$PELEVATION
 40
0.0
  9
$THICKNESS
 40
0.0
  9
$LIMCHECK
 70
     0
  9
$CHAMFERA
 40
0.0
  9
$CHAMFERB
 40
0.0
  9
$CHAMFERC
 40
0.0
  9
$CHAMFERD
 40
0.0
  9
$SKPOLY
 70
     0
  9
$TDCREATE
 40
2447893.375
  9
$TDUCREATE
 40
0.0
  9
$TDUPDATE
 40
2458722.612772083
  9
$TDUUPDATE
 40
2458722.237772083
  9
$TDINDWG
 40
0.1738477546
  9
$TDUSRTIMER
 40
0.0007239931
  9
$USRTIMER
 70
     1
  9
$ANGBASE
 50
0.0
  9
$ANGDIR
 70
     0
  9
$PDMODE
 70
     1
  9
$PDSIZE
 40
-2.0
  9
$PLINEWID
 40
0.0
  9
$SPLFRAME
 70
     0
  9
$SPLINETYPE
 70
     6
  9
$SPLINESEGS
 70
     8
  9
$HANDSEED
  5
1B44D
  9
$SURFTAB1
 70
     6
  9
$SURFTAB2
 70
     6
  9
$SURFTYPE
 70
     6
  9
$SURFU
 70
     6
  9
$SURFV
 70
     6
  9
$UCSBASE
  2

  9
$UCSNAME
  2

  9
$UCSORG
 10
0.0
 20
0.0
 30
0.0
  9
$UCSXDIR
 10
1.0
 20
0.0
 30
0.0
  9
$UCSYDIR
 10
0.0
 20
1.0
 30
0.0
  9
$UCSORTHOREF
  2

  9
$UCSORTHOVIEW
 70
     0
  9
$UCSORGTOP
 10
0.0
 20
0.0
 30
0.0
  9
$UCSORGBOTTOM
 10
0.0
 20
0.0
 30
0.0
  9
$UCSORGLEFT
 10
0.0
 20
0.0
 30
0.0
  9
$UCSORGRIGHT
 10
0.0
 20
0.0
 30
0.0
  9
$UCSORGFRONT
 10
0.0
 20
0.0
 30
0.0
  9
$UCSORGBACK
 10
0.0
 20
0.0
 30
0.0
  9
$PUCSBASE
  2

  9
$PUCSNAME
  2

  9
$PUCSORG
 10
0.0
 20
0.0
 30
0.0
  9
$PUCSXDIR
 10
1.0
 20
0.0
 30
0.0
  9
$PUCSYDIR
 10
0.0
 20
1.0
 30
0.0
  9
$PUCSORTHOREF
  2

  9
$PUCSORTHOVIEW
 70
     0
  9
$PUCSORGTOP
 10
0.0
 20
0.0
 30
0.0
  9
$PUCSORGBOTTOM
 10
0.0
 20
0.0
 30
0.0
  9
$PUCSORGLEFT
 10
0.0
 20
0.0
 30
0.0
  9
$PUCSORGRIGHT
 10
0.0
 20
0.0
 30
0.0
  9
$PUCSORGFRONT
 10
0.0
 20
0.0
 30
0.0
  9
$PUCSORGBACK
 10
0.0
 20
0.0
 30
0.0
  9
$USERI1
 70
     0
  9
$USERI2
 70
     0
  9
$USERI3
 70
     0
  9
$USERI4
 70
     0
  9
$USERI5
 70
     0
  9
$USERR1
 40
0.0
  9
$USERR2
 40
0.0
  9
$USERR3
 40
0.0
  9
$USERR4
 40
0.0
  9
$USERR5
 40
0.0
  9
$WORLDVIEW
 70
     1
  9
$SHADEDGE
 70
     3
  9
$SHADEDIF
 70
    70
  9
$TILEMODE
 70
     1
  9
$MAXACTVP
 70
    64
  9
$PINSBASE
 10
0.0
 20
0.0
 30
0.0
  9
$PLIMCHECK
 70
     0
  9
$PEXTMIN
 10
0.0
 20
0.0
 30
0.0
  9
$PEXTMAX
 10
0.0
 20
0.0
 30
0.0
  9
$PLIMMIN
 10
-7.5
 20
-20.0
  9
$PLIMMAX
 10
412.5
 20
277.0
  9
$UNITMODE
 70
     0
  9
$VISRETAIN
 70
     0
  9
$PLINEGEN
 70
     1
  9
$PSLTSCALE
 70
     0
  9
$TREEDEPTH
 70
  3020
  9
$CMLSTYLE
  2
Standard
  9
$CMLJUST
 70
     0
  9
$CMLSCALE
 40
1.0
  9
$PROXYGRAPHICS
 70
     0
  9
$MEASUREMENT
 70
     1
  9
$CELWEIGHT
370
    -1
  9
$ENDCAPS
280
     0
  9
$JOINSTYLE
280
     0
  9
$LWDISPLAY
290
     1
  9
$INSUNITS
 70
     4
  9
$HYPERLINKBASE
  1

  9
$STYLESHEET
  1

  9
$XEDIT
290
     1
  9
$CEPSNTYPE
380
     0
  9
$PSTYLEMODE
290
     1
  9
$FINGERPRINTGUID
  2

  9
$VERSIONGUID
  2

  9
$EXTNAMES
290
     1
  9
$PSVPSCALE
 40
0.0
  9
$OLESTARTUP
290
     0
  9
$SORTENTS
280
   127
  9
$INDEXCTL
280
     0
  9
$HIDETEXT
280
     1
  9
$XCLIPFRAME
290
     0
  9
$HALOGAP
280
     0
  9
$OBSCOLOR
 70
   257
  9
$OBSLTYPE
280
     0
  9
$INTERSECTIONDISPLAY
280
     0
  9
$INTERSECTIONCOLOR
 70
   257
  9
$DIMASSOC
280
     2
  9
$PROJECTNAME
  1

  9
$CAMERADISPLAY
290
     0
  9
$LENSLENGTH
 40
50.0
  9
$CAMERAHEIGHT
 40
0.0
  9
$STEPSPERSEC
 40
2.0
  9
$STEPSIZE
 40
6.0
  9
$3DDWFPREC
 40
2.0
  9
$PSOLWIDTH
 40
0.25
  9
$PSOLHEIGHT
 40
4.0
  9
$LOFTANG1
 40
1.570796326794897
  9
$LOFTANG2
 40
1.570796326794897
  9
$LOFTMAG1
 40
0.0
  9
$LOFTMAG2
 40
0.0
  9
$LOFTPARAM
 70
     7
  9
$LOFTNORMALS
280
     1
  9
$LATITUDE
 40
37.795
  9
$LONGITUDE
 40
-122.394
  9
$NORTHDIRECTION
 40
0.0
  9
$TIMEZONE
 70
 -8000
  9
$LIGHTGLYPHDISPLAY
280
     1
  9
$TILEMODELIGHTSYNCH
280
     1
  9
$SOLIDHIST
280
     1
  9
$SHOWHIST
280
     1
  9
$DWFFRAME
280
     2
  9
$DGNFRAME
280
     2
  9
$REALWORLDSCALE
290
     1
  9
$INTERFERECOLOR
 62
   256
  9
$CSHADOW
280
     0
  9
$SHADOWPLANELOCATION
 40
0.0
  0
ENDSEC
  0
SECTION
  2
CLASSES
  0
CLASS
  1
LWPOLYLINE
  2
AcDbPolyline
  3
ObjectDBX Classes
 90
        0
 91
        1
280
     0
281
     1
  0
CLASS
  1
IMAGE
  2
AcDbRasterImage
  3
ISM
 90
      127
 91
        5
280
     0
281
     1
  0
CLASS
  1
OLE2FRAME
  2
AcDbOle2Frame
  3
ObjectDBX Classes
 90
        0
 91
        1
280
     0
281
     1
  0
CLASS
  1
HATCH
  2
AcDbHatch
  3
ObjectDBX Classes
 90
        0
 91
        1
280
     0
281
     1
  0
CLASS
  1
DICTIONARYVAR
  2
AcDbDictionaryVar
  3
ObjectDBX Classes
 90
        0
 91
        4
280
     0
281
     0
  0
CLASS
  1
RASTERVARIABLES
  2
AcDbRasterVariables
  3
ISM
 90
        0
 91
        4
280
     0
281
     0
  0
CLASS
  1
IMAGEDEF
  2
AcDbRasterImageDef
  3
ISM
 90
        0
 91
        4
280
     0
281
     0
  0
CLASS
  1
IMAGEDEF_REACTOR
  2
AcDbRasterImageDefReactor
  3
ISM
 90
        1
 91
        4
280
     0
281
     0
  0
CLASS
  1
IDBUFFER
  2
AcDbIdBuffer
  3
ObjectDBX Classes
 90
        0
 91
        4
280
     0
281
     0
  0
CLASS
  1
SPATIAL_FILTER
  2
AcDbSpatialFilter
  3
ObjectDBX Classes
 90
        0
 91
        4
280
     0
281
     0
  0
CLASS
  1
XRECORD
  2
AcDbXrecord
  3
ObjectDBX Classes
 90
        0
 91
        1
280
     0
281
     0
  0
CLASS
  1
SORTENTSTABLE
  2
AcDbSortentsTable
  3
ObjectDBX Classes
 90
        0
 91
        4
280
     0
281
     0
  0
CLASS
  1
LAYER_INDEX
  2
AcDbLayerIndex
  3
ObjectDBX Classes
 90
        0
 91
        4
280
     0
281
     0
  0
CLASS
  1
SPATIAL_INDEX
  2
AcDbSpatialIndex
  3
AutoCAD 2000
 90
        0
 91
        4
280
     0
281
     0
  0
CLASS
  1
OBJECT_PTR
  2
CAseDLPNTableRecord
  3
ASE-LPNTableRecord
 90
        1
 91
        4
280
     0
281
     0
  0
CLASS
  1
LAYOUT
  2
AcDbLayout
  3
ObjectDBX Classes
 90
        0
 91
        1
280
     0
281
     0
  0
CLASS
  1
PLOTSETTINGS
  2
AcDbPlotSettings
  3
ObjectDBX Classes
 90
        0
 91
        4
280
     0
281
     0
  0
CLASS
  1
ACDBDICTIONARYWDFLT
  2
AcDbDictionaryWithDefault
  3
ObjectDBX Classes
 90
        0
 91
        4
280
     0
281
     0
  0
CLASS
  1
ACDBPLACEHOLDER
  2
AcDbPlaceHolder
  3
ObjectDBX Classes
 90
        0
 91
        1
280
     0
281
     0
  0
CLASS
  1
SCALE
  2
AcDbScale
  3
ObjectDBX Classes
 90
     1153
 91
        4
280
     0
281
     0
  0
CLASS
  1
MATERIAL
  2
AcDbMaterial
  3
ObjectDBX Classes
 90
     1153
 91
        4
280
     0
281
     0
  0
CLASS
  1
VISUALSTYLE
  2
AcDbVisualStyle
  3
ObjectDBX Classes
 90
     4095
 91
        4
280
     0
281
     0
  0
CLASS
  1
TABLESTYLE
  2
AcDbTableStyle
  3
ObjectDBX Classes
 90
     4095
 91
        4
280
     0
281
     0
  0
CLASS
  1
DIMASSOC
  2
AcDbDimAssoc
  3
"AcDbDimAssoc|Product Desc:     AcDim ARX App For Dimension|Company:          Autodesk, Inc.|WEB Address:      www.autodesk.com"
 90
        0
 91
        4
280
     0
281
     0
  0
CLASS
  1
CELLSTYLEMAP
  2
AcDbCellStyleMap
  3
ObjectDBX Classes
 90
     1152
 91
        4
280
     0
281
     0
  0
CLASS
  1
SUN
  2
AcDbSun
  3
SCENEOE
 90
     1153
 91
        4
280
     0
281
     0
  0
CLASS
  1
MLEADERSTYLE
  2
AcDbMLeaderStyle
  3
ACDB_MLEADERSTYLE_CLASS
 90
     4095
 91
        4
280
     0
281
     0
  0
CLASS
  1
FIELD
  2
AcDbField
  3
ObjectDBX Classes
 90
     1152
 91
        4
280
     0
281
     0
  0
CLASS
  1
FIELDLIST
  2
AcDbFieldList
  3
ObjectDBX Classes
 90
     1152
 91
        4
280
     0
281
     0
  0
ENDSEC
  0
SECTION
  2
TABLES
  0
TABLE
  2
VPORT
  5
7
330
0
100
AcDbSymbolTable
 70
     1
  0
VPORT
  5
15
330
7
100
AcDbSymbolTableRecord
100
AcDbViewportTableRecord
  2
*ACTIVE
 70
     0
 10
0.0
 20
0.0
 11
1.0
 21
1.0
 12
406.0201356709015
 22
371.9012854698341
 13
0.0
 23
0.0
 14
1.0
 24
1.0
 15
0.0
 25
0.0
 16
0.0
 26
0.0
 36
1.0
 17
-91.02013567090154
 27
73.59871453016592
 37
-46.86809886248109
 40
908.82
 41
2.310294117647059
 42
50.0
 43
0.0
 44
0.0
 50
0.0
 51
0.0
 71
    16
 72
  2000
 73
     1
 74
     1
 75
     0
 76
     0
 77
     0
 78
     0
281
     0
 65
     1
110
0.0
120
0.0
130
0.0
111
1.0
121
0.0
131
0.0
112
0.0
122
1.0
132
0.0
 79
     0
146
0.0
348
3666
 60
     3
 61
     5
292
     1
282
     1
141
0.0
142
0.0
 63
   256
361
904
  0
ENDTAB
  0
TABLE
  2
LTYPE
  5
4
330
0
100
AcDbSymbolTable
 70
     5
  0
LTYPE
  5
11
330
4
100
AcDbSymbolTableRecord
100
AcDbLinetypeTableRecord
  2
ByBlock
 70
     0
  3

 72
    65
 73
     0
 40
0.0
  0
LTYPE
  5
12
330
4
100
AcDbSymbolTableRecord
100
AcDbLinetypeTableRecord
  2
ByLayer
 70
     0
  3

 72
    65
 73
     0
 40
0.0
  0
LTYPE
  5
13
330
4
100
AcDbSymbolTableRecord
100
AcDbLinetypeTableRecord
  2
Continuous
 70
     0
  3
Solid line
 72
    65
 73
     0
 40
0.0
  0
LTYPE
  5
D6C
330
4
100
AcDbSymbolTableRecord
100
AcDbLinetypeTableRecord
  2
BORDER
 70
     0
  3
Border __  __  . __  __  . __  __  . __  __  . 
 72
    65
 73
     6
 40
44.45
 49
12.7
 74
     0
 49
-6.35
 74
     0
 49
12.7
 74
     0
 49
-6.35
 74
     0
 49
0.0
 74
     0
 49
-6.35
 74
     0
  0
LTYPE
  5
D6D
330
4
100
AcDbSymbolTableRecord
100
AcDbLinetypeTableRecord
  2
HIDDEN
 70
     0
  3
Hidden _ _ _ _ _ _ _ _ _ _ _ _ _ _ _ _ _ _ _ _ 
 72
    65
 73
     2
 40
9.524999999999999
 49
6.35
 74
     0
 49
-3.175
 74
     0
  0
LTYPE
  5
178BD
330
4
100
AcDbSymbolTableRecord
100
AcDbLinetypeTableRecord
  2
DASHED
 70
     0
  3
__ __ __ __ __ __ __ __ __ __ __ __ __ __ __ __
 72
    65
 73
     2
 40
15.0
 49
12.0
 74
     0
 49
-3.0
 74
     0
  0
LTYPE
  5
18884
330
4
100
AcDbSymbolTableRecord
100
AcDbLinetypeTableRecord
  2
DASHDOT
 70
     0
  3
 __ . __ . __ . __ . __ . __ . __ . 
 72
    65
 73
     4
 40
18.5
 49
12.0
 74
     0
 49
-3.0
 74
     0
 49
0.5
 74
     0
 49
-3.0
 74
     0
  0
ENDTAB
  0
TABLE
  2
LAYER
  5
2
102
{ACAD_XDICTIONARY
360
2E1
102
}
330
0
100
AcDbSymbolTable
 70
     8
  0
LAYER
  5
14
330
2
100
AcDbSymbolTableRecord
100
AcDbLayerTableRecord
  2
0
 70
     0
 62
     7
  6
Continuous
370
    -3
390
1D
347
266
  0
LAYER
  5
4B
330
2
100
AcDbSymbolTableRecord
100
AcDbLayerTableRecord
  2
TEMPLATE
 70
     0
 62
     7
  6
Continuous
370
    20
390
1D
347
266
  0
LAYER
  5
4C
330
2
100
AcDbSymbolTableRecord
100
AcDbLayerTableRecord
  2
DIM
 70
     0
 62
     3
  6
Continuous
370
    13
390
1D
347
266
  0
LAYER
  5
4D
330
2
100
AcDbSymbolTableRecord
100
AcDbLayerTableRecord
  2
MODEL
 70
     0
 62
     7
  6
Continuous
370
    20
390
1D
347
266
  0
LAYER
  5
88C
330
2
100
AcDbSymbolTableRecord
100
AcDbLayerTableRecord
  2
HIDDEN
 70
     0
 62
     8
  6
HIDDEN
370
    20
390
1D
347
266
1001
AcAecLayerStandard
1000

1000

  0
LAYER
  5
D6B
330
2
100
AcDbSymbolTableRecord
100
AcDbLayerTableRecord
  2
BORDER
 70
     0
 62
     4
  6
BORDER
290
     0
370
    20
390
1D
347
266
1001
AcAecLayerStandard
1000

1000

  0
LAYER
  5
A5DF
330
2
100
AcDbSymbolTableRecord
100
AcDbLayerTableRecord
  2
Defpoints
 70
     0
 62
     7
  6
Continuous
290
     0
370
    -3
390
1D
347
266
  0
LAYER
  5
173FE
330
2
100
AcDbSymbolTableRecord
100
AcDbLayerTableRecord
  2
レイヤー 1
 70
     0
 62
     7
  6
Continuous
370
    -3
390
1D
347
266
  0
ENDTAB
  0
TABLE
  2
STYLE
  5
3
330
0
100
AcDbSymbolTable
 70
     2
  0
STYLE
  5
17
330
3
100
AcDbSymbolTableRecord
100
AcDbTextStyleTableRecord
  2
Standard
 70
     0
 40
0.0
 41
1.0
 50
0.0
 71
     0
 42
2.5
  3
txt
  4
BIGFONT.SHX
  0
STYLE
  5
39
330
3
100
AcDbSymbolTableRecord
100
AcDbTextStyleTableRecord
  2
ＭＳ ゴシック
 70
     0
 40
0.0
 41
1.0
 50
0.0
 71
     0
 42
2.5
  3
msgothic.ttc
  4
ＭＳ ゴシック
1001
ACAD
1000
ＭＳ ゴシック
1071
        0
  0
ENDTAB
  0
TABLE
  2
VIEW
  5
5
330
0
100
AcDbSymbolTable
 70
     0
  0
ENDTAB
  0
TABLE
  2
UCS
  5
6
330
0
100
AcDbSymbolTable
 70
     0
  0
ENDTAB
  0
TABLE
  2
APPID
  5
8
330
0
100
AcDbSymbolTable
 70
     3
  0
APPID
  5
16
330
8
100
AcDbSymbolTableRecord
100
AcDbRegAppTableRecord
  2
ACAD
 70
     0
  0
APPID
  5
7AC
330
8
100
AcDbSymbolTableRecord
100
AcDbRegAppTableRecord
  2
AcAecLayerStandard
 70
     0
  0
APPID
  5
E29
330
8
100
AcDbSymbolTableRecord
100
AcDbRegAppTableRecord
  2
ACAD_MLEADERVER
 70
     0
  0
ENDTAB
  0
TABLE
  2
DIMSTYLE
  5
9
330
0
100
AcDbSymbolTable
 70
     2
100
AcDbDimStyleTable
  0
DIMSTYLE
105
18
330
9
100
AcDbSymbolTableRecord
100
AcDbDimStyleTableRecord
  2
Standard
 70
     0
178
     0
340
17
  0
DIMSTYLE
105
57
102
{ACAD_REACTORS
330
1B328
330
1B33A
330
1B35C
330
1B369
330
1B3BC
330
1B3D1
102
}
330
9
100
AcDbSymbolTableRecord
100
AcDbDimStyleTableRecord
  2
tfrom線あり
 70
     0
  3
<>
  4
[]
 41
3.0
 42
10.0
 43
0.9999999999999999
 44
0.0
 73
     0
 74
     0
 77
     1
 78
    11
140
8.0
141
0.0
143
1.0
147
6.0
171
     1
174
     1
178
     0
179
     2
271
     0
272
     1
276
     2
284
    11
285
    11
286
    11
289
     0
340
39
341
4E
342
4E
  0
ENDTAB
  0
TABLE
  2
BLOCK_RECORD
  5
1
330
0
100
AcDbSymbolTable
 70
    45
  0
BLOCK_RECORD
  5
A
102
{ACAD_XDICTIONARY
360
1733E
102
}
330
1
100
AcDbSymbolTableRecord
100
AcDbBlockTableRecord
  2
*MODEL_SPACE
340
20
 70
     0
280
     1
281
     0
  0
BLOCK_RECORD
  5
B
330
1
100
AcDbSymbolTableRecord
100
AcDbBlockTableRecord
  2
*PAPER_SPACE
340
21
 70
     0
280
     1
281
     0
  0
BLOCK_RECORD
  5
4E
330
1
100
AcDbSymbolTableRecord
100
AcDbBlockTableRecord
  2
_DOT
340
0
102
{BLKREFS
331
17326
331
17327
331
17335
331
17336
331
173AB
331
173AC
331
173BA
331
173BB
331
173D8
331
173D9
331
173E4
331
173E5
331
17692
331
17693
331
176A2
331
176A3
331
176B2
331
176B3
331
176C1
331
176C2
331
176D0
331
176D1
331
176FE
331
176FF
331
1770D
331
1770E
331
17720
331
17721
331
1772D
331
1772E
331
17743
331
17744
331
1775C
331
1775D
331
1776C
331
1776D
331
1777B
331
1777C
331
1779D
331
1779E
331
177AA
331
177AB
331
177B9
331
177BA
331
177C8
331
177C9
331
177DB
331
177DC
331
177EA
331
177EB
331
177FD
331
177FE
331
17811
331
17812
331
17826
331
17827
331
17835
331
17836
331
17847
331
17848
331
17854
331
17855
331
17867
331
17868
331
17879
331
1787A
331
1788B
331
1788C
331
1789A
331
1789B
331
1B331
331
1B332
331
1B343
331
1B344
331
1B356
331
1B357
331
1B363
331
1B364
331
1B372
331
1B373
331
1B3B6
331
1B3B7
331
1B3C5
331
1B3C6
331
1B3D8
331
1B3D9
102
}
 70
     0
280
     1
281
     0
  0
BLOCK_RECORD
  5
68D
330
1
100
AcDbSymbolTableRecord
100
AcDbBlockTableRecord
  2
block 2
340
0
 70
     0
280
     1
281
     0
  0
BLOCK_RECORD
  5
17320
330
1
100
AcDbSymbolTableRecord
100
AcDbBlockTableRecord
  2
*D2
340
0
 70
     0
280
     1
281
     0
  0
BLOCK_RECORD
  5
1732F
330
1
100
AcDbSymbolTableRecord
100
AcDbBlockTableRecord
  2
*D3
340
0
 70
     0
280
     1
281
     0
  0
BLOCK_RECORD
  5
173A6
330
1
100
AcDbSymbolTableRecord
100
AcDbBlockTableRecord
  2
*D4
340
0
 70
     0
280
     1
281
     0
  0
BLOCK_RECORD
  5
173B5
330
1
100
AcDbSymbolTableRecord
100
AcDbBlockTableRecord
  2
*D5
340
0
 70
     0
280
     1
281
     0
  0
BLOCK_RECORD
  5
173D2
330
1
100
AcDbSymbolTableRecord
100
AcDbBlockTableRecord
  2
*D6
340
0
 70
     0
280
     1
281
     0
  0
BLOCK_RECORD
  5
173DE
330
1
100
AcDbSymbolTableRecord
100
AcDbBlockTableRecord
  2
*D7
340
0
 70
     0
280
     1
281
     0
  0
BLOCK_RECORD
  5
1768C
330
1
100
AcDbSymbolTableRecord
100
AcDbBlockTableRecord
  2
*D8
340
0
 70
     0
280
     1
281
     0
  0
BLOCK_RECORD
  5
1769C
330
1
100
AcDbSymbolTableRecord
100
AcDbBlockTableRecord
  2
*D9
340
0
 70
     0
280
     1
281
     0
  0
BLOCK_RECORD
  5
176AB
330
1
100
AcDbSymbolTableRecord
100
AcDbBlockTableRecord
  2
*D10
340
0
 70
     0
280
     1
281
     0
  0
BLOCK_RECORD
  5
176BB
330
1
100
AcDbSymbolTableRecord
100
AcDbBlockTableRecord
  2
*D11
340
0
 70
     0
280
     1
281
     0
  0
BLOCK_RECORD
  5
176CA
330
1
100
AcDbSymbolTableRecord
100
AcDbBlockTableRecord
  2
*D12
340
0
 70
     0
280
     1
281
     0
  0
BLOCK_RECORD
  5
176F8
330
1
100
AcDbSymbolTableRecord
100
AcDbBlockTableRecord
  2
*D13
340
0
 70
     0
280
     1
281
     0
  0
BLOCK_RECORD
  5
17707
330
1
100
AcDbSymbolTableRecord
100
AcDbBlockTableRecord
  2
*D14
340
0
 70
     0
280
     1
281
     0
  0
BLOCK_RECORD
  5
1771A
330
1
100
AcDbSymbolTableRecord
100
AcDbBlockTableRecord
  2
*D15
340
0
 70
     0
280
     1
281
     0
  0
BLOCK_RECORD
  5
17727
330
1
100
AcDbSymbolTableRecord
100
AcDbBlockTableRecord
  2
*D16
340
0
 70
     0
280
     1
281
     0
  0
BLOCK_RECORD
  5
1773D
330
1
100
AcDbSymbolTableRecord
100
AcDbBlockTableRecord
  2
*D17
340
0
 70
     0
280
     1
281
     0
  0
BLOCK_RECORD
  5
17756
330
1
100
AcDbSymbolTableRecord
100
AcDbBlockTableRecord
  2
*D18
340
0
 70
     0
280
     1
281
     0
  0
BLOCK_RECORD
  5
17766
330
1
100
AcDbSymbolTableRecord
100
AcDbBlockTableRecord
  2
*D19
340
0
 70
     0
280
     1
281
     0
  0
BLOCK_RECORD
  5
17775
330
1
100
AcDbSymbolTableRecord
100
AcDbBlockTableRecord
  2
*D20
340
0
 70
     0
280
     1
281
     0
  0
BLOCK_RECORD
  5
17797
330
1
100
AcDbSymbolTableRecord
100
AcDbBlockTableRecord
  2
*D21
340
0
 70
     0
280
     1
281
     0
  0
BLOCK_RECORD
  5
177A4
330
1
100
AcDbSymbolTableRecord
100
AcDbBlockTableRecord
  2
*D22
340
0
 70
     0
280
     1
281
     0
  0
BLOCK_RECORD
  5
177B3
330
1
100
AcDbSymbolTableRecord
100
AcDbBlockTableRecord
  2
*D23
340
0
 70
     0
280
     1
281
     0
  0
BLOCK_RECORD
  5
177C2
330
1
100
AcDbSymbolTableRecord
100
AcDbBlockTableRecord
  2
*D24
340
0
 70
     0
280
     1
281
     0
  0
BLOCK_RECORD
  5
177D5
330
1
100
AcDbSymbolTableRecord
100
AcDbBlockTableRecord
  2
*D25
340
0
 70
     0
280
     1
281
     0
  0
BLOCK_RECORD
  5
177E4
330
1
100
AcDbSymbolTableRecord
100
AcDbBlockTableRecord
  2
*D26
340
0
 70
     0
280
     1
281
     0
  0
BLOCK_RECORD
  5
177F7
330
1
100
AcDbSymbolTableRecord
100
AcDbBlockTableRecord
  2
*D27
340
0
 70
     0
280
     1
281
     0
  0
BLOCK_RECORD
  5
17809
330
1
100
AcDbSymbolTableRecord
100
AcDbBlockTableRecord
  2
*D28
340
0
 70
     0
280
     1
281
     0
  0
BLOCK_RECORD
  5
1781E
330
1
100
AcDbSymbolTableRecord
100
AcDbBlockTableRecord
  2
*D29
340
0
 70
     0
280
     1
281
     0
  0
BLOCK_RECORD
  5
1782F
330
1
100
AcDbSymbolTableRecord
100
AcDbBlockTableRecord
  2
*D30
340
0
 70
     0
280
     1
281
     0
  0
BLOCK_RECORD
  5
17841
330
1
100
AcDbSymbolTableRecord
100
AcDbBlockTableRecord
  2
*D31
340
0
 70
     0
280
     1
281
     0
  0
BLOCK_RECORD
  5
1784E
330
1
100
AcDbSymbolTableRecord
100
AcDbBlockTableRecord
  2
*D32
340
0
 70
     0
280
     1
281
     0
  0
BLOCK_RECORD
  5
17861
330
1
100
AcDbSymbolTableRecord
100
AcDbBlockTableRecord
  2
*D33
340
0
 70
     0
280
     1
281
     0
  0
BLOCK_RECORD
  5
17873
330
1
100
AcDbSymbolTableRecord
100
AcDbBlockTableRecord
  2
*D34
340
0
 70
     0
280
     1
281
     0
  0
BLOCK_RECORD
  5
17885
330
1
100
AcDbSymbolTableRecord
100
AcDbBlockTableRecord
  2
*D35
340
0
 70
     0
280
     1
281
     0
  0
BLOCK_RECORD
  5
17894
330
1
100
AcDbSymbolTableRecord
100
AcDbBlockTableRecord
  2
*D36
340
0
 70
     0
280
     1
281
     0
  0
BLOCK_RECORD
  5
1B32B
330
1
100
AcDbSymbolTableRecord
100
AcDbBlockTableRecord
  2
*D37
340
0
 70
     0
280
     1
281
     0
  0
BLOCK_RECORD
  5
1B33D
330
1
100
AcDbSymbolTableRecord
100
AcDbBlockTableRecord
  2
*D38
340
0
 70
     0
280
     1
281
     0
  0
BLOCK_RECORD
  5
1B350
330
1
100
AcDbSymbolTableRecord
100
AcDbBlockTableRecord
  2
*D39
340
0
 70
     0
280
     1
281
     0
  0
BLOCK_RECORD
  5
1B35D
330
1
100
AcDbSymbolTableRecord
100
AcDbBlockTableRecord
  2
*D40
340
0
 70
     0
280
     1
281
     0
  0
BLOCK_RECORD
  5
1B36C
330
1
100
AcDbSymbolTableRecord
100
AcDbBlockTableRecord
  2
*D41
340
0
 70
     0
280
     1
281
     0
  0
BLOCK_RECORD
  5
1B3B0
330
1
100
AcDbSymbolTableRecord
100
AcDbBlockTableRecord
  2
*D42
340
0
 70
     0
280
     1
281
     0
  0
BLOCK_RECORD
  5
1B3BF
330
1
100
AcDbSymbolTableRecord
100
AcDbBlockTableRecord
  2
*D43
340
0
 70
     0
280
     1
281
     0
  0
BLOCK_RECORD
  5
1B3D2
330
1
100
AcDbSymbolTableRecord
100
AcDbBlockTableRecord
  2
*D44
340
0
 70
     0
280
     1
281
     0
  0
ENDTAB
  0
ENDSEC
  0
SECTION
  2
BLOCKS
  0
BLOCK
  5
D
330
A
100
AcDbEntity
  8
0
390
1D
100
AcDbBlockBegin
  2
*MODEL_SPACE
 70
     0
 10
0.0
 20
0.0
 30
0.0
  3
*MODEL_SPACE
  1
*MODEL_SPACE
  0
ENDBLK
  5
E
330
A
100
AcDbEntity
  8
0
390
1D
100
AcDbBlockEnd
  0
BLOCK
  5
F
330
B
100
AcDbEntity
 67
     1
  8
0
390
1D
100
AcDbBlockBegin
  2
*PAPER_SPACE
 70
     0
 10
0.0
 20
0.0
 30
0.0
  3
*PAPER_SPACE
  1
*PAPER_SPACE
  0
ENDBLK
  5
10
330
B
100
AcDbEntity
 67
     1
  8
0
390
1D
100
AcDbBlockEnd
  0
BLOCK
  5
369F
330
4E
100
AcDbEntity
  8
0
390
1D
100
AcDbBlockBegin
  2
_DOT
 70
     0
 10
0.0
 20
0.0
 30
0.0
  3
_DOT
  1
_DOT
  0
POLYLINE
  5
36A1
330
4E
100
AcDbEntity
  8
0
  6
ByBlock
 62
     0
370
    -2
390
1D
100
AcDb2dPolyline
 66
     1
 10
0.0
 20
0.0
 30
0.0
 70
     1
 40
0.5
 41
0.5
  0
VERTEX
  5
36A2
330
36A1
100
AcDbEntity
  8
0
  6
ByBlock
 62
     0
370
    -2
390
1D
100
AcDbVertex
100
AcDb2dVertex
 10
-0.25
 20
0.0
 30
0.0
 42
1.0
  0
VERTEX
  5
36A3
330
36A1
100
AcDbEntity
  8
0
  6
ByBlock
 62
     0
370
    -2
390
1D
100
AcDbVertex
100
AcDb2dVertex
 10
0.25
 20
0.0
 30
0.0
 42
1.0
  0
SEQEND
  5
36A4
330
36A1
100
AcDbEntity
  8
0
390
1D
  0
LINE
  5
36A5
330
4E
100
AcDbEntity
  8
0
  6
ByBlock
 62
     0
370
    -2
390
1D
100
AcDbLine
 10
-0.5
 20
0.0
 30
0.0
 11
-1.0
 21
0.0
 31
0.0
  0
ENDBLK
  5
36A6
330
4E
100
AcDbEntity
  8
0
390
1D
100
AcDbBlockEnd
  0
BLOCK
  5
68E
330
68D
100
AcDbEntity
  8
0
100
AcDbBlockBegin
  2
block 2
 70
     0
 10
0.0
 20
0.0
 30
0.0
  3
block 2
  1
block 2
  0
ENDBLK
  5
6B0
330
68D
100
AcDbEntity
  8
0
100
AcDbBlockEnd
  0
BLOCK
  5
17321
330
17320
100
AcDbEntity
  8
0
100
AcDbBlockBegin
  2
*D2
 70
     1
 10
0.0
 20
0.0
 30
0.0
  3
*D2
  1

  0
LINE
  5
17323
330
17320
100
AcDbEntity
  8
DIM
 62
     0
370
    -2
100
AcDbLine
 10
405.9245501690548
 20
309.7529598971253
 30
0.0
 11
405.9245501690548
 21
297.8784471131835
 31
0.0
  0
LINE
  5
17324
330
17320
100
AcDbEntity
  8
DIM
 62
     0
370
    -2
100
AcDbLine
 10
370.465565794055
 20
307.7217551386165
 30
0.0
 11
370.465565794055
 21
297.8784471131835
 31
0.0
  0
LINE
  5
17325
330
17320
100
AcDbEntity
  8
DIM
 62
     0
370
    -2
100
AcDbLine
 10
402.9245501690548
 20
297.8784471131835
 30
0.0
 11
373.465565794055
 21
297.8784471131835
 31
0.0
  0
INSERT
  5
17326
330
17320
100
AcDbEntity
  8
DIM
 62
     0
370
    -2
100
AcDbBlockReference
  2
_DOT
 10
405.9245501690548
 20
297.8784471131835
 30
0.0
 41
3.0
 42
3.0
 43
3.0
  0
INSERT
  5
17327
330
17320
100
AcDbEntity
  8
DIM
 62
     0
370
    -2
100
AcDbBlockReference
  2
_DOT
 10
370.465565794055
 20
297.8784471131835
 30
0.0
 41
3.0
 42
3.0
 43
3.0
 50
180.0
  0
MTEXT
  5
17328
330
17320
100
AcDbEntity
  8
DIM
 62
     0
100
AcDbMText
 10
388.1950579815549
 20
307.8784471131835
 30
0.0
 40
8.0
 41
0.0
 46
0.0
 71
     5
 72
     1
  1
\A1;35
  7
ＭＳ ゴシック
 73
     1
 44
1.0
  0
POINT
  5
17329
330
17320
100
AcDbEntity
  8
Defpoints
 62
     0
100
AcDbPoint
 10
405.9245501690548
 20
319.7529598971253
 30
0.0
  0
POINT
  5
1732A
330
17320
100
AcDbEntity
  8
Defpoints
 62
     0
100
AcDbPoint
 10
370.465565794055
 20
317.7217551386165
 30
0.0
  0
POINT
  5
1732B
330
17320
100
AcDbEntity
  8
Defpoints
 62
     0
100
AcDbPoint
 10
370.465565794055
 20
297.8784471131835
 30
0.0
  0
ENDBLK
  5
17322
330
17320
100
AcDbEntity
  8
0
100
AcDbBlockEnd
  0
BLOCK
  5
17330
330
1732F
100
AcDbEntity
  8
0
100
AcDbBlockBegin
  2
*D3
 70
     1
 10
0.0
 20
0.0
 30
0.0
  3
*D3
  1

  0
LINE
  5
17332
330
1732F
100
AcDbEntity
  8
DIM
 62
     0
370
    -2
100
AcDbLine
 10
336.4182475173941
 20
457.0429158371509
 30
0.0
 11
315.1384266419193
 21
457.0429158371509
 31
0.0
  0
LINE
  5
17333
330
1732F
100
AcDbEntity
  8
DIM
 62
     0
370
    -2
100
AcDbLine
 10
331.4592515249408
 20
386.1825642746509
 30
0.0
 11
315.1384266419193
 21
386.1825642746509
 31
0.0
  0
LINE
  5
17334
330
1732F
100
AcDbEntity
  8
DIM
 62
     0
370
    -2
100
AcDbLine
 10
315.1384266419193
 20
454.0429158371509
 30
0.0
 11
315.1384266419193
 21
389.1825642746509
 31
0.0
  0
INSERT
  5
17335
330
1732F
100
AcDbEntity
  8
DIM
 62
     0
370
    -2
100
AcDbBlockReference
  2
_DOT
 10
315.1384266419193
 20
457.0429158371509
 30
0.0
 41
3.0
 42
3.0
 43
3.0
 50
90.0
  0
INSERT
  5
17336
330
1732F
100
AcDbEntity
  8
DIM
 62
     0
370
    -2
100
AcDbBlockReference
  2
_DOT
 10
315.1384266419193
 20
386.1825642746509
 30
0.0
 41
3.0
 42
3.0
 43
3.0
 50
270.0
  0
MTEXT
  5
17337
330
1732F
100
AcDbEntity
  8
DIM
 62
     0
100
AcDbMText
 10
305.1384266419193
 20
421.6127400559009
 30
0.0
 40
8.0
 41
0.0
 46
0.0
 71
     5
 72
     1
  1
\A1;71
  7
ＭＳ ゴシック
 11
0.0
 21
1.0
 31
0.0
 73
     1
 44
1.0
  0
POINT
  5
17338
330
1732F
100
AcDbEntity
  8
Defpoints
 62
     0
100
AcDbPoint
 10
346.4182475173941
 20
457.0429158371509
 30
0.0
  0
POINT
  5
17339
330
1732F
100
AcDbEntity
  8
Defpoints
 62
     0
100
AcDbPoint
 10
341.4592515249408
 20
386.1825642746509
 30
0.0
  0
POINT
  5
1733A
330
1732F
100
AcDbEntity
  8
Defpoints
 62
     0
100
AcDbPoint
 10
315.1384266419193
 20
386.1825642746509
 30
0.0
  0
ENDBLK
  5
17331
330
1732F
100
AcDbEntity
  8
0
100
AcDbBlockEnd
  0
BLOCK
  5
173A7
330
173A6
100
AcDbEntity
  8
0
100
AcDbBlockBegin
  2
*D4
 70
     1
 10
0.0
 20
0.0
 30
0.0
  3
*D4
  1

  0
LINE
  5
173A8
330
173A6
100
AcDbEntity
  8
DIM
 62
     0
370
    -2
100
AcDbLine
 10
1.0
 20
135.0035410091185
 30
0.0
 11
1.0
 21
195.1497860279634
 31
0.0
  0
LINE
  5
173A9
330
173A6
100
AcDbEntity
  8
DIM
 62
     0
370
    -2
100
AcDbLine
 10
115.1779939209723
 20
135.0035410091185
 30
0.0
 11
115.1779939209723
 21
195.1497860279634
 31
0.0
  0
LINE
  5
173AA
330
173A6
100
AcDbEntity
  8
DIM
 62
     0
370
    -2
100
AcDbLine
 10
4.0
 20
195.1497860279634
 30
0.0
 11
112.1779939209723
 21
195.1497860279634
 31
0.0
  0
INSERT
  5
173AB
330
173A6
100
AcDbEntity
  8
DIM
 62
     0
370
    -2
100
AcDbBlockReference
  2
_DOT
 10
1.0
 20
195.1497860279634
 30
0.0
 41
3.0
 42
3.0
 43
3.0
 50
180.0
  0
INSERT
  5
173AC
330
173A6
100
AcDbEntity
  8
DIM
 62
     0
370
    -2
100
AcDbBlockReference
  2
_DOT
 10
115.1779939209723
 20
195.1497860279634
 30
0.0
 41
3.0
 42
3.0
 43
3.0
  0
MTEXT
  5
173AD
330
173A6
100
AcDbEntity
  8
DIM
 62
     0
100
AcDbMText
 10
58.08899696048616
 20
205.1497860279634
 30
0.0
 40
8.0
 41
0.0
 46
0.0
 71
     5
 72
     1
  1
\A1;114
  7
ＭＳ ゴシック
 73
     1
 44
1.0
  0
POINT
  5
173AE
330
173A6
100
AcDbEntity
  8
Defpoints
 62
     0
100
AcDbPoint
 10
1.0
 20
125.0035410091185
 30
0.0
  0
POINT
  5
173AF
330
173A6
100
AcDbEntity
  8
Defpoints
 62
     0
100
AcDbPoint
 10
115.1779939209723
 20
125.0035410091185
 30
0.0
  0
POINT
  5
173B0
330
173A6
100
AcDbEntity
  8
Defpoints
 62
     0
100
AcDbPoint
 10
115.1779939209723
 20
195.1497860279634
 30
0.0
  0
ENDBLK
  5
173B1
330
173A6
100
AcDbEntity
  8
0
100
AcDbBlockEnd
  0
BLOCK
  5
173B6
330
173B5
100
AcDbEntity
  8
0
100
AcDbBlockBegin
  2
*D5
 70
     1
 10
0.0
 20
0.0
 30
0.0
  3
*D5
  1

  0
LINE
  5
173B7
330
173B5
100
AcDbEntity
  8
DIM
 62
     0
370
    -2
100
AcDbLine
 10
20.20208557550177
 20
115.0035410091185
 30
0.0
 11
20.20208557550177
 21
38.30487537993926
 31
0.0
  0
LINE
  5
173B8
330
173B5
100
AcDbEntity
  8
DIM
 62
     0
370
    -2
100
AcDbLine
 10
95.97590834547054
 20
115.0035410091185
 30
0.0
 11
95.97590834547054
 21
38.30487537993926
 31
0.0
  0
LINE
  5
173B9
330
173B5
100
AcDbEntity
  8
DIM
 62
     0
370
    -2
100
AcDbLine
 10
23.20208557550177
 20
38.30487537993926
 30
0.0
 11
92.97590834547054
 21
38.30487537993926
 31
0.0
  0
INSERT
  5
173BA
330
173B5
100
AcDbEntity
  8
DIM
 62
     0
370
    -2
100
AcDbBlockReference
  2
_DOT
 10
20.20208557550177
 20
38.30487537993926
 30
0.0
 41
3.0
 42
3.0
 43
3.0
 50
180.0
  0
INSERT
  5
173BB
330
173B5
100
AcDbEntity
  8
DIM
 62
     0
370
    -2
100
AcDbBlockReference
  2
_DOT
 10
95.97590834547054
 20
38.30487537993926
 30
0.0
 41
3.0
 42
3.0
 43
3.0
  0
MTEXT
  5
173BC
330
173B5
100
AcDbEntity
  8
DIM
 62
     0
100
AcDbMText
 10
58.08899696048616
 20
48.30487537993926
 30
0.0
 40
8.0
 41
0.0
 46
0.0
 71
     5
 72
     1
  1
\A1;76
  7
ＭＳ ゴシック
 73
     1
 44
1.0
  0
POINT
  5
173BD
330
173B5
100
AcDbEntity
  8
Defpoints
 62
     0
100
AcDbPoint
 10
20.20208557550177
 20
125.0035410091185
 30
0.0
  0
POINT
  5
173BE
330
173B5
100
AcDbEntity
  8
Defpoints
 62
     0
100
AcDbPoint
 10
95.97590834547054
 20
125.0035410091185
 30
0.0
  0
POINT
  5
173BF
330
173B5
100
AcDbEntity
  8
Defpoints
 62
     0
100
AcDbPoint
 10
95.97590834547054
 20
38.30487537993926
 30
0.0
  0
ENDBLK
  5
173C0
330
173B5
100
AcDbEntity
  8
0
100
AcDbBlockEnd
  0
BLOCK
  5
173D3
330
173D2
100
AcDbEntity
  8
0
100
AcDbBlockBegin
  2
*D6
 70
     1
 10
0.0
 20
0.0
 30
0.0
  3
*D6
  1

  0
LINE
  5
173D5
330
173D2
100
AcDbEntity
  8
DIM
 62
     0
370
    -2
100
AcDbLine
 10
228.7947264437692
 20
485.5501747355622
 30
0.0
 11
228.7947264437692
 21
580.7695422638294
 31
0.0
  0
LINE
  5
173D6
330
173D2
100
AcDbEntity
  8
DIM
 62
     0
370
    -2
100
AcDbLine
 10
400.0617173252274
 20
485.5501747355622
 30
0.0
 11
400.0617173252274
 21
580.7695422638294
 31
0.0
  0
LINE
  5
173D7
330
173D2
100
AcDbEntity
  8
DIM
 62
     0
370
    -2
100
AcDbLine
 10
231.7947264437692
 20
580.7695422638294
 30
0.0
 11
397.0617173252274
 21
580.7695422638294
 31
0.0
  0
INSERT
  5
173D8
330
173D2
100
AcDbEntity
  8
DIM
 62
     0
370
    -2
100
AcDbBlockReference
  2
_DOT
 10
228.7947264437692
 20
580.7695422638294
 30
0.0
 41
3.0
 42
3.0
 43
3.0
 50
180.0
  0
INSERT
  5
173D9
330
173D2
100
AcDbEntity
  8
DIM
 62
     0
370
    -2
100
AcDbBlockReference
  2
_DOT
 10
400.0617173252274
 20
580.7695422638294
 30
0.0
 41
3.0
 42
3.0
 43
3.0
  0
MTEXT
  5
173DA
330
173D2
100
AcDbEntity
  8
DIM
 62
     0
100
AcDbMText
 10
314.4282218844983
 20
590.7695422638294
 30
0.0
 40
8.0
 41
0.0
 46
0.0
 71
     5
 72
     1
  1
\A1;171
  7
ＭＳ ゴシック
 73
     1
 44
1.0
  0
POINT
  5
173DB
330
173D2
100
AcDbEntity
  8
Defpoints
 62
     0
100
AcDbPoint
 10
228.7947264437692
 20
475.5501747355622
 30
0.0
  0
POINT
  5
173DC
330
173D2
100
AcDbEntity
  8
Defpoints
 62
     0
100
AcDbPoint
 10
400.0617173252274
 20
475.5501747355622
 30
0.0
  0
POINT
  5
173DD
330
173D2
100
AcDbEntity
  8
Defpoints
 62
     0
100
AcDbPoint
 10
400.0617173252274
 20
580.7695422638294
 30
0.0
  0
ENDBLK
  5
173D4
330
173D2
100
AcDbEntity
  8
0
100
AcDbBlockEnd
  0
BLOCK
  5
173DF
330
173DE
100
AcDbEntity
  8
0
100
AcDbBlockBegin
  2
*D7
 70
     1
 10
0.0
 20
0.0
 30
0.0
  3
*D7
  1

  0
LINE
  5
173E1
330
173DE
100
AcDbEntity
  8
DIM
 62
     0
370
    -2
100
AcDbLine
 10
257.5978548070218
 20
465.5501747355622
 30
0.0
 11
257.5978548070218
 21
345.5021762917933
 31
0.0
  0
LINE
  5
173E2
330
173DE
100
AcDbEntity
  8
DIM
 62
     0
370
    -2
100
AcDbLine
 10
371.2585889619747
 20
465.5501747355622
 30
0.0
 11
371.2585889619747
 21
345.5021762917933
 31
0.0
  0
LINE
  5
173E3
330
173DE
100
AcDbEntity
  8
DIM
 62
     0
370
    -2
100
AcDbLine
 10
260.5978548070218
 20
345.5021762917933
 30
0.0
 11
368.2585889619747
 21
345.5021762917933
 31
0.0
  0
INSERT
  5
173E4
330
173DE
100
AcDbEntity
  8
DIM
 62
     0
370
    -2
100
AcDbBlockReference
  2
_DOT
 10
257.5978548070218
 20
345.5021762917933
 30
0.0
 41
3.0
 42
3.0
 43
3.0
 50
180.0
  0
INSERT
  5
173E5
330
173DE
100
AcDbEntity
  8
DIM
 62
     0
370
    -2
100
AcDbBlockReference
  2
_DOT
 10
371.2585889619747
 20
345.5021762917933
 30
0.0
 41
3.0
 42
3.0
 43
3.0
  0
MTEXT
  5
173E6
330
173DE
100
AcDbEntity
  8
DIM
 62
     0
100
AcDbMText
 10
314.4282218844983
 20
355.5021762917933
 30
0.0
 40
8.0
 41
0.0
 46
0.0
 71
     5
 72
     1
  1
\A1;114
  7
ＭＳ ゴシック
 73
     1
 44
1.0
  0
POINT
  5
173E7
330
173DE
100
AcDbEntity
  8
Defpoints
 62
     0
100
AcDbPoint
 10
257.5978548070218
 20
475.5501747355622
 30
0.0
  0
POINT
  5
173E8
330
173DE
100
AcDbEntity
  8
Defpoints
 62
     0
100
AcDbPoint
 10
371.2585889619747
 20
475.5501747355622
 30
0.0
  0
POINT
  5
173E9
330
173DE
100
AcDbEntity
  8
Defpoints
 62
     0
100
AcDbPoint
 10
371.2585889619747
 20
345.5021762917933
 30
0.0
  0
ENDBLK
  5
173E0
330
173DE
100
AcDbEntity
  8
0
100
AcDbBlockEnd
  0
BLOCK
  5
1768D
330
1768C
100
AcDbEntity
  8
0
100
AcDbBlockBegin
  2
*D8
 70
     1
 10
0.0
 20
0.0
 30
0.0
  3
*D8
  1

  0
LINE
  5
1768F
330
1768C
100
AcDbEntity
  8
DIM
 62
     0
370
    -2
100
AcDbLine
 10
821.0874286310432
 20
503.4845418534635
 30
0.0
 11
756.0595053316497
 21
503.4845418534635
 31
0.0
  0
LINE
  5
17690
330
1768C
100
AcDbEntity
  8
DIM
 62
     0
370
    -2
100
AcDbLine
 10
821.11437605224
 20
403.4845418465607
 30
0.0
 11
756.0595053316497
 21
403.4845418465607
 31
0.0
  0
LINE
  5
17691
330
1768C
100
AcDbEntity
  8
DIM
 62
     0
370
    -2
100
AcDbLine
 10
756.0595053316497
 20
500.4845418534635
 30
0.0
 11
756.0595053316497
 21
406.4845418465607
 31
0.0
  0
INSERT
  5
17692
330
1768C
100
AcDbEntity
  8
DIM
 62
     0
370
    -2
100
AcDbBlockReference
  2
_DOT
 10
756.0595053316497
 20
503.4845418534635
 30
0.0
 41
3.0
 42
3.0
 43
3.0
 50
90.0
  0
INSERT
  5
17693
330
1768C
100
AcDbEntity
  8
DIM
 62
     0
370
    -2
100
AcDbBlockReference
  2
_DOT
 10
756.0595053316497
 20
403.4845418465607
 30
0.0
 41
3.0
 42
3.0
 43
3.0
 50
270.0
  0
MTEXT
  5
17694
330
1768C
100
AcDbEntity
  8
DIM
 62
     0
100
AcDbMText
 10
746.0595053316497
 20
453.4845418500121
 30
0.0
 40
8.0
 41
0.0
 46
0.0
 71
     5
 72
     1
  1
\A1;100.00000001
  7
ＭＳ ゴシック
 11
0.0
 21
1.0
 31
0.0
 73
     1
 44
1.0
  0
POINT
  5
17695
330
1768C
100
AcDbEntity
  8
Defpoints
 62
     0
100
AcDbPoint
 10
831.0874286310432
 20
503.4845418534635
 30
0.0
  0
POINT
  5
17696
330
1768C
100
AcDbEntity
  8
Defpoints
 62
     0
100
AcDbPoint
 10
831.11437605224
 20
403.4845418465607
 30
0.0
  0
POINT
  5
17697
330
1768C
100
AcDbEntity
  8
Defpoints
 62
     0
100
AcDbPoint
 10
756.0595053316497
 20
403.4845418465607
 30
0.0
  0
ENDBLK
  5
1768E
330
1768C
100
AcDbEntity
  8
0
100
AcDbBlockEnd
  0
BLOCK
  5
1769D
330
1769C
100
AcDbEntity
  8
0
100
AcDbBlockBegin
  2
*D9
 70
     1
 10
0.0
 20
0.0
 30
0.0
  3
*D9
  1

  0
LINE
  5
1769F
330
1769C
100
AcDbEntity
  8
DIM
 62
     0
370
    -2
100
AcDbLine
 10
906.569662138792
 20
375.577667119499
 30
0.0
 11
906.569662138792
 21
337.5203108115059
 31
0.0
  0
LINE
  5
176A0
330
1769C
100
AcDbEntity
  8
DIM
 62
     0
370
    -2
100
AcDbLine
 10
851.4158111604906
 20
367.8575442888601
 30
0.0
 11
851.4158111604906
 21
337.5203108115059
 31
0.0
  0
LINE
  5
176A1
330
1769C
100
AcDbEntity
  8
DIM
 62
     0
370
    -2
100
AcDbLine
 10
903.569662138792
 20
337.5203108115059
 30
0.0
 11
854.4158111604906
 21
337.5203108115059
 31
0.0
  0
INSERT
  5
176A2
330
1769C
100
AcDbEntity
  8
DIM
 62
     0
370
    -2
100
AcDbBlockReference
  2
_DOT
 10
906.569662138792
 20
337.5203108115059
 30
0.0
 41
3.0
 42
3.0
 43
3.0
  0
INSERT
  5
176A3
330
1769C
100
AcDbEntity
  8
DIM
 62
     0
370
    -2
100
AcDbBlockReference
  2
_DOT
 10
851.4158111604906
 20
337.5203108115059
 30
0.0
 41
3.0
 42
3.0
 43
3.0
 50
180.0
  0
MTEXT
  5
176A4
330
1769C
100
AcDbEntity
  8
DIM
 62
     0
100
AcDbMText
 10
878.9927366496413
 20
347.5203108115059
 30
0.0
 40
8.0
 41
0.0
 46
0.0
 71
     5
 72
     1
  1
\A1;55
  7
ＭＳ ゴシック
 73
     1
 44
1.0
  0
POINT
  5
176A5
330
1769C
100
AcDbEntity
  8
Defpoints
 62
     0
100
AcDbPoint
 10
906.569662138792
 20
385.577667119499
 30
0.0
  0
POINT
  5
176A6
330
1769C
100
AcDbEntity
  8
Defpoints
 62
     0
100
AcDbPoint
 10
851.4158111604906
 20
377.8575442888601
 30
0.0
  0
POINT
  5
176A7
330
1769C
100
AcDbEntity
  8
Defpoints
 62
     0
100
AcDbPoint
 10
851.4158111604906
 20
337.5203108115059
 30
0.0
  0
ENDBLK
  5
1769E
330
1769C
100
AcDbEntity
  8
0
100
AcDbBlockEnd
  0
BLOCK
  5
176AC
330
176AB
100
AcDbEntity
  8
0
100
AcDbBlockBegin
  2
*D10
 70
     1
 10
0.0
 20
0.0
 30
0.0
  3
*D10
  1

  0
LINE
  5
176AE
330
176AB
100
AcDbEntity
  8
DIM
 62
     0
370
    -2
100
AcDbLine
 10
1100.138160546027
 20
407.5090010190542
 30
0.0
 11
1100.138160546027
 21
405.7882594448469
 31
0.0
  0
LINE
  5
176AF
330
176AB
100
AcDbEntity
  8
DIM
 62
     0
370
    -2
100
AcDbLine
 10
1068.138160540357
 20
407.5090010190542
 30
0.0
 11
1068.138160540357
 21
405.7882594448469
 31
0.0
  0
LINE
  5
176B0
330
176AB
100
AcDbEntity
  8
DIM
 62
     0
370
    -2
100
AcDbLine
 10
1103.138160546027
 20
405.7882594448469
 30
0.0
 11
1106.138160546027
 21
405.7882594448469
 31
0.0
  0
LINE
  5
176B1
330
176AB
100
AcDbEntity
  8
DIM
 62
     0
370
    -2
100
AcDbLine
 10
1065.138160540357
 20
405.7882594448469
 30
0.0
 11
1062.138160540357
 21
405.7882594448469
 31
0.0
  0
INSERT
  5
176B2
330
176AB
100
AcDbEntity
  8
DIM
 62
     0
370
    -2
100
AcDbBlockReference
  2
_DOT
 10
1100.138160546027
 20
405.7882594448469
 30
0.0
 41
3.0
 42
3.0
 43
3.0
 50
180.0
  0
INSERT
  5
176B3
330
176AB
100
AcDbEntity
  8
DIM
 62
     0
370
    -2
100
AcDbBlockReference
  2
_DOT
 10
1068.138160540357
 20
405.7882594448469
 30
0.0
 41
3.0
 42
3.0
 43
3.0
  0
MTEXT
  5
176B4
330
176AB
100
AcDbEntity
  8
DIM
 62
     0
100
AcDbMText
 10
1084.138160543192
 20
415.7882594448469
 30
0.0
 40
8.0
 41
0.0
 46
0.0
 71
     5
 72
     1
  1
\A1;32.00000001
  7
ＭＳ ゴシック
 73
     1
 44
1.0
  0
POINT
  5
176B5
330
176AB
100
AcDbEntity
  8
Defpoints
 62
     0
100
AcDbPoint
 10
1100.138160546027
 20
397.5090010190542
 30
0.0
  0
POINT
  5
176B6
330
176AB
100
AcDbEntity
  8
Defpoints
 62
     0
100
AcDbPoint
 10
1068.138160540357
 20
397.5090010190542
 30
0.0
  0
POINT
  5
176B7
330
176AB
100
AcDbEntity
  8
Defpoints
 62
     0
100
AcDbPoint
 10
1068.138160540357
 20
405.7882594448469
 30
0.0
  0
ENDBLK
  5
176AD
330
176AB
100
AcDbEntity
  8
0
100
AcDbBlockEnd
  0
BLOCK
  5
176BC
330
176BB
100
AcDbEntity
  8
0
100
AcDbBlockBegin
  2
*D11
 70
     1
 10
0.0
 20
0.0
 30
0.0
  3
*D11
  1

  0
LINE
  5
176BE
330
176BB
100
AcDbEntity
  8
DIM
 62
     0
370
    -2
100
AcDbLine
 10
1201.833333901024
 20
699.7429600146289
 30
0.0
 11
1201.833333901024
 21
762.8639816784914
 31
0.0
  0
LINE
  5
176BF
330
176BB
100
AcDbEntity
  8
DIM
 62
     0
370
    -2
100
AcDbLine
 10
904.3296319137485
 20
699.7429600146289
 30
0.0
 11
904.3296319137485
 21
762.8639816784914
 31
0.0
  0
LINE
  5
176C0
330
176BB
100
AcDbEntity
  8
DIM
 62
     0
370
    -2
100
AcDbLine
 10
1198.833333901024
 20
762.8639816784914
 30
0.0
 11
907.3296319137485
 21
762.8639816784914
 31
0.0
  0
INSERT
  5
176C1
330
176BB
100
AcDbEntity
  8
DIM
 62
     0
370
    -2
100
AcDbBlockReference
  2
_DOT
 10
1201.833333901024
 20
762.8639816784914
 30
0.0
 41
3.0
 42
3.0
 43
3.0
  0
INSERT
  5
176C2
330
176BB
100
AcDbEntity
  8
DIM
 62
     0
370
    -2
100
AcDbBlockReference
  2
_DOT
 10
904.3296319137485
 20
762.8639816784914
 30
0.0
 41
3.0
 42
3.0
 43
3.0
 50
180.0
  0
MTEXT
  5
176C3
330
176BB
100
AcDbEntity
  8
DIM
 62
     0
100
AcDbMText
 10
1053.081482907386
 20
772.8639816784914
 30
0.0
 40
8.0
 41
0.0
 46
0.0
 71
     5
 72
     1
  1
\A1;298
  7
ＭＳ ゴシック
 73
     1
 44
1.0
  0
POINT
  5
176C4
330
176BB
100
AcDbEntity
  8
Defpoints
 62
     0
100
AcDbPoint
 10
1201.833333901024
 20
689.7429600146289
 30
0.0
  0
POINT
  5
176C5
330
176BB
100
AcDbEntity
  8
Defpoints
 62
     0
100
AcDbPoint
 10
904.3296319137485
 20
689.7429600146289
 30
0.0
  0
POINT
  5
176C6
330
176BB
100
AcDbEntity
  8
Defpoints
 62
     0
100
AcDbPoint
 10
904.3296319137485
 20
762.8639816784914
 30
0.0
  0
ENDBLK
  5
176BD
330
176BB
100
AcDbEntity
  8
0
100
AcDbBlockEnd
  0
BLOCK
  5
176CB
330
176CA
100
AcDbEntity
  8
0
100
AcDbBlockBegin
  2
*D12
 70
     1
 10
0.0
 20
0.0
 30
0.0
  3
*D12
  1

  0
LINE
  5
176CD
330
176CA
100
AcDbEntity
  8
DIM
 62
     0
370
    -2
100
AcDbLine
 10
863.6261210395667
 20
651.7108606509709
 30
0.0
 11
863.6261210395667
 21
671.7278435629898
 31
0.0
  0
LINE
  5
176CE
330
176CA
100
AcDbEntity
  8
DIM
 62
     0
370
    -2
100
AcDbLine
 10
941.9500761525617
 20
656.2698340797072
 30
0.0
 11
941.9500761525617
 21
671.7278435629898
 31
0.0
  0
LINE
  5
176CF
330
176CA
100
AcDbEntity
  8
DIM
 62
     0
370
    -2
100
AcDbLine
 10
866.6261210395667
 20
671.7278435629898
 30
0.0
 11
938.9500761525617
 21
671.7278435629898
 31
0.0
  0
INSERT
  5
176D0
330
176CA
100
AcDbEntity
  8
DIM
 62
     0
370
    -2
100
AcDbBlockReference
  2
_DOT
 10
863.6261210395667
 20
671.7278435629898
 30
0.0
 41
3.0
 42
3.0
 43
3.0
 50
180.0
  0
INSERT
  5
176D1
330
176CA
100
AcDbEntity
  8
DIM
 62
     0
370
    -2
100
AcDbBlockReference
  2
_DOT
 10
941.9500761525617
 20
671.7278435629898
 30
0.0
 41
3.0
 42
3.0
 43
3.0
  0
MTEXT
  5
176D2
330
176CA
100
AcDbEntity
  8
DIM
 62
     0
100
AcDbMText
 10
902.7880985960642
 20
681.7278435629898
 30
0.0
 40
8.0
 41
0.0
 46
0.0
 71
     5
 72
     1
  1
\A1;78
  7
ＭＳ ゴシック
 73
     1
 44
1.0
  0
POINT
  5
176D3
330
176CA
100
AcDbEntity
  8
Defpoints
 62
     0
100
AcDbPoint
 10
863.6261210395667
 20
641.7108606509709
 30
0.0
  0
POINT
  5
176D4
330
176CA
100
AcDbEntity
  8
Defpoints
 62
     0
100
AcDbPoint
 10
941.9500761525617
 20
646.2698340797072
 30
0.0
  0
POINT
  5
176D5
330
176CA
100
AcDbEntity
  8
Defpoints
 62
     0
100
AcDbPoint
 10
941.9500761525617
 20
671.7278435629898
 30
0.0
  0
ENDBLK
  5
176CC
330
176CA
100
AcDbEntity
  8
0
100
AcDbBlockEnd
  0
BLOCK
  5
176F9
330
176F8
100
AcDbEntity
  8
0
100
AcDbBlockBegin
  2
*D13
 70
     1
 10
0.0
 20
0.0
 30
0.0
  3
*D13
  1

  0
LINE
  5
176FB
330
176F8
100
AcDbEntity
  8
DIM
 62
     0
370
    -2
100
AcDbLine
 10
142.3609554989696
 20
608.924149183778
 30
0.0
 11
142.3609554989696
 21
652.6118606965231
 31
0.0
  0
LINE
  5
176FC
330
176F8
100
AcDbEntity
  8
DIM
 62
     0
370
    -2
100
AcDbLine
 10
205.8609554989696
 20
608.924149183778
 30
0.0
 11
205.8609554989696
 21
652.6118606965231
 31
0.0
  0
LINE
  5
176FD
330
176F8
100
AcDbEntity
  8
DIM
 62
     0
370
    -2
100
AcDbLine
 10
145.3609554989696
 20
652.6118606965231
 30
0.0
 11
202.8609554989696
 21
652.6118606965231
 31
0.0
  0
INSERT
  5
176FE
330
176F8
100
AcDbEntity
  8
DIM
 62
     0
370
    -2
100
AcDbBlockReference
  2
_DOT
 10
142.3609554989696
 20
652.6118606965231
 30
0.0
 41
3.0
 42
3.0
 43
3.0
 50
180.0
  0
INSERT
  5
176FF
330
176F8
100
AcDbEntity
  8
DIM
 62
     0
370
    -2
100
AcDbBlockReference
  2
_DOT
 10
205.8609554989696
 20
652.6118606965231
 30
0.0
 41
3.0
 42
3.0
 43
3.0
  0
MTEXT
  5
17700
330
176F8
100
AcDbEntity
  8
DIM
 62
     0
100
AcDbMText
 10
174.1109554989696
 20
662.6118606965231
 30
0.0
 40
8.0
 41
0.0
 46
0.0
 71
     5
 72
     1
  1
\A1;%%c63.5
  7
ＭＳ ゴシック
 73
     1
 44
1.0
  0
POINT
  5
17701
330
176F8
100
AcDbEntity
  8
Defpoints
 62
     0
100
AcDbPoint
 10
142.3609554989696
 20
598.924149183778
 30
0.0
  0
POINT
  5
17702
330
176F8
100
AcDbEntity
  8
Defpoints
 62
     0
100
AcDbPoint
 10
205.8609554989696
 20
598.924149183778
 30
0.0
  0
POINT
  5
17703
330
176F8
100
AcDbEntity
  8
Defpoints
 62
     0
100
AcDbPoint
 10
205.8609554989696
 20
652.6118606965231
 30
0.0
  0
ENDBLK
  5
176FA
330
176F8
100
AcDbEntity
  8
0
100
AcDbBlockEnd
  0
BLOCK
  5
17708
330
17707
100
AcDbEntity
  8
0
100
AcDbBlockBegin
  2
*D14
 70
     1
 10
0.0
 20
0.0
 30
0.0
  3
*D14
  1

  0
LINE
  5
1770A
330
17707
100
AcDbEntity
  8
DIM
 62
     0
370
    -2
100
AcDbLine
 10
1558.076001091141
 20
629.3372125319077
 30
0.0
 11
1558.076001091141
 21
672.7794201471199
 31
0.0
  0
LINE
  5
1770B
330
17707
100
AcDbEntity
  8
DIM
 62
     0
370
    -2
100
AcDbLine
 10
1621.576001092207
 20
629.3372125319077
 30
0.0
 11
1621.576001092207
 21
672.7794201471199
 31
0.0
  0
LINE
  5
1770C
330
17707
100
AcDbEntity
  8
DIM
 62
     0
370
    -2
100
AcDbLine
 10
1561.076001091141
 20
672.7794201471199
 30
0.0
 11
1618.576001092207
 21
672.7794201471199
 31
0.0
  0
INSERT
  5
1770D
330
17707
100
AcDbEntity
  8
DIM
 62
     0
370
    -2
100
AcDbBlockReference
  2
_DOT
 10
1558.076001091141
 20
672.7794201471199
 30
0.0
 41
3.0
 42
3.0
 43
3.0
 50
180.0
  0
INSERT
  5
1770E
330
17707
100
AcDbEntity
  8
DIM
 62
     0
370
    -2
100
AcDbBlockReference
  2
_DOT
 10
1621.576001092207
 20
672.7794201471199
 30
0.0
 41
3.0
 42
3.0
 43
3.0
  0
MTEXT
  5
1770F
330
17707
100
AcDbEntity
  8
DIM
 62
     0
100
AcDbMText
 10
1589.826001091674
 20
682.7794201471199
 30
0.0
 40
8.0
 41
0.0
 46
0.0
 71
     5
 72
     1
  1
\A1;63.5
  7
ＭＳ ゴシック
 73
     1
 44
1.0
  0
POINT
  5
17710
330
17707
100
AcDbEntity
  8
Defpoints
 62
     0
100
AcDbPoint
 10
1558.076001091141
 20
619.3372125319077
 30
0.0
  0
POINT
  5
17711
330
17707
100
AcDbEntity
  8
Defpoints
 62
     0
100
AcDbPoint
 10
1621.576001092207
 20
619.3372125319077
 30
0.0
  0
POINT
  5
17712
330
17707
100
AcDbEntity
  8
Defpoints
 62
     0
100
AcDbPoint
 10
1621.576001092207
 20
672.7794201471199
 30
0.0
  0
ENDBLK
  5
17709
330
17707
100
AcDbEntity
  8
0
100
AcDbBlockEnd
  0
BLOCK
  5
1771B
330
1771A
100
AcDbEntity
  8
0
100
AcDbBlockBegin
  2
*D15
 70
     1
 10
0.0
 20
0.0
 30
0.0
  3
*D15
  1

  0
LINE
  5
1771D
330
1771A
100
AcDbEntity
  8
DIM
 62
     0
370
    -2
100
AcDbLine
 10
1589.826001091674
 20
413.3276745779281
 30
0.0
 11
1589.826001091674
 21
320.1625879374312
 31
0.0
  0
LINE
  5
1771E
330
1771A
100
AcDbEntity
  8
DIM
 62
     0
370
    -2
100
AcDbLine
 10
1909.826001091674
 20
413.3276745779281
 30
0.0
 11
1909.826001091674
 21
320.1625879374312
 31
0.0
  0
LINE
  5
1771F
330
1771A
100
AcDbEntity
  8
DIM
 62
     0
370
    -2
100
AcDbLine
 10
1592.826001091674
 20
320.1625879374312
 30
0.0
 11
1906.826001091674
 21
320.1625879374312
 31
0.0
  0
INSERT
  5
17720
330
1771A
100
AcDbEntity
  8
DIM
 62
     0
370
    -2
100
AcDbBlockReference
  2
_DOT
 10
1589.826001091674
 20
320.1625879374312
 30
0.0
 41
3.0
 42
3.0
 43
3.0
 50
180.0
  0
INSERT
  5
17721
330
1771A
100
AcDbEntity
  8
DIM
 62
     0
370
    -2
100
AcDbBlockReference
  2
_DOT
 10
1909.826001091674
 20
320.1625879374312
 30
0.0
 41
3.0
 42
3.0
 43
3.0
  0
MTEXT
  5
17722
330
1771A
100
AcDbEntity
  8
DIM
 62
     0
100
AcDbMText
 10
1749.826001091674
 20
330.1625879374312
 30
0.0
 40
8.0
 41
0.0
 46
0.0
 71
     5
 72
     1
  1
\A1;320
  7
ＭＳ ゴシック
 73
     1
 44
1.0
  0
POINT
  5
17723
330
1771A
100
AcDbEntity
  8
Defpoints
 62
     0
100
AcDbPoint
 10
1589.826001091674
 20
423.3276745779281
 30
0.0
  0
POINT
  5
17724
330
1771A
100
AcDbEntity
  8
Defpoints
 62
     0
100
AcDbPoint
 10
1909.826001091674
 20
423.3276745779281
 30
0.0
  0
POINT
  5
17725
330
1771A
100
AcDbEntity
  8
Defpoints
 62
     0
100
AcDbPoint
 10
1909.826001091674
 20
320.1625879374312
 30
0.0
  0
ENDBLK
  5
1771C
330
1771A
100
AcDbEntity
  8
0
100
AcDbBlockEnd
  0
BLOCK
  5
17728
330
17727
100
AcDbEntity
  8
0
100
AcDbBlockBegin
  2
*D16
 70
     1
 10
0.0
 20
0.0
 30
0.0
  3
*D16
  1

  0
LINE
  5
1772A
330
17727
100
AcDbEntity
  8
DIM
 62
     0
370
    -2
100
AcDbLine
 10
1589.826001091674
 20
413.3276745779281
 30
0.0
 11
1589.826001091674
 21
318.8366499435102
 31
0.0
  0
LINE
  5
1772B
330
17727
100
AcDbEntity
  8
DIM
 62
     0
370
    -2
100
AcDbLine
 10
1779.826001091674
 20
413.3276745779283
 30
0.0
 11
1779.826001091674
 21
318.8366499435102
 31
0.0
  0
LINE
  5
1772C
330
17727
100
AcDbEntity
  8
DIM
 62
     0
370
    -2
100
AcDbLine
 10
1592.826001091674
 20
318.8366499435102
 30
0.0
 11
1776.826001091674
 21
318.8366499435102
 31
0.0
  0
INSERT
  5
1772D
330
17727
100
AcDbEntity
  8
DIM
 62
     0
370
    -2
100
AcDbBlockReference
  2
_DOT
 10
1589.826001091674
 20
318.8366499435102
 30
0.0
 41
3.0
 42
3.0
 43
3.0
 50
180.0
  0
INSERT
  5
1772E
330
17727
100
AcDbEntity
  8
DIM
 62
     0
370
    -2
100
AcDbBlockReference
  2
_DOT
 10
1779.826001091674
 20
318.8366499435102
 30
0.0
 41
3.0
 42
3.0
 43
3.0
  0
MTEXT
  5
1772F
330
17727
100
AcDbEntity
  8
DIM
 62
     0
100
AcDbMText
 10
1684.826001091674
 20
328.8366499435102
 30
0.0
 40
8.0
 41
0.0
 46
0.0
 71
     5
 72
     1
  1
\A1;190
  7
ＭＳ ゴシック
 73
     1
 44
1.0
  0
POINT
  5
17730
330
17727
100
AcDbEntity
  8
Defpoints
 62
     0
100
AcDbPoint
 10
1589.826001091674
 20
423.3276745779281
 30
0.0
  0
POINT
  5
17731
330
17727
100
AcDbEntity
  8
Defpoints
 62
     0
100
AcDbPoint
 10
1779.826001091674
 20
423.3276745779283
 30
0.0
  0
POINT
  5
17732
330
17727
100
AcDbEntity
  8
Defpoints
 62
     0
100
AcDbPoint
 10
1779.826001091674
 20
318.8366499435102
 30
0.0
  0
ENDBLK
  5
17729
330
17727
100
AcDbEntity
  8
0
100
AcDbBlockEnd
  0
BLOCK
  5
1773E
330
1773D
100
AcDbEntity
  8
0
100
AcDbBlockBegin
  2
*D17
 70
     1
 10
0.0
 20
0.0
 30
0.0
  3
*D17
  1

  0
LINE
  5
17740
330
1773D
100
AcDbEntity
  8
DIM
 62
     0
370
    -2
100
AcDbLine
 10
1716.628579847485
 20
491.8408821195185
 30
0.0
 11
1685.677979358731
 21
491.8408821195185
 31
0.0
  0
LINE
  5
17741
330
1773D
100
AcDbEntity
  8
DIM
 62
     0
370
    -2
100
AcDbLine
 10
1716.628579847486
 20
241.8408821195185
 30
0.0
 11
1685.677979358731
 21
241.8408821195185
 31
0.0
  0
LINE
  5
17742
330
1773D
100
AcDbEntity
  8
DIM
 62
     0
370
    -2
100
AcDbLine
 10
1685.677979358731
 20
488.8408821195185
 30
0.0
 11
1685.677979358731
 21
244.8408821195185
 31
0.0
  0
INSERT
  5
17743
330
1773D
100
AcDbEntity
  8
DIM
 62
     0
370
    -2
100
AcDbBlockReference
  2
_DOT
 10
1685.677979358731
 20
491.8408821195185
 30
0.0
 41
3.0
 42
3.0
 43
3.0
 50
90.0
  0
INSERT
  5
17744
330
1773D
100
AcDbEntity
  8
DIM
 62
     0
370
    -2
100
AcDbBlockReference
  2
_DOT
 10
1685.677979358731
 20
241.8408821195185
 30
0.0
 41
3.0
 42
3.0
 43
3.0
 50
270.0
  0
MTEXT
  5
17745
330
1773D
100
AcDbEntity
  8
DIM
 62
     0
100
AcDbMText
 10
1675.677979358731
 20
366.8408821195185
 30
0.0
 40
8.0
 41
0.0
 46
0.0
 71
     5
 72
     1
  1
\A1;250
  7
ＭＳ ゴシック
 11
0.0
 21
1.0
 31
0.0
 73
     1
 44
1.0
  0
POINT
  5
17746
330
1773D
100
AcDbEntity
  8
Defpoints
 62
     0
100
AcDbPoint
 10
1726.628579847485
 20
491.8408821195185
 30
0.0
  0
POINT
  5
17747
330
1773D
100
AcDbEntity
  8
Defpoints
 62
     0
100
AcDbPoint
 10
1726.628579847486
 20
241.8408821195185
 30
0.0
  0
POINT
  5
17748
330
1773D
100
AcDbEntity
  8
Defpoints
 62
     0
100
AcDbPoint
 10
1685.677979358731
 20
241.8408821195185
 30
0.0
  0
ENDBLK
  5
1773F
330
1773D
100
AcDbEntity
  8
0
100
AcDbBlockEnd
  0
BLOCK
  5
17757
330
17756
100
AcDbEntity
  8
0
100
AcDbBlockBegin
  2
*D18
 70
     1
 10
0.0
 20
0.0
 30
0.0
  3
*D18
  1

  0
LINE
  5
17759
330
17756
100
AcDbEntity
  8
DIM
 62
     0
370
    -2
100
AcDbLine
 10
1589.826001091674
 20
609.023466359316
 30
0.0
 11
1589.826001091674
 21
673.0247736528845
 31
0.0
  0
LINE
  5
1775A
330
17756
100
AcDbEntity
  8
DIM
 62
     0
370
    -2
100
AcDbLine
 10
1969.826001091674
 20
609.0234663593158
 30
0.0
 11
1969.826001091674
 21
673.0247736528845
 31
0.0
  0
LINE
  5
1775B
330
17756
100
AcDbEntity
  8
DIM
 62
     0
370
    -2
100
AcDbLine
 10
1592.826001091674
 20
673.0247736528845
 30
0.0
 11
1966.826001091674
 21
673.0247736528845
 31
0.0
  0
INSERT
  5
1775C
330
17756
100
AcDbEntity
  8
DIM
 62
     0
370
    -2
100
AcDbBlockReference
  2
_DOT
 10
1589.826001091674
 20
673.0247736528845
 30
0.0
 41
3.0
 42
3.0
 43
3.0
 50
180.0
  0
INSERT
  5
1775D
330
17756
100
AcDbEntity
  8
DIM
 62
     0
370
    -2
100
AcDbBlockReference
  2
_DOT
 10
1969.826001091674
 20
673.0247736528845
 30
0.0
 41
3.0
 42
3.0
 43
3.0
  0
MTEXT
  5
1775E
330
17756
100
AcDbEntity
  8
DIM
 62
     0
100
AcDbMText
 10
1779.826001091674
 20
683.0247736528845
 30
0.0
 40
8.0
 41
0.0
 46
0.0
 71
     5
 72
     1
  1
\A1;380
  7
ＭＳ ゴシック
 73
     1
 44
1.0
  0
POINT
  5
1775F
330
17756
100
AcDbEntity
  8
Defpoints
 62
     0
100
AcDbPoint
 10
1589.826001091674
 20
599.023466359316
 30
0.0
  0
POINT
  5
17760
330
17756
100
AcDbEntity
  8
Defpoints
 62
     0
100
AcDbPoint
 10
1969.826001091674
 20
599.0234663593158
 30
0.0
  0
POINT
  5
17761
330
17756
100
AcDbEntity
  8
Defpoints
 62
     0
100
AcDbPoint
 10
1969.826001091674
 20
673.0247736528845
 30
0.0
  0
ENDBLK
  5
17758
330
17756
100
AcDbEntity
  8
0
100
AcDbBlockEnd
  0
BLOCK
  5
17767
330
17766
100
AcDbEntity
  8
0
100
AcDbBlockBegin
  2
*D19
 70
     1
 10
0.0
 20
0.0
 30
0.0
  3
*D19
  1

  0
LINE
  5
17769
330
17766
100
AcDbEntity
  8
DIM
 62
     0
370
    -2
100
AcDbLine
 10
1589.826001091674
 20
403.3276745779281
 30
0.0
 11
1589.826001091674
 21
374.2467456893585
 31
0.0
  0
LINE
  5
1776A
330
17766
100
AcDbEntity
  8
DIM
 62
     0
370
    -2
100
AcDbLine
 10
1969.826001091674
 20
403.3276745779282
 30
0.0
 11
1969.826001091674
 21
374.2467456893585
 31
0.0
  0
LINE
  5
1776B
330
17766
100
AcDbEntity
  8
DIM
 62
     0
370
    -2
100
AcDbLine
 10
1592.826001091674
 20
374.2467456893585
 30
0.0
 11
1966.826001091674
 21
374.2467456893585
 31
0.0
  0
INSERT
  5
1776C
330
17766
100
AcDbEntity
  8
DIM
 62
     0
370
    -2
100
AcDbBlockReference
  2
_DOT
 10
1589.826001091674
 20
374.2467456893585
 30
0.0
 41
3.0
 42
3.0
 43
3.0
 50
180.0
  0
INSERT
  5
1776D
330
17766
100
AcDbEntity
  8
DIM
 62
     0
370
    -2
100
AcDbBlockReference
  2
_DOT
 10
1969.826001091674
 20
374.2467456893585
 30
0.0
 41
3.0
 42
3.0
 43
3.0
  0
MTEXT
  5
1776E
330
17766
100
AcDbEntity
  8
DIM
 62
     0
100
AcDbMText
 10
1779.826001091674
 20
384.2467456893585
 30
0.0
 40
8.0
 41
0.0
 46
0.0
 71
     5
 72
     1
  1
\A1;380
  7
ＭＳ ゴシック
 73
     1
 44
1.0
  0
POINT
  5
1776F
330
17766
100
AcDbEntity
  8
Defpoints
 62
     0
100
AcDbPoint
 10
1589.826001091674
 20
413.3276745779281
 30
0.0
  0
POINT
  5
17770
330
17766
100
AcDbEntity
  8
Defpoints
 62
     0
100
AcDbPoint
 10
1969.826001091674
 20
413.3276745779282
 30
0.0
  0
POINT
  5
17771
330
17766
100
AcDbEntity
  8
Defpoints
 62
     0
100
AcDbPoint
 10
1969.826001091674
 20
374.2467456893585
 30
0.0
  0
ENDBLK
  5
17768
330
17766
100
AcDbEntity
  8
0
100
AcDbBlockEnd
  0
BLOCK
  5
17776
330
17775
100
AcDbEntity
  8
0
100
AcDbBlockBegin
  2
*D20
 70
     1
 10
0.0
 20
0.0
 30
0.0
  3
*D20
  1

  0
LINE
  5
17778
330
17775
100
AcDbEntity
  8
DIM
 62
     0
370
    -2
100
AcDbLine
 10
1589.826001091674
 20
413.3276745779281
 30
0.0
 11
1589.826001091674
 21
232.0354760480212
 31
0.0
  0
LINE
  5
17779
330
17775
100
AcDbEntity
  8
DIM
 62
     0
370
    -2
100
AcDbLine
 10
1899.826001091674
 20
275.8408821195183
 30
0.0
 11
1899.826001091674
 21
232.0354760480212
 31
0.0
  0
LINE
  5
1777A
330
17775
100
AcDbEntity
  8
DIM
 62
     0
370
    -2
100
AcDbLine
 10
1592.826001091674
 20
232.0354760480212
 30
0.0
 11
1896.826001091674
 21
232.0354760480212
 31
0.0
  0
INSERT
  5
1777B
330
17775
100
AcDbEntity
  8
DIM
 62
     0
370
    -2
100
AcDbBlockReference
  2
_DOT
 10
1589.826001091674
 20
232.0354760480212
 30
0.0
 41
3.0
 42
3.0
 43
3.0
 50
180.0
  0
INSERT
  5
1777C
330
17775
100
AcDbEntity
  8
DIM
 62
     0
370
    -2
100
AcDbBlockReference
  2
_DOT
 10
1899.826001091674
 20
232.0354760480212
 30
0.0
 41
3.0
 42
3.0
 43
3.0
  0
MTEXT
  5
1777D
330
17775
100
AcDbEntity
  8
DIM
 62
     0
100
AcDbMText
 10
1744.826001091674
 20
242.0354760480212
 30
0.0
 40
8.0
 41
0.0
 46
0.0
 71
     5
 72
     1
  1
\A1;310
  7
ＭＳ ゴシック
 73
     1
 44
1.0
  0
POINT
  5
1777E
330
17775
100
AcDbEntity
  8
Defpoints
 62
     0
100
AcDbPoint
 10
1589.826001091674
 20
423.3276745779281
 30
0.0
  0
POINT
  5
1777F
330
17775
100
AcDbEntity
  8
Defpoints
 62
     0
100
AcDbPoint
 10
1899.826001091674
 20
285.8408821195183
 30
0.0
  0
POINT
  5
17780
330
17775
100
AcDbEntity
  8
Defpoints
 62
     0
100
AcDbPoint
 10
1899.826001091674
 20
232.0354760480212
 30
0.0
  0
ENDBLK
  5
17777
330
17775
100
AcDbEntity
  8
0
100
AcDbBlockEnd
  0
BLOCK
  5
17798
330
17797
100
AcDbEntity
  8
0
100
AcDbBlockBegin
  2
*D21
 70
     1
 10
0.0
 20
0.0
 30
0.0
  3
*D21
  1

  0
LINE
  5
1779A
330
17797
100
AcDbEntity
  8
DIM
 62
     0
370
    -2
100
AcDbLine
 10
1716.628579847485
 20
491.8408821195185
 30
0.0
 11
1693.564465883216
 21
491.8408821195185
 31
0.0
  0
LINE
  5
1779B
330
17797
100
AcDbEntity
  8
DIM
 62
     0
370
    -2
100
AcDbLine
 10
1918.715069137681
 20
301.8408821195186
 30
0.0
 11
1693.564465883216
 21
301.8408821195186
 31
0.0
  0
LINE
  5
1779C
330
17797
100
AcDbEntity
  8
DIM
 62
     0
370
    -2
100
AcDbLine
 10
1693.564465883216
 20
488.8408821195185
 30
0.0
 11
1693.564465883216
 21
304.8408821195186
 31
0.0
  0
INSERT
  5
1779D
330
17797
100
AcDbEntity
  8
DIM
 62
     0
370
    -2
100
AcDbBlockReference
  2
_DOT
 10
1693.564465883216
 20
491.8408821195185
 30
0.0
 41
3.0
 42
3.0
 43
3.0
 50
90.0
  0
INSERT
  5
1779E
330
17797
100
AcDbEntity
  8
DIM
 62
     0
370
    -2
100
AcDbBlockReference
  2
_DOT
 10
1693.564465883216
 20
301.8408821195186
 30
0.0
 41
3.0
 42
3.0
 43
3.0
 50
270.0
  0
MTEXT
  5
1779F
330
17797
100
AcDbEntity
  8
DIM
 62
     0
100
AcDbMText
 10
1683.564465883216
 20
396.8408821195185
 30
0.0
 40
8.0
 41
0.0
 46
0.0
 71
     5
 72
     1
  1
\A1;190
  7
ＭＳ ゴシック
 11
0.0
 21
1.0
 31
0.0
 73
     1
 44
1.0
  0
POINT
  5
177A0
330
17797
100
AcDbEntity
  8
Defpoints
 62
     0
100
AcDbPoint
 10
1726.628579847485
 20
491.8408821195185
 30
0.0
  0
POINT
  5
177A1
330
17797
100
AcDbEntity
  8
Defpoints
 62
     0
100
AcDbPoint
 10
1928.715069137681
 20
301.8408821195186
 30
0.0
  0
POINT
  5
177A2
330
17797
100
AcDbEntity
  8
Defpoints
 62
     0
100
AcDbPoint
 10
1693.564465883216
 20
301.8408821195186
 30
0.0
  0
ENDBLK
  5
17799
330
17797
100
AcDbEntity
  8
0
100
AcDbBlockEnd
  0
BLOCK
  5
177A5
330
177A4
100
AcDbEntity
  8
0
100
AcDbBlockBegin
  2
*D22
 70
     1
 10
0.0
 20
0.0
 30
0.0
  3
*D22
  1

  0
LINE
  5
177A7
330
177A4
100
AcDbEntity
  8
DIM
 62
     0
370
    -2
100
AcDbLine
 10
1589.826001091674
 20
413.3276745779281
 30
0.0
 11
1589.826001091674
 21
319.3579907790523
 31
0.0
  0
LINE
  5
177A8
330
177A4
100
AcDbEntity
  8
DIM
 62
     0
370
    -2
100
AcDbLine
 10
1779.826001091674
 20
413.3276745779281
 30
0.0
 11
1779.826001091674
 21
319.3579907790523
 31
0.0
  0
LINE
  5
177A9
330
177A4
100
AcDbEntity
  8
DIM
 62
     0
370
    -2
100
AcDbLine
 10
1592.826001091674
 20
319.3579907790523
 30
0.0
 11
1776.826001091674
 21
319.3579907790523
 31
0.0
  0
INSERT
  5
177AA
330
177A4
100
AcDbEntity
  8
DIM
 62
     0
370
    -2
100
AcDbBlockReference
  2
_DOT
 10
1589.826001091674
 20
319.3579907790523
 30
0.0
 41
3.0
 42
3.0
 43
3.0
 50
180.0
  0
INSERT
  5
177AB
330
177A4
100
AcDbEntity
  8
DIM
 62
     0
370
    -2
100
AcDbBlockReference
  2
_DOT
 10
1779.826001091674
 20
319.3579907790523
 30
0.0
 41
3.0
 42
3.0
 43
3.0
  0
MTEXT
  5
177AC
330
177A4
100
AcDbEntity
  8
DIM
 62
     0
100
AcDbMText
 10
1684.826001091674
 20
329.3579907790523
 30
0.0
 40
8.0
 41
0.0
 46
0.0
 71
     5
 72
     1
  1
\A1;190
  7
ＭＳ ゴシック
 73
     1
 44
1.0
  0
POINT
  5
177AD
330
177A4
100
AcDbEntity
  8
Defpoints
 62
     0
100
AcDbPoint
 10
1589.826001091674
 20
423.3276745779281
 30
0.0
  0
POINT
  5
177AE
330
177A4
100
AcDbEntity
  8
Defpoints
 62
     0
100
AcDbPoint
 10
1779.826001091674
 20
423.3276745779281
 30
0.0
  0
POINT
  5
177AF
330
177A4
100
AcDbEntity
  8
Defpoints
 62
     0
100
AcDbPoint
 10
1779.826001091674
 20
319.3579907790523
 30
0.0
  0
ENDBLK
  5
177A6
330
177A4
100
AcDbEntity
  8
0
100
AcDbBlockEnd
  0
BLOCK
  5
177B4
330
177B3
100
AcDbEntity
  8
0
100
AcDbBlockBegin
  2
*D23
 70
     1
 10
0.0
 20
0.0
 30
0.0
  3
*D23
  1

  0
LINE
  5
177B6
330
177B3
100
AcDbEntity
  8
DIM
 62
     0
370
    -2
100
AcDbLine
 10
1602.49840332292
 20
491.8408821195185
 30
0.0
 11
1554.648594136103
 21
491.8408821195185
 31
0.0
  0
LINE
  5
177B7
330
177B3
100
AcDbEntity
  8
DIM
 62
     0
370
    -2
100
AcDbLine
 10
1798.71506913768
 20
301.8408821195186
 30
0.0
 11
1554.648594136103
 21
301.8408821195186
 31
0.0
  0
LINE
  5
177B8
330
177B3
100
AcDbEntity
  8
DIM
 62
     0
370
    -2
100
AcDbLine
 10
1554.648594136103
 20
488.8408821195185
 30
0.0
 11
1554.648594136103
 21
304.8408821195186
 31
0.0
  0
INSERT
  5
177B9
330
177B3
100
AcDbEntity
  8
DIM
 62
     0
370
    -2
100
AcDbBlockReference
  2
_DOT
 10
1554.648594136103
 20
491.8408821195185
 30
0.0
 41
3.0
 42
3.0
 43
3.0
 50
90.0
  0
INSERT
  5
177BA
330
177B3
100
AcDbEntity
  8
DIM
 62
     0
370
    -2
100
AcDbBlockReference
  2
_DOT
 10
1554.648594136103
 20
301.8408821195186
 30
0.0
 41
3.0
 42
3.0
 43
3.0
 50
270.0
  0
MTEXT
  5
177BB
330
177B3
100
AcDbEntity
  8
DIM
 62
     0
100
AcDbMText
 10
1544.648594136103
 20
396.8408821195185
 30
0.0
 40
8.0
 41
0.0
 46
0.0
 71
     5
 72
     1
  1
\A1;190
  7
ＭＳ ゴシック
 11
0.0
 21
1.0
 31
0.0
 73
     1
 44
1.0
  0
POINT
  5
177BC
330
177B3
100
AcDbEntity
  8
Defpoints
 62
     0
100
AcDbPoint
 10
1612.49840332292
 20
491.8408821195185
 30
0.0
  0
POINT
  5
177BD
330
177B3
100
AcDbEntity
  8
Defpoints
 62
     0
100
AcDbPoint
 10
1808.71506913768
 20
301.8408821195186
 30
0.0
  0
POINT
  5
177BE
330
177B3
100
AcDbEntity
  8
Defpoints
 62
     0
100
AcDbPoint
 10
1554.648594136103
 20
301.8408821195186
 30
0.0
  0
ENDBLK
  5
177B5
330
177B3
100
AcDbEntity
  8
0
100
AcDbBlockEnd
  0
BLOCK
  5
177C3
330
177C2
100
AcDbEntity
  8
0
100
AcDbBlockBegin
  2
*D24
 70
     1
 10
0.0
 20
0.0
 30
0.0
  3
*D24
  1

  0
LINE
  5
177C5
330
177C2
100
AcDbEntity
  8
DIM
 62
     0
370
    -2
100
AcDbLine
 10
153.010348373678
 20
617.4019716888633
 30
0.0
 11
153.010348373678
 21
627.7195847573133
 31
0.0
  0
LINE
  5
177C6
330
177C2
100
AcDbEntity
  8
DIM
 62
     0
370
    -2
100
AcDbLine
 10
195.2115626242605
 20
617.4019716888633
 30
0.0
 11
195.2115626242605
 21
627.7195847573133
 31
0.0
  0
LINE
  5
177C7
330
177C2
100
AcDbEntity
  8
DIM
 62
     0
370
    -2
100
AcDbLine
 10
156.010348373678
 20
627.7195847573133
 30
0.0
 11
192.2115626242605
 21
627.7195847573133
 31
0.0
  0
INSERT
  5
177C8
330
177C2
100
AcDbEntity
  8
DIM
 62
     0
370
    -2
100
AcDbBlockReference
  2
_DOT
 10
153.010348373678
 20
627.7195847573133
 30
0.0
 41
3.0
 42
3.0
 43
3.0
 50
180.0
  0
INSERT
  5
177C9
330
177C2
100
AcDbEntity
  8
DIM
 62
     0
370
    -2
100
AcDbBlockReference
  2
_DOT
 10
195.2115626242605
 20
627.7195847573133
 30
0.0
 41
3.0
 42
3.0
 43
3.0
  0
MTEXT
  5
177CA
330
177C2
100
AcDbEntity
  8
DIM
 62
     0
100
AcDbMText
 10
174.1109554989694
 20
638.5715847573133
 30
0.0
 40
8.0
 41
0.0
 46
0.0
 71
     5
 72
     1
  1
\A1;G1 1/4"
  7
ＭＳ ゴシック
 73
     1
 44
1.0
  0
POINT
  5
177CB
330
177C2
100
AcDbEntity
  8
Defpoints
 62
     0
100
AcDbPoint
 10
153.010348373678
 20
607.4019716888633
 30
0.0
  0
POINT
  5
177CC
330
177C2
100
AcDbEntity
  8
Defpoints
 62
     0
100
AcDbPoint
 10
195.2115626242605
 20
607.4019716888633
 30
0.0
  0
POINT
  5
177CD
330
177C2
100
AcDbEntity
  8
Defpoints
 62
     0
100
AcDbPoint
 10
195.2115626242605
 20
627.7195847573133
 30
0.0
  0
ENDBLK
  5
177C4
330
177C2
100
AcDbEntity
  8
0
100
AcDbBlockEnd
  0
BLOCK
  5
177D6
330
177D5
100
AcDbEntity
  8
0
100
AcDbBlockBegin
  2
*D25
 70
     1
 10
0.0
 20
0.0
 30
0.0
  3
*D25
  1

  0
LINE
  5
177D8
330
177D5
100
AcDbEntity
  8
DIM
 62
     0
370
    -2
100
AcDbLine
 10
133.1109554989698
 20
466.4897186508765
 30
0.0
 11
113.1218848783783
 21
466.4897186508765
 31
0.0
  0
LINE
  5
177D9
330
177D5
100
AcDbEntity
  8
DIM
 62
     0
370
    -2
100
AcDbLine
 10
133.1109554989698
 20
566.4897186508763
 30
0.0
 11
113.1218848783783
 21
566.4897186508763
 31
0.0
  0
LINE
  5
177DA
330
177D5
100
AcDbEntity
  8
DIM
 62
     0
370
    -2
100
AcDbLine
 10
113.1218848783783
 20
469.4897186508765
 30
0.0
 11
113.1218848783783
 21
563.4897186508763
 31
0.0
  0
INSERT
  5
177DB
330
177D5
100
AcDbEntity
  8
DIM
 62
     0
370
    -2
100
AcDbBlockReference
  2
_DOT
 10
113.1218848783783
 20
466.4897186508765
 30
0.0
 41
3.0
 42
3.0
 43
3.0
 50
270.0
  0
INSERT
  5
177DC
330
177D5
100
AcDbEntity
  8
DIM
 62
     0
370
    -2
100
AcDbBlockReference
  2
_DOT
 10
113.1218848783783
 20
566.4897186508763
 30
0.0
 41
3.0
 42
3.0
 43
3.0
 50
90.0
  0
MTEXT
  5
177DD
330
177D5
100
AcDbEntity
  8
DIM
 62
     0
100
AcDbMText
 10
103.1218848783783
 20
516.4897186508764
 30
0.0
 40
8.0
 41
0.0
 46
0.0
 71
     5
 72
     1
  1
\A1;100
  7
ＭＳ ゴシック
 11
0.0
 21
1.0
 31
0.0
 73
     1
 44
1.0
  0
POINT
  5
177DE
330
177D5
100
AcDbEntity
  8
Defpoints
 62
     0
100
AcDbPoint
 10
143.1109554989698
 20
466.4897186508765
 30
0.0
  0
POINT
  5
177DF
330
177D5
100
AcDbEntity
  8
Defpoints
 62
     0
100
AcDbPoint
 10
143.1109554989698
 20
566.4897186508763
 30
0.0
  0
POINT
  5
177E0
330
177D5
100
AcDbEntity
  8
Defpoints
 62
     0
100
AcDbPoint
 10
113.1218848783783
 20
566.4897186508763
 30
0.0
  0
ENDBLK
  5
177D7
330
177D5
100
AcDbEntity
  8
0
100
AcDbBlockEnd
  0
BLOCK
  5
177E5
330
177E4
100
AcDbEntity
  8
0
100
AcDbBlockBegin
  2
*D26
 70
     1
 10
0.0
 20
0.0
 30
0.0
  3
*D26
  1

  0
LINE
  5
177E7
330
177E4
100
AcDbEntity
  8
DIM
 62
     0
370
    -2
100
AcDbLine
 10
123.1109554989698
 20
566.4897186508763
 30
0.0
 11
113.1218848783783
 21
566.4897186508763
 31
0.0
  0
LINE
  5
177E8
330
177E4
100
AcDbEntity
  8
DIM
 62
     0
370
    -2
100
AcDbLine
 10
133.5251752676481
 20
593.8517507637292
 30
0.0
 11
113.1218848783783
 21
593.8517507637292
 31
0.0
  0
LINE
  5
177E9
330
177E4
100
AcDbEntity
  8
DIM
 62
     0
370
    -2
100
AcDbLine
 10
113.1218848783783
 20
569.4897186508763
 30
0.0
 11
113.1218848783783
 21
590.8517507637292
 31
0.0
  0
INSERT
  5
177EA
330
177E4
100
AcDbEntity
  8
DIM
 62
     0
370
    -2
100
AcDbBlockReference
  2
_DOT
 10
113.1218848783783
 20
566.4897186508763
 30
0.0
 41
3.0
 42
3.0
 43
3.0
 50
270.0
  0
INSERT
  5
177EB
330
177E4
100
AcDbEntity
  8
DIM
 62
     0
370
    -2
100
AcDbBlockReference
  2
_DOT
 10
113.1218848783783
 20
593.8517507637292
 30
0.0
 41
3.0
 42
3.0
 43
3.0
 50
90.0
  0
MTEXT
  5
177EC
330
177E4
100
AcDbEntity
  8
DIM
 62
     0
100
AcDbMText
 10
103.1218848783783
 20
580.1707347073027
 30
0.0
 40
8.0
 41
0.0
 46
0.0
 71
     5
 72
     1
  1
\A1; 
  7
ＭＳ ゴシック
 11
0.0
 21
1.0
 31
0.0
 73
     1
 44
1.0
  0
POINT
  5
177ED
330
177E4
100
AcDbEntity
  8
Defpoints
 62
     0
100
AcDbPoint
 10
133.1109554989698
 20
566.4897186508763
 30
0.0
  0
POINT
  5
177EE
330
177E4
100
AcDbEntity
  8
Defpoints
 62
     0
100
AcDbPoint
 10
143.5251752676481
 20
593.8517507637292
 30
0.0
  0
POINT
  5
177EF
330
177E4
100
AcDbEntity
  8
Defpoints
 62
     0
100
AcDbPoint
 10
113.1218848783783
 20
593.8517507637292
 30
0.0
  0
ENDBLK
  5
177E6
330
177E4
100
AcDbEntity
  8
0
100
AcDbBlockEnd
  0
BLOCK
  5
177F8
330
177F7
100
AcDbEntity
  8
0
100
AcDbBlockBegin
  2
*D27
 70
     1
 10
0.0
 20
0.0
 30
0.0
  3
*D27
  1

  0
LINE
  5
177FA
330
177F7
100
AcDbEntity
  8
DIM
 62
     0
370
    -2
100
AcDbLine
 10
174.1109554989696
 20
675.8712406357329
 30
0.0
 11
174.1109554989696
 21
690.2949779277334
 31
0.0
  0
LINE
  5
177FB
330
177F7
100
AcDbEntity
  8
DIM
 62
     0
370
    -2
100
AcDbLine
 10
434.1109554989698
 20
401.8086968788938
 30
0.0
 11
434.1109554989698
 21
690.2949779277334
 31
0.0
  0
LINE
  5
177FC
330
177F7
100
AcDbEntity
  8
DIM
 62
     0
370
    -2
100
AcDbLine
 10
177.1109554989696
 20
690.2949779277334
 30
0.0
 11
431.1109554989698
 21
690.2949779277334
 31
0.0
  0
INSERT
  5
177FD
330
177F7
100
AcDbEntity
  8
DIM
 62
     0
370
    -2
100
AcDbBlockReference
  2
_DOT
 10
174.1109554989696
 20
690.2949779277334
 30
0.0
 41
3.0
 42
3.0
 43
3.0
 50
180.0
  0
INSERT
  5
177FE
330
177F7
100
AcDbEntity
  8
DIM
 62
     0
370
    -2
100
AcDbBlockReference
  2
_DOT
 10
434.1109554989698
 20
690.2949779277334
 30
0.0
 41
3.0
 42
3.0
 43
3.0
  0
MTEXT
  5
177FF
330
177F7
100
AcDbEntity
  8
DIM
 62
     0
100
AcDbMText
 10
304.1109554989698
 20
700.2949779277334
 30
0.0
 40
8.0
 41
0.0
 46
0.0
 71
     5
 72
     1
  1
\A1;MAX. 380
  7
ＭＳ ゴシック
 73
     1
 44
1.0
  0
POINT
  5
17800
330
177F7
100
AcDbEntity
  8
Defpoints
 62
     0
100
AcDbPoint
 10
174.1109554989696
 20
665.8712406357329
 30
0.0
  0
POINT
  5
17801
330
177F7
100
AcDbEntity
  8
Defpoints
 62
     0
100
AcDbPoint
 10
434.1109554989698
 20
391.8086968788938
 30
0.0
  0
POINT
  5
17802
330
177F7
100
AcDbEntity
  8
Defpoints
 62
     0
100
AcDbPoint
 10
434.1109554989698
 20
690.2949779277334
 30
0.0
  0
ENDBLK
  5
177F9
330
177F7
100
AcDbEntity
  8
0
100
AcDbBlockEnd
  0
BLOCK
  5
1780A
330
17809
100
AcDbEntity
  8
0
100
AcDbBlockBegin
  2
*D28
 70
     1
 10
0.0
 20
0.0
 30
0.0
  3
*D28
  1

  0
LINE
  5
1780C
330
17809
100
AcDbEntity
  8
DIM
 62
     0
370
    -2
100
AcDbLine
 10
239.6051023859773
 20
551.0029261924668
 30
0.0
 11
244.3013504102933
 21
551.0029261924668
 31
0.0
  0
LINE
  5
1780D
330
17809
100
AcDbEntity
  8
DIM
 62
     0
370
    -2
100
AcDbLine
 10
239.6051023859773
 20
519.0029261924669
 30
0.0
 11
244.3013504102933
 21
519.0029261924669
 31
0.0
  0
LINE
  5
1780E
330
17809
100
AcDbEntity
  8
DIM
 62
     0
370
    -2
100
AcDbLine
 10
244.3013504102933
 20
551.0029261924668
 30
0.0
 11
244.3013504102933
 21
586.4322227147602
 31
0.0
  0
LINE
  5
1780F
330
17809
100
AcDbEntity
  8
DIM
 62
     0
370
    -2
100
AcDbLine
 10
244.3013504102933
 20
548.0029261924668
 30
0.0
 11
244.3013504102933
 21
522.0029261924669
 31
0.0
  0
LINE
  5
17810
330
17809
100
AcDbEntity
  8
DIM
 62
     0
370
    -2
100
AcDbLine
 10
244.3013504102933
 20
548.0029261924668
 30
0.0
 11
244.3013504102933
 21
545.0029261924668
 31
0.0
  0
INSERT
  5
17811
330
17809
100
AcDbEntity
  8
DIM
 62
     0
370
    -2
100
AcDbBlockReference
  2
_DOT
 10
244.3013504102933
 20
551.0029261924668
 30
0.0
 41
3.0
 42
3.0
 43
3.0
 50
90.0
  0
INSERT
  5
17812
330
17809
100
AcDbEntity
  8
DIM
 62
     0
370
    -2
100
AcDbBlockReference
  2
_DOT
 10
244.3013504102933
 20
519.0029261924669
 30
0.0
 41
3.0
 42
3.0
 43
3.0
 50
270.0
  0
MTEXT
  5
17813
330
17809
100
AcDbEntity
  8
DIM
 62
     0
100
AcDbMText
 10
234.3013504102933
 20
573.0202227147602
 30
0.0
 40
8.0
 41
0.0
 46
0.0
 71
     5
 72
     1
  1
\A1;%%c32
  7
ＭＳ ゴシック
 11
0.0
 21
1.0
 31
0.0
 73
     1
 44
1.0
  0
POINT
  5
17814
330
17809
100
AcDbEntity
  8
Defpoints
 62
     0
100
AcDbPoint
 10
249.6051023859773
 20
551.0029261924668
 30
0.0
  0
POINT
  5
17815
330
17809
100
AcDbEntity
  8
Defpoints
 62
     0
100
AcDbPoint
 10
249.6051023859773
 20
519.0029261924669
 30
0.0
  0
POINT
  5
17816
330
17809
100
AcDbEntity
  8
Defpoints
 62
     0
100
AcDbPoint
 10
244.3013504102933
 20
519.0029261924669
 30
0.0
  0
ENDBLK
  5
1780B
330
17809
100
AcDbEntity
  8
0
100
AcDbBlockEnd
  0
BLOCK
  5
1781F
330
1781E
100
AcDbEntity
  8
0
100
AcDbBlockBegin
  2
*D29
 70
     1
 10
0.0
 20
0.0
 30
0.0
  3
*D29
  1

  0
LINE
  5
17821
330
1781E
100
AcDbEntity
  8
DIM
 62
     0
370
    -2
100
AcDbLine
 10
380.1109554989698
 20
444.9359193464811
 30
0.0
 11
380.1109554989698
 21
440.2396713221651
 31
0.0
  0
LINE
  5
17822
330
1781E
100
AcDbEntity
  8
DIM
 62
     0
370
    -2
100
AcDbLine
 10
348.1109554989698
 20
444.9359193464811
 30
0.0
 11
348.1109554989698
 21
440.2396713221651
 31
0.0
  0
LINE
  5
17823
330
1781E
100
AcDbEntity
  8
DIM
 62
     0
370
    -2
100
AcDbLine
 10
380.1109554989698
 20
440.2396713221651
 30
0.0
 11
415.540252021263
 21
440.2396713221651
 31
0.0
  0
LINE
  5
17824
330
1781E
100
AcDbEntity
  8
DIM
 62
     0
370
    -2
100
AcDbLine
 10
377.1109554989698
 20
440.2396713221651
 30
0.0
 11
351.1109554989698
 21
440.2396713221651
 31
0.0
  0
LINE
  5
17825
330
1781E
100
AcDbEntity
  8
DIM
 62
     0
370
    -2
100
AcDbLine
 10
377.1109554989698
 20
440.2396713221651
 30
0.0
 11
374.1109554989698
 21
440.2396713221651
 31
0.0
  0
INSERT
  5
17826
330
1781E
100
AcDbEntity
  8
DIM
 62
     0
370
    -2
100
AcDbBlockReference
  2
_DOT
 10
380.1109554989698
 20
440.2396713221651
 30
0.0
 41
3.0
 42
3.0
 43
3.0
  0
INSERT
  5
17827
330
1781E
100
AcDbEntity
  8
DIM
 62
     0
370
    -2
100
AcDbBlockReference
  2
_DOT
 10
348.1109554989698
 20
440.2396713221651
 30
0.0
 41
3.0
 42
3.0
 43
3.0
 50
180.0
  0
MTEXT
  5
17828
330
1781E
100
AcDbEntity
  8
DIM
 62
     0
100
AcDbMText
 10
402.1282520212631
 20
450.2396713221651
 30
0.0
 40
8.0
 41
0.0
 46
0.0
 71
     5
 72
     1
  1
\A1;%%c32
  7
ＭＳ ゴシック
 73
     1
 44
1.0
  0
POINT
  5
17829
330
1781E
100
AcDbEntity
  8
Defpoints
 62
     0
100
AcDbPoint
 10
380.1109554989698
 20
434.9359193464811
 30
0.0
  0
POINT
  5
1782A
330
1781E
100
AcDbEntity
  8
Defpoints
 62
     0
100
AcDbPoint
 10
348.1109554989698
 20
434.9359193464811
 30
0.0
  0
POINT
  5
1782B
330
1781E
100
AcDbEntity
  8
Defpoints
 62
     0
100
AcDbPoint
 10
348.1109554989698
 20
440.2396713221651
 30
0.0
  0
ENDBLK
  5
17820
330
1781E
100
AcDbEntity
  8
0
100
AcDbBlockEnd
  0
BLOCK
  5
17830
330
1782F
100
AcDbEntity
  8
0
100
AcDbBlockBegin
  2
*D30
 70
     1
 10
0.0
 20
0.0
 30
0.0
  3
*D30
  1

  0
LINE
  5
17832
330
1782F
100
AcDbEntity
  8
DIM
 62
     0
370
    -2
100
AcDbLine
 10
143.1109554989698
 20
456.4897186508765
 30
0.0
 11
143.1109554989698
 21
434.085602557997
 31
0.0
  0
LINE
  5
17833
330
1782F
100
AcDbEntity
  8
DIM
 62
     0
370
    -2
100
AcDbLine
 10
205.1109554989698
 20
456.4897186508765
 30
0.0
 11
205.1109554989698
 21
434.085602557997
 31
0.0
  0
LINE
  5
17834
330
1782F
100
AcDbEntity
  8
DIM
 62
     0
370
    -2
100
AcDbLine
 10
146.1109554989698
 20
434.085602557997
 30
0.0
 11
202.1109554989698
 21
434.085602557997
 31
0.0
  0
INSERT
  5
17835
330
1782F
100
AcDbEntity
  8
DIM
 62
     0
370
    -2
100
AcDbBlockReference
  2
_DOT
 10
143.1109554989698
 20
434.085602557997
 30
0.0
 41
3.0
 42
3.0
 43
3.0
 50
180.0
  0
INSERT
  5
17836
330
1782F
100
AcDbEntity
  8
DIM
 62
     0
370
    -2
100
AcDbBlockReference
  2
_DOT
 10
205.1109554989698
 20
434.085602557997
 30
0.0
 41
3.0
 42
3.0
 43
3.0
  0
MTEXT
  5
17837
330
1782F
100
AcDbEntity
  8
DIM
 62
     0
100
AcDbMText
 10
174.1109554989698
 20
444.085602557997
 30
0.0
 40
8.0
 41
0.0
 46
0.0
 71
     5
 72
     1
  1
\A1;%%c62
  7
ＭＳ ゴシック
 73
     1
 44
1.0
  0
POINT
  5
17838
330
1782F
100
AcDbEntity
  8
Defpoints
 62
     0
100
AcDbPoint
 10
143.1109554989698
 20
466.4897186508765
 30
0.0
  0
POINT
  5
17839
330
1782F
100
AcDbEntity
  8
Defpoints
 62
     0
100
AcDbPoint
 10
205.1109554989698
 20
466.4897186508765
 30
0.0
  0
POINT
  5
1783A
330
1782F
100
AcDbEntity
  8
Defpoints
 62
     0
100
AcDbPoint
 10
205.1109554989698
 20
434.085602557997
 30
0.0
  0
ENDBLK
  5
17831
330
1782F
100
AcDbEntity
  8
0
100
AcDbBlockEnd
  0
BLOCK
  5
17842
330
17841
100
AcDbEntity
  8
0
100
AcDbBlockBegin
  2
*D31
 70
     1
 10
0.0
 20
0.0
 30
0.0
  3
*D31
  1

  0
LINE
  5
17844
330
17841
100
AcDbEntity
  8
DIM
 62
     0
370
    -2
100
AcDbLine
 10
1824.71506913768
 20
255.8408821195186
 30
0.0
 11
1824.71506913768
 21
224.9939100084528
 31
0.0
  0
LINE
  5
17845
330
17841
100
AcDbEntity
  8
DIM
 62
     0
370
    -2
100
AcDbLine
 10
1779.826001091674
 20
312.8408821195181
 30
0.0
 11
1779.826001091674
 21
224.9939100084528
 31
0.0
  0
LINE
  5
17846
330
17841
100
AcDbEntity
  8
DIM
 62
     0
370
    -2
100
AcDbLine
 10
1821.71506913768
 20
224.9939100084528
 30
0.0
 11
1782.826001091674
 21
224.9939100084528
 31
0.0
  0
INSERT
  5
17847
330
17841
100
AcDbEntity
  8
DIM
 62
     0
370
    -2
100
AcDbBlockReference
  2
_DOT
 10
1824.71506913768
 20
224.9939100084528
 30
0.0
 41
3.0
 42
3.0
 43
3.0
  0
INSERT
  5
17848
330
17841
100
AcDbEntity
  8
DIM
 62
     0
370
    -2
100
AcDbBlockReference
  2
_DOT
 10
1779.826001091674
 20
224.9939100084528
 30
0.0
 41
3.0
 42
3.0
 43
3.0
 50
180.0
  0
MTEXT
  5
17849
330
17841
100
AcDbEntity
  8
DIM
 62
     0
100
AcDbMText
 10
1802.270535114677
 20
234.9939100084528
 30
0.0
 40
8.0
 41
0.0
 46
0.0
 71
     5
 72
     1
  1
\A1;45
  7
ＭＳ ゴシック
 73
     1
 44
1.0
  0
POINT
  5
1784A
330
17841
100
AcDbEntity
  8
Defpoints
 62
     0
100
AcDbPoint
 10
1824.71506913768
 20
265.8408821195186
 30
0.0
  0
POINT
  5
1784B
330
17841
100
AcDbEntity
  8
Defpoints
 62
     0
100
AcDbPoint
 10
1779.826001091674
 20
322.8408821195181
 30
0.0
  0
POINT
  5
1784C
330
17841
100
AcDbEntity
  8
Defpoints
 62
     0
100
AcDbPoint
 10
1779.826001091674
 20
224.9939100084528
 30
0.0
  0
ENDBLK
  5
17843
330
17841
100
AcDbEntity
  8
0
100
AcDbBlockEnd
  0
BLOCK
  5
1784F
330
1784E
100
AcDbEntity
  8
0
100
AcDbBlockBegin
  2
*D32
 70
     1
 10
0.0
 20
0.0
 30
0.0
  3
*D32
  1

  0
LINE
  5
17851
330
1784E
100
AcDbEntity
  8
DIM
 62
     0
370
    -2
100
AcDbLine
 10
364.1109554989698
 20
356.0029261924665
 30
0.0
 11
364.1109554989698
 21
276.8456213183616
 31
0.0
  0
LINE
  5
17852
330
1784E
100
AcDbEntity
  8
DIM
 62
     0
370
    -2
100
AcDbLine
 10
414.1109554989698
 20
299.0029261924669
 30
0.0
 11
414.1109554989698
 21
276.8456213183616
 31
0.0
  0
LINE
  5
17853
330
1784E
100
AcDbEntity
  8
DIM
 62
     0
370
    -2
100
AcDbLine
 10
367.1109554989698
 20
276.8456213183616
 30
0.0
 11
411.1109554989698
 21
276.8456213183616
 31
0.0
  0
INSERT
  5
17854
330
1784E
100
AcDbEntity
  8
DIM
 62
     0
370
    -2
100
AcDbBlockReference
  2
_DOT
 10
364.1109554989698
 20
276.8456213183616
 30
0.0
 41
3.0
 42
3.0
 43
3.0
 50
180.0
  0
INSERT
  5
17855
330
1784E
100
AcDbEntity
  8
DIM
 62
     0
370
    -2
100
AcDbBlockReference
  2
_DOT
 10
414.1109554989698
 20
276.8456213183616
 30
0.0
 41
3.0
 42
3.0
 43
3.0
  0
MTEXT
  5
17856
330
1784E
100
AcDbEntity
  8
DIM
 62
     0
100
AcDbMText
 10
389.1109554989698
 20
286.8456213183616
 30
0.0
 40
8.0
 41
0.0
 46
0.0
 71
     5
 72
     1
  1
\A1;MIN. 50
  7
ＭＳ ゴシック
 73
     1
 44
1.0
  0
POINT
  5
17857
330
1784E
100
AcDbEntity
  8
Defpoints
 62
     0
100
AcDbPoint
 10
364.1109554989698
 20
366.0029261924665
 30
0.0
  0
POINT
  5
17858
330
1784E
100
AcDbEntity
  8
Defpoints
 62
     0
100
AcDbPoint
 10
414.1109554989698
 20
309.0029261924669
 30
0.0
  0
POINT
  5
17859
330
1784E
100
AcDbEntity
  8
Defpoints
 62
     0
100
AcDbPoint
 10
414.1109554989698
 20
276.8456213183616
 30
0.0
  0
ENDBLK
  5
17850
330
1784E
100
AcDbEntity
  8
0
100
AcDbBlockEnd
  0
BLOCK
  5
17862
330
17861
100
AcDbEntity
  8
0
100
AcDbBlockBegin
  2
*D33
 70
     1
 10
0.0
 20
0.0
 30
0.0
  3
*D33
  1

  0
LINE
  5
17864
330
17861
100
AcDbEntity
  8
DIM
 62
     0
370
    -2
100
AcDbLine
 10
444.1109554989691
 20
361.0029261924664
 30
0.0
 11
469.2353103330647
 21
361.0029261924664
 31
0.0
  0
LINE
  5
17865
330
17861
100
AcDbEntity
  8
DIM
 62
     0
370
    -2
100
AcDbLine
 10
444.1109554989691
 20
329.0029261924664
 30
0.0
 11
469.2353103330647
 21
329.0029261924664
 31
0.0
  0
LINE
  5
17866
330
17861
100
AcDbEntity
  8
DIM
 62
     0
370
    -2
100
AcDbLine
 10
469.2353103330647
 20
358.0029261924664
 30
0.0
 11
469.2353103330647
 21
332.0029261924664
 31
0.0
  0
INSERT
  5
17867
330
17861
100
AcDbEntity
  8
DIM
 62
     0
370
    -2
100
AcDbBlockReference
  2
_DOT
 10
469.2353103330647
 20
361.0029261924664
 30
0.0
 41
3.0
 42
3.0
 43
3.0
 50
90.0
  0
INSERT
  5
17868
330
17861
100
AcDbEntity
  8
DIM
 62
     0
370
    -2
100
AcDbBlockReference
  2
_DOT
 10
469.2353103330647
 20
329.0029261924664
 30
0.0
 41
3.0
 42
3.0
 43
3.0
 50
270.0
  0
MTEXT
  5
17869
330
17861
100
AcDbEntity
  8
DIM
 62
     0
100
AcDbMText
 10
459.2353103330647
 20
345.0029261924664
 30
0.0
 40
8.0
 41
0.0
 46
0.0
 71
     5
 72
     1
  1
\A1;%%c32
  7
ＭＳ ゴシック
 11
0.0
 21
1.0
 31
0.0
 73
     1
 44
1.0
  0
POINT
  5
1786A
330
17861
100
AcDbEntity
  8
Defpoints
 62
     0
100
AcDbPoint
 10
434.1109554989691
 20
361.0029261924664
 30
0.0
  0
POINT
  5
1786B
330
17861
100
AcDbEntity
  8
Defpoints
 62
     0
100
AcDbPoint
 10
434.1109554989691
 20
329.0029261924664
 30
0.0
  0
POINT
  5
1786C
330
17861
100
AcDbEntity
  8
Defpoints
 62
     0
100
AcDbPoint
 10
469.2353103330647
 20
329.0029261924664
 30
0.0
  0
ENDBLK
  5
17863
330
17861
100
AcDbEntity
  8
0
100
AcDbBlockEnd
  0
BLOCK
  5
17874
330
17873
100
AcDbEntity
  8
0
100
AcDbBlockBegin
  2
*D34
 70
     1
 10
0.0
 20
0.0
 30
0.0
  3
*D34
  1

  0
LINE
  5
17876
330
17873
100
AcDbEntity
  8
DIM
 62
     0
370
    -2
100
AcDbLine
 10
424.11095549897
 20
381.0029261924669
 30
0.0
 11
495.9662202905115
 21
381.0029261924669
 31
0.0
  0
LINE
  5
17877
330
17873
100
AcDbEntity
  8
DIM
 62
     0
370
    -2
100
AcDbLine
 10
424.1109554989698
 20
309.0029261924669
 30
0.0
 11
495.9662202905115
 21
309.0029261924669
 31
0.0
  0
LINE
  5
17878
330
17873
100
AcDbEntity
  8
DIM
 62
     0
370
    -2
100
AcDbLine
 10
495.9662202905115
 20
378.0029261924669
 30
0.0
 11
495.9662202905115
 21
312.0029261924669
 31
0.0
  0
INSERT
  5
17879
330
17873
100
AcDbEntity
  8
DIM
 62
     0
370
    -2
100
AcDbBlockReference
  2
_DOT
 10
495.9662202905115
 20
381.0029261924669
 30
0.0
 41
3.0
 42
3.0
 43
3.0
 50
90.0
  0
INSERT
  5
1787A
330
17873
100
AcDbEntity
  8
DIM
 62
     0
370
    -2
100
AcDbBlockReference
  2
_DOT
 10
495.9662202905115
 20
309.0029261924669
 30
0.0
 41
3.0
 42
3.0
 43
3.0
 50
270.0
  0
MTEXT
  5
1787B
330
17873
100
AcDbEntity
  8
DIM
 62
     0
100
AcDbMText
 10
485.9662202905115
 20
345.0029261924669
 30
0.0
 40
8.0
 41
0.0
 46
0.0
 71
     5
 72
     1
  1
\A1;%%c72
  7
ＭＳ ゴシック
 11
0.0
 21
1.0
 31
0.0
 73
     1
 44
1.0
  0
POINT
  5
1787C
330
17873
100
AcDbEntity
  8
Defpoints
 62
     0
100
AcDbPoint
 10
414.11095549897
 20
381.0029261924669
 30
0.0
  0
POINT
  5
1787D
330
17873
100
AcDbEntity
  8
Defpoints
 62
     0
100
AcDbPoint
 10
414.1109554989698
 20
309.0029261924669
 30
0.0
  0
POINT
  5
1787E
330
17873
100
AcDbEntity
  8
Defpoints
 62
     0
100
AcDbPoint
 10
495.9662202905115
 20
309.0029261924669
 30
0.0
  0
ENDBLK
  5
17875
330
17873
100
AcDbEntity
  8
0
100
AcDbBlockEnd
  0
BLOCK
  5
17886
330
17885
100
AcDbEntity
  8
0
100
AcDbBlockBegin
  2
*D35
 70
     1
 10
0.0
 20
0.0
 30
0.0
  3
*D35
  1

  0
LINE
  5
17888
330
17885
100
AcDbEntity
  8
DIM
 62
     0
370
    -2
100
AcDbLine
 10
505.9662202905115
 20
345.0029261924669
 30
0.0
 11
528.8581043189624
 21
345.0029261924669
 31
0.0
  0
LINE
  5
17889
330
17885
100
AcDbEntity
  8
DIM
 62
     0
370
    -2
100
AcDbLine
 10
361.8738866151316
 20
535.0029261924669
 30
0.0
 11
528.8581043189624
 21
535.0029261924669
 31
0.0
  0
LINE
  5
1788A
330
17885
100
AcDbEntity
  8
DIM
 62
     0
370
    -2
100
AcDbLine
 10
528.8581043189624
 20
348.0029261924669
 30
0.0
 11
528.8581043189624
 21
532.0029261924669
 31
0.0
  0
INSERT
  5
1788B
330
17885
100
AcDbEntity
  8
DIM
 62
     0
370
    -2
100
AcDbBlockReference
  2
_DOT
 10
528.8581043189624
 20
345.0029261924669
 30
0.0
 41
3.0
 42
3.0
 43
3.0
 50
270.0
  0
INSERT
  5
1788C
330
17885
100
AcDbEntity
  8
DIM
 62
     0
370
    -2
100
AcDbBlockReference
  2
_DOT
 10
528.8581043189624
 20
535.0029261924669
 30
0.0
 41
3.0
 42
3.0
 43
3.0
 50
90.0
  0
MTEXT
  5
1788D
330
17885
100
AcDbEntity
  8
DIM
 62
     0
100
AcDbMText
 10
518.8581043189624
 20
440.0029261924669
 30
0.0
 40
8.0
 41
0.0
 46
0.0
 71
     5
 72
     1
  1
\A1;MIN.110 - MAX.360
  7
ＭＳ ゴシック
 11
0.0
 21
1.0
 31
0.0
 73
     1
 44
1.0
  0
POINT
  5
1788E
330
17885
100
AcDbEntity
  8
Defpoints
 62
     0
100
AcDbPoint
 10
495.9662202905115
 20
345.0029261924669
 30
0.0
  0
POINT
  5
1788F
330
17885
100
AcDbEntity
  8
Defpoints
 62
     0
100
AcDbPoint
 10
351.8738866151316
 20
535.0029261924669
 30
0.0
  0
POINT
  5
17890
330
17885
100
AcDbEntity
  8
Defpoints
 62
     0
100
AcDbPoint
 10
528.8581043189624
 20
535.0029261924669
 30
0.0
  0
ENDBLK
  5
17887
330
17885
100
AcDbEntity
  8
0
100
AcDbBlockEnd
  0
BLOCK
  5
17895
330
17894
100
AcDbEntity
  8
0
100
AcDbBlockBegin
  2
*D36
 70
     1
 10
0.0
 20
0.0
 30
0.0
  3
*D36
  1

  0
LINE
  5
17897
330
17894
100
AcDbEntity
  8
DIM
 62
     0
370
    -2
100
AcDbLine
 10
174.1109554989698
 20
424.085602557997
 30
0.0
 11
174.1109554989698
 21
276.8456213183616
 31
0.0
  0
LINE
  5
17898
330
17894
100
AcDbEntity
  8
DIM
 62
     0
370
    -2
100
AcDbLine
 10
364.1109554989698
 20
319.0029261924666
 30
0.0
 11
364.1109554989698
 21
276.8456213183616
 31
0.0
  0
LINE
  5
17899
330
17894
100
AcDbEntity
  8
DIM
 62
     0
370
    -2
100
AcDbLine
 10
177.1109554989698
 20
276.8456213183616
 30
0.0
 11
361.1109554989698
 21
276.8456213183616
 31
0.0
  0
INSERT
  5
1789A
330
17894
100
AcDbEntity
  8
DIM
 62
     0
370
    -2
100
AcDbBlockReference
  2
_DOT
 10
174.1109554989698
 20
276.8456213183616
 30
0.0
 41
3.0
 42
3.0
 43
3.0
 50
180.0
  0
INSERT
  5
1789B
330
17894
100
AcDbEntity
  8
DIM
 62
     0
370
    -2
100
AcDbBlockReference
  2
_DOT
 10
364.1109554989698
 20
276.8456213183616
 30
0.0
 41
3.0
 42
3.0
 43
3.0
  0
MTEXT
  5
1789C
330
17894
100
AcDbEntity
  8
DIM
 62
     0
100
AcDbMText
 10
269.1109554989698
 20
286.8456213183616
 30
0.0
 40
8.0
 41
0.0
 46
0.0
 71
     5
 72
     1
  1
\A1;MIN.110 - MAX.320
  7
ＭＳ ゴシック
 73
     1
 44
1.0
  0
POINT
  5
1789D
330
17894
100
AcDbEntity
  8
Defpoints
 62
     0
100
AcDbPoint
 10
174.1109554989698
 20
434.085602557997
 30
0.0
  0
POINT
  5
1789E
330
17894
100
AcDbEntity
  8
Defpoints
 62
     0
100
AcDbPoint
 10
364.1109554989698
 20
329.0029261924666
 30
0.0
  0
POINT
  5
1789F
330
17894
100
AcDbEntity
  8
Defpoints
 62
     0
100
AcDbPoint
 10
364.1109554989698
 20
276.8456213183616
 30
0.0
  0
ENDBLK
  5
17896
330
17894
100
AcDbEntity
  8
0
100
AcDbBlockEnd
  0
BLOCK
  5
1B32C
330
1B32B
100
AcDbEntity
  8
0
100
AcDbBlockBegin
  2
*D37
 70
     1
 10
0.0
 20
0.0
 30
0.0
  3
*D37
  1

  0
LINE
  5
1B32E
330
1B32B
100
AcDbEntity
  8
DIM
 62
     0
370
    -2
100
AcDbLine
 10
464.7977383080936
 20
362.2239021772803
 30
0.0
 11
536.3757215999997
 21
362.2239021772803
 31
0.0
  0
LINE
  5
1B32F
330
1B32B
100
AcDbEntity
  8
DIM
 62
     0
370
    -2
100
AcDbLine
 10
521.2727383080937
 20
551.6007901772803
 30
0.0
 11
536.3757215999997
 21
551.6007901772803
 31
0.0
  0
LINE
  5
1B330
330
1B32B
100
AcDbEntity
  8
DIM
 62
     0
370
    -2
100
AcDbLine
 10
536.3757215999997
 20
365.2239021772803
 30
0.0
 11
536.3757215999997
 21
548.6007901772803
 31
0.0
  0
INSERT
  5
1B331
330
1B32B
100
AcDbEntity
  8
DIM
 62
     0
370
    -2
100
AcDbBlockReference
  2
_DOT
 10
536.3757215999997
 20
362.2239021772803
 30
0.0
 41
3.0
 42
3.0
 43
3.0
 50
270.0
  0
INSERT
  5
1B332
330
1B32B
100
AcDbEntity
  8
DIM
 62
     0
370
    -2
100
AcDbBlockReference
  2
_DOT
 10
536.3757215999997
 20
551.6007901772803
 30
0.0
 41
3.0
 42
3.0
 43
3.0
 50
90.0
  0
MTEXT
  5
1B333
330
1B32B
100
AcDbEntity
  8
DIM
 62
     0
100
AcDbMText
 10
526.3757215999997
 20
456.9123461772803
 30
0.0
 40
8.0
 41
0.0
 46
0.0
 71
     5
 72
     1
  1
\A1;140-180
  7
ＭＳ ゴシック
 11
0.0
 21
1.0
 31
0.0
 73
     1
 44
1.0
  0
POINT
  5
1B334
330
1B32B
100
AcDbEntity
  8
Defpoints
 62
     0
100
AcDbPoint
 10
454.7977383080936
 20
362.2239021772803
 30
0.0
  0
POINT
  5
1B335
330
1B32B
100
AcDbEntity
  8
Defpoints
 62
     0
100
AcDbPoint
 10
511.2727383080937
 20
551.6007901772803
 30
0.0
  0
POINT
  5
1B336
330
1B32B
100
AcDbEntity
  8
Defpoints
 62
     0
100
AcDbPoint
 10
536.3757215999997
 20
551.6007901772803
 30
0.0
  0
ENDBLK
  5
1B32D
330
1B32B
100
AcDbEntity
  8
0
100
AcDbBlockEnd
  0
BLOCK
  5
1B33E
330
1B33D
100
AcDbEntity
  8
0
100
AcDbBlockBegin
  2
*D38
 70
     1
 10
0.0
 20
0.0
 30
0.0
  3
*D38
  1

  0
LINE
  5
1B340
330
1B33D
100
AcDbEntity
  8
DIM
 62
     0
370
    -2
100
AcDbLine
 10
459.7318391080938
 20
568.1007901772803
 30
0.0
 11
459.7318391080938
 21
581.7464521228806
 31
0.0
  0
LINE
  5
1B341
330
1B33D
100
AcDbEntity
  8
DIM
 62
     0
370
    -2
100
AcDbLine
 10
498.6818391080936
 20
568.1007901772803
 30
0.0
 11
498.6818391080936
 21
581.7464521228806
 31
0.0
  0
LINE
  5
1B342
330
1B33D
100
AcDbEntity
  8
DIM
 62
     0
370
    -2
100
AcDbLine
 10
462.7318391080938
 20
581.7464521228806
 30
0.0
 11
495.6818391080936
 21
581.7464521228806
 31
0.0
  0
INSERT
  5
1B343
330
1B33D
100
AcDbEntity
  8
DIM
 62
     0
370
    -2
100
AcDbBlockReference
  2
_DOT
 10
459.7318391080938
 20
581.7464521228806
 30
0.0
 41
3.0
 42
3.0
 43
3.0
 50
180.0
  0
INSERT
  5
1B344
330
1B33D
100
AcDbEntity
  8
DIM
 62
     0
370
    -2
100
AcDbBlockReference
  2
_DOT
 10
498.6818391080936
 20
581.7464521228806
 30
0.0
 41
3.0
 42
3.0
 43
3.0
  0
MTEXT
  5
1B345
330
1B33D
100
AcDbEntity
  8
DIM
 62
     0
100
AcDbMText
 10
479.2068391080937
 20
592.5984521228805
 30
0.0
 40
8.0
 41
0.0
 46
0.0
 71
     5
 72
     1
  1
\A1;G1 1/4"
  7
ＭＳ ゴシック
 73
     1
 44
1.0
  0
POINT
  5
1B346
330
1B33D
100
AcDbEntity
  8
Defpoints
 62
     0
100
AcDbPoint
 10
459.7318391080938
 20
558.1007901772803
 30
0.0
  0
POINT
  5
1B347
330
1B33D
100
AcDbEntity
  8
Defpoints
 62
     0
100
AcDbPoint
 10
498.6818391080936
 20
558.1007901772803
 30
0.0
  0
POINT
  5
1B348
330
1B33D
100
AcDbEntity
  8
Defpoints
 62
     0
100
AcDbPoint
 10
498.6818391080936
 20
581.7464521228806
 30
0.0
  0
ENDBLK
  5
1B33F
330
1B33D
100
AcDbEntity
  8
0
100
AcDbBlockEnd
  0
BLOCK
  5
1B351
330
1B350
100
AcDbEntity
  8
0
100
AcDbBlockBegin
  2
*D39
 70
     1
 10
0.0
 20
0.0
 30
0.0
  3
*D39
  1

  0
LINE
  5
1B353
330
1B350
100
AcDbEntity
  8
DIM
 62
     0
370
    -2
100
AcDbLine
 10
1147.670679108093
 20
506.7979021772799
 30
0.0
 11
1147.670679108093
 21
429.6953084041731
 31
0.0
  0
LINE
  5
1B354
330
1B350
100
AcDbEntity
  8
DIM
 62
     0
370
    -2
100
AcDbLine
 10
1073.670679108093
 20
506.7979021772799
 30
0.0
 11
1073.670679108093
 21
429.6953084041731
 31
0.0
  0
LINE
  5
1B355
330
1B350
100
AcDbEntity
  8
DIM
 62
     0
370
    -2
100
AcDbLine
 10
1144.670679108093
 20
429.6953084041731
 30
0.0
 11
1076.670679108093
 21
429.6953084041731
 31
0.0
  0
INSERT
  5
1B356
330
1B350
100
AcDbEntity
  8
DIM
 62
     0
370
    -2
100
AcDbBlockReference
  2
_DOT
 10
1147.670679108093
 20
429.6953084041731
 30
0.0
 41
3.0
 42
3.0
 43
3.0
  0
INSERT
  5
1B357
330
1B350
100
AcDbEntity
  8
DIM
 62
     0
370
    -2
100
AcDbBlockReference
  2
_DOT
 10
1073.670679108093
 20
429.6953084041731
 30
0.0
 41
3.0
 42
3.0
 43
3.0
 50
180.0
  0
MTEXT
  5
1B358
330
1B350
100
AcDbEntity
  8
DIM
 62
     0
100
AcDbMText
 10
1110.670679108093
 20
439.6953084041731
 30
0.0
 40
8.0
 41
0.0
 46
0.0
 71
     5
 72
     1
  1
\A1;74
  7
ＭＳ ゴシック
 73
     1
 44
1.0
  0
POINT
  5
1B359
330
1B350
100
AcDbEntity
  8
Defpoints
 62
     0
100
AcDbPoint
 10
1147.670679108093
 20
516.7979021772799
 30
0.0
  0
POINT
  5
1B35A
330
1B350
100
AcDbEntity
  8
Defpoints
 62
     0
100
AcDbPoint
 10
1073.670679108093
 20
516.7979021772799
 30
0.0
  0
POINT
  5
1B35B
330
1B350
100
AcDbEntity
  8
Defpoints
 62
     0
100
AcDbPoint
 10
1073.670679108093
 20
429.6953084041731
 30
0.0
  0
ENDBLK
  5
1B352
330
1B350
100
AcDbEntity
  8
0
100
AcDbBlockEnd
  0
BLOCK
  5
1B35E
330
1B35D
100
AcDbEntity
  8
0
100
AcDbBlockBegin
  2
*D40
 70
     1
 10
0.0
 20
0.0
 30
0.0
  3
*D40
  1

  0
LINE
  5
1B360
330
1B35D
100
AcDbEntity
  8
DIM
 62
     0
370
    -2
100
AcDbLine
 10
479.2068391080937
 20
405.2239021772803
 30
0.0
 11
479.2068391080937
 21
331.6029657481735
 31
0.0
  0
LINE
  5
1B361
330
1B35D
100
AcDbEntity
  8
DIM
 62
     0
370
    -2
100
AcDbLine
 10
404.2068391080937
 20
405.2239021772803
 30
0.0
 11
404.2068391080937
 21
331.6029657481735
 31
0.0
  0
LINE
  5
1B362
330
1B35D
100
AcDbEntity
  8
DIM
 62
     0
370
    -2
100
AcDbLine
 10
476.2068391080937
 20
331.6029657481735
 30
0.0
 11
407.2068391080937
 21
331.6029657481735
 31
0.0
  0
INSERT
  5
1B363
330
1B35D
100
AcDbEntity
  8
DIM
 62
     0
370
    -2
100
AcDbBlockReference
  2
_DOT
 10
479.2068391080937
 20
331.6029657481735
 30
0.0
 41
3.0
 42
3.0
 43
3.0
  0
INSERT
  5
1B364
330
1B35D
100
AcDbEntity
  8
DIM
 62
     0
370
    -2
100
AcDbBlockReference
  2
_DOT
 10
404.2068391080937
 20
331.6029657481735
 30
0.0
 41
3.0
 42
3.0
 43
3.0
 50
180.0
  0
MTEXT
  5
1B365
330
1B35D
100
AcDbEntity
  8
DIM
 62
     0
100
AcDbMText
 10
441.7068391080937
 20
341.6029657481735
 30
0.0
 40
8.0
 41
0.0
 46
0.0
 71
     5
 72
     1
  1
\A1;75
  7
ＭＳ ゴシック
 73
     1
 44
1.0
  0
POINT
  5
1B366
330
1B35D
100
AcDbEntity
  8
Defpoints
 62
     0
100
AcDbPoint
 10
479.2068391080937
 20
415.2239021772803
 30
0.0
  0
POINT
  5
1B367
330
1B35D
100
AcDbEntity
  8
Defpoints
 62
     0
100
AcDbPoint
 10
404.2068391080937
 20
415.2239021772803
 30
0.0
  0
POINT
  5
1B368
330
1B35D
100
AcDbEntity
  8
Defpoints
 62
     0
100
AcDbPoint
 10
404.2068391080937
 20
331.6029657481735
 30
0.0
  0
ENDBLK
  5
1B35F
330
1B35D
100
AcDbEntity
  8
0
100
AcDbBlockEnd
  0
BLOCK
  5
1B36D
330
1B36C
100
AcDbEntity
  8
0
100
AcDbBlockBegin
  2
*D41
 70
     1
 10
0.0
 20
0.0
 30
0.0
  3
*D41
  1

  0
LINE
  5
1B36F
330
1B36C
100
AcDbEntity
  8
DIM
 62
     0
370
    -2
100
AcDbLine
 10
404.2068391080937
 20
395.2239021772803
 30
0.0
 11
404.2068391080937
 21
331.6029657481735
 31
0.0
  0
LINE
  5
1B370
330
1B36C
100
AcDbEntity
  8
DIM
 62
     0
370
    -2
100
AcDbLine
 10
154.2068391080937
 20
430.5416153481735
 30
0.0
 11
154.2068391080937
 21
331.6029657481735
 31
0.0
  0
LINE
  5
1B371
330
1B36C
100
AcDbEntity
  8
DIM
 62
     0
370
    -2
100
AcDbLine
 10
401.2068391080937
 20
331.6029657481735
 30
0.0
 11
157.2068391080937
 21
331.6029657481735
 31
0.0
  0
INSERT
  5
1B372
330
1B36C
100
AcDbEntity
  8
DIM
 62
     0
370
    -2
100
AcDbBlockReference
  2
_DOT
 10
404.2068391080937
 20
331.6029657481735
 30
0.0
 41
3.0
 42
3.0
 43
3.0
  0
INSERT
  5
1B373
330
1B36C
100
AcDbEntity
  8
DIM
 62
     0
370
    -2
100
AcDbBlockReference
  2
_DOT
 10
154.2068391080937
 20
331.6029657481735
 30
0.0
 41
3.0
 42
3.0
 43
3.0
 50
180.0
  0
MTEXT
  5
1B374
330
1B36C
100
AcDbEntity
  8
DIM
 62
     0
100
AcDbMText
 10
279.2068391080937
 20
341.6029657481735
 30
0.0
 40
8.0
 41
0.0
 46
0.0
 71
     5
 72
     1
  1
\A1;250
  7
ＭＳ ゴシック
 73
     1
 44
1.0
  0
POINT
  5
1B375
330
1B36C
100
AcDbEntity
  8
Defpoints
 62
     0
100
AcDbPoint
 10
404.2068391080937
 20
405.2239021772803
 30
0.0
  0
POINT
  5
1B376
330
1B36C
100
AcDbEntity
  8
Defpoints
 62
     0
100
AcDbPoint
 10
154.2068391080937
 20
440.5416153481735
 30
0.0
  0
POINT
  5
1B377
330
1B36C
100
AcDbEntity
  8
Defpoints
 62
     0
100
AcDbPoint
 10
154.2068391080937
 20
331.6029657481735
 30
0.0
  0
ENDBLK
  5
1B36E
330
1B36C
100
AcDbEntity
  8
0
100
AcDbBlockEnd
  0
BLOCK
  5
1B3B1
330
1B3B0
100
AcDbEntity
  8
0
100
AcDbBlockBegin
  2
*D42
 70
     1
 10
0.0
 20
0.0
 30
0.0
  3
*D42
  1

  0
LINE
  5
1B3B3
330
1B3B0
100
AcDbEntity
  8
DIM
 62
     0
370
    -2
100
AcDbLine
 10
818.8890148828169
 20
584.07479017728
 30
0.0
 11
811.3712420828168
 21
584.07479017728
 31
0.0
  0
LINE
  5
1B3B4
330
1B3B0
100
AcDbEntity
  8
DIM
 62
     0
370
    -2
100
AcDbLine
 10
815.3854603228168
 20
552.07479017728
 30
0.0
 11
811.3712420828168
 21
552.07479017728
 31
0.0
  0
LINE
  5
1B3B5
330
1B3B0
100
AcDbEntity
  8
DIM
 62
     0
370
    -2
100
AcDbLine
 10
811.3712420828168
 20
581.07479017728
 30
0.0
 11
811.3712420828168
 21
555.07479017728
 31
0.0
  0
INSERT
  5
1B3B6
330
1B3B0
100
AcDbEntity
  8
DIM
 62
     0
370
    -2
100
AcDbBlockReference
  2
_DOT
 10
811.3712420828168
 20
584.07479017728
 30
0.0
 41
3.0
 42
3.0
 43
3.0
 50
90.0
  0
INSERT
  5
1B3B7
330
1B3B0
100
AcDbEntity
  8
DIM
 62
     0
370
    -2
100
AcDbBlockReference
  2
_DOT
 10
811.3712420828168
 20
552.07479017728
 30
0.0
 41
3.0
 42
3.0
 43
3.0
 50
270.0
  0
MTEXT
  5
1B3B8
330
1B3B0
100
AcDbEntity
  8
DIM
 62
     0
100
AcDbMText
 10
801.3712420828168
 20
568.07479017728
 30
0.0
 40
8.0
 41
0.0
 46
0.0
 71
     5
 72
     1
  1
\A1;32
  7
ＭＳ ゴシック
 11
0.0
 21
1.0
 31
0.0
 73
     1
 44
1.0
  0
POINT
  5
1B3B9
330
1B3B0
100
AcDbEntity
  8
Defpoints
 62
     0
100
AcDbPoint
 10
828.8890148828169
 20
584.07479017728
 30
0.0
  0
POINT
  5
1B3BA
330
1B3B0
100
AcDbEntity
  8
Defpoints
 62
     0
100
AcDbPoint
 10
825.3854603228168
 20
552.07479017728
 30
0.0
  0
POINT
  5
1B3BB
330
1B3B0
100
AcDbEntity
  8
Defpoints
 62
     0
100
AcDbPoint
 10
811.3712420828168
 20
552.07479017728
 30
0.0
  0
ENDBLK
  5
1B3B2
330
1B3B0
100
AcDbEntity
  8
0
100
AcDbBlockEnd
  0
BLOCK
  5
1B3C0
330
1B3BF
100
AcDbEntity
  8
0
100
AcDbBlockBegin
  2
*D43
 70
     1
 10
0.0
 20
0.0
 30
0.0
  3
*D43
  1

  0
LINE
  5
1B3C2
330
1B3BF
100
AcDbEntity
  8
DIM
 62
     0
370
    -2
100
AcDbLine
 10
145.2068391080937
 20
450.5007901772804
 30
0.0
 11
139.3862950079998
 21
450.5007901772804
 31
0.0
  0
LINE
  5
1B3C3
330
1B3BF
100
AcDbEntity
  8
DIM
 62
     0
370
    -2
100
AcDbLine
 10
145.2068391080937
 20
482.5007901772804
 30
0.0
 11
139.3862950079998
 21
482.5007901772804
 31
0.0
  0
LINE
  5
1B3C4
330
1B3BF
100
AcDbEntity
  8
DIM
 62
     0
370
    -2
100
AcDbLine
 10
139.3862950079998
 20
453.5007901772804
 30
0.0
 11
139.3862950079998
 21
479.5007901772804
 31
0.0
  0
INSERT
  5
1B3C5
330
1B3BF
100
AcDbEntity
  8
DIM
 62
     0
370
    -2
100
AcDbBlockReference
  2
_DOT
 10
139.3862950079998
 20
450.5007901772804
 30
0.0
 41
3.0
 42
3.0
 43
3.0
 50
270.0
  0
INSERT
  5
1B3C6
330
1B3BF
100
AcDbEntity
  8
DIM
 62
     0
370
    -2
100
AcDbBlockReference
  2
_DOT
 10
139.3862950079998
 20
482.5007901772804
 30
0.0
 41
3.0
 42
3.0
 43
3.0
 50
90.0
  0
MTEXT
  5
1B3C7
330
1B3BF
100
AcDbEntity
  8
DIM
 62
     0
100
AcDbMText
 10
129.3862950079998
 20
466.5007901772804
 30
0.0
 40
8.0
 41
0.0
 46
0.0
 71
     5
 72
     1
  1
\A1;%%c32
  7
ＭＳ ゴシック
 11
0.0
 21
1.0
 31
0.0
 73
     1
 44
1.0
  0
POINT
  5
1B3C8
330
1B3BF
100
AcDbEntity
  8
Defpoints
 62
     0
100
AcDbPoint
 10
155.2068391080937
 20
450.5007901772804
 30
0.0
  0
POINT
  5
1B3C9
330
1B3BF
100
AcDbEntity
  8
Defpoints
 62
     0
100
AcDbPoint
 10
155.2068391080937
 20
482.5007901772804
 30
0.0
  0
POINT
  5
1B3CA
330
1B3BF
100
AcDbEntity
  8
Defpoints
 62
     0
100
AcDbPoint
 10
139.3862950079998
 20
482.5007901772804
 30
0.0
  0
ENDBLK
  5
1B3C1
330
1B3BF
100
AcDbEntity
  8
0
100
AcDbBlockEnd
  0
BLOCK
  5
1B3D3
330
1B3D2
100
AcDbEntity
  8
0
100
AcDbBlockBegin
  2
*D44
 70
     1
 10
0.0
 20
0.0
 30
0.0
  3
*D44
  1

  0
LINE
  5
1B3D5
330
1B3D2
100
AcDbEntity
  8
DIM
 62
     0
370
    -2
100
AcDbLine
 10
123.3584664068479
 20
466.5007901772804
 30
0.0
 11
103.0369164479999
 21
466.5007901772804
 31
0.0
  0
LINE
  5
1B3D6
330
1B3D2
100
AcDbEntity
  8
DIM
 62
     0
370
    -2
100
AcDbLine
 10
374.775992
 20
362.2239021772803
 30
0.0
 11
103.0369164479999
 21
362.2239021772803
 31
0.0
  0
LINE
  5
1B3D7
330
1B3D2
100
AcDbEntity
  8
DIM
 62
     0
370
    -2
100
AcDbLine
 10
103.0369164479999
 20
463.5007901772804
 30
0.0
 11
103.0369164479999
 21
365.2239021772803
 31
0.0
  0
INSERT
  5
1B3D8
330
1B3D2
100
AcDbEntity
  8
DIM
 62
     0
370
    -2
100
AcDbBlockReference
  2
_DOT
 10
103.0369164479999
 20
466.5007901772804
 30
0.0
 41
3.0
 42
3.0
 43
3.0
 50
90.0
  0
INSERT
  5
1B3D9
330
1B3D2
100
AcDbEntity
  8
DIM
 62
     0
370
    -2
100
AcDbBlockReference
  2
_DOT
 10
103.0369164479999
 20
362.2239021772803
 30
0.0
 41
3.0
 42
3.0
 43
3.0
 50
270.0
  0
MTEXT
  5
1B3DA
330
1B3D2
100
AcDbEntity
  8
DIM
 62
     0
100
AcDbMText
 10
93.03691644799989
 20
414.3623461772802
 30
0.0
 40
8.0
 41
0.0
 46
0.0
 71
     5
 72
     1
  1
\A1;115
  7
ＭＳ ゴシック
 11
0.0
 21
1.0
 31
0.0
 73
     1
 44
1.0
  0
POINT
  5
1B3DB
330
1B3D2
100
AcDbEntity
  8
Defpoints
 62
     0
100
AcDbPoint
 10
133.3584664068479
 20
466.5007901772804
 30
0.0
  0
POINT
  5
1B3DC
330
1B3D2
100
AcDbEntity
  8
Defpoints
 62
     0
100
AcDbPoint
 10
384.775992
 20
362.2239021772803
 30
0.0
  0
POINT
  5
1B3DD
330
1B3D2
100
AcDbEntity
  8
Defpoints
 62
     0
100
AcDbPoint
 10
103.0369164479999
 20
362.2239021772803
 30
0.0
  0
ENDBLK
  5
1B3D4
330
1B3D2
100
AcDbEntity
  8
0
100
AcDbBlockEnd
  0
ENDSEC
  0
SECTION
  2
ENTITIES
  0
MTEXT
  5
177
330
A
100
AcDbEntity
  8
TEMPLATE
390
1D
100
AcDbMText
 10
23.76064336431923
 20
103.1195254894285
 30
0.0
 40
4.886523437499998
 41
0.0
 46
0.0
 71
     1
 72
     1
  1
品名
  7
ＭＳ ゴシック
 73
     1
 44
0.7828267384257843
  0
MTEXT
  5
178
330
A
100
AcDbEntity
  8
TEMPLATE
390
1D
100
AcDbMText
 10
23.76064336431923
 20
77.6195254894284
 30
0.0
 40
4.886523437499998
 41
0.0
 46
0.0
 71
     1
 72
     1
  1
仕様
  7
ＭＳ ゴシック
 73
     1
 44
0.7828267384257843
  0
LINE
  5
179
330
A
100
AcDbEntity
  8
TEMPLATE
390
1D
100
AcDbLine
 10
606.6606433641745
 20
80.14400205192852
 30
0.0
 11
21.66064336417462
 21
80.14400205192852
 31
0.0
  0
LWPOLYLINE
  5
17A
330
A
100
AcDbEntity
  8
TEMPLATE
390
1D
100
AcDbPolyline
 90
        5
 70
   128
 43
0.0
 10
606.6606433641745
 20
869.1440020519278
 10
21.66064336417462
 20
869.1440020519278
 10
21.66064336417462
 20
29.14400205192847
 10
606.6606433641745
 20
29.14400205192847
 10
606.6606433641745
 20
869.1440020519278
  0
LINE
  5
17B
330
A
100
AcDbEntity
  8
TEMPLATE
390
1D
100
AcDbLine
 10
606.6606433641745
 20
105.6440020519285
 30
0.0
 11
21.66064336417462
 21
105.6440020519285
 31
0.0
  0
LINE
  5
17C
330
A
100
AcDbEntity
  8
TEMPLATE
390
1D
100
AcDbLine
 10
606.6606433643196
 20
54.64400205192847
 30
0.0
 11
380.760643364319
 21
54.64400205192847
 31
0.0
  0
MTEXT
  5
17E
330
A
100
AcDbEntity
  8
TEMPLATE
390
1D
100
AcDbMText
 10
389.7220652399973
 20
45.67088370993605
 30
0.0
 40
7.329785156250001
 41
0.0
 46
0.0
 71
     1
 72
     1
  1
大洋金物株式会社 ティーフォルム事業部
  7
ＭＳ ゴシック
 73
     1
 44
0.7828267384257843
  0
MTEXT
  5
180
330
A
100
AcDbEntity
  8
TEMPLATE
390
1D
100
AcDbMText
 10
549.360643364397
 20
69.04478720817846
 30
0.0
 40
7.329785156250001
 41
0.0
 46
7.329785156250001
 71
     1
 72
     1
  1
{1:3}
  7
ＭＳ ゴシック
 73
     1
 44
0.7828267384257843
1001
ACAD
1000
ACAD_MTEXT_DEFINED_HEIGHT_BEGIN
1070
    46
1040
7.329785156250001
1000
ACAD_MTEXT_DEFINED_HEIGHT_END
  0
MTEXT
  5
181
330
A
100
AcDbEntity
  8
TEMPLATE
390
1D
100
AcDbMText
 10
533.4606433643969
 20
77.6195254894284
 30
0.0
 40
4.886523437499998
 41
0.0
 46
0.0
 71
     1
 72
     1
  1
縮尺
  7
ＭＳ ゴシック
 73
     1
 44
0.7828267384257843
  0
LINE
  5
182
330
A
100
AcDbEntity
  8
TEMPLATE
390
1D
100
AcDbLine
 10
531.360643364397
 20
54.64400205192847
 30
0.0
 11
531.360643364397
 21
80.14400205192852
 31
0.0
  0
MTEXT
  5
183
330
A
100
AcDbEntity
  8
TEMPLATE
390
1D
100
AcDbMText
 10
458.1606433643969
 20
77.6195254894284
 30
0.0
 40
4.886523437499998
 41
0.0
 46
0.0
 71
     1
 72
     1
  1
容量
  7
ＭＳ ゴシック
 73
     1
 44
0.7828267384257843
  0
LINE
  5
184
330
A
100
AcDbEntity
  8
TEMPLATE
390
1D
100
AcDbLine
 10
456.060643364397
 20
54.64400205192847
 30
0.0
 11
456.060643364397
 21
80.14400205192852
 31
0.0
  0
MTEXT
  5
185
330
A
100
AcDbEntity
  8
TEMPLATE
390
1D
100
AcDbMText
 10
382.860643364397
 20
103.1195254894285
 30
0.0
 40
4.886523437499998
 41
0.0
 46
0.0
 71
     1
 72
     1
  1
品番
  7
ＭＳ ゴシック
 73
     1
 44
0.7828267384257843
  0
MTEXT
  5
186
330
A
100
AcDbEntity
  8
TEMPLATE
390
1D
100
AcDbMText
 10
382.860643364397
 20
77.6195254894284
 30
0.0
 40
4.886523437499998
 41
0.0
 46
0.0
 71
     1
 72
     1
  1
重量
  7
ＭＳ ゴシック
 73
     1
 44
0.7828267384257843
  0
MTEXT
  5
187
330
A
100
AcDbEntity
  8
TEMPLATE
390
1D
100
AcDbMText
 10
398.760643364397
 20
94.54478720817846
 30
0.0
 40
7.329785156250001
 41
0.0
 46
7.329785156250001
 71
     1
 72
     1
  1
{FAC73-5777}
  7
ＭＳ ゴシック
 73
     1
 44
0.7828267384257843
1001
ACAD
1000
ACAD_MTEXT_DEFINED_HEIGHT_BEGIN
1070
    46
1040
7.329785156250001
1000
ACAD_MTEXT_DEFINED_HEIGHT_END
  0
LINE
  5
188
330
A
100
AcDbEntity
  8
TEMPLATE
390
1D
100
AcDbLine
 10
380.760643364397
 20
29.14400205192847
 30
0.0
 11
380.760643364397
 21
105.6440020519285
 31
0.0
  0
MTEXT
  5
189
330
A
100
AcDbEntity
  8
TEMPLATE
390
1D
100
AcDbMText
 10
39.66064336431923
 20
94.54478720817846
 30
0.0
 40
7.329785156250001
 41
0.0
 46
7.549678710937501
 71
     1
 72
     1
  1
{Pトラップ - VIEGA -}
  7
ＭＳ ゴシック
 73
     1
 44
0.7828267384257843
1001
ACAD
1000
ACAD_MTEXT_DEFINED_HEIGHT_BEGIN
1070
    46
1040
7.549678710937501
1000
ACAD_MTEXT_DEFINED_HEIGHT_END
  0
LWPOLYLINE
  5
D69
330
A
100
AcDbEntity
  8
BORDER
100
AcDbPolyline
 90
        4
 70
     1
 43
0.0
 10
0.0
 20
0.0
 10
0.0
 20
891.0
 10
630.0
 20
891.0
 10
630.0
 20
0.0
  0
MTEXT
  5
36AC
102
{ACAD_XDICTIONARY
360
36AE
102
}
330
A
100
AcDbEntity
  8
TEMPLATE
 48
0.05
100
AcDbMText
 10
22.06848147481188
 20
25.15049698669364
 30
0.0
 40
7.0
 41
0.0
 46
7.0
 71
     1
 72
     1
  1
{20190826N}
  7
ＭＳ ゴシック
 73
     1
 44
1.0
1001
ACAD
1000
ACAD_MTEXT_DEFINED_HEIGHT_BEGIN
1070
    46
1040
7.0
1000
ACAD_MTEXT_DEFINED_HEIGHT_END
  0
HATCH
  5
172F9
102
{ACAD_REACTORS
330
1730A
102
}
330
A
100
AcDbEntity
  8
TEMPLATE
100
AcDbHatch
 10
0.0
 20
0.0
 30
0.0
210
0.0
220
0.0
230
1.0
  2
SOLID
 70
     1
 71
     1
 91
        6
 92
        1
 93
        8
 72
     1
 10
580.3195574690816
 20
45.81237511424545
 11
580.3195574690816
 21
44.03955282504737
 72
     1
 10
580.3195574690816
 20
44.03955282504737
 11
577.5113800039879
 21
44.03955282504737
 72
     1
 10
577.5113800039879
 20
44.03955282504737
 11
577.5113800039879
 21
36.81237511467916
 72
     1
 10
577.5113800039879
 20
36.81237511467916
 11
575.0415960580052
 21
36.81237511467916
 72
     1
 10
575.0415960580052
 20
36.81237511467916
 11
575.0415960580052
 21
44.03955282504737
 72
     1
 10
575.0415960580052
 20
44.03955282504737
 11
572.2831856276422
 21
44.03955282504737
 72
     1
 10
572.2831856276422
 20
44.03955282504737
 11
572.2831856276422
 21
45.81237511424545
 72
     1
 10
572.2831856276422
 20
45.81237511424545
 11
580.3195574690816
 21
45.81237511424545
 97
        1
330
172FA
 92
        1
 93
        1
 72
     4
 94
        3
 73
     0
 74
     1
 95
       56
 96
       52
 40
0.0
 40
0.0
 40
0.0
 40
0.0
 40
1.0
 40
1.0
 40
1.0
 40
2.0
 40
2.0
 40
2.0
 40
3.0
 40
3.0
 40
3.0
 40
4.0
 40
4.0
 40
4.0
 40
5.0
 40
5.0
 40
5.0
 40
6.0
 40
6.0
 40
6.0
 40
7.0
 40
7.0
 40
7.0
 40
8.0
 40
8.0
 40
8.0
 40
9.0
 40
9.0
 40
9.0
 40
10.0
 40
10.0
 40
10.0
 40
11.0
 40
11.0
 40
11.0
 40
12.0
 40
12.0
 40
12.0
 40
13.0
 40
13.0
 40
13.0
 40
14.0
 40
14.0
 40
14.0
 40
15.0
 40
15.0
 40
15.0
 40
16.0
 40
16.0
 40
16.0
 40
17.0
 40
17.0
 40
17.0
 40
17.0
 10
584.0822130993691
 20
45.59806442612169
 10
584.4283729539446
 20
45.69550069232489
 10
584.8752496819451
 20
45.61399880405779
 10
584.8752496819451
 20
45.61399880405779
 10
584.8752496819451
 20
45.61399880405779
 10
584.6605596038704
 20
44.96972771633077
 10
584.6605596038704
 20
44.96972771633077
 10
584.6605596038704
 20
44.96972771633077
 10
584.2218509183414
 20
45.07124800376958
 10
583.8834797162866
 20
44.80442528303579
 10
583.6205401632852
 20
44.59576081006296
 10
583.4501940753495
 20
44.04131587246591
 10
583.3848497355779
 20
43.83050896212374
 10
583.3848497355779
 20
43.83050896212374
 10
583.0935228874299
 20
42.93630916500408
 10
583.0935228874299
 20
42.93630916500408
 10
583.0935228874299
 20
42.93630916500408
 10
584.0487598325259
 20
42.93630916500408
 10
584.0487598325259
 20
42.93630916500408
 10
584.0487598325259
 20
42.93630916500408
 10
583.9001951911804
 20
42.37351764848811
 10
583.9001951911804
 20
42.37351764848811
 10
583.9001951911804
 20
42.37351764848811
 10
582.9371695935639
 20
42.37351764848811
 10
582.9371695935639
 20
42.37351764848811
 10
582.9371695935639
 20
42.37351764848811
 10
581.2141366561519
 20
36.81237511467916
 10
581.2141366561519
 20
36.81237511467916
 10
581.2141366561519
 20
36.81237511467916
 10
580.6746664630858
 20
36.81237511467916
 10
580.6746664630858
 20
36.81237511467916
 10
580.6746664630858
 20
36.81237511467916
 10
582.3992615944129
 20
42.37351764848811
 10
582.3992615944129
 20
42.37351764848811
 10
582.3992615944129
 20
42.37351764848811
 10
581.6886418993973
 20
42.37351764848811
 10
581.6886418993973
 20
42.37351764848811
 10
581.6886418993973
 20
42.37351764848811
 10
581.8376082477495
 20
42.93630916500408
 10
581.8376082477495
 20
42.93630916500408
 10
581.8376082477495
 20
42.93630916500408
 10
582.5556148882789
 20
42.93630916500408
 10
582.5556148882789
 20
42.93630916500408
 10
582.5556148882789
 20
42.93630916500408
 10
582.8095829847954
 20
43.71615636752356
 10
582.8095829847954
 20
43.71615636752356
 10
583.0149445334899
 20
44.36997915518985
 10
583.1891961062141
 20
44.72100412795849
 10
583.3385641615731
 20
44.98566209426688
 10
583.4863477059606
 20
45.25054323113452
 10
583.7788350410173
 20
45.51073778625616
 10
584.0822130993691
 20
45.59806442612169
 97
        1
330
17305
 92
        1
 93
        1
 72
     4
 94
        3
 73
     0
 74
     1
 95
       32
 96
       28
 40
0.0
 40
0.0
 40
0.0
 40
0.0
 40
1.0
 40
1.0
 40
1.0
 40
2.0
 40
2.0
 40
2.0
 40
3.0
 40
3.0
 40
3.0
 40
4.0
 40
4.0
 40
4.0
 40
5.0
 40
5.0
 40
5.0
 40
6.0
 40
6.0
 40
6.0
 40
7.0
 40
7.0
 40
7.0
 40
8.0
 40
8.0
 40
8.0
 40
9.0
 40
9.0
 40
9.0
 40
9.0
 10
585.394880012287
 20
42.5961972325865
 10
585.0701222143513
 20
42.17612328876155
 10
584.8200372855671
 20
41.79807236125814
 10
584.4151612568324
 20
40.60984535222244
 10
584.0429350809274
 20
39.52296009417805
 10
583.8060618492556
 20
38.73222216836346
 10
583.7702876085951
 20
37.76919657074652
 10
583.7430608003568
 20
37.0525512706291
 10
584.1794485120689
 20
36.81237511467916
 10
584.8192785056652
 20
36.81237511467916
 10
585.0950280487724
 20
36.81237511467916
 10
585.7908738527602
 20
36.82991632064248
 10
586.2864017626947
 20
37.44247487188884
 10
586.6332980801157
 20
37.87283697849896
 10
586.9530122234106
 20
38.3189549265978
 10
587.3816335996579
 20
39.78237355234214
 10
587.7383047875777
 20
41.00579455858404
 10
587.985265328531
 20
41.79651016734281
 10
587.9670099767781
 20
42.24671213667737
 10
587.9670099767781
 20
42.24671213667737
 10
587.9670099767781
 20
42.24671213667737
 10
587.9670099767781
 20
42.24671213667737
 10
587.8506934812557
 20
42.9977703370432
 10
587.305398536591
 20
43.1564669217822
 10
586.9938524357677
 20
43.1564669217822
 10
586.6869929166902
 20
43.1564669217822
 10
585.8647433078983
 20
43.20955919784658
 10
585.394880012287
 20
42.5961972325865
 97
        1
330
17308
 92
        1
 93
        1
 72
     4
 94
        3
 73
     0
 74
     1
 95
       38
 96
       34
 40
0.0
 40
0.0
 40
0.0
 40
0.0
 40
1.0
 40
1.0
 40
1.0
 40
2.0
 40
2.0
 40
2.0
 40
3.0
 40
3.0
 40
3.0
 40
4.0
 40
4.0
 40
4.0
 40
5.0
 40
5.0
 40
5.0
 40
6.0
 40
6.0
 40
6.0
 40
7.0
 40
7.0
 40
7.0
 40
8.0
 40
8.0
 40
8.0
 40
9.0
 40
9.0
 40
9.0
 40
10.0
 40
10.0
 40
10.0
 40
11.0
 40
11.0
 40
11.0
 40
11.0
 10
589.9393467460162
 20
42.91472857191693
 10
589.9393467460162
 20
42.91472857191693
 10
590.4939702200608
 20
42.91472857191693
 10
590.4939702200608
 20
42.91472857191693
 10
590.4939702200608
 20
42.91472857191693
 10
590.2462062650937
 20
42.12146881878184
 10
590.2462062650937
 20
42.12146881878184
 10
590.4344729489438
 20
42.34414840288034
 10
590.7316022316344
 20
42.6407197591727
 10
590.9867754491712
 20
42.79026635097919
 10
591.3679507645053
 20
43.01294593507769
 10
591.5857652304104
 20
43.04231518068534
 10
591.8253165087943
 20
43.03646811203098
 10
591.8253165087943
 20
43.03646811203098
 10
591.591210592058
 20
42.28639186212602
 10
591.591210592058
 20
42.28639186212602
 10
591.4387404659245
 20
42.35095510493986
 10
590.968877170313
 20
42.22805507791734
 10
590.6993317687555
 20
42.03416449597226
 10
590.4562543955343
 20
41.85933267979383
 10
590.2882069643596
 20
41.71056718494513
 10
590.0890941913261
 20
41.33657796162161
 10
589.8914989780961
 20
40.96203081189956
 10
589.735547391237
 20
40.36480407807901
 10
589.4671624765878
 20
39.49841133265191
 10
589.4671624765878
 20
39.49841133265191
 10
588.6289784898598
 20
36.81237511467916
 10
588.6289784898598
 20
36.81237511467916
 10
588.6289784898598
 20
36.81237511467916
 10
588.0906911007581
 20
36.81237511467916
 10
588.0906911007581
 20
36.81237511467916
 10
588.0906911007581
 20
36.81237511467916
 10
589.9393467460162
 20
42.91472857191693
 10
589.9393467460162
 20
42.91472857191693
 97
        1
330
17306
 92
        1
 93
        1
 72
     4
 94
        3
 73
     0
 74
     1
 95
      104
 96
      100
 40
0.0
 40
0.0
 40
0.0
 40
0.0
 40
1.0
 40
1.0
 40
1.0
 40
2.0
 40
2.0
 40
2.0
 40
3.0
 40
3.0
 40
3.0
 40
4.0
 40
4.0
 40
4.0
 40
5.0
 40
5.0
 40
5.0
 40
6.0
 40
6.0
 40
6.0
 40
7.0
 40
7.0
 40
7.0
 40
8.0
 40
8.0
 40
8.0
 40
9.0
 40
9.0
 40
9.0
 40
10.0
 40
10.0
 40
10.0
 40
11.0
 40
11.0
 40
11.0
 40
12.0
 40
12.0
 40
12.0
 40
13.0
 40
13.0
 40
13.0
 40
14.0
 40
14.0
 40
14.0
 40
15.0
 40
15.0
 40
15.0
 40
16.0
 40
16.0
 40
16.0
 40
17.0
 40
17.0
 40
17.0
 40
18.0
 40
18.0
 40
18.0
 40
19.0
 40
19.0
 40
19.0
 40
20.0
 40
20.0
 40
20.0
 40
21.0
 40
21.0
 40
21.0
 40
22.0
 40
22.0
 40
22.0
 40
23.0
 40
23.0
 40
23.0
 40
24.0
 40
24.0
 40
24.0
 40
25.0
 40
25.0
 40
25.0
 40
26.0
 40
26.0
 40
26.0
 40
27.0
 40
27.0
 40
27.0
 40
28.0
 40
28.0
 40
28.0
 40
29.0
 40
29.0
 40
29.0
 40
30.0
 40
30.0
 40
30.0
 40
31.0
 40
31.0
 40
31.0
 40
32.0
 40
32.0
 40
32.0
 40
33.0
 40
33.0
 40
33.0
 40
33.0
 10
592.9921860953021
 20
42.91803149619498
 10
592.9921860953021
 20
42.91803149619498
 10
593.4764215749343
 20
42.91803149619498
 10
593.4764215749343
 20
42.91803149619498
 10
593.4764215749343
 20
42.91803149619498
 10
593.2317820077977
 20
42.12401296315816
 10
593.2317820077977
 20
42.12401296315816
 10
593.4441064779436
 20
42.4569388035653
 10
593.6346941356106
 20
42.6053249084632
 10
593.8879034522253
 20
42.79707305303871
 10
594.1418715487417
 20
42.98609851679041
 10
594.4433303402833
 20
43.02461775533059
 10
594.6525750567104
 20
43.02461775533059
 10
594.9116314419795
 20
43.02461775533059
 10
595.1617163707637
 20
42.97346706313235
 10
595.2931638302083
 20
42.68952716049805
 10
595.3939030206897
 20
42.46686989345537
 10
595.3985896024354
 20
42.44060271862234
 10
595.369800600282
 20
42.0010906190797
 10
595.6330972261784
 20
42.451694295421
 10
595.8275680515779
 20
42.64578573086951
 10
596.1581729181679
 20
42.83226705024479
 10
596.5051138697007
 20
43.02461775533059
 10
596.7073510305648
 20
43.0390122564073
 10
596.9423049954265
 20
43.00437618559952
 10
597.2884425329456
 20
42.95324781045711
 10
597.5093813866816
 20
42.82974522292441
 10
597.6248944681903
 20
42.45441697624481
 10
597.7408092567058
 20
42.0802492164738
 10
597.678187597758
 20
41.87955193246919
 10
597.5350460010044
 20
41.28388739256386
 10
597.4697016612328
 20
41.01260126064356
 10
597.3751666123011
 20
40.68411651436711
 10
597.251485488321
 20
40.29325559675826
 10
597.251485488321
 20
40.29325559675826
 10
596.1581729181679
 20
36.81237511467916
 10
596.1581729181679
 20
36.81237511467916
 10
596.1581729181679
 20
36.81237511467916
 10
595.5895343329975
 20
36.81237511467916
 10
595.5895343329975
 20
36.81237511467916
 10
595.5895343329975
 20
36.81237511467916
 10
596.5467574960716
 20
39.85548422757834
 10
596.5467574960716
 20
39.85548422757834
 10
596.7466736831187
 20
40.49218983334411
 10
596.8820043102957
 20
40.95716569370618
 10
596.952035231813
 20
41.24869339535778
 10
597.0399197980768
 20
41.61234982178448
 10
597.0749129417799
 20
41.73234863153571
 10
597.0333139495209
 20
41.99702891489992
 10
596.9951964179876
 20
42.24340921239921
 10
596.8707118799938
 20
42.40384652750092
 10
596.6575839958344
 20
42.40384652750092
 10
596.4304410005492
 20
42.40384652750092
 10
596.2464591914385
 20
42.37856130312887
 10
595.9890096341963
 20
42.11992894192245
 10
595.7315154428426
 20
41.85933267979383
 10
595.5187446315782
 20
41.55343279412157
 10
595.3519023214238
 20
41.20162672439526
 10
595.1854170841642
 20
40.8476782172995
 10
595.0166108730879
 20
40.39903844188016
 10
594.8454836881943
 20
39.85548422757834
 10
594.8454836881943
 20
39.85548422757834
 10
593.8879034522253
 20
36.81237511467916
 10
593.8879034522253
 20
36.81237511467916
 10
593.8879034522253
 20
36.81237511467916
 10
593.3530975238492
 20
36.81237511467916
 10
593.3530975238492
 20
36.81237511467916
 10
593.3530975238492
 20
36.81237511467916
 10
594.4479722879174
 20
40.29169340284293
 10
594.4479722879174
 20
40.29169340284293
 10
594.5634853694261
 20
40.66197799488166
 10
594.6502540828932
 20
40.96379385931832
 10
594.7074303801934
 20
41.19968514052912
 10
594.804643475837
 20
41.60574397322828
 10
594.8318702840753
 20
41.88033302942674
 10
594.7583579018323
 20
42.12401296315816
 10
594.6860060064979
 20
42.36691179993202
 10
594.5588434217922
 20
42.42895321542549
 10
594.3464743175347
 20
42.42895321542549
 10
594.1683395770782
 20
42.42895321542549
 10
593.9944897113609
 20
42.3525172988552
 10
593.7961357182293
 20
42.20042656267251
 10
593.5464078623398
 20
42.00908012510374
 10
593.4464720858722
 20
41.85194573428019
 10
593.3239514488008
 20
41.66524124434543
 10
593.1586266984499
 20
41.41825838633597
 10
593.0812311484743
 20
41.25199631963583
 10
592.941615646558
 20
40.88715708924472
 10
592.8019555105301
 20
40.52017542148403
 10
592.6697492711836
 20
40.09311623915196
 10
592.5775351960687
 20
39.7977276868239
 10
592.5775351960687
 20
39.7977276868239
 10
591.6382549459648
 20
36.81237511467916
 10
591.6382549459648
 20
36.81237511467916
 10
591.6382549459648
 20
36.81237511467916
 10
591.0781861102724
 20
36.81237511467916
 10
591.0781861102724
 20
36.81237511467916
 10
591.0781861102724
 20
36.81237511467916
 10
592.9921860953021
 20
42.91803149619498
 10
592.9921860953021
 20
42.91803149619498
 97
        1
330
17307
 92
       16
 93
        1
 72
     4
 94
        3
 73
     0
 74
     1
 95
       29
 96
       25
 40
0.0
 40
0.0
 40
0.0
 40
0.0
 40
1.0
 40
1.0
 40
1.0
 40
2.0
 40
2.0
 40
2.0
 40
3.0
 40
3.0
 40
3.0
 40
4.0
 40
4.0
 40
4.0
 40
5.0
 40
5.0
 40
5.0
 40
6.0
 40
6.0
 40
6.0
 40
7.0
 40
7.0
 40
7.0
 40
8.0
 40
8.0
 40
8.0
 40
8.0
 10
584.3513791109762
 20
37.94925057801331
 10
584.3490135030473
 20
38.37439049353518
 10
584.4832282774277
 20
39.12973356864027
 10
584.82704484113
 20
40.1403837636178
 10
585.2953459428262
 20
41.50888795047954
 10
585.5761837746858
 20
42.00908012510374
 10
585.821939194619
 20
42.25255920533161
 10
586.1809759904676
 20
42.60708795588196
 10
586.6636492761844
 20
42.62476306418078
 10
586.8060320930364
 20
42.60708795588196
 10
587.0086709609071
 20
42.58276236491495
 10
587.2949095203024
 20
42.45013210150578
 10
587.3120043851471
 20
42.00363476345613
 10
587.325662423378
 20
41.621499814717
 10
587.2155500694051
 20
40.90583646506057
 10
586.8301345134438
 20
39.78237355234214
 10
586.3859358321553
 20
38.47687041437903
 10
586.1191131114214
 20
37.96366739614584
 10
585.9052264473606
 20
37.74000586158636
 10
585.5022696854361
 20
37.32071301471897
 10
585.0701222143513
 20
37.36097298362186
 10
585.006340068495
 20
37.36097298362186
 10
584.923499156872
 20
37.36097298362186
 10
584.3525395978846
 20
37.45086608491963
 10
584.3513791109762
 20
37.94925057801331
 97
        1
330
17309
 75
     0
 76
     1
 98
        1
 10
557.776987685974
 20
21.56103299246715
1001
ACAD
1010
0.0
1020
0.0
1030
0.0
  0
POLYLINE
  5
172FA
102
{ACAD_REACTORS
330
172F9
330
1730A
102
}
330
A
100
AcDbEntity
  8
TEMPLATE
100
AcDb2dPolyline
 66
     1
 10
0.0
 20
0.0
 30
0.0
  0
VERTEX
  5
172FB
330
172FA
100
AcDbEntity
  8
TEMPLATE
100
AcDbVertex
100
AcDb2dVertex
 10
580.3195574690816
 20
45.81237511424545
 30
0.0
  0
VERTEX
  5
172FC
330
172FA
100
AcDbEntity
  8
TEMPLATE
100
AcDbVertex
100
AcDb2dVertex
 10
580.3195574690816
 20
44.03955282504737
 30
0.0
  0
VERTEX
  5
172FD
330
172FA
100
AcDbEntity
  8
TEMPLATE
100
AcDbVertex
100
AcDb2dVertex
 10
577.5113800039879
 20
44.03955282504737
 30
0.0
  0
VERTEX
  5
172FE
330
172FA
100
AcDbEntity
  8
TEMPLATE
100
AcDbVertex
100
AcDb2dVertex
 10
577.5113800039879
 20
36.81237511467916
 30
0.0
  0
VERTEX
  5
172FF
330
172FA
100
AcDbEntity
  8
TEMPLATE
100
AcDbVertex
100
AcDb2dVertex
 10
575.0415960580052
 20
36.81237511467916
 30
0.0
  0
VERTEX
  5
17300
330
172FA
100
AcDbEntity
  8
TEMPLATE
100
AcDbVertex
100
AcDb2dVertex
 10
575.0415960580052
 20
44.03955282504737
 30
0.0
  0
VERTEX
  5
17301
330
172FA
100
AcDbEntity
  8
TEMPLATE
100
AcDbVertex
100
AcDb2dVertex
 10
572.2831856276422
 20
44.03955282504737
 30
0.0
  0
VERTEX
  5
17302
330
172FA
100
AcDbEntity
  8
TEMPLATE
100
AcDbVertex
100
AcDb2dVertex
 10
572.2831856276422
 20
45.81237511424545
 30
0.0
  0
VERTEX
  5
17303
330
172FA
100
AcDbEntity
  8
TEMPLATE
100
AcDbVertex
100
AcDb2dVertex
 10
580.3195574690816
 20
45.81237511424545
 30
0.0
  0
SEQEND
  5
17304
330
172FA
100
AcDbEntity
  8
TEMPLATE
  0
SPLINE
  5
17305
102
{ACAD_REACTORS
330
172F9
330
1730A
102
}
330
A
100
AcDbEntity
  8
TEMPLATE
100
AcDbSpline
210
0.0
220
0.0
230
1.0
 70
    11
 71
     3
 72
    56
 73
    52
 74
     0
 42
0.000000001
 43
0.0000000001
 40
0.0
 40
0.0
 40
0.0
 40
0.0
 40
1.0
 40
1.0
 40
1.0
 40
2.0
 40
2.0
 40
2.0
 40
3.0
 40
3.0
 40
3.0
 40
4.0
 40
4.0
 40
4.0
 40
5.0
 40
5.0
 40
5.0
 40
6.0
 40
6.0
 40
6.0
 40
7.0
 40
7.0
 40
7.0
 40
8.0
 40
8.0
 40
8.0
 40
9.0
 40
9.0
 40
9.0
 40
10.0
 40
10.0
 40
10.0
 40
11.0
 40
11.0
 40
11.0
 40
12.0
 40
12.0
 40
12.0
 40
13.0
 40
13.0
 40
13.0
 40
14.0
 40
14.0
 40
14.0
 40
15.0
 40
15.0
 40
15.0
 40
16.0
 40
16.0
 40
16.0
 40
17.0
 40
17.0
 40
17.0
 40
17.0
 10
584.0822130993691
 20
45.59806442612169
 30
0.0
 10
584.4283729539446
 20
45.69550069232489
 30
0.0
 10
584.8752496819451
 20
45.61399880405779
 30
0.0
 10
584.8752496819451
 20
45.61399880405779
 30
0.0
 10
584.8752496819451
 20
45.61399880405779
 30
0.0
 10
584.6605596038704
 20
44.96972771633077
 30
0.0
 10
584.6605596038704
 20
44.96972771633077
 30
0.0
 10
584.6605596038704
 20
44.96972771633077
 30
0.0
 10
584.2218509183414
 20
45.07124800376958
 30
0.0
 10
583.8834797162866
 20
44.80442528303579
 30
0.0
 10
583.6205401632852
 20
44.59576081006296
 30
0.0
 10
583.4501940753495
 20
44.04131587246591
 30
0.0
 10
583.3848497355779
 20
43.83050896212374
 30
0.0
 10
583.3848497355779
 20
43.83050896212374
 30
0.0
 10
583.0935228874299
 20
42.93630916500408
 30
0.0
 10
583.0935228874299
 20
42.93630916500408
 30
0.0
 10
583.0935228874299
 20
42.93630916500408
 30
0.0
 10
584.0487598325259
 20
42.93630916500408
 30
0.0
 10
584.0487598325259
 20
42.93630916500408
 30
0.0
 10
584.0487598325259
 20
42.93630916500408
 30
0.0
 10
583.9001951911804
 20
42.37351764848811
 30
0.0
 10
583.9001951911804
 20
42.37351764848811
 30
0.0
 10
583.9001951911804
 20
42.37351764848811
 30
0.0
 10
582.9371695935639
 20
42.37351764848811
 30
0.0
 10
582.9371695935639
 20
42.37351764848811
 30
0.0
 10
582.9371695935639
 20
42.37351764848811
 30
0.0
 10
581.2141366561519
 20
36.81237511467916
 30
0.0
 10
581.2141366561519
 20
36.81237511467916
 30
0.0
 10
581.2141366561519
 20
36.81237511467916
 30
0.0
 10
580.6746664630858
 20
36.81237511467916
 30
0.0
 10
580.6746664630858
 20
36.81237511467916
 30
0.0
 10
580.6746664630858
 20
36.81237511467916
 30
0.0
 10
582.3992615944129
 20
42.37351764848811
 30
0.0
 10
582.3992615944129
 20
42.37351764848811
 30
0.0
 10
582.3992615944129
 20
42.37351764848811
 30
0.0
 10
581.6886418993973
 20
42.37351764848811
 30
0.0
 10
581.6886418993973
 20
42.37351764848811
 30
0.0
 10
581.6886418993973
 20
42.37351764848811
 30
0.0
 10
581.8376082477495
 20
42.93630916500408
 30
0.0
 10
581.8376082477495
 20
42.93630916500408
 30
0.0
 10
581.8376082477495
 20
42.93630916500408
 30
0.0
 10
582.5556148882789
 20
42.93630916500408
 30
0.0
 10
582.5556148882789
 20
42.93630916500408
 30
0.0
 10
582.5556148882789
 20
42.93630916500408
 30
0.0
 10
582.8095829847954
 20
43.71615636752356
 30
0.0
 10
582.8095829847954
 20
43.71615636752356
 30
0.0
 10
583.0149445334899
 20
44.36997915518985
 30
0.0
 10
583.1891961062141
 20
44.72100412795849
 30
0.0
 10
583.3385641615731
 20
44.98566209426688
 30
0.0
 10
583.4863477059606
 20
45.25054323113452
 30
0.0
 10
583.7788350410173
 20
45.51073778625616
 30
0.0
 10
584.0822130993691
 20
45.59806442612169
 30
0.0
  0
SPLINE
  5
17306
102
{ACAD_REACTORS
330
172F9
330
1730A
102
}
330
A
100
AcDbEntity
  8
TEMPLATE
100
AcDbSpline
210
0.0
220
0.0
230
1.0
 70
    11
 71
     3
 72
    38
 73
    34
 74
     0
 42
0.000000001
 43
0.0000000001
 40
0.0
 40
0.0
 40
0.0
 40
0.0
 40
1.0
 40
1.0
 40
1.0
 40
2.0
 40
2.0
 40
2.0
 40
3.0
 40
3.0
 40
3.0
 40
4.0
 40
4.0
 40
4.0
 40
5.0
 40
5.0
 40
5.0
 40
6.0
 40
6.0
 40
6.0
 40
7.0
 40
7.0
 40
7.0
 40
8.0
 40
8.0
 40
8.0
 40
9.0
 40
9.0
 40
9.0
 40
10.0
 40
10.0
 40
10.0
 40
11.0
 40
11.0
 40
11.0
 40
11.0
 10
589.9393467460162
 20
42.91472857191693
 30
0.0
 10
589.9393467460162
 20
42.91472857191693
 30
0.0
 10
590.4939702200608
 20
42.91472857191693
 30
0.0
 10
590.4939702200608
 20
42.91472857191693
 30
0.0
 10
590.4939702200608
 20
42.91472857191693
 30
0.0
 10
590.2462062650937
 20
42.12146881878184
 30
0.0
 10
590.2462062650937
 20
42.12146881878184
 30
0.0
 10
590.4344729489438
 20
42.34414840288034
 30
0.0
 10
590.7316022316344
 20
42.6407197591727
 30
0.0
 10
590.9867754491712
 20
42.79026635097919
 30
0.0
 10
591.3679507645053
 20
43.01294593507769
 30
0.0
 10
591.5857652304104
 20
43.04231518068534
 30
0.0
 10
591.8253165087943
 20
43.03646811203098
 30
0.0
 10
591.8253165087943
 20
43.03646811203098
 30
0.0
 10
591.591210592058
 20
42.28639186212602
 30
0.0
 10
591.591210592058
 20
42.28639186212602
 30
0.0
 10
591.4387404659245
 20
42.35095510493986
 30
0.0
 10
590.968877170313
 20
42.22805507791734
 30
0.0
 10
590.6993317687555
 20
42.03416449597226
 30
0.0
 10
590.4562543955343
 20
41.85933267979383
 30
0.0
 10
590.2882069643596
 20
41.71056718494513
 30
0.0
 10
590.0890941913261
 20
41.33657796162161
 30
0.0
 10
589.8914989780961
 20
40.96203081189956
 30
0.0
 10
589.735547391237
 20
40.36480407807901
 30
0.0
 10
589.4671624765878
 20
39.49841133265191
 30
0.0
 10
589.4671624765878
 20
39.49841133265191
 30
0.0
 10
588.6289784898598
 20
36.81237511467916
 30
0.0
 10
588.6289784898598
 20
36.81237511467916
 30
0.0
 10
588.6289784898598
 20
36.81237511467916
 30
0.0
 10
588.0906911007581
 20
36.81237511467916
 30
0.0
 10
588.0906911007581
 20
36.81237511467916
 30
0.0
 10
588.0906911007581
 20
36.81237511467916
 30
0.0
 10
589.9393467460162
 20
42.91472857191693
 30
0.0
 10
589.9393467460162
 20
42.91472857191693
 30
0.0
  0
SPLINE
  5
17307
102
{ACAD_REACTORS
330
172F9
330
1730A
102
}
330
A
100
AcDbEntity
  8
TEMPLATE
100
AcDbSpline
210
0.0
220
0.0
230
1.0
 70
    11
 71
     3
 72
   104
 73
   100
 74
     0
 42
0.000000001
 43
0.0000000001
 40
0.0
 40
0.0
 40
0.0
 40
0.0
 40
1.0
 40
1.0
 40
1.0
 40
2.0
 40
2.0
 40
2.0
 40
3.0
 40
3.0
 40
3.0
 40
4.0
 40
4.0
 40
4.0
 40
5.0
 40
5.0
 40
5.0
 40
6.0
 40
6.0
 40
6.0
 40
7.0
 40
7.0
 40
7.0
 40
8.0
 40
8.0
 40
8.0
 40
9.0
 40
9.0
 40
9.0
 40
10.0
 40
10.0
 40
10.0
 40
11.0
 40
11.0
 40
11.0
 40
12.0
 40
12.0
 40
12.0
 40
13.0
 40
13.0
 40
13.0
 40
14.0
 40
14.0
 40
14.0
 40
15.0
 40
15.0
 40
15.0
 40
16.0
 40
16.0
 40
16.0
 40
17.0
 40
17.0
 40
17.0
 40
18.0
 40
18.0
 40
18.0
 40
19.0
 40
19.0
 40
19.0
 40
20.0
 40
20.0
 40
20.0
 40
21.0
 40
21.0
 40
21.0
 40
22.0
 40
22.0
 40
22.0
 40
23.0
 40
23.0
 40
23.0
 40
24.0
 40
24.0
 40
24.0
 40
25.0
 40
25.0
 40
25.0
 40
26.0
 40
26.0
 40
26.0
 40
27.0
 40
27.0
 40
27.0
 40
28.0
 40
28.0
 40
28.0
 40
29.0
 40
29.0
 40
29.0
 40
30.0
 40
30.0
 40
30.0
 40
31.0
 40
31.0
 40
31.0
 40
32.0
 40
32.0
 40
32.0
 40
33.0
 40
33.0
 40
33.0
 40
33.0
 10
592.9921860953021
 20
42.91803149619498
 30
0.0
 10
592.9921860953021
 20
42.91803149619498
 30
0.0
 10
593.4764215749343
 20
42.91803149619498
 30
0.0
 10
593.4764215749343
 20
42.91803149619498
 30
0.0
 10
593.4764215749343
 20
42.91803149619498
 30
0.0
 10
593.2317820077977
 20
42.12401296315816
 30
0.0
 10
593.2317820077977
 20
42.12401296315816
 30
0.0
 10
593.4441064779436
 20
42.4569388035653
 30
0.0
 10
593.6346941356106
 20
42.6053249084632
 30
0.0
 10
593.8879034522253
 20
42.79707305303871
 30
0.0
 10
594.1418715487417
 20
42.98609851679041
 30
0.0
 10
594.4433303402833
 20
43.02461775533059
 30
0.0
 10
594.6525750567104
 20
43.02461775533059
 30
0.0
 10
594.9116314419795
 20
43.02461775533059
 30
0.0
 10
595.1617163707637
 20
42.97346706313235
 30
0.0
 10
595.2931638302083
 20
42.68952716049805
 30
0.0
 10
595.3939030206897
 20
42.46686989345537
 30
0.0
 10
595.3985896024354
 20
42.44060271862234
 30
0.0
 10
595.369800600282
 20
42.0010906190797
 30
0.0
 10
595.6330972261784
 20
42.451694295421
 30
0.0
 10
595.8275680515779
 20
42.64578573086951
 30
0.0
 10
596.1581729181679
 20
42.83226705024479
 30
0.0
 10
596.5051138697007
 20
43.02461775533059
 30
0.0
 10
596.7073510305648
 20
43.0390122564073
 30
0.0
 10
596.9423049954265
 20
43.00437618559952
 30
0.0
 10
597.2884425329456
 20
42.95324781045711
 30
0.0
 10
597.5093813866816
 20
42.82974522292441
 30
0.0
 10
597.6248944681903
 20
42.45441697624481
 30
0.0
 10
597.7408092567058
 20
42.0802492164738
 30
0.0
 10
597.678187597758
 20
41.87955193246919
 30
0.0
 10
597.5350460010044
 20
41.28388739256386
 30
0.0
 10
597.4697016612328
 20
41.01260126064356
 30
0.0
 10
597.3751666123011
 20
40.68411651436711
 30
0.0
 10
597.251485488321
 20
40.29325559675826
 30
0.0
 10
597.251485488321
 20
40.29325559675826
 30
0.0
 10
596.1581729181679
 20
36.81237511467916
 30
0.0
 10
596.1581729181679
 20
36.81237511467916
 30
0.0
 10
596.1581729181679
 20
36.81237511467916
 30
0.0
 10
595.5895343329975
 20
36.81237511467916
 30
0.0
 10
595.5895343329975
 20
36.81237511467916
 30
0.0
 10
595.5895343329975
 20
36.81237511467916
 30
0.0
 10
596.5467574960716
 20
39.85548422757834
 30
0.0
 10
596.5467574960716
 20
39.85548422757834
 30
0.0
 10
596.7466736831187
 20
40.49218983334411
 30
0.0
 10
596.8820043102957
 20
40.95716569370618
 30
0.0
 10
596.952035231813
 20
41.24869339535778
 30
0.0
 10
597.0399197980768
 20
41.61234982178448
 30
0.0
 10
597.0749129417799
 20
41.73234863153571
 30
0.0
 10
597.0333139495209
 20
41.99702891489992
 30
0.0
 10
596.9951964179876
 20
42.24340921239921
 30
0.0
 10
596.8707118799938
 20
42.40384652750092
 30
0.0
 10
596.6575839958344
 20
42.40384652750092
 30
0.0
 10
596.4304410005492
 20
42.40384652750092
 30
0.0
 10
596.2464591914385
 20
42.37856130312887
 30
0.0
 10
595.9890096341963
 20
42.11992894192245
 30
0.0
 10
595.7315154428426
 20
41.85933267979383
 30
0.0
 10
595.5187446315782
 20
41.55343279412157
 30
0.0
 10
595.3519023214238
 20
41.20162672439526
 30
0.0
 10
595.1854170841642
 20
40.8476782172995
 30
0.0
 10
595.0166108730879
 20
40.39903844188016
 30
0.0
 10
594.8454836881943
 20
39.85548422757834
 30
0.0
 10
594.8454836881943
 20
39.85548422757834
 30
0.0
 10
593.8879034522253
 20
36.81237511467916
 30
0.0
 10
593.8879034522253
 20
36.81237511467916
 30
0.0
 10
593.8879034522253
 20
36.81237511467916
 30
0.0
 10
593.3530975238492
 20
36.81237511467916
 30
0.0
 10
593.3530975238492
 20
36.81237511467916
 30
0.0
 10
593.3530975238492
 20
36.81237511467916
 30
0.0
 10
594.4479722879174
 20
40.29169340284293
 30
0.0
 10
594.4479722879174
 20
40.29169340284293
 30
0.0
 10
594.5634853694261
 20
40.66197799488166
 30
0.0
 10
594.6502540828932
 20
40.96379385931832
 30
0.0
 10
594.7074303801934
 20
41.19968514052912
 30
0.0
 10
594.804643475837
 20
41.60574397322828
 30
0.0
 10
594.8318702840753
 20
41.88033302942674
 30
0.0
 10
594.7583579018323
 20
42.12401296315816
 30
0.0
 10
594.6860060064979
 20
42.36691179993202
 30
0.0
 10
594.5588434217922
 20
42.42895321542549
 30
0.0
 10
594.3464743175347
 20
42.42895321542549
 30
0.0
 10
594.1683395770782
 20
42.42895321542549
 30
0.0
 10
593.9944897113609
 20
42.3525172988552
 30
0.0
 10
593.7961357182293
 20
42.20042656267251
 30
0.0
 10
593.5464078623398
 20
42.00908012510374
 30
0.0
 10
593.4464720858722
 20
41.85194573428019
 30
0.0
 10
593.3239514488008
 20
41.66524124434543
 30
0.0
 10
593.1586266984499
 20
41.41825838633597
 30
0.0
 10
593.0812311484743
 20
41.25199631963583
 30
0.0
 10
592.941615646558
 20
40.88715708924472
 30
0.0
 10
592.8019555105301
 20
40.52017542148403
 30
0.0
 10
592.6697492711836
 20
40.09311623915196
 30
0.0
 10
592.5775351960687
 20
39.7977276868239
 30
0.0
 10
592.5775351960687
 20
39.7977276868239
 30
0.0
 10
591.6382549459648
 20
36.81237511467916
 30
0.0
 10
591.6382549459648
 20
36.81237511467916
 30
0.0
 10
591.6382549459648
 20
36.81237511467916
 30
0.0
 10
591.0781861102724
 20
36.81237511467916
 30
0.0
 10
591.0781861102724
 20
36.81237511467916
 30
0.0
 10
591.0781861102724
 20
36.81237511467916
 30
0.0
 10
592.9921860953021
 20
42.91803149619498
 30
0.0
 10
592.9921860953021
 20
42.91803149619498
 30
0.0
  0
SPLINE
  5
17308
102
{ACAD_REACTORS
330
172F9
330
1730A
102
}
330
A
100
AcDbEntity
  8
TEMPLATE
100
AcDbSpline
210
0.0
220
0.0
230
1.0
 70
    11
 71
     3
 72
    32
 73
    28
 74
     0
 42
0.000000001
 43
0.0000000001
 40
0.0
 40
0.0
 40
0.0
 40
0.0
 40
1.0
 40
1.0
 40
1.0
 40
2.0
 40
2.0
 40
2.0
 40
3.0
 40
3.0
 40
3.0
 40
4.0
 40
4.0
 40
4.0
 40
5.0
 40
5.0
 40
5.0
 40
6.0
 40
6.0
 40
6.0
 40
7.0
 40
7.0
 40
7.0
 40
8.0
 40
8.0
 40
8.0
 40
9.0
 40
9.0
 40
9.0
 40
9.0
 10
585.394880012287
 20
42.5961972325865
 30
0.0
 10
585.0701222143513
 20
42.17612328876155
 30
0.0
 10
584.8200372855671
 20
41.79807236125814
 30
0.0
 10
584.4151612568324
 20
40.60984535222244
 30
0.0
 10
584.0429350809274
 20
39.52296009417805
 30
0.0
 10
583.8060618492556
 20
38.73222216836346
 30
0.0
 10
583.7702876085951
 20
37.76919657074652
 30
0.0
 10
583.7430608003568
 20
37.0525512706291
 30
0.0
 10
584.1794485120689
 20
36.81237511467916
 30
0.0
 10
584.8192785056652
 20
36.81237511467916
 30
0.0
 10
585.0950280487724
 20
36.81237511467916
 30
0.0
 10
585.7908738527602
 20
36.82991632064248
 30
0.0
 10
586.2864017626947
 20
37.44247487188884
 30
0.0
 10
586.6332980801157
 20
37.87283697849896
 30
0.0
 10
586.9530122234106
 20
38.3189549265978
 30
0.0
 10
587.3816335996579
 20
39.78237355234214
 30
0.0
 10
587.7383047875777
 20
41.00579455858404
 30
0.0
 10
587.985265328531
 20
41.79651016734281
 30
0.0
 10
587.9670099767781
 20
42.24671213667737
 30
0.0
 10
587.9670099767781
 20
42.24671213667737
 30
0.0
 10
587.9670099767781
 20
42.24671213667737
 30
0.0
 10
587.9670099767781
 20
42.24671213667737
 30
0.0
 10
587.8506934812557
 20
42.9977703370432
 30
0.0
 10
587.305398536591
 20
43.1564669217822
 30
0.0
 10
586.9938524357677
 20
43.1564669217822
 30
0.0
 10
586.6869929166902
 20
43.1564669217822
 30
0.0
 10
585.8647433078983
 20
43.20955919784658
 30
0.0
 10
585.394880012287
 20
42.5961972325865
 30
0.0
  0
SPLINE
  5
17309
102
{ACAD_REACTORS
330
172F9
330
1730A
102
}
330
A
100
AcDbEntity
  8
TEMPLATE
100
AcDbSpline
210
0.0
220
0.0
230
1.0
 70
    11
 71
     3
 72
    29
 73
    25
 74
     0
 42
0.000000001
 43
0.0000000001
 40
0.0
 40
0.0
 40
0.0
 40
0.0
 40
1.0
 40
1.0
 40
1.0
 40
2.0
 40
2.0
 40
2.0
 40
3.0
 40
3.0
 40
3.0
 40
4.0
 40
4.0
 40
4.0
 40
5.0
 40
5.0
 40
5.0
 40
6.0
 40
6.0
 40
6.0
 40
7.0
 40
7.0
 40
7.0
 40
8.0
 40
8.0
 40
8.0
 40
8.0
 10
584.3513791109762
 20
37.94925057801331
 30
0.0
 10
584.3490135030473
 20
38.37439049353518
 30
0.0
 10
584.4832282774277
 20
39.12973356864027
 30
0.0
 10
584.82704484113
 20
40.1403837636178
 30
0.0
 10
585.2953459428262
 20
41.50888795047954
 30
0.0
 10
585.5761837746858
 20
42.00908012510374
 30
0.0
 10
585.821939194619
 20
42.25255920533161
 30
0.0
 10
586.1809759904676
 20
42.60708795588196
 30
0.0
 10
586.6636492761844
 20
42.62476306418078
 30
0.0
 10
586.8060320930364
 20
42.60708795588196
 30
0.0
 10
587.0086709609071
 20
42.58276236491495
 30
0.0
 10
587.2949095203024
 20
42.45013210150578
 30
0.0
 10
587.3120043851471
 20
42.00363476345613
 30
0.0
 10
587.325662423378
 20
41.621499814717
 30
0.0
 10
587.2155500694051
 20
40.90583646506057
 30
0.0
 10
586.8301345134438
 20
39.78237355234214
 30
0.0
 10
586.3859358321553
 20
38.47687041437903
 30
0.0
 10
586.1191131114214
 20
37.96366739614584
 30
0.0
 10
585.9052264473606
 20
37.74000586158636
 30
0.0
 10
585.5022696854361
 20
37.32071301471897
 30
0.0
 10
585.0701222143513
 20
37.36097298362186
 30
0.0
 10
585.006340068495
 20
37.36097298362186
 30
0.0
 10
584.923499156872
 20
37.36097298362186
 30
0.0
 10
584.3525395978846
 20
37.45086608491963
 30
0.0
 10
584.3513791109762
 20
37.94925057801331
 30
0.0
  0
LINE
  5
1ABE6
330
A
100
AcDbEntity
  8
MODEL
390
1D
100
AcDbLine
 10
368.2068391080937
 20
450.5007901772804
 30
0.0
 11
195.2068391080937
 21
450.5007901772804
 31
0.0
  0
LINE
  5
1ABE7
330
A
100
AcDbEntity
  8
MODEL
 48
0.4
390
1D
100
AcDbLine
 10
368.2068391080937
 20
466.5007901772804
 30
0.0
 11
368.2068391080937
 21
450.5007901772804
 31
0.0
  0
LINE
  5
1ABE8
330
A
100
AcDbEntity
  8
MODEL
 48
0.4
390
1D
100
AcDbLine
 10
368.2068391080937
 20
450.5007901772804
 30
0.0
 11
368.2068391080937
 21
466.5007901772804
 31
0.0
  0
LINE
  5
1ABE9
330
A
100
AcDbEntity
  8
MODEL
390
1D
100
AcDbLine
 10
368.2068391080937
 20
482.5007901772804
 30
0.0
 11
195.2068391080937
 21
482.5007901772804
 31
0.0
  0
LINE
  5
1ABEA
330
A
100
AcDbEntity
  8
MODEL
 48
0.4
390
1D
100
AcDbLine
 10
368.2068391080937
 20
466.5007901772804
 30
0.0
 11
368.2068391080937
 21
482.5007901772804
 31
0.0
  0
LINE
  5
1ABEB
330
A
100
AcDbEntity
  8
MODEL
 48
0.4
390
1D
100
AcDbLine
 10
368.2068391080937
 20
482.5007901772804
 30
0.0
 11
368.2068391080937
 21
466.5007901772804
 31
0.0
  0
ARC
  5
1ABEC
330
A
100
AcDbEntity
  8
MODEL
390
1D
100
AcDbCircle
 10
368.2068391080937
 20
429.5007901772804
 30
0.0
 40
21.0
100
AcDbArc
 50
2.005722999999928
 51
90.0
  0
ARC
  5
1ABED
330
A
100
AcDbEntity
  8
MODEL
390
1D
100
AcDbCircle
 10
409.2801461080938
 20
6117.641706177279
 30
0.0
 40
5687.44167
100
AcDbArc
 50
269.79765
 51
269.958898
  0
ARC
  5
1ABEE
330
A
100
AcDbEntity
  8
MODEL
390
1D
100
AcDbCircle
 10
409.3400441080938
 20
6153.77074417728
 30
0.0
 40
5723.57074
100
AcDbArc
 50
269.798327
 51
269.958558
  0
LINE
  5
1ABEF
330
A
100
AcDbEntity
  8
MODEL
 48
0.053558
390
1D
100
AcDbLine
 10
195.2068391080937
 20
484.0007871772803
 30
0.0
 11
195.2068391080937
 21
481.8584841772803
 31
0.0
  0
LINE
  5
1ABF0
330
A
100
AcDbEntity
  8
MODEL
 48
0.227751
390
1D
100
AcDbLine
 10
195.2068391080937
 20
458.1108361772804
 30
0.0
 11
195.2068391080937
 21
449.0007921772804
 31
0.0
  0
LINE
  5
1ABF1
330
A
100
AcDbEntity
  8
MODEL
390
1D
100
AcDbLine
 10
195.2068391080937
 20
481.8584841772803
 30
0.0
 11
195.2068391080937
 21
458.1108361772804
 31
0.0
  0
ARC
  5
1ABF2
330
A
100
AcDbEntity
  8
MODEL
390
1D
100
AcDbCircle
 10
368.2068391080937
 20
429.5007901772804
 30
0.0
 40
53.0
100
AcDbArc
 50
0.7427439999999575
 51
90.0
  0
ARC
  5
1ABF3
330
A
100
AcDbEntity
  8
MODEL
390
1D
100
AcDbCircle
 10
435.0020671080936
 20
27559.64067117729
 30
0.0
 40
27129.456341
100
AcDbArc
 50
269.93706
 51
269.970856
  0
ARC
  5
1ABF4
330
A
100
AcDbEntity
  8
MODEL
390
1D
100
AcDbCircle
 10
433.9387331080937
 20
26325.55667217728
 30
0.0
 40
25895.371921
100
AcDbArc
 50
269.936414
 51
269.97182
  0
LINE
  5
1ABFB
330
A
100
AcDbEntity
  8
MODEL
 48
0.244019
390
1D
100
AcDbLine
 10
414.1960681080937
 20
429.2007901772803
 30
0.0
 11
423.9568461080938
 21
429.2007901772803
 31
0.0
  0
LINE
  5
1ABFC
330
A
100
AcDbEntity
  8
MODEL
 48
0.46862
390
1D
100
AcDbLine
 10
395.4512841080937
 20
429.2007901772803
 30
0.0
 11
414.1960681080937
 21
429.2007901772803
 31
0.0
  0
LINE
  5
1ABFD
330
A
100
AcDbEntity
  8
MODEL
 48
0.224861
390
1D
100
AcDbLine
 10
386.4568331080937
 20
429.2007901772803
 30
0.0
 11
395.4512841080937
 21
429.2007901772803
 31
0.0
  0
LINE
  5
1AC04
330
A
100
AcDbEntity
  8
MODEL
390
1D
100
AcDbLine
 10
184.5672731080936
 20
437.5405651772804
 30
0.0
 11
184.5672731080936
 21
482.3218321772803
 31
0.0
  0
LINE
  5
1AC05
330
A
100
AcDbEntity
  8
MODEL
 48
0.429474
390
1D
100
AcDbLine
 10
184.5672731080936
 20
482.3218321772803
 30
0.0
 11
184.5672731080936
 21
499.5007901772804
 31
0.0
  0
LINE
  5
1AC06
330
A
100
AcDbEntity
  8
MODEL
 48
0.100994
390
1D
100
AcDbLine
 10
184.5672731080936
 20
499.5007901772804
 30
0.0
 11
184.5672731080936
 21
495.4610141772803
 31
0.0
  0
LINE
  5
1AC07
330
A
100
AcDbEntity
  8
MODEL
390
1D
100
AcDbLine
 10
184.5672731080936
 20
495.4610141772803
 30
0.0
 11
184.5672731080936
 21
450.6797471772804
 31
0.0
  0
LINE
  5
1AC08
330
A
100
AcDbEntity
  8
MODEL
 48
0.429474
390
1D
100
AcDbLine
 10
184.5672731080936
 20
450.6797471772804
 30
0.0
 11
184.5672731080936
 21
433.5007901772804
 31
0.0
  0
LINE
  5
1AC09
330
A
100
AcDbEntity
  8
MODEL
 48
0.100994
390
1D
100
AcDbLine
 10
184.5672731080936
 20
433.5007901772804
 30
0.0
 11
184.5672731080936
 21
437.5405651772804
 31
0.0
  0
LINE
  5
1AC0A
330
A
100
AcDbEntity
  8
MODEL
 48
0.100994
390
1D
100
AcDbLine
 10
182.2068391080937
 20
499.5007901772804
 30
0.0
 11
182.2068391080937
 21
495.4610141772803
 31
0.0
  0
LINE
  5
1AC0B
330
A
100
AcDbEntity
  8
MODEL
390
1D
100
AcDbLine
 10
182.2068391080937
 20
495.4610141772803
 30
0.0
 11
182.2068391080937
 21
450.6797471772804
 31
0.0
  0
LINE
  5
1AC0C
330
A
100
AcDbEntity
  8
MODEL
 48
0.429474
390
1D
100
AcDbLine
 10
182.2068391080937
 20
450.6797471772804
 30
0.0
 11
182.2068391080937
 21
433.5007901772804
 31
0.0
  0
LINE
  5
1AC0D
330
A
100
AcDbEntity
  8
MODEL
390
1D
100
AcDbLine
 10
184.5673111080935
 20
437.8038401772804
 30
0.0
 11
184.5673111080935
 21
482.1780051772803
 31
0.0
  0
LINE
  5
1AC0E
330
A
100
AcDbEntity
  8
MODEL
 48
0.42552
390
1D
100
AcDbLine
 10
184.5673111080935
 20
482.1780051772803
 30
0.0
 11
184.5673111080935
 21
499.1988151772803
 31
0.0
  0
LINE
  5
1AC0F
330
A
100
AcDbEntity
  8
MODEL
390
1D
100
AcDbLine
 10
184.5673111080935
 20
495.1977391772803
 30
0.0
 11
184.5673111080935
 21
450.8235741772804
 31
0.0
  0
LINE
  5
1AC10
330
A
100
AcDbEntity
  8
MODEL
 48
0.425566
390
1D
100
AcDbLine
 10
184.5673111080935
 20
450.8235741772804
 30
0.0
 11
184.5673111080935
 21
433.8009281772804
 31
0.0
  0
LINE
  5
1AC11
330
A
100
AcDbEntity
  8
MODEL
 48
0.065799
390
1D
100
AcDbLine
 10
383.7068391080937
 20
425.1007901772803
 30
0.0
 11
386.3388141080937
 21
425.1007901772803
 31
0.0
  0
LINE
  5
1AC12
330
A
100
AcDbEntity
  8
MODEL
 48
0.279809
390
1D
100
AcDbLine
 10
394.8991901080938
 20
425.6502811772803
 30
0.0
 11
383.7068391080937
 21
425.6502811772803
 31
0.0
  0
LINE
  5
1AC13
330
A
100
AcDbEntity
  8
MODEL
 48
0.065799
390
1D
100
AcDbLine
 10
383.7068391080937
 20
425.6502811772803
 30
0.0
 11
386.3388141080937
 21
425.6502811772803
 31
0.0
  0
LINE
  5
1AC14
330
A
100
AcDbEntity
  8
MODEL
390
1D
100
AcDbLine
 10
386.3388141080937
 20
425.6502811772803
 30
0.0
 11
415.5144881080935
 21
425.6502811772803
 31
0.0
  0
LINE
  5
1AC15
330
A
100
AcDbEntity
  8
MODEL
390
1D
100
AcDbLine
 10
386.3388141080937
 20
425.1007901772803
 30
0.0
 11
415.5144881080935
 21
425.1007901772803
 31
0.0
  0
LINE
  5
1AC16
330
A
100
AcDbEntity
  8
MODEL
 48
0.279809
390
1D
100
AcDbLine
 10
415.5144881080935
 20
425.1007901772803
 30
0.0
 11
426.7068391080937
 21
425.1007901772803
 31
0.0
  0
LINE
  5
1AC17
330
A
100
AcDbEntity
  8
MODEL
 48
0.279809
390
1D
100
AcDbLine
 10
415.5144881080935
 20
425.6502811772803
 30
0.0
 11
426.7068391080937
 21
425.6502811772803
 31
0.0
  0
LINE
  5
1AC18
330
A
100
AcDbEntity
  8
MODEL
 48
0.065799
390
1D
100
AcDbLine
 10
426.7068391080937
 20
425.6502811772803
 30
0.0
 11
424.0748641080937
 21
425.6502811772803
 31
0.0
  0
LINE
  5
1AC19
330
A
100
AcDbEntity
  8
MODEL
390
1D
100
AcDbLine
 10
424.0748641080937
 20
425.6502811772803
 30
0.0
 11
394.8991901080938
 21
425.6502811772803
 31
0.0
  0
LINE
  5
1AC1A
330
A
100
AcDbEntity
  8
MODEL
390
1D
100
AcDbLine
 10
187.7716051080936
 20
439.4273681772804
 30
0.0
 11
187.7716051080936
 21
481.2910671772804
 31
0.0
  0
LINE
  5
1AC1B
330
A
100
AcDbEntity
  8
MODEL
 48
0.40149
390
1D
100
AcDbLine
 10
187.7716051080936
 20
481.2910671772804
 30
0.0
 11
187.7716051080936
 21
497.3506591772803
 31
0.0
  0
LINE
  5
1AC1C
330
A
100
AcDbEntity
  8
MODEL
390
1D
100
AcDbLine
 10
187.7716051080936
 20
493.5742121772803
 30
0.0
 11
187.7716051080936
 21
451.7105121772804
 31
0.0
  0
LINE
  5
1AC1D
330
A
100
AcDbEntity
  8
MODEL
 48
0.40149
390
1D
100
AcDbLine
 10
187.7716051080936
 20
451.7105121772804
 30
0.0
 11
187.7716051080936
 21
435.6509201772804
 31
0.0
  0
LINE
  5
1AC25
330
A
100
AcDbEntity
  8
MODEL
 48
0.279809
390
1D
100
AcDbLine
 10
415.5144881080935
 20
421.6007901772803
 30
0.0
 11
426.7068441080936
 21
421.6007901772803
 31
0.0
  0
LINE
  5
1AC26
330
A
100
AcDbEntity
  8
MODEL
390
1D
100
AcDbLine
 10
386.3388051080936
 20
421.6007901772803
 30
0.0
 11
415.5144881080935
 21
421.6007901772803
 31
0.0
  0
LINE
  5
1AC27
330
A
100
AcDbEntity
  8
MODEL
 48
0.065799
390
1D
100
AcDbLine
 10
383.7068351080937
 20
421.6007901772803
 30
0.0
 11
386.3388051080936
 21
421.6007901772803
 31
0.0
  0
LINE
  5
1AC28
330
A
100
AcDbEntity
  8
MODEL
 48
0.279809
390
1D
100
AcDbLine
 10
415.5144881080935
 20
419.1007901772803
 30
0.0
 11
426.7068391080937
 21
419.1007901772803
 31
0.0
  0
LINE
  5
1AC29
330
A
100
AcDbEntity
  8
MODEL
 48
0.065799
390
1D
100
AcDbLine
 10
383.7068391080937
 20
419.1007901772803
 30
0.0
 11
386.3388141080937
 21
419.1007901772803
 31
0.0
  0
LINE
  5
1AC2A
330
A
100
AcDbEntity
  8
MODEL
390
1D
100
AcDbLine
 10
386.3388141080937
 20
419.1007901772803
 30
0.0
 11
415.5144881080935
 21
419.1007901772803
 31
0.0
  0
LINE
  5
1AC38
330
A
100
AcDbEntity
  8
MODEL
390
1D
100
AcDbLine
 10
390.2156021080937
 20
418.0633231772803
 30
0.0
 11
413.3965891080937
 21
418.0633231772803
 31
0.0
  0
LINE
  5
1AC39
330
A
100
AcDbEntity
  8
MODEL
390
1D
100
AcDbLine
 10
390.4532801080937
 20
417.5827611772804
 30
0.0
 11
413.2667461080935
 21
417.5827611772804
 31
0.0
  0
LINE
  5
1AC3A
330
A
100
AcDbEntity
  8
MODEL
 48
0.218792
390
1D
100
AcDbLine
 10
413.2667461080935
 20
417.5827611772804
 30
0.0
 11
422.0184311080937
 21
417.5827611772804
 31
0.0
  0
LINE
  5
1AC3B
330
A
100
AcDbEntity
  8
MODEL
 48
0.051451
390
1D
100
AcDbLine
 10
422.0184311080937
 20
417.5827611772804
 30
0.0
 11
419.9603991080938
 21
417.5827611772804
 31
0.0
  0
LINE
  5
1AC3C
330
A
100
AcDbEntity
  8
MODEL
 48
0.222317
390
1D
100
AcDbLine
 10
413.3965891080937
 20
418.0633231772803
 30
0.0
 11
422.2892621080935
 21
418.0633231772803
 31
0.0
  0
LINE
  5
1AC3D
330
A
100
AcDbEntity
  8
MODEL
 48
0.05228
390
1D
100
AcDbLine
 10
422.2892621080935
 20
418.0633231772803
 30
0.0
 11
420.1980761080936
 21
418.0633231772803
 31
0.0
  0
LINE
  5
1AC3E
330
A
100
AcDbEntity
  8
MODEL
390
1D
100
AcDbLine
 10
420.1980761080936
 20
418.0633231772803
 30
0.0
 11
397.0170891080937
 21
418.0633231772803
 31
0.0
  0
LINE
  5
1AC3F
330
A
100
AcDbEntity
  8
MODEL
390
1D
100
AcDbLine
 10
397.1469331080937
 20
417.5827601772804
 30
0.0
 11
419.9603981080937
 21
417.5827601772804
 31
0.0
  0
LINE
  5
1AC40
330
A
100
AcDbEntity
  8
MODEL
 48
0.051451
390
1D
100
AcDbLine
 10
390.4532801080937
 20
417.5827601772804
 30
0.0
 11
388.3952481080935
 21
417.5827601772804
 31
0.0
  0
LINE
  5
1AC41
330
A
100
AcDbEntity
  8
MODEL
 48
0.218792
390
1D
100
AcDbLine
 10
388.3952481080935
 20
417.5827601772804
 30
0.0
 11
397.1469331080937
 21
417.5827601772804
 31
0.0
  0
LINE
  5
1AC42
330
A
100
AcDbEntity
  8
MODEL
 48
0.222317
390
1D
100
AcDbLine
 10
397.0170891080937
 20
418.0633231772803
 30
0.0
 11
388.1244161080936
 21
418.0633231772803
 31
0.0
  0
LINE
  5
1AC43
330
A
100
AcDbEntity
  8
MODEL
 48
0.05228
390
1D
100
AcDbLine
 10
388.1244161080936
 20
418.0633231772803
 30
0.0
 11
390.2156021080937
 21
418.0633231772803
 31
0.0
  0
LINE
  5
1AC96
330
A
100
AcDbEntity
  8
MODEL
 48
0.19177
390
1D
100
AcDbLine
 10
155.2068391080937
 20
466.5007901772804
 30
0.0
 11
155.2068391080937
 21
474.1715981772804
 31
0.0
  0
LINE
  5
1AC97
330
A
100
AcDbEntity
  8
MODEL
 48
0.20823
390
1D
100
AcDbLine
 10
155.2068391080937
 20
474.1715981772804
 30
0.0
 11
155.2068391080937
 21
482.5007901772804
 31
0.0
  0
LINE
  5
1AC9D
102
{ACAD_REACTORS
330
1B3BE
102
}
330
A
100
AcDbEntity
  8
MODEL
390
1D
100
AcDbLine
 10
182.2068391080937
 20
450.5007901772804
 30
0.0
 11
155.2068391080937
 21
450.5007901772804
 31
0.0
  0
LINE
  5
1AC9E
330
A
100
AcDbEntity
  8
MODEL
 48
0.4
390
1D
100
AcDbLine
 10
155.2068391080937
 20
450.5007901772804
 30
0.0
 11
155.2068391080937
 21
466.5007901772804
 31
0.0
  0
LINE
  5
1ACA1
330
A
100
AcDbEntity
  8
MODEL
390
1D
100
AcDbLine
 10
390.9641851080935
 20
416.2843671772803
 30
0.0
 11
412.9876371080937
 21
416.2843671772803
 31
0.0
  0
LINE
  5
1ACA2
330
A
100
AcDbEntity
  8
MODEL
390
1D
100
AcDbLine
 10
391.1655181080935
 20
415.2740031772804
 30
0.0
 11
412.8776481080936
 21
415.2740031772804
 31
0.0
  0
LINE
  5
1ACA3
330
A
100
AcDbEntity
  8
MODEL
 48
0.110565
390
1D
100
AcDbLine
 10
412.8776481080936
 20
415.2740031772804
 30
0.0
 11
417.3002371080937
 21
415.2740031772804
 31
0.0
  0
LINE
  5
1ACA4
330
A
100
AcDbEntity
  8
MODEL
 48
0.097665
390
1D
100
AcDbLine
 10
417.3002371080937
 20
415.2740031772804
 30
0.0
 11
421.2068391080937
 21
415.2740031772804
 31
0.0
  0
LINE
  5
1ACA5
330
A
100
AcDbEntity
  8
MODEL
 48
0.048967
390
1D
100
AcDbLine
 10
421.2068391080937
 20
415.2740031772804
 30
0.0
 11
419.2481601080938
 21
415.2740031772804
 31
0.0
  0
LINE
  5
1ACA6
330
A
100
AcDbEntity
  8
MODEL
 48
0.211215
390
1D
100
AcDbLine
 10
412.9876371080937
 20
416.2843671772803
 30
0.0
 11
421.4362571080936
 21
416.2843671772803
 31
0.0
  0
LINE
  5
1ACA7
330
A
100
AcDbEntity
  8
MODEL
 48
0.049669
390
1D
100
AcDbLine
 10
421.4362571080936
 20
416.2843671772803
 30
0.0
 11
419.4494931080938
 21
416.2843671772803
 31
0.0
  0
LINE
  5
1ACA8
330
A
100
AcDbEntity
  8
MODEL
390
1D
100
AcDbLine
 10
419.4494931080938
 20
416.2843671772803
 30
0.0
 11
397.4260421080938
 21
416.2843671772803
 31
0.0
  0
LINE
  5
1ACA9
330
A
100
AcDbEntity
  8
MODEL
 48
0.211272
390
1D
100
AcDbLine
 10
410.7972611080937
 20
415.2740031772804
 30
0.0
 11
419.2481601080938
 21
415.2740031772804
 31
0.0
  0
LINE
  5
1ACAA
330
A
100
AcDbEntity
  8
MODEL
 48
0.331531
390
1D
100
AcDbLine
 10
397.5360311080938
 20
415.2740031772804
 30
0.0
 11
410.7972611080937
 21
415.2740031772804
 31
0.0
  0
LINE
  5
1ACAB
330
A
100
AcDbEntity
  8
MODEL
 48
0.20823
390
1D
100
AcDbLine
 10
389.2068391080937
 20
415.2740031772804
 30
0.0
 11
397.5360311080938
 21
415.2740031772804
 31
0.0
  0
LINE
  5
1ACAC
330
A
100
AcDbEntity
  8
MODEL
 48
0.048967
390
1D
100
AcDbLine
 10
391.1655181080935
 20
415.2740031772804
 30
0.0
 11
389.2068391080937
 21
415.2740031772804
 31
0.0
  0
LINE
  5
1ACAD
330
A
100
AcDbEntity
  8
MODEL
 48
0.211215
390
1D
100
AcDbLine
 10
397.4260421080938
 20
416.2843671772803
 30
0.0
 11
388.9774221080937
 21
416.2843671772803
 31
0.0
  0
LINE
  5
1ACAE
330
A
100
AcDbEntity
  8
MODEL
 48
0.049669
390
1D
100
AcDbLine
 10
388.9774221080937
 20
416.2843671772803
 30
0.0
 11
390.9641851080935
 21
416.2843671772803
 31
0.0
  0
LINE
  5
1ACAF
330
A
100
AcDbEntity
  8
MODEL
 48
0.351033
390
1D
100
AcDbLine
 10
391.1655181080935
 20
415.2239021772803
 30
0.0
 11
405.2068391080937
 21
415.2239021772803
 31
0.0
  0
LINE
  5
1ACB0
330
A
100
AcDbEntity
  8
MODEL
 48
0.302335
390
1D
100
AcDbLine
 10
405.2068391080937
 20
415.2239021772803
 30
0.0
 11
417.3002371080937
 21
415.2239021772803
 31
0.0
  0
LINE
  5
1ACB1
330
A
100
AcDbEntity
  8
MODEL
 48
0.097665
390
1D
100
AcDbLine
 10
417.3002371080937
 20
415.2239021772803
 30
0.0
 11
421.2068391080937
 21
415.2239021772803
 31
0.0
  0
LINE
  5
1ACB2
330
A
100
AcDbEntity
  8
MODEL
 48
0.260239
390
1D
100
AcDbLine
 10
421.2068391080937
 20
415.2239021772803
 30
0.0
 11
410.7972611080937
 21
415.2239021772803
 31
0.0
  0
LINE
  5
1ACB3
330
A
100
AcDbEntity
  8
MODEL
 48
0.139761
390
1D
100
AcDbLine
 10
410.7972611080937
 20
415.2239021772803
 30
0.0
 11
405.2068391080937
 21
415.2239021772803
 31
0.0
  0
LINE
  5
1ACB4
330
A
100
AcDbEntity
  8
MODEL
 48
0.4
390
1D
100
AcDbLine
 10
405.2068391080937
 20
415.2239021772803
 30
0.0
 11
389.2068391080937
 21
415.2239021772803
 31
0.0
  0
LINE
  5
1ACB5
330
A
100
AcDbEntity
  8
MODEL
 48
0.001253
390
1D
100
AcDbLine
 10
389.2068391080937
 20
415.2239021772803
 30
0.0
 11
389.2068391080937
 21
415.2740031772804
 31
0.0
  0
ARC
  5
1ACB6
330
A
100
AcDbEntity
  8
MODEL
390
1D
100
AcDbCircle
 10
442.2068391080937
 20
415.2239021772803
 30
0.0
 40
21.0
100
AcDbArc
 50
240.0
 51
0.0
  0
LINE
  5
1ACB7
330
A
100
AcDbEntity
  8
MODEL
 48
0.260239
390
1D
100
AcDbLine
 10
463.2068391080937
 20
415.2239021772803
 30
0.0
 11
473.6164181080938
 21
415.2239021772803
 31
0.0
  0
LINE
  5
1ACB8
330
A
100
AcDbEntity
  8
MODEL
 48
0.139761
390
1D
100
AcDbLine
 10
473.6164181080938
 20
415.2239021772803
 30
0.0
 11
479.2068391080937
 21
415.2239021772803
 31
0.0
  0
ARC
  5
1ACB9
330
A
100
AcDbEntity
  8
MODEL
390
1D
100
AcDbCircle
 10
442.2068391080937
 20
415.2239021772803
 30
0.0
 40
21.0
100
AcDbArc
 50
180.0
 51
240.0
  0
LINE
  5
1ACBA
330
A
100
AcDbEntity
  8
MODEL
 48
0.4
390
1D
100
AcDbLine
 10
479.2068391080937
 20
415.2239021772803
 30
0.0
 11
495.2068391080937
 21
415.2239021772803
 31
0.0
  0
ARC
  5
1ACBB
330
A
100
AcDbEntity
  8
MODEL
390
1D
100
AcDbCircle
 10
442.2068391080937
 20
415.2239021772803
 30
0.0
 40
53.0
100
AcDbArc
 50
180.0
 51
0.0000000000001229
  0
LINE
  5
1ACBC
330
A
100
AcDbEntity
  8
MODEL
 48
0.048967
390
1D
100
AcDbLine
 10
495.2068391080937
 20
415.2239021772803
 30
0.0
 11
493.2481601080936
 21
415.2239021772803
 31
0.0
  0
LINE
  5
1ACBD
330
A
100
AcDbEntity
  8
MODEL
 48
0.150633
390
1D
100
AcDbLine
 10
495.2068391080937
 20
421.2492271772804
 30
0.0
 11
495.2068391080937
 21
415.2239021772803
 31
0.0
  0
LINE
  5
1ACBE
330
A
100
AcDbEntity
  8
MODEL
 48
0.048967
390
1D
100
AcDbLine
 10
495.2068391080937
 20
421.2492271772804
 30
0.0
 11
493.2481601080936
 21
421.2492271772804
 31
0.0
  0
LINE
  5
1ACBF
330
A
100
AcDbEntity
  8
MODEL
 48
0.302335
390
1D
100
AcDbLine
 10
479.2068391080937
 20
415.2239021772803
 30
0.0
 11
467.1134411080937
 21
415.2239021772803
 31
0.0
  0
LINE
  5
1ACC0
330
A
100
AcDbEntity
  8
MODEL
 48
0.351033
390
1D
100
AcDbLine
 10
493.2481601080936
 20
415.2239021772803
 30
0.0
 11
479.2068391080937
 21
415.2239021772803
 31
0.0
  0
LINE
  5
1ACC1
330
A
100
AcDbEntity
  8
MODEL
390
1D
100
AcDbLine
 10
493.2481601080936
 20
421.2492271772804
 30
0.0
 11
471.5360311080938
 21
421.2492271772804
 31
0.0
  0
LINE
  5
1ACC2
330
A
100
AcDbEntity
  8
MODEL
 48
0.110565
390
1D
100
AcDbLine
 10
471.5360311080938
 20
421.2492271772804
 30
0.0
 11
467.1134411080937
 21
421.2492271772804
 31
0.0
  0
LINE
  5
1ACC3
330
A
100
AcDbEntity
  8
MODEL
 48
0.097665
390
1D
100
AcDbLine
 10
467.1134411080937
 20
415.2239021772803
 30
0.0
 11
463.2068391080937
 21
415.2239021772803
 31
0.0
  0
LINE
  5
1ACC4
330
A
100
AcDbEntity
  8
MODEL
 48
0.097665
390
1D
100
AcDbLine
 10
467.1134411080937
 20
421.2492271772804
 30
0.0
 11
463.2068391080937
 21
421.2492271772804
 31
0.0
  0
LINE
  5
1ACC5
330
A
100
AcDbEntity
  8
MODEL
 48
0.048967
390
1D
100
AcDbLine
 10
463.2068391080937
 20
421.2492271772804
 30
0.0
 11
465.1655181080935
 21
421.2492271772804
 31
0.0
  0
LINE
  5
1ACC6
330
A
100
AcDbEntity
  8
MODEL
 48
0.211272
390
1D
100
AcDbLine
 10
465.1655181080935
 20
421.2492271772804
 30
0.0
 11
473.6164181080938
 21
421.2492271772804
 31
0.0
  0
LINE
  5
1ACC7
330
A
100
AcDbEntity
  8
MODEL
 48
0.331531
390
1D
100
AcDbLine
 10
473.6164181080938
 20
421.2492271772804
 30
0.0
 11
486.8776481080936
 21
421.2492271772804
 31
0.0
  0
LINE
  5
1ACC8
330
A
100
AcDbEntity
  8
MODEL
 48
0.20823
390
1D
100
AcDbLine
 10
486.8776481080936
 20
421.2492271772804
 30
0.0
 11
495.2068391080937
 21
421.2492271772804
 31
0.0
  0
LINE
  5
1ACC9
330
A
100
AcDbEntity
  8
MODEL
390
1D
100
AcDbLine
 10
464.9640731080936
 20
422.2846421772803
 30
0.0
 11
486.9876981080936
 21
422.2846421772803
 31
0.0
  0
LINE
  5
1ACCA
330
A
100
AcDbEntity
  8
MODEL
 48
0.211217
390
1D
100
AcDbLine
 10
486.9876981080936
 20
422.2846421772803
 30
0.0
 11
495.4363851080937
 21
422.2846421772803
 31
0.0
  0
LINE
  5
1ACCB
330
A
100
AcDbEntity
  8
MODEL
 48
0.049669
390
1D
100
AcDbLine
 10
495.4363851080937
 20
422.2846421772803
 30
0.0
 11
493.4496061080936
 21
422.2846421772803
 31
0.0
  0
LINE
  5
1ACCC
330
A
100
AcDbEntity
  8
MODEL
390
1D
100
AcDbLine
 10
493.4496061080936
 20
422.2846421772803
 30
0.0
 11
471.4259801080937
 21
422.2846421772803
 31
0.0
  0
LINE
  5
1ACCD
330
A
100
AcDbEntity
  8
MODEL
 48
0.211217
390
1D
100
AcDbLine
 10
471.4259801080937
 20
422.2846421772803
 30
0.0
 11
462.9772931080936
 21
422.2846421772803
 31
0.0
  0
LINE
  5
1ACCE
330
A
100
AcDbEntity
  8
MODEL
 48
0.049669
390
1D
100
AcDbLine
 10
462.9772931080936
 20
422.2846421772803
 30
0.0
 11
464.9640731080936
 21
422.2846421772803
 31
0.0
  0
LINE
  5
1ACCF
330
A
100
AcDbEntity
  8
MODEL
 48
0.216915
390
1D
100
AcDbLine
 10
487.1976131080936
 20
423.2236071772804
 30
0.0
 11
495.8742321080936
 21
423.2236071772804
 31
0.0
  0
LINE
  5
1ACD0
330
A
100
AcDbEntity
  8
MODEL
 48
0.051009
390
1D
100
AcDbLine
 10
495.8742321080936
 20
423.2236071772804
 30
0.0
 11
493.8338521080937
 21
423.2236071772804
 31
0.0
  0
LINE
  5
1ACD1
330
A
100
AcDbEntity
  8
MODEL
390
1D
100
AcDbLine
 10
464.5798261080936
 20
423.2236071772804
 30
0.0
 11
487.1976131080936
 21
423.2236071772804
 31
0.0
  0
LINE
  5
1ACD2
330
A
100
AcDbEntity
  8
MODEL
 48
0.216915
390
1D
100
AcDbLine
 10
471.2160661080937
 20
423.2236071772804
 30
0.0
 11
462.5394471080936
 21
423.2236071772804
 31
0.0
  0
LINE
  5
1ACD3
330
A
100
AcDbEntity
  8
MODEL
 48
0.051009
390
1D
100
AcDbLine
 10
462.5394471080936
 20
423.2236071772804
 30
0.0
 11
464.5798261080936
 21
423.2236071772804
 31
0.0
  0
LINE
  5
1ACD4
330
A
100
AcDbEntity
  8
MODEL
390
1D
100
AcDbLine
 10
493.8338521080937
 20
423.2236071772804
 30
0.0
 11
471.2160661080937
 21
423.2236071772804
 31
0.0
  0
LINE
  5
1ACD5
330
A
100
AcDbEntity
  8
MODEL
390
1D
100
AcDbLine
 10
464.2879361080937
 20
424.7239021772803
 30
0.0
 11
487.3570731080936
 21
424.7239021772803
 31
0.0
  0
LINE
  5
1ACD6
330
A
100
AcDbEntity
  8
MODEL
 48
0.221244
390
1D
100
AcDbLine
 10
487.3570731080936
 20
424.7239021772803
 30
0.0
 11
496.2068391080937
 21
424.7239021772803
 31
0.0
  0
LINE
  5
1ACD7
330
A
100
AcDbEntity
  8
MODEL
 48
0.052027
390
1D
100
AcDbLine
 10
496.2068391080937
 20
424.7239021772803
 30
0.0
 11
494.1257431080938
 21
424.7239021772803
 31
0.0
  0
LINE
  5
1ACD8
330
A
100
AcDbEntity
  8
MODEL
390
1D
100
AcDbLine
 10
494.1257431080938
 20
424.7239021772803
 30
0.0
 11
471.0566051080937
 21
424.7239021772803
 31
0.0
  0
LINE
  5
1ACD9
330
A
100
AcDbEntity
  8
MODEL
 48
0.221244
390
1D
100
AcDbLine
 10
471.0566051080937
 20
424.7239021772803
 30
0.0
 11
462.2068391080937
 21
424.7239021772803
 31
0.0
  0
LINE
  5
1ACDA
330
A
100
AcDbEntity
  8
MODEL
 48
0.052027
390
1D
100
AcDbLine
 10
462.2068391080937
 20
424.7239021772803
 30
0.0
 11
464.2879361080937
 21
424.7239021772803
 31
0.0
  0
LINE
  5
1ACDB
330
A
100
AcDbEntity
  8
MODEL
390
1D
100
AcDbLine
 10
464.2879361080937
 20
474.4191391772803
 30
0.0
 11
487.3570731080936
 21
474.4191391772803
 31
0.0
  0
LINE
  5
1ACDC
330
A
100
AcDbEntity
  8
MODEL
 48
0.221244
390
1D
100
AcDbLine
 10
487.3570731080936
 20
474.4191391772803
 30
0.0
 11
496.2068391080937
 21
474.4191391772803
 31
0.0
  0
LINE
  5
1ACDD
330
A
100
AcDbEntity
  8
MODEL
 48
0.052027
390
1D
100
AcDbLine
 10
496.2068391080937
 20
474.4191391772803
 30
0.0
 11
494.1257431080938
 21
474.4191391772803
 31
0.0
  0
LINE
  5
1ACDE
330
A
100
AcDbEntity
  8
MODEL
390
1D
100
AcDbLine
 10
494.1257431080938
 20
474.4191391772803
 30
0.0
 11
471.0566051080937
 21
474.4191391772803
 31
0.0
  0
LINE
  5
1ACDF
330
A
100
AcDbEntity
  8
MODEL
 48
0.221244
390
1D
100
AcDbLine
 10
471.0566051080937
 20
474.4191391772803
 30
0.0
 11
462.2068391080937
 21
474.4191391772803
 31
0.0
  0
LINE
  5
1ACE0
330
A
100
AcDbEntity
  8
MODEL
 48
0.052027
390
1D
100
AcDbLine
 10
462.2068391080937
 20
474.4191391772803
 30
0.0
 11
464.2879361080937
 21
474.4191391772803
 31
0.0
  0
LINE
  5
1AF98
330
A
100
AcDbEntity
  8
MODEL
 48
0.279809
390
1D
100
AcDbLine
 10
489.5144881080935
 20
475.1039021772804
 30
0.0
 11
500.7068441080936
 21
475.1039021772804
 31
0.0
  0
LINE
  5
1AF99
330
A
100
AcDbEntity
  8
MODEL
 48
0.065799
390
1D
100
AcDbLine
 10
457.7068351080937
 20
475.1039021772804
 30
0.0
 11
460.3388051080936
 21
475.1039021772804
 31
0.0
  0
LINE
  5
1AF9A
330
A
100
AcDbEntity
  8
MODEL
390
1D
100
AcDbLine
 10
460.3388051080936
 20
475.1039021772804
 30
0.0
 11
489.5144881080935
 21
475.1039021772804
 31
0.0
  0
LINE
  5
1B081
330
A
100
AcDbEntity
  8
MODEL
 48
0.279809
390
1D
100
AcDbLine
 10
489.5144881080935
 20
477.6039021772804
 30
0.0
 11
500.7068391080937
 21
477.6039021772804
 31
0.0
  0
LINE
  5
1B082
330
A
100
AcDbEntity
  8
MODEL
 48
0.065799
390
1D
100
AcDbLine
 10
457.7068391080937
 20
477.6039021772804
 30
0.0
 11
460.3388141080937
 21
477.6039021772804
 31
0.0
  0
LINE
  5
1B083
330
A
100
AcDbEntity
  8
MODEL
390
1D
100
AcDbLine
 10
460.3388141080937
 20
477.6039021772804
 30
0.0
 11
489.5144881080935
 21
477.6039021772804
 31
0.0
  0
LINE
  5
1B22E
330
A
100
AcDbEntity
  8
MODEL
 48
0.279809
390
1D
100
AcDbLine
 10
489.5144881080935
 20
481.1039021772804
 30
0.0
 11
500.7068441080936
 21
481.1039021772804
 31
0.0
  0
LINE
  5
1B22F
330
A
100
AcDbEntity
  8
MODEL
 48
0.065799
390
1D
100
AcDbLine
 10
457.7068351080937
 20
481.1039021772804
 30
0.0
 11
460.3388051080936
 21
481.1039021772804
 31
0.0
  0
LINE
  5
1B230
330
A
100
AcDbEntity
  8
MODEL
390
1D
100
AcDbLine
 10
460.3388051080936
 20
481.1039021772804
 30
0.0
 11
489.5144881080935
 21
481.1039021772804
 31
0.0
  0
LINE
  5
1B231
330
A
100
AcDbEntity
  8
MODEL
 48
0.279809
390
1D
100
AcDbLine
 10
489.5144881080935
 20
481.6533931772804
 30
0.0
 11
500.7068391080937
 21
481.6533931772804
 31
0.0
  0
LINE
  5
1B232
330
A
100
AcDbEntity
  8
MODEL
 48
0.065799
390
1D
100
AcDbLine
 10
500.7068391080937
 20
481.6533931772804
 30
0.0
 11
498.0748641080937
 21
481.6533931772804
 31
0.0
  0
LINE
  5
1B233
330
A
100
AcDbEntity
  8
MODEL
390
1D
100
AcDbLine
 10
498.0748641080937
 20
481.6533931772804
 30
0.0
 11
468.8991901080938
 21
481.6533931772804
 31
0.0
  0
LINE
  5
1B234
330
A
100
AcDbEntity
  8
MODEL
 48
0.279809
390
1D
100
AcDbLine
 10
468.8991901080938
 20
481.6533931772804
 30
0.0
 11
457.7068391080937
 21
481.6533931772804
 31
0.0
  0
LINE
  5
1B235
330
A
100
AcDbEntity
  8
MODEL
 48
0.065799
390
1D
100
AcDbLine
 10
457.7068391080937
 20
481.6533931772804
 30
0.0
 11
460.3388141080937
 21
481.6533931772804
 31
0.0
  0
LINE
  5
1B236
330
A
100
AcDbEntity
  8
MODEL
390
1D
100
AcDbLine
 10
460.3388141080937
 20
481.6533931772804
 30
0.0
 11
489.5144881080935
 21
481.6533931772804
 31
0.0
  0
LINE
  5
1B237
330
A
100
AcDbEntity
  8
MODEL
 48
0.018961
390
1D
100
AcDbLine
 10
497.1984011080936
 20
485.2039021772803
 30
0.0
 11
497.9568431080937
 21
485.2039021772803
 31
0.0
  0
LINE
  5
1B238
330
A
100
AcDbEntity
  8
MODEL
 48
0.084744
390
1D
100
AcDbLine
 10
493.8086491080938
 20
485.2039021772803
 30
0.0
 11
497.1984011080936
 21
485.2039021772803
 31
0.0
  0
LINE
  5
1B239
330
A
100
AcDbEntity
  8
MODEL
 48
0.140315
390
1D
100
AcDbLine
 10
488.1960681080937
 20
485.2039021772803
 30
0.0
 11
493.8086491080938
 21
485.2039021772803
 31
0.0
  0
LINE
  5
1B23A
330
A
100
AcDbEntity
  8
MODEL
 48
0.174526
390
1D
100
AcDbLine
 10
481.2150211080937
 20
485.2039021772803
 30
0.0
 11
488.1960681080937
 21
485.2039021772803
 31
0.0
  0
LINE
  5
1B23B
330
A
100
AcDbEntity
  8
MODEL
 48
0.182176
390
1D
100
AcDbLine
 10
473.9279721080937
 20
485.2039021772803
 30
0.0
 11
481.2150211080937
 21
485.2039021772803
 31
0.0
  0
LINE
  5
1B23C
330
A
100
AcDbEntity
  8
MODEL
 48
0.333231
390
1D
100
AcDbLine
 10
460.5987301080937
 20
485.2039021772803
 30
0.0
 11
473.9279721080937
 21
485.2039021772803
 31
0.0
  0
LINE
  5
1B23D
330
A
100
AcDbEntity
  8
MODEL
 48
0.000851
390
1D
100
AcDbLine
 10
460.5646901080937
 20
485.2039021772803
 30
0.0
 11
460.5987301080937
 21
485.2039021772803
 31
0.0
  0
LINE
  5
1B23E
330
A
100
AcDbEntity
  8
MODEL
 48
0.002696
390
1D
100
AcDbLine
 10
460.4568361080936
 20
485.2039021772803
 30
0.0
 11
460.5646901080937
 21
485.2039021772803
 31
0.0
  0
LINE
  5
1B23F
330
A
100
AcDbEntity
  8
MODEL
 48
0.425956
390
1D
100
AcDbLine
 10
480.2812071080937
 20
549.0007901772804
 30
0.0
 11
463.2429511080937
 21
549.0007901772804
 31
0.0
  0
LINE
  5
1B240
330
A
100
AcDbEntity
  8
MODEL
 48
0.000903
390
1D
100
AcDbLine
 10
463.2429511080937
 20
549.0007901772804
 30
0.0
 11
463.2068391080937
 21
549.0007901772804
 31
0.0
  0
LINE
  5
1B241
330
A
100
AcDbEntity
  8
MODEL
 48
0.373141
390
1D
100
AcDbLine
 10
463.2068391080937
 20
549.0007901772804
 30
0.0
 11
478.1324721080937
 21
549.0007901772804
 31
0.0
  0
LINE
  5
1B242
330
A
100
AcDbEntity
  8
MODEL
 48
0.425956
390
1D
100
AcDbLine
 10
478.1324721080937
 20
549.0007901772804
 30
0.0
 11
495.1707281080938
 21
549.0007901772804
 31
0.0
  0
LINE
  5
1B243
330
A
100
AcDbEntity
  8
MODEL
 48
0.000903
390
1D
100
AcDbLine
 10
495.1707281080938
 20
549.0007901772804
 30
0.0
 11
495.2068391080937
 21
549.0007901772804
 31
0.0
  0
LINE
  5
1B244
330
A
100
AcDbEntity
  8
MODEL
 48
0.373141
390
1D
100
AcDbLine
 10
495.2068391080937
 20
549.0007901772804
 30
0.0
 11
480.2812071080937
 21
549.0007901772804
 31
0.0
  0
LINE
  5
1B245
330
A
100
AcDbEntity
  8
MODEL
 48
0.452434
390
1D
100
AcDbLine
 10
498.6068521080936
 20
550.5007901772804
 30
0.0
 11
480.5095101080936
 21
550.5007901772804
 31
0.0
  0
LINE
  5
1B246
330
A
100
AcDbEntity
  8
MODEL
 48
0.001095
390
1D
100
AcDbLine
 10
459.8506091080938
 20
550.5007901772804
 30
0.0
 11
459.8068261080937
 21
550.5007901772804
 31
0.0
  0
LINE
  5
1B247
330
A
100
AcDbEntity
  8
MODEL
390
1D
100
AcDbLine
 10
480.5095101080936
 20
550.5007901772804
 30
0.0
 11
459.8506091080938
 21
550.5007901772804
 31
0.0
  0
LINE
  5
1B248
330
A
100
AcDbEntity
  8
MODEL
 48
0.106205
390
1D
100
AcDbLine
 10
494.3148371080936
 20
550.8340331772803
 30
0.0
 11
498.5630541080937
 21
550.8340331772803
 31
0.0
  0
LINE
  5
1B249
330
A
100
AcDbEntity
  8
MODEL
 48
0.145179
390
1D
100
AcDbLine
 10
488.5076951080935
 20
550.8340331772803
 30
0.0
 11
494.3148371080936
 21
550.8340331772803
 31
0.0
  0
LINE
  5
1B24A
330
A
100
AcDbEntity
  8
MODEL
 48
0.180576
390
1D
100
AcDbLine
 10
488.5076951080935
 20
550.8340331772803
 30
0.0
 11
481.2846381080938
 21
550.8340331772803
 31
0.0
  0
LINE
  5
1B24B
330
A
100
AcDbEntity
  8
MODEL
 48
0.084512
390
1D
100
AcDbLine
 10
481.2846381080938
 20
550.8340331772803
 30
0.0
 11
477.9041691080936
 21
550.8340331772803
 31
0.0
  0
LINE
  5
1B24C
330
A
100
AcDbEntity
  8
MODEL
 48
0.001095
390
1D
100
AcDbLine
 10
498.5630541080937
 20
550.8340331772803
 30
0.0
 11
498.6068391080938
 21
550.8340331772803
 31
0.0
  0
LINE
  5
1B24D
330
A
100
AcDbEntity
  8
MODEL
 48
0.452433
390
1D
100
AcDbLine
 10
498.6068391080938
 20
550.8340331772803
 30
0.0
 11
480.5095101080936
 21
550.8340331772803
 31
0.0
  0
LINE
  5
1B24E
330
A
100
AcDbEntity
  8
MODEL
 48
0.106205
390
1D
100
AcDbLine
 10
459.8506241080937
 20
550.8340331772803
 30
0.0
 11
464.0988421080936
 21
550.8340331772803
 31
0.0
  0
LINE
  5
1B24F
330
A
100
AcDbEntity
  8
MODEL
 48
0.145179
390
1D
100
AcDbLine
 10
464.0988421080936
 20
550.8340331772803
 30
0.0
 11
469.9059841080937
 21
550.8340331772803
 31
0.0
  0
LINE
  5
1B250
330
A
100
AcDbEntity
  8
MODEL
 48
0.180576
390
1D
100
AcDbLine
 10
469.9059841080937
 20
550.8340331772803
 30
0.0
 11
477.1290401080935
 21
550.8340331772803
 31
0.0
  0
LINE
  5
1B251
330
A
100
AcDbEntity
  8
MODEL
 48
0.084512
390
1D
100
AcDbLine
 10
477.1290401080935
 20
550.8340331772803
 30
0.0
 11
480.5095101080936
 21
550.8340331772803
 31
0.0
  0
LINE
  5
1B252
330
A
100
AcDbEntity
  8
MODEL
 48
0.452433
390
1D
100
AcDbLine
 10
477.9041691080936
 20
550.8340331772803
 30
0.0
 11
459.8068391080936
 21
550.8340331772803
 31
0.0
  0
LINE
  5
1B253
330
A
100
AcDbEntity
  8
MODEL
 48
0.001095
390
1D
100
AcDbLine
 10
459.8068391080936
 20
550.8340331772803
 30
0.0
 11
459.8506241080937
 21
550.8340331772803
 31
0.0
  0
LINE
  5
1B254
330
A
100
AcDbEntity
  8
MODEL
 48
0.065799
390
1D
100
AcDbLine
 10
500.7068391080937
 20
554.6007901772803
 30
0.0
 11
498.0748641080937
 21
554.6007901772803
 31
0.0
  0
LINE
  5
1B255
330
A
100
AcDbEntity
  8
MODEL
 48
0.279809
390
1D
100
AcDbLine
 10
489.5144881080935
 20
554.0512981772803
 30
0.0
 11
500.7068391080937
 21
554.0512981772803
 31
0.0
  0
LINE
  5
1B256
330
A
100
AcDbEntity
  8
MODEL
 48
0.065799
390
1D
100
AcDbLine
 10
500.7068391080937
 20
554.0512981772803
 30
0.0
 11
498.0748641080937
 21
554.0512981772803
 31
0.0
  0
LINE
  5
1B257
330
A
100
AcDbEntity
  8
MODEL
390
1D
100
AcDbLine
 10
498.0748641080937
 20
554.0512981772803
 30
0.0
 11
468.8991901080938
 21
554.0512981772803
 31
0.0
  0
LINE
  5
1B258
330
A
100
AcDbEntity
  8
MODEL
390
1D
100
AcDbLine
 10
498.0748641080937
 20
554.6007901772803
 30
0.0
 11
468.8991901080938
 21
554.6007901772803
 31
0.0
  0
LINE
  5
1B259
330
A
100
AcDbEntity
  8
MODEL
 48
0.279809
390
1D
100
AcDbLine
 10
468.8991901080938
 20
554.6007901772803
 30
0.0
 11
457.7068391080937
 21
554.6007901772803
 31
0.0
  0
LINE
  5
1B25A
330
A
100
AcDbEntity
  8
MODEL
 48
0.279809
390
1D
100
AcDbLine
 10
468.8991901080938
 20
554.0512981772803
 30
0.0
 11
457.7068391080937
 21
554.0512981772803
 31
0.0
  0
LINE
  5
1B25B
330
A
100
AcDbEntity
  8
MODEL
 48
0.065799
390
1D
100
AcDbLine
 10
457.7068391080937
 20
554.0512981772803
 30
0.0
 11
460.3388141080937
 21
554.0512981772803
 31
0.0
  0
LINE
  5
1B25C
330
A
100
AcDbEntity
  8
MODEL
390
1D
100
AcDbLine
 10
460.3388141080937
 20
554.0512981772803
 30
0.0
 11
489.5144881080935
 21
554.0512981772803
 31
0.0
  0
LINE
  5
1B25D
330
A
100
AcDbEntity
  8
MODEL
 48
0.279809
390
1D
100
AcDbLine
 10
468.8991901080938
 20
558.1007901772803
 30
0.0
 11
457.7068351080937
 21
558.1007901772803
 31
0.0
  0
LINE
  5
1B25E
330
A
100
AcDbEntity
  8
MODEL
390
1D
100
AcDbLine
 10
498.0748741080936
 20
558.1007901772803
 30
0.0
 11
468.8991901080938
 21
558.1007901772803
 31
0.0
  0
LINE
  5
1B25F
330
A
100
AcDbEntity
  8
MODEL
 48
0.065799
390
1D
100
AcDbLine
 10
500.7068441080936
 20
558.1007901772803
 30
0.0
 11
498.0748741080936
 21
558.1007901772803
 31
0.0
  0
LINE
  5
1B260
330
A
100
AcDbEntity
  8
MODEL
 48
0.279809
390
1D
100
AcDbLine
 10
468.8991901080938
 20
560.6007901772803
 30
0.0
 11
457.7068391080937
 21
560.6007901772803
 31
0.0
  0
LINE
  5
1B261
330
A
100
AcDbEntity
  8
MODEL
 48
0.065799
390
1D
100
AcDbLine
 10
500.7068391080937
 20
560.6007901772803
 30
0.0
 11
498.0748641080937
 21
560.6007901772803
 31
0.0
  0
LINE
  5
1B262
330
A
100
AcDbEntity
  8
MODEL
390
1D
100
AcDbLine
 10
498.0748641080937
 20
560.6007901772803
 30
0.0
 11
468.8991901080938
 21
560.6007901772803
 31
0.0
  0
SPLINE
  5
1B29B
330
A
100
AcDbEntity
  8
MODEL
390
1D
100
AcDbSpline
210
0.0
220
0.0
230
1.0
 70
     8
 71
     5
 72
    24
 73
    18
 74
     0
 42
0.000000001
 43
0.0
 40
0.0
 40
0.0
 40
0.0
 40
0.0
 40
0.0
 40
0.0
 40
7.77593617332387
 40
7.77593617332387
 40
7.77593617332387
 40
12.56171114446172
 40
12.56171114446172
 40
12.56171114446172
 40
16.99587369797309
 40
16.99587369797309
 40
16.99587369797309
 40
21.18707458102052
 40
21.18707458102052
 40
21.18707458102052
 40
22.87718185879856
 40
22.87718185879856
 40
22.87718185879856
 40
22.87718185879856
 40
22.87718185879856
 40
22.87718185879856
 10
414.3198880887874
 20
429.089129352595
 30
0.0
 10
415.3455586069384
 20
429.0890102901606
 30
0.0
 10
416.3467721570494
 20
429.0880376063274
 30
0.0
 10
417.3002384990276
 20
429.0874551508676
 30
0.0
 10
418.7936849878632
 20
429.0882051325446
 30
0.0
 10
420.1567258676299
 20
429.0893156698488
 30
0.0
 10
420.6445017208728
 20
429.0893497515584
 30
0.0
 10
421.5458939769067
 20
429.0892644913484
 30
0.0
 10
422.3264275011298
 20
429.0892457237684
 30
0.0
 10
422.6701475934627
 20
429.0893176217053
 30
0.0
 10
423.2680938135782
 20
429.0895775479947
 30
0.0
 10
423.7122618712017
 20
429.089403891042
 30
0.0
 10
423.8818486951944
 20
429.0890401090267
 30
0.0
 10
424.0649837708048
 20
429.0888122126776
 30
0.0
 10
424.1647229154444
 20
429.0888520129
 30
0.0
 10
424.1865502154149
 20
429.088886763643
 30
0.0
 10
424.2014200239753
 20
429.0889418009428
 30
0.0
 10
424.2092228427585
 20
429.0890103150539
 30
0.0
  0
LINE
  5
1B29C
330
A
100
AcDbEntity
  8
MODEL
 48
0.000134
390
1D
100
AcDbLine
 10
424.2092231080936
 20
429.0890101772804
 30
0.0
 11
424.2145771080937
 21
429.0891121772804
 31
0.0
  0
LINE
  5
1B29D
330
A
100
AcDbEntity
  8
MODEL
 48
0.05816
390
1D
100
AcDbLine
 10
424.2145751080937
 20
429.0891151772804
 30
0.0
 11
421.8881881080936
 21
429.0891401772804
 31
0.0
  0
LINE
  5
1B29E
330
A
100
AcDbEntity
  8
MODEL
 48
0.169796
390
1D
100
AcDbLine
 10
415.0963271080937
 20
429.0873781772803
 30
0.0
 11
421.8881661080937
 21
429.0891531772804
 31
0.0
  0
LINE
  5
1B29F
330
A
100
AcDbEntity
  8
MODEL
 48
0.475046
390
1D
100
AcDbLine
 10
396.0945031080935
 20
429.0855871772804
 30
0.0
 11
415.0963271080937
 21
429.0873781772803
 31
0.0
  0
ARC
  5
1B2A0
330
A
100
AcDbEntity
  8
MODEL
390
1D
100
AcDbCircle
 10
392.4174771080937
 20
7434.19806217728
 30
0.0
 40
7005.112937
100
AcDbArc
 50
269.9491870000001
 51
270.030075
  0
LINE
  5
1B2A1
330
A
100
AcDbEntity
  8
MODEL
 48
0.058148
390
1D
100
AcDbLine
 10
388.5255131080938
 20
429.0891511772804
 30
0.0
 11
386.1995751080938
 21
429.0876521772804
 31
0.0
  0
LINE
  5
1B2A2
330
A
100
AcDbEntity
  8
MODEL
 48
0.000135
390
1D
100
AcDbLine
 10
386.1995711080936
 20
429.0876461772803
 30
0.0
 11
386.2049571080937
 21
429.0874791772804
 31
0.0
  0
LINE
  5
1B2A3
330
A
100
AcDbEntity
  8
MODEL
 48
0.16979
390
1D
100
AcDbLine
 10
388.5255131080938
 20
429.0891511772804
 30
0.0
 11
395.3171021080937
 21
429.0889091772804
 31
0.0
  0
SPLINE
  5
1B2A4
330
A
100
AcDbEntity
  8
MODEL
390
1D
100
AcDbSpline
210
0.0
220
0.0
230
1.0
 70
     8
 71
     5
 72
    24
 73
    18
 74
     0
 42
0.000000001
 43
0.0
 40
0.0
 40
0.0
 40
0.0
 40
0.0
 40
0.0
 40
0.0
 40
5.32860516412507
 40
5.32860516412507
 40
5.32860516412507
 40
8.152096863478864
 40
8.152096863478864
 40
8.152096863478864
 40
16.56804011524775
 40
16.56804011524775
 40
16.56804011524775
 40
22.03342219864384
 40
22.03342219864384
 40
22.03342219864384
 40
27.55459372234377
 40
27.55459372234377
 40
27.55459372234377
 40
27.55459372234377
 40
27.55459372234377
 40
27.55459372234377
 10
395.3171020394537
 20
429.0889095116326
 30
0.0
 10
396.0091505373462
 20
429.0887437902321
 30
0.0
 10
396.7141727088184
 20
429.0886644972363
 30
0.0
 10
397.4300605787219
 20
429.0887592853069
 30
0.0
 10
398.5379051939311
 20
429.0890805626083
 30
0.0
 10
399.6620561011662
 20
429.0893260449442
 30
0.0
 10
400.0029921989915
 20
429.0893647560646
 30
0.0
 10
401.5647150581722
 20
429.0893456951393
 30
0.0
 10
403.1324366665729
 20
429.0890369351352
 30
0.0
 10
404.2633342792799
 20
429.0891091887632
 30
0.0
 10
406.2166547463403
 20
429.08946463662
 30
0.0
 10
408.177254343452
 20
429.0887875099082
 30
0.0
 10
409.0585185177216
 20
429.0881462221901
 30
0.0
 10
410.5915317317147
 20
429.087636185588
 30
0.0
 10
412.100270827539
 20
429.0880479257347
 30
0.0
 10
412.8509489701694
 20
429.0885070644106
 30
0.0
 10
413.5915790449092
 20
429.0890317868393
 30
0.0
 10
414.3198886711387
 20
429.0891290076137
 30
0.0
  0
SPLINE
  5
1B2B5
330
A
100
AcDbEntity
  8
MODEL
390
1D
100
AcDbSpline
210
0.0
220
0.0
230
1.0
 70
     8
 71
     3
 72
    27
 73
    23
 74
     0
 42
0.000000001
 43
0.0
 40
0.0
 40
0.0
 40
0.0
 40
0.0
 40
0.0715591142832565
 40
0.1435899537483356
 40
0.216043732979613
 40
0.2888583545927302
 40
0.4351511986838441
 40
0.5818482182163967
 40
0.6551940605972977
 40
0.7284357956373261
 40
0.8015555766614597
 40
0.8745800410496329
 40
0.947571282449453
 40
1.020569144713524
 40
1.093587317891971
 40
1.166619812597586
 40
1.239647444466703
 40
1.312644295367781
 40
1.385584158926962
 40
1.458446998764718
 40
1.531225448881533
 40
1.603931366688613
 40
1.603931366688613
 40
1.603931366688613
 40
1.603931366688613
 10
389.1939733646998
 20
430.2357754621207
 30
0.0
 10
389.194808596735
 20
430.2119250250136
 30
0.0
 10
389.1945939820112
 20
430.1640231876426
 30
0.0
 10
389.1888229591526
 20
430.0921707559567
 30
0.0
 10
389.1777400479071
 20
430.0205250766945
 30
0.0
 10
389.1560440572899
 20
429.9257198113623
 30
0.0
 10
389.1163528674313
 20
429.8099815468061
 30
0.0
 10
389.0609094607331
 20
429.7006992601311
 30
0.0
 10
389.0075708492148
 20
429.6186838760481
 30
0.0
 10
388.9632130739095
 20
429.5603221861598
 30
0.0
 10
388.9146462959475
 20
429.5055531162178
 30
0.0
 10
388.862005615107
 20
429.4548053561292
 30
0.0
 10
388.8056884141022
 20
429.4082428902321
 30
0.0
 10
388.7460682259878
 20
429.3660002119817
 30
0.0
 10
388.6835163236731
 20
429.3282121084412
 30
0.0
 10
388.6184028219798
 20
429.2950134779615
 30
0.0
 10
388.5510972585383
 20
429.2665401233101
 30
0.0
 10
388.4819688055794
 20
429.2429286080297
 30
0.0
 10
388.4113858117735
 20
429.2243163532157
 30
0.0
 10
388.3397182547874
 20
429.2108416944134
 30
0.0
 10
388.2673292108159
 20
429.2026439239455
 30
0.0
 10
388.2188321927859
 20
429.2007897143988
 30
0.0
 10
388.1945852913628
 20
429.2007897143898
 30
0.0
  0
ARC
  5
1B2B6
330
A
100
AcDbEntity
  8
MODEL
390
1D
100
AcDbCircle
 10
191.2068351080937
 20
484.0007881772804
 30
0.0
 40
4.000004
100
AcDbArc
 50
359.9999859999992
 51
29.99998299999992
  0
ARC
  5
1B2B7
330
A
100
AcDbEntity
  8
MODEL
390
1D
100
AcDbCircle
 10
191.2068351080937
 20
449.0007911772804
 30
0.0
 40
4.000004
100
AcDbArc
 50
330.0000170000002
 51
0.0000139999991338
  0
SPLINE
  5
1B2B8
330
A
100
AcDbEntity
  8
MODEL
390
1D
100
AcDbSpline
210
0.0
220
0.0
230
1.0
 70
     8
 71
     3
 72
    23
 73
    19
 74
     0
 42
0.000000001
 43
0.0
 40
0.0
 40
0.0
 40
0.0
 40
0.0
 40
0.0695010960679353
 40
0.139426478598267
 40
0.2803017678493385
 40
0.4222079879584382
 40
0.5645001475976212
 40
0.6356511543284024
 40
0.7067106587205121
 40
0.7776595836551469
 40
0.8485179730810468
 40
0.919339686016188
 40
0.9901604014510592
 40
1.131748474440585
 40
1.273307587121331
 40
1.414677034624486
 40
1.485303275217698
 40
1.555870815273849
 40
1.555870815273849
 40
1.555870815273849
 40
1.555870815273849
 10
421.2023861018191
 20
430.1878267813354
 30
0.0
 10
421.2026865671326
 20
430.1646500969255
 30
0.0
 10
421.2050390501357
 20
430.1181976416129
 30
0.0
 10
421.2166485114834
 20
430.0254142092103
 30
0.0
 10
421.2436690296834
 20
429.910565904359
 30
0.0
 10
421.2947152118248
 20
429.7779512424175
 30
0.0
 10
421.351978865537
 20
429.6737985773394
 30
0.0
 10
421.4060902007994
 20
429.5958385175208
 30
0.0
 10
421.4506860540178
 20
429.5404414919522
 30
0.0
 10
421.4991452275422
 20
429.4885210514986
 30
0.0
 10
421.5513300528558
 20
429.4404629043259
 30
0.0
 10
421.6068814900439
 20
429.3964096791172
 30
0.0
 10
421.6849449323723
 20
429.3431934974153
 30
0.0
 10
421.7893034260508
 20
429.2872395637366
 30
0.0
 10
421.9224455969696
 20
429.2380699072073
 30
0.0
 10
422.0379859645685
 20
429.2127937559141
 30
0.0
 10
422.1316836499021
 20
429.202529578777
 30
0.0
 10
422.1787515605388
 20
429.2007897143901
 30
0.0
 10
422.2022853672773
 20
429.2007897143898
 30
0.0
  0
LINE
  5
1B2B9
330
A
100
AcDbEntity
  8
MODEL
 48
0.331976
390
1D
100
AcDbLine
 10
194.6709411080936
 20
486.0007901772804
 30
0.0
 11
188.0314131080937
 21
497.5007891772803
 31
0.0
  0
LINE
  5
1B2BA
330
A
100
AcDbEntity
  8
MODEL
 48
0.331976
390
1D
100
AcDbLine
 10
194.6709411080936
 20
447.0007901772804
 30
0.0
 11
188.0314131080937
 21
435.5007901772804
 31
0.0
  0
ARC
  5
1B2BB
330
A
100
AcDbEntity
  8
MODEL
390
1D
100
AcDbCircle
 10
184.5672731080936
 20
495.5007231772804
 30
0.0
 40
4.000066
100
AcDbArc
 50
30.00054600000129
 51
90.00000100000118
  0
ARC
  5
1B2BC
330
A
100
AcDbEntity
  8
MODEL
390
1D
100
AcDbCircle
 10
184.5672731080936
 20
437.5008561772804
 30
0.0
 40
4.000066
100
AcDbArc
 50
269.9999989999988
 51
329.9994540000008
  0
LINE
  5
1B2BD
330
A
100
AcDbEntity
  8
MODEL
 48
0.059011
390
1D
100
AcDbLine
 10
184.5672731080936
 20
499.5007901772804
 30
0.0
 11
182.2068391080937
 21
499.5007901772804
 31
0.0
  0
LINE
  5
1B2BE
330
A
100
AcDbEntity
  8
MODEL
 48
0.059011
390
1D
100
AcDbLine
 10
184.5672731080936
 20
433.5007901772804
 30
0.0
 11
182.2068391080937
 21
433.5007901772804
 31
0.0
  0
LINE
  5
1B2C1
330
A
100
AcDbEntity
  8
MODEL
 48
0.013737
390
1D
100
AcDbLine
 10
383.7068391080937
 20
425.6502811772803
 30
0.0
 11
383.7068391080937
 21
425.1007901772803
 31
0.0
  0
LINE
  5
1B2C2
330
A
100
AcDbEntity
  8
MODEL
 48
0.013737
390
1D
100
AcDbLine
 10
426.7068391080937
 20
425.6502811772803
 30
0.0
 11
426.7068391080937
 21
425.1007901772803
 31
0.0
  0
LINE
  5
1B2C7
330
A
100
AcDbEntity
  8
MODEL
 48
0.0875
390
1D
100
AcDbLine
 10
383.7268391080937
 20
425.1007901772803
 30
0.0
 11
383.7268391080937
 21
421.6007901772803
 31
0.0
  0
LINE
  5
1B2C8
330
A
100
AcDbEntity
  8
MODEL
 48
0.0875
390
1D
100
AcDbLine
 10
426.6868391080937
 20
425.1007901772803
 30
0.0
 11
426.6868391080937
 21
421.6007901772803
 31
0.0
  0
LINE
  5
1B2CB
330
A
100
AcDbEntity
  8
MODEL
 48
0.0625
390
1D
100
AcDbLine
 10
426.7068391080937
 20
421.6007901772803
 30
0.0
 11
426.7068391080937
 21
419.1007901772803
 31
0.0
  0
LINE
  5
1B2CC
330
A
100
AcDbEntity
  8
MODEL
 48
0.0625
390
1D
100
AcDbLine
 10
383.7068391080937
 20
421.6007901772803
 30
0.0
 11
383.7068391080937
 21
419.1007901772803
 31
0.0
  0
ARC
  5
1B2CF
330
A
100
AcDbEntity
  8
MODEL
390
1D
100
AcDbCircle
 10
423.4383301080937
 20
417.0991411772804
 30
0.0
 40
1.5
100
AcDbArc
 50
140.0000030000022
 51
161.1910960000034
  0
ARC
  5
1B2D0
330
A
100
AcDbEntity
  8
MODEL
390
1D
100
AcDbCircle
 10
386.9753491080936
 20
417.0991411772804
 30
0.0
 40
1.5
100
AcDbArc
 50
18.80886999999993
 51
39.99999699999781
  0
LINE
  5
1B2D9
102
{ACAD_REACTORS
330
1B3BE
102
}
330
A
100
AcDbEntity
  8
MODEL
390
1D
100
AcDbLine
 10
182.2068391080937
 20
482.5007901772804
 30
0.0
 11
155.2068391080937
 21
482.5007901772804
 31
0.0
  0
ARC
  5
1B2DA
330
A
100
AcDbEntity
  8
MODEL
390
1D
100
AcDbCircle
 10
423.6567121080937
 20
415.2489521772804
 30
0.0
 40
2.450001
100
AcDbArc
 50
155.0000060000012
 51
179.4141530000011
  0
ARC
  5
1B2DB
330
A
100
AcDbEntity
  8
MODEL
390
1D
100
AcDbCircle
 10
386.7569661080937
 20
415.2489521772804
 30
0.0
 40
2.450001
100
AcDbArc
 50
0.5858469999989686
 51
24.99999399999885
  0
LINE
  5
1B2DC
330
A
100
AcDbEntity
  8
MODEL
 48
0.001253
390
1D
100
AcDbLine
 10
421.2068391080937
 20
415.2239021772803
 30
0.0
 11
421.2068391080937
 21
415.2740031772804
 31
0.0
  0
LINE
  5
1B2DD
330
A
100
AcDbEntity
  8
MODEL
 48
0.150633
390
1D
100
AcDbLine
 10
463.2068391080937
 20
421.2492271772804
 30
0.0
 11
463.2068391080937
 21
415.2239021772803
 31
0.0
  0
ARC
  5
1B2DE
330
A
100
AcDbEntity
  8
MODEL
390
1D
100
AcDbCircle
 10
497.6568411080937
 20
421.2492271772804
 30
0.0
 40
2.450001
100
AcDbArc
 50
155.0000070000009
 51
179.9999930000014
  0
ARC
  5
1B2DF
330
A
100
AcDbEntity
  8
MODEL
390
1D
100
AcDbCircle
 10
460.7568381080935
 20
421.2492271772804
 30
0.0
 40
2.450001
100
AcDbArc
 50
0.0000069999985918
 51
24.99999299999734
  0
LINE
  5
1B2E0
330
A
100
AcDbEntity
  8
MODEL
 48
0.025901
390
1D
100
AcDbLine
 10
495.4363851080937
 20
422.2846421772803
 30
0.0
 11
495.8742321080936
 21
423.2236071772804
 31
0.0
  0
LINE
  5
1B2E1
330
A
100
AcDbEntity
  8
MODEL
 48
0.025901
390
1D
100
AcDbLine
 10
462.9772931080936
 20
422.2846421772803
 30
0.0
 11
462.5394471080936
 21
423.2236071772804
 31
0.0
  0
ARC
  5
1B2E2
330
A
100
AcDbEntity
  8
MODEL
390
1D
100
AcDbCircle
 10
492.6568371080937
 20
424.7239021772803
 30
0.0
 40
3.550002
100
AcDbArc
 50
335.0000070000017
 51
0.0
  0
ARC
  5
1B2E3
330
A
100
AcDbEntity
  8
MODEL
390
1D
100
AcDbCircle
 10
465.7568411080936
 20
424.7239021772803
 30
0.0
 40
3.550002
100
AcDbArc
 50
180.0
 51
204.9999929999983
  0
LINE
  5
1B2E4
330
A
100
AcDbEntity
  8
MODEL
390
1D
100
AcDbLine
 10
496.2068391080937
 20
474.4191391772803
 30
0.0
 11
496.2068391080937
 21
424.7239021772803
 31
0.0
  0
LINE
  5
1B2E5
330
A
100
AcDbEntity
  8
MODEL
 48
0.2457
390
1D
100
AcDbLine
 10
462.2068391080937
 20
474.4191391772803
 30
0.0
 11
462.2068391080937
 21
464.5911341772804
 31
0.0
  0
LINE
  5
1B2EE
330
A
100
AcDbEntity
  8
MODEL
 48
0.433077
390
1D
100
AcDbLine
 10
462.2068391080937
 20
464.5911341772804
 30
0.0
 11
462.2068391080937
 21
424.7239021772803
 31
0.0
  0
ARC
  5
1B2EF
330
A
100
AcDbEntity
  8
MODEL
390
1D
100
AcDbCircle
 10
497.7068401080936
 20
474.4191391772803
 30
0.0
 40
1.500001
100
AcDbArc
 50
152.8379819999989
 51
179.9999889999984
  0
ARC
  5
1B2F0
330
A
100
AcDbEntity
  8
MODEL
390
1D
100
AcDbCircle
 10
460.7068381080938
 20
474.4191391772803
 30
0.0
 40
1.500001
100
AcDbArc
 50
0.0000110000015903
 51
27.16201800000114
  0
LINE
  5
1B2F4
330
A
100
AcDbEntity
  8
MODEL
 48
0.0625
390
1D
100
AcDbLine
 10
500.7068391080937
 20
477.6039021772804
 30
0.0
 11
500.7068391080937
 21
475.1039021772804
 31
0.0
  0
LINE
  5
1B2F5
330
A
100
AcDbEntity
  8
MODEL
 48
0.0625
390
1D
100
AcDbLine
 10
457.7068391080937
 20
477.6039021772804
 30
0.0
 11
457.7068391080937
 21
475.1039021772804
 31
0.0
  0
LINE
  5
1B2FA
330
A
100
AcDbEntity
  8
MODEL
 48
0.0875
390
1D
100
AcDbLine
 10
457.7268391080937
 20
481.1039021772804
 30
0.0
 11
457.7268391080937
 21
477.6039021772804
 31
0.0
  0
LINE
  5
1B2FB
330
A
100
AcDbEntity
  8
MODEL
 48
0.0875
390
1D
100
AcDbLine
 10
500.6868391080937
 20
481.1039021772804
 30
0.0
 11
500.6868391080937
 21
477.6039021772804
 31
0.0
  0
LINE
  5
1B2FC
330
A
100
AcDbEntity
  8
MODEL
 48
0.013737
390
1D
100
AcDbLine
 10
500.7068391080937
 20
481.6533931772804
 30
0.0
 11
500.7068391080937
 21
481.1039021772804
 31
0.0
  0
LINE
  5
1B2FD
330
A
100
AcDbEntity
  8
MODEL
 48
0.013737
390
1D
100
AcDbLine
 10
457.7068391080937
 20
481.6533931772804
 30
0.0
 11
457.7068391080937
 21
481.1039021772804
 31
0.0
  0
LINE
  5
1B2FE
330
A
100
AcDbEntity
  8
MODEL
390
1D
100
AcDbLine
 10
463.2068391080937
 20
485.2039021772803
 30
0.0
 11
463.2068391080937
 21
549.0007901772804
 31
0.0
  0
LINE
  5
1B2FF
330
A
100
AcDbEntity
  8
MODEL
390
1D
100
AcDbLine
 10
495.2068391080937
 20
485.2039021772803
 30
0.0
 11
495.2068391080937
 21
549.0007901772804
 31
0.0
  0
ARC
  5
1B300
330
A
100
AcDbEntity
  8
MODEL
390
1D
100
AcDbCircle
 10
461.7068391080937
 20
549.0007901772804
 30
0.0
 40
1.5
100
AcDbArc
 50
0.0
 51
89.99914399999722
  0
ARC
  5
1B301
330
A
100
AcDbEntity
  8
MODEL
390
1D
100
AcDbCircle
 10
496.7068391080937
 20
549.0007901772804
 30
0.0
 40
1.5
100
AcDbArc
 50
90.00085600000283
 51
180.0
  0
LINE
  5
1B302
330
A
100
AcDbEntity
  8
MODEL
 48
0.008331
390
1D
100
AcDbLine
 10
498.6068391080938
 20
550.5007901772804
 30
0.0
 11
498.6068391080938
 21
550.8340331772803
 31
0.0
  0
LINE
  5
1B303
330
A
100
AcDbEntity
  8
MODEL
 48
0.008331
390
1D
100
AcDbLine
 10
459.8068391080936
 20
550.5007901772804
 30
0.0
 11
459.8068391080936
 21
550.8340331772803
 31
0.0
  0
LINE
  5
1B304
330
A
100
AcDbEntity
  8
MODEL
 48
0.013737
390
1D
100
AcDbLine
 10
500.7068391080937
 20
554.0512981772803
 30
0.0
 11
500.7068391080937
 21
554.6007901772803
 31
0.0
  0
LINE
  5
1B305
330
A
100
AcDbEntity
  8
MODEL
 48
0.013737
390
1D
100
AcDbLine
 10
457.7068391080937
 20
554.0512981772803
 30
0.0
 11
457.7068391080937
 21
554.6007901772803
 31
0.0
  0
LINE
  5
1B306
330
A
100
AcDbEntity
  8
MODEL
 48
0.0875
390
1D
100
AcDbLine
 10
500.6868391080937
 20
554.6007901772803
 30
0.0
 11
500.6868391080937
 21
558.1007901772803
 31
0.0
  0
LINE
  5
1B307
330
A
100
AcDbEntity
  8
MODEL
 48
0.0875
390
1D
100
AcDbLine
 10
457.7268391080937
 20
554.6007901772803
 30
0.0
 11
457.7268391080937
 21
558.1007901772803
 31
0.0
  0
LINE
  5
1B308
330
A
100
AcDbEntity
  8
MODEL
 48
0.0625
390
1D
100
AcDbLine
 10
457.7068391080937
 20
558.1007901772803
 30
0.0
 11
457.7068391080937
 21
560.6007901772803
 31
0.0
  0
LINE
  5
1B309
330
A
100
AcDbEntity
  8
MODEL
 48
0.0625
390
1D
100
AcDbLine
 10
500.7068391080937
 20
558.1007901772803
 30
0.0
 11
500.7068391080937
 21
560.6007901772803
 31
0.0
  0
SPLINE
  5
1B314
330
A
100
AcDbEntity
  8
MODEL
390
1D
100
AcDbSpline
210
0.0
220
0.0
230
1.0
 70
     8
 71
     3
 72
    19
 73
    15
 74
     0
 42
0.000000001
 43
0.0
 40
0.0
 40
0.0
 40
0.0
 40
0.0
 40
0.1184593383857182
 40
0.2369891796444443
 40
0.3556121320442152
 40
0.4743371792696404
 40
0.5931221790358434
 40
0.711894082682614
 40
0.8305869209045212
 40
0.9492075885708046
 40
1.067780571048222
 40
1.186329845298533
 40
1.304879133825132
 40
1.423452159271937
 40
1.423452159271937
 40
1.423452159271937
 40
1.423452159271937
 10
388.3952480788783
 20
417.5827601700716
 30
0.0
 10
388.407921008346
 20
417.5453572727473
 30
0.0
 10
388.4346180004121
 20
417.4709922362737
 30
0.0
 10
388.478870856159
 20
417.3610005096849
 30
0.0
 10
388.5259608096542
 20
417.2521124431045
 30
0.0
 10
388.5751821044656
 20
417.1440810770927
 30
0.0
 10
388.625661690335
 20
417.0365818076512
 30
0.0
 10
388.6765772774823
 20
416.9293011001196
 30
0.0
 10
388.7271061080142
 20
416.8218979810782
 30
0.0
 10
388.7773346709481
 20
416.7144274897334
 30
0.0
 10
388.8273610871743
 20
416.6069155672809
 30
0.0
 10
388.8772865167978
 20
416.4993829824873
 30
0.0
 10
388.9272120016615
 20
416.391850406051
 30
0.0
 10
388.9605574930704
 20
416.3201878289064
 30
0.0
 10
388.9772622186964
 20
416.2843670793847
 30
0.0
  0
SPLINE
  5
1B315
330
A
100
AcDbEntity
  8
MODEL
390
1D
100
AcDbSpline
210
0.0
220
0.0
230
1.0
 70
     8
 71
     3
 72
    19
 73
    15
 74
     0
 42
0.000000001
 43
0.0
 40
0.0
 40
0.0
 40
0.0
 40
0.0
 40
0.118460581574561
 40
0.2369903894608268
 40
0.355613308343375
 40
0.4743383218876996
 40
0.5931232878709221
 40
0.7118951577533194
 40
0.8305879623508685
 40
0.9492085965266455
 40
1.067781545604577
 40
1.186330786501431
 40
1.304880041674507
 40
1.423453033721646
 40
1.423453033721646
 40
1.423453033721646
 40
1.423453033721646
 10
422.0184308172505
 20
417.5827609976657
 30
0.0
 10
422.0057577504995
 20
417.5453577091599
 30
0.0
 10
421.9790606487625
 20
417.4709922835885
 30
0.0
 10
421.9348076305089
 20
417.3610001991988
 30
0.0
 10
421.8877176861761
 20
417.2521121653921
 30
0.0
 10
421.8384964004479
 20
417.1440808321791
 30
0.0
 10
421.7880168262485
 20
417.0365815945591
 30
0.0
 10
421.7371012518557
 20
416.9293009182979
 30
0.0
 10
421.6865724348116
 20
416.8218978300732
 30
0.0
 10
421.6363438858478
 20
416.7144273691818
 30
0.0
 10
421.5863174839224
 20
416.6069154769297
 30
0.0
 10
421.5363920687622
 20
416.4993829222109
 30
0.0
 10
421.4864665983621
 20
416.3918503758495
 30
0.0
 10
421.4531211164756
 20
416.3201878188157
 30
0.0
 10
421.4364163955536
 20
416.2843670793848
 30
0.0
  0
SPLINE
  5
1B316
330
A
100
AcDbEntity
  8
MODEL
390
1D
100
AcDbSpline
210
0.0
220
0.0
230
1.0
 70
     8
 71
     3
 72
    19
 73
    15
 74
     0
 42
0.000000001
 43
0.0
 40
0.0
 40
0.0
 40
0.0
 40
0.0
 40
0.1089432704836508
 40
0.2179362189735866
 40
0.3273704737445703
 40
0.4372947946313055
 40
0.5475098639292316
 40
0.6576605503112608
 40
0.7674183241651933
 40
0.8768150281820599
 40
0.9859714738941583
 40
1.095008132814957
 40
1.204045259483832
 40
1.313203108042281
 40
1.313203108042281
 40
1.313203108042281
 40
1.313203108042281
 10
423.0891710561619
 20
419.1007897143981
 30
0.0
 10
423.0741095446031
 20
419.0677212270709
 30
0.0
 10
423.0408346237617
 20
419.0030543915014
 30
0.0
 10
422.9833003833485
 20
418.9102173730982
 30
0.0
 10
422.9199251575445
 20
418.8209196913626
 30
0.0
 10
422.8523272714349
 20
418.734289912753
 30
0.0
 10
422.7821132734819
 20
418.6494794962521
 30
0.0
 10
422.7108616502658
 20
418.5656208618986
 30
0.0
 10
422.6400464978686
 20
418.4817498081307
 30
0.0
 10
422.569634733713
 20
418.3979724514117
 30
0.0
 10
422.4995062156125
 20
418.3142712274751
 30
0.0
 10
422.4295186613847
 20
418.2306083431519
 30
0.0
 10
422.3595305901538
 20
418.1469452798589
 30
0.0
 10
422.3128201005555
 20
418.0911956022591
 30
0.0
 10
422.2894305374217
 20
418.0633232878504
 30
0.0
  0
SPLINE
  5
1B317
330
A
100
AcDbEntity
  8
MODEL
390
1D
100
AcDbSpline
210
0.0
220
0.0
230
1.0
 70
     8
 71
     3
 72
    19
 73
    15
 74
     0
 42
0.000000001
 43
0.0
 40
0.0
 40
0.0
 40
0.0
 40
0.0
 40
0.1089432704838897
 40
0.217936218974111
 40
0.3273704737450701
 40
0.4372947946311663
 40
0.5475098639291159
 40
0.6576605503111586
 40
0.7674183241651148
 40
0.8768150281819969
 40
0.985971473894119
 40
1.095008132814942
 40
1.204045259483833
 40
1.313203108042288
 40
1.313203108042288
 40
1.313203108042288
 40
1.313203108042288
 10
387.3245075580883
 20
419.1007897143979
 30
0.0
 10
387.3395690696473
 20
419.0677212270707
 30
0.0
 10
387.3728439904892
 20
419.0030543915012
 30
0.0
 10
387.4303782309026
 20
418.9102173730981
 30
0.0
 10
387.4937534567069
 20
418.8209196913627
 30
0.0
 10
387.561351342815
 20
418.7342899127523
 30
0.0
 10
387.6315653407681
 20
418.6494794962519
 30
0.0
 10
387.7028169639844
 20
418.5656208618983
 30
0.0
 10
387.7736321163814
 20
418.4817498081305
 30
0.0
 10
387.8440438805372
 20
418.3979724514114
 30
0.0
 10
387.9141723986375
 20
418.3142712274748
 30
0.0
 10
387.9841599528652
 20
418.2306083431516
 30
0.0
 10
388.0541480240962
 20
418.1469452798586
 30
0.0
 10
388.1008585136945
 20
418.0911956022588
 30
0.0
 10
388.1242480768286
 20
418.0633232878501
 30
0.0
  0
SPLINE
  5
1B319
330
A
100
AcDbEntity
  8
MODEL
390
1D
100
AcDbSpline
210
0.0
220
0.0
230
1.0
 70
     8
 71
     3
 72
    23
 73
    19
 74
     0
 42
0.000000001
 43
0.0
 40
0.0
 40
0.0
 40
0.0
 40
0.0
 40
0.2960944211543932
 40
0.5934115960481952
 40
0.8910472278329822
 40
1.188047660118464
 40
1.484035326853468
 40
1.780037780640874
 40
2.076586635096396
 40
2.373389475256506
 40
2.669734061008453
 40
2.965562259072509
 40
3.261105218016619
 40
3.556688659976028
 40
3.852613556316792
 40
4.148725158719357
 40
4.444243572153123
 40
4.739290761688371
 40
4.739290761688371
 40
4.739290761688371
 40
4.739290761688371
 10
500.7068393071273
 20
481.6533929736184
 30
0.0
 10
500.7068423436165
 20
481.7521629860437
 30
0.0
 10
500.69506961502
 20
481.949905905337
 30
0.0
 10
500.6515485350488
 20
482.244144405923
 30
0.0
 10
500.5786843300032
 20
482.5329098932025
 30
0.0
 10
500.4781998161266
 20
482.8127866916992
 30
0.0
 10
500.350124866917
 20
483.0805291460968
 30
0.0
 10
500.1988846355674
 20
483.3355687180962
 30
0.0
 10
500.028465358957
 20
483.5784420259789
 30
0.0
 10
499.8427198324192
 20
483.8098428617301
 30
0.0
 10
499.6450614199269
 20
484.0308002065805
 30
0.0
 10
499.4357594149076
 20
484.2401954426372
 30
0.0
 10
499.2150025591148
 20
484.4371077219345
 30
0.0
 10
498.9829440190131
 20
484.6206406895369
 30
0.0
 10
498.7399589416355
 20
484.7897779387338
 30
0.0
 10
498.4873139603151
 20
484.9440514019852
 30
0.0
 10
498.2262455818344
 20
485.0829918831222
 30
0.0
 10
498.0472541027717
 20
485.1651520804059
 30
0.0
 10
497.9566752141421
 20
485.2035401366016
 30
0.0
  0
SPLINE
  5
1B31A
330
A
100
AcDbEntity
  8
MODEL
390
1D
100
AcDbSpline
210
0.0
220
0.0
230
1.0
 70
     8
 71
     3
 72
    23
 73
    19
 74
     0
 42
0.000000001
 43
0.0
 40
0.0
 40
0.0
 40
0.0
 40
0.0
 40
0.2960944211543758
 40
0.5934115960481796
 40
0.8910472278329666
 40
1.188047660118446
 40
1.484035326853454
 40
1.780037780640861
 40
2.076586635096382
 40
2.373389475256493
 40
2.669734061008443
 40
2.965562259072497
 40
3.261105218016608
 40
3.556688659976028
 40
3.852613556316793
 40
4.148725158719355
 40
4.444243572150887
 40
4.739290761683904
 40
4.739290761683904
 40
4.739290761683904
 40
4.739290761683904
 10
457.7068393071311
 20
481.6533929736184
 30
0.0
 10
457.7068362706419
 20
481.7521629860437
 30
0.0
 10
457.7186089992386
 20
481.949905905337
 30
0.0
 10
457.7621300792096
 20
482.244144405923
 30
0.0
 10
457.8349942842554
 20
482.5329098932025
 30
0.0
 10
457.935478798132
 20
482.8127866916992
 30
0.0
 10
458.0635537473416
 20
483.0805291460969
 30
0.0
 10
458.2147939786913
 20
483.3355687180962
 30
0.0
 10
458.3852132553014
 20
483.5784420259789
 30
0.0
 10
458.5709587818395
 20
483.8098428617303
 30
0.0
 10
458.7686171943317
 20
484.0308002065805
 30
0.0
 10
458.9779191993508
 20
484.2401954426372
 30
0.0
 10
459.1986760551438
 20
484.4371077219346
 30
0.0
 10
459.4307345952455
 20
484.6206406895369
 30
0.0
 10
459.6737196726229
 20
484.7897779387338
 30
0.0
 10
459.9263646539428
 20
484.9440514019848
 30
0.0
 10
460.187433032422
 20
485.0829918831212
 30
0.0
 10
460.3664245114836
 20
485.1651520804044
 30
0.0
 10
460.4570034001122
 20
485.2035401365999
 30
0.0
  0
SPLINE
  5
1B31B
330
A
100
AcDbEntity
  8
MODEL
390
1D
100
AcDbSpline
210
0.0
220
0.0
230
1.0
 70
     8
 71
     3
 72
    21
 73
    17
 74
     0
 42
0.000000001
 43
0.0
 40
0.0
 40
0.0
 40
0.0
 40
0.0
 40
0.3175220814929387
 40
0.6362893729760282
 40
0.954935382666189
 40
1.272330142569439
 40
1.589165226540882
 40
1.906893095795873
 40
2.22584338186603
 40
2.545513083614563
 40
2.865496901291348
 40
3.185482127987305
 40
3.505147365992499
 40
3.824182552437382
 40
4.141801586020325
 40
4.458290302797733
 40
4.458290302797733
 40
4.458290302797733
 40
4.458290302797733
 10
426.7068393071207
 20
425.6502808070425
 30
0.0
 10
426.7066488541635
 20
425.7562150180817
 30
0.0
 10
426.6942269261411
 20
425.9682767551553
 30
0.0
 10
426.6439089414915
 20
426.2831575609642
 30
0.0
 10
426.5606956625355
 20
426.5909971350017
 30
0.0
 10
426.4446708608683
 20
426.8873544014793
 30
0.0
 10
426.2982290501753
 20
427.1694365188291
 30
0.0
 10
426.1270363358374
 20
427.4376502832338
 30
0.0
 10
425.9356262571217
 20
427.6928724041152
 30
0.0
 10
425.7283983078999
 20
427.9363481831813
 30
0.0
 10
425.5064916470067
 20
428.1670160010752
 30
0.0
 10
425.2710371746242
 20
428.3838284091092
 30
0.0
 10
425.0231262503754
 20
428.5857846963604
 30
0.0
 10
424.7639940404977
 20
428.7717765483182
 30
0.0
 10
424.4947368573287
 20
428.9408345508348
 30
0.0
 10
424.3088948250687
 20
429.0417776136808
 30
0.0
 10
424.214574770412
 20
429.089114832049
 30
0.0
  0
SPLINE
  5
1B31C
330
A
100
AcDbEntity
  8
MODEL
390
1D
100
AcDbSpline
210
0.0
220
0.0
230
1.0
 70
     8
 71
     3
 72
    21
 73
    17
 74
     0
 42
0.000000001
 43
0.0
 40
0.0
 40
0.0
 40
0.0
 40
0.0
 40
0.3175044471387521
 40
0.6362540298772341
 40
0.9548824887657101
 40
1.272259902015528
 40
1.589077131735021
 40
1.906786380679593
 40
2.225717406940541
 40
2.545365744867047
 40
2.86531945745181
 40
3.185261740690301
 40
3.504871580875085
 40
3.823844147471358
 40
4.141418638501262
 40
4.457881612797842
 40
4.457881612797842
 40
4.457881612797842
 40
4.457881612797842
 10
383.7068393071248
 20
425.6502808070425
 30
0.0
 10
383.7070297978615
 20
425.7562091248988
 30
0.0
 10
383.7194502722571
 20
425.9682590871619
 30
0.0
 10
383.7697628526697
 20
426.2831228167584
 30
0.0
 10
383.852967057502
 20
426.5909465514059
 30
0.0
 10
383.9689789435759
 20
426.8872898928153
 30
0.0
 10
384.115405756809
 20
427.1693595447612
 30
0.0
 10
384.2865824275999
 20
427.4375615373369
 30
0.0
 10
384.4779762477611
 20
427.6927711392985
 30
0.0
 10
384.6851859195384
 20
427.9362317627072
 30
0.0
 10
384.9070855994622
 20
428.1668636457326
 30
0.0
 10
385.1425566323149
 20
428.3835966764804
 30
0.0
 10
385.3905192110258
 20
428.5854073925025
 30
0.0
 10
385.6497538093391
 20
428.7711674643952
 30
0.0
 10
385.9191764933303
 20
428.9398840213406
 30
0.0
 10
386.1051690606919
 20
429.0405044309915
 30
0.0
 10
386.199574867681
 20
429.0876525265309
 30
0.0
  0
SPLINE
  5
1B31D
330
A
100
AcDbEntity
  8
MODEL
390
1D
100
AcDbSpline
210
0.0
220
0.0
230
1.0
 70
     8
 71
     3
 72
    21
 73
    17
 74
     0
 42
0.000000001
 43
0.0
 40
0.0
 40
0.0
 40
0.0
 40
0.0
 40
0.2856731034031931
 40
0.5722054482025252
 40
0.8585936499243658
 40
1.144080511763645
 40
1.429233605313475
 40
1.715082316598881
 40
2.001797494015888
 40
2.288942755304463
 40
2.57626371951686
 40
2.863586647603672
 40
3.150708950670813
 40
3.437412396946621
 40
3.723466635330209
 40
4.007808016715043
 40
4.007808016715043
 40
4.007808016715043
 40
4.007808016715043
 10
457.7068393071245
 20
554.0512986217373
 30
0.0
 10
457.7068362945168
 20
553.9560126062502
 30
0.0
 10
457.7175542492749
 20
553.765330200087
 30
0.0
 10
457.7572731418052
 20
553.481520752286
 30
0.0
 10
457.8248389171352
 20
553.2029630544931
 30
0.0
 10
457.9199638072926
 20
552.9330742341403
 30
0.0
 10
458.0411127779892
 20
552.6741108503218
 30
0.0
 10
458.1836092822242
 20
552.4259228197583
 30
0.0
 10
458.3437504156594
 20
552.1880365590249
 30
0.0
 10
458.5179123422398
 20
551.959648411887
 30
0.0
 10
458.7051544510828
 20
551.741582940859
 30
0.0
 10
458.904554200499
 20
551.534591973766
 30
0.0
 10
459.1152521043705
 20
551.33942488242
 30
0.0
 10
459.3362816170359
 20
551.1566847673403
 30
0.0
 10
459.5668313986481
 20
550.9877098161878
 30
0.0
 10
459.7258728350717
 20
550.8833506946692
 30
0.0
 10
459.8068393129277
 20
550.83403269621
 30
0.0
  0
SPLINE
  5
1B31E
330
A
100
AcDbEntity
  8
MODEL
390
1D
100
AcDbSpline
210
0.0
220
0.0
230
1.0
 70
     8
 71
     3
 72
    21
 73
    17
 74
     0
 42
0.000000001
 43
0.0
 40
0.0
 40
0.0
 40
0.0
 40
0.0
 40
0.2856731034031363
 40
0.5722054482024825
 40
0.858593649924337
 40
1.144080511763617
 40
1.429233605313448
 40
1.715082316598839
 40
2.001797494015837
 40
2.288942755304419
 40
2.576263719516818
 40
2.863586647603648
 40
3.150708950670811
 40
3.437412396946634
 40
3.723466635329678
 40
4.007808016715026
 40
4.007808016715026
 40
4.007808016715026
 40
4.007808016715026
 10
500.7068393071207
 20
554.0512986217373
 30
0.0
 10
500.7068423197284
 20
553.9560126062502
 30
0.0
 10
500.6961243649706
 20
553.765330200087
 30
0.0
 10
500.6564054724402
 20
553.481520752286
 30
0.0
 10
500.5888396971102
 20
553.2029630544931
 30
0.0
 10
500.4937148069528
 20
552.9330742341403
 30
0.0
 10
500.3725658362558
 20
552.6741108503218
 30
0.0
 10
500.2300693320211
 20
552.4259228197583
 30
0.0
 10
500.0699281985858
 20
552.188036559025
 30
0.0
 10
499.8957662720057
 20
551.959648411887
 30
0.0
 10
499.7085241631624
 20
551.741582940859
 30
0.0
 10
499.509124413746
 20
551.534591973766
 30
0.0
 10
499.2984265098747
 20
551.3394248824197
 30
0.0
 10
499.0773969972095
 20
551.1566847673404
 30
0.0
 10
498.8468472155974
 20
550.987709816188
 30
0.0
 10
498.6878057791737
 20
550.8833506946692
 30
0.0
 10
498.6068393013177
 20
550.83403269621
 30
0.0
  0
LINE
  5
1B31F
330
A
100
AcDbEntity
  8
MODEL
 48
0.001007
390
1D
100
AcDbLine
 10
423.9568391080937
 20
429.2007901772803
 30
0.0
 11
423.9938561080938
 21
429.1849351772804
 31
0.0
  0
LINE
  5
1B320
330
A
100
AcDbEntity
  8
MODEL
 48
0.006021
390
1D
100
AcDbLine
 10
386.4198221080936
 20
429.1849351772804
 30
0.0
 11
386.1984401080936
 21
429.0901181772803
 31
0.0
  0
LINE
  5
1B321
330
A
100
AcDbEntity
  8
MODEL
 48
0.001007
390
1D
100
AcDbLine
 10
386.4568391080937
 20
429.2007901772803
 30
0.0
 11
386.4198221080936
 21
429.1849351772804
 31
0.0
  0
LINE
  5
1B322
330
A
100
AcDbEntity
  8
MODEL
 48
0.006018
390
1D
100
AcDbLine
 10
423.9938561080938
 20
429.1849351772804
 30
0.0
 11
424.2151341080938
 21
429.0901631772803
 31
0.0
  0
DIMENSION
  5
1B328
330
A
100
AcDbEntity
  8
DIM
100
AcDbDimension
  2
*D37
 10
536.3757215999997
 20
551.6007901772803
 30
0.0
 11
526.3757215999997
 21
456.9123461772803
 31
0.0
 70
    32
  1
140-180
 71
     5
 42
189.376888
 73
     0
 74
     0
 75
     0
  3
tfrom線あり
100
AcDbAlignedDimension
 13
454.7977383080936
 23
362.2239021772803
 33
0.0
 14
511.2727383080937
 24
551.6007901772803
 34
0.0
 50
90.0
100
AcDbRotatedDimension
1001
ACAD
1000
DSTYLE
1002
{
1070
   144
1040
1.0
1002
}
  0
DIMENSION
  5
1B33A
330
A
100
AcDbEntity
  8
DIM
100
AcDbDimension
  2
*D38
 10
498.6818391080936
 20
581.7464521228806
 30
0.0
 11
479.2068391080937
 21
581.7464521228806
 31
0.0
 70
   160
  1
G1 1/4"
 71
     5
 42
38.94999999999976
 73
     0
 74
     0
 75
     0
  3
tfrom線あり
100
AcDbAlignedDimension
 13
459.7318391080938
 23
558.1007901772803
 33
0.0
 14
498.6818391080936
 24
558.1007901772803
 34
0.0
100
AcDbRotatedDimension
1001
ACAD
1000
DSTYLE
1002
{
1070
   144
1040
1.0
1002
}
  0
DIMENSION
  5
1B35C
330
A
100
AcDbEntity
  8
DIM
100
AcDbDimension
  2
*D40
 10
404.2068391080937
 20
331.6029657481735
 30
0.0
 11
441.7068391080937
 21
341.6029657481735
 31
0.0
 70
    32
 71
     5
 42
75.0
 73
     0
 74
     0
 75
     0
  3
tfrom線あり
100
AcDbAlignedDimension
 13
479.2068391080937
 23
415.2239021772803
 33
0.0
 14
404.2068391080937
 24
415.2239021772803
 34
0.0
100
AcDbRotatedDimension
1001
ACAD
1000
DSTYLE
1002
{
1070
   144
1040
1.0
1002
}
  0
DIMENSION
  5
1B369
330
A
100
AcDbEntity
  8
DIM
100
AcDbDimension
  2
*D41
 10
154.2068391080937
 20
331.6029657481735
 30
0.0
 11
279.2068391080937
 21
341.6029657481735
 31
0.0
 70
    32
 71
     5
 42
250.0
 73
     0
 74
     0
 75
     0
  3
tfrom線あり
100
AcDbAlignedDimension
 13
404.2068391080937
 23
405.2239021772803
 33
0.0
 14
154.2068391080937
 24
440.5416153481735
 34
0.0
100
AcDbRotatedDimension
1001
ACAD
1000
DSTYLE
1002
{
1070
   144
1040
1.0
1002
}
  0
LWPOLYLINE
  5
1B38A
102
{ACAD_REACTORS
330
1B38C
102
}
330
A
100
AcDbEntity
  8
HIDDEN
 48
0.5
100
AcDbPolyline
 90
        5
 70
   128
 43
0.0
 10
458.2068391080937
 20
560.6007901772803
 10
458.2081081080935
 20
559.8007901772804
 10
459.7318641080936
 20
558.2757901772804
 10
459.7318641080936
 20
551.5971949485331
 10
479.2068391080937
 20
551.5971949485331
  0
LWPOLYLINE
  5
1B38B
102
{ACAD_REACTORS
330
1B38C
102
}
330
A
100
AcDbEntity
  8
HIDDEN
 48
0.5
100
AcDbPolyline
 90
        5
 70
   128
 43
0.0
 10
500.2068391080937
 20
560.6007901772803
 10
500.2055701080938
 20
559.8007901772804
 10
498.6818141080938
 20
558.2757901772804
 10
498.6818141080938
 20
551.5971949485331
 10
479.2068391080937
 20
551.5971949485331
  0
LINE
  5
1B38D
330
A
100
AcDbEntity
  8
MODEL
 48
0.204653
390
1D
100
AcDbLine
 10
184.5673111080935
 20
482.5007898889299
 30
0.0
 11
184.5672731080936
 21
482.5007898889346
 31
0.0
  0
LINE
  5
1B38E
330
A
100
AcDbEntity
  8
MODEL
 48
0.204653
390
1D
100
AcDbLine
 10
184.5673111080935
 20
450.5007901772804
 30
0.0
 11
184.5672731080936
 21
450.5007901772804
 31
0.0
  0
DIMENSION
  5
1B3BC
102
{ACAD_REACTORS
330
1B3BE
102
}
102
{ACAD_XDICTIONARY
360
1B3BD
102
}
330
A
100
AcDbEntity
  8
DIM
100
AcDbDimension
  2
*D43
 10
139.3862950079998
 20
482.5007901772804
 30
0.0
 11
139.3862950079998
 21
466.5007901772804
 31
0.0
 70
   160
 71
     5
 42
32.0
 73
     0
 74
     0
 75
     0
  3
tfrom線あり
100
AcDbAlignedDimension
 13
155.2068391080937
 23
450.5007901772804
 33
0.0
 14
155.2068391080937
 24
482.5007901772804
 34
0.0
 50
90.0
100
AcDbRotatedDimension
1001
ACAD
1000
DSTYLE
1002
{
1070
     3
1000
%%c<>
1070
   144
1040
1.0
1002
}
  0
DIMENSION
  5
1B3D1
330
A
100
AcDbEntity
  8
DIM
100
AcDbDimension
  2
*D44
 10
103.0369164479999
 20
362.2239021772803
 30
0.0
 11
103.0369164479999
 21
414.3623461772802
 31
0.0
 70
   160
  1
115
 71
     5
 42
104.2768880000001
 73
     0
 74
     0
 75
     0
  3
tfrom線あり
100
AcDbAlignedDimension
 13
133.3584664068479
 23
466.5007901772804
 33
0.0
 14
384.775992
 24
362.2239021772803
 34
0.0
 50
90.0
100
AcDbRotatedDimension
1001
ACAD
1000
DSTYLE
1002
{
1070
   144
1040
1.0
1002
}
  0
VIEWPORT
  5
349
330
B
100
AcDbEntity
 67
     1
  8
0
100
AcDbViewport
 10
202.5
 20
128.5
 30
0.0
 40
486.0
 41
308.4
 68
     1
 69
     1
 12
202.5
 22
128.5
 13
0.0
 23
0.0
 14
0.5
 24
0.5
 15
0.0
 25
0.0
 16
0.0
 26
0.0
 36
1.0
 17
0.0
 27
0.0
 37
0.0
 42
50.0
 43
0.0
 44
0.0
 45
308.4
 50
0.0
 51
0.0
 72
   100
 90
   557152
  1

281
     0
 71
     1
 74
     0
110
0.0
120
0.0
130
0.0
111
1.0
121
0.0
131
0.0
112
0.0
122
1.0
132
0.0
 79
     0
146
0.0
170
     0
 61
     5
348
26C
292
     1
282
     1
141
0.0
142
0.0
 63
   256
  0
VIEWPORT
  5
34A
330
B
100
AcDbEntity
 67
     1
  8
0
100
AcDbViewport
 10
202.5
 20
128.5
 30
0.0
 40
324.0
 41
205.6
 68
     2
 69
     2
 12
986.6781359294573
 22
1427.077061889956
 13
0.0
 23
0.0
 14
0.5
 24
0.5
 15
0.0
 25
0.0
 16
0.0
 26
0.0
 36
1.0
 17
0.0
 27
0.0
 37
0.0
 42
50.0
 43
0.0
 44
0.0
 45
2890.021615685494
 50
0.0
 51
0.0
 72
   100
 90
   557152
  1

281
     0
 71
     1
 74
     0
110
0.0
120
0.0
130
0.0
111
1.0
121
0.0
131
0.0
112
0.0
122
1.0
132
0.0
 79
     0
146
0.0
170
     0
 61
     5
348
26C
292
     1
282
     1
141
0.0
142
0.0
 63
   256
  0
ENDSEC
  0
SECTION
  2
OBJECTS
  0
DICTIONARY
  5
19
330
0
100
AcDbDictionary
281
     1
  3
ACAD_COLOR
350
674
  3
ACAD_DETAILVIEWSTYLE
350
BBF
  3
ACAD_FIELDLIST
350
36B0
  3
ACAD_GROUP
350
1A
  3
ACAD_IMAGE_VARS
350
27B
  3
ACAD_LAYOUT
350
1E
  3
ACAD_MATERIAL
350
263
  3
ACAD_MLEADERSTYLE
350
336
  3
ACAD_MLINESTYLE
350
1B
  3
ACAD_PLOTSETTINGS
350
22
  3
ACAD_PLOTSTYLENAME
350
1F
  3
ACAD_SCALELIST
350
241
  3
ACAD_SECTIONVIEWSTYLE
350
BC0
  3
ACAD_TABLESTYLE
350
278
  3
ACAD_VISUALSTYLE
350
267
  3
ACDB_RECOMPOSE_DATA
350
1B44C
  3
AcDbVariableDictionary
350
330
  3
APPDATA
350
27A
  3
CENTERLINE
350
366B
  3
DimOffsetDictionary
350
E38
  0
SUN
  5
904
330
15
100
AcDbSun
 90
        1
290
     0
 63
     7
421
 16777215
 40
1.0
291
     1
 91
  2455826
 92
 54000000
292
     0
 70
     2
 71
   256
280
     1
  0
DICTIONARY
  5
2E1
330
2
100
AcDbDictionary
280
     1
281
     1
  3
ACAD_LAYERSTATES
360
2E2
  3
ACLYDICTIONARY
360
DDE
  0
DICTIONARY
  5
1733E
330
A
100
AcDbDictionary
280
     1
281
     1
  3
ACAD_SORTENTS
360
1733F
  0
DICTIONARY
  5
36AE
330
36AC
100
AcDbDictionary
280
     1
281
     1
  3
ACAD_FIELD
360
1B440
  0
DICTIONARY
  5
1B3BD
330
1B3BC
100
AcDbDictionary
280
     1
281
     1
  3
ACAD_DIMASSOC
360
1B3BE
  0
DICTIONARY
  5
674
102
{ACAD_REACTORS
330
19
102
}
330
19
100
AcDbDictionary
281
     1
  0
DICTIONARY
  5
BBF
102
{ACAD_REACTORS
330
19
102
}
330
19
100
AcDbDictionary
281
     1
  0
FIELDLIST
  5
36B0
102
{ACAD_REACTORS
330
19
102
}
330
19
100
AcDbIdSet
 90
        2
330
36B1
330
36AD
100
AcDbFieldList
  0
DICTIONARY
  5
1A
102
{ACAD_REACTORS
330
19
102
}
330
19
100
AcDbDictionary
281
     1
  3
*A1
350
1730A
  3
*A2
350
1B38C
  0
RASTERVARIABLES
  5
27B
102
{ACAD_REACTORS
330
19
102
}
330
19
100
AcDbRasterVariables
 90
        0
 70
     1
 71
     1
 72
     1
  0
DICTIONARY
  5
1E
102
{ACAD_REACTORS
330
19
102
}
330
19
100
AcDbDictionary
281
     1
  3
Layout1
350
21
  3
Model
350
20
  0
DICTIONARY
  5
263
102
{ACAD_REACTORS
330
19
102
}
330
19
100
AcDbDictionary
281
     1
  3
ByBlock
350
265
  3
ByLayer
350
264
  3
Global
350
266
  0
DICTIONARY
  5
336
102
{ACAD_REACTORS
330
19
102
}
330
19
100
AcDbDictionary
281
     1
  3
Standard
350
D59
  0
DICTIONARY
  5
1B
102
{ACAD_REACTORS
330
19
102
}
330
19
100
AcDbDictionary
281
     1
  3
Standard
350
1C
  0
DICTIONARY
  5
22
102
{ACAD_REACTORS
330
19
102
}
330
19
100
AcDbDictionary
281
     1
  0
ACDBDICTIONARYWDFLT
  5
1F
102
{ACAD_REACTORS
330
19
102
}
330
19
100
AcDbDictionary
281
     1
  3
Normal
350
1D
100
AcDbDictionaryWithDefault
340
1D
  0
DICTIONARY
  5
241
102
{ACAD_REACTORS
330
19
102
}
330
19
100
AcDbDictionary
281
     1
  3
A0
350
242
  3
A1
350
243
  3
A2
350
244
  3
A3
350
245
  3
A4
350
246
  3
A5
350
247
  3
A6
350
248
  3
A7
350
249
  3
A8
350
24A
  3
A9
350
24B
  3
B0
350
24C
  3
B1
350
24D
  3
B2
350
24E
  3
B3
350
24F
  3
B4
350
250
  3
B5
350
251
  3
B6
350
252
  3
B7
350
253
  3
B8
350
254
  3
B9
350
255
  3
C0
350
256
  3
C1
350
257
  3
C2
350
258
  3
C3
350
259
  3
C4
350
25A
  3
C5
350
25B
  3
C6
350
25C
  3
C7
350
25D
  3
C8
350
25E
  3
C9
350
25F
  3
D0
350
260
  3
D1
350
261
  3
D2
350
262
  0
DICTIONARY
  5
BC0
102
{ACAD_REACTORS
330
19
102
}
330
19
100
AcDbDictionary
281
     1
  0
DICTIONARY
  5
278
102
{ACAD_REACTORS
330
19
102
}
330
19
100
AcDbDictionary
281
     1
  3
Standard
350
279
  0
DICTIONARY
  5
267
102
{ACAD_REACTORS
330
19
102
}
330
19
100
AcDbDictionary
281
     1
  3
*A1
350
3666
  3
2dWireframe
350
26C
  3
3D Hidden
350
26E
  3
3dWireframe
350
26D
  3
Basic
350
26F
  3
Brighten
350
273
  3
ColorChange
350
277
  3
Conceptual
350
271
  3
Dim
350
272
  3
EdgeColorOff
350
8FE
  3
Facepattern
350
276
  3
Flat
350
268
  3
FlatWithEdges
350
269
  3
Gouraud
350
26A
  3
GouraudWithEdges
350
26B
  3
Hidden
350
8FB
  3
JitterOff
350
8FC
  3
Linepattern
350
275
  3
OverhangOff
350
8FD
  3
Realistic
350
270
  3
Shaded
350
903
  3
Shaded with edges
350
902
  3
Shades of Gray
350
8FF
  3
Sketchy
350
900
  3
Thicken
350
274
  3
Wireframe
350
8FA
  3
X-Ray
350
901
  0
XRECORD
  5
1B44C
102
{ACAD_REACTORS
330
19
102
}
330
19
100
AcDbXrecord
280
     1
 90
        1
330
279
  0
DICTIONARY
  5
330
102
{ACAD_REACTORS
330
19
102
}
330
19
100
AcDbDictionary
281
     1
  3
CANNOSCALE
350
331
  3
CMLEADERSTYLE
350
D5E
  3
CTABLESTYLE
350
335
  3
HPTRANSPARENCY
350
D52
  3
XCLIPFRAME
350
896
  0
DICTIONARY
  5
27A
102
{ACAD_REACTORS
330
19
102
}
330
19
100
AcDbDictionary
281
     1
  0
DICTIONARY
  5
366B
102
{ACAD_REACTORS
330
19
102
}
330
19
100
AcDbDictionary
281
     1
  3
CLEXTENSION
350
36AB
  0
DICTIONARY
  5
E38
102
{ACAD_REACTORS
330
19
102
}
330
19
100
AcDbDictionary
281
     1
  3
DIMRAILANGLE
350
36A9
  3
DIMRAILFIRSTOFFSET
350
36A7
  3
DIMRAILOFFSET
350
36A8
  3
DIMRAILSENABLED
350
36AA
  0
DICTIONARY
  5
2E2
102
{ACAD_REACTORS
330
2E1
102
}
330
2E1
100
AcDbDictionary
281
     1
  0
DICTIONARY
  5
DDE
102
{ACAD_REACTORS
330
2E1
102
}
330
2E1
100
AcDbDictionary
281
     1
1001
ACAD
1000
<All
  0
SORTENTSTABLE
  5
1733F
102
{ACAD_REACTORS
330
1733E
102
}
330
1733E
100
AcDbSortentsTable
330
A
331
0
  5
172B6
331
172F9
  5
172B7
331
172FA
  5
172F8
331
17305
  5
172F9
331
17306
  5
172FA
331
17307
  5
17305
331
17308
  5
17306
331
17309
  5
17307
  0
DICTIONARY
  5
1B440
102
{ACAD_REACTORS
330
36AE
102
}
330
36AE
100
AcDbDictionary
280
     1
281
     1
  3
TEXT
360
36AD
  0
DIMASSOC
  5
1B3BE
102
{ACAD_REACTORS
330
1B3BD
102
}
330
1B3BD
100
AcDbDimAssoc
330
1B3BC
 90
        3
 70
     0
 71
     1
  1
AcDbOsnapPointRef
 72
     1
331
1AC9D
 73
     0
 91
        0
 40
0.0
 10
0.0
 20
0.0
 30
0.0
 75
     0
  1
AcDbOsnapPointRef
 72
     1
331
1B2D9
 73
     0
 91
        0
 40
0.0
 10
0.0
 20
0.0
 30
0.0
 75
     0
  0
GROUP
  5
1730A
102
{ACAD_REACTORS
330
1A
102
}
330
1A
100
AcDbGroup
300

 70
     1
 71
     1
340
172F9
340
172FA
340
17305
340
17306
340
17307
340
17308
340
17309
  0
GROUP
  5
1B38C
102
{ACAD_REACTORS
330
1A
102
}
330
1A
100
AcDbGroup
300

 70
     1
 71
     1
340
1B38B
340
1B38A
  0
LAYOUT
  5
21
102
{ACAD_REACTORS
330
1E
102
}
330
1E
100
AcDbPlotSettings
  1

  2
none_device
  4
ISO_A3_(420.00_x_297.00_MM)
  6

 40
7.5
 41
20.0
 42
7.5
 43
20.0
 44
420.0
 45
297.0
 46
0.0
 47
0.0
 48
0.0
 49
0.0
140
0.0
141
0.0
142
1.0
143
1.0
 70
     0
 72
     1
 73
     0
 74
     0
  7

 75
     0
 76
     0
 77
     2
 78
   300
147
1.0
148
0.0
149
0.0
100
AcDbLayout
  1
Layout1
 70
     0
 71
     0
 10
-7.5
 20
-20.0
 11
412.5
 21
277.0
 12
0.0
 22
0.0
 32
0.0
 14
0.0
 24
0.0
 34
0.0
 15
0.0
 25
0.0
 35
0.0
146
0.0
 13
0.0
 23
0.0
 33
0.0
 16
0.0
 26
0.0
 36
0.0
 17
0.0
 27
0.0
 37
0.0
 76
     0
330
B
331
349
  0
LAYOUT
  5
20
102
{ACAD_REACTORS
330
1E
102
}
330
1E
100
AcDbPlotSettings
  1

  2
none_device
  4
ISO_A3_(420.00_x_297.00_MM)
  6

 40
7.5
 41
20.0
 42
7.5
 43
20.0
 44
420.0
 45
297.0
 46
0.0
 47
0.0
 48
0.0
 49
0.0
140
0.0
141
0.0
142
1.0
143
1.0
 70
  1024
 72
     1
 73
     0
 74
     0
  7

 75
     0
 76
     0
 77
     2
 78
   300
147
1.0
148
0.0
149
0.0
100
AcDbLayout
  1
Model
 70
     0
 71
     1
 10
0.0
 20
0.0
 11
630.0
 21
891.0
 12
0.0
 22
0.0
 32
0.0
 14
0.0
 24
0.0
 34
-0.0000000000000142
 15
630.0
 25
891.0
 35
0.0000000000000142
146
0.0
 13
0.0
 23
0.0
 33
0.0
 16
0.0
 26
0.0
 36
0.0
 17
0.0
 27
0.0
 37
0.0
 76
     0
330
A
331
15
  0
MATERIAL
  5
265
102
{ACAD_REACTORS
330
263
102
}
330
263
100
AcDbMaterial
  1
ByBlock
 72
     1
 94
      127
  0
MATERIAL
  5
264
102
{ACAD_REACTORS
330
263
102
}
330
263
100
AcDbMaterial
  1
ByLayer
 72
     1
 94
      127
  0
MATERIAL
  5
266
102
{ACAD_REACTORS
330
263
102
}
330
263
100
AcDbMaterial
  1
Global
 72
     1
 94
      127
  0
MLEADERSTYLE
  5
D59
102
{ACAD_REACTORS
330
336
102
}
330
336
100
AcDbMLeaderStyle
170
     2
171
     1
172
     0
 90
        2
 40
0.0
 41
0.0
173
     1
 91
-1056964608
340
11
 92
       -2
290
     1
 42
2.0
291
     1
 43
8.0
  3
Standard
341
0
 44
4.0
300

342
17
174
     1
178
     6
175
     1
176
     0
 93
-1056964608
 45
4.0
292
     0
297
     0
 46
4.0
343
0
 94
-1056964608
 47
1.0
 49
1.0
140
1.0
293
     1
141
0.0
294
     1
177
     0
142
1.0
295
     0
296
     0
143
3.75
1001
ACAD_MLEADERVER
1070
     2
  0
MLINESTYLE
  5
1C
102
{ACAD_REACTORS
330
1B
102
}
330
1B
100
AcDbMlineStyle
  2
Standard
 70
     0
  3

 62
     0
 51
90.0
 52
90.0
 71
     2
 49
0.5
 62
   256
  6
BYLAYER
 49
-0.5
 62
   256
  6
BYLAYER
  0
ACDBPLACEHOLDER
  5
1D
102
{ACAD_REACTORS
330
1F
102
}
330
1F
  0
SCALE
  5
242
102
{ACAD_REACTORS
330
241
102
}
330
241
100
AcDbScale
 70
     0
300
1:1
140
1.0
141
1.0
290
     1
  0
SCALE
  5
243
102
{ACAD_REACTORS
330
241
102
}
330
241
100
AcDbScale
 70
     0
300
1:2
140
1.0
141
2.0
290
     0
  0
SCALE
  5
244
102
{ACAD_REACTORS
330
241
102
}
330
241
100
AcDbScale
 70
     0
300
1:4
140
1.0
141
4.0
290
     0
  0
SCALE
  5
245
102
{ACAD_REACTORS
330
241
102
}
330
241
100
AcDbScale
 70
     0
300
1:5
140
1.0
141
5.0
290
     0
  0
SCALE
  5
246
102
{ACAD_REACTORS
330
241
102
}
330
241
100
AcDbScale
 70
     0
300
1:8
140
1.0
141
8.0
290
     0
  0
SCALE
  5
247
102
{ACAD_REACTORS
330
241
102
}
330
241
100
AcDbScale
 70
     0
300
1:10
140
1.0
141
10.0
290
     0
  0
SCALE
  5
248
102
{ACAD_REACTORS
330
241
102
}
330
241
100
AcDbScale
 70
     0
300
1:16
140
1.0
141
16.0
290
     0
  0
SCALE
  5
249
102
{ACAD_REACTORS
330
241
102
}
330
241
100
AcDbScale
 70
     0
300
1:20
140
1.0
141
20.0
290
     0
  0
SCALE
  5
24A
102
{ACAD_REACTORS
330
241
102
}
330
241
100
AcDbScale
 70
     0
300
1:30
140
1.0
141
30.0
290
     0
  0
SCALE
  5
24B
102
{ACAD_REACTORS
330
241
102
}
330
241
100
AcDbScale
 70
     0
300
1:40
140
1.0
141
40.0
290
     0
  0
SCALE
  5
24C
102
{ACAD_REACTORS
330
241
102
}
330
241
100
AcDbScale
 70
     0
300
1:50
140
1.0
141
50.0
290
     0
  0
SCALE
  5
24D
102
{ACAD_REACTORS
330
241
102
}
330
241
100
AcDbScale
 70
     0
300
1:100
140
1.0
141
100.0
290
     0
  0
SCALE
  5
24E
102
{ACAD_REACTORS
330
241
102
}
330
241
100
AcDbScale
 70
     0
300
2:1
140
2.0
141
1.0
290
     0
  0
SCALE
  5
24F
102
{ACAD_REACTORS
330
241
102
}
330
241
100
AcDbScale
 70
     0
300
4:1
140
4.0
141
1.0
290
     0
  0
SCALE
  5
250
102
{ACAD_REACTORS
330
241
102
}
330
241
100
AcDbScale
 70
     0
300
8:1
140
8.0
141
1.0
290
     0
  0
SCALE
  5
251
102
{ACAD_REACTORS
330
241
102
}
330
241
100
AcDbScale
 70
     0
300
10:1
140
10.0
141
1.0
290
     0
  0
SCALE
  5
252
102
{ACAD_REACTORS
330
241
102
}
330
241
100
AcDbScale
 70
     0
300
100:1
140
100.0
141
1.0
290
     0
  0
SCALE
  5
253
102
{ACAD_REACTORS
330
241
102
}
330
241
100
AcDbScale
 70
     0
300
1/128" = 1'-0"
140
0.0078125
141
12.0
290
     0
  0
SCALE
  5
254
102
{ACAD_REACTORS
330
241
102
}
330
241
100
AcDbScale
 70
     0
300
1/64" = 1'-0"
140
0.015625
141
12.0
290
     0
  0
SCALE
  5
255
102
{ACAD_REACTORS
330
241
102
}
330
241
100
AcDbScale
 70
     0
300
1/32" = 1'-0"
140
0.03125
141
12.0
290
     0
  0
SCALE
  5
256
102
{ACAD_REACTORS
330
241
102
}
330
241
100
AcDbScale
 70
     0
300
1/16" = 1'-0"
140
0.0625
141
12.0
290
     0
  0
SCALE
  5
257
102
{ACAD_REACTORS
330
241
102
}
330
241
100
AcDbScale
 70
     0
300
3/32" = 1'-0"
140
0.09375
141
12.0
290
     0
  0
SCALE
  5
258
102
{ACAD_REACTORS
330
241
102
}
330
241
100
AcDbScale
 70
     0
300
1/8" = 1'-0"
140
0.125
141
12.0
290
     0
  0
SCALE
  5
259
102
{ACAD_REACTORS
330
241
102
}
330
241
100
AcDbScale
 70
     0
300
3/16" = 1'-0"
140
0.1875
141
12.0
290
     0
  0
SCALE
  5
25A
102
{ACAD_REACTORS
330
241
102
}
330
241
100
AcDbScale
 70
     0
300
1/4" = 1'-0"
140
0.25
141
12.0
290
     0
  0
SCALE
  5
25B
102
{ACAD_REACTORS
330
241
102
}
330
241
100
AcDbScale
 70
     0
300
3/8" = 1'-0"
140
0.375
141
12.0
290
     0
  0
SCALE
  5
25C
102
{ACAD_REACTORS
330
241
102
}
330
241
100
AcDbScale
 70
     0
300
1/2" = 1'-0"
140
0.5
141
12.0
290
     0
  0
SCALE
  5
25D
102
{ACAD_REACTORS
330
241
102
}
330
241
100
AcDbScale
 70
     0
300
3/4" = 1'-0"
140
0.75
141
12.0
290
     0
  0
SCALE
  5
25E
102
{ACAD_REACTORS
330
241
102
}
330
241
100
AcDbScale
 70
     0
300
1" = 1'-0"
140
1.0
141
12.0
290
     0
  0
SCALE
  5
25F
102
{ACAD_REACTORS
330
241
102
}
330
241
100
AcDbScale
 70
     0
300
1-1/2" = 1'-0"
140
1.5
141
12.0
290
     0
  0
SCALE
  5
260
102
{ACAD_REACTORS
330
241
102
}
330
241
100
AcDbScale
 70
     0
300
3" = 1'-0"
140
3.0
141
12.0
290
     0
  0
SCALE
  5
261
102
{ACAD_REACTORS
330
241
102
}
330
241
100
AcDbScale
 70
     0
300
6" = 1'-0"
140
6.0
141
12.0
290
     0
  0
SCALE
  5
262
102
{ACAD_REACTORS
330
241
102
}
330
241
100
AcDbScale
 70
     0
300
1'-0" = 1'-0"
140
12.0
141
12.0
290
     0
  0
TABLESTYLE
  5
279
102
{ACAD_REACTORS
330
278
102
}
102
{ACAD_XDICTIONARY
360
1B44A
102
}
330
278
100
AcDbTableStyle
  3
Standard
 70
     0
 71
     0
 40
0.06
 41
0.06
280
     0
281
     0
  7
Standard
140
4.5
170
     2
 62
     0
 63
   257
283
     0
 90
        4
 91
        0
  1

274
    -2
284
     1
 64
     0
275
    -2
285
     1
 65
     0
276
    -2
286
     1
 66
     0
277
    -2
287
     1
 67
     0
278
    -2
288
     1
 68
     0
279
    -2
289
     1
 69
     0
  7
Standard
140
6.0
170
     5
 62
     0
 63
   257
283
     0
 90
        4
 91
        0
  1

274
    -2
284
     1
 64
     0
275
    -2
285
     1
 65
     0
276
    -2
286
     1
 66
     0
277
    -2
287
     1
 67
     0
278
    -2
288
     1
 68
     0
279
    -2
289
     1
 69
     0
  7
Standard
140
4.5
170
     5
 62
     0
 63
   257
283
     0
 90
        4
 91
        0
  1

274
    -2
284
     1
 64
     0
275
    -2
285
     1
 65
     0
276
    -2
286
     1
 66
     0
277
    -2
287
     1
 67
     0
278
    -2
288
     1
 68
     0
279
    -2
289
     1
 69
     0
  0
VISUALSTYLE
  5
3666
102
{ACAD_REACTORS
330
267
102
}
330
267
100
AcDbVisualStyle
  2
*
 70
    10
 71
     0
 72
     2
 73
     0
 90
        0
 40
-0.6
 41
-30.0
 62
     5
 63
     7
421
 16777215
 74
     1
 91
        4
 64
     7
 65
   257
 75
     1
175
     1
 42
1.0
 92
        8
 66
     7
 43
1.0
 76
     1
 77
     6
 78
     2
 67
     7
 79
     5
170
     0
171
     0
290
     0
174
     0
 93
        1
 44
0.0
173
     0
291
     0
 45
0.0
  0
VISUALSTYLE
  5
26C
102
{ACAD_REACTORS
330
267
102
}
330
267
100
AcDbVisualStyle
  2
2dWireframe
 70
     4
 71
     0
 72
     2
 73
     0
 90
        0
 40
-0.6
 41
-30.0
 62
     5
 63
     7
421
 16777215
 74
     1
 91
        4
 64
     7
 65
   257
 75
     1
175
     1
 42
1.0
 92
        0
 66
   257
 43
1.0
 76
     1
 77
     6
 78
     2
 67
     7
 79
     5
170
     0
171
     0
290
     0
174
     0
 93
        1
 44
0.0
173
     0
291
     0
 45
0.0
  0
VISUALSTYLE
  5
26E
102
{ACAD_REACTORS
330
267
102
}
330
267
100
AcDbVisualStyle
  2
3D Hidden
 70
     6
 71
     1
 72
     2
 73
     2
 90
        0
 40
-0.6
 41
-30.0
 62
     5
 63
     7
421
 16777215
 74
     2
 91
        2
 64
     7
 65
   257
 75
     2
175
     1
 42
40.0
 92
        0
 66
   257
 43
1.0
 76
     1
 77
     6
 78
     2
 67
     7
 79
     3
170
     0
171
     0
290
     0
174
     0
 93
        1
 44
0.0
173
     0
291
     0
 45
0.0
  0
VISUALSTYLE
  5
26D
102
{ACAD_REACTORS
330
267
102
}
330
267
100
AcDbVisualStyle
  2
3dWireframe
 70
     5
 71
     0
 72
     2
 73
     0
 90
        0
 40
-0.6
 41
-30.0
 62
     5
 63
     7
421
 16777215
 74
     1
 91
        4
 64
     7
 65
   257
 75
     1
175
     1
 42
1.0
 92
        0
 66
   257
 43
1.0
 76
     1
 77
     6
 78
     2
 67
     7
 79
     5
170
     0
171
     0
290
     0
174
     0
 93
        1
 44
0.0
173
     0
291
     0
 45
0.0
  0
VISUALSTYLE
  5
26F
102
{ACAD_REACTORS
330
267
102
}
330
267
100
AcDbVisualStyle
  2
Basic
 70
     7
 71
     1
 72
     0
 73
     1
 90
        0
 40
-0.6
 41
-30.0
 62
     5
 63
     7
421
 16777215
 74
     0
 91
        4
 64
     7
 65
   257
 75
     1
175
     1
 42
1.0
 92
        8
 66
     7
 43
1.0
 76
     1
 77
     6
 78
     2
 67
     7
 79
     5
170
     0
171
     0
290
     0
174
     0
 93
        1
 44
0.0
173
     0
291
     1
 45
0.0
  0
VISUALSTYLE
  5
273
102
{ACAD_REACTORS
330
267
102
}
330
267
100
AcDbVisualStyle
  2
Brighten
 70
    12
 71
     2
 72
     2
 73
     0
 90
        0
 40
-0.6
 41
-30.0
 62
     5
 63
     7
421
 16777215
 74
     1
 91
        4
 64
     7
 65
   257
 75
     1
175
     1
 42
1.0
 92
        8
 66
     7
 43
1.0
 76
     1
 77
     6
 78
     2
 67
     7
 79
     5
170
     0
171
     0
290
     0
174
     0
 93
        1
 44
50.0
173
     0
291
     1
 45
0.0
  0
VISUALSTYLE
  5
277
102
{ACAD_REACTORS
330
267
102
}
330
267
100
AcDbVisualStyle
  2
ColorChange
 70
    16
 71
     2
 72
     2
 73
     3
 90
        0
 40
-0.6
 41
-30.0
 62
     5
 63
     8
421
  8421504
 74
     1
 91
        4
 64
     7
 65
   257
 75
     1
175
     1
 42
1.0
 92
        8
 66
     8
424
  8421504
 43
1.0
 76
     1
 77
     6
 78
     2
 67
     7
 79
     5
170
     0
171
     0
290
     0
174
     0
 93
        1
 44
0.0
173
     0
291
     1
 45
0.0
  0
VISUALSTYLE
  5
271
102
{ACAD_REACTORS
330
267
102
}
330
267
100
AcDbVisualStyle
  2
Conceptual
 70
     9
 71
     3
 72
     2
 73
     0
 90
        0
 40
-0.6
 41
-30.0
 62
     5
 63
     7
421
 16777215
 74
     2
 91
        2
 64
     7
 65
   257
 75
     1
175
     1
 42
40.0
 92
        8
 66
     7
 43
1.0
 76
     1
 77
     6
 78
     2
 67
     7
 79
     3
170
     0
171
     0
290
     0
174
     0
 93
        1
 44
0.0
173
     0
291
     0
 45
0.0
  0
VISUALSTYLE
  5
272
102
{ACAD_REACTORS
330
267
102
}
330
267
100
AcDbVisualStyle
  2
Dim
 70
    11
 71
     2
 72
     2
 73
     0
 90
        0
 40
-0.6
 41
-30.0
 62
     5
 63
     7
421
 16777215
 74
     1
 91
        4
 64
     7
 65
   257
 75
     1
175
     1
 42
1.0
 92
        8
 66
     7
 43
1.0
 76
     1
 77
     6
 78
     2
 67
     7
 79
     5
170
     0
171
     0
290
     0
174
     0
 93
        1
 44
-50.0
173
     0
291
     1
 45
0.0
  0
VISUALSTYLE
  5
8FE
102
{ACAD_REACTORS
330
267
102
}
330
267
100
AcDbVisualStyle
  2
EdgeColorOff
 70
    22
 71
     2
 72
     2
 73
     0
 90
        0
 40
0.6
 41
30.0
 62
     5
 63
     7
421
 16777215
 74
     1
 91
        4
 64
     7
 65
   257
 75
     1
175
     1
 42
1.0
 92
        8
 66
     7
 43
1.0
 76
     1
 77
     6
 78
     2
 67
     7
 79
     5
170
     0
171
     0
290
     0
174
     0
 93
        1
 44
0.0
173
     0
291
     1
 45
0.0
  0
VISUALSTYLE
  5
276
102
{ACAD_REACTORS
330
267
102
}
330
267
100
AcDbVisualStyle
  2
Facepattern
 70
    15
 71
     2
 72
     2
 73
     0
 90
        0
 40
-0.6
 41
-30.0
 62
     5
 63
     7
421
 16777215
 74
     1
 91
        4
 64
     7
 65
   257
 75
     1
175
     1
 42
1.0
 92
        8
 66
     7
 43
1.0
 76
     1
 77
     6
 78
     2
 67
     7
 79
     5
170
     0
171
     0
290
     0
174
     0
 93
        1
 44
0.0
173
     0
291
     1
 45
0.0
  0
VISUALSTYLE
  5
268
102
{ACAD_REACTORS
330
267
102
}
330
267
100
AcDbVisualStyle
  2
Flat
 70
     0
 71
     2
 72
     1
 73
     1
 90
        2
 40
-0.6
 41
30.0
 62
     5
 63
     7
421
 16777215
 74
     0
 91
        4
 64
     7
 65
   257
 75
     1
175
     1
 42
1.0
 92
        8
 66
     7
 43
1.0
 76
     1
 77
     6
 78
     2
 67
     7
 79
     5
170
     0
171
     0
290
     0
174
     0
 93
       13
 44
0.0
173
     0
291
     1
 45
0.0
  0
VISUALSTYLE
  5
269
102
{ACAD_REACTORS
330
267
102
}
330
267
100
AcDbVisualStyle
  2
FlatWithEdges
 70
     1
 71
     2
 72
     1
 73
     1
 90
        2
 40
-0.6
 41
30.0
 62
     5
 63
     7
421
 16777215
 74
     1
 91
        4
 64
     7
 65
   257
 75
     1
175
     1
 42
1.0
 92
        0
 66
   257
 43
1.0
 76
     1
 77
     6
 78
     2
 67
     7
 79
     5
170
     0
171
     0
290
     0
174
     0
 93
       13
 44
0.0
173
     0
291
     1
 45
0.0
  0
VISUALSTYLE
  5
26A
102
{ACAD_REACTORS
330
267
102
}
330
267
100
AcDbVisualStyle
  2
Gouraud
 70
     2
 71
     2
 72
     2
 73
     1
 90
        2
 40
-0.6
 41
30.0
 62
     5
 63
     7
421
 16777215
 74
     0
 91
        4
 64
     7
 65
   257
 75
     1
175
     1
 42
1.0
 92
        0
 66
     7
 43
1.0
 76
     1
 77
     6
 78
     2
 67
     7
 79
     5
170
     0
171
     0
290
     0
174
     0
 93
       13
 44
0.0
173
     0
291
     1
 45
0.0
  0
VISUALSTYLE
  5
26B
102
{ACAD_REACTORS
330
267
102
}
330
267
100
AcDbVisualStyle
  2
GouraudWithEdges
 70
     3
 71
     2
 72
     2
 73
     1
 90
        2
 40
-0.6
 41
30.0
 62
     5
 63
     7
421
 16777215
 74
     1
 91
        4
 64
     7
 65
   257
 75
     1
175
     1
 42
1.0
 92
        0
 66
   257
 43
1.0
 76
     1
 77
     6
 78
     2
 67
     7
 79
     5
170
     0
171
     0
290
     0
174
     0
 93
       13
 44
0.0
173
     0
291
     1
 45
0.0
  0
VISUALSTYLE
  5
8FB
102
{ACAD_REACTORS
330
267
102
}
330
267
100
AcDbVisualStyle
  2
Hidden
 70
     6
 71
     1
 72
     2
 73
     2
 90
        0
 40
0.6
 41
30.0
 62
     5
 63
     7
421
 16777215
 74
     2
 91
        2
 64
     7
 65
   257
 75
     2
175
     1
 42
40.0
 92
        0
 66
   257
 43
1.0
 76
     1
 77
     6
 78
     2
 67
     7
 79
     3
170
     0
171
     0
290
     0
174
     0
 93
        1
 44
0.0
173
     0
291
     0
 45
0.0
  0
VISUALSTYLE
  5
8FC
102
{ACAD_REACTORS
330
267
102
}
330
267
100
AcDbVisualStyle
  2
JitterOff
 70
    20
 71
     2
 72
     2
 73
     0
 90
        0
 40
0.6
 41
30.0
 62
     5
 63
     7
421
 16777215
 74
     1
 91
        4
 64
     7
 65
   257
 75
     1
175
     1
 42
1.0
 92
       10
 66
     7
 43
1.0
 76
     1
 77
     6
 78
     2
 67
     7
 79
     5
170
     0
171
     0
290
     0
174
     0
 93
        1
 44
0.0
173
     0
291
     1
 45
0.0
  0
VISUALSTYLE
  5
275
102
{ACAD_REACTORS
330
267
102
}
330
267
100
AcDbVisualStyle
  2
Linepattern
 70
    14
 71
     2
 72
     2
 73
     0
 90
        0
 40
-0.6
 41
-30.0
 62
     5
 63
     7
421
 16777215
 74
     1
 91
        4
 64
     7
 65
   257
 75
     7
175
     7
 42
1.0
 92
        8
 66
     7
 43
1.0
 76
     1
 77
     6
 78
     2
 67
     7
 79
     5
170
     0
171
     0
290
     0
174
     0
 93
        1
 44
0.0
173
     0
291
     1
 45
0.0
  0
VISUALSTYLE
  5
8FD
102
{ACAD_REACTORS
330
267
102
}
330
267
100
AcDbVisualStyle
  2
OverhangOff
 70
    21
 71
     2
 72
     2
 73
     0
 90
        0
 40
0.6
 41
30.0
 62
     5
 63
     7
421
 16777215
 74
     1
 91
        4
 64
     7
 65
   257
 75
     1
175
     1
 42
1.0
 92
        9
 66
     7
 43
1.0
 76
     1
 77
     6
 78
     2
 67
     7
 79
     5
170
     0
171
     0
290
     0
174
     0
 93
        1
 44
0.0
173
     0
291
     1
 45
0.0
  0
VISUALSTYLE
  5
270
102
{ACAD_REACTORS
330
267
102
}
330
267
100
AcDbVisualStyle
  2
Realistic
 70
     8
 71
     2
 72
     2
 73
     0
 90
        0
 40
-0.6
 41
-30.0
 62
     5
 63
     7
421
 16777215
 74
     1
 91
        0
 64
     7
 65
   257
 75
     1
175
     1
 42
1.0
 92
        8
 66
     8
424
  7895160
 43
1.0
 76
     1
 77
     6
 78
     2
 67
     7
 79
     5
170
     0
171
     0
290
     0
174
     0
 93
       13
 44
0.0
173
     0
291
     0
 45
0.0
  0
VISUALSTYLE
  5
903
102
{ACAD_REACTORS
330
267
102
}
330
267
100
AcDbVisualStyle
  2
Shaded
 70
    27
 71
     2
 72
     2
 73
     1
 90
        2
 40
0.6
 41
30.0
 62
     5
 63
     7
421
 16777215
 74
     0
 91
        4
 64
     7
 65
   257
 75
     1
175
     1
 42
1.0
 92
        8
 66
   257
 43
1.0
 76
     1
 77
     6
 78
     2
 67
     8
425
  7895160
 79
     3
170
     0
171
     0
290
     0
174
     0
 93
        5
 44
0.0
173
     0
291
     0
 45
0.0
  0
VISUALSTYLE
  5
902
102
{ACAD_REACTORS
330
267
102
}
330
267
100
AcDbVisualStyle
  2
Shaded with edges
 70
    26
 71
     2
 72
     2
 73
     1
 90
        2
 40
0.6
 41
30.0
 62
     5
 63
     7
421
 16777215
 74
     1
 91
       10
 64
     7
 65
   257
 75
     2
175
     1
 42
1.0
 92
        8
 66
   257
 43
1.0
 76
     1
 77
     6
 78
     2
 67
     7
 79
     3
170
     0
171
     0
290
     0
174
     0
 93
        5
 44
0.0
173
     0
291
     0
 45
0.0
  0
VISUALSTYLE
  5
8FF
102
{ACAD_REACTORS
330
267
102
}
330
267
100
AcDbVisualStyle
  2
Shades of Gray
 70
    23
 71
     2
 72
     2
 73
     3
 90
        0
 40
0.6
 41
30.0
 62
     5
 63
     7
421
 16777215
 74
     2
 91
        2
 64
     7
 65
     7
 75
     1
175
     1
 42
40.0
 92
        8
 66
     7
 43
1.0
 76
     1
 77
     6
 78
     2
 67
     7
 79
     3
170
     0
171
     0
290
     0
174
     0
 93
        1
 44
0.0
173
     0
291
     0
 45
0.0
  0
VISUALSTYLE
  5
900
102
{ACAD_REACTORS
330
267
102
}
330
267
100
AcDbVisualStyle
  2
Sketchy
 70
    24
 71
     1
 72
     2
 73
     2
 90
        0
 40
0.6
 41
30.0
 62
     5
 63
     7
421
 16777215
 74
     2
 91
        2
 64
     7
 65
     7
 75
     1
175
     1
 42
40.0
 92
       11
 66
     7
 43
1.0
 76
     1
 77
     6
 78
     2
 67
     7
 79
     6
170
     0
171
     0
290
     0
174
     0
 93
        1
 44
0.0
173
     0
291
     0
 45
0.0
  0
VISUALSTYLE
  5
274
102
{ACAD_REACTORS
330
267
102
}
330
267
100
AcDbVisualStyle
  2
Thicken
 70
    13
 71
     2
 72
     2
 73
     0
 90
        0
 40
-0.6
 41
-30.0
 62
     5
 63
     7
421
 16777215
 74
     1
 91
        4
 64
     7
 65
   257
 75
     1
175
     1
 42
1.0
 92
       12
 66
     7
 43
1.0
 76
     1
 77
     6
 78
     2
 67
     7
 79
     5
170
     0
171
     0
290
     0
174
     0
 93
        1
 44
0.0
173
     0
291
     1
 45
0.0
  0
VISUALSTYLE
  5
8FA
102
{ACAD_REACTORS
330
267
102
}
330
267
100
AcDbVisualStyle
  2
Wireframe
 70
     5
 71
     0
 72
     2
 73
     0
 90
        0
 40
0.6
 41
30.0
 62
     5
 63
     7
421
 16777215
 74
     1
 91
        4
 64
     7
 65
   257
 75
     1
175
     1
 42
1.0
 92
        0
 66
   257
 43
1.0
 76
     1
 77
     6
 78
     2
 67
     7
 79
     3
170
     0
171
     0
290
     0
174
     0
 93
        1
 44
0.0
173
     0
291
     0
 45
0.0
  0
VISUALSTYLE
  5
901
102
{ACAD_REACTORS
330
267
102
}
330
267
100
AcDbVisualStyle
  2
X-Ray
 70
    25
 71
     2
 72
     2
 73
     1
 90
        1
 40
0.5
 41
30.0
 62
     5
 63
     7
421
 16777215
 74
     1
 91
        0
 64
     7
 65
   257
 75
     1
175
     1
 42
1.0
 92
        8
 66
     7
 43
1.0
 76
     1
 77
     6
 78
     2
 67
     7
 79
     3
170
     0
171
     0
290
     0
174
     0
 93
       13
 44
0.0
173
     0
291
     0
 45
0.0
  0
DICTIONARYVAR
  5
331
102
{ACAD_REACTORS
330
330
102
}
330
330
100
DictionaryVariables
280
     0
  1
1:1
  0
DICTIONARYVAR
  5
D5E
102
{ACAD_REACTORS
330
330
102
}
330
330
100
DictionaryVariables
280
     0
  1
Standard
  0
DICTIONARYVAR
  5
335
102
{ACAD_REACTORS
330
330
102
}
330
330
100
DictionaryVariables
280
     0
  1
Standard
  0
DICTIONARYVAR
  5
D52
102
{ACAD_REACTORS
330
330
102
}
330
330
100
DictionaryVariables
280
     0
  1
ByLayer
  0
DICTIONARYVAR
  5
896
102
{ACAD_REACTORS
330
330
102
}
330
330
100
DictionaryVariables
280
     0
  1
0
  0
DICTIONARYVAR
  5
36AB
102
{ACAD_REACTORS
330
366B
102
}
330
366B
100
DictionaryVariables
280
     0
  1
0.250000
  0
DICTIONARYVAR
  5
36A9
102
{ACAD_REACTORS
330
E38
102
}
330
E38
100
DictionaryVariables
280
     0
  1
0.261799
  0
DICTIONARYVAR
  5
36A7
102
{ACAD_REACTORS
330
E38
102
}
330
E38
100
DictionaryVariables
280
     0
  1
0.400000
  0
DICTIONARYVAR
  5
36A8
102
{ACAD_REACTORS
330
E38
102
}
330
E38
100
DictionaryVariables
280
     0
  1
0.250000
  0
DICTIONARYVAR
  5
36AA
102
{ACAD_REACTORS
330
E38
102
}
330
E38
100
DictionaryVariables
280
     0
  1
1
  0
FIELD
  5
36AD
102
{ACAD_REACTORS
330
1B440
102
}
330
1B440
100
AcDbField
  1
_text
  2
{%<\_FldIdx 0>%N}
 90
        1
360
36B1
 97
        0
 91
       63
 92
        0
 94
       11
 95
        2
 96
        0
300

 93
        1
  6
ACFD_FIELDTEXT_CHECKSUM
 93
        2
 90
        2
140
4569.0
 94
        0
300

302

304
ACVALUE_END
  7
ACFD_FIELD_VALUE
 93
        6
 90
        4
  1
{20190826N}
 94
        0
300

302

304
ACVALUE_END
301
{20190826N}
 98
       11
  0
DICTIONARY
  5
1B44A
330
279
100
AcDbDictionary
280
     1
281
     1
  3
ACAD_ROUNDTRIP_2008_TABLESTYLE_CELLSTYLEMAP
360
1B44B
  0
FIELD
  5
36B1
330
36AD
100
AcDbField
  1
AcVar
  2
\AcVar Date \f "yyyyMMdd"
 90
        0
 97
        0
 91
       63
 92
        0
 94
        8
 95
       64
 96
        0
300
Variable not supported
 93
        1
  6
Variable
 93
        2
 90
        4
  1
Date
 94
        0
300

302

304
ACVALUE_END
  7
ACFD_FIELD_VALUE
 93
        6
 90
        8
 92
       16
310
E307080000001A000E00270021000000
 94
        0
300
yyyyMMdd
302

304
ACVALUE_END
301
20190826
 98
        8
  0
CELLSTYLEMAP
  5
1B44B
102
{ACAD_REACTORS
330
1B44A
102
}
330
1B44A
100
AcDbCellStyleMap
 90
        3
300
CELLSTYLE
  1
TABLEFORMAT_BEGIN
 90
        5
170
     1
 91
        0
 92
    32768
 62
   257
 93
        1
300
CONTENTFORMAT
  1
CONTENTFORMAT_BEGIN
 90
        0
 91
        0
 92
        4
 93
        0
300

 40
0.0
140
1.0
 94
        5
 62
     0
340
17
144
6.0
309
CONTENTFORMAT_END
171
     1
301
MARGIN
  1
CELLMARGIN_BEGIN
 40
0.06
 40
0.06
 40
0.06
 40
0.06
 40
0.18
 40
0.18
309
CELLMARGIN_END
 94
        6
 95
        1
302
GRIDFORMAT
  1
GRIDFORMAT_BEGIN
 90
        0
 91
        1
 62
     0
 92
       -2
340
0
 93
        0
 40
0.045
309
GRIDFORMAT_END
 95
        2
302
GRIDFORMAT
  1
GRIDFORMAT_BEGIN
 90
        0
 91
        1
 62
     0
 92
       -2
340
0
 93
        0
 40
0.045
309
GRIDFORMAT_END
 95
        4
302
GRIDFORMAT
  1
GRIDFORMAT_BEGIN
 90
        0
 91
        1
 62
     0
 92
       -2
340
0
 93
        0
 40
0.045
309
GRIDFORMAT_END
 95
        8
302
GRIDFORMAT
  1
GRIDFORMAT_BEGIN
 90
        0
 91
        1
 62
     0
 92
       -2
340
0
 93
        0
 40
0.045
309
GRIDFORMAT_END
 95
       16
302
GRIDFORMAT
  1
GRIDFORMAT_BEGIN
 90
        0
 91
        1
 62
     0
 92
       -2
340
0
 93
        0
 40
0.045
309
GRIDFORMAT_END
 95
       32
302
GRIDFORMAT
  1
GRIDFORMAT_BEGIN
 90
        0
 91
        1
 62
     0
 92
       -2
340
0
 93
        0
 40
0.045
309
GRIDFORMAT_END
309
TABLEFORMAT_END
  1
CELLSTYLE_BEGIN
 90
        1
 91
        1
300
_TITLE
309
CELLSTYLE_END
300
CELLSTYLE
  1
TABLEFORMAT_BEGIN
 90
        5
170
     1
 91
        0
 92
        0
 62
   257
 93
        1
300
CONTENTFORMAT
  1
CONTENTFORMAT_BEGIN
 90
        0
 91
        0
 92
        4
 93
        0
300

 40
0.0
140
1.0
 94
        5
 62
     0
340
17
144
4.5
309
CONTENTFORMAT_END
171
     1
301
MARGIN
  1
CELLMARGIN_BEGIN
 40
0.06
 40
0.06
 40
0.06
 40
0.06
 40
0.18
 40
0.18
309
CELLMARGIN_END
 94
        6
 95
        1
302
GRIDFORMAT
  1
GRIDFORMAT_BEGIN
 90
        0
 91
        1
 62
     0
 92
       -2
340
0
 93
        0
 40
0.045
309
GRIDFORMAT_END
 95
        2
302
GRIDFORMAT
  1
GRIDFORMAT_BEGIN
 90
        0
 91
        1
 62
     0
 92
       -2
340
0
 93
        0
 40
0.045
309
GRIDFORMAT_END
 95
        4
302
GRIDFORMAT
  1
GRIDFORMAT_BEGIN
 90
        0
 91
        1
 62
     0
 92
       -2
340
0
 93
        0
 40
0.045
309
GRIDFORMAT_END
 95
        8
302
GRIDFORMAT
  1
GRIDFORMAT_BEGIN
 90
        0
 91
        1
 62
     0
 92
       -2
340
0
 93
        0
 40
0.045
309
GRIDFORMAT_END
 95
       16
302
GRIDFORMAT
  1
GRIDFORMAT_BEGIN
 90
        0
 91
        1
 62
     0
 92
       -2
340
0
 93
        0
 40
0.045
309
GRIDFORMAT_END
 95
       32
302
GRIDFORMAT
  1
GRIDFORMAT_BEGIN
 90
        0
 91
        1
 62
     0
 92
       -2
340
0
 93
        0
 40
0.045
309
GRIDFORMAT_END
309
TABLEFORMAT_END
  1
CELLSTYLE_BEGIN
 90
        2
 91
        1
300
_HEADER
309
CELLSTYLE_END
300
CELLSTYLE
  1
TABLEFORMAT_BEGIN
 90
        5
170
     1
 91
        0
 92
        0
 62
   257
 93
        1
300
CONTENTFORMAT
  1
CONTENTFORMAT_BEGIN
 90
        0
 91
        0
 92
        4
 93
        0
300

 40
0.0
140
1.0
 94
        2
 62
     0
340
17
144
4.5
309
CONTENTFORMAT_END
171
     1
301
MARGIN
  1
CELLMARGIN_BEGIN
 40
0.06
 40
0.06
 40
0.06
 40
0.06
 40
0.18
 40
0.18
309
CELLMARGIN_END
 94
        6
 95
        1
302
GRIDFORMAT
  1
GRIDFORMAT_BEGIN
 90
        0
 91
        1
 62
     0
 92
       -2
340
0
 93
        0
 40
0.045
309
GRIDFORMAT_END
 95
        2
302
GRIDFORMAT
  1
GRIDFORMAT_BEGIN
 90
        0
 91
        1
 62
     0
 92
       -2
340
0
 93
        0
 40
0.045
309
GRIDFORMAT_END
 95
        4
302
GRIDFORMAT
  1
GRIDFORMAT_BEGIN
 90
        0
 91
        1
 62
     0
 92
       -2
340
0
 93
        0
 40
0.045
309
GRIDFORMAT_END
 95
        8
302
GRIDFORMAT
  1
GRIDFORMAT_BEGIN
 90
        0
 91
        1
 62
     0
 92
       -2
340
0
 93
        0
 40
0.045
309
GRIDFORMAT_END
 95
       16
302
GRIDFORMAT
  1
GRIDFORMAT_BEGIN
 90
        0
 91
        1
 62
     0
 92
       -2
340
0
 93
        0
 40
0.045
309
GRIDFORMAT_END
 95
       32
302
GRIDFORMAT
  1
GRIDFORMAT_BEGIN
 90
        0
 91
        1
 62
     0
 92
       -2
340
0
 93
        0
 40
0.045
309
GRIDFORMAT_END
309
TABLEFORMAT_END
  1
CELLSTYLE_BEGIN
 90
        3
 91
        2
300
_DATA
309
CELLSTYLE_END
  0
ENDSEC
  0
EOF
