  0
SECTION
  2
HEADER
  9
$ACADVER
  1
AC1021
  9
$ACADMAINTVER
 70
    25
  9
$DWGCODEPAGE
  3
ANSI_932
  9
$LASTSAVEDBY
  1
howeNelson
  9
$INSBASE
 10
0.0
 20
0.0
 30
0.0
  9
$EXTMIN
 10
0.0
 20
0.0
 30
-0.0000000000000142
  9
$EXTMAX
 10
2100.0
 20
2970.0
 30
0.0000000000000071
  9
$LIMMIN
 10
0.0
 20
0.0
  9
$LIMMAX
 10
2100.0
 20
2970.0
  9
$ORTHOMODE
 70
     0
  9
$REGENMODE
 70
     1
  9
$FILLMODE
 70
     1
  9
$QTEXTMODE
 70
     0
  9
$MIRRTEXT
 70
     1
  9
$LTSCALE
 40
5.0
  9
$ATTMODE
 70
     1
  9
$TEXTSIZE
 40
2.5
  9
$TRACEWID
 40
1.0
  9
$TEXTSTYLE
  7
ＭＳ ゴシック
  9
$CLAYER
  8
DIM
  9
$CELTYPE
  6
ByLayer
  9
$CECOLOR
 62
   256
  9
$CELTSCALE
 40
1.0
  9
$DISPSILH
 70
     0
  9
$DIMSCALE
 40
1.0
  9
$DIMASZ
 40
10.0
  9
$DIMEXO
 40
30.0
  9
$DIMDLI
 40
0.9999999999999999
  9
$DIMRND
 40
0.0
  9
$DIMDLE
 40
0.0
  9
$DIMEXE
 40
0.0
  9
$DIMTP
 40
0.0
  9
$DIMTM
 40
0.0
  9
$DIMTXT
 40
24.0
  9
$DIMCEN
 40
0.0
  9
$DIMTSZ
 40
0.0
  9
$DIMTOL
 70
     0
  9
$DIMLIM
 70
     0
  9
$DIMTIH
 70
     0
  9
$DIMTOH
 70
     0
  9
$DIMSE1
 70
     0
  9
$DIMSE2
 70
     0
  9
$DIMTAD
 70
     1
  9
$DIMZIN
 70
    11
  9
$DIMBLK
  1
DOT
  9
$DIMASO
 70
     1
  9
$DIMSHO
 70
     1
  9
$DIMPOST
  1
<>
  9
$DIMAPOST
  1
[]
  9
$DIMALT
 70
     0
  9
$DIMALTD
 70
     1
  9
$DIMALTF
 40
1.0
  9
$DIMLFAC
 40
1.0
  9
$DIMTOFL
 70
     0
  9
$DIMTVP
 40
0.0
  9
$DIMTIX
 70
     1
  9
$DIMSOXD
 70
     0
  9
$DIMSAH
 70
     0
  9
$DIMBLK1
  1

  9
$DIMBLK2
  1

  9
$DIMSTYLE
  2
tfrom線あり
  9
$DIMCLRD
 70
     0
  9
$DIMCLRE
 70
     0
  9
$DIMCLRT
 70
     0
  9
$DIMTFAC
 40
1.0
  9
$DIMGAP
 40
20.0
  9
$DIMJUST
 70
     0
  9
$DIMSD1
 70
     0
  9
$DIMSD2
 70
     0
  9
$DIMTOLJ
 70
     1
  9
$DIMTZIN
 70
    11
  9
$DIMALTZ
 70
    11
  9
$DIMALTTZ
 70
    11
  9
$DIMUPT
 70
     0
  9
$DIMDEC
 70
     0
  9
$DIMTDEC
 70
     1
  9
$DIMALTU
 70
     2
  9
$DIMALTTD
 70
     2
  9
$DIMTXSTY
  7
ＭＳ ゴシック
  9
$DIMAUNIT
 70
     0
  9
$DIMADEC
 70
     2
  9
$DIMALTRND
 40
0.0
  9
$DIMAZIN
 70
     0
  9
$DIMDSEP
 70
    46
  9
$DIMATFIT
 70
     0
  9
$DIMFRAC
 70
     2
  9
$DIMLDRBLK
  1
DOT
  9
$DIMLUNIT
 70
     2
  9
$DIMLWD
 70
    -2
  9
$DIMLWE
 70
    -2
  9
$DIMTMOVE
 70
     0
  9
$DIMFXL
 40
1.0
  9
$DIMFXLON
 70
     0
  9
$DIMJOGANG
 40
0.7853981633974483
  9
$DIMTFILL
 70
     0
  9
$DIMTFILLCLR
 70
     0
  9
$DIMARCSYM
 70
     0
  9
$DIMLTYPE
  6

  9
$DIMLTEX1
  6

  9
$DIMLTEX2
  6

  9
$LUNITS
 70
     2
  9
$LUPREC
 70
     0
  9
$SKETCHINC
 40
0.1
  9
$FILLETRAD
 40
0.0
  9
$AUNITS
 70
     0
  9
$AUPREC
 70
     0
  9
$MENU
  1
acad
  9
$ELEVATION
 40
0.0
  9
$PELEVATION
 40
0.0
  9
$THICKNESS
 40
0.0
  9
$LIMCHECK
 70
     0
  9
$CHAMFERA
 40
0.0
  9
$CHAMFERB
 40
0.0
  9
$CHAMFERC
 40
0.0
  9
$CHAMFERD
 40
0.0
  9
$SKPOLY
 70
     0
  9
$TDCREATE
 40
2447893.375
  9
$TDUCREATE
 40
0.0
  9
$TDUPDATE
 40
2458890.606944792
  9
$TDUUPDATE
 40
2458890.231944792
  9
$TDINDWG
 40
0.1660913657
  9
$TDUSRTIMER
 40
0.0000101273
  9
$USRTIMER
 70
     1
  9
$ANGBASE
 50
0.0
  9
$ANGDIR
 70
     0
  9
$PDMODE
 70
     1
  9
$PDSIZE
 40
-2.0
  9
$PLINEWID
 40
0.0
  9
$SPLFRAME
 70
     0
  9
$SPLINETYPE
 70
     6
  9
$SPLINESEGS
 70
     8
  9
$HANDSEED
  5
41EB
  9
$SURFTAB1
 70
     6
  9
$SURFTAB2
 70
     6
  9
$SURFTYPE
 70
     6
  9
$SURFU
 70
     6
  9
$SURFV
 70
     6
  9
$UCSBASE
  2

  9
$UCSNAME
  2

  9
$UCSORG
 10
0.0
 20
0.0
 30
0.0
  9
$UCSXDIR
 10
1.0
 20
0.0
 30
0.0
  9
$UCSYDIR
 10
0.0
 20
1.0
 30
0.0
  9
$UCSORTHOREF
  2

  9
$UCSORTHOVIEW
 70
     0
  9
$UCSORGTOP
 10
0.0
 20
0.0
 30
0.0
  9
$UCSORGBOTTOM
 10
0.0
 20
0.0
 30
0.0
  9
$UCSORGLEFT
 10
0.0
 20
0.0
 30
0.0
  9
$UCSORGRIGHT
 10
0.0
 20
0.0
 30
0.0
  9
$UCSORGFRONT
 10
0.0
 20
0.0
 30
0.0
  9
$UCSORGBACK
 10
0.0
 20
0.0
 30
0.0
  9
$PUCSBASE
  2

  9
$PUCSNAME
  2

  9
$PUCSORG
 10
0.0
 20
0.0
 30
0.0
  9
$PUCSXDIR
 10
1.0
 20
0.0
 30
0.0
  9
$PUCSYDIR
 10
0.0
 20
1.0
 30
0.0
  9
$PUCSORTHOREF
  2

  9
$PUCSORTHOVIEW
 70
     0
  9
$PUCSORGTOP
 10
0.0
 20
0.0
 30
0.0
  9
$PUCSORGBOTTOM
 10
0.0
 20
0.0
 30
0.0
  9
$PUCSORGLEFT
 10
0.0
 20
0.0
 30
0.0
  9
$PUCSORGRIGHT
 10
0.0
 20
0.0
 30
0.0
  9
$PUCSORGFRONT
 10
0.0
 20
0.0
 30
0.0
  9
$PUCSORGBACK
 10
0.0
 20
0.0
 30
0.0
  9
$USERI1
 70
     0
  9
$USERI2
 70
     0
  9
$USERI3
 70
     0
  9
$USERI4
 70
     0
  9
$USERI5
 70
     0
  9
$USERR1
 40
0.0
  9
$USERR2
 40
0.0
  9
$USERR3
 40
0.0
  9
$USERR4
 40
0.0
  9
$USERR5
 40
0.0
  9
$WORLDVIEW
 70
     1
  9
$SHADEDGE
 70
     3
  9
$SHADEDIF
 70
    70
  9
$TILEMODE
 70
     1
  9
$MAXACTVP
 70
    64
  9
$PINSBASE
 10
0.0
 20
0.0
 30
0.0
  9
$PLIMCHECK
 70
     0
  9
$PEXTMIN
 10
0.0
 20
0.0
 30
0.0
  9
$PEXTMAX
 10
0.0
 20
0.0
 30
0.0
  9
$PLIMMIN
 10
-7.5
 20
-20.0
  9
$PLIMMAX
 10
412.5
 20
277.0
  9
$UNITMODE
 70
     0
  9
$VISRETAIN
 70
     0
  9
$PLINEGEN
 70
     1
  9
$PSLTSCALE
 70
     0
  9
$TREEDEPTH
 70
  3020
  9
$CMLSTYLE
  2
Standard
  9
$CMLJUST
 70
     0
  9
$CMLSCALE
 40
1.0
  9
$PROXYGRAPHICS
 70
     0
  9
$MEASUREMENT
 70
     1
  9
$CELWEIGHT
370
    -1
  9
$ENDCAPS
280
     0
  9
$JOINSTYLE
280
     0
  9
$LWDISPLAY
290
     1
  9
$INSUNITS
 70
     4
  9
$HYPERLINKBASE
  1

  9
$STYLESHEET
  1

  9
$XEDIT
290
     1
  9
$CEPSNTYPE
380
     0
  9
$PSTYLEMODE
290
     1
  9
$FINGERPRINTGUID
  2

  9
$VERSIONGUID
  2

  9
$EXTNAMES
290
     1
  9
$PSVPSCALE
 40
0.0
  9
$OLESTARTUP
290
     0
  9
$SORTENTS
280
   127
  9
$INDEXCTL
280
     0
  9
$HIDETEXT
280
     1
  9
$XCLIPFRAME
290
     0
  9
$HALOGAP
280
     0
  9
$OBSCOLOR
 70
   257
  9
$OBSLTYPE
280
     0
  9
$INTERSECTIONDISPLAY
280
     0
  9
$INTERSECTIONCOLOR
 70
   257
  9
$DIMASSOC
280
     2
  9
$PROJECTNAME
  1

  9
$CAMERADISPLAY
290
     0
  9
$LENSLENGTH
 40
50.0
  9
$CAMERAHEIGHT
 40
0.0
  9
$STEPSPERSEC
 40
2.0
  9
$STEPSIZE
 40
6.0
  9
$3DDWFPREC
 40
2.0
  9
$PSOLWIDTH
 40
0.25
  9
$PSOLHEIGHT
 40
4.0
  9
$LOFTANG1
 40
1.570796326794897
  9
$LOFTANG2
 40
1.570796326794897
  9
$LOFTMAG1
 40
0.0
  9
$LOFTMAG2
 40
0.0
  9
$LOFTPARAM
 70
     7
  9
$LOFTNORMALS
280
     1
  9
$LATITUDE
 40
37.795
  9
$LONGITUDE
 40
-122.394
  9
$NORTHDIRECTION
 40
0.0
  9
$TIMEZONE
 70
 -8000
  9
$LIGHTGLYPHDISPLAY
280
     1
  9
$TILEMODELIGHTSYNCH
280
     1
  9
$SOLIDHIST
280
     1
  9
$SHOWHIST
280
     1
  9
$DWFFRAME
280
     2
  9
$DGNFRAME
280
     2
  9
$REALWORLDSCALE
290
     1
  9
$INTERFERECOLOR
 62
   256
  9
$CSHADOW
280
     0
  9
$SHADOWPLANELOCATION
 40
0.0
  0
ENDSEC
  0
SECTION
  2
CLASSES
  0
CLASS
  1
LWPOLYLINE
  2
AcDbPolyline
  3
ObjectDBX Classes
 90
        0
 91
        1
280
     0
281
     1
  0
CLASS
  1
IMAGE
  2
AcDbRasterImage
  3
ISM
 90
      127
 91
        7
280
     0
281
     1
  0
CLASS
  1
OLE2FRAME
  2
AcDbOle2Frame
  3
ObjectDBX Classes
 90
        0
 91
        1
280
     0
281
     1
  0
CLASS
  1
HATCH
  2
AcDbHatch
  3
ObjectDBX Classes
 90
        0
 91
        1
280
     0
281
     1
  0
CLASS
  1
DICTIONARYVAR
  2
AcDbDictionaryVar
  3
ObjectDBX Classes
 90
        0
 91
        6
280
     0
281
     0
  0
CLASS
  1
RASTERVARIABLES
  2
AcDbRasterVariables
  3
ISM
 90
        0
 91
        6
280
     0
281
     0
  0
CLASS
  1
IMAGEDEF
  2
AcDbRasterImageDef
  3
ISM
 90
        0
 91
        6
280
     0
281
     0
  0
CLASS
  1
IMAGEDEF_REACTOR
  2
AcDbRasterImageDefReactor
  3
ISM
 90
        1
 91
        6
280
     0
281
     0
  0
CLASS
  1
IDBUFFER
  2
AcDbIdBuffer
  3
ObjectDBX Classes
 90
        0
 91
        6
280
     0
281
     0
  0
CLASS
  1
SPATIAL_FILTER
  2
AcDbSpatialFilter
  3
ObjectDBX Classes
 90
        0
 91
        6
280
     0
281
     0
  0
CLASS
  1
XRECORD
  2
AcDbXrecord
  3
ObjectDBX Classes
 90
        0
 91
        1
280
     0
281
     0
  0
CLASS
  1
SORTENTSTABLE
  2
AcDbSortentsTable
  3
ObjectDBX Classes
 90
        0
 91
        6
280
     0
281
     0
  0
CLASS
  1
LAYER_INDEX
  2
AcDbLayerIndex
  3
ObjectDBX Classes
 90
        0
 91
        6
280
     0
281
     0
  0
CLASS
  1
SPATIAL_INDEX
  2
AcDbSpatialIndex
  3
AutoCAD 2000
 90
        0
 91
        6
280
     0
281
     0
  0
CLASS
  1
OBJECT_PTR
  2
CAseDLPNTableRecord
  3
ASE-LPNTableRecord
 90
        1
 91
        6
280
     0
281
     0
  0
CLASS
  1
LAYOUT
  2
AcDbLayout
  3
ObjectDBX Classes
 90
        0
 91
        1
280
     0
281
     0
  0
CLASS
  1
PLOTSETTINGS
  2
AcDbPlotSettings
  3
ObjectDBX Classes
 90
        0
 91
        6
280
     0
281
     0
  0
CLASS
  1
ACDBDICTIONARYWDFLT
  2
AcDbDictionaryWithDefault
  3
ObjectDBX Classes
 90
        0
 91
        6
280
     0
281
     0
  0
CLASS
  1
ACDBPLACEHOLDER
  2
AcDbPlaceHolder
  3
ObjectDBX Classes
 90
        0
 91
        1
280
     0
281
     0
  0
CLASS
  1
SCALE
  2
AcDbScale
  3
ObjectDBX Classes
 90
     1153
 91
        6
280
     0
281
     0
  0
CLASS
  1
MATERIAL
  2
AcDbMaterial
  3
ObjectDBX Classes
 90
     1153
 91
        6
280
     0
281
     0
  0
CLASS
  1
VISUALSTYLE
  2
AcDbVisualStyle
  3
ObjectDBX Classes
 90
     4095
 91
        6
280
     0
281
     0
  0
CLASS
  1
TABLESTYLE
  2
AcDbTableStyle
  3
ObjectDBX Classes
 90
     4095
 91
        6
280
     0
281
     0
  0
CLASS
  1
DIMASSOC
  2
AcDbDimAssoc
  3
"AcDbDimAssoc|Product Desc:     AcDim ARX App For Dimension|Company:          Autodesk, Inc.|WEB Address:      www.autodesk.com"
 90
        0
 91
        6
280
     0
281
     0
  0
CLASS
  1
CELLSTYLEMAP
  2
AcDbCellStyleMap
  3
ObjectDBX Classes
 90
     1152
 91
        6
280
     0
281
     0
  0
CLASS
  1
SUN
  2
AcDbSun
  3
SCENEOE
 90
     1153
 91
        6
280
     0
281
     0
  0
CLASS
  1
MLEADERSTYLE
  2
AcDbMLeaderStyle
  3
ACDB_MLEADERSTYLE_CLASS
 90
     4095
 91
        6
280
     0
281
     0
  0
CLASS
  1
FIELD
  2
AcDbField
  3
ObjectDBX Classes
 90
     1152
 91
        6
280
     0
281
     0
  0
CLASS
  1
FIELDLIST
  2
AcDbFieldList
  3
ObjectDBX Classes
 90
     1152
 91
        6
280
     0
281
     0
  0
CLASS
  1
MULTILEADER
  2
AcDbMLeader
  3
ACDB_MLEADER_CLASS
 90
     1025
 91
        5
280
     0
281
     1
  0
ENDSEC
  0
SECTION
  2
TABLES
  0
TABLE
  2
VPORT
  5
7
330
0
100
AcDbSymbolTable
 70
     1
  0
VPORT
  5
15
330
7
100
AcDbSymbolTableRecord
100
AcDbViewportTableRecord
  2
*ACTIVE
 70
     0
 10
0.0
 20
0.0
 11
1.0
 21
1.0
 12
1141.020135670899
 22
1411.401285469834
 13
0.0
 23
0.0
 14
1.0
 24
1.0
 15
0.0
 25
0.0
 16
0.0
 26
0.0
 36
1.0
 17
-91.02013567089898
 27
73.59871453016603
 37
-46.86809886248109
 40
3029.4
 41
2.341176470588235
 42
50.0
 43
0.0
 44
0.0
 50
0.0
 51
0.0
 71
    16
 72
  2000
 73
     1
 74
     1
 75
     0
 76
     0
 77
     0
 78
     0
281
     0
 65
     1
110
0.0
120
0.0
130
0.0
111
1.0
121
0.0
131
0.0
112
0.0
122
1.0
132
0.0
 79
     0
146
0.0
348
26C
 60
     3
 61
     5
292
     1
282
     1
141
0.0
142
0.0
 63
   256
361
904
  0
ENDTAB
  0
TABLE
  2
LTYPE
  5
4
330
0
100
AcDbSymbolTable
 70
     3
  0
LTYPE
  5
11
330
4
100
AcDbSymbolTableRecord
100
AcDbLinetypeTableRecord
  2
ByBlock
 70
     0
  3

 72
    65
 73
     0
 40
0.0
  0
LTYPE
  5
12
330
4
100
AcDbSymbolTableRecord
100
AcDbLinetypeTableRecord
  2
ByLayer
 70
     0
  3

 72
    65
 73
     0
 40
0.0
  0
LTYPE
  5
13
330
4
100
AcDbSymbolTableRecord
100
AcDbLinetypeTableRecord
  2
Continuous
 70
     0
  3
Solid line
 72
    65
 73
     0
 40
0.0
  0
LTYPE
  5
DAF
330
4
100
AcDbSymbolTableRecord
100
AcDbLinetypeTableRecord
  2
BORDER
 70
     0
  3
Border __  __  . __  __  . __  __  . __  __  . 
 72
    65
 73
     6
 40
44.45
 49
12.7
 74
     0
 49
-6.35
 74
     0
 49
12.7
 74
     0
 49
-6.35
 74
     0
 49
0.0
 74
     0
 49
-6.35
 74
     0
  0
ENDTAB
  0
TABLE
  2
LAYER
  5
2
102
{ACAD_XDICTIONARY
360
2E1
102
}
330
0
100
AcDbSymbolTable
 70
    11
  0
LAYER
  5
14
330
2
100
AcDbSymbolTableRecord
100
AcDbLayerTableRecord
  2
0
 70
     0
 62
     7
  6
Continuous
370
    -3
390
1D
347
266
  0
LAYER
  5
4B
330
2
100
AcDbSymbolTableRecord
100
AcDbLayerTableRecord
  2
TEMPLATE
 70
     0
 62
     7
  6
Continuous
370
    20
390
1D
347
266
  0
LAYER
  5
4C
330
2
100
AcDbSymbolTableRecord
100
AcDbLayerTableRecord
  2
DIM
 70
     0
 62
     3
  6
Continuous
370
    13
390
1D
347
266
  0
LAYER
  5
4D
330
2
100
AcDbSymbolTableRecord
100
AcDbLayerTableRecord
  2
MODEL
 70
     0
 62
     7
  6
Continuous
370
    20
390
1D
347
266
  0
LAYER
  5
D5D
330
2
100
AcDbSymbolTableRecord
100
AcDbLayerTableRecord
  2
Defpoints
 70
     0
 62
     7
  6
Continuous
290
     0
370
    -3
390
1D
347
266
  0
LAYER
  5
DAE
330
2
100
AcDbSymbolTableRecord
100
AcDbLayerTableRecord
  2
BORDER
 70
     0
 62
     4
  6
BORDER
290
     0
370
    20
390
1D
347
266
1001
AcAecLayerStandard
1000

1000

  0
LAYER
  5
157B
330
2
100
AcDbSymbolTableRecord
100
AcDbLayerTableRecord
  2
Layer3
 70
     0
 62
     7
  6
Continuous
370
    -3
390
1D
347
266
  0
LAYER
  5
157F
330
2
100
AcDbSymbolTableRecord
100
AcDbLayerTableRecord
  2
Layer9
 70
     0
 62
     7
  6
Continuous
370
    -3
390
1D
347
266
  0
LAYER
  5
1582
330
2
100
AcDbSymbolTableRecord
100
AcDbLayerTableRecord
  2
Standard
 70
     0
 62
     7
  6
Continuous
370
    -3
390
1D
347
266
  0
ENDTAB
  0
TABLE
  2
STYLE
  5
3
330
0
100
AcDbSymbolTable
 70
     2
  0
STYLE
  5
17
330
3
100
AcDbSymbolTableRecord
100
AcDbTextStyleTableRecord
  2
Standard
 70
     0
 40
0.0
 41
1.0
 50
0.0
 71
     0
 42
2.5
  3
txt
  4
BIGFONT.SHX
  0
STYLE
  5
39
330
3
100
AcDbSymbolTableRecord
100
AcDbTextStyleTableRecord
  2
ＭＳ ゴシック
 70
     0
 40
0.0
 41
1.0
 50
0.0
 71
     0
 42
2.5
  3
msgothic.ttc
  4
ＭＳ ゴシック
1001
ACAD
1000
ＭＳ ゴシック
1071
        0
  0
ENDTAB
  0
TABLE
  2
VIEW
  5
5
330
0
100
AcDbSymbolTable
 70
     0
  0
ENDTAB
  0
TABLE
  2
UCS
  5
6
330
0
100
AcDbSymbolTable
 70
     0
  0
ENDTAB
  0
TABLE
  2
APPID
  5
8
330
0
100
AcDbSymbolTable
 70
     3
  0
APPID
  5
16
330
8
100
AcDbSymbolTableRecord
100
AcDbRegAppTableRecord
  2
ACAD
 70
     0
  0
APPID
  5
7AC
330
8
100
AcDbSymbolTableRecord
100
AcDbRegAppTableRecord
  2
AcAecLayerStandard
 70
     0
  0
APPID
  5
F3A
330
8
100
AcDbSymbolTableRecord
100
AcDbRegAppTableRecord
  2
ACAD_MLEADERVER
 70
     0
  0
ENDTAB
  0
TABLE
  2
DIMSTYLE
  5
9
330
0
100
AcDbSymbolTable
 70
     2
100
AcDbDimStyleTable
  0
DIMSTYLE
105
18
330
9
100
AcDbSymbolTableRecord
100
AcDbDimStyleTableRecord
  2
Standard
 70
     0
178
     0
340
17
  0
DIMSTYLE
105
57
102
{ACAD_REACTORS
330
40AA
330
40C9
330
40D8
330
40E8
330
40F7
330
4106
330
411A
330
4138
330
4147
330
4157
330
4167
330
4187
330
4194
330
41A3
102
}
330
9
100
AcDbSymbolTableRecord
100
AcDbDimStyleTableRecord
  2
tfrom線あり
 70
     0
  3
<>
  4
[]
 41
10.0
 42
30.0
 43
0.9999999999999999
 44
0.0
 73
     0
 74
     0
 77
     1
 78
    11
140
24.0
141
0.0
143
1.0
147
20.0
171
     1
174
     1
178
     0
179
     2
271
     0
272
     1
276
     2
284
    11
285
    11
286
    11
289
     0
340
39
341
4E
342
4E
  0
ENDTAB
  0
TABLE
  2
BLOCK_RECORD
  5
1
330
0
100
AcDbSymbolTable
 70
    24
  0
BLOCK_RECORD
  5
A
102
{ACAD_XDICTIONARY
360
374D
102
}
330
1
100
AcDbSymbolTableRecord
100
AcDbBlockTableRecord
  2
*MODEL_SPACE
340
20
 70
     0
280
     1
281
     0
  0
BLOCK_RECORD
  5
B
330
1
100
AcDbSymbolTableRecord
100
AcDbBlockTableRecord
  2
*PAPER_SPACE
340
21
 70
     0
280
     1
281
     0
  0
BLOCK_RECORD
  5
4E
330
1
100
AcDbSymbolTableRecord
100
AcDbBlockTableRecord
  2
_DOT
340
0
102
{BLKREFS
331
373A
331
373B
331
3746
331
3747
331
40B4
331
0
331
0
331
40B3
331
40C4
331
40C3
331
40D3
331
40D2
331
0
331
0
331
40F2
331
40F1
331
4101
331
4100
331
4110
331
410F
331
4124
331
4123
331
4133
331
4132
331
4142
331
4141
331
4152
331
4151
331
0
331
4161
331
0
331
0
331
4181
331
4180
331
4180
331
418F
331
418E
331
419E
331
419D
331
0
331
0
331
0
331
0
331
4170
331
4171
102
}
 70
     0
280
     1
281
     0
  0
BLOCK_RECORD
  5
68D
330
1
100
AcDbSymbolTableRecord
100
AcDbBlockTableRecord
  2
block 2
340
0
102
{BLKREFS
331
68C
102
}
 70
     0
280
     1
281
     0
  0
BLOCK_RECORD
  5
199A
330
1
100
AcDbSymbolTableRecord
100
AcDbBlockTableRecord
  2
SEANNOT_GROUP
340
0
102
{BLKREFS
331
28CA
102
}
 70
     0
280
     1
281
     0
  0
BLOCK_RECORD
  5
1F2F
330
1
100
AcDbSymbolTableRecord
100
AcDbBlockTableRecord
  2
SEANNOT_GROUP1
340
0
102
{BLKREFS
331
2B9B
102
}
 70
     0
280
     1
281
     0
  0
BLOCK_RECORD
  5
40AD
330
1
100
AcDbSymbolTableRecord
100
AcDbBlockTableRecord
  2
*D7
340
0
 70
     0
280
     1
281
     0
  0
BLOCK_RECORD
  5
40CC
330
1
100
AcDbSymbolTableRecord
100
AcDbBlockTableRecord
  2
*D9
340
0
 70
     0
280
     1
281
     0
  0
BLOCK_RECORD
  5
40DB
330
1
100
AcDbSymbolTableRecord
100
AcDbBlockTableRecord
  2
*D10
340
0
 70
     0
280
     1
281
     0
  0
BLOCK_RECORD
  5
40EB
330
1
100
AcDbSymbolTableRecord
100
AcDbBlockTableRecord
  2
*D11
340
0
 70
     0
280
     1
281
     0
  0
BLOCK_RECORD
  5
40FA
330
1
100
AcDbSymbolTableRecord
100
AcDbBlockTableRecord
  2
*D12
340
0
 70
     0
280
     1
281
     0
  0
BLOCK_RECORD
  5
4109
330
1
100
AcDbSymbolTableRecord
100
AcDbBlockTableRecord
  2
*D13
340
0
 70
     0
280
     1
281
     0
  0
BLOCK_RECORD
  5
411D
330
1
100
AcDbSymbolTableRecord
100
AcDbBlockTableRecord
  2
*D14
340
0
 70
     0
280
     1
281
     0
  0
BLOCK_RECORD
  5
413B
330
1
100
AcDbSymbolTableRecord
100
AcDbBlockTableRecord
  2
*D16
340
0
 70
     0
280
     1
281
     0
  0
BLOCK_RECORD
  5
414A
330
1
100
AcDbSymbolTableRecord
100
AcDbBlockTableRecord
  2
*D17
340
0
 70
     0
280
     1
281
     0
  0
BLOCK_RECORD
  5
415A
330
1
100
AcDbSymbolTableRecord
100
AcDbBlockTableRecord
  2
*D18
340
0
 70
     0
280
     1
281
     0
  0
BLOCK_RECORD
  5
416A
330
1
100
AcDbSymbolTableRecord
100
AcDbBlockTableRecord
  2
*D19
340
0
 70
     0
280
     1
281
     0
  0
BLOCK_RECORD
  5
4188
330
1
100
AcDbSymbolTableRecord
100
AcDbBlockTableRecord
  2
*D21
340
0
 70
     0
280
     1
281
     0
  0
BLOCK_RECORD
  5
4197
330
1
100
AcDbSymbolTableRecord
100
AcDbBlockTableRecord
  2
*D22
340
0
 70
     0
280
     1
281
     0
  0
BLOCK_RECORD
  5
41A6
330
1
100
AcDbSymbolTableRecord
100
AcDbBlockTableRecord
  2
*D23
340
0
 70
     0
280
     1
281
     0
  0
ENDTAB
  0
ENDSEC
  0
SECTION
  2
BLOCKS
  0
BLOCK
  5
D
330
A
100
AcDbEntity
  8
0
390
1D
100
AcDbBlockBegin
  2
*MODEL_SPACE
 70
     0
 10
0.0
 20
0.0
 30
0.0
  3
*MODEL_SPACE
  1
*MODEL_SPACE
  0
ENDBLK
  5
E
330
A
100
AcDbEntity
  8
0
390
1D
100
AcDbBlockEnd
  0
BLOCK
  5
F
330
B
100
AcDbEntity
 67
     1
  8
0
390
1D
100
AcDbBlockBegin
  2
*PAPER_SPACE
 70
     0
 10
0.0
 20
0.0
 30
0.0
  3
*PAPER_SPACE
  1
*PAPER_SPACE
  0
ENDBLK
  5
10
330
B
100
AcDbEntity
 67
     1
  8
0
390
1D
100
AcDbBlockEnd
  0
BLOCK
  5
EC4
330
4E
100
AcDbEntity
  8
0
390
1D
100
AcDbBlockBegin
  2
_DOT
 70
     0
 10
0.0
 20
0.0
 30
0.0
  3
_DOT
  1
_DOT
  0
POLYLINE
  5
EC6
330
4E
100
AcDbEntity
  8
0
  6
ByBlock
 62
     0
370
    -2
390
1D
100
AcDb2dPolyline
 66
     1
 10
0.0
 20
0.0
 30
0.0
 70
     1
 40
0.5
 41
0.5
  0
VERTEX
  5
EC7
330
EC6
100
AcDbEntity
  8
0
  6
ByBlock
 62
     0
370
    -2
390
1D
100
AcDbVertex
100
AcDb2dVertex
 10
-0.25
 20
0.0
 30
0.0
 42
1.0
  0
VERTEX
  5
EC8
330
EC6
100
AcDbEntity
  8
0
  6
ByBlock
 62
     0
370
    -2
390
1D
100
AcDbVertex
100
AcDb2dVertex
 10
0.25
 20
0.0
 30
0.0
 42
1.0
  0
SEQEND
  5
EC9
330
EC6
100
AcDbEntity
  8
0
390
1D
  0
LINE
  5
ECA
330
4E
100
AcDbEntity
  8
0
  6
ByBlock
 62
     0
370
    -2
390
1D
100
AcDbLine
 10
-0.5
 20
0.0
 30
0.0
 11
-1.0
 21
0.0
 31
0.0
  0
ENDBLK
  5
ECB
330
4E
100
AcDbEntity
  8
0
390
1D
100
AcDbBlockEnd
  0
BLOCK
  5
68E
330
68D
100
AcDbEntity
  8
0
100
AcDbBlockBegin
  2
block 2
 70
     0
 10
0.0
 20
0.0
 30
0.0
  3
block 2
  1
block 2
  0
ENDBLK
  5
6B0
330
68D
100
AcDbEntity
  8
0
100
AcDbBlockEnd
  0
BLOCK
  5
199B
330
199A
100
AcDbEntity
  8
0
100
AcDbBlockBegin
  2
SEANNOT_GROUP
 70
     0
 10
0.0
 20
0.0
 30
0.0
  3
SEANNOT_GROUP
  1
SEANNOT_GROUP
  0
ENDBLK
  5
199C
330
199A
100
AcDbEntity
  8
0
100
AcDbBlockEnd
  0
BLOCK
  5
1F30
330
1F2F
100
AcDbEntity
  8
0
100
AcDbBlockBegin
  2
SEANNOT_GROUP1
 70
     0
 10
0.0
 20
0.0
 30
0.0
  3
SEANNOT_GROUP1
  1
SEANNOT_GROUP1
  0
ENDBLK
  5
1F31
330
1F2F
100
AcDbEntity
  8
0
100
AcDbBlockEnd
  0
BLOCK
  5
40AE
330
40AD
100
AcDbEntity
  8
0
100
AcDbBlockBegin
  2
*D7
 70
     1
 10
0.0
 20
0.0
 30
0.0
  3
*D7
  1

  0
LINE
  5
40B0
330
40AD
100
AcDbEntity
  8
DIM
 62
     0
370
    -2
100
AcDbLine
 10
676.9828429206609
 20
2256.202144279277
 30
0.0
 11
965.2717024107687
 21
2256.202144279277
 31
0.0
  0
LINE
  5
40B1
330
40AD
100
AcDbEntity
  8
DIM
 62
     0
370
    -2
100
AcDbLine
 10
676.9828429206609
 20
1806.202144279277
 30
0.0
 11
965.2717024107687
 21
1806.202144279277
 31
0.0
  0
LINE
  5
40B2
330
40AD
100
AcDbEntity
  8
DIM
 62
     0
370
    -2
100
AcDbLine
 10
965.2717024107687
 20
2246.202144279277
 30
0.0
 11
965.2717024107687
 21
1816.202144279277
 31
0.0
  0
INSERT
  5
40B3
330
40AD
100
AcDbEntity
  8
DIM
 62
     0
370
    -2
100
AcDbBlockReference
  2
_DOT
 10
965.2717024107687
 20
2256.202144279277
 30
0.0
 41
10.0
 42
10.0
 43
10.0
 50
90.0
  0
INSERT
  5
40B4
330
40AD
100
AcDbEntity
  8
DIM
 62
     0
370
    -2
100
AcDbBlockReference
  2
_DOT
 10
965.2717024107687
 20
1806.202144279277
 30
0.0
 41
10.0
 42
10.0
 43
10.0
 50
270.0
  0
MTEXT
  5
40B5
330
40AD
100
AcDbEntity
  8
DIM
 62
     0
100
AcDbMText
 10
933.2717024107687
 20
2031.202144279277
 30
0.0
 40
24.0
 41
0.0
 46
0.0
 71
     5
 72
     1
  1
\A1;450
  7
ＭＳ ゴシック
 11
0.0
 21
1.0
 31
0.0
 73
     1
 44
1.0
  0
POINT
  5
40B6
330
40AD
100
AcDbEntity
  8
Defpoints
 62
     0
100
AcDbPoint
 10
646.9828429206609
 20
2256.202144279277
 30
0.0
  0
POINT
  5
40B7
330
40AD
100
AcDbEntity
  8
Defpoints
 62
     0
100
AcDbPoint
 10
646.9828429206609
 20
1806.202144279277
 30
0.0
  0
POINT
  5
40B8
330
40AD
100
AcDbEntity
  8
Defpoints
 62
     0
100
AcDbPoint
 10
965.2717024107687
 20
1806.202144279277
 30
0.0
  0
ENDBLK
  5
40AF
330
40AD
100
AcDbEntity
  8
0
100
AcDbBlockEnd
  0
BLOCK
  5
40CD
330
40CC
100
AcDbEntity
  8
0
100
AcDbBlockBegin
  2
*D9
 70
     1
 10
0.0
 20
0.0
 30
0.0
  3
*D9
  1

  0
LINE
  5
40CF
330
40CC
100
AcDbEntity
  8
DIM
 62
     0
370
    -2
100
AcDbLine
 10
809.7647118315726
 20
1871.785498008702
 30
0.0
 11
809.7647118315726
 21
1706.388768522072
 31
0.0
  0
LINE
  5
40D0
330
40CC
100
AcDbEntity
  8
DIM
 62
     0
370
    -2
100
AcDbLine
 10
412.206315270354
 20
1871.785498008702
 30
0.0
 11
412.206315270354
 21
1706.388768522072
 31
0.0
  0
LINE
  5
40D1
330
40CC
100
AcDbEntity
  8
DIM
 62
     0
370
    -2
100
AcDbLine
 10
799.7647118315726
 20
1706.388768522072
 30
0.0
 11
422.206315270354
 21
1706.388768522072
 31
0.0
  0
INSERT
  5
40D2
330
40CC
100
AcDbEntity
  8
DIM
 62
     0
370
    -2
100
AcDbBlockReference
  2
_DOT
 10
809.7647118315726
 20
1706.388768522072
 30
0.0
 41
10.0
 42
10.0
 43
10.0
  0
INSERT
  5
40D3
330
40CC
100
AcDbEntity
  8
DIM
 62
     0
370
    -2
100
AcDbBlockReference
  2
_DOT
 10
412.206315270354
 20
1706.388768522072
 30
0.0
 41
10.0
 42
10.0
 43
10.0
 50
180.0
  0
MTEXT
  5
40D4
330
40CC
100
AcDbEntity
  8
DIM
 62
     0
100
AcDbMText
 10
610.9855135509633
 20
1738.388768522072
 30
0.0
 40
24.0
 41
0.0
 46
0.0
 71
     5
 72
     1
  1
\A1;398
  7
ＭＳ ゴシック
 73
     1
 44
1.0
  0
POINT
  5
40D5
330
40CC
100
AcDbEntity
  8
Defpoints
 62
     0
100
AcDbPoint
 10
809.7647118315726
 20
1901.785498008702
 30
0.0
  0
POINT
  5
40D6
330
40CC
100
AcDbEntity
  8
Defpoints
 62
     0
100
AcDbPoint
 10
412.206315270354
 20
1901.785498008702
 30
0.0
  0
POINT
  5
40D7
330
40CC
100
AcDbEntity
  8
Defpoints
 62
     0
100
AcDbPoint
 10
412.206315270354
 20
1706.388768522072
 30
0.0
  0
ENDBLK
  5
40CE
330
40CC
100
AcDbEntity
  8
0
100
AcDbBlockEnd
  0
BLOCK
  5
40DC
330
40DB
100
AcDbEntity
  8
0
100
AcDbBlockBegin
  2
*D10
 70
     1
 10
0.0
 20
0.0
 30
0.0
  3
*D10
  1

  0
LINE
  5
40DE
330
40DB
100
AcDbEntity
  8
DIM
 62
     0
370
    -2
100
AcDbLine
 10
519.3183019962412
 20
1806.202144279277
 30
0.0
 11
286.1729982538945
 21
1806.202144279277
 31
0.0
  0
LINE
  5
40DF
330
40DB
100
AcDbEntity
  8
DIM
 62
     0
370
    -2
100
AcDbLine
 10
453.2596714473093
 20
1831.577113685138
 30
0.0
 11
286.1729982538945
 21
1831.577113685138
 31
0.0
  0
LINE
  5
40E0
330
40DB
100
AcDbEntity
  8
DIM
 62
     0
370
    -2
100
AcDbLine
 10
286.1729982538945
 20
1816.202144279277
 30
0.0
 11
286.1729982538945
 21
1821.577113685138
 31
0.0
  0
INSERT
  5
40E1
330
40DB
100
AcDbEntity
  8
DIM
 62
     0
370
    -2
100
AcDbBlockReference
  2
_DOT
 10
286.1729982538945
 20
1806.202144279277
 30
0.0
 41
10.0
 42
10.0
 43
10.0
 50
270.0
  0
INSERT
  5
40E2
330
40DB
100
AcDbEntity
  8
DIM
 62
     0
370
    -2
100
AcDbBlockReference
  2
_DOT
 10
286.1729982538945
 20
1831.577113685138
 30
0.0
 41
10.0
 42
10.0
 43
10.0
 50
90.0
  0
MTEXT
  5
40E3
330
40DB
100
AcDbEntity
  8
DIM
 62
     0
100
AcDbMText
 10
254.1729982538945
 20
1818.696225833978
 30
0.0
 40
24.0
 41
0.0
 46
0.0
 71
     5
 72
     1
  1
\A1;25
  7
ＭＳ ゴシック
 11
0.0
 21
1.0
 31
0.0
 73
     1
 44
1.0
  0
POINT
  5
40E4
330
40DB
100
AcDbEntity
  8
Defpoints
 62
     0
100
AcDbPoint
 10
549.3183019962412
 20
1806.202144279277
 30
0.0
  0
POINT
  5
40E5
330
40DB
100
AcDbEntity
  8
Defpoints
 62
     0
100
AcDbPoint
 10
483.2596714473093
 20
1831.577113685138
 30
0.0
  0
POINT
  5
40E6
330
40DB
100
AcDbEntity
  8
Defpoints
 62
     0
100
AcDbPoint
 10
286.1729982538945
 20
1831.577113685138
 30
0.0
  0
ENDBLK
  5
40DD
330
40DB
100
AcDbEntity
  8
0
100
AcDbBlockEnd
  0
BLOCK
  5
40EC
330
40EB
100
AcDbEntity
  8
0
100
AcDbBlockBegin
  2
*D11
 70
     1
 10
0.0
 20
0.0
 30
0.0
  3
*D11
  1

  0
LINE
  5
40EE
330
40EB
100
AcDbEntity
  8
DIM
 62
     0
370
    -2
100
AcDbLine
 10
368.6729982538945
 20
2156.390489442343
 30
0.0
 11
286.1729982538945
 21
2156.390489442343
 31
0.0
  0
LINE
  5
40EF
330
40EB
100
AcDbEntity
  8
DIM
 62
     0
370
    -2
100
AcDbLine
 10
446.9044083549043
 20
1831.577113685138
 30
0.0
 11
286.1729982538945
 21
1831.577113685138
 31
0.0
  0
LINE
  5
40F0
330
40EB
100
AcDbEntity
  8
DIM
 62
     0
370
    -2
100
AcDbLine
 10
286.1729982538945
 20
2146.390489442343
 30
0.0
 11
286.1729982538945
 21
1841.577113685138
 31
0.0
  0
INSERT
  5
40F1
330
40EB
100
AcDbEntity
  8
DIM
 62
     0
370
    -2
100
AcDbBlockReference
  2
_DOT
 10
286.1729982538945
 20
2156.390489442343
 30
0.0
 41
10.0
 42
10.0
 43
10.0
 50
90.0
  0
INSERT
  5
40F2
330
40EB
100
AcDbEntity
  8
DIM
 62
     0
370
    -2
100
AcDbBlockReference
  2
_DOT
 10
286.1729982538945
 20
1831.577113685138
 30
0.0
 41
10.0
 42
10.0
 43
10.0
 50
270.0
  0
MTEXT
  5
40F3
330
40EB
100
AcDbEntity
  8
DIM
 62
     0
100
AcDbMText
 10
254.1729982538945
 20
1993.983801563741
 30
0.0
 40
24.0
 41
0.0
 46
0.0
 71
     5
 72
     1
  1
\A1;325
  7
ＭＳ ゴシック
 11
0.0
 21
1.0
 31
0.0
 73
     1
 44
1.0
  0
POINT
  5
40F4
330
40EB
100
AcDbEntity
  8
Defpoints
 62
     0
100
AcDbPoint
 10
398.6729982538945
 20
2156.390489442343
 30
0.0
  0
POINT
  5
40F5
330
40EB
100
AcDbEntity
  8
Defpoints
 62
     0
100
AcDbPoint
 10
476.9044083549043
 20
1831.577113685138
 30
0.0
  0
POINT
  5
40F6
330
40EB
100
AcDbEntity
  8
Defpoints
 62
     0
100
AcDbPoint
 10
286.1729982538945
 20
1831.577113685138
 30
0.0
  0
ENDBLK
  5
40ED
330
40EB
100
AcDbEntity
  8
0
100
AcDbBlockEnd
  0
BLOCK
  5
40FB
330
40FA
100
AcDbEntity
  8
0
100
AcDbBlockBegin
  2
*D12
 70
     1
 10
0.0
 20
0.0
 30
0.0
  3
*D12
  1

  0
LINE
  5
40FD
330
40FA
100
AcDbEntity
  8
DIM
 62
     0
370
    -2
100
AcDbLine
 10
368.6729982538945
 20
2156.390489442343
 30
0.0
 11
286.1729982538945
 21
2156.390489442343
 31
0.0
  0
LINE
  5
40FE
330
40FA
100
AcDbEntity
  8
DIM
 62
     0
370
    -2
100
AcDbLine
 10
531.0796861324961
 20
2256.202144279277
 30
0.0
 11
286.1729982538945
 21
2256.202144279277
 31
0.0
  0
LINE
  5
40FF
330
40FA
100
AcDbEntity
  8
DIM
 62
     0
370
    -2
100
AcDbLine
 10
286.1729982538945
 20
2166.390489442343
 30
0.0
 11
286.1729982538945
 21
2246.202144279277
 31
0.0
  0
INSERT
  5
4100
330
40FA
100
AcDbEntity
  8
DIM
 62
     0
370
    -2
100
AcDbBlockReference
  2
_DOT
 10
286.1729982538945
 20
2156.390489442343
 30
0.0
 41
10.0
 42
10.0
 43
10.0
 50
270.0
  0
INSERT
  5
4101
330
40FA
100
AcDbEntity
  8
DIM
 62
     0
370
    -2
100
AcDbBlockReference
  2
_DOT
 10
286.1729982538945
 20
2256.202144279277
 30
0.0
 41
10.0
 42
10.0
 43
10.0
 50
90.0
  0
MTEXT
  5
4102
330
40FA
100
AcDbEntity
  8
DIM
 62
     0
100
AcDbMText
 10
254.1729982538945
 20
2206.29631686081
 30
0.0
 40
24.0
 41
0.0
 46
0.0
 71
     5
 72
     1
  1
\A1;100
  7
ＭＳ ゴシック
 11
0.0
 21
1.0
 31
0.0
 73
     1
 44
1.0
  0
POINT
  5
4103
330
40FA
100
AcDbEntity
  8
Defpoints
 62
     0
100
AcDbPoint
 10
398.6729982538945
 20
2156.390489442343
 30
0.0
  0
POINT
  5
4104
330
40FA
100
AcDbEntity
  8
Defpoints
 62
     0
100
AcDbPoint
 10
561.0796861324961
 20
2256.202144279277
 30
0.0
  0
POINT
  5
4105
330
40FA
100
AcDbEntity
  8
Defpoints
 62
     0
100
AcDbPoint
 10
286.1729982538945
 20
2256.202144279277
 30
0.0
  0
ENDBLK
  5
40FC
330
40FA
100
AcDbEntity
  8
0
100
AcDbBlockEnd
  0
BLOCK
  5
410A
330
4109
100
AcDbEntity
  8
0
100
AcDbBlockBegin
  2
*D13
 70
     1
 10
0.0
 20
0.0
 30
0.0
  3
*D13
  1

  0
LINE
  5
410C
330
4109
100
AcDbEntity
  8
DIM
 62
     0
370
    -2
100
AcDbLine
 10
385.9846530908271
 20
2117.936897807441
 30
0.0
 11
385.9846530908271
 21
2356.015520036482
 31
0.0
  0
LINE
  5
410D
330
4109
100
AcDbEntity
  8
DIM
 62
     0
370
    -2
100
AcDbLine
 10
835.9863740110995
 20
2117.936897807441
 30
0.0
 11
835.9863740110995
 21
2356.015520036482
 31
0.0
  0
LINE
  5
410E
330
4109
100
AcDbEntity
  8
DIM
 62
     0
370
    -2
100
AcDbLine
 10
395.9846530908271
 20
2356.015520036482
 30
0.0
 11
825.9863740110995
 21
2356.015520036482
 31
0.0
  0
INSERT
  5
410F
330
4109
100
AcDbEntity
  8
DIM
 62
     0
370
    -2
100
AcDbBlockReference
  2
_DOT
 10
385.9846530908271
 20
2356.015520036482
 30
0.0
 41
10.0
 42
10.0
 43
10.0
 50
180.0
  0
INSERT
  5
4110
330
4109
100
AcDbEntity
  8
DIM
 62
     0
370
    -2
100
AcDbBlockReference
  2
_DOT
 10
835.9863740110995
 20
2356.015520036482
 30
0.0
 41
10.0
 42
10.0
 43
10.0
  0
MTEXT
  5
4111
330
4109
100
AcDbEntity
  8
DIM
 62
     0
100
AcDbMText
 10
610.9855135509633
 20
2388.015520036482
 30
0.0
 40
24.0
 41
0.0
 46
0.0
 71
     5
 72
     1
  1
\A1;450
  7
ＭＳ ゴシック
 73
     1
 44
1.0
  0
POINT
  5
4112
330
4109
100
AcDbEntity
  8
Defpoints
 62
     0
100
AcDbPoint
 10
385.9846530908271
 20
2087.936897807441
 30
0.0
  0
POINT
  5
4113
330
4109
100
AcDbEntity
  8
Defpoints
 62
     0
100
AcDbPoint
 10
835.9863740110995
 20
2087.936897807441
 30
0.0
  0
POINT
  5
4114
330
4109
100
AcDbEntity
  8
Defpoints
 62
     0
100
AcDbPoint
 10
835.9863740110995
 20
2356.015520036482
 30
0.0
  0
ENDBLK
  5
410B
330
4109
100
AcDbEntity
  8
0
100
AcDbBlockEnd
  0
BLOCK
  5
411E
330
411D
100
AcDbEntity
  8
0
100
AcDbBlockBegin
  2
*D14
 70
     1
 10
0.0
 20
0.0
 30
0.0
  3
*D14
  1

  0
LINE
  5
4120
330
411D
100
AcDbEntity
  8
DIM
 62
     0
370
    -2
100
AcDbLine
 10
688.8575244229651
 20
885.052034140379
 30
0.0
 11
911.6600643009197
 21
885.052034140379
 31
0.0
  0
LINE
  5
4121
330
411D
100
AcDbEntity
  8
DIM
 62
     0
370
    -2
100
AcDbLine
 10
862.9950777623408
 20
1039.002119803966
 30
0.0
 11
911.6600643009197
 21
1039.002119803966
 31
0.0
  0
LINE
  5
4122
330
411D
100
AcDbEntity
  8
DIM
 62
     0
370
    -2
100
AcDbLine
 10
911.6600643009197
 20
895.052034140379
 30
0.0
 11
911.6600643009197
 21
1029.002119803966
 31
0.0
  0
INSERT
  5
4123
330
411D
100
AcDbEntity
  8
DIM
 62
     0
370
    -2
100
AcDbBlockReference
  2
_DOT
 10
911.6600643009197
 20
885.052034140379
 30
0.0
 41
10.0
 42
10.0
 43
10.0
 50
270.0
  0
INSERT
  5
4124
330
411D
100
AcDbEntity
  8
DIM
 62
     0
370
    -2
100
AcDbBlockReference
  2
_DOT
 10
911.6600643009197
 20
1039.002119803966
 30
0.0
 41
10.0
 42
10.0
 43
10.0
 50
90.0
  0
MTEXT
  5
4125
330
411D
100
AcDbEntity
  8
DIM
 62
     0
100
AcDbMText
 10
879.6600643009197
 20
962.0270769721724
 30
0.0
 40
24.0
 41
0.0
 46
0.0
 71
     5
 72
     1
  1
\A1;154
  7
ＭＳ ゴシック
 11
0.0
 21
1.0
 31
0.0
 73
     1
 44
1.0
  0
POINT
  5
4126
330
411D
100
AcDbEntity
  8
Defpoints
 62
     0
100
AcDbPoint
 10
658.8575244229651
 20
885.052034140379
 30
0.0
  0
POINT
  5
4127
330
411D
100
AcDbEntity
  8
Defpoints
 62
     0
100
AcDbPoint
 10
832.9950777623408
 20
1039.002119803966
 30
0.0
  0
POINT
  5
4128
330
411D
100
AcDbEntity
  8
Defpoints
 62
     0
100
AcDbPoint
 10
911.6600643009197
 20
1039.002119803966
 30
0.0
  0
ENDBLK
  5
411F
330
411D
100
AcDbEntity
  8
0
100
AcDbBlockEnd
  0
BLOCK
  5
413C
330
413B
100
AcDbEntity
  8
0
100
AcDbBlockBegin
  2
*D16
 70
     1
 10
0.0
 20
0.0
 30
0.0
  3
*D16
  1

  0
LINE
  5
413E
330
413B
100
AcDbEntity
  8
DIM
 62
     0
370
    -2
100
AcDbLine
 10
1288.579726516759
 20
997.2534869973974
 30
0.0
 11
1288.579726516759
 21
749.3830669743611
 31
0.0
  0
LINE
  5
413F
330
413B
100
AcDbEntity
  8
DIM
 62
     0
370
    -2
100
AcDbLine
 10
1464.51973141182
 20
842.4601504006891
 30
0.0
 11
1464.51973141182
 21
749.3830669743611
 31
0.0
  0
LINE
  5
4140
330
413B
100
AcDbEntity
  8
DIM
 62
     0
370
    -2
100
AcDbLine
 10
1298.579726516759
 20
749.3830669743611
 30
0.0
 11
1454.51973141182
 21
749.3830669743611
 31
0.0
  0
INSERT
  5
4141
330
413B
100
AcDbEntity
  8
DIM
 62
     0
370
    -2
100
AcDbBlockReference
  2
_DOT
 10
1288.579726516759
 20
749.3830669743611
 30
0.0
 41
10.0
 42
10.0
 43
10.0
 50
180.0
  0
INSERT
  5
4142
330
413B
100
AcDbEntity
  8
DIM
 62
     0
370
    -2
100
AcDbBlockReference
  2
_DOT
 10
1464.51973141182
 20
749.3830669743611
 30
0.0
 41
10.0
 42
10.0
 43
10.0
  0
MTEXT
  5
4143
330
413B
100
AcDbEntity
  8
DIM
 62
     0
100
AcDbMText
 10
1376.54972896429
 20
781.3830669743611
 30
0.0
 40
24.0
 41
0.0
 46
0.0
 71
     5
 72
     1
  1
\A1;176
  7
ＭＳ ゴシック
 73
     1
 44
1.0
  0
POINT
  5
4144
330
413B
100
AcDbEntity
  8
Defpoints
 62
     0
100
AcDbPoint
 10
1288.579726516759
 20
1027.253486997397
 30
0.0
  0
POINT
  5
4145
330
413B
100
AcDbEntity
  8
Defpoints
 62
     0
100
AcDbPoint
 10
1464.51973141182
 20
872.4601504006891
 30
0.0
  0
POINT
  5
4146
330
413B
100
AcDbEntity
  8
Defpoints
 62
     0
100
AcDbPoint
 10
1464.51973141182
 20
749.3830669743611
 30
0.0
  0
ENDBLK
  5
413D
330
413B
100
AcDbEntity
  8
0
100
AcDbBlockEnd
  0
BLOCK
  5
414B
330
414A
100
AcDbEntity
  8
0
100
AcDbBlockBegin
  2
*D17
 70
     1
 10
0.0
 20
0.0
 30
0.0
  3
*D17
  1

  0
LINE
  5
414D
330
414A
100
AcDbEntity
  8
DIM
 62
     0
370
    -2
100
AcDbLine
 10
1259.153212093286
 20
1031.388768522072
 30
0.0
 11
1229.553246871057
 21
1031.388768522072
 31
0.0
  0
LINE
  5
414E
330
414A
100
AcDbEntity
  8
DIM
 62
     0
370
    -2
100
AcDbLine
 10
1262.536541347401
 20
1039.002119803966
 30
0.0
 11
1229.553246871057
 21
1039.002119803966
 31
0.0
  0
LINE
  5
414F
330
414A
100
AcDbEntity
  8
DIM
 62
     0
370
    -2
100
AcDbLine
 10
1229.553246871057
 20
1031.388768522072
 30
0.0
 11
1229.553246871057
 21
1021.388768522072
 31
0.0
  0
LINE
  5
4150
330
414A
100
AcDbEntity
  8
DIM
 62
     0
370
    -2
100
AcDbLine
 10
1229.553246871057
 20
1039.002119803966
 30
0.0
 11
1229.553246871057
 21
1049.002119803966
 31
0.0
  0
INSERT
  5
4151
330
414A
100
AcDbEntity
  8
DIM
 62
     0
370
    -2
100
AcDbBlockReference
  2
_DOT
 10
1229.553246871057
 20
1031.388768522072
 30
0.0
 41
10.0
 42
10.0
 43
10.0
 50
270.0
  0
INSERT
  5
4152
330
414A
100
AcDbEntity
  8
DIM
 62
     0
370
    -2
100
AcDbBlockReference
  2
_DOT
 10
1229.553246871057
 20
1039.002119803966
 30
0.0
 41
10.0
 42
10.0
 43
10.0
 50
90.0
  0
MTEXT
  5
4153
330
414A
100
AcDbEntity
  8
DIM
 62
     0
100
AcDbMText
 10
1197.553246871057
 20
1035.195444163019
 30
0.0
 40
24.0
 41
0.0
 46
0.0
 71
     5
 72
     1
  1
\A1;8
  7
ＭＳ ゴシック
 11
0.0
 21
1.0
 31
0.0
 73
     1
 44
1.0
  0
POINT
  5
4154
330
414A
100
AcDbEntity
  8
Defpoints
 62
     0
100
AcDbPoint
 10
1289.153212093286
 20
1031.388768522072
 30
0.0
  0
POINT
  5
4155
330
414A
100
AcDbEntity
  8
Defpoints
 62
     0
100
AcDbPoint
 10
1292.536541347401
 20
1039.002119803966
 30
0.0
  0
POINT
  5
4156
330
414A
100
AcDbEntity
  8
Defpoints
 62
     0
100
AcDbPoint
 10
1229.553246871057
 20
1039.002119803966
 30
0.0
  0
ENDBLK
  5
414C
330
414A
100
AcDbEntity
  8
0
100
AcDbBlockEnd
  0
BLOCK
  5
415B
330
415A
100
AcDbEntity
  8
0
100
AcDbBlockBegin
  2
*D18
 70
     1
 10
0.0
 20
0.0
 30
0.0
  3
*D18
  1

  0
LINE
  5
415D
330
415A
100
AcDbEntity
  8
DIM
 62
     0
370
    -2
100
AcDbLine
 10
1338.486414395361
 20
1072.730784596837
 30
0.0
 11
1338.486414395361
 21
1115.322628767996
 31
0.0
  0
LINE
  5
415E
330
415A
100
AcDbEntity
  8
DIM
 62
     0
370
    -2
100
AcDbLine
 10
1288.579726516759
 20
1069.270365999363
 30
0.0
 11
1288.579726516759
 21
1115.322628767996
 31
0.0
  0
LINE
  5
415F
330
415A
100
AcDbEntity
  8
DIM
 62
     0
370
    -2
100
AcDbLine
 10
1328.486414395361
 20
1115.322628767996
 30
0.0
 11
1298.579726516759
 21
1115.322628767996
 31
0.0
  0
INSERT
  5
4160
330
415A
100
AcDbEntity
  8
DIM
 62
     0
370
    -2
100
AcDbBlockReference
  2
_DOT
 10
1338.486414395361
 20
1115.322628767996
 30
0.0
 41
10.0
 42
10.0
 43
10.0
  0
INSERT
  5
4161
330
415A
100
AcDbEntity
  8
DIM
 62
     0
370
    -2
100
AcDbBlockReference
  2
_DOT
 10
1288.579726516759
 20
1115.322628767996
 30
0.0
 41
10.0
 42
10.0
 43
10.0
 50
180.0
  0
MTEXT
  5
4162
330
415A
100
AcDbEntity
  8
DIM
 62
     0
100
AcDbMText
 10
1313.53307045606
 20
1147.322628767996
 30
0.0
 40
24.0
 41
0.0
 46
0.0
 71
     5
 72
     1
  1
\A1;50
  7
ＭＳ ゴシック
 73
     1
 44
1.0
  0
POINT
  5
4163
330
415A
100
AcDbEntity
  8
Defpoints
 62
     0
100
AcDbPoint
 10
1338.486414395361
 20
1042.730784596837
 30
0.0
  0
POINT
  5
4164
330
415A
100
AcDbEntity
  8
Defpoints
 62
     0
100
AcDbPoint
 10
1288.579726516759
 20
1039.270365999363
 30
0.0
  0
POINT
  5
4165
330
415A
100
AcDbEntity
  8
Defpoints
 62
     0
100
AcDbPoint
 10
1288.579726516759
 20
1115.322628767996
 30
0.0
  0
ENDBLK
  5
415C
330
415A
100
AcDbEntity
  8
0
100
AcDbBlockEnd
  0
BLOCK
  5
416B
330
416A
100
AcDbEntity
  8
0
100
AcDbBlockBegin
  2
*D19
 70
     1
 10
0.0
 20
0.0
 30
0.0
  3
*D19
  1

  0
LINE
  5
416D
330
416A
100
AcDbEntity
  8
DIM
 62
     0
370
    -2
100
AcDbLine
 10
1775.822927235977
 20
1039.002119803966
 30
0.0
 11
1833.921534238822
 21
1039.002119803966
 31
0.0
  0
LINE
  5
416E
330
416A
100
AcDbEntity
  8
DIM
 62
     0
370
    -2
100
AcDbLine
 10
1778.36300555697
 20
990.7853756321497
 30
0.0
 11
1833.921534238822
 21
990.7853756321497
 31
0.0
  0
LINE
  5
416F
330
416A
100
AcDbEntity
  8
DIM
 62
     0
370
    -2
100
AcDbLine
 10
1833.921534238822
 20
1029.002119803966
 30
0.0
 11
1833.921534238822
 21
1000.78537563215
 31
0.0
  0
INSERT
  5
4170
330
416A
100
AcDbEntity
  8
DIM
 62
     0
370
    -2
100
AcDbBlockReference
  2
_DOT
 10
1833.921534238822
 20
1039.002119803966
 30
0.0
 41
10.0
 42
10.0
 43
10.0
 50
90.0
  0
INSERT
  5
4171
330
416A
100
AcDbEntity
  8
DIM
 62
     0
370
    -2
100
AcDbBlockReference
  2
_DOT
 10
1833.921534238822
 20
990.7853756321497
 30
0.0
 41
10.0
 42
10.0
 43
10.0
 50
270.0
  0
MTEXT
  5
4172
330
416A
100
AcDbEntity
  8
DIM
 62
     0
100
AcDbMText
 10
1801.921534238822
 20
1014.893747718058
 30
0.0
 40
24.0
 41
0.0
 46
0.0
 71
     5
 72
     1
  1
\A1;48
  7
ＭＳ ゴシック
 11
0.0
 21
1.0
 31
0.0
 73
     1
 44
1.0
  0
POINT
  5
4173
330
416A
100
AcDbEntity
  8
Defpoints
 62
     0
100
AcDbPoint
 10
1745.822927235977
 20
1039.002119803966
 30
0.0
  0
POINT
  5
4174
330
416A
100
AcDbEntity
  8
Defpoints
 62
     0
100
AcDbPoint
 10
1748.36300555697
 20
990.7853756321497
 30
0.0
  0
POINT
  5
4175
330
416A
100
AcDbEntity
  8
Defpoints
 62
     0
100
AcDbPoint
 10
1833.921534238822
 20
990.7853756321497
 30
0.0
  0
ENDBLK
  5
416C
330
416A
100
AcDbEntity
  8
0
100
AcDbBlockEnd
  0
BLOCK
  5
4189
330
4188
100
AcDbEntity
  8
0
100
AcDbBlockBegin
  2
*D21
 70
     1
 10
0.0
 20
0.0
 30
0.0
  3
*D21
  1

  0
LINE
  5
418B
330
4188
100
AcDbEntity
  8
DIM
 62
     0
370
    -2
100
AcDbLine
 10
1776.907715137605
 20
990.7853756321499
 30
0.0
 11
1833.921534238822
 21
990.7853756321499
 31
0.0
  0
LINE
  5
418C
330
4188
100
AcDbEntity
  8
DIM
 62
     0
370
    -2
100
AcDbLine
 10
1522.010809520098
 20
875.7853756321499
 30
0.0
 11
1833.921534238822
 21
875.7853756321499
 31
0.0
  0
LINE
  5
418D
330
4188
100
AcDbEntity
  8
DIM
 62
     0
370
    -2
100
AcDbLine
 10
1833.921534238822
 20
980.7853756321499
 30
0.0
 11
1833.921534238822
 21
885.7853756321499
 31
0.0
  0
INSERT
  5
418E
330
4188
100
AcDbEntity
  8
DIM
 62
     0
370
    -2
100
AcDbBlockReference
  2
_DOT
 10
1833.921534238822
 20
990.7853756321499
 30
0.0
 41
10.0
 42
10.0
 43
10.0
 50
90.0
  0
INSERT
  5
418F
330
4188
100
AcDbEntity
  8
DIM
 62
     0
370
    -2
100
AcDbBlockReference
  2
_DOT
 10
1833.921534238822
 20
875.7853756321499
 30
0.0
 41
10.0
 42
10.0
 43
10.0
 50
270.0
  0
MTEXT
  5
4190
330
4188
100
AcDbEntity
  8
DIM
 62
     0
100
AcDbMText
 10
1801.921534238822
 20
933.2853756321499
 30
0.0
 40
24.0
 41
0.0
 46
0.0
 71
     5
 72
     1
  1
\A1;115
  7
ＭＳ ゴシック
 11
0.0
 21
1.0
 31
0.0
 73
     1
 44
1.0
  0
POINT
  5
4191
330
4188
100
AcDbEntity
  8
Defpoints
 62
     0
100
AcDbPoint
 10
1746.907715137605
 20
990.7853756321499
 30
0.0
  0
POINT
  5
4192
330
4188
100
AcDbEntity
  8
Defpoints
 62
     0
100
AcDbPoint
 10
1492.010809520098
 20
875.7853756321499
 30
0.0
  0
POINT
  5
4193
330
4188
100
AcDbEntity
  8
Defpoints
 62
     0
100
AcDbPoint
 10
1833.921534238822
 20
875.7853756321499
 30
0.0
  0
ENDBLK
  5
418A
330
4188
100
AcDbEntity
  8
0
100
AcDbBlockEnd
  0
BLOCK
  5
4198
330
4197
100
AcDbEntity
  8
0
100
AcDbBlockBegin
  2
*D22
 70
     1
 10
0.0
 20
0.0
 30
0.0
  3
*D22
  1

  0
LINE
  5
419A
330
4197
100
AcDbEntity
  8
DIM
 62
     0
370
    -2
100
AcDbLine
 10
917.3275710316302
 20
1039.002119803966
 30
0.0
 11
974.785153119039
 21
1039.002119803966
 31
0.0
  0
LINE
  5
419B
330
4197
100
AcDbEntity
  8
DIM
 62
     0
370
    -2
100
AcDbLine
 10
684.6311306068537
 20
876.0021198039658
 30
0.0
 11
974.785153119039
 21
876.0021198039658
 31
0.0
  0
LINE
  5
419C
330
4197
100
AcDbEntity
  8
DIM
 62
     0
370
    -2
100
AcDbLine
 10
974.785153119039
 20
1029.002119803966
 30
0.0
 11
974.785153119039
 21
886.0021198039658
 31
0.0
  0
INSERT
  5
419D
330
4197
100
AcDbEntity
  8
DIM
 62
     0
370
    -2
100
AcDbBlockReference
  2
_DOT
 10
974.785153119039
 20
1039.002119803966
 30
0.0
 41
10.0
 42
10.0
 43
10.0
 50
90.0
  0
INSERT
  5
419E
330
4197
100
AcDbEntity
  8
DIM
 62
     0
370
    -2
100
AcDbBlockReference
  2
_DOT
 10
974.785153119039
 20
876.0021198039658
 30
0.0
 41
10.0
 42
10.0
 43
10.0
 50
270.0
  0
MTEXT
  5
419F
330
4197
100
AcDbEntity
  8
DIM
 62
     0
100
AcDbMText
 10
942.785153119039
 20
957.5021198039658
 30
0.0
 40
24.0
 41
0.0
 46
0.0
 71
     5
 72
     1
  1
\A1;163
  7
ＭＳ ゴシック
 11
0.0
 21
1.0
 31
0.0
 73
     1
 44
1.0
  0
POINT
  5
41A0
330
4197
100
AcDbEntity
  8
Defpoints
 62
     0
100
AcDbPoint
 10
887.3275710316302
 20
1039.002119803966
 30
0.0
  0
POINT
  5
41A1
330
4197
100
AcDbEntity
  8
Defpoints
 62
     0
100
AcDbPoint
 10
654.6311306068537
 20
876.0021198039658
 30
0.0
  0
POINT
  5
41A2
330
4197
100
AcDbEntity
  8
Defpoints
 62
     0
100
AcDbPoint
 10
974.785153119039
 20
876.0021198039658
 30
0.0
  0
ENDBLK
  5
4199
330
4197
100
AcDbEntity
  8
0
100
AcDbBlockEnd
  0
BLOCK
  5
41A7
330
41A6
100
AcDbEntity
  8
0
100
AcDbBlockBegin
  2
*D23
 70
     1
 10
0.0
 20
0.0
 30
0.0
  3
*D23
  1

  0
LINE
  5
41A9
330
41A6
100
AcDbEntity
  8
DIM
 62
     0
370
    -2
100
AcDbLine
 10
1457.130846279345
 20
1039.002119803966
 30
0.0
 11
1467.056367892271
 21
1039.002119803966
 31
0.0
  0
LINE
  5
41AA
330
41A6
100
AcDbEntity
  8
DIM
 62
     0
370
    -2
100
AcDbLine
 10
1459.896421737953
 20
899.4320439305038
 30
0.0
 11
1467.056367892271
 21
899.4320439305038
 31
0.0
  0
LINE
  5
41AB
330
41A6
100
AcDbEntity
  8
DIM
 62
     0
370
    -2
100
AcDbLine
 10
1467.056367892271
 20
1039.002119803966
 30
0.0
 11
1467.056367892271
 21
1266.492470442149
 31
0.0
  0
LINE
  5
41AC
330
41A6
100
AcDbEntity
  8
DIM
 62
     0
370
    -2
100
AcDbLine
 10
1467.056367892271
 20
1049.002119803966
 30
0.0
 11
1467.056367892271
 21
1059.002119803966
 31
0.0
  0
LINE
  5
41AD
330
41A6
100
AcDbEntity
  8
DIM
 62
     0
370
    -2
100
AcDbLine
 10
1467.056367892271
 20
889.4320439305038
 30
0.0
 11
1467.056367892271
 21
879.4320439305038
 31
0.0
  0
INSERT
  5
41AE
330
41A6
100
AcDbEntity
  8
DIM
 62
     0
370
    -2
100
AcDbBlockReference
  2
_DOT
 10
1467.056367892271
 20
1039.002119803966
 30
0.0
 41
10.0
 42
10.0
 43
10.0
 50
270.0
  0
INSERT
  5
41AF
330
41A6
100
AcDbEntity
  8
DIM
 62
     0
370
    -2
100
AcDbBlockReference
  2
_DOT
 10
1467.056367892271
 20
899.4320439305038
 30
0.0
 41
10.0
 42
10.0
 43
10.0
 50
90.0
  0
MTEXT
  5
41B0
330
41A6
100
AcDbEntity
  8
DIM
 62
     0
100
AcDbMText
 10
1432.932367892271
 20
1181.476470442149
 30
0.0
 40
24.0
 41
0.0
 46
0.0
 71
     5
 72
     1
  1
\A1;140(深さ)
  7
ＭＳ ゴシック
 11
0.0
 21
1.0
 31
0.0
 73
     1
 44
1.0
  0
POINT
  5
41B1
330
41A6
100
AcDbEntity
  8
Defpoints
 62
     0
100
AcDbPoint
 10
1487.130846279345
 20
1039.002119803966
 30
0.0
  0
POINT
  5
41B2
330
41A6
100
AcDbEntity
  8
Defpoints
 62
     0
100
AcDbPoint
 10
1489.896421737953
 20
899.4320439305038
 30
0.0
  0
POINT
  5
41B3
330
41A6
100
AcDbEntity
  8
Defpoints
 62
     0
100
AcDbPoint
 10
1467.056367892271
 20
899.4320439305038
 30
0.0
  0
ENDBLK
  5
41A8
330
41A6
100
AcDbEntity
  8
0
100
AcDbBlockEnd
  0
ENDSEC
  0
SECTION
  2
ENTITIES
  0
MTEXT
  5
177
330
A
100
AcDbEntity
  8
TEMPLATE
390
1D
100
AcDbMText
 10
79.20214454773075
 20
343.7317516314282
 30
0.0
 40
16.28841145833333
 41
0.0
 46
0.0
 71
     1
 72
     1
  1
品名
  7
ＭＳ ゴシック
 73
     1
 44
0.7828267384257843
  0
MTEXT
  5
178
330
A
100
AcDbEntity
  8
TEMPLATE
390
1D
100
AcDbMText
 10
79.20214454773075
 20
258.731751631428
 30
0.0
 40
16.28841145833333
 41
0.0
 46
0.0
 71
     1
 72
     1
  1
仕様
  7
ＭＳ ゴシック
 73
     1
 44
0.7828267384257843
  0
LINE
  5
179
330
A
100
AcDbEntity
  8
TEMPLATE
390
1D
100
AcDbLine
 10
2022.202144547248
 20
267.1466735064284
 30
0.0
 11
72.20214454724874
 21
267.1466735064284
 31
0.0
  0
LWPOLYLINE
  5
17A
330
A
100
AcDbEntity
  8
TEMPLATE
390
1D
100
AcDbPolyline
 90
        5
 70
   128
 43
0.0
 10
2022.202144547248
 20
2897.146673506426
 10
72.20214454724874
 20
2897.146673506426
 10
72.20214454724874
 20
97.14667350642826
 10
2022.202144547248
 20
97.14667350642826
 10
2022.202144547248
 20
2897.146673506426
  0
LINE
  5
17B
330
A
100
AcDbEntity
  8
TEMPLATE
390
1D
100
AcDbLine
 10
2022.202144547248
 20
352.1466735064282
 30
0.0
 11
72.20214454724874
 21
352.1466735064282
 31
0.0
  0
LINE
  5
17C
330
A
100
AcDbEntity
  8
TEMPLATE
390
1D
100
AcDbLine
 10
2022.202144547732
 20
182.1466735064282
 30
0.0
 11
1269.20214454773
 21
182.1466735064282
 31
0.0
  0
MTEXT
  5
17E
330
A
100
AcDbEntity
  8
TEMPLATE
390
1D
100
AcDbMText
 10
1299.073550799991
 20
152.2362790331201
 30
0.0
 40
24.4326171875
 41
0.0
 46
0.0
 71
     1
 72
     1
  1
大洋金物株式会社 ティーフォルム事業部
  7
ＭＳ ゴシック
 73
     1
 44
0.7828267384257843
  0
MTEXT
  5
180
330
A
100
AcDbEntity
  8
TEMPLATE
390
1D
100
AcDbMText
 10
1831.20214454799
 20
230.1492906939282
 30
0.0
 40
24.4326171875
 41
0.0
 46
24.4326171875
 71
     1
 72
     1
  1
{1:10}
  7
ＭＳ ゴシック
 73
     1
 44
0.7828267384257843
1001
ACAD
1000
ACAD_MTEXT_DEFINED_HEIGHT_BEGIN
1070
    46
1040
24.4326171875
1000
ACAD_MTEXT_DEFINED_HEIGHT_END
  0
MTEXT
  5
181
330
A
100
AcDbEntity
  8
TEMPLATE
390
1D
100
AcDbMText
 10
1778.20214454799
 20
258.731751631428
 30
0.0
 40
16.28841145833333
 41
0.0
 46
0.0
 71
     1
 72
     1
  1
縮尺
  7
ＭＳ ゴシック
 73
     1
 44
0.7828267384257843
  0
LINE
  5
182
330
A
100
AcDbEntity
  8
TEMPLATE
390
1D
100
AcDbLine
 10
1771.20214454799
 20
182.1466735064282
 30
0.0
 11
1771.20214454799
 21
267.1466735064284
 31
0.0
  0
MTEXT
  5
183
330
A
100
AcDbEntity
  8
TEMPLATE
390
1D
100
AcDbMText
 10
1527.20214454799
 20
258.731751631428
 30
0.0
 40
16.28841145833333
 41
0.0
 46
0.0
 71
     1
 72
     1
  1
容量
  7
ＭＳ ゴシック
 73
     1
 44
0.7828267384257843
  0
LINE
  5
184
330
A
100
AcDbEntity
  8
TEMPLATE
390
1D
100
AcDbLine
 10
1520.20214454799
 20
182.1466735064282
 30
0.0
 11
1520.20214454799
 21
267.1466735064284
 31
0.0
  0
MTEXT
  5
185
330
A
100
AcDbEntity
  8
TEMPLATE
390
1D
100
AcDbMText
 10
1276.20214454799
 20
343.7317516314282
 30
0.0
 40
16.28841145833333
 41
0.0
 46
0.0
 71
     1
 72
     1
  1
品番
  7
ＭＳ ゴシック
 73
     1
 44
0.7828267384257843
  0
MTEXT
  5
186
330
A
100
AcDbEntity
  8
TEMPLATE
390
1D
100
AcDbMText
 10
1276.20214454799
 20
258.731751631428
 30
0.0
 40
16.28841145833333
 41
0.0
 46
0.0
 71
     1
 72
     1
  1
重量
  7
ＭＳ ゴシック
 73
     1
 44
0.7828267384257843
  0
MTEXT
  5
187
330
A
100
AcDbEntity
  8
TEMPLATE
390
1D
100
AcDbMText
 10
1329.20214454799
 20
315.1492906939282
 30
0.0
 40
24.4326171875
 41
0.0
 46
24.4326171875
 71
     1
 72
     1
  1
{\fＭＳ ゴシック|b0|i0|c0|p34;{\C7;FAN70-0502}}
  7
ＭＳ ゴシック
 73
     1
 44
0.7828267384257843
1001
ACAD
1000
ACAD_MTEXT_DEFINED_HEIGHT_BEGIN
1070
    46
1040
24.4326171875
1000
ACAD_MTEXT_DEFINED_HEIGHT_END
  0
LINE
  5
188
330
A
100
AcDbEntity
  8
TEMPLATE
390
1D
100
AcDbLine
 10
1269.20214454799
 20
97.14667350642826
 30
0.0
 11
1269.20214454799
 21
352.1466735064282
 31
0.0
  0
MTEXT
  5
189
330
A
100
AcDbEntity
  8
TEMPLATE
390
1D
100
AcDbMText
 10
132.2021445477307
 20
315.1492906939282
 30
0.0
 40
24.4326171875
 41
0.0
 46
27.0469072265625
 71
     1
 72
     1
  1
{洗面器　-ALAPE-}
  7
ＭＳ ゴシック
 73
     1
 44
0.7828267384257843
1001
ACAD
1000
ACAD_MTEXT_DEFINED_HEIGHT_BEGIN
1070
    46
1040
27.0469072265625
1000
ACAD_MTEXT_DEFINED_HEIGHT_END
  0
MTEXT
  5
7D9
330
A
100
AcDbEntity
  8
TEMPLATE
390
1D
100
AcDbMText
 10
125.2543452760364
 20
226.8119760293952
 30
0.0
 40
24.4326171875
 41
0.0
 46
25.556517578125
 71
     1
 72
     1
  1
{半埋め込み/オーバーフロー付き/型紙付属/ホーロー/ホワイト}
  7
ＭＳ ゴシック
 73
     1
 44
0.9331787841240657
1001
ACAD
1000
ACAD_MTEXT_DEFINED_HEIGHT_BEGIN
1070
    46
1040
25.556517578125
1000
ACAD_MTEXT_DEFINED_HEIGHT_END
  0
INSERT
  5
68C
330
A
100
AcDbEntity
  8
TEMPLATE
100
AcDbBlockReference
  2
block 2
 10
919.2743017702577
 20
8.373076514336368
 30
0.0
 41
0.3809999999999999
 42
0.3809999999999999
 43
0.3809999999999999
  0
LWPOLYLINE
  5
DAC
330
A
100
AcDbEntity
  8
BORDER
100
AcDbPolyline
 90
        4
 70
     1
 43
0.0
 10
0.0
 20
0.0
 10
0.0
 20
2970.0
 10
2100.0
 20
2970.0
 10
2100.0
 20
0.0
  0
MTEXT
  5
121B
330
A
100
AcDbEntity
  8
TEMPLATE
390
1D
100
AcDbMText
 10
1329.20214454799
 20
227.1688729773101
 30
0.0
 40
24.4326171875
 41
0.0
 46
28.390701171875
 71
     1
 72
     1
  1
{\fＭＳ ゴシック|b0|i0|c0|p34;{\C7;3.3kg}}
  7
ＭＳ ゴシック
 73
     1
 44
0.7828267384257843
1001
ACAD
1000
ACAD_MTEXT_DEFINED_HEIGHT_BEGIN
1070
    46
1040
28.390701171875
1000
ACAD_MTEXT_DEFINED_HEIGHT_END
  0
MTEXT
  5
1466
102
{ACAD_XDICTIONARY
360
1468
102
}
330
A
100
AcDbEntity
  8
TEMPLATE
 48
0.05
100
AcDbMText
 10
74.728656548571
 20
83.86172105142839
 30
0.0
 40
22.0
 41
0.0
 46
22.0
 71
     1
 72
     1
  1
{20200210N}
  7
ＭＳ ゴシック
 73
     1
 44
1.0
1001
ACAD
1000
ACAD_MTEXT_DEFINED_HEIGHT_BEGIN
1070
    46
1040
22.0
1000
ACAD_MTEXT_DEFINED_HEIGHT_END
  0
POINT
  5
262A
330
A
100
AcDbEntity
  8
Layer9
  6
Continuous
 62
     7
100
AcDbPoint
 10
1037.460145007193
 20
1010.220672371878
 30
0.0
  0
POINT
  5
262B
330
A
100
AcDbEntity
  8
Layer9
  6
Continuous
 62
     7
100
AcDbPoint
 10
1037.460146257193
 20
1010.220672788578
 30
0.0
  0
POINT
  5
262C
330
A
100
AcDbEntity
  8
Layer9
  6
Continuous
 62
     7
100
AcDbPoint
 10
1037.853693340493
 20
1015.267975288578
 30
0.0
  0
POINT
  5
2812
330
A
100
AcDbEntity
  8
Layer9
  6
Continuous
 62
     7
100
AcDbPoint
 10
925.7934783404928
 20
1010.220672371878
 30
0.0
  0
POINT
  5
2813
330
A
100
AcDbEntity
  8
Layer9
  6
Continuous
 62
     7
100
AcDbPoint
 10
925.7934795904928
 20
1010.220672788578
 30
0.0
  0
POINT
  5
2814
330
A
100
AcDbEntity
  8
Layer9
  6
Continuous
 62
     7
100
AcDbPoint
 10
926.1870266737928
 20
1015.267975288578
 30
0.0
  0
INSERT
  5
28CA
330
A
100
AcDbEntity
  8
Layer3
100
AcDbBlockReference
  2
SEANNOT_GROUP
 10
859.7083018867928
 20
826.1905269541776
 30
0.0
  0
POINT
  5
2A52
330
A
100
AcDbEntity
  8
Standard
  6
Continuous
 62
     7
100
AcDbPoint
 10
1036.111241014893
 20
1018.794321538578
 30
0.0
  0
INSERT
  5
2B9B
330
A
100
AcDbEntity
  8
Layer3
100
AcDbBlockReference
  2
SEANNOT_GROUP1
 10
859.7083018867928
 20
826.1905269541776
 30
0.0
  0
HATCH
  5
369B
102
{ACAD_REACTORS
330
36AC
102
}
330
A
100
AcDbEntity
  8
TEMPLATE
100
AcDbHatch
 10
0.0
 20
0.0
 30
0.0
210
0.0
220
0.0
230
1.0
  2
SOLID
 70
     1
 71
     1
 91
        6
 92
        1
 93
        8
 72
     1
 10
1934.476782902687
 20
153.1053194253001
 11
1934.476782902687
 21
147.1959117946397
 72
     1
 10
1934.476782902687
 20
147.1959117946397
 11
1925.116191352377
 21
147.1959117946397
 72
     1
 10
1925.116191352377
 20
147.1959117946397
 11
1925.116191352377
 21
123.105319426746
 72
     1
 10
1925.116191352377
 20
123.105319426746
 11
1916.883578199102
 21
123.105319426746
 72
     1
 10
1916.883578199102
 20
123.105319426746
 11
1916.883578199102
 21
147.1959117946397
 72
     1
 10
1916.883578199102
 20
147.1959117946397
 11
1907.688876764557
 21
147.1959117946397
 72
     1
 10
1907.688876764557
 20
147.1959117946397
 11
1907.688876764557
 21
153.1053194253001
 72
     1
 10
1907.688876764557
 20
153.1053194253001
 11
1934.476782902687
 21
153.1053194253001
 97
        1
330
369C
 92
        1
 93
        1
 72
     4
 94
        3
 73
     0
 74
     1
 95
       56
 96
       52
 40
0.0
 40
0.0
 40
0.0
 40
0.0
 40
1.0
 40
1.0
 40
1.0
 40
2.0
 40
2.0
 40
2.0
 40
3.0
 40
3.0
 40
3.0
 40
4.0
 40
4.0
 40
4.0
 40
5.0
 40
5.0
 40
5.0
 40
6.0
 40
6.0
 40
6.0
 40
7.0
 40
7.0
 40
7.0
 40
8.0
 40
8.0
 40
8.0
 40
9.0
 40
9.0
 40
9.0
 40
10.0
 40
10.0
 40
10.0
 40
11.0
 40
11.0
 40
11.0
 40
12.0
 40
12.0
 40
12.0
 40
13.0
 40
13.0
 40
13.0
 40
14.0
 40
14.0
 40
14.0
 40
15.0
 40
15.0
 40
15.0
 40
16.0
 40
16.0
 40
16.0
 40
17.0
 40
17.0
 40
17.0
 40
17.0
 10
1947.01896833698
 20
152.3909504648878
 10
1948.1728345189
 20
152.715738018898
 10
1949.662423612235
 20
152.4440650580081
 10
1949.662423612235
 20
152.4440650580081
 10
1949.662423612235
 20
152.4440650580081
 10
1948.946790018651
 20
150.2964947655846
 10
1948.946790018651
 20
150.2964947655846
 10
1948.946790018651
 20
150.2964947655846
 10
1947.484427733556
 20
150.6348957237139
 10
1946.356523726704
 20
149.7454866546012
 10
1945.480058550036
 20
149.0499384113589
 10
1944.912238256914
 20
147.2017886193686
 10
1944.69442379101
 20
146.4990989182278
 10
1944.69442379101
 20
146.4990989182278
 10
1943.723334297183
 20
143.518432927829
 10
1943.723334297183
 20
143.518432927829
 10
1943.723334297183
 20
143.518432927829
 10
1946.907457447503
 20
143.518432927829
 10
1946.907457447503
 20
143.518432927829
 10
1946.907457447503
 20
143.518432927829
 10
1946.412241976351
 20
141.642461206109
 10
1946.412241976351
 20
141.642461206109
 10
1946.412241976351
 20
141.642461206109
 10
1943.202156650962
 20
141.642461206109
 10
1943.202156650962
 20
141.642461206109
 10
1943.202156650962
 20
141.642461206109
 10
1937.458713526257
 20
123.105319426746
 10
1937.458713526257
 20
123.105319426746
 10
1937.458713526257
 20
123.105319426746
 10
1935.660479549369
 20
123.105319426746
 10
1935.660479549369
 20
123.105319426746
 10
1935.660479549369
 20
123.105319426746
 10
1941.409129987127
 20
141.642461206109
 10
1941.409129987127
 20
141.642461206109
 10
1941.409129987127
 20
141.642461206109
 10
1939.040397670409
 20
141.642461206109
 10
1939.040397670409
 20
141.642461206109
 10
1939.040397670409
 20
141.642461206109
 10
1939.536952164915
 20
143.518432927829
 10
1939.536952164915
 20
143.518432927829
 10
1939.536952164915
 20
143.518432927829
 10
1941.930307633347
 20
143.518432927829
 10
1941.930307633347
 20
143.518432927829
 10
1941.930307633347
 20
143.518432927829
 10
1942.77686795507
 20
146.1179236028939
 10
1942.77686795507
 20
146.1179236028939
 10
1943.461406450716
 20
148.2973328951149
 10
1944.042245026465
 20
149.4674161376772
 10
1944.540138544327
 20
150.3496093587049
 10
1945.032750358952
 20
151.232546481597
 10
1946.007708142475
 20
152.0998616653363
 10
1947.01896833698
 20
152.3909504648878
 97
        1
330
36A7
 92
        1
 93
        1
 72
     4
 94
        3
 73
     0
 74
     1
 95
       32
 96
       28
 40
0.0
 40
0.0
 40
0.0
 40
0.0
 40
1.0
 40
1.0
 40
1.0
 40
2.0
 40
2.0
 40
2.0
 40
3.0
 40
3.0
 40
3.0
 40
4.0
 40
4.0
 40
4.0
 40
5.0
 40
5.0
 40
5.0
 40
6.0
 40
6.0
 40
6.0
 40
7.0
 40
7.0
 40
7.0
 40
8.0
 40
8.0
 40
8.0
 40
9.0
 40
9.0
 40
9.0
 40
9.0
 10
1951.394524713372
 20
142.3847264864374
 10
1950.311998720255
 20
140.9844800070205
 10
1949.478382290974
 20
139.7243102486757
 10
1948.128795528524
 20
135.7635535518901
 10
1946.888041608841
 20
132.1406026917421
 10
1946.098464169936
 20
129.5048096056932
 10
1945.979216701069
 20
126.2947242803041
 10
1945.888460673606
 20
123.9059066132458
 10
1947.343086379314
 20
123.105319426746
 10
1949.475853024634
 20
123.105319426746
 10
1950.395018168326
 20
123.105319426746
 10
1952.714504181618
 20
123.1637901132903
 10
1954.3662638814
 20
125.2056519507783
 10
1955.522584939468
 20
126.6401923061455
 10
1956.588298750451
 20
128.1272521331414
 10
1958.017036671275
 20
133.0053142189559
 10
1959.205940631009
 20
137.0833842397621
 10
1960.029142434186
 20
139.7191029356247
 10
1959.968291261677
 20
141.2197761667398
 10
1959.968291261677
 20
141.2197761667398
 10
1959.968291261677
 20
141.2197761667398
 10
1959.968291261677
 20
141.2197761667398
 10
1959.580569609936
 20
143.7233035012931
 10
1957.762919794387
 20
144.2522921170894
 10
1956.724432791643
 20
144.2522921170894
 10
1955.70156772805
 20
144.2522921170894
 10
1952.960735698745
 20
144.4292663706373
 10
1951.394524713372
 20
142.3847264864374
 97
        1
330
36AA
 92
        1
 93
        1
 72
     4
 94
        3
 73
     0
 74
     1
 95
       38
 96
       34
 40
0.0
 40
0.0
 40
0.0
 40
0.0
 40
1.0
 40
1.0
 40
1.0
 40
2.0
 40
2.0
 40
2.0
 40
3.0
 40
3.0
 40
3.0
 40
4.0
 40
4.0
 40
4.0
 40
5.0
 40
5.0
 40
5.0
 40
6.0
 40
6.0
 40
6.0
 40
7.0
 40
7.0
 40
7.0
 40
8.0
 40
8.0
 40
8.0
 40
9.0
 40
9.0
 40
9.0
 40
10.0
 40
10.0
 40
10.0
 40
11.0
 40
11.0
 40
11.0
 40
11.0
 10
1966.542747159137
 20
143.4464976175386
 10
1966.542747159137
 20
143.4464976175386
 10
1968.39149207262
 20
143.4464976175386
 10
1968.39149207262
 20
143.4464976175386
 10
1968.39149207262
 20
143.4464976175386
 10
1967.56561222273
 20
140.8022984404216
 10
1967.56561222273
 20
140.8022984404216
 10
1968.193167835563
 20
141.54456372075
 10
1969.183598777865
 20
142.5331349083912
 10
1970.034176169654
 20
143.0316235477459
 10
1971.304760554101
 20
143.7738888280742
 10
1972.030808773784
 20
143.8717863134333
 10
1972.829313035064
 20
143.8522960845852
 10
1972.829313035064
 20
143.8522960845852
 10
1972.048959979278
 20
141.3520419182353
 10
1972.048959979278
 20
141.3520419182353
 10
1971.540726225497
 20
141.5672527276151
 10
1969.974515240128
 20
141.1575859708734
 10
1969.076030568268
 20
140.5112840310564
 10
1968.265772657532
 20
139.9285113104618
 10
1967.705614553615
 20
139.4326263276327
 10
1967.04190531017
 20
138.1859955832205
 10
1966.383254599404
 20
136.9375050841474
 10
1965.86341597654
 20
134.9467493047458
 10
1964.968799594376
 20
132.058773486655
 10
1964.968799594376
 20
132.058773486655
 10
1962.174852971949
 20
123.105319426746
 10
1962.174852971949
 20
123.105319426746
 10
1962.174852971949
 20
123.105319426746
 10
1960.380561674943
 20
123.105319426746
 10
1960.380561674943
 20
123.105319426746
 10
1960.380561674943
 20
123.105319426746
 10
1966.542747159137
 20
143.4464976175386
 10
1966.542747159137
 20
143.4464976175386
 97
        1
330
36A8
 92
        1
 93
        1
 72
     4
 94
        3
 73
     0
 74
     1
 95
      104
 96
      100
 40
0.0
 40
0.0
 40
0.0
 40
0.0
 40
1.0
 40
1.0
 40
1.0
 40
2.0
 40
2.0
 40
2.0
 40
3.0
 40
3.0
 40
3.0
 40
4.0
 40
4.0
 40
4.0
 40
5.0
 40
5.0
 40
5.0
 40
6.0
 40
6.0
 40
6.0
 40
7.0
 40
7.0
 40
7.0
 40
8.0
 40
8.0
 40
8.0
 40
9.0
 40
9.0
 40
9.0
 40
10.0
 40
10.0
 40
10.0
 40
11.0
 40
11.0
 40
11.0
 40
12.0
 40
12.0
 40
12.0
 40
13.0
 40
13.0
 40
13.0
 40
14.0
 40
14.0
 40
14.0
 40
15.0
 40
15.0
 40
15.0
 40
16.0
 40
16.0
 40
16.0
 40
17.0
 40
17.0
 40
17.0
 40
18.0
 40
18.0
 40
18.0
 40
19.0
 40
19.0
 40
19.0
 40
20.0
 40
20.0
 40
20.0
 40
21.0
 40
21.0
 40
21.0
 40
22.0
 40
22.0
 40
22.0
 40
23.0
 40
23.0
 40
23.0
 40
24.0
 40
24.0
 40
24.0
 40
25.0
 40
25.0
 40
25.0
 40
26.0
 40
26.0
 40
26.0
 40
27.0
 40
27.0
 40
27.0
 40
28.0
 40
28.0
 40
28.0
 40
29.0
 40
29.0
 40
29.0
 40
30.0
 40
30.0
 40
30.0
 40
31.0
 40
31.0
 40
31.0
 40
32.0
 40
32.0
 40
32.0
 40
33.0
 40
33.0
 40
33.0
 40
33.0
 10
1976.718878323425
 20
143.4575073651321
 10
1976.718878323425
 20
143.4575073651321
 10
1978.332996588864
 20
143.4575073651321
 10
1978.332996588864
 20
143.4575073651321
 10
1978.332996588864
 20
143.4575073651321
 10
1977.517531365076
 20
140.810778921676
 10
1977.517531365076
 20
140.810778921676
 10
1978.225279598895
 20
141.920531723033
 10
1978.860571791119
 20
142.4151520726926
 10
1979.704602846502
 20
143.054312554611
 10
1980.551163168223
 20
143.6843974337833
 10
1981.556025806694
 20
143.812794895584
 10
1982.253508194784
 20
143.812794895584
 10
1983.117029479015
 20
143.812794895584
 10
1983.950645908296
 20
143.6422925882567
 10
1984.388804106443
 20
142.6958262461422
 10
1984.72460140805
 20
141.9536353560001
 10
1984.740223347202
 20
141.8660781065566
 10
1984.644260006691
 20
140.4010377747479
 10
1985.521915426345
 20
141.9030500292188
 10
1986.170151511008
 20
142.5500214807137
 10
1987.272167732975
 20
143.1716258786317
 10
1988.42863757142
 20
143.812794895584
 10
1989.102761440966
 20
143.8607765658398
 10
1989.885941323838
 20
143.7453229964802
 10
1991.039733115569
 20
143.5748950793392
 10
1991.776195961356
 20
143.1632197875635
 10
1992.161239566385
 20
141.9121256319649
 10
1992.54762219477
 20
140.6648997660613
 10
1992.338883331611
 20
139.9959088193793
 10
1991.861744675765
 20
138.0103603530286
 10
1991.64393020986
 20
137.1060732466272
 10
1991.328813380087
 20
136.0111240923725
 10
1990.916542966819
 20
134.7082543670094
 10
1990.916542966819
 20
134.7082543670094
 10
1987.272167732975
 20
123.105319426746
 10
1987.272167732975
 20
123.105319426746
 10
1987.272167732975
 20
123.105319426746
 10
1985.376705782409
 20
123.105319426746
 10
1985.376705782409
 20
123.105319426746
 10
1985.376705782409
 20
123.105319426746
 10
1988.567449659321
 20
133.2490164697431
 10
1988.567449659321
 20
133.2490164697431
 10
1989.233836949479
 20
135.3713684889626
 10
1989.684939040069
 20
136.9212880235028
 10
1989.918375445127
 20
137.893047029008
 10
1990.211323999339
 20
139.1052351170969
 10
1990.327967811683
 20
139.505231149601
 10
1990.189304504152
 20
140.3874987608153
 10
1990.062246065708
 20
141.2087664191461
 10
1989.647297605728
 20
141.7435574694851
 10
1988.936871325198
 20
141.7435574694851
 10
1988.17972800758
 20
141.7435574694851
 10
1987.566455310545
 20
141.659273388245
 10
1986.708290119737
 20
140.7971655175569
 10
1985.84997614856
 20
139.9285113104618
 10
1985.140740111011
 20
138.9088450248874
 10
1984.584599077163
 20
137.7361581257997
 10
1984.029648286297
 20
136.5563297688134
 10
1983.466960916042
 20
135.0608638507494
 10
1982.896536966398
 20
133.2490164697431
 10
1982.896536966398
 20
133.2490164697431
 10
1979.704602846502
 20
123.105319426746
 10
1979.704602846502
 20
123.105319426746
 10
1979.704602846502
 20
123.105319426746
 10
1977.921916418581
 20
123.105319426746
 10
1977.921916418581
 20
123.105319426746
 10
1977.921916418581
 20
123.105319426746
 10
1981.571498965475
 20
134.7030470539584
 10
1981.571498965475
 20
134.7030470539584
 10
1981.956542570504
 20
135.9373290274211
 10
1982.245771615394
 20
136.9433819088763
 10
1982.436359273062
 20
137.729686179579
 10
1982.760402925207
 20
139.0832156219098
 10
1982.851158952669
 20
139.9985124759046
 10
1982.606117678524
 20
140.810778921676
 10
1982.364944694076
 20
141.6204417109219
 10
1981.941069411725
 20
141.8272464292334
 10
1981.233172397533
 20
141.8272464292334
 10
1980.639389929345
 20
141.8272464292334
 10
1980.059890376953
 20
141.5724600406662
 10
1979.398710399847
 20
141.0654909200569
 10
1978.566284213549
 20
140.4276694614944
 10
1978.233164958657
 20
139.9038881587491
 10
1977.824762835085
 20
139.2815398589669
 10
1977.273680333915
 20
138.458263665602
 10
1977.015695167332
 20
137.9040567766015
 10
1976.550310160944
 20
136.687926008631
 10
1976.084776374184
 20
135.4646537827621
 10
1975.644088909695
 20
134.0411231749885
 10
1975.336708659311
 20
133.0564946672286
 10
1975.336708659311
 20
133.0564946672286
 10
1972.205774492298
 20
123.105319426746
 10
1972.205774492298
 20
123.105319426746
 10
1972.205774492298
 20
123.105319426746
 10
1970.338878373326
 20
123.105319426746
 10
1970.338878373326
 20
123.105319426746
 10
1970.338878373326
 20
123.105319426746
 10
1976.718878323425
 20
143.4575073651321
 10
1976.718878323425
 20
143.4575073651321
 97
        1
330
36A9
 92
       16
 93
        1
 72
     4
 94
        3
 73
     0
 74
     1
 95
       29
 96
       25
 40
0.0
 40
0.0
 40
0.0
 40
0.0
 40
1.0
 40
1.0
 40
1.0
 40
2.0
 40
2.0
 40
2.0
 40
3.0
 40
3.0
 40
3.0
 40
4.0
 40
4.0
 40
4.0
 40
5.0
 40
5.0
 40
5.0
 40
6.0
 40
6.0
 40
6.0
 40
7.0
 40
7.0
 40
7.0
 40
8.0
 40
8.0
 40
8.0
 40
8.0
 10
1947.916188375669
 20
126.8949043045264
 10
1947.908303015907
 20
128.3120373562658
 10
1948.355685597176
 20
130.8298476066162
 10
1949.501740809517
 20
134.1986815898748
 10
1951.062744481836
 20
138.7603622127471
 10
1951.998870588036
 20
140.4276694614944
 10
1952.818055321147
 20
141.2392663955878
 10
1954.014844640642
 20
142.4210288974216
 10
1955.623755593032
 20
142.4799459250845
 10
1956.098364982539
 20
142.4210288974216
 10
1956.77382787544
 20
142.3399435941987
 10
1957.727956406759
 20
141.8978427161679
 10
1957.784939289575
 20
140.4095182560024
 10
1957.830466083678
 20
139.1357350935386
 10
1957.463424903768
 20
136.7501905946838
 10
1956.178706383896
 20
133.0053142189559
 10
1954.698044112936
 20
128.6536370924121
 10
1953.808635043822
 20
126.9429603649685
 10
1953.095679496951
 20
126.1974219164366
 10
1951.752490290537
 20
124.7997790935452
 10
1950.311998720255
 20
124.9339789898883
 10
1950.0993915674
 20
124.9339789898883
 10
1949.823255195324
 20
124.9339789898883
 10
1947.920056665365
 20
125.2336226608809
 10
1947.916188375669
 20
126.8949043045264
 97
        1
330
36AB
 75
     0
 76
     1
 98
        1
 10
1859.334883625664
 20
72.26751235270598
1001
ACAD
1010
0.0
1020
0.0
1030
0.0
  0
POLYLINE
  5
369C
102
{ACAD_REACTORS
330
369B
330
36AC
102
}
330
A
100
AcDbEntity
  8
TEMPLATE
100
AcDb2dPolyline
 66
     1
 10
0.0
 20
0.0
 30
0.0
  0
VERTEX
  5
369D
330
369C
100
AcDbEntity
  8
TEMPLATE
100
AcDbVertex
100
AcDb2dVertex
 10
1934.476782902687
 20
153.1053194253001
 30
0.0
  0
VERTEX
  5
369E
330
369C
100
AcDbEntity
  8
TEMPLATE
100
AcDbVertex
100
AcDb2dVertex
 10
1934.476782902687
 20
147.1959117946397
 30
0.0
  0
VERTEX
  5
369F
330
369C
100
AcDbEntity
  8
TEMPLATE
100
AcDbVertex
100
AcDb2dVertex
 10
1925.116191352377
 20
147.1959117946397
 30
0.0
  0
VERTEX
  5
36A0
330
369C
100
AcDbEntity
  8
TEMPLATE
100
AcDbVertex
100
AcDb2dVertex
 10
1925.116191352377
 20
123.105319426746
 30
0.0
  0
VERTEX
  5
36A1
330
369C
100
AcDbEntity
  8
TEMPLATE
100
AcDbVertex
100
AcDb2dVertex
 10
1916.883578199102
 20
123.105319426746
 30
0.0
  0
VERTEX
  5
36A2
330
369C
100
AcDbEntity
  8
TEMPLATE
100
AcDbVertex
100
AcDb2dVertex
 10
1916.883578199102
 20
147.1959117946397
 30
0.0
  0
VERTEX
  5
36A3
330
369C
100
AcDbEntity
  8
TEMPLATE
100
AcDbVertex
100
AcDb2dVertex
 10
1907.688876764557
 20
147.1959117946397
 30
0.0
  0
VERTEX
  5
36A4
330
369C
100
AcDbEntity
  8
TEMPLATE
100
AcDbVertex
100
AcDb2dVertex
 10
1907.688876764557
 20
153.1053194253001
 30
0.0
  0
VERTEX
  5
36A5
330
369C
100
AcDbEntity
  8
TEMPLATE
100
AcDbVertex
100
AcDb2dVertex
 10
1934.476782902687
 20
153.1053194253001
 30
0.0
  0
SEQEND
  5
36A6
330
369C
100
AcDbEntity
  8
TEMPLATE
  0
SPLINE
  5
36A7
102
{ACAD_REACTORS
330
369B
330
36AC
102
}
330
A
100
AcDbEntity
  8
TEMPLATE
100
AcDbSpline
210
0.0
220
0.0
230
1.0
 70
    11
 71
     3
 72
    56
 73
    52
 74
     0
 42
0.000000001
 43
0.0000000001
 40
0.0
 40
0.0
 40
0.0
 40
0.0
 40
1.0
 40
1.0
 40
1.0
 40
2.0
 40
2.0
 40
2.0
 40
3.0
 40
3.0
 40
3.0
 40
4.0
 40
4.0
 40
4.0
 40
5.0
 40
5.0
 40
5.0
 40
6.0
 40
6.0
 40
6.0
 40
7.0
 40
7.0
 40
7.0
 40
8.0
 40
8.0
 40
8.0
 40
9.0
 40
9.0
 40
9.0
 40
10.0
 40
10.0
 40
10.0
 40
11.0
 40
11.0
 40
11.0
 40
12.0
 40
12.0
 40
12.0
 40
13.0
 40
13.0
 40
13.0
 40
14.0
 40
14.0
 40
14.0
 40
15.0
 40
15.0
 40
15.0
 40
16.0
 40
16.0
 40
16.0
 40
17.0
 40
17.0
 40
17.0
 40
17.0
 10
1947.01896833698
 20
152.3909504648878
 30
0.0
 10
1948.1728345189
 20
152.715738018898
 30
0.0
 10
1949.662423612235
 20
152.4440650580081
 30
0.0
 10
1949.662423612235
 20
152.4440650580081
 30
0.0
 10
1949.662423612235
 20
152.4440650580081
 30
0.0
 10
1948.946790018651
 20
150.2964947655846
 30
0.0
 10
1948.946790018651
 20
150.2964947655846
 30
0.0
 10
1948.946790018651
 20
150.2964947655846
 30
0.0
 10
1947.484427733556
 20
150.6348957237139
 30
0.0
 10
1946.356523726704
 20
149.7454866546012
 30
0.0
 10
1945.480058550036
 20
149.0499384113589
 30
0.0
 10
1944.912238256914
 20
147.2017886193686
 30
0.0
 10
1944.69442379101
 20
146.4990989182278
 30
0.0
 10
1944.69442379101
 20
146.4990989182278
 30
0.0
 10
1943.723334297183
 20
143.518432927829
 30
0.0
 10
1943.723334297183
 20
143.518432927829
 30
0.0
 10
1943.723334297183
 20
143.518432927829
 30
0.0
 10
1946.907457447503
 20
143.518432927829
 30
0.0
 10
1946.907457447503
 20
143.518432927829
 30
0.0
 10
1946.907457447503
 20
143.518432927829
 30
0.0
 10
1946.412241976351
 20
141.642461206109
 30
0.0
 10
1946.412241976351
 20
141.642461206109
 30
0.0
 10
1946.412241976351
 20
141.642461206109
 30
0.0
 10
1943.202156650962
 20
141.642461206109
 30
0.0
 10
1943.202156650962
 20
141.642461206109
 30
0.0
 10
1943.202156650962
 20
141.642461206109
 30
0.0
 10
1937.458713526257
 20
123.105319426746
 30
0.0
 10
1937.458713526257
 20
123.105319426746
 30
0.0
 10
1937.458713526257
 20
123.105319426746
 30
0.0
 10
1935.660479549369
 20
123.105319426746
 30
0.0
 10
1935.660479549369
 20
123.105319426746
 30
0.0
 10
1935.660479549369
 20
123.105319426746
 30
0.0
 10
1941.409129987127
 20
141.642461206109
 30
0.0
 10
1941.409129987127
 20
141.642461206109
 30
0.0
 10
1941.409129987127
 20
141.642461206109
 30
0.0
 10
1939.040397670409
 20
141.642461206109
 30
0.0
 10
1939.040397670409
 20
141.642461206109
 30
0.0
 10
1939.040397670409
 20
141.642461206109
 30
0.0
 10
1939.536952164915
 20
143.518432927829
 30
0.0
 10
1939.536952164915
 20
143.518432927829
 30
0.0
 10
1939.536952164915
 20
143.518432927829
 30
0.0
 10
1941.930307633347
 20
143.518432927829
 30
0.0
 10
1941.930307633347
 20
143.518432927829
 30
0.0
 10
1941.930307633347
 20
143.518432927829
 30
0.0
 10
1942.77686795507
 20
146.1179236028939
 30
0.0
 10
1942.77686795507
 20
146.1179236028939
 30
0.0
 10
1943.461406450716
 20
148.2973328951149
 30
0.0
 10
1944.042245026465
 20
149.4674161376772
 30
0.0
 10
1944.540138544327
 20
150.3496093587049
 30
0.0
 10
1945.032750358952
 20
151.232546481597
 30
0.0
 10
1946.007708142475
 20
152.0998616653363
 30
0.0
 10
1947.01896833698
 20
152.3909504648878
 30
0.0
  0
SPLINE
  5
36A8
102
{ACAD_REACTORS
330
369B
330
36AC
102
}
330
A
100
AcDbEntity
  8
TEMPLATE
100
AcDbSpline
210
0.0
220
0.0
230
1.0
 70
    11
 71
     3
 72
    38
 73
    34
 74
     0
 42
0.000000001
 43
0.0000000001
 40
0.0
 40
0.0
 40
0.0
 40
0.0
 40
1.0
 40
1.0
 40
1.0
 40
2.0
 40
2.0
 40
2.0
 40
3.0
 40
3.0
 40
3.0
 40
4.0
 40
4.0
 40
4.0
 40
5.0
 40
5.0
 40
5.0
 40
6.0
 40
6.0
 40
6.0
 40
7.0
 40
7.0
 40
7.0
 40
8.0
 40
8.0
 40
8.0
 40
9.0
 40
9.0
 40
9.0
 40
10.0
 40
10.0
 40
10.0
 40
11.0
 40
11.0
 40
11.0
 40
11.0
 10
1966.542747159137
 20
143.4464976175386
 30
0.0
 10
1966.542747159137
 20
143.4464976175386
 30
0.0
 10
1968.39149207262
 20
143.4464976175386
 30
0.0
 10
1968.39149207262
 20
143.4464976175386
 30
0.0
 10
1968.39149207262
 20
143.4464976175386
 30
0.0
 10
1967.56561222273
 20
140.8022984404216
 30
0.0
 10
1967.56561222273
 20
140.8022984404216
 30
0.0
 10
1968.193167835563
 20
141.54456372075
 30
0.0
 10
1969.183598777865
 20
142.5331349083912
 30
0.0
 10
1970.034176169654
 20
143.0316235477459
 30
0.0
 10
1971.304760554101
 20
143.7738888280742
 30
0.0
 10
1972.030808773784
 20
143.8717863134333
 30
0.0
 10
1972.829313035064
 20
143.8522960845852
 30
0.0
 10
1972.829313035064
 20
143.8522960845852
 30
0.0
 10
1972.048959979278
 20
141.3520419182353
 30
0.0
 10
1972.048959979278
 20
141.3520419182353
 30
0.0
 10
1971.540726225497
 20
141.5672527276151
 30
0.0
 10
1969.974515240128
 20
141.1575859708734
 30
0.0
 10
1969.076030568268
 20
140.5112840310564
 30
0.0
 10
1968.265772657532
 20
139.9285113104618
 30
0.0
 10
1967.705614553615
 20
139.4326263276327
 30
0.0
 10
1967.04190531017
 20
138.1859955832205
 30
0.0
 10
1966.383254599404
 20
136.9375050841474
 30
0.0
 10
1965.86341597654
 20
134.9467493047458
 30
0.0
 10
1964.968799594376
 20
132.058773486655
 30
0.0
 10
1964.968799594376
 20
132.058773486655
 30
0.0
 10
1962.174852971949
 20
123.105319426746
 30
0.0
 10
1962.174852971949
 20
123.105319426746
 30
0.0
 10
1962.174852971949
 20
123.105319426746
 30
0.0
 10
1960.380561674943
 20
123.105319426746
 30
0.0
 10
1960.380561674943
 20
123.105319426746
 30
0.0
 10
1960.380561674943
 20
123.105319426746
 30
0.0
 10
1966.542747159137
 20
143.4464976175386
 30
0.0
 10
1966.542747159137
 20
143.4464976175386
 30
0.0
  0
SPLINE
  5
36A9
102
{ACAD_REACTORS
330
369B
330
36AC
102
}
330
A
100
AcDbEntity
  8
TEMPLATE
100
AcDbSpline
210
0.0
220
0.0
230
1.0
 70
    11
 71
     3
 72
   104
 73
   100
 74
     0
 42
0.000000001
 43
0.0000000001
 40
0.0
 40
0.0
 40
0.0
 40
0.0
 40
1.0
 40
1.0
 40
1.0
 40
2.0
 40
2.0
 40
2.0
 40
3.0
 40
3.0
 40
3.0
 40
4.0
 40
4.0
 40
4.0
 40
5.0
 40
5.0
 40
5.0
 40
6.0
 40
6.0
 40
6.0
 40
7.0
 40
7.0
 40
7.0
 40
8.0
 40
8.0
 40
8.0
 40
9.0
 40
9.0
 40
9.0
 40
10.0
 40
10.0
 40
10.0
 40
11.0
 40
11.0
 40
11.0
 40
12.0
 40
12.0
 40
12.0
 40
13.0
 40
13.0
 40
13.0
 40
14.0
 40
14.0
 40
14.0
 40
15.0
 40
15.0
 40
15.0
 40
16.0
 40
16.0
 40
16.0
 40
17.0
 40
17.0
 40
17.0
 40
18.0
 40
18.0
 40
18.0
 40
19.0
 40
19.0
 40
19.0
 40
20.0
 40
20.0
 40
20.0
 40
21.0
 40
21.0
 40
21.0
 40
22.0
 40
22.0
 40
22.0
 40
23.0
 40
23.0
 40
23.0
 40
24.0
 40
24.0
 40
24.0
 40
25.0
 40
25.0
 40
25.0
 40
26.0
 40
26.0
 40
26.0
 40
27.0
 40
27.0
 40
27.0
 40
28.0
 40
28.0
 40
28.0
 40
29.0
 40
29.0
 40
29.0
 40
30.0
 40
30.0
 40
30.0
 40
31.0
 40
31.0
 40
31.0
 40
32.0
 40
32.0
 40
32.0
 40
33.0
 40
33.0
 40
33.0
 40
33.0
 10
1976.718878323425
 20
143.4575073651321
 30
0.0
 10
1976.718878323425
 20
143.4575073651321
 30
0.0
 10
1978.332996588864
 20
143.4575073651321
 30
0.0
 10
1978.332996588864
 20
143.4575073651321
 30
0.0
 10
1978.332996588864
 20
143.4575073651321
 30
0.0
 10
1977.517531365076
 20
140.810778921676
 30
0.0
 10
1977.517531365076
 20
140.810778921676
 30
0.0
 10
1978.225279598895
 20
141.920531723033
 30
0.0
 10
1978.860571791119
 20
142.4151520726926
 30
0.0
 10
1979.704602846502
 20
143.054312554611
 30
0.0
 10
1980.551163168223
 20
143.6843974337833
 30
0.0
 10
1981.556025806694
 20
143.812794895584
 30
0.0
 10
1982.253508194784
 20
143.812794895584
 30
0.0
 10
1983.117029479015
 20
143.812794895584
 30
0.0
 10
1983.950645908296
 20
143.6422925882567
 30
0.0
 10
1984.388804106443
 20
142.6958262461422
 30
0.0
 10
1984.72460140805
 20
141.9536353560001
 30
0.0
 10
1984.740223347202
 20
141.8660781065566
 30
0.0
 10
1984.644260006691
 20
140.4010377747479
 30
0.0
 10
1985.521915426345
 20
141.9030500292188
 30
0.0
 10
1986.170151511008
 20
142.5500214807137
 30
0.0
 10
1987.272167732975
 20
143.1716258786317
 30
0.0
 10
1988.42863757142
 20
143.812794895584
 30
0.0
 10
1989.102761440966
 20
143.8607765658398
 30
0.0
 10
1989.885941323838
 20
143.7453229964802
 30
0.0
 10
1991.039733115569
 20
143.5748950793392
 30
0.0
 10
1991.776195961356
 20
143.1632197875635
 30
0.0
 10
1992.161239566385
 20
141.9121256319649
 30
0.0
 10
1992.54762219477
 20
140.6648997660613
 30
0.0
 10
1992.338883331611
 20
139.9959088193793
 30
0.0
 10
1991.861744675765
 20
138.0103603530286
 30
0.0
 10
1991.64393020986
 20
137.1060732466272
 30
0.0
 10
1991.328813380087
 20
136.0111240923725
 30
0.0
 10
1990.916542966819
 20
134.7082543670094
 30
0.0
 10
1990.916542966819
 20
134.7082543670094
 30
0.0
 10
1987.272167732975
 20
123.105319426746
 30
0.0
 10
1987.272167732975
 20
123.105319426746
 30
0.0
 10
1987.272167732975
 20
123.105319426746
 30
0.0
 10
1985.376705782409
 20
123.105319426746
 30
0.0
 10
1985.376705782409
 20
123.105319426746
 30
0.0
 10
1985.376705782409
 20
123.105319426746
 30
0.0
 10
1988.567449659321
 20
133.2490164697431
 30
0.0
 10
1988.567449659321
 20
133.2490164697431
 30
0.0
 10
1989.233836949479
 20
135.3713684889626
 30
0.0
 10
1989.684939040069
 20
136.9212880235028
 30
0.0
 10
1989.918375445127
 20
137.893047029008
 30
0.0
 10
1990.211323999339
 20
139.1052351170969
 30
0.0
 10
1990.327967811683
 20
139.505231149601
 30
0.0
 10
1990.189304504152
 20
140.3874987608153
 30
0.0
 10
1990.062246065708
 20
141.2087664191461
 30
0.0
 10
1989.647297605728
 20
141.7435574694851
 30
0.0
 10
1988.936871325198
 20
141.7435574694851
 30
0.0
 10
1988.17972800758
 20
141.7435574694851
 30
0.0
 10
1987.566455310545
 20
141.659273388245
 30
0.0
 10
1986.708290119737
 20
140.7971655175569
 30
0.0
 10
1985.84997614856
 20
139.9285113104618
 30
0.0
 10
1985.140740111011
 20
138.9088450248874
 30
0.0
 10
1984.584599077163
 20
137.7361581257997
 30
0.0
 10
1984.029648286297
 20
136.5563297688134
 30
0.0
 10
1983.466960916042
 20
135.0608638507494
 30
0.0
 10
1982.896536966398
 20
133.2490164697431
 30
0.0
 10
1982.896536966398
 20
133.2490164697431
 30
0.0
 10
1979.704602846502
 20
123.105319426746
 30
0.0
 10
1979.704602846502
 20
123.105319426746
 30
0.0
 10
1979.704602846502
 20
123.105319426746
 30
0.0
 10
1977.921916418581
 20
123.105319426746
 30
0.0
 10
1977.921916418581
 20
123.105319426746
 30
0.0
 10
1977.921916418581
 20
123.105319426746
 30
0.0
 10
1981.571498965475
 20
134.7030470539584
 30
0.0
 10
1981.571498965475
 20
134.7030470539584
 30
0.0
 10
1981.956542570504
 20
135.9373290274211
 30
0.0
 10
1982.245771615394
 20
136.9433819088763
 30
0.0
 10
1982.436359273062
 20
137.729686179579
 30
0.0
 10
1982.760402925207
 20
139.0832156219098
 30
0.0
 10
1982.851158952669
 20
139.9985124759046
 30
0.0
 10
1982.606117678524
 20
140.810778921676
 30
0.0
 10
1982.364944694076
 20
141.6204417109219
 30
0.0
 10
1981.941069411725
 20
141.8272464292334
 30
0.0
 10
1981.233172397533
 20
141.8272464292334
 30
0.0
 10
1980.639389929345
 20
141.8272464292334
 30
0.0
 10
1980.059890376953
 20
141.5724600406662
 30
0.0
 10
1979.398710399847
 20
141.0654909200569
 30
0.0
 10
1978.566284213549
 20
140.4276694614944
 30
0.0
 10
1978.233164958657
 20
139.9038881587491
 30
0.0
 10
1977.824762835085
 20
139.2815398589669
 30
0.0
 10
1977.273680333915
 20
138.458263665602
 30
0.0
 10
1977.015695167332
 20
137.9040567766015
 30
0.0
 10
1976.550310160944
 20
136.687926008631
 30
0.0
 10
1976.084776374184
 20
135.4646537827621
 30
0.0
 10
1975.644088909695
 20
134.0411231749885
 30
0.0
 10
1975.336708659311
 20
133.0564946672286
 30
0.0
 10
1975.336708659311
 20
133.0564946672286
 30
0.0
 10
1972.205774492298
 20
123.105319426746
 30
0.0
 10
1972.205774492298
 20
123.105319426746
 30
0.0
 10
1972.205774492298
 20
123.105319426746
 30
0.0
 10
1970.338878373326
 20
123.105319426746
 30
0.0
 10
1970.338878373326
 20
123.105319426746
 30
0.0
 10
1970.338878373326
 20
123.105319426746
 30
0.0
 10
1976.718878323425
 20
143.4575073651321
 30
0.0
 10
1976.718878323425
 20
143.4575073651321
 30
0.0
  0
SPLINE
  5
36AA
102
{ACAD_REACTORS
330
369B
330
36AC
102
}
330
A
100
AcDbEntity
  8
TEMPLATE
100
AcDbSpline
210
0.0
220
0.0
230
1.0
 70
    11
 71
     3
 72
    32
 73
    28
 74
     0
 42
0.000000001
 43
0.0000000001
 40
0.0
 40
0.0
 40
0.0
 40
0.0
 40
1.0
 40
1.0
 40
1.0
 40
2.0
 40
2.0
 40
2.0
 40
3.0
 40
3.0
 40
3.0
 40
4.0
 40
4.0
 40
4.0
 40
5.0
 40
5.0
 40
5.0
 40
6.0
 40
6.0
 40
6.0
 40
7.0
 40
7.0
 40
7.0
 40
8.0
 40
8.0
 40
8.0
 40
9.0
 40
9.0
 40
9.0
 40
9.0
 10
1951.394524713372
 20
142.3847264864374
 30
0.0
 10
1950.311998720255
 20
140.9844800070205
 30
0.0
 10
1949.478382290974
 20
139.7243102486757
 30
0.0
 10
1948.128795528524
 20
135.7635535518901
 30
0.0
 10
1946.888041608841
 20
132.1406026917421
 30
0.0
 10
1946.098464169936
 20
129.5048096056932
 30
0.0
 10
1945.979216701069
 20
126.2947242803041
 30
0.0
 10
1945.888460673606
 20
123.9059066132458
 30
0.0
 10
1947.343086379314
 20
123.105319426746
 30
0.0
 10
1949.475853024634
 20
123.105319426746
 30
0.0
 10
1950.395018168326
 20
123.105319426746
 30
0.0
 10
1952.714504181618
 20
123.1637901132903
 30
0.0
 10
1954.3662638814
 20
125.2056519507783
 30
0.0
 10
1955.522584939468
 20
126.6401923061455
 30
0.0
 10
1956.588298750451
 20
128.1272521331414
 30
0.0
 10
1958.017036671275
 20
133.0053142189559
 30
0.0
 10
1959.205940631009
 20
137.0833842397621
 30
0.0
 10
1960.029142434186
 20
139.7191029356247
 30
0.0
 10
1959.968291261677
 20
141.2197761667398
 30
0.0
 10
1959.968291261677
 20
141.2197761667398
 30
0.0
 10
1959.968291261677
 20
141.2197761667398
 30
0.0
 10
1959.968291261677
 20
141.2197761667398
 30
0.0
 10
1959.580569609936
 20
143.7233035012931
 30
0.0
 10
1957.762919794387
 20
144.2522921170894
 30
0.0
 10
1956.724432791643
 20
144.2522921170894
 30
0.0
 10
1955.70156772805
 20
144.2522921170894
 30
0.0
 10
1952.960735698745
 20
144.4292663706373
 30
0.0
 10
1951.394524713372
 20
142.3847264864374
 30
0.0
  0
SPLINE
  5
36AB
102
{ACAD_REACTORS
330
369B
330
36AC
102
}
330
A
100
AcDbEntity
  8
TEMPLATE
100
AcDbSpline
210
0.0
220
0.0
230
1.0
 70
    11
 71
     3
 72
    29
 73
    25
 74
     0
 42
0.000000001
 43
0.0000000001
 40
0.0
 40
0.0
 40
0.0
 40
0.0
 40
1.0
 40
1.0
 40
1.0
 40
2.0
 40
2.0
 40
2.0
 40
3.0
 40
3.0
 40
3.0
 40
4.0
 40
4.0
 40
4.0
 40
5.0
 40
5.0
 40
5.0
 40
6.0
 40
6.0
 40
6.0
 40
7.0
 40
7.0
 40
7.0
 40
8.0
 40
8.0
 40
8.0
 40
8.0
 10
1947.916188375669
 20
126.8949043045264
 30
0.0
 10
1947.908303015907
 20
128.3120373562658
 30
0.0
 10
1948.355685597176
 20
130.8298476066162
 30
0.0
 10
1949.501740809517
 20
134.1986815898748
 30
0.0
 10
1951.062744481836
 20
138.7603622127471
 30
0.0
 10
1951.998870588036
 20
140.4276694614944
 30
0.0
 10
1952.818055321147
 20
141.2392663955878
 30
0.0
 10
1954.014844640642
 20
142.4210288974216
 30
0.0
 10
1955.623755593032
 20
142.4799459250845
 30
0.0
 10
1956.098364982539
 20
142.4210288974216
 30
0.0
 10
1956.77382787544
 20
142.3399435941987
 30
0.0
 10
1957.727956406759
 20
141.8978427161679
 30
0.0
 10
1957.784939289575
 20
140.4095182560024
 30
0.0
 10
1957.830466083678
 20
139.1357350935386
 30
0.0
 10
1957.463424903768
 20
136.7501905946838
 30
0.0
 10
1956.178706383896
 20
133.0053142189559
 30
0.0
 10
1954.698044112936
 20
128.6536370924121
 30
0.0
 10
1953.808635043822
 20
126.9429603649685
 30
0.0
 10
1953.095679496951
 20
126.1974219164366
 30
0.0
 10
1951.752490290537
 20
124.7997790935452
 30
0.0
 10
1950.311998720255
 20
124.9339789898883
 30
0.0
 10
1950.0993915674
 20
124.9339789898883
 30
0.0
 10
1949.823255195324
 20
124.9339789898883
 30
0.0
 10
1947.920056665365
 20
125.2336226608809
 30
0.0
 10
1947.916188375669
 20
126.8949043045264
 30
0.0
  0
POLYLINE
  5
3CBF
102
{ACAD_REACTORS
330
41A5
102
}
330
A
100
AcDbEntity
  8
MODEL
100
AcDb2dPolyline
 66
     1
 10
0.0
 20
0.0
 30
0.0
  0
VERTEX
  5
3CC0
330
3CBF
100
AcDbEntity
  8
MODEL
100
AcDbVertex
100
AcDb2dVertex
 10
1489.896421737953
 20
1039.002119803966
 30
0.0
  0
VERTEX
  5
3CC1
330
3CBF
100
AcDbEntity
  8
MODEL
100
AcDbVertex
100
AcDb2dVertex
 10
1467.056367892271
 20
1039.002119803966
 30
0.0
  0
SEQEND
  5
3CC2
330
3CBF
100
AcDbEntity
  8
MODEL
  0
POLYLINE
  5
3CC3
102
{ACAD_REACTORS
330
41A5
102
}
330
A
100
AcDbEntity
  8
MODEL
100
AcDb2dPolyline
 66
     1
 10
0.0
 20
0.0
 30
0.0
  0
VERTEX
  5
3CC4
330
3CC3
100
AcDbEntity
  8
MODEL
100
AcDbVertex
100
AcDb2dVertex
 10
1489.896421737953
 20
899.4320439305038
 30
0.0
  0
VERTEX
  5
3CC5
330
3CC3
100
AcDbEntity
  8
MODEL
100
AcDbVertex
100
AcDb2dVertex
 10
1467.056367892271
 20
899.4320439305038
 30
0.0
  0
SEQEND
  5
3CC6
330
3CC3
100
AcDbEntity
  8
MODEL
  0
SPLINE
  5
3CCB
330
A
100
AcDbEntity
  8
MODEL
100
AcDbSpline
210
0.0
220
0.0
230
1.0
 70
    11
 71
     3
 72
    17
 73
    13
 74
     0
 42
0.000000001
 43
0.0000000001
 40
0.0
 40
0.0
 40
0.0
 40
0.0
 40
1.0
 40
1.0
 40
1.0
 40
2.0
 40
2.0
 40
2.0
 40
3.0
 40
3.0
 40
3.0
 40
4.0
 40
4.0
 40
4.0
 40
4.0
 10
1469.596446213264
 20
1039.845370737088
 30
0.0
 10
1469.596446213264
 20
1040.692063510752
 30
0.0
 10
1468.7497534396
 20
1042.385449058081
 30
0.0
 10
1467.056367892271
 20
1042.385449058081
 30
0.0
 10
1465.366424185485
 20
1042.385449058081
 30
0.0
 10
1464.51973141182
 20
1040.692063510752
 30
0.0
 10
1464.51973141182
 20
1039.845370737088
 30
0.0
 10
1464.51973141182
 20
1038.155427030302
 30
0.0
 10
1465.366424185485
 20
1037.308734256637
 30
0.0
 10
1467.056367892271
 20
1037.308734256637
 30
0.0
 10
1468.7497534396
 20
1037.308734256637
 30
0.0
 10
1469.596446213264
 20
1038.155427030302
 30
0.0
 10
1469.596446213264
 20
1039.845370737088
 30
0.0
  0
HATCH
  5
3CCC
330
A
100
AcDbEntity
  8
MODEL
100
AcDbHatch
 10
0.0
 20
0.0
 30
0.0
210
0.0
220
0.0
230
1.0
  2
SOLID
 70
     1
 71
     0
 91
        1
 92
        1
 93
        2
 72
     4
 94
        3
 73
     0
 74
     0
 95
       17
 96
       13
 40
0.0
 40
0.0
 40
0.0
 40
0.0
 40
1.0
 40
1.0
 40
1.0
 40
2.0
 40
2.0
 40
2.0
 40
3.0
 40
3.0
 40
3.0
 40
4.0
 40
4.0
 40
4.0
 40
4.0
 10
1469.596446213264
 20
1039.845370737088
 10
1469.596446213264
 20
1040.692063510752
 10
1468.7497534396
 20
1042.385449058081
 10
1467.056367892271
 20
1042.385449058081
 10
1465.366424185485
 20
1042.385449058081
 10
1464.51973141182
 20
1040.692063510752
 10
1464.51973141182
 20
1039.845370737088
 10
1464.51973141182
 20
1038.155427030302
 10
1465.366424185485
 20
1037.308734256637
 10
1467.056367892271
 20
1037.308734256637
 10
1468.7497534396
 20
1037.308734256637
 10
1469.596446213264
 20
1038.155427030302
 10
1469.596446213264
 20
1039.845370737088
 72
     1
 10
1469.596446213264
 20
1039.845370737088
 11
1469.596446213264
 21
1039.845370737088
 97
        0
 75
     0
 76
     1
 98
        0
  0
SPLINE
  5
3CCD
330
A
100
AcDbEntity
  8
MODEL
100
AcDbSpline
210
0.0
220
0.0
230
1.0
 70
    11
 71
     3
 72
    17
 73
    13
 74
     0
 42
0.000000001
 43
0.0000000001
 40
0.0
 40
0.0
 40
0.0
 40
0.0
 40
1.0
 40
1.0
 40
1.0
 40
2.0
 40
2.0
 40
2.0
 40
3.0
 40
3.0
 40
3.0
 40
4.0
 40
4.0
 40
4.0
 40
4.0
 10
1469.596446213264
 20
1039.845370737088
 30
0.0
 10
1469.596446213264
 20
1040.692063510752
 30
0.0
 10
1467.903060665935
 20
1041.538756284417
 30
0.0
 10
1467.056367892271
 20
1041.538756284417
 30
0.0
 10
1466.213116959149
 20
1041.538756284417
 30
0.0
 10
1465.366424185485
 20
1040.692063510752
 30
0.0
 10
1465.366424185485
 20
1039.845370737088
 30
0.0
 10
1465.366424185485
 20
1039.002119803966
 30
0.0
 10
1466.213116959149
 20
1037.308734256637
 30
0.0
 10
1467.056367892271
 20
1037.308734256637
 30
0.0
 10
1467.903060665935
 20
1037.308734256637
 30
0.0
 10
1469.596446213264
 20
1039.002119803966
 30
0.0
 10
1469.596446213264
 20
1039.845370737088
 30
0.0
  0
SPLINE
  5
3CCE
330
A
100
AcDbEntity
  8
MODEL
100
AcDbSpline
210
0.0
220
0.0
230
1.0
 70
    11
 71
     3
 72
    17
 73
    13
 74
     0
 42
0.000000001
 43
0.0000000001
 40
0.0
 40
0.0
 40
0.0
 40
0.0
 40
1.0
 40
1.0
 40
1.0
 40
2.0
 40
2.0
 40
2.0
 40
3.0
 40
3.0
 40
3.0
 40
4.0
 40
4.0
 40
4.0
 40
4.0
 10
1469.596446213264
 20
899.4320439305038
 30
0.0
 10
1469.596446213264
 20
900.2787367041683
 30
0.0
 10
1468.7497534396
 20
901.9686804109538
 30
0.0
 10
1467.056367892271
 20
901.9686804109538
 30
0.0
 10
1465.366424185485
 20
901.9686804109538
 30
0.0
 10
1464.51973141182
 20
900.2787367041683
 30
0.0
 10
1464.51973141182
 20
899.4320439305038
 30
0.0
 10
1464.51973141182
 20
897.7421002237179
 30
0.0
 10
1465.366424185485
 20
896.8954074500534
 30
0.0
 10
1467.056367892271
 20
896.8954074500534
 30
0.0
 10
1468.7497534396
 20
896.8954074500534
 30
0.0
 10
1469.596446213264
 20
897.7421002237179
 30
0.0
 10
1469.596446213264
 20
899.4320439305038
 30
0.0
  0
HATCH
  5
3CCF
330
A
100
AcDbEntity
  8
MODEL
100
AcDbHatch
 10
0.0
 20
0.0
 30
0.0
210
0.0
220
0.0
230
1.0
  2
SOLID
 70
     1
 71
     0
 91
        1
 92
        1
 93
        2
 72
     4
 94
        3
 73
     0
 74
     0
 95
       17
 96
       13
 40
0.0
 40
0.0
 40
0.0
 40
0.0
 40
1.0
 40
1.0
 40
1.0
 40
2.0
 40
2.0
 40
2.0
 40
3.0
 40
3.0
 40
3.0
 40
4.0
 40
4.0
 40
4.0
 40
4.0
 10
1469.596446213264
 20
899.4320439305038
 10
1469.596446213264
 20
900.2787367041683
 10
1468.7497534396
 20
901.9686804109538
 10
1467.056367892271
 20
901.9686804109538
 10
1465.366424185485
 20
901.9686804109538
 10
1464.51973141182
 20
900.2787367041683
 10
1464.51973141182
 20
899.4320439305038
 10
1464.51973141182
 20
897.7421002237179
 10
1465.366424185485
 20
896.8954074500534
 10
1467.056367892271
 20
896.8954074500534
 10
1468.7497534396
 20
896.8954074500534
 10
1469.596446213264
 20
897.7421002237179
 10
1469.596446213264
 20
899.4320439305038
 72
     1
 10
1469.596446213264
 20
899.4320439305038
 11
1469.596446213264
 21
899.4320439305038
 97
        0
 75
     0
 76
     1
 98
        0
  0
SPLINE
  5
3CD0
330
A
100
AcDbEntity
  8
MODEL
100
AcDbSpline
210
0.0
220
0.0
230
1.0
 70
    11
 71
     3
 72
    17
 73
    13
 74
     0
 42
0.000000001
 43
0.0000000001
 40
0.0
 40
0.0
 40
0.0
 40
0.0
 40
1.0
 40
1.0
 40
1.0
 40
2.0
 40
2.0
 40
2.0
 40
3.0
 40
3.0
 40
3.0
 40
4.0
 40
4.0
 40
4.0
 40
4.0
 10
1469.596446213264
 20
899.4320439305038
 30
0.0
 10
1469.596446213264
 20
900.2787367041683
 30
0.0
 10
1467.903060665935
 20
901.1254294778328
 30
0.0
 10
1467.056367892271
 20
901.1254294778328
 30
0.0
 10
1466.213116959149
 20
901.1254294778328
 30
0.0
 10
1465.366424185485
 20
900.2787367041683
 30
0.0
 10
1465.366424185485
 20
899.4320439305038
 30
0.0
 10
1465.366424185485
 20
898.5853511568389
 30
0.0
 10
1466.213116959149
 20
896.8954074500534
 30
0.0
 10
1467.056367892271
 20
896.8954074500534
 30
0.0
 10
1467.903060665935
 20
896.8954074500534
 30
0.0
 10
1469.596446213264
 20
898.5853511568389
 30
0.0
 10
1469.596446213264
 20
899.4320439305038
 30
0.0
  0
POLYLINE
  5
3CD1
330
A
100
AcDbEntity
  8
MODEL
100
AcDb2dPolyline
 66
     1
 10
0.0
 20
0.0
 30
0.0
  0
VERTEX
  5
3CD2
330
3CD1
100
AcDbEntity
  8
MODEL
100
AcDbVertex
100
AcDb2dVertex
 10
1467.056367892271
 20
1039.002119803966
 30
0.0
  0
VERTEX
  5
3CD3
330
3CD1
100
AcDbEntity
  8
MODEL
100
AcDbVertex
100
AcDb2dVertex
 10
1467.056367892271
 20
899.4320439305038
 30
0.0
  0
SEQEND
  5
3CD4
330
3CD1
100
AcDbEntity
  8
MODEL
  0
SPLINE
  5
3D2B
330
A
100
AcDbEntity
  8
MODEL
100
AcDbSpline
210
0.0
220
0.0
230
1.0
 70
    11
 71
     3
 72
    17
 73
    13
 74
     0
 42
0.000000001
 43
0.0000000001
 40
0.0
 40
0.0
 40
0.0
 40
0.0
 40
1.0
 40
1.0
 40
1.0
 40
2.0
 40
2.0
 40
2.0
 40
3.0
 40
3.0
 40
3.0
 40
4.0
 40
4.0
 40
4.0
 40
4.0
 10
624.519691027559
 20
2219.830494337405
 30
0.0
 10
624.519691027559
 20
2220.675466190798
 30
0.0
 10
623.6729982538945
 20
2222.368851738127
 30
0.0
 10
622.8280264005007
 20
2222.368851738127
 30
0.0
 10
621.1363617734442
 20
2222.368851738127
 30
0.0
 10
620.2896689997797
 20
2220.675466190798
 30
0.0
 10
620.2896689997797
 20
2219.830494337405
 30
0.0
 10
620.2896689997797
 20
2218.138829710348
 30
0.0
 10
621.1363617734442
 20
2217.292136936683
 30
0.0
 10
622.8280264005007
 20
2217.292136936683
 30
0.0
 10
623.6729982538945
 20
2217.292136936683
 30
0.0
 10
624.519691027559
 20
2218.138829710348
 30
0.0
 10
624.519691027559
 20
2219.830494337405
 30
0.0
  0
HATCH
  5
3D2C
330
A
100
AcDbEntity
  8
MODEL
100
AcDbHatch
 10
0.0
 20
0.0
 30
0.0
210
0.0
220
0.0
230
1.0
  2
SOLID
 70
     1
 71
     0
 91
        1
 92
        1
 93
        2
 72
     4
 94
        3
 73
     0
 74
     0
 95
       17
 96
       13
 40
0.0
 40
0.0
 40
0.0
 40
0.0
 40
1.0
 40
1.0
 40
1.0
 40
2.0
 40
2.0
 40
2.0
 40
3.0
 40
3.0
 40
3.0
 40
4.0
 40
4.0
 40
4.0
 40
4.0
 10
624.519691027559
 20
2219.830494337405
 10
624.519691027559
 20
2220.675466190798
 10
623.6729982538945
 20
2222.368851738127
 10
622.8280264005007
 20
2222.368851738127
 10
621.1363617734442
 20
2222.368851738127
 10
620.2896689997797
 20
2220.675466190798
 10
620.2896689997797
 20
2219.830494337405
 10
620.2896689997797
 20
2218.138829710348
 10
621.1363617734442
 20
2217.292136936683
 10
622.8280264005007
 20
2217.292136936683
 10
623.6729982538945
 20
2217.292136936683
 10
624.519691027559
 20
2218.138829710348
 10
624.519691027559
 20
2219.830494337405
 72
     1
 10
624.519691027559
 20
2219.830494337405
 11
624.519691027559
 21
2219.830494337405
 97
        0
 75
     0
 76
     1
 98
        0
  0
SPLINE
  5
3D2D
330
A
100
AcDbEntity
  8
MODEL
100
AcDbSpline
210
0.0
220
0.0
230
1.0
 70
    11
 71
     3
 72
    17
 73
    13
 74
     0
 42
0.000000001
 43
0.0000000001
 40
0.0
 40
0.0
 40
0.0
 40
0.0
 40
1.0
 40
1.0
 40
1.0
 40
2.0
 40
2.0
 40
2.0
 40
3.0
 40
3.0
 40
3.0
 40
4.0
 40
4.0
 40
4.0
 40
4.0
 10
624.519691027559
 20
2219.830494337405
 30
0.0
 10
624.519691027559
 20
2220.675466190798
 30
0.0
 10
623.6729982538945
 20
2221.522158964463
 30
0.0
 10
622.8280264005007
 20
2221.522158964463
 30
0.0
 10
621.1363617734442
 20
2221.522158964463
 30
0.0
 10
621.1363617734442
 20
2220.675466190798
 30
0.0
 10
621.1363617734442
 20
2219.830494337405
 30
0.0
 10
621.1363617734442
 20
2218.983801563741
 30
0.0
 10
621.1363617734442
 20
2217.292136936683
 30
0.0
 10
622.8280264005007
 20
2217.292136936683
 30
0.0
 10
623.6729982538945
 20
2217.292136936683
 30
0.0
 10
624.519691027559
 20
2218.983801563741
 30
0.0
 10
624.519691027559
 20
2219.830494337405
 30
0.0
  0
POLYLINE
  5
3D2E
330
A
100
AcDbEntity
  8
DIM
100
AcDb2dPolyline
 66
     1
 10
0.0
 20
0.0
 30
0.0
  0
VERTEX
  5
3D2F
330
3D2E
100
AcDbEntity
  8
DIM
100
AcDbVertex
100
AcDb2dVertex
 10
622.8280264005007
 20
2219.830494337405
 30
0.0
  0
VERTEX
  5
3D30
330
3D2E
100
AcDbEntity
  8
DIM
100
AcDbVertex
100
AcDb2dVertex
 10
676.118043533219
 20
2279.040477204688
 30
0.0
  0
VERTEX
  5
3D31
330
3D2E
100
AcDbEntity
  8
DIM
100
AcDbVertex
100
AcDb2dVertex
 10
799.6130031489556
 20
2279.040477204688
 30
0.0
  0
SEQEND
  5
3D32
330
3D2E
100
AcDbEntity
  8
DIM
  0
MTEXT
  5
3D3A
330
A
100
AcDbEntity
  8
DIM
100
AcDbMText
 10
736.1729982538945
 20
2289.192185887305
 30
0.0
 40
21.85719607890707
 41
0.0
 46
0.0
 71
     7
 72
     1
  1
φ36
  7
ＭＳ ゴシック
 73
     1
 44
1.0
  0
POLYLINE
  5
3DA3
330
A
100
AcDbEntity
  8
MODEL
100
AcDb2dPolyline
 66
     1
 10
0.0
 20
0.0
 30
0.0
  0
VERTEX
  5
3DA4
330
3DA3
100
AcDbEntity
  8
MODEL
100
AcDbVertex
100
AcDb2dVertex
 10
1289.426419290424
 20
1031.388768522072
 30
0.0
  0
VERTEX
  5
3DA5
330
3DA3
100
AcDbEntity
  8
MODEL
100
AcDbVertex
100
AcDb2dVertex
 10
1288.579726516759
 20
1031.388768522072
 30
0.0
  0
VERTEX
  5
3DA6
330
3DA3
100
AcDbEntity
  8
MODEL
100
AcDbVertex
100
AcDb2dVertex
 10
1288.579726516759
 20
1032.232019455193
 30
0.0
  0
SEQEND
  5
3DA7
330
3DA3
100
AcDbEntity
  8
MODEL
  0
POLYLINE
  5
3DA8
330
A
100
AcDbEntity
  8
MODEL
100
AcDb2dPolyline
 66
     1
 10
0.0
 20
0.0
 30
0.0
  0
VERTEX
  5
3DA9
330
3DA8
100
AcDbEntity
  8
MODEL
100
AcDbVertex
100
AcDb2dVertex
 10
1288.579726516759
 20
1035.615348709308
 30
0.0
  0
VERTEX
  5
3DAA
330
3DA8
100
AcDbEntity
  8
MODEL
100
AcDbVertex
100
AcDb2dVertex
 10
1288.579726516759
 20
1032.232019455193
 30
0.0
  0
SEQEND
  5
3DAB
330
3DA8
100
AcDbEntity
  8
MODEL
  0
POLYLINE
  5
3DAC
330
A
100
AcDbEntity
  8
MODEL
100
AcDb2dPolyline
 66
     1
 10
0.0
 20
0.0
 30
0.0
  0
VERTEX
  5
3DAD
330
3DAC
100
AcDbEntity
  8
MODEL
100
AcDbVertex
100
AcDb2dVertex
 10
1288.579726516759
 20
1035.615348709308
 30
0.0
  0
VERTEX
  5
3DAE
330
3DAC
100
AcDbEntity
  8
MODEL
100
AcDbVertex
100
AcDb2dVertex
 10
1288.579726516759
 20
1037.308734256637
 30
0.0
  0
VERTEX
  5
3DAF
330
3DAC
100
AcDbEntity
  8
MODEL
100
AcDbVertex
100
AcDb2dVertex
 10
1289.426419290424
 20
1037.308734256637
 30
0.0
  0
VERTEX
  5
3DB0
330
3DAC
100
AcDbEntity
  8
MODEL
100
AcDbVertex
100
AcDb2dVertex
 10
1289.426419290424
 20
1038.155427030302
 30
0.0
  0
VERTEX
  5
3DB1
330
3DAC
100
AcDbEntity
  8
MODEL
100
AcDbVertex
100
AcDb2dVertex
 10
1290.273112064088
 20
1038.155427030302
 30
0.0
  0
VERTEX
  5
3DB2
330
3DAC
100
AcDbEntity
  8
MODEL
100
AcDbVertex
100
AcDb2dVertex
 10
1291.11636299721
 20
1039.002119803966
 30
0.0
  0
VERTEX
  5
3DB3
330
3DAC
100
AcDbEntity
  8
MODEL
100
AcDbVertex
100
AcDb2dVertex
 10
1291.963055770874
 20
1039.002119803966
 30
0.0
  0
SEQEND
  5
3DB4
330
3DAC
100
AcDbEntity
  8
MODEL
  0
POLYLINE
  5
3DB5
330
A
100
AcDbEntity
  8
MODEL
100
AcDb2dPolyline
 66
     1
 10
0.0
 20
0.0
 30
0.0
  0
VERTEX
  5
3DB6
330
3DB5
100
AcDbEntity
  8
MODEL
100
AcDbVertex
100
AcDb2dVertex
 10
1396.006453555859
 20
894.358770969603
 30
0.0
  0
VERTEX
  5
3DB7
330
3DB5
100
AcDbEntity
  8
MODEL
100
AcDbVertex
100
AcDb2dVertex
 10
1402.773112064088
 20
891.8186926486092
 30
0.0
  0
VERTEX
  5
3DB8
330
3DB5
100
AcDbEntity
  8
MODEL
100
AcDbVertex
100
AcDb2dVertex
 10
1405.309748544539
 20
890.1287489418232
 30
0.0
  0
VERTEX
  5
3DB9
330
3DB5
100
AcDbEntity
  8
MODEL
100
AcDbVertex
100
AcDb2dVertex
 10
1408.693077798654
 20
889.2820561681588
 30
0.0
  0
VERTEX
  5
3DBA
330
3DB5
100
AcDbEntity
  8
MODEL
100
AcDbVertex
100
AcDb2dVertex
 10
1411.229714279104
 20
888.4353633944943
 30
0.0
  0
VERTEX
  5
3DBB
330
3DB5
100
AcDbEntity
  8
MODEL
100
AcDbVertex
100
AcDb2dVertex
 10
1414.613043533219
 20
887.5886706208298
 30
0.0
  0
VERTEX
  5
3DBC
330
3DB5
100
AcDbEntity
  8
MODEL
100
AcDbVertex
100
AcDb2dVertex
 10
1419.689758334663
 20
886.7454196877084
 30
0.0
  0
VERTEX
  5
3DBD
330
3DB5
100
AcDbEntity
  8
MODEL
100
AcDbVertex
100
AcDb2dVertex
 10
1424.763031295563
 20
885.0520341403794
 30
0.0
  0
SEQEND
  5
3DBE
330
3DB5
100
AcDbEntity
  8
MODEL
  0
SPLINE
  5
3DBF
330
A
100
AcDbEntity
  8
MODEL
100
AcDbSpline
210
0.0
220
0.0
230
1.0
 70
     8
 71
     3
 72
    38
 73
    34
 74
     0
 42
0.000000001
 43
0.0000000001
 40
0.0
 40
0.0
 40
0.0
 40
0.0
 40
1.0
 40
1.0
 40
1.0
 40
2.0
 40
2.0
 40
2.0
 40
3.0
 40
3.0
 40
3.0
 40
4.0
 40
4.0
 40
4.0
 40
5.0
 40
5.0
 40
5.0
 40
6.0
 40
6.0
 40
6.0
 40
7.0
 40
7.0
 40
7.0
 40
8.0
 40
8.0
 40
8.0
 40
9.0
 40
9.0
 40
9.0
 40
10.0
 40
10.0
 40
10.0
 40
11.0
 40
11.0
 40
11.0
 40
11.0
 10
1504.276431528079
 20
885.0520341403794
 30
0.0
 10
1504.276431528079
 20
885.0520341403794
 30
0.0
 10
1511.043090036309
 20
885.8987269140439
 30
0.0
 10
1511.043090036309
 20
885.8987269140439
 30
0.0
 10
1511.043090036309
 20
885.8987269140439
 30
0.0
 10
1516.11636299721
 20
887.5886706208298
 30
0.0
 10
1516.11636299721
 20
887.5886706208298
 30
0.0
 10
1516.11636299721
 20
887.5886706208298
 30
0.0
 10
1524.576407052768
 20
889.2820561681588
 30
0.0
 10
1524.576407052768
 20
889.2820561681588
 30
0.0
 10
1524.576407052768
 20
889.2820561681588
 30
0.0
 10
1527.959736306883
 20
889.2820561681588
 30
0.0
 10
1527.959736306883
 20
889.2820561681588
 30
0.0
 10
1527.959736306883
 20
889.2820561681588
 30
0.0
 10
1541.493053323343
 20
893.5120781959386
 30
0.0
 10
1541.493053323343
 20
893.5120781959386
 30
0.0
 10
1541.493053323343
 20
893.5120781959386
 30
0.0
 10
1553.336426633016
 20
896.8954074500534
 30
0.0
 10
1553.336426633016
 20
896.8954074500534
 30
0.0
 10
1553.336426633016
 20
896.8954074500534
 30
0.0
 10
1578.713116959149
 20
907.045395212398
 30
0.0
 10
1578.713116959149
 20
907.045395212398
 30
0.0
 10
1578.713116959149
 20
907.045395212398
 30
0.0
 10
1591.399741201944
 20
912.9653609469633
 30
0.0
 10
1591.399741201944
 20
912.9653609469633
 30
0.0
 10
1622.314352962331
 20
927.9717857159776
 30
0.0
 10
1648.324341948442
 20
949.8584497311522
 30
0.0
 10
1671.756392367582
 20
974.7154221352398
 30
0.0
 10
1671.756392367582
 20
974.7154221352398
 30
0.0
 10
1680.21643642314
 20
984.8654098975844
 30
0.0
 10
1680.21643642314
 20
984.8654098975844
 30
0.0
 10
1680.21643642314
 20
984.8654098975844
 30
0.0
 10
1685.289709384041
 20
990.7853756321497
 30
0.0
 10
1685.289709384041
 20
990.7853756321497
 30
0.0
  0
POLYLINE
  5
3DC0
330
A
100
AcDbEntity
  8
MODEL
100
AcDb2dPolyline
 66
     1
 10
0.0
 20
0.0
 30
0.0
  0
VERTEX
  5
3DC1
330
3DC0
100
AcDbEntity
  8
MODEL
100
AcDbVertex
100
AcDb2dVertex
 10
1396.006453555859
 20
894.358770969603
 30
0.0
  0
VERTEX
  5
3DC2
330
3DC0
100
AcDbEntity
  8
MODEL
100
AcDbVertex
100
AcDb2dVertex
 10
1394.31306800853
 20
895.202021902724
 30
0.0
  0
VERTEX
  5
3DC3
330
3DC0
100
AcDbEntity
  8
MODEL
100
AcDbVertex
100
AcDb2dVertex
 10
1392.623124301744
 20
896.0487146763885
 30
0.0
  0
VERTEX
  5
3DC4
330
3DC0
100
AcDbEntity
  8
MODEL
100
AcDbVertex
100
AcDb2dVertex
 10
1390.929738754415
 20
897.7421002237179
 30
0.0
  0
VERTEX
  5
3DC5
330
3DC0
100
AcDbEntity
  8
MODEL
100
AcDbVertex
100
AcDb2dVertex
 10
1389.236353207084
 20
899.4320439305038
 30
0.0
  0
VERTEX
  5
3DC6
330
3DC0
100
AcDbEntity
  8
MODEL
100
AcDbVertex
100
AcDb2dVertex
 10
1388.393102273964
 20
901.1254294778328
 30
0.0
  0
VERTEX
  5
3DC7
330
3DC0
100
AcDbEntity
  8
MODEL
100
AcDbVertex
100
AcDb2dVertex
 10
1387.5464095003
 20
903.6620659582832
 30
0.0
  0
VERTEX
  5
3DC8
330
3DC0
100
AcDbEntity
  8
MODEL
100
AcDbVertex
100
AcDb2dVertex
 10
1387.5464095003
 20
905.3520096650691
 30
0.0
  0
VERTEX
  5
3DC9
330
3DC0
100
AcDbEntity
  8
MODEL
100
AcDbVertex
100
AcDb2dVertex
 10
1386.699716726635
 20
907.8920879860625
 30
0.0
  0
SEQEND
  5
3DCA
330
3DC0
100
AcDbEntity
  8
MODEL
  0
POLYLINE
  5
3DCB
330
A
100
AcDbEntity
  8
MODEL
100
AcDb2dPolyline
 66
     1
 10
0.0
 20
0.0
 30
0.0
  0
VERTEX
  5
3DCC
330
3DCB
100
AcDbEntity
  8
MODEL
100
AcDbVertex
100
AcDb2dVertex
 10
1499.199716726635
 20
883.3620904335935
 30
0.0
  0
VERTEX
  5
3DCD
330
3DCB
100
AcDbEntity
  8
MODEL
100
AcDbVertex
100
AcDb2dVertex
 10
1500.0464095003
 20
883.3620904335935
 30
0.0
  0
VERTEX
  5
3DCE
330
3DCB
100
AcDbEntity
  8
MODEL
100
AcDbVertex
100
AcDb2dVertex
 10
1500.893102273964
 20
884.205341366715
 30
0.0
  0
VERTEX
  5
3DCF
330
3DCB
100
AcDbEntity
  8
MODEL
100
AcDbVertex
100
AcDb2dVertex
 10
1501.739795047629
 20
884.205341366715
 30
0.0
  0
VERTEX
  5
3DD0
330
3DCB
100
AcDbEntity
  8
MODEL
100
AcDbVertex
100
AcDb2dVertex
 10
1502.58304598075
 20
885.0520341403794
 30
0.0
  0
VERTEX
  5
3DD1
330
3DCB
100
AcDbEntity
  8
MODEL
100
AcDbVertex
100
AcDb2dVertex
 10
1504.276431528079
 20
885.0520341403794
 30
0.0
  0
SEQEND
  5
3DD2
330
3DCB
100
AcDbEntity
  8
MODEL
  0
POLYLINE
  5
3DD3
330
A
100
AcDbEntity
  8
MODEL
100
AcDb2dPolyline
 66
     1
 10
0.0
 20
0.0
 30
0.0
  0
VERTEX
  5
3DD4
330
3DD3
100
AcDbEntity
  8
MODEL
100
AcDbVertex
100
AcDb2dVertex
 10
1424.763031295563
 20
885.0520341403794
 30
0.0
  0
VERTEX
  5
3DD5
330
3DD3
100
AcDbEntity
  8
MODEL
100
AcDbVertex
100
AcDb2dVertex
 10
1426.456416842892
 20
885.0520341403794
 30
0.0
  0
VERTEX
  5
3DD6
330
3DD3
100
AcDbEntity
  8
MODEL
100
AcDbVertex
100
AcDb2dVertex
 10
1427.303109616557
 20
884.205341366715
 30
0.0
  0
VERTEX
  5
3DD7
330
3DD3
100
AcDbEntity
  8
MODEL
100
AcDbVertex
100
AcDb2dVertex
 10
1428.146360549678
 20
884.205341366715
 30
0.0
  0
VERTEX
  5
3DD8
330
3DD3
100
AcDbEntity
  8
MODEL
100
AcDbVertex
100
AcDb2dVertex
 10
1428.993053323343
 20
883.3620904335935
 30
0.0
  0
VERTEX
  5
3DD9
330
3DD3
100
AcDbEntity
  8
MODEL
100
AcDbVertex
100
AcDb2dVertex
 10
1429.839746097007
 20
883.3620904335935
 30
0.0
  0
VERTEX
  5
3DDA
330
3DD3
100
AcDbEntity
  8
MODEL
100
AcDbVertex
100
AcDb2dVertex
 10
1436.606404605237
 20
877.4386828584852
 30
0.0
  0
SEQEND
  5
3DDB
330
3DD3
100
AcDbEntity
  8
MODEL
  0
POLYLINE
  5
3DDC
330
A
100
AcDbEntity
  8
MODEL
100
AcDb2dPolyline
 66
     1
 10
0.0
 20
0.0
 30
0.0
  0
VERTEX
  5
3DDD
330
3DDC
100
AcDbEntity
  8
MODEL
100
AcDbVertex
100
AcDb2dVertex
 10
1492.433058218404
 20
877.4386828584852
 30
0.0
  0
VERTEX
  5
3DDE
330
3DDC
100
AcDbEntity
  8
MODEL
100
AcDbVertex
100
AcDb2dVertex
 10
1499.199716726635
 20
883.3620904335935
 30
0.0
  0
SEQEND
  5
3DDF
330
3DDC
100
AcDbEntity
  8
MODEL
  0
POLYLINE
  5
3DE0
330
A
100
AcDbEntity
  8
MODEL
100
AcDb2dPolyline
 66
     1
 10
0.0
 20
0.0
 30
0.0
  0
VERTEX
  5
3DE1
330
3DE0
100
AcDbEntity
  8
MODEL
100
AcDbVertex
100
AcDb2dVertex
 10
1492.433058218404
 20
877.4386828584852
 30
0.0
  0
VERTEX
  5
3DE2
330
3DE0
100
AcDbEntity
  8
MODEL
100
AcDbVertex
100
AcDb2dVertex
 10
1491.586365444739
 20
877.4386828584852
 30
0.0
  0
VERTEX
  5
3DE3
330
3DE0
100
AcDbEntity
  8
MODEL
100
AcDbVertex
100
AcDb2dVertex
 10
1490.74311451162
 20
876.5954319253638
 30
0.0
  0
VERTEX
  5
3DE4
330
3DE0
100
AcDbEntity
  8
MODEL
100
AcDbVertex
100
AcDb2dVertex
 10
1488.203036190625
 20
876.5954319253638
 30
0.0
  0
SEQEND
  5
3DE5
330
3DE0
100
AcDbEntity
  8
MODEL
  0
POLYLINE
  5
3DE6
330
A
100
AcDbEntity
  8
MODEL
100
AcDb2dPolyline
 66
     1
 10
0.0
 20
0.0
 30
0.0
  0
VERTEX
  5
3DE7
330
3DE6
100
AcDbEntity
  8
MODEL
100
AcDbVertex
100
AcDb2dVertex
 10
1440.836426633016
 20
876.5954319253638
 30
0.0
  0
VERTEX
  5
3DE8
330
3DE6
100
AcDbEntity
  8
MODEL
100
AcDbVertex
100
AcDb2dVertex
 10
1438.299790152566
 20
876.5954319253638
 30
0.0
  0
VERTEX
  5
3DE9
330
3DE6
100
AcDbEntity
  8
MODEL
100
AcDbVertex
100
AcDb2dVertex
 10
1437.453097378901
 20
877.4386828584852
 30
0.0
  0
VERTEX
  5
3DEA
330
3DE6
100
AcDbEntity
  8
MODEL
100
AcDbVertex
100
AcDb2dVertex
 10
1436.606404605237
 20
877.4386828584852
 30
0.0
  0
SEQEND
  5
3DEB
330
3DE6
100
AcDbEntity
  8
MODEL
  0
POLYLINE
  5
3DEC
330
A
100
AcDbEntity
  8
MODEL
100
AcDb2dPolyline
 66
     1
 10
0.0
 20
0.0
 30
0.0
  0
VERTEX
  5
3DED
330
3DEC
100
AcDbEntity
  8
MODEL
100
AcDbVertex
100
AcDb2dVertex
 10
1386.699716726635
 20
1024.622110013842
 30
0.0
  0
VERTEX
  5
3DEE
330
3DEC
100
AcDbEntity
  8
MODEL
100
AcDbVertex
100
AcDb2dVertex
 10
1386.699716726635
 20
1023.775417240177
 30
0.0
  0
SEQEND
  5
3DEF
330
3DEC
100
AcDbEntity
  8
MODEL
  0
POLYLINE
  5
3DF0
330
A
100
AcDbEntity
  8
MODEL
100
AcDb2dPolyline
 66
     1
 10
0.0
 20
0.0
 30
0.0
  0
VERTEX
  5
3DF1
330
3DF0
100
AcDbEntity
  8
MODEL
100
AcDbVertex
100
AcDb2dVertex
 10
1386.699716726635
 20
984.8654098975844
 30
0.0
  0
VERTEX
  5
3DF2
330
3DF0
100
AcDbEntity
  8
MODEL
100
AcDbVertex
100
AcDb2dVertex
 10
1386.699716726635
 20
983.172024350255
 30
0.0
  0
SEQEND
  5
3DF3
330
3DF0
100
AcDbEntity
  8
MODEL
  0
POLYLINE
  5
3DF4
330
A
100
AcDbEntity
  8
MODEL
100
AcDb2dPolyline
 66
     1
 10
0.0
 20
0.0
 30
0.0
  0
VERTEX
  5
3DF5
330
3DF4
100
AcDbEntity
  8
MODEL
100
AcDbVertex
100
AcDb2dVertex
 10
1384.163080246185
 20
1019.545395212398
 30
0.0
  0
VERTEX
  5
3DF6
330
3DF4
100
AcDbEntity
  8
MODEL
100
AcDbVertex
100
AcDb2dVertex
 10
1384.163080246185
 20
1021.238780759727
 30
0.0
  0
VERTEX
  5
3DF7
330
3DF4
100
AcDbEntity
  8
MODEL
100
AcDbVertex
100
AcDb2dVertex
 10
1385.009773019849
 20
1022.082031692848
 30
0.0
  0
VERTEX
  5
3DF8
330
3DF4
100
AcDbEntity
  8
MODEL
100
AcDbVertex
100
AcDb2dVertex
 10
1385.009773019849
 20
1022.928724466513
 30
0.0
  0
VERTEX
  5
3DF9
330
3DF4
100
AcDbEntity
  8
MODEL
100
AcDbVertex
100
AcDb2dVertex
 10
1385.853023952969
 20
1022.928724466513
 30
0.0
  0
VERTEX
  5
3DFA
330
3DF4
100
AcDbEntity
  8
MODEL
100
AcDbVertex
100
AcDb2dVertex
 10
1385.853023952969
 20
1023.775417240177
 30
0.0
  0
VERTEX
  5
3DFB
330
3DF4
100
AcDbEntity
  8
MODEL
100
AcDbVertex
100
AcDb2dVertex
 10
1386.699716726635
 20
1023.775417240177
 30
0.0
  0
SEQEND
  5
3DFC
330
3DF4
100
AcDbEntity
  8
MODEL
  0
POLYLINE
  5
3DFD
330
A
100
AcDbEntity
  8
MODEL
100
AcDb2dPolyline
 66
     1
 10
0.0
 20
0.0
 30
0.0
  0
VERTEX
  5
3DFE
330
3DFD
100
AcDbEntity
  8
MODEL
100
AcDbVertex
100
AcDb2dVertex
 10
1386.699716726635
 20
984.8654098975844
 30
0.0
  0
VERTEX
  5
3DFF
330
3DFD
100
AcDbEntity
  8
MODEL
100
AcDbVertex
100
AcDb2dVertex
 10
1385.853023952969
 20
984.8654098975844
 30
0.0
  0
VERTEX
  5
3E00
330
3DFD
100
AcDbEntity
  8
MODEL
100
AcDbVertex
100
AcDb2dVertex
 10
1385.853023952969
 20
985.7121026712489
 30
0.0
  0
VERTEX
  5
3E01
330
3DFD
100
AcDbEntity
  8
MODEL
100
AcDbVertex
100
AcDb2dVertex
 10
1385.009773019849
 20
985.7121026712489
 30
0.0
  0
VERTEX
  5
3E02
330
3DFD
100
AcDbEntity
  8
MODEL
100
AcDbVertex
100
AcDb2dVertex
 10
1385.009773019849
 20
986.5553536043703
 30
0.0
  0
VERTEX
  5
3E03
330
3DFD
100
AcDbEntity
  8
MODEL
100
AcDbVertex
100
AcDb2dVertex
 10
1384.163080246185
 20
986.5553536043703
 30
0.0
  0
VERTEX
  5
3E04
330
3DFD
100
AcDbEntity
  8
MODEL
100
AcDbVertex
100
AcDb2dVertex
 10
1384.163080246185
 20
989.0954319253638
 30
0.0
  0
SEQEND
  5
3E05
330
3DFD
100
AcDbEntity
  8
MODEL
  0
POLYLINE
  5
3E06
330
A
100
AcDbEntity
  8
MODEL
100
AcDb2dPolyline
 66
     1
 10
0.0
 20
0.0
 30
0.0
  0
VERTEX
  5
3E07
330
3E06
100
AcDbEntity
  8
MODEL
100
AcDbVertex
100
AcDb2dVertex
 10
1513.579726516759
 20
1031.388768522072
 30
0.0
  0
VERTEX
  5
3E08
330
3E06
100
AcDbEntity
  8
MODEL
100
AcDbVertex
100
AcDb2dVertex
 10
1289.426419290424
 20
1031.388768522072
 30
0.0
  0
SEQEND
  5
3E09
330
3E06
100
AcDbEntity
  8
MODEL
  0
POLYLINE
  5
3E0A
330
A
100
AcDbEntity
  8
MODEL
100
AcDb2dPolyline
 66
     1
 10
0.0
 20
0.0
 30
0.0
  0
VERTEX
  5
3E0B
330
3E0A
100
AcDbEntity
  8
MODEL
100
AcDbVertex
100
AcDb2dVertex
 10
1588.01641194783
 20
1031.388768522072
 30
0.0
  0
VERTEX
  5
3E0C
330
3E0A
100
AcDbEntity
  8
MODEL
100
AcDbVertex
100
AcDb2dVertex
 10
1513.579726516759
 20
1031.388768522072
 30
0.0
  0
SEQEND
  5
3E0D
330
3E0A
100
AcDbEntity
  8
MODEL
  0
POLYLINE
  5
3E0E
330
A
100
AcDbEntity
  8
MODEL
100
AcDb2dPolyline
 66
     1
 10
0.0
 20
0.0
 30
0.0
  0
VERTEX
  5
3E0F
330
3E0E
100
AcDbEntity
  8
MODEL
100
AcDbVertex
100
AcDb2dVertex
 10
1513.579726516759
 20
1039.002119803966
 30
0.0
  0
VERTEX
  5
3E10
330
3E0E
100
AcDbEntity
  8
MODEL
100
AcDbVertex
100
AcDb2dVertex
 10
1734.353146329523
 20
1039.002119803966
 30
0.0
  0
SEQEND
  5
3E11
330
3E0E
100
AcDbEntity
  8
MODEL
  0
POLYLINE
  5
3E12
330
A
100
AcDbEntity
  8
MODEL
100
AcDb2dPolyline
 66
     1
 10
0.0
 20
0.0
 30
0.0
  0
VERTEX
  5
3E13
330
3E12
100
AcDbEntity
  8
MODEL
100
AcDbVertex
100
AcDb2dVertex
 10
1291.963055770874
 20
1039.002119803966
 30
0.0
  0
VERTEX
  5
3E14
330
3E12
100
AcDbEntity
  8
MODEL
100
AcDbVertex
100
AcDb2dVertex
 10
1513.579726516759
 20
1039.002119803966
 30
0.0
  0
SEQEND
  5
3E15
330
3E12
100
AcDbEntity
  8
MODEL
  0
POLYLINE
  5
3E16
330
A
100
AcDbEntity
  8
MODEL
100
AcDb2dPolyline
 66
     1
 10
0.0
 20
0.0
 30
0.0
  0
VERTEX
  5
3E17
330
3E16
100
AcDbEntity
  8
MODEL
100
AcDbVertex
100
AcDb2dVertex
 10
1504.276431528079
 20
885.0520341403794
 30
0.0
  0
VERTEX
  5
3E18
330
3E16
100
AcDbEntity
  8
MODEL
100
AcDbVertex
100
AcDb2dVertex
 10
1424.763031295563
 20
885.0520341403794
 30
0.0
  0
SEQEND
  5
3E19
330
3E16
100
AcDbEntity
  8
MODEL
  0
POLYLINE
  5
3E1A
330
A
100
AcDbEntity
  8
MODEL
100
AcDb2dPolyline
 66
     1
 10
0.0
 20
0.0
 30
0.0
  0
VERTEX
  5
3E1B
330
3E1A
100
AcDbEntity
  8
MODEL
100
AcDbVertex
100
AcDb2dVertex
 10
1386.699716726635
 20
1031.388768522072
 30
0.0
  0
VERTEX
  5
3E1C
330
3E1A
100
AcDbEntity
  8
MODEL
100
AcDbVertex
100
AcDb2dVertex
 10
1386.699716726635
 20
907.8920879860625
 30
0.0
  0
SEQEND
  5
3E1D
330
3E1A
100
AcDbEntity
  8
MODEL
  0
POLYLINE
  5
3E1E
330
A
100
AcDbEntity
  8
MODEL
100
AcDb2dPolyline
 66
     1
 10
0.0
 20
0.0
 30
0.0
  0
VERTEX
  5
3E1F
330
3E1E
100
AcDbEntity
  8
MODEL
100
AcDbVertex
100
AcDb2dVertex
 10
1499.199716726635
 20
883.3620904335935
 30
0.0
  0
VERTEX
  5
3E20
330
3E1E
100
AcDbEntity
  8
MODEL
100
AcDbVertex
100
AcDb2dVertex
 10
1429.839746097007
 20
883.3620904335935
 30
0.0
  0
SEQEND
  5
3E21
330
3E1E
100
AcDbEntity
  8
MODEL
  0
POLYLINE
  5
3E22
330
A
100
AcDbEntity
  8
MODEL
100
AcDb2dPolyline
 66
     1
 10
0.0
 20
0.0
 30
0.0
  0
VERTEX
  5
3E23
330
3E22
100
AcDbEntity
  8
MODEL
100
AcDbVertex
100
AcDb2dVertex
 10
1492.433058218404
 20
877.4386828584852
 30
0.0
  0
VERTEX
  5
3E24
330
3E22
100
AcDbEntity
  8
MODEL
100
AcDbVertex
100
AcDb2dVertex
 10
1436.606404605237
 20
877.4386828584852
 30
0.0
  0
SEQEND
  5
3E25
330
3E22
100
AcDbEntity
  8
MODEL
  0
POLYLINE
  5
3E26
330
A
100
AcDbEntity
  8
MODEL
100
AcDb2dPolyline
 66
     1
 10
0.0
 20
0.0
 30
0.0
  0
VERTEX
  5
3E27
330
3E26
100
AcDbEntity
  8
MODEL
100
AcDbVertex
100
AcDb2dVertex
 10
1488.203036190625
 20
876.5954319253638
 30
0.0
  0
VERTEX
  5
3E28
330
3E26
100
AcDbEntity
  8
MODEL
100
AcDbVertex
100
AcDb2dVertex
 10
1440.836426633016
 20
876.5954319253638
 30
0.0
  0
SEQEND
  5
3E29
330
3E26
100
AcDbEntity
  8
MODEL
  0
POLYLINE
  5
3E2A
330
A
100
AcDbEntity
  8
MODEL
100
AcDb2dPolyline
 66
     1
 10
0.0
 20
0.0
 30
0.0
  0
VERTEX
  5
3E2B
330
3E2A
100
AcDbEntity
  8
MODEL
100
AcDbVertex
100
AcDb2dVertex
 10
1386.699716726635
 20
1023.775417240177
 30
0.0
  0
VERTEX
  5
3E2C
330
3E2A
100
AcDbEntity
  8
MODEL
100
AcDbVertex
100
AcDb2dVertex
 10
1386.699716726635
 20
984.8654098975844
 30
0.0
  0
SEQEND
  5
3E2D
330
3E2A
100
AcDbEntity
  8
MODEL
  0
POLYLINE
  5
3E2E
330
A
100
AcDbEntity
  8
MODEL
100
AcDb2dPolyline
 66
     1
 10
0.0
 20
0.0
 30
0.0
  0
VERTEX
  5
3E2F
330
3E2E
100
AcDbEntity
  8
MODEL
100
AcDbVertex
100
AcDb2dVertex
 10
1384.163080246185
 20
1019.545395212398
 30
0.0
  0
VERTEX
  5
3E30
330
3E2E
100
AcDbEntity
  8
MODEL
100
AcDbVertex
100
AcDb2dVertex
 10
1384.163080246185
 20
989.0954319253638
 30
0.0
  0
SEQEND
  5
3E31
330
3E2E
100
AcDbEntity
  8
MODEL
  0
POLYLINE
  5
3E32
330
A
100
AcDbEntity
  8
MODEL
100
AcDb2dPolyline
 66
     1
 10
0.0
 20
0.0
 30
0.0
  0
VERTEX
  5
3E33
330
3E32
100
AcDbEntity
  8
MODEL
100
AcDbVertex
100
AcDb2dVertex
 10
1377.396421737953
 20
1018.698702438734
 30
0.0
  0
VERTEX
  5
3E34
330
3E32
100
AcDbEntity
  8
MODEL
100
AcDbVertex
100
AcDb2dVertex
 10
1378.24311451162
 20
1020.392087986063
 30
0.0
  0
SEQEND
  5
3E35
330
3E32
100
AcDbEntity
  8
MODEL
  0
POLYLINE
  5
3E36
330
A
100
AcDbEntity
  8
MODEL
100
AcDb2dPolyline
 66
     1
 10
0.0
 20
0.0
 30
0.0
  0
VERTEX
  5
3E37
330
3E36
100
AcDbEntity
  8
MODEL
100
AcDbVertex
100
AcDb2dVertex
 10
1359.633082693715
 20
1018.698702438734
 30
0.0
  0
VERTEX
  5
3E38
330
3E36
100
AcDbEntity
  8
MODEL
100
AcDbVertex
100
AcDb2dVertex
 10
1377.396421737953
 20
1018.698702438734
 30
0.0
  0
SEQEND
  5
3E39
330
3E36
100
AcDbEntity
  8
MODEL
  0
POLYLINE
  5
3E3A
330
A
100
AcDbEntity
  8
MODEL
100
AcDb2dPolyline
 66
     1
 10
0.0
 20
0.0
 30
0.0
  0
VERTEX
  5
3E3B
330
3E3A
100
AcDbEntity
  8
MODEL
100
AcDbVertex
100
AcDb2dVertex
 10
1357.939697146386
 20
1020.392087986063
 30
0.0
  0
VERTEX
  5
3E3C
330
3E3A
100
AcDbEntity
  8
MODEL
100
AcDbVertex
100
AcDb2dVertex
 10
1359.633082693715
 20
1018.698702438734
 30
0.0
  0
SEQEND
  5
3E3D
330
3E3A
100
AcDbEntity
  8
MODEL
  0
POLYLINE
  5
3E3E
330
A
100
AcDbEntity
  8
MODEL
100
AcDb2dPolyline
 66
     1
 10
0.0
 20
0.0
 30
0.0
  0
VERTEX
  5
3E3F
330
3E3E
100
AcDbEntity
  8
MODEL
100
AcDbVertex
100
AcDb2dVertex
 10
1357.939697146386
 20
1031.388768522072
 30
0.0
  0
VERTEX
  5
3E40
330
3E3E
100
AcDbEntity
  8
MODEL
100
AcDbVertex
100
AcDb2dVertex
 10
1357.939697146386
 20
1020.392087986063
 30
0.0
  0
SEQEND
  5
3E41
330
3E3E
100
AcDbEntity
  8
MODEL
  0
POLYLINE
  5
3E42
330
A
100
AcDbEntity
  8
MODEL
100
AcDb2dPolyline
 66
     1
 10
0.0
 20
0.0
 30
0.0
  0
VERTEX
  5
3E43
330
3E42
100
AcDbEntity
  8
MODEL
100
AcDbVertex
100
AcDb2dVertex
 10
1378.24311451162
 20
1031.388768522072
 30
0.0
  0
VERTEX
  5
3E44
330
3E42
100
AcDbEntity
  8
MODEL
100
AcDbVertex
100
AcDb2dVertex
 10
1378.24311451162
 20
1020.392087986063
 30
0.0
  0
SEQEND
  5
3E45
330
3E42
100
AcDbEntity
  8
MODEL
  0
POLYLINE
  5
3E46
330
A
100
AcDbEntity
  8
MODEL
100
AcDb2dPolyline
 66
     1
 10
0.0
 20
0.0
 30
0.0
  0
VERTEX
  5
3E47
330
3E46
100
AcDbEntity
  8
MODEL
100
AcDbVertex
100
AcDb2dVertex
 10
1365.55304842828
 20
1022.928724466513
 30
0.0
  0
VERTEX
  5
3E48
330
3E46
100
AcDbEntity
  8
MODEL
100
AcDbVertex
100
AcDb2dVertex
 10
1365.55304842828
 20
1028.848690201078
 30
0.0
  0
SEQEND
  5
3E49
330
3E46
100
AcDbEntity
  8
MODEL
  0
POLYLINE
  5
3E4A
330
A
100
AcDbEntity
  8
MODEL
100
AcDb2dPolyline
 66
     1
 10
0.0
 20
0.0
 30
0.0
  0
VERTEX
  5
3E4B
330
3E4A
100
AcDbEntity
  8
MODEL
100
AcDbVertex
100
AcDb2dVertex
 10
1370.629763229724
 20
1022.928724466513
 30
0.0
  0
VERTEX
  5
3E4C
330
3E4A
100
AcDbEntity
  8
MODEL
100
AcDbVertex
100
AcDb2dVertex
 10
1365.55304842828
 20
1022.928724466513
 30
0.0
  0
SEQEND
  5
3E4D
330
3E4A
100
AcDbEntity
  8
MODEL
  0
POLYLINE
  5
3E4E
330
A
100
AcDbEntity
  8
MODEL
100
AcDb2dPolyline
 66
     1
 10
0.0
 20
0.0
 30
0.0
  0
VERTEX
  5
3E4F
330
3E4E
100
AcDbEntity
  8
MODEL
100
AcDbVertex
100
AcDb2dVertex
 10
1370.629763229724
 20
1028.848690201078
 30
0.0
  0
VERTEX
  5
3E50
330
3E4E
100
AcDbEntity
  8
MODEL
100
AcDbVertex
100
AcDb2dVertex
 10
1370.629763229724
 20
1022.928724466513
 30
0.0
  0
SEQEND
  5
3E51
330
3E4E
100
AcDbEntity
  8
MODEL
  0
POLYLINE
  5
3E52
330
A
100
AcDbEntity
  8
MODEL
100
AcDb2dPolyline
 66
     1
 10
0.0
 20
0.0
 30
0.0
  0
VERTEX
  5
3E53
330
3E52
100
AcDbEntity
  8
MODEL
100
AcDbVertex
100
AcDb2dVertex
 10
1365.55304842828
 20
1028.848690201078
 30
0.0
  0
VERTEX
  5
3E54
330
3E52
100
AcDbEntity
  8
MODEL
100
AcDbVertex
100
AcDb2dVertex
 10
1370.629763229724
 20
1028.848690201078
 30
0.0
  0
SEQEND
  5
3E55
330
3E52
100
AcDbEntity
  8
MODEL
  0
POLYLINE
  5
3E56
330
A
100
AcDbEntity
  8
MODEL
100
AcDb2dPolyline
 66
     1
 10
0.0
 20
0.0
 30
0.0
  0
VERTEX
  5
3E57
330
3E56
100
AcDbEntity
  8
MODEL
100
AcDbVertex
100
AcDb2dVertex
 10
1379.086365444739
 20
1031.388768522072
 30
0.0
  0
VERTEX
  5
3E58
330
3E56
100
AcDbEntity
  8
MODEL
100
AcDbVertex
100
AcDb2dVertex
 10
1379.086365444739
 20
1020.392087986063
 30
0.0
  0
SEQEND
  5
3E59
330
3E56
100
AcDbEntity
  8
MODEL
  0
POLYLINE
  5
3E5A
330
A
100
AcDbEntity
  8
MODEL
100
AcDb2dPolyline
 66
     1
 10
0.0
 20
0.0
 30
0.0
  0
VERTEX
  5
3E5B
330
3E5A
100
AcDbEntity
  8
MODEL
100
AcDbVertex
100
AcDb2dVertex
 10
1378.24311451162
 20
1020.392087986063
 30
0.0
  0
VERTEX
  5
3E5C
330
3E5A
100
AcDbEntity
  8
MODEL
100
AcDbVertex
100
AcDb2dVertex
 10
1379.086365444739
 20
1020.392087986063
 30
0.0
  0
SEQEND
  5
3E5D
330
3E5A
100
AcDbEntity
  8
MODEL
  0
POLYLINE
  5
3E5E
330
A
100
AcDbEntity
  8
MODEL
100
AcDb2dPolyline
 66
     1
 10
0.0
 20
0.0
 30
0.0
  0
VERTEX
  5
3E5F
330
3E5E
100
AcDbEntity
  8
MODEL
100
AcDbVertex
100
AcDb2dVertex
 10
1378.24311451162
 20
1018.698702438734
 30
0.0
  0
VERTEX
  5
3E60
330
3E5E
100
AcDbEntity
  8
MODEL
100
AcDbVertex
100
AcDb2dVertex
 10
1377.396421737953
 20
1018.698702438734
 30
0.0
  0
SEQEND
  5
3E61
330
3E5E
100
AcDbEntity
  8
MODEL
  0
POLYLINE
  5
3E62
330
A
100
AcDbEntity
  8
MODEL
100
AcDb2dPolyline
 66
     1
 10
0.0
 20
0.0
 30
0.0
  0
VERTEX
  5
3E63
330
3E62
100
AcDbEntity
  8
MODEL
100
AcDbVertex
100
AcDb2dVertex
 10
1379.086365444739
 20
1020.392087986063
 30
0.0
  0
VERTEX
  5
3E64
330
3E62
100
AcDbEntity
  8
MODEL
100
AcDbVertex
100
AcDb2dVertex
 10
1378.24311451162
 20
1018.698702438734
 30
0.0
  0
SEQEND
  5
3E65
330
3E62
100
AcDbEntity
  8
MODEL
  0
POLYLINE
  5
3E66
330
A
100
AcDbEntity
  8
MODEL
100
AcDb2dPolyline
 66
     1
 10
0.0
 20
0.0
 30
0.0
  0
VERTEX
  5
3E67
330
3E66
100
AcDbEntity
  8
MODEL
100
AcDbVertex
100
AcDb2dVertex
 10
1366.399741201944
 20
1022.928724466513
 30
0.0
  0
VERTEX
  5
3E68
330
3E66
100
AcDbEntity
  8
MODEL
100
AcDbVertex
100
AcDb2dVertex
 10
1366.399741201944
 20
1028.848690201078
 30
0.0
  0
SEQEND
  5
3E69
330
3E66
100
AcDbEntity
  8
MODEL
  0
POLYLINE
  5
3E6A
330
A
100
AcDbEntity
  8
MODEL
100
AcDb2dPolyline
 66
     1
 10
0.0
 20
0.0
 30
0.0
  0
VERTEX
  5
3E6B
330
3E6A
100
AcDbEntity
  8
MODEL
100
AcDbVertex
100
AcDb2dVertex
 10
386.8313458644916
 20
990.7853756321492
 30
0.0
  0
VERTEX
  5
3E6C
330
3E6A
100
AcDbEntity
  8
MODEL
100
AcDbVertex
100
AcDb2dVertex
 10
386.8313458644916
 20
991.6320684058137
 30
0.0
  0
VERTEX
  5
3E6D
330
3E6A
100
AcDbEntity
  8
MODEL
100
AcDbVertex
100
AcDb2dVertex
 10
385.9846530908271
 20
991.6320684058137
 30
0.0
  0
SEQEND
  5
3E6E
330
3E6A
100
AcDbEntity
  8
MODEL
  0
POLYLINE
  5
3E6F
330
A
100
AcDbEntity
  8
MODEL
100
AcDb2dPolyline
 66
     1
 10
0.0
 20
0.0
 30
0.0
  0
VERTEX
  5
3E70
330
3E6F
100
AcDbEntity
  8
MODEL
100
AcDbVertex
100
AcDb2dVertex
 10
835.9863740110995
 20
991.6320684058137
 30
0.0
  0
VERTEX
  5
3E71
330
3E6F
100
AcDbEntity
  8
MODEL
100
AcDbVertex
100
AcDb2dVertex
 10
835.1396812374351
 20
991.6320684058137
 30
0.0
  0
VERTEX
  5
3E72
330
3E6F
100
AcDbEntity
  8
MODEL
100
AcDbVertex
100
AcDb2dVertex
 10
835.1396812374351
 20
990.7853756321492
 30
0.0
  0
SEQEND
  5
3E73
330
3E6F
100
AcDbEntity
  8
MODEL
  0
POLYLINE
  5
3E74
330
A
100
AcDbEntity
  8
MODEL
100
AcDb2dPolyline
 66
     1
 10
0.0
 20
0.0
 30
0.0
  0
VERTEX
  5
3E75
330
3E74
100
AcDbEntity
  8
MODEL
100
AcDbVertex
100
AcDb2dVertex
 10
835.9863740110995
 20
991.6320684058137
 30
0.0
  0
VERTEX
  5
3E76
330
3E74
100
AcDbEntity
  8
MODEL
100
AcDbVertex
100
AcDb2dVertex
 10
835.9863740110995
 20
1035.615348709307
 30
0.0
  0
SEQEND
  5
3E77
330
3E74
100
AcDbEntity
  8
MODEL
  0
POLYLINE
  5
3E78
330
A
100
AcDbEntity
  8
MODEL
100
AcDb2dPolyline
 66
     1
 10
0.0
 20
0.0
 30
0.0
  0
VERTEX
  5
3E79
330
3E78
100
AcDbEntity
  8
MODEL
100
AcDbVertex
100
AcDb2dVertex
 10
385.9846530908271
 20
1035.615348709307
 30
0.0
  0
VERTEX
  5
3E7A
330
3E78
100
AcDbEntity
  8
MODEL
100
AcDbVertex
100
AcDb2dVertex
 10
385.9846530908271
 20
991.6320684058137
 30
0.0
  0
SEQEND
  5
3E7B
330
3E78
100
AcDbEntity
  8
MODEL
  0
POLYLINE
  5
3E7C
330
A
100
AcDbEntity
  8
MODEL
100
AcDb2dPolyline
 66
     1
 10
0.0
 20
0.0
 30
0.0
  0
VERTEX
  5
3E7D
330
3E7C
100
AcDbEntity
  8
MODEL
100
AcDbVertex
100
AcDb2dVertex
 10
385.9846530908271
 20
1035.615348709307
 30
0.0
  0
VERTEX
  5
3E7E
330
3E7C
100
AcDbEntity
  8
MODEL
100
AcDbVertex
100
AcDb2dVertex
 10
385.9846530908271
 20
1037.308734256637
 30
0.0
  0
VERTEX
  5
3E7F
330
3E7C
100
AcDbEntity
  8
MODEL
100
AcDbVertex
100
AcDb2dVertex
 10
386.8313458644916
 20
1037.308734256637
 30
0.0
  0
VERTEX
  5
3E80
330
3E7C
100
AcDbEntity
  8
MODEL
100
AcDbVertex
100
AcDb2dVertex
 10
386.8313458644916
 20
1038.155427030301
 30
0.0
  0
VERTEX
  5
3E81
330
3E7C
100
AcDbEntity
  8
MODEL
100
AcDbVertex
100
AcDb2dVertex
 10
387.6763177178855
 20
1038.155427030301
 30
0.0
  0
VERTEX
  5
3E82
330
3E7C
100
AcDbEntity
  8
MODEL
100
AcDbVertex
100
AcDb2dVertex
 10
388.5230104915499
 20
1039.002119803966
 30
0.0
  0
VERTEX
  5
3E83
330
3E7C
100
AcDbEntity
  8
MODEL
100
AcDbVertex
100
AcDb2dVertex
 10
389.367982344942
 20
1039.002119803966
 30
0.0
  0
SEQEND
  5
3E84
330
3E7C
100
AcDbEntity
  8
MODEL
  0
POLYLINE
  5
3E85
330
A
100
AcDbEntity
  8
MODEL
100
AcDb2dPolyline
 66
     1
 10
0.0
 20
0.0
 30
0.0
  0
VERTEX
  5
3E86
330
3E85
100
AcDbEntity
  8
MODEL
100
AcDbVertex
100
AcDb2dVertex
 10
831.7563519833202
 20
1039.002119803966
 30
0.0
  0
VERTEX
  5
3E87
330
3E85
100
AcDbEntity
  8
MODEL
100
AcDbVertex
100
AcDb2dVertex
 10
833.4480166103767
 20
1039.002119803966
 30
0.0
  0
VERTEX
  5
3E88
330
3E85
100
AcDbEntity
  8
MODEL
100
AcDbVertex
100
AcDb2dVertex
 10
835.9863740110995
 20
1036.462041482972
 30
0.0
  0
VERTEX
  5
3E89
330
3E85
100
AcDbEntity
  8
MODEL
100
AcDbVertex
100
AcDb2dVertex
 10
835.9863740110995
 20
1035.615348709307
 30
0.0
  0
SEQEND
  5
3E8A
330
3E85
100
AcDbEntity
  8
MODEL
  0
POLYLINE
  5
3E8B
330
A
100
AcDbEntity
  8
MODEL
100
AcDb2dPolyline
 66
     1
 10
0.0
 20
0.0
 30
0.0
  0
VERTEX
  5
3E8C
330
3E8B
100
AcDbEntity
  8
MODEL
100
AcDbVertex
100
AcDb2dVertex
 10
412.206315270354
 20
1031.388768522072
 30
0.0
  0
VERTEX
  5
3E8D
330
3E8B
100
AcDbEntity
  8
MODEL
100
AcDbVertex
100
AcDb2dVertex
 10
413.8979798974106
 20
1024.622110013841
 30
0.0
  0
VERTEX
  5
3E8E
330
3E8B
100
AcDbEntity
  8
MODEL
100
AcDbVertex
100
AcDb2dVertex
 10
418.9729737785838
 20
1011.932043930503
 30
0.0
  0
VERTEX
  5
3E8F
330
3E8B
100
AcDbEntity
  8
MODEL
100
AcDbVertex
100
AcDb2dVertex
 10
424.0496885800276
 20
1000.092112461373
 30
0.0
  0
VERTEX
  5
3E90
330
3E8B
100
AcDbEntity
  8
MODEL
100
AcDbVertex
100
AcDb2dVertex
 10
429.9696543145928
 20
989.9386828584848
 30
0.0
  0
VERTEX
  5
3E91
330
3E8B
100
AcDbEntity
  8
MODEL
100
AcDbVertex
100
AcDb2dVertex
 10
435.0446481957642
 20
979.7886950961397
 30
0.0
  0
VERTEX
  5
3E92
330
3E8B
100
AcDbEntity
  8
MODEL
100
AcDbVertex
100
AcDb2dVertex
 10
440.9663348506019
 20
971.332092881124
 30
0.0
  0
VERTEX
  5
3E93
330
3E8B
100
AcDbEntity
  8
MODEL
100
AcDbVertex
100
AcDb2dVertex
 10
446.8880215054396
 20
963.7187415992298
 30
0.0
  0
VERTEX
  5
3E94
330
3E8B
100
AcDbEntity
  8
MODEL
100
AcDbVertex
100
AcDb2dVertex
 10
451.963015386611
 20
956.9520830910001
 30
0.0
  0
VERTEX
  5
3E95
330
3E8B
100
AcDbEntity
  8
MODEL
100
AcDbVertex
100
AcDb2dVertex
 10
457.0380092677842
 20
951.0286755158913
 30
0.0
  0
VERTEX
  5
3E96
330
3E8B
100
AcDbEntity
  8
MODEL
100
AcDbVertex
100
AcDb2dVertex
 10
462.1130031489556
 20
945.9554025549905
 30
0.0
  0
VERTEX
  5
3E97
330
3E8B
100
AcDbEntity
  8
MODEL
100
AcDbVertex
100
AcDb2dVertex
 10
467.1879970301288
 20
940.8786877535467
 30
0.0
  0
VERTEX
  5
3E98
330
3E8B
100
AcDbEntity
  8
MODEL
100
AcDbVertex
100
AcDb2dVertex
 10
472.2629909113002
 20
936.6521075663104
 30
0.0
  0
VERTEX
  5
3E99
330
3E8B
100
AcDbEntity
  8
MODEL
100
AcDbVertex
100
AcDb2dVertex
 10
477.3379847924734
 20
931.5753927648666
 30
0.0
  0
VERTEX
  5
3E9A
330
3E8B
100
AcDbEntity
  8
MODEL
100
AcDbVertex
100
AcDb2dVertex
 10
483.2596714473093
 20
927.3453707370873
 30
0.0
  0
VERTEX
  5
3E9B
330
3E8B
100
AcDbEntity
  8
MODEL
100
AcDbVertex
100
AcDb2dVertex
 10
493.4096592096539
 20
919.7320194551926
 30
0.0
  0
VERTEX
  5
3E9C
330
3E8B
100
AcDbEntity
  8
MODEL
100
AcDbVertex
100
AcDb2dVertex
 10
504.4063397456648
 20
912.1221100138414
 30
0.0
  0
VERTEX
  5
3E9D
330
3E8B
100
AcDbEntity
  8
MODEL
100
AcDbVertex
100
AcDb2dVertex
 10
515.4030202816739
 20
905.3520096650686
 30
0.0
  0
VERTEX
  5
3E9E
330
3E8B
100
AcDbEntity
  8
MODEL
100
AcDbVertex
100
AcDb2dVertex
 10
526.3979798974106
 20
900.2787367041678
 30
0.0
  0
VERTEX
  5
3E9F
330
3E8B
100
AcDbEntity
  8
MODEL
100
AcDbVertex
100
AcDb2dVertex
 10
532.3196665522482
 20
897.7421002237174
 30
0.0
  0
VERTEX
  5
3EA0
330
3E8B
100
AcDbEntity
  8
MODEL
100
AcDbVertex
100
AcDb2dVertex
 10
538.2413532070841
 20
895.2020219027236
 30
0.0
  0
VERTEX
  5
3EA1
330
3E8B
100
AcDbEntity
  8
MODEL
100
AcDbVertex
100
AcDb2dVertex
 10
543.3163470882573
 20
893.5120781959381
 30
0.0
  0
VERTEX
  5
3EA2
330
3E8B
100
AcDbEntity
  8
MODEL
100
AcDbVertex
100
AcDb2dVertex
 10
547.5446481957642
 20
891.8186926486087
 30
0.0
  0
VERTEX
  5
3EA3
330
3E8B
100
AcDbEntity
  8
MODEL
100
AcDbVertex
100
AcDb2dVertex
 10
550.083005596487
 20
890.9754417154877
 30
0.0
  0
VERTEX
  5
3EA4
330
3E8B
100
AcDbEntity
  8
MODEL
100
AcDbVertex
100
AcDb2dVertex
 10
551.7746702235454
 20
890.1287489418228
 30
0.0
  0
VERTEX
  5
3EA5
330
3E8B
100
AcDbEntity
  8
MODEL
100
AcDbVertex
100
AcDb2dVertex
 10
554.3130276242664
 20
890.1287489418228
 30
0.0
  0
VERTEX
  5
3EA6
330
3E8B
100
AcDbEntity
  8
MODEL
100
AcDbVertex
100
AcDb2dVertex
 10
556.8496641047168
 20
889.2820561681583
 30
0.0
  0
VERTEX
  5
3EA7
330
3E8B
100
AcDbEntity
  8
MODEL
100
AcDbVertex
100
AcDb2dVertex
 10
560.2329933588317
 20
887.5886706208294
 30
0.0
  0
VERTEX
  5
3EA8
330
3E8B
100
AcDbEntity
  8
MODEL
100
AcDbVertex
100
AcDb2dVertex
 10
565.3079872400049
 20
886.7454196877079
 30
0.0
  0
VERTEX
  5
3EA9
330
3E8B
100
AcDbEntity
  8
MODEL
100
AcDbVertex
100
AcDb2dVertex
 10
571.2296738948407
 20
885.052034140379
 30
0.0
  0
SEQEND
  5
3EAA
330
3E8B
100
AcDbEntity
  8
MODEL
  0
POLYLINE
  5
3EAB
330
A
100
AcDbEntity
  8
MODEL
100
AcDb2dPolyline
 66
     1
 10
0.0
 20
0.0
 30
0.0
  0
VERTEX
  5
3EAC
330
3EAB
100
AcDbEntity
  8
MODEL
100
AcDbVertex
100
AcDb2dVertex
 10
650.7413532070841
 20
885.052034140379
 30
0.0
  0
VERTEX
  5
3EAD
330
3EAB
100
AcDbEntity
  8
MODEL
100
AcDbVertex
100
AcDb2dVertex
 10
655.8163470882573
 20
886.7454196877079
 30
0.0
  0
VERTEX
  5
3EAE
330
3EAB
100
AcDbEntity
  8
MODEL
100
AcDbVertex
100
AcDb2dVertex
 10
660.0463691160367
 20
887.5886706208294
 30
0.0
  0
VERTEX
  5
3EAF
330
3EAB
100
AcDbEntity
  8
MODEL
100
AcDbVertex
100
AcDb2dVertex
 10
662.583005596487
 20
888.4353633944938
 30
0.0
  0
VERTEX
  5
3EB0
330
3EAB
100
AcDbEntity
  8
MODEL
100
AcDbVertex
100
AcDb2dVertex
 10
665.1213629972099
 20
889.2820561681583
 30
0.0
  0
VERTEX
  5
3EB1
330
3EAB
100
AcDbEntity
  8
MODEL
100
AcDbVertex
100
AcDb2dVertex
 10
666.8130276242664
 20
889.2820561681583
 30
0.0
  0
VERTEX
  5
3EB2
330
3EAB
100
AcDbEntity
  8
MODEL
100
AcDbVertex
100
AcDb2dVertex
 10
669.3496641047168
 20
890.1287489418228
 30
0.0
  0
VERTEX
  5
3EB3
330
3EAB
100
AcDbEntity
  8
MODEL
100
AcDbVertex
100
AcDb2dVertex
 10
678.6546800136693
 20
893.5120781959381
 30
0.0
  0
VERTEX
  5
3EB4
330
3EAB
100
AcDbEntity
  8
MODEL
100
AcDbVertex
100
AcDb2dVertex
 10
687.9596959226201
 20
896.895407450053
 30
0.0
  0
VERTEX
  5
3EB5
330
3EAB
100
AcDbEntity
  8
MODEL
100
AcDbVertex
100
AcDb2dVertex
 10
697.2647118315726
 20
901.1254294778323
 30
0.0
  0
VERTEX
  5
3EB6
330
3EAB
100
AcDbEntity
  8
MODEL
100
AcDbVertex
100
AcDb2dVertex
 10
708.2596714473093
 20
907.0453952123976
 30
0.0
  0
VERTEX
  5
3EB7
330
3EAB
100
AcDbEntity
  8
MODEL
100
AcDbVertex
100
AcDb2dVertex
 10
719.2563519833202
 20
912.9653609469628
 30
0.0
  0
VERTEX
  5
3EB8
330
3EAB
100
AcDbEntity
  8
MODEL
100
AcDbVertex
100
AcDb2dVertex
 10
729.4063397456648
 20
920.5787122288571
 30
0.0
  0
VERTEX
  5
3EB9
330
3EAB
100
AcDbEntity
  8
MODEL
100
AcDbVertex
100
AcDb2dVertex
 10
734.4813336268362
 20
923.9620414829719
 30
0.0
  0
VERTEX
  5
3EBA
330
3EAB
100
AcDbEntity
  8
MODEL
100
AcDbVertex
100
AcDb2dVertex
 10
738.7113556546155
 20
927.3453707370873
 30
0.0
  0
VERTEX
  5
3EBB
330
3EAB
100
AcDbEntity
  8
MODEL
100
AcDbVertex
100
AcDb2dVertex
 10
744.6330423094532
 20
931.5753927648666
 30
0.0
  0
VERTEX
  5
3EBC
330
3EAB
100
AcDbEntity
  8
MODEL
100
AcDbVertex
100
AcDb2dVertex
 10
750.5530080440185
 20
936.6521075663104
 30
0.0
  0
VERTEX
  5
3EBD
330
3EAB
100
AcDbEntity
  8
MODEL
100
AcDbVertex
100
AcDb2dVertex
 10
756.4746946988544
 20
942.5720733008757
 30
0.0
  0
VERTEX
  5
3EBE
330
3EAB
100
AcDbEntity
  8
MODEL
100
AcDbVertex
100
AcDb2dVertex
 10
763.2413532070841
 20
949.3387318091054
 30
0.0
  0
VERTEX
  5
3EBF
330
3EAB
100
AcDbEntity
  8
MODEL
100
AcDbVertex
100
AcDb2dVertex
 10
770.0080117153138
 20
956.9520830910001
 30
0.0
  0
VERTEX
  5
3EC0
330
3EAB
100
AcDbEntity
  8
MODEL
100
AcDbVertex
100
AcDb2dVertex
 10
775.9296983701515
 20
964.5654343728943
 30
0.0
  0
VERTEX
  5
3EC1
330
3EAB
100
AcDbEntity
  8
MODEL
100
AcDbVertex
100
AcDb2dVertex
 10
781.8513850249892
 20
973.02203658791
 30
0.0
  0
VERTEX
  5
3EC2
330
3EAB
100
AcDbEntity
  8
MODEL
100
AcDbVertex
100
AcDb2dVertex
 10
787.7713507595545
 20
982.3287734171336
 30
0.0
  0
VERTEX
  5
3EC3
330
3EAB
100
AcDbEntity
  8
MODEL
100
AcDbVertex
100
AcDb2dVertex
 10
792.8463446407259
 20
991.6320684058137
 30
0.0
  0
VERTEX
  5
3EC4
330
3EAB
100
AcDbEntity
  8
MODEL
100
AcDbVertex
100
AcDb2dVertex
 10
798.7680312955636
 20
1002.628748941823
 30
0.0
  0
VERTEX
  5
3EC5
330
3EAB
100
AcDbEntity
  8
MODEL
100
AcDbVertex
100
AcDb2dVertex
 10
803.843025176735
 20
1013.625429477832
 30
0.0
  0
VERTEX
  5
3EC6
330
3EAB
100
AcDbEntity
  8
MODEL
100
AcDbVertex
100
AcDb2dVertex
 10
808.0730472045143
 20
1025.465360946963
 30
0.0
  0
VERTEX
  5
3EC7
330
3EAB
100
AcDbEntity
  8
MODEL
100
AcDbVertex
100
AcDb2dVertex
 10
809.7647118315726
 20
1031.388768522072
 30
0.0
  0
SEQEND
  5
3EC8
330
3EAB
100
AcDbEntity
  8
MODEL
  0
POLYLINE
  5
3EC9
330
A
100
AcDbEntity
  8
MODEL
100
AcDb2dPolyline
 66
     1
 10
0.0
 20
0.0
 30
0.0
  0
VERTEX
  5
3ECA
330
3EC9
100
AcDbEntity
  8
MODEL
100
AcDbVertex
100
AcDb2dVertex
 10
645.6663593259127
 20
883.362090433593
 30
0.0
  0
VERTEX
  5
3ECB
330
3EC9
100
AcDbEntity
  8
MODEL
100
AcDbVertex
100
AcDb2dVertex
 10
646.5113311793048
 20
883.362090433593
 30
0.0
  0
VERTEX
  5
3ECC
330
3EC9
100
AcDbEntity
  8
MODEL
100
AcDbVertex
100
AcDb2dVertex
 10
647.3580239529692
 20
884.2053413667145
 30
0.0
  0
VERTEX
  5
3ECD
330
3EC9
100
AcDbEntity
  8
MODEL
100
AcDbVertex
100
AcDb2dVertex
 10
648.2029958063631
 20
884.2053413667145
 30
0.0
  0
VERTEX
  5
3ECE
330
3EC9
100
AcDbEntity
  8
MODEL
100
AcDbVertex
100
AcDb2dVertex
 10
649.0496885800276
 20
885.052034140379
 30
0.0
  0
VERTEX
  5
3ECF
330
3EC9
100
AcDbEntity
  8
MODEL
100
AcDbVertex
100
AcDb2dVertex
 10
650.7413532070841
 20
885.052034140379
 30
0.0
  0
SEQEND
  5
3ED0
330
3EC9
100
AcDbEntity
  8
MODEL
  0
POLYLINE
  5
3ED1
330
A
100
AcDbEntity
  8
MODEL
100
AcDb2dPolyline
 66
     1
 10
0.0
 20
0.0
 30
0.0
  0
VERTEX
  5
3ED2
330
3ED1
100
AcDbEntity
  8
MODEL
100
AcDbVertex
100
AcDb2dVertex
 10
571.2296738948407
 20
885.052034140379
 30
0.0
  0
VERTEX
  5
3ED3
330
3ED1
100
AcDbEntity
  8
MODEL
100
AcDbVertex
100
AcDb2dVertex
 10
572.9213385218991
 20
885.052034140379
 30
0.0
  0
VERTEX
  5
3ED4
330
3ED1
100
AcDbEntity
  8
MODEL
100
AcDbVertex
100
AcDb2dVertex
 10
573.7680312955636
 20
884.2053413667145
 30
0.0
  0
VERTEX
  5
3ED5
330
3ED1
100
AcDbEntity
  8
MODEL
100
AcDbVertex
100
AcDb2dVertex
 10
574.6130031489556
 20
884.2053413667145
 30
0.0
  0
VERTEX
  5
3ED6
330
3ED1
100
AcDbEntity
  8
MODEL
100
AcDbVertex
100
AcDb2dVertex
 10
575.4596959226201
 20
883.362090433593
 30
0.0
  0
VERTEX
  5
3ED7
330
3ED1
100
AcDbEntity
  8
MODEL
100
AcDbVertex
100
AcDb2dVertex
 10
583.0713262842437
 20
877.4386828584848
 30
0.0
  0
SEQEND
  5
3ED8
330
3ED1
100
AcDbEntity
  8
MODEL
  0
POLYLINE
  5
3ED9
330
A
100
AcDbEntity
  8
MODEL
100
AcDb2dPolyline
 66
     1
 10
0.0
 20
0.0
 30
0.0
  0
VERTEX
  5
3EDA
330
3ED9
100
AcDbEntity
  8
MODEL
100
AcDbVertex
100
AcDb2dVertex
 10
638.899700817683
 20
877.4386828584848
 30
0.0
  0
VERTEX
  5
3EDB
330
3ED9
100
AcDbEntity
  8
MODEL
100
AcDbVertex
100
AcDb2dVertex
 10
645.6663593259127
 20
883.362090433593
 30
0.0
  0
SEQEND
  5
3EDC
330
3ED9
100
AcDbEntity
  8
MODEL
  0
POLYLINE
  5
3EDD
330
A
100
AcDbEntity
  8
MODEL
100
AcDb2dPolyline
 66
     1
 10
0.0
 20
0.0
 30
0.0
  0
VERTEX
  5
3EDE
330
3EDD
100
AcDbEntity
  8
MODEL
100
AcDbVertex
100
AcDb2dVertex
 10
638.899700817683
 20
877.4386828584848
 30
0.0
  0
VERTEX
  5
3EDF
330
3EDD
100
AcDbEntity
  8
MODEL
100
AcDbVertex
100
AcDb2dVertex
 10
638.0530080440185
 20
877.4386828584848
 30
0.0
  0
VERTEX
  5
3EE0
330
3EDD
100
AcDbEntity
  8
MODEL
100
AcDbVertex
100
AcDb2dVertex
 10
637.2080361906246
 20
876.5954319253633
 30
0.0
  0
VERTEX
  5
3EE1
330
3EDD
100
AcDbEntity
  8
MODEL
100
AcDbVertex
100
AcDb2dVertex
 10
634.6696787899036
 20
876.5954319253633
 30
0.0
  0
SEQEND
  5
3EE2
330
3EDD
100
AcDbEntity
  8
MODEL
  0
POLYLINE
  5
3EE3
330
A
100
AcDbEntity
  8
MODEL
100
AcDb2dPolyline
 66
     1
 10
0.0
 20
0.0
 30
0.0
  0
VERTEX
  5
3EE4
330
3EE3
100
AcDbEntity
  8
MODEL
100
AcDbVertex
100
AcDb2dVertex
 10
586.4546555383586
 20
876.5954319253633
 30
0.0
  0
VERTEX
  5
3EE5
330
3EE3
100
AcDbEntity
  8
MODEL
100
AcDbVertex
100
AcDb2dVertex
 10
583.9180190579082
 20
876.5954319253633
 30
0.0
  0
VERTEX
  5
3EE6
330
3EE3
100
AcDbEntity
  8
MODEL
100
AcDbVertex
100
AcDb2dVertex
 10
583.9180190579082
 20
877.4386828584848
 30
0.0
  0
VERTEX
  5
3EE7
330
3EE3
100
AcDbEntity
  8
MODEL
100
AcDbVertex
100
AcDb2dVertex
 10
583.0713262842437
 20
877.4386828584848
 30
0.0
  0
SEQEND
  5
3EE8
330
3EE3
100
AcDbEntity
  8
MODEL
  0
POLYLINE
  5
3EE9
330
A
100
AcDbEntity
  8
MODEL
100
AcDb2dPolyline
 66
     1
 10
0.0
 20
0.0
 30
0.0
  0
VERTEX
  5
3EEA
330
3EE9
100
AcDbEntity
  8
MODEL
100
AcDbVertex
100
AcDb2dVertex
 10
835.1396812374351
 20
990.7853756321492
 30
0.0
  0
VERTEX
  5
3EEB
330
3EE9
100
AcDbEntity
  8
MODEL
100
AcDbVertex
100
AcDb2dVertex
 10
386.8313458644916
 20
990.7853756321492
 30
0.0
  0
SEQEND
  5
3EEC
330
3EE9
100
AcDbEntity
  8
MODEL
  0
POLYLINE
  5
3EED
330
A
100
AcDbEntity
  8
MODEL
100
AcDb2dPolyline
 66
     1
 10
0.0
 20
0.0
 30
0.0
  0
VERTEX
  5
3EEE
330
3EED
100
AcDbEntity
  8
MODEL
100
AcDbVertex
100
AcDb2dVertex
 10
389.367982344942
 20
1039.002119803966
 30
0.0
  0
VERTEX
  5
3EEF
330
3EED
100
AcDbEntity
  8
MODEL
100
AcDbVertex
100
AcDb2dVertex
 10
831.7563519833202
 20
1039.002119803966
 30
0.0
  0
SEQEND
  5
3EF0
330
3EED
100
AcDbEntity
  8
MODEL
  0
POLYLINE
  5
3EF1
330
A
100
AcDbEntity
  8
MODEL
100
AcDb2dPolyline
 66
     1
 10
0.0
 20
0.0
 30
0.0
  0
VERTEX
  5
3EF2
330
3EF1
100
AcDbEntity
  8
MODEL
100
AcDbVertex
100
AcDb2dVertex
 10
650.7413532070841
 20
885.052034140379
 30
0.0
  0
VERTEX
  5
3EF3
330
3EF1
100
AcDbEntity
  8
MODEL
100
AcDbVertex
100
AcDb2dVertex
 10
571.2296738948407
 20
885.052034140379
 30
0.0
  0
SEQEND
  5
3EF4
330
3EF1
100
AcDbEntity
  8
MODEL
  0
POLYLINE
  5
3EF5
330
A
100
AcDbEntity
  8
MODEL
100
AcDb2dPolyline
 66
     1
 10
0.0
 20
0.0
 30
0.0
  0
VERTEX
  5
3EF6
330
3EF5
100
AcDbEntity
  8
MODEL
100
AcDbVertex
100
AcDb2dVertex
 10
645.6663593259127
 20
883.362090433593
 30
0.0
  0
VERTEX
  5
3EF7
330
3EF5
100
AcDbEntity
  8
MODEL
100
AcDbVertex
100
AcDb2dVertex
 10
575.4596959226201
 20
883.362090433593
 30
0.0
  0
SEQEND
  5
3EF8
330
3EF5
100
AcDbEntity
  8
MODEL
  0
POLYLINE
  5
3EF9
330
A
100
AcDbEntity
  8
MODEL
100
AcDb2dPolyline
 66
     1
 10
0.0
 20
0.0
 30
0.0
  0
VERTEX
  5
3EFA
330
3EF9
100
AcDbEntity
  8
MODEL
100
AcDbVertex
100
AcDb2dVertex
 10
638.899700817683
 20
877.4386828584848
 30
0.0
  0
VERTEX
  5
3EFB
330
3EF9
100
AcDbEntity
  8
MODEL
100
AcDbVertex
100
AcDb2dVertex
 10
583.0713262842437
 20
877.4386828584848
 30
0.0
  0
SEQEND
  5
3EFC
330
3EF9
100
AcDbEntity
  8
MODEL
  0
POLYLINE
  5
3EFD
330
A
100
AcDbEntity
  8
MODEL
100
AcDb2dPolyline
 66
     1
 10
0.0
 20
0.0
 30
0.0
  0
VERTEX
  5
3EFE
330
3EFD
100
AcDbEntity
  8
MODEL
100
AcDbVertex
100
AcDb2dVertex
 10
634.6696787899036
 20
876.5954319253633
 30
0.0
  0
VERTEX
  5
3EFF
330
3EFD
100
AcDbEntity
  8
MODEL
100
AcDbVertex
100
AcDb2dVertex
 10
586.4546555383586
 20
876.5954319253633
 30
0.0
  0
SEQEND
  5
3F00
330
3EFD
100
AcDbEntity
  8
MODEL
  0
POLYLINE
  5
3F01
330
A
100
AcDbEntity
  8
MODEL
100
AcDb2dPolyline
 66
     1
 10
0.0
 20
0.0
 30
0.0
  0
VERTEX
  5
3F02
330
3F01
100
AcDbEntity
  8
MODEL
100
AcDbVertex
100
AcDb2dVertex
 10
1713.206478031169
 20
1039.002119803966
 30
0.0
  0
VERTEX
  5
3F03
330
3F01
100
AcDbEntity
  8
MODEL
100
AcDbVertex
100
AcDb2dVertex
 10
1708.97645600339
 20
1031.388768522072
 30
0.0
  0
VERTEX
  5
3F04
330
3F01
100
AcDbEntity
  8
MODEL
100
AcDbVertex
100
AcDb2dVertex
 10
1708.129763229724
 20
1030.542075748407
 30
0.0
  0
SEQEND
  5
3F05
330
3F01
100
AcDbEntity
  8
MODEL
  0
POLYLINE
  5
3F06
330
A
100
AcDbEntity
  8
MODEL
100
AcDb2dPolyline
 66
     1
 10
0.0
 20
0.0
 30
0.0
  0
VERTEX
  5
3F07
330
3F06
100
AcDbEntity
  8
MODEL
100
AcDbVertex
100
AcDb2dVertex
 10
1703.899741201944
 20
1021.238780759727
 30
0.0
  0
VERTEX
  5
3F08
330
3F06
100
AcDbEntity
  8
MODEL
100
AcDbVertex
100
AcDb2dVertex
 10
1700.51641194783
 20
1016.162065958283
 30
0.0
  0
VERTEX
  5
3F09
330
3F06
100
AcDbEntity
  8
MODEL
100
AcDbVertex
100
AcDb2dVertex
 10
1697.979775467379
 20
1012.778736704168
 30
0.0
  0
SEQEND
  5
3F0A
330
3F06
100
AcDbEntity
  8
MODEL
  0
POLYLINE
  5
3F0B
330
A
100
AcDbEntity
  8
MODEL
100
AcDb2dPolyline
 66
     1
 10
0.0
 20
0.0
 30
0.0
  0
VERTEX
  5
3F0C
330
3F0B
100
AcDbEntity
  8
MODEL
100
AcDbVertex
100
AcDb2dVertex
 10
1692.903060665935
 20
1004.318692648609
 30
0.0
  0
VERTEX
  5
3F0D
330
3F0B
100
AcDbEntity
  8
MODEL
100
AcDbVertex
100
AcDb2dVertex
 10
1691.213116959149
 20
1001.782056168159
 30
0.0
  0
VERTEX
  5
3F0E
330
3F0B
100
AcDbEntity
  8
MODEL
100
AcDbVertex
100
AcDb2dVertex
 10
1686.98309493137
 20
995.8620904335935
 30
0.0
  0
SEQEND
  5
3F0F
330
3F0B
100
AcDbEntity
  8
MODEL
  0
POLYLINE
  5
3F10
330
A
100
AcDbEntity
  8
MODEL
100
AcDb2dPolyline
 66
     1
 10
0.0
 20
0.0
 30
0.0
  0
VERTEX
  5
3F11
330
3F10
100
AcDbEntity
  8
MODEL
100
AcDbVertex
100
AcDb2dVertex
 10
1681.063129196805
 20
988.2487391516993
 30
0.0
  0
VERTEX
  5
3F12
330
3F10
100
AcDbEntity
  8
MODEL
100
AcDbVertex
100
AcDb2dVertex
 10
1675.986414395361
 20
981.4820806434695
 30
0.0
  0
VERTEX
  5
3F13
330
3F10
100
AcDbEntity
  8
MODEL
100
AcDbVertex
100
AcDb2dVertex
 10
1675.139721621696
 20
980.6353878698051
 30
0.0
  0
SEQEND
  5
3F14
330
3F10
100
AcDbEntity
  8
MODEL
  0
POLYLINE
  5
3F15
330
A
100
AcDbEntity
  8
MODEL
100
AcDb2dPolyline
 66
     1
 10
0.0
 20
0.0
 30
0.0
  0
VERTEX
  5
3F16
330
3F15
100
AcDbEntity
  8
MODEL
100
AcDbVertex
100
AcDb2dVertex
 10
1668.373063113467
 20
973.0220365879104
 30
0.0
  0
VERTEX
  5
3F17
330
3F15
100
AcDbEntity
  8
MODEL
100
AcDbVertex
100
AcDb2dVertex
 10
1664.143041085687
 20
968.7920145601311
 30
0.0
  0
VERTEX
  5
3F18
330
3F15
100
AcDbEntity
  8
MODEL
100
AcDbVertex
100
AcDb2dVertex
 10
1661.606404605237
 20
966.2553780796807
 30
0.0
  0
SEQEND
  5
3F19
330
3F15
100
AcDbEntity
  8
MODEL
  0
POLYLINE
  5
3F1A
330
A
100
AcDbEntity
  8
MODEL
100
AcDb2dPolyline
 66
     1
 10
0.0
 20
0.0
 30
0.0
  0
VERTEX
  5
3F1B
330
3F1A
100
AcDbEntity
  8
MODEL
100
AcDbVertex
100
AcDb2dVertex
 10
1654.839746097007
 20
959.4887195714509
 30
0.0
  0
VERTEX
  5
3F1C
330
3F1A
100
AcDbEntity
  8
MODEL
100
AcDbVertex
100
AcDb2dVertex
 10
1652.303109616557
 20
956.9520830910005
 30
0.0
  0
VERTEX
  5
3F1D
330
3F1A
100
AcDbEntity
  8
MODEL
100
AcDbVertex
100
AcDb2dVertex
 10
1647.226394815113
 20
952.7220610632212
 30
0.0
  0
SEQEND
  5
3F1E
330
3F1A
100
AcDbEntity
  8
MODEL
  0
POLYLINE
  5
3F1F
330
A
100
AcDbEntity
  8
MODEL
100
AcDb2dPolyline
 66
     1
 10
0.0
 20
0.0
 30
0.0
  0
VERTEX
  5
3F20
330
3F1F
100
AcDbEntity
  8
MODEL
100
AcDbVertex
100
AcDb2dVertex
 10
1639.616485373762
 20
945.955402554991
 30
0.0
  0
VERTEX
  5
3F21
330
3F1F
100
AcDbEntity
  8
MODEL
100
AcDbVertex
100
AcDb2dVertex
 10
1638.769792600097
 20
945.955402554991
 30
0.0
  0
VERTEX
  5
3F22
330
3F1F
100
AcDbEntity
  8
MODEL
100
AcDbVertex
100
AcDb2dVertex
 10
1632.003134091868
 20
940.8786877535472
 30
0.0
  0
VERTEX
  5
3F23
330
3F1F
100
AcDbEntity
  8
MODEL
100
AcDbVertex
100
AcDb2dVertex
 10
1631.156441318203
 20
940.0354368204257
 30
0.0
  0
SEQEND
  5
3F24
330
3F1F
100
AcDbEntity
  8
MODEL
  0
POLYLINE
  5
3F25
330
A
100
AcDbEntity
  8
MODEL
100
AcDb2dPolyline
 66
     1
 10
0.0
 20
0.0
 30
0.0
  0
VERTEX
  5
3F26
330
3F25
100
AcDbEntity
  8
MODEL
100
AcDbVertex
100
AcDb2dVertex
 10
1622.696397262644
 20
934.1120292453174
 30
0.0
  0
VERTEX
  5
3F27
330
3F25
100
AcDbEntity
  8
MODEL
100
AcDbVertex
100
AcDb2dVertex
 10
1618.466375234865
 20
930.7286999912026
 30
0.0
  0
VERTEX
  5
3F28
330
3F25
100
AcDbEntity
  8
MODEL
100
AcDbVertex
100
AcDb2dVertex
 10
1614.239795047629
 20
928.1920635107522
 30
0.0
  0
SEQEND
  5
3F29
330
3F25
100
AcDbEntity
  8
MODEL
  0
POLYLINE
  5
3F2A
330
A
100
AcDbEntity
  8
MODEL
100
AcDb2dPolyline
 66
     1
 10
0.0
 20
0.0
 30
0.0
  0
VERTEX
  5
3F2B
330
3F2A
100
AcDbEntity
  8
MODEL
100
AcDbVertex
100
AcDb2dVertex
 10
1605.77975099207
 20
922.2720977761869
 30
0.0
  0
VERTEX
  5
3F2C
330
3F2A
100
AcDbEntity
  8
MODEL
100
AcDbVertex
100
AcDb2dVertex
 10
1604.089807285284
 20
921.4254050025224
 30
0.0
  0
VERTEX
  5
3F2D
330
3F2A
100
AcDbEntity
  8
MODEL
100
AcDbVertex
100
AcDb2dVertex
 10
1596.47645600339
 20
917.1953829747426
 30
0.0
  0
SEQEND
  5
3F2E
330
3F2A
100
AcDbEntity
  8
MODEL
  0
POLYLINE
  5
3F2F
330
A
100
AcDbEntity
  8
MODEL
100
AcDb2dPolyline
 66
     1
 10
0.0
 20
0.0
 30
0.0
  0
VERTEX
  5
3F30
330
3F2F
100
AcDbEntity
  8
MODEL
100
AcDbVertex
100
AcDb2dVertex
 10
1587.169719174165
 20
912.9653609469633
 30
0.0
  0
VERTEX
  5
3F31
330
3F2F
100
AcDbEntity
  8
MODEL
100
AcDbVertex
100
AcDb2dVertex
 10
1581.2497534396
 20
909.5820316928484
 30
0.0
  0
VERTEX
  5
3F32
330
3F2F
100
AcDbEntity
  8
MODEL
100
AcDbVertex
100
AcDb2dVertex
 10
1577.866424185485
 20
907.8920879860625
 30
0.0
  0
SEQEND
  5
3F33
330
3F2F
100
AcDbEntity
  8
MODEL
  0
POLYLINE
  5
3F34
330
A
100
AcDbEntity
  8
MODEL
100
AcDb2dPolyline
 66
     1
 10
0.0
 20
0.0
 30
0.0
  0
VERTEX
  5
3F35
330
3F34
100
AcDbEntity
  8
MODEL
100
AcDbVertex
100
AcDb2dVertex
 10
1568.563129196805
 20
904.5087587319476
 30
0.0
  0
VERTEX
  5
3F36
330
3F34
100
AcDbEntity
  8
MODEL
100
AcDbVertex
100
AcDb2dVertex
 10
1565.17979994269
 20
902.8153731846187
 30
0.0
  0
VERTEX
  5
3F37
330
3F34
100
AcDbEntity
  8
MODEL
100
AcDbVertex
100
AcDb2dVertex
 10
1559.256392367582
 20
901.1254294778328
 30
0.0
  0
SEQEND
  5
3F38
330
3F34
100
AcDbEntity
  8
MODEL
  0
POLYLINE
  5
3F39
330
A
100
AcDbEntity
  8
MODEL
100
AcDb2dPolyline
 66
     1
 10
0.0
 20
0.0
 30
0.0
  0
VERTEX
  5
3F3A
330
3F39
100
AcDbEntity
  8
MODEL
100
AcDbVertex
100
AcDb2dVertex
 10
1549.953097378901
 20
896.8954074500534
 30
0.0
  0
VERTEX
  5
3F3B
330
3F39
100
AcDbEntity
  8
MODEL
100
AcDbVertex
100
AcDb2dVertex
 10
1549.106404605237
 20
896.8954074500534
 30
0.0
  0
VERTEX
  5
3F3C
330
3F39
100
AcDbEntity
  8
MODEL
100
AcDbVertex
100
AcDb2dVertex
 10
1541.493053323343
 20
895.202021902724
 30
0.0
  0
VERTEX
  5
3F3D
330
3F39
100
AcDbEntity
  8
MODEL
100
AcDbVertex
100
AcDb2dVertex
 10
1539.803109616557
 20
894.358770969603
 30
0.0
  0
SEQEND
  5
3F3E
330
3F39
100
AcDbEntity
  8
MODEL
  0
POLYLINE
  5
3F3F
330
A
100
AcDbEntity
  8
MODEL
100
AcDb2dPolyline
 66
     1
 10
0.0
 20
0.0
 30
0.0
  0
VERTEX
  5
3F40
330
3F3F
100
AcDbEntity
  8
MODEL
100
AcDbVertex
100
AcDb2dVertex
 10
1529.653121854212
 20
891.8186926486092
 30
0.0
  0
VERTEX
  5
3F41
330
3F3F
100
AcDbEntity
  8
MODEL
100
AcDbVertex
100
AcDb2dVertex
 10
1524.576407052768
 20
890.9754417154882
 30
0.0
  0
VERTEX
  5
3F42
330
3F3F
100
AcDbEntity
  8
MODEL
100
AcDbVertex
100
AcDb2dVertex
 10
1519.503134091868
 20
890.1287489418232
 30
0.0
  0
SEQEND
  5
3F43
330
3F3F
100
AcDbEntity
  8
MODEL
  0
POLYLINE
  5
3F44
330
A
100
AcDbEntity
  8
MODEL
100
AcDb2dPolyline
 66
     1
 10
0.0
 20
0.0
 30
0.0
  0
VERTEX
  5
3F45
330
3F44
100
AcDbEntity
  8
MODEL
100
AcDbVertex
100
AcDb2dVertex
 10
1509.34970448898
 20
887.5886706208298
 30
0.0
  0
VERTEX
  5
3F46
330
3F44
100
AcDbEntity
  8
MODEL
100
AcDbVertex
100
AcDb2dVertex
 10
1507.659760782194
 20
887.5886706208298
 30
0.0
  0
VERTEX
  5
3F47
330
3F44
100
AcDbEntity
  8
MODEL
100
AcDbVertex
100
AcDb2dVertex
 10
1499.199716726635
 20
886.7454196877084
 30
0.0
  0
SEQEND
  5
3F48
330
3F44
100
AcDbEntity
  8
MODEL
  0
POLYLINE
  5
3F49
330
A
100
AcDbEntity
  8
MODEL
100
AcDb2dPolyline
 66
     1
 10
0.0
 20
0.0
 30
0.0
  0
VERTEX
  5
3F4A
330
3F49
100
AcDbEntity
  8
MODEL
100
AcDbVertex
100
AcDb2dVertex
 10
573.7680312955636
 20
885.8987269140434
 30
0.0
  0
VERTEX
  5
3F4B
330
3F49
100
AcDbEntity
  8
MODEL
100
AcDbVertex
100
AcDb2dVertex
 10
566.9996518670614
 20
887.5886706208294
 30
0.0
  0
VERTEX
  5
3F4C
330
3F49
100
AcDbEntity
  8
MODEL
100
AcDbVertex
100
AcDb2dVertex
 10
563.6163226129465
 20
888.4353633944938
 30
0.0
  0
SEQEND
  5
3F4D
330
3F49
100
AcDbEntity
  8
MODEL
  0
POLYLINE
  5
3F4E
330
A
100
AcDbEntity
  8
MODEL
100
AcDb2dPolyline
 66
     1
 10
0.0
 20
0.0
 30
0.0
  0
VERTEX
  5
3F4F
330
3F4E
100
AcDbEntity
  8
MODEL
100
AcDbVertex
100
AcDb2dVertex
 10
554.3130276242664
 20
890.9754417154877
 30
0.0
  0
VERTEX
  5
3F50
330
3F4E
100
AcDbEntity
  8
MODEL
100
AcDbVertex
100
AcDb2dVertex
 10
552.6213629972099
 20
891.8186926486087
 30
0.0
  0
VERTEX
  5
3F51
330
3F4E
100
AcDbEntity
  8
MODEL
100
AcDbVertex
100
AcDb2dVertex
 10
545.8529835687077
 20
894.3587709696026
 30
0.0
  0
VERTEX
  5
3F52
330
3F4E
100
AcDbEntity
  8
MODEL
100
AcDbVertex
100
AcDb2dVertex
 10
545.0080117153138
 20
894.3587709696026
 30
0.0
  0
SEQEND
  5
3F53
330
3F4E
100
AcDbEntity
  8
MODEL
  0
POLYLINE
  5
3F54
330
A
100
AcDbEntity
  8
MODEL
100
AcDb2dPolyline
 66
     1
 10
0.0
 20
0.0
 30
0.0
  0
VERTEX
  5
3F55
330
3F54
100
AcDbEntity
  8
MODEL
100
AcDbVertex
100
AcDb2dVertex
 10
535.7029958063631
 20
898.5853511568384
 30
0.0
  0
VERTEX
  5
3F56
330
3F54
100
AcDbEntity
  8
MODEL
100
AcDbVertex
100
AcDb2dVertex
 10
532.3196665522482
 20
899.4320439305034
 30
0.0
  0
VERTEX
  5
3F57
330
3F54
100
AcDbEntity
  8
MODEL
100
AcDbVertex
100
AcDb2dVertex
 10
526.3979798974106
 20
901.9686804109533
 30
0.0
  0
SEQEND
  5
3F58
330
3F54
100
AcDbEntity
  8
MODEL
  0
POLYLINE
  5
3F59
330
A
100
AcDbEntity
  8
MODEL
100
AcDb2dPolyline
 66
     1
 10
0.0
 20
0.0
 30
0.0
  0
VERTEX
  5
3F5A
330
3F59
100
AcDbEntity
  8
MODEL
100
AcDbVertex
100
AcDb2dVertex
 10
517.0946849087304
 20
906.1987024387331
 30
0.0
  0
VERTEX
  5
3F5B
330
3F59
100
AcDbEntity
  8
MODEL
100
AcDbVertex
100
AcDb2dVertex
 10
512.8646628809511
 20
908.7353389191835
 30
0.0
  0
VERTEX
  5
3F5C
330
3F59
100
AcDbEntity
  8
MODEL
100
AcDbVertex
100
AcDb2dVertex
 10
508.6363617734442
 20
911.2754172401769
 30
0.0
  0
SEQEND
  5
3F5D
330
3F59
100
AcDbEntity
  8
MODEL
  0
POLYLINE
  5
3F5E
330
A
100
AcDbEntity
  8
MODEL
100
AcDb2dPolyline
 66
     1
 10
0.0
 20
0.0
 30
0.0
  0
VERTEX
  5
3F5F
330
3F5E
100
AcDbEntity
  8
MODEL
100
AcDbVertex
100
AcDb2dVertex
 10
500.1763177178855
 20
916.3486902010777
 30
0.0
  0
VERTEX
  5
3F60
330
3F5E
100
AcDbEntity
  8
MODEL
100
AcDbVertex
100
AcDb2dVertex
 10
494.2563519833202
 20
920.5787122288571
 30
0.0
  0
VERTEX
  5
3F61
330
3F5E
100
AcDbEntity
  8
MODEL
100
AcDbVertex
100
AcDb2dVertex
 10
491.7179945825974
 20
922.2720977761865
 30
0.0
  0
SEQEND
  5
3F62
330
3F5E
100
AcDbEntity
  8
MODEL
  0
POLYLINE
  5
3F63
330
A
100
AcDbEntity
  8
MODEL
100
AcDb2dPolyline
 66
     1
 10
0.0
 20
0.0
 30
0.0
  0
VERTEX
  5
3F64
330
3F63
100
AcDbEntity
  8
MODEL
100
AcDbVertex
100
AcDb2dVertex
 10
483.2596714473093
 20
928.1920635107517
 30
0.0
  0
VERTEX
  5
3F65
330
3F63
100
AcDbEntity
  8
MODEL
100
AcDbVertex
100
AcDb2dVertex
 10
482.4129786736448
 20
929.0387562844162
 30
0.0
  0
VERTEX
  5
3F66
330
3F63
100
AcDbEntity
  8
MODEL
100
AcDbVertex
100
AcDb2dVertex
 10
477.3379847924734
 20
934.112029245317
 30
0.0
  0
VERTEX
  5
3F67
330
3F63
100
AcDbEntity
  8
MODEL
100
AcDbVertex
100
AcDb2dVertex
 10
475.6463201654151
 20
934.9587220189815
 30
0.0
  0
SEQEND
  5
3F68
330
3F63
100
AcDbEntity
  8
MODEL
  0
POLYLINE
  5
3F69
330
A
100
AcDbEntity
  8
MODEL
100
AcDb2dPolyline
 66
     1
 10
0.0
 20
0.0
 30
0.0
  0
VERTEX
  5
3F6A
330
3F69
100
AcDbEntity
  8
MODEL
100
AcDbVertex
100
AcDb2dVertex
 10
468.8796616571854
 20
941.7253805272112
 30
0.0
  0
VERTEX
  5
3F6B
330
3F69
100
AcDbEntity
  8
MODEL
100
AcDbVertex
100
AcDb2dVertex
 10
466.343025176735
 20
944.2620170076616
 30
0.0
  0
VERTEX
  5
3F6C
330
3F69
100
AcDbEntity
  8
MODEL
100
AcDbVertex
100
AcDb2dVertex
 10
462.1130031489556
 20
948.4920390354409
 30
0.0
  0
SEQEND
  5
3F6D
330
3F69
100
AcDbEntity
  8
MODEL
  0
POLYLINE
  5
3F6E
330
A
100
AcDbEntity
  8
MODEL
100
AcDb2dPolyline
 66
     1
 10
0.0
 20
0.0
 30
0.0
  0
VERTEX
  5
3F6F
330
3F6E
100
AcDbEntity
  8
MODEL
100
AcDbVertex
100
AcDb2dVertex
 10
455.3463446407259
 20
956.1053903173356
 30
0.0
  0
VERTEX
  5
3F70
330
3F6E
100
AcDbEntity
  8
MODEL
100
AcDbVertex
100
AcDb2dVertex
 10
451.963015386611
 20
960.335412345115
 30
0.0
  0
VERTEX
  5
3F71
330
3F6E
100
AcDbEntity
  8
MODEL
100
AcDbVertex
100
AcDb2dVertex
 10
448.5796861324961
 20
963.7187415992298
 30
0.0
  0
SEQEND
  5
3F72
330
3F6E
100
AcDbEntity
  8
MODEL
  0
POLYLINE
  5
3F73
330
A
100
AcDbEntity
  8
MODEL
100
AcDb2dPolyline
 66
     1
 10
0.0
 20
0.0
 30
0.0
  0
VERTEX
  5
3F74
330
3F73
100
AcDbEntity
  8
MODEL
100
AcDbVertex
100
AcDb2dVertex
 10
442.6579994776603
 20
971.332092881124
 30
0.0
  0
VERTEX
  5
3F75
330
3F73
100
AcDbEntity
  8
MODEL
100
AcDbVertex
100
AcDb2dVertex
 10
438.4279774498791
 20
977.2520586156893
 30
0.0
  0
VERTEX
  5
3F76
330
3F73
100
AcDbEntity
  8
MODEL
100
AcDbVertex
100
AcDb2dVertex
 10
436.7363128228226
 20
979.7886950961397
 30
0.0
  0
SEQEND
  5
3F77
330
3F73
100
AcDbEntity
  8
MODEL
  0
POLYLINE
  5
3F78
330
A
100
AcDbEntity
  8
MODEL
100
AcDb2dPolyline
 66
     1
 10
0.0
 20
0.0
 30
0.0
  0
VERTEX
  5
3F79
330
3F78
100
AcDbEntity
  8
MODEL
100
AcDbVertex
100
AcDb2dVertex
 10
431.6613189416494
 20
988.2487391516988
 30
0.0
  0
VERTEX
  5
3F7A
330
3F78
100
AcDbEntity
  8
MODEL
100
AcDbVertex
100
AcDb2dVertex
 10
430.8163470882573
 20
989.9386828584848
 30
0.0
  0
VERTEX
  5
3F7B
330
3F78
100
AcDbEntity
  8
MODEL
100
AcDbVertex
100
AcDb2dVertex
 10
427.4330178341424
 20
996.708783207258
 30
0.0
  0
VERTEX
  5
3F7C
330
3F78
100
AcDbEntity
  8
MODEL
100
AcDbVertex
100
AcDb2dVertex
 10
427.4330178341424
 20
997.552034140379
 30
0.0
  0
SEQEND
  5
3F7D
330
3F78
100
AcDbEntity
  8
MODEL
  0
POLYLINE
  5
3F7E
330
A
100
AcDbEntity
  8
MODEL
100
AcDb2dPolyline
 66
     1
 10
0.0
 20
0.0
 30
0.0
  0
VERTEX
  5
3F7F
330
3F7E
100
AcDbEntity
  8
MODEL
100
AcDbVertex
100
AcDb2dVertex
 10
423.2029958063631
 20
1006.858770969603
 30
0.0
  0
VERTEX
  5
3F80
330
3F7E
100
AcDbEntity
  8
MODEL
100
AcDbVertex
100
AcDb2dVertex
 10
421.5113311793048
 20
1009.395407450053
 30
0.0
  0
VERTEX
  5
3F81
330
3F7E
100
AcDbEntity
  8
MODEL
100
AcDbVertex
100
AcDb2dVertex
 10
418.9729737785838
 20
1016.162065958283
 30
0.0
  0
SEQEND
  5
3F82
330
3F7E
100
AcDbEntity
  8
MODEL
  0
POLYLINE
  5
3F83
330
A
100
AcDbEntity
  8
MODEL
100
AcDb2dPolyline
 66
     1
 10
0.0
 20
0.0
 30
0.0
  0
VERTEX
  5
3F84
330
3F83
100
AcDbEntity
  8
MODEL
100
AcDbVertex
100
AcDb2dVertex
 10
415.5896445244689
 20
1025.465360946963
 30
0.0
  0
VERTEX
  5
3F85
330
3F83
100
AcDbEntity
  8
MODEL
100
AcDbVertex
100
AcDb2dVertex
 10
413.8979798974106
 20
1029.695382974742
 30
0.0
  0
VERTEX
  5
3F86
330
3F83
100
AcDbEntity
  8
MODEL
100
AcDbVertex
100
AcDb2dVertex
 10
412.206315270354
 20
1034.772097776186
 30
0.0
  0
SEQEND
  5
3F87
330
3F83
100
AcDbEntity
  8
MODEL
  0
POLYLINE
  5
3F88
330
A
100
AcDbEntity
  8
MODEL
100
AcDb2dPolyline
 66
     1
 10
0.0
 20
0.0
 30
0.0
  0
VERTEX
  5
3F89
330
3F88
100
AcDbEntity
  8
MODEL
100
AcDbVertex
100
AcDb2dVertex
 10
1398.543090036309
 20
894.358770969603
 30
0.0
  0
VERTEX
  5
3F8A
330
3F88
100
AcDbEntity
  8
MODEL
100
AcDbVertex
100
AcDb2dVertex
 10
1396.006453555859
 20
896.0487146763885
 30
0.0
  0
VERTEX
  5
3F8B
330
3F88
100
AcDbEntity
  8
MODEL
100
AcDbVertex
100
AcDb2dVertex
 10
1394.31306800853
 20
896.8954074500534
 30
0.0
  0
VERTEX
  5
3F8C
330
3F88
100
AcDbEntity
  8
MODEL
100
AcDbVertex
100
AcDb2dVertex
 10
1392.623124301744
 20
898.5853511568389
 30
0.0
  0
VERTEX
  5
3F8D
330
3F88
100
AcDbEntity
  8
MODEL
100
AcDbVertex
100
AcDb2dVertex
 10
1390.929738754415
 20
900.2787367041683
 30
0.0
  0
SEQEND
  5
3F8E
330
3F88
100
AcDbEntity
  8
MODEL
  0
POLYLINE
  5
3F8F
330
A
100
AcDbEntity
  8
MODEL
100
AcDb2dPolyline
 66
     1
 10
0.0
 20
0.0
 30
0.0
  0
VERTEX
  5
3F90
330
3F8F
100
AcDbEntity
  8
MODEL
100
AcDbVertex
100
AcDb2dVertex
 10
1388.393102273964
 20
908.735338919184
 30
0.0
  0
VERTEX
  5
3F91
330
3F8F
100
AcDbEntity
  8
MODEL
100
AcDbVertex
100
AcDb2dVertex
 10
1388.393102273964
 20
913.8120537206278
 30
0.0
  0
SEQEND
  5
3F92
330
3F8F
100
AcDbEntity
  8
MODEL
  0
POLYLINE
  5
3F93
330
A
100
AcDbEntity
  8
MODEL
100
AcDb2dPolyline
 66
     1
 10
0.0
 20
0.0
 30
0.0
  0
VERTEX
  5
3F94
330
3F93
100
AcDbEntity
  8
MODEL
100
AcDbVertex
100
AcDb2dVertex
 10
1388.393102273964
 20
923.9620414829724
 30
0.0
  0
VERTEX
  5
3F95
330
3F93
100
AcDbEntity
  8
MODEL
100
AcDbVertex
100
AcDb2dVertex
 10
1388.393102273964
 20
934.1120292453174
 30
0.0
  0
SEQEND
  5
3F96
330
3F93
100
AcDbEntity
  8
MODEL
  0
POLYLINE
  5
3F97
330
A
100
AcDbEntity
  8
MODEL
100
AcDb2dPolyline
 66
     1
 10
0.0
 20
0.0
 30
0.0
  0
VERTEX
  5
3F98
330
3F97
100
AcDbEntity
  8
MODEL
100
AcDbVertex
100
AcDb2dVertex
 10
1388.393102273964
 20
944.262017007662
 30
0.0
  0
VERTEX
  5
3F99
330
3F97
100
AcDbEntity
  8
MODEL
100
AcDbVertex
100
AcDb2dVertex
 10
1388.393102273964
 20
954.4154466105501
 30
0.0
  0
SEQEND
  5
3F9A
330
3F97
100
AcDbEntity
  8
MODEL
  0
POLYLINE
  5
3F9B
330
A
100
AcDbEntity
  8
MODEL
100
AcDb2dPolyline
 66
     1
 10
0.0
 20
0.0
 30
0.0
  0
VERTEX
  5
3F9C
330
3F9B
100
AcDbEntity
  8
MODEL
100
AcDbVertex
100
AcDb2dVertex
 10
1388.393102273964
 20
964.5654343728947
 30
0.0
  0
VERTEX
  5
3F9D
330
3F9B
100
AcDbEntity
  8
MODEL
100
AcDbVertex
100
AcDb2dVertex
 10
1388.393102273964
 20
974.7154221352398
 30
0.0
  0
SEQEND
  5
3F9E
330
3F9B
100
AcDbEntity
  8
MODEL
  0
POLYLINE
  5
3F9F
330
A
100
AcDbEntity
  8
MODEL
100
AcDb2dPolyline
 66
     1
 10
0.0
 20
0.0
 30
0.0
  0
VERTEX
  5
3FA0
330
3F9F
100
AcDbEntity
  8
MODEL
100
AcDbVertex
100
AcDb2dVertex
 10
1388.393102273964
 20
984.8654098975844
 30
0.0
  0
VERTEX
  5
3FA1
330
3F9F
100
AcDbEntity
  8
MODEL
100
AcDbVertex
100
AcDb2dVertex
 10
1388.393102273964
 20
995.015397659929
 30
0.0
  0
SEQEND
  5
3FA2
330
3F9F
100
AcDbEntity
  8
MODEL
  0
POLYLINE
  5
3FA3
330
A
100
AcDbEntity
  8
MODEL
100
AcDb2dPolyline
 66
     1
 10
0.0
 20
0.0
 30
0.0
  0
VERTEX
  5
3FA4
330
3FA3
100
AcDbEntity
  8
MODEL
100
AcDbVertex
100
AcDb2dVertex
 10
1388.393102273964
 20
1005.165385422274
 30
0.0
  0
VERTEX
  5
3FA5
330
3FA3
100
AcDbEntity
  8
MODEL
100
AcDbVertex
100
AcDb2dVertex
 10
1388.393102273964
 20
1015.315373184619
 30
0.0
  0
SEQEND
  5
3FA6
330
3FA3
100
AcDbEntity
  8
MODEL
  0
POLYLINE
  5
3FA7
330
A
100
AcDbEntity
  8
MODEL
100
AcDb2dPolyline
 66
     1
 10
0.0
 20
0.0
 30
0.0
  0
VERTEX
  5
3FA8
330
3FA7
100
AcDbEntity
  8
MODEL
100
AcDbVertex
100
AcDb2dVertex
 10
1388.393102273964
 20
1025.465360946963
 30
0.0
  0
VERTEX
  5
3FA9
330
3FA7
100
AcDbEntity
  8
MODEL
100
AcDbVertex
100
AcDb2dVertex
 10
1388.393102273964
 20
1031.388768522072
 30
0.0
  0
SEQEND
  5
3FAA
330
3FA7
100
AcDbEntity
  8
MODEL
  0
POLYLINE
  5
3FAB
330
A
100
AcDbEntity
  8
MODEL
100
AcDb2dPolyline
 66
     1
 10
0.0
 20
0.0
 30
0.0
  0
VERTEX
  5
3FAC
330
3FAB
100
AcDbEntity
  8
MODEL
100
AcDbVertex
100
AcDb2dVertex
 10
573.7680312955636
 20
885.8987269140434
 30
0.0
  0
VERTEX
  5
3FAD
330
3FAB
100
AcDbEntity
  8
MODEL
100
AcDbVertex
100
AcDb2dVertex
 10
576.304667776014
 20
884.2053413667145
 30
0.0
  0
SEQEND
  5
3FAE
330
3FAB
100
AcDbEntity
  8
MODEL
  0
POLYLINE
  5
3FAF
330
A
100
AcDbEntity
  8
MODEL
100
AcDb2dPolyline
 66
     1
 10
0.0
 20
0.0
 30
0.0
  0
VERTEX
  5
3FB0
330
3FAF
100
AcDbEntity
  8
MODEL
100
AcDbVertex
100
AcDb2dVertex
 10
584.7629909113002
 20
878.2853756321492
 30
0.0
  0
VERTEX
  5
3FB1
330
3FAF
100
AcDbEntity
  8
MODEL
100
AcDbVertex
100
AcDb2dVertex
 10
587.301348312023
 20
876.5954319253633
 30
0.0
  0
SEQEND
  5
3FB2
330
3FAF
100
AcDbEntity
  8
MODEL
  0
POLYLINE
  5
3FB3
330
A
100
AcDbEntity
  8
MODEL
100
AcDb2dPolyline
 66
     1
 10
0.0
 20
0.0
 30
0.0
  0
VERTEX
  5
3FB4
330
3FB3
100
AcDbEntity
  8
MODEL
100
AcDbVertex
100
AcDb2dVertex
 10
809.7647118315726
 20
1037.308734256637
 30
0.0
  0
VERTEX
  5
3FB5
330
3FB3
100
AcDbEntity
  8
MODEL
100
AcDbVertex
100
AcDb2dVertex
 10
808.0730472045143
 20
1029.695382974742
 30
0.0
  0
VERTEX
  5
3FB6
330
3FB3
100
AcDbEntity
  8
MODEL
100
AcDbVertex
100
AcDb2dVertex
 10
807.2263544308498
 20
1027.158746494292
 30
0.0
  0
SEQEND
  5
3FB7
330
3FB3
100
AcDbEntity
  8
MODEL
  0
POLYLINE
  5
3FB8
330
A
100
AcDbEntity
  8
MODEL
100
AcDb2dPolyline
 66
     1
 10
0.0
 20
0.0
 30
0.0
  0
VERTEX
  5
3FB9
330
3FB8
100
AcDbEntity
  8
MODEL
100
AcDbVertex
100
AcDb2dVertex
 10
803.843025176735
 20
1017.855451505612
 30
0.0
  0
VERTEX
  5
3FBA
330
3FB8
100
AcDbEntity
  8
MODEL
100
AcDbVertex
100
AcDb2dVertex
 10
802.9980533233429
 20
1016.162065958283
 30
0.0
  0
VERTEX
  5
3FBB
330
3FB8
100
AcDbEntity
  8
MODEL
100
AcDbVertex
100
AcDb2dVertex
 10
800.4596959226201
 20
1009.395407450053
 30
0.0
  0
VERTEX
  5
3FBC
330
3FB8
100
AcDbEntity
  8
MODEL
100
AcDbVertex
100
AcDb2dVertex
 10
799.6130031489556
 20
1008.548714676388
 30
0.0
  0
SEQEND
  5
3FBD
330
3FB8
100
AcDbEntity
  8
MODEL
  0
POLYLINE
  5
3FBE
330
A
100
AcDbEntity
  8
MODEL
100
AcDb2dPolyline
 66
     1
 10
0.0
 20
0.0
 30
0.0
  0
VERTEX
  5
3FBF
330
3FBE
100
AcDbEntity
  8
MODEL
100
AcDbVertex
100
AcDb2dVertex
 10
795.3847020414487
 20
999.2454196877079
 30
0.0
  0
VERTEX
  5
3FC0
330
3FBE
100
AcDbEntity
  8
MODEL
100
AcDbVertex
100
AcDb2dVertex
 10
793.6930374143903
 20
996.708783207258
 30
0.0
  0
VERTEX
  5
3FC1
330
3FBE
100
AcDbEntity
  8
MODEL
100
AcDbVertex
100
AcDb2dVertex
 10
790.3097081602755
 20
989.9386828584848
 30
0.0
  0
SEQEND
  5
3FC2
330
3FBE
100
AcDbEntity
  8
MODEL
  0
POLYLINE
  5
3FC3
330
A
100
AcDbEntity
  8
MODEL
100
AcDb2dPolyline
 66
     1
 10
0.0
 20
0.0
 30
0.0
  0
VERTEX
  5
3FC4
330
3FC3
100
AcDbEntity
  8
MODEL
100
AcDbVertex
100
AcDb2dVertex
 10
785.2347142791041
 20
981.4820806434691
 30
0.0
  0
VERTEX
  5
3FC5
330
3FC3
100
AcDbEntity
  8
MODEL
100
AcDbVertex
100
AcDb2dVertex
 10
782.6963568783813
 20
977.2520586156893
 30
0.0
  0
VERTEX
  5
3FC6
330
3FC3
100
AcDbEntity
  8
MODEL
100
AcDbVertex
100
AcDb2dVertex
 10
779.3130276242664
 20
973.02203658791
 30
0.0
  0
SEQEND
  5
3FC7
330
3FC3
100
AcDbEntity
  8
MODEL
  0
POLYLINE
  5
3FC8
330
A
100
AcDbEntity
  8
MODEL
100
AcDb2dPolyline
 66
     1
 10
0.0
 20
0.0
 30
0.0
  0
VERTEX
  5
3FC9
330
3FC8
100
AcDbEntity
  8
MODEL
100
AcDbVertex
100
AcDb2dVertex
 10
773.3913409694305
 20
964.5654343728943
 30
0.0
  0
VERTEX
  5
3FCA
330
3FC8
100
AcDbEntity
  8
MODEL
100
AcDbVertex
100
AcDb2dVertex
 10
770.0080117153138
 20
960.335412345115
 30
0.0
  0
VERTEX
  5
3FCB
330
3FC8
100
AcDbEntity
  8
MODEL
100
AcDbVertex
100
AcDb2dVertex
 10
766.624682461199
 20
956.9520830910001
 30
0.0
  0
SEQEND
  5
3FCC
330
3FC8
100
AcDbEntity
  8
MODEL
  0
POLYLINE
  5
3FCD
330
A
100
AcDbEntity
  8
MODEL
100
AcDb2dPolyline
 66
     1
 10
0.0
 20
0.0
 30
0.0
  0
VERTEX
  5
3FCE
330
3FCD
100
AcDbEntity
  8
MODEL
100
AcDbVertex
100
AcDb2dVertex
 10
760.7047167266337
 20
949.3387318091054
 30
0.0
  0
VERTEX
  5
3FCF
330
3FCD
100
AcDbEntity
  8
MODEL
100
AcDbVertex
100
AcDb2dVertex
 10
755.6280019251899
 20
944.2620170076616
 30
0.0
  0
VERTEX
  5
3FD0
330
3FCD
100
AcDbEntity
  8
MODEL
100
AcDbVertex
100
AcDb2dVertex
 10
753.0913654447395
 20
942.5720733008757
 30
0.0
  0
SEQEND
  5
3FD1
330
3FCD
100
AcDbEntity
  8
MODEL
  0
POLYLINE
  5
3FD2
330
A
100
AcDbEntity
  8
MODEL
100
AcDb2dPolyline
 66
     1
 10
0.0
 20
0.0
 30
0.0
  0
VERTEX
  5
3FD3
330
3FD2
100
AcDbEntity
  8
MODEL
100
AcDbVertex
100
AcDb2dVertex
 10
746.3247069365098
 20
935.8054147926459
 30
0.0
  0
VERTEX
  5
3FD4
330
3FD2
100
AcDbEntity
  8
MODEL
100
AcDbVertex
100
AcDb2dVertex
 10
744.6330423094532
 20
934.112029245317
 30
0.0
  0
VERTEX
  5
3FD5
330
3FD2
100
AcDbEntity
  8
MODEL
100
AcDbVertex
100
AcDb2dVertex
 10
738.7113556546155
 20
929.0387562844162
 30
0.0
  0
SEQEND
  5
3FD6
330
3FD2
100
AcDbEntity
  8
MODEL
  0
POLYLINE
  5
3FD7
330
A
100
AcDbEntity
  8
MODEL
100
AcDb2dPolyline
 66
     1
 10
0.0
 20
0.0
 30
0.0
  0
VERTEX
  5
3FD8
330
3FD7
100
AcDbEntity
  8
MODEL
100
AcDbVertex
100
AcDb2dVertex
 10
731.0980043727213
 20
923.1153487093075
 30
0.0
  0
VERTEX
  5
3FD9
330
3FD7
100
AcDbEntity
  8
MODEL
100
AcDbVertex
100
AcDb2dVertex
 10
727.7146751186065
 20
920.5787122288571
 30
0.0
  0
VERTEX
  5
3FDA
330
3FD7
100
AcDbEntity
  8
MODEL
100
AcDbVertex
100
AcDb2dVertex
 10
722.6396812374351
 20
917.1953829747422
 30
0.0
  0
SEQEND
  5
3FDB
330
3FD7
100
AcDbEntity
  8
MODEL
  0
POLYLINE
  5
3FDC
330
A
100
AcDbEntity
  8
MODEL
100
AcDb2dPolyline
 66
     1
 10
0.0
 20
0.0
 30
0.0
  0
VERTEX
  5
3FDD
330
3FDC
100
AcDbEntity
  8
MODEL
100
AcDbVertex
100
AcDb2dVertex
 10
714.181358102147
 20
912.1221100138414
 30
0.0
  0
VERTEX
  5
3FDE
330
3FDC
100
AcDbEntity
  8
MODEL
100
AcDbVertex
100
AcDb2dVertex
 10
709.1063642209738
 20
908.7353389191835
 30
0.0
  0
VERTEX
  5
3FDF
330
3FDC
100
AcDbEntity
  8
MODEL
100
AcDbVertex
100
AcDb2dVertex
 10
705.7230349668589
 20
907.0453952123976
 30
0.0
  0
SEQEND
  5
3FE0
330
3FDC
100
AcDbEntity
  8
MODEL
  0
POLYLINE
  5
3FE1
330
A
100
AcDbEntity
  8
MODEL
100
AcDb2dPolyline
 66
     1
 10
0.0
 20
0.0
 30
0.0
  0
VERTEX
  5
3FE2
330
3FE1
100
AcDbEntity
  8
MODEL
100
AcDbVertex
100
AcDb2dVertex
 10
696.4180190579082
 20
901.9686804109533
 30
0.0
  0
VERTEX
  5
3FE3
330
3FE1
100
AcDbEntity
  8
MODEL
100
AcDbVertex
100
AcDb2dVertex
 10
689.6513605496784
 20
899.4320439305034
 30
0.0
  0
VERTEX
  5
3FE4
330
3FE1
100
AcDbEntity
  8
MODEL
100
AcDbVertex
100
AcDb2dVertex
 10
687.1130031489556
 20
898.5853511568384
 30
0.0
  0
SEQEND
  5
3FE5
330
3FE1
100
AcDbEntity
  8
MODEL
  0
POLYLINE
  5
3FE6
330
A
100
AcDbEntity
  8
MODEL
100
AcDb2dPolyline
 66
     1
 10
0.0
 20
0.0
 30
0.0
  0
VERTEX
  5
3FE7
330
3FE6
100
AcDbEntity
  8
MODEL
100
AcDbVertex
100
AcDb2dVertex
 10
677.8097081602755
 20
895.2020219027236
 30
0.0
  0
VERTEX
  5
3FE8
330
3FE6
100
AcDbEntity
  8
MODEL
100
AcDbVertex
100
AcDb2dVertex
 10
676.118043533219
 20
894.3587709696026
 30
0.0
  0
VERTEX
  5
3FE9
330
3FE6
100
AcDbEntity
  8
MODEL
100
AcDbVertex
100
AcDb2dVertex
 10
669.3496641047168
 20
891.8186926486087
 30
0.0
  0
VERTEX
  5
3FEA
330
3FE6
100
AcDbEntity
  8
MODEL
100
AcDbVertex
100
AcDb2dVertex
 10
668.5046922513247
 20
891.8186926486087
 30
0.0
  0
SEQEND
  5
3FEB
330
3FE6
100
AcDbEntity
  8
MODEL
  0
POLYLINE
  5
3FEC
330
A
100
AcDbEntity
  8
MODEL
100
AcDb2dPolyline
 66
     1
 10
0.0
 20
0.0
 30
0.0
  0
VERTEX
  5
3FED
330
3FEC
100
AcDbEntity
  8
MODEL
100
AcDbVertex
100
AcDb2dVertex
 10
659.1996763423722
 20
888.4353633944938
 30
0.0
  0
VERTEX
  5
3FEE
330
3FEC
100
AcDbEntity
  8
MODEL
100
AcDbVertex
100
AcDb2dVertex
 10
654.9713752348653
 20
887.5886706208294
 30
0.0
  0
VERTEX
  5
3FEF
330
3FEC
100
AcDbEntity
  8
MODEL
100
AcDbVertex
100
AcDb2dVertex
 10
649.0496885800276
 20
885.8987269140434
 30
0.0
  0
SEQEND
  5
3FF0
330
3FEC
100
AcDbEntity
  8
MODEL
  0
POLYLINE
  5
3FF1
330
A
100
AcDbEntity
  8
MODEL
100
AcDb2dPolyline
 66
     1
 10
0.0
 20
0.0
 30
0.0
  0
VERTEX
  5
3FF2
330
3FF1
100
AcDbEntity
  8
MODEL
100
AcDbVertex
100
AcDb2dVertex
 10
648.2029958063631
 20
885.8987269140434
 30
0.0
  0
VERTEX
  5
3FF3
330
3FF1
100
AcDbEntity
  8
MODEL
100
AcDbVertex
100
AcDb2dVertex
 10
645.6663593259127
 20
884.2053413667145
 30
0.0
  0
SEQEND
  5
3FF4
330
3FF1
100
AcDbEntity
  8
MODEL
  0
POLYLINE
  5
3FF5
330
A
100
AcDbEntity
  8
MODEL
100
AcDb2dPolyline
 66
     1
 10
0.0
 20
0.0
 30
0.0
  0
VERTEX
  5
3FF6
330
3FF5
100
AcDbEntity
  8
MODEL
100
AcDbVertex
100
AcDb2dVertex
 10
637.2080361906246
 20
878.2853756321492
 30
0.0
  0
VERTEX
  5
3FF7
330
3FF5
100
AcDbEntity
  8
MODEL
100
AcDbVertex
100
AcDb2dVertex
 10
634.6696787899036
 20
876.5954319253633
 30
0.0
  0
SEQEND
  5
3FF8
330
3FF5
100
AcDbEntity
  8
MODEL
  0
POLYLINE
  5
3FF9
330
A
100
AcDbEntity
  8
MODEL
100
AcDb2dPolyline
 66
     1
 10
0.0
 20
0.0
 30
0.0
  0
VERTEX
  5
3FFA
330
3FF9
100
AcDbEntity
  8
MODEL
100
AcDbVertex
100
AcDb2dVertex
 10
1499.199716726635
 20
886.7454196877084
 30
0.0
  0
VERTEX
  5
3FFB
330
3FF9
100
AcDbEntity
  8
MODEL
100
AcDbVertex
100
AcDb2dVertex
 10
1496.663080246185
 20
885.0520341403794
 30
0.0
  0
SEQEND
  5
3FFC
330
3FF9
100
AcDbEntity
  8
MODEL
  0
POLYLINE
  5
3FFD
330
A
100
AcDbEntity
  8
MODEL
100
AcDb2dPolyline
 66
     1
 10
0.0
 20
0.0
 30
0.0
  0
VERTEX
  5
3FFE
330
3FFD
100
AcDbEntity
  8
MODEL
100
AcDbVertex
100
AcDb2dVertex
 10
1489.049728964289
 20
878.2853756321497
 30
0.0
  0
VERTEX
  5
3FFF
330
3FFD
100
AcDbEntity
  8
MODEL
100
AcDbVertex
100
AcDb2dVertex
 10
1486.513092483839
 20
876.5954319253638
 30
0.0
  0
SEQEND
  5
4000
330
3FFD
100
AcDbEntity
  8
MODEL
  0
POLYLINE
  5
4001
330
A
100
AcDbEntity
  8
MODEL
100
AcDb2dPolyline
 66
     1
 10
0.0
 20
0.0
 30
0.0
  0
VERTEX
  5
4002
330
4001
100
AcDbEntity
  8
MODEL
100
AcDbVertex
100
AcDb2dVertex
 10
1429.839746097007
 20
885.0520341403794
 30
0.0
  0
VERTEX
  5
4003
330
4001
100
AcDbEntity
  8
MODEL
100
AcDbVertex
100
AcDb2dVertex
 10
1427.303109616557
 20
885.8987269140439
 30
0.0
  0
VERTEX
  5
4004
330
4001
100
AcDbEntity
  8
MODEL
100
AcDbVertex
100
AcDb2dVertex
 10
1425.609724069228
 20
885.8987269140439
 30
0.0
  0
VERTEX
  5
4005
330
4001
100
AcDbEntity
  8
MODEL
100
AcDbVertex
100
AcDb2dVertex
 10
1423.919780362442
 20
886.7454196877084
 30
0.0
  0
VERTEX
  5
4006
330
4001
100
AcDbEntity
  8
MODEL
100
AcDbVertex
100
AcDb2dVertex
 10
1421.379702041449
 20
886.7454196877084
 30
0.0
  0
VERTEX
  5
4007
330
4001
100
AcDbEntity
  8
MODEL
100
AcDbVertex
100
AcDb2dVertex
 10
1420.536451108327
 20
887.5886706208298
 30
0.0
  0
SEQEND
  5
4008
330
4001
100
AcDbEntity
  8
MODEL
  0
POLYLINE
  5
4009
330
A
100
AcDbEntity
  8
MODEL
100
AcDb2dPolyline
 66
     1
 10
0.0
 20
0.0
 30
0.0
  0
VERTEX
  5
400A
330
4009
100
AcDbEntity
  8
MODEL
100
AcDbVertex
100
AcDb2dVertex
 10
1411.229714279104
 20
890.1287489418232
 30
0.0
  0
VERTEX
  5
400B
330
4009
100
AcDbEntity
  8
MODEL
100
AcDbVertex
100
AcDb2dVertex
 10
1409.539770572318
 20
890.1287489418232
 30
0.0
  0
VERTEX
  5
400C
330
4009
100
AcDbEntity
  8
MODEL
100
AcDbVertex
100
AcDb2dVertex
 10
1407.846385024989
 20
890.9754417154882
 30
0.0
  0
VERTEX
  5
400D
330
4009
100
AcDbEntity
  8
MODEL
100
AcDbVertex
100
AcDb2dVertex
 10
1406.156441318203
 20
891.8186926486092
 30
0.0
  0
VERTEX
  5
400E
330
4009
100
AcDbEntity
  8
MODEL
100
AcDbVertex
100
AcDb2dVertex
 10
1403.61636299721
 20
892.6653854222736
 30
0.0
  0
VERTEX
  5
400F
330
4009
100
AcDbEntity
  8
MODEL
100
AcDbVertex
100
AcDb2dVertex
 10
1401.926419290424
 20
893.5120781959386
 30
0.0
  0
SEQEND
  5
4010
330
4009
100
AcDbEntity
  8
MODEL
  0
POLYLINE
  5
4011
330
A
100
AcDbEntity
  8
MODEL
100
AcDb2dPolyline
 66
     1
 10
0.0
 20
0.0
 30
0.0
  0
VERTEX
  5
4012
330
4011
100
AcDbEntity
  8
MODEL
100
AcDbVertex
100
AcDb2dVertex
 10
1429.839746097007
 20
885.0520341403794
 30
0.0
  0
VERTEX
  5
4013
330
4011
100
AcDbEntity
  8
MODEL
100
AcDbVertex
100
AcDb2dVertex
 10
1438.299790152566
 20
879.1320684058142
 30
0.0
  0
SEQEND
  5
4014
330
4011
100
AcDbEntity
  8
MODEL
  0
POLYLINE
  5
4015
330
A
100
AcDbEntity
  8
MODEL
100
AcDb2dPolyline
 66
     1
 10
0.0
 20
0.0
 30
0.0
  0
VERTEX
  5
4016
330
4015
100
AcDbEntity
  8
MODEL
100
AcDbVertex
100
AcDb2dVertex
 10
1380.77975099207
 20
1039.002119803966
 30
0.0
  0
VERTEX
  5
4017
330
4015
100
AcDbEntity
  8
MODEL
100
AcDbVertex
100
AcDb2dVertex
 10
1382.469694698854
 20
1039.002119803966
 30
0.0
  0
VERTEX
  5
4018
330
4015
100
AcDbEntity
  8
MODEL
100
AcDbVertex
100
AcDb2dVertex
 10
1383.316387472519
 20
1038.155427030302
 30
0.0
  0
VERTEX
  5
4019
330
4015
100
AcDbEntity
  8
MODEL
100
AcDbVertex
100
AcDb2dVertex
 10
1385.009773019849
 20
1038.155427030302
 30
0.0
  0
VERTEX
  5
401A
330
4015
100
AcDbEntity
  8
MODEL
100
AcDbVertex
100
AcDb2dVertex
 10
1385.853023952969
 20
1036.462041482972
 30
0.0
  0
VERTEX
  5
401B
330
4015
100
AcDbEntity
  8
MODEL
100
AcDbVertex
100
AcDb2dVertex
 10
1387.5464095003
 20
1035.615348709308
 30
0.0
  0
VERTEX
  5
401C
330
4015
100
AcDbEntity
  8
MODEL
100
AcDbVertex
100
AcDb2dVertex
 10
1388.393102273964
 20
1033.925405002522
 30
0.0
  0
SEQEND
  5
401D
330
4015
100
AcDbEntity
  8
MODEL
  0
SPLINE
  5
401E
330
A
100
AcDbEntity
  8
MODEL
100
AcDbSpline
210
0.0
220
0.0
230
1.0
 70
     8
 71
     3
 72
   104
 73
   100
 74
     0
 42
0.000000001
 43
0.0000000001
 40
0.0
 40
0.0
 40
0.0
 40
0.0
 40
1.0
 40
1.0
 40
1.0
 40
2.0
 40
2.0
 40
2.0
 40
3.0
 40
3.0
 40
3.0
 40
4.0
 40
4.0
 40
4.0
 40
5.0
 40
5.0
 40
5.0
 40
6.0
 40
6.0
 40
6.0
 40
7.0
 40
7.0
 40
7.0
 40
8.0
 40
8.0
 40
8.0
 40
9.0
 40
9.0
 40
9.0
 40
10.0
 40
10.0
 40
10.0
 40
11.0
 40
11.0
 40
11.0
 40
12.0
 40
12.0
 40
12.0
 40
13.0
 40
13.0
 40
13.0
 40
14.0
 40
14.0
 40
14.0
 40
15.0
 40
15.0
 40
15.0
 40
16.0
 40
16.0
 40
16.0
 40
17.0
 40
17.0
 40
17.0
 40
18.0
 40
18.0
 40
18.0
 40
19.0
 40
19.0
 40
19.0
 40
20.0
 40
20.0
 40
20.0
 40
21.0
 40
21.0
 40
21.0
 40
22.0
 40
22.0
 40
22.0
 40
23.0
 40
23.0
 40
23.0
 40
24.0
 40
24.0
 40
24.0
 40
25.0
 40
25.0
 40
25.0
 40
26.0
 40
26.0
 40
26.0
 40
27.0
 40
27.0
 40
27.0
 40
28.0
 40
28.0
 40
28.0
 40
29.0
 40
29.0
 40
29.0
 40
30.0
 40
30.0
 40
30.0
 40
31.0
 40
31.0
 40
31.0
 40
32.0
 40
32.0
 40
32.0
 40
33.0
 40
33.0
 40
33.0
 40
33.0
 10
770.8547044889801
 20
2150.468802787506
 30
0.0
 10
770.8547044889801
 20
2150.468802787506
 30
0.0
 10
779.3130276242664
 20
2139.472122251497
 30
0.0
 10
779.3130276242664
 20
2139.472122251497
 30
0.0
 10
779.3130276242664
 20
2139.472122251497
 30
0.0
 10
786.0796861324961
 20
2127.630469862095
 30
0.0
 10
786.0796861324961
 20
2127.630469862095
 30
0.0
 10
786.0796861324961
 20
2127.630469862095
 30
0.0
 10
792.0013727873338
 20
2114.942124699028
 30
0.0
 10
792.0013727873338
 20
2114.942124699028
 30
0.0
 10
816.0976984313402
 20
2065.949245484686
 30
0.0
 10
816.2353720530737
 20
2004.342020678958
 30
0.0
 10
795.3847020414487
 20
1954.228822367755
 30
0.0
 10
795.3847020414487
 20
1954.228822367755
 30
0.0
 10
789.463015386611
 20
1941.540477204688
 30
0.0
 10
789.463015386611
 20
1941.540477204688
 30
0.0
 10
789.463015386611
 20
1941.540477204688
 30
0.0
 10
782.6963568783813
 20
1929.698824815286
 30
0.0
 10
782.6963568783813
 20
1929.698824815286
 30
0.0
 10
751.8884421748389
 20
1876.820107627499
 30
0.0
 10
698.4727978622886
 20
1842.023099734211
 30
0.0
 10
638.0530080440185
 20
1833.268778312196
 30
0.0
 10
638.0530080440185
 20
1833.268778312196
 30
0.0
 10
610.9846530908271
 20
1831.577113685138
 30
0.0
 10
610.9846530908271
 20
1831.577113685138
 30
0.0
 10
610.9846530908271
 20
1831.577113685138
 30
0.0
 10
597.4513360743676
 20
1832.423806458803
 30
0.0
 10
597.4513360743676
 20
1832.423806458803
 30
0.0
 10
597.4513360743676
 20
1832.423806458803
 30
0.0
 10
583.0713262842437
 20
1833.268778312196
 30
0.0
 10
583.0713262842437
 20
1833.268778312196
 30
0.0
 10
583.0713262842437
 20
1833.268778312196
 30
0.0
 10
569.5380092677842
 20
1835.807135712917
 30
0.0
 10
569.5380092677842
 20
1835.807135712917
 30
0.0
 10
569.5380092677842
 20
1835.807135712917
 30
0.0
 10
556.0046922513247
 20
1839.190464967032
 30
0.0
 10
556.0046922513247
 20
1839.190464967032
 30
0.0
 10
556.0046922513247
 20
1839.190464967032
 30
0.0
 10
543.3163470882573
 20
1843.41876607454
 30
0.0
 10
543.3163470882573
 20
1843.41876607454
 30
0.0
 10
543.3163470882573
 20
1843.41876607454
 30
0.0
 10
530.6280019251899
 20
1848.495480875985
 30
0.0
 10
530.6280019251899
 20
1848.495480875985
 30
0.0
 10
530.6280019251899
 20
1848.495480875985
 30
0.0
 10
517.9396567621243
 20
1854.41544661055
 30
0.0
 10
517.9396567621243
 20
1854.41544661055
 30
0.0
 10
517.9396567621243
 20
1854.41544661055
 30
0.0
 10
506.0980043727213
 20
1861.18210511878
 30
0.0
 10
506.0980043727213
 20
1861.18210511878
 30
0.0
 10
506.0980043727213
 20
1861.18210511878
 30
0.0
 10
494.2563519833202
 20
1868.795456400674
 30
0.0
 10
494.2563519833202
 20
1868.795456400674
 30
0.0
 10
494.2563519833202
 20
1868.795456400674
 30
0.0
 10
483.2596714473093
 20
1877.253779535961
 30
0.0
 10
483.2596714473093
 20
1877.253779535961
 30
0.0
 10
483.2596714473093
 20
1877.253779535961
 30
0.0
 10
473.1096836849647
 20
1886.558795444913
 30
0.0
 10
473.1096836849647
 20
1886.558795444913
 30
0.0
 10
473.1096836849647
 20
1886.558795444913
 30
0.0
 10
454.4996518670614
 20
1906.858770969603
 30
0.0
 10
454.4996518670614
 20
1906.858770969603
 30
0.0
 10
454.4996518670614
 20
1906.858770969603
 30
0.0
 10
446.0413287317751
 20
1917.855451505612
 30
0.0
 10
446.0413287317751
 20
1917.855451505612
 30
0.0
 10
446.0413287317751
 20
1917.855451505612
 30
0.0
 10
432.5080117153138
 20
1941.540477204688
 30
0.0
 10
432.5080117153138
 20
1941.540477204688
 30
0.0
 10
432.5080117153138
 20
1941.540477204688
 30
0.0
 10
426.586325060478
 20
1954.228822367755
 30
0.0
 10
426.586325060478
 20
1954.228822367755
 30
0.0
 10
426.586325060478
 20
1954.228822367755
 30
0.0
 10
421.5113311793048
 20
1966.91544661055
 30
0.0
 10
421.5113311793048
 20
1966.91544661055
 30
0.0
 10
421.5113311793048
 20
1966.91544661055
 30
0.0
 10
417.2813091515254
 20
1980.450484547281
 30
0.0
 10
417.2813091515254
 20
1980.450484547281
 30
0.0
 10
417.2813091515254
 20
1980.450484547281
 30
0.0
 10
412.206315270354
 20
2007.5171185802
 30
0.0
 10
412.206315270354
 20
2007.5171185802
 30
0.0
 10
412.206315270354
 20
2007.5171185802
 30
0.0
 10
411.3613434169602
 20
2021.052156516932
 30
0.0
 10
411.3613434169602
 20
2021.052156516932
 30
0.0
 10
411.3613434169602
 20
2021.052156516932
 30
0.0
 10
411.3613434169602
 20
2034.585473533391
 30
0.0
 10
411.3613434169602
 20
2034.585473533391
 30
0.0
 10
409.3375411774705
 20
2055.725258150659
 30
0.0
 10
417.4258664543468
 20
2082.165477204688
 30
0.0
 10
424.0496885800276
 20
2102.255500456233
 30
0.0
 10
424.0496885800276
 20
2102.255500456233
 30
0.0
 10
429.124682461199
 20
2114.942124699028
 30
0.0
 10
429.124682461199
 20
2114.942124699028
 30
0.0
 10
429.124682461199
 20
2114.942124699028
 30
0.0
 10
435.8913409694287
 20
2127.630469862095
 30
0.0
 10
435.8913409694287
 20
2127.630469862095
 30
0.0
 10
435.8913409694287
 20
2127.630469862095
 30
0.0
 10
442.6579994776603
 20
2139.472122251497
 30
0.0
 10
442.6579994776603
 20
2139.472122251497
 30
0.0
 10
442.6579994776603
 20
2139.472122251497
 30
0.0
 10
450.2713507595545
 20
2150.468802787506
 30
0.0
 10
450.2713507595545
 20
2150.468802787506
 30
0.0
  0
POLYLINE
  5
401F
330
A
100
AcDbEntity
  8
MODEL
100
AcDb2dPolyline
 66
     1
 10
0.0
 20
0.0
 30
0.0
  0
VERTEX
  5
4020
330
401F
100
AcDbEntity
  8
MODEL
100
AcDbVertex
100
AcDb2dVertex
 10
649.8946604334196
 20
2080.262139384215
 30
0.0
  0
VERTEX
  5
4021
330
401F
100
AcDbEntity
  8
MODEL
100
AcDbVertex
100
AcDb2dVertex
 10
649.8946604334196
 20
2075.187145503042
 30
0.0
  0
VERTEX
  5
4022
330
401F
100
AcDbEntity
  8
MODEL
100
AcDbVertex
100
AcDb2dVertex
 10
649.0496885800276
 20
2070.11215162187
 30
0.0
  0
VERTEX
  5
4023
330
401F
100
AcDbEntity
  8
MODEL
100
AcDbVertex
100
AcDb2dVertex
 10
647.3580239529692
 20
2065.037157740698
 30
0.0
  0
VERTEX
  5
4024
330
401F
100
AcDbEntity
  8
MODEL
100
AcDbVertex
100
AcDb2dVertex
 10
644.8196665522482
 20
2060.807135712917
 30
0.0
  0
VERTEX
  5
4025
330
401F
100
AcDbEntity
  8
MODEL
100
AcDbVertex
100
AcDb2dVertex
 10
642.2830300717978
 20
2056.57883460541
 30
0.0
  0
VERTEX
  5
4026
330
401F
100
AcDbEntity
  8
MODEL
100
AcDbVertex
100
AcDb2dVertex
 10
638.899700817683
 20
2052.34881257763
 30
0.0
  0
VERTEX
  5
4027
330
401F
100
AcDbEntity
  8
MODEL
100
AcDbVertex
100
AcDb2dVertex
 10
634.6696787899036
 20
2048.965483323515
 30
0.0
  0
VERTEX
  5
4028
330
401F
100
AcDbEntity
  8
MODEL
100
AcDbVertex
100
AcDb2dVertex
 10
630.4396567621243
 20
2046.427125922793
 30
0.0
  0
VERTEX
  5
4029
330
401F
100
AcDbEntity
  8
MODEL
100
AcDbVertex
100
AcDb2dVertex
 10
626.2113556546155
 20
2043.890489442343
 30
0.0
  0
VERTEX
  5
402A
330
401F
100
AcDbEntity
  8
MODEL
100
AcDbVertex
100
AcDb2dVertex
 10
621.1363617734442
 20
2042.198824815286
 30
0.0
  0
VERTEX
  5
402B
330
401F
100
AcDbEntity
  8
MODEL
100
AcDbVertex
100
AcDb2dVertex
 10
616.0613678922709
 20
2041.352132041621
 30
0.0
  0
VERTEX
  5
402C
330
401F
100
AcDbEntity
  8
MODEL
100
AcDbVertex
100
AcDb2dVertex
 10
610.9846530908271
 20
2040.507160188228
 30
0.0
  0
VERTEX
  5
402D
330
401F
100
AcDbEntity
  8
MODEL
100
AcDbVertex
100
AcDb2dVertex
 10
605.9096592096539
 20
2041.352132041621
 30
0.0
  0
VERTEX
  5
402E
330
401F
100
AcDbEntity
  8
MODEL
100
AcDbVertex
100
AcDb2dVertex
 10
600.8346653284825
 20
2042.198824815286
 30
0.0
  0
VERTEX
  5
402F
330
401F
100
AcDbEntity
  8
MODEL
100
AcDbVertex
100
AcDb2dVertex
 10
595.7596714473093
 20
2043.890489442343
 30
0.0
  0
VERTEX
  5
4030
330
401F
100
AcDbEntity
  8
MODEL
100
AcDbVertex
100
AcDb2dVertex
 10
590.6846775661379
 20
2046.427125922793
 30
0.0
  0
VERTEX
  5
4031
330
401F
100
AcDbEntity
  8
MODEL
100
AcDbVertex
100
AcDb2dVertex
 10
586.4546555383586
 20
2048.965483323515
 30
0.0
  0
VERTEX
  5
4032
330
401F
100
AcDbEntity
  8
MODEL
100
AcDbVertex
100
AcDb2dVertex
 10
583.0713262842437
 20
2052.34881257763
 30
0.0
  0
VERTEX
  5
4033
330
401F
100
AcDbEntity
  8
MODEL
100
AcDbVertex
100
AcDb2dVertex
 10
579.6879970301288
 20
2056.57883460541
 30
0.0
  0
VERTEX
  5
4034
330
401F
100
AcDbEntity
  8
MODEL
100
AcDbVertex
100
AcDb2dVertex
 10
576.304667776014
 20
2060.807135712917
 30
0.0
  0
VERTEX
  5
4035
330
401F
100
AcDbEntity
  8
MODEL
100
AcDbVertex
100
AcDb2dVertex
 10
574.6130031489556
 20
2065.037157740698
 30
0.0
  0
VERTEX
  5
4036
330
401F
100
AcDbEntity
  8
MODEL
100
AcDbVertex
100
AcDb2dVertex
 10
572.9213385218991
 20
2070.11215162187
 30
0.0
  0
VERTEX
  5
4037
330
401F
100
AcDbEntity
  8
MODEL
100
AcDbVertex
100
AcDb2dVertex
 10
572.0763666685052
 20
2075.187145503042
 30
0.0
  0
VERTEX
  5
4038
330
401F
100
AcDbEntity
  8
MODEL
100
AcDbVertex
100
AcDb2dVertex
 10
571.2296738948407
 20
2080.262139384215
 30
0.0
  0
VERTEX
  5
4039
330
401F
100
AcDbEntity
  8
MODEL
100
AcDbVertex
100
AcDb2dVertex
 10
572.0763666685052
 20
2085.337133265387
 30
0.0
  0
VERTEX
  5
403A
330
401F
100
AcDbEntity
  8
MODEL
100
AcDbVertex
100
AcDb2dVertex
 10
572.9213385218991
 20
2090.412127146559
 30
0.0
  0
VERTEX
  5
403B
330
401F
100
AcDbEntity
  8
MODEL
100
AcDbVertex
100
AcDb2dVertex
 10
574.6130031489556
 20
2095.487121027732
 30
0.0
  0
VERTEX
  5
403C
330
401F
100
AcDbEntity
  8
MODEL
100
AcDbVertex
100
AcDb2dVertex
 10
576.304667776014
 20
2099.717143055511
 30
0.0
  0
VERTEX
  5
403D
330
401F
100
AcDbEntity
  8
MODEL
100
AcDbVertex
100
AcDb2dVertex
 10
579.6879970301288
 20
2103.94716508329
 30
0.0
  0
VERTEX
  5
403E
330
401F
100
AcDbEntity
  8
MODEL
100
AcDbVertex
100
AcDb2dVertex
 10
583.0713262842437
 20
2108.175466190798
 30
0.0
  0
VERTEX
  5
403F
330
401F
100
AcDbEntity
  8
MODEL
100
AcDbVertex
100
AcDb2dVertex
 10
586.4546555383586
 20
2111.558795444913
 30
0.0
  0
VERTEX
  5
4040
330
401F
100
AcDbEntity
  8
MODEL
100
AcDbVertex
100
AcDb2dVertex
 10
590.6846775661379
 20
2114.097152845635
 30
0.0
  0
VERTEX
  5
4041
330
401F
100
AcDbEntity
  8
MODEL
100
AcDbVertex
100
AcDb2dVertex
 10
595.7596714473093
 20
2116.633789326085
 30
0.0
  0
VERTEX
  5
4042
330
401F
100
AcDbEntity
  8
MODEL
100
AcDbVertex
100
AcDb2dVertex
 10
600.8346653284825
 20
2118.325453953143
 30
0.0
  0
VERTEX
  5
4043
330
401F
100
AcDbEntity
  8
MODEL
100
AcDbVertex
100
AcDb2dVertex
 10
605.9096592096539
 20
2119.172146726807
 30
0.0
  0
VERTEX
  5
4044
330
401F
100
AcDbEntity
  8
MODEL
100
AcDbVertex
100
AcDb2dVertex
 10
610.9846530908271
 20
2120.018839500472
 30
0.0
  0
VERTEX
  5
4045
330
401F
100
AcDbEntity
  8
MODEL
100
AcDbVertex
100
AcDb2dVertex
 10
616.0613678922709
 20
2119.172146726807
 30
0.0
  0
VERTEX
  5
4046
330
401F
100
AcDbEntity
  8
MODEL
100
AcDbVertex
100
AcDb2dVertex
 10
621.1363617734442
 20
2118.325453953143
 30
0.0
  0
VERTEX
  5
4047
330
401F
100
AcDbEntity
  8
MODEL
100
AcDbVertex
100
AcDb2dVertex
 10
626.2113556546155
 20
2116.633789326085
 30
0.0
  0
VERTEX
  5
4048
330
401F
100
AcDbEntity
  8
MODEL
100
AcDbVertex
100
AcDb2dVertex
 10
630.4396567621243
 20
2114.097152845635
 30
0.0
  0
VERTEX
  5
4049
330
401F
100
AcDbEntity
  8
MODEL
100
AcDbVertex
100
AcDb2dVertex
 10
634.6696787899036
 20
2111.558795444913
 30
0.0
  0
VERTEX
  5
404A
330
401F
100
AcDbEntity
  8
MODEL
100
AcDbVertex
100
AcDb2dVertex
 10
638.899700817683
 20
2108.175466190798
 30
0.0
  0
VERTEX
  5
404B
330
401F
100
AcDbEntity
  8
MODEL
100
AcDbVertex
100
AcDb2dVertex
 10
642.2830300717978
 20
2103.94716508329
 30
0.0
  0
VERTEX
  5
404C
330
401F
100
AcDbEntity
  8
MODEL
100
AcDbVertex
100
AcDb2dVertex
 10
644.8196665522482
 20
2099.717143055511
 30
0.0
  0
VERTEX
  5
404D
330
401F
100
AcDbEntity
  8
MODEL
100
AcDbVertex
100
AcDb2dVertex
 10
647.3580239529692
 20
2095.487121027732
 30
0.0
  0
VERTEX
  5
404E
330
401F
100
AcDbEntity
  8
MODEL
100
AcDbVertex
100
AcDb2dVertex
 10
649.0496885800276
 20
2090.412127146559
 30
0.0
  0
VERTEX
  5
404F
330
401F
100
AcDbEntity
  8
MODEL
100
AcDbVertex
100
AcDb2dVertex
 10
649.8946604334196
 20
2085.337133265387
 30
0.0
  0
VERTEX
  5
4050
330
401F
100
AcDbEntity
  8
MODEL
100
AcDbVertex
100
AcDb2dVertex
 10
649.8946604334196
 20
2080.262139384215
 30
0.0
  0
SEQEND
  5
4051
330
401F
100
AcDbEntity
  8
MODEL
  0
POLYLINE
  5
4052
330
A
100
AcDbEntity
  8
MODEL
100
AcDb2dPolyline
 66
     1
 10
0.0
 20
0.0
 30
0.0
  0
VERTEX
  5
4053
330
4052
100
AcDbEntity
  8
MODEL
100
AcDbVertex
100
AcDb2dVertex
 10
451.1163226129465
 20
2150.468802787506
 30
0.0
  0
VERTEX
  5
4054
330
4052
100
AcDbEntity
  8
MODEL
100
AcDbVertex
100
AcDb2dVertex
 10
452.8079872400049
 20
2150.468802787506
 30
0.0
  0
VERTEX
  5
4055
330
4052
100
AcDbEntity
  8
MODEL
100
AcDbVertex
100
AcDb2dVertex
 10
454.4996518670614
 20
2150.468802787506
 30
0.0
  0
VERTEX
  5
4056
330
4052
100
AcDbEntity
  8
MODEL
100
AcDbVertex
100
AcDb2dVertex
 10
458.7296738948407
 20
2150.468802787506
 30
0.0
  0
VERTEX
  5
4057
330
4052
100
AcDbEntity
  8
MODEL
100
AcDbVertex
100
AcDb2dVertex
 10
462.9579750023495
 20
2149.623830934113
 30
0.0
  0
VERTEX
  5
4058
330
4052
100
AcDbEntity
  8
MODEL
100
AcDbVertex
100
AcDb2dVertex
 10
468.8796616571854
 20
2149.623830934113
 30
0.0
  0
VERTEX
  5
4059
330
4052
100
AcDbEntity
  8
MODEL
100
AcDbVertex
100
AcDb2dVertex
 10
474.801348312023
 20
2149.623830934113
 30
0.0
  0
VERTEX
  5
405A
330
4052
100
AcDbEntity
  8
MODEL
100
AcDbVertex
100
AcDb2dVertex
 10
482.4129786736448
 20
2149.623830934113
 30
0.0
  0
VERTEX
  5
405B
330
4052
100
AcDbEntity
  8
MODEL
100
AcDbVertex
100
AcDb2dVertex
 10
490.8730227292053
 20
2149.623830934113
 30
0.0
  0
VERTEX
  5
405C
330
4052
100
AcDbEntity
  8
MODEL
100
AcDbVertex
100
AcDb2dVertex
 10
501.0230104915499
 20
2148.777138160449
 30
0.0
  0
VERTEX
  5
405D
330
4052
100
AcDbEntity
  8
MODEL
100
AcDbVertex
100
AcDb2dVertex
 10
511.1729982538945
 20
2148.777138160449
 30
0.0
  0
VERTEX
  5
405E
330
4052
100
AcDbEntity
  8
MODEL
100
AcDbVertex
100
AcDb2dVertex
 10
523.0146506432957
 20
2148.777138160449
 30
0.0
  0
VERTEX
  5
405F
330
4052
100
AcDbEntity
  8
MODEL
100
AcDbVertex
100
AcDb2dVertex
 10
533.1663593259127
 20
2148.777138160449
 30
0.0
  0
VERTEX
  5
4060
330
4052
100
AcDbEntity
  8
MODEL
100
AcDbVertex
100
AcDb2dVertex
 10
543.3163470882573
 20
2148.777138160449
 30
0.0
  0
VERTEX
  5
4061
330
4052
100
AcDbEntity
  8
MODEL
100
AcDbVertex
100
AcDb2dVertex
 10
555.1579994776603
 20
2147.932166307056
 30
0.0
  0
VERTEX
  5
4062
330
4052
100
AcDbEntity
  8
MODEL
100
AcDbVertex
100
AcDb2dVertex
 10
566.1546800136693
 20
2147.932166307056
 30
0.0
  0
VERTEX
  5
4063
330
4052
100
AcDbEntity
  8
MODEL
100
AcDbVertex
100
AcDb2dVertex
 10
577.9963324030705
 20
2147.932166307056
 30
0.0
  0
VERTEX
  5
4064
330
4052
100
AcDbEntity
  8
MODEL
100
AcDbVertex
100
AcDb2dVertex
 10
588.1463201654151
 20
2147.932166307056
 30
0.0
  0
VERTEX
  5
4065
330
4052
100
AcDbEntity
  8
MODEL
100
AcDbVertex
100
AcDb2dVertex
 10
599.1430007014242
 20
2147.932166307056
 30
0.0
  0
VERTEX
  5
4066
330
4052
100
AcDbEntity
  8
MODEL
100
AcDbVertex
100
AcDb2dVertex
 10
609.2929884637706
 20
2147.932166307056
 30
0.0
  0
VERTEX
  5
4067
330
4052
100
AcDbEntity
  8
MODEL
100
AcDbVertex
100
AcDb2dVertex
 10
620.2896689997797
 20
2147.932166307056
 30
0.0
  0
VERTEX
  5
4068
330
4052
100
AcDbEntity
  8
MODEL
100
AcDbVertex
100
AcDb2dVertex
 10
632.9780141628453
 20
2147.932166307056
 30
0.0
  0
VERTEX
  5
4069
330
4052
100
AcDbEntity
  8
MODEL
100
AcDbVertex
100
AcDb2dVertex
 10
645.6663593259127
 20
2147.932166307056
 30
0.0
  0
VERTEX
  5
406A
330
4052
100
AcDbEntity
  8
MODEL
100
AcDbVertex
100
AcDb2dVertex
 10
658.3547044889801
 20
2147.932166307056
 30
0.0
  0
VERTEX
  5
406B
330
4052
100
AcDbEntity
  8
MODEL
100
AcDbVertex
100
AcDb2dVertex
 10
670.1963568783813
 20
2148.777138160449
 30
0.0
  0
VERTEX
  5
406C
330
4052
100
AcDbEntity
  8
MODEL
100
AcDbVertex
100
AcDb2dVertex
 10
682.0380092677842
 20
2148.777138160449
 30
0.0
  0
VERTEX
  5
406D
330
4052
100
AcDbEntity
  8
MODEL
100
AcDbVertex
100
AcDb2dVertex
 10
693.0346898037933
 20
2148.777138160449
 30
0.0
  0
VERTEX
  5
406E
330
4052
100
AcDbEntity
  8
MODEL
100
AcDbVertex
100
AcDb2dVertex
 10
703.1846775661379
 20
2148.777138160449
 30
0.0
  0
VERTEX
  5
406F
330
4052
100
AcDbEntity
  8
MODEL
100
AcDbVertex
100
AcDb2dVertex
 10
713.3346653284825
 20
2148.777138160449
 30
0.0
  0
VERTEX
  5
4070
330
4052
100
AcDbEntity
  8
MODEL
100
AcDbVertex
100
AcDb2dVertex
 10
723.4863740110995
 20
2148.777138160449
 30
0.0
  0
VERTEX
  5
4071
330
4052
100
AcDbEntity
  8
MODEL
100
AcDbVertex
100
AcDb2dVertex
 10
733.6363617734442
 20
2149.623830934113
 30
0.0
  0
VERTEX
  5
4072
330
4052
100
AcDbEntity
  8
MODEL
100
AcDbVertex
100
AcDb2dVertex
 10
742.0946849087304
 20
2149.623830934113
 30
0.0
  0
VERTEX
  5
4073
330
4052
100
AcDbEntity
  8
MODEL
100
AcDbVertex
100
AcDb2dVertex
 10
750.5530080440185
 20
2149.623830934113
 30
0.0
  0
VERTEX
  5
4074
330
4052
100
AcDbEntity
  8
MODEL
100
AcDbVertex
100
AcDb2dVertex
 10
756.4746946988544
 20
2149.623830934113
 30
0.0
  0
VERTEX
  5
4075
330
4052
100
AcDbEntity
  8
MODEL
100
AcDbVertex
100
AcDb2dVertex
 10
762.396381353692
 20
2150.468802787506
 30
0.0
  0
VERTEX
  5
4076
330
4052
100
AcDbEntity
  8
MODEL
100
AcDbVertex
100
AcDb2dVertex
 10
766.624682461199
 20
2150.468802787506
 30
0.0
  0
VERTEX
  5
4077
330
4052
100
AcDbEntity
  8
MODEL
100
AcDbVertex
100
AcDb2dVertex
 10
770.0080117153138
 20
2150.468802787506
 30
0.0
  0
VERTEX
  5
4078
330
4052
100
AcDbEntity
  8
MODEL
100
AcDbVertex
100
AcDb2dVertex
 10
770.8547044889801
 20
2150.468802787506
 30
0.0
  0
VERTEX
  5
4079
330
4052
100
AcDbEntity
  8
MODEL
100
AcDbVertex
100
AcDb2dVertex
 10
769.1630398619218
 20
2153.007160188228
 30
0.0
  0
VERTEX
  5
407A
330
4052
100
AcDbEntity
  8
MODEL
100
AcDbVertex
100
AcDb2dVertex
 10
765.7797106078069
 20
2154.698824815286
 30
0.0
  0
VERTEX
  5
407B
330
4052
100
AcDbEntity
  8
MODEL
100
AcDbVertex
100
AcDb2dVertex
 10
763.2413532070841
 20
2155.543796668679
 30
0.0
  0
VERTEX
  5
407C
330
4052
100
AcDbEntity
  8
MODEL
100
AcDbVertex
100
AcDb2dVertex
 10
759.8580239529692
 20
2156.390489442343
 30
0.0
  0
SEQEND
  5
407D
330
4052
100
AcDbEntity
  8
MODEL
  0
POLYLINE
  5
407E
330
A
100
AcDbEntity
  8
MODEL
100
AcDb2dPolyline
 66
     1
 10
0.0
 20
0.0
 30
0.0
  0
VERTEX
  5
407F
330
407E
100
AcDbEntity
  8
MODEL
100
AcDbVertex
100
AcDb2dVertex
 10
462.1130031489556
 20
2156.390489442343
 30
0.0
  0
VERTEX
  5
4080
330
407E
100
AcDbEntity
  8
MODEL
100
AcDbVertex
100
AcDb2dVertex
 10
458.7296738948407
 20
2155.543796668679
 30
0.0
  0
VERTEX
  5
4081
330
407E
100
AcDbEntity
  8
MODEL
100
AcDbVertex
100
AcDb2dVertex
 10
455.3463446407259
 20
2154.698824815286
 30
0.0
  0
VERTEX
  5
4082
330
407E
100
AcDbEntity
  8
MODEL
100
AcDbVertex
100
AcDb2dVertex
 10
452.8079872400049
 20
2153.007160188228
 30
0.0
  0
VERTEX
  5
4083
330
407E
100
AcDbEntity
  8
MODEL
100
AcDbVertex
100
AcDb2dVertex
 10
450.2713507595545
 20
2150.468802787506
 30
0.0
  0
SEQEND
  5
4084
330
407E
100
AcDbEntity
  8
MODEL
  0
SPLINE
  5
4085
330
A
100
AcDbEntity
  8
MODEL
100
AcDbSpline
210
0.0
220
0.0
230
1.0
 70
    11
 71
     3
 72
    17
 73
    13
 74
     0
 42
0.000000001
 43
0.0000000001
 40
0.0
 40
0.0
 40
0.0
 40
0.0
 40
1.0
 40
1.0
 40
1.0
 40
2.0
 40
2.0
 40
2.0
 40
3.0
 40
3.0
 40
3.0
 40
4.0
 40
4.0
 40
4.0
 40
4.0
 10
628.7479921350659
 20
2206.297177320946
 30
0.0
 10
628.7479921350659
 20
2216.44716508329
 30
0.0
 10
620.2896689997797
 20
2224.058795444913
 30
0.0
 10
610.9846530908271
 20
2224.058795444913
 30
0.0
 10
600.8346653284825
 20
2224.058795444913
 30
0.0
 10
593.2230349668589
 20
2216.44716508329
 30
0.0
 10
593.2230349668589
 20
2206.297177320946
 30
0.0
 10
593.2230349668589
 20
2196.992161411994
 30
0.0
 10
600.8346653284825
 20
2188.533838276707
 30
0.0
 10
610.9846530908271
 20
2188.533838276707
 30
0.0
 10
620.2896689997797
 20
2188.533838276707
 30
0.0
 10
628.7479921350659
 20
2196.992161411994
 30
0.0
 10
628.7479921350659
 20
2206.297177320946
 30
0.0
  0
POLYLINE
  5
4086
330
A
100
AcDbEntity
  8
MODEL
100
AcDb2dPolyline
 66
     1
 10
0.0
 20
0.0
 30
0.0
  0
VERTEX
  5
4087
330
4086
100
AcDbEntity
  8
MODEL
100
AcDbVertex
100
AcDb2dVertex
 10
759.8580239529692
 20
2156.390489442343
 30
0.0
  0
VERTEX
  5
4088
330
4086
100
AcDbEntity
  8
MODEL
100
AcDbVertex
100
AcDb2dVertex
 10
462.1130031489556
 20
2156.390489442343
 30
0.0
  0
SEQEND
  5
4089
330
4086
100
AcDbEntity
  8
MODEL
  0
SPLINE
  5
408A
330
A
100
AcDbEntity
  8
MODEL
100
AcDbSpline
210
0.0
220
0.0
230
1.0
 70
    11
 71
     3
 72
    17
 73
    13
 74
     0
 42
0.000000001
 43
0.0000000001
 40
0.0
 40
0.0
 40
0.0
 40
0.0
 40
1.0
 40
1.0
 40
1.0
 40
2.0
 40
2.0
 40
2.0
 40
3.0
 40
3.0
 40
3.0
 40
4.0
 40
4.0
 40
4.0
 40
4.0
 10
835.9863740110995
 20
2031.202144279277
 30
0.0
 10
835.9863740110995
 20
2155.543796668679
 30
0.0
 10
734.4813336268362
 20
2256.202144279277
 30
0.0
 10
610.9846530908271
 20
2256.202144279277
 30
0.0
 10
486.6430007014242
 20
2256.202144279277
 30
0.0
 10
385.9846530908271
 20
2155.543796668679
 30
0.0
 10
385.9846530908271
 20
2031.202144279277
 30
0.0
 10
385.9846530908271
 20
1907.705463743268
 30
0.0
 10
486.6430007014242
 20
1806.202144279277
 30
0.0
 10
610.9846530908271
 20
1806.202144279277
 30
0.0
 10
734.4813336268362
 20
1806.202144279277
 30
0.0
 10
835.9863740110995
 20
1907.705463743268
 30
0.0
 10
835.9863740110995
 20
2031.202144279277
 30
0.0
  0
SPLINE
  5
408B
330
A
100
AcDbEntity
  8
MODEL
100
AcDbSpline
210
0.0
220
0.0
230
1.0
 70
    11
 71
     3
 72
    17
 73
    13
 74
     0
 42
0.000000001
 43
0.0000000001
 40
0.0
 40
0.0
 40
0.0
 40
0.0
 40
1.0
 40
1.0
 40
1.0
 40
2.0
 40
2.0
 40
2.0
 40
3.0
 40
3.0
 40
3.0
 40
4.0
 40
4.0
 40
4.0
 40
4.0
 10
644.8196665522482
 20
2080.262139384215
 30
0.0
 10
644.8196665522482
 20
2099.717143055511
 30
0.0
 10
628.7479921350659
 20
2114.097152845635
 30
0.0
 10
610.1396812374351
 20
2114.097152845635
 30
0.0
 10
591.5313703398024
 20
2114.097152845635
 30
0.0
 10
576.304667776014
 20
2099.717143055511
 30
0.0
 10
576.304667776014
 20
2080.262139384215
 30
0.0
 10
576.304667776014
 20
2061.653828486582
 30
0.0
 10
591.5313703398024
 20
2046.427125922793
 30
0.0
 10
610.1396812374351
 20
2046.427125922793
 30
0.0
 10
628.7479921350659
 20
2046.427125922793
 30
0.0
 10
644.8196665522482
 20
2061.653828486582
 30
0.0
 10
644.8196665522482
 20
2080.262139384215
 30
0.0
  0
SPLINE
  5
408C
330
A
100
AcDbEntity
  8
MODEL
100
AcDbSpline
210
0.0
220
0.0
230
1.0
 70
    11
 71
     3
 72
    17
 73
    13
 74
     0
 42
0.000000001
 43
0.0000000001
 40
0.0
 40
0.0
 40
0.0
 40
0.0
 40
1.0
 40
1.0
 40
1.0
 40
2.0
 40
2.0
 40
2.0
 40
3.0
 40
3.0
 40
3.0
 40
4.0
 40
4.0
 40
4.0
 40
4.0
 10
638.0530080440185
 20
2080.262139384215
 30
0.0
 10
638.0530080440185
 20
2095.487121027732
 30
0.0
 10
625.3646628809511
 20
2107.330494337405
 30
0.0
 10
610.9846530908271
 20
2107.330494337405
 30
0.0
 10
595.7596714473093
 20
2107.330494337405
 30
0.0
 10
583.9180190579082
 20
2095.487121027732
 30
0.0
 10
583.9180190579082
 20
2080.262139384215
 30
0.0
 10
583.9180190579082
 20
2065.88212959409
 30
0.0
 10
595.7596714473093
 20
2053.193784431023
 30
0.0
 10
610.9846530908271
 20
2053.193784431023
 30
0.0
 10
625.3646628809511
 20
2053.193784431023
 30
0.0
 10
638.0530080440185
 20
2065.88212959409
 30
0.0
 10
638.0530080440185
 20
2080.262139384215
 30
0.0
  0
SPLINE
  5
408D
330
A
100
AcDbEntity
  8
MODEL
100
AcDbSpline
210
0.0
220
0.0
230
1.0
 70
    11
 71
     3
 72
    17
 73
    13
 74
     0
 42
0.000000001
 43
0.0000000001
 40
0.0
 40
0.0
 40
0.0
 40
0.0
 40
1.0
 40
1.0
 40
1.0
 40
2.0
 40
2.0
 40
2.0
 40
3.0
 40
3.0
 40
3.0
 40
4.0
 40
4.0
 40
4.0
 40
4.0
 10
634.6696787899036
 20
2080.262139384215
 30
0.0
 10
634.6696787899036
 20
2093.795456400674
 30
0.0
 10
623.6729982538945
 20
2103.94716508329
 30
0.0
 10
610.1396812374351
 20
2103.94716508329
 30
0.0
 10
596.6063642209738
 20
2103.94716508329
 30
0.0
 10
586.4546555383586
 20
2093.795456400674
 30
0.0
 10
586.4546555383586
 20
2080.262139384215
 30
0.0
 10
586.4546555383586
 20
2067.573794221147
 30
0.0
 10
596.6063642209738
 20
2056.57883460541
 30
0.0
 10
610.1396812374351
 20
2056.57883460541
 30
0.0
 10
623.6729982538945
 20
2056.57883460541
 30
0.0
 10
634.6696787899036
 20
2067.573794221147
 30
0.0
 10
634.6696787899036
 20
2080.262139384215
 30
0.0
  0
POLYLINE
  5
408E
330
A
100
AcDbEntity
  8
MODEL
100
AcDb2dPolyline
 66
     1
 10
0.0
 20
0.0
 30
0.0
  0
VERTEX
  5
408F
330
408E
100
AcDbEntity
  8
MODEL
100
AcDbVertex
100
AcDb2dVertex
 10
1588.01641194783
 20
1031.388768522072
 30
0.0
  0
VERTEX
  5
4090
330
408E
100
AcDbEntity
  8
MODEL
100
AcDbVertex
100
AcDb2dVertex
 10
1588.01641194783
 20
991.6320684058142
 30
0.0
  0
SEQEND
  5
4091
330
408E
100
AcDbEntity
  8
MODEL
  0
POLYLINE
  5
4092
330
A
100
AcDbEntity
  8
MODEL
100
AcDb2dPolyline
 66
     1
 10
0.0
 20
0.0
 30
0.0
  0
VERTEX
  5
4093
330
4092
100
AcDbEntity
  8
MODEL
100
AcDbVertex
100
AcDb2dVertex
 10
1588.863104721494
 20
990.7853756321497
 30
0.0
  0
VERTEX
  5
4094
330
4092
100
AcDbEntity
  8
MODEL
100
AcDbVertex
100
AcDb2dVertex
 10
1737.736475583638
 20
990.7853756321497
 30
0.0
  0
SEQEND
  5
4095
330
4092
100
AcDbEntity
  8
MODEL
  0
POLYLINE
  5
4096
330
A
100
AcDbEntity
  8
MODEL
100
AcDb2dPolyline
 66
     1
 10
0.0
 20
0.0
 30
0.0
  0
VERTEX
  5
4097
330
4096
100
AcDbEntity
  8
MODEL
100
AcDbVertex
100
AcDb2dVertex
 10
1738.579726516759
 20
1035.615348709308
 30
0.0
  0
VERTEX
  5
4098
330
4096
100
AcDbEntity
  8
MODEL
100
AcDbVertex
100
AcDb2dVertex
 10
1738.579726516759
 20
991.6320684058142
 30
0.0
  0
SEQEND
  5
4099
330
4096
100
AcDbEntity
  8
MODEL
  0
POLYLINE
  5
409A
330
A
100
AcDbEntity
  8
MODEL
100
AcDb2dPolyline
 66
     1
 10
0.0
 20
0.0
 30
0.0
  0
VERTEX
  5
409B
330
409A
100
AcDbEntity
  8
MODEL
100
AcDbVertex
100
AcDb2dVertex
 10
1734.353146329523
 20
1039.002119803966
 30
0.0
  0
VERTEX
  5
409C
330
409A
100
AcDbEntity
  8
MODEL
100
AcDbVertex
100
AcDb2dVertex
 10
1736.043090036309
 20
1039.002119803966
 30
0.0
  0
VERTEX
  5
409D
330
409A
100
AcDbEntity
  8
MODEL
100
AcDbVertex
100
AcDb2dVertex
 10
1738.579726516759
 20
1036.462041482972
 30
0.0
  0
VERTEX
  5
409E
330
409A
100
AcDbEntity
  8
MODEL
100
AcDbVertex
100
AcDb2dVertex
 10
1738.579726516759
 20
1035.615348709308
 30
0.0
  0
SEQEND
  5
409F
330
409A
100
AcDbEntity
  8
MODEL
  0
POLYLINE
  5
40A0
330
A
100
AcDbEntity
  8
MODEL
100
AcDb2dPolyline
 66
     1
 10
0.0
 20
0.0
 30
0.0
  0
VERTEX
  5
40A1
330
40A0
100
AcDbEntity
  8
MODEL
100
AcDbVertex
100
AcDb2dVertex
 10
1738.579726516759
 20
991.6320684058142
 30
0.0
  0
VERTEX
  5
40A2
330
40A0
100
AcDbEntity
  8
MODEL
100
AcDbVertex
100
AcDb2dVertex
 10
1737.736475583638
 20
991.6320684058142
 30
0.0
  0
VERTEX
  5
40A3
330
40A0
100
AcDbEntity
  8
MODEL
100
AcDbVertex
100
AcDb2dVertex
 10
1737.736475583638
 20
990.7853756321497
 30
0.0
  0
SEQEND
  5
40A4
330
40A0
100
AcDbEntity
  8
MODEL
  0
POLYLINE
  5
40A5
330
A
100
AcDbEntity
  8
MODEL
100
AcDb2dPolyline
 66
     1
 10
0.0
 20
0.0
 30
0.0
  0
VERTEX
  5
40A6
330
40A5
100
AcDbEntity
  8
MODEL
100
AcDbVertex
100
AcDb2dVertex
 10
1588.863104721494
 20
990.7853756321497
 30
0.0
  0
VERTEX
  5
40A7
330
40A5
100
AcDbEntity
  8
MODEL
100
AcDbVertex
100
AcDb2dVertex
 10
1588.863104721494
 20
991.6320684058142
 30
0.0
  0
VERTEX
  5
40A8
330
40A5
100
AcDbEntity
  8
MODEL
100
AcDbVertex
100
AcDb2dVertex
 10
1588.01641194783
 20
991.6320684058142
 30
0.0
  0
SEQEND
  5
40A9
330
40A5
100
AcDbEntity
  8
MODEL
  0
DIMENSION
  5
40AA
102
{ACAD_XDICTIONARY
360
40AB
102
}
330
A
100
AcDbEntity
  8
DIM
100
AcDbDimension
  2
*D7
 10
965.2717024107687
 20
1806.202144279277
 30
0.0
 11
933.2717024107687
 21
2031.202144279277
 31
0.0
 70
    32
 71
     5
 42
450.0
 73
     0
 74
     0
 75
     0
  3
tfrom線あり
100
AcDbAlignedDimension
 13
646.9828429206609
 23
2256.202144279277
 33
0.0
 14
646.9828429206609
 24
1806.202144279277
 34
0.0
 50
90.0
100
AcDbRotatedDimension
1001
ACAD
1000
DSTYLE
1002
{
1070
   271
1070
     8
1070
   144
1040
1.0
1002
}
  0
DIMENSION
  5
40C9
102
{ACAD_XDICTIONARY
360
40CA
102
}
330
A
100
AcDbEntity
  8
DIM
100
AcDbDimension
  2
*D9
 10
412.206315270354
 20
1706.388768522072
 30
0.0
 11
610.9855135509633
 21
1738.388768522072
 31
0.0
 70
    32
 71
     5
 42
397.5583965612186
 73
     0
 74
     0
 75
     0
  3
tfrom線あり
100
AcDbAlignedDimension
 13
809.7647118315726
 23
1901.785498008702
 33
0.0
 14
412.206315270354
 24
1901.785498008702
 34
0.0
100
AcDbRotatedDimension
1001
ACAD
1000
DSTYLE
1002
{
1070
   144
1040
1.0
1002
}
  0
DIMENSION
  5
40D8
102
{ACAD_XDICTIONARY
360
40D9
102
}
330
A
100
AcDbEntity
  8
DIM
100
AcDbDimension
  2
*D10
 10
286.1729982538945
 20
1831.577113685138
 30
0.0
 11
286.1729982538945
 21
1818.696225833978
 31
0.0
 70
   160
 71
     5
 42
25.37496940586152
 73
     0
 74
     0
 75
     0
  3
tfrom線あり
100
AcDbAlignedDimension
 13
549.3183019962412
 23
1806.202144279277
 33
0.0
 14
483.2596714473093
 24
1831.577113685138
 34
0.0
 50
90.0
100
AcDbRotatedDimension
1001
ACAD
1000
DSTYLE
1002
{
1070
   144
1040
1.0
1002
}
  0
DIMENSION
  5
40E8
102
{ACAD_XDICTIONARY
360
40E9
102
}
330
A
100
AcDbEntity
  8
DIM
100
AcDbDimension
  2
*D11
 10
286.1729982538945
 20
1831.577113685138
 30
0.0
 11
254.1729982538945
 21
1993.983801563741
 31
0.0
 70
    32
 71
     5
 42
324.813375757205
 73
     0
 74
     0
 75
     0
  3
tfrom線あり
100
AcDbAlignedDimension
 13
398.6729982538945
 23
2156.390489442343
 33
0.0
 14
476.9044083549043
 24
1831.577113685138
 34
0.0
 50
90.0
100
AcDbRotatedDimension
1001
ACAD
1000
DSTYLE
1002
{
1070
   144
1040
1.0
1002
}
  0
DIMENSION
  5
40F7
102
{ACAD_XDICTIONARY
360
40F8
102
}
330
A
100
AcDbEntity
  8
DIM
100
AcDbDimension
  2
*D12
 10
286.1729982538945
 20
2256.202144279277
 30
0.0
 11
254.1729982538945
 21
2206.29631686081
 31
0.0
 70
    32
 71
     5
 42
99.8116548369335
 73
     0
 74
     0
 75
     0
  3
tfrom線あり
100
AcDbAlignedDimension
 13
398.6729982538945
 23
2156.390489442343
 33
0.0
 14
561.0796861324961
 24
2256.202144279277
 34
0.0
 50
90.0
100
AcDbRotatedDimension
1001
ACAD
1000
DSTYLE
1002
{
1070
   144
1040
1.0
1002
}
  0
DIMENSION
  5
4106
102
{ACAD_XDICTIONARY
360
4107
102
}
330
A
100
AcDbEntity
  8
DIM
100
AcDbDimension
  2
*D13
 10
835.9863740110995
 20
2356.015520036482
 30
0.0
 11
610.9855135509633
 21
2388.015520036482
 31
0.0
 70
    32
 71
     5
 42
450.0017209202724
 73
     0
 74
     0
 75
     0
  3
tfrom線あり
100
AcDbAlignedDimension
 13
385.9846530908271
 23
2087.936897807441
 33
0.0
 14
835.9863740110995
 24
2087.936897807441
 34
0.0
100
AcDbRotatedDimension
1001
ACAD
1000
DSTYLE
1002
{
1070
   144
1040
1.0
1002
}
  0
LINE
  5
4115
330
A
100
AcDbEntity
  8
DIM
100
AcDbLine
 10
622.8280264005007
 20
2217.292136936683
 30
0.0
 11
676.118043533219
 21
2279.040477204688
 31
0.0
  0
LINE
  5
4116
330
A
100
AcDbEntity
  8
DIM
100
AcDbLine
 10
676.118043533219
 20
2279.040477204688
 30
0.0
 11
806.3217374349624
 21
2279.040477204688
 31
0.0
  0
DIMENSION
  5
411A
102
{ACAD_XDICTIONARY
360
411B
102
}
330
A
100
AcDbEntity
  8
DIM
100
AcDbDimension
  2
*D14
 10
911.6600643009197
 20
1039.002119803966
 30
0.0
 11
879.6600643009197
 21
962.0270769721724
 31
0.0
 70
    32
 71
     5
 42
153.9500856635868
 73
     0
 74
     0
 75
     0
  3
tfrom線あり
100
AcDbAlignedDimension
 13
658.8575244229651
 23
885.052034140379
 33
0.0
 14
832.9950777623408
 24
1039.002119803966
 34
0.0
 50
90.0
100
AcDbRotatedDimension
1001
ACAD
1000
DSTYLE
1002
{
1070
   144
1040
1.0
1002
}
  0
DIMENSION
  5
4138
102
{ACAD_XDICTIONARY
360
4139
102
}
330
A
100
AcDbEntity
  8
DIM
100
AcDbDimension
  2
*D16
 10
1464.51973141182
 20
749.3830669743611
 30
0.0
 11
1376.54972896429
 21
781.3830669743611
 31
0.0
 70
    32
 71
     5
 42
175.9400048950611
 73
     0
 74
     0
 75
     0
  3
tfrom線あり
100
AcDbAlignedDimension
 13
1288.579726516759
 23
1027.253486997397
 33
0.0
 14
1464.51973141182
 24
872.4601504006891
 34
0.0
100
AcDbRotatedDimension
1001
ACAD
1000
DSTYLE
1002
{
1070
   144
1040
1.0
1002
}
  0
DIMENSION
  5
4147
102
{ACAD_XDICTIONARY
360
4148
102
}
330
A
100
AcDbEntity
  8
DIM
100
AcDbDimension
  2
*D17
 10
1229.553246871057
 20
1039.002119803966
 30
0.0
 11
1197.553246871057
 21
1035.195444163019
 31
0.0
 70
    32
 71
     5
 42
7.613351281894211
 73
     0
 74
     1
 75
     1
  3
tfrom線あり
100
AcDbAlignedDimension
 13
1289.153212093286
 23
1031.388768522072
 33
0.0
 14
1292.536541347401
 24
1039.002119803966
 34
0.0
 50
90.0
100
AcDbRotatedDimension
1001
ACAD
1000
DSTYLE
1002
{
1070
   144
1040
1.0
1002
}
  0
DIMENSION
  5
4157
102
{ACAD_XDICTIONARY
360
4158
102
}
330
A
100
AcDbEntity
  8
DIM
100
AcDbDimension
  2
*D18
 10
1288.579726516759
 20
1115.322628767996
 30
0.0
 11
1313.53307045606
 21
1115.322628767996
 31
0.0
 70
   160
 71
     5
 42
49.90668787860159
 73
     0
 74
     0
 75
     0
  3
tfrom線あり
100
AcDbAlignedDimension
 13
1338.486414395361
 23
1042.730784596837
 33
0.0
 14
1288.579726516759
 24
1039.270365999363
 34
0.0
100
AcDbRotatedDimension
1001
ACAD
1000
DSTYLE
1002
{
1070
   144
1040
1.0
1002
}
  0
DIMENSION
  5
4167
102
{ACAD_XDICTIONARY
360
4168
102
}
330
A
100
AcDbEntity
  8
DIM
100
AcDbDimension
  2
*D19
 10
1833.921534238822
 20
990.7853756321497
 30
0.0
 11
1833.921534238822
 21
1014.893747718058
 31
0.0
 70
   160
 71
     5
 42
48.21674417181657
 73
     0
 74
     0
 75
     0
  3
tfrom線あり
100
AcDbAlignedDimension
 13
1745.822927235977
 23
1039.002119803966
 33
0.0
 14
1748.36300555697
 24
990.7853756321497
 34
0.0
 50
90.0
100
AcDbRotatedDimension
1001
ACAD
1000
DSTYLE
1002
{
1070
   144
1040
1.0
1002
}
  0
DIMENSION
  5
4187
330
A
100
AcDbEntity
  8
DIM
100
AcDbDimension
  2
*D21
 10
1833.921534238822
 20
875.7853756321499
 30
0.0
 11
1801.921534238822
 21
933.2853756321499
 31
0.0
 70
    32
 71
     5
 42
115.0
 73
     0
 74
     0
 75
     0
  3
tfrom線あり
100
AcDbAlignedDimension
 13
1746.907715137605
 23
990.7853756321499
 33
0.0
 14
1492.010809520098
 24
875.7853756321499
 34
0.0
 50
90.0
100
AcDbRotatedDimension
1001
ACAD
1000
DSTYLE
1002
{
1070
   144
1040
1.0
1002
}
  0
DIMENSION
  5
4194
102
{ACAD_XDICTIONARY
360
4195
102
}
330
A
100
AcDbEntity
  8
DIM
100
AcDbDimension
  2
*D22
 10
974.785153119039
 20
876.0021198039658
 30
0.0
 11
942.785153119039
 21
957.5021198039658
 31
0.0
 70
    32
 71
     5
 42
163.0
 73
     0
 74
     0
 75
     0
  3
tfrom線あり
100
AcDbAlignedDimension
 13
887.3275710316302
 23
1039.002119803966
 33
0.0
 14
654.6311306068537
 24
876.0021198039658
 34
0.0
 50
90.0
100
AcDbRotatedDimension
1001
ACAD
1000
DSTYLE
1002
{
1070
   144
1040
1.0
1002
}
  0
DIMENSION
  5
41A3
102
{ACAD_REACTORS
330
41A5
102
}
102
{ACAD_XDICTIONARY
360
41A4
102
}
330
A
100
AcDbEntity
  8
DIM
100
AcDbDimension
  2
*D23
 10
1467.056367892271
 20
899.4320439305038
 30
0.0
 11
1467.056367892271
 21
1181.476470442149
 31
0.0
 70
   160
 71
     5
 42
139.5700758734627
 73
     0
 74
     0
 75
     0
  3
tfrom線あり
100
AcDbAlignedDimension
 13
1487.130846279345
 23
1039.002119803966
 33
0.0
 14
1489.896421737953
 24
899.4320439305038
 34
0.0
 50
90.0
100
AcDbRotatedDimension
1001
ACAD
1000
DSTYLE
1002
{
1070
     3
1000
<>(深さ)
1070
   144
1040
1.0
1002
}
  0
VIEWPORT
  5
349
330
B
100
AcDbEntity
 67
     1
  8
0
100
AcDbViewport
 10
202.5
 20
128.5
 30
0.0
 40
486.0
 41
308.4
 68
     1
 69
     1
 12
202.5
 22
128.5
 13
0.0
 23
0.0
 14
0.5
 24
0.5
 15
0.0
 25
0.0
 16
0.0
 26
0.0
 36
1.0
 17
0.0
 27
0.0
 37
0.0
 42
50.0
 43
0.0
 44
0.0
 45
308.4
 50
0.0
 51
0.0
 72
   100
 90
   557152
  1

281
     0
 71
     1
 74
     0
110
0.0
120
0.0
130
0.0
111
1.0
121
0.0
131
0.0
112
0.0
122
1.0
132
0.0
 79
     0
146
0.0
170
     0
 61
     5
348
26C
292
     1
282
     1
141
0.0
142
0.0
 63
   256
  0
VIEWPORT
  5
34A
330
B
100
AcDbEntity
 67
     1
  8
0
100
AcDbViewport
 10
202.5
 20
128.5
 30
0.0
 40
324.0
 41
205.6
 68
     2
 69
     2
 12
986.6781359294573
 22
1427.077061889956
 13
0.0
 23
0.0
 14
0.5
 24
0.5
 15
0.0
 25
0.0
 16
0.0
 26
0.0
 36
1.0
 17
0.0
 27
0.0
 37
0.0
 42
50.0
 43
0.0
 44
0.0
 45
2890.021615685494
 50
0.0
 51
0.0
 72
   100
 90
   557152
  1

281
     0
 71
     1
 74
     0
110
0.0
120
0.0
130
0.0
111
1.0
121
0.0
131
0.0
112
0.0
122
1.0
132
0.0
 79
     0
146
0.0
170
     0
 61
     5
348
26C
292
     1
282
     1
141
0.0
142
0.0
 63
   256
  0
ENDSEC
  0
SECTION
  2
OBJECTS
  0
DICTIONARY
  5
19
330
0
100
AcDbDictionary
281
     1
  3
ACAD_COLOR
350
674
  3
ACAD_DETAILVIEWSTYLE
350
BBF
  3
ACAD_FIELDLIST
350
146A
  3
ACAD_GROUP
350
1A
  3
ACAD_IMAGE_VARS
350
27B
  3
ACAD_LAYOUT
350
1E
  3
ACAD_MATERIAL
350
263
  3
ACAD_MLEADERSTYLE
350
336
  3
ACAD_MLINESTYLE
350
1B
  3
ACAD_PLOTSETTINGS
350
22
  3
ACAD_PLOTSTYLENAME
350
1F
  3
ACAD_SCALELIST
350
241
  3
ACAD_SECTIONVIEWSTYLE
350
BC0
  3
ACAD_TABLESTYLE
350
278
  3
ACAD_VISUALSTYLE
350
267
  3
ACDB_RECOMPOSE_DATA
350
41EA
  3
AcDbVariableDictionary
350
330
  3
APPDATA
350
27A
  3
DimOffsetDictionary
350
E3E
  0
SUN
  5
904
330
15
100
AcDbSun
 90
        1
290
     0
 63
     7
421
 16777215
 40
1.0
291
     1
 91
  2455826
 92
 54000000
292
     0
 70
     2
 71
   256
280
     1
  0
DICTIONARY
  5
2E1
330
2
100
AcDbDictionary
280
     1
281
     1
  3
ACAD_LAYERSTATES
360
2E2
  3
ACLYDICTIONARY
360
DF9
  0
DICTIONARY
  5
374D
330
A
100
AcDbDictionary
280
     1
281
     1
  3
ACAD_SORTENTS
360
374E
  0
DICTIONARY
  5
1468
330
1466
100
AcDbDictionary
280
     1
281
     1
  3
ACAD_FIELD
360
41D5
  0
DICTIONARY
  5
40AB
330
40AA
100
AcDbDictionary
280
     1
281
     1
  0
DICTIONARY
  5
40CA
330
40C9
100
AcDbDictionary
280
     1
281
     1
  0
DICTIONARY
  5
40D9
330
40D8
100
AcDbDictionary
280
     1
281
     1
  0
DICTIONARY
  5
40E9
330
40E8
100
AcDbDictionary
280
     1
281
     1
  0
DICTIONARY
  5
40F8
330
40F7
100
AcDbDictionary
280
     1
281
     1
  0
DICTIONARY
  5
4107
330
4106
100
AcDbDictionary
280
     1
281
     1
  0
DICTIONARY
  5
411B
330
411A
100
AcDbDictionary
280
     1
281
     1
  0
DICTIONARY
  5
4139
330
4138
100
AcDbDictionary
280
     1
281
     1
  0
DICTIONARY
  5
4148
330
4147
100
AcDbDictionary
280
     1
281
     1
  0
DICTIONARY
  5
4158
330
4157
100
AcDbDictionary
280
     1
281
     1
  0
DICTIONARY
  5
4168
330
4167
100
AcDbDictionary
280
     1
281
     1
  0
DICTIONARY
  5
4195
330
4194
100
AcDbDictionary
280
     1
281
     1
  0
DICTIONARY
  5
41A4
330
41A3
100
AcDbDictionary
280
     1
281
     1
  3
ACAD_DIMASSOC
360
41A5
  0
DICTIONARY
  5
674
102
{ACAD_REACTORS
330
19
102
}
330
19
100
AcDbDictionary
281
     1
  0
DICTIONARY
  5
BBF
102
{ACAD_REACTORS
330
19
102
}
330
19
100
AcDbDictionary
281
     1
  0
FIELDLIST
  5
146A
102
{ACAD_REACTORS
330
19
102
}
330
19
100
AcDbIdSet
 90
        2
330
146B
330
1467
100
AcDbFieldList
  0
DICTIONARY
  5
1A
102
{ACAD_REACTORS
330
19
102
}
330
19
100
AcDbDictionary
281
     1
  3
*A1
350
36AC
  0
RASTERVARIABLES
  5
27B
102
{ACAD_REACTORS
330
19
102
}
330
19
100
AcDbRasterVariables
 90
        0
 70
     1
 71
     1
 72
     1
  0
DICTIONARY
  5
1E
102
{ACAD_REACTORS
330
19
102
}
330
19
100
AcDbDictionary
281
     1
  3
Layout1
350
21
  3
Model
350
20
  0
DICTIONARY
  5
263
102
{ACAD_REACTORS
330
19
102
}
330
19
100
AcDbDictionary
281
     1
  3
ByBlock
350
265
  3
ByLayer
350
264
  3
Global
350
266
  0
DICTIONARY
  5
336
102
{ACAD_REACTORS
330
19
102
}
330
19
100
AcDbDictionary
281
     1
  3
Standard
350
DAB
  0
DICTIONARY
  5
1B
102
{ACAD_REACTORS
330
19
102
}
330
19
100
AcDbDictionary
281
     1
  3
Standard
350
1C
  0
DICTIONARY
  5
22
102
{ACAD_REACTORS
330
19
102
}
330
19
100
AcDbDictionary
281
     1
  0
ACDBDICTIONARYWDFLT
  5
1F
102
{ACAD_REACTORS
330
19
102
}
330
19
100
AcDbDictionary
281
     1
  3
Normal
350
1D
100
AcDbDictionaryWithDefault
340
1D
  0
DICTIONARY
  5
241
102
{ACAD_REACTORS
330
19
102
}
330
19
100
AcDbDictionary
281
     1
  3
A0
350
242
  3
A1
350
243
  3
A2
350
244
  3
A3
350
245
  3
A4
350
246
  3
A5
350
247
  3
A6
350
248
  3
A7
350
249
  3
A8
350
24A
  3
A9
350
24B
  3
B0
350
24C
  3
B1
350
24D
  3
B2
350
24E
  3
B3
350
24F
  3
B4
350
250
  3
B5
350
251
  3
B6
350
252
  3
B7
350
253
  3
B8
350
254
  3
B9
350
255
  3
C0
350
256
  3
C1
350
257
  3
C2
350
258
  3
C3
350
259
  3
C4
350
25A
  3
C5
350
25B
  3
C6
350
25C
  3
C7
350
25D
  3
C8
350
25E
  3
C9
350
25F
  3
D0
350
260
  3
D1
350
261
  3
D2
350
262
  0
DICTIONARY
  5
BC0
102
{ACAD_REACTORS
330
19
102
}
330
19
100
AcDbDictionary
281
     1
  0
DICTIONARY
  5
278
102
{ACAD_REACTORS
330
19
102
}
330
19
100
AcDbDictionary
281
     1
  3
Standard
350
279
  0
DICTIONARY
  5
267
102
{ACAD_REACTORS
330
19
102
}
330
19
100
AcDbDictionary
281
     1
  3
2dWireframe
350
26C
  3
3D Hidden
350
26E
  3
3dWireframe
350
26D
  3
Basic
350
26F
  3
Brighten
350
273
  3
ColorChange
350
277
  3
Conceptual
350
271
  3
Dim
350
272
  3
EdgeColorOff
350
8FE
  3
Facepattern
350
276
  3
Flat
350
268
  3
FlatWithEdges
350
269
  3
Gouraud
350
26A
  3
GouraudWithEdges
350
26B
  3
Hidden
350
8FB
  3
JitterOff
350
8FC
  3
Linepattern
350
275
  3
OverhangOff
350
8FD
  3
Realistic
350
270
  3
Shaded
350
903
  3
Shaded with edges
350
902
  3
Shades of Gray
350
8FF
  3
Sketchy
350
900
  3
Thicken
350
274
  3
Wireframe
350
8FA
  3
X-Ray
350
901
  0
XRECORD
  5
41EA
102
{ACAD_REACTORS
330
19
102
}
330
19
100
AcDbXrecord
280
     1
 90
        1
330
279
  0
DICTIONARY
  5
330
102
{ACAD_REACTORS
330
19
102
}
330
19
100
AcDbDictionary
281
     1
  3
CANNOSCALE
350
331
  3
CMLEADERSTYLE
350
DB1
  3
CTABLESTYLE
350
335
  3
HPTRANSPARENCY
350
D52
  3
XCLIPFRAME
350
896
  0
DICTIONARY
  5
27A
102
{ACAD_REACTORS
330
19
102
}
330
19
100
AcDbDictionary
281
     1
  0
DICTIONARY
  5
E3E
102
{ACAD_REACTORS
330
19
102
}
330
19
100
AcDbDictionary
281
     1
  3
DIMRAILANGLE
350
ECE
  3
DIMRAILFIRSTOFFSET
350
ECC
  3
DIMRAILOFFSET
350
ECD
  3
DIMRAILSENABLED
350
ECF
  0
DICTIONARY
  5
2E2
102
{ACAD_REACTORS
330
2E1
102
}
330
2E1
100
AcDbDictionary
281
     1
  0
DICTIONARY
  5
DF9
102
{ACAD_REACTORS
330
2E1
102
}
330
2E1
100
AcDbDictionary
281
     1
1001
ACAD
1000
<All
  0
SORTENTSTABLE
  5
374E
102
{ACAD_REACTORS
330
374D
102
}
330
374D
100
AcDbSortentsTable
330
A
331
0
  5
35AD
331
0
  5
3733
331
0
  5
3732
331
369B
  5
35AE
331
369C
  5
369A
331
36A7
  5
369B
331
36A8
  5
369C
331
36A9
  5
36A7
331
36AA
  5
36A8
331
36AB
  5
36A9
331
0
  5
36AB
331
0
  5
3728
331
0
  5
3729
331
0
  5
372A
331
0
  5
372B
331
0
  5
372E
331
0
  5
3731
  0
DICTIONARY
  5
41D5
102
{ACAD_REACTORS
330
1468
102
}
330
1468
100
AcDbDictionary
280
     1
281
     1
  3
TEXT
360
1467
  0
DIMASSOC
  5
41A5
102
{ACAD_REACTORS
330
41A4
102
}
330
41A4
100
AcDbDimAssoc
330
41A3
 90
        3
 70
     0
 71
     1
  1
AcDbOsnapPointRef
 72
    10
331
3CBF
 73
     2
 91
        1
 40
0.1210844544103943
 10
0.0
 20
0.0
 30
0.0
 75
     0
  1
AcDbOsnapPointRef
 72
    13
331
3CC3
 73
     2
 91
        1
 40
0.0
 10
0.0
 20
0.0
 30
0.0
 75
     0
  0
GROUP
  5
36AC
102
{ACAD_REACTORS
330
1A
102
}
330
1A
100
AcDbGroup
300

 70
     1
 71
     1
340
369B
340
369C
340
36A7
340
36A8
340
36A9
340
36AA
340
36AB
  0
LAYOUT
  5
21
102
{ACAD_REACTORS
330
1E
102
}
330
1E
100
AcDbPlotSettings
  1

  2
none_device
  4
ISO_A3_(420.00_x_297.00_MM)
  6

 40
7.5
 41
20.0
 42
7.5
 43
20.0
 44
420.0
 45
297.0
 46
0.0
 47
0.0
 48
0.0
 49
0.0
140
0.0
141
0.0
142
1.0
143
1.0
 70
     0
 72
     1
 73
     0
 74
     0
  7

 75
     0
 76
     0
 77
     2
 78
   300
147
1.0
148
0.0
149
0.0
100
AcDbLayout
  1
Layout1
 70
     0
 71
     0
 10
-7.5
 20
-20.0
 11
412.5
 21
277.0
 12
0.0
 22
0.0
 32
0.0
 14
0.0
 24
0.0
 34
0.0
 15
0.0
 25
0.0
 35
0.0
146
0.0
 13
0.0
 23
0.0
 33
0.0
 16
0.0
 26
0.0
 36
0.0
 17
0.0
 27
0.0
 37
0.0
 76
     0
330
B
331
349
  0
LAYOUT
  5
20
102
{ACAD_REACTORS
330
1E
102
}
330
1E
100
AcDbPlotSettings
  1

  2
none_device
  4
ISO_A3_(420.00_x_297.00_MM)
  6

 40
7.5
 41
20.0
 42
7.5
 43
20.0
 44
420.0
 45
297.0
 46
0.0
 47
0.0
 48
0.0
 49
0.0
140
0.0
141
0.0
142
1.0
143
1.0
 70
  1024
 72
     1
 73
     0
 74
     0
  7

 75
     0
 76
     0
 77
     2
 78
   300
147
1.0
148
0.0
149
0.0
100
AcDbLayout
  1
Model
 70
     0
 71
     1
 10
0.0
 20
0.0
 11
2100.0
 21
2970.0
 12
0.0
 22
0.0
 32
0.0
 14
0.0
 24
0.0
 34
-0.0000000000000142
 15
2100.0
 25
2970.0
 35
0.0000000000000071
146
0.0
 13
0.0
 23
0.0
 33
0.0
 16
0.0
 26
0.0
 36
0.0
 17
0.0
 27
0.0
 37
0.0
 76
     0
330
A
331
15
  0
MATERIAL
  5
265
102
{ACAD_REACTORS
330
263
102
}
330
263
100
AcDbMaterial
  1
ByBlock
 72
     1
 94
      127
  0
MATERIAL
  5
264
102
{ACAD_REACTORS
330
263
102
}
330
263
100
AcDbMaterial
  1
ByLayer
 72
     1
 94
      127
  0
MATERIAL
  5
266
102
{ACAD_REACTORS
330
263
102
}
330
263
100
AcDbMaterial
  1
Global
 72
     1
 94
      127
  0
MLEADERSTYLE
  5
DAB
102
{ACAD_REACTORS
330
336
102
}
330
336
100
AcDbMLeaderStyle
170
     2
171
     1
172
     0
 90
        2
 40
0.0
 41
0.0
173
     1
 91
-1056964608
340
11
 92
       -2
290
     1
 42
2.0
291
     1
 43
8.0
  3
Standard
341
0
 44
4.0
300

342
17
174
     1
178
     6
175
     1
176
     0
 93
-1056964608
 45
4.0
292
     0
297
     0
 46
4.0
343
0
 94
-1056964608
 47
1.0
 49
1.0
140
1.0
293
     1
141
0.0
294
     1
177
     0
142
1.0
295
     0
296
     0
143
3.75
1001
ACAD_MLEADERVER
1070
     2
  0
MLINESTYLE
  5
1C
102
{ACAD_REACTORS
330
1B
102
}
330
1B
100
AcDbMlineStyle
  2
Standard
 70
     0
  3

 62
     0
 51
90.0
 52
90.0
 71
     2
 49
0.5
 62
   256
  6
BYLAYER
 49
-0.5
 62
   256
  6
BYLAYER
  0
ACDBPLACEHOLDER
  5
1D
102
{ACAD_REACTORS
330
1F
102
}
330
1F
  0
SCALE
  5
242
102
{ACAD_REACTORS
330
241
102
}
330
241
100
AcDbScale
 70
     0
300
1:1
140
1.0
141
1.0
290
     1
  0
SCALE
  5
243
102
{ACAD_REACTORS
330
241
102
}
330
241
100
AcDbScale
 70
     0
300
1:2
140
1.0
141
2.0
290
     0
  0
SCALE
  5
244
102
{ACAD_REACTORS
330
241
102
}
330
241
100
AcDbScale
 70
     0
300
1:4
140
1.0
141
4.0
290
     0
  0
SCALE
  5
245
102
{ACAD_REACTORS
330
241
102
}
330
241
100
AcDbScale
 70
     0
300
1:5
140
1.0
141
5.0
290
     0
  0
SCALE
  5
246
102
{ACAD_REACTORS
330
241
102
}
330
241
100
AcDbScale
 70
     0
300
1:8
140
1.0
141
8.0
290
     0
  0
SCALE
  5
247
102
{ACAD_REACTORS
330
241
102
}
330
241
100
AcDbScale
 70
     0
300
1:10
140
1.0
141
10.0
290
     0
  0
SCALE
  5
248
102
{ACAD_REACTORS
330
241
102
}
330
241
100
AcDbScale
 70
     0
300
1:16
140
1.0
141
16.0
290
     0
  0
SCALE
  5
249
102
{ACAD_REACTORS
330
241
102
}
330
241
100
AcDbScale
 70
     0
300
1:20
140
1.0
141
20.0
290
     0
  0
SCALE
  5
24A
102
{ACAD_REACTORS
330
241
102
}
330
241
100
AcDbScale
 70
     0
300
1:30
140
1.0
141
30.0
290
     0
  0
SCALE
  5
24B
102
{ACAD_REACTORS
330
241
102
}
330
241
100
AcDbScale
 70
     0
300
1:40
140
1.0
141
40.0
290
     0
  0
SCALE
  5
24C
102
{ACAD_REACTORS
330
241
102
}
330
241
100
AcDbScale
 70
     0
300
1:50
140
1.0
141
50.0
290
     0
  0
SCALE
  5
24D
102
{ACAD_REACTORS
330
241
102
}
330
241
100
AcDbScale
 70
     0
300
1:100
140
1.0
141
100.0
290
     0
  0
SCALE
  5
24E
102
{ACAD_REACTORS
330
241
102
}
330
241
100
AcDbScale
 70
     0
300
2:1
140
2.0
141
1.0
290
     0
  0
SCALE
  5
24F
102
{ACAD_REACTORS
330
241
102
}
330
241
100
AcDbScale
 70
     0
300
4:1
140
4.0
141
1.0
290
     0
  0
SCALE
  5
250
102
{ACAD_REACTORS
330
241
102
}
330
241
100
AcDbScale
 70
     0
300
8:1
140
8.0
141
1.0
290
     0
  0
SCALE
  5
251
102
{ACAD_REACTORS
330
241
102
}
330
241
100
AcDbScale
 70
     0
300
10:1
140
10.0
141
1.0
290
     0
  0
SCALE
  5
252
102
{ACAD_REACTORS
330
241
102
}
330
241
100
AcDbScale
 70
     0
300
100:1
140
100.0
141
1.0
290
     0
  0
SCALE
  5
253
102
{ACAD_REACTORS
330
241
102
}
330
241
100
AcDbScale
 70
     0
300
1/128" = 1'-0"
140
0.0078125
141
12.0
290
     0
  0
SCALE
  5
254
102
{ACAD_REACTORS
330
241
102
}
330
241
100
AcDbScale
 70
     0
300
1/64" = 1'-0"
140
0.015625
141
12.0
290
     0
  0
SCALE
  5
255
102
{ACAD_REACTORS
330
241
102
}
330
241
100
AcDbScale
 70
     0
300
1/32" = 1'-0"
140
0.03125
141
12.0
290
     0
  0
SCALE
  5
256
102
{ACAD_REACTORS
330
241
102
}
330
241
100
AcDbScale
 70
     0
300
1/16" = 1'-0"
140
0.0625
141
12.0
290
     0
  0
SCALE
  5
257
102
{ACAD_REACTORS
330
241
102
}
330
241
100
AcDbScale
 70
     0
300
3/32" = 1'-0"
140
0.09375
141
12.0
290
     0
  0
SCALE
  5
258
102
{ACAD_REACTORS
330
241
102
}
330
241
100
AcDbScale
 70
     0
300
1/8" = 1'-0"
140
0.125
141
12.0
290
     0
  0
SCALE
  5
259
102
{ACAD_REACTORS
330
241
102
}
330
241
100
AcDbScale
 70
     0
300
3/16" = 1'-0"
140
0.1875
141
12.0
290
     0
  0
SCALE
  5
25A
102
{ACAD_REACTORS
330
241
102
}
330
241
100
AcDbScale
 70
     0
300
1/4" = 1'-0"
140
0.25
141
12.0
290
     0
  0
SCALE
  5
25B
102
{ACAD_REACTORS
330
241
102
}
330
241
100
AcDbScale
 70
     0
300
3/8" = 1'-0"
140
0.375
141
12.0
290
     0
  0
SCALE
  5
25C
102
{ACAD_REACTORS
330
241
102
}
330
241
100
AcDbScale
 70
     0
300
1/2" = 1'-0"
140
0.5
141
12.0
290
     0
  0
SCALE
  5
25D
102
{ACAD_REACTORS
330
241
102
}
330
241
100
AcDbScale
 70
     0
300
3/4" = 1'-0"
140
0.75
141
12.0
290
     0
  0
SCALE
  5
25E
102
{ACAD_REACTORS
330
241
102
}
330
241
100
AcDbScale
 70
     0
300
1" = 1'-0"
140
1.0
141
12.0
290
     0
  0
SCALE
  5
25F
102
{ACAD_REACTORS
330
241
102
}
330
241
100
AcDbScale
 70
     0
300
1-1/2" = 1'-0"
140
1.5
141
12.0
290
     0
  0
SCALE
  5
260
102
{ACAD_REACTORS
330
241
102
}
330
241
100
AcDbScale
 70
     0
300
3" = 1'-0"
140
3.0
141
12.0
290
     0
  0
SCALE
  5
261
102
{ACAD_REACTORS
330
241
102
}
330
241
100
AcDbScale
 70
     0
300
6" = 1'-0"
140
6.0
141
12.0
290
     0
  0
SCALE
  5
262
102
{ACAD_REACTORS
330
241
102
}
330
241
100
AcDbScale
 70
     0
300
1'-0" = 1'-0"
140
12.0
141
12.0
290
     0
  0
TABLESTYLE
  5
279
102
{ACAD_REACTORS
330
278
102
}
102
{ACAD_XDICTIONARY
360
41E8
102
}
330
278
100
AcDbTableStyle
  3
Standard
 70
     0
 71
     0
 40
0.06
 41
0.06
280
     0
281
     0
  7
Standard
140
4.5
170
     2
 62
     0
 63
   257
283
     0
 90
        4
 91
        0
  1

274
    -2
284
     1
 64
     0
275
    -2
285
     1
 65
     0
276
    -2
286
     1
 66
     0
277
    -2
287
     1
 67
     0
278
    -2
288
     1
 68
     0
279
    -2
289
     1
 69
     0
  7
Standard
140
6.0
170
     5
 62
     0
 63
   257
283
     0
 90
        4
 91
        0
  1

274
    -2
284
     1
 64
     0
275
    -2
285
     1
 65
     0
276
    -2
286
     1
 66
     0
277
    -2
287
     1
 67
     0
278
    -2
288
     1
 68
     0
279
    -2
289
     1
 69
     0
  7
Standard
140
4.5
170
     5
 62
     0
 63
   257
283
     0
 90
        4
 91
        0
  1

274
    -2
284
     1
 64
     0
275
    -2
285
     1
 65
     0
276
    -2
286
     1
 66
     0
277
    -2
287
     1
 67
     0
278
    -2
288
     1
 68
     0
279
    -2
289
     1
 69
     0
  0
VISUALSTYLE
  5
26C
102
{ACAD_REACTORS
330
267
102
}
330
267
100
AcDbVisualStyle
  2
2dWireframe
 70
     4
 71
     0
 72
     2
 73
     0
 90
        0
 40
-0.6
 41
-30.0
 62
     5
 63
     7
421
 16777215
 74
     1
 91
        4
 64
     7
 65
   257
 75
     1
175
     1
 42
1.0
 92
        0
 66
   257
 43
1.0
 76
     1
 77
     6
 78
     2
 67
     7
 79
     5
170
     0
171
     0
290
     0
174
     0
 93
        1
 44
0.0
173
     0
291
     0
 45
0.0
  0
VISUALSTYLE
  5
26E
102
{ACAD_REACTORS
330
267
102
}
330
267
100
AcDbVisualStyle
  2
3D Hidden
 70
     6
 71
     1
 72
     2
 73
     2
 90
        0
 40
-0.6
 41
-30.0
 62
     5
 63
     7
421
 16777215
 74
     2
 91
        2
 64
     7
 65
   257
 75
     2
175
     1
 42
40.0
 92
        0
 66
   257
 43
1.0
 76
     1
 77
     6
 78
     2
 67
     7
 79
     3
170
     0
171
     0
290
     0
174
     0
 93
        1
 44
0.0
173
     0
291
     0
 45
0.0
  0
VISUALSTYLE
  5
26D
102
{ACAD_REACTORS
330
267
102
}
330
267
100
AcDbVisualStyle
  2
3dWireframe
 70
     5
 71
     0
 72
     2
 73
     0
 90
        0
 40
-0.6
 41
-30.0
 62
     5
 63
     7
421
 16777215
 74
     1
 91
        4
 64
     7
 65
   257
 75
     1
175
     1
 42
1.0
 92
        0
 66
   257
 43
1.0
 76
     1
 77
     6
 78
     2
 67
     7
 79
     5
170
     0
171
     0
290
     0
174
     0
 93
        1
 44
0.0
173
     0
291
     0
 45
0.0
  0
VISUALSTYLE
  5
26F
102
{ACAD_REACTORS
330
267
102
}
330
267
100
AcDbVisualStyle
  2
Basic
 70
     7
 71
     1
 72
     0
 73
     1
 90
        0
 40
-0.6
 41
-30.0
 62
     5
 63
     7
421
 16777215
 74
     0
 91
        4
 64
     7
 65
   257
 75
     1
175
     1
 42
1.0
 92
        8
 66
     7
 43
1.0
 76
     1
 77
     6
 78
     2
 67
     7
 79
     5
170
     0
171
     0
290
     0
174
     0
 93
        1
 44
0.0
173
     0
291
     1
 45
0.0
  0
VISUALSTYLE
  5
273
102
{ACAD_REACTORS
330
267
102
}
330
267
100
AcDbVisualStyle
  2
Brighten
 70
    12
 71
     2
 72
     2
 73
     0
 90
        0
 40
-0.6
 41
-30.0
 62
     5
 63
     7
421
 16777215
 74
     1
 91
        4
 64
     7
 65
   257
 75
     1
175
     1
 42
1.0
 92
        8
 66
     7
 43
1.0
 76
     1
 77
     6
 78
     2
 67
     7
 79
     5
170
     0
171
     0
290
     0
174
     0
 93
        1
 44
50.0
173
     0
291
     1
 45
0.0
  0
VISUALSTYLE
  5
277
102
{ACAD_REACTORS
330
267
102
}
330
267
100
AcDbVisualStyle
  2
ColorChange
 70
    16
 71
     2
 72
     2
 73
     3
 90
        0
 40
-0.6
 41
-30.0
 62
     5
 63
     8
421
  8421504
 74
     1
 91
        4
 64
     7
 65
   257
 75
     1
175
     1
 42
1.0
 92
        8
 66
     8
424
  8421504
 43
1.0
 76
     1
 77
     6
 78
     2
 67
     7
 79
     5
170
     0
171
     0
290
     0
174
     0
 93
        1
 44
0.0
173
     0
291
     1
 45
0.0
  0
VISUALSTYLE
  5
271
102
{ACAD_REACTORS
330
267
102
}
330
267
100
AcDbVisualStyle
  2
Conceptual
 70
     9
 71
     3
 72
     2
 73
     0
 90
        0
 40
-0.6
 41
-30.0
 62
     5
 63
     7
421
 16777215
 74
     2
 91
        2
 64
     7
 65
   257
 75
     1
175
     1
 42
40.0
 92
        8
 66
     7
 43
1.0
 76
     1
 77
     6
 78
     2
 67
     7
 79
     3
170
     0
171
     0
290
     0
174
     0
 93
        1
 44
0.0
173
     0
291
     0
 45
0.0
  0
VISUALSTYLE
  5
272
102
{ACAD_REACTORS
330
267
102
}
330
267
100
AcDbVisualStyle
  2
Dim
 70
    11
 71
     2
 72
     2
 73
     0
 90
        0
 40
-0.6
 41
-30.0
 62
     5
 63
     7
421
 16777215
 74
     1
 91
        4
 64
     7
 65
   257
 75
     1
175
     1
 42
1.0
 92
        8
 66
     7
 43
1.0
 76
     1
 77
     6
 78
     2
 67
     7
 79
     5
170
     0
171
     0
290
     0
174
     0
 93
        1
 44
-50.0
173
     0
291
     1
 45
0.0
  0
VISUALSTYLE
  5
8FE
102
{ACAD_REACTORS
330
267
102
}
330
267
100
AcDbVisualStyle
  2
EdgeColorOff
 70
    22
 71
     2
 72
     2
 73
     0
 90
        0
 40
0.6
 41
30.0
 62
     5
 63
     7
421
 16777215
 74
     1
 91
        4
 64
     7
 65
   257
 75
     1
175
     1
 42
1.0
 92
        8
 66
     7
 43
1.0
 76
     1
 77
     6
 78
     2
 67
     7
 79
     5
170
     0
171
     0
290
     0
174
     0
 93
        1
 44
0.0
173
     0
291
     1
 45
0.0
  0
VISUALSTYLE
  5
276
102
{ACAD_REACTORS
330
267
102
}
330
267
100
AcDbVisualStyle
  2
Facepattern
 70
    15
 71
     2
 72
     2
 73
     0
 90
        0
 40
-0.6
 41
-30.0
 62
     5
 63
     7
421
 16777215
 74
     1
 91
        4
 64
     7
 65
   257
 75
     1
175
     1
 42
1.0
 92
        8
 66
     7
 43
1.0
 76
     1
 77
     6
 78
     2
 67
     7
 79
     5
170
     0
171
     0
290
     0
174
     0
 93
        1
 44
0.0
173
     0
291
     1
 45
0.0
  0
VISUALSTYLE
  5
268
102
{ACAD_REACTORS
330
267
102
}
330
267
100
AcDbVisualStyle
  2
Flat
 70
     0
 71
     2
 72
     1
 73
     1
 90
        2
 40
-0.6
 41
30.0
 62
     5
 63
     7
421
 16777215
 74
     0
 91
        4
 64
     7
 65
   257
 75
     1
175
     1
 42
1.0
 92
        8
 66
     7
 43
1.0
 76
     1
 77
     6
 78
     2
 67
     7
 79
     5
170
     0
171
     0
290
     0
174
     0
 93
       13
 44
0.0
173
     0
291
     1
 45
0.0
  0
VISUALSTYLE
  5
269
102
{ACAD_REACTORS
330
267
102
}
330
267
100
AcDbVisualStyle
  2
FlatWithEdges
 70
     1
 71
     2
 72
     1
 73
     1
 90
        2
 40
-0.6
 41
30.0
 62
     5
 63
     7
421
 16777215
 74
     1
 91
        4
 64
     7
 65
   257
 75
     1
175
     1
 42
1.0
 92
        0
 66
   257
 43
1.0
 76
     1
 77
     6
 78
     2
 67
     7
 79
     5
170
     0
171
     0
290
     0
174
     0
 93
       13
 44
0.0
173
     0
291
     1
 45
0.0
  0
VISUALSTYLE
  5
26A
102
{ACAD_REACTORS
330
267
102
}
330
267
100
AcDbVisualStyle
  2
Gouraud
 70
     2
 71
     2
 72
     2
 73
     1
 90
        2
 40
-0.6
 41
30.0
 62
     5
 63
     7
421
 16777215
 74
     0
 91
        4
 64
     7
 65
   257
 75
     1
175
     1
 42
1.0
 92
        0
 66
     7
 43
1.0
 76
     1
 77
     6
 78
     2
 67
     7
 79
     5
170
     0
171
     0
290
     0
174
     0
 93
       13
 44
0.0
173
     0
291
     1
 45
0.0
  0
VISUALSTYLE
  5
26B
102
{ACAD_REACTORS
330
267
102
}
330
267
100
AcDbVisualStyle
  2
GouraudWithEdges
 70
     3
 71
     2
 72
     2
 73
     1
 90
        2
 40
-0.6
 41
30.0
 62
     5
 63
     7
421
 16777215
 74
     1
 91
        4
 64
     7
 65
   257
 75
     1
175
     1
 42
1.0
 92
        0
 66
   257
 43
1.0
 76
     1
 77
     6
 78
     2
 67
     7
 79
     5
170
     0
171
     0
290
     0
174
     0
 93
       13
 44
0.0
173
     0
291
     1
 45
0.0
  0
VISUALSTYLE
  5
8FB
102
{ACAD_REACTORS
330
267
102
}
330
267
100
AcDbVisualStyle
  2
Hidden
 70
     6
 71
     1
 72
     2
 73
     2
 90
        0
 40
0.6
 41
30.0
 62
     5
 63
     7
421
 16777215
 74
     2
 91
        2
 64
     7
 65
   257
 75
     2
175
     1
 42
40.0
 92
        0
 66
   257
 43
1.0
 76
     1
 77
     6
 78
     2
 67
     7
 79
     3
170
     0
171
     0
290
     0
174
     0
 93
        1
 44
0.0
173
     0
291
     0
 45
0.0
  0
VISUALSTYLE
  5
8FC
102
{ACAD_REACTORS
330
267
102
}
330
267
100
AcDbVisualStyle
  2
JitterOff
 70
    20
 71
     2
 72
     2
 73
     0
 90
        0
 40
0.6
 41
30.0
 62
     5
 63
     7
421
 16777215
 74
     1
 91
        4
 64
     7
 65
   257
 75
     1
175
     1
 42
1.0
 92
       10
 66
     7
 43
1.0
 76
     1
 77
     6
 78
     2
 67
     7
 79
     5
170
     0
171
     0
290
     0
174
     0
 93
        1
 44
0.0
173
     0
291
     1
 45
0.0
  0
VISUALSTYLE
  5
275
102
{ACAD_REACTORS
330
267
102
}
330
267
100
AcDbVisualStyle
  2
Linepattern
 70
    14
 71
     2
 72
     2
 73
     0
 90
        0
 40
-0.6
 41
-30.0
 62
     5
 63
     7
421
 16777215
 74
     1
 91
        4
 64
     7
 65
   257
 75
     7
175
     7
 42
1.0
 92
        8
 66
     7
 43
1.0
 76
     1
 77
     6
 78
     2
 67
     7
 79
     5
170
     0
171
     0
290
     0
174
     0
 93
        1
 44
0.0
173
     0
291
     1
 45
0.0
  0
VISUALSTYLE
  5
8FD
102
{ACAD_REACTORS
330
267
102
}
330
267
100
AcDbVisualStyle
  2
OverhangOff
 70
    21
 71
     2
 72
     2
 73
     0
 90
        0
 40
0.6
 41
30.0
 62
     5
 63
     7
421
 16777215
 74
     1
 91
        4
 64
     7
 65
   257
 75
     1
175
     1
 42
1.0
 92
        9
 66
     7
 43
1.0
 76
     1
 77
     6
 78
     2
 67
     7
 79
     5
170
     0
171
     0
290
     0
174
     0
 93
        1
 44
0.0
173
     0
291
     1
 45
0.0
  0
VISUALSTYLE
  5
270
102
{ACAD_REACTORS
330
267
102
}
330
267
100
AcDbVisualStyle
  2
Realistic
 70
     8
 71
     2
 72
     2
 73
     0
 90
        0
 40
-0.6
 41
-30.0
 62
     5
 63
     7
421
 16777215
 74
     1
 91
        0
 64
     7
 65
   257
 75
     1
175
     1
 42
1.0
 92
        8
 66
     8
424
  7895160
 43
1.0
 76
     1
 77
     6
 78
     2
 67
     7
 79
     5
170
     0
171
     0
290
     0
174
     0
 93
       13
 44
0.0
173
     0
291
     0
 45
0.0
  0
VISUALSTYLE
  5
903
102
{ACAD_REACTORS
330
267
102
}
330
267
100
AcDbVisualStyle
  2
Shaded
 70
    27
 71
     2
 72
     2
 73
     1
 90
        2
 40
0.6
 41
30.0
 62
     5
 63
     7
421
 16777215
 74
     0
 91
        4
 64
     7
 65
   257
 75
     1
175
     1
 42
1.0
 92
        8
 66
   257
 43
1.0
 76
     1
 77
     6
 78
     2
 67
     8
425
  7895160
 79
     3
170
     0
171
     0
290
     0
174
     0
 93
        5
 44
0.0
173
     0
291
     0
 45
0.0
  0
VISUALSTYLE
  5
902
102
{ACAD_REACTORS
330
267
102
}
330
267
100
AcDbVisualStyle
  2
Shaded with edges
 70
    26
 71
     2
 72
     2
 73
     1
 90
        2
 40
0.6
 41
30.0
 62
     5
 63
     7
421
 16777215
 74
     1
 91
       10
 64
     7
 65
   257
 75
     2
175
     1
 42
1.0
 92
        8
 66
   257
 43
1.0
 76
     1
 77
     6
 78
     2
 67
     7
 79
     3
170
     0
171
     0
290
     0
174
     0
 93
        5
 44
0.0
173
     0
291
     0
 45
0.0
  0
VISUALSTYLE
  5
8FF
102
{ACAD_REACTORS
330
267
102
}
330
267
100
AcDbVisualStyle
  2
Shades of Gray
 70
    23
 71
     2
 72
     2
 73
     3
 90
        0
 40
0.6
 41
30.0
 62
     5
 63
     7
421
 16777215
 74
     2
 91
        2
 64
     7
 65
     7
 75
     1
175
     1
 42
40.0
 92
        8
 66
     7
 43
1.0
 76
     1
 77
     6
 78
     2
 67
     7
 79
     3
170
     0
171
     0
290
     0
174
     0
 93
        1
 44
0.0
173
     0
291
     0
 45
0.0
  0
VISUALSTYLE
  5
900
102
{ACAD_REACTORS
330
267
102
}
330
267
100
AcDbVisualStyle
  2
Sketchy
 70
    24
 71
     1
 72
     2
 73
     2
 90
        0
 40
0.6
 41
30.0
 62
     5
 63
     7
421
 16777215
 74
     2
 91
        2
 64
     7
 65
     7
 75
     1
175
     1
 42
40.0
 92
       11
 66
     7
 43
1.0
 76
     1
 77
     6
 78
     2
 67
     7
 79
     6
170
     0
171
     0
290
     0
174
     0
 93
        1
 44
0.0
173
     0
291
     0
 45
0.0
  0
VISUALSTYLE
  5
274
102
{ACAD_REACTORS
330
267
102
}
330
267
100
AcDbVisualStyle
  2
Thicken
 70
    13
 71
     2
 72
     2
 73
     0
 90
        0
 40
-0.6
 41
-30.0
 62
     5
 63
     7
421
 16777215
 74
     1
 91
        4
 64
     7
 65
   257
 75
     1
175
     1
 42
1.0
 92
       12
 66
     7
 43
1.0
 76
     1
 77
     6
 78
     2
 67
     7
 79
     5
170
     0
171
     0
290
     0
174
     0
 93
        1
 44
0.0
173
     0
291
     1
 45
0.0
  0
VISUALSTYLE
  5
8FA
102
{ACAD_REACTORS
330
267
102
}
330
267
100
AcDbVisualStyle
  2
Wireframe
 70
     5
 71
     0
 72
     2
 73
     0
 90
        0
 40
0.6
 41
30.0
 62
     5
 63
     7
421
 16777215
 74
     1
 91
        4
 64
     7
 65
   257
 75
     1
175
     1
 42
1.0
 92
        0
 66
   257
 43
1.0
 76
     1
 77
     6
 78
     2
 67
     7
 79
     3
170
     0
171
     0
290
     0
174
     0
 93
        1
 44
0.0
173
     0
291
     0
 45
0.0
  0
VISUALSTYLE
  5
901
102
{ACAD_REACTORS
330
267
102
}
330
267
100
AcDbVisualStyle
  2
X-Ray
 70
    25
 71
     2
 72
     2
 73
     1
 90
        1
 40
0.5
 41
30.0
 62
     5
 63
     7
421
 16777215
 74
     1
 91
        0
 64
     7
 65
   257
 75
     1
175
     1
 42
1.0
 92
        8
 66
     7
 43
1.0
 76
     1
 77
     6
 78
     2
 67
     7
 79
     3
170
     0
171
     0
290
     0
174
     0
 93
       13
 44
0.0
173
     0
291
     0
 45
0.0
  0
DICTIONARYVAR
  5
331
102
{ACAD_REACTORS
330
330
102
}
330
330
100
DictionaryVariables
280
     0
  1
1:1
  0
DICTIONARYVAR
  5
DB1
102
{ACAD_REACTORS
330
330
102
}
330
330
100
DictionaryVariables
280
     0
  1
Standard
  0
DICTIONARYVAR
  5
335
102
{ACAD_REACTORS
330
330
102
}
330
330
100
DictionaryVariables
280
     0
  1
Standard
  0
DICTIONARYVAR
  5
D52
102
{ACAD_REACTORS
330
330
102
}
330
330
100
DictionaryVariables
280
     0
  1
ByLayer
  0
DICTIONARYVAR
  5
896
102
{ACAD_REACTORS
330
330
102
}
330
330
100
DictionaryVariables
280
     0
  1
0
  0
DICTIONARYVAR
  5
ECE
102
{ACAD_REACTORS
330
E3E
102
}
330
E3E
100
DictionaryVariables
280
     0
  1
0.261799
  0
DICTIONARYVAR
  5
ECC
102
{ACAD_REACTORS
330
E3E
102
}
330
E3E
100
DictionaryVariables
280
     0
  1
0.400000
  0
DICTIONARYVAR
  5
ECD
102
{ACAD_REACTORS
330
E3E
102
}
330
E3E
100
DictionaryVariables
280
     0
  1
0.250000
  0
DICTIONARYVAR
  5
ECF
102
{ACAD_REACTORS
330
E3E
102
}
330
E3E
100
DictionaryVariables
280
     0
  1
1
  0
FIELD
  5
1467
102
{ACAD_REACTORS
330
36C0
330
41D5
102
}
330
41D5
100
AcDbField
  1
_text
  2
{%<\_FldIdx 0>%N}
 90
        1
360
146B
 97
        0
 91
       63
 92
        0
 94
       11
 95
        2
 96
        0
300

 93
        1
  6
ACFD_FIELDTEXT_CHECKSUM
 93
        2
 90
        2
140
4424.0
 94
        0
300

302

304
ACVALUE_END
  7
ACFD_FIELD_VALUE
 93
        6
 90
        4
  1
{20200210N}
 94
        0
300

302

304
ACVALUE_END
301
{20200210N}
 98
       11
  0
DICTIONARY
  5
41E8
330
279
100
AcDbDictionary
280
     1
281
     1
  3
ACAD_ROUNDTRIP_2008_TABLESTYLE_CELLSTYLEMAP
360
41E9
  0
FIELD
  5
146B
330
1467
100
AcDbField
  1
AcVar
  2
\AcVar Date \f "yyyyMMdd"
 90
        0
 97
        0
 91
       63
 92
        0
 94
        8
 95
       64
 96
        0
300
Variable not supported
 93
        1
  6
Variable
 93
        2
 90
        4
  1
Date
 94
        0
300

302

304
ACVALUE_END
  7
ACFD_FIELD_VALUE
 93
        6
 90
        8
 92
       16
310
E407020000000A000E00170032000000
 94
        0
300
yyyyMMdd
302

304
ACVALUE_END
301
20200210
 98
        8
  0
CELLSTYLEMAP
  5
41E9
102
{ACAD_REACTORS
330
41E8
102
}
330
41E8
100
AcDbCellStyleMap
 90
        3
300
CELLSTYLE
  1
TABLEFORMAT_BEGIN
 90
        5
170
     1
 91
        0
 92
    32768
 62
   257
 93
        1
300
CONTENTFORMAT
  1
CONTENTFORMAT_BEGIN
 90
        0
 91
        0
 92
        4
 93
        0
300

 40
0.0
140
1.0
 94
        5
 62
     0
340
17
144
6.0
309
CONTENTFORMAT_END
171
     1
301
MARGIN
  1
CELLMARGIN_BEGIN
 40
0.06
 40
0.06
 40
0.06
 40
0.06
 40
0.18
 40
0.18
309
CELLMARGIN_END
 94
        6
 95
        1
302
GRIDFORMAT
  1
GRIDFORMAT_BEGIN
 90
        0
 91
        1
 62
     0
 92
       -2
340
0
 93
        0
 40
0.045
309
GRIDFORMAT_END
 95
        2
302
GRIDFORMAT
  1
GRIDFORMAT_BEGIN
 90
        0
 91
        1
 62
     0
 92
       -2
340
0
 93
        0
 40
0.045
309
GRIDFORMAT_END
 95
        4
302
GRIDFORMAT
  1
GRIDFORMAT_BEGIN
 90
        0
 91
        1
 62
     0
 92
       -2
340
0
 93
        0
 40
0.045
309
GRIDFORMAT_END
 95
        8
302
GRIDFORMAT
  1
GRIDFORMAT_BEGIN
 90
        0
 91
        1
 62
     0
 92
       -2
340
0
 93
        0
 40
0.045
309
GRIDFORMAT_END
 95
       16
302
GRIDFORMAT
  1
GRIDFORMAT_BEGIN
 90
        0
 91
        1
 62
     0
 92
       -2
340
0
 93
        0
 40
0.045
309
GRIDFORMAT_END
 95
       32
302
GRIDFORMAT
  1
GRIDFORMAT_BEGIN
 90
        0
 91
        1
 62
     0
 92
       -2
340
0
 93
        0
 40
0.045
309
GRIDFORMAT_END
309
TABLEFORMAT_END
  1
CELLSTYLE_BEGIN
 90
        1
 91
        1
300
_TITLE
309
CELLSTYLE_END
300
CELLSTYLE
  1
TABLEFORMAT_BEGIN
 90
        5
170
     1
 91
        0
 92
        0
 62
   257
 93
        1
300
CONTENTFORMAT
  1
CONTENTFORMAT_BEGIN
 90
        0
 91
        0
 92
        4
 93
        0
300

 40
0.0
140
1.0
 94
        5
 62
     0
340
17
144
4.5
309
CONTENTFORMAT_END
171
     1
301
MARGIN
  1
CELLMARGIN_BEGIN
 40
0.06
 40
0.06
 40
0.06
 40
0.06
 40
0.18
 40
0.18
309
CELLMARGIN_END
 94
        6
 95
        1
302
GRIDFORMAT
  1
GRIDFORMAT_BEGIN
 90
        0
 91
        1
 62
     0
 92
       -2
340
0
 93
        0
 40
0.045
309
GRIDFORMAT_END
 95
        2
302
GRIDFORMAT
  1
GRIDFORMAT_BEGIN
 90
        0
 91
        1
 62
     0
 92
       -2
340
0
 93
        0
 40
0.045
309
GRIDFORMAT_END
 95
        4
302
GRIDFORMAT
  1
GRIDFORMAT_BEGIN
 90
        0
 91
        1
 62
     0
 92
       -2
340
0
 93
        0
 40
0.045
309
GRIDFORMAT_END
 95
        8
302
GRIDFORMAT
  1
GRIDFORMAT_BEGIN
 90
        0
 91
        1
 62
     0
 92
       -2
340
0
 93
        0
 40
0.045
309
GRIDFORMAT_END
 95
       16
302
GRIDFORMAT
  1
GRIDFORMAT_BEGIN
 90
        0
 91
        1
 62
     0
 92
       -2
340
0
 93
        0
 40
0.045
309
GRIDFORMAT_END
 95
       32
302
GRIDFORMAT
  1
GRIDFORMAT_BEGIN
 90
        0
 91
        1
 62
     0
 92
       -2
340
0
 93
        0
 40
0.045
309
GRIDFORMAT_END
309
TABLEFORMAT_END
  1
CELLSTYLE_BEGIN
 90
        2
 91
        1
300
_HEADER
309
CELLSTYLE_END
300
CELLSTYLE
  1
TABLEFORMAT_BEGIN
 90
        5
170
     1
 91
        0
 92
        0
 62
   257
 93
        1
300
CONTENTFORMAT
  1
CONTENTFORMAT_BEGIN
 90
        0
 91
        0
 92
        4
 93
        0
300

 40
0.0
140
1.0
 94
        2
 62
     0
340
17
144
4.5
309
CONTENTFORMAT_END
171
     1
301
MARGIN
  1
CELLMARGIN_BEGIN
 40
0.06
 40
0.06
 40
0.06
 40
0.06
 40
0.18
 40
0.18
309
CELLMARGIN_END
 94
        6
 95
        1
302
GRIDFORMAT
  1
GRIDFORMAT_BEGIN
 90
        0
 91
        1
 62
     0
 92
       -2
340
0
 93
        0
 40
0.045
309
GRIDFORMAT_END
 95
        2
302
GRIDFORMAT
  1
GRIDFORMAT_BEGIN
 90
        0
 91
        1
 62
     0
 92
       -2
340
0
 93
        0
 40
0.045
309
GRIDFORMAT_END
 95
        4
302
GRIDFORMAT
  1
GRIDFORMAT_BEGIN
 90
        0
 91
        1
 62
     0
 92
       -2
340
0
 93
        0
 40
0.045
309
GRIDFORMAT_END
 95
        8
302
GRIDFORMAT
  1
GRIDFORMAT_BEGIN
 90
        0
 91
        1
 62
     0
 92
       -2
340
0
 93
        0
 40
0.045
309
GRIDFORMAT_END
 95
       16
302
GRIDFORMAT
  1
GRIDFORMAT_BEGIN
 90
        0
 91
        1
 62
     0
 92
       -2
340
0
 93
        0
 40
0.045
309
GRIDFORMAT_END
 95
       32
302
GRIDFORMAT
  1
GRIDFORMAT_BEGIN
 90
        0
 91
        1
 62
     0
 92
       -2
340
0
 93
        0
 40
0.045
309
GRIDFORMAT_END
309
TABLEFORMAT_END
  1
CELLSTYLE_BEGIN
 90
        3
 91
        2
300
_DATA
309
CELLSTYLE_END
  0
ENDSEC
  0
EOF
