  0
SECTION
  2
HEADER
  9
$ACADVER
  1
AC1021
  9
$ACADMAINTVER
 70
    25
  9
$DWGCODEPAGE
  3
ANSI_932
  9
$LASTSAVEDBY
  1
howeNelson
  9
$INSBASE
 10
0.0
 20
0.0
 30
0.0
  9
$EXTMIN
 10
0.0
 20
0.0
 30
-0.0000000000000142
  9
$EXTMAX
 10
2100.0
 20
2970.0
 30
0.0000000000000071
  9
$LIMMIN
 10
0.0
 20
0.0
  9
$LIMMAX
 10
2100.0
 20
2970.0
  9
$ORTHOMODE
 70
     0
  9
$REGENMODE
 70
     1
  9
$FILLMODE
 70
     1
  9
$QTEXTMODE
 70
     0
  9
$MIRRTEXT
 70
     1
  9
$LTSCALE
 40
5.0
  9
$ATTMODE
 70
     1
  9
$TEXTSIZE
 40
2.5
  9
$TRACEWID
 40
1.0
  9
$TEXTSTYLE
  7
ＭＳ ゴシック
  9
$CLAYER
  8
DIM
  9
$CELTYPE
  6
ByLayer
  9
$CECOLOR
 62
   256
  9
$CELTSCALE
 40
1.0
  9
$DISPSILH
 70
     0
  9
$DIMSCALE
 40
1.0
  9
$DIMASZ
 40
10.0
  9
$DIMEXO
 40
30.0
  9
$DIMDLI
 40
0.9999999999999999
  9
$DIMRND
 40
0.0
  9
$DIMDLE
 40
0.0
  9
$DIMEXE
 40
0.0
  9
$DIMTP
 40
0.0
  9
$DIMTM
 40
0.0
  9
$DIMTXT
 40
24.0
  9
$DIMCEN
 40
0.0
  9
$DIMTSZ
 40
0.0
  9
$DIMTOL
 70
     0
  9
$DIMLIM
 70
     0
  9
$DIMTIH
 70
     0
  9
$DIMTOH
 70
     0
  9
$DIMSE1
 70
     0
  9
$DIMSE2
 70
     0
  9
$DIMTAD
 70
     1
  9
$DIMZIN
 70
    11
  9
$DIMBLK
  1
DOT
  9
$DIMASO
 70
     1
  9
$DIMSHO
 70
     1
  9
$DIMPOST
  1
<>
  9
$DIMAPOST
  1
[]
  9
$DIMALT
 70
     0
  9
$DIMALTD
 70
     1
  9
$DIMALTF
 40
1.0
  9
$DIMLFAC
 40
1.0
  9
$DIMTOFL
 70
     0
  9
$DIMTVP
 40
0.0
  9
$DIMTIX
 70
     1
  9
$DIMSOXD
 70
     0
  9
$DIMSAH
 70
     0
  9
$DIMBLK1
  1

  9
$DIMBLK2
  1

  9
$DIMSTYLE
  2
tfrom線あり
  9
$DIMCLRD
 70
     0
  9
$DIMCLRE
 70
     0
  9
$DIMCLRT
 70
     0
  9
$DIMTFAC
 40
1.0
  9
$DIMGAP
 40
20.0
  9
$DIMJUST
 70
     0
  9
$DIMSD1
 70
     0
  9
$DIMSD2
 70
     0
  9
$DIMTOLJ
 70
     1
  9
$DIMTZIN
 70
    11
  9
$DIMALTZ
 70
    11
  9
$DIMALTTZ
 70
    11
  9
$DIMUPT
 70
     0
  9
$DIMDEC
 70
     0
  9
$DIMTDEC
 70
     1
  9
$DIMALTU
 70
     2
  9
$DIMALTTD
 70
     2
  9
$DIMTXSTY
  7
ＭＳ ゴシック
  9
$DIMAUNIT
 70
     0
  9
$DIMADEC
 70
     2
  9
$DIMALTRND
 40
0.0
  9
$DIMAZIN
 70
     0
  9
$DIMDSEP
 70
    46
  9
$DIMATFIT
 70
     0
  9
$DIMFRAC
 70
     2
  9
$DIMLDRBLK
  1
DOT
  9
$DIMLUNIT
 70
     2
  9
$DIMLWD
 70
    -2
  9
$DIMLWE
 70
    -2
  9
$DIMTMOVE
 70
     0
  9
$DIMFXL
 40
1.0
  9
$DIMFXLON
 70
     0
  9
$DIMJOGANG
 40
0.7853981633974483
  9
$DIMTFILL
 70
     0
  9
$DIMTFILLCLR
 70
     0
  9
$DIMARCSYM
 70
     0
  9
$DIMLTYPE
  6

  9
$DIMLTEX1
  6

  9
$DIMLTEX2
  6

  9
$LUNITS
 70
     2
  9
$LUPREC
 70
     0
  9
$SKETCHINC
 40
0.1
  9
$FILLETRAD
 40
0.0
  9
$AUNITS
 70
     0
  9
$AUPREC
 70
     0
  9
$MENU
  1
acad
  9
$ELEVATION
 40
0.0
  9
$PELEVATION
 40
0.0
  9
$THICKNESS
 40
0.0
  9
$LIMCHECK
 70
     0
  9
$CHAMFERA
 40
0.0
  9
$CHAMFERB
 40
0.0
  9
$CHAMFERC
 40
0.0
  9
$CHAMFERD
 40
0.0
  9
$SKPOLY
 70
     0
  9
$TDCREATE
 40
2447893.375
  9
$TDUCREATE
 40
0.0
  9
$TDUPDATE
 40
2458890.606965463
  9
$TDUUPDATE
 40
2458890.231965463
  9
$TDINDWG
 40
0.1675698611
  9
$TDUSRTIMER
 40
0.000007037
  9
$USRTIMER
 70
     1
  9
$ANGBASE
 50
0.0
  9
$ANGDIR
 70
     0
  9
$PDMODE
 70
     1
  9
$PDSIZE
 40
-2.0
  9
$PLINEWID
 40
0.0
  9
$SPLFRAME
 70
     0
  9
$SPLINETYPE
 70
     6
  9
$SPLINESEGS
 70
     8
  9
$HANDSEED
  5
4DEA
  9
$SURFTAB1
 70
     6
  9
$SURFTAB2
 70
     6
  9
$SURFTYPE
 70
     6
  9
$SURFU
 70
     6
  9
$SURFV
 70
     6
  9
$UCSBASE
  2

  9
$UCSNAME
  2

  9
$UCSORG
 10
0.0
 20
0.0
 30
0.0
  9
$UCSXDIR
 10
1.0
 20
0.0
 30
0.0
  9
$UCSYDIR
 10
0.0
 20
1.0
 30
0.0
  9
$UCSORTHOREF
  2

  9
$UCSORTHOVIEW
 70
     0
  9
$UCSORGTOP
 10
0.0
 20
0.0
 30
0.0
  9
$UCSORGBOTTOM
 10
0.0
 20
0.0
 30
0.0
  9
$UCSORGLEFT
 10
0.0
 20
0.0
 30
0.0
  9
$UCSORGRIGHT
 10
0.0
 20
0.0
 30
0.0
  9
$UCSORGFRONT
 10
0.0
 20
0.0
 30
0.0
  9
$UCSORGBACK
 10
0.0
 20
0.0
 30
0.0
  9
$PUCSBASE
  2

  9
$PUCSNAME
  2

  9
$PUCSORG
 10
0.0
 20
0.0
 30
0.0
  9
$PUCSXDIR
 10
1.0
 20
0.0
 30
0.0
  9
$PUCSYDIR
 10
0.0
 20
1.0
 30
0.0
  9
$PUCSORTHOREF
  2

  9
$PUCSORTHOVIEW
 70
     0
  9
$PUCSORGTOP
 10
0.0
 20
0.0
 30
0.0
  9
$PUCSORGBOTTOM
 10
0.0
 20
0.0
 30
0.0
  9
$PUCSORGLEFT
 10
0.0
 20
0.0
 30
0.0
  9
$PUCSORGRIGHT
 10
0.0
 20
0.0
 30
0.0
  9
$PUCSORGFRONT
 10
0.0
 20
0.0
 30
0.0
  9
$PUCSORGBACK
 10
0.0
 20
0.0
 30
0.0
  9
$USERI1
 70
     0
  9
$USERI2
 70
     0
  9
$USERI3
 70
     0
  9
$USERI4
 70
     0
  9
$USERI5
 70
     0
  9
$USERR1
 40
0.0
  9
$USERR2
 40
0.0
  9
$USERR3
 40
0.0
  9
$USERR4
 40
0.0
  9
$USERR5
 40
0.0
  9
$WORLDVIEW
 70
     1
  9
$SHADEDGE
 70
     3
  9
$SHADEDIF
 70
    70
  9
$TILEMODE
 70
     1
  9
$MAXACTVP
 70
    64
  9
$PINSBASE
 10
0.0
 20
0.0
 30
0.0
  9
$PLIMCHECK
 70
     0
  9
$PEXTMIN
 10
0.0
 20
0.0
 30
0.0
  9
$PEXTMAX
 10
0.0
 20
0.0
 30
0.0
  9
$PLIMMIN
 10
-7.5
 20
-20.0
  9
$PLIMMAX
 10
412.5
 20
277.0
  9
$UNITMODE
 70
     0
  9
$VISRETAIN
 70
     0
  9
$PLINEGEN
 70
     1
  9
$PSLTSCALE
 70
     0
  9
$TREEDEPTH
 70
  3020
  9
$CMLSTYLE
  2
Standard
  9
$CMLJUST
 70
     0
  9
$CMLSCALE
 40
1.0
  9
$PROXYGRAPHICS
 70
     0
  9
$MEASUREMENT
 70
     1
  9
$CELWEIGHT
370
    -1
  9
$ENDCAPS
280
     0
  9
$JOINSTYLE
280
     0
  9
$LWDISPLAY
290
     1
  9
$INSUNITS
 70
     4
  9
$HYPERLINKBASE
  1

  9
$STYLESHEET
  1

  9
$XEDIT
290
     1
  9
$CEPSNTYPE
380
     0
  9
$PSTYLEMODE
290
     1
  9
$FINGERPRINTGUID
  2

  9
$VERSIONGUID
  2

  9
$EXTNAMES
290
     1
  9
$PSVPSCALE
 40
0.0
  9
$OLESTARTUP
290
     0
  9
$SORTENTS
280
   127
  9
$INDEXCTL
280
     0
  9
$HIDETEXT
280
     1
  9
$XCLIPFRAME
290
     0
  9
$HALOGAP
280
     0
  9
$OBSCOLOR
 70
   257
  9
$OBSLTYPE
280
     0
  9
$INTERSECTIONDISPLAY
280
     0
  9
$INTERSECTIONCOLOR
 70
   257
  9
$DIMASSOC
280
     2
  9
$PROJECTNAME
  1

  9
$CAMERADISPLAY
290
     0
  9
$LENSLENGTH
 40
50.0
  9
$CAMERAHEIGHT
 40
0.0
  9
$STEPSPERSEC
 40
2.0
  9
$STEPSIZE
 40
6.0
  9
$3DDWFPREC
 40
2.0
  9
$PSOLWIDTH
 40
0.25
  9
$PSOLHEIGHT
 40
4.0
  9
$LOFTANG1
 40
1.570796326794897
  9
$LOFTANG2
 40
1.570796326794897
  9
$LOFTMAG1
 40
0.0
  9
$LOFTMAG2
 40
0.0
  9
$LOFTPARAM
 70
     7
  9
$LOFTNORMALS
280
     1
  9
$LATITUDE
 40
37.795
  9
$LONGITUDE
 40
-122.394
  9
$NORTHDIRECTION
 40
0.0
  9
$TIMEZONE
 70
 -8000
  9
$LIGHTGLYPHDISPLAY
280
     1
  9
$TILEMODELIGHTSYNCH
280
     1
  9
$SOLIDHIST
280
     1
  9
$SHOWHIST
280
     1
  9
$DWFFRAME
280
     2
  9
$DGNFRAME
280
     2
  9
$REALWORLDSCALE
290
     1
  9
$INTERFERECOLOR
 62
   256
  9
$CSHADOW
280
     0
  9
$SHADOWPLANELOCATION
 40
0.0
  0
ENDSEC
  0
SECTION
  2
CLASSES
  0
CLASS
  1
LWPOLYLINE
  2
AcDbPolyline
  3
ObjectDBX Classes
 90
        0
 91
        1
280
     0
281
     1
  0
CLASS
  1
IMAGE
  2
AcDbRasterImage
  3
ISM
 90
      127
 91
        7
280
     0
281
     1
  0
CLASS
  1
OLE2FRAME
  2
AcDbOle2Frame
  3
ObjectDBX Classes
 90
        0
 91
        1
280
     0
281
     1
  0
CLASS
  1
HATCH
  2
AcDbHatch
  3
ObjectDBX Classes
 90
        0
 91
        1
280
     0
281
     1
  0
CLASS
  1
DICTIONARYVAR
  2
AcDbDictionaryVar
  3
ObjectDBX Classes
 90
        0
 91
        6
280
     0
281
     0
  0
CLASS
  1
RASTERVARIABLES
  2
AcDbRasterVariables
  3
ISM
 90
        0
 91
        6
280
     0
281
     0
  0
CLASS
  1
IMAGEDEF
  2
AcDbRasterImageDef
  3
ISM
 90
        0
 91
        6
280
     0
281
     0
  0
CLASS
  1
IMAGEDEF_REACTOR
  2
AcDbRasterImageDefReactor
  3
ISM
 90
        1
 91
        6
280
     0
281
     0
  0
CLASS
  1
IDBUFFER
  2
AcDbIdBuffer
  3
ObjectDBX Classes
 90
        0
 91
        6
280
     0
281
     0
  0
CLASS
  1
SPATIAL_FILTER
  2
AcDbSpatialFilter
  3
ObjectDBX Classes
 90
        0
 91
        6
280
     0
281
     0
  0
CLASS
  1
XRECORD
  2
AcDbXrecord
  3
ObjectDBX Classes
 90
        0
 91
        1
280
     0
281
     0
  0
CLASS
  1
SORTENTSTABLE
  2
AcDbSortentsTable
  3
ObjectDBX Classes
 90
        0
 91
        6
280
     0
281
     0
  0
CLASS
  1
LAYER_INDEX
  2
AcDbLayerIndex
  3
ObjectDBX Classes
 90
        0
 91
        6
280
     0
281
     0
  0
CLASS
  1
SPATIAL_INDEX
  2
AcDbSpatialIndex
  3
AutoCAD 2000
 90
        0
 91
        6
280
     0
281
     0
  0
CLASS
  1
OBJECT_PTR
  2
CAseDLPNTableRecord
  3
ASE-LPNTableRecord
 90
        1
 91
        6
280
     0
281
     0
  0
CLASS
  1
LAYOUT
  2
AcDbLayout
  3
ObjectDBX Classes
 90
        0
 91
        1
280
     0
281
     0
  0
CLASS
  1
PLOTSETTINGS
  2
AcDbPlotSettings
  3
ObjectDBX Classes
 90
        0
 91
        6
280
     0
281
     0
  0
CLASS
  1
ACDBDICTIONARYWDFLT
  2
AcDbDictionaryWithDefault
  3
ObjectDBX Classes
 90
        0
 91
        6
280
     0
281
     0
  0
CLASS
  1
ACDBPLACEHOLDER
  2
AcDbPlaceHolder
  3
ObjectDBX Classes
 90
        0
 91
        1
280
     0
281
     0
  0
CLASS
  1
SCALE
  2
AcDbScale
  3
ObjectDBX Classes
 90
     1153
 91
        6
280
     0
281
     0
  0
CLASS
  1
MATERIAL
  2
AcDbMaterial
  3
ObjectDBX Classes
 90
     1153
 91
        6
280
     0
281
     0
  0
CLASS
  1
VISUALSTYLE
  2
AcDbVisualStyle
  3
ObjectDBX Classes
 90
     4095
 91
        6
280
     0
281
     0
  0
CLASS
  1
TABLESTYLE
  2
AcDbTableStyle
  3
ObjectDBX Classes
 90
     4095
 91
        6
280
     0
281
     0
  0
CLASS
  1
DIMASSOC
  2
AcDbDimAssoc
  3
"AcDbDimAssoc|Product Desc:     AcDim ARX App For Dimension|Company:          Autodesk, Inc.|WEB Address:      www.autodesk.com"
 90
        0
 91
        6
280
     0
281
     0
  0
CLASS
  1
CELLSTYLEMAP
  2
AcDbCellStyleMap
  3
ObjectDBX Classes
 90
     1152
 91
        6
280
     0
281
     0
  0
CLASS
  1
SUN
  2
AcDbSun
  3
SCENEOE
 90
     1153
 91
        6
280
     0
281
     0
  0
CLASS
  1
MLEADERSTYLE
  2
AcDbMLeaderStyle
  3
ACDB_MLEADERSTYLE_CLASS
 90
     4095
 91
        6
280
     0
281
     0
  0
CLASS
  1
FIELD
  2
AcDbField
  3
ObjectDBX Classes
 90
     1152
 91
        6
280
     0
281
     0
  0
CLASS
  1
FIELDLIST
  2
AcDbFieldList
  3
ObjectDBX Classes
 90
     1152
 91
        6
280
     0
281
     0
  0
CLASS
  1
MULTILEADER
  2
AcDbMLeader
  3
ACDB_MLEADER_CLASS
 90
     1025
 91
        5
280
     0
281
     1
  0
ENDSEC
  0
SECTION
  2
TABLES
  0
TABLE
  2
VPORT
  5
7
330
0
100
AcDbSymbolTable
 70
     1
  0
VPORT
  5
15
330
7
100
AcDbSymbolTableRecord
100
AcDbViewportTableRecord
  2
*ACTIVE
 70
     0
 10
0.0
 20
0.0
 11
1.0
 21
1.0
 12
1141.020135670899
 22
1411.401285469834
 13
0.0
 23
0.0
 14
1.0
 24
1.0
 15
0.0
 25
0.0
 16
0.0
 26
0.0
 36
1.0
 17
-91.02013567089853
 27
73.59871453016603
 37
-46.86809886248109
 40
3029.4
 41
2.341176470588235
 42
50.0
 43
0.0
 44
0.0
 50
0.0
 51
0.0
 71
    16
 72
  2000
 73
     1
 74
     1
 75
     0
 76
     0
 77
     0
 78
     0
281
     0
 65
     1
110
0.0
120
0.0
130
0.0
111
1.0
121
0.0
131
0.0
112
0.0
122
1.0
132
0.0
 79
     0
146
0.0
348
26C
 60
     3
 61
     5
292
     1
282
     1
141
0.0
142
0.0
 63
   256
361
904
  0
ENDTAB
  0
TABLE
  2
LTYPE
  5
4
330
0
100
AcDbSymbolTable
 70
     2
  0
LTYPE
  5
11
330
4
100
AcDbSymbolTableRecord
100
AcDbLinetypeTableRecord
  2
ByBlock
 70
     0
  3

 72
    65
 73
     0
 40
0.0
  0
LTYPE
  5
12
330
4
100
AcDbSymbolTableRecord
100
AcDbLinetypeTableRecord
  2
ByLayer
 70
     0
  3

 72
    65
 73
     0
 40
0.0
  0
LTYPE
  5
13
330
4
100
AcDbSymbolTableRecord
100
AcDbLinetypeTableRecord
  2
Continuous
 70
     0
  3
Solid line
 72
    65
 73
     0
 40
0.0
  0
LTYPE
  5
DAF
330
4
100
AcDbSymbolTableRecord
100
AcDbLinetypeTableRecord
  2
BORDER
 70
     0
  3
Border __  __  . __  __  . __  __  . __  __  . 
 72
    65
 73
     6
 40
44.45
 49
12.7
 74
     0
 49
-6.35
 74
     0
 49
12.7
 74
     0
 49
-6.35
 74
     0
 49
0.0
 74
     0
 49
-6.35
 74
     0
  0
ENDTAB
  0
TABLE
  2
LAYER
  5
2
102
{ACAD_XDICTIONARY
360
2E1
102
}
330
0
100
AcDbSymbolTable
 70
    10
  0
LAYER
  5
14
330
2
100
AcDbSymbolTableRecord
100
AcDbLayerTableRecord
  2
0
 70
     0
 62
     7
  6
Continuous
370
    -3
390
1D
347
266
  0
LAYER
  5
4B
330
2
100
AcDbSymbolTableRecord
100
AcDbLayerTableRecord
  2
TEMPLATE
 70
     0
 62
     7
  6
Continuous
370
    20
390
1D
347
266
  0
LAYER
  5
4C
330
2
100
AcDbSymbolTableRecord
100
AcDbLayerTableRecord
  2
DIM
 70
     0
 62
     3
  6
Continuous
370
    13
390
1D
347
266
  0
LAYER
  5
4D
330
2
100
AcDbSymbolTableRecord
100
AcDbLayerTableRecord
  2
MODEL
 70
     0
 62
     7
  6
Continuous
370
    20
390
1D
347
266
  0
LAYER
  5
D5D
330
2
100
AcDbSymbolTableRecord
100
AcDbLayerTableRecord
  2
Defpoints
 70
     0
 62
     7
  6
Continuous
290
     0
370
    -3
390
1D
347
266
  0
LAYER
  5
DAE
330
2
100
AcDbSymbolTableRecord
100
AcDbLayerTableRecord
  2
BORDER
 70
     0
 62
     4
  6
BORDER
290
     0
370
    20
390
1D
347
266
1001
AcAecLayerStandard
1000

1000

  0
LAYER
  5
157B
330
2
100
AcDbSymbolTableRecord
100
AcDbLayerTableRecord
  2
Layer3
 70
     0
 62
     7
  6
Continuous
370
    -3
390
1D
347
266
  0
LAYER
  5
157F
330
2
100
AcDbSymbolTableRecord
100
AcDbLayerTableRecord
  2
Layer9
 70
     0
 62
     7
  6
Continuous
370
    -3
390
1D
347
266
  0
LAYER
  5
1582
330
2
100
AcDbSymbolTableRecord
100
AcDbLayerTableRecord
  2
Standard
 70
     0
 62
     7
  6
Continuous
370
    -3
390
1D
347
266
  0
ENDTAB
  0
TABLE
  2
STYLE
  5
3
330
0
100
AcDbSymbolTable
 70
     2
  0
STYLE
  5
17
330
3
100
AcDbSymbolTableRecord
100
AcDbTextStyleTableRecord
  2
Standard
 70
     0
 40
0.0
 41
1.0
 50
0.0
 71
     0
 42
2.5
  3
txt
  4
BIGFONT.SHX
  0
STYLE
  5
39
330
3
100
AcDbSymbolTableRecord
100
AcDbTextStyleTableRecord
  2
ＭＳ ゴシック
 70
     0
 40
0.0
 41
1.0
 50
0.0
 71
     0
 42
2.5
  3
msgothic.ttc
  4
ＭＳ ゴシック
1001
ACAD
1000
ＭＳ ゴシック
1071
        0
  0
ENDTAB
  0
TABLE
  2
VIEW
  5
5
330
0
100
AcDbSymbolTable
 70
     0
  0
ENDTAB
  0
TABLE
  2
UCS
  5
6
330
0
100
AcDbSymbolTable
 70
     0
  0
ENDTAB
  0
TABLE
  2
APPID
  5
8
330
0
100
AcDbSymbolTable
 70
     3
  0
APPID
  5
16
330
8
100
AcDbSymbolTableRecord
100
AcDbRegAppTableRecord
  2
ACAD
 70
     0
  0
APPID
  5
7AC
330
8
100
AcDbSymbolTableRecord
100
AcDbRegAppTableRecord
  2
AcAecLayerStandard
 70
     0
  0
APPID
  5
F3A
330
8
100
AcDbSymbolTableRecord
100
AcDbRegAppTableRecord
  2
ACAD_MLEADERVER
 70
     0
  0
ENDTAB
  0
TABLE
  2
DIMSTYLE
  5
9
330
0
100
AcDbSymbolTable
 70
     2
100
AcDbDimStyleTable
  0
DIMSTYLE
105
18
330
9
100
AcDbSymbolTableRecord
100
AcDbDimStyleTableRecord
  2
Standard
 70
     0
178
     0
340
17
  0
DIMSTYLE
105
57
102
{ACAD_REACTORS
330
4D41
330
4D50
330
4D5D
330
4D6A
330
4D77
330
4D87
330
4D94
330
4DA1
330
4DB1
330
4DBE
102
}
330
9
100
AcDbSymbolTableRecord
100
AcDbDimStyleTableRecord
  2
tfrom線あり
 70
     0
  3
<>
  4
[]
 41
10.0
 42
30.0
 43
0.9999999999999999
 44
0.0
 73
     0
 74
     0
 77
     1
 78
    11
140
24.0
141
0.0
143
1.0
147
20.0
171
     1
174
     1
178
     0
179
     2
271
     0
272
     1
276
     2
284
    11
285
    11
286
    11
289
     0
340
39
341
4E
342
4E
  0
ENDTAB
  0
TABLE
  2
BLOCK_RECORD
  5
1
330
0
100
AcDbSymbolTable
 70
    30
  0
BLOCK_RECORD
  5
A
102
{ACAD_XDICTIONARY
360
374D
102
}
330
1
100
AcDbSymbolTableRecord
100
AcDbBlockTableRecord
  2
*MODEL_SPACE
340
20
 70
     0
280
     1
281
     0
  0
BLOCK_RECORD
  5
B
330
1
100
AcDbSymbolTableRecord
100
AcDbBlockTableRecord
  2
*PAPER_SPACE
340
21
 70
     0
280
     1
281
     0
  0
BLOCK_RECORD
  5
4E
330
1
100
AcDbSymbolTableRecord
100
AcDbBlockTableRecord
  2
_DOT
340
0
102
{BLKREFS
331
40B3
331
40B4
331
40D2
331
40D3
331
40E1
331
40E2
331
40F1
331
40F2
331
4100
331
4101
331
410F
331
4110
331
4123
331
4124
331
4141
331
4142
331
4151
331
4152
331
4160
331
4161
331
4170
331
4171
331
418E
331
418F
331
419D
331
419E
331
41AE
331
41AF
331
4D3B
331
0
331
0
331
4D3A
331
4D4B
331
4D4A
331
4D58
331
4D57
331
4D65
331
4D64
331
4D72
331
4D71
331
0
331
4D81
331
4D8F
331
4D8E
331
4D9C
331
4D9B
331
0
331
4DAB
331
4DB9
331
4DB8
331
0
331
0
331
0
331
4DC9
102
}
 70
     0
280
     1
281
     0
  0
BLOCK_RECORD
  5
68D
330
1
100
AcDbSymbolTableRecord
100
AcDbBlockTableRecord
  2
block 2
340
0
102
{BLKREFS
331
68C
102
}
 70
     0
280
     1
281
     0
  0
BLOCK_RECORD
  5
199A
330
1
100
AcDbSymbolTableRecord
100
AcDbBlockTableRecord
  2
SEANNOT_GROUP
340
0
102
{BLKREFS
331
28CA
102
}
 70
     0
280
     1
281
     0
  0
BLOCK_RECORD
  5
1F2F
330
1
100
AcDbSymbolTableRecord
100
AcDbBlockTableRecord
  2
SEANNOT_GROUP1
340
0
102
{BLKREFS
331
2B9B
102
}
 70
     0
280
     1
281
     0
  0
BLOCK_RECORD
  5
4D44
330
1
100
AcDbSymbolTableRecord
100
AcDbBlockTableRecord
  2
*D20
340
0
 70
     0
280
     1
281
     0
  0
BLOCK_RECORD
  5
4D51
330
1
100
AcDbSymbolTableRecord
100
AcDbBlockTableRecord
  2
*D21
340
0
 70
     0
280
     1
281
     0
  0
BLOCK_RECORD
  5
4D5E
330
1
100
AcDbSymbolTableRecord
100
AcDbBlockTableRecord
  2
*D22
340
0
 70
     0
280
     1
281
     0
  0
BLOCK_RECORD
  5
4D6B
330
1
100
AcDbSymbolTableRecord
100
AcDbBlockTableRecord
  2
*D23
340
0
 70
     0
280
     1
281
     0
  0
BLOCK_RECORD
  5
4D7A
330
1
100
AcDbSymbolTableRecord
100
AcDbBlockTableRecord
  2
*D24
340
0
 70
     0
280
     1
281
     0
  0
BLOCK_RECORD
  5
4D88
330
1
100
AcDbSymbolTableRecord
100
AcDbBlockTableRecord
  2
*D25
340
0
 70
     0
280
     1
281
     0
  0
BLOCK_RECORD
  5
4D95
330
1
100
AcDbSymbolTableRecord
100
AcDbBlockTableRecord
  2
*D26
340
0
 70
     0
280
     1
281
     0
  0
BLOCK_RECORD
  5
4DA4
330
1
100
AcDbSymbolTableRecord
100
AcDbBlockTableRecord
  2
*D27
340
0
 70
     0
280
     1
281
     0
  0
BLOCK_RECORD
  5
4DB2
330
1
100
AcDbSymbolTableRecord
100
AcDbBlockTableRecord
  2
*D28
340
0
 70
     0
280
     1
281
     0
  0
BLOCK_RECORD
  5
4DC1
330
1
100
AcDbSymbolTableRecord
100
AcDbBlockTableRecord
  2
*D29
340
0
 70
     0
280
     1
281
     0
  0
ENDTAB
  0
ENDSEC
  0
SECTION
  2
BLOCKS
  0
BLOCK
  5
D
330
A
100
AcDbEntity
  8
0
390
1D
100
AcDbBlockBegin
  2
*MODEL_SPACE
 70
     0
 10
0.0
 20
0.0
 30
0.0
  3
*MODEL_SPACE
  1
*MODEL_SPACE
  0
ENDBLK
  5
E
330
A
100
AcDbEntity
  8
0
390
1D
100
AcDbBlockEnd
  0
BLOCK
  5
F
330
B
100
AcDbEntity
 67
     1
  8
0
390
1D
100
AcDbBlockBegin
  2
*PAPER_SPACE
 70
     0
 10
0.0
 20
0.0
 30
0.0
  3
*PAPER_SPACE
  1
*PAPER_SPACE
  0
ENDBLK
  5
10
330
B
100
AcDbEntity
 67
     1
  8
0
390
1D
100
AcDbBlockEnd
  0
BLOCK
  5
EC4
330
4E
100
AcDbEntity
  8
0
390
1D
100
AcDbBlockBegin
  2
_DOT
 70
     0
 10
0.0
 20
0.0
 30
0.0
  3
_DOT
  1
_DOT
  0
POLYLINE
  5
EC6
330
4E
100
AcDbEntity
  8
0
  6
ByBlock
 62
     0
370
    -2
390
1D
100
AcDb2dPolyline
 66
     1
 10
0.0
 20
0.0
 30
0.0
 70
     1
 40
0.5
 41
0.5
  0
VERTEX
  5
EC7
330
EC6
100
AcDbEntity
  8
0
  6
ByBlock
 62
     0
370
    -2
390
1D
100
AcDbVertex
100
AcDb2dVertex
 10
-0.25
 20
0.0
 30
0.0
 42
1.0
  0
VERTEX
  5
EC8
330
EC6
100
AcDbEntity
  8
0
  6
ByBlock
 62
     0
370
    -2
390
1D
100
AcDbVertex
100
AcDb2dVertex
 10
0.25
 20
0.0
 30
0.0
 42
1.0
  0
SEQEND
  5
EC9
330
EC6
100
AcDbEntity
  8
0
390
1D
  0
LINE
  5
ECA
330
4E
100
AcDbEntity
  8
0
  6
ByBlock
 62
     0
370
    -2
390
1D
100
AcDbLine
 10
-0.5
 20
0.0
 30
0.0
 11
-1.0
 21
0.0
 31
0.0
  0
ENDBLK
  5
ECB
330
4E
100
AcDbEntity
  8
0
390
1D
100
AcDbBlockEnd
  0
BLOCK
  5
68E
330
68D
100
AcDbEntity
  8
0
100
AcDbBlockBegin
  2
block 2
 70
     0
 10
0.0
 20
0.0
 30
0.0
  3
block 2
  1
block 2
  0
ENDBLK
  5
6B0
330
68D
100
AcDbEntity
  8
0
100
AcDbBlockEnd
  0
BLOCK
  5
199B
330
199A
100
AcDbEntity
  8
0
100
AcDbBlockBegin
  2
SEANNOT_GROUP
 70
     0
 10
0.0
 20
0.0
 30
0.0
  3
SEANNOT_GROUP
  1
SEANNOT_GROUP
  0
ENDBLK
  5
199C
330
199A
100
AcDbEntity
  8
0
100
AcDbBlockEnd
  0
BLOCK
  5
1F30
330
1F2F
100
AcDbEntity
  8
0
100
AcDbBlockBegin
  2
SEANNOT_GROUP1
 70
     0
 10
0.0
 20
0.0
 30
0.0
  3
SEANNOT_GROUP1
  1
SEANNOT_GROUP1
  0
ENDBLK
  5
1F31
330
1F2F
100
AcDbEntity
  8
0
100
AcDbBlockEnd
  0
BLOCK
  5
4D45
330
4D44
100
AcDbEntity
  8
0
100
AcDbBlockBegin
  2
*D20
 70
     1
 10
0.0
 20
0.0
 30
0.0
  3
*D20
  1

  0
LINE
  5
4D47
330
4D44
100
AcDbEntity
  8
DIM
 62
     0
370
    -2
100
AcDbLine
 10
329.6515762950721
 20
1927.800824182368
 30
0.0
 11
329.6515762950721
 21
1772.524802739625
 31
0.0
  0
LINE
  5
4D48
330
4D44
100
AcDbEntity
  8
DIM
 62
     0
370
    -2
100
AcDbLine
 10
729.6515762994777
 20
1927.800824182368
 30
0.0
 11
729.6515762994777
 21
1772.524802739625
 31
0.0
  0
LINE
  5
4D49
330
4D44
100
AcDbEntity
  8
DIM
 62
     0
370
    -2
100
AcDbLine
 10
339.6515762950721
 20
1772.524802739625
 30
0.0
 11
719.6515762994777
 21
1772.524802739625
 31
0.0
  0
INSERT
  5
4D4A
330
4D44
100
AcDbEntity
  8
DIM
 62
     0
370
    -2
100
AcDbBlockReference
  2
_DOT
 10
329.6515762950721
 20
1772.524802739625
 30
0.0
 41
10.0
 42
10.0
 43
10.0
 50
180.0
  0
INSERT
  5
4D4B
330
4D44
100
AcDbEntity
  8
DIM
 62
     0
370
    -2
100
AcDbBlockReference
  2
_DOT
 10
729.6515762994777
 20
1772.524802739625
 30
0.0
 41
10.0
 42
10.0
 43
10.0
  0
MTEXT
  5
4D4C
330
4D44
100
AcDbEntity
  8
DIM
 62
     0
100
AcDbMText
 10
529.6515762972749
 20
1804.524802739625
 30
0.0
 40
24.0
 41
0.0
 46
0.0
 71
     5
 72
     1
  1
\A1;400
  7
ＭＳ ゴシック
 73
     1
 44
1.0
  0
POINT
  5
4D4D
330
4D44
100
AcDbEntity
  8
Defpoints
 62
     0
100
AcDbPoint
 10
329.6515762950721
 20
1957.800824182368
 30
0.0
  0
POINT
  5
4D4E
330
4D44
100
AcDbEntity
  8
Defpoints
 62
     0
100
AcDbPoint
 10
729.6515762994777
 20
1957.800824182368
 30
0.0
  0
POINT
  5
4D4F
330
4D44
100
AcDbEntity
  8
Defpoints
 62
     0
100
AcDbPoint
 10
729.6515762994777
 20
1772.524802739625
 30
0.0
  0
ENDBLK
  5
4D46
330
4D44
100
AcDbEntity
  8
0
100
AcDbBlockEnd
  0
BLOCK
  5
4D52
330
4D51
100
AcDbEntity
  8
0
100
AcDbBlockBegin
  2
*D21
 70
     1
 10
0.0
 20
0.0
 30
0.0
  3
*D21
  1

  0
LINE
  5
4D54
330
4D51
100
AcDbEntity
  8
DIM
 62
     0
370
    -2
100
AcDbLine
 10
305.1274052587532
 20
2134.672426311113
 30
0.0
 11
305.1274052587532
 21
2389.844756854369
 31
0.0
  0
LINE
  5
4D55
330
4D51
100
AcDbEntity
  8
DIM
 62
     0
370
    -2
100
AcDbLine
 10
755.1274052587532
 20
2134.672426311114
 30
0.0
 11
755.1274052587532
 21
2389.844756854369
 31
0.0
  0
LINE
  5
4D56
330
4D51
100
AcDbEntity
  8
DIM
 62
     0
370
    -2
100
AcDbLine
 10
315.1274052587532
 20
2389.844756854369
 30
0.0
 11
745.1274052587532
 21
2389.844756854369
 31
0.0
  0
INSERT
  5
4D57
330
4D51
100
AcDbEntity
  8
DIM
 62
     0
370
    -2
100
AcDbBlockReference
  2
_DOT
 10
305.1274052587532
 20
2389.844756854369
 30
0.0
 41
10.0
 42
10.0
 43
10.0
 50
180.0
  0
INSERT
  5
4D58
330
4D51
100
AcDbEntity
  8
DIM
 62
     0
370
    -2
100
AcDbBlockReference
  2
_DOT
 10
755.1274052587532
 20
2389.844756854369
 30
0.0
 41
10.0
 42
10.0
 43
10.0
  0
MTEXT
  5
4D59
330
4D51
100
AcDbEntity
  8
DIM
 62
     0
100
AcDbMText
 10
530.1274052587532
 20
2421.844756854369
 30
0.0
 40
24.0
 41
0.0
 46
0.0
 71
     5
 72
     1
  1
\A1;450
  7
ＭＳ ゴシック
 73
     1
 44
1.0
  0
POINT
  5
4D5A
330
4D51
100
AcDbEntity
  8
Defpoints
 62
     0
100
AcDbPoint
 10
305.1274052587532
 20
2104.672426311113
 30
0.0
  0
POINT
  5
4D5B
330
4D51
100
AcDbEntity
  8
Defpoints
 62
     0
100
AcDbPoint
 10
755.1274052587532
 20
2104.672426311114
 30
0.0
  0
POINT
  5
4D5C
330
4D51
100
AcDbEntity
  8
Defpoints
 62
     0
100
AcDbPoint
 10
755.1274052587532
 20
2389.844756854369
 30
0.0
  0
ENDBLK
  5
4D53
330
4D51
100
AcDbEntity
  8
0
100
AcDbBlockEnd
  0
BLOCK
  5
4D5F
330
4D5E
100
AcDbEntity
  8
0
100
AcDbBlockBegin
  2
*D22
 70
     1
 10
0.0
 20
0.0
 30
0.0
  3
*D22
  1

  0
LINE
  5
4D61
330
4D5E
100
AcDbEntity
  8
DIM
 62
     0
370
    -2
100
AcDbLine
 10
783.4357903429445
 20
1096.741355298637
 30
0.0
 11
845.4673737955059
 21
1096.741355298637
 31
0.0
  0
LINE
  5
4D62
330
4D5E
100
AcDbEntity
  8
DIM
 62
     0
370
    -2
100
AcDbLine
 10
588.268181445409
 20
942.7413552986366
 30
0.0
 11
845.4673737955059
 21
942.7413552986366
 31
0.0
  0
LINE
  5
4D63
330
4D5E
100
AcDbEntity
  8
DIM
 62
     0
370
    -2
100
AcDbLine
 10
845.4673737955059
 20
1086.741355298637
 30
0.0
 11
845.4673737955059
 21
952.7413552986366
 31
0.0
  0
INSERT
  5
4D64
330
4D5E
100
AcDbEntity
  8
DIM
 62
     0
370
    -2
100
AcDbBlockReference
  2
_DOT
 10
845.4673737955059
 20
1096.741355298637
 30
0.0
 41
10.0
 42
10.0
 43
10.0
 50
90.0
  0
INSERT
  5
4D65
330
4D5E
100
AcDbEntity
  8
DIM
 62
     0
370
    -2
100
AcDbBlockReference
  2
_DOT
 10
845.4673737955059
 20
942.7413552986366
 30
0.0
 41
10.0
 42
10.0
 43
10.0
 50
270.0
  0
MTEXT
  5
4D66
330
4D5E
100
AcDbEntity
  8
DIM
 62
     0
100
AcDbMText
 10
813.4673737955059
 20
1019.741355298637
 30
0.0
 40
24.0
 41
0.0
 46
0.0
 71
     5
 72
     1
  1
\A1;154
  7
ＭＳ ゴシック
 11
0.0
 21
1.0
 31
0.0
 73
     1
 44
1.0
  0
POINT
  5
4D67
330
4D5E
100
AcDbEntity
  8
Defpoints
 62
     0
100
AcDbPoint
 10
753.4357903429445
 20
1096.741355298637
 30
0.0
  0
POINT
  5
4D68
330
4D5E
100
AcDbEntity
  8
Defpoints
 62
     0
100
AcDbPoint
 10
558.268181445409
 20
942.7413552986366
 30
0.0
  0
POINT
  5
4D69
330
4D5E
100
AcDbEntity
  8
Defpoints
 62
     0
100
AcDbPoint
 10
845.4673737955059
 20
942.7413552986366
 30
0.0
  0
ENDBLK
  5
4D60
330
4D5E
100
AcDbEntity
  8
0
100
AcDbBlockEnd
  0
BLOCK
  5
4D6C
330
4D6B
100
AcDbEntity
  8
0
100
AcDbBlockBegin
  2
*D23
 70
     1
 10
0.0
 20
0.0
 30
0.0
  3
*D23
  1

  0
LINE
  5
4D6E
330
4D6B
100
AcDbEntity
  8
DIM
 62
     0
370
    -2
100
AcDbLine
 10
817.8771330895688
 20
1096.741355298637
 30
0.0
 11
907.4651287375686
 21
1096.741355298637
 31
0.0
  0
LINE
  5
4D6F
330
4D6B
100
AcDbEntity
  8
DIM
 62
     0
370
    -2
100
AcDbLine
 10
586.3547735150405
 20
937.7413552986367
 30
0.0
 11
907.4651287375686
 21
937.7413552986367
 31
0.0
  0
LINE
  5
4D70
330
4D6B
100
AcDbEntity
  8
DIM
 62
     0
370
    -2
100
AcDbLine
 10
907.4651287375686
 20
1086.741355298637
 30
0.0
 11
907.4651287375686
 21
947.7413552986367
 31
0.0
  0
INSERT
  5
4D71
330
4D6B
100
AcDbEntity
  8
DIM
 62
     0
370
    -2
100
AcDbBlockReference
  2
_DOT
 10
907.4651287375686
 20
1096.741355298637
 30
0.0
 41
10.0
 42
10.0
 43
10.0
 50
90.0
  0
INSERT
  5
4D72
330
4D6B
100
AcDbEntity
  8
DIM
 62
     0
370
    -2
100
AcDbBlockReference
  2
_DOT
 10
907.4651287375686
 20
937.7413552986367
 30
0.0
 41
10.0
 42
10.0
 43
10.0
 50
270.0
  0
MTEXT
  5
4D73
330
4D6B
100
AcDbEntity
  8
DIM
 62
     0
100
AcDbMText
 10
875.4651287375686
 20
1017.241355298637
 30
0.0
 40
24.0
 41
0.0
 46
0.0
 71
     5
 72
     1
  1
\A1;159
  7
ＭＳ ゴシック
 11
0.0
 21
1.0
 31
0.0
 73
     1
 44
1.0
  0
POINT
  5
4D74
330
4D6B
100
AcDbEntity
  8
Defpoints
 62
     0
100
AcDbPoint
 10
787.8771330895688
 20
1096.741355298637
 30
0.0
  0
POINT
  5
4D75
330
4D6B
100
AcDbEntity
  8
Defpoints
 62
     0
100
AcDbPoint
 10
556.3547735150405
 20
937.7413552986367
 30
0.0
  0
POINT
  5
4D76
330
4D6B
100
AcDbEntity
  8
Defpoints
 62
     0
100
AcDbPoint
 10
907.4651287375686
 20
937.7413552986367
 30
0.0
  0
ENDBLK
  5
4D6D
330
4D6B
100
AcDbEntity
  8
0
100
AcDbBlockEnd
  0
BLOCK
  5
4D7B
330
4D7A
100
AcDbEntity
  8
0
100
AcDbBlockBegin
  2
*D24
 70
     1
 10
0.0
 20
0.0
 30
0.0
  3
*D24
  1

  0
LINE
  5
4D7D
330
4D7A
100
AcDbEntity
  8
DIM
 62
     0
370
    -2
100
AcDbLine
 10
1247.519368861417
 20
1096.741355298637
 30
0.0
 11
1210.827042359572
 21
1096.741355298637
 31
0.0
  0
LINE
  5
4D7E
330
4D7A
100
AcDbEntity
  8
DIM
 62
     0
370
    -2
100
AcDbLine
 10
1244.136843236511
 20
1089.129812386845
 30
0.0
 11
1210.827042359572
 21
1089.129812386845
 31
0.0
  0
LINE
  5
4D7F
330
4D7A
100
AcDbEntity
  8
DIM
 62
     0
370
    -2
100
AcDbLine
 10
1210.827042359572
 20
1086.741355298637
 30
0.0
 11
1210.827042359572
 21
1099.129812386845
 31
0.0
  0
INSERT
  5
4D80
330
4D7A
100
AcDbEntity
  8
DIM
 62
     0
370
    -2
100
AcDbBlockReference
  2
_DOT
 10
1210.827042359572
 20
1096.741355298637
 30
0.0
 41
10.0
 42
10.0
 43
10.0
 50
90.0
  0
INSERT
  5
4D81
330
4D7A
100
AcDbEntity
  8
DIM
 62
     0
370
    -2
100
AcDbBlockReference
  2
_DOT
 10
1210.827042359572
 20
1089.129812386845
 30
0.0
 41
10.0
 42
10.0
 43
10.0
 50
270.0
  0
MTEXT
  5
4D82
330
4D7A
100
AcDbEntity
  8
DIM
 62
     0
100
AcDbMText
 10
1178.827042359572
 20
1092.935583842741
 30
0.0
 40
24.0
 41
0.0
 46
0.0
 71
     5
 72
     1
  1
\A1;8
  7
ＭＳ ゴシック
 11
0.0
 21
1.0
 31
0.0
 73
     1
 44
1.0
  0
POINT
  5
4D83
330
4D7A
100
AcDbEntity
  8
Defpoints
 62
     0
100
AcDbPoint
 10
1277.519368861417
 20
1096.741355298637
 30
0.0
  0
POINT
  5
4D84
330
4D7A
100
AcDbEntity
  8
Defpoints
 62
     0
100
AcDbPoint
 10
1274.136843236511
 20
1089.129812386845
 30
0.0
  0
POINT
  5
4D85
330
4D7A
100
AcDbEntity
  8
Defpoints
 62
     0
100
AcDbPoint
 10
1210.827042359572
 20
1089.129812386845
 30
0.0
  0
ENDBLK
  5
4D7C
330
4D7A
100
AcDbEntity
  8
0
100
AcDbBlockEnd
  0
BLOCK
  5
4D89
330
4D88
100
AcDbEntity
  8
0
100
AcDbBlockBegin
  2
*D25
 70
     1
 10
0.0
 20
0.0
 30
0.0
  3
*D25
  1

  0
LINE
  5
4D8B
330
4D88
100
AcDbEntity
  8
DIM
 62
     0
370
    -2
100
AcDbLine
 10
1272.637578162649
 20
1036.295183651471
 30
0.0
 11
1272.637578162649
 21
837.038953330273
 31
0.0
  0
LINE
  5
4D8C
330
4D88
100
AcDbEntity
  8
DIM
 62
     0
370
    -2
100
AcDbLine
 10
1497.637578162649
 20
893.3360735604795
 30
0.0
 11
1497.637578162649
 21
837.038953330273
 31
0.0
  0
LINE
  5
4D8D
330
4D88
100
AcDbEntity
  8
DIM
 62
     0
370
    -2
100
AcDbLine
 10
1282.637578162649
 20
837.038953330273
 30
0.0
 11
1487.637578162649
 21
837.038953330273
 31
0.0
  0
INSERT
  5
4D8E
330
4D88
100
AcDbEntity
  8
DIM
 62
     0
370
    -2
100
AcDbBlockReference
  2
_DOT
 10
1272.637578162649
 20
837.038953330273
 30
0.0
 41
10.0
 42
10.0
 43
10.0
 50
180.0
  0
INSERT
  5
4D8F
330
4D88
100
AcDbEntity
  8
DIM
 62
     0
370
    -2
100
AcDbBlockReference
  2
_DOT
 10
1497.637578162649
 20
837.038953330273
 30
0.0
 41
10.0
 42
10.0
 43
10.0
  0
MTEXT
  5
4D90
330
4D88
100
AcDbEntity
  8
DIM
 62
     0
100
AcDbMText
 10
1385.137578162649
 20
869.038953330273
 30
0.0
 40
24.0
 41
0.0
 46
0.0
 71
     5
 72
     1
  1
\A1;225
  7
ＭＳ ゴシック
 73
     1
 44
1.0
  0
POINT
  5
4D91
330
4D88
100
AcDbEntity
  8
Defpoints
 62
     0
100
AcDbPoint
 10
1272.637578162649
 20
1066.295183651471
 30
0.0
  0
POINT
  5
4D92
330
4D88
100
AcDbEntity
  8
Defpoints
 62
     0
100
AcDbPoint
 10
1497.637578162649
 20
923.3360735604795
 30
0.0
  0
POINT
  5
4D93
330
4D88
100
AcDbEntity
  8
Defpoints
 62
     0
100
AcDbPoint
 10
1497.637578162649
 20
837.038953330273
 30
0.0
  0
ENDBLK
  5
4D8A
330
4D88
100
AcDbEntity
  8
0
100
AcDbBlockEnd
  0
BLOCK
  5
4D96
330
4D95
100
AcDbEntity
  8
0
100
AcDbBlockBegin
  2
*D26
 70
     1
 10
0.0
 20
0.0
 30
0.0
  3
*D26
  1

  0
LINE
  5
4D98
330
4D95
100
AcDbEntity
  8
DIM
 62
     0
370
    -2
100
AcDbLine
 10
1272.637578162649
 20
1036.295183651471
 30
0.0
 11
1272.637578162649
 21
780.234655397473
 31
0.0
  0
LINE
  5
4D99
330
4D95
100
AcDbEntity
  8
DIM
 62
     0
370
    -2
100
AcDbLine
 10
1572.637578162649
 20
1036.295183651471
 30
0.0
 11
1572.637578162649
 21
780.234655397473
 31
0.0
  0
LINE
  5
4D9A
330
4D95
100
AcDbEntity
  8
DIM
 62
     0
370
    -2
100
AcDbLine
 10
1282.637578162649
 20
780.234655397473
 30
0.0
 11
1562.637578162649
 21
780.234655397473
 31
0.0
  0
INSERT
  5
4D9B
330
4D95
100
AcDbEntity
  8
DIM
 62
     0
370
    -2
100
AcDbBlockReference
  2
_DOT
 10
1272.637578162649
 20
780.234655397473
 30
0.0
 41
10.0
 42
10.0
 43
10.0
 50
180.0
  0
INSERT
  5
4D9C
330
4D95
100
AcDbEntity
  8
DIM
 62
     0
370
    -2
100
AcDbBlockReference
  2
_DOT
 10
1572.637578162649
 20
780.234655397473
 30
0.0
 41
10.0
 42
10.0
 43
10.0
  0
MTEXT
  5
4D9D
330
4D95
100
AcDbEntity
  8
DIM
 62
     0
100
AcDbMText
 10
1422.637578162649
 20
812.234655397473
 30
0.0
 40
24.0
 41
0.0
 46
0.0
 71
     5
 72
     1
  1
\A1;300
  7
ＭＳ ゴシック
 73
     1
 44
1.0
  0
POINT
  5
4D9E
330
4D95
100
AcDbEntity
  8
Defpoints
 62
     0
100
AcDbPoint
 10
1272.637578162649
 20
1066.295183651471
 30
0.0
  0
POINT
  5
4D9F
330
4D95
100
AcDbEntity
  8
Defpoints
 62
     0
100
AcDbPoint
 10
1572.637578162649
 20
1066.295183651471
 30
0.0
  0
POINT
  5
4DA0
330
4D95
100
AcDbEntity
  8
Defpoints
 62
     0
100
AcDbPoint
 10
1572.637578162649
 20
780.234655397473
 30
0.0
  0
ENDBLK
  5
4D97
330
4D95
100
AcDbEntity
  8
0
100
AcDbBlockEnd
  0
BLOCK
  5
4DA5
330
4DA4
100
AcDbEntity
  8
0
100
AcDbBlockBegin
  2
*D27
 70
     1
 10
0.0
 20
0.0
 30
0.0
  3
*D27
  1

  0
LINE
  5
4DA7
330
4DA4
100
AcDbEntity
  8
DIM
 62
     0
370
    -2
100
AcDbLine
 10
1757.789556129578
 20
1096.741355298637
 30
0.0
 11
1816.54095608471
 21
1096.741355298637
 31
0.0
  0
LINE
  5
4DA8
330
4DA4
100
AcDbEntity
  8
DIM
 62
     0
370
    -2
100
AcDbLine
 10
1757.789556129578
 20
1048.536063864963
 30
0.0
 11
1816.54095608471
 21
1048.536063864963
 31
0.0
  0
LINE
  5
4DA9
330
4DA4
100
AcDbEntity
  8
DIM
 62
     0
370
    -2
100
AcDbLine
 10
1816.54095608471
 20
1086.741355298637
 30
0.0
 11
1816.54095608471
 21
1058.536063864963
 31
0.0
  0
INSERT
  5
4DAA
330
4DA4
100
AcDbEntity
  8
DIM
 62
     0
370
    -2
100
AcDbBlockReference
  2
_DOT
 10
1816.54095608471
 20
1096.741355298637
 30
0.0
 41
10.0
 42
10.0
 43
10.0
 50
90.0
  0
INSERT
  5
4DAB
330
4DA4
100
AcDbEntity
  8
DIM
 62
     0
370
    -2
100
AcDbBlockReference
  2
_DOT
 10
1816.54095608471
 20
1048.536063864963
 30
0.0
 41
10.0
 42
10.0
 43
10.0
 50
270.0
  0
MTEXT
  5
4DAC
330
4DA4
100
AcDbEntity
  8
DIM
 62
     0
100
AcDbMText
 10
1784.54095608471
 20
1072.6387095818
 30
0.0
 40
24.0
 41
0.0
 46
0.0
 71
     5
 72
     1
  1
\A1;48
  7
ＭＳ ゴシック
 11
0.0
 21
1.0
 31
0.0
 73
     1
 44
1.0
  0
POINT
  5
4DAD
330
4DA4
100
AcDbEntity
  8
Defpoints
 62
     0
100
AcDbPoint
 10
1727.789556129578
 20
1096.741355298637
 30
0.0
  0
POINT
  5
4DAE
330
4DA4
100
AcDbEntity
  8
Defpoints
 62
     0
100
AcDbPoint
 10
1727.789556129578
 20
1048.536063864963
 30
0.0
  0
POINT
  5
4DAF
330
4DA4
100
AcDbEntity
  8
Defpoints
 62
     0
100
AcDbPoint
 10
1816.54095608471
 20
1048.536063864963
 30
0.0
  0
ENDBLK
  5
4DA6
330
4DA4
100
AcDbEntity
  8
0
100
AcDbBlockEnd
  0
BLOCK
  5
4DB3
330
4DB2
100
AcDbEntity
  8
0
100
AcDbBlockBegin
  2
*D28
 70
     1
 10
0.0
 20
0.0
 30
0.0
  3
*D28
  1

  0
LINE
  5
4DB5
330
4DB2
100
AcDbEntity
  8
DIM
 62
     0
370
    -2
100
AcDbLine
 10
1760.820280804223
 20
1048.536063864963
 30
0.0
 11
1816.54095608471
 21
1048.536063864963
 31
0.0
  0
LINE
  5
4DB6
330
4DB2
100
AcDbEntity
  8
DIM
 62
     0
370
    -2
100
AcDbLine
 10
1550.432628140685
 20
937.5360638649627
 30
0.0
 11
1816.54095608471
 21
937.5360638649627
 31
0.0
  0
LINE
  5
4DB7
330
4DB2
100
AcDbEntity
  8
DIM
 62
     0
370
    -2
100
AcDbLine
 10
1816.54095608471
 20
1038.536063864963
 30
0.0
 11
1816.54095608471
 21
947.5360638649627
 31
0.0
  0
INSERT
  5
4DB8
330
4DB2
100
AcDbEntity
  8
DIM
 62
     0
370
    -2
100
AcDbBlockReference
  2
_DOT
 10
1816.54095608471
 20
1048.536063864963
 30
0.0
 41
10.0
 42
10.0
 43
10.0
 50
90.0
  0
INSERT
  5
4DB9
330
4DB2
100
AcDbEntity
  8
DIM
 62
     0
370
    -2
100
AcDbBlockReference
  2
_DOT
 10
1816.54095608471
 20
937.5360638649627
 30
0.0
 41
10.0
 42
10.0
 43
10.0
 50
270.0
  0
MTEXT
  5
4DBA
330
4DB2
100
AcDbEntity
  8
DIM
 62
     0
100
AcDbMText
 10
1784.54095608471
 20
993.0360638649627
 30
0.0
 40
24.0
 41
0.0
 46
0.0
 71
     5
 72
     1
  1
\A1;111
  7
ＭＳ ゴシック
 11
0.0
 21
1.0
 31
0.0
 73
     1
 44
1.0
  0
POINT
  5
4DBB
330
4DB2
100
AcDbEntity
  8
Defpoints
 62
     0
100
AcDbPoint
 10
1730.820280804223
 20
1048.536063864963
 30
0.0
  0
POINT
  5
4DBC
330
4DB2
100
AcDbEntity
  8
Defpoints
 62
     0
100
AcDbPoint
 10
1520.432628140685
 20
937.5360638649627
 30
0.0
  0
POINT
  5
4DBD
330
4DB2
100
AcDbEntity
  8
Defpoints
 62
     0
100
AcDbPoint
 10
1816.54095608471
 20
937.5360638649627
 30
0.0
  0
ENDBLK
  5
4DB4
330
4DB2
100
AcDbEntity
  8
0
100
AcDbBlockEnd
  0
BLOCK
  5
4DC2
330
4DC1
100
AcDbEntity
  8
0
100
AcDbBlockBegin
  2
*D29
 70
     1
 10
0.0
 20
0.0
 30
0.0
  3
*D29
  1

  0
LINE
  5
4DC4
330
4DC1
100
AcDbEntity
  8
DIM
 62
     0
370
    -2
100
AcDbLine
 10
1516.954948497215
 20
941.9847861689309
 30
0.0
 11
1497.104245883439
 21
941.9847861689309
 31
0.0
  0
LINE
  5
4DC5
330
4DC1
100
AcDbEntity
  8
DIM
 62
     0
370
    -2
100
AcDbLine
 10
1516.954948497215
 20
1096.741355298637
 30
0.0
 11
1497.104245883439
 21
1096.741355298637
 31
0.0
  0
LINE
  5
4DC6
330
4DC1
100
AcDbEntity
  8
DIM
 62
     0
370
    -2
100
AcDbLine
 10
1497.104245883439
 20
1096.741355298637
 30
0.0
 11
1497.104245883439
 21
1299.637727595076
 31
0.0
  0
LINE
  5
4DC7
330
4DC1
100
AcDbEntity
  8
DIM
 62
     0
370
    -2
100
AcDbLine
 10
1497.104245883439
 20
951.9847861689309
 30
0.0
 11
1497.104245883439
 21
1086.741355298637
 31
0.0
  0
LINE
  5
4DC8
330
4DC1
100
AcDbEntity
  8
DIM
 62
     0
370
    -2
100
AcDbLine
 10
1497.104245883439
 20
1086.741355298637
 30
0.0
 11
1497.104245883439
 21
1076.741355298637
 31
0.0
  0
INSERT
  5
4DC9
330
4DC1
100
AcDbEntity
  8
DIM
 62
     0
370
    -2
100
AcDbBlockReference
  2
_DOT
 10
1497.104245883439
 20
941.9847861689309
 30
0.0
 41
10.0
 42
10.0
 43
10.0
 50
270.0
  0
INSERT
  5
4DCA
330
4DC1
100
AcDbEntity
  8
DIM
 62
     0
370
    -2
100
AcDbBlockReference
  2
_DOT
 10
1497.104245883439
 20
1096.741355298637
 30
0.0
 41
10.0
 42
10.0
 43
10.0
 50
90.0
  0
MTEXT
  5
4DCB
330
4DC1
100
AcDbEntity
  8
DIM
 62
     0
100
AcDbMText
 10
1462.980245883439
 20
1214.621727595076
 30
0.0
 40
24.0
 41
0.0
 46
0.0
 71
     5
 72
     1
  1
\A1;155(深さ)
  7
ＭＳ ゴシック
 11
0.0
 21
1.0
 31
0.0
 73
     1
 44
1.0
  0
POINT
  5
4DCC
330
4DC1
100
AcDbEntity
  8
Defpoints
 62
     0
100
AcDbPoint
 10
1486.954948497215
 20
941.9847861689309
 30
0.0
  0
POINT
  5
4DCD
330
4DC1
100
AcDbEntity
  8
Defpoints
 62
     0
100
AcDbPoint
 10
1486.954948497215
 20
1096.741355298637
 30
0.0
  0
POINT
  5
4DCE
330
4DC1
100
AcDbEntity
  8
Defpoints
 62
     0
100
AcDbPoint
 10
1497.104245883439
 20
1096.741355298637
 30
0.0
  0
ENDBLK
  5
4DC3
330
4DC1
100
AcDbEntity
  8
0
100
AcDbBlockEnd
  0
ENDSEC
  0
SECTION
  2
ENTITIES
  0
MTEXT
  5
177
330
A
100
AcDbEntity
  8
TEMPLATE
390
1D
100
AcDbMText
 10
79.20214454773075
 20
343.7317516314282
 30
0.0
 40
16.28841145833333
 41
0.0
 46
0.0
 71
     1
 72
     1
  1
品名
  7
ＭＳ ゴシック
 73
     1
 44
0.7828267384257843
  0
MTEXT
  5
178
330
A
100
AcDbEntity
  8
TEMPLATE
390
1D
100
AcDbMText
 10
79.20214454773075
 20
258.731751631428
 30
0.0
 40
16.28841145833333
 41
0.0
 46
0.0
 71
     1
 72
     1
  1
仕様
  7
ＭＳ ゴシック
 73
     1
 44
0.7828267384257843
  0
LINE
  5
179
330
A
100
AcDbEntity
  8
TEMPLATE
390
1D
100
AcDbLine
 10
2022.202144547248
 20
267.1466735064284
 30
0.0
 11
72.20214454724874
 21
267.1466735064284
 31
0.0
  0
LWPOLYLINE
  5
17A
330
A
100
AcDbEntity
  8
TEMPLATE
390
1D
100
AcDbPolyline
 90
        5
 70
   128
 43
0.0
 10
2022.202144547248
 20
2897.146673506426
 10
72.20214454724874
 20
2897.146673506426
 10
72.20214454724874
 20
97.14667350642826
 10
2022.202144547248
 20
97.14667350642826
 10
2022.202144547248
 20
2897.146673506426
  0
LINE
  5
17B
330
A
100
AcDbEntity
  8
TEMPLATE
390
1D
100
AcDbLine
 10
2022.202144547248
 20
352.1466735064282
 30
0.0
 11
72.20214454724874
 21
352.1466735064282
 31
0.0
  0
LINE
  5
17C
330
A
100
AcDbEntity
  8
TEMPLATE
390
1D
100
AcDbLine
 10
2022.202144547732
 20
182.1466735064282
 30
0.0
 11
1269.20214454773
 21
182.1466735064282
 31
0.0
  0
MTEXT
  5
17E
330
A
100
AcDbEntity
  8
TEMPLATE
390
1D
100
AcDbMText
 10
1299.073550799991
 20
152.2362790331201
 30
0.0
 40
24.4326171875
 41
0.0
 46
0.0
 71
     1
 72
     1
  1
大洋金物株式会社 ティーフォルム事業部
  7
ＭＳ ゴシック
 73
     1
 44
0.7828267384257843
  0
MTEXT
  5
180
330
A
100
AcDbEntity
  8
TEMPLATE
390
1D
100
AcDbMText
 10
1831.20214454799
 20
230.1492906939282
 30
0.0
 40
24.4326171875
 41
0.0
 46
24.4326171875
 71
     1
 72
     1
  1
{1:10}
  7
ＭＳ ゴシック
 73
     1
 44
0.7828267384257843
1001
ACAD
1000
ACAD_MTEXT_DEFINED_HEIGHT_BEGIN
1070
    46
1040
24.4326171875
1000
ACAD_MTEXT_DEFINED_HEIGHT_END
  0
MTEXT
  5
181
330
A
100
AcDbEntity
  8
TEMPLATE
390
1D
100
AcDbMText
 10
1778.20214454799
 20
258.731751631428
 30
0.0
 40
16.28841145833333
 41
0.0
 46
0.0
 71
     1
 72
     1
  1
縮尺
  7
ＭＳ ゴシック
 73
     1
 44
0.7828267384257843
  0
LINE
  5
182
330
A
100
AcDbEntity
  8
TEMPLATE
390
1D
100
AcDbLine
 10
1771.20214454799
 20
182.1466735064282
 30
0.0
 11
1771.20214454799
 21
267.1466735064284
 31
0.0
  0
MTEXT
  5
183
330
A
100
AcDbEntity
  8
TEMPLATE
390
1D
100
AcDbMText
 10
1527.20214454799
 20
258.731751631428
 30
0.0
 40
16.28841145833333
 41
0.0
 46
0.0
 71
     1
 72
     1
  1
容量
  7
ＭＳ ゴシック
 73
     1
 44
0.7828267384257843
  0
LINE
  5
184
330
A
100
AcDbEntity
  8
TEMPLATE
390
1D
100
AcDbLine
 10
1520.20214454799
 20
182.1466735064282
 30
0.0
 11
1520.20214454799
 21
267.1466735064284
 31
0.0
  0
MTEXT
  5
185
330
A
100
AcDbEntity
  8
TEMPLATE
390
1D
100
AcDbMText
 10
1276.20214454799
 20
343.7317516314282
 30
0.0
 40
16.28841145833333
 41
0.0
 46
0.0
 71
     1
 72
     1
  1
品番
  7
ＭＳ ゴシック
 73
     1
 44
0.7828267384257843
  0
MTEXT
  5
186
330
A
100
AcDbEntity
  8
TEMPLATE
390
1D
100
AcDbMText
 10
1276.20214454799
 20
258.731751631428
 30
0.0
 40
16.28841145833333
 41
0.0
 46
0.0
 71
     1
 72
     1
  1
重量
  7
ＭＳ ゴシック
 73
     1
 44
0.7828267384257843
  0
MTEXT
  5
187
330
A
100
AcDbEntity
  8
TEMPLATE
390
1D
100
AcDbMText
 10
1329.20214454799
 20
315.1492906939282
 30
0.0
 40
24.4326171875
 41
0.0
 46
24.4326171875
 71
     1
 72
     1
  1
{\fＭＳ ゴシック|b0|i0|c0|p34;{\C7;FAN70-0503}}
  7
ＭＳ ゴシック
 73
     1
 44
0.7828267384257843
1001
ACAD
1000
ACAD_MTEXT_DEFINED_HEIGHT_BEGIN
1070
    46
1040
24.4326171875
1000
ACAD_MTEXT_DEFINED_HEIGHT_END
  0
LINE
  5
188
330
A
100
AcDbEntity
  8
TEMPLATE
390
1D
100
AcDbLine
 10
1269.20214454799
 20
97.14667350642826
 30
0.0
 11
1269.20214454799
 21
352.1466735064282
 31
0.0
  0
MTEXT
  5
189
330
A
100
AcDbEntity
  8
TEMPLATE
390
1D
100
AcDbMText
 10
132.2021445477307
 20
315.1492906939282
 30
0.0
 40
24.4326171875
 41
0.0
 46
27.0469072265625
 71
     1
 72
     1
  1
{洗面器　-ALAPE-}
  7
ＭＳ ゴシック
 73
     1
 44
0.7828267384257843
1001
ACAD
1000
ACAD_MTEXT_DEFINED_HEIGHT_BEGIN
1070
    46
1040
27.0469072265625
1000
ACAD_MTEXT_DEFINED_HEIGHT_END
  0
MTEXT
  5
7D9
330
A
100
AcDbEntity
  8
TEMPLATE
390
1D
100
AcDbMText
 10
125.2543452760364
 20
226.8119760293952
 30
0.0
 40
24.4326171875
 41
0.0
 46
25.556517578125
 71
     1
 72
     1
  1
{半埋め込み/オーバーフロー付き/型紙付属/ホーロー/ホワイト}
  7
ＭＳ ゴシック
 73
     1
 44
0.9331787841240657
1001
ACAD
1000
ACAD_MTEXT_DEFINED_HEIGHT_BEGIN
1070
    46
1040
25.556517578125
1000
ACAD_MTEXT_DEFINED_HEIGHT_END
  0
INSERT
  5
68C
330
A
100
AcDbEntity
  8
TEMPLATE
100
AcDbBlockReference
  2
block 2
 10
919.2743017702577
 20
8.373076514336368
 30
0.0
 41
0.3809999999999999
 42
0.3809999999999999
 43
0.3809999999999999
  0
LWPOLYLINE
  5
DAC
330
A
100
AcDbEntity
  8
BORDER
100
AcDbPolyline
 90
        4
 70
     1
 43
0.0
 10
0.0
 20
0.0
 10
0.0
 20
2970.0
 10
2100.0
 20
2970.0
 10
2100.0
 20
0.0
  0
MTEXT
  5
121B
330
A
100
AcDbEntity
  8
TEMPLATE
390
1D
100
AcDbMText
 10
1329.20214454799
 20
227.1688729773101
 30
0.0
 40
24.4326171875
 41
0.0
 46
28.390701171875
 71
     1
 72
     1
  1
{\fＭＳ ゴシック|b0|i0|c0|p34;{\C7;3.1kg}}
  7
ＭＳ ゴシック
 73
     1
 44
0.7828267384257843
1001
ACAD
1000
ACAD_MTEXT_DEFINED_HEIGHT_BEGIN
1070
    46
1040
28.390701171875
1000
ACAD_MTEXT_DEFINED_HEIGHT_END
  0
MTEXT
  5
1466
102
{ACAD_XDICTIONARY
360
1468
102
}
330
A
100
AcDbEntity
  8
TEMPLATE
 48
0.05
100
AcDbMText
 10
74.728656548571
 20
83.86172105142839
 30
0.0
 40
22.0
 41
0.0
 46
22.0
 71
     1
 72
     1
  1
{20200210N}
  7
ＭＳ ゴシック
 73
     1
 44
1.0
1001
ACAD
1000
ACAD_MTEXT_DEFINED_HEIGHT_BEGIN
1070
    46
1040
22.0
1000
ACAD_MTEXT_DEFINED_HEIGHT_END
  0
POINT
  5
262A
330
A
100
AcDbEntity
  8
Layer9
  6
Continuous
 62
     7
100
AcDbPoint
 10
1037.460145007193
 20
1010.220672371878
 30
0.0
  0
POINT
  5
262B
330
A
100
AcDbEntity
  8
Layer9
  6
Continuous
 62
     7
100
AcDbPoint
 10
1037.460146257193
 20
1010.220672788578
 30
0.0
  0
POINT
  5
262C
330
A
100
AcDbEntity
  8
Layer9
  6
Continuous
 62
     7
100
AcDbPoint
 10
1037.853693340493
 20
1015.267975288578
 30
0.0
  0
POINT
  5
2812
330
A
100
AcDbEntity
  8
Layer9
  6
Continuous
 62
     7
100
AcDbPoint
 10
925.7934783404928
 20
1010.220672371878
 30
0.0
  0
POINT
  5
2813
330
A
100
AcDbEntity
  8
Layer9
  6
Continuous
 62
     7
100
AcDbPoint
 10
925.7934795904928
 20
1010.220672788578
 30
0.0
  0
POINT
  5
2814
330
A
100
AcDbEntity
  8
Layer9
  6
Continuous
 62
     7
100
AcDbPoint
 10
926.1870266737928
 20
1015.267975288578
 30
0.0
  0
INSERT
  5
28CA
330
A
100
AcDbEntity
  8
Layer3
100
AcDbBlockReference
  2
SEANNOT_GROUP
 10
859.7083018867928
 20
826.1905269541776
 30
0.0
  0
POINT
  5
2A52
330
A
100
AcDbEntity
  8
Standard
  6
Continuous
 62
     7
100
AcDbPoint
 10
1036.111241014893
 20
1018.794321538578
 30
0.0
  0
INSERT
  5
2B9B
330
A
100
AcDbEntity
  8
Layer3
100
AcDbBlockReference
  2
SEANNOT_GROUP1
 10
859.7083018867928
 20
826.1905269541776
 30
0.0
  0
HATCH
  5
369B
102
{ACAD_REACTORS
330
36AC
102
}
330
A
100
AcDbEntity
  8
TEMPLATE
100
AcDbHatch
 10
0.0
 20
0.0
 30
0.0
210
0.0
220
0.0
230
1.0
  2
SOLID
 70
     1
 71
     1
 91
        6
 92
        1
 93
        8
 72
     1
 10
1934.476782902687
 20
153.1053194253001
 11
1934.476782902687
 21
147.1959117946397
 72
     1
 10
1934.476782902687
 20
147.1959117946397
 11
1925.116191352377
 21
147.1959117946397
 72
     1
 10
1925.116191352377
 20
147.1959117946397
 11
1925.116191352377
 21
123.105319426746
 72
     1
 10
1925.116191352377
 20
123.105319426746
 11
1916.883578199102
 21
123.105319426746
 72
     1
 10
1916.883578199102
 20
123.105319426746
 11
1916.883578199102
 21
147.1959117946397
 72
     1
 10
1916.883578199102
 20
147.1959117946397
 11
1907.688876764557
 21
147.1959117946397
 72
     1
 10
1907.688876764557
 20
147.1959117946397
 11
1907.688876764557
 21
153.1053194253001
 72
     1
 10
1907.688876764557
 20
153.1053194253001
 11
1934.476782902687
 21
153.1053194253001
 97
        1
330
369C
 92
        1
 93
        1
 72
     4
 94
        3
 73
     0
 74
     1
 95
       56
 96
       52
 40
0.0
 40
0.0
 40
0.0
 40
0.0
 40
1.0
 40
1.0
 40
1.0
 40
2.0
 40
2.0
 40
2.0
 40
3.0
 40
3.0
 40
3.0
 40
4.0
 40
4.0
 40
4.0
 40
5.0
 40
5.0
 40
5.0
 40
6.0
 40
6.0
 40
6.0
 40
7.0
 40
7.0
 40
7.0
 40
8.0
 40
8.0
 40
8.0
 40
9.0
 40
9.0
 40
9.0
 40
10.0
 40
10.0
 40
10.0
 40
11.0
 40
11.0
 40
11.0
 40
12.0
 40
12.0
 40
12.0
 40
13.0
 40
13.0
 40
13.0
 40
14.0
 40
14.0
 40
14.0
 40
15.0
 40
15.0
 40
15.0
 40
16.0
 40
16.0
 40
16.0
 40
17.0
 40
17.0
 40
17.0
 40
17.0
 10
1947.01896833698
 20
152.3909504648878
 10
1948.1728345189
 20
152.715738018898
 10
1949.662423612235
 20
152.4440650580081
 10
1949.662423612235
 20
152.4440650580081
 10
1949.662423612235
 20
152.4440650580081
 10
1948.946790018651
 20
150.2964947655846
 10
1948.946790018651
 20
150.2964947655846
 10
1948.946790018651
 20
150.2964947655846
 10
1947.484427733556
 20
150.6348957237139
 10
1946.356523726704
 20
149.7454866546012
 10
1945.480058550036
 20
149.0499384113589
 10
1944.912238256914
 20
147.2017886193686
 10
1944.69442379101
 20
146.4990989182278
 10
1944.69442379101
 20
146.4990989182278
 10
1943.723334297183
 20
143.518432927829
 10
1943.723334297183
 20
143.518432927829
 10
1943.723334297183
 20
143.518432927829
 10
1946.907457447503
 20
143.518432927829
 10
1946.907457447503
 20
143.518432927829
 10
1946.907457447503
 20
143.518432927829
 10
1946.412241976351
 20
141.642461206109
 10
1946.412241976351
 20
141.642461206109
 10
1946.412241976351
 20
141.642461206109
 10
1943.202156650962
 20
141.642461206109
 10
1943.202156650962
 20
141.642461206109
 10
1943.202156650962
 20
141.642461206109
 10
1937.458713526257
 20
123.105319426746
 10
1937.458713526257
 20
123.105319426746
 10
1937.458713526257
 20
123.105319426746
 10
1935.660479549369
 20
123.105319426746
 10
1935.660479549369
 20
123.105319426746
 10
1935.660479549369
 20
123.105319426746
 10
1941.409129987127
 20
141.642461206109
 10
1941.409129987127
 20
141.642461206109
 10
1941.409129987127
 20
141.642461206109
 10
1939.040397670409
 20
141.642461206109
 10
1939.040397670409
 20
141.642461206109
 10
1939.040397670409
 20
141.642461206109
 10
1939.536952164915
 20
143.518432927829
 10
1939.536952164915
 20
143.518432927829
 10
1939.536952164915
 20
143.518432927829
 10
1941.930307633347
 20
143.518432927829
 10
1941.930307633347
 20
143.518432927829
 10
1941.930307633347
 20
143.518432927829
 10
1942.77686795507
 20
146.1179236028939
 10
1942.77686795507
 20
146.1179236028939
 10
1943.461406450716
 20
148.2973328951149
 10
1944.042245026465
 20
149.4674161376772
 10
1944.540138544327
 20
150.3496093587049
 10
1945.032750358952
 20
151.232546481597
 10
1946.007708142475
 20
152.0998616653363
 10
1947.01896833698
 20
152.3909504648878
 97
        1
330
36A7
 92
        1
 93
        1
 72
     4
 94
        3
 73
     0
 74
     1
 95
       32
 96
       28
 40
0.0
 40
0.0
 40
0.0
 40
0.0
 40
1.0
 40
1.0
 40
1.0
 40
2.0
 40
2.0
 40
2.0
 40
3.0
 40
3.0
 40
3.0
 40
4.0
 40
4.0
 40
4.0
 40
5.0
 40
5.0
 40
5.0
 40
6.0
 40
6.0
 40
6.0
 40
7.0
 40
7.0
 40
7.0
 40
8.0
 40
8.0
 40
8.0
 40
9.0
 40
9.0
 40
9.0
 40
9.0
 10
1951.394524713372
 20
142.3847264864374
 10
1950.311998720255
 20
140.9844800070205
 10
1949.478382290974
 20
139.7243102486757
 10
1948.128795528524
 20
135.7635535518901
 10
1946.888041608841
 20
132.1406026917421
 10
1946.098464169936
 20
129.5048096056932
 10
1945.979216701069
 20
126.2947242803041
 10
1945.888460673606
 20
123.9059066132458
 10
1947.343086379314
 20
123.105319426746
 10
1949.475853024634
 20
123.105319426746
 10
1950.395018168326
 20
123.105319426746
 10
1952.714504181618
 20
123.1637901132903
 10
1954.3662638814
 20
125.2056519507783
 10
1955.522584939468
 20
126.6401923061455
 10
1956.588298750451
 20
128.1272521331414
 10
1958.017036671275
 20
133.0053142189559
 10
1959.205940631009
 20
137.0833842397621
 10
1960.029142434186
 20
139.7191029356247
 10
1959.968291261677
 20
141.2197761667398
 10
1959.968291261677
 20
141.2197761667398
 10
1959.968291261677
 20
141.2197761667398
 10
1959.968291261677
 20
141.2197761667398
 10
1959.580569609936
 20
143.7233035012931
 10
1957.762919794387
 20
144.2522921170894
 10
1956.724432791643
 20
144.2522921170894
 10
1955.70156772805
 20
144.2522921170894
 10
1952.960735698745
 20
144.4292663706373
 10
1951.394524713372
 20
142.3847264864374
 97
        1
330
36AA
 92
        1
 93
        1
 72
     4
 94
        3
 73
     0
 74
     1
 95
       38
 96
       34
 40
0.0
 40
0.0
 40
0.0
 40
0.0
 40
1.0
 40
1.0
 40
1.0
 40
2.0
 40
2.0
 40
2.0
 40
3.0
 40
3.0
 40
3.0
 40
4.0
 40
4.0
 40
4.0
 40
5.0
 40
5.0
 40
5.0
 40
6.0
 40
6.0
 40
6.0
 40
7.0
 40
7.0
 40
7.0
 40
8.0
 40
8.0
 40
8.0
 40
9.0
 40
9.0
 40
9.0
 40
10.0
 40
10.0
 40
10.0
 40
11.0
 40
11.0
 40
11.0
 40
11.0
 10
1966.542747159137
 20
143.4464976175386
 10
1966.542747159137
 20
143.4464976175386
 10
1968.39149207262
 20
143.4464976175386
 10
1968.39149207262
 20
143.4464976175386
 10
1968.39149207262
 20
143.4464976175386
 10
1967.56561222273
 20
140.8022984404216
 10
1967.56561222273
 20
140.8022984404216
 10
1968.193167835563
 20
141.54456372075
 10
1969.183598777865
 20
142.5331349083912
 10
1970.034176169654
 20
143.0316235477459
 10
1971.304760554101
 20
143.7738888280742
 10
1972.030808773784
 20
143.8717863134333
 10
1972.829313035064
 20
143.8522960845852
 10
1972.829313035064
 20
143.8522960845852
 10
1972.048959979278
 20
141.3520419182353
 10
1972.048959979278
 20
141.3520419182353
 10
1971.540726225497
 20
141.5672527276151
 10
1969.974515240128
 20
141.1575859708734
 10
1969.076030568268
 20
140.5112840310564
 10
1968.265772657532
 20
139.9285113104618
 10
1967.705614553615
 20
139.4326263276327
 10
1967.04190531017
 20
138.1859955832205
 10
1966.383254599404
 20
136.9375050841474
 10
1965.86341597654
 20
134.9467493047458
 10
1964.968799594376
 20
132.058773486655
 10
1964.968799594376
 20
132.058773486655
 10
1962.174852971949
 20
123.105319426746
 10
1962.174852971949
 20
123.105319426746
 10
1962.174852971949
 20
123.105319426746
 10
1960.380561674943
 20
123.105319426746
 10
1960.380561674943
 20
123.105319426746
 10
1960.380561674943
 20
123.105319426746
 10
1966.542747159137
 20
143.4464976175386
 10
1966.542747159137
 20
143.4464976175386
 97
        1
330
36A8
 92
        1
 93
        1
 72
     4
 94
        3
 73
     0
 74
     1
 95
      104
 96
      100
 40
0.0
 40
0.0
 40
0.0
 40
0.0
 40
1.0
 40
1.0
 40
1.0
 40
2.0
 40
2.0
 40
2.0
 40
3.0
 40
3.0
 40
3.0
 40
4.0
 40
4.0
 40
4.0
 40
5.0
 40
5.0
 40
5.0
 40
6.0
 40
6.0
 40
6.0
 40
7.0
 40
7.0
 40
7.0
 40
8.0
 40
8.0
 40
8.0
 40
9.0
 40
9.0
 40
9.0
 40
10.0
 40
10.0
 40
10.0
 40
11.0
 40
11.0
 40
11.0
 40
12.0
 40
12.0
 40
12.0
 40
13.0
 40
13.0
 40
13.0
 40
14.0
 40
14.0
 40
14.0
 40
15.0
 40
15.0
 40
15.0
 40
16.0
 40
16.0
 40
16.0
 40
17.0
 40
17.0
 40
17.0
 40
18.0
 40
18.0
 40
18.0
 40
19.0
 40
19.0
 40
19.0
 40
20.0
 40
20.0
 40
20.0
 40
21.0
 40
21.0
 40
21.0
 40
22.0
 40
22.0
 40
22.0
 40
23.0
 40
23.0
 40
23.0
 40
24.0
 40
24.0
 40
24.0
 40
25.0
 40
25.0
 40
25.0
 40
26.0
 40
26.0
 40
26.0
 40
27.0
 40
27.0
 40
27.0
 40
28.0
 40
28.0
 40
28.0
 40
29.0
 40
29.0
 40
29.0
 40
30.0
 40
30.0
 40
30.0
 40
31.0
 40
31.0
 40
31.0
 40
32.0
 40
32.0
 40
32.0
 40
33.0
 40
33.0
 40
33.0
 40
33.0
 10
1976.718878323425
 20
143.4575073651321
 10
1976.718878323425
 20
143.4575073651321
 10
1978.332996588864
 20
143.4575073651321
 10
1978.332996588864
 20
143.4575073651321
 10
1978.332996588864
 20
143.4575073651321
 10
1977.517531365076
 20
140.810778921676
 10
1977.517531365076
 20
140.810778921676
 10
1978.225279598895
 20
141.920531723033
 10
1978.860571791119
 20
142.4151520726926
 10
1979.704602846502
 20
143.054312554611
 10
1980.551163168223
 20
143.6843974337833
 10
1981.556025806694
 20
143.812794895584
 10
1982.253508194784
 20
143.812794895584
 10
1983.117029479015
 20
143.812794895584
 10
1983.950645908296
 20
143.6422925882567
 10
1984.388804106443
 20
142.6958262461422
 10
1984.72460140805
 20
141.9536353560001
 10
1984.740223347202
 20
141.8660781065566
 10
1984.644260006691
 20
140.4010377747479
 10
1985.521915426345
 20
141.9030500292188
 10
1986.170151511008
 20
142.5500214807137
 10
1987.272167732975
 20
143.1716258786317
 10
1988.42863757142
 20
143.812794895584
 10
1989.102761440966
 20
143.8607765658398
 10
1989.885941323838
 20
143.7453229964802
 10
1991.039733115569
 20
143.5748950793392
 10
1991.776195961356
 20
143.1632197875635
 10
1992.161239566385
 20
141.9121256319649
 10
1992.54762219477
 20
140.6648997660613
 10
1992.338883331611
 20
139.9959088193793
 10
1991.861744675765
 20
138.0103603530286
 10
1991.64393020986
 20
137.1060732466272
 10
1991.328813380087
 20
136.0111240923725
 10
1990.916542966819
 20
134.7082543670094
 10
1990.916542966819
 20
134.7082543670094
 10
1987.272167732975
 20
123.105319426746
 10
1987.272167732975
 20
123.105319426746
 10
1987.272167732975
 20
123.105319426746
 10
1985.376705782409
 20
123.105319426746
 10
1985.376705782409
 20
123.105319426746
 10
1985.376705782409
 20
123.105319426746
 10
1988.567449659321
 20
133.2490164697431
 10
1988.567449659321
 20
133.2490164697431
 10
1989.233836949479
 20
135.3713684889626
 10
1989.684939040069
 20
136.9212880235028
 10
1989.918375445127
 20
137.893047029008
 10
1990.211323999339
 20
139.1052351170969
 10
1990.327967811683
 20
139.505231149601
 10
1990.189304504152
 20
140.3874987608153
 10
1990.062246065708
 20
141.2087664191461
 10
1989.647297605728
 20
141.7435574694851
 10
1988.936871325198
 20
141.7435574694851
 10
1988.17972800758
 20
141.7435574694851
 10
1987.566455310545
 20
141.659273388245
 10
1986.708290119737
 20
140.7971655175569
 10
1985.84997614856
 20
139.9285113104618
 10
1985.140740111011
 20
138.9088450248874
 10
1984.584599077163
 20
137.7361581257997
 10
1984.029648286297
 20
136.5563297688134
 10
1983.466960916042
 20
135.0608638507494
 10
1982.896536966398
 20
133.2490164697431
 10
1982.896536966398
 20
133.2490164697431
 10
1979.704602846502
 20
123.105319426746
 10
1979.704602846502
 20
123.105319426746
 10
1979.704602846502
 20
123.105319426746
 10
1977.921916418581
 20
123.105319426746
 10
1977.921916418581
 20
123.105319426746
 10
1977.921916418581
 20
123.105319426746
 10
1981.571498965475
 20
134.7030470539584
 10
1981.571498965475
 20
134.7030470539584
 10
1981.956542570504
 20
135.9373290274211
 10
1982.245771615394
 20
136.9433819088763
 10
1982.436359273062
 20
137.729686179579
 10
1982.760402925207
 20
139.0832156219098
 10
1982.851158952669
 20
139.9985124759046
 10
1982.606117678524
 20
140.810778921676
 10
1982.364944694076
 20
141.6204417109219
 10
1981.941069411725
 20
141.8272464292334
 10
1981.233172397533
 20
141.8272464292334
 10
1980.639389929345
 20
141.8272464292334
 10
1980.059890376953
 20
141.5724600406662
 10
1979.398710399847
 20
141.0654909200569
 10
1978.566284213549
 20
140.4276694614944
 10
1978.233164958657
 20
139.9038881587491
 10
1977.824762835085
 20
139.2815398589669
 10
1977.273680333915
 20
138.458263665602
 10
1977.015695167332
 20
137.9040567766015
 10
1976.550310160944
 20
136.687926008631
 10
1976.084776374184
 20
135.4646537827621
 10
1975.644088909695
 20
134.0411231749885
 10
1975.336708659311
 20
133.0564946672286
 10
1975.336708659311
 20
133.0564946672286
 10
1972.205774492298
 20
123.105319426746
 10
1972.205774492298
 20
123.105319426746
 10
1972.205774492298
 20
123.105319426746
 10
1970.338878373326
 20
123.105319426746
 10
1970.338878373326
 20
123.105319426746
 10
1970.338878373326
 20
123.105319426746
 10
1976.718878323425
 20
143.4575073651321
 10
1976.718878323425
 20
143.4575073651321
 97
        1
330
36A9
 92
       16
 93
        1
 72
     4
 94
        3
 73
     0
 74
     1
 95
       29
 96
       25
 40
0.0
 40
0.0
 40
0.0
 40
0.0
 40
1.0
 40
1.0
 40
1.0
 40
2.0
 40
2.0
 40
2.0
 40
3.0
 40
3.0
 40
3.0
 40
4.0
 40
4.0
 40
4.0
 40
5.0
 40
5.0
 40
5.0
 40
6.0
 40
6.0
 40
6.0
 40
7.0
 40
7.0
 40
7.0
 40
8.0
 40
8.0
 40
8.0
 40
8.0
 10
1947.916188375669
 20
126.8949043045264
 10
1947.908303015907
 20
128.3120373562658
 10
1948.355685597176
 20
130.8298476066162
 10
1949.501740809517
 20
134.1986815898748
 10
1951.062744481836
 20
138.7603622127471
 10
1951.998870588036
 20
140.4276694614944
 10
1952.818055321147
 20
141.2392663955878
 10
1954.014844640642
 20
142.4210288974216
 10
1955.623755593032
 20
142.4799459250845
 10
1956.098364982539
 20
142.4210288974216
 10
1956.77382787544
 20
142.3399435941987
 10
1957.727956406759
 20
141.8978427161679
 10
1957.784939289575
 20
140.4095182560024
 10
1957.830466083678
 20
139.1357350935386
 10
1957.463424903768
 20
136.7501905946838
 10
1956.178706383896
 20
133.0053142189559
 10
1954.698044112936
 20
128.6536370924121
 10
1953.808635043822
 20
126.9429603649685
 10
1953.095679496951
 20
126.1974219164366
 10
1951.752490290537
 20
124.7997790935452
 10
1950.311998720255
 20
124.9339789898883
 10
1950.0993915674
 20
124.9339789898883
 10
1949.823255195324
 20
124.9339789898883
 10
1947.920056665365
 20
125.2336226608809
 10
1947.916188375669
 20
126.8949043045264
 97
        1
330
36AB
 75
     0
 76
     1
 98
        1
 10
1859.334883625664
 20
72.26751235270598
1001
ACAD
1010
0.0
1020
0.0
1030
0.0
  0
POLYLINE
  5
369C
102
{ACAD_REACTORS
330
369B
330
36AC
102
}
330
A
100
AcDbEntity
  8
TEMPLATE
100
AcDb2dPolyline
 66
     1
 10
0.0
 20
0.0
 30
0.0
  0
VERTEX
  5
369D
330
369C
100
AcDbEntity
  8
TEMPLATE
100
AcDbVertex
100
AcDb2dVertex
 10
1934.476782902687
 20
153.1053194253001
 30
0.0
  0
VERTEX
  5
369E
330
369C
100
AcDbEntity
  8
TEMPLATE
100
AcDbVertex
100
AcDb2dVertex
 10
1934.476782902687
 20
147.1959117946397
 30
0.0
  0
VERTEX
  5
369F
330
369C
100
AcDbEntity
  8
TEMPLATE
100
AcDbVertex
100
AcDb2dVertex
 10
1925.116191352377
 20
147.1959117946397
 30
0.0
  0
VERTEX
  5
36A0
330
369C
100
AcDbEntity
  8
TEMPLATE
100
AcDbVertex
100
AcDb2dVertex
 10
1925.116191352377
 20
123.105319426746
 30
0.0
  0
VERTEX
  5
36A1
330
369C
100
AcDbEntity
  8
TEMPLATE
100
AcDbVertex
100
AcDb2dVertex
 10
1916.883578199102
 20
123.105319426746
 30
0.0
  0
VERTEX
  5
36A2
330
369C
100
AcDbEntity
  8
TEMPLATE
100
AcDbVertex
100
AcDb2dVertex
 10
1916.883578199102
 20
147.1959117946397
 30
0.0
  0
VERTEX
  5
36A3
330
369C
100
AcDbEntity
  8
TEMPLATE
100
AcDbVertex
100
AcDb2dVertex
 10
1907.688876764557
 20
147.1959117946397
 30
0.0
  0
VERTEX
  5
36A4
330
369C
100
AcDbEntity
  8
TEMPLATE
100
AcDbVertex
100
AcDb2dVertex
 10
1907.688876764557
 20
153.1053194253001
 30
0.0
  0
VERTEX
  5
36A5
330
369C
100
AcDbEntity
  8
TEMPLATE
100
AcDbVertex
100
AcDb2dVertex
 10
1934.476782902687
 20
153.1053194253001
 30
0.0
  0
SEQEND
  5
36A6
330
369C
100
AcDbEntity
  8
TEMPLATE
  0
SPLINE
  5
36A7
102
{ACAD_REACTORS
330
369B
330
36AC
102
}
330
A
100
AcDbEntity
  8
TEMPLATE
100
AcDbSpline
210
0.0
220
0.0
230
1.0
 70
    11
 71
     3
 72
    56
 73
    52
 74
     0
 42
0.000000001
 43
0.0000000001
 40
0.0
 40
0.0
 40
0.0
 40
0.0
 40
1.0
 40
1.0
 40
1.0
 40
2.0
 40
2.0
 40
2.0
 40
3.0
 40
3.0
 40
3.0
 40
4.0
 40
4.0
 40
4.0
 40
5.0
 40
5.0
 40
5.0
 40
6.0
 40
6.0
 40
6.0
 40
7.0
 40
7.0
 40
7.0
 40
8.0
 40
8.0
 40
8.0
 40
9.0
 40
9.0
 40
9.0
 40
10.0
 40
10.0
 40
10.0
 40
11.0
 40
11.0
 40
11.0
 40
12.0
 40
12.0
 40
12.0
 40
13.0
 40
13.0
 40
13.0
 40
14.0
 40
14.0
 40
14.0
 40
15.0
 40
15.0
 40
15.0
 40
16.0
 40
16.0
 40
16.0
 40
17.0
 40
17.0
 40
17.0
 40
17.0
 10
1947.01896833698
 20
152.3909504648878
 30
0.0
 10
1948.1728345189
 20
152.715738018898
 30
0.0
 10
1949.662423612235
 20
152.4440650580081
 30
0.0
 10
1949.662423612235
 20
152.4440650580081
 30
0.0
 10
1949.662423612235
 20
152.4440650580081
 30
0.0
 10
1948.946790018651
 20
150.2964947655846
 30
0.0
 10
1948.946790018651
 20
150.2964947655846
 30
0.0
 10
1948.946790018651
 20
150.2964947655846
 30
0.0
 10
1947.484427733556
 20
150.6348957237139
 30
0.0
 10
1946.356523726704
 20
149.7454866546012
 30
0.0
 10
1945.480058550036
 20
149.0499384113589
 30
0.0
 10
1944.912238256914
 20
147.2017886193686
 30
0.0
 10
1944.69442379101
 20
146.4990989182278
 30
0.0
 10
1944.69442379101
 20
146.4990989182278
 30
0.0
 10
1943.723334297183
 20
143.518432927829
 30
0.0
 10
1943.723334297183
 20
143.518432927829
 30
0.0
 10
1943.723334297183
 20
143.518432927829
 30
0.0
 10
1946.907457447503
 20
143.518432927829
 30
0.0
 10
1946.907457447503
 20
143.518432927829
 30
0.0
 10
1946.907457447503
 20
143.518432927829
 30
0.0
 10
1946.412241976351
 20
141.642461206109
 30
0.0
 10
1946.412241976351
 20
141.642461206109
 30
0.0
 10
1946.412241976351
 20
141.642461206109
 30
0.0
 10
1943.202156650962
 20
141.642461206109
 30
0.0
 10
1943.202156650962
 20
141.642461206109
 30
0.0
 10
1943.202156650962
 20
141.642461206109
 30
0.0
 10
1937.458713526257
 20
123.105319426746
 30
0.0
 10
1937.458713526257
 20
123.105319426746
 30
0.0
 10
1937.458713526257
 20
123.105319426746
 30
0.0
 10
1935.660479549369
 20
123.105319426746
 30
0.0
 10
1935.660479549369
 20
123.105319426746
 30
0.0
 10
1935.660479549369
 20
123.105319426746
 30
0.0
 10
1941.409129987127
 20
141.642461206109
 30
0.0
 10
1941.409129987127
 20
141.642461206109
 30
0.0
 10
1941.409129987127
 20
141.642461206109
 30
0.0
 10
1939.040397670409
 20
141.642461206109
 30
0.0
 10
1939.040397670409
 20
141.642461206109
 30
0.0
 10
1939.040397670409
 20
141.642461206109
 30
0.0
 10
1939.536952164915
 20
143.518432927829
 30
0.0
 10
1939.536952164915
 20
143.518432927829
 30
0.0
 10
1939.536952164915
 20
143.518432927829
 30
0.0
 10
1941.930307633347
 20
143.518432927829
 30
0.0
 10
1941.930307633347
 20
143.518432927829
 30
0.0
 10
1941.930307633347
 20
143.518432927829
 30
0.0
 10
1942.77686795507
 20
146.1179236028939
 30
0.0
 10
1942.77686795507
 20
146.1179236028939
 30
0.0
 10
1943.461406450716
 20
148.2973328951149
 30
0.0
 10
1944.042245026465
 20
149.4674161376772
 30
0.0
 10
1944.540138544327
 20
150.3496093587049
 30
0.0
 10
1945.032750358952
 20
151.232546481597
 30
0.0
 10
1946.007708142475
 20
152.0998616653363
 30
0.0
 10
1947.01896833698
 20
152.3909504648878
 30
0.0
  0
SPLINE
  5
36A8
102
{ACAD_REACTORS
330
369B
330
36AC
102
}
330
A
100
AcDbEntity
  8
TEMPLATE
100
AcDbSpline
210
0.0
220
0.0
230
1.0
 70
    11
 71
     3
 72
    38
 73
    34
 74
     0
 42
0.000000001
 43
0.0000000001
 40
0.0
 40
0.0
 40
0.0
 40
0.0
 40
1.0
 40
1.0
 40
1.0
 40
2.0
 40
2.0
 40
2.0
 40
3.0
 40
3.0
 40
3.0
 40
4.0
 40
4.0
 40
4.0
 40
5.0
 40
5.0
 40
5.0
 40
6.0
 40
6.0
 40
6.0
 40
7.0
 40
7.0
 40
7.0
 40
8.0
 40
8.0
 40
8.0
 40
9.0
 40
9.0
 40
9.0
 40
10.0
 40
10.0
 40
10.0
 40
11.0
 40
11.0
 40
11.0
 40
11.0
 10
1966.542747159137
 20
143.4464976175386
 30
0.0
 10
1966.542747159137
 20
143.4464976175386
 30
0.0
 10
1968.39149207262
 20
143.4464976175386
 30
0.0
 10
1968.39149207262
 20
143.4464976175386
 30
0.0
 10
1968.39149207262
 20
143.4464976175386
 30
0.0
 10
1967.56561222273
 20
140.8022984404216
 30
0.0
 10
1967.56561222273
 20
140.8022984404216
 30
0.0
 10
1968.193167835563
 20
141.54456372075
 30
0.0
 10
1969.183598777865
 20
142.5331349083912
 30
0.0
 10
1970.034176169654
 20
143.0316235477459
 30
0.0
 10
1971.304760554101
 20
143.7738888280742
 30
0.0
 10
1972.030808773784
 20
143.8717863134333
 30
0.0
 10
1972.829313035064
 20
143.8522960845852
 30
0.0
 10
1972.829313035064
 20
143.8522960845852
 30
0.0
 10
1972.048959979278
 20
141.3520419182353
 30
0.0
 10
1972.048959979278
 20
141.3520419182353
 30
0.0
 10
1971.540726225497
 20
141.5672527276151
 30
0.0
 10
1969.974515240128
 20
141.1575859708734
 30
0.0
 10
1969.076030568268
 20
140.5112840310564
 30
0.0
 10
1968.265772657532
 20
139.9285113104618
 30
0.0
 10
1967.705614553615
 20
139.4326263276327
 30
0.0
 10
1967.04190531017
 20
138.1859955832205
 30
0.0
 10
1966.383254599404
 20
136.9375050841474
 30
0.0
 10
1965.86341597654
 20
134.9467493047458
 30
0.0
 10
1964.968799594376
 20
132.058773486655
 30
0.0
 10
1964.968799594376
 20
132.058773486655
 30
0.0
 10
1962.174852971949
 20
123.105319426746
 30
0.0
 10
1962.174852971949
 20
123.105319426746
 30
0.0
 10
1962.174852971949
 20
123.105319426746
 30
0.0
 10
1960.380561674943
 20
123.105319426746
 30
0.0
 10
1960.380561674943
 20
123.105319426746
 30
0.0
 10
1960.380561674943
 20
123.105319426746
 30
0.0
 10
1966.542747159137
 20
143.4464976175386
 30
0.0
 10
1966.542747159137
 20
143.4464976175386
 30
0.0
  0
SPLINE
  5
36A9
102
{ACAD_REACTORS
330
369B
330
36AC
102
}
330
A
100
AcDbEntity
  8
TEMPLATE
100
AcDbSpline
210
0.0
220
0.0
230
1.0
 70
    11
 71
     3
 72
   104
 73
   100
 74
     0
 42
0.000000001
 43
0.0000000001
 40
0.0
 40
0.0
 40
0.0
 40
0.0
 40
1.0
 40
1.0
 40
1.0
 40
2.0
 40
2.0
 40
2.0
 40
3.0
 40
3.0
 40
3.0
 40
4.0
 40
4.0
 40
4.0
 40
5.0
 40
5.0
 40
5.0
 40
6.0
 40
6.0
 40
6.0
 40
7.0
 40
7.0
 40
7.0
 40
8.0
 40
8.0
 40
8.0
 40
9.0
 40
9.0
 40
9.0
 40
10.0
 40
10.0
 40
10.0
 40
11.0
 40
11.0
 40
11.0
 40
12.0
 40
12.0
 40
12.0
 40
13.0
 40
13.0
 40
13.0
 40
14.0
 40
14.0
 40
14.0
 40
15.0
 40
15.0
 40
15.0
 40
16.0
 40
16.0
 40
16.0
 40
17.0
 40
17.0
 40
17.0
 40
18.0
 40
18.0
 40
18.0
 40
19.0
 40
19.0
 40
19.0
 40
20.0
 40
20.0
 40
20.0
 40
21.0
 40
21.0
 40
21.0
 40
22.0
 40
22.0
 40
22.0
 40
23.0
 40
23.0
 40
23.0
 40
24.0
 40
24.0
 40
24.0
 40
25.0
 40
25.0
 40
25.0
 40
26.0
 40
26.0
 40
26.0
 40
27.0
 40
27.0
 40
27.0
 40
28.0
 40
28.0
 40
28.0
 40
29.0
 40
29.0
 40
29.0
 40
30.0
 40
30.0
 40
30.0
 40
31.0
 40
31.0
 40
31.0
 40
32.0
 40
32.0
 40
32.0
 40
33.0
 40
33.0
 40
33.0
 40
33.0
 10
1976.718878323425
 20
143.4575073651321
 30
0.0
 10
1976.718878323425
 20
143.4575073651321
 30
0.0
 10
1978.332996588864
 20
143.4575073651321
 30
0.0
 10
1978.332996588864
 20
143.4575073651321
 30
0.0
 10
1978.332996588864
 20
143.4575073651321
 30
0.0
 10
1977.517531365076
 20
140.810778921676
 30
0.0
 10
1977.517531365076
 20
140.810778921676
 30
0.0
 10
1978.225279598895
 20
141.920531723033
 30
0.0
 10
1978.860571791119
 20
142.4151520726926
 30
0.0
 10
1979.704602846502
 20
143.054312554611
 30
0.0
 10
1980.551163168223
 20
143.6843974337833
 30
0.0
 10
1981.556025806694
 20
143.812794895584
 30
0.0
 10
1982.253508194784
 20
143.812794895584
 30
0.0
 10
1983.117029479015
 20
143.812794895584
 30
0.0
 10
1983.950645908296
 20
143.6422925882567
 30
0.0
 10
1984.388804106443
 20
142.6958262461422
 30
0.0
 10
1984.72460140805
 20
141.9536353560001
 30
0.0
 10
1984.740223347202
 20
141.8660781065566
 30
0.0
 10
1984.644260006691
 20
140.4010377747479
 30
0.0
 10
1985.521915426345
 20
141.9030500292188
 30
0.0
 10
1986.170151511008
 20
142.5500214807137
 30
0.0
 10
1987.272167732975
 20
143.1716258786317
 30
0.0
 10
1988.42863757142
 20
143.812794895584
 30
0.0
 10
1989.102761440966
 20
143.8607765658398
 30
0.0
 10
1989.885941323838
 20
143.7453229964802
 30
0.0
 10
1991.039733115569
 20
143.5748950793392
 30
0.0
 10
1991.776195961356
 20
143.1632197875635
 30
0.0
 10
1992.161239566385
 20
141.9121256319649
 30
0.0
 10
1992.54762219477
 20
140.6648997660613
 30
0.0
 10
1992.338883331611
 20
139.9959088193793
 30
0.0
 10
1991.861744675765
 20
138.0103603530286
 30
0.0
 10
1991.64393020986
 20
137.1060732466272
 30
0.0
 10
1991.328813380087
 20
136.0111240923725
 30
0.0
 10
1990.916542966819
 20
134.7082543670094
 30
0.0
 10
1990.916542966819
 20
134.7082543670094
 30
0.0
 10
1987.272167732975
 20
123.105319426746
 30
0.0
 10
1987.272167732975
 20
123.105319426746
 30
0.0
 10
1987.272167732975
 20
123.105319426746
 30
0.0
 10
1985.376705782409
 20
123.105319426746
 30
0.0
 10
1985.376705782409
 20
123.105319426746
 30
0.0
 10
1985.376705782409
 20
123.105319426746
 30
0.0
 10
1988.567449659321
 20
133.2490164697431
 30
0.0
 10
1988.567449659321
 20
133.2490164697431
 30
0.0
 10
1989.233836949479
 20
135.3713684889626
 30
0.0
 10
1989.684939040069
 20
136.9212880235028
 30
0.0
 10
1989.918375445127
 20
137.893047029008
 30
0.0
 10
1990.211323999339
 20
139.1052351170969
 30
0.0
 10
1990.327967811683
 20
139.505231149601
 30
0.0
 10
1990.189304504152
 20
140.3874987608153
 30
0.0
 10
1990.062246065708
 20
141.2087664191461
 30
0.0
 10
1989.647297605728
 20
141.7435574694851
 30
0.0
 10
1988.936871325198
 20
141.7435574694851
 30
0.0
 10
1988.17972800758
 20
141.7435574694851
 30
0.0
 10
1987.566455310545
 20
141.659273388245
 30
0.0
 10
1986.708290119737
 20
140.7971655175569
 30
0.0
 10
1985.84997614856
 20
139.9285113104618
 30
0.0
 10
1985.140740111011
 20
138.9088450248874
 30
0.0
 10
1984.584599077163
 20
137.7361581257997
 30
0.0
 10
1984.029648286297
 20
136.5563297688134
 30
0.0
 10
1983.466960916042
 20
135.0608638507494
 30
0.0
 10
1982.896536966398
 20
133.2490164697431
 30
0.0
 10
1982.896536966398
 20
133.2490164697431
 30
0.0
 10
1979.704602846502
 20
123.105319426746
 30
0.0
 10
1979.704602846502
 20
123.105319426746
 30
0.0
 10
1979.704602846502
 20
123.105319426746
 30
0.0
 10
1977.921916418581
 20
123.105319426746
 30
0.0
 10
1977.921916418581
 20
123.105319426746
 30
0.0
 10
1977.921916418581
 20
123.105319426746
 30
0.0
 10
1981.571498965475
 20
134.7030470539584
 30
0.0
 10
1981.571498965475
 20
134.7030470539584
 30
0.0
 10
1981.956542570504
 20
135.9373290274211
 30
0.0
 10
1982.245771615394
 20
136.9433819088763
 30
0.0
 10
1982.436359273062
 20
137.729686179579
 30
0.0
 10
1982.760402925207
 20
139.0832156219098
 30
0.0
 10
1982.851158952669
 20
139.9985124759046
 30
0.0
 10
1982.606117678524
 20
140.810778921676
 30
0.0
 10
1982.364944694076
 20
141.6204417109219
 30
0.0
 10
1981.941069411725
 20
141.8272464292334
 30
0.0
 10
1981.233172397533
 20
141.8272464292334
 30
0.0
 10
1980.639389929345
 20
141.8272464292334
 30
0.0
 10
1980.059890376953
 20
141.5724600406662
 30
0.0
 10
1979.398710399847
 20
141.0654909200569
 30
0.0
 10
1978.566284213549
 20
140.4276694614944
 30
0.0
 10
1978.233164958657
 20
139.9038881587491
 30
0.0
 10
1977.824762835085
 20
139.2815398589669
 30
0.0
 10
1977.273680333915
 20
138.458263665602
 30
0.0
 10
1977.015695167332
 20
137.9040567766015
 30
0.0
 10
1976.550310160944
 20
136.687926008631
 30
0.0
 10
1976.084776374184
 20
135.4646537827621
 30
0.0
 10
1975.644088909695
 20
134.0411231749885
 30
0.0
 10
1975.336708659311
 20
133.0564946672286
 30
0.0
 10
1975.336708659311
 20
133.0564946672286
 30
0.0
 10
1972.205774492298
 20
123.105319426746
 30
0.0
 10
1972.205774492298
 20
123.105319426746
 30
0.0
 10
1972.205774492298
 20
123.105319426746
 30
0.0
 10
1970.338878373326
 20
123.105319426746
 30
0.0
 10
1970.338878373326
 20
123.105319426746
 30
0.0
 10
1970.338878373326
 20
123.105319426746
 30
0.0
 10
1976.718878323425
 20
143.4575073651321
 30
0.0
 10
1976.718878323425
 20
143.4575073651321
 30
0.0
  0
SPLINE
  5
36AA
102
{ACAD_REACTORS
330
369B
330
36AC
102
}
330
A
100
AcDbEntity
  8
TEMPLATE
100
AcDbSpline
210
0.0
220
0.0
230
1.0
 70
    11
 71
     3
 72
    32
 73
    28
 74
     0
 42
0.000000001
 43
0.0000000001
 40
0.0
 40
0.0
 40
0.0
 40
0.0
 40
1.0
 40
1.0
 40
1.0
 40
2.0
 40
2.0
 40
2.0
 40
3.0
 40
3.0
 40
3.0
 40
4.0
 40
4.0
 40
4.0
 40
5.0
 40
5.0
 40
5.0
 40
6.0
 40
6.0
 40
6.0
 40
7.0
 40
7.0
 40
7.0
 40
8.0
 40
8.0
 40
8.0
 40
9.0
 40
9.0
 40
9.0
 40
9.0
 10
1951.394524713372
 20
142.3847264864374
 30
0.0
 10
1950.311998720255
 20
140.9844800070205
 30
0.0
 10
1949.478382290974
 20
139.7243102486757
 30
0.0
 10
1948.128795528524
 20
135.7635535518901
 30
0.0
 10
1946.888041608841
 20
132.1406026917421
 30
0.0
 10
1946.098464169936
 20
129.5048096056932
 30
0.0
 10
1945.979216701069
 20
126.2947242803041
 30
0.0
 10
1945.888460673606
 20
123.9059066132458
 30
0.0
 10
1947.343086379314
 20
123.105319426746
 30
0.0
 10
1949.475853024634
 20
123.105319426746
 30
0.0
 10
1950.395018168326
 20
123.105319426746
 30
0.0
 10
1952.714504181618
 20
123.1637901132903
 30
0.0
 10
1954.3662638814
 20
125.2056519507783
 30
0.0
 10
1955.522584939468
 20
126.6401923061455
 30
0.0
 10
1956.588298750451
 20
128.1272521331414
 30
0.0
 10
1958.017036671275
 20
133.0053142189559
 30
0.0
 10
1959.205940631009
 20
137.0833842397621
 30
0.0
 10
1960.029142434186
 20
139.7191029356247
 30
0.0
 10
1959.968291261677
 20
141.2197761667398
 30
0.0
 10
1959.968291261677
 20
141.2197761667398
 30
0.0
 10
1959.968291261677
 20
141.2197761667398
 30
0.0
 10
1959.968291261677
 20
141.2197761667398
 30
0.0
 10
1959.580569609936
 20
143.7233035012931
 30
0.0
 10
1957.762919794387
 20
144.2522921170894
 30
0.0
 10
1956.724432791643
 20
144.2522921170894
 30
0.0
 10
1955.70156772805
 20
144.2522921170894
 30
0.0
 10
1952.960735698745
 20
144.4292663706373
 30
0.0
 10
1951.394524713372
 20
142.3847264864374
 30
0.0
  0
SPLINE
  5
36AB
102
{ACAD_REACTORS
330
369B
330
36AC
102
}
330
A
100
AcDbEntity
  8
TEMPLATE
100
AcDbSpline
210
0.0
220
0.0
230
1.0
 70
    11
 71
     3
 72
    29
 73
    25
 74
     0
 42
0.000000001
 43
0.0000000001
 40
0.0
 40
0.0
 40
0.0
 40
0.0
 40
1.0
 40
1.0
 40
1.0
 40
2.0
 40
2.0
 40
2.0
 40
3.0
 40
3.0
 40
3.0
 40
4.0
 40
4.0
 40
4.0
 40
5.0
 40
5.0
 40
5.0
 40
6.0
 40
6.0
 40
6.0
 40
7.0
 40
7.0
 40
7.0
 40
8.0
 40
8.0
 40
8.0
 40
8.0
 10
1947.916188375669
 20
126.8949043045264
 30
0.0
 10
1947.908303015907
 20
128.3120373562658
 30
0.0
 10
1948.355685597176
 20
130.8298476066162
 30
0.0
 10
1949.501740809517
 20
134.1986815898748
 30
0.0
 10
1951.062744481836
 20
138.7603622127471
 30
0.0
 10
1951.998870588036
 20
140.4276694614944
 30
0.0
 10
1952.818055321147
 20
141.2392663955878
 30
0.0
 10
1954.014844640642
 20
142.4210288974216
 30
0.0
 10
1955.623755593032
 20
142.4799459250845
 30
0.0
 10
1956.098364982539
 20
142.4210288974216
 30
0.0
 10
1956.77382787544
 20
142.3399435941987
 30
0.0
 10
1957.727956406759
 20
141.8978427161679
 30
0.0
 10
1957.784939289575
 20
140.4095182560024
 30
0.0
 10
1957.830466083678
 20
139.1357350935386
 30
0.0
 10
1957.463424903768
 20
136.7501905946838
 30
0.0
 10
1956.178706383896
 20
133.0053142189559
 30
0.0
 10
1954.698044112936
 20
128.6536370924121
 30
0.0
 10
1953.808635043822
 20
126.9429603649685
 30
0.0
 10
1953.095679496951
 20
126.1974219164366
 30
0.0
 10
1951.752490290537
 20
124.7997790935452
 30
0.0
 10
1950.311998720255
 20
124.9339789898883
 30
0.0
 10
1950.0993915674
 20
124.9339789898883
 30
0.0
 10
1949.823255195324
 20
124.9339789898883
 30
0.0
 10
1947.920056665365
 20
125.2336226608809
 30
0.0
 10
1947.916188375669
 20
126.8949043045264
 30
0.0
  0
POLYLINE
  5
4997
330
A
100
AcDbEntity
  8
MODEL
100
AcDb2dPolyline
 66
     1
 10
0.0
 20
0.0
 30
0.0
  0
VERTEX
  5
4998
330
4997
100
AcDbEntity
  8
MODEL
100
AcDbVertex
100
AcDb2dVertex
 10
1472.213472078108
 20
1096.741355298637
 30
0.0
  0
VERTEX
  5
4999
330
4997
100
AcDbEntity
  8
MODEL
100
AcDbVertex
100
AcDb2dVertex
 10
1492.512066850556
 20
1096.741355298637
 30
0.0
  0
SEQEND
  5
499A
330
4997
100
AcDbEntity
  8
MODEL
  0
POLYLINE
  5
4A70
330
A
100
AcDbEntity
  8
MODEL
100
AcDb2dPolyline
 66
     1
 10
0.0
 20
0.0
 30
0.0
  0
VERTEX
  5
4A71
330
4A70
100
AcDbEntity
  8
MODEL
100
AcDbVertex
100
AcDb2dVertex
 10
754.1757473357966
 20
1089.129812386845
 30
0.0
  0
VERTEX
  5
4A72
330
4A70
100
AcDbEntity
  8
MODEL
100
AcDbVertex
100
AcDb2dVertex
 10
754.1757473357966
 20
1093.358829673731
 30
0.0
  0
SEQEND
  5
4A73
330
4A70
100
AcDbEntity
  8
MODEL
  0
POLYLINE
  5
4A74
330
A
100
AcDbEntity
  8
MODEL
100
AcDb2dPolyline
 66
     1
 10
0.0
 20
0.0
 30
0.0
  0
VERTEX
  5
4A75
330
4A74
100
AcDbEntity
  8
MODEL
100
AcDbVertex
100
AcDb2dVertex
 10
305.1274052587532
 20
1093.358829673731
 30
0.0
  0
VERTEX
  5
4A76
330
4A74
100
AcDbEntity
  8
MODEL
100
AcDbVertex
100
AcDb2dVertex
 10
305.1274052587532
 20
1089.129812386845
 30
0.0
  0
SEQEND
  5
4A77
330
4A74
100
AcDbEntity
  8
MODEL
  0
POLYLINE
  5
4A78
330
A
100
AcDbEntity
  8
MODEL
100
AcDb2dPolyline
 66
     1
 10
0.0
 20
0.0
 30
0.0
  0
VERTEX
  5
4A79
330
4A78
100
AcDbEntity
  8
MODEL
100
AcDbVertex
100
AcDb2dVertex
 10
750.793221710891
 20
1096.741355298637
 30
0.0
  0
VERTEX
  5
4A7A
330
4A78
100
AcDbEntity
  8
MODEL
100
AcDbVertex
100
AcDb2dVertex
 10
753.3292556738152
 20
1096.741355298637
 30
0.0
  0
VERTEX
  5
4A7B
330
4A78
100
AcDbEntity
  8
MODEL
100
AcDbVertex
100
AcDb2dVertex
 10
753.3292556738152
 20
1095.894863636656
 30
0.0
  0
VERTEX
  5
4A7C
330
4A78
100
AcDbEntity
  8
MODEL
100
AcDbVertex
100
AcDb2dVertex
 10
754.1757473357966
 20
1095.048371974676
 30
0.0
  0
VERTEX
  5
4A7D
330
4A78
100
AcDbEntity
  8
MODEL
100
AcDbVertex
100
AcDb2dVertex
 10
754.1757473357966
 20
1093.358829673731
 30
0.0
  0
SEQEND
  5
4A7E
330
4A78
100
AcDbEntity
  8
MODEL
  0
POLYLINE
  5
4A7F
330
A
100
AcDbEntity
  8
MODEL
100
AcDb2dPolyline
 66
     1
 10
0.0
 20
0.0
 30
0.0
  0
VERTEX
  5
4A80
330
4A7F
100
AcDbEntity
  8
MODEL
100
AcDbVertex
100
AcDb2dVertex
 10
305.1274052587532
 20
1093.358829673731
 30
0.0
  0
VERTEX
  5
4A81
330
4A7F
100
AcDbEntity
  8
MODEL
100
AcDbVertex
100
AcDb2dVertex
 10
305.1274052587532
 20
1095.048371974676
 30
0.0
  0
VERTEX
  5
4A82
330
4A7F
100
AcDbEntity
  8
MODEL
100
AcDbVertex
100
AcDb2dVertex
 10
306.8186680712051
 20
1096.741355298637
 30
0.0
  0
VERTEX
  5
4A83
330
4A7F
100
AcDbEntity
  8
MODEL
100
AcDbVertex
100
AcDb2dVertex
 10
308.5099308836589
 20
1096.741355298637
 30
0.0
  0
SEQEND
  5
4A84
330
4A7F
100
AcDbEntity
  8
MODEL
  0
SPLINE
  5
4A85
330
A
100
AcDbEntity
  8
MODEL
100
AcDbSpline
210
0.0
220
0.0
230
1.0
 70
     8
 71
     3
 72
    68
 73
    64
 74
     0
 42
0.000000001
 43
0.0000000001
 40
0.0
 40
0.0
 40
0.0
 40
0.0
 40
1.0
 40
1.0
 40
1.0
 40
2.0
 40
2.0
 40
2.0
 40
3.0
 40
3.0
 40
3.0
 40
4.0
 40
4.0
 40
4.0
 40
5.0
 40
5.0
 40
5.0
 40
6.0
 40
6.0
 40
6.0
 40
7.0
 40
7.0
 40
7.0
 40
8.0
 40
8.0
 40
8.0
 40
9.0
 40
9.0
 40
9.0
 40
10.0
 40
10.0
 40
10.0
 40
11.0
 40
11.0
 40
11.0
 40
12.0
 40
12.0
 40
12.0
 40
13.0
 40
13.0
 40
13.0
 40
14.0
 40
14.0
 40
14.0
 40
15.0
 40
15.0
 40
15.0
 40
16.0
 40
16.0
 40
16.0
 40
17.0
 40
17.0
 40
17.0
 40
18.0
 40
18.0
 40
18.0
 40
19.0
 40
19.0
 40
19.0
 40
20.0
 40
20.0
 40
20.0
 40
21.0
 40
21.0
 40
21.0
 40
21.0
 10
711.0459648509886
 20
1048.536063864963
 30
0.0
 10
711.0459648509886
 20
1048.536063864963
 30
0.0
 10
708.5099308880626
 20
1044.310487601093
 30
0.0
 10
708.5099308880626
 20
1044.310487601093
 30
0.0
 10
708.5099308880626
 20
1044.310487601093
 30
0.0
 10
705.127405263157
 20
1039.234978652227
 30
0.0
 10
705.127405263157
 20
1039.234978652227
 30
0.0
 10
705.127405263157
 20
1039.234978652227
 30
0.0
 10
702.5896507887237
 20
1035.005961365341
 30
0.0
 10
702.5896507887237
 20
1035.005961365341
 30
0.0
 10
702.5896507887237
 20
1035.005961365341
 30
0.0
 10
699.2071251638199
 20
1029.93389343949
 30
0.0
 10
699.2071251638199
 20
1029.93389343949
 30
0.0
 10
699.2071251638199
 20
1029.93389343949
 30
0.0
 10
692.4420739140087
 20
1021.475858865719
 30
0.0
 10
692.4420739140087
 20
1021.475858865719
 30
0.0
 10
692.4420739140087
 20
1021.475858865719
 30
0.0
 10
689.0595482891031
 20
1016.400349916852
 30
0.0
 10
689.0595482891031
 20
1016.400349916852
 30
0.0
 10
689.0595482891031
 20
1016.400349916852
 30
0.0
 10
684.830531002216
 20
1012.174773652982
 30
0.0
 10
684.830531002216
 20
1012.174773652982
 30
0.0
 10
684.830531002216
 20
1012.174773652982
 30
0.0
 10
681.4480053773104
 20
1007.945756366096
 30
0.0
 10
681.4480053773104
 20
1007.945756366096
 30
0.0
 10
674.0446443579976
 20
1002.154514629865
 30
0.0
 10
667.70972098521
 20
995.1313866538401
 30
0.0
 10
660.3063599658972
 20
989.3401449176081
 30
0.0
 10
660.3063599658972
 20
989.3401449176081
 30
0.0
 10
651.850045903634
 20
982.5750936677971
 30
0.0
 10
651.850045903634
 20
982.5750936677971
 30
0.0
 10
651.850045903634
 20
982.5750936677971
 30
0.0
 10
646.7762574662747
 20
979.1925680428915
 30
0.0
 10
646.7762574662747
 20
979.1925680428915
 30
0.0
 10
646.7762574662747
 20
979.1925680428915
 30
0.0
 10
642.5472401793895
 20
975.8100424179861
 30
0.0
 10
642.5472401793895
 20
975.8100424179861
 30
0.0
 10
642.5472401793895
 20
975.8100424179861
 30
0.0
 10
637.473451742032
 20
973.274008455061
 30
0.0
 10
637.473451742032
 20
973.274008455061
 30
0.0
 10
637.473451742032
 20
973.274008455061
 30
0.0
 10
632.3996633046727
 20
969.8914828301554
 30
0.0
 10
632.3996633046727
 20
969.8914828301554
 30
0.0
 10
632.3996633046727
 20
969.8914828301554
 30
0.0
 10
628.1706460177875
 20
967.3520078442141
 30
0.0
 10
628.1706460177875
 20
967.3520078442141
 30
0.0
 10
628.1706460177875
 20
967.3520078442141
 30
0.0
 10
618.0230691430706
 20
962.2799399183639
 30
0.0
 10
618.0230691430706
 20
962.2799399183639
 30
0.0
 10
618.0230691430706
 20
962.2799399183639
 30
0.0
 10
612.9492807057113
 20
960.5869565944031
 30
0.0
 10
612.9492807057113
 20
960.5869565944031
 30
0.0
 10
604.5566255692474
 20
957.8754304576528
 30
0.0
 10
593.8997772881366
 20
951.2067278522948
 30
0.0
 10
585.8873551949591
 20
951.285871381667
 30
0.0
 10
585.8873551949591
 20
951.285871381667
 30
0.0
 10
580.8135667576016
 20
949.5928880577062
 30
0.0
 10
580.8135667576016
 20
949.5928880577062
 30
0.0
 10
580.8135667576016
 20
949.5928880577062
 30
0.0
 10
574.8950071697718
 20
947.9033457567614
 30
0.0
 10
574.8950071697718
 20
947.9033457567614
 30
0.0
 10
574.8950071697718
 20
947.9033457567614
 30
0.0
 10
569.8194982209052
 20
947.0568540947811
 30
0.0
 10
569.8194982209052
 20
947.0568540947811
 30
0.0
  0
SPLINE
  5
4A86
330
A
100
AcDbEntity
  8
MODEL
100
AcDbSpline
210
0.0
220
0.0
230
1.0
 70
     8
 71
     3
 72
    71
 73
    67
 74
     0
 42
0.000000001
 43
0.0000000001
 40
0.0
 40
0.0
 40
0.0
 40
0.0
 40
1.0
 40
1.0
 40
1.0
 40
2.0
 40
2.0
 40
2.0
 40
3.0
 40
3.0
 40
3.0
 40
4.0
 40
4.0
 40
4.0
 40
5.0
 40
5.0
 40
5.0
 40
6.0
 40
6.0
 40
6.0
 40
7.0
 40
7.0
 40
7.0
 40
8.0
 40
8.0
 40
8.0
 40
9.0
 40
9.0
 40
9.0
 40
10.0
 40
10.0
 40
10.0
 40
11.0
 40
11.0
 40
11.0
 40
12.0
 40
12.0
 40
12.0
 40
13.0
 40
13.0
 40
13.0
 40
14.0
 40
14.0
 40
14.0
 40
15.0
 40
15.0
 40
15.0
 40
16.0
 40
16.0
 40
16.0
 40
17.0
 40
17.0
 40
17.0
 40
18.0
 40
18.0
 40
18.0
 40
19.0
 40
19.0
 40
19.0
 40
20.0
 40
20.0
 40
20.0
 40
21.0
 40
21.0
 40
21.0
 40
22.0
 40
22.0
 40
22.0
 40
22.0
 10
489.4819338621355
 20
947.0568540947811
 30
0.0
 10
489.4819338621355
 20
947.0568540947811
 30
0.0
 10
484.408145424778
 20
947.9033457567614
 30
0.0
 10
484.408145424778
 20
947.9033457567614
 30
0.0
 10
484.408145424778
 20
947.9033457567614
 30
0.0
 10
478.4878653254391
 20
949.5928880577062
 30
0.0
 10
478.4878653254391
 20
949.5928880577062
 30
0.0
 10
478.4878653254391
 20
949.5928880577062
 30
0.0
 10
473.4140768880816
 20
951.285871381667
 30
0.0
 10
473.4140768880816
 20
951.285871381667
 30
0.0
 10
473.4140768880816
 20
951.285871381667
 30
0.0
 10
467.49551730025
 20
952.1323630436473
 30
0.0
 10
467.49551730025
 20
952.1323630436473
 30
0.0
 10
467.49551730025
 20
952.1323630436473
 30
0.0
 10
462.4200083513833
 20
953.8219053445921
 30
0.0
 10
462.4200083513833
 20
953.8219053445921
 30
0.0
 10
462.4200083513833
 20
953.8219053445921
 30
0.0
 10
457.3462199140258
 20
956.3613803305334
 30
0.0
 10
457.3462199140258
 20
956.3613803305334
 30
0.0
 10
457.3462199140258
 20
956.3613803305334
 30
0.0
 10
452.2724314766683
 20
958.050922631478
 30
0.0
 10
452.2724314766683
 20
958.050922631478
 30
0.0
 10
452.2724314766683
 20
958.050922631478
 30
0.0
 10
447.198643039309
 20
960.5869565944031
 30
0.0
 10
447.198643039309
 20
960.5869565944031
 30
0.0
 10
447.198643039309
 20
960.5869565944031
 30
0.0
 10
441.2783629399701
 20
962.2799399183639
 30
0.0
 10
441.2783629399701
 20
962.2799399183639
 30
0.0
 10
432.7841976245281
 20
966.2336753639554
 30
0.0
 10
425.0883496488414
 20
971.6016712691971
 30
0.0
 10
416.7541919036512
 20
975.8100424179861
 30
0.0
 10
416.7541919036512
 20
975.8100424179861
 30
0.0
 10
412.5268951282733
 20
979.1925680428915
 30
0.0
 10
412.5268951282733
 20
979.1925680428915
 30
0.0
 10
412.5268951282733
 20
979.1925680428915
 30
0.0
 10
407.4531066909158
 20
982.5750936677971
 30
0.0
 10
407.4531066909158
 20
982.5750936677971
 30
0.0
 10
407.4531066909158
 20
982.5750936677971
 30
0.0
 10
394.7677753417656
 20
992.7226705425137
 30
0.0
 10
394.7677753417656
 20
992.7226705425137
 30
0.0
 10
394.7677753417656
 20
992.7226705425137
 30
0.0
 10
390.5387580548804
 20
996.9516878293996
 30
0.0
 10
390.5387580548804
 20
996.9516878293996
 30
0.0
 10
390.5387580548804
 20
996.9516878293996
 30
0.0
 10
386.3114612795025
 20
1000.334213454305
 30
0.0
 10
386.3114612795025
 20
1000.334213454305
 30
0.0
 10
386.3114612795025
 20
1000.334213454305
 30
0.0
 10
382.0824439926155
 20
1004.563230741191
 30
0.0
 10
382.0824439926155
 20
1004.563230741191
 30
0.0
 10
382.0824439926155
 20
1004.563230741191
 30
0.0
 10
377.8534267057303
 20
1007.945756366096
 30
0.0
 10
377.8534267057303
 20
1007.945756366096
 30
0.0
 10
377.8534267057303
 20
1007.945756366096
 30
0.0
 10
374.4709010808247
 20
1012.174773652982
 30
0.0
 10
374.4709010808247
 20
1012.174773652982
 30
0.0
 10
369.5313125410967
 20
1016.727247103389
 30
0.0
 10
360.9614447192989
 20
1029.08740177751
 30
0.0
 10
356.711781294317
 20
1035.005961365341
 30
0.0
 10
356.711781294317
 20
1035.005961365341
 30
0.0
 10
354.175747331391
 20
1039.234978652227
 30
0.0
 10
354.175747331391
 20
1039.234978652227
 30
0.0
 10
354.175747331391
 20
1039.234978652227
 30
0.0
 10
350.7932217064854
 20
1044.310487601093
 30
0.0
 10
350.7932217064854
 20
1044.310487601093
 30
0.0
 10
350.7932217064854
 20
1044.310487601093
 30
0.0
 10
348.2554672320521
 20
1048.536063864963
 30
0.0
 10
348.2554672320521
 20
1048.536063864963
 30
0.0
  0
POLYLINE
  5
4A87
330
A
100
AcDbEntity
  8
MODEL
100
AcDb2dPolyline
 66
     1
 10
0.0
 20
0.0
 30
0.0
  0
VERTEX
  5
4A88
330
4A87
100
AcDbEntity
  8
MODEL
100
AcDbVertex
100
AcDb2dVertex
 10
565.5922014455273
 20
945.3673117938363
 30
0.0
  0
VERTEX
  5
4A89
330
4A87
100
AcDbEntity
  8
MODEL
100
AcDbVertex
100
AcDb2dVertex
 10
566.4369725959996
 20
945.3673117938363
 30
0.0
  0
VERTEX
  5
4A8A
330
4A87
100
AcDbEntity
  8
MODEL
100
AcDbVertex
100
AcDb2dVertex
 10
566.4369725959996
 20
946.2103624328006
 30
0.0
  0
VERTEX
  5
4A8B
330
4A87
100
AcDbEntity
  8
MODEL
100
AcDbVertex
100
AcDb2dVertex
 10
568.1282354084515
 20
946.2103624328006
 30
0.0
  0
VERTEX
  5
4A8C
330
4A87
100
AcDbEntity
  8
MODEL
100
AcDbVertex
100
AcDb2dVertex
 10
568.9747270704329
 20
947.0568540947811
 30
0.0
  0
SEQEND
  5
4A8D
330
4A87
100
AcDbEntity
  8
MODEL
  0
POLYLINE
  5
4A8E
330
A
100
AcDbEntity
  8
MODEL
100
AcDb2dPolyline
 66
     1
 10
0.0
 20
0.0
 30
0.0
  0
VERTEX
  5
4A8F
330
4A8E
100
AcDbEntity
  8
MODEL
100
AcDbVertex
100
AcDb2dVertex
 10
490.3284255241169
 20
947.0568540947811
 30
0.0
  0
VERTEX
  5
4A90
330
4A8E
100
AcDbEntity
  8
MODEL
100
AcDbVertex
100
AcDb2dVertex
 10
491.1731966745892
 20
947.0568540947811
 30
0.0
  0
VERTEX
  5
4A91
330
4A8E
100
AcDbEntity
  8
MODEL
100
AcDbVertex
100
AcDb2dVertex
 10
491.1731966745892
 20
946.2103624328006
 30
0.0
  0
VERTEX
  5
4A92
330
4A8E
100
AcDbEntity
  8
MODEL
100
AcDbVertex
100
AcDb2dVertex
 10
492.8644594870411
 20
946.2103624328006
 30
0.0
  0
VERTEX
  5
4A93
330
4A8E
100
AcDbEntity
  8
MODEL
100
AcDbVertex
100
AcDb2dVertex
 10
492.8644594870411
 20
945.3673117938363
 30
0.0
  0
VERTEX
  5
4A94
330
4A8E
100
AcDbEntity
  8
MODEL
100
AcDbVertex
100
AcDb2dVertex
 10
493.7109511490225
 20
945.3673117938363
 30
0.0
  0
VERTEX
  5
4A95
330
4A8E
100
AcDbEntity
  8
MODEL
100
AcDbVertex
100
AcDb2dVertex
 10
502.1672652112857
 20
939.4453111829896
 30
0.0
  0
SEQEND
  5
4A96
330
4A8E
100
AcDbEntity
  8
MODEL
  0
POLYLINE
  5
4A97
330
A
100
AcDbEntity
  8
MODEL
100
AcDb2dPolyline
 66
     1
 10
0.0
 20
0.0
 30
0.0
  0
VERTEX
  5
4A98
330
4A97
100
AcDbEntity
  8
MODEL
100
AcDbVertex
100
AcDb2dVertex
 10
557.1358873832623
 20
939.4453111829896
 30
0.0
  0
VERTEX
  5
4A99
330
4A97
100
AcDbEntity
  8
MODEL
100
AcDbVertex
100
AcDb2dVertex
 10
565.5922014455273
 20
945.3673117938363
 30
0.0
  0
SEQEND
  5
4A9A
330
4A97
100
AcDbEntity
  8
MODEL
  0
POLYLINE
  5
4A9B
330
A
100
AcDbEntity
  8
MODEL
100
AcDb2dPolyline
 66
     1
 10
0.0
 20
0.0
 30
0.0
  0
VERTEX
  5
4A9C
330
4A9B
100
AcDbEntity
  8
MODEL
100
AcDbVertex
100
AcDb2dVertex
 10
557.1358873832623
 20
939.4453111829896
 30
0.0
  0
VERTEX
  5
4A9D
330
4A9B
100
AcDbEntity
  8
MODEL
100
AcDbVertex
100
AcDb2dVertex
 10
557.1358873832623
 20
938.6022605440253
 30
0.0
  0
VERTEX
  5
4A9E
330
4A9B
100
AcDbEntity
  8
MODEL
100
AcDbVertex
100
AcDb2dVertex
 10
555.4446245708104
 20
938.6022605440253
 30
0.0
  0
VERTEX
  5
4A9F
330
4A9B
100
AcDbEntity
  8
MODEL
100
AcDbVertex
100
AcDb2dVertex
 10
555.4446245708104
 20
937.7557688820448
 30
0.0
  0
VERTEX
  5
4AA0
330
4A9B
100
AcDbEntity
  8
MODEL
100
AcDbVertex
100
AcDb2dVertex
 10
553.7533617583567
 20
937.7557688820448
 30
0.0
  0
SEQEND
  5
4AA1
330
4A9B
100
AcDbEntity
  8
MODEL
  0
POLYLINE
  5
4AA2
330
A
100
AcDbEntity
  8
MODEL
100
AcDb2dPolyline
 66
     1
 10
0.0
 20
0.0
 30
0.0
  0
VERTEX
  5
4AA3
330
4AA2
100
AcDbEntity
  8
MODEL
100
AcDbVertex
100
AcDb2dVertex
 10
505.5497908361913
 20
937.7557688820448
 30
0.0
  0
VERTEX
  5
4AA4
330
4AA2
100
AcDbEntity
  8
MODEL
100
AcDbVertex
100
AcDb2dVertex
 10
503.8585280237394
 20
937.7557688820448
 30
0.0
  0
VERTEX
  5
4AA5
330
4AA2
100
AcDbEntity
  8
MODEL
100
AcDbVertex
100
AcDb2dVertex
 10
503.8585280237394
 20
938.6022605440253
 30
0.0
  0
VERTEX
  5
4AA6
330
4AA2
100
AcDbEntity
  8
MODEL
100
AcDbVertex
100
AcDb2dVertex
 10
502.1672652112857
 20
938.6022605440253
 30
0.0
  0
VERTEX
  5
4AA7
330
4AA2
100
AcDbEntity
  8
MODEL
100
AcDbVertex
100
AcDb2dVertex
 10
502.1672652112857
 20
939.4453111829896
 30
0.0
  0
SEQEND
  5
4AA8
330
4AA2
100
AcDbEntity
  8
MODEL
  0
POLYLINE
  5
4AA9
330
A
100
AcDbEntity
  8
MODEL
100
AcDb2dPolyline
 66
     1
 10
0.0
 20
0.0
 30
0.0
  0
VERTEX
  5
4AAA
330
4AA9
100
AcDbEntity
  8
MODEL
100
AcDbVertex
100
AcDb2dVertex
 10
530.0739618725102
 20
1089.129812386845
 30
0.0
  0
VERTEX
  5
4AAB
330
4AA9
100
AcDbEntity
  8
MODEL
100
AcDbVertex
100
AcDb2dVertex
 10
754.1757473357966
 20
1089.129812386845
 30
0.0
  0
SEQEND
  5
4AAC
330
4AA9
100
AcDbEntity
  8
MODEL
  0
POLYLINE
  5
4AAD
330
A
100
AcDbEntity
  8
MODEL
100
AcDb2dPolyline
 66
     1
 10
0.0
 20
0.0
 30
0.0
  0
VERTEX
  5
4AAE
330
4AAD
100
AcDbEntity
  8
MODEL
100
AcDbVertex
100
AcDb2dVertex
 10
305.1274052587532
 20
1089.129812386845
 30
0.0
  0
VERTEX
  5
4AAF
330
4AAD
100
AcDbEntity
  8
MODEL
100
AcDbVertex
100
AcDb2dVertex
 10
530.0739618725102
 20
1089.129812386845
 30
0.0
  0
SEQEND
  5
4AB0
330
4AAD
100
AcDbEntity
  8
MODEL
  0
POLYLINE
  5
4AB1
330
A
100
AcDbEntity
  8
MODEL
100
AcDb2dPolyline
 66
     1
 10
0.0
 20
0.0
 30
0.0
  0
VERTEX
  5
4AB2
330
4AB1
100
AcDbEntity
  8
MODEL
100
AcDbVertex
100
AcDb2dVertex
 10
308.5099308836589
 20
1096.741355298637
 30
0.0
  0
VERTEX
  5
4AB3
330
4AB1
100
AcDbEntity
  8
MODEL
100
AcDbVertex
100
AcDb2dVertex
 10
750.793221710891
 20
1096.741355298637
 30
0.0
  0
SEQEND
  5
4AB4
330
4AB1
100
AcDbEntity
  8
MODEL
  0
POLYLINE
  5
4AB5
330
A
100
AcDbEntity
  8
MODEL
100
AcDb2dPolyline
 66
     1
 10
0.0
 20
0.0
 30
0.0
  0
VERTEX
  5
4AB6
330
4AB5
100
AcDbEntity
  8
MODEL
100
AcDbVertex
100
AcDb2dVertex
 10
557.1358873832623
 20
939.4453111829896
 30
0.0
  0
VERTEX
  5
4AB7
330
4AB5
100
AcDbEntity
  8
MODEL
100
AcDbVertex
100
AcDb2dVertex
 10
502.1672652112857
 20
939.4453111829896
 30
0.0
  0
SEQEND
  5
4AB8
330
4AB5
100
AcDbEntity
  8
MODEL
  0
POLYLINE
  5
4AB9
330
A
100
AcDbEntity
  8
MODEL
100
AcDb2dPolyline
 66
     1
 10
0.0
 20
0.0
 30
0.0
  0
VERTEX
  5
4ABA
330
4AB9
100
AcDbEntity
  8
MODEL
100
AcDbVertex
100
AcDb2dVertex
 10
553.7533617583567
 20
937.7557688820448
 30
0.0
  0
VERTEX
  5
4ABB
330
4AB9
100
AcDbEntity
  8
MODEL
100
AcDbVertex
100
AcDb2dVertex
 10
505.5497908361913
 20
937.7557688820448
 30
0.0
  0
SEQEND
  5
4ABC
330
4AB9
100
AcDbEntity
  8
MODEL
  0
SPLINE
  5
4ABD
330
A
100
AcDbEntity
  8
MODEL
100
AcDbSpline
210
0.0
220
0.0
230
1.0
 70
    11
 71
     3
 72
    17
 73
    13
 74
     0
 42
0.000000001
 43
0.0000000001
 40
0.0
 40
0.0
 40
0.0
 40
0.0
 40
1.0
 40
1.0
 40
1.0
 40
2.0
 40
2.0
 40
2.0
 40
3.0
 40
3.0
 40
3.0
 40
4.0
 40
4.0
 40
4.0
 40
4.0
 10
754.1757473357966
 20
2088.705706311112
 30
0.0
 10
754.1757473357966
 20
2213.019544816669
 30
0.0
 10
653.541308716086
 20
2313.65226292487
 30
0.0
 10
529.2274702105306
 20
2313.65226292487
 30
0.0
 10
404.9153522164825
 20
2313.65226292487
 30
0.0
 10
305.1274052587532
 20
2213.019544816669
 30
0.0
 10
305.1274052587532
 20
2088.705706311112
 30
0.0
 10
305.1274052587532
 20
1965.238359467536
 30
0.0
 10
404.9153522164825
 20
1863.759149697355
 30
0.0
 10
529.2274702105306
 20
1863.759149697355
 30
0.0
 10
653.541308716086
 20
1863.759149697355
 30
0.0
 10
754.1757473357966
 20
1965.238359467536
 30
0.0
 10
754.1757473357966
 20
2088.705706311112
 30
0.0
  0
SPLINE
  5
4ABE
330
A
100
AcDbEntity
  8
MODEL
100
AcDbSpline
210
0.0
220
0.0
230
1.0
 70
    11
 71
     3
 72
    17
 73
    13
 74
     0
 42
0.000000001
 43
0.0000000001
 40
0.0
 40
0.0
 40
0.0
 40
0.0
 40
1.0
 40
1.0
 40
1.0
 40
2.0
 40
2.0
 40
2.0
 40
3.0
 40
3.0
 40
3.0
 40
4.0
 40
4.0
 40
4.0
 40
4.0
 10
729.6515762994777
 20
2088.705706311112
 30
0.0
 10
729.6515762994777
 20
2199.487721805538
 30
0.0
 10
640.0112062164635
 20
2288.283320738078
 30
0.0
 10
529.2274702105306
 20
2288.283320738078
 30
0.0
 10
418.4454547161049
 20
2288.283320738078
 30
0.0
 10
329.6515762950721
 20
2199.487721805538
 30
0.0
 10
329.6515762950721
 20
2088.705706311112
 30
0.0
 10
329.6515762950721
 20
1978.770182478666
 30
0.0
 10
418.4454547161049
 20
1889.129812395654
 30
0.0
 10
529.2274702105306
 20
1889.129812395654
 30
0.0
 10
640.0112062164635
 20
1889.129812395654
 30
0.0
 10
729.6515762994777
 20
1978.770182478666
 30
0.0
 10
729.6515762994777
 20
2088.705706311112
 30
0.0
  0
SPLINE
  5
4ABF
330
A
100
AcDbEntity
  8
MODEL
100
AcDbSpline
210
0.0
220
0.0
230
1.0
 70
    11
 71
     3
 72
    17
 73
    13
 74
     0
 42
0.000000001
 43
0.0000000001
 40
0.0
 40
0.0
 40
0.0
 40
0.0
 40
1.0
 40
1.0
 40
1.0
 40
2.0
 40
2.0
 40
2.0
 40
3.0
 40
3.0
 40
3.0
 40
4.0
 40
4.0
 40
4.0
 40
4.0
 10
568.9747270704329
 20
2088.705706311112
 30
0.0
 10
568.9747270704329
 20
2110.693843384506
 30
0.0
 10
551.2156072839234
 20
2128.452963171014
 30
0.0
 10
529.2274702105306
 20
2128.452963171014
 30
0.0
 10
507.241053648645
 20
2128.452963171014
 30
0.0
 10
490.3284255241169
 20
2110.693843384506
 30
0.0
 10
490.3284255241169
 20
2088.705706311112
 30
0.0
 10
490.3284255241169
 20
2067.564060899699
 30
0.0
 10
507.241053648645
 20
2048.960169962718
 30
0.0
 10
529.2274702105306
 20
2048.960169962718
 30
0.0
 10
551.2156072839234
 20
2048.960169962718
 30
0.0
 10
568.9747270704329
 20
2067.564060899699
 30
0.0
 10
568.9747270704329
 20
2088.705706311112
 30
0.0
  0
SPLINE
  5
4AC0
330
A
100
AcDbEntity
  8
MODEL
100
AcDbSpline
210
0.0
220
0.0
230
1.0
 70
    11
 71
     3
 72
    92
 73
    88
 74
     0
 42
0.000000001
 43
0.0000000001
 40
0.0
 40
0.0
 40
0.0
 40
0.0
 40
1.0
 40
1.0
 40
1.0
 40
2.0
 40
2.0
 40
2.0
 40
3.0
 40
3.0
 40
3.0
 40
4.0
 40
4.0
 40
4.0
 40
5.0
 40
5.0
 40
5.0
 40
6.0
 40
6.0
 40
6.0
 40
7.0
 40
7.0
 40
7.0
 40
8.0
 40
8.0
 40
8.0
 40
9.0
 40
9.0
 40
9.0
 40
10.0
 40
10.0
 40
10.0
 40
11.0
 40
11.0
 40
11.0
 40
12.0
 40
12.0
 40
12.0
 40
13.0
 40
13.0
 40
13.0
 40
14.0
 40
14.0
 40
14.0
 40
15.0
 40
15.0
 40
15.0
 40
16.0
 40
16.0
 40
16.0
 40
17.0
 40
17.0
 40
17.0
 40
18.0
 40
18.0
 40
18.0
 40
19.0
 40
19.0
 40
19.0
 40
20.0
 40
20.0
 40
20.0
 40
21.0
 40
21.0
 40
21.0
 40
22.0
 40
22.0
 40
22.0
 40
23.0
 40
23.0
 40
23.0
 40
24.0
 40
24.0
 40
24.0
 40
25.0
 40
25.0
 40
25.0
 40
26.0
 40
26.0
 40
26.0
 40
27.0
 40
27.0
 40
27.0
 40
28.0
 40
28.0
 40
28.0
 40
29.0
 40
29.0
 40
29.0
 40
29.0
 10
530.0739618725102
 20
2265.450412514212
 30
0.0
 10
530.0739618725102
 20
2265.450412514212
 30
0.0
 10
526.6914362476045
 20
2265.450412514212
 30
0.0
 10
526.6914362476045
 20
2265.450412514212
 30
0.0
 10
526.6914362476045
 20
2265.450412514212
 30
0.0
 10
524.1536817731712
 20
2266.296904176193
 30
0.0
 10
524.1536817731712
 20
2266.296904176193
 30
0.0
 10
524.1536817731712
 20
2266.296904176193
 30
0.0
 10
521.617647810247
 20
2266.296904176193
 30
0.0
 10
521.617647810247
 20
2266.296904176193
 30
0.0
 10
521.617647810247
 20
2266.296904176193
 30
0.0
 10
519.0798933358137
 20
2267.141675326665
 30
0.0
 10
519.0798933358137
 20
2267.141675326665
 30
0.0
 10
519.0798933358137
 20
2267.141675326665
 30
0.0
 10
516.5438593728895
 20
2267.141675326665
 30
0.0
 10
516.5438593728895
 20
2267.141675326665
 30
0.0
 10
516.5438593728895
 20
2267.141675326665
 30
0.0
 10
513.1613337479839
 20
2268.832938139118
 30
0.0
 10
513.1613337479839
 20
2268.832938139118
 30
0.0
 10
513.1613337479839
 20
2268.832938139118
 30
0.0
 10
511.4700709355302
 20
2270.52420095157
 30
0.0
 10
511.4700709355302
 20
2270.52420095157
 30
0.0
 10
511.4700709355302
 20
2270.52420095157
 30
0.0
 10
509.7788081230783
 20
2271.370692613551
 30
0.0
 10
509.7788081230783
 20
2271.370692613551
 30
0.0
 10
509.7788081230783
 20
2271.370692613551
 30
0.0
 10
508.9323164610969
 20
2272.215463764023
 30
0.0
 10
508.9323164610969
 20
2272.215463764023
 30
0.0
 10
508.9323164610969
 20
2272.215463764023
 30
0.0
 10
508.9323164610969
 20
2273.906726576476
 30
0.0
 10
508.9323164610969
 20
2273.906726576476
 30
0.0
 10
508.9323164610969
 20
2273.906726576476
 30
0.0
 10
508.0858247991173
 20
2274.753218238457
 30
0.0
 10
508.0858247991173
 20
2274.753218238457
 30
0.0
 10
508.0858247991173
 20
2274.753218238457
 30
0.0
 10
508.9323164610969
 20
2275.597989388929
 30
0.0
 10
508.9323164610969
 20
2275.597989388929
 30
0.0
 10
508.9323164610969
 20
2275.597989388929
 30
0.0
 10
508.9323164610969
 20
2277.289252201382
 30
0.0
 10
508.9323164610969
 20
2277.289252201382
 30
0.0
 10
516.0810417772127
 20
2283.896016392448
 30
0.0
 10
518.0905992186626
 20
2281.736774449795
 30
0.0
 10
526.6914362476045
 20
2284.054303451192
 30
0.0
 10
526.6914362476045
 20
2284.054303451192
 30
0.0
 10
532.6117163469435
 20
2284.054303451192
 30
0.0
 10
532.6117163469435
 20
2284.054303451192
 30
0.0
 10
541.2125533758872
 20
2281.736774449795
 30
0.0
 10
543.220390305828
 20
2283.896016392448
 30
0.0
 10
550.3691156219438
 20
2277.289252201382
 30
0.0
 10
550.3691156219438
 20
2277.289252201382
 30
0.0
 10
550.3691156219438
 20
2275.597989388929
 30
0.0
 10
550.3691156219438
 20
2275.597989388929
 30
0.0
 10
550.3691156219438
 20
2275.597989388929
 30
0.0
 10
551.2156072839234
 20
2274.753218238457
 30
0.0
 10
551.2156072839234
 20
2274.753218238457
 30
0.0
 10
551.2156072839234
 20
2274.753218238457
 30
0.0
 10
550.3691156219438
 20
2273.906726576476
 30
0.0
 10
550.3691156219438
 20
2273.906726576476
 30
0.0
 10
550.3691156219438
 20
2273.906726576476
 30
0.0
 10
550.3691156219438
 20
2272.215463764023
 30
0.0
 10
550.3691156219438
 20
2272.215463764023
 30
0.0
 10
550.3691156219438
 20
2272.215463764023
 30
0.0
 10
549.5243444714715
 20
2271.370692613551
 30
0.0
 10
549.5243444714715
 20
2271.370692613551
 30
0.0
 10
549.5243444714715
 20
2271.370692613551
 30
0.0
 10
547.8330816590196
 20
2270.52420095157
 30
0.0
 10
547.8330816590196
 20
2270.52420095157
 30
0.0
 10
547.8330816590196
 20
2270.52420095157
 30
0.0
 10
546.1418188465659
 20
2268.832938139118
 30
0.0
 10
546.1418188465659
 20
2268.832938139118
 30
0.0
 10
546.1418188465659
 20
2268.832938139118
 30
0.0
 10
542.7592932216603
 20
2267.141675326665
 30
0.0
 10
542.7592932216603
 20
2267.141675326665
 30
0.0
 10
542.7592932216603
 20
2267.141675326665
 30
0.0
 10
540.221538747227
 20
2267.141675326665
 30
0.0
 10
540.221538747227
 20
2267.141675326665
 30
0.0
 10
540.221538747227
 20
2267.141675326665
 30
0.0
 10
537.6855047843028
 20
2266.296904176193
 30
0.0
 10
537.6855047843028
 20
2266.296904176193
 30
0.0
 10
537.6855047843028
 20
2266.296904176193
 30
0.0
 10
535.1477503098695
 20
2266.296904176193
 30
0.0
 10
535.1477503098695
 20
2266.296904176193
 30
0.0
 10
535.1477503098695
 20
2266.296904176193
 30
0.0
 10
532.6117163469435
 20
2265.450412514212
 30
0.0
 10
532.6117163469435
 20
2265.450412514212
 30
0.0
 10
532.6117163469435
 20
2265.450412514212
 30
0.0
 10
530.0739618725102
 20
2265.450412514212
 30
0.0
 10
530.0739618725102
 20
2265.450412514212
 30
0.0
  0
SPLINE
  5
4AC1
330
A
100
AcDbEntity
  8
MODEL
100
AcDbSpline
210
0.0
220
0.0
230
1.0
 70
    11
 71
     3
 72
    17
 73
    13
 74
     0
 42
0.000000001
 43
0.0000000001
 40
0.0
 40
0.0
 40
0.0
 40
0.0
 40
1.0
 40
1.0
 40
1.0
 40
2.0
 40
2.0
 40
2.0
 40
3.0
 40
3.0
 40
3.0
 40
4.0
 40
4.0
 40
4.0
 40
4.0
 10
568.9747270704329
 20
2088.705706311112
 30
0.0
 10
568.9747270704329
 20
2110.693843384506
 30
0.0
 10
551.2156072839234
 20
2127.606471509034
 30
0.0
 10
529.2274702105306
 20
2127.606471509034
 30
0.0
 10
507.241053648645
 20
2127.606471509034
 30
0.0
 10
490.3284255241169
 20
2110.693843384506
 30
0.0
 10
490.3284255241169
 20
2088.705706311112
 30
0.0
 10
490.3284255241169
 20
2067.564060899699
 30
0.0
 10
507.241053648645
 20
2049.804941113191
 30
0.0
 10
529.2274702105306
 20
2049.804941113191
 30
0.0
 10
551.2156072839234
 20
2049.804941113191
 30
0.0
 10
568.9747270704329
 20
2067.564060899699
 30
0.0
 10
568.9747270704329
 20
2088.705706311112
 30
0.0
  0
SPLINE
  5
4AC2
330
A
100
AcDbEntity
  8
MODEL
100
AcDbSpline
210
0.0
220
0.0
230
1.0
 70
    11
 71
     3
 72
    17
 73
    13
 74
     0
 42
0.000000001
 43
0.0000000001
 40
0.0
 40
0.0
 40
0.0
 40
0.0
 40
1.0
 40
1.0
 40
1.0
 40
2.0
 40
2.0
 40
2.0
 40
3.0
 40
3.0
 40
3.0
 40
4.0
 40
4.0
 40
4.0
 40
4.0
 10
564.7457097835459
 20
2088.705706311112
 30
0.0
 10
564.7457097835459
 20
2108.156088910073
 30
0.0
 10
548.6778528094919
 20
2123.377454222148
 30
0.0
 10
530.0739618725102
 20
2123.377454222148
 30
0.0
 10
510.6235792735506
 20
2123.377454222148
 30
0.0
 10
495.4022139614744
 20
2108.156088910073
 30
0.0
 10
495.4022139614744
 20
2088.705706311112
 30
0.0
 10
495.4022139614744
 20
2070.101815374132
 30
0.0
 10
510.6235792735506
 20
2054.033958400077
 30
0.0
 10
530.0739618725102
 20
2054.033958400077
 30
0.0
 10
548.6778528094919
 20
2054.033958400077
 30
0.0
 10
564.7457097835459
 20
2070.101815374132
 30
0.0
 10
564.7457097835459
 20
2088.705706311112
 30
0.0
  0
SPLINE
  5
4AC3
330
A
100
AcDbEntity
  8
MODEL
100
AcDbSpline
210
0.0
220
0.0
230
1.0
 70
    11
 71
     3
 72
    17
 73
    13
 74
     0
 42
0.000000001
 43
0.0000000001
 40
0.0
 40
0.0
 40
0.0
 40
0.0
 40
1.0
 40
1.0
 40
1.0
 40
2.0
 40
2.0
 40
2.0
 40
3.0
 40
3.0
 40
3.0
 40
4.0
 40
4.0
 40
4.0
 40
4.0
 10
556.2893957212827
 20
2088.705706311112
 30
0.0
 10
556.2893957212827
 20
2103.928792134695
 30
0.0
 10
543.6040643721326
 20
2114.921140159884
 30
0.0
 10
529.2274702105306
 20
2114.921140159884
 30
0.0
 10
514.8525965604358
 20
2114.921140159884
 30
0.0
 10
503.012036361758
 20
2103.928792134695
 30
0.0
 10
503.012036361758
 20
2088.705706311112
 30
0.0
 10
503.012036361758
 20
2074.329112149509
 30
0.0
 10
514.8525965604358
 20
2062.490272462341
 30
0.0
 10
529.2274702105306
 20
2062.490272462341
 30
0.0
 10
543.6040643721326
 20
2062.490272462341
 30
0.0
 10
556.2893957212827
 20
2074.329112149509
 30
0.0
 10
556.2893957212827
 20
2088.705706311112
 30
0.0
  0
SPLINE
  5
4AC4
330
A
100
AcDbEntity
  8
MODEL
100
AcDbSpline
210
0.0
220
0.0
230
1.0
 70
    11
 71
     3
 72
    17
 73
    13
 74
     0
 42
0.000000001
 43
0.0000000001
 40
0.0
 40
0.0
 40
0.0
 40
0.0
 40
1.0
 40
1.0
 40
1.0
 40
2.0
 40
2.0
 40
2.0
 40
3.0
 40
3.0
 40
3.0
 40
4.0
 40
4.0
 40
4.0
 40
4.0
 10
553.7533617583567
 20
2088.705706311112
 30
0.0
 10
553.7533617583567
 20
2102.235808810734
 30
0.0
 10
542.7592932216603
 20
2112.385106196959
 30
0.0
 10
529.2274702105306
 20
2112.385106196959
 30
0.0
 10
515.6973677109081
 20
2112.385106196959
 30
0.0
 10
505.5497908361913
 20
2102.235808810734
 30
0.0
 10
505.5497908361913
 20
2088.705706311112
 30
0.0
 10
505.5497908361913
 20
2076.020374961962
 30
0.0
 10
515.6973677109081
 20
2065.028026936774
 30
0.0
 10
529.2274702105306
 20
2065.028026936774
 30
0.0
 10
542.7592932216603
 20
2065.028026936774
 30
0.0
 10
553.7533617583567
 20
2076.020374961962
 30
0.0
 10
553.7533617583567
 20
2088.705706311112
 30
0.0
  0
POLYLINE
  5
4AC5
330
A
100
AcDbEntity
  8
MODEL
100
AcDb2dPolyline
 66
     1
 10
0.0
 20
0.0
 30
0.0
  0
VERTEX
  5
4AC6
330
4AC5
100
AcDbEntity
  8
MODEL
100
AcDbVertex
100
AcDb2dVertex
 10
1272.637578162649
 20
1093.358829673731
 30
0.0
  0
VERTEX
  5
4AC7
330
4AC5
100
AcDbEntity
  8
MODEL
100
AcDbVertex
100
AcDb2dVertex
 10
1272.637578162649
 20
1089.129812386845
 30
0.0
  0
SEQEND
  5
4AC8
330
4AC5
100
AcDbEntity
  8
MODEL
  0
POLYLINE
  5
4AC9
330
A
100
AcDbEntity
  8
MODEL
100
AcDb2dPolyline
 66
     1
 10
0.0
 20
0.0
 30
0.0
  0
VERTEX
  5
4ACA
330
4AC9
100
AcDbEntity
  8
MODEL
100
AcDbVertex
100
AcDb2dVertex
 10
1272.637578162649
 20
1093.358829673731
 30
0.0
  0
VERTEX
  5
4ACB
330
4AC9
100
AcDbEntity
  8
MODEL
100
AcDbVertex
100
AcDb2dVertex
 10
1272.637578162649
 20
1095.048371974676
 30
0.0
  0
VERTEX
  5
4ACC
330
4AC9
100
AcDbEntity
  8
MODEL
100
AcDbVertex
100
AcDb2dVertex
 10
1273.484069824631
 20
1095.894863636656
 30
0.0
  0
VERTEX
  5
4ACD
330
4AC9
100
AcDbEntity
  8
MODEL
100
AcDbVertex
100
AcDb2dVertex
 10
1273.484069824631
 20
1096.741355298637
 30
0.0
  0
VERTEX
  5
4ACE
330
4AC9
100
AcDbEntity
  8
MODEL
100
AcDbVertex
100
AcDb2dVertex
 10
1276.020103787555
 20
1096.741355298637
 30
0.0
  0
SEQEND
  5
4ACF
330
4AC9
100
AcDbEntity
  8
MODEL
  0
SPLINE
  5
4AD0
330
A
100
AcDbEntity
  8
MODEL
100
AcDbSpline
210
0.0
220
0.0
230
1.0
 70
     8
 71
     3
 72
    62
 73
    58
 74
     0
 42
0.000000001
 43
0.0000000001
 40
0.0
 40
0.0
 40
0.0
 40
0.0
 40
1.0
 40
1.0
 40
1.0
 40
2.0
 40
2.0
 40
2.0
 40
3.0
 40
3.0
 40
3.0
 40
4.0
 40
4.0
 40
4.0
 40
5.0
 40
5.0
 40
5.0
 40
6.0
 40
6.0
 40
6.0
 40
7.0
 40
7.0
 40
7.0
 40
8.0
 40
8.0
 40
8.0
 40
9.0
 40
9.0
 40
9.0
 40
10.0
 40
10.0
 40
10.0
 40
11.0
 40
11.0
 40
11.0
 40
12.0
 40
12.0
 40
12.0
 40
13.0
 40
13.0
 40
13.0
 40
14.0
 40
14.0
 40
14.0
 40
15.0
 40
15.0
 40
15.0
 40
16.0
 40
16.0
 40
16.0
 40
17.0
 40
17.0
 40
17.0
 40
18.0
 40
18.0
 40
18.0
 40
19.0
 40
19.0
 40
19.0
 40
19.0
 10
1696.316978052902
 20
1089.129812386845
 30
0.0
 10
1696.316978052902
 20
1089.129812386845
 30
0.0
 10
1691.241469104035
 20
1075.599709887223
 30
0.0
 10
1691.241469104035
 20
1075.599709887223
 30
0.0
 10
1691.241469104035
 20
1075.599709887223
 30
0.0
 10
1688.705435141109
 20
1069.677709276376
 30
0.0
 10
1688.705435141109
 20
1069.677709276376
 30
0.0
 10
1688.705435141109
 20
1069.677709276376
 30
0.0
 10
1686.169401178185
 20
1062.912658026565
 30
0.0
 10
1686.169401178185
 20
1062.912658026565
 30
0.0
 10
1686.169401178185
 20
1062.912658026565
 30
0.0
 10
1682.786875553279
 20
1056.994098438735
 30
0.0
 10
1682.786875553279
 20
1056.994098438735
 30
0.0
 10
1682.786875553279
 20
1056.994098438735
 30
0.0
 10
1679.404349928373
 20
1050.229047188924
 30
0.0
 10
1679.404349928373
 20
1050.229047188924
 30
0.0
 10
1679.404349928373
 20
1050.229047188924
 30
0.0
 10
1672.635857655546
 20
1038.388486990246
 30
0.0
 10
1672.635857655546
 20
1038.388486990246
 30
0.0
 10
1672.635857655546
 20
1038.388486990246
 30
0.0
 10
1668.410281391677
 20
1032.469927402416
 30
0.0
 10
1668.410281391677
 20
1032.469927402416
 30
0.0
 10
1660.881323032273
 20
1022.95205773966
 30
0.0
 10
1654.560163751549
 20
1014.638546132568
 30
0.0
 10
1646.422144318282
 20
1005.409722403171
 30
0.0
 10
1646.422144318282
 20
1005.409722403171
 30
0.0
 10
1641.346635369416
 20
1001.180705116285
 30
0.0
 10
1641.346635369416
 20
1001.180705116285
 30
0.0
 10
1641.346635369416
 20
1001.180705116285
 30
0.0
 10
1636.274567443566
 20
996.1051961674191
 30
0.0
 10
1636.274567443566
 20
996.1051961674191
 30
0.0
 10
1636.274567443566
 20
996.1051961674191
 30
0.0
 10
1630.352566832719
 20
991.8761788805332
 30
0.0
 10
1630.352566832719
 20
991.8761788805332
 30
0.0
 10
1630.352566832719
 20
991.8761788805332
 30
0.0
 10
1625.280498906869
 20
986.804110954683
 30
0.0
 10
1625.280498906869
 20
986.804110954683
 30
0.0
 10
1625.280498906869
 20
986.804110954683
 30
0.0
 10
1619.361939319037
 20
982.5750936677971
 30
0.0
 10
1619.361939319037
 20
982.5750936677971
 30
0.0
 10
1619.361939319037
 20
982.5750936677971
 30
0.0
 10
1614.286430370173
 20
979.1925680428915
 30
0.0
 10
1614.286430370173
 20
979.1925680428915
 30
0.0
 10
1614.286430370173
 20
979.1925680428915
 30
0.0
 10
1608.367870782341
 20
974.9635507560056
 30
0.0
 10
1608.367870782341
 20
974.9635507560056
 30
0.0
 10
1608.367870782341
 20
974.9635507560056
 30
0.0
 10
1596.527310583663
 20
968.1984995061946
 30
0.0
 10
1596.527310583663
 20
968.1984995061946
 30
0.0
 10
1596.527310583663
 20
968.1984995061946
 30
0.0
 10
1589.762259333852
 20
964.815973881289
 30
0.0
 10
1589.762259333852
 20
964.815973881289
 30
0.0
 10
1580.137717957595
 20
960.7899769523578
 30
0.0
 10
1567.9530554573
 20
954.0765410477893
 30
0.0
 10
1557.626545385742
 20
952.1323630436473
 30
0.0
 10
1557.626545385742
 20
952.1323630436473
 30
0.0
 10
1537.331391636309
 20
947.0568540947811
 30
0.0
 10
1537.331391636309
 20
947.0568540947811
 30
0.0
  0
SPLINE
  5
4AD1
330
A
100
AcDbEntity
  8
MODEL
100
AcDbSpline
210
0.0
220
0.0
230
1.0
 70
     8
 71
     3
 72
    44
 73
    40
 74
     0
 42
0.000000001
 43
0.0000000001
 40
0.0
 40
0.0
 40
0.0
 40
0.0
 40
1.0
 40
1.0
 40
1.0
 40
2.0
 40
2.0
 40
2.0
 40
3.0
 40
3.0
 40
3.0
 40
4.0
 40
4.0
 40
4.0
 40
5.0
 40
5.0
 40
5.0
 40
6.0
 40
6.0
 40
6.0
 40
7.0
 40
7.0
 40
7.0
 40
8.0
 40
8.0
 40
8.0
 40
9.0
 40
9.0
 40
9.0
 40
10.0
 40
10.0
 40
10.0
 40
11.0
 40
11.0
 40
11.0
 40
12.0
 40
12.0
 40
12.0
 40
13.0
 40
13.0
 40
13.0
 40
13.0
 10
1456.993827277541
 20
947.0568540947811
 30
0.0
 10
1456.993827277541
 20
947.0568540947811
 30
0.0
 10
1451.918318328674
 20
947.9033457567614
 30
0.0
 10
1451.918318328674
 20
947.9033457567614
 30
0.0
 10
1451.918318328674
 20
947.9033457567614
 30
0.0
 10
1446.846250402824
 20
949.5928880577062
 30
0.0
 10
1446.846250402824
 20
949.5928880577062
 30
0.0
 10
1446.846250402824
 20
949.5928880577062
 30
0.0
 10
1440.924249791978
 20
950.4393797196865
 30
0.0
 10
1440.924249791978
 20
950.4393797196865
 30
0.0
 10
1440.924249791978
 20
950.4393797196865
 30
0.0
 10
1420.629096042544
 20
957.2044309694975
 30
0.0
 10
1420.629096042544
 20
957.2044309694975
 30
0.0
 10
1420.629096042544
 20
957.2044309694975
 30
0.0
 10
1415.553587093677
 20
959.7439059554388
 30
0.0
 10
1415.553587093677
 20
959.7439059554388
 30
0.0
 10
1415.553587093677
 20
959.7439059554388
 30
0.0
 10
1410.481519167827
 20
961.4334482563836
 30
0.0
 10
1410.481519167827
 20
961.4334482563836
 30
0.0
 10
1403.090201729073
 20
965.806988509949
 30
0.0
 10
1394.515172372749
 20
969.8742777150744
 30
0.0
 10
1386.80383979349
 20
974.1170590940251
 30
0.0
 10
1386.80383979349
 20
974.1170590940251
 30
0.0
 10
1382.574822506603
 20
977.5030257419469
 30
0.0
 10
1382.574822506603
 20
977.5030257419469
 30
0.0
 10
1382.574822506603
 20
977.5030257419469
 30
0.0
 10
1378.345805219717
 20
980.039059704872
 30
0.0
 10
1378.345805219717
 20
980.039059704872
 30
0.0
 10
1378.345805219717
 20
980.039059704872
 30
0.0
 10
1373.270296270851
 20
983.4215853297774
 30
0.0
 10
1373.270296270851
 20
983.4215853297774
 30
0.0
 10
1356.639832033649
 20
996.3288626634708
 30
0.0
 10
1335.587653220658
 20
1015.9426938557
 30
0.0
 10
1325.068445860193
 20
1034.15946970336
 30
0.0
 10
1325.068445860193
 20
1034.15946970336
 30
0.0
 10
1321.685920235287
 20
1038.388486990246
 30
0.0
 10
1321.685920235287
 20
1038.388486990246
 30
0.0
 10
1321.685920235287
 20
1038.388486990246
 30
0.0
 10
1319.149886272363
 20
1042.617504277132
 30
0.0
 10
1319.149886272363
 20
1042.617504277132
 30
0.0
  0
POLYLINE
  5
4AD2
330
A
100
AcDbEntity
  8
MODEL
100
AcDb2dPolyline
 66
     1
 10
0.0
 20
0.0
 30
0.0
  0
VERTEX
  5
4AD3
330
4AD2
100
AcDbEntity
  8
MODEL
100
AcDbVertex
100
AcDb2dVertex
 10
1300.544274823874
 20
1082.364761137034
 30
0.0
  0
VERTEX
  5
4AD4
330
4AD2
100
AcDbEntity
  8
MODEL
100
AcDbVertex
100
AcDb2dVertex
 10
1300.544274823874
 20
1083.211252799015
 30
0.0
  0
VERTEX
  5
4AD5
330
4AD2
100
AcDbEntity
  8
MODEL
100
AcDbVertex
100
AcDb2dVertex
 10
1299.697783161894
 20
1083.211252799015
 30
0.0
  0
VERTEX
  5
4AD6
330
4AD2
100
AcDbEntity
  8
MODEL
100
AcDbVertex
100
AcDb2dVertex
 10
1299.697783161894
 20
1085.74728676194
 30
0.0
  0
VERTEX
  5
4AD7
330
4AD2
100
AcDbEntity
  8
MODEL
100
AcDbVertex
100
AcDb2dVertex
 10
1298.854732522929
 20
1085.74728676194
 30
0.0
  0
VERTEX
  5
4AD8
330
4AD2
100
AcDbEntity
  8
MODEL
100
AcDbVertex
100
AcDb2dVertex
 10
1298.854732522929
 20
1088.283320724865
 30
0.0
  0
VERTEX
  5
4AD9
330
4AD2
100
AcDbEntity
  8
MODEL
100
AcDbVertex
100
AcDb2dVertex
 10
1298.00824086095
 20
1088.283320724865
 30
0.0
  0
VERTEX
  5
4ADA
330
4AD2
100
AcDbEntity
  8
MODEL
100
AcDbVertex
100
AcDb2dVertex
 10
1298.00824086095
 20
1089.129812386845
 30
0.0
  0
SEQEND
  5
4ADB
330
4AD2
100
AcDbEntity
  8
MODEL
  0
POLYLINE
  5
4ADC
330
A
100
AcDbEntity
  8
MODEL
100
AcDb2dPolyline
 66
     1
 10
0.0
 20
0.0
 30
0.0
  0
VERTEX
  5
4ADD
330
4ADC
100
AcDbEntity
  8
MODEL
100
AcDbVertex
100
AcDb2dVertex
 10
1533.102374349423
 20
945.3673117938363
 30
0.0
  0
VERTEX
  5
4ADE
330
4ADC
100
AcDbEntity
  8
MODEL
100
AcDbVertex
100
AcDb2dVertex
 10
1533.948866011403
 20
945.3673117938363
 30
0.0
  0
VERTEX
  5
4ADF
330
4ADC
100
AcDbEntity
  8
MODEL
100
AcDbVertex
100
AcDb2dVertex
 10
1533.948866011403
 20
946.2103624328006
 30
0.0
  0
VERTEX
  5
4AE0
330
4ADC
100
AcDbEntity
  8
MODEL
100
AcDbVertex
100
AcDb2dVertex
 10
1535.638408312348
 20
946.2103624328006
 30
0.0
  0
VERTEX
  5
4AE1
330
4ADC
100
AcDbEntity
  8
MODEL
100
AcDbVertex
100
AcDb2dVertex
 10
1535.638408312348
 20
947.0568540947811
 30
0.0
  0
VERTEX
  5
4AE2
330
4ADC
100
AcDbEntity
  8
MODEL
100
AcDbVertex
100
AcDb2dVertex
 10
1536.484899974329
 20
947.0568540947811
 30
0.0
  0
SEQEND
  5
4AE3
330
4ADC
100
AcDbEntity
  8
MODEL
  0
POLYLINE
  5
4AE4
330
A
100
AcDbEntity
  8
MODEL
100
AcDb2dPolyline
 66
     1
 10
0.0
 20
0.0
 30
0.0
  0
VERTEX
  5
4AE5
330
4AE4
100
AcDbEntity
  8
MODEL
100
AcDbVertex
100
AcDb2dVertex
 10
1457.840318939522
 20
947.0568540947811
 30
0.0
  0
VERTEX
  5
4AE6
330
4AE4
100
AcDbEntity
  8
MODEL
100
AcDbVertex
100
AcDb2dVertex
 10
1458.683369578485
 20
946.2103624328006
 30
0.0
  0
VERTEX
  5
4AE7
330
4AE4
100
AcDbEntity
  8
MODEL
100
AcDbVertex
100
AcDb2dVertex
 10
1460.376352902446
 20
946.2103624328006
 30
0.0
  0
VERTEX
  5
4AE8
330
4AE4
100
AcDbEntity
  8
MODEL
100
AcDbVertex
100
AcDb2dVertex
 10
1460.376352902446
 20
945.3673117938363
 30
0.0
  0
VERTEX
  5
4AE9
330
4AE4
100
AcDbEntity
  8
MODEL
100
AcDbVertex
100
AcDb2dVertex
 10
1461.222844564426
 20
945.3673117938363
 30
0.0
  0
VERTEX
  5
4AEA
330
4AE4
100
AcDbEntity
  8
MODEL
100
AcDbVertex
100
AcDb2dVertex
 10
1469.677438115182
 20
939.4453111829896
 30
0.0
  0
SEQEND
  5
4AEB
330
4AE4
100
AcDbEntity
  8
MODEL
  0
POLYLINE
  5
4AEC
330
A
100
AcDbEntity
  8
MODEL
100
AcDb2dPolyline
 66
     1
 10
0.0
 20
0.0
 30
0.0
  0
VERTEX
  5
4AED
330
4AEC
100
AcDbEntity
  8
MODEL
100
AcDbVertex
100
AcDb2dVertex
 10
1524.644339775651
 20
939.4453111829896
 30
0.0
  0
VERTEX
  5
4AEE
330
4AEC
100
AcDbEntity
  8
MODEL
100
AcDbVertex
100
AcDb2dVertex
 10
1533.102374349423
 20
945.3673117938363
 30
0.0
  0
SEQEND
  5
4AEF
330
4AEC
100
AcDbEntity
  8
MODEL
  0
POLYLINE
  5
4AF0
330
A
100
AcDbEntity
  8
MODEL
100
AcDb2dPolyline
 66
     1
 10
0.0
 20
0.0
 30
0.0
  0
VERTEX
  5
4AF1
330
4AF0
100
AcDbEntity
  8
MODEL
100
AcDbVertex
100
AcDb2dVertex
 10
1524.644339775651
 20
939.4453111829896
 30
0.0
  0
VERTEX
  5
4AF2
330
4AF0
100
AcDbEntity
  8
MODEL
100
AcDbVertex
100
AcDb2dVertex
 10
1524.644339775651
 20
938.6022605440253
 30
0.0
  0
VERTEX
  5
4AF3
330
4AF0
100
AcDbEntity
  8
MODEL
100
AcDbVertex
100
AcDb2dVertex
 10
1522.954797474707
 20
938.6022605440253
 30
0.0
  0
VERTEX
  5
4AF4
330
4AF0
100
AcDbEntity
  8
MODEL
100
AcDbVertex
100
AcDb2dVertex
 10
1522.954797474707
 20
937.7557688820448
 30
0.0
  0
VERTEX
  5
4AF5
330
4AF0
100
AcDbEntity
  8
MODEL
100
AcDbVertex
100
AcDb2dVertex
 10
1521.261814150746
 20
937.7557688820448
 30
0.0
  0
SEQEND
  5
4AF6
330
4AF0
100
AcDbEntity
  8
MODEL
  0
POLYLINE
  5
4AF7
330
A
100
AcDbEntity
  8
MODEL
100
AcDb2dPolyline
 66
     1
 10
0.0
 20
0.0
 30
0.0
  0
VERTEX
  5
4AF8
330
4AF7
100
AcDbEntity
  8
MODEL
100
AcDbVertex
100
AcDb2dVertex
 10
1473.059963740087
 20
937.7557688820448
 30
0.0
  0
VERTEX
  5
4AF9
330
4AF7
100
AcDbEntity
  8
MODEL
100
AcDbVertex
100
AcDb2dVertex
 10
1471.370421439143
 20
937.7557688820448
 30
0.0
  0
VERTEX
  5
4AFA
330
4AF7
100
AcDbEntity
  8
MODEL
100
AcDbVertex
100
AcDb2dVertex
 10
1471.370421439143
 20
938.6022605440253
 30
0.0
  0
VERTEX
  5
4AFB
330
4AF7
100
AcDbEntity
  8
MODEL
100
AcDbVertex
100
AcDb2dVertex
 10
1469.677438115182
 20
938.6022605440253
 30
0.0
  0
VERTEX
  5
4AFC
330
4AF7
100
AcDbEntity
  8
MODEL
100
AcDbVertex
100
AcDb2dVertex
 10
1469.677438115182
 20
939.4453111829896
 30
0.0
  0
SEQEND
  5
4AFD
330
4AF7
100
AcDbEntity
  8
MODEL
  0
POLYLINE
  5
4AFE
330
A
100
AcDbEntity
  8
MODEL
100
AcDb2dPolyline
 66
     1
 10
0.0
 20
0.0
 30
0.0
  0
VERTEX
  5
4AFF
330
4AFE
100
AcDbEntity
  8
MODEL
100
AcDbVertex
100
AcDb2dVertex
 10
1300.544274823874
 20
1081.518269475054
 30
0.0
  0
VERTEX
  5
4B00
330
4AFE
100
AcDbEntity
  8
MODEL
100
AcDbVertex
100
AcDb2dVertex
 10
1300.544274823874
 20
1082.364761137034
 30
0.0
  0
SEQEND
  5
4B01
330
4AFE
100
AcDbEntity
  8
MODEL
  0
POLYLINE
  5
4B02
330
A
100
AcDbEntity
  8
MODEL
100
AcDb2dPolyline
 66
     1
 10
0.0
 20
0.0
 30
0.0
  0
VERTEX
  5
4B03
330
4B02
100
AcDbEntity
  8
MODEL
100
AcDbVertex
100
AcDb2dVertex
 10
1319.149886272363
 20
1042.617504277132
 30
0.0
  0
VERTEX
  5
4B04
330
4B02
100
AcDbEntity
  8
MODEL
100
AcDbVertex
100
AcDb2dVertex
 10
1319.149886272363
 20
1043.463995939112
 30
0.0
  0
VERTEX
  5
4B05
330
4B02
100
AcDbEntity
  8
MODEL
100
AcDbVertex
100
AcDb2dVertex
 10
1318.303394610381
 20
1043.463995939112
 30
0.0
  0
SEQEND
  5
4B06
330
4B02
100
AcDbEntity
  8
MODEL
  0
POLYLINE
  5
4B07
330
A
100
AcDbEntity
  8
MODEL
100
AcDb2dPolyline
 66
     1
 10
0.0
 20
0.0
 30
0.0
  0
VERTEX
  5
4B08
330
4B07
100
AcDbEntity
  8
MODEL
100
AcDbVertex
100
AcDb2dVertex
 10
1300.544274823874
 20
1081.518269475054
 30
0.0
  0
VERTEX
  5
4B09
330
4B07
100
AcDbEntity
  8
MODEL
100
AcDbVertex
100
AcDb2dVertex
 10
1300.544274823874
 20
1079.825286151093
 30
0.0
  0
SEQEND
  5
4B0A
330
4B07
100
AcDbEntity
  8
MODEL
  0
POLYLINE
  5
4B0B
330
A
100
AcDbEntity
  8
MODEL
100
AcDb2dPolyline
 66
     1
 10
0.0
 20
0.0
 30
0.0
  0
VERTEX
  5
4B0C
330
4B0B
100
AcDbEntity
  8
MODEL
100
AcDbVertex
100
AcDb2dVertex
 10
1317.456902948402
 20
1044.310487601093
 30
0.0
  0
VERTEX
  5
4B0D
330
4B0B
100
AcDbEntity
  8
MODEL
100
AcDbVertex
100
AcDb2dVertex
 10
1318.303394610381
 20
1044.310487601093
 30
0.0
  0
VERTEX
  5
4B0E
330
4B0B
100
AcDbEntity
  8
MODEL
100
AcDbVertex
100
AcDb2dVertex
 10
1318.303394610381
 20
1043.463995939112
 30
0.0
  0
SEQEND
  5
4B0F
330
4B0B
100
AcDbEntity
  8
MODEL
  0
POLYLINE
  5
4B10
330
A
100
AcDbEntity
  8
MODEL
100
AcDb2dPolyline
 66
     1
 10
0.0
 20
0.0
 30
0.0
  0
VERTEX
  5
4B11
330
4B10
100
AcDbEntity
  8
MODEL
100
AcDbVertex
100
AcDb2dVertex
 10
1300.544274823874
 20
1074.753218225243
 30
0.0
  0
VERTEX
  5
4B12
330
4B10
100
AcDbEntity
  8
MODEL
100
AcDbVertex
100
AcDb2dVertex
 10
1300.544274823874
 20
1075.599709887223
 30
0.0
  0
VERTEX
  5
4B13
330
4B10
100
AcDbEntity
  8
MODEL
100
AcDbVertex
100
AcDb2dVertex
 10
1299.697783161894
 20
1076.442760526187
 30
0.0
  0
VERTEX
  5
4B14
330
4B10
100
AcDbEntity
  8
MODEL
100
AcDbVertex
100
AcDb2dVertex
 10
1299.697783161894
 20
1078.135743850148
 30
0.0
  0
VERTEX
  5
4B15
330
4B10
100
AcDbEntity
  8
MODEL
100
AcDbVertex
100
AcDb2dVertex
 10
1300.544274823874
 20
1078.982235512129
 30
0.0
  0
VERTEX
  5
4B16
330
4B10
100
AcDbEntity
  8
MODEL
100
AcDbVertex
100
AcDb2dVertex
 10
1300.544274823874
 20
1079.825286151093
 30
0.0
  0
SEQEND
  5
4B17
330
4B10
100
AcDbEntity
  8
MODEL
  0
POLYLINE
  5
4B18
330
A
100
AcDbEntity
  8
MODEL
100
AcDb2dPolyline
 66
     1
 10
0.0
 20
0.0
 30
0.0
  0
VERTEX
  5
4B19
330
4B18
100
AcDbEntity
  8
MODEL
100
AcDbVertex
100
AcDb2dVertex
 10
1317.456902948402
 20
1044.310487601093
 30
0.0
  0
VERTEX
  5
4B1A
330
4B18
100
AcDbEntity
  8
MODEL
100
AcDbVertex
100
AcDb2dVertex
 10
1316.613852309437
 20
1044.310487601093
 30
0.0
  0
VERTEX
  5
4B1B
330
4B18
100
AcDbEntity
  8
MODEL
100
AcDbVertex
100
AcDb2dVertex
 10
1315.767360647457
 20
1045.153538240057
 30
0.0
  0
VERTEX
  5
4B1C
330
4B18
100
AcDbEntity
  8
MODEL
100
AcDbVertex
100
AcDb2dVertex
 10
1314.920868985476
 20
1045.153538240057
 30
0.0
  0
VERTEX
  5
4B1D
330
4B18
100
AcDbEntity
  8
MODEL
100
AcDbVertex
100
AcDb2dVertex
 10
1314.920868985476
 20
1046.000029902038
 30
0.0
  0
VERTEX
  5
4B1E
330
4B18
100
AcDbEntity
  8
MODEL
100
AcDbVertex
100
AcDb2dVertex
 10
1314.074377323496
 20
1046.000029902038
 30
0.0
  0
VERTEX
  5
4B1F
330
4B18
100
AcDbEntity
  8
MODEL
100
AcDbVertex
100
AcDb2dVertex
 10
1314.074377323496
 20
1046.846521564018
 30
0.0
  0
SEQEND
  5
4B20
330
4B18
100
AcDbEntity
  8
MODEL
  0
POLYLINE
  5
4B21
330
A
100
AcDbEntity
  8
MODEL
100
AcDb2dPolyline
 66
     1
 10
0.0
 20
0.0
 30
0.0
  0
VERTEX
  5
4B22
330
4B21
100
AcDbEntity
  8
MODEL
100
AcDbVertex
100
AcDb2dVertex
 10
1300.544274823874
 20
1074.753218225243
 30
0.0
  0
VERTEX
  5
4B23
330
4B21
100
AcDbEntity
  8
MODEL
100
AcDbVertex
100
AcDb2dVertex
 10
1314.074377323496
 20
1046.846521564018
 30
0.0
  0
SEQEND
  5
4B24
330
4B21
100
AcDbEntity
  8
MODEL
  0
POLYLINE
  5
4B25
330
A
100
AcDbEntity
  8
MODEL
100
AcDb2dPolyline
 66
     1
 10
0.0
 20
0.0
 30
0.0
  0
VERTEX
  5
4B26
330
4B25
100
AcDbEntity
  8
MODEL
100
AcDbVertex
100
AcDb2dVertex
 10
1272.637578162649
 20
1089.129812386845
 30
0.0
  0
VERTEX
  5
4B27
330
4B25
100
AcDbEntity
  8
MODEL
100
AcDbVertex
100
AcDb2dVertex
 10
1572.003139547344
 20
1089.129812386845
 30
0.0
  0
SEQEND
  5
4B28
330
4B25
100
AcDbEntity
  8
MODEL
  0
POLYLINE
  5
4B29
330
A
100
AcDbEntity
  8
MODEL
100
AcDb2dPolyline
 66
     1
 10
0.0
 20
0.0
 30
0.0
  0
VERTEX
  5
4B2A
330
4B29
100
AcDbEntity
  8
MODEL
100
AcDbVertex
100
AcDb2dVertex
 10
1276.020103787555
 20
1096.741355298637
 30
0.0
  0
VERTEX
  5
4B2B
330
4B29
100
AcDbEntity
  8
MODEL
100
AcDbVertex
100
AcDb2dVertex
 10
1718.305115126294
 20
1096.741355298637
 30
0.0
  0
SEQEND
  5
4B2C
330
4B29
100
AcDbEntity
  8
MODEL
  0
POLYLINE
  5
4B2D
330
A
100
AcDbEntity
  8
MODEL
100
AcDb2dPolyline
 66
     1
 10
0.0
 20
0.0
 30
0.0
  0
VERTEX
  5
4B2E
330
4B2D
100
AcDbEntity
  8
MODEL
100
AcDbVertex
100
AcDb2dVertex
 10
1524.644339775651
 20
939.4453111829896
 30
0.0
  0
VERTEX
  5
4B2F
330
4B2D
100
AcDbEntity
  8
MODEL
100
AcDbVertex
100
AcDb2dVertex
 10
1469.677438115182
 20
939.4453111829896
 30
0.0
  0
SEQEND
  5
4B30
330
4B2D
100
AcDbEntity
  8
MODEL
  0
POLYLINE
  5
4B31
330
A
100
AcDbEntity
  8
MODEL
100
AcDb2dPolyline
 66
     1
 10
0.0
 20
0.0
 30
0.0
  0
VERTEX
  5
4B32
330
4B31
100
AcDbEntity
  8
MODEL
100
AcDbVertex
100
AcDb2dVertex
 10
1521.265255173762
 20
937.7557688820448
 30
0.0
  0
VERTEX
  5
4B33
330
4B31
100
AcDbEntity
  8
MODEL
100
AcDbVertex
100
AcDb2dVertex
 10
1473.059963740087
 20
937.7557688820448
 30
0.0
  0
SEQEND
  5
4B34
330
4B31
100
AcDbEntity
  8
MODEL
  0
POLYLINE
  5
4B35
330
A
100
AcDbEntity
  8
MODEL
100
AcDb2dPolyline
 66
     1
 10
0.0
 20
0.0
 30
0.0
  0
VERTEX
  5
4B36
330
4B35
100
AcDbEntity
  8
MODEL
100
AcDbVertex
100
AcDb2dVertex
 10
1300.544274823874
 20
1079.825286151093
 30
0.0
  0
VERTEX
  5
4B37
330
4B35
100
AcDbEntity
  8
MODEL
100
AcDbVertex
100
AcDb2dVertex
 10
1317.456902948402
 20
1044.310487601093
 30
0.0
  0
SEQEND
  5
4B38
330
4B35
100
AcDbEntity
  8
MODEL
  0
POLYLINE
  5
4B39
330
A
100
AcDbEntity
  8
MODEL
100
AcDb2dPolyline
 66
     1
 10
0.0
 20
0.0
 30
0.0
  0
VERTEX
  5
4B3A
330
4B39
100
AcDbEntity
  8
MODEL
100
AcDbVertex
100
AcDb2dVertex
 10
490.3284255241169
 20
948.7498374187419
 30
0.0
  0
VERTEX
  5
4B3B
330
4B39
100
AcDbEntity
  8
MODEL
100
AcDbVertex
100
AcDb2dVertex
 10
482.7168826123261
 20
949.5928880577062
 30
0.0
  0
VERTEX
  5
4B3C
330
4B39
100
AcDbEntity
  8
MODEL
100
AcDbVertex
100
AcDb2dVertex
 10
480.1791281378928
 20
950.4393797196865
 30
0.0
  0
SEQEND
  5
4B3D
330
4B39
100
AcDbEntity
  8
MODEL
  0
POLYLINE
  5
4B3E
330
A
100
AcDbEntity
  8
MODEL
100
AcDb2dPolyline
 66
     1
 10
0.0
 20
0.0
 30
0.0
  0
VERTEX
  5
4B3F
330
4B3E
100
AcDbEntity
  8
MODEL
100
AcDbVertex
100
AcDb2dVertex
 10
470.8780429251556
 20
952.9754136826116
 30
0.0
  0
VERTEX
  5
4B40
330
4B3E
100
AcDbEntity
  8
MODEL
100
AcDbVertex
100
AcDb2dVertex
 10
469.1867801127037
 20
953.8219053445921
 30
0.0
  0
VERTEX
  5
4B41
330
4B3E
100
AcDbEntity
  8
MODEL
100
AcDbVertex
100
AcDb2dVertex
 10
462.4200083513833
 20
955.5148886685529
 30
0.0
  0
VERTEX
  5
4B42
330
4B3E
100
AcDbEntity
  8
MODEL
100
AcDbVertex
100
AcDb2dVertex
 10
461.575237200911
 20
956.3613803305334
 30
0.0
  0
SEQEND
  5
4B43
330
4B3E
100
AcDbEntity
  8
MODEL
  0
POLYLINE
  5
4B44
330
A
100
AcDbEntity
  8
MODEL
100
AcDb2dPolyline
 66
     1
 10
0.0
 20
0.0
 30
0.0
  0
VERTEX
  5
4B45
330
4B44
100
AcDbEntity
  8
MODEL
100
AcDbVertex
100
AcDb2dVertex
 10
452.2724314766683
 20
959.7439059554388
 30
0.0
  0
VERTEX
  5
4B46
330
4B44
100
AcDbEntity
  8
MODEL
100
AcDbVertex
100
AcDb2dVertex
 10
448.8899058517627
 20
961.4334482563836
 30
0.0
  0
VERTEX
  5
4B47
330
4B44
100
AcDbEntity
  8
MODEL
100
AcDbVertex
100
AcDb2dVertex
 10
442.9696257524238
 20
963.9694822193087
 30
0.0
  0
SEQEND
  5
4B48
330
4B44
100
AcDbEntity
  8
MODEL
  0
POLYLINE
  5
4B49
330
A
100
AcDbEntity
  8
MODEL
100
AcDb2dPolyline
 66
     1
 10
0.0
 20
0.0
 30
0.0
  0
VERTEX
  5
4B4A
330
4B49
100
AcDbEntity
  8
MODEL
100
AcDbVertex
100
AcDb2dVertex
 10
433.6685405396865
 20
968.1984995061946
 30
0.0
  0
VERTEX
  5
4B4B
330
4B49
100
AcDbEntity
  8
MODEL
100
AcDbVertex
100
AcDb2dVertex
 10
429.4395232528013
 20
970.7345334691197
 30
0.0
  0
VERTEX
  5
4B4C
330
4B49
100
AcDbEntity
  8
MODEL
100
AcDbVertex
100
AcDb2dVertex
 10
425.2122264774234
 20
973.274008455061
 30
0.0
  0
SEQEND
  5
4B4D
330
4B49
100
AcDbEntity
  8
MODEL
  0
POLYLINE
  5
4B4E
330
A
100
AcDbEntity
  8
MODEL
100
AcDb2dPolyline
 66
     1
 10
0.0
 20
0.0
 30
0.0
  0
VERTEX
  5
4B4F
330
4B4E
100
AcDbEntity
  8
MODEL
100
AcDbVertex
100
AcDb2dVertex
 10
415.9094207531789
 20
977.5030257419469
 30
0.0
  0
VERTEX
  5
4B50
330
4B4E
100
AcDbEntity
  8
MODEL
100
AcDbVertex
100
AcDb2dVertex
 10
410.8356323158214
 20
981.7286020058166
 30
0.0
  0
VERTEX
  5
4B51
330
4B4E
100
AcDbEntity
  8
MODEL
100
AcDbVertex
100
AcDb2dVertex
 10
408.2978778413881
 20
984.2680769917579
 30
0.0
  0
SEQEND
  5
4B52
330
4B4E
100
AcDbEntity
  8
MODEL
  0
POLYLINE
  5
4B53
330
A
100
AcDbEntity
  8
MODEL
100
AcDb2dPolyline
 66
     1
 10
0.0
 20
0.0
 30
0.0
  0
VERTEX
  5
4B54
330
4B53
100
AcDbEntity
  8
MODEL
100
AcDbVertex
100
AcDb2dVertex
 10
399.8415637791231
 20
990.1866365795886
 30
0.0
  0
VERTEX
  5
4B55
330
4B53
100
AcDbEntity
  8
MODEL
100
AcDbVertex
100
AcDb2dVertex
 10
393.921283679786
 20
995.2587045054388
 30
0.0
  0
VERTEX
  5
4B56
330
4B53
100
AcDbEntity
  8
MODEL
100
AcDbVertex
100
AcDb2dVertex
 10
392.2300208673323
 20
996.9516878293996
 30
0.0
  0
SEQEND
  5
4B57
330
4B53
100
AcDbEntity
  8
MODEL
  0
POLYLINE
  5
4B58
330
A
100
AcDbEntity
  8
MODEL
100
AcDb2dPolyline
 66
     1
 10
0.0
 20
0.0
 30
0.0
  0
VERTEX
  5
4B59
330
4B58
100
AcDbEntity
  8
MODEL
100
AcDbVertex
100
AcDb2dVertex
 10
384.6201984670488
 20
1003.716739079211
 30
0.0
  0
VERTEX
  5
4B5A
330
4B58
100
AcDbEntity
  8
MODEL
100
AcDbVertex
100
AcDb2dVertex
 10
383.7737068050692
 20
1004.563230741191
 30
0.0
  0
VERTEX
  5
4B5B
330
4B58
100
AcDbEntity
  8
MODEL
100
AcDbVertex
100
AcDb2dVertex
 10
378.6999183677099
 20
1009.635298667041
 30
0.0
  0
VERTEX
  5
4B5C
330
4B58
100
AcDbEntity
  8
MODEL
100
AcDbVertex
100
AcDb2dVertex
 10
377.8534267057303
 20
1011.328281991002
 30
0.0
  0
SEQEND
  5
4B5D
330
4B58
100
AcDbEntity
  8
MODEL
  0
POLYLINE
  5
4B5E
330
A
100
AcDbEntity
  8
MODEL
100
AcDb2dPolyline
 66
     1
 10
0.0
 20
0.0
 30
0.0
  0
VERTEX
  5
4B5F
330
4B5E
100
AcDbEntity
  8
MODEL
100
AcDbVertex
100
AcDb2dVertex
 10
371.088375455919
 20
1018.939824902794
 30
0.0
  0
VERTEX
  5
4B60
330
4B5E
100
AcDbEntity
  8
MODEL
100
AcDbVertex
100
AcDb2dVertex
 10
369.3971126434653
 20
1020.629367203738
 30
0.0
  0
VERTEX
  5
4B61
330
4B5E
100
AcDbEntity
  8
MODEL
100
AcDbVertex
100
AcDb2dVertex
 10
365.1698158680892
 20
1026.551367814585
 30
0.0
  0
SEQEND
  5
4B62
330
4B5E
100
AcDbEntity
  8
MODEL
  0
POLYLINE
  5
4B63
330
A
100
AcDbEntity
  8
MODEL
100
AcDb2dPolyline
 66
     1
 10
0.0
 20
0.0
 30
0.0
  0
VERTEX
  5
4B64
330
4B63
100
AcDbEntity
  8
MODEL
100
AcDbVertex
100
AcDb2dVertex
 10
359.2495357687503
 20
1034.15946970336
 30
0.0
  0
VERTEX
  5
4B65
330
4B63
100
AcDbEntity
  8
MODEL
100
AcDbVertex
100
AcDb2dVertex
 10
356.711781294317
 20
1038.388486990246
 30
0.0
  0
VERTEX
  5
4B66
330
4B63
100
AcDbEntity
  8
MODEL
100
AcDbVertex
100
AcDb2dVertex
 10
353.3292556694114
 20
1042.617504277132
 30
0.0
  0
SEQEND
  5
4B67
330
4B63
100
AcDbEntity
  8
MODEL
  0
POLYLINE
  5
4B68
330
A
100
AcDbEntity
  8
MODEL
100
AcDb2dPolyline
 66
     1
 10
0.0
 20
0.0
 30
0.0
  0
VERTEX
  5
4B69
330
4B68
100
AcDbEntity
  8
MODEL
100
AcDbVertex
100
AcDb2dVertex
 10
348.2554672320521
 20
1051.918589489868
 30
0.0
  0
VERTEX
  5
4B6A
330
4B68
100
AcDbEntity
  8
MODEL
100
AcDbVertex
100
AcDb2dVertex
 10
345.7194332691279
 20
1056.994098438735
 30
0.0
  0
VERTEX
  5
4B6B
330
4B68
100
AcDbEntity
  8
MODEL
100
AcDbVertex
100
AcDb2dVertex
 10
343.1816787946946
 20
1061.223115725621
 30
0.0
  0
SEQEND
  5
4B6C
330
4B68
100
AcDbEntity
  8
MODEL
  0
POLYLINE
  5
4B6D
330
A
100
AcDbEntity
  8
MODEL
100
AcDb2dPolyline
 66
     1
 10
0.0
 20
0.0
 30
0.0
  0
VERTEX
  5
4B6E
330
4B6D
100
AcDbEntity
  8
MODEL
100
AcDbVertex
100
AcDb2dVertex
 10
338.9526615078075
 20
1070.524200938357
 30
0.0
  0
VERTEX
  5
4B6F
330
4B6D
100
AcDbEntity
  8
MODEL
100
AcDbVertex
100
AcDb2dVertex
 10
336.4166275448833
 20
1076.442760526187
 30
0.0
  0
VERTEX
  5
4B70
330
4B6D
100
AcDbEntity
  8
MODEL
100
AcDbVertex
100
AcDb2dVertex
 10
334.7253647324314
 20
1079.825286151093
 30
0.0
  0
SEQEND
  5
4B71
330
4B6D
100
AcDbEntity
  8
MODEL
  0
POLYLINE
  5
4B72
330
A
100
AcDbEntity
  8
MODEL
100
AcDb2dPolyline
 66
     1
 10
0.0
 20
0.0
 30
0.0
  0
VERTEX
  5
4B73
330
4B72
100
AcDbEntity
  8
MODEL
100
AcDbVertex
100
AcDb2dVertex
 10
332.1876102579981
 20
1089.976304048826
 30
0.0
  0
VERTEX
  5
4B74
330
4B72
100
AcDbEntity
  8
MODEL
100
AcDbVertex
100
AcDb2dVertex
 10
329.6515762950721
 20
1096.741355298637
 30
0.0
  0
SEQEND
  5
4B75
330
4B72
100
AcDbEntity
  8
MODEL
  0
POLYLINE
  5
4B76
330
A
100
AcDbEntity
  8
MODEL
100
AcDb2dPolyline
 66
     1
 10
0.0
 20
0.0
 30
0.0
  0
VERTEX
  5
4B77
330
4B76
100
AcDbEntity
  8
MODEL
100
AcDbVertex
100
AcDb2dVertex
 10
490.3284255241169
 20
947.9033457567614
 30
0.0
  0
VERTEX
  5
4B78
330
4B76
100
AcDbEntity
  8
MODEL
100
AcDbVertex
100
AcDb2dVertex
 10
492.8644594870411
 20
947.9033457567614
 30
0.0
  0
VERTEX
  5
4B79
330
4B76
100
AcDbEntity
  8
MODEL
100
AcDbVertex
100
AcDb2dVertex
 10
493.7109511490225
 20
947.0568540947811
 30
0.0
  0
VERTEX
  5
4B7A
330
4B76
100
AcDbEntity
  8
MODEL
100
AcDbVertex
100
AcDb2dVertex
 10
494.5557222994948
 20
947.0568540947811
 30
0.0
  0
VERTEX
  5
4B7B
330
4B76
100
AcDbEntity
  8
MODEL
100
AcDbVertex
100
AcDb2dVertex
 10
495.4022139614744
 20
946.2103624328006
 30
0.0
  0
VERTEX
  5
4B7C
330
4B76
100
AcDbEntity
  8
MODEL
100
AcDbVertex
100
AcDb2dVertex
 10
503.8585280237394
 20
940.2918028449699
 30
0.0
  0
SEQEND
  5
4B7D
330
4B76
100
AcDbEntity
  8
MODEL
  0
POLYLINE
  5
4B7E
330
A
100
AcDbEntity
  8
MODEL
100
AcDb2dPolyline
 66
     1
 10
0.0
 20
0.0
 30
0.0
  0
VERTEX
  5
4B7F
330
4B7E
100
AcDbEntity
  8
MODEL
100
AcDbVertex
100
AcDb2dVertex
 10
729.6515762994777
 20
1096.741355298637
 30
0.0
  0
VERTEX
  5
4B80
330
4B7E
100
AcDbEntity
  8
MODEL
100
AcDbVertex
100
AcDb2dVertex
 10
727.1138218250444
 20
1089.976304048826
 30
0.0
  0
VERTEX
  5
4B81
330
4B7E
100
AcDbEntity
  8
MODEL
100
AcDbVertex
100
AcDb2dVertex
 10
726.2690506745721
 20
1087.436829062884
 30
0.0
  0
SEQEND
  5
4B82
330
4B7E
100
AcDbEntity
  8
MODEL
  0
POLYLINE
  5
4B83
330
A
100
AcDbEntity
  8
MODEL
100
AcDb2dPolyline
 66
     1
 10
0.0
 20
0.0
 30
0.0
  0
VERTEX
  5
4B84
330
4B83
100
AcDbEntity
  8
MODEL
100
AcDbVertex
100
AcDb2dVertex
 10
723.7312962001388
 20
1078.135743850148
 30
0.0
  0
VERTEX
  5
4B85
330
4B83
100
AcDbEntity
  8
MODEL
100
AcDbVertex
100
AcDb2dVertex
 10
722.8865250496665
 20
1076.442760526187
 30
0.0
  0
VERTEX
  5
4B86
330
4B83
100
AcDbEntity
  8
MODEL
100
AcDbVertex
100
AcDb2dVertex
 10
719.5022789132518
 20
1069.677709276376
 30
0.0
  0
VERTEX
  5
4B87
330
4B83
100
AcDbEntity
  8
MODEL
100
AcDbVertex
100
AcDb2dVertex
 10
719.5022789132518
 20
1068.834658637412
 30
0.0
  0
SEQEND
  5
4B88
330
4B83
100
AcDbEntity
  8
MODEL
  0
POLYLINE
  5
4B89
330
A
100
AcDbEntity
  8
MODEL
100
AcDb2dPolyline
 66
     1
 10
0.0
 20
0.0
 30
0.0
  0
VERTEX
  5
4B8A
330
4B89
100
AcDbEntity
  8
MODEL
100
AcDbVertex
100
AcDb2dVertex
 10
715.2749821378738
 20
1059.53013240166
 30
0.0
  0
VERTEX
  5
4B8B
330
4B89
100
AcDbEntity
  8
MODEL
100
AcDbVertex
100
AcDb2dVertex
 10
713.583719325422
 20
1056.994098438735
 30
0.0
  0
VERTEX
  5
4B8C
330
4B89
100
AcDbEntity
  8
MODEL
100
AcDbVertex
100
AcDb2dVertex
 10
710.2011937005163
 20
1050.229047188924
 30
0.0
  0
SEQEND
  5
4B8D
330
4B89
100
AcDbEntity
  8
MODEL
  0
POLYLINE
  5
4B8E
330
A
100
AcDbEntity
  8
MODEL
100
AcDb2dPolyline
 66
     1
 10
0.0
 20
0.0
 30
0.0
  0
VERTEX
  5
4B8F
330
4B8E
100
AcDbEntity
  8
MODEL
100
AcDbVertex
100
AcDb2dVertex
 10
705.127405263157
 20
1041.771012615152
 30
0.0
  0
VERTEX
  5
4B90
330
4B8E
100
AcDbEntity
  8
MODEL
100
AcDbVertex
100
AcDb2dVertex
 10
702.5896507887237
 20
1038.388486990246
 30
0.0
  0
VERTEX
  5
4B91
330
4B8E
100
AcDbEntity
  8
MODEL
100
AcDbVertex
100
AcDb2dVertex
 10
700.0536168257995
 20
1033.316419064396
 30
0.0
  0
SEQEND
  5
4B92
330
4B8E
100
AcDbEntity
  8
MODEL
  0
POLYLINE
  5
4B93
330
A
100
AcDbEntity
  8
MODEL
100
AcDb2dPolyline
 66
     1
 10
0.0
 20
0.0
 30
0.0
  0
VERTEX
  5
4B94
330
4B93
100
AcDbEntity
  8
MODEL
100
AcDbVertex
100
AcDb2dVertex
 10
694.1333367264606
 20
1024.858384490624
 30
0.0
  0
VERTEX
  5
4B95
330
4B93
100
AcDbEntity
  8
MODEL
100
AcDbVertex
100
AcDb2dVertex
 10
689.9043194395754
 20
1020.629367203738
 30
0.0
  0
VERTEX
  5
4B96
330
4B93
100
AcDbEntity
  8
MODEL
100
AcDbVertex
100
AcDb2dVertex
 10
687.3682854766494
 20
1017.246841578833
 30
0.0
  0
SEQEND
  5
4B97
330
4B93
100
AcDbEntity
  8
MODEL
  0
POLYLINE
  5
4B98
330
A
100
AcDbEntity
  8
MODEL
100
AcDb2dPolyline
 66
     1
 10
0.0
 20
0.0
 30
0.0
  0
VERTEX
  5
4B99
330
4B98
100
AcDbEntity
  8
MODEL
100
AcDbVertex
100
AcDb2dVertex
 10
680.6032342268381
 20
1009.635298667041
 30
0.0
  0
VERTEX
  5
4B9A
330
4B98
100
AcDbEntity
  8
MODEL
100
AcDbVertex
100
AcDb2dVertex
 10
675.5277252779715
 20
1004.563230741191
 30
0.0
  0
VERTEX
  5
4B9B
330
4B98
100
AcDbEntity
  8
MODEL
100
AcDbVertex
100
AcDb2dVertex
 10
672.9916913150473
 20
1002.87024741723
 30
0.0
  0
SEQEND
  5
4B9C
330
4B98
100
AcDbEntity
  8
MODEL
  0
POLYLINE
  5
4B9D
330
A
100
AcDbEntity
  8
MODEL
100
AcDb2dPolyline
 66
     1
 10
0.0
 20
0.0
 30
0.0
  0
VERTEX
  5
4B9E
330
4B9D
100
AcDbEntity
  8
MODEL
100
AcDbVertex
100
AcDb2dVertex
 10
666.2266400652361
 20
996.1051961674191
 30
0.0
  0
VERTEX
  5
4B9F
330
4B9D
100
AcDbEntity
  8
MODEL
100
AcDbVertex
100
AcDb2dVertex
 10
665.3801484032565
 20
995.2587045054388
 30
0.0
  0
VERTEX
  5
4BA0
330
4B9D
100
AcDbEntity
  8
MODEL
100
AcDbVertex
100
AcDb2dVertex
 10
659.4615888154249
 20
990.1866365795886
 30
0.0
  0
VERTEX
  5
4BA1
330
4B9D
100
AcDbEntity
  8
MODEL
100
AcDbVertex
100
AcDb2dVertex
 10
658.6150971534453
 20
989.3401449176081
 30
0.0
  0
SEQEND
  5
4BA2
330
4B9D
100
AcDbEntity
  8
MODEL
  0
POLYLINE
  5
4BA3
330
A
100
AcDbEntity
  8
MODEL
100
AcDb2dPolyline
 66
     1
 10
0.0
 20
0.0
 30
0.0
  0
VERTEX
  5
4BA4
330
4BA3
100
AcDbEntity
  8
MODEL
100
AcDbVertex
100
AcDb2dVertex
 10
650.1587830911803
 20
983.4215853297774
 30
0.0
  0
VERTEX
  5
4BA5
330
4BA3
100
AcDbEntity
  8
MODEL
100
AcDbVertex
100
AcDb2dVertex
 10
648.4675202787284
 20
981.7286020058166
 30
0.0
  0
VERTEX
  5
4BA6
330
4BA3
100
AcDbEntity
  8
MODEL
100
AcDbVertex
100
AcDb2dVertex
 10
642.5472401793895
 20
977.5030257419469
 30
0.0
  0
SEQEND
  5
4BA7
330
4BA3
100
AcDbEntity
  8
MODEL
  0
POLYLINE
  5
4BA8
330
A
100
AcDbEntity
  8
MODEL
100
AcDb2dPolyline
 66
     1
 10
0.0
 20
0.0
 30
0.0
  0
VERTEX
  5
4BA9
330
4BA8
100
AcDbEntity
  8
MODEL
100
AcDbVertex
100
AcDb2dVertex
 10
633.244434455145
 20
972.4275167930805
 30
0.0
  0
VERTEX
  5
4BAA
330
4BA8
100
AcDbEntity
  8
MODEL
100
AcDbVertex
100
AcDb2dVertex
 10
629.8619088302394
 20
970.7345334691197
 30
0.0
  0
VERTEX
  5
4BAB
330
4BA8
100
AcDbEntity
  8
MODEL
100
AcDbVertex
100
AcDb2dVertex
 10
623.9433492424096
 20
967.3520078442141
 30
0.0
  0
SEQEND
  5
4BAC
330
4BA8
100
AcDbEntity
  8
MODEL
  0
POLYLINE
  5
4BAD
330
A
100
AcDbEntity
  8
MODEL
100
AcDb2dPolyline
 66
     1
 10
0.0
 20
0.0
 30
0.0
  0
VERTEX
  5
4BAE
330
4BAD
100
AcDbEntity
  8
MODEL
100
AcDbVertex
100
AcDb2dVertex
 10
614.640543518165
 20
963.1264315803444
 30
0.0
  0
VERTEX
  5
4BAF
330
4BAD
100
AcDbEntity
  8
MODEL
100
AcDbVertex
100
AcDb2dVertex
 10
610.4115262312798
 20
961.4334482563836
 30
0.0
  0
VERTEX
  5
4BB0
330
4BAD
100
AcDbEntity
  8
MODEL
100
AcDbVertex
100
AcDb2dVertex
 10
605.3377377939205
 20
958.8974142934585
 30
0.0
  0
SEQEND
  5
4BB1
330
4BAD
100
AcDbEntity
  8
MODEL
  0
POLYLINE
  5
4BB2
330
A
100
AcDbEntity
  8
MODEL
100
AcDb2dPolyline
 66
     1
 10
0.0
 20
0.0
 30
0.0
  0
VERTEX
  5
4BB3
330
4BB2
100
AcDbEntity
  8
MODEL
100
AcDbVertex
100
AcDb2dVertex
 10
596.0366525811851
 20
955.5148886685529
 30
0.0
  0
VERTEX
  5
4BB4
330
4BB2
100
AcDbEntity
  8
MODEL
100
AcDbVertex
100
AcDb2dVertex
 10
590.1163724818462
 20
953.8219053445921
 30
0.0
  0
VERTEX
  5
4BB5
330
4BB2
100
AcDbEntity
  8
MODEL
100
AcDbVertex
100
AcDb2dVertex
 10
586.7338468569405
 20
952.1323630436473
 30
0.0
  0
SEQEND
  5
4BB6
330
4BB2
100
AcDbEntity
  8
MODEL
  0
POLYLINE
  5
4BB7
330
A
100
AcDbEntity
  8
MODEL
100
AcDb2dPolyline
 66
     1
 10
0.0
 20
0.0
 30
0.0
  0
VERTEX
  5
4BB8
330
4BB7
100
AcDbEntity
  8
MODEL
100
AcDbVertex
100
AcDb2dVertex
 10
576.5862699822237
 20
949.5928880577062
 30
0.0
  0
VERTEX
  5
4BB9
330
4BB7
100
AcDbEntity
  8
MODEL
100
AcDbVertex
100
AcDb2dVertex
 10
569.8194982209052
 20
948.7498374187419
 30
0.0
  0
SEQEND
  5
4BBA
330
4BB7
100
AcDbEntity
  8
MODEL
  0
POLYLINE
  5
4BBB
330
A
100
AcDbEntity
  8
MODEL
100
AcDb2dPolyline
 66
     1
 10
0.0
 20
0.0
 30
0.0
  0
VERTEX
  5
4BBC
330
4BBB
100
AcDbEntity
  8
MODEL
100
AcDbVertex
100
AcDb2dVertex
 10
564.7457097835459
 20
946.2103624328006
 30
0.0
  0
VERTEX
  5
4BBD
330
4BBB
100
AcDbEntity
  8
MODEL
100
AcDbVertex
100
AcDb2dVertex
 10
564.7457097835459
 20
947.0568540947811
 30
0.0
  0
VERTEX
  5
4BBE
330
4BBB
100
AcDbEntity
  8
MODEL
100
AcDbVertex
100
AcDb2dVertex
 10
565.5922014455273
 20
947.0568540947811
 30
0.0
  0
VERTEX
  5
4BBF
330
4BBB
100
AcDbEntity
  8
MODEL
100
AcDbVertex
100
AcDb2dVertex
 10
566.4369725959996
 20
947.9033457567614
 30
0.0
  0
VERTEX
  5
4BC0
330
4BBB
100
AcDbEntity
  8
MODEL
100
AcDbVertex
100
AcDb2dVertex
 10
568.9747270704329
 20
947.9033457567614
 30
0.0
  0
SEQEND
  5
4BC1
330
4BBB
100
AcDbEntity
  8
MODEL
  0
POLYLINE
  5
4BC2
330
A
100
AcDbEntity
  8
MODEL
100
AcDb2dPolyline
 66
     1
 10
0.0
 20
0.0
 30
0.0
  0
VERTEX
  5
4BC3
330
4BC2
100
AcDbEntity
  8
MODEL
100
AcDbVertex
100
AcDb2dVertex
 10
564.7457097835459
 20
946.2103624328006
 30
0.0
  0
VERTEX
  5
4BC4
330
4BC2
100
AcDbEntity
  8
MODEL
100
AcDbVertex
100
AcDb2dVertex
 10
556.2893957212827
 20
940.2918028449699
 30
0.0
  0
SEQEND
  5
4BC5
330
4BC2
100
AcDbEntity
  8
MODEL
  0
POLYLINE
  5
4BC6
330
A
100
AcDbEntity
  8
MODEL
100
AcDb2dPolyline
 66
     1
 10
0.0
 20
0.0
 30
0.0
  0
VERTEX
  5
4BC7
330
4BC6
100
AcDbEntity
  8
MODEL
100
AcDbVertex
100
AcDb2dVertex
 10
1456.993827277541
 20
948.7498374187419
 30
0.0
  0
VERTEX
  5
4BC8
330
4BC6
100
AcDbEntity
  8
MODEL
100
AcDbVertex
100
AcDb2dVertex
 10
1450.22877602773
 20
949.5928880577062
 30
0.0
  0
VERTEX
  5
4BC9
330
4BC6
100
AcDbEntity
  8
MODEL
100
AcDbVertex
100
AcDb2dVertex
 10
1446.846250402824
 20
950.4393797196865
 30
0.0
  0
SEQEND
  5
4BCA
330
4BC6
100
AcDbEntity
  8
MODEL
  0
POLYLINE
  5
4BCB
330
A
100
AcDbEntity
  8
MODEL
100
AcDb2dPolyline
 66
     1
 10
0.0
 20
0.0
 30
0.0
  0
VERTEX
  5
4BCC
330
4BCB
100
AcDbEntity
  8
MODEL
100
AcDbVertex
100
AcDb2dVertex
 10
1437.541724167072
 20
953.8219053445921
 30
0.0
  0
VERTEX
  5
4BCD
330
4BCB
100
AcDbEntity
  8
MODEL
100
AcDbVertex
100
AcDb2dVertex
 10
1436.695232505092
 20
953.8219053445921
 30
0.0
  0
VERTEX
  5
4BCE
330
4BCB
100
AcDbEntity
  8
MODEL
100
AcDbVertex
100
AcDb2dVertex
 10
1429.930181255281
 20
955.5148886685529
 30
0.0
  0
VERTEX
  5
4BCF
330
4BCB
100
AcDbEntity
  8
MODEL
100
AcDbVertex
100
AcDb2dVertex
 10
1427.394147292355
 20
956.3579393075172
 30
0.0
  0
SEQEND
  5
4BD0
330
4BCB
100
AcDbEntity
  8
MODEL
  0
POLYLINE
  5
4BD1
330
A
100
AcDbEntity
  8
MODEL
100
AcDb2dPolyline
 66
     1
 10
0.0
 20
0.0
 30
0.0
  0
VERTEX
  5
4BD2
330
4BD1
100
AcDbEntity
  8
MODEL
100
AcDbVertex
100
AcDb2dVertex
 10
1418.09306207962
 20
960.5869565944031
 30
0.0
  0
VERTEX
  5
4BD3
330
4BD1
100
AcDbEntity
  8
MODEL
100
AcDbVertex
100
AcDb2dVertex
 10
1416.400078755659
 20
961.4334482563836
 30
0.0
  0
VERTEX
  5
4BD4
330
4BD1
100
AcDbEntity
  8
MODEL
100
AcDbVertex
100
AcDb2dVertex
 10
1409.635027505848
 20
963.9694822193087
 30
0.0
  0
VERTEX
  5
4BD5
330
4BD1
100
AcDbEntity
  8
MODEL
100
AcDbVertex
100
AcDb2dVertex
 10
1408.788535843866
 20
964.815973881289
 30
0.0
  0
SEQEND
  5
4BD6
330
4BD1
100
AcDbEntity
  8
MODEL
  0
POLYLINE
  5
4BD7
330
A
100
AcDbEntity
  8
MODEL
100
AcDb2dPolyline
 66
     1
 10
0.0
 20
0.0
 30
0.0
  0
VERTEX
  5
4BD8
330
4BD7
100
AcDbEntity
  8
MODEL
100
AcDbVertex
100
AcDb2dVertex
 10
1399.487450631131
 20
969.0449911681749
 30
0.0
  0
VERTEX
  5
4BD9
330
4BD7
100
AcDbEntity
  8
MODEL
100
AcDbVertex
100
AcDb2dVertex
 10
1396.951416668207
 20
970.7345334691197
 30
0.0
  0
VERTEX
  5
4BDA
330
4BD7
100
AcDbEntity
  8
MODEL
100
AcDbVertex
100
AcDb2dVertex
 10
1391.029416057359
 20
974.1170590940251
 30
0.0
  0
SEQEND
  5
4BDB
330
4BD7
100
AcDbEntity
  8
MODEL
  0
POLYLINE
  5
4BDC
330
A
100
AcDbEntity
  8
MODEL
100
AcDb2dPolyline
 66
     1
 10
0.0
 20
0.0
 30
0.0
  0
VERTEX
  5
4BDD
330
4BDC
100
AcDbEntity
  8
MODEL
100
AcDbVertex
100
AcDb2dVertex
 10
1382.574822506603
 20
979.1925680428915
 30
0.0
  0
VERTEX
  5
4BDE
330
4BDC
100
AcDbEntity
  8
MODEL
100
AcDbVertex
100
AcDb2dVertex
 10
1378.345805219717
 20
981.7286020058166
 30
0.0
  0
VERTEX
  5
4BDF
330
4BDC
100
AcDbEntity
  8
MODEL
100
AcDbVertex
100
AcDb2dVertex
 10
1374.11678793283
 20
985.1111276307222
 30
0.0
  0
SEQEND
  5
4BE0
330
4BDC
100
AcDbEntity
  8
MODEL
  0
POLYLINE
  5
4BE1
330
A
100
AcDbEntity
  8
MODEL
100
AcDb2dPolyline
 66
     1
 10
0.0
 20
0.0
 30
0.0
  0
VERTEX
  5
4BE2
330
4BE1
100
AcDbEntity
  8
MODEL
100
AcDbVertex
100
AcDb2dVertex
 10
1366.50524502104
 20
991.0331282415689
 30
0.0
  0
VERTEX
  5
4BE3
330
4BE1
100
AcDbEntity
  8
MODEL
100
AcDbVertex
100
AcDb2dVertex
 10
1361.433177095189
 20
995.2587045054388
 30
0.0
  0
VERTEX
  5
4BE4
330
4BE1
100
AcDbEntity
  8
MODEL
100
AcDbVertex
100
AcDb2dVertex
 10
1358.897143132265
 20
997.7981794913799
 30
0.0
  0
SEQEND
  5
4BE5
330
4BE1
100
AcDbEntity
  8
MODEL
  0
POLYLINE
  5
4BE6
330
A
100
AcDbEntity
  8
MODEL
100
AcDb2dPolyline
 66
     1
 10
0.0
 20
0.0
 30
0.0
  0
VERTEX
  5
4BE7
330
4BE6
100
AcDbEntity
  8
MODEL
100
AcDbVertex
100
AcDb2dVertex
 10
1351.285600220473
 20
1004.563230741191
 30
0.0
  0
VERTEX
  5
4BE8
330
4BE6
100
AcDbEntity
  8
MODEL
100
AcDbVertex
100
AcDb2dVertex
 10
1346.210091271606
 20
1009.635298667041
 30
0.0
  0
VERTEX
  5
4BE9
330
4BE6
100
AcDbEntity
  8
MODEL
100
AcDbVertex
100
AcDb2dVertex
 10
1344.520548970661
 20
1012.174773652982
 30
0.0
  0
SEQEND
  5
4BEA
330
4BE6
100
AcDbEntity
  8
MODEL
  0
POLYLINE
  5
4BEB
330
A
100
AcDbEntity
  8
MODEL
100
AcDb2dPolyline
 66
     1
 10
0.0
 20
0.0
 30
0.0
  0
VERTEX
  5
4BEC
330
4BEB
100
AcDbEntity
  8
MODEL
100
AcDbVertex
100
AcDb2dVertex
 10
1337.755497720852
 20
1019.786316564774
 30
0.0
  0
VERTEX
  5
4BED
330
4BEB
100
AcDbEntity
  8
MODEL
100
AcDbVertex
100
AcDb2dVertex
 10
1336.909006058871
 20
1020.629367203738
 30
0.0
  0
VERTEX
  5
4BEE
330
4BEB
100
AcDbEntity
  8
MODEL
100
AcDbVertex
100
AcDb2dVertex
 10
1331.833497110004
 20
1026.551367814585
 30
0.0
  0
VERTEX
  5
4BEF
330
4BEB
100
AcDbEntity
  8
MODEL
100
AcDbVertex
100
AcDb2dVertex
 10
1330.987005448024
 20
1027.394418453549
 30
0.0
  0
SEQEND
  5
4BF0
330
4BEB
100
AcDbEntity
  8
MODEL
  0
POLYLINE
  5
4BF1
330
A
100
AcDbEntity
  8
MODEL
100
AcDb2dPolyline
 66
     1
 10
0.0
 20
0.0
 30
0.0
  0
VERTEX
  5
4BF2
330
4BF1
100
AcDbEntity
  8
MODEL
100
AcDbVertex
100
AcDb2dVertex
 10
1325.914937522174
 20
1035.852453027321
 30
0.0
  0
VERTEX
  5
4BF3
330
4BF1
100
AcDbEntity
  8
MODEL
100
AcDbVertex
100
AcDb2dVertex
 10
1324.221954198213
 20
1038.388486990246
 30
0.0
  0
VERTEX
  5
4BF4
330
4BF1
100
AcDbEntity
  8
MODEL
100
AcDbVertex
100
AcDb2dVertex
 10
1319.996377934342
 20
1044.310487601093
 30
0.0
  0
SEQEND
  5
4BF5
330
4BF1
100
AcDbEntity
  8
MODEL
  0
POLYLINE
  5
4BF6
330
A
100
AcDbEntity
  8
MODEL
100
AcDb2dPolyline
 66
     1
 10
0.0
 20
0.0
 30
0.0
  0
VERTEX
  5
4BF7
330
4BF6
100
AcDbEntity
  8
MODEL
100
AcDbVertex
100
AcDb2dVertex
 10
1314.920868985476
 20
1053.611572813829
 30
0.0
  0
VERTEX
  5
4BF8
330
4BF6
100
AcDbEntity
  8
MODEL
100
AcDbVertex
100
AcDb2dVertex
 10
1313.227885661517
 20
1056.994098438735
 30
0.0
  0
VERTEX
  5
4BF9
330
4BF6
100
AcDbEntity
  8
MODEL
100
AcDbVertex
100
AcDb2dVertex
 10
1309.845360036611
 20
1062.912658026565
 30
0.0
  0
SEQEND
  5
4BFA
330
4BF6
100
AcDbEntity
  8
MODEL
  0
POLYLINE
  5
4BFB
330
A
100
AcDbEntity
  8
MODEL
100
AcDb2dPolyline
 66
     1
 10
0.0
 20
0.0
 30
0.0
  0
VERTEX
  5
4BFC
330
4BFB
100
AcDbEntity
  8
MODEL
100
AcDbVertex
100
AcDb2dVertex
 10
1305.61978377274
 20
1072.217184262318
 30
0.0
  0
VERTEX
  5
4BFD
330
4BFB
100
AcDbEntity
  8
MODEL
100
AcDbVertex
100
AcDb2dVertex
 10
1303.926800448779
 20
1076.442760526187
 30
0.0
  0
VERTEX
  5
4BFE
330
4BFB
100
AcDbEntity
  8
MODEL
100
AcDbVertex
100
AcDb2dVertex
 10
1302.237258147835
 20
1081.518269475054
 30
0.0
  0
SEQEND
  5
4BFF
330
4BFB
100
AcDbEntity
  8
MODEL
  0
POLYLINE
  5
4C00
330
A
100
AcDbEntity
  8
MODEL
100
AcDb2dPolyline
 66
     1
 10
0.0
 20
0.0
 30
0.0
  0
VERTEX
  5
4C01
330
4C00
100
AcDbEntity
  8
MODEL
100
AcDbVertex
100
AcDb2dVertex
 10
1298.854732522929
 20
1090.81935468779
 30
0.0
  0
VERTEX
  5
4C02
330
4C00
100
AcDbEntity
  8
MODEL
100
AcDbVertex
100
AcDb2dVertex
 10
1297.161749198968
 20
1096.741355298637
 30
0.0
  0
SEQEND
  5
4C03
330
4C00
100
AcDbEntity
  8
MODEL
  0
POLYLINE
  5
4C04
330
A
100
AcDbEntity
  8
MODEL
100
AcDb2dPolyline
 66
     1
 10
0.0
 20
0.0
 30
0.0
  0
VERTEX
  5
4C05
330
4C04
100
AcDbEntity
  8
MODEL
100
AcDbVertex
100
AcDb2dVertex
 10
1457.840318939522
 20
947.9033457567614
 30
0.0
  0
VERTEX
  5
4C06
330
4C04
100
AcDbEntity
  8
MODEL
100
AcDbVertex
100
AcDb2dVertex
 10
1460.376352902446
 20
947.9033457567614
 30
0.0
  0
VERTEX
  5
4C07
330
4C04
100
AcDbEntity
  8
MODEL
100
AcDbVertex
100
AcDb2dVertex
 10
1461.222844564426
 20
947.0568540947811
 30
0.0
  0
VERTEX
  5
4C08
330
4C04
100
AcDbEntity
  8
MODEL
100
AcDbVertex
100
AcDb2dVertex
 10
1462.065895203391
 20
947.0568540947811
 30
0.0
  0
VERTEX
  5
4C09
330
4C04
100
AcDbEntity
  8
MODEL
100
AcDbVertex
100
AcDb2dVertex
 10
1462.065895203391
 20
946.2103624328006
 30
0.0
  0
VERTEX
  5
4C0A
330
4C04
100
AcDbEntity
  8
MODEL
100
AcDbVertex
100
AcDb2dVertex
 10
1470.523929777163
 20
940.2918028449699
 30
0.0
  0
SEQEND
  5
4C0B
330
4C04
100
AcDbEntity
  8
MODEL
  0
POLYLINE
  5
4C0C
330
A
100
AcDbEntity
  8
MODEL
100
AcDb2dPolyline
 66
     1
 10
0.0
 20
0.0
 30
0.0
  0
VERTEX
  5
4C0D
330
4C0C
100
AcDbEntity
  8
MODEL
100
AcDbVertex
100
AcDb2dVertex
 10
1697.163469714881
 20
1096.741355298637
 30
0.0
  0
VERTEX
  5
4C0E
330
4C0C
100
AcDbEntity
  8
MODEL
100
AcDbVertex
100
AcDb2dVertex
 10
1694.62399472894
 20
1089.976304048826
 30
0.0
  0
VERTEX
  5
4C0F
330
4C0C
100
AcDbEntity
  8
MODEL
100
AcDbVertex
100
AcDb2dVertex
 10
1693.777503066959
 20
1087.436829062884
 30
0.0
  0
SEQEND
  5
4C10
330
4C0C
100
AcDbEntity
  8
MODEL
  0
POLYLINE
  5
4C11
330
A
100
AcDbEntity
  8
MODEL
100
AcDb2dPolyline
 66
     1
 10
0.0
 20
0.0
 30
0.0
  0
VERTEX
  5
4C12
330
4C11
100
AcDbEntity
  8
MODEL
100
AcDbVertex
100
AcDb2dVertex
 10
1691.241469104035
 20
1078.135743850148
 30
0.0
  0
VERTEX
  5
4C13
330
4C11
100
AcDbEntity
  8
MODEL
100
AcDbVertex
100
AcDb2dVertex
 10
1690.394977442053
 20
1076.442760526187
 30
0.0
  0
VERTEX
  5
4C14
330
4C11
100
AcDbEntity
  8
MODEL
100
AcDbVertex
100
AcDb2dVertex
 10
1687.012451817148
 20
1069.677709276376
 30
0.0
  0
VERTEX
  5
4C15
330
4C11
100
AcDbEntity
  8
MODEL
100
AcDbVertex
100
AcDb2dVertex
 10
1687.012451817148
 20
1068.834658637412
 30
0.0
  0
SEQEND
  5
4C16
330
4C11
100
AcDbEntity
  8
MODEL
  0
POLYLINE
  5
4C17
330
A
100
AcDbEntity
  8
MODEL
100
AcDb2dPolyline
 66
     1
 10
0.0
 20
0.0
 30
0.0
  0
VERTEX
  5
4C18
330
4C17
100
AcDbEntity
  8
MODEL
100
AcDbVertex
100
AcDb2dVertex
 10
1682.786875553279
 20
1059.53013240166
 30
0.0
  0
VERTEX
  5
4C19
330
4C17
100
AcDbEntity
  8
MODEL
100
AcDbVertex
100
AcDb2dVertex
 10
1681.093892229318
 20
1056.994098438735
 30
0.0
  0
VERTEX
  5
4C1A
330
4C17
100
AcDbEntity
  8
MODEL
100
AcDbVertex
100
AcDb2dVertex
 10
1677.711366604412
 20
1050.229047188924
 30
0.0
  0
SEQEND
  5
4C1B
330
4C17
100
AcDbEntity
  8
MODEL
  0
POLYLINE
  5
4C1C
330
A
100
AcDbEntity
  8
MODEL
100
AcDb2dPolyline
 66
     1
 10
0.0
 20
0.0
 30
0.0
  0
VERTEX
  5
4C1D
330
4C1C
100
AcDbEntity
  8
MODEL
100
AcDbVertex
100
AcDb2dVertex
 10
1672.635857655546
 20
1041.771012615152
 30
0.0
  0
VERTEX
  5
4C1E
330
4C1C
100
AcDbEntity
  8
MODEL
100
AcDbVertex
100
AcDb2dVertex
 10
1670.099823692622
 20
1038.388486990246
 30
0.0
  0
VERTEX
  5
4C1F
330
4C1C
100
AcDbEntity
  8
MODEL
100
AcDbVertex
100
AcDb2dVertex
 10
1666.717298067716
 20
1033.316419064396
 30
0.0
  0
SEQEND
  5
4C20
330
4C1C
100
AcDbEntity
  8
MODEL
  0
POLYLINE
  5
4C21
330
A
100
AcDbEntity
  8
MODEL
100
AcDb2dPolyline
 66
     1
 10
0.0
 20
0.0
 30
0.0
  0
VERTEX
  5
4C22
330
4C21
100
AcDbEntity
  8
MODEL
100
AcDbVertex
100
AcDb2dVertex
 10
1660.798738479884
 20
1024.858384490624
 30
0.0
  0
VERTEX
  5
4C23
330
4C21
100
AcDbEntity
  8
MODEL
100
AcDbVertex
100
AcDb2dVertex
 10
1657.416212854979
 20
1020.629367203738
 30
0.0
  0
VERTEX
  5
4C24
330
4C21
100
AcDbEntity
  8
MODEL
100
AcDbVertex
100
AcDb2dVertex
 10
1654.033687230073
 20
1017.246841578833
 30
0.0
  0
SEQEND
  5
4C25
330
4C21
100
AcDbEntity
  8
MODEL
  0
POLYLINE
  5
4C26
330
A
100
AcDbEntity
  8
MODEL
100
AcDb2dPolyline
 66
     1
 10
0.0
 20
0.0
 30
0.0
  0
VERTEX
  5
4C27
330
4C26
100
AcDbEntity
  8
MODEL
100
AcDbVertex
100
AcDb2dVertex
 10
1648.115127642243
 20
1009.635298667041
 30
0.0
  0
VERTEX
  5
4C28
330
4C26
100
AcDbEntity
  8
MODEL
100
AcDbVertex
100
AcDb2dVertex
 10
1643.039618693377
 20
1004.563230741191
 30
0.0
  0
VERTEX
  5
4C29
330
4C26
100
AcDbEntity
  8
MODEL
100
AcDbVertex
100
AcDb2dVertex
 10
1640.503584730453
 20
1002.87024741723
 30
0.0
  0
SEQEND
  5
4C2A
330
4C26
100
AcDbEntity
  8
MODEL
  0
POLYLINE
  5
4C2B
330
A
100
AcDbEntity
  8
MODEL
100
AcDb2dPolyline
 66
     1
 10
0.0
 20
0.0
 30
0.0
  0
VERTEX
  5
4C2C
330
4C2B
100
AcDbEntity
  8
MODEL
100
AcDbVertex
100
AcDb2dVertex
 10
1633.738533480641
 20
996.1051961674191
 30
0.0
  0
VERTEX
  5
4C2D
330
4C2B
100
AcDbEntity
  8
MODEL
100
AcDbVertex
100
AcDb2dVertex
 10
1632.89204181866
 20
995.2587045054388
 30
0.0
  0
VERTEX
  5
4C2E
330
4C2B
100
AcDbEntity
  8
MODEL
100
AcDbVertex
100
AcDb2dVertex
 10
1626.970041207814
 20
990.1866365795886
 30
0.0
  0
VERTEX
  5
4C2F
330
4C2B
100
AcDbEntity
  8
MODEL
100
AcDbVertex
100
AcDb2dVertex
 10
1626.126990568849
 20
989.3401449176081
 30
0.0
  0
SEQEND
  5
4C30
330
4C2B
100
AcDbEntity
  8
MODEL
  0
POLYLINE
  5
4C31
330
A
100
AcDbEntity
  8
MODEL
100
AcDb2dPolyline
 66
     1
 10
0.0
 20
0.0
 30
0.0
  0
VERTEX
  5
4C32
330
4C31
100
AcDbEntity
  8
MODEL
100
AcDbVertex
100
AcDb2dVertex
 10
1617.668955995076
 20
983.4215853297774
 30
0.0
  0
VERTEX
  5
4C33
330
4C31
100
AcDbEntity
  8
MODEL
100
AcDbVertex
100
AcDb2dVertex
 10
1615.979413694132
 20
981.7286020058166
 30
0.0
  0
VERTEX
  5
4C34
330
4C31
100
AcDbEntity
  8
MODEL
100
AcDbVertex
100
AcDb2dVertex
 10
1610.057413083286
 20
977.5030257419469
 30
0.0
  0
SEQEND
  5
4C35
330
4C31
100
AcDbEntity
  8
MODEL
  0
POLYLINE
  5
4C36
330
A
100
AcDbEntity
  8
MODEL
100
AcDb2dPolyline
 66
     1
 10
0.0
 20
0.0
 30
0.0
  0
VERTEX
  5
4C37
330
4C36
100
AcDbEntity
  8
MODEL
100
AcDbVertex
100
AcDb2dVertex
 10
1600.75632787055
 20
972.4275167930805
 30
0.0
  0
VERTEX
  5
4C38
330
4C36
100
AcDbEntity
  8
MODEL
100
AcDbVertex
100
AcDb2dVertex
 10
1597.373802245645
 20
970.7345334691197
 30
0.0
  0
VERTEX
  5
4C39
330
4C36
100
AcDbEntity
  8
MODEL
100
AcDbVertex
100
AcDb2dVertex
 10
1591.455242657813
 20
968.1984995061946
 30
0.0
  0
SEQEND
  5
4C3A
330
4C36
100
AcDbEntity
  8
MODEL
  0
POLYLINE
  5
4C3B
330
A
100
AcDbEntity
  8
MODEL
100
AcDb2dPolyline
 66
     1
 10
0.0
 20
0.0
 30
0.0
  0
VERTEX
  5
4C3C
330
4C3B
100
AcDbEntity
  8
MODEL
100
AcDbVertex
100
AcDb2dVertex
 10
1582.997208084043
 20
963.1264315803444
 30
0.0
  0
VERTEX
  5
4C3D
330
4C3B
100
AcDbEntity
  8
MODEL
100
AcDbVertex
100
AcDb2dVertex
 10
1577.921699135176
 20
961.4334482563836
 30
0.0
  0
VERTEX
  5
4C3E
330
4C3B
100
AcDbEntity
  8
MODEL
100
AcDbVertex
100
AcDb2dVertex
 10
1573.696122871305
 20
958.8974142934585
 30
0.0
  0
SEQEND
  5
4C3F
330
4C3B
100
AcDbEntity
  8
MODEL
  0
POLYLINE
  5
4C40
330
A
100
AcDbEntity
  8
MODEL
100
AcDb2dPolyline
 66
     1
 10
0.0
 20
0.0
 30
0.0
  0
VERTEX
  5
4C41
330
4C40
100
AcDbEntity
  8
MODEL
100
AcDbVertex
100
AcDb2dVertex
 10
1564.391596635553
 20
955.5148886685529
 30
0.0
  0
VERTEX
  5
4C42
330
4C40
100
AcDbEntity
  8
MODEL
100
AcDbVertex
100
AcDb2dVertex
 10
1557.626545385742
 20
953.8219053445921
 30
0.0
  0
VERTEX
  5
4C43
330
4C40
100
AcDbEntity
  8
MODEL
100
AcDbVertex
100
AcDb2dVertex
 10
1554.244019760837
 20
952.9754136826116
 30
0.0
  0
SEQEND
  5
4C44
330
4C40
100
AcDbEntity
  8
MODEL
  0
POLYLINE
  5
4C45
330
A
100
AcDbEntity
  8
MODEL
100
AcDb2dPolyline
 66
     1
 10
0.0
 20
0.0
 30
0.0
  0
VERTEX
  5
4C46
330
4C45
100
AcDbEntity
  8
MODEL
100
AcDbVertex
100
AcDb2dVertex
 10
1544.942934548101
 20
949.5928880577062
 30
0.0
  0
VERTEX
  5
4C47
330
4C45
100
AcDbEntity
  8
MODEL
100
AcDbVertex
100
AcDb2dVertex
 10
1544.09644288612
 20
949.5928880577062
 30
0.0
  0
VERTEX
  5
4C48
330
4C45
100
AcDbEntity
  8
MODEL
100
AcDbVertex
100
AcDb2dVertex
 10
1536.484899974329
 20
948.7498374187419
 30
0.0
  0
SEQEND
  5
4C49
330
4C45
100
AcDbEntity
  8
MODEL
  0
POLYLINE
  5
4C4A
330
A
100
AcDbEntity
  8
MODEL
100
AcDb2dPolyline
 66
     1
 10
0.0
 20
0.0
 30
0.0
  0
VERTEX
  5
4C4B
330
4C4A
100
AcDbEntity
  8
MODEL
100
AcDbVertex
100
AcDb2dVertex
 10
1531.412832048479
 20
946.2103624328006
 30
0.0
  0
VERTEX
  5
4C4C
330
4C4A
100
AcDbEntity
  8
MODEL
100
AcDbVertex
100
AcDb2dVertex
 10
1532.255882687442
 20
947.0568540947811
 30
0.0
  0
VERTEX
  5
4C4D
330
4C4A
100
AcDbEntity
  8
MODEL
100
AcDbVertex
100
AcDb2dVertex
 10
1533.102374349423
 20
947.0568540947811
 30
0.0
  0
VERTEX
  5
4C4E
330
4C4A
100
AcDbEntity
  8
MODEL
100
AcDbVertex
100
AcDb2dVertex
 10
1533.948866011403
 20
947.9033457567614
 30
0.0
  0
VERTEX
  5
4C4F
330
4C4A
100
AcDbEntity
  8
MODEL
100
AcDbVertex
100
AcDb2dVertex
 10
1536.484899974329
 20
947.9033457567614
 30
0.0
  0
SEQEND
  5
4C50
330
4C4A
100
AcDbEntity
  8
MODEL
  0
POLYLINE
  5
4C51
330
A
100
AcDbEntity
  8
MODEL
100
AcDb2dPolyline
 66
     1
 10
0.0
 20
0.0
 30
0.0
  0
VERTEX
  5
4C52
330
4C51
100
AcDbEntity
  8
MODEL
100
AcDbVertex
100
AcDb2dVertex
 10
1531.412832048479
 20
946.2103624328006
 30
0.0
  0
VERTEX
  5
4C53
330
4C51
100
AcDbEntity
  8
MODEL
100
AcDbVertex
100
AcDb2dVertex
 10
1522.954797474707
 20
940.2918028449699
 30
0.0
  0
SEQEND
  5
4C54
330
4C51
100
AcDbEntity
  8
MODEL
  0
POLYLINE
  5
4C55
330
A
100
AcDbEntity
  8
MODEL
100
AcDb2dPolyline
 66
     1
 10
0.0
 20
0.0
 30
0.0
  0
VERTEX
  5
4C56
330
4C55
100
AcDbEntity
  8
MODEL
100
AcDbVertex
100
AcDb2dVertex
 10
317.8110160963943
 20
1080.671777813073
 30
0.0
  0
VERTEX
  5
4C57
330
4C55
100
AcDbEntity
  8
MODEL
100
AcDbVertex
100
AcDb2dVertex
 10
317.8110160963943
 20
1052.765081151849
 30
0.0
  0
SEQEND
  5
4C58
330
4C55
100
AcDbEntity
  8
MODEL
  0
POLYLINE
  5
4C59
330
A
100
AcDbEntity
  8
MODEL
100
AcDb2dPolyline
 66
     1
 10
0.0
 20
0.0
 30
0.0
  0
VERTEX
  5
4C5A
330
4C59
100
AcDbEntity
  8
MODEL
100
AcDbVertex
100
AcDb2dVertex
 10
741.4904159866464
 20
1052.765081151849
 30
0.0
  0
VERTEX
  5
4C5B
330
4C59
100
AcDbEntity
  8
MODEL
100
AcDbVertex
100
AcDb2dVertex
 10
741.4904159866464
 20
1080.671777813073
 30
0.0
  0
SEQEND
  5
4C5C
330
4C59
100
AcDbEntity
  8
MODEL
  0
POLYLINE
  5
4C5D
330
A
100
AcDbEntity
  8
MODEL
100
AcDb2dPolyline
 66
     1
 10
0.0
 20
0.0
 30
0.0
  0
VERTEX
  5
4C5E
330
4C5D
100
AcDbEntity
  8
MODEL
100
AcDbVertex
100
AcDb2dVertex
 10
741.4904159866464
 20
1052.765081151849
 30
0.0
  0
VERTEX
  5
4C5F
330
4C5D
100
AcDbEntity
  8
MODEL
100
AcDbVertex
100
AcDb2dVertex
 10
740.643924324665
 20
1051.918589489868
 30
0.0
  0
VERTEX
  5
4C60
330
4C5D
100
AcDbEntity
  8
MODEL
100
AcDbVertex
100
AcDb2dVertex
 10
740.643924324665
 20
1050.229047188924
 30
0.0
  0
VERTEX
  5
4C61
330
4C5D
100
AcDbEntity
  8
MODEL
100
AcDbVertex
100
AcDb2dVertex
 10
739.7991531741927
 20
1050.229047188924
 30
0.0
  0
VERTEX
  5
4C62
330
4C5D
100
AcDbEntity
  8
MODEL
100
AcDbVertex
100
AcDb2dVertex
 10
739.7991531741927
 20
1049.382555526943
 30
0.0
  0
VERTEX
  5
4C63
330
4C5D
100
AcDbEntity
  8
MODEL
100
AcDbVertex
100
AcDb2dVertex
 10
738.1078903617408
 20
1049.382555526943
 30
0.0
  0
VERTEX
  5
4C64
330
4C5D
100
AcDbEntity
  8
MODEL
100
AcDbVertex
100
AcDb2dVertex
 10
737.2613986997594
 20
1048.536063864963
 30
0.0
  0
VERTEX
  5
4C65
330
4C5D
100
AcDbEntity
  8
MODEL
100
AcDbVertex
100
AcDb2dVertex
 10
322.0400333832813
 20
1048.536063864963
 30
0.0
  0
VERTEX
  5
4C66
330
4C5D
100
AcDbEntity
  8
MODEL
100
AcDbVertex
100
AcDb2dVertex
 10
321.195262232809
 20
1049.382555526943
 30
0.0
  0
VERTEX
  5
4C67
330
4C5D
100
AcDbEntity
  8
MODEL
100
AcDbVertex
100
AcDb2dVertex
 10
319.5039994203553
 20
1049.382555526943
 30
0.0
  0
VERTEX
  5
4C68
330
4C5D
100
AcDbEntity
  8
MODEL
100
AcDbVertex
100
AcDb2dVertex
 10
319.5039994203553
 20
1050.229047188924
 30
0.0
  0
VERTEX
  5
4C69
330
4C5D
100
AcDbEntity
  8
MODEL
100
AcDbVertex
100
AcDb2dVertex
 10
318.6575077583757
 20
1050.229047188924
 30
0.0
  0
VERTEX
  5
4C6A
330
4C5D
100
AcDbEntity
  8
MODEL
100
AcDbVertex
100
AcDb2dVertex
 10
318.6575077583757
 20
1052.765081151849
 30
0.0
  0
SEQEND
  5
4C6B
330
4C5D
100
AcDbEntity
  8
MODEL
  0
POLYLINE
  5
4C6C
330
A
100
AcDbEntity
  8
MODEL
100
AcDb2dPolyline
 66
     1
 10
0.0
 20
0.0
 30
0.0
  0
VERTEX
  5
4C6D
330
4C6C
100
AcDbEntity
  8
MODEL
100
AcDbVertex
100
AcDb2dVertex
 10
741.4904159866464
 20
1052.765081151849
 30
0.0
  0
VERTEX
  5
4C6E
330
4C6C
100
AcDbEntity
  8
MODEL
100
AcDbVertex
100
AcDb2dVertex
 10
741.4904159866464
 20
1052.765081151849
 30
0.0
  0
SEQEND
  5
4C6F
330
4C6C
100
AcDbEntity
  8
MODEL
  0
POLYLINE
  5
4C70
330
A
100
AcDbEntity
  8
MODEL
100
AcDb2dPolyline
 66
     1
 10
0.0
 20
0.0
 30
0.0
  0
VERTEX
  5
4C71
330
4C70
100
AcDbEntity
  8
MODEL
100
AcDbVertex
100
AcDb2dVertex
 10
318.6575077583757
 20
1052.765081151849
 30
0.0
  0
VERTEX
  5
4C72
330
4C70
100
AcDbEntity
  8
MODEL
100
AcDbVertex
100
AcDb2dVertex
 10
317.8110160963943
 20
1052.765081151849
 30
0.0
  0
SEQEND
  5
4C73
330
4C70
100
AcDbEntity
  8
MODEL
  0
POLYLINE
  5
4C74
330
A
100
AcDbEntity
  8
MODEL
100
AcDb2dPolyline
 66
     1
 10
0.0
 20
0.0
 30
0.0
  0
VERTEX
  5
4C75
330
4C74
100
AcDbEntity
  8
MODEL
100
AcDbVertex
100
AcDb2dVertex
 10
316.1197532839424
 20
1089.129812386845
 30
0.0
  0
VERTEX
  5
4C76
330
4C74
100
AcDbEntity
  8
MODEL
100
AcDbVertex
100
AcDb2dVertex
 10
316.966244945922
 20
1087.436829062884
 30
0.0
  0
VERTEX
  5
4C77
330
4C74
100
AcDbEntity
  8
MODEL
100
AcDbVertex
100
AcDb2dVertex
 10
317.8110160963943
 20
1084.900795099959
 30
0.0
  0
VERTEX
  5
4C78
330
4C74
100
AcDbEntity
  8
MODEL
100
AcDbVertex
100
AcDb2dVertex
 10
317.8110160963943
 20
1082.364761137034
 30
0.0
  0
VERTEX
  5
4C79
330
4C74
100
AcDbEntity
  8
MODEL
100
AcDbVertex
100
AcDb2dVertex
 10
318.6575077583757
 20
1080.671777813073
 30
0.0
  0
SEQEND
  5
4C7A
330
4C74
100
AcDbEntity
  8
MODEL
  0
POLYLINE
  5
4C7B
330
A
100
AcDbEntity
  8
MODEL
100
AcDb2dPolyline
 66
     1
 10
0.0
 20
0.0
 30
0.0
  0
VERTEX
  5
4C7C
330
4C7B
100
AcDbEntity
  8
MODEL
100
AcDbVertex
100
AcDb2dVertex
 10
741.4904159866464
 20
1080.671777813073
 30
0.0
  0
VERTEX
  5
4C7D
330
4C7B
100
AcDbEntity
  8
MODEL
100
AcDbVertex
100
AcDb2dVertex
 10
741.4904159866464
 20
1085.74728676194
 30
0.0
  0
VERTEX
  5
4C7E
330
4C7B
100
AcDbEntity
  8
MODEL
100
AcDbVertex
100
AcDb2dVertex
 10
742.336907648626
 20
1088.283320724865
 30
0.0
  0
VERTEX
  5
4C7F
330
4C7B
100
AcDbEntity
  8
MODEL
100
AcDbVertex
100
AcDb2dVertex
 10
743.1816787990983
 20
1089.129812386845
 30
0.0
  0
SEQEND
  5
4C80
330
4C7B
100
AcDbEntity
  8
MODEL
  0
POLYLINE
  5
4C81
330
A
100
AcDbEntity
  8
MODEL
100
AcDb2dPolyline
 66
     1
 10
0.0
 20
0.0
 30
0.0
  0
VERTEX
  5
4C82
330
4C81
100
AcDbEntity
  8
MODEL
100
AcDbVertex
100
AcDb2dVertex
 10
1721.6876407512
 20
1052.765081151849
 30
0.0
  0
VERTEX
  5
4C83
330
4C81
100
AcDbEntity
  8
MODEL
100
AcDbVertex
100
AcDb2dVertex
 10
1721.6876407512
 20
1093.358829673731
 30
0.0
  0
SEQEND
  5
4C84
330
4C81
100
AcDbEntity
  8
MODEL
  0
POLYLINE
  5
4C85
330
A
100
AcDbEntity
  8
MODEL
100
AcDb2dPolyline
 66
     1
 10
0.0
 20
0.0
 30
0.0
  0
VERTEX
  5
4C86
330
4C85
100
AcDbEntity
  8
MODEL
100
AcDbVertex
100
AcDb2dVertex
 10
1718.305115126294
 20
1096.741355298637
 30
0.0
  0
VERTEX
  5
4C87
330
4C85
100
AcDbEntity
  8
MODEL
100
AcDbVertex
100
AcDb2dVertex
 10
1719.994657427239
 20
1096.741355298637
 30
0.0
  0
VERTEX
  5
4C88
330
4C85
100
AcDbEntity
  8
MODEL
100
AcDbVertex
100
AcDb2dVertex
 10
1719.994657427239
 20
1095.894863636656
 30
0.0
  0
VERTEX
  5
4C89
330
4C85
100
AcDbEntity
  8
MODEL
100
AcDbVertex
100
AcDb2dVertex
 10
1720.84114908922
 20
1095.894863636656
 30
0.0
  0
VERTEX
  5
4C8A
330
4C85
100
AcDbEntity
  8
MODEL
100
AcDbVertex
100
AcDb2dVertex
 10
1721.6876407512
 20
1095.048371974676
 30
0.0
  0
VERTEX
  5
4C8B
330
4C85
100
AcDbEntity
  8
MODEL
100
AcDbVertex
100
AcDb2dVertex
 10
1721.6876407512
 20
1093.358829673731
 30
0.0
  0
SEQEND
  5
4C8C
330
4C85
100
AcDbEntity
  8
MODEL
  0
POLYLINE
  5
4C8D
330
A
100
AcDbEntity
  8
MODEL
100
AcDb2dPolyline
 66
     1
 10
0.0
 20
0.0
 30
0.0
  0
VERTEX
  5
4C8E
330
4C8D
100
AcDbEntity
  8
MODEL
100
AcDbVertex
100
AcDb2dVertex
 10
1721.6876407512
 20
1052.765081151849
 30
0.0
  0
VERTEX
  5
4C8F
330
4C8D
100
AcDbEntity
  8
MODEL
100
AcDbVertex
100
AcDb2dVertex
 10
1721.6876407512
 20
1050.229047188924
 30
0.0
  0
VERTEX
  5
4C90
330
4C8D
100
AcDbEntity
  8
MODEL
100
AcDbVertex
100
AcDb2dVertex
 10
1720.84114908922
 20
1050.229047188924
 30
0.0
  0
VERTEX
  5
4C91
330
4C8D
100
AcDbEntity
  8
MODEL
100
AcDbVertex
100
AcDb2dVertex
 10
1719.994657427239
 20
1049.382555526943
 30
0.0
  0
VERTEX
  5
4C92
330
4C8D
100
AcDbEntity
  8
MODEL
100
AcDbVertex
100
AcDb2dVertex
 10
1719.148165765259
 20
1049.382555526943
 30
0.0
  0
VERTEX
  5
4C93
330
4C8D
100
AcDbEntity
  8
MODEL
100
AcDbVertex
100
AcDb2dVertex
 10
1718.305115126294
 20
1048.536063864963
 30
0.0
  0
SEQEND
  5
4C94
330
4C8D
100
AcDbEntity
  8
MODEL
  0
POLYLINE
  5
4C95
330
A
100
AcDbEntity
  8
MODEL
100
AcDb2dPolyline
 66
     1
 10
0.0
 20
0.0
 30
0.0
  0
VERTEX
  5
4C96
330
4C95
100
AcDbEntity
  8
MODEL
100
AcDbVertex
100
AcDb2dVertex
 10
1572.849631209326
 20
1048.536063864963
 30
0.0
  0
VERTEX
  5
4C97
330
4C95
100
AcDbEntity
  8
MODEL
100
AcDbVertex
100
AcDb2dVertex
 10
1572.849631209326
 20
1049.382555526943
 30
0.0
  0
VERTEX
  5
4C98
330
4C95
100
AcDbEntity
  8
MODEL
100
AcDbVertex
100
AcDb2dVertex
 10
1572.003139547344
 20
1049.382555526943
 30
0.0
  0
SEQEND
  5
4C99
330
4C95
100
AcDbEntity
  8
MODEL
  0
POLYLINE
  5
4C9A
330
A
100
AcDbEntity
  8
MODEL
100
AcDb2dPolyline
 66
     1
 10
0.0
 20
0.0
 30
0.0
  0
VERTEX
  5
4C9B
330
4C9A
100
AcDbEntity
  8
MODEL
100
AcDbVertex
100
AcDb2dVertex
 10
1718.305115126294
 20
1048.536063864963
 30
0.0
  0
VERTEX
  5
4C9C
330
4C9A
100
AcDbEntity
  8
MODEL
100
AcDbVertex
100
AcDb2dVertex
 10
1572.849631209326
 20
1048.536063864963
 30
0.0
  0
SEQEND
  5
4C9D
330
4C9A
100
AcDbEntity
  8
MODEL
  0
POLYLINE
  5
4C9E
330
A
100
AcDbEntity
  8
MODEL
100
AcDb2dPolyline
 66
     1
 10
0.0
 20
0.0
 30
0.0
  0
VERTEX
  5
4C9F
330
4C9E
100
AcDbEntity
  8
MODEL
100
AcDbVertex
100
AcDb2dVertex
 10
1572.003139547344
 20
1089.129812386845
 30
0.0
  0
VERTEX
  5
4CA0
330
4C9E
100
AcDbEntity
  8
MODEL
100
AcDbVertex
100
AcDb2dVertex
 10
1572.003139547344
 20
1049.382555526943
 30
0.0
  0
SEQEND
  5
4CA1
330
4C9E
100
AcDbEntity
  8
MODEL
  0
POLYLINE
  5
4CA2
330
A
100
AcDbEntity
  8
MODEL
100
AcDb2dPolyline
 66
     1
 10
0.0
 20
0.0
 30
0.0
  0
VERTEX
  5
4CA3
330
4CA2
100
AcDbEntity
  8
MODEL
100
AcDbVertex
100
AcDb2dVertex
 10
731.3428391119296
 20
2014.286701540174
 30
0.0
  0
VERTEX
  5
4CA4
330
4CA2
100
AcDbEntity
  8
MODEL
100
AcDbVertex
100
AcDb2dVertex
 10
728.8050846374963
 20
2006.676879139891
 30
0.0
  0
VERTEX
  5
4CA5
330
4CA2
100
AcDbEntity
  8
MODEL
100
AcDbVertex
100
AcDb2dVertex
 10
727.960313487024
 20
2004.985616327438
 30
0.0
  0
SEQEND
  5
4CA6
330
4CA2
100
AcDbEntity
  8
MODEL
  0
POLYLINE
  5
4CA7
330
A
100
AcDbEntity
  8
MODEL
100
AcDb2dPolyline
 66
     1
 10
0.0
 20
0.0
 30
0.0
  0
VERTEX
  5
4CA8
330
4CA7
100
AcDbEntity
  8
MODEL
100
AcDbVertex
100
AcDb2dVertex
 10
723.7312962001388
 20
1995.682810603194
 30
0.0
  0
VERTEX
  5
4CA9
330
4CA7
100
AcDbEntity
  8
MODEL
100
AcDbVertex
100
AcDb2dVertex
 10
722.0400333876851
 20
1991.455513827816
 30
0.0
  0
VERTEX
  5
4CAA
330
4CA7
100
AcDbEntity
  8
MODEL
100
AcDbVertex
100
AcDb2dVertex
 10
719.5022789132518
 20
1986.38000487895
 30
0.0
  0
SEQEND
  5
4CAB
330
4CA7
100
AcDbEntity
  8
MODEL
  0
POLYLINE
  5
4CAC
330
A
100
AcDbEntity
  8
MODEL
100
AcDb2dPolyline
 66
     1
 10
0.0
 20
0.0
 30
0.0
  0
VERTEX
  5
4CAD
330
4CAC
100
AcDbEntity
  8
MODEL
100
AcDbVertex
100
AcDb2dVertex
 10
714.4284904758943
 20
1977.923690816686
 30
0.0
  0
VERTEX
  5
4CAE
330
4CAC
100
AcDbEntity
  8
MODEL
100
AcDbVertex
100
AcDb2dVertex
 10
713.583719325422
 20
1977.078919666214
 30
0.0
  0
VERTEX
  5
4CAF
330
4CAC
100
AcDbEntity
  8
MODEL
100
AcDbVertex
100
AcDb2dVertex
 10
709.3547020385349
 20
1970.313868416403
 30
0.0
  0
VERTEX
  5
4CB0
330
4CAC
100
AcDbEntity
  8
MODEL
100
AcDbVertex
100
AcDb2dVertex
 10
708.5099308880626
 20
1969.467376754422
 30
0.0
  0
SEQEND
  5
4CB1
330
4CAC
100
AcDbEntity
  8
MODEL
  0
POLYLINE
  5
4CB2
330
A
100
AcDbEntity
  8
MODEL
100
AcDb2dPolyline
 66
     1
 10
0.0
 20
0.0
 30
0.0
  0
VERTEX
  5
4CB3
330
4CB2
100
AcDbEntity
  8
MODEL
100
AcDbVertex
100
AcDb2dVertex
 10
703.4361424507051
 20
1961.011062692159
 30
0.0
  0
VERTEX
  5
4CB4
330
4CB2
100
AcDbEntity
  8
MODEL
100
AcDbVertex
100
AcDb2dVertex
 10
700.0536168257995
 20
1956.782045405273
 30
0.0
  0
VERTEX
  5
4CB5
330
4CB2
100
AcDbEntity
  8
MODEL
100
AcDbVertex
100
AcDb2dVertex
 10
696.6693706893866
 20
1953.399519780367
 30
0.0
  0
SEQEND
  5
4CB6
330
4CB2
100
AcDbEntity
  8
MODEL
  0
POLYLINE
  5
4CB7
330
A
100
AcDbEntity
  8
MODEL
100
AcDb2dPolyline
 66
     1
 10
0.0
 20
0.0
 30
0.0
  0
VERTEX
  5
4CB8
330
4CB7
100
AcDbEntity
  8
MODEL
100
AcDbVertex
100
AcDb2dVertex
 10
690.750811101555
 20
1944.943205718103
 30
0.0
  0
VERTEX
  5
4CB9
330
4CB7
100
AcDbEntity
  8
MODEL
100
AcDbVertex
100
AcDb2dVertex
 10
689.9043194395754
 20
1944.096714056123
 30
0.0
  0
VERTEX
  5
4CBA
330
4CB7
100
AcDbEntity
  8
MODEL
100
AcDbVertex
100
AcDb2dVertex
 10
683.9857598517438
 20
1938.178154468292
 30
0.0
  0
SEQEND
  5
4CBB
330
4CB7
100
AcDbEntity
  8
MODEL
  0
POLYLINE
  5
4CBC
330
A
100
AcDbEntity
  8
MODEL
100
AcDb2dPolyline
 66
     1
 10
0.0
 20
0.0
 30
0.0
  0
VERTEX
  5
4CBD
330
4CBC
100
AcDbEntity
  8
MODEL
100
AcDbVertex
100
AcDb2dVertex
 10
676.3742169399529
 20
1931.413103218481
 30
0.0
  0
VERTEX
  5
4CBE
330
4CBC
100
AcDbEntity
  8
MODEL
100
AcDbVertex
100
AcDb2dVertex
 10
672.1451996530677
 20
1927.184085931595
 30
0.0
  0
VERTEX
  5
4CBF
330
4CBC
100
AcDbEntity
  8
MODEL
100
AcDbVertex
100
AcDb2dVertex
 10
668.7626740281621
 20
1924.646331457162
 30
0.0
  0
SEQEND
  5
4CC0
330
4CBC
100
AcDbEntity
  8
MODEL
  0
POLYLINE
  5
4CC1
330
A
100
AcDbEntity
  8
MODEL
100
AcDb2dPolyline
 66
     1
 10
0.0
 20
0.0
 30
0.0
  0
VERTEX
  5
4CC2
330
4CC1
100
AcDbEntity
  8
MODEL
100
AcDbVertex
100
AcDb2dVertex
 10
661.1528516278786
 20
1917.881280207351
 30
0.0
  0
VERTEX
  5
4CC3
330
4CC1
100
AcDbEntity
  8
MODEL
100
AcDbVertex
100
AcDb2dVertex
 10
659.4615888154249
 20
1917.036509056878
 30
0.0
  0
VERTEX
  5
4CC4
330
4CC1
100
AcDbEntity
  8
MODEL
100
AcDbVertex
100
AcDb2dVertex
 10
652.6948170541064
 20
1911.961000108012
 30
0.0
  0
SEQEND
  5
4CC5
330
4CC1
100
AcDbEntity
  8
MODEL
  0
POLYLINE
  5
4CC6
330
A
100
AcDbEntity
  8
MODEL
100
AcDb2dPolyline
 66
     1
 10
0.0
 20
0.0
 30
0.0
  0
VERTEX
  5
4CC7
330
4CC6
100
AcDbEntity
  8
MODEL
100
AcDbVertex
100
AcDb2dVertex
 10
644.2385029918414
 20
1906.888932182162
 30
0.0
  0
VERTEX
  5
4CC8
330
4CC6
100
AcDbEntity
  8
MODEL
100
AcDbVertex
100
AcDb2dVertex
 10
639.1647145544839
 20
1903.504686045748
 30
0.0
  0
VERTEX
  5
4CC9
330
4CC6
100
AcDbEntity
  8
MODEL
100
AcDbVertex
100
AcDb2dVertex
 10
635.7821889295783
 20
1901.813423233296
 30
0.0
  0
SEQEND
  5
4CCA
330
4CC6
100
AcDbEntity
  8
MODEL
  0
POLYLINE
  5
4CCB
330
A
100
AcDbEntity
  8
MODEL
100
AcDb2dPolyline
 66
     1
 10
0.0
 20
0.0
 30
0.0
  0
VERTEX
  5
4CCC
330
4CCB
100
AcDbEntity
  8
MODEL
100
AcDbVertex
100
AcDb2dVertex
 10
627.3258748673152
 20
1896.739634795937
 30
0.0
  0
VERTEX
  5
4CCD
330
4CCB
100
AcDbEntity
  8
MODEL
100
AcDbVertex
100
AcDb2dVertex
 10
624.7881203928819
 20
1895.048371983485
 30
0.0
  0
VERTEX
  5
4CCE
330
4CCB
100
AcDbEntity
  8
MODEL
100
AcDbVertex
100
AcDb2dVertex
 10
618.0230691430706
 20
1892.51233802056
 30
0.0
  0
SEQEND
  5
4CCF
330
4CCB
100
AcDbEntity
  8
MODEL
  0
POLYLINE
  5
4CD0
330
A
100
AcDbEntity
  8
MODEL
100
AcDb2dPolyline
 66
     1
 10
0.0
 20
0.0
 30
0.0
  0
VERTEX
  5
4CD1
330
4CD0
100
AcDbEntity
  8
MODEL
100
AcDbVertex
100
AcDb2dVertex
 10
608.7202634188261
 20
1889.129812395654
 30
0.0
  0
VERTEX
  5
4CD2
330
4CD0
100
AcDbEntity
  8
MODEL
100
AcDbVertex
100
AcDb2dVertex
 10
601.9552121690149
 20
1885.747286770748
 30
0.0
  0
VERTEX
  5
4CD3
330
4CD0
100
AcDbEntity
  8
MODEL
100
AcDbVertex
100
AcDb2dVertex
 10
599.4191782060907
 20
1884.900795108768
 30
0.0
  0
SEQEND
  5
4CD4
330
4CD0
100
AcDbEntity
  8
MODEL
  0
POLYLINE
  5
4CD5
330
A
100
AcDbEntity
  8
MODEL
100
AcDb2dPolyline
 66
     1
 10
0.0
 20
0.0
 30
0.0
  0
VERTEX
  5
4CD6
330
4CD5
100
AcDbEntity
  8
MODEL
100
AcDbVertex
100
AcDb2dVertex
 10
590.1163724818462
 20
1881.518269483863
 30
0.0
  0
VERTEX
  5
4CD7
330
4CD5
100
AcDbEntity
  8
MODEL
100
AcDbVertex
100
AcDb2dVertex
 10
586.7338468569405
 20
1880.671777821882
 30
0.0
  0
VERTEX
  5
4CD8
330
4CD5
100
AcDbEntity
  8
MODEL
100
AcDbVertex
100
AcDb2dVertex
 10
579.9687956071293
 20
1878.980515009429
 30
0.0
  0
SEQEND
  5
4CD9
330
4CD5
100
AcDbEntity
  8
MODEL
  0
POLYLINE
  5
4CDA
330
A
100
AcDbEntity
  8
MODEL
100
AcDb2dPolyline
 66
     1
 10
0.0
 20
0.0
 30
0.0
  0
VERTEX
  5
4CDB
330
4CDA
100
AcDbEntity
  8
MODEL
100
AcDbVertex
100
AcDb2dVertex
 10
569.8194982209052
 20
1877.289252196977
 30
0.0
  0
VERTEX
  5
4CDC
330
4CDA
100
AcDbEntity
  8
MODEL
100
AcDbVertex
100
AcDb2dVertex
 10
562.2096758206217
 20
1875.597989384524
 30
0.0
  0
VERTEX
  5
4CDD
330
4CDA
100
AcDbEntity
  8
MODEL
100
AcDbVertex
100
AcDb2dVertex
 10
559.6719213461884
 20
1875.597989384524
 30
0.0
  0
SEQEND
  5
4CDE
330
4CDA
100
AcDbEntity
  8
MODEL
  0
POLYLINE
  5
4CDF
330
A
100
AcDbEntity
  8
MODEL
100
AcDb2dPolyline
 66
     1
 10
0.0
 20
0.0
 30
0.0
  0
VERTEX
  5
4CE0
330
4CDF
100
AcDbEntity
  8
MODEL
100
AcDbVertex
100
AcDb2dVertex
 10
549.5243444714715
 20
1873.906726572071
 30
0.0
  0
VERTEX
  5
4CE1
330
4CDF
100
AcDbEntity
  8
MODEL
100
AcDbVertex
100
AcDb2dVertex
 10
546.1418188465659
 20
1873.906726572071
 30
0.0
  0
SEQEND
  5
4CE2
330
4CDF
100
AcDbEntity
  8
MODEL
  0
POLYLINE
  5
4CE3
330
A
100
AcDbEntity
  8
MODEL
100
AcDb2dPolyline
 66
     1
 10
0.0
 20
0.0
 30
0.0
  0
VERTEX
  5
4CE4
330
4CE3
100
AcDbEntity
  8
MODEL
100
AcDbVertex
100
AcDb2dVertex
 10
546.1418188465659
 20
1873.906726572071
 30
0.0
  0
VERTEX
  5
4CE5
330
4CE3
100
AcDbEntity
  8
MODEL
100
AcDbVertex
100
AcDb2dVertex
 10
539.3767675967547
 20
1873.906726572071
 30
0.0
  0
SEQEND
  5
4CE6
330
4CE3
100
AcDbEntity
  8
MODEL
  0
POLYLINE
  5
4CE7
330
A
100
AcDbEntity
  8
MODEL
100
AcDb2dPolyline
 66
     1
 10
0.0
 20
0.0
 30
0.0
  0
VERTEX
  5
4CE8
330
4CE7
100
AcDbEntity
  8
MODEL
100
AcDbVertex
100
AcDb2dVertex
 10
529.2274702105306
 20
1873.061955421599
 30
0.0
  0
VERTEX
  5
4CE9
330
4CE7
100
AcDbEntity
  8
MODEL
100
AcDbVertex
100
AcDb2dVertex
 10
521.617647810247
 20
1873.906726572071
 30
0.0
  0
VERTEX
  5
4CEA
330
4CE7
100
AcDbEntity
  8
MODEL
100
AcDbVertex
100
AcDb2dVertex
 10
519.0798933358137
 20
1873.906726572071
 30
0.0
  0
SEQEND
  5
4CEB
330
4CE7
100
AcDbEntity
  8
MODEL
  0
POLYLINE
  5
4CEC
330
A
100
AcDbEntity
  8
MODEL
100
AcDb2dPolyline
 66
     1
 10
0.0
 20
0.0
 30
0.0
  0
VERTEX
  5
4CED
330
4CEC
100
AcDbEntity
  8
MODEL
100
AcDbVertex
100
AcDb2dVertex
 10
508.9323164610969
 20
1874.753218234051
 30
0.0
  0
VERTEX
  5
4CEE
330
4CEC
100
AcDbEntity
  8
MODEL
100
AcDbVertex
100
AcDb2dVertex
 10
505.5497908361913
 20
1874.753218234051
 30
0.0
  0
VERTEX
  5
4CEF
330
4CEC
100
AcDbEntity
  8
MODEL
100
AcDbVertex
100
AcDb2dVertex
 10
498.7847395863801
 20
1875.597989384524
 30
0.0
  0
SEQEND
  5
4CF0
330
4CEC
100
AcDbEntity
  8
MODEL
  0
POLYLINE
  5
4CF1
330
A
100
AcDbEntity
  8
MODEL
100
AcDb2dPolyline
 66
     1
 10
0.0
 20
0.0
 30
0.0
  0
VERTEX
  5
4CF2
330
4CF1
100
AcDbEntity
  8
MODEL
100
AcDbVertex
100
AcDb2dVertex
 10
488.6371627116632
 20
1877.289252196977
 30
0.0
  0
VERTEX
  5
4CF3
330
4CF1
100
AcDbEntity
  8
MODEL
100
AcDbVertex
100
AcDb2dVertex
 10
481.0256197998724
 20
1878.980515009429
 30
0.0
  0
VERTEX
  5
4CF4
330
4CF1
100
AcDbEntity
  8
MODEL
100
AcDbVertex
100
AcDb2dVertex
 10
478.4878653254391
 20
1879.82700667141
 30
0.0
  0
SEQEND
  5
4CF5
330
4CF1
100
AcDbEntity
  8
MODEL
  0
POLYLINE
  5
4CF6
330
A
100
AcDbEntity
  8
MODEL
100
AcDb2dPolyline
 66
     1
 10
0.0
 20
0.0
 30
0.0
  0
VERTEX
  5
4CF7
330
4CF6
100
AcDbEntity
  8
MODEL
100
AcDbVertex
100
AcDb2dVertex
 10
468.3402884507223
 20
1882.364761145843
 30
0.0
  0
VERTEX
  5
4CF8
330
4CF6
100
AcDbEntity
  8
MODEL
100
AcDbVertex
100
AcDb2dVertex
 10
464.9577628258166
 20
1883.209532296316
 30
0.0
  0
VERTEX
  5
4CF9
330
4CF6
100
AcDbEntity
  8
MODEL
100
AcDbVertex
100
AcDb2dVertex
 10
459.0374827264795
 20
1884.900795108768
 30
0.0
  0
SEQEND
  5
4CFA
330
4CF6
100
AcDbEntity
  8
MODEL
  0
POLYLINE
  5
4CFB
330
A
100
AcDbEntity
  8
MODEL
100
AcDb2dPolyline
 66
     1
 10
0.0
 20
0.0
 30
0.0
  0
VERTEX
  5
4CFC
330
4CFB
100
AcDbEntity
  8
MODEL
100
AcDbVertex
100
AcDb2dVertex
 10
449.7363975137423
 20
1889.129812395654
 30
0.0
  0
VERTEX
  5
4CFD
330
4CFB
100
AcDbEntity
  8
MODEL
100
AcDbVertex
100
AcDb2dVertex
 10
442.1248546019515
 20
1891.665846358579
 30
0.0
  0
VERTEX
  5
4CFE
330
4CFB
100
AcDbEntity
  8
MODEL
100
AcDbVertex
100
AcDb2dVertex
 10
440.4335917894978
 20
1892.51233802056
 30
0.0
  0
SEQEND
  5
4CFF
330
4CFB
100
AcDbEntity
  8
MODEL
  0
POLYLINE
  5
4D00
330
A
100
AcDbEntity
  8
MODEL
100
AcDb2dPolyline
 66
     1
 10
0.0
 20
0.0
 30
0.0
  0
VERTEX
  5
4D01
330
4D00
100
AcDbEntity
  8
MODEL
100
AcDbVertex
100
AcDb2dVertex
 10
431.1307860652532
 20
1896.739634795937
 30
0.0
  0
VERTEX
  5
4D02
330
4D00
100
AcDbEntity
  8
MODEL
100
AcDbVertex
100
AcDb2dVertex
 10
427.7482604403494
 20
1899.277389270371
 30
0.0
  0
VERTEX
  5
4D03
330
4D00
100
AcDbEntity
  8
MODEL
100
AcDbVertex
100
AcDb2dVertex
 10
422.6744720029901
 20
1901.813423233296
 30
0.0
  0
SEQEND
  5
4D04
330
4D00
100
AcDbEntity
  8
MODEL
  0
POLYLINE
  5
4D05
330
A
100
AcDbEntity
  8
MODEL
100
AcDb2dPolyline
 66
     1
 10
0.0
 20
0.0
 30
0.0
  0
VERTEX
  5
4D06
330
4D05
100
AcDbEntity
  8
MODEL
100
AcDbVertex
100
AcDb2dVertex
 10
414.218157940727
 20
1906.888932182162
 30
0.0
  0
VERTEX
  5
4D07
330
4D05
100
AcDbEntity
  8
MODEL
100
AcDbVertex
100
AcDb2dVertex
 10
413.3716662787456
 20
1907.733703332634
 30
0.0
  0
VERTEX
  5
4D08
330
4D05
100
AcDbEntity
  8
MODEL
100
AcDbVertex
100
AcDb2dVertex
 10
406.6066150289344
 20
1911.961000108012
 30
0.0
  0
VERTEX
  5
4D09
330
4D05
100
AcDbEntity
  8
MODEL
100
AcDbVertex
100
AcDb2dVertex
 10
405.7618438784621
 20
1912.807491769993
 30
0.0
  0
SEQEND
  5
4D0A
330
4D05
100
AcDbEntity
  8
MODEL
  0
POLYLINE
  5
4D0B
330
A
100
AcDbEntity
  8
MODEL
100
AcDb2dPolyline
 66
     1
 10
0.0
 20
0.0
 30
0.0
  0
VERTEX
  5
4D0C
330
4D0B
100
AcDbEntity
  8
MODEL
100
AcDbVertex
100
AcDb2dVertex
 10
397.3038093046916
 20
1918.727771869331
 30
0.0
  0
VERTEX
  5
4D0D
330
4D0B
100
AcDbEntity
  8
MODEL
100
AcDbVertex
100
AcDb2dVertex
 10
393.921283679786
 20
1922.110297494237
 30
0.0
  0
VERTEX
  5
4D0E
330
4D0B
100
AcDbEntity
  8
MODEL
100
AcDbVertex
100
AcDb2dVertex
 10
389.6939869044081
 20
1925.492823119142
 30
0.0
  0
SEQEND
  5
4D0F
330
4D0B
100
AcDbEntity
  8
MODEL
  0
POLYLINE
  5
4D10
330
A
100
AcDbEntity
  8
MODEL
100
AcDb2dPolyline
 66
     1
 10
0.0
 20
0.0
 30
0.0
  0
VERTEX
  5
4D11
330
4D10
100
AcDbEntity
  8
MODEL
100
AcDbVertex
100
AcDb2dVertex
 10
382.0824439926155
 20
1931.413103218481
 30
0.0
  0
VERTEX
  5
4D12
330
4D10
100
AcDbEntity
  8
MODEL
100
AcDbVertex
100
AcDb2dVertex
 10
381.2359523306359
 20
1932.257874368953
 30
0.0
  0
VERTEX
  5
4D13
330
4D10
100
AcDbEntity
  8
MODEL
100
AcDbVertex
100
AcDb2dVertex
 10
375.3173927428043
 20
1938.178154468292
 30
0.0
  0
SEQEND
  5
4D14
330
4D10
100
AcDbEntity
  8
MODEL
  0
POLYLINE
  5
4D15
330
A
100
AcDbEntity
  8
MODEL
100
AcDb2dPolyline
 66
     1
 10
0.0
 20
0.0
 30
0.0
  0
VERTEX
  5
4D16
330
4D15
100
AcDbEntity
  8
MODEL
100
AcDbVertex
100
AcDb2dVertex
 10
368.552341492993
 20
1945.789697380083
 30
0.0
  0
VERTEX
  5
4D17
330
4D15
100
AcDbEntity
  8
MODEL
100
AcDbVertex
100
AcDb2dVertex
 10
364.3233242061078
 20
1950.861765305934
 30
0.0
  0
VERTEX
  5
4D18
330
4D15
100
AcDbEntity
  8
MODEL
100
AcDbVertex
100
AcDb2dVertex
 10
361.7872902431836
 20
1953.399519780367
 30
0.0
  0
SEQEND
  5
4D19
330
4D15
100
AcDbEntity
  8
MODEL
  0
POLYLINE
  5
4D1A
330
A
100
AcDbEntity
  8
MODEL
100
AcDb2dPolyline
 66
     1
 10
0.0
 20
0.0
 30
0.0
  0
VERTEX
  5
4D1B
330
4D1A
100
AcDbEntity
  8
MODEL
100
AcDbVertex
100
AcDb2dVertex
 10
355.8670101438447
 20
1961.855833842631
 30
0.0
  0
VERTEX
  5
4D1C
330
4D1A
100
AcDbEntity
  8
MODEL
100
AcDbVertex
100
AcDb2dVertex
 10
354.175747331391
 20
1963.547096655083
 30
0.0
  0
VERTEX
  5
4D1D
330
4D1A
100
AcDbEntity
  8
MODEL
100
AcDbVertex
100
AcDb2dVertex
 10
349.9467300445058
 20
1970.312147904895
 30
0.0
  0
SEQEND
  5
4D1E
330
4D1A
100
AcDbEntity
  8
MODEL
  0
POLYLINE
  5
4D1F
330
A
100
AcDbEntity
  8
MODEL
100
AcDb2dPolyline
 66
     1
 10
0.0
 20
0.0
 30
0.0
  0
VERTEX
  5
4D20
330
4D1F
100
AcDbEntity
  8
MODEL
100
AcDbVertex
100
AcDb2dVertex
 10
344.8729416071465
 20
1978.770182478666
 30
0.0
  0
VERTEX
  5
4D21
330
4D1F
100
AcDbEntity
  8
MODEL
100
AcDbVertex
100
AcDb2dVertex
 10
341.4904159822408
 20
1983.843970916025
 30
0.0
  0
VERTEX
  5
4D22
330
4D1F
100
AcDbEntity
  8
MODEL
100
AcDbVertex
100
AcDb2dVertex
 10
339.799153169789
 20
1987.22649654093
 30
0.0
  0
SEQEND
  5
4D23
330
4D1F
100
AcDbEntity
  8
MODEL
  0
POLYLINE
  5
4D24
330
A
100
AcDbEntity
  8
MODEL
100
AcDb2dPolyline
 66
     1
 10
0.0
 20
0.0
 30
0.0
  0
VERTEX
  5
4D25
330
4D24
100
AcDbEntity
  8
MODEL
100
AcDbVertex
100
AcDb2dVertex
 10
334.7253647324314
 20
1996.529302265174
 30
0.0
  0
VERTEX
  5
4D26
330
4D24
100
AcDbEntity
  8
MODEL
100
AcDbVertex
100
AcDb2dVertex
 10
333.87887307045
 20
1999.0653362281
 30
0.0
  0
VERTEX
  5
4D27
330
4D24
100
AcDbEntity
  8
MODEL
100
AcDbVertex
100
AcDb2dVertex
 10
330.4963474455444
 20
2005.830387477911
 30
0.0
  0
SEQEND
  5
4D28
330
4D24
100
AcDbEntity
  8
MODEL
  0
POLYLINE
  5
4D29
330
A
100
AcDbEntity
  8
MODEL
100
AcDb2dPolyline
 66
     1
 10
0.0
 20
0.0
 30
0.0
  0
VERTEX
  5
4D2A
330
4D29
100
AcDbEntity
  8
MODEL
100
AcDbVertex
100
AcDb2dVertex
 10
731.3428391119296
 20
2014.286701540174
 30
0.0
  0
VERTEX
  5
4D2B
330
4D29
100
AcDbEntity
  8
MODEL
100
AcDbVertex
100
AcDb2dVertex
 10
741.4904159866464
 20
2014.286701540174
 30
0.0
  0
SEQEND
  5
4D2C
330
4D29
100
AcDbEntity
  8
MODEL
  0
POLYLINE
  5
4D2D
330
A
100
AcDbEntity
  8
MODEL
100
AcDb2dPolyline
 66
     1
 10
0.0
 20
0.0
 30
0.0
  0
VERTEX
  5
4D2E
330
4D2D
100
AcDbEntity
  8
MODEL
100
AcDbVertex
100
AcDb2dVertex
 10
317.8110160963943
 20
2014.286701540174
 30
0.0
  0
VERTEX
  5
4D2F
330
4D2D
100
AcDbEntity
  8
MODEL
100
AcDbVertex
100
AcDb2dVertex
 10
327.9603134826202
 20
2014.286701540174
 30
0.0
  0
SEQEND
  5
4D30
330
4D2D
100
AcDbEntity
  8
MODEL
  0
DIMENSION
  5
4D41
102
{ACAD_XDICTIONARY
360
4D42
102
}
330
A
100
AcDbEntity
  8
DIM
100
AcDbDimension
  2
*D20
 10
729.6515762994777
 20
1772.524802739625
 30
0.0
 11
529.6515762972749
 21
1804.524802739625
 31
0.0
 70
    32
 71
     5
 42
400.0000000044056
 73
     0
 74
     0
 75
     0
  3
tfrom線あり
100
AcDbAlignedDimension
 13
329.6515762950721
 23
1957.800824182368
 33
0.0
 14
729.6515762994777
 24
1957.800824182368
 34
0.0
100
AcDbRotatedDimension
1001
ACAD
1000
DSTYLE
1002
{
1070
   144
1040
1.0
1002
}
  0
DIMENSION
  5
4D50
330
A
100
AcDbEntity
  8
DIM
100
AcDbDimension
  2
*D21
 10
755.1274052587532
 20
2389.844756854369
 30
0.0
 11
530.1274052587532
 21
2421.844756854369
 31
0.0
 70
    32
 71
     5
 42
450.0
 73
     0
 74
     0
 75
     0
  3
tfrom線あり
100
AcDbAlignedDimension
 13
305.1274052587532
 23
2104.672426311113
 33
0.0
 14
755.1274052587532
 24
2104.672426311114
 34
0.0
100
AcDbRotatedDimension
1001
ACAD
1000
DSTYLE
1002
{
1070
   144
1040
1.0
1002
}
  0
DIMENSION
  5
4D5D
330
A
100
AcDbEntity
  8
DIM
100
AcDbDimension
  2
*D22
 10
845.4673737955059
 20
942.7413552986366
 30
0.0
 11
813.4673737955059
 21
1019.741355298637
 31
0.0
 70
    32
 71
     5
 42
154.0
 73
     0
 74
     0
 75
     0
  3
tfrom線あり
100
AcDbAlignedDimension
 13
753.4357903429445
 23
1096.741355298637
 33
0.0
 14
558.268181445409
 24
942.7413552986366
 34
0.0
 50
90.0
100
AcDbRotatedDimension
1001
ACAD
1000
DSTYLE
1002
{
1070
   144
1040
1.0
1002
}
  0
DIMENSION
  5
4D6A
330
A
100
AcDbEntity
  8
DIM
100
AcDbDimension
  2
*D23
 10
907.4651287375686
 20
937.7413552986367
 30
0.0
 11
875.4651287375686
 21
1017.241355298637
 31
0.0
 70
    32
 71
     5
 42
158.9999999999999
 73
     0
 74
     0
 75
     0
  3
tfrom線あり
100
AcDbAlignedDimension
 13
787.8771330895688
 23
1096.741355298637
 33
0.0
 14
556.3547735150405
 24
937.7413552986367
 34
0.0
 50
90.0
100
AcDbRotatedDimension
1001
ACAD
1000
DSTYLE
1002
{
1070
   144
1040
1.0
1002
}
  0
DIMENSION
  5
4D77
102
{ACAD_XDICTIONARY
360
4D78
102
}
330
A
100
AcDbEntity
  8
DIM
100
AcDbDimension
  2
*D24
 10
1210.827042359572
 20
1089.129812386845
 30
0.0
 11
1210.827042359572
 21
1092.935583842741
 31
0.0
 70
   160
 71
     5
 42
7.611542911791275
 73
     0
 74
     0
 75
     0
  3
tfrom線あり
100
AcDbAlignedDimension
 13
1277.519368861417
 23
1096.741355298637
 33
0.0
 14
1274.136843236511
 24
1089.129812386845
 34
0.0
 50
90.0
100
AcDbRotatedDimension
1001
ACAD
1000
DSTYLE
1002
{
1070
   144
1040
1.0
1002
}
  0
DIMENSION
  5
4D87
330
A
100
AcDbEntity
  8
DIM
100
AcDbDimension
  2
*D25
 10
1497.637578162649
 20
837.038953330273
 30
0.0
 11
1385.137578162649
 21
869.038953330273
 31
0.0
 70
    32
 71
     5
 42
225.0
 73
     0
 74
     0
 75
     0
  3
tfrom線あり
100
AcDbAlignedDimension
 13
1272.637578162649
 23
1066.295183651471
 33
0.0
 14
1497.637578162649
 24
923.3360735604795
 34
0.0
100
AcDbRotatedDimension
1001
ACAD
1000
DSTYLE
1002
{
1070
   144
1040
1.0
1002
}
  0
DIMENSION
  5
4D94
330
A
100
AcDbEntity
  8
DIM
100
AcDbDimension
  2
*D26
 10
1572.637578162649
 20
780.234655397473
 30
0.0
 11
1422.637578162649
 21
812.234655397473
 31
0.0
 70
    32
 71
     5
 42
300.0
 73
     0
 74
     0
 75
     0
  3
tfrom線あり
100
AcDbAlignedDimension
 13
1272.637578162649
 23
1066.295183651471
 33
0.0
 14
1572.637578162649
 24
1066.295183651471
 34
0.0
100
AcDbRotatedDimension
1001
ACAD
1000
DSTYLE
1002
{
1070
   144
1040
1.0
1002
}
  0
DIMENSION
  5
4DA1
102
{ACAD_XDICTIONARY
360
4DA2
102
}
330
A
100
AcDbEntity
  8
DIM
100
AcDbDimension
  2
*D27
 10
1816.54095608471
 20
1048.536063864963
 30
0.0
 11
1816.54095608471
 21
1072.6387095818
 31
0.0
 70
   160
 71
     5
 42
48.20529143367389
 73
     0
 74
     0
 75
     0
  3
tfrom線あり
100
AcDbAlignedDimension
 13
1727.789556129578
 23
1096.741355298637
 33
0.0
 14
1727.789556129578
 24
1048.536063864963
 34
0.0
 50
90.0
100
AcDbRotatedDimension
1001
ACAD
1000
DSTYLE
1002
{
1070
   144
1040
1.0
1002
}
  0
DIMENSION
  5
4DB1
330
A
100
AcDbEntity
  8
DIM
100
AcDbDimension
  2
*D28
 10
1816.54095608471
 20
937.5360638649627
 30
0.0
 11
1784.54095608471
 21
993.0360638649627
 31
0.0
 70
    32
 71
     5
 42
111.0
 73
     0
 74
     0
 75
     0
  3
tfrom線あり
100
AcDbAlignedDimension
 13
1730.820280804223
 23
1048.536063864963
 33
0.0
 14
1520.432628140685
 24
937.5360638649627
 34
0.0
 50
90.0
100
AcDbRotatedDimension
1001
ACAD
1000
DSTYLE
1002
{
1070
   144
1040
1.0
1002
}
  0
DIMENSION
  5
4DBE
102
{ACAD_XDICTIONARY
360
4DBF
102
}
330
A
100
AcDbEntity
  8
DIM
100
AcDbDimension
  2
*D29
 10
1497.104245883439
 20
1096.741355298637
 30
0.0
 11
1497.104245883439
 21
1214.621727595076
 31
0.0
 70
   160
 71
     5
 42
154.7565691297057
 73
     0
 74
     1
 75
     1
  3
tfrom線あり
100
AcDbAlignedDimension
 13
1486.954948497215
 23
941.9847861689309
 33
0.0
 14
1486.954948497215
 24
1096.741355298637
 34
0.0
 50
90.0
100
AcDbRotatedDimension
1001
ACAD
1000
DSTYLE
1002
{
1070
   172
1070
     1
1070
     3
1000
<>(深さ)
1070
   144
1040
1.0
1002
}
  0
VIEWPORT
  5
349
330
B
100
AcDbEntity
 67
     1
  8
0
100
AcDbViewport
 10
202.5
 20
128.5
 30
0.0
 40
486.0
 41
308.4
 68
     1
 69
     1
 12
202.5
 22
128.5
 13
0.0
 23
0.0
 14
0.5
 24
0.5
 15
0.0
 25
0.0
 16
0.0
 26
0.0
 36
1.0
 17
0.0
 27
0.0
 37
0.0
 42
50.0
 43
0.0
 44
0.0
 45
308.4
 50
0.0
 51
0.0
 72
   100
 90
   557152
  1

281
     0
 71
     1
 74
     0
110
0.0
120
0.0
130
0.0
111
1.0
121
0.0
131
0.0
112
0.0
122
1.0
132
0.0
 79
     0
146
0.0
170
     0
 61
     5
348
26C
292
     1
282
     1
141
0.0
142
0.0
 63
   256
  0
VIEWPORT
  5
34A
330
B
100
AcDbEntity
 67
     1
  8
0
100
AcDbViewport
 10
202.5
 20
128.5
 30
0.0
 40
324.0
 41
205.6
 68
     2
 69
     2
 12
986.6781359294573
 22
1427.077061889956
 13
0.0
 23
0.0
 14
0.5
 24
0.5
 15
0.0
 25
0.0
 16
0.0
 26
0.0
 36
1.0
 17
0.0
 27
0.0
 37
0.0
 42
50.0
 43
0.0
 44
0.0
 45
2890.021615685494
 50
0.0
 51
0.0
 72
   100
 90
   557152
  1

281
     0
 71
     1
 74
     0
110
0.0
120
0.0
130
0.0
111
1.0
121
0.0
131
0.0
112
0.0
122
1.0
132
0.0
 79
     0
146
0.0
170
     0
 61
     5
348
26C
292
     1
282
     1
141
0.0
142
0.0
 63
   256
  0
ENDSEC
  0
SECTION
  2
OBJECTS
  0
DICTIONARY
  5
19
330
0
100
AcDbDictionary
281
     1
  3
ACAD_COLOR
350
674
  3
ACAD_DETAILVIEWSTYLE
350
BBF
  3
ACAD_FIELDLIST
350
146A
  3
ACAD_GROUP
350
1A
  3
ACAD_IMAGE_VARS
350
27B
  3
ACAD_LAYOUT
350
1E
  3
ACAD_MATERIAL
350
263
  3
ACAD_MLEADERSTYLE
350
336
  3
ACAD_MLINESTYLE
350
1B
  3
ACAD_PLOTSETTINGS
350
22
  3
ACAD_PLOTSTYLENAME
350
1F
  3
ACAD_SCALELIST
350
241
  3
ACAD_SECTIONVIEWSTYLE
350
BC0
  3
ACAD_TABLESTYLE
350
278
  3
ACAD_VISUALSTYLE
350
267
  3
ACDB_RECOMPOSE_DATA
350
4DE9
  3
AcDbVariableDictionary
350
330
  3
APPDATA
350
27A
  3
DimOffsetDictionary
350
E3E
  0
SUN
  5
904
330
15
100
AcDbSun
 90
        1
290
     0
 63
     7
421
 16777215
 40
1.0
291
     1
 91
  2455826
 92
 54000000
292
     0
 70
     2
 71
   256
280
     1
  0
DICTIONARY
  5
2E1
330
2
100
AcDbDictionary
280
     1
281
     1
  3
ACAD_LAYERSTATES
360
2E2
  3
ACLYDICTIONARY
360
DF9
  0
DICTIONARY
  5
374D
330
A
100
AcDbDictionary
280
     1
281
     1
  3
ACAD_SORTENTS
360
374E
  0
DICTIONARY
  5
1468
330
1466
100
AcDbDictionary
280
     1
281
     1
  3
ACAD_FIELD
360
41D5
  0
DICTIONARY
  5
4D42
330
4D41
100
AcDbDictionary
280
     1
281
     1
  0
DICTIONARY
  5
4D78
330
4D77
100
AcDbDictionary
280
     1
281
     1
  0
DICTIONARY
  5
4DA2
330
4DA1
100
AcDbDictionary
280
     1
281
     1
  0
DICTIONARY
  5
4DBF
330
4DBE
100
AcDbDictionary
280
     1
281
     1
  0
DICTIONARY
  5
674
102
{ACAD_REACTORS
330
19
102
}
330
19
100
AcDbDictionary
281
     1
  0
DICTIONARY
  5
BBF
102
{ACAD_REACTORS
330
19
102
}
330
19
100
AcDbDictionary
281
     1
  0
FIELDLIST
  5
146A
102
{ACAD_REACTORS
330
19
102
}
330
19
100
AcDbIdSet
 90
        2
330
146B
330
1467
100
AcDbFieldList
  0
DICTIONARY
  5
1A
102
{ACAD_REACTORS
330
19
102
}
330
19
100
AcDbDictionary
281
     1
  3
*A1
350
36AC
  0
RASTERVARIABLES
  5
27B
102
{ACAD_REACTORS
330
19
102
}
330
19
100
AcDbRasterVariables
 90
        0
 70
     1
 71
     1
 72
     1
  0
DICTIONARY
  5
1E
102
{ACAD_REACTORS
330
19
102
}
330
19
100
AcDbDictionary
281
     1
  3
Layout1
350
21
  3
Model
350
20
  0
DICTIONARY
  5
263
102
{ACAD_REACTORS
330
19
102
}
330
19
100
AcDbDictionary
281
     1
  3
ByBlock
350
265
  3
ByLayer
350
264
  3
Global
350
266
  0
DICTIONARY
  5
336
102
{ACAD_REACTORS
330
19
102
}
330
19
100
AcDbDictionary
281
     1
  3
Standard
350
DAB
  0
DICTIONARY
  5
1B
102
{ACAD_REACTORS
330
19
102
}
330
19
100
AcDbDictionary
281
     1
  3
Standard
350
1C
  0
DICTIONARY
  5
22
102
{ACAD_REACTORS
330
19
102
}
330
19
100
AcDbDictionary
281
     1
  0
ACDBDICTIONARYWDFLT
  5
1F
102
{ACAD_REACTORS
330
19
102
}
330
19
100
AcDbDictionary
281
     1
  3
Normal
350
1D
100
AcDbDictionaryWithDefault
340
1D
  0
DICTIONARY
  5
241
102
{ACAD_REACTORS
330
19
102
}
330
19
100
AcDbDictionary
281
     1
  3
A0
350
242
  3
A1
350
243
  3
A2
350
244
  3
A3
350
245
  3
A4
350
246
  3
A5
350
247
  3
A6
350
248
  3
A7
350
249
  3
A8
350
24A
  3
A9
350
24B
  3
B0
350
24C
  3
B1
350
24D
  3
B2
350
24E
  3
B3
350
24F
  3
B4
350
250
  3
B5
350
251
  3
B6
350
252
  3
B7
350
253
  3
B8
350
254
  3
B9
350
255
  3
C0
350
256
  3
C1
350
257
  3
C2
350
258
  3
C3
350
259
  3
C4
350
25A
  3
C5
350
25B
  3
C6
350
25C
  3
C7
350
25D
  3
C8
350
25E
  3
C9
350
25F
  3
D0
350
260
  3
D1
350
261
  3
D2
350
262
  0
DICTIONARY
  5
BC0
102
{ACAD_REACTORS
330
19
102
}
330
19
100
AcDbDictionary
281
     1
  0
DICTIONARY
  5
278
102
{ACAD_REACTORS
330
19
102
}
330
19
100
AcDbDictionary
281
     1
  3
Standard
350
279
  0
DICTIONARY
  5
267
102
{ACAD_REACTORS
330
19
102
}
330
19
100
AcDbDictionary
281
     1
  3
2dWireframe
350
26C
  3
3D Hidden
350
26E
  3
3dWireframe
350
26D
  3
Basic
350
26F
  3
Brighten
350
273
  3
ColorChange
350
277
  3
Conceptual
350
271
  3
Dim
350
272
  3
EdgeColorOff
350
8FE
  3
Facepattern
350
276
  3
Flat
350
268
  3
FlatWithEdges
350
269
  3
Gouraud
350
26A
  3
GouraudWithEdges
350
26B
  3
Hidden
350
8FB
  3
JitterOff
350
8FC
  3
Linepattern
350
275
  3
OverhangOff
350
8FD
  3
Realistic
350
270
  3
Shaded
350
903
  3
Shaded with edges
350
902
  3
Shades of Gray
350
8FF
  3
Sketchy
350
900
  3
Thicken
350
274
  3
Wireframe
350
8FA
  3
X-Ray
350
901
  0
XRECORD
  5
4DE9
102
{ACAD_REACTORS
330
19
102
}
330
19
100
AcDbXrecord
280
     1
 90
        1
330
279
  0
DICTIONARY
  5
330
102
{ACAD_REACTORS
330
19
102
}
330
19
100
AcDbDictionary
281
     1
  3
CANNOSCALE
350
331
  3
CMLEADERSTYLE
350
DB1
  3
CTABLESTYLE
350
335
  3
HPTRANSPARENCY
350
D52
  3
XCLIPFRAME
350
896
  0
DICTIONARY
  5
27A
102
{ACAD_REACTORS
330
19
102
}
330
19
100
AcDbDictionary
281
     1
  0
DICTIONARY
  5
E3E
102
{ACAD_REACTORS
330
19
102
}
330
19
100
AcDbDictionary
281
     1
  3
DIMRAILANGLE
350
ECE
  3
DIMRAILFIRSTOFFSET
350
ECC
  3
DIMRAILOFFSET
350
ECD
  3
DIMRAILSENABLED
350
ECF
  0
DICTIONARY
  5
2E2
102
{ACAD_REACTORS
330
2E1
102
}
330
2E1
100
AcDbDictionary
281
     1
  0
DICTIONARY
  5
DF9
102
{ACAD_REACTORS
330
2E1
102
}
330
2E1
100
AcDbDictionary
281
     1
1001
ACAD
1000
<All
  0
SORTENTSTABLE
  5
374E
102
{ACAD_REACTORS
330
374D
102
}
330
374D
100
AcDbSortentsTable
330
A
331
0
  5
35AD
331
369B
  5
35AE
331
369C
  5
369A
331
36A7
  5
369B
331
36A8
  5
369C
331
36A9
  5
36A7
331
36AA
  5
36A8
331
36AB
  5
36A9
  0
DICTIONARY
  5
41D5
102
{ACAD_REACTORS
330
1468
102
}
330
1468
100
AcDbDictionary
280
     1
281
     1
  3
TEXT
360
1467
  0
GROUP
  5
36AC
102
{ACAD_REACTORS
330
1A
102
}
330
1A
100
AcDbGroup
300

 70
     1
 71
     1
340
369B
340
369C
340
36A7
340
36A8
340
36A9
340
36AA
340
36AB
  0
LAYOUT
  5
21
102
{ACAD_REACTORS
330
1E
102
}
330
1E
100
AcDbPlotSettings
  1

  2
none_device
  4
ISO_A3_(420.00_x_297.00_MM)
  6

 40
7.5
 41
20.0
 42
7.5
 43
20.0
 44
420.0
 45
297.0
 46
0.0
 47
0.0
 48
0.0
 49
0.0
140
0.0
141
0.0
142
1.0
143
1.0
 70
     0
 72
     1
 73
     0
 74
     0
  7

 75
     0
 76
     0
 77
     2
 78
   300
147
1.0
148
0.0
149
0.0
100
AcDbLayout
  1
Layout1
 70
     0
 71
     0
 10
-7.5
 20
-20.0
 11
412.5
 21
277.0
 12
0.0
 22
0.0
 32
0.0
 14
0.0
 24
0.0
 34
0.0
 15
0.0
 25
0.0
 35
0.0
146
0.0
 13
0.0
 23
0.0
 33
0.0
 16
0.0
 26
0.0
 36
0.0
 17
0.0
 27
0.0
 37
0.0
 76
     0
330
B
331
349
  0
LAYOUT
  5
20
102
{ACAD_REACTORS
330
1E
102
}
330
1E
100
AcDbPlotSettings
  1

  2
none_device
  4
ISO_A3_(420.00_x_297.00_MM)
  6

 40
7.5
 41
20.0
 42
7.5
 43
20.0
 44
420.0
 45
297.0
 46
0.0
 47
0.0
 48
0.0
 49
0.0
140
0.0
141
0.0
142
1.0
143
1.0
 70
  1024
 72
     1
 73
     0
 74
     0
  7

 75
     0
 76
     0
 77
     2
 78
   300
147
1.0
148
0.0
149
0.0
100
AcDbLayout
  1
Model
 70
     0
 71
     1
 10
0.0
 20
0.0
 11
2100.0
 21
2970.0
 12
0.0
 22
0.0
 32
0.0
 14
0.0
 24
0.0
 34
-0.0000000000000142
 15
2100.0
 25
2970.0
 35
0.0000000000000071
146
0.0
 13
0.0
 23
0.0
 33
0.0
 16
0.0
 26
0.0
 36
0.0
 17
0.0
 27
0.0
 37
0.0
 76
     0
330
A
331
15
  0
MATERIAL
  5
265
102
{ACAD_REACTORS
330
263
102
}
330
263
100
AcDbMaterial
  1
ByBlock
 72
     1
 94
      127
  0
MATERIAL
  5
264
102
{ACAD_REACTORS
330
263
102
}
330
263
100
AcDbMaterial
  1
ByLayer
 72
     1
 94
      127
  0
MATERIAL
  5
266
102
{ACAD_REACTORS
330
263
102
}
330
263
100
AcDbMaterial
  1
Global
 72
     1
 94
      127
  0
MLEADERSTYLE
  5
DAB
102
{ACAD_REACTORS
330
336
102
}
330
336
100
AcDbMLeaderStyle
170
     2
171
     1
172
     0
 90
        2
 40
0.0
 41
0.0
173
     1
 91
-1056964608
340
11
 92
       -2
290
     1
 42
2.0
291
     1
 43
8.0
  3
Standard
341
0
 44
4.0
300

342
17
174
     1
178
     6
175
     1
176
     0
 93
-1056964608
 45
4.0
292
     0
297
     0
 46
4.0
343
0
 94
-1056964608
 47
1.0
 49
1.0
140
1.0
293
     1
141
0.0
294
     1
177
     0
142
1.0
295
     0
296
     0
143
3.75
1001
ACAD_MLEADERVER
1070
     2
  0
MLINESTYLE
  5
1C
102
{ACAD_REACTORS
330
1B
102
}
330
1B
100
AcDbMlineStyle
  2
Standard
 70
     0
  3

 62
     0
 51
90.0
 52
90.0
 71
     2
 49
0.5
 62
   256
  6
BYLAYER
 49
-0.5
 62
   256
  6
BYLAYER
  0
ACDBPLACEHOLDER
  5
1D
102
{ACAD_REACTORS
330
1F
102
}
330
1F
  0
SCALE
  5
242
102
{ACAD_REACTORS
330
241
102
}
330
241
100
AcDbScale
 70
     0
300
1:1
140
1.0
141
1.0
290
     1
  0
SCALE
  5
243
102
{ACAD_REACTORS
330
241
102
}
330
241
100
AcDbScale
 70
     0
300
1:2
140
1.0
141
2.0
290
     0
  0
SCALE
  5
244
102
{ACAD_REACTORS
330
241
102
}
330
241
100
AcDbScale
 70
     0
300
1:4
140
1.0
141
4.0
290
     0
  0
SCALE
  5
245
102
{ACAD_REACTORS
330
241
102
}
330
241
100
AcDbScale
 70
     0
300
1:5
140
1.0
141
5.0
290
     0
  0
SCALE
  5
246
102
{ACAD_REACTORS
330
241
102
}
330
241
100
AcDbScale
 70
     0
300
1:8
140
1.0
141
8.0
290
     0
  0
SCALE
  5
247
102
{ACAD_REACTORS
330
241
102
}
330
241
100
AcDbScale
 70
     0
300
1:10
140
1.0
141
10.0
290
     0
  0
SCALE
  5
248
102
{ACAD_REACTORS
330
241
102
}
330
241
100
AcDbScale
 70
     0
300
1:16
140
1.0
141
16.0
290
     0
  0
SCALE
  5
249
102
{ACAD_REACTORS
330
241
102
}
330
241
100
AcDbScale
 70
     0
300
1:20
140
1.0
141
20.0
290
     0
  0
SCALE
  5
24A
102
{ACAD_REACTORS
330
241
102
}
330
241
100
AcDbScale
 70
     0
300
1:30
140
1.0
141
30.0
290
     0
  0
SCALE
  5
24B
102
{ACAD_REACTORS
330
241
102
}
330
241
100
AcDbScale
 70
     0
300
1:40
140
1.0
141
40.0
290
     0
  0
SCALE
  5
24C
102
{ACAD_REACTORS
330
241
102
}
330
241
100
AcDbScale
 70
     0
300
1:50
140
1.0
141
50.0
290
     0
  0
SCALE
  5
24D
102
{ACAD_REACTORS
330
241
102
}
330
241
100
AcDbScale
 70
     0
300
1:100
140
1.0
141
100.0
290
     0
  0
SCALE
  5
24E
102
{ACAD_REACTORS
330
241
102
}
330
241
100
AcDbScale
 70
     0
300
2:1
140
2.0
141
1.0
290
     0
  0
SCALE
  5
24F
102
{ACAD_REACTORS
330
241
102
}
330
241
100
AcDbScale
 70
     0
300
4:1
140
4.0
141
1.0
290
     0
  0
SCALE
  5
250
102
{ACAD_REACTORS
330
241
102
}
330
241
100
AcDbScale
 70
     0
300
8:1
140
8.0
141
1.0
290
     0
  0
SCALE
  5
251
102
{ACAD_REACTORS
330
241
102
}
330
241
100
AcDbScale
 70
     0
300
10:1
140
10.0
141
1.0
290
     0
  0
SCALE
  5
252
102
{ACAD_REACTORS
330
241
102
}
330
241
100
AcDbScale
 70
     0
300
100:1
140
100.0
141
1.0
290
     0
  0
SCALE
  5
253
102
{ACAD_REACTORS
330
241
102
}
330
241
100
AcDbScale
 70
     0
300
1/128" = 1'-0"
140
0.0078125
141
12.0
290
     0
  0
SCALE
  5
254
102
{ACAD_REACTORS
330
241
102
}
330
241
100
AcDbScale
 70
     0
300
1/64" = 1'-0"
140
0.015625
141
12.0
290
     0
  0
SCALE
  5
255
102
{ACAD_REACTORS
330
241
102
}
330
241
100
AcDbScale
 70
     0
300
1/32" = 1'-0"
140
0.03125
141
12.0
290
     0
  0
SCALE
  5
256
102
{ACAD_REACTORS
330
241
102
}
330
241
100
AcDbScale
 70
     0
300
1/16" = 1'-0"
140
0.0625
141
12.0
290
     0
  0
SCALE
  5
257
102
{ACAD_REACTORS
330
241
102
}
330
241
100
AcDbScale
 70
     0
300
3/32" = 1'-0"
140
0.09375
141
12.0
290
     0
  0
SCALE
  5
258
102
{ACAD_REACTORS
330
241
102
}
330
241
100
AcDbScale
 70
     0
300
1/8" = 1'-0"
140
0.125
141
12.0
290
     0
  0
SCALE
  5
259
102
{ACAD_REACTORS
330
241
102
}
330
241
100
AcDbScale
 70
     0
300
3/16" = 1'-0"
140
0.1875
141
12.0
290
     0
  0
SCALE
  5
25A
102
{ACAD_REACTORS
330
241
102
}
330
241
100
AcDbScale
 70
     0
300
1/4" = 1'-0"
140
0.25
141
12.0
290
     0
  0
SCALE
  5
25B
102
{ACAD_REACTORS
330
241
102
}
330
241
100
AcDbScale
 70
     0
300
3/8" = 1'-0"
140
0.375
141
12.0
290
     0
  0
SCALE
  5
25C
102
{ACAD_REACTORS
330
241
102
}
330
241
100
AcDbScale
 70
     0
300
1/2" = 1'-0"
140
0.5
141
12.0
290
     0
  0
SCALE
  5
25D
102
{ACAD_REACTORS
330
241
102
}
330
241
100
AcDbScale
 70
     0
300
3/4" = 1'-0"
140
0.75
141
12.0
290
     0
  0
SCALE
  5
25E
102
{ACAD_REACTORS
330
241
102
}
330
241
100
AcDbScale
 70
     0
300
1" = 1'-0"
140
1.0
141
12.0
290
     0
  0
SCALE
  5
25F
102
{ACAD_REACTORS
330
241
102
}
330
241
100
AcDbScale
 70
     0
300
1-1/2" = 1'-0"
140
1.5
141
12.0
290
     0
  0
SCALE
  5
260
102
{ACAD_REACTORS
330
241
102
}
330
241
100
AcDbScale
 70
     0
300
3" = 1'-0"
140
3.0
141
12.0
290
     0
  0
SCALE
  5
261
102
{ACAD_REACTORS
330
241
102
}
330
241
100
AcDbScale
 70
     0
300
6" = 1'-0"
140
6.0
141
12.0
290
     0
  0
SCALE
  5
262
102
{ACAD_REACTORS
330
241
102
}
330
241
100
AcDbScale
 70
     0
300
1'-0" = 1'-0"
140
12.0
141
12.0
290
     0
  0
TABLESTYLE
  5
279
102
{ACAD_REACTORS
330
278
102
}
102
{ACAD_XDICTIONARY
360
4DE7
102
}
330
278
100
AcDbTableStyle
  3
Standard
 70
     0
 71
     0
 40
0.06
 41
0.06
280
     0
281
     0
  7
Standard
140
4.5
170
     2
 62
     0
 63
   257
283
     0
 90
        4
 91
        0
  1

274
    -2
284
     1
 64
     0
275
    -2
285
     1
 65
     0
276
    -2
286
     1
 66
     0
277
    -2
287
     1
 67
     0
278
    -2
288
     1
 68
     0
279
    -2
289
     1
 69
     0
  7
Standard
140
6.0
170
     5
 62
     0
 63
   257
283
     0
 90
        4
 91
        0
  1

274
    -2
284
     1
 64
     0
275
    -2
285
     1
 65
     0
276
    -2
286
     1
 66
     0
277
    -2
287
     1
 67
     0
278
    -2
288
     1
 68
     0
279
    -2
289
     1
 69
     0
  7
Standard
140
4.5
170
     5
 62
     0
 63
   257
283
     0
 90
        4
 91
        0
  1

274
    -2
284
     1
 64
     0
275
    -2
285
     1
 65
     0
276
    -2
286
     1
 66
     0
277
    -2
287
     1
 67
     0
278
    -2
288
     1
 68
     0
279
    -2
289
     1
 69
     0
  0
VISUALSTYLE
  5
26C
102
{ACAD_REACTORS
330
267
102
}
330
267
100
AcDbVisualStyle
  2
2dWireframe
 70
     4
 71
     0
 72
     2
 73
     0
 90
        0
 40
-0.6
 41
-30.0
 62
     5
 63
     7
421
 16777215
 74
     1
 91
        4
 64
     7
 65
   257
 75
     1
175
     1
 42
1.0
 92
        0
 66
   257
 43
1.0
 76
     1
 77
     6
 78
     2
 67
     7
 79
     5
170
     0
171
     0
290
     0
174
     0
 93
        1
 44
0.0
173
     0
291
     0
 45
0.0
  0
VISUALSTYLE
  5
26E
102
{ACAD_REACTORS
330
267
102
}
330
267
100
AcDbVisualStyle
  2
3D Hidden
 70
     6
 71
     1
 72
     2
 73
     2
 90
        0
 40
-0.6
 41
-30.0
 62
     5
 63
     7
421
 16777215
 74
     2
 91
        2
 64
     7
 65
   257
 75
     2
175
     1
 42
40.0
 92
        0
 66
   257
 43
1.0
 76
     1
 77
     6
 78
     2
 67
     7
 79
     3
170
     0
171
     0
290
     0
174
     0
 93
        1
 44
0.0
173
     0
291
     0
 45
0.0
  0
VISUALSTYLE
  5
26D
102
{ACAD_REACTORS
330
267
102
}
330
267
100
AcDbVisualStyle
  2
3dWireframe
 70
     5
 71
     0
 72
     2
 73
     0
 90
        0
 40
-0.6
 41
-30.0
 62
     5
 63
     7
421
 16777215
 74
     1
 91
        4
 64
     7
 65
   257
 75
     1
175
     1
 42
1.0
 92
        0
 66
   257
 43
1.0
 76
     1
 77
     6
 78
     2
 67
     7
 79
     5
170
     0
171
     0
290
     0
174
     0
 93
        1
 44
0.0
173
     0
291
     0
 45
0.0
  0
VISUALSTYLE
  5
26F
102
{ACAD_REACTORS
330
267
102
}
330
267
100
AcDbVisualStyle
  2
Basic
 70
     7
 71
     1
 72
     0
 73
     1
 90
        0
 40
-0.6
 41
-30.0
 62
     5
 63
     7
421
 16777215
 74
     0
 91
        4
 64
     7
 65
   257
 75
     1
175
     1
 42
1.0
 92
        8
 66
     7
 43
1.0
 76
     1
 77
     6
 78
     2
 67
     7
 79
     5
170
     0
171
     0
290
     0
174
     0
 93
        1
 44
0.0
173
     0
291
     1
 45
0.0
  0
VISUALSTYLE
  5
273
102
{ACAD_REACTORS
330
267
102
}
330
267
100
AcDbVisualStyle
  2
Brighten
 70
    12
 71
     2
 72
     2
 73
     0
 90
        0
 40
-0.6
 41
-30.0
 62
     5
 63
     7
421
 16777215
 74
     1
 91
        4
 64
     7
 65
   257
 75
     1
175
     1
 42
1.0
 92
        8
 66
     7
 43
1.0
 76
     1
 77
     6
 78
     2
 67
     7
 79
     5
170
     0
171
     0
290
     0
174
     0
 93
        1
 44
50.0
173
     0
291
     1
 45
0.0
  0
VISUALSTYLE
  5
277
102
{ACAD_REACTORS
330
267
102
}
330
267
100
AcDbVisualStyle
  2
ColorChange
 70
    16
 71
     2
 72
     2
 73
     3
 90
        0
 40
-0.6
 41
-30.0
 62
     5
 63
     8
421
  8421504
 74
     1
 91
        4
 64
     7
 65
   257
 75
     1
175
     1
 42
1.0
 92
        8
 66
     8
424
  8421504
 43
1.0
 76
     1
 77
     6
 78
     2
 67
     7
 79
     5
170
     0
171
     0
290
     0
174
     0
 93
        1
 44
0.0
173
     0
291
     1
 45
0.0
  0
VISUALSTYLE
  5
271
102
{ACAD_REACTORS
330
267
102
}
330
267
100
AcDbVisualStyle
  2
Conceptual
 70
     9
 71
     3
 72
     2
 73
     0
 90
        0
 40
-0.6
 41
-30.0
 62
     5
 63
     7
421
 16777215
 74
     2
 91
        2
 64
     7
 65
   257
 75
     1
175
     1
 42
40.0
 92
        8
 66
     7
 43
1.0
 76
     1
 77
     6
 78
     2
 67
     7
 79
     3
170
     0
171
     0
290
     0
174
     0
 93
        1
 44
0.0
173
     0
291
     0
 45
0.0
  0
VISUALSTYLE
  5
272
102
{ACAD_REACTORS
330
267
102
}
330
267
100
AcDbVisualStyle
  2
Dim
 70
    11
 71
     2
 72
     2
 73
     0
 90
        0
 40
-0.6
 41
-30.0
 62
     5
 63
     7
421
 16777215
 74
     1
 91
        4
 64
     7
 65
   257
 75
     1
175
     1
 42
1.0
 92
        8
 66
     7
 43
1.0
 76
     1
 77
     6
 78
     2
 67
     7
 79
     5
170
     0
171
     0
290
     0
174
     0
 93
        1
 44
-50.0
173
     0
291
     1
 45
0.0
  0
VISUALSTYLE
  5
8FE
102
{ACAD_REACTORS
330
267
102
}
330
267
100
AcDbVisualStyle
  2
EdgeColorOff
 70
    22
 71
     2
 72
     2
 73
     0
 90
        0
 40
0.6
 41
30.0
 62
     5
 63
     7
421
 16777215
 74
     1
 91
        4
 64
     7
 65
   257
 75
     1
175
     1
 42
1.0
 92
        8
 66
     7
 43
1.0
 76
     1
 77
     6
 78
     2
 67
     7
 79
     5
170
     0
171
     0
290
     0
174
     0
 93
        1
 44
0.0
173
     0
291
     1
 45
0.0
  0
VISUALSTYLE
  5
276
102
{ACAD_REACTORS
330
267
102
}
330
267
100
AcDbVisualStyle
  2
Facepattern
 70
    15
 71
     2
 72
     2
 73
     0
 90
        0
 40
-0.6
 41
-30.0
 62
     5
 63
     7
421
 16777215
 74
     1
 91
        4
 64
     7
 65
   257
 75
     1
175
     1
 42
1.0
 92
        8
 66
     7
 43
1.0
 76
     1
 77
     6
 78
     2
 67
     7
 79
     5
170
     0
171
     0
290
     0
174
     0
 93
        1
 44
0.0
173
     0
291
     1
 45
0.0
  0
VISUALSTYLE
  5
268
102
{ACAD_REACTORS
330
267
102
}
330
267
100
AcDbVisualStyle
  2
Flat
 70
     0
 71
     2
 72
     1
 73
     1
 90
        2
 40
-0.6
 41
30.0
 62
     5
 63
     7
421
 16777215
 74
     0
 91
        4
 64
     7
 65
   257
 75
     1
175
     1
 42
1.0
 92
        8
 66
     7
 43
1.0
 76
     1
 77
     6
 78
     2
 67
     7
 79
     5
170
     0
171
     0
290
     0
174
     0
 93
       13
 44
0.0
173
     0
291
     1
 45
0.0
  0
VISUALSTYLE
  5
269
102
{ACAD_REACTORS
330
267
102
}
330
267
100
AcDbVisualStyle
  2
FlatWithEdges
 70
     1
 71
     2
 72
     1
 73
     1
 90
        2
 40
-0.6
 41
30.0
 62
     5
 63
     7
421
 16777215
 74
     1
 91
        4
 64
     7
 65
   257
 75
     1
175
     1
 42
1.0
 92
        0
 66
   257
 43
1.0
 76
     1
 77
     6
 78
     2
 67
     7
 79
     5
170
     0
171
     0
290
     0
174
     0
 93
       13
 44
0.0
173
     0
291
     1
 45
0.0
  0
VISUALSTYLE
  5
26A
102
{ACAD_REACTORS
330
267
102
}
330
267
100
AcDbVisualStyle
  2
Gouraud
 70
     2
 71
     2
 72
     2
 73
     1
 90
        2
 40
-0.6
 41
30.0
 62
     5
 63
     7
421
 16777215
 74
     0
 91
        4
 64
     7
 65
   257
 75
     1
175
     1
 42
1.0
 92
        0
 66
     7
 43
1.0
 76
     1
 77
     6
 78
     2
 67
     7
 79
     5
170
     0
171
     0
290
     0
174
     0
 93
       13
 44
0.0
173
     0
291
     1
 45
0.0
  0
VISUALSTYLE
  5
26B
102
{ACAD_REACTORS
330
267
102
}
330
267
100
AcDbVisualStyle
  2
GouraudWithEdges
 70
     3
 71
     2
 72
     2
 73
     1
 90
        2
 40
-0.6
 41
30.0
 62
     5
 63
     7
421
 16777215
 74
     1
 91
        4
 64
     7
 65
   257
 75
     1
175
     1
 42
1.0
 92
        0
 66
   257
 43
1.0
 76
     1
 77
     6
 78
     2
 67
     7
 79
     5
170
     0
171
     0
290
     0
174
     0
 93
       13
 44
0.0
173
     0
291
     1
 45
0.0
  0
VISUALSTYLE
  5
8FB
102
{ACAD_REACTORS
330
267
102
}
330
267
100
AcDbVisualStyle
  2
Hidden
 70
     6
 71
     1
 72
     2
 73
     2
 90
        0
 40
0.6
 41
30.0
 62
     5
 63
     7
421
 16777215
 74
     2
 91
        2
 64
     7
 65
   257
 75
     2
175
     1
 42
40.0
 92
        0
 66
   257
 43
1.0
 76
     1
 77
     6
 78
     2
 67
     7
 79
     3
170
     0
171
     0
290
     0
174
     0
 93
        1
 44
0.0
173
     0
291
     0
 45
0.0
  0
VISUALSTYLE
  5
8FC
102
{ACAD_REACTORS
330
267
102
}
330
267
100
AcDbVisualStyle
  2
JitterOff
 70
    20
 71
     2
 72
     2
 73
     0
 90
        0
 40
0.6
 41
30.0
 62
     5
 63
     7
421
 16777215
 74
     1
 91
        4
 64
     7
 65
   257
 75
     1
175
     1
 42
1.0
 92
       10
 66
     7
 43
1.0
 76
     1
 77
     6
 78
     2
 67
     7
 79
     5
170
     0
171
     0
290
     0
174
     0
 93
        1
 44
0.0
173
     0
291
     1
 45
0.0
  0
VISUALSTYLE
  5
275
102
{ACAD_REACTORS
330
267
102
}
330
267
100
AcDbVisualStyle
  2
Linepattern
 70
    14
 71
     2
 72
     2
 73
     0
 90
        0
 40
-0.6
 41
-30.0
 62
     5
 63
     7
421
 16777215
 74
     1
 91
        4
 64
     7
 65
   257
 75
     7
175
     7
 42
1.0
 92
        8
 66
     7
 43
1.0
 76
     1
 77
     6
 78
     2
 67
     7
 79
     5
170
     0
171
     0
290
     0
174
     0
 93
        1
 44
0.0
173
     0
291
     1
 45
0.0
  0
VISUALSTYLE
  5
8FD
102
{ACAD_REACTORS
330
267
102
}
330
267
100
AcDbVisualStyle
  2
OverhangOff
 70
    21
 71
     2
 72
     2
 73
     0
 90
        0
 40
0.6
 41
30.0
 62
     5
 63
     7
421
 16777215
 74
     1
 91
        4
 64
     7
 65
   257
 75
     1
175
     1
 42
1.0
 92
        9
 66
     7
 43
1.0
 76
     1
 77
     6
 78
     2
 67
     7
 79
     5
170
     0
171
     0
290
     0
174
     0
 93
        1
 44
0.0
173
     0
291
     1
 45
0.0
  0
VISUALSTYLE
  5
270
102
{ACAD_REACTORS
330
267
102
}
330
267
100
AcDbVisualStyle
  2
Realistic
 70
     8
 71
     2
 72
     2
 73
     0
 90
        0
 40
-0.6
 41
-30.0
 62
     5
 63
     7
421
 16777215
 74
     1
 91
        0
 64
     7
 65
   257
 75
     1
175
     1
 42
1.0
 92
        8
 66
     8
424
  7895160
 43
1.0
 76
     1
 77
     6
 78
     2
 67
     7
 79
     5
170
     0
171
     0
290
     0
174
     0
 93
       13
 44
0.0
173
     0
291
     0
 45
0.0
  0
VISUALSTYLE
  5
903
102
{ACAD_REACTORS
330
267
102
}
330
267
100
AcDbVisualStyle
  2
Shaded
 70
    27
 71
     2
 72
     2
 73
     1
 90
        2
 40
0.6
 41
30.0
 62
     5
 63
     7
421
 16777215
 74
     0
 91
        4
 64
     7
 65
   257
 75
     1
175
     1
 42
1.0
 92
        8
 66
   257
 43
1.0
 76
     1
 77
     6
 78
     2
 67
     8
425
  7895160
 79
     3
170
     0
171
     0
290
     0
174
     0
 93
        5
 44
0.0
173
     0
291
     0
 45
0.0
  0
VISUALSTYLE
  5
902
102
{ACAD_REACTORS
330
267
102
}
330
267
100
AcDbVisualStyle
  2
Shaded with edges
 70
    26
 71
     2
 72
     2
 73
     1
 90
        2
 40
0.6
 41
30.0
 62
     5
 63
     7
421
 16777215
 74
     1
 91
       10
 64
     7
 65
   257
 75
     2
175
     1
 42
1.0
 92
        8
 66
   257
 43
1.0
 76
     1
 77
     6
 78
     2
 67
     7
 79
     3
170
     0
171
     0
290
     0
174
     0
 93
        5
 44
0.0
173
     0
291
     0
 45
0.0
  0
VISUALSTYLE
  5
8FF
102
{ACAD_REACTORS
330
267
102
}
330
267
100
AcDbVisualStyle
  2
Shades of Gray
 70
    23
 71
     2
 72
     2
 73
     3
 90
        0
 40
0.6
 41
30.0
 62
     5
 63
     7
421
 16777215
 74
     2
 91
        2
 64
     7
 65
     7
 75
     1
175
     1
 42
40.0
 92
        8
 66
     7
 43
1.0
 76
     1
 77
     6
 78
     2
 67
     7
 79
     3
170
     0
171
     0
290
     0
174
     0
 93
        1
 44
0.0
173
     0
291
     0
 45
0.0
  0
VISUALSTYLE
  5
900
102
{ACAD_REACTORS
330
267
102
}
330
267
100
AcDbVisualStyle
  2
Sketchy
 70
    24
 71
     1
 72
     2
 73
     2
 90
        0
 40
0.6
 41
30.0
 62
     5
 63
     7
421
 16777215
 74
     2
 91
        2
 64
     7
 65
     7
 75
     1
175
     1
 42
40.0
 92
       11
 66
     7
 43
1.0
 76
     1
 77
     6
 78
     2
 67
     7
 79
     6
170
     0
171
     0
290
     0
174
     0
 93
        1
 44
0.0
173
     0
291
     0
 45
0.0
  0
VISUALSTYLE
  5
274
102
{ACAD_REACTORS
330
267
102
}
330
267
100
AcDbVisualStyle
  2
Thicken
 70
    13
 71
     2
 72
     2
 73
     0
 90
        0
 40
-0.6
 41
-30.0
 62
     5
 63
     7
421
 16777215
 74
     1
 91
        4
 64
     7
 65
   257
 75
     1
175
     1
 42
1.0
 92
       12
 66
     7
 43
1.0
 76
     1
 77
     6
 78
     2
 67
     7
 79
     5
170
     0
171
     0
290
     0
174
     0
 93
        1
 44
0.0
173
     0
291
     1
 45
0.0
  0
VISUALSTYLE
  5
8FA
102
{ACAD_REACTORS
330
267
102
}
330
267
100
AcDbVisualStyle
  2
Wireframe
 70
     5
 71
     0
 72
     2
 73
     0
 90
        0
 40
0.6
 41
30.0
 62
     5
 63
     7
421
 16777215
 74
     1
 91
        4
 64
     7
 65
   257
 75
     1
175
     1
 42
1.0
 92
        0
 66
   257
 43
1.0
 76
     1
 77
     6
 78
     2
 67
     7
 79
     3
170
     0
171
     0
290
     0
174
     0
 93
        1
 44
0.0
173
     0
291
     0
 45
0.0
  0
VISUALSTYLE
  5
901
102
{ACAD_REACTORS
330
267
102
}
330
267
100
AcDbVisualStyle
  2
X-Ray
 70
    25
 71
     2
 72
     2
 73
     1
 90
        1
 40
0.5
 41
30.0
 62
     5
 63
     7
421
 16777215
 74
     1
 91
        0
 64
     7
 65
   257
 75
     1
175
     1
 42
1.0
 92
        8
 66
     7
 43
1.0
 76
     1
 77
     6
 78
     2
 67
     7
 79
     3
170
     0
171
     0
290
     0
174
     0
 93
       13
 44
0.0
173
     0
291
     0
 45
0.0
  0
DICTIONARYVAR
  5
331
102
{ACAD_REACTORS
330
330
102
}
330
330
100
DictionaryVariables
280
     0
  1
1:1
  0
DICTIONARYVAR
  5
DB1
102
{ACAD_REACTORS
330
330
102
}
330
330
100
DictionaryVariables
280
     0
  1
Standard
  0
DICTIONARYVAR
  5
335
102
{ACAD_REACTORS
330
330
102
}
330
330
100
DictionaryVariables
280
     0
  1
Standard
  0
DICTIONARYVAR
  5
D52
102
{ACAD_REACTORS
330
330
102
}
330
330
100
DictionaryVariables
280
     0
  1
ByLayer
  0
DICTIONARYVAR
  5
896
102
{ACAD_REACTORS
330
330
102
}
330
330
100
DictionaryVariables
280
     0
  1
0
  0
DICTIONARYVAR
  5
ECE
102
{ACAD_REACTORS
330
E3E
102
}
330
E3E
100
DictionaryVariables
280
     0
  1
0.261799
  0
DICTIONARYVAR
  5
ECC
102
{ACAD_REACTORS
330
E3E
102
}
330
E3E
100
DictionaryVariables
280
     0
  1
0.400000
  0
DICTIONARYVAR
  5
ECD
102
{ACAD_REACTORS
330
E3E
102
}
330
E3E
100
DictionaryVariables
280
     0
  1
0.250000
  0
DICTIONARYVAR
  5
ECF
102
{ACAD_REACTORS
330
E3E
102
}
330
E3E
100
DictionaryVariables
280
     0
  1
1
  0
FIELD
  5
1467
102
{ACAD_REACTORS
330
41D5
102
}
330
41D5
100
AcDbField
  1
_text
  2
{%<\_FldIdx 0>%N}
 90
        1
360
146B
 97
        0
 91
       63
 92
        0
 94
       11
 95
        2
 96
        0
300

 93
        1
  6
ACFD_FIELDTEXT_CHECKSUM
 93
        2
 90
        2
140
4424.0
 94
        0
300

302

304
ACVALUE_END
  7
ACFD_FIELD_VALUE
 93
        6
 90
        4
  1
{20200210N}
 94
        0
300

302

304
ACVALUE_END
301
{20200210N}
 98
       11
  0
DICTIONARY
  5
4DE7
330
279
100
AcDbDictionary
280
     1
281
     1
  3
ACAD_ROUNDTRIP_2008_TABLESTYLE_CELLSTYLEMAP
360
4DE8
  0
FIELD
  5
146B
330
1467
100
AcDbField
  1
AcVar
  2
\AcVar Date \f "yyyyMMdd"
 90
        0
 97
        0
 91
       63
 92
        0
 94
        8
 95
       64
 96
        0
300
Variable not supported
 93
        1
  6
Variable
 93
        2
 90
        4
  1
Date
 94
        0
300

302

304
ACVALUE_END
  7
ACFD_FIELD_VALUE
 93
        6
 90
        8
 92
       16
310
E407020000000A000E00170032000000
 94
        0
300
yyyyMMdd
302

304
ACVALUE_END
301
20200210
 98
        8
  0
CELLSTYLEMAP
  5
4DE8
102
{ACAD_REACTORS
330
4DE7
102
}
330
4DE7
100
AcDbCellStyleMap
 90
        3
300
CELLSTYLE
  1
TABLEFORMAT_BEGIN
 90
        5
170
     1
 91
        0
 92
    32768
 62
   257
 93
        1
300
CONTENTFORMAT
  1
CONTENTFORMAT_BEGIN
 90
        0
 91
        0
 92
        4
 93
        0
300

 40
0.0
140
1.0
 94
        5
 62
     0
340
17
144
6.0
309
CONTENTFORMAT_END
171
     1
301
MARGIN
  1
CELLMARGIN_BEGIN
 40
0.06
 40
0.06
 40
0.06
 40
0.06
 40
0.18
 40
0.18
309
CELLMARGIN_END
 94
        6
 95
        1
302
GRIDFORMAT
  1
GRIDFORMAT_BEGIN
 90
        0
 91
        1
 62
     0
 92
       -2
340
0
 93
        0
 40
0.045
309
GRIDFORMAT_END
 95
        2
302
GRIDFORMAT
  1
GRIDFORMAT_BEGIN
 90
        0
 91
        1
 62
     0
 92
       -2
340
0
 93
        0
 40
0.045
309
GRIDFORMAT_END
 95
        4
302
GRIDFORMAT
  1
GRIDFORMAT_BEGIN
 90
        0
 91
        1
 62
     0
 92
       -2
340
0
 93
        0
 40
0.045
309
GRIDFORMAT_END
 95
        8
302
GRIDFORMAT
  1
GRIDFORMAT_BEGIN
 90
        0
 91
        1
 62
     0
 92
       -2
340
0
 93
        0
 40
0.045
309
GRIDFORMAT_END
 95
       16
302
GRIDFORMAT
  1
GRIDFORMAT_BEGIN
 90
        0
 91
        1
 62
     0
 92
       -2
340
0
 93
        0
 40
0.045
309
GRIDFORMAT_END
 95
       32
302
GRIDFORMAT
  1
GRIDFORMAT_BEGIN
 90
        0
 91
        1
 62
     0
 92
       -2
340
0
 93
        0
 40
0.045
309
GRIDFORMAT_END
309
TABLEFORMAT_END
  1
CELLSTYLE_BEGIN
 90
        1
 91
        1
300
_TITLE
309
CELLSTYLE_END
300
CELLSTYLE
  1
TABLEFORMAT_BEGIN
 90
        5
170
     1
 91
        0
 92
        0
 62
   257
 93
        1
300
CONTENTFORMAT
  1
CONTENTFORMAT_BEGIN
 90
        0
 91
        0
 92
        4
 93
        0
300

 40
0.0
140
1.0
 94
        5
 62
     0
340
17
144
4.5
309
CONTENTFORMAT_END
171
     1
301
MARGIN
  1
CELLMARGIN_BEGIN
 40
0.06
 40
0.06
 40
0.06
 40
0.06
 40
0.18
 40
0.18
309
CELLMARGIN_END
 94
        6
 95
        1
302
GRIDFORMAT
  1
GRIDFORMAT_BEGIN
 90
        0
 91
        1
 62
     0
 92
       -2
340
0
 93
        0
 40
0.045
309
GRIDFORMAT_END
 95
        2
302
GRIDFORMAT
  1
GRIDFORMAT_BEGIN
 90
        0
 91
        1
 62
     0
 92
       -2
340
0
 93
        0
 40
0.045
309
GRIDFORMAT_END
 95
        4
302
GRIDFORMAT
  1
GRIDFORMAT_BEGIN
 90
        0
 91
        1
 62
     0
 92
       -2
340
0
 93
        0
 40
0.045
309
GRIDFORMAT_END
 95
        8
302
GRIDFORMAT
  1
GRIDFORMAT_BEGIN
 90
        0
 91
        1
 62
     0
 92
       -2
340
0
 93
        0
 40
0.045
309
GRIDFORMAT_END
 95
       16
302
GRIDFORMAT
  1
GRIDFORMAT_BEGIN
 90
        0
 91
        1
 62
     0
 92
       -2
340
0
 93
        0
 40
0.045
309
GRIDFORMAT_END
 95
       32
302
GRIDFORMAT
  1
GRIDFORMAT_BEGIN
 90
        0
 91
        1
 62
     0
 92
       -2
340
0
 93
        0
 40
0.045
309
GRIDFORMAT_END
309
TABLEFORMAT_END
  1
CELLSTYLE_BEGIN
 90
        2
 91
        1
300
_HEADER
309
CELLSTYLE_END
300
CELLSTYLE
  1
TABLEFORMAT_BEGIN
 90
        5
170
     1
 91
        0
 92
        0
 62
   257
 93
        1
300
CONTENTFORMAT
  1
CONTENTFORMAT_BEGIN
 90
        0
 91
        0
 92
        4
 93
        0
300

 40
0.0
140
1.0
 94
        2
 62
     0
340
17
144
4.5
309
CONTENTFORMAT_END
171
     1
301
MARGIN
  1
CELLMARGIN_BEGIN
 40
0.06
 40
0.06
 40
0.06
 40
0.06
 40
0.18
 40
0.18
309
CELLMARGIN_END
 94
        6
 95
        1
302
GRIDFORMAT
  1
GRIDFORMAT_BEGIN
 90
        0
 91
        1
 62
     0
 92
       -2
340
0
 93
        0
 40
0.045
309
GRIDFORMAT_END
 95
        2
302
GRIDFORMAT
  1
GRIDFORMAT_BEGIN
 90
        0
 91
        1
 62
     0
 92
       -2
340
0
 93
        0
 40
0.045
309
GRIDFORMAT_END
 95
        4
302
GRIDFORMAT
  1
GRIDFORMAT_BEGIN
 90
        0
 91
        1
 62
     0
 92
       -2
340
0
 93
        0
 40
0.045
309
GRIDFORMAT_END
 95
        8
302
GRIDFORMAT
  1
GRIDFORMAT_BEGIN
 90
        0
 91
        1
 62
     0
 92
       -2
340
0
 93
        0
 40
0.045
309
GRIDFORMAT_END
 95
       16
302
GRIDFORMAT
  1
GRIDFORMAT_BEGIN
 90
        0
 91
        1
 62
     0
 92
       -2
340
0
 93
        0
 40
0.045
309
GRIDFORMAT_END
 95
       32
302
GRIDFORMAT
  1
GRIDFORMAT_BEGIN
 90
        0
 91
        1
 62
     0
 92
       -2
340
0
 93
        0
 40
0.045
309
GRIDFORMAT_END
309
TABLEFORMAT_END
  1
CELLSTYLE_BEGIN
 90
        3
 91
        2
300
_DATA
309
CELLSTYLE_END
  0
ENDSEC
  0
EOF
