  0
SECTION
  2
HEADER
  9
$ACADVER
  1
AC1021
  9
$ACADMAINTVER
 70
    25
  9
$DWGCODEPAGE
  3
ANSI_932
  9
$LASTSAVEDBY
  1
tform
  9
$INSBASE
 10
0.0
 20
0.0
 30
0.0
  9
$EXTMIN
 10
0.0
 20
0.0
 30
-0.0000000000000142
  9
$EXTMAX
 10
420.0
 20
594.0
 30
0.0000000000000071
  9
$LIMMIN
 10
0.0
 20
0.0
  9
$LIMMAX
 10
420.0
 20
594.0
  9
$ORTHOMODE
 70
     0
  9
$REGENMODE
 70
     1
  9
$FILLMODE
 70
     1
  9
$QTEXTMODE
 70
     0
  9
$MIRRTEXT
 70
     1
  9
$LTSCALE
 40
50.0
  9
$ATTMODE
 70
     1
  9
$TEXTSIZE
 40
2.5
  9
$TRACEWID
 40
1.0
  9
$TEXTSTYLE
  7
ＭＳ ゴシック
  9
$CLAYER
  8
MODEL
  9
$CELTYPE
  6
ByLayer
  9
$CECOLOR
 62
   256
  9
$CELTSCALE
 40
0.05
  9
$DISPSILH
 70
     0
  9
$DIMSCALE
 40
1.0
  9
$DIMASZ
 40
1.0
  9
$DIMEXO
 40
5.0
  9
$DIMDLI
 40
0.9999999999999999
  9
$DIMRND
 40
0.0
  9
$DIMDLE
 40
0.0
  9
$DIMEXE
 40
0.0
  9
$DIMTP
 40
0.0
  9
$DIMTM
 40
0.0
  9
$DIMTXT
 40
5.0
  9
$DIMCEN
 40
0.0
  9
$DIMTSZ
 40
0.0
  9
$DIMTOL
 70
     0
  9
$DIMLIM
 70
     0
  9
$DIMTIH
 70
     0
  9
$DIMTOH
 70
     0
  9
$DIMSE1
 70
     0
  9
$DIMSE2
 70
     0
  9
$DIMTAD
 70
     1
  9
$DIMZIN
 70
    11
  9
$DIMBLK
  1
DOT
  9
$DIMASO
 70
     1
  9
$DIMSHO
 70
     1
  9
$DIMPOST
  1
<>
  9
$DIMAPOST
  1
[]
  9
$DIMALT
 70
     0
  9
$DIMALTD
 70
     1
  9
$DIMALTF
 40
1.0
  9
$DIMLFAC
 40
1.0
  9
$DIMTOFL
 70
     0
  9
$DIMTVP
 40
0.0
  9
$DIMTIX
 70
     1
  9
$DIMSOXD
 70
     0
  9
$DIMSAH
 70
     0
  9
$DIMBLK1
  1

  9
$DIMBLK2
  1

  9
$DIMSTYLE
  2
tfrom線あり
  9
$DIMCLRD
 70
     0
  9
$DIMCLRE
 70
     0
  9
$DIMCLRT
 70
     0
  9
$DIMTFAC
 40
1.0
  9
$DIMGAP
 40
5.0
  9
$DIMJUST
 70
     0
  9
$DIMSD1
 70
     0
  9
$DIMSD2
 70
     0
  9
$DIMTOLJ
 70
     1
  9
$DIMTZIN
 70
    11
  9
$DIMALTZ
 70
    11
  9
$DIMALTTZ
 70
    11
  9
$DIMUPT
 70
     0
  9
$DIMDEC
 70
     0
  9
$DIMTDEC
 70
     1
  9
$DIMALTU
 70
     2
  9
$DIMALTTD
 70
     2
  9
$DIMTXSTY
  7
ＭＳ ゴシック
  9
$DIMAUNIT
 70
     0
  9
$DIMADEC
 70
     2
  9
$DIMALTRND
 40
0.0
  9
$DIMAZIN
 70
     0
  9
$DIMDSEP
 70
    46
  9
$DIMATFIT
 70
     0
  9
$DIMFRAC
 70
     2
  9
$DIMLDRBLK
  1
DOT
  9
$DIMLUNIT
 70
     2
  9
$DIMLWD
 70
    -2
  9
$DIMLWE
 70
    -2
  9
$DIMTMOVE
 70
     0
  9
$DIMFXL
 40
1.0
  9
$DIMFXLON
 70
     0
  9
$DIMJOGANG
 40
0.7853981633974483
  9
$DIMTFILL
 70
     0
  9
$DIMTFILLCLR
 70
     0
  9
$DIMARCSYM
 70
     0
  9
$DIMLTYPE
  6

  9
$DIMLTEX1
  6

  9
$DIMLTEX2
  6

  9
$LUNITS
 70
     2
  9
$LUPREC
 70
     0
  9
$SKETCHINC
 40
0.1
  9
$FILLETRAD
 40
0.0
  9
$AUNITS
 70
     0
  9
$AUPREC
 70
     0
  9
$MENU
  1
acad
  9
$ELEVATION
 40
0.0
  9
$PELEVATION
 40
0.0
  9
$THICKNESS
 40
0.0
  9
$LIMCHECK
 70
     0
  9
$CHAMFERA
 40
0.0
  9
$CHAMFERB
 40
0.0
  9
$CHAMFERC
 40
0.0
  9
$CHAMFERD
 40
0.0
  9
$SKPOLY
 70
     0
  9
$TDCREATE
 40
2447893.375
  9
$TDUCREATE
 40
0.0
  9
$TDUPDATE
 40
2460140.427361875
  9
$TDUUPDATE
 40
2460140.052361875
  9
$TDINDWG
 40
0.252833669
  9
$TDUSRTIMER
 40
0.0015116551
  9
$USRTIMER
 70
     1
  9
$ANGBASE
 50
0.0
  9
$ANGDIR
 70
     0
  9
$PDMODE
 70
     1
  9
$PDSIZE
 40
-2.0
  9
$PLINEWID
 40
0.0
  9
$SPLFRAME
 70
     0
  9
$SPLINETYPE
 70
     6
  9
$SPLINESEGS
 70
     8
  9
$HANDSEED
  5
4851
  9
$SURFTAB1
 70
     6
  9
$SURFTAB2
 70
     6
  9
$SURFTYPE
 70
     6
  9
$SURFU
 70
     6
  9
$SURFV
 70
     6
  9
$UCSBASE
  2

  9
$UCSNAME
  2

  9
$UCSORG
 10
0.0
 20
0.0
 30
0.0
  9
$UCSXDIR
 10
1.0
 20
0.0
 30
0.0
  9
$UCSYDIR
 10
0.0
 20
1.0
 30
0.0
  9
$UCSORTHOREF
  2

  9
$UCSORTHOVIEW
 70
     0
  9
$UCSORGTOP
 10
0.0
 20
0.0
 30
0.0
  9
$UCSORGBOTTOM
 10
0.0
 20
0.0
 30
0.0
  9
$UCSORGLEFT
 10
0.0
 20
0.0
 30
0.0
  9
$UCSORGRIGHT
 10
0.0
 20
0.0
 30
0.0
  9
$UCSORGFRONT
 10
0.0
 20
0.0
 30
0.0
  9
$UCSORGBACK
 10
0.0
 20
0.0
 30
0.0
  9
$PUCSBASE
  2

  9
$PUCSNAME
  2

  9
$PUCSORG
 10
0.0
 20
0.0
 30
0.0
  9
$PUCSXDIR
 10
1.0
 20
0.0
 30
0.0
  9
$PUCSYDIR
 10
0.0
 20
1.0
 30
0.0
  9
$PUCSORTHOREF
  2

  9
$PUCSORTHOVIEW
 70
     0
  9
$PUCSORGTOP
 10
0.0
 20
0.0
 30
0.0
  9
$PUCSORGBOTTOM
 10
0.0
 20
0.0
 30
0.0
  9
$PUCSORGLEFT
 10
0.0
 20
0.0
 30
0.0
  9
$PUCSORGRIGHT
 10
0.0
 20
0.0
 30
0.0
  9
$PUCSORGFRONT
 10
0.0
 20
0.0
 30
0.0
  9
$PUCSORGBACK
 10
0.0
 20
0.0
 30
0.0
  9
$USERI1
 70
     0
  9
$USERI2
 70
     0
  9
$USERI3
 70
     0
  9
$USERI4
 70
     0
  9
$USERI5
 70
     0
  9
$USERR1
 40
0.0
  9
$USERR2
 40
0.0
  9
$USERR3
 40
0.0
  9
$USERR4
 40
0.0
  9
$USERR5
 40
0.0
  9
$WORLDVIEW
 70
     1
  9
$SHADEDGE
 70
     3
  9
$SHADEDIF
 70
    70
  9
$TILEMODE
 70
     1
  9
$MAXACTVP
 70
    64
  9
$PINSBASE
 10
0.0
 20
0.0
 30
0.0
  9
$PLIMCHECK
 70
     0
  9
$PEXTMIN
 10
0.0
 20
0.0
 30
0.0
  9
$PEXTMAX
 10
0.0
 20
0.0
 30
0.0
  9
$PLIMMIN
 10
-7.5
 20
-20.0
  9
$PLIMMAX
 10
412.5
 20
277.0
  9
$UNITMODE
 70
     0
  9
$VISRETAIN
 70
     0
  9
$PLINEGEN
 70
     1
  9
$PSLTSCALE
 70
     0
  9
$TREEDEPTH
 70
  3020
  9
$CMLSTYLE
  2
Standard
  9
$CMLJUST
 70
     0
  9
$CMLSCALE
 40
1.0
  9
$PROXYGRAPHICS
 70
     0
  9
$MEASUREMENT
 70
     1
  9
$CELWEIGHT
370
    -1
  9
$ENDCAPS
280
     0
  9
$JOINSTYLE
280
     0
  9
$LWDISPLAY
290
     1
  9
$INSUNITS
 70
     4
  9
$HYPERLINKBASE
  1

  9
$STYLESHEET
  1

  9
$XEDIT
290
     1
  9
$CEPSNTYPE
380
     0
  9
$PSTYLEMODE
290
     1
  9
$FINGERPRINTGUID
  2

  9
$VERSIONGUID
  2

  9
$EXTNAMES
290
     1
  9
$PSVPSCALE
 40
0.0
  9
$OLESTARTUP
290
     0
  9
$SORTENTS
280
   127
  9
$INDEXCTL
280
     0
  9
$HIDETEXT
280
     1
  9
$XCLIPFRAME
290
     0
  9
$HALOGAP
280
     0
  9
$OBSCOLOR
 70
   257
  9
$OBSLTYPE
280
     0
  9
$INTERSECTIONDISPLAY
280
     0
  9
$INTERSECTIONCOLOR
 70
   257
  9
$DIMASSOC
280
     2
  9
$PROJECTNAME
  1

  9
$CAMERADISPLAY
290
     0
  9
$LENSLENGTH
 40
50.0
  9
$CAMERAHEIGHT
 40
0.0
  9
$STEPSPERSEC
 40
2.0
  9
$STEPSIZE
 40
6.0
  9
$3DDWFPREC
 40
2.0
  9
$PSOLWIDTH
 40
0.25
  9
$PSOLHEIGHT
 40
4.0
  9
$LOFTANG1
 40
1.570796326794897
  9
$LOFTANG2
 40
1.570796326794897
  9
$LOFTMAG1
 40
0.0
  9
$LOFTMAG2
 40
0.0
  9
$LOFTPARAM
 70
     7
  9
$LOFTNORMALS
280
     1
  9
$LATITUDE
 40
37.795
  9
$LONGITUDE
 40
-122.394
  9
$NORTHDIRECTION
 40
0.0
  9
$TIMEZONE
 70
 -8000
  9
$LIGHTGLYPHDISPLAY
280
     1
  9
$TILEMODELIGHTSYNCH
280
     1
  9
$SOLIDHIST
280
     1
  9
$SHOWHIST
280
     1
  9
$DWFFRAME
280
     2
  9
$DGNFRAME
280
     2
  9
$REALWORLDSCALE
290
     1
  9
$INTERFERECOLOR
 62
   256
  9
$CSHADOW
280
     0
  9
$SHADOWPLANELOCATION
 40
0.0
  0
ENDSEC
  0
SECTION
  2
CLASSES
  0
CLASS
  1
LWPOLYLINE
  2
AcDbPolyline
  3
ObjectDBX Classes
 90
        0
 91
        1
280
     0
281
     1
  0
CLASS
  1
IMAGE
  2
AcDbRasterImage
  3
ISM
 90
      127
 91
        4
280
     0
281
     1
  0
CLASS
  1
OLE2FRAME
  2
AcDbOle2Frame
  3
ObjectDBX Classes
 90
        0
 91
        1
280
     0
281
     1
  0
CLASS
  1
HATCH
  2
AcDbHatch
  3
ObjectDBX Classes
 90
        0
 91
        1
280
     0
281
     1
  0
CLASS
  1
DICTIONARYVAR
  2
AcDbDictionaryVar
  3
ObjectDBX Classes
 90
        0
 91
        3
280
     0
281
     0
  0
CLASS
  1
RASTERVARIABLES
  2
AcDbRasterVariables
  3
ISM
 90
        0
 91
        3
280
     0
281
     0
  0
CLASS
  1
IMAGEDEF
  2
AcDbRasterImageDef
  3
ISM
 90
        0
 91
        3
280
     0
281
     0
  0
CLASS
  1
IMAGEDEF_REACTOR
  2
AcDbRasterImageDefReactor
  3
ISM
 90
        1
 91
        3
280
     0
281
     0
  0
CLASS
  1
IDBUFFER
  2
AcDbIdBuffer
  3
ObjectDBX Classes
 90
        0
 91
        3
280
     0
281
     0
  0
CLASS
  1
SPATIAL_FILTER
  2
AcDbSpatialFilter
  3
ObjectDBX Classes
 90
        0
 91
        3
280
     0
281
     0
  0
CLASS
  1
XRECORD
  2
AcDbXrecord
  3
ObjectDBX Classes
 90
        0
 91
        1
280
     0
281
     0
  0
CLASS
  1
SORTENTSTABLE
  2
AcDbSortentsTable
  3
ObjectDBX Classes
 90
        0
 91
        3
280
     0
281
     0
  0
CLASS
  1
LAYER_INDEX
  2
AcDbLayerIndex
  3
ObjectDBX Classes
 90
        0
 91
        3
280
     0
281
     0
  0
CLASS
  1
SPATIAL_INDEX
  2
AcDbSpatialIndex
  3
AutoCAD 2000
 90
        0
 91
        3
280
     0
281
     0
  0
CLASS
  1
OBJECT_PTR
  2
CAseDLPNTableRecord
  3
ASE-LPNTableRecord
 90
        1
 91
        3
280
     0
281
     0
  0
CLASS
  1
LAYOUT
  2
AcDbLayout
  3
ObjectDBX Classes
 90
        0
 91
        1
280
     0
281
     0
  0
CLASS
  1
PLOTSETTINGS
  2
AcDbPlotSettings
  3
ObjectDBX Classes
 90
        0
 91
        3
280
     0
281
     0
  0
CLASS
  1
ACDBDICTIONARYWDFLT
  2
AcDbDictionaryWithDefault
  3
ObjectDBX Classes
 90
        0
 91
        3
280
     0
281
     0
  0
CLASS
  1
ACDBPLACEHOLDER
  2
AcDbPlaceHolder
  3
ObjectDBX Classes
 90
        0
 91
        1
280
     0
281
     0
  0
CLASS
  1
SCALE
  2
AcDbScale
  3
ObjectDBX Classes
 90
     1153
 91
        3
280
     0
281
     0
  0
CLASS
  1
MATERIAL
  2
AcDbMaterial
  3
ObjectDBX Classes
 90
     1153
 91
        3
280
     0
281
     0
  0
CLASS
  1
VISUALSTYLE
  2
AcDbVisualStyle
  3
ObjectDBX Classes
 90
     4095
 91
        3
280
     0
281
     0
  0
CLASS
  1
TABLESTYLE
  2
AcDbTableStyle
  3
ObjectDBX Classes
 90
     4095
 91
        3
280
     0
281
     0
  0
CLASS
  1
DIMASSOC
  2
AcDbDimAssoc
  3
"AcDbDimAssoc|Product Desc:     AcDim ARX App For Dimension|Company:          Autodesk, Inc.|WEB Address:      www.autodesk.com"
 90
        0
 91
        3
280
     0
281
     0
  0
CLASS
  1
CELLSTYLEMAP
  2
AcDbCellStyleMap
  3
ObjectDBX Classes
 90
     1152
 91
        3
280
     0
281
     0
  0
CLASS
  1
SUN
  2
AcDbSun
  3
SCENEOE
 90
     1153
 91
        3
280
     0
281
     0
  0
CLASS
  1
MLEADERSTYLE
  2
AcDbMLeaderStyle
  3
ACDB_MLEADERSTYLE_CLASS
 90
     4095
 91
        3
280
     0
281
     0
  0
CLASS
  1
FIELD
  2
AcDbField
  3
ObjectDBX Classes
 90
     1152
 91
        3
280
     0
281
     0
  0
CLASS
  1
FIELDLIST
  2
AcDbFieldList
  3
ObjectDBX Classes
 90
     1152
 91
        3
280
     0
281
     0
  0
ENDSEC
  0
SECTION
  2
TABLES
  0
TABLE
  2
VPORT
  5
7
330
0
100
AcDbSymbolTable
 70
     1
  0
VPORT
  5
15
330
7
100
AcDbSymbolTableRecord
100
AcDbViewportTableRecord
  2
*ACTIVE
 70
     0
 10
0.0
 20
0.0
 11
1.0
 21
1.0
 12
301.0201356709077
 22
223.401285469834
 13
0.0
 23
0.0
 14
1.0
 24
1.0
 15
0.0
 25
0.0
 16
0.0
 26
0.0
 36
1.0
 17
-91.02013567090768
 27
73.59871453016603
 37
-46.86809886248109
 40
605.88
 41
2.120713305898491
 42
50.0
 43
0.0
 44
0.0
 50
0.0
 51
0.0
 71
    16
 72
  2000
 73
     1
 74
     1
 75
     0
 76
     0
 77
     0
 78
     0
281
     0
 65
     1
110
0.0
120
0.0
130
0.0
111
1.0
121
0.0
131
0.0
112
0.0
122
1.0
132
0.0
 79
     0
146
0.0
348
26C
 60
     3
 61
     5
292
     1
282
     1
141
0.0
142
0.0
 63
   256
361
904
  0
ENDTAB
  0
TABLE
  2
LTYPE
  5
4
330
0
100
AcDbSymbolTable
 70
     4
  0
LTYPE
  5
11
330
4
100
AcDbSymbolTableRecord
100
AcDbLinetypeTableRecord
  2
ByBlock
 70
     0
  3

 72
    65
 73
     0
 40
0.0
  0
LTYPE
  5
12
330
4
100
AcDbSymbolTableRecord
100
AcDbLinetypeTableRecord
  2
ByLayer
 70
     0
  3

 72
    65
 73
     0
 40
0.0
  0
LTYPE
  5
13
330
4
100
AcDbSymbolTableRecord
100
AcDbLinetypeTableRecord
  2
Continuous
 70
     0
  3
Solid line
 72
    65
 73
     0
 40
0.0
  0
LTYPE
  5
D6C
330
4
100
AcDbSymbolTableRecord
100
AcDbLinetypeTableRecord
  2
BORDER
 70
     0
  3
Border __  __  . __  __  . __  __  . __  __  . 
 72
    65
 73
     6
 40
44.45
 49
12.7
 74
     0
 49
-6.35
 74
     0
 49
12.7
 74
     0
 49
-6.35
 74
     0
 49
0.0
 74
     0
 49
-6.35
 74
     0
  0
LTYPE
  5
1638
330
4
100
AcDbSymbolTableRecord
100
AcDbLinetypeTableRecord
  2
HIDDEN2
 70
     0
  3
Hidden (.5x) _ _ _ _ _ _ _ _ _ _ _ _ _ _ _ _ _ 
 72
    65
 73
     2
 40
4.7625
 49
3.175
 74
     4
 75
     0
340
0
 46
0.0
 50
0.0
 44
0.0
 45
0.0
 49
-1.5875
 74
     4
 75
     0
340
0
 46
0.0
 50
0.0
 44
0.0
 45
0.0
  0
LTYPE
  5
476A
330
4
100
AcDbSymbolTableRecord
100
AcDbLinetypeTableRecord
  2
HIDDEN
 70
     0
  3
Hidden _ _ _ _ _ _ _ _ _ _ _ _ _ _ _ _ _ _ _ _ 
 72
    65
 73
     2
 40
9.524999999999999
 49
6.35
 74
     0
 49
-3.175
 74
     0
  0
ENDTAB
  0
TABLE
  2
LAYER
  5
2
102
{ACAD_XDICTIONARY
360
2E1
102
}
330
0
100
AcDbSymbolTable
 70
     9
  0
LAYER
  5
14
330
2
100
AcDbSymbolTableRecord
100
AcDbLayerTableRecord
  2
0
 70
     0
 62
     7
  6
Continuous
370
    -3
390
1D
347
266
  0
LAYER
  5
4B
330
2
100
AcDbSymbolTableRecord
100
AcDbLayerTableRecord
  2
TEMPLATE
 70
     0
 62
     7
  6
Continuous
370
    20
390
1D
347
266
  0
LAYER
  5
4C
330
2
100
AcDbSymbolTableRecord
100
AcDbLayerTableRecord
  2
DIM
 70
     0
 62
     3
  6
Continuous
370
    13
390
1D
347
266
  0
LAYER
  5
4D
330
2
100
AcDbSymbolTableRecord
100
AcDbLayerTableRecord
  2
MODEL
 70
     0
 62
     7
  6
Continuous
370
    20
390
1D
347
266
  0
LAYER
  5
667
330
2
100
AcDbSymbolTableRecord
100
AcDbLayerTableRecord
  2
LOGO
 70
     0
 62
     7
  6
Continuous
370
    -3
390
1D
347
266
  0
LAYER
  5
D6B
330
2
100
AcDbSymbolTableRecord
100
AcDbLayerTableRecord
  2
BORDER
 70
     0
 62
     4
  6
BORDER
290
     0
370
    20
390
1D
347
266
1001
AcAecLayerStandard
1000

1000

  0
LAYER
  5
D8C
330
2
100
AcDbSymbolTableRecord
100
AcDbLayerTableRecord
  2
Defpoints
 70
     0
 62
     7
  6
Continuous
290
     0
370
    -3
390
1D
347
266
  0
LAYER
  5
1635
330
2
100
AcDbSymbolTableRecord
100
AcDbLayerTableRecord
  2
Standard
 70
     0
 62
     7
  6
Continuous
370
    -3
390
1D
347
266
  0
LAYER
  5
3445
330
2
100
AcDbSymbolTableRecord
100
AcDbLayerTableRecord
  2
Layer50
 70
     0
 62
     7
  6
Continuous
370
    -3
390
1D
347
266
  0
ENDTAB
  0
TABLE
  2
STYLE
  5
3
330
0
100
AcDbSymbolTable
 70
     3
  0
STYLE
  5
17
330
3
100
AcDbSymbolTableRecord
100
AcDbTextStyleTableRecord
  2
Standard
 70
     0
 40
0.0
 41
1.0
 50
0.0
 71
     0
 42
2.5
  3
txt
  4
BIGFONT.SHX
  0
STYLE
  5
39
330
3
100
AcDbSymbolTableRecord
100
AcDbTextStyleTableRecord
  2
ＭＳ ゴシック
 70
     0
 40
0.0
 41
1.0
 50
0.0
 71
     0
 42
2.5
  3
msgothic.ttc
  4
ＭＳ ゴシック
1001
ACAD
1000
ＭＳ ゴシック
1071
        0
  0
STYLE
  5
4830
330
3
100
AcDbSymbolTableRecord
100
AcDbTextStyleTableRecord
  2
SEACAD_arial_ttf
 70
     0
 40
0.0
 41
1.0
 50
0.0
 71
     0
 42
2.5
  3
arial.ttf
  4

  0
ENDTAB
  0
TABLE
  2
VIEW
  5
5
330
0
100
AcDbSymbolTable
 70
     0
  0
ENDTAB
  0
TABLE
  2
UCS
  5
6
330
0
100
AcDbSymbolTable
 70
     0
  0
ENDTAB
  0
TABLE
  2
APPID
  5
8
330
0
100
AcDbSymbolTable
 70
     4
  0
APPID
  5
16
330
8
100
AcDbSymbolTableRecord
100
AcDbRegAppTableRecord
  2
ACAD
 70
     0
  0
APPID
  5
7AC
330
8
100
AcDbSymbolTableRecord
100
AcDbRegAppTableRecord
  2
AcAecLayerStandard
 70
     0
  0
APPID
  5
E29
330
8
100
AcDbSymbolTableRecord
100
AcDbRegAppTableRecord
  2
ACAD_MLEADERVER
 70
     0
  0
APPID
  5
484A
330
8
100
AcDbSymbolTableRecord
100
AcDbRegAppTableRecord
  2
PLOTTRANSPARENCY
 70
     0
  0
ENDTAB
  0
TABLE
  2
DIMSTYLE
  5
9
330
0
100
AcDbSymbolTable
 70
     5
100
AcDbDimStyleTable
  0
DIMSTYLE
105
18
330
9
100
AcDbSymbolTableRecord
100
AcDbDimStyleTableRecord
  2
Standard
 70
     0
178
     0
340
17
  0
DIMSTYLE
105
57
102
{ACAD_REACTORS
330
3833
330
3834
330
3932
330
4685
330
46DB
330
47B7
330
47C4
330
47E8
102
}
330
9
100
AcDbSymbolTableRecord
100
AcDbDimStyleTableRecord
  2
tfrom線あり
 70
     0
  3
<>
  4
[]
 41
1.0
 42
5.0
 43
0.9999999999999999
 44
0.0
 73
     0
 74
     0
 77
     1
 78
    11
140
5.0
141
0.0
143
1.0
147
5.0
171
     1
174
     1
178
     0
179
     2
271
     0
272
     1
276
     2
284
    11
285
    11
286
    11
289
     0
340
39
341
4E
342
4E
  0
DIMSTYLE
105
482D
330
9
100
AcDbSymbolTableRecord
100
AcDbDimStyleTableRecord
  2
ISO-25
 70
     0
 41
2.5
 42
0.625
 43
3.75
 44
1.25
 73
     0
 74
     0
 77
     1
 78
     8
140
2.5
141
2.5
143
0.0393700787
147
0.625
171
     3
172
     1
178
     0
271
     2
272
     2
274
     3
278
    44
283
     0
284
     8
340
17
  0
DIMSTYLE
105
482F
330
9
100
AcDbSymbolTableRecord
100
AcDbDimStyleTableRecord
  2
$DDT_AUDIT_GENERATED_(47F)
 70
     0
 41
6.0
 42
0.0
 44
3.0
 78
     8
140
6.0
141
3.0
144
4.0
147
3.0
173
     1
176
   136
177
   136
271
     0
178
   136
271
     0
272
     0
278
    44
284
     8
340
4830
343
4831
344
4831
  0
DIMSTYLE
105
4837
330
9
100
AcDbSymbolTableRecord
100
AcDbDimStyleTableRecord
  2
tform線あり
 70
     0
  3
<>
  4
[]
 41
9.999389648437498
 42
25.0
 43
0.9999999999999999
 44
0.0
 73
     0
 74
     0
 77
     1
 78
    11
140
24.4326171875
141
0.0
143
1.0
146
0.8
147
0.4999999999999999
171
     1
172
     1
174
     1
178
     0
179
     2
271
     1
272
     1
276
     2
284
    11
285
    11
286
    11
289
     0
340
39
341
4E
342
4E
  0
ENDTAB
  0
TABLE
  2
BLOCK_RECORD
  5
1
330
0
100
AcDbSymbolTable
 70
    17
  0
BLOCK_RECORD
  5
A
330
1
100
AcDbSymbolTableRecord
100
AcDbBlockTableRecord
  2
*MODEL_SPACE
340
20
 70
     0
280
     1
281
     0
  0
BLOCK_RECORD
  5
B
330
1
100
AcDbSymbolTableRecord
100
AcDbBlockTableRecord
  2
*PAPER_SPACE
340
21
 70
     0
280
     1
281
     0
  0
BLOCK_RECORD
  5
4E
330
1
100
AcDbSymbolTableRecord
100
AcDbBlockTableRecord
  2
_DOT
340
0
102
{BLKREFS
331
3873
331
3874
331
3880
331
3881
331
3939
331
393A
331
468C
331
468D
331
46E2
331
46E3
331
4799
331
479A
331
47AE
331
47AF
331
47BE
331
47BF
331
47CD
331
47CE
331
47EF
331
47F0
102
}
 70
     0
280
     1
281
     0
  0
BLOCK_RECORD
  5
68A
330
1
100
AcDbSymbolTableRecord
100
AcDbBlockTableRecord
  2
名称未設定-1
340
0
102
{BLKREFS
331
6B5
102
}
 70
     1
280
     1
281
     0
  0
BLOCK_RECORD
  5
68D
330
1
100
AcDbSymbolTableRecord
100
AcDbBlockTableRecord
  2
block 2
340
0
102
{BLKREFS
331
68C
331
1343
102
}
 70
     0
280
     1
281
     0
  0
BLOCK_RECORD
  5
690
330
1
100
AcDbSymbolTableRecord
100
AcDbBlockTableRecord
  2
block 3
340
0
102
{BLKREFS
331
68F
102
}
 70
     0
280
     1
281
     0
  0
BLOCK_RECORD
  5
693
330
1
100
AcDbSymbolTableRecord
100
AcDbBlockTableRecord
  2
block 4
340
0
102
{BLKREFS
331
692
102
}
 70
     0
280
     1
281
     0
  0
BLOCK_RECORD
  5
6A2
330
1
100
AcDbSymbolTableRecord
100
AcDbBlockTableRecord
  2
block 5
340
0
102
{BLKREFS
331
6A1
102
}
 70
     0
280
     1
281
     0
  0
BLOCK_RECORD
  5
386D
330
1
100
AcDbSymbolTableRecord
100
AcDbBlockTableRecord
  2
*D6
340
0
 70
     0
280
     1
281
     0
  0
BLOCK_RECORD
  5
387A
330
1
100
AcDbSymbolTableRecord
100
AcDbBlockTableRecord
  2
*D7
340
0
 70
     0
280
     1
281
     0
  0
BLOCK_RECORD
  5
3933
330
1
100
AcDbSymbolTableRecord
100
AcDbBlockTableRecord
  2
*D8
340
0
 70
     0
280
     1
281
     0
  0
BLOCK_RECORD
  5
4686
330
1
100
AcDbSymbolTableRecord
100
AcDbBlockTableRecord
  2
*D9
340
0
 70
     0
280
     1
281
     0
  0
BLOCK_RECORD
  5
46DC
330
1
100
AcDbSymbolTableRecord
100
AcDbBlockTableRecord
  2
*D10
340
0
 70
     0
280
     1
281
     0
  0
BLOCK_RECORD
  5
4794
330
1
100
AcDbSymbolTableRecord
100
AcDbBlockTableRecord
  2
*D11
340
0
 70
     0
280
     1
281
     0
  0
BLOCK_RECORD
  5
47A8
330
1
100
AcDbSymbolTableRecord
100
AcDbBlockTableRecord
  2
*D12
340
0
 70
     0
280
     1
281
     0
  0
BLOCK_RECORD
  5
47B8
330
1
100
AcDbSymbolTableRecord
100
AcDbBlockTableRecord
  2
*D13
340
0
 70
     0
280
     1
281
     0
  0
BLOCK_RECORD
  5
47C7
330
1
100
AcDbSymbolTableRecord
100
AcDbBlockTableRecord
  2
*D14
340
0
 70
     0
280
     1
281
     0
  0
BLOCK_RECORD
  5
47E9
330
1
100
AcDbSymbolTableRecord
100
AcDbBlockTableRecord
  2
*D15
340
0
 70
     0
280
     1
281
     0
  0
BLOCK_RECORD
  5
4831
330
1
100
AcDbSymbolTableRecord
100
AcDbBlockTableRecord
  2
_SE_FILLED
340
0
 70
     0
280
     1
281
     0
1001
ACAD
1000
DesignCenter Data
1002
{
1070
     1
1070
     0
1002
}
  0
ENDTAB
  0
ENDSEC
  0
SECTION
  2
BLOCKS
  0
BLOCK
  5
D
330
A
100
AcDbEntity
  8
0
390
1D
100
AcDbBlockBegin
  2
*MODEL_SPACE
 70
     0
 10
0.0
 20
0.0
 30
0.0
  3
*MODEL_SPACE
  1
*MODEL_SPACE
  0
ENDBLK
  5
E
330
A
100
AcDbEntity
  8
0
390
1D
100
AcDbBlockEnd
  0
BLOCK
  5
F
330
B
100
AcDbEntity
 67
     1
  8
0
390
1D
100
AcDbBlockBegin
  2
*PAPER_SPACE
 70
     0
 10
0.0
 20
0.0
 30
0.0
  3
*PAPER_SPACE
  1
*PAPER_SPACE
  0
ENDBLK
  5
10
330
B
100
AcDbEntity
 67
     1
  8
0
390
1D
100
AcDbBlockEnd
  0
BLOCK
  5
38A8
330
4E
100
AcDbEntity
  8
0
390
1D
100
AcDbBlockBegin
  2
_DOT
 70
     0
 10
0.0
 20
0.0
 30
0.0
  3
_DOT
  1
_DOT
  0
POLYLINE
  5
38AA
330
4E
100
AcDbEntity
  8
0
  6
ByBlock
 62
     0
370
    -2
390
1D
100
AcDb2dPolyline
 66
     1
 10
0.0
 20
0.0
 30
0.0
 70
     1
 40
0.5
 41
0.5
  0
VERTEX
  5
38AB
330
38AA
100
AcDbEntity
  8
0
  6
ByBlock
 62
     0
370
    -2
390
1D
100
AcDbVertex
100
AcDb2dVertex
 10
-0.25
 20
0.0
 30
0.0
 42
1.0
  0
VERTEX
  5
38AC
330
38AA
100
AcDbEntity
  8
0
  6
ByBlock
 62
     0
370
    -2
390
1D
100
AcDbVertex
100
AcDb2dVertex
 10
0.25
 20
0.0
 30
0.0
 42
1.0
  0
SEQEND
  5
38AD
330
38AA
100
AcDbEntity
  8
0
390
1D
  0
LINE
  5
38AE
330
4E
100
AcDbEntity
  8
0
  6
ByBlock
 62
     0
370
    -2
390
1D
100
AcDbLine
 10
-0.5
 20
0.0
 30
0.0
 11
-1.0
 21
0.0
 31
0.0
  0
ENDBLK
  5
38AF
330
4E
100
AcDbEntity
  8
0
390
1D
100
AcDbBlockEnd
  0
BLOCK
  5
68B
330
68A
100
AcDbEntity
  8
0
100
AcDbBlockBegin
  2
名称未設定-1
 70
     0
 10
0.0
 20
0.0
 30
0.0
  3
名称未設定-1
  1
名称未設定-1
  0
INSERT
  5
68F
330
68A
100
AcDbEntity
  8
LOGO
100
AcDbBlockReference
  2
block 3
 10
0.0
 20
0.0
 30
0.0
  0
ENDBLK
  5
6B1
330
68A
100
AcDbEntity
  8
0
100
AcDbBlockEnd
  0
BLOCK
  5
68E
330
68D
100
AcDbEntity
  8
0
100
AcDbBlockBegin
  2
block 2
 70
     0
 10
0.0
 20
0.0
 30
0.0
  3
block 2
  1
block 2
  0
ENDBLK
  5
6B0
330
68D
100
AcDbEntity
  8
0
100
AcDbBlockEnd
  0
BLOCK
  5
691
330
690
100
AcDbEntity
  8
0
100
AcDbBlockBegin
  2
block 3
 70
     0
 10
0.0
 20
0.0
 30
0.0
  3
block 3
  1
block 3
  0
INSERT
  5
692
330
690
100
AcDbEntity
  8
LOGO
100
AcDbBlockReference
  2
block 4
 10
0.0
 20
0.0
 30
0.0
  0
INSERT
  5
6A1
330
690
100
AcDbEntity
  8
LOGO
100
AcDbBlockReference
  2
block 5
 10
0.0
 20
0.0
 30
0.0
  0
ENDBLK
  5
6AF
330
690
100
AcDbEntity
  8
0
100
AcDbBlockEnd
  0
BLOCK
  5
694
330
693
100
AcDbEntity
  8
0
100
AcDbBlockBegin
  2
block 4
 70
     0
 10
0.0
 20
0.0
 30
0.0
  3
block 4
  1
block 4
  0
POLYLINE
  5
695
330
693
100
AcDbEntity
  8
LOGO
370
     0
100
AcDb2dPolyline
 66
     1
 10
0.0
 20
0.0
 30
0.0
  0
VERTEX
  5
696
330
695
100
AcDbEntity
  8
LOGO
370
     0
100
AcDbVertex
100
AcDb2dVertex
 10
83.79545727667795
 20
167.6444858234922
 30
0.0
  0
VERTEX
  5
697
330
695
100
AcDbEntity
  8
LOGO
370
     0
100
AcDbVertex
100
AcDb2dVertex
 10
83.79545727667795
 20
159.7968976406313
 30
0.0
  0
VERTEX
  5
698
330
695
100
AcDbEntity
  8
LOGO
370
     0
100
AcDbVertex
100
AcDb2dVertex
 10
71.3631329975216
 20
159.7968976406313
 30
0.0
  0
VERTEX
  5
699
330
695
100
AcDbEntity
  8
LOGO
370
     0
100
AcDbVertex
100
AcDb2dVertex
 10
71.3631329975216
 20
127.8027915271048
 30
0.0
  0
VERTEX
  5
69A
330
695
100
AcDbEntity
  8
LOGO
370
     0
100
AcDbVertex
100
AcDb2dVertex
 10
60.43011526263018
 20
127.8027915271048
 30
0.0
  0
VERTEX
  5
69B
330
695
100
AcDbEntity
  8
LOGO
370
     0
100
AcDbVertex
100
AcDb2dVertex
 10
60.43011526263018
 20
159.7968976406313
 30
0.0
  0
VERTEX
  5
69C
330
695
100
AcDbEntity
  8
LOGO
370
     0
100
AcDbVertex
100
AcDb2dVertex
 10
48.21793273020759
 20
159.7968976406313
 30
0.0
  0
VERTEX
  5
69D
330
695
100
AcDbEntity
  8
LOGO
370
     0
100
AcDbVertex
100
AcDb2dVertex
 10
48.21793273020759
 20
167.6444858234922
 30
0.0
  0
VERTEX
  5
69E
330
695
100
AcDbEntity
  8
LOGO
370
     0
100
AcDbVertex
100
AcDb2dVertex
 10
83.79545727667795
 20
167.6444858234922
 30
0.0
  0
SEQEND
  5
69F
330
695
100
AcDbEntity
  8
LOGO
370
     0
  0
HATCH
  5
6A0
330
693
100
AcDbEntity
  8
LOGO
 62
   250
420
  2234388
100
AcDbHatch
 10
0.0
 20
0.0
 30
0.0
210
0.0
220
0.0
230
1.0
  2
SOLID
 70
     1
 71
     0
 91
        1
 92
        1
 93
        8
 72
     1
 10
83.79545727667795
 20
167.6444858234922
 11
83.79545727667795
 21
159.7968976406313
 72
     1
 10
83.79545727667795
 20
159.7968976406313
 11
71.3631329975216
 21
159.7968976406313
 72
     1
 10
71.3631329975216
 20
159.7968976406313
 11
71.3631329975216
 21
127.8027915271048
 72
     1
 10
71.3631329975216
 20
127.8027915271048
 11
60.43011526263018
 21
127.8027915271048
 72
     1
 10
60.43011526263018
 20
127.8027915271048
 11
60.43011526263018
 21
159.7968976406313
 72
     1
 10
60.43011526263018
 20
159.7968976406313
 11
48.21793273020759
 21
159.7968976406313
 72
     1
 10
48.21793273020759
 20
159.7968976406313
 11
48.21793273020759
 21
167.6444858234922
 72
     1
 10
48.21793273020759
 20
167.6444858234922
 11
83.79545727667795
 21
167.6444858234922
 97
        0
 75
     2
 76
     1
 98
        0
  0
ENDBLK
  5
6AE
330
693
100
AcDbEntity
  8
0
100
AcDbBlockEnd
  0
BLOCK
  5
6A3
330
6A2
100
AcDbEntity
  8
0
100
AcDbBlockBegin
  2
block 5
 70
     0
 10
0.0
 20
0.0
 30
0.0
  3
block 5
  1
block 5
  0
SPLINE
  5
6A4
330
6A2
100
AcDbEntity
  8
LOGO
370
     0
100
AcDbSpline
210
0.0
220
0.0
230
1.0
 70
    11
 71
     3
 72
    56
 73
    52
 74
     0
 42
0.000000001
 43
0.0000000001
 40
0.0
 40
0.0
 40
0.0
 40
0.0
 40
1.0
 40
1.0
 40
1.0
 40
2.0
 40
2.0
 40
2.0
 40
3.0
 40
3.0
 40
3.0
 40
4.0
 40
4.0
 40
4.0
 40
5.0
 40
5.0
 40
5.0
 40
6.0
 40
6.0
 40
6.0
 40
7.0
 40
7.0
 40
7.0
 40
8.0
 40
8.0
 40
8.0
 40
9.0
 40
9.0
 40
9.0
 40
10.0
 40
10.0
 40
10.0
 40
11.0
 40
11.0
 40
11.0
 40
12.0
 40
12.0
 40
12.0
 40
13.0
 40
13.0
 40
13.0
 40
14.0
 40
14.0
 40
14.0
 40
15.0
 40
15.0
 40
15.0
 40
16.0
 40
16.0
 40
16.0
 40
17.0
 40
17.0
 40
17.0
 40
17.0
 10
100.4504378777679
 20
166.69157178364
 30
0.0
 10
101.9848844191641
 20
167.1313385124438
 30
0.0
 10
103.9637485713373
 20
166.7649523658846
 30
0.0
 10
103.9637485713373
 20
166.7649523658846
 30
0.0
 10
103.9637485713373
 20
166.7649523658846
 30
0.0
 10
103.0132460999156
 20
163.911205638077
 30
0.0
 10
103.0132460999156
 20
163.911205638077
 30
0.0
 10
103.0132460999156
 20
163.911205638077
 30
0.0
 10
101.0674548862189
 20
164.3601018759394
 30
0.0
 10
99.57090442016032
 20
163.1805004036133
 30
0.0
 10
98.40508333886608
 20
162.258247733807
 30
0.0
 10
97.65301849830304
 20
159.804132345923
 30
0.0
 10
97.3598406791005
 20
158.8699940888517
 30
0.0
 10
97.3598406791005
 20
158.8699940888517
 30
0.0
 10
96.07137411762282
 20
154.9119212747295
 30
0.0
 10
96.07137411762282
 20
154.9119212747295
 30
0.0
 10
96.07137411762282
 20
154.9119212747295
 30
0.0
 10
100.3012651448482
 20
154.9119212747295
 30
0.0
 10
100.3012651448482
 20
154.9119212747295
 30
0.0
 10
100.3012651448482
 20
154.9119212747295
 30
0.0
 10
99.64152892419852
 20
152.4199098115079
 30
0.0
 10
99.64152892419852
 20
152.4199098115079
 30
0.0
 10
99.64152892419852
 20
152.4199098115079
 30
0.0
 10
95.38097652692731
 20
152.4199098115079
 30
0.0
 10
95.38097652692731
 20
152.4199098115079
 30
0.0
 10
95.38097652692731
 20
152.4199098115079
 30
0.0
 10
87.75353009080013
 20
127.8027915271048
 30
0.0
 10
87.75353009080013
 20
127.8027915271048
 30
0.0
 10
87.75353009080013
 20
127.8027915271048
 30
0.0
 10
85.36538832498108
 20
127.8027915271048
 30
0.0
 10
85.36538832498108
 20
127.8027915271048
 30
0.0
 10
85.36538832498108
 20
127.8027915271048
 30
0.0
 10
93.00006946639998
 20
152.4199098115079
 30
0.0
 10
93.00006946639998
 20
152.4199098115079
 30
0.0
 10
93.00006946639998
 20
152.4199098115079
 30
0.0
 10
89.85297266450198
 20
152.4199098115079
 30
0.0
 10
89.85297266450198
 20
152.4199098115079
 30
0.0
 10
89.85297266450198
 20
152.4199098115079
 30
0.0
 10
90.51270888515164
 20
154.9119212747295
 30
0.0
 10
90.51270888515164
 20
154.9119212747295
 30
0.0
 10
90.51270888515164
 20
154.9119212747295
 30
0.0
 10
93.6904670570955
 20
154.9119212747295
 30
0.0
 10
93.6904670570955
 20
154.9119212747295
 30
0.0
 10
93.6904670570955
 20
154.9119212747295
 30
0.0
 10
94.81598049462158
 20
158.3616699146644
 30
0.0
 10
94.81598049462158
 20
158.3616699146644
 30
0.0
 10
95.7237637538445
 20
161.2605474231013
 30
0.0
 10
96.4968436907311
 20
162.8139420021662
 30
0.0
 10
97.15657991138076
 20
163.9844139654337
 30
0.0
 10
97.81183750494507
 20
165.1523021053827
 30
0.0
 10
99.1047826935081
 20
166.3084769129547
 30
0.0
 10
100.4504378777679
 20
166.69157178364
 30
0.0
  0
HATCH
  5
6A5
330
6A2
100
AcDbEntity
  8
LOGO
 62
   250
420
  2234388
100
AcDbHatch
 10
0.0
 20
0.0
 30
0.0
210
0.0
220
0.0
230
1.0
  2
SOLID
 70
     1
 71
     0
 91
        1
 92
        1
 93
        1
 72
     4
 94
        3
 73
     0
 74
     1
 95
       56
 96
       52
 40
0.0
 40
0.0
 40
0.0
 40
0.0
 40
1.0
 40
1.0
 40
1.0
 40
2.0
 40
2.0
 40
2.0
 40
3.0
 40
3.0
 40
3.0
 40
4.0
 40
4.0
 40
4.0
 40
5.0
 40
5.0
 40
5.0
 40
6.0
 40
6.0
 40
6.0
 40
7.0
 40
7.0
 40
7.0
 40
8.0
 40
8.0
 40
8.0
 40
9.0
 40
9.0
 40
9.0
 40
10.0
 40
10.0
 40
10.0
 40
11.0
 40
11.0
 40
11.0
 40
12.0
 40
12.0
 40
12.0
 40
13.0
 40
13.0
 40
13.0
 40
14.0
 40
14.0
 40
14.0
 40
15.0
 40
15.0
 40
15.0
 40
16.0
 40
16.0
 40
16.0
 40
17.0
 40
17.0
 40
17.0
 40
17.0
 10
100.4504378777679
 20
166.69157178364
 10
101.9848844191641
 20
167.1313385124438
 10
103.9637485713373
 20
166.7649523658846
 10
103.9637485713373
 20
166.7649523658846
 10
103.9637485713373
 20
166.7649523658846
 10
103.0132460999156
 20
163.911205638077
 10
103.0132460999156
 20
163.911205638077
 10
103.0132460999156
 20
163.911205638077
 10
101.0674548862189
 20
164.3601018759394
 10
99.57090442016032
 20
163.1805004036133
 10
98.40508333886608
 20
162.258247733807
 10
97.65301849830304
 20
159.804132345923
 10
97.3598406791005
 20
158.8699940888517
 10
97.3598406791005
 20
158.8699940888517
 10
96.07137411762282
 20
154.9119212747295
 10
96.07137411762282
 20
154.9119212747295
 10
96.07137411762282
 20
154.9119212747295
 10
100.3012651448482
 20
154.9119212747295
 10
100.3012651448482
 20
154.9119212747295
 10
100.3012651448482
 20
154.9119212747295
 10
99.64152892419852
 20
152.4199098115079
 10
99.64152892419852
 20
152.4199098115079
 10
99.64152892419852
 20
152.4199098115079
 10
95.38097652692731
 20
152.4199098115079
 10
95.38097652692731
 20
152.4199098115079
 10
95.38097652692731
 20
152.4199098115079
 10
87.75353009080013
 20
127.8027915271048
 10
87.75353009080013
 20
127.8027915271048
 10
87.75353009080013
 20
127.8027915271048
 10
85.36538832498108
 20
127.8027915271048
 10
85.36538832498108
 20
127.8027915271048
 10
85.36538832498108
 20
127.8027915271048
 10
93.00006946639998
 20
152.4199098115079
 10
93.00006946639998
 20
152.4199098115079
 10
93.00006946639998
 20
152.4199098115079
 10
89.85297266450198
 20
152.4199098115079
 10
89.85297266450198
 20
152.4199098115079
 10
89.85297266450198
 20
152.4199098115079
 10
90.51270888515164
 20
154.9119212747295
 10
90.51270888515164
 20
154.9119212747295
 10
90.51270888515164
 20
154.9119212747295
 10
93.6904670570955
 20
154.9119212747295
 10
93.6904670570955
 20
154.9119212747295
 10
93.6904670570955
 20
154.9119212747295
 10
94.81598049462158
 20
158.3616699146644
 10
94.81598049462158
 20
158.3616699146644
 10
95.7237637538445
 20
161.2605474231013
 10
96.4968436907311
 20
162.8139420021662
 10
97.15657991138076
 20
163.9844139654337
 10
97.81183750494507
 20
165.1523021053827
 10
99.1047826935081
 20
166.3084769129547
 10
100.4504378777679
 20
166.69157178364
 97
        0
 75
     2
 76
     1
 98
        0
  0
SPLINE
  5
6A6
330
6A2
100
AcDbEntity
  8
LOGO
370
     0
100
AcDbSpline
210
0.0
220
0.0
230
1.0
 70
    11
 71
     3
 72
    38
 73
    34
 74
     0
 42
0.000000001
 43
0.0000000001
 40
0.0
 40
0.0
 40
0.0
 40
0.0
 40
1.0
 40
1.0
 40
1.0
 40
2.0
 40
2.0
 40
2.0
 40
3.0
 40
3.0
 40
3.0
 40
4.0
 40
4.0
 40
4.0
 40
5.0
 40
5.0
 40
5.0
 40
6.0
 40
6.0
 40
6.0
 40
7.0
 40
7.0
 40
7.0
 40
8.0
 40
8.0
 40
8.0
 40
9.0
 40
9.0
 40
9.0
 40
10.0
 40
10.0
 40
10.0
 40
11.0
 40
11.0
 40
11.0
 40
11.0
 10
126.377554584636
 20
154.8151140277308
 30
0.0
 10
126.377554584636
 20
154.8151140277308
 30
0.0
 10
128.8311532078563
 20
154.8151140277308
 30
0.0
 10
128.8311532078563
 20
154.8151140277308
 30
0.0
 10
128.8311532078563
 20
154.8151140277308
 30
0.0
 10
127.7345785914971
 20
151.3062819612468
 30
0.0
 10
127.7345785914971
 20
151.3062819612468
 30
0.0
 10
128.571392836906
 20
152.2922689395754
 30
0.0
 10
129.8860421413442
 20
153.604506675583
 30
0.0
 10
131.0163787157314
 20
154.2664822097754
 30
0.0
 10
132.7044766171327
 20
155.2500576196734
 30
0.0
 10
133.6642808525008
 20
155.3847609420097
 30
0.0
 10
134.7284715499351
 20
155.3565111403944
 30
0.0
 10
134.7284715499351
 20
155.3565111403944
 30
0.0
 10
133.6877075172549
 20
152.0345756272799
 30
0.0
 10
133.6877075172549
 20
152.0345756272799
 30
0.0
 10
133.011434827367
 20
152.3184516825359
 30
0.0
 10
130.930940291334
 20
151.7768823149844
 30
0.0
 10
129.739280976855
 20
150.9162968950455
 30
0.0
 10
128.66613302525
 20
150.1454562717016
 30
0.0
 10
127.9192358313239
 20
149.4857200510519
 30
0.0
 10
127.0393578639405
 20
147.8282835196966
 30
0.0
 10
126.164647543194
 20
146.1699857139017
 30
0.0
 10
125.4742499524985
 20
143.5262176944419
 30
0.0
 10
124.2822461282437
 20
139.6959580071401
 30
0.0
 10
124.2822461282437
 20
139.6959580071401
 30
0.0
 10
120.5753209406769
 20
127.8027915271048
 30
0.0
 10
120.5753209406769
 20
127.8027915271048
 30
0.0
 10
120.5753209406769
 20
127.8027915271048
 30
0.0
 10
118.1964809388044
 20
127.8027915271048
 30
0.0
 10
118.1964809388044
 20
127.8027915271048
 30
0.0
 10
118.1964809388044
 20
127.8027915271048
 30
0.0
 10
126.377554584636
 20
154.8151140277308
 30
0.0
 10
126.377554584636
 20
154.8151140277308
 30
0.0
  0
HATCH
  5
6A7
330
6A2
100
AcDbEntity
  8
LOGO
 62
   250
420
  2234388
100
AcDbHatch
 10
0.0
 20
0.0
 30
0.0
210
0.0
220
0.0
230
1.0
  2
SOLID
 70
     1
 71
     0
 91
        1
 92
        1
 93
        1
 72
     4
 94
        3
 73
     0
 74
     1
 95
       38
 96
       34
 40
0.0
 40
0.0
 40
0.0
 40
0.0
 40
1.0
 40
1.0
 40
1.0
 40
2.0
 40
2.0
 40
2.0
 40
3.0
 40
3.0
 40
3.0
 40
4.0
 40
4.0
 40
4.0
 40
5.0
 40
5.0
 40
5.0
 40
6.0
 40
6.0
 40
6.0
 40
7.0
 40
7.0
 40
7.0
 40
8.0
 40
8.0
 40
8.0
 40
9.0
 40
9.0
 40
9.0
 40
10.0
 40
10.0
 40
10.0
 40
11.0
 40
11.0
 40
11.0
 40
11.0
 10
126.377554584636
 20
154.8151140277308
 10
126.377554584636
 20
154.8151140277308
 10
128.8311532078563
 20
154.8151140277308
 10
128.8311532078563
 20
154.8151140277308
 10
128.8311532078563
 20
154.8151140277308
 10
127.7345785914971
 20
151.3062819612468
 10
127.7345785914971
 20
151.3062819612468
 10
128.571392836906
 20
152.2922689395754
 10
129.8860421413442
 20
153.604506675583
 10
131.0163787157314
 20
154.2664822097754
 10
132.7044766171327
 20
155.2500576196734
 10
133.6642808525008
 20
155.3847609420097
 10
134.7284715499351
 20
155.3565111403944
 10
134.7284715499351
 20
155.3565111403944
 10
133.6877075172549
 20
152.0345756272799
 10
133.6877075172549
 20
152.0345756272799
 10
133.011434827367
 20
152.3184516825359
 10
130.930940291334
 20
151.7768823149844
 10
129.739280976855
 20
150.9162968950455
 10
128.66613302525
 20
150.1454562717016
 10
127.9192358313239
 20
149.4857200510519
 10
127.0393578639405
 20
147.8282835196966
 10
126.164647543194
 20
146.1699857139017
 10
125.4742499524985
 20
143.5262176944419
 10
124.2822461282437
 20
139.6959580071401
 10
124.2822461282437
 20
139.6959580071401
 10
120.5753209406769
 20
127.8027915271048
 10
120.5753209406769
 20
127.8027915271048
 10
120.5753209406769
 20
127.8027915271048
 10
118.1964809388044
 20
127.8027915271048
 10
118.1964809388044
 20
127.8027915271048
 10
118.1964809388044
 20
127.8027915271048
 10
126.377554584636
 20
154.8151140277308
 10
126.377554584636
 20
154.8151140277308
 97
        0
 75
     2
 76
     1
 98
        0
  0
SPLINE
  5
6A8
330
6A2
100
AcDbEntity
  8
LOGO
370
     0
100
AcDbSpline
210
0.0
220
0.0
230
1.0
 70
    11
 71
     3
 72
   104
 73
   100
 74
     0
 42
0.000000001
 43
0.0000000001
 40
0.0
 40
0.0
 40
0.0
 40
0.0
 40
1.0
 40
1.0
 40
1.0
 40
2.0
 40
2.0
 40
2.0
 40
3.0
 40
3.0
 40
3.0
 40
4.0
 40
4.0
 40
4.0
 40
5.0
 40
5.0
 40
5.0
 40
6.0
 40
6.0
 40
6.0
 40
7.0
 40
7.0
 40
7.0
 40
8.0
 40
8.0
 40
8.0
 40
9.0
 40
9.0
 40
9.0
 40
10.0
 40
10.0
 40
10.0
 40
11.0
 40
11.0
 40
11.0
 40
12.0
 40
12.0
 40
12.0
 40
13.0
 40
13.0
 40
13.0
 40
14.0
 40
14.0
 40
14.0
 40
15.0
 40
15.0
 40
15.0
 40
16.0
 40
16.0
 40
16.0
 40
17.0
 40
17.0
 40
17.0
 40
18.0
 40
18.0
 40
18.0
 40
19.0
 40
19.0
 40
19.0
 40
20.0
 40
20.0
 40
20.0
 40
21.0
 40
21.0
 40
21.0
 40
22.0
 40
22.0
 40
22.0
 40
23.0
 40
23.0
 40
23.0
 40
24.0
 40
24.0
 40
24.0
 40
25.0
 40
25.0
 40
25.0
 40
26.0
 40
26.0
 40
26.0
 40
27.0
 40
27.0
 40
27.0
 40
28.0
 40
28.0
 40
28.0
 40
29.0
 40
29.0
 40
29.0
 40
30.0
 40
30.0
 40
30.0
 40
31.0
 40
31.0
 40
31.0
 40
32.0
 40
32.0
 40
32.0
 40
33.0
 40
33.0
 40
33.0
 40
33.0
 10
139.8926730891197
 20
154.8294111834263
 30
0.0
 10
139.8926730891197
 20
154.8294111834263
 30
0.0
 10
142.0344903652445
 20
154.8294111834263
 30
0.0
 10
142.0344903652445
 20
154.8294111834263
 30
0.0
 10
142.0344903652445
 20
154.8294111834263
 30
0.0
 10
140.9516961399171
 20
151.3157559800812
 30
0.0
 10
140.9516961399171
 20
151.3157559800812
 30
0.0
 10
141.8928968473923
 20
152.7887075264977
 30
0.0
 10
142.7341897198865
 20
153.4484437471474
 30
0.0
 10
143.8552245303272
 20
154.2926649527359
 30
0.0
 10
144.9803934580775
 20
155.1296514530327
 30
0.0
 10
146.3139908001845
 20
155.3044901642492
 30
0.0
 10
147.241066606852
 20
155.3044901642492
 30
0.0
 10
148.3855280820469
 20
155.3044901642492
 30
0.0
 10
149.4969166187653
 20
155.0752189084569
 30
0.0
 10
150.0784491203092
 20
153.8172414621372
 30
0.0
 10
150.5228667310863
 20
152.833838307127
 30
0.0
 10
150.5414702589793
 20
152.7201500811143
 30
0.0
 10
150.4140016419347
 20
150.7765981809602
 30
0.0
 10
151.5818897818837
 20
152.7699317437168
 30
0.0
 10
152.4424752018226
 20
153.6256940267945
 30
0.0
 10
153.9038856707499
 20
154.4507949398263
 30
0.0
 10
155.4455669174378
 20
155.3044901642492
 30
0.0
 10
156.339225275853
 20
155.3659851592288
 30
0.0
 10
157.3748216618963
 20
155.2147453676543
 30
0.0
 10
158.911679771723
 20
154.9877134254046
 30
0.0
 10
159.8859534176746
 20
154.4390816074493
 30
0.0
 10
160.3965169054045
 20
152.7816450760939
 30
0.0
 10
160.9070803931344
 20
151.1219692311958
 30
0.0
 10
160.6328506116007
 20
150.2303779314354
 30
0.0
 10
159.9992971339115
 20
147.597634224801
 30
0.0
 10
159.7105979417943
 20
146.4014962832367
 30
0.0
 10
159.2947746424084
 20
144.9400858143094
 30
0.0
 10
158.7463150793409
 20
143.2092687007094
 30
0.0
 10
158.7463150793409
 20
143.2092687007094
 30
0.0
 10
153.9038856707499
 20
127.8027915271048
 30
0.0
 10
153.9038856707499
 20
127.8027915271048
 30
0.0
 10
153.9038856707499
 20
127.8027915271048
 30
0.0
 10
151.3882752878863
 20
127.8027915271048
 30
0.0
 10
151.3882752878863
 20
127.8027915271048
 30
0.0
 10
151.3882752878863
 20
127.8027915271048
 30
0.0
 10
155.6250565106276
 20
141.2751908193897
 30
0.0
 10
155.6250565106276
 20
141.2751908193897
 30
0.0
 10
156.5094131050963
 20
144.0936252951782
 30
0.0
 10
157.109893644309
 20
146.1506931664571
 30
0.0
 10
157.4220195011804
 20
147.4415712963654
 30
0.0
 10
157.8095929989511
 20
149.0530157726519
 30
0.0
 10
157.9656559273867
 20
149.5826995529385
 30
0.0
 10
157.7816877071116
 20
150.7529992613181
 30
0.0
 10
157.6111553680925
 20
151.8430281919372
 30
0.0
 10
157.0582171779396
 20
152.5547853887321
 30
0.0
 10
156.1170164704645
 20
152.5547853887321
 30
0.0
 10
155.1096698860365
 20
152.5547853887321
 30
0.0
 10
154.2962823053817
 20
152.4412694176073
 30
0.0
 10
153.156643967048
 20
151.2945686288697
 30
0.0
 10
152.0170056287143
 20
150.1476955852443
 30
0.0
 10
151.076149431015
 20
148.7930831468137
 30
0.0
 10
150.3337308641742
 20
147.2290087646991
 30
0.0
 10
149.5957909244188
 20
145.6683794803425
 30
0.0
 10
148.8530278478023
 20
143.6822806228776
 30
0.0
 10
148.0964843801539
 20
141.2751908193897
 30
0.0
 10
148.0964843801539
 20
141.2751908193897
 30
0.0
 10
143.8552245303272
 20
127.8027915271048
 30
0.0
 10
143.8552245303272
 20
127.8027915271048
 30
0.0
 10
143.8552245303272
 20
127.8027915271048
 30
0.0
 10
141.486030802177
 20
127.8027915271048
 30
0.0
 10
141.486030802177
 20
127.8027915271048
 30
0.0
 10
141.486030802177
 20
127.8027915271048
 30
0.0
 10
146.3329388378533
 20
143.2092687007094
 30
0.0
 10
146.3329388378533
 20
143.2092687007094
 30
0.0
 10
146.8483254624444
 20
144.8408669988801
 30
0.0
 10
147.2314203331297
 20
146.1837661049335
 30
0.0
 10
147.4867020769946
 20
147.224185627838
 30
0.0
 10
147.9169947869641
 20
149.0197705792876
 30
0.0
 10
148.0306830129768
 20
150.2400242051577
 30
0.0
 10
147.709255392159
 20
151.3157559800812
 30
0.0
 10
147.3874832615654
 20
152.3916600098926
 30
0.0
 10
146.8245542879144
 20
152.6683013598569
 30
0.0
 10
145.8840425999909
 20
152.6683013598569
 30
0.0
 10
145.0989048209514
 20
152.6683013598569
 30
0.0
 10
144.3282364524954
 20
152.3275811915945
 30
0.0
 10
143.4531816219731
 20
151.6538923250251
 30
0.0
 10
142.34627171234
 20
150.8074318058939
 30
0.0
 10
141.901854101563
 20
150.1097995099067
 30
0.0
 10
141.3578731655808
 20
149.289521733736
 30
0.0
 10
140.6299240093235
 20
148.192602607601
 30
0.0
 10
140.2850697237515
 20
147.455696197173
 30
0.0
 10
139.6652966370942
 20
145.8385673095858
 30
0.0
 10
139.0506911970739
 20
144.2214384219986
 30
0.0
 10
138.463991048893
 20
142.3252566160164
 30
0.0
 10
138.0571250036777
 20
141.0154304484394
 30
0.0
 10
138.0571250036777
 20
141.0154304484394
 30
0.0
 10
133.9009590684727
 20
127.8027915271048
 30
0.0
 10
133.9009590684727
 20
127.8027915271048
 30
0.0
 10
133.9009590684727
 20
127.8027915271048
 30
0.0
 10
131.4180771143097
 20
127.8027915271048
 30
0.0
 10
131.4180771143097
 20
127.8027915271048
 30
0.0
 10
131.4180771143097
 20
127.8027915271048
 30
0.0
 10
139.8926730891197
 20
154.8294111834263
 30
0.0
 10
139.8926730891197
 20
154.8294111834263
 30
0.0
  0
HATCH
  5
6A9
330
6A2
100
AcDbEntity
  8
LOGO
 62
   250
420
  2234388
100
AcDbHatch
 10
0.0
 20
0.0
 30
0.0
210
0.0
220
0.0
230
1.0
  2
SOLID
 70
     1
 71
     0
 91
        1
 92
        1
 93
        1
 72
     4
 94
        3
 73
     0
 74
     1
 95
      104
 96
      100
 40
0.0
 40
0.0
 40
0.0
 40
0.0
 40
1.0
 40
1.0
 40
1.0
 40
2.0
 40
2.0
 40
2.0
 40
3.0
 40
3.0
 40
3.0
 40
4.0
 40
4.0
 40
4.0
 40
5.0
 40
5.0
 40
5.0
 40
6.0
 40
6.0
 40
6.0
 40
7.0
 40
7.0
 40
7.0
 40
8.0
 40
8.0
 40
8.0
 40
9.0
 40
9.0
 40
9.0
 40
10.0
 40
10.0
 40
10.0
 40
11.0
 40
11.0
 40
11.0
 40
12.0
 40
12.0
 40
12.0
 40
13.0
 40
13.0
 40
13.0
 40
14.0
 40
14.0
 40
14.0
 40
15.0
 40
15.0
 40
15.0
 40
16.0
 40
16.0
 40
16.0
 40
17.0
 40
17.0
 40
17.0
 40
18.0
 40
18.0
 40
18.0
 40
19.0
 40
19.0
 40
19.0
 40
20.0
 40
20.0
 40
20.0
 40
21.0
 40
21.0
 40
21.0
 40
22.0
 40
22.0
 40
22.0
 40
23.0
 40
23.0
 40
23.0
 40
24.0
 40
24.0
 40
24.0
 40
25.0
 40
25.0
 40
25.0
 40
26.0
 40
26.0
 40
26.0
 40
27.0
 40
27.0
 40
27.0
 40
28.0
 40
28.0
 40
28.0
 40
29.0
 40
29.0
 40
29.0
 40
30.0
 40
30.0
 40
30.0
 40
31.0
 40
31.0
 40
31.0
 40
32.0
 40
32.0
 40
32.0
 40
33.0
 40
33.0
 40
33.0
 40
33.0
 10
139.8926730891197
 20
154.8294111834263
 10
139.8926730891197
 20
154.8294111834263
 10
142.0344903652445
 20
154.8294111834263
 10
142.0344903652445
 20
154.8294111834263
 10
142.0344903652445
 20
154.8294111834263
 10
140.9516961399171
 20
151.3157559800812
 10
140.9516961399171
 20
151.3157559800812
 10
141.8928968473923
 20
152.7887075264977
 10
142.7341897198865
 20
153.4484437471474
 10
143.8552245303272
 20
154.2926649527359
 10
144.9803934580775
 20
155.1296514530327
 10
146.3139908001845
 20
155.3044901642492
 10
147.241066606852
 20
155.3044901642492
 10
148.3855280820469
 20
155.3044901642492
 10
149.4969166187653
 20
155.0752189084569
 10
150.0784491203092
 20
153.8172414621372
 10
150.5228667310863
 20
152.833838307127
 10
150.5414702589793
 20
152.7201500811143
 10
150.4140016419347
 20
150.7765981809602
 10
151.5818897818837
 20
152.7699317437168
 10
152.4424752018226
 20
153.6256940267945
 10
153.9038856707499
 20
154.4507949398263
 10
155.4455669174378
 20
155.3044901642492
 10
156.339225275853
 20
155.3659851592288
 10
157.3748216618963
 20
155.2147453676543
 10
158.911679771723
 20
154.9877134254046
 10
159.8859534176746
 20
154.4390816074493
 10
160.3965169054045
 20
152.7816450760939
 10
160.9070803931344
 20
151.1219692311958
 10
160.6328506116007
 20
150.2303779314354
 10
159.9992971339115
 20
147.597634224801
 10
159.7105979417943
 20
146.4014962832367
 10
159.2947746424084
 20
144.9400858143094
 10
158.7463150793409
 20
143.2092687007094
 10
158.7463150793409
 20
143.2092687007094
 10
153.9038856707499
 20
127.8027915271048
 10
153.9038856707499
 20
127.8027915271048
 10
153.9038856707499
 20
127.8027915271048
 10
151.3882752878863
 20
127.8027915271048
 10
151.3882752878863
 20
127.8027915271048
 10
151.3882752878863
 20
127.8027915271048
 10
155.6250565106276
 20
141.2751908193897
 10
155.6250565106276
 20
141.2751908193897
 10
156.5094131050963
 20
144.0936252951782
 10
157.109893644309
 20
146.1506931664571
 10
157.4220195011804
 20
147.4415712963654
 10
157.8095929989511
 20
149.0530157726519
 10
157.9656559273867
 20
149.5826995529385
 10
157.7816877071116
 20
150.7529992613181
 10
157.6111553680925
 20
151.8430281919372
 10
157.0582171779396
 20
152.5547853887321
 10
156.1170164704645
 20
152.5547853887321
 10
155.1096698860365
 20
152.5547853887321
 10
154.2962823053817
 20
152.4412694176073
 10
153.156643967048
 20
151.2945686288697
 10
152.0170056287143
 20
150.1476955852443
 10
151.076149431015
 20
148.7930831468137
 10
150.3337308641742
 20
147.2290087646991
 10
149.5957909244188
 20
145.6683794803425
 10
148.8530278478023
 20
143.6822806228776
 10
148.0964843801539
 20
141.2751908193897
 10
148.0964843801539
 20
141.2751908193897
 10
143.8552245303272
 20
127.8027915271048
 10
143.8552245303272
 20
127.8027915271048
 10
143.8552245303272
 20
127.8027915271048
 10
141.486030802177
 20
127.8027915271048
 10
141.486030802177
 20
127.8027915271048
 10
141.486030802177
 20
127.8027915271048
 10
146.3329388378533
 20
143.2092687007094
 10
146.3329388378533
 20
143.2092687007094
 10
146.8483254624444
 20
144.8408669988801
 10
147.2314203331297
 20
146.1837661049335
 10
147.4867020769946
 20
147.224185627838
 10
147.9169947869641
 20
149.0197705792876
 10
148.0306830129768
 20
150.2400242051577
 10
147.709255392159
 20
151.3157559800812
 10
147.3874832615654
 20
152.3916600098926
 10
146.8245542879144
 20
152.6683013598569
 10
145.8840425999909
 20
152.6683013598569
 10
145.0989048209514
 20
152.6683013598569
 10
144.3282364524954
 20
152.3275811915945
 10
143.4531816219731
 20
151.6538923250251
 10
142.34627171234
 20
150.8074318058939
 10
141.901854101563
 20
150.1097995099067
 10
141.3578731655808
 20
149.289521733736
 10
140.6299240093235
 20
148.192602607601
 10
140.2850697237515
 20
147.455696197173
 10
139.6652966370942
 20
145.8385673095858
 10
139.0506911970739
 20
144.2214384219986
 10
138.463991048893
 20
142.3252566160164
 10
138.0571250036777
 20
141.0154304484394
 10
138.0571250036777
 20
141.0154304484394
 10
133.9009590684727
 20
127.8027915271048
 10
133.9009590684727
 20
127.8027915271048
 10
133.9009590684727
 20
127.8027915271048
 10
131.4180771143097
 20
127.8027915271048
 10
131.4180771143097
 20
127.8027915271048
 10
131.4180771143097
 20
127.8027915271048
 10
139.8926730891197
 20
154.8294111834263
 10
139.8926730891197
 20
154.8294111834263
 97
        0
 75
     2
 76
     1
 98
        0
  0
SPLINE
  5
6AA
330
6A2
100
AcDbEntity
  8
LOGO
370
     0
100
AcDbSpline
210
0.0
220
0.0
230
1.0
 70
    11
 71
     3
 72
    29
 73
    25
 74
     0
 42
0.000000001
 43
0.0000000001
 40
0.0
 40
0.0
 40
0.0
 40
0.0
 40
1.0
 40
1.0
 40
1.0
 40
2.0
 40
2.0
 40
2.0
 40
3.0
 40
3.0
 40
3.0
 40
4.0
 40
4.0
 40
4.0
 40
5.0
 40
5.0
 40
5.0
 40
6.0
 40
6.0
 40
6.0
 40
7.0
 40
7.0
 40
7.0
 40
8.0
 40
8.0
 40
8.0
 40
8.0
 10
101.6420971922469
 20
132.8388354296931
 30
0.0
 10
101.630039350094
 20
134.7164137077823
 30
0.0
 10
102.2236296937908
 20
138.0598810818841
 30
0.0
 10
103.7487744712405
 20
142.5378191476827
 30
0.0
 10
105.819967243327
 20
148.5896501242061
 30
0.0
 10
107.0602024361932
 20
150.8074318058939
 30
0.0
 10
108.1522984254671
 20
151.8833358357054
 30
0.0
 10
109.741177511439
 20
153.4532668840085
 30
0.0
 10
111.8740375333931
 20
153.5290590346837
 30
0.0
 10
112.5075910110823
 20
153.4532668840085
 30
0.0
 10
113.4012493694975
 20
153.3490526768302
 30
0.0
 10
114.6683563248758
 20
152.7580461564518
 30
0.0
 10
114.7493161221879
 20
150.7838328862519
 30
0.0
 10
114.8106388622796
 20
149.0909118479895
 30
0.0
 10
114.3186789024427
 20
145.9191825971221
 30
0.0
 10
112.6164561002338
 20
140.9489400617108
 30
0.0
 10
110.6444821435766
 20
135.1746117095912
 30
0.0
 10
109.4669477299053
 20
132.8960240524753
 30
0.0
 10
108.5212683953448
 20
131.9072809959403
 30
0.0
 10
106.7346406980658
 20
130.0538184021569
 30
0.0
 10
104.8222669326213
 20
130.2336525051225
 30
0.0
 10
104.5408024457958
 20
130.2336525051225
 30
0.0
 10
104.1721769856939
 20
130.2336525051225
 30
0.0
 10
101.6465758193322
 20
130.6305277668397
 30
0.0
 10
101.6420971922469
 20
132.8388354296931
 30
0.0
  0
SPLINE
  5
6AB
330
6A2
100
AcDbEntity
  8
LOGO
370
     0
100
AcDbSpline
210
0.0
220
0.0
230
1.0
 70
    11
 71
     3
 72
    32
 73
    28
 74
     0
 42
0.000000001
 43
0.0000000001
 40
0.0
 40
0.0
 40
0.0
 40
0.0
 40
1.0
 40
1.0
 40
1.0
 40
2.0
 40
2.0
 40
2.0
 40
3.0
 40
3.0
 40
3.0
 40
4.0
 40
4.0
 40
4.0
 40
5.0
 40
5.0
 40
5.0
 40
6.0
 40
6.0
 40
6.0
 40
7.0
 40
7.0
 40
7.0
 40
8.0
 40
8.0
 40
8.0
 40
9.0
 40
9.0
 40
9.0
 40
9.0
 10
106.2595617172429
 20
153.4105476718098
 30
0.0
 10
104.8222669326213
 20
151.5474388043041
 30
0.0
 10
103.7177685914188
 20
149.8758773721411
 30
0.0
 10
101.9232171692965
 20
144.6141795664062
 30
0.0
 10
100.2754269116635
 20
139.7999999594306
 30
0.0
 10
99.22777268346732
 20
136.3052927937542
 30
0.0
 10
99.06964269637689
 20
132.039572749846
 30
0.0
 10
98.94665270641765
 20
128.8673267343149
 30
0.0
 10
100.8807305877373
 20
127.8027915271048
 30
0.0
 10
103.7129454545577
 20
127.8027915271048
 30
0.0
 10
104.9352661390825
 20
127.8027915271048
 30
0.0
 10
108.0151835347002
 20
127.8827177950895
 30
0.0
 10
110.2045431598849
 20
130.5926316915021
 30
0.0
 10
111.7417457794874
 20
132.4984597712065
 30
0.0
 10
113.155269389579
 20
134.475256864725
 30
0.0
 10
115.0562743324223
 20
140.9489400617108
 30
0.0
 10
116.6361961642235
 20
146.3680788349845
 30
0.0
 10
117.7282921534974
 20
149.8639917848761
 30
0.0
 10
117.6480213757369
 20
151.8595646611754
 30
0.0
 10
117.6480213757369
 20
151.8595646611754
 30
0.0
 10
117.6480213757369
 20
151.8595646611754
 30
0.0
 10
117.6480213757369
 20
151.8595646611754
 30
0.0
 10
117.13229024137
 20
155.18150017429
 30
0.0
 10
114.7162431837115
 20
155.886194920681
 30
0.0
 10
113.3351034925446
 20
155.886194920681
 30
0.0
 10
111.9829026225447
 20
155.886194920681
 30
0.0
 10
108.3414342923792
 20
156.1251124501957
 30
0.0
 10
106.2595617172429
 20
153.4105476718098
 30
0.0
  0
HATCH
  5
6AC
330
6A2
100
AcDbEntity
  8
LOGO
 62
   250
420
  2234388
100
AcDbHatch
 10
0.0
 20
0.0
 30
0.0
210
0.0
220
0.0
230
1.0
  2
SOLID
 70
     1
 71
     0
 91
        2
 92
        1
 93
        1
 72
     4
 94
        3
 73
     0
 74
     1
 95
       29
 96
       25
 40
0.0
 40
0.0
 40
0.0
 40
0.0
 40
1.0
 40
1.0
 40
1.0
 40
2.0
 40
2.0
 40
2.0
 40
3.0
 40
3.0
 40
3.0
 40
4.0
 40
4.0
 40
4.0
 40
5.0
 40
5.0
 40
5.0
 40
6.0
 40
6.0
 40
6.0
 40
7.0
 40
7.0
 40
7.0
 40
8.0
 40
8.0
 40
8.0
 40
8.0
 10
101.6420971922469
 20
132.8388354296931
 10
101.630039350094
 20
134.7164137077823
 10
102.2236296937908
 20
138.0598810818841
 10
103.7487744712405
 20
142.5378191476827
 10
105.819967243327
 20
148.5896501242061
 10
107.0602024361932
 20
150.8074318058939
 10
108.1522984254671
 20
151.8833358357054
 10
109.741177511439
 20
153.4532668840085
 10
111.8740375333931
 20
153.5290590346837
 10
112.5075910110823
 20
153.4532668840085
 10
113.4012493694975
 20
153.3490526768302
 10
114.6683563248758
 20
152.7580461564518
 10
114.7493161221879
 20
150.7838328862519
 10
114.8106388622796
 20
149.0909118479895
 10
114.3186789024427
 20
145.9191825971221
 10
112.6164561002338
 20
140.9489400617108
 10
110.6444821435766
 20
135.1746117095912
 10
109.4669477299053
 20
132.8960240524753
 10
108.5212683953448
 20
131.9072809959403
 10
106.7346406980658
 20
130.0538184021569
 10
104.8222669326213
 20
130.2336525051225
 10
104.5408024457958
 20
130.2336525051225
 10
104.1721769856939
 20
130.2336525051225
 10
101.6465758193322
 20
130.6305277668397
 10
101.6420971922469
 20
132.8388354296931
 97
        0
 92
        1
 93
        1
 72
     4
 94
        3
 73
     0
 74
     1
 95
       32
 96
       28
 40
0.0
 40
0.0
 40
0.0
 40
0.0
 40
1.0
 40
1.0
 40
1.0
 40
2.0
 40
2.0
 40
2.0
 40
3.0
 40
3.0
 40
3.0
 40
4.0
 40
4.0
 40
4.0
 40
5.0
 40
5.0
 40
5.0
 40
6.0
 40
6.0
 40
6.0
 40
7.0
 40
7.0
 40
7.0
 40
8.0
 40
8.0
 40
8.0
 40
9.0
 40
9.0
 40
9.0
 40
9.0
 10
106.2595617172429
 20
153.4105476718098
 10
104.8222669326213
 20
151.5474388043041
 10
103.7177685914188
 20
149.8758773721411
 10
101.9232171692965
 20
144.6141795664062
 10
100.2754269116635
 20
139.7999999594306
 10
99.22777268346732
 20
136.3052927937542
 10
99.06964269637689
 20
132.039572749846
 10
98.94665270641765
 20
128.8673267343149
 10
100.8807305877373
 20
127.8027915271048
 10
103.7129454545577
 20
127.8027915271048
 10
104.9352661390825
 20
127.8027915271048
 10
108.0151835347002
 20
127.8827177950895
 10
110.2045431598849
 20
130.5926316915021
 10
111.7417457794874
 20
132.4984597712065
 10
113.155269389579
 20
134.475256864725
 10
115.0562743324223
 20
140.9489400617108
 10
116.6361961642235
 20
146.3680788349845
 10
117.7282921534974
 20
149.8639917848761
 10
117.6480213757369
 20
151.8595646611754
 10
117.6480213757369
 20
151.8595646611754
 10
117.6480213757369
 20
151.8595646611754
 10
117.6480213757369
 20
151.8595646611754
 10
117.13229024137
 20
155.18150017429
 10
114.7162431837115
 20
155.886194920681
 10
113.3351034925446
 20
155.886194920681
 10
111.9829026225447
 20
155.886194920681
 10
108.3414342923792
 20
156.1251124501957
 10
106.2595617172429
 20
153.4105476718098
 97
        0
 75
     2
 76
     1
 98
        0
  0
ENDBLK
  5
6AD
330
6A2
100
AcDbEntity
  8
0
100
AcDbBlockEnd
  0
BLOCK
  5
386E
330
386D
100
AcDbEntity
  8
0
100
AcDbBlockBegin
  2
*D6
 70
     1
 10
0.0
 20
0.0
 30
0.0
  3
*D6
  1
*D126
  0
LINE
  5
3870
330
386D
100
AcDbEntity
  8
DIM
 62
     0
370
    -2
100
AcDbLine
 10
264.3329688988288
 20
131.6444773349123
 30
0.0
 11
264.3329688988288
 21
113.4370793645779
 31
0.0
  0
LINE
  5
3871
330
386D
100
AcDbEntity
  8
DIM
 62
     0
370
    -2
100
AcDbLine
 10
356.6817439728288
 20
192.3947240001124
 30
0.0
 11
356.6817439728288
 21
113.4370793645779
 31
0.0
  0
LINE
  5
3872
330
386D
100
AcDbEntity
  8
DIM
 62
     0
370
    -2
100
AcDbLine
 10
265.3329688988288
 20
113.4370793645779
 30
0.0
 11
355.6817439728288
 21
113.4370793645779
 31
0.0
  0
INSERT
  5
3873
330
386D
100
AcDbEntity
  8
DIM
 62
     0
370
    -2
100
AcDbBlockReference
  2
_DOT
 10
264.3329688988288
 20
113.4370793645779
 30
0.0
 50
180.0
  0
INSERT
  5
3874
330
386D
100
AcDbEntity
  8
DIM
 62
     0
370
    -2
100
AcDbBlockReference
  2
_DOT
 10
356.6817439728288
 20
113.4370793645779
 30
0.0
  0
MTEXT
  5
3875
330
386D
100
AcDbEntity
  8
DIM
 62
     0
 48
0.05
100
AcDbMText
 10
310.5073572776291
 20
120.9370793645779
 30
0.0
 40
5.0
 41
0.0
 46
0.0
 71
     5
 72
     1
  1
\A1;\A1;92
  7
ＭＳ ゴシック
 73
     1
 44
1.0
  0
POINT
  5
3876
330
386D
100
AcDbEntity
  8
Defpoints
 62
     0
100
AcDbPoint
 10
264.3329688988288
 20
136.6444773349123
 30
0.0
  0
POINT
  5
3877
330
386D
100
AcDbEntity
  8
Defpoints
 62
     0
100
AcDbPoint
 10
356.6817439728288
 20
197.3947240001124
 30
0.0
  0
POINT
  5
3878
330
386D
100
AcDbEntity
  8
Defpoints
 62
     0
100
AcDbPoint
 10
356.6817439728288
 20
113.4370793645779
 30
0.0
  0
ENDBLK
  5
386F
330
386D
100
AcDbEntity
  8
0
100
AcDbBlockEnd
  0
BLOCK
  5
387B
330
387A
100
AcDbEntity
  8
0
100
AcDbBlockBegin
  2
*D7
 70
     1
 10
0.0
 20
0.0
 30
0.0
  3
*D7
  1
*D127
  0
LINE
  5
387D
330
387A
100
AcDbEntity
  8
DIM
 62
     0
370
    -2
100
AcDbLine
 10
361.6817439634287
 20
210.6456402339123
 30
0.0
 11
381.1802057218533
 21
210.6456402339123
 31
0.0
  0
LINE
  5
387E
330
387A
100
AcDbEntity
  8
DIM
 62
     0
370
    -2
100
AcDbLine
 10
351.2104983232284
 20
145.5546330899123
 30
0.0
 11
381.1802057218533
 21
145.5546330899123
 31
0.0
  0
LINE
  5
387F
330
387A
100
AcDbEntity
  8
DIM
 62
     0
370
    -2
100
AcDbLine
 10
381.1802057218533
 20
209.6456402339123
 30
0.0
 11
381.1802057218533
 21
146.5546330899123
 31
0.0
  0
INSERT
  5
3880
330
387A
100
AcDbEntity
  8
DIM
 62
     0
370
    -2
100
AcDbBlockReference
  2
_DOT
 10
381.1802057218533
 20
210.6456402339123
 30
0.0
 50
90.0
  0
INSERT
  5
3881
330
387A
100
AcDbEntity
  8
DIM
 62
     0
370
    -2
100
AcDbBlockReference
  2
_DOT
 10
381.1802057218533
 20
145.5546330899123
 30
0.0
 50
270.0
  0
MTEXT
  5
3882
330
387A
100
AcDbEntity
  8
DIM
 62
     0
 48
0.05
100
AcDbMText
 10
373.6802057218533
 20
178.1001370051123
 30
0.0
 40
5.0
 41
0.0
 46
0.0
 71
     5
 72
     1
  1
\A1;\A1;65
  7
ＭＳ ゴシック
 11
0.0
 21
1.0
 31
0.0
 73
     1
 44
1.0
  0
POINT
  5
3883
330
387A
100
AcDbEntity
  8
Defpoints
 62
     0
100
AcDbPoint
 10
356.6817439634287
 20
210.6456402339123
 30
0.0
  0
POINT
  5
3884
330
387A
100
AcDbEntity
  8
Defpoints
 62
     0
100
AcDbPoint
 10
346.2104983232284
 20
145.5546330899123
 30
0.0
  0
POINT
  5
3885
330
387A
100
AcDbEntity
  8
Defpoints
 62
     0
100
AcDbPoint
 10
381.1802057218533
 20
145.5546330899123
 30
0.0
  0
ENDBLK
  5
387C
330
387A
100
AcDbEntity
  8
0
100
AcDbBlockEnd
  0
BLOCK
  5
3934
330
3933
100
AcDbEntity
  8
0
100
AcDbBlockBegin
  2
*D8
 70
     1
 10
0.0
 20
0.0
 30
0.0
  3
*D8
  1
*D131
  0
LINE
  5
3936
330
3933
100
AcDbEntity
  8
DIM
 62
     0
 48
0.05
370
    -2
100
AcDbLine
 10
264.3329688988288
 20
132.7554298162339
 30
0.0
 11
264.3329688988288
 21
126.3475594767068
 31
0.0
  0
LINE
  5
3937
330
3933
100
AcDbEntity
  8
DIM
 62
     0
 48
0.05
370
    -2
100
AcDbLine
 10
271.3329688988288
 20
170.6660729800151
 30
0.0
 11
271.3329688988288
 21
126.3475594767068
 31
0.0
  0
LINE
  5
3938
330
3933
100
AcDbEntity
  8
DIM
 62
     0
 48
0.05
370
    -2
100
AcDbLine
 10
265.3329688988288
 20
126.3475594767068
 30
0.0
 11
270.3329688988288
 21
126.3475594767068
 31
0.0
  0
INSERT
  5
3939
330
3933
100
AcDbEntity
  8
DIM
 62
     0
370
    -2
100
AcDbBlockReference
  2
_DOT
 10
264.3329688988288
 20
126.3475594767068
 30
0.0
 50
180.0
  0
INSERT
  5
393A
330
3933
100
AcDbEntity
  8
DIM
 62
     0
370
    -2
100
AcDbBlockReference
  2
_DOT
 10
271.3329688988288
 20
126.3475594767068
 30
0.0
  0
MTEXT
  5
393B
330
3933
100
AcDbEntity
  8
DIM
 62
     0
 48
0.05
100
AcDbMText
 10
267.8329688988288
 20
133.8475594767068
 30
0.0
 40
5.0
 41
0.0
 46
0.0
 71
     5
 72
     1
  1
\A1;7
  7
ＭＳ ゴシック
 73
     1
 44
1.0
  0
POINT
  5
393C
330
3933
100
AcDbEntity
  8
Defpoints
 62
     0
100
AcDbPoint
 10
264.3329688988288
 20
137.7554298162339
 30
0.0
  0
POINT
  5
393D
330
3933
100
AcDbEntity
  8
Defpoints
 62
     0
100
AcDbPoint
 10
271.3329688988288
 20
175.6660729800151
 30
0.0
  0
POINT
  5
393E
330
3933
100
AcDbEntity
  8
Defpoints
 62
     0
100
AcDbPoint
 10
271.3329688988288
 20
126.3475594767068
 30
0.0
  0
ENDBLK
  5
3935
330
3933
100
AcDbEntity
  8
0
100
AcDbBlockEnd
  0
BLOCK
  5
4687
330
4686
100
AcDbEntity
  8
0
100
AcDbBlockBegin
  2
*D9
 70
     1
 10
0.0
 20
0.0
 30
0.0
  3
*D9
  1
*D140
  0
LINE
  5
4689
330
4686
100
AcDbEntity
  8
DIM
 62
     0
 48
0.05
370
    -2
100
AcDbLine
 10
83.77834213915439
 20
245.6507761786149
 30
0.0
 11
45.19162258600464
 21
245.6507761786149
 31
0.0
  0
LINE
  5
468A
330
4686
100
AcDbEntity
  8
DIM
 62
     0
 48
0.05
370
    -2
100
AcDbLine
 10
83.77834213915439
 20
175.6507761786149
 30
0.0
 11
45.19162258600464
 21
175.6507761786149
 31
0.0
  0
LINE
  5
468B
330
4686
100
AcDbEntity
  8
DIM
 62
     0
 48
0.05
370
    -2
100
AcDbLine
 10
45.19162258600464
 20
244.6507761786149
 30
0.0
 11
45.19162258600464
 21
176.6507761786149
 31
0.0
  0
INSERT
  5
468C
330
4686
100
AcDbEntity
  8
DIM
 62
     0
370
    -2
100
AcDbBlockReference
  2
_DOT
 10
45.19162258600464
 20
245.6507761786149
 30
0.0
 50
90.0
  0
INSERT
  5
468D
330
4686
100
AcDbEntity
  8
DIM
 62
     0
370
    -2
100
AcDbBlockReference
  2
_DOT
 10
45.19162258600464
 20
175.6507761786149
 30
0.0
 50
270.0
  0
MTEXT
  5
468E
330
4686
100
AcDbEntity
  8
DIM
 62
     0
 48
0.05
100
AcDbMText
 10
37.69162258600464
 20
210.6507761786149
 30
0.0
 40
5.0
 41
0.0
 46
0.0
 71
     5
 72
     1
  1
\A1;70
  7
ＭＳ ゴシック
 11
1.015061051085857E-16
 21
1.0
 31
0.0
 73
     1
 44
1.0
  0
POINT
  5
468F
330
4686
100
AcDbEntity
  8
Defpoints
 62
     0
100
AcDbPoint
 10
88.77834213915439
 20
245.6507761786149
 30
0.0
  0
POINT
  5
4690
330
4686
100
AcDbEntity
  8
Defpoints
 62
     0
100
AcDbPoint
 10
88.77834213915439
 20
175.6507761786149
 30
0.0
  0
POINT
  5
4691
330
4686
100
AcDbEntity
  8
Defpoints
 62
     0
100
AcDbPoint
 10
45.19162258600464
 20
175.6507761786149
 30
0.0
  0
ENDBLK
  5
4688
330
4686
100
AcDbEntity
  8
0
100
AcDbBlockEnd
  0
BLOCK
  5
46DD
330
46DC
100
AcDbEntity
  8
0
100
AcDbBlockBegin
  2
*D10
 70
     1
 10
0.0
 20
0.0
 30
0.0
  3
*D10
  1
*D141
  0
LINE
  5
46DF
330
46DC
100
AcDbEntity
  8
DIM
 62
     0
 48
0.05
370
    -2
100
AcDbLine
 10
166.7931041562287
 20
248.1444773349123
 30
0.0
 11
155.1491287012263
 21
248.1444773349123
 31
0.0
  0
LINE
  5
46E0
330
46DC
100
AcDbEntity
  8
DIM
 62
     0
 48
0.05
370
    -2
100
AcDbLine
 10
166.7931041562287
 20
173.1444773349123
 30
0.0
 11
155.1491287012263
 21
173.1444773349123
 31
0.0
  0
LINE
  5
46E1
330
46DC
100
AcDbEntity
  8
DIM
 62
     0
 48
0.05
370
    -2
100
AcDbLine
 10
155.1491287012263
 20
247.1444773349123
 30
0.0
 11
155.1491287012263
 21
174.1444773349123
 31
0.0
  0
INSERT
  5
46E2
330
46DC
100
AcDbEntity
  8
DIM
 62
     0
370
    -2
100
AcDbBlockReference
  2
_DOT
 10
155.1491287012263
 20
248.1444773349123
 30
0.0
 50
90.0
  0
INSERT
  5
46E3
330
46DC
100
AcDbEntity
  8
DIM
 62
     0
370
    -2
100
AcDbBlockReference
  2
_DOT
 10
155.1491287012263
 20
173.1444773349123
 30
0.0
 50
270.0
  0
MTEXT
  5
46E4
330
46DC
100
AcDbEntity
  8
DIM
 62
     0
 48
0.05
100
AcDbMText
 10
147.6491287012263
 20
210.6444773349123
 30
0.0
 40
5.0
 41
0.0
 46
0.0
 71
     5
 72
     1
  1
\A1;75
  7
ＭＳ ゴシック
 11
0.0
 21
1.0
 31
0.0
 73
     1
 44
1.0
  0
POINT
  5
46E5
330
46DC
100
AcDbEntity
  8
Defpoints
 62
     0
100
AcDbPoint
 10
171.7931041562287
 20
248.1444773349123
 30
0.0
  0
POINT
  5
46E6
330
46DC
100
AcDbEntity
  8
Defpoints
 62
     0
100
AcDbPoint
 10
171.7931041562287
 20
173.1444773349123
 30
0.0
  0
POINT
  5
46E7
330
46DC
100
AcDbEntity
  8
Defpoints
 62
     0
100
AcDbPoint
 10
155.1491287012263
 20
173.1444773349123
 30
0.0
  0
ENDBLK
  5
46DE
330
46DC
100
AcDbEntity
  8
0
100
AcDbBlockEnd
  0
BLOCK
  5
4795
330
4794
100
AcDbEntity
  8
0
100
AcDbBlockBegin
  2
*D11
 70
     1
 10
0.0
 20
0.0
 30
0.0
  3
*D11
  1
*D12
  0
LINE
  5
4796
330
4794
100
AcDbEntity
  8
DIM
 62
     0
 48
0.05
370
    -2
100
AcDbLine
 10
0.5
 20
16.4709182716627
 30
0.0
 11
0.5
 21
24.62774785891509
 31
0.0
  0
LINE
  5
4797
330
4794
100
AcDbEntity
  8
DIM
 62
     0
 48
0.05
370
    -2
100
AcDbLine
 10
21.5
 20
16.4709182716627
 30
0.0
 11
21.5
 21
24.62774785891509
 31
0.0
  0
LINE
  5
4798
330
4794
100
AcDbEntity
  8
DIM
 62
     0
 48
0.05
370
    -2
100
AcDbLine
 10
1.5
 20
24.62774785891509
 30
0.0
 11
20.5
 21
24.62774785891509
 31
0.0
  0
INSERT
  5
4799
330
4794
100
AcDbEntity
  8
DIM
 62
     0
370
    -2
100
AcDbBlockReference
  2
_DOT
 10
0.5
 20
24.62774785891509
 30
0.0
 50
180.0
  0
INSERT
  5
479A
330
4794
100
AcDbEntity
  8
DIM
 62
     0
370
    -2
100
AcDbBlockReference
  2
_DOT
 10
21.5
 20
24.62774785891509
 30
0.0
  0
MTEXT
  5
479B
330
4794
100
AcDbEntity
  8
DIM
 62
     0
 48
0.05
100
AcDbMText
 10
11.0
 20
32.66024785891508
 30
0.0
 40
5.0
 41
0.0
 46
0.0
 71
     5
 72
     1
  1
\A1;G1/2"
  7
ＭＳ ゴシック
 73
     1
 44
1.0
  0
POINT
  5
479C
330
4794
100
AcDbEntity
  8
Defpoints
 62
     0
100
AcDbPoint
 10
0.5
 20
11.4709182716627
 30
0.0
  0
POINT
  5
479D
330
4794
100
AcDbEntity
  8
Defpoints
 62
     0
100
AcDbPoint
 10
21.5
 20
11.4709182716627
 30
0.0
  0
POINT
  5
479E
330
4794
100
AcDbEntity
  8
Defpoints
 62
     0
100
AcDbPoint
 10
21.5
 20
24.62774785891509
 30
0.0
  0
ENDBLK
  5
479F
330
4794
100
AcDbEntity
  8
0
100
AcDbBlockEnd
  0
BLOCK
  5
47A9
330
47A8
100
AcDbEntity
  8
0
100
AcDbBlockBegin
  2
*D12
 70
     1
 10
0.0
 20
0.0
 30
0.0
  3
*D12
  1
*D13
  0
LINE
  5
47AB
330
47A8
100
AcDbEntity
  8
DIM
 62
     0
 48
0.05
370
    -2
100
AcDbLine
 10
177.293023855076
 20
253.2530124102766
 30
0.0
 11
177.293023855076
 21
261.4098419975289
 31
0.0
  0
LINE
  5
47AC
330
47A8
100
AcDbEntity
  8
DIM
 62
     0
 48
0.05
370
    -2
100
AcDbLine
 10
198.293023855076
 20
253.2530124102766
 30
0.0
 11
198.293023855076
 21
261.4098419975289
 31
0.0
  0
LINE
  5
47AD
330
47A8
100
AcDbEntity
  8
DIM
 62
     0
 48
0.05
370
    -2
100
AcDbLine
 10
178.293023855076
 20
261.4098419975289
 30
0.0
 11
197.293023855076
 21
261.4098419975289
 31
0.0
  0
INSERT
  5
47AE
330
47A8
100
AcDbEntity
  8
DIM
 62
     0
370
    -2
100
AcDbBlockReference
  2
_DOT
 10
177.293023855076
 20
261.4098419975289
 30
0.0
 50
180.0
  0
INSERT
  5
47AF
330
47A8
100
AcDbEntity
  8
DIM
 62
     0
370
    -2
100
AcDbBlockReference
  2
_DOT
 10
198.293023855076
 20
261.4098419975289
 30
0.0
  0
MTEXT
  5
47B0
330
47A8
100
AcDbEntity
  8
DIM
 62
     0
 48
0.05
100
AcDbMText
 10
187.793023855076
 20
269.442341997529
 30
0.0
 40
5.0
 41
0.0
 46
0.0
 71
     5
 72
     1
  1
\A1;G3/4"
  7
ＭＳ ゴシック
 73
     1
 44
1.0
  0
POINT
  5
47B1
330
47A8
100
AcDbEntity
  8
Defpoints
 62
     0
100
AcDbPoint
 10
177.293023855076
 20
248.2530124102766
 30
0.0
  0
POINT
  5
47B2
330
47A8
100
AcDbEntity
  8
Defpoints
 62
     0
100
AcDbPoint
 10
198.293023855076
 20
248.2530124102766
 30
0.0
  0
POINT
  5
47B3
330
47A8
100
AcDbEntity
  8
Defpoints
 62
     0
100
AcDbPoint
 10
198.293023855076
 20
261.4098419975289
 30
0.0
  0
ENDBLK
  5
47AA
330
47A8
100
AcDbEntity
  8
0
100
AcDbBlockEnd
  0
BLOCK
  5
47B9
330
47B8
100
AcDbEntity
  8
0
100
AcDbBlockBegin
  2
*D13
 70
     1
 10
0.0
 20
0.0
 30
0.0
  3
*D13
  1
*D14
  0
LINE
  5
47BB
330
47B8
100
AcDbEntity
  8
DIM
 62
     0
 48
0.05
370
    -2
100
AcDbLine
 10
174.5930742450087
 20
168.2112591862002
 30
0.0
 11
174.5930742450087
 21
151.3973762716783
 31
0.0
  0
LINE
  5
47BC
330
47B8
100
AcDbEntity
  8
DIM
 62
     0
 48
0.05
370
    -2
100
AcDbLine
 10
200.9931340674486
 20
168.2112591862002
 30
0.0
 11
200.9931340674486
 21
151.3973762716783
 31
0.0
  0
LINE
  5
47BD
330
47B8
100
AcDbEntity
  8
DIM
 62
     0
 48
0.05
370
    -2
100
AcDbLine
 10
175.5930742450087
 20
151.3973762716783
 30
0.0
 11
199.9931340674486
 21
151.3973762716783
 31
0.0
  0
INSERT
  5
47BE
330
47B8
100
AcDbEntity
  8
DIM
 62
     0
370
    -2
100
AcDbBlockReference
  2
_DOT
 10
174.5930742450087
 20
151.3973762716783
 30
0.0
 50
180.0
  0
INSERT
  5
47BF
330
47B8
100
AcDbEntity
  8
DIM
 62
     0
370
    -2
100
AcDbBlockReference
  2
_DOT
 10
200.9931340674486
 20
151.3973762716783
 30
0.0
  0
MTEXT
  5
47C0
330
47B8
100
AcDbEntity
  8
DIM
 62
     0
 48
0.05
100
AcDbMText
 10
187.793023855076
 20
159.4298762716783
 30
0.0
 40
5.0
 41
0.0
 46
0.0
 71
     5
 72
     1
  1
\A1;G3/4"
  7
ＭＳ ゴシック
 73
     1
 44
1.0
  0
POINT
  5
47C1
330
47B8
100
AcDbEntity
  8
Defpoints
 62
     0
100
AcDbPoint
 10
174.5930742450087
 20
173.2112591862002
 30
0.0
  0
POINT
  5
47C2
330
47B8
100
AcDbEntity
  8
Defpoints
 62
     0
100
AcDbPoint
 10
200.9931340674486
 20
173.2112591862002
 30
0.0
  0
POINT
  5
47C3
330
47B8
100
AcDbEntity
  8
Defpoints
 62
     0
100
AcDbPoint
 10
200.9931340674486
 20
151.3973762716783
 30
0.0
  0
ENDBLK
  5
47BA
330
47B8
100
AcDbEntity
  8
0
100
AcDbBlockEnd
  0
BLOCK
  5
47C8
330
47C7
100
AcDbEntity
  8
0
100
AcDbBlockBegin
  2
*D14
 70
     1
 10
0.0
 20
0.0
 30
0.0
  3
*D14
  1
*D15
  0
LINE
  5
47CA
330
47C7
100
AcDbEntity
  8
DIM
 62
     0
 48
0.05
370
    -2
100
AcDbLine
 10
264.3329688988288
 20
131.6444773349123
 30
0.0
 11
264.3329688988288
 21
113.4370793645779
 31
0.0
  0
LINE
  5
47CB
330
47C7
100
AcDbEntity
  8
DIM
 62
     0
 48
0.05
370
    -2
100
AcDbLine
 10
187.793023855076
 20
146.3973762716783
 30
0.0
 11
187.793023855076
 21
113.4370793645779
 31
0.0
  0
LINE
  5
47CC
330
47C7
100
AcDbEntity
  8
DIM
 62
     0
 48
0.05
370
    -2
100
AcDbLine
 10
263.3329688988288
 20
113.4370793645779
 30
0.0
 11
188.793023855076
 21
113.4370793645779
 31
0.0
  0
INSERT
  5
47CD
330
47C7
100
AcDbEntity
  8
DIM
 62
     0
370
    -2
100
AcDbBlockReference
  2
_DOT
 10
264.3329688988288
 20
113.4370793645779
 30
0.0
  0
INSERT
  5
47CE
330
47C7
100
AcDbEntity
  8
DIM
 62
     0
370
    -2
100
AcDbBlockReference
  2
_DOT
 10
187.793023855076
 20
113.4370793645779
 30
0.0
 50
180.0
  0
MTEXT
  5
47CF
330
47C7
100
AcDbEntity
  8
DIM
 62
     0
 48
0.05
100
AcDbMText
 10
226.0629963769524
 20
120.9370793645779
 30
0.0
 40
5.0
 41
0.0
 46
0.0
 71
     5
 72
     1
  1
\A1;67-112
  7
ＭＳ ゴシック
 73
     1
 44
1.0
  0
POINT
  5
47D0
330
47C7
100
AcDbEntity
  8
Defpoints
 62
     0
100
AcDbPoint
 10
264.3329688988288
 20
136.6444773349123
 30
0.0
  0
POINT
  5
47D1
330
47C7
100
AcDbEntity
  8
Defpoints
 62
     0
100
AcDbPoint
 10
187.793023855076
 20
151.3973762716783
 30
0.0
  0
POINT
  5
47D2
330
47C7
100
AcDbEntity
  8
Defpoints
 62
     0
100
AcDbPoint
 10
187.793023855076
 20
113.4370793645779
 30
0.0
  0
ENDBLK
  5
47C9
330
47C7
100
AcDbEntity
  8
0
100
AcDbBlockEnd
  0
BLOCK
  5
47EA
330
47E9
100
AcDbEntity
  8
0
100
AcDbBlockBegin
  2
*D15
 70
     1
 10
0.0
 20
0.0
 30
0.0
  3
*D15
  1
*D16
  0
LINE
  5
47EC
330
47E9
100
AcDbEntity
  8
DIM
 62
     0
 48
0.05
370
    -2
100
AcDbLine
 10
174.5930742450087
 20
253.0776954836244
 30
0.0
 11
174.5930742450087
 21
262.5279402328459
 31
0.0
  0
LINE
  5
47ED
330
47E9
100
AcDbEntity
  8
DIM
 62
     0
 48
0.05
370
    -2
100
AcDbLine
 10
200.9931340674486
 20
253.0776954836244
 30
0.0
 11
200.9931340674486
 21
262.5279402328459
 31
0.0
  0
LINE
  5
47EE
330
47E9
100
AcDbEntity
  8
DIM
 62
     0
 48
0.05
370
    -2
100
AcDbLine
 10
175.5930742450087
 20
262.5279402328459
 30
0.0
 11
199.9931340674486
 21
262.5279402328459
 31
0.0
  0
INSERT
  5
47EF
330
47E9
100
AcDbEntity
  8
DIM
 62
     0
370
    -2
100
AcDbBlockReference
  2
_DOT
 10
174.5930742450087
 20
262.5279402328459
 30
0.0
 50
180.0
  0
INSERT
  5
47F0
330
47E9
100
AcDbEntity
  8
DIM
 62
     0
370
    -2
100
AcDbBlockReference
  2
_DOT
 10
200.9931340674486
 20
262.5279402328459
 30
0.0
  0
MTEXT
  5
47F1
330
47E9
100
AcDbEntity
  8
DIM
 62
     0
 48
0.05
100
AcDbMText
 10
187.793023855076
 20
270.560440232846
 30
0.0
 40
5.0
 41
0.0
 46
0.0
 71
     5
 72
     1
  1
\A1;G3/4"
  7
ＭＳ ゴシック
 73
     1
 44
1.0
  0
POINT
  5
47F2
330
47E9
100
AcDbEntity
  8
Defpoints
 62
     0
100
AcDbPoint
 10
174.5930742450087
 20
248.0776954836244
 30
0.0
  0
POINT
  5
47F3
330
47E9
100
AcDbEntity
  8
Defpoints
 62
     0
100
AcDbPoint
 10
200.9931340674486
 20
248.0776954836244
 30
0.0
  0
POINT
  5
47F4
330
47E9
100
AcDbEntity
  8
Defpoints
 62
     0
100
AcDbPoint
 10
200.9931340674486
 20
262.5279402328459
 30
0.0
  0
ENDBLK
  5
47EB
330
47E9
100
AcDbEntity
  8
0
100
AcDbBlockEnd
  0
BLOCK
  5
4832
330
4831
100
AcDbEntity
  8
0
100
AcDbBlockBegin
  2
_SE_FILLED
 70
     0
 10
0.0
 20
0.0
 30
0.0
  3
_SE_FILLED
  1

  0
SOLID
  5
4833
330
4831
100
AcDbEntity
  8
0
 62
     0
100
AcDbTrace
 10
0.0
 20
0.0
 30
0.0
 11
-1.0
 21
-0.1665
 31
0.0
 12
-1.0
 22
0.1665
 32
0.0
 13
0.0
 23
0.0
 33
0.0
  0
LINE
  5
4834
330
4831
100
AcDbEntity
  8
0
 62
     0
100
AcDbLine
 10
0.0
 20
0.0
 30
0.0
 11
-1.0
 21
0.0
 31
0.0
  0
ENDBLK
  5
4835
330
4831
100
AcDbEntity
  8
0
100
AcDbBlockEnd
  0
ENDSEC
  0
SECTION
  2
ENTITIES
  0
MTEXT
  5
177
330
A
100
AcDbEntity
  8
TEMPLATE
390
1D
100
AcDbMText
 10
15.84042890954615
 20
68.74635032628565
 30
0.0
 40
3.257682291666665
 41
0.0
 46
0.0
 71
     1
 72
     1
  1
品名
  7
ＭＳ ゴシック
 73
     1
 44
0.7828267384257843
  0
MTEXT
  5
178
330
A
100
AcDbEntity
  8
TEMPLATE
390
1D
100
AcDbMText
 10
15.84042890954615
 20
51.7463503262856
 30
0.0
 40
3.257682291666665
 41
0.0
 46
0.0
 71
     1
 72
     1
  1
仕様
  7
ＭＳ ゴシック
 73
     1
 44
0.7828267384257843
  0
LINE
  5
179
330
A
100
AcDbEntity
  8
TEMPLATE
390
1D
100
AcDbLine
 10
404.4404289094496
 20
53.42933470128568
 30
0.0
 11
14.44042890944975
 21
53.42933470128568
 31
0.0
  0
LWPOLYLINE
  5
17A
330
A
100
AcDbEntity
  8
TEMPLATE
390
1D
100
AcDbPolyline
 90
        5
 70
   128
 43
0.0
 10
404.4404289094496
 20
579.4293347012853
 10
14.44042890944975
 20
579.4293347012853
 10
14.44042890944975
 20
19.42933470128565
 10
404.4404289094496
 20
19.42933470128565
 10
404.4404289094496
 20
579.4293347012853
  0
LINE
  5
17B
330
A
100
AcDbEntity
  8
TEMPLATE
390
1D
100
AcDbLine
 10
404.4404289094496
 20
70.42933470128564
 30
0.0
 11
14.44042890944975
 21
70.42933470128564
 31
0.0
  0
LINE
  5
17C
330
A
100
AcDbEntity
  8
TEMPLATE
390
1D
100
AcDbLine
 10
404.4404289095464
 20
36.42933470128565
 30
0.0
 11
253.840428909546
 21
36.42933470128565
 31
0.0
  0
MTEXT
  5
17E
330
A
100
AcDbEntity
  8
TEMPLATE
390
1D
100
AcDbMText
 10
259.8147101599982
 20
30.44725580662403
 30
0.0
 40
4.8865234375
 41
0.0
 46
0.0
 71
     1
 72
     1
  1
大洋金物株式会社 ティーフォルム事業部
  7
ＭＳ ゴシック
 73
     1
 44
0.7828267384257843
  0
MTEXT
  5
180
330
A
100
AcDbEntity
  8
TEMPLATE
390
1D
100
AcDbMText
 10
366.240428909598
 20
46.02985813878564
 30
0.0
 40
4.8865234375
 41
0.0
 46
4.8865234375
 71
     1
 72
     1
  1
{1:2}
  7
ＭＳ ゴシック
 73
     1
 44
0.7828267384257843
1001
ACAD
1000
ACAD_MTEXT_DEFINED_HEIGHT_BEGIN
1070
    46
1040
4.8865234375
1000
ACAD_MTEXT_DEFINED_HEIGHT_END
  0
MTEXT
  5
181
330
A
100
AcDbEntity
  8
TEMPLATE
390
1D
100
AcDbMText
 10
355.640428909598
 20
51.7463503262856
 30
0.0
 40
3.257682291666665
 41
0.0
 46
0.0
 71
     1
 72
     1
  1
縮尺
  7
ＭＳ ゴシック
 73
     1
 44
0.7828267384257843
  0
LINE
  5
182
330
A
100
AcDbEntity
  8
TEMPLATE
390
1D
100
AcDbLine
 10
354.240428909598
 20
36.42933470128565
 30
0.0
 11
354.240428909598
 21
53.42933470128568
 31
0.0
  0
MTEXT
  5
183
330
A
100
AcDbEntity
  8
TEMPLATE
390
1D
100
AcDbMText
 10
305.440428909598
 20
51.7463503262856
 30
0.0
 40
3.257682291666665
 41
0.0
 46
0.0
 71
     1
 72
     1
  1
容量
  7
ＭＳ ゴシック
 73
     1
 44
0.7828267384257843
  0
LINE
  5
184
330
A
100
AcDbEntity
  8
TEMPLATE
390
1D
100
AcDbLine
 10
304.040428909598
 20
36.42933470128565
 30
0.0
 11
304.040428909598
 21
53.42933470128568
 31
0.0
  0
MTEXT
  5
185
330
A
100
AcDbEntity
  8
TEMPLATE
390
1D
100
AcDbMText
 10
255.240428909598
 20
68.74635032628565
 30
0.0
 40
3.257682291666665
 41
0.0
 46
0.0
 71
     1
 72
     1
  1
品番
  7
ＭＳ ゴシック
 73
     1
 44
0.7828267384257843
  0
MTEXT
  5
186
330
A
100
AcDbEntity
  8
TEMPLATE
390
1D
100
AcDbMText
 10
255.240428909598
 20
51.7463503262856
 30
0.0
 40
3.257682291666665
 41
0.0
 46
0.0
 71
     1
 72
     1
  1
重量
  7
ＭＳ ゴシック
 73
     1
 44
0.7828267384257843
  0
MTEXT
  5
187
330
A
100
AcDbEntity
  8
TEMPLATE
390
1D
100
AcDbMText
 10
265.840428909598
 20
63.02985813878564
 30
0.0
 40
4.8865234375
 41
0.0
 46
4.8865234375
 71
     1
 72
     1
  1
{FHT73-1108}
  7
ＭＳ ゴシック
 73
     1
 44
0.7828267384257843
1001
ACAD
1000
ACAD_MTEXT_DEFINED_HEIGHT_BEGIN
1070
    46
1040
4.8865234375
1000
ACAD_MTEXT_DEFINED_HEIGHT_END
  0
LINE
  5
188
330
A
100
AcDbEntity
  8
TEMPLATE
390
1D
100
AcDbLine
 10
253.840428909598
 20
19.42933470128565
 30
0.0
 11
253.840428909598
 21
70.42933470128564
 31
0.0
  0
MTEXT
  5
189
330
A
100
AcDbEntity
  8
TEMPLATE
390
1D
100
AcDbMText
 10
26.44042890954615
 20
63.02985813878564
 30
0.0
 40
4.8865234375
 41
0.0
 46
5.5071119140625
 71
     1
 72
     1
  1
{埋込ストップバルブ　-GROHE,Grandera-}
  7
ＭＳ ゴシック
 73
     1
 44
0.7828267384257843
1001
ACAD
1000
ACAD_MTEXT_DEFINED_HEIGHT_BEGIN
1070
    46
1040
5.5071119140625
1000
ACAD_MTEXT_DEFINED_HEIGHT_END
  0
INSERT
  5
6B5
330
A
100
AcDbEntity
  8
TEMPLATE
100
AcDbBlockReference
  2
名称未設定-1
 10
374.15014961769
 20
5.189353151330764
 30
0.0
 41
0.1524
 42
0.1524
 43
0.1524
  0
INSERT
  5
68C
330
A
100
AcDbEntity
  8
TEMPLATE
100
AcDbBlockReference
  2
block 2
 10
919.2743017702577
 20
8.373076514336368
 30
0.0
 41
0.3809999999999999
 42
0.3809999999999999
 43
0.3809999999999999
  0
LWPOLYLINE
  5
D69
330
A
100
AcDbEntity
  8
BORDER
 48
0.025
100
AcDbPolyline
 90
        4
 70
     1
 43
0.0
 10
0.0
 20
0.0
 10
0.0
 20
594.0
 10
420.0
 20
594.0
 10
420.0
 20
0.0
  0
INSERT
  5
1343
330
A
100
AcDbEntity
  8
TEMPLATE
100
AcDbBlockReference
  2
block 2
 10
2096.743470866468
 20
24.43532141229569
 30
0.0
 41
0.3809999999999999
 42
0.3809999999999999
 43
0.3809999999999999
  0
POINT
  5
3697
330
A
100
AcDbEntity
  8
Layer50
  6
HIDDEN2
 62
     7
100
AcDbPoint
 10
396.8678405503807
 20
449.3605456225488
 30
0.0
  0
POINT
  5
36AA
330
A
100
AcDbEntity
  8
Layer50
  6
HIDDEN2
 62
     7
100
AcDbPoint
 10
396.8678405503807
 20
469.8605456225488
 30
0.0
  0
POINT
  5
36B6
330
A
100
AcDbEntity
  8
Layer50
  6
HIDDEN2
 62
     7
100
AcDbPoint
 10
405.6628405503807
 20
460.6105456225488
 30
0.0
  0
POINT
  5
36BC
330
A
100
AcDbEntity
  8
Layer50
  6
HIDDEN2
 62
     7
100
AcDbPoint
 10
403.6628405503807
 20
460.6105456225488
 30
0.0
  0
SPLINE
  5
36C6
330
A
100
AcDbEntity
  8
MODEL
100
AcDbSpline
210
0.0
220
0.0
230
1.0
 70
     8
 71
     3
 72
    34
 73
    30
 74
     0
 42
0.000000001
 43
0.0000000001
 40
0.0
 40
0.0
 40
0.0
 40
0.0
 40
0.0366127287052271
 40
0.073225493853197
 40
0.1098383168411729
 40
0.1464512193866456
 40
0.183064223688654
 40
0.2196773525891026
 40
0.2562906297340694
 40
0.2929040797351085
 40
0.3295177283305408
 40
0.366131602546738
 40
0.4027457308593868
 40
0.4393601433547449
 40
0.4759748718908656
 40
0.5125899502588203
 40
0.5492054143438765
 40
0.585821302286664
 40
0.6224376546442988
 40
0.6590545145514772
 40
0.6956719278815305
 40
0.7322899434074297
 40
0.7689086129627484
 40
0.8055279916025586
 40
0.8421481377642821
 40
0.8787691134284503
 40
0.9153909842794133
 40
0.952013819865946
 40
1.0
 40
1.0
 40
1.0
 40
1.0
 10
264.3331041567585
 20
245.3456923128892
 30
0.0
 10
264.3330011370076
 20
245.3453491314476
 30
0.0
 10
264.3330062596015
 20
245.3446627682227
 30
0.0
 10
264.3330137398279
 20
245.3390321613572
 30
0.0
 10
264.3330210486088
 20
245.330033343954
 30
0.0
 10
264.333028154987
 20
245.3173359740961
 30
0.0
 10
264.3330350449673
 20
245.3010285676427
 30
0.0
 10
264.3330417000411
 20
245.281087407986
 30
0.0
 10
264.3330481029434
 20
245.257518851686
 30
0.0
 10
264.3330542361073
 20
245.2303211976408
 30
0.0
 10
264.3330600820814
 20
245.1994949042599
 30
0.0
 10
264.3330656234157
 20
245.1650398517666
 30
0.0
 10
264.3330708426934
 20
245.1269560757653
 30
0.0
 10
264.3330757225208
 20
245.0852435706819
 30
0.0
 10
264.3330802455321
 20
245.0399023424322
 30
0.0
 10
264.3330843943868
 20
244.9909323943089
 30
0.0
 10
264.3330881517713
 20
244.9383337307638
 30
0.0
 10
264.3330915003971
 20
244.8821063563943
 30
0.0
 10
264.3330944230033
 20
244.8222502762093
 30
0.0
 10
264.3330969023541
 20
244.7587654955874
 30
0.0
 10
264.33309892124
 20
244.6916520201715
 30
0.0
 10
264.3331004624793
 20
244.6209098563345
 30
0.0
 10
264.3331015089138
 20
244.5465390094244
 30
0.0
 10
264.3331020434175
 20
244.4685394903145
 30
0.0
 10
264.3331020488722
 20
244.3869112909593
 30
0.0
 10
264.3331015082549
 20
244.3016544756229
 30
0.0
 10
264.3331004043112
 20
244.2127688403985
 30
0.0
 10
264.3330985466705
 20
244.1106876761838
 30
0.0
 10
264.3330967170291
 20
244.0362160599885
 30
0.0
 10
264.3330955017673
 20
243.9929416112637
 30
0.0
  0
SPLINE
  5
36C7
330
A
100
AcDbEntity
  8
MODEL
100
AcDbSpline
210
0.0
220
0.0
230
1.0
 70
     8
 71
     3
 72
    94
 73
    90
 74
     0
 42
0.000000001
 43
0.0000000001
 40
0.0
 40
0.0
 40
0.0
 40
0.0
 40
0.0193012302484866
 40
0.0386024797070774
 40
0.05790375965587
 40
0.0772050815437698
 40
0.0965064570735318
 40
0.1158078982868031
 40
0.1351094176491631
 40
0.1544110281351573
 40
0.1737127433133269
 40
0.1930145774312335
 40
0.2123165455004754
 40
0.2316186633816948
 40
0.2509209478695786
 40
0.2702234167778426
 40
0.2895260890242097
 40
0.308828984715365
 40
0.3281321252319042
 40
0.3474355333132543
 40
0.36673923314258
 40
0.3860432504316603
 40
0.4053476125057452
 40
0.4246523483883796
 40
0.4439574888861937
 40
0.4632630666736603
 40
0.4825691163778109
 40
0.501875674662906
 40
0.5496556617232488
 40
0.6072770639021143
 40
0.6747444268454866
 40
0.7520649752301269
 40
0.8234772622759173
 40
0.8763925465332549
 40
0.9082214082756833
 40
0.9382960092919692
 40
0.9691740626926637
 40
0.9845936977744811
 40
0.9922985343810569
 40
0.996149690918151
 40
0.9980749516846643
 40
0.9990375024352371
 40
0.9992781318156636
 40
0.999338288641226
 40
0.9993683669760595
 40
0.9993834061239892
 40
0.9993984452589304
 40
0.9994134843808758
 40
0.9994285234898292
 40
0.9994435625857904
 40
0.9994586016687561
 40
0.9994736407387302
 40
0.999488679795712
 40
0.9995037188396988
 40
0.9995187578706937
 40
0.9995337968886902
 40
0.9995488358936946
 40
0.9995638748857046
 40
0.9995789138647194
 40
0.9995939528307362
 40
0.9996089917837611
 40
0.9996240307237882
 40
0.9996390696508175
 40
0.9996541085648518
 40
0.9996691474658883
 40
0.9996841863539301
 40
0.9996992252289743
 40
0.9997142640910173
 40
0.9997293029400658
 40
0.9997443417761169
 40
0.9997593805991667
 40
0.9997744194092193
 40
0.9997894582062743
 40
0.9998044969903284
 40
0.9998195357613854
 40
0.9998345745194414
 40
0.9998496132644976
 40
0.9998646519965523
 40
0.9998796907156071
 40
0.9998947294216612
 40
0.9999097681147153
 40
0.9999248067947686
 40
0.9999398454618185
 40
0.9999548841158681
 40
0.9999699227569145
 40
0.9999849613849572
 40
0.999992480694104
 40
0.99999624034746
 40
1.0
 40
1.0
 40
1.0
 40
1.0
 10
264.3331041562324
 20
210.6430682516589
 30
0.0
 10
264.3330011359562
 20
210.4493210956408
 30
0.0
 10
264.3330062585765
 20
210.061826590772
 30
0.0
 10
264.3330137388457
 20
209.4806069397114
 30
0.0
 10
264.3330210476693
 20
208.8994315741264
 30
0.0
 10
264.3330281540921
 20
208.3183228004426
 30
0.0
 10
264.3330350441174
 20
207.737302938404
 30
0.0
 10
264.3330416992376
 20
207.1563943041954
 30
0.0
 10
264.3330481021862
 20
206.575619214965
 30
0.0
 10
264.3330542353979
 20
205.9949999876122
 30
0.0
 10
264.3330600814197
 20
205.4145589391127
 30
0.0
 10
264.3330656228027
 20
204.8343183864309
 30
0.0
 10
264.333070842129
 20
204.2543006465433
 30
0.0
 10
264.3330757220051
 20
203.6745280364324
 30
0.0
 10
264.333080245065
 20
203.0950228730883
 30
0.0
 10
264.3330843939684
 20
202.5158074735075
 30
0.0
 10
264.3330881514007
 20
201.9369041546934
 30
0.0
 10
264.3330915000747
 20
201.3583352336594
 30
0.0
 10
264.3330944227278
 20
200.7801230274129
 30
0.0
 10
264.3330969021249
 20
200.2022898530155
 30
0.0
 10
264.3330989210567
 20
199.6248580273607
 30
0.0
 10
264.3331004623406
 20
199.0478498679985
 30
0.0
 10
264.3331015088188
 20
198.4712876900617
 30
0.0
 10
264.3331020433652
 20
197.895193817737
 30
0.0
 10
264.3331020488608
 20
197.3195905414515
 30
0.0
 10
264.3331015082831
 20
196.7445002776607
 30
0.0
 10
264.3331004043775
 20
196.1699449724887
 30
0.0
 10
264.333097893285
 20
195.3137760345574
 30
0.0
 10
264.3330920264293
 20
194.0801087020371
 30
0.0
 10
264.3330786839851
 20
192.3753433721316
 30
0.0
 10
264.3330552716593
 20
190.3874560563764
 30
0.0
 10
264.3330198185859
 20
188.2754213662577
 30
0.0
 10
264.3329758548707
 20
186.3176894825868
 30
0.0
 10
264.3329342186189
 20
184.8102748494563
 30
0.0
 10
264.3328995986221
 20
183.7065349559979
 30
0.0
 10
264.3328691867541
 20
182.8174685295913
 30
0.0
 10
264.3328421240358
 20
182.0880161034885
 30
0.0
 10
264.3328218683246
 20
181.5735470720295
 30
0.0
 10
264.3328114669866
 20
181.3168919760358
 30
0.0
 10
264.3328061976863
 20
181.18871127417
 30
0.0
 10
264.3328035458462
 20
181.1246578735468
 30
0.0
 10
264.3328023106315
 20
181.0949271955804
 30
0.0
 10
264.3328018111251
 20
181.0829220880833
 30
0.0
 10
264.3328016802602
 20
181.0797780371254
 30
0.0
 10
264.3328016386172
 20
181.0787776698114
 30
0.0
 10
264.3328016148203
 20
181.0782060340501
 30
0.0
 10
264.3328015969719
 20
181.0777773085176
 30
0.0
 10
264.3328015791226
 20
181.0773485840992
 30
0.0
 10
264.3328015612728
 20
181.076919860792
 30
0.0
 10
264.3328015434226
 20
181.0764911385966
 30
0.0
 10
264.3328015255715
 20
181.0760624175132
 30
0.0
 10
264.3328015077204
 20
181.0756336975415
 30
0.0
 10
264.332801489868
 20
181.0752049786818
 30
0.0
 10
264.3328014720155
 20
181.0747762609342
 30
0.0
 10
264.3328014541621
 20
181.0743475442982
 30
0.0
 10
264.3328014363078
 20
181.0739188287742
 30
0.0
 10
264.3328014184535
 20
181.0734901143622
 30
0.0
 10
264.3328014005983
 20
181.073061401062
 30
0.0
 10
264.3328013827422
 20
181.072632688874
 30
0.0
 10
264.3328013648861
 20
181.0722039777978
 30
0.0
 10
264.3328013470291
 20
181.0717752678337
 30
0.0
 10
264.3328013291716
 20
181.071346558982
 30
0.0
 10
264.3328013113132
 20
181.070917851242
 30
0.0
 10
264.3328012934544
 20
181.070489144614
 30
0.0
 10
264.3328012755951
 20
181.0700604390982
 30
0.0
 10
264.3328012577349
 20
181.0696317346944
 30
0.0
 10
264.3328012398742
 20
181.0692030314029
 30
0.0
 10
264.3328012220131
 20
181.0687743292233
 30
0.0
 10
264.3328012041511
 20
181.0683456281561
 30
0.0
 10
264.3328011862886
 20
181.067916928201
 30
0.0
 10
264.3328011684257
 20
181.0674882293579
 30
0.0
 10
264.3328011505619
 20
181.0670595316274
 30
0.0
 10
264.3328011326976
 20
181.066630835009
 30
0.0
 10
264.3328011148328
 20
181.0662021395028
 30
0.0
 10
264.3328010969672
 20
181.0657734451087
 30
0.0
 10
264.332801079101
 20
181.0653447518269
 30
0.0
 10
264.3328010612345
 20
181.0649160596577
 30
0.0
 10
264.332801043367
 20
181.0644873686006
 30
0.0
 10
264.3328010254991
 20
181.064058678656
 30
0.0
 10
264.3328010076307
 20
181.0636299898236
 30
0.0
 10
264.3328009897614
 20
181.0632013021035
 30
0.0
 10
264.3328009718916
 20
181.0627726154959
 30
0.0
 10
264.3328009540214
 20
181.0623439300007
 30
0.0
 10
264.3328009361503
 20
181.061915245618
 30
0.0
 10
264.3328009182787
 20
181.061486562348
 30
0.0
 10
264.3328009033853
 20
181.0611293271382
 30
0.0
 10
264.3328008929598
 20
181.0608792629537
 30
0.0
 10
264.3328008870021
 20
181.0607363692994
 30
0.0
 10
264.3328008840231
 20
181.060664922527
 30
0.0
 10
264.3328008852286
 20
181.0606291991446
 30
0.0
  0
LINE
  5
36C8
330
A
100
AcDbEntity
  8
MODEL
100
AcDbLine
 10
264.3328008852286
 20
181.0606291991124
 30
0.0
 11
264.3327944384287
 21
180.9061599637124
 31
0.0
  0
LINE
  5
36C9
330
A
100
AcDbEntity
  8
MODEL
100
AcDbLine
 10
264.3327944384287
 20
180.9061599637124
 30
0.0
 11
264.332790506629
 21
180.8099097235124
 31
0.0
  0
SPLINE
  5
36CA
330
A
100
AcDbEntity
  8
MODEL
100
AcDbSpline
210
0.0
220
0.0
230
1.0
 70
     8
 71
     3
 72
     8
 73
     4
 74
     0
 42
0.000000001
 43
0.0000000001
 40
0.0
 40
0.0
 40
0.0
 40
0.0
 40
0.9999999999999999
 40
0.9999999999999999
 40
0.9999999999999999
 40
0.9999999999999999
 10
264.3327623630262
 20
179.9008792469726
 30
0.0
 10
264.3327621870703
 20
179.89306196372
 30
0.0
 10
264.3327620131786
 20
179.8852562046396
 30
0.0
 10
264.3327618413427
 20
179.877461970373
 30
0.0
  0
SPLINE
  5
36CB
330
A
100
AcDbEntity
  8
MODEL
100
AcDbSpline
210
0.0
220
0.0
230
1.0
 70
     8
 71
     3
 72
     9
 73
     5
 74
     0
 42
0.000000001
 43
0.0000000001
 40
0.0
 40
0.0
 40
0.0
 40
0.0
 40
0.2332396053644438
 40
1.0
 40
1.0
 40
1.0
 40
1.0
 10
264.3327580490454
 20
179.6893686842101
 30
0.0
 10
264.3327580096316
 20
179.6872092409386
 30
0.0
 10
264.3327578413378
 20
179.6779547492031
 30
0.0
 10
264.3327576759993
 20
179.6687173397075
 30
0.0
 10
264.3327575509566
 20
179.661644503848
 30
0.0
  0
SPLINE
  5
36CC
330
A
100
AcDbEntity
  8
MODEL
100
AcDbSpline
210
0.0
220
0.0
230
1.0
 70
     8
 71
     3
 72
     8
 73
     4
 74
     0
 42
0.000000001
 43
0.0000000001
 40
0.0
 40
0.0
 40
0.0
 40
0.0
 40
0.9999999999999999
 40
0.9999999999999999
 40
0.9999999999999999
 40
0.9999999999999999
 10
264.3327547439085
 20
179.4841766348905
 30
0.0
 10
264.3327546009141
 20
179.4739114250577
 30
0.0
 10
264.3327544616377
 20
179.4636684441003
 30
0.0
 10
264.3327543260584
 20
179.4534476948948
 30
0.0
  0
SPLINE
  5
36CD
330
A
100
AcDbEntity
  8
MODEL
100
AcDbSpline
210
0.0
220
0.0
230
1.0
 70
     8
 71
     3
 72
    58
 73
    54
 74
     0
 42
0.000000001
 43
0.0000000001
 40
0.0
 40
0.0
 40
0.0
 40
0.0
 40
0.0066671789208236
 40
0.10190352513408
 40
0.2341541708846714
 40
0.3340658110703674
 40
0.401658044356988
 40
0.4369400684286401
 40
0.4496233609199059
 40
0.4623064804918756
 40
0.4749894333086767
 40
0.4876722253691383
 40
0.5003548625100167
 40
0.5130373504092253
 40
0.5257196945890577
 40
0.5384019004194205
 40
0.5510839731210588
 40
0.5637659177687886
 40
0.5764477392947268
 40
0.5891294424915234
 40
0.6018110320155932
 40
0.6144925123903483
 40
0.6271738880094323
 40
0.6398551631399544
 40
0.6525363419257235
 40
0.6652174283904853
 40
0.6778984264411534
 40
0.6905793398710515
 40
0.703260172363146
 40
0.7159409274932844
 40
0.7286216087334326
 40
0.7413022194549121
 40
0.7539827629316403
 40
0.7666632423433667
 40
0.7793436607789127
 40
0.7920240212394113
 40
0.8047043266415468
 40
0.817384579820792
 40
0.8300647835346527
 40
0.842744940465904
 40
0.8554250532258317
 40
0.8681051243574748
 40
0.880785156338864
 40
0.8934651515862646
 40
0.906145112457416
 40
0.9188250412547744
 40
0.9315049402287552
 40
0.9441848115809712
 40
0.9568646574674783
 40
0.9695444800020149
 40
0.982224281259244
 40
0.994904063277997
 40
1.0
 40
1.0
 40
1.0
 40
1.0
 10
264.3327523862808
 20
179.2831506682754
 30
0.0
 10
264.3327522594268
 20
179.2697833476173
 30
0.0
 10
264.3327504190788
 20
179.0660836749442
 30
0.0
 10
264.3327496255101
 20
178.6194911445421
 30
0.0
 10
264.3327580813634
 20
178.0621694006284
 30
0.0
 10
264.3327732387779
 20
177.6147618970322
 30
0.0
 10
264.3327865374085
 20
177.3427938051046
 30
0.0
 10
264.3327950368848
 20
177.1985704175082
 30
0.0
 10
264.3327996641233
 20
177.1255408224671
 30
0.0
 10
264.3328026409999
 20
177.0805931150559
 30
0.0
 10
264.3328056840974
 20
177.0365192185371
 30
0.0
 10
264.3328087928462
 20
176.9933180893738
 30
0.0
 10
264.3328119647963
 20
176.9509900055118
 30
0.0
 10
264.3328151980013
 20
176.9095348908341
 30
0.0
 10
264.3328184903812
 20
176.8689527641138
 30
0.0
 10
264.3328218398924
 20
176.8292436187192
 30
0.0
 10
264.332825244483
 20
176.7904074548467
 30
0.0
 10
264.3328287021041
 20
176.7524442708839
 30
0.0
 10
264.3328322107059
 20
176.7153540657239
 30
0.0
 10
264.3328357682417
 20
176.6791368381455
 30
0.0
 10
264.3328393726633
 20
176.6437925869783
 30
0.0
 10
264.3328430219244
 20
176.6093213110595
 30
0.0
 10
264.3328467139791
 20
176.5757230092453
 30
0.0
 10
264.3328504467818
 20
176.5429976804072
 30
0.0
 10
264.332854218289
 20
176.5111453234336
 30
0.0
 10
264.3328580264561
 20
176.4801659372293
 30
0.0
 10
264.3328618692408
 20
176.4500595207156
 30
0.0
 10
264.3328657446
 20
176.4208260728296
 30
0.0
 10
264.3328696504932
 20
176.392465592526
 30
0.0
 10
264.3328735848791
 20
176.364978078775
 30
0.0
 10
264.3328775457171
 20
176.3383635305636
 30
0.0
 10
264.3328815309687
 20
176.3126219468948
 30
0.0
 10
264.3328855385944
 20
176.2877533267887
 30
0.0
 10
264.3328895665572
 20
176.2637576692813
 30
0.0
 10
264.3328936128191
 20
176.2406349734258
 30
0.0
 10
264.3328976753437
 20
176.2183852382905
 30
0.0
 10
264.3329017520955
 20
176.1970084629614
 30
0.0
 10
264.3329058410391
 20
176.1765046465403
 30
0.0
 10
264.3329099401403
 20
176.1568737881456
 30
0.0
 10
264.3329140473652
 20
176.1381158869122
 30
0.0
 10
264.3329181606819
 20
176.1202309419913
 30
0.0
 10
264.3329222780567
 20
176.1032189525505
 30
0.0
 10
264.3329263974592
 20
176.0870799177741
 30
0.0
 10
264.3329305168581
 20
176.0718138368625
 30
0.0
 10
264.3329346342239
 20
176.0574207090331
 30
0.0
 10
264.3329387475264
 20
176.0439005335186
 30
0.0
 10
264.3329428547377
 20
176.0312533095714
 30
0.0
 10
264.3329469538289
 20
176.019479036447
 30
0.0
 10
264.3329510427739
 20
176.0085777134694
 30
0.0
 10
264.3329551195457
 20
175.9985493397856
 30
0.0
 10
264.332959182118
 20
175.9893939152769
 30
0.0
 10
264.332962421754
 20
175.9827626981126
 30
0.0
 10
264.3329643066299
 20
175.979178245126
 30
0.0
 10
264.3329648464724
 20
175.9781741546993
 30
0.0
  0
LINE
  5
36CE
330
A
100
AcDbEntity
  8
MODEL
100
AcDbLine
 10
271.0327955734288
 20
245.6457712673123
 30
0.0
 11
264.6327957108288
 21
245.6457712673123
 31
0.0
  0
LINE
  5
36CF
330
A
100
AcDbEntity
  8
MODEL
100
AcDbLine
 10
264.6327956652285
 20
175.6459182435124
 30
0.0
 11
271.0327957174286
 21
175.6459182435124
 31
0.0
  0
LINE
  5
36D0
330
A
100
AcDbEntity
  8
MODEL
100
AcDbLine
 10
264.3330619112285
 20
243.2215029771124
 30
0.0
 11
264.3330539436288
 21
243.0932447991124
 31
0.0
  0
LINE
  5
36D1
330
A
100
AcDbEntity
  8
MODEL
100
AcDbLine
 10
264.3330690330286
 20
243.3445406873123
 30
0.0
 11
264.3330619112285
 21
243.2215029771124
 31
0.0
  0
LINE
  5
36D2
330
A
100
AcDbEntity
  8
MODEL
100
AcDbLine
 10
264.3330753498285
 20
243.4624897653123
 30
0.0
 11
264.3330693228286
 21
243.3497924573124
 31
0.0
  0
LINE
  5
36D3
330
A
100
AcDbEntity
  8
MODEL
100
AcDbLine
 10
264.3330813834286
 20
243.5853356499123
 30
0.0
 11
264.3330758124284
 21
243.4714619747124
 31
0.0
  0
LINE
  5
36D4
330
A
100
AcDbEntity
  8
MODEL
100
AcDbLine
 10
264.3330862680286
 20
243.6954640611123
 30
0.0
 11
264.3330813834286
 21
243.5853356499123
 31
0.0
  0
LINE
  5
36D5
330
A
100
AcDbEntity
  8
MODEL
100
AcDbLine
 10
264.3330906442288
 20
243.8058358055123
 30
0.0
 11
264.3330865192288
 21
243.7014235513123
 31
0.0
  0
LINE
  5
36D6
330
A
100
AcDbEntity
  8
MODEL
100
AcDbLine
 10
264.3330940556289
 20
243.9036675453124
 30
0.0
 11
264.3330908474286
 21
243.8112978201123
 31
0.0
  0
LINE
  5
36D7
330
A
100
AcDbEntity
  8
MODEL
100
AcDbLine
 10
264.3330965630284
 20
243.9934245899124
 30
0.0
 11
264.3330942138286
 21
243.9085774243123
 31
0.0
  0
LINE
  5
36D8
330
A
100
AcDbEntity
  8
MODEL
100
AcDbLine
 10
264.332977163429
 20
245.3311872437123
 30
0.0
 11
264.3329666120289
 21
245.3145454335124
 31
0.0
  0
SPLINE
  5
36D9
330
A
100
AcDbEntity
  8
MODEL
100
AcDbSpline
210
0.0
220
0.0
230
1.0
 70
     8
 71
     3
 72
    23
 73
    19
 74
     0
 42
0.000000001
 43
0.0000000001
 40
0.0
 40
0.0
 40
0.0
 40
0.0
 40
0.0589573841213043
 40
0.190934430190621
 40
0.3910312332791133
 40
0.5841194790764538
 40
0.726774445420157
 40
0.8157732961251117
 40
0.868543757935764
 40
0.9040809841299443
 40
0.9362905835274173
 40
0.9549479821535138
 40
0.9639217726407004
 40
0.9680110424893845
 40
0.978921809856703
 40
0.9897411969059585
 40
0.9944650249619713
 40
1.0
 40
1.0
 40
1.0
 40
1.0
 10
271.333100074296
 20
244.51545450295
 30
0.0
 10
271.3330995363735
 20
244.552815383795
 30
0.0
 10
271.3331008247687
 20
244.6528644321788
 30
0.0
 10
271.3330866133724
 20
244.8524431889676
 30
0.0
 10
271.3330903790588
 20
245.0600368210751
 30
0.0
 10
271.3330397098257
 20
245.2140638488055
 30
0.0
 10
271.3330680343565
 20
245.2912309489646
 30
0.0
 10
271.3329694458425
 20
245.3252887975437
 30
0.0
 10
271.333114819085
 20
245.3368892673125
 30
0.0
 10
271.3328022430906
 20
245.3454182348124
 30
0.0
 10
271.3334552633855
 20
245.342356911285
 30
0.0
 10
271.332222635489
 20
245.3545264047698
 30
0.0
 10
271.3344583883681
 20
245.3393669419932
 30
0.0
 10
271.3269286044988
 20
245.4291905290677
 30
0.0
 10
271.2763841104452
 20
245.5419252333921
 30
0.0
 10
271.1876973198337
 20
245.6087444014911
 30
0.0
 10
271.0995370195833
 20
245.6416668219589
 30
0.0
 10
271.0590705824288
 20
245.645879063759
 30
0.0
 10
271.0329984116297
 20
245.646048299205
 30
0.0
  0
LINE
  5
36DA
330
A
100
AcDbEntity
  8
MODEL
100
AcDbLine
 10
264.3330970366287
 20
177.2886641069123
 30
0.0
 11
264.3330991928287
 21
177.2027803931124
 31
0.0
  0
LINE
  5
36DB
330
A
100
AcDbEntity
  8
MODEL
100
AcDbLine
 10
264.3330942352286
 20
177.3824293337123
 30
0.0
 11
264.3330968738287
 21
177.2945068873124
 31
0.0
  0
LINE
  5
36DC
330
A
100
AcDbEntity
  8
MODEL
100
AcDbLine
 10
264.3330867104287
 20
177.5854145175123
 30
0.0
 11
264.333090458229
 21
177.4905580449123
 31
0.0
  0
LINE
  5
36DD
330
A
100
AcDbEntity
  8
MODEL
100
AcDbLine
 10
264.333081559229
 20
177.7024743385123
 30
0.0
 11
264.3330861882287
 21
177.5980208099124
 31
0.0
  0
LINE
  5
36DE
330
A
100
AcDbEntity
  8
MODEL
100
AcDbLine
 10
264.3330757528288
 20
177.8214420049124
 30
0.0
 11
264.3330812900285
 21
177.7083632623124
 31
0.0
  0
LINE
  5
36DF
330
A
100
AcDbEntity
  8
MODEL
100
AcDbLine
 10
264.3330693740286
 20
177.9409314535124
 30
0.0
 11
264.3330753650289
 21
177.8289075141124
 31
0.0
  0
LINE
  5
36E0
330
A
100
AcDbEntity
  8
MODEL
100
AcDbLine
 10
264.3330621324285
 20
178.0664060095124
 30
0.0
 11
264.3330688348287
 21
177.9505696105123
 31
0.0
  0
LINE
  5
36E1
330
A
100
AcDbEntity
  8
MODEL
100
AcDbLine
 10
264.3328678794287
 20
180.1186221913123
 30
0.0
 11
264.3328700544289
 21
180.0956699389124
 31
0.0
  0
LINE
  5
36E2
330
A
100
AcDbEntity
  8
MODEL
100
AcDbLine
 10
264.3329084706288
 20
179.6902970341123
 30
0.0
 11
264.3329127560287
 21
179.6450782159123
 31
0.0
  0
LINE
  5
36E3
330
A
100
AcDbEntity
  8
MODEL
100
AcDbLine
 10
264.3329287390288
 20
179.4764234817124
 30
0.0
 11
264.3330617382289
 21
178.0729965341123
 31
0.0
  0
ARC
  5
36E4
330
A
100
AcDbEntity
  8
MODEL
100
AcDbCircle
 10
264.6325985428284
 20
175.9455813125124
 30
0.0
 40
0.2999400797097528
100
AcDbArc
 50
177.3549519554067
 51
270.0764079364356
  0
LINE
  5
36E5
330
A
100
AcDbEntity
  8
MODEL
100
AcDbLine
 10
264.3329665826286
 20
175.9771717459124
 30
0.0
 11
264.3329770910286
 21
175.9605959897124
 31
0.0
  0
LINE
  5
36E6
330
A
100
AcDbEntity
  8
MODEL
100
AcDbLine
 10
264.3327558316287
 20
179.4526414627124
 30
0.0
 11
264.3327538898288
 21
179.2823856423124
 31
0.0
  0
LINE
  5
36E7
330
A
100
AcDbEntity
  8
MODEL
100
AcDbLine
 10
264.3327590640288
 20
179.6608400731123
 30
0.0
 11
264.3327562512286
 21
179.4833756797123
 31
0.0
  0
LINE
  5
36E8
330
A
100
AcDbEntity
  8
MODEL
100
AcDbLine
 10
264.3327633566287
 20
179.8766443369123
 30
0.0
 11
264.3327595542287
 21
179.6885170587123
 31
0.0
  0
LINE
  5
36E9
330
A
100
AcDbEntity
  8
MODEL
100
AcDbLine
 10
264.3327688722288
 20
180.1043657063124
 30
0.0
 11
264.3327638654287
 21
179.8999890015123
 31
0.0
  0
LINE
  5
36EA
330
A
100
AcDbEntity
  8
MODEL
100
AcDbLine
 10
264.3327755682285
 20
180.3383145681124
 30
0.0
 11
264.332769277029
 21
180.1195821925124
 31
0.0
  0
LINE
  5
36EB
330
A
100
AcDbEntity
  8
MODEL
100
AcDbLine
 10
264.3327832014288
 20
180.5706790413124
 30
0.0
 11
264.3327755682285
 21
180.3383145681124
 31
0.0
  0
LINE
  5
36EC
330
A
100
AcDbEntity
  8
MODEL
100
AcDbLine
 10
264.3327920056286
 20
180.8089906343123
 30
0.0
 11
264.3327832014288
 21
180.5706790413124
 31
0.0
  0
SPLINE
  5
36ED
330
A
100
AcDbEntity
  8
MODEL
100
AcDbSpline
210
0.0
220
0.0
230
1.0
 70
     8
 71
     3
 72
    25
 73
    21
 74
     0
 42
0.000000001
 43
0.0000000001
 40
0.0
 40
0.0
 40
0.0
 40
0.0
 40
0.006230993035063
 40
0.0107780918380611
 40
0.0237314474192538
 40
0.0351052088293259
 40
0.0397103631218971
 40
0.0447280694454782
 40
0.0614619452949952
 40
0.0925778321313883
 40
0.1371202676965451
 40
0.1916232734032506
 40
0.2643963448546338
 40
0.4094700328417844
 40
0.5870971702127509
 40
0.7662851483116513
 40
0.8813131755978496
 40
0.9125169846117156
 40
0.9533574251903107
 40
1.0
 40
1.0
 40
1.0
 40
1.0
 10
271.0329984147297
 20
175.645641211879
 30
0.0
 10
271.0595794971791
 20
175.6458375411824
 30
0.0
 10
271.0980384951981
 20
175.6505482881366
 30
0.0
 10
271.1877228944031
 20
175.6809076040138
 30
0.0
 10
271.2764004626979
 20
175.752499020048
 30
0.0
 10
271.3261243008624
 20
175.8580072616817
 30
0.0
 10
271.3334902685265
 20
175.9389385711596
 30
0.0
 10
271.3326820388247
 20
175.9415828664719
 30
0.0
 10
271.3331705658879
 20
175.9455457571005
 30
0.0
 10
271.3329115279344
 20
175.9466865093828
 30
0.0
 10
271.333057711392
 20
175.9522811536804
 30
0.0
 10
271.3330001357085
 20
175.9626821475836
 30
0.0
 10
271.3330475850889
 20
175.988196832084
 30
0.0
 10
271.333042189407
 20
176.0457430528766
 30
0.0
 10
271.3330750040604
 20
176.1586389974239
 30
0.0
 10
271.3330809704453
 20
176.3051755556556
 30
0.0
 10
271.3330919380642
 20
176.4303062142242
 30
0.0
 10
271.3330936118582
 20
176.5078911256622
 30
0.0
 10
271.3330965407181
 20
176.5615425195568
 30
0.0
 10
271.3330973735901
 20
176.5980296304006
 30
0.0
 10
271.3330980476517
 20
176.6221097951999
 30
0.0
  0
ELLIPSE
  5
36EE
330
A
100
AcDbEntity
  8
MODEL
100
AcDbEllipse
 10
265.0829992444287
 20
183.3944773349124
 30
0.0
 11
-2.323591270735458E-16
 21
2.250000000000002
 31
0.0
210
0.0
220
0.0
230
1.0
 40
0.3333333333
 41
1.570796326794897
 42
1.593290604973328
  0
LINE
  5
36EF
330
A
100
AcDbEntity
  8
MODEL
100
AcDbLine
 10
254.8327596022286
 20
227.6444773349124
 30
0.0
 11
254.8327596022286
 21
193.6444773349124
 31
0.0
  0
LINE
  5
36F0
330
A
100
AcDbEntity
  8
MODEL
100
AcDbLine
 10
254.3327596022286
 20
194.1444773349124
 30
0.0
 11
254.3327596022286
 21
227.1444773349124
 31
0.0
  0
LINE
  5
36F1
330
A
100
AcDbEntity
  8
MODEL
100
AcDbLine
 10
264.3327596022286
 20
227.6444773349124
 30
0.0
 11
254.8327596022286
 21
227.6444773349124
 31
0.0
  0
LINE
  5
36F2
330
A
100
AcDbEntity
  8
MODEL
100
AcDbLine
 10
254.8327596022286
 20
193.6444773349124
 30
0.0
 11
264.3327596022286
 21
193.6444773349124
 31
0.0
  0
LINE
  5
36F3
330
A
100
AcDbEntity
  8
MODEL
100
AcDbLine
 10
254.8327596022286
 20
227.6444773349124
 30
0.0
 11
254.3327596022286
 21
227.1444773349124
 31
0.0
  0
LINE
  5
36F4
330
A
100
AcDbEntity
  8
MODEL
100
AcDbLine
 10
254.3327596022286
 20
194.1444773349124
 30
0.0
 11
254.8327596022286
 21
193.6444773349124
 31
0.0
  0
LINE
  5
36F5
330
A
100
AcDbEntity
  8
MODEL
100
AcDbLine
 10
264.3327596022286
 20
191.4444773349124
 30
0.0
 11
264.3329992444287
 21
191.4442376927123
 31
0.0
  0
LINE
  5
36F6
330
A
100
AcDbEntity
  8
MODEL
100
AcDbLine
 10
337.7334111130285
 20
195.1610832373124
 30
0.0
 11
337.7334111130285
 21
197.8217053157123
 31
0.0
  0
LINE
  5
36F7
330
A
100
AcDbEntity
  8
MODEL
100
AcDbLine
 10
335.7334112554286
 20
197.8217052795124
 30
0.0
 11
335.7334111344289
 21
223.4672493515123
 31
0.0
  0
LINE
  5
36F8
330
A
100
AcDbEntity
  8
MODEL
100
AcDbLine
 10
335.7334112052285
 20
197.8217053133124
 30
0.0
 11
335.7334112428289
 21
195.1610832349124
 31
0.0
  0
LINE
  5
36F9
330
A
100
AcDbEntity
  8
MODEL
100
AcDbLine
 10
337.7334111126288
 20
223.4672493539123
 30
0.0
 11
337.7334111130285
 21
197.8217052819123
 31
0.0
  0
LINE
  5
36FA
330
A
100
AcDbEntity
  8
MODEL
100
AcDbLine
 10
337.7334111124287
 20
226.1278714695123
 30
0.0
 11
337.7334111126288
 21
223.4672493539123
 31
0.0
  0
LINE
  5
36FB
330
A
100
AcDbEntity
  8
MODEL
100
AcDbLine
 10
335.7334111344289
 20
223.4672493515123
 30
0.0
 11
335.7334110966285
 21
226.1278714671124
 31
0.0
  0
LINE
  5
36FC
330
A
100
AcDbEntity
  8
MODEL
100
AcDbLine
 10
337.2334111124287
 20
226.6278715875124
 30
0.0
 11
336.2334110966285
 21
226.6278715875124
 31
0.0
  0
LINE
  5
36FD
330
A
100
AcDbEntity
  8
MODEL
100
AcDbLine
 10
336.2334112428289
 20
194.6610830823124
 30
0.0
 11
337.2334111130285
 21
194.6610830823124
 31
0.0
  0
ARC
  5
36FE
330
A
100
AcDbEntity
  8
MODEL
100
AcDbCircle
 10
336.2334112428289
 20
195.1610830823124
 30
0.0
 40
0.4999999999979222
100
AcDbArc
 50
180.000117885002
 51
269.999962134847
  0
ARC
  5
36FF
330
A
100
AcDbEntity
  8
MODEL
100
AcDbCircle
 10
337.2334111130285
 20
195.1610830823124
 30
0.0
 40
0.4999999999999992
100
AcDbArc
 50
269.9999621350554
 51
359.9998823867006
  0
ARC
  5
3700
330
A
100
AcDbEntity
  8
MODEL
100
AcDbCircle
 10
337.2334111124287
 20
226.1278715875124
 30
0.0
 40
0.49999999999807
100
AcDbArc
 50
0.0001535798951872
 51
90.00001726390343
  0
ARC
  5
3701
330
A
100
AcDbEntity
  8
MODEL
100
AcDbCircle
 10
336.2334110966285
 20
226.1278715873123
 30
0.0
 40
0.4999999999999862
100
AcDbArc
 50
90.00001686718842
 51
179.9998466917944
  0
LINE
  5
3702
330
A
100
AcDbEntity
  8
MODEL
100
AcDbLine
 10
334.9334112318288
 20
199.0067390705124
 30
0.0
 11
334.9334112318288
 21
198.8478852177123
 31
0.0
  0
LINE
  5
3703
330
A
100
AcDbEntity
  8
MODEL
100
AcDbLine
 10
334.9334112318288
 20
222.2822162241123
 30
0.0
 11
334.9334112318288
 21
199.0067390705124
 31
0.0
  0
LINE
  5
3704
330
A
100
AcDbEntity
  8
MODEL
100
AcDbLine
 10
334.9334112318288
 20
222.4410694059123
 30
0.0
 11
334.9334112318288
 21
222.2822162241123
 31
0.0
  0
LINE
  5
3705
330
A
100
AcDbEntity
  8
MODEL
100
AcDbLine
 10
334.9334112318288
 20
222.5451584115124
 30
0.0
 11
334.9334112318288
 21
222.4410694059123
 31
0.0
  0
LINE
  5
3706
330
A
100
AcDbEntity
  8
MODEL
100
AcDbLine
 10
334.9334112318288
 20
222.5451577639124
 30
0.0
 11
334.9334125668288
 21
224.8249838163123
 31
0.0
  0
LINE
  5
3707
330
A
100
AcDbEntity
  8
MODEL
100
AcDbLine
 10
334.9334125668288
 20
196.4639708539124
 30
0.0
 11
334.9334112318288
 21
198.7437970383124
 31
0.0
  0
LINE
  5
3708
330
A
100
AcDbEntity
  8
MODEL
100
AcDbLine
 10
335.4334112318288
 20
199.5928498031124
 30
0.0
 11
335.4334112318288
 21
197.4444773355124
 31
0.0
  0
LINE
  5
3709
330
A
100
AcDbEntity
  8
MODEL
100
AcDbLine
 10
335.4334112318288
 20
199.5928498031124
 30
0.0
 11
335.4334112318288
 21
221.6961048733124
 31
0.0
  0
LINE
  5
370A
330
A
100
AcDbEntity
  8
MODEL
100
AcDbLine
 10
335.4334112318288
 20
221.6961048733124
 30
0.0
 11
335.4334112318288
 21
223.8444773393124
 31
0.0
  0
ARC
  5
370B
330
A
100
AcDbEntity
  8
MODEL
100
AcDbCircle
 10
307.4708798998286
 20
116.6044409293124
 30
0.0
 40
71.6797222195083
100
AcDbArc
 50
112.4626518365999
 51
118.2137519022999
  0
ARC
  5
370C
330
A
100
AcDbEntity
  8
MODEL
100
AcDbCircle
 10
338.703528177829
 20
362.7810185757124
 30
0.0
 40
137.7167106235162
100
AcDbArc
 50
240.9195581371998
 51
268.3045809607997
  0
ARC
  5
370D
330
A
100
AcDbEntity
  8
MODEL
100
AcDbCircle
 10
337.2026101268289
 20
67.27100646631237
 30
0.0
 40
128.9190426298937
100
AcDbArc
 50
91.14387281770004
 51
116.2994469570002
  0
ARC
  5
370E
330
A
100
AcDbEntity
  8
MODEL
100
AcDbCircle
 10
381.2257541816289
 20
-38.6534780746876
 30
0.0
 40
243.5051585801638
100
AcDbArc
 50
116.2349684279
 51
116.7121596104
  0
ARC
  5
370F
330
A
100
AcDbEntity
  8
MODEL
100
AcDbCircle
 10
271.6331939110287
 20
242.1575267973124
 30
0.0
 40
0.2998401039648452
100
AcDbArc
 50
63.2458251004045
 51
178.8535631528117
  0
ARC
  5
3710
330
A
100
AcDbEntity
  8
MODEL
100
AcDbCircle
 10
334.6334429394287
 20
196.4639254531124
 30
0.0
 40
0.2999696308758498
100
AcDbArc
 50
269.1496578850812
 51
0.0086717917950723
  0
ARC
  5
3711
330
A
100
AcDbEntity
  8
MODEL
100
AcDbCircle
 10
334.6334482140287
 20
224.8250345699124
 30
0.0
 40
0.2999643570616688
100
AcDbArc
 50
359.9903056368918
 51
90.85136468580676
  0
ARC
  5
3712
330
A
100
AcDbEntity
  8
MODEL
100
AcDbCircle
 10
271.6331734420287
 20
179.1313930939123
 30
0.0
 40
0.2998182648698928
100
AcDbArc
 50
181.0983900725892
 51
296.7606596491627
  0
LINE
  5
3713
330
A
100
AcDbEntity
  8
MODEL
100
AcDbLine
 10
334.9334112318288
 20
197.4444773305124
 30
0.0
 11
335.4334112318288
 21
197.4444773305124
 31
0.0
  0
LINE
  5
3714
330
A
100
AcDbEntity
  8
MODEL
100
AcDbLine
 10
335.4334112318288
 20
223.8444773393124
 30
0.0
 11
334.9334112318288
 21
223.8444773393124
 31
0.0
  0
LINE
  5
3715
330
A
100
AcDbEntity
  8
MODEL
100
AcDbLine
 10
335.4334112318288
 20
200.1444773349124
 30
0.0
 11
335.7334112462286
 21
200.1444773349124
 31
0.0
  0
LINE
  5
3716
330
A
100
AcDbEntity
  8
MODEL
100
AcDbLine
 10
335.7334111470286
 20
221.1444773349124
 30
0.0
 11
335.4334112318288
 21
221.1444773349124
 31
0.0
  0
ARC
  5
3717
330
A
100
AcDbEntity
  8
MODEL
100
AcDbCircle
 10
330.2107147058287
 20
196.0841804349123
 30
0.0
 40
24.17956561114736
100
AcDbArc
 50
0.178048357500026
 51
5.752527461600113
  0
ARC
  5
3718
330
A
100
AcDbEntity
  8
MODEL
100
AcDbCircle
 10
-243.7679485085714
 20
210.6444775009123
 30
0.0
 40
598.1539739143278
100
AcDbArc
 50
358.8642636159
 51
1.135736384100005
  0
ARC
  5
3719
330
A
100
AcDbEntity
  8
MODEL
100
AcDbCircle
 10
330.2107144600286
 20
225.2047745799123
 30
0.0
 40
24.17956585701652
100
AcDbArc
 50
354.2474725668002
 51
359.8219516141999
  0
LINE
  5
371A
330
A
100
AcDbEntity
  8
MODEL
100
AcDbLine
 10
350.3311703316285
 20
151.2497927477123
 30
0.0
 11
350.2299628642286
 21
151.2497927477123
 31
0.0
  0
LINE
  5
371B
330
A
100
AcDbEntity
  8
MODEL
100
AcDbLine
 10
350.3312715448287
 20
151.2497927469124
 30
0.0
 11
350.5134350848284
 21
151.2497927469124
 31
0.0
  0
LINE
  5
371C
330
A
100
AcDbEntity
  8
MODEL
100
AcDbLine
 10
350.5352718452286
 20
151.2497927469124
 30
0.0
 11
350.993767358229
 21
151.2497927473124
 31
0.0
  0
LINE
  5
371D
330
A
100
AcDbEntity
  8
MODEL
100
AcDbLine
 10
341.4818447332286
 20
151.2497927471124
 30
0.0
 11
341.8786099454287
 21
151.2497927469124
 31
0.0
  0
LINE
  5
371E
330
A
100
AcDbEntity
  8
MODEL
100
AcDbLine
 10
341.9163627900289
 20
151.2497927469124
 30
0.0
 11
342.1444423420289
 21
151.2497927469124
 31
0.0
  0
SPLINE
  5
371F
330
A
100
AcDbEntity
  8
MODEL
100
AcDbSpline
210
0.0
220
0.0
230
1.0
 70
     8
 71
     3
 72
    10
 73
     6
 74
     0
 42
0.000000001
 43
0.0000000001
 40
0.0
 40
0.0
 40
0.0
 40
0.0
 40
0.5000082086274348
 40
0.5000082086274348
 40
1.0
 40
1.0
 40
1.0
 40
1.0
 10
350.8803399097205
 20
196.3699833354591
 30
0.0
 10
351.0697920196162
 20
196.3017921516102
 30
0.0
 10
351.215672301736
 20
196.2491783910494
 30
0.0
 10
351.4130716770487
 20
196.1779440972435
 30
0.0
 10
351.4646129218354
 20
196.1593189888956
 30
0.0
 10
351.4646128434078
 20
196.1593189859873
 30
0.0
  0
SPLINE
  5
3720
330
A
100
AcDbEntity
  8
MODEL
100
AcDbSpline
210
0.0
220
0.0
230
1.0
 70
     8
 71
     3
 72
    10
 73
     6
 74
     0
 42
0.000000001
 43
0.0000000001
 40
0.0
 40
0.0
 40
0.0
 40
0.0
 40
0.5000000000000003
 40
0.5000000000000003
 40
1.0
 40
1.0
 40
1.0
 40
1.0
 10
341.0109992439775
 20
196.159318986044
 30
0.0
 10
341.0110024412961
 20
196.1593201716567
 30
0.0
 10
341.0625437417652
 20
196.177945300593
 30
0.0
 10
341.2599431503236
 20
196.2491796041884
 30
0.0
 10
341.4058202843698
 20
196.301792229428
 30
0.0
 10
341.5952716580755
 20
196.3699831484924
 30
0.0
  0
ARC
  5
3721
330
A
100
AcDbEntity
  8
MODEL
100
AcDbCircle
 10
349.8589656340287
 20
192.3250182399124
 30
0.0
 40
4.171923781180386
100
AcDbArc
 50
75.82874827819958
 51
89.35192213440303
  0
ARC
  5
3722
330
A
100
AcDbEntity
  8
MODEL
100
AcDbCircle
 10
342.6167792114288
 20
192.3239915697123
 30
0.0
 40
4.172951657717678
100
AcDbArc
 50
90.64975795420305
 51
104.1695754913993
  0
ARC
  5
3723
330
A
100
AcDbEntity
  8
MODEL
100
AcDbCircle
 10
346.2378079332289
 20
121.6527382453124
 30
0.0
 40
74.93378177281694
100
AcDbArc
 50
87.19399229710028
 51
92.80601153310003
  0
ARC
  5
3724
330
A
100
AcDbEntity
  8
MODEL
100
AcDbCircle
 10
-680.3604130401714
 20
197.6926010829123
 30
0.0
 40
1022.374546339566
100
AcDbArc
 50
357.4256306836
 51
359.8578023355001
  0
ARC
  5
3725
330
A
100
AcDbEntity
  8
MODEL
100
AcDbCircle
 10
1372.837684916429
 20
197.6926631629124
 30
0.0
 40
1022.376206327793
100
AcDbArc
 50
180.1422009125998
 51
182.5743686140996
  0
ARC
  5
3726
330
A
100
AcDbEntity
  8
MODEL
100
AcDbCircle
 10
338.0333772508288
 20
196.4589085723124
 30
0.0
 40
0.2999661422465326
100
AcDbArc
 50
179.9906132072058
 51
270.0064678535127
  0
SPLINE
  5
3727
330
A
100
AcDbEntity
  8
MODEL
100
AcDbSpline
210
0.0
220
0.0
230
1.0
 70
     8
 71
     3
 72
    21
 73
    17
 74
     0
 42
0.000000001
 43
0.0000000001
 40
0.0
 40
0.0
 40
0.0
 40
0.0
 40
0.0473811116026823
 40
0.0986203314466055
 40
0.157391679365316
 40
0.2265756222293109
 40
0.305034545913251
 40
0.3943636599621161
 40
0.4959664458241035
 40
0.5894234816358691
 40
0.6838635382480106
 40
0.7711722302253305
 40
0.8455449281217884
 40
0.9045715093946964
 40
0.9559525590430292
 40
1.0
 40
1.0
 40
1.0
 40
1.0
 10
354.8585749501162
 20
196.4845593201651
 30
0.0
 10
355.0339703456484
 20
196.9509022459602
 30
0.0
 10
355.3009213300552
 20
197.7782303497789
 30
0.0
 10
355.6882375259793
 20
199.2775284887312
 30
0.0
 10
356.0017751037003
 20
200.9413687971351
 30
0.0
 10
356.2757468942782
 20
202.9074699695865
 30
0.0
 10
356.4879612147652
 20
205.158155644479
 30
0.0
 10
356.6408712133198
 20
207.7325477100045
 30
0.0
 10
356.6993013858228
 20
210.4508471750001
 30
0.0
 10
356.6530731040402
 20
213.2183090005009
 30
0.0
 10
356.5109315593181
 20
215.8489228830666
 30
0.0
 10
356.2898363908907
 20
218.2827795120967
 30
0.0
 10
355.9975387037312
 20
220.3841713664411
 30
0.0
 10
355.6685853668105
 20
222.1005003432721
 30
0.0
 10
355.2831440742088
 20
223.5692313686011
 30
0.0
 10
355.0216069068219
 20
224.370841964616
 30
0.0
 10
354.8585701837414
 20
224.8043938940182
 30
0.0
  0
ARC
  5
3728
330
A
100
AcDbEntity
  8
MODEL
100
AcDbCircle
 10
338.0333777328287
 20
224.8300459475124
 30
0.0
 40
0.2999666243461336
100
AcDbArc
 50
89.99362425637537
 51
180.0092946829047
  0
LINE
  5
3729
330
A
100
AcDbEntity
  8
MODEL
100
AcDbLine
 10
354.3901617734286
 20
225.1296360159124
 30
0.0
 11
338.0334111124284
 21
225.1296360159124
 31
0.0
  0
LINE
  5
372A
330
A
100
AcDbEntity
  8
MODEL
100
AcDbLine
 10
351.4646053932288
 20
196.1593189859123
 30
0.0
 11
354.3901617734286
 21
196.1593189859123
 31
0.0
  0
LINE
  5
372B
330
A
100
AcDbEntity
  8
MODEL
100
AcDbLine
 10
338.0334111124284
 20
196.1593189859123
 30
0.0
 11
341.0110067008286
 21
196.1593189859123
 31
0.0
  0
ARC
  5
372C
330
A
100
AcDbEntity
  8
MODEL
100
AcDbCircle
 10
354.3901635704287
 20
196.6593189859123
 30
0.0
 40
0.5000000000000439
100
AcDbArc
 50
269.9998951432144
 51
339.539946510814
  0
ARC
  5
372D
330
A
100
AcDbEntity
  8
MODEL
100
AcDbCircle
 10
354.3901635704287
 20
224.6296360159124
 30
0.0
 40
0.4999999999998652
100
AcDbArc
 50
20.45997947190234
 51
90.00023840081398
  0
ARC
  5
372E
330
A
100
AcDbEntity
  8
MODEL
100
AcDbCircle
 10
350.9937673752288
 20
151.7497927473124
 30
0.0
 40
0.4999999999995486
100
AcDbArc
 50
269.9999730043589
 51
2.490380949998011
  0
ARC
  5
372F
330
A
100
AcDbEntity
  8
MODEL
100
AcDbCircle
 10
341.4818447120288
 20
151.7497927471124
 30
0.0
 40
0.5000000000000282
100
AcDbArc
 50
177.50951790521
 51
270.000026996527
  0
ARC
  5
3730
330
A
100
AcDbEntity
  8
MODEL
100
AcDbCircle
 10
351.4646128434288
 20
195.1593189859123
 30
0.0
 40
1.000000000000007
100
AcDbArc
 50
90.00043380489616
 51
180.2327215257986
  0
ARC
  5
3731
330
A
100
AcDbEntity
  8
MODEL
100
AcDbCircle
 10
341.0109992438288
 20
195.1593189859123
 30
0.0
 40
0.9999999999999964
100
AcDbArc
 50
359.7672885779068
 51
89.99956882990017
  0
LINE
  5
3732
330
A
100
AcDbEntity
  8
MODEL
100
AcDbLine
 10
341.8111155176284
 20
151.2497923239123
 30
0.0
 11
341.1719777754288
 21
151.2497923243123
 31
0.0
  0
LINE
  5
3733
330
A
100
AcDbEntity
  8
MODEL
100
AcDbLine
 10
341.8111155176284
 20
151.2497923247124
 30
0.0
 11
341.9189262890286
 21
151.2497923247124
 31
0.0
  0
LINE
  5
3734
330
A
100
AcDbEntity
  8
MODEL
100
AcDbLine
 10
341.9189262890286
 20
151.2497923247124
 30
0.0
 11
342.0967322788288
 21
151.2497923247124
 31
0.0
  0
LINE
  5
3735
330
A
100
AcDbEntity
  8
MODEL
100
AcDbLine
 10
342.0967322788288
 20
151.2497923247124
 30
0.0
 11
350.2288498536286
 21
151.2497923247124
 31
0.0
  0
LINE
  5
3736
330
A
100
AcDbEntity
  8
MODEL
100
AcDbLine
 10
350.2288498536286
 20
151.2497923247124
 30
0.0
 11
350.4066879450288
 21
151.2497923247124
 31
0.0
  0
LINE
  5
3737
330
A
100
AcDbEntity
  8
MODEL
100
AcDbLine
 10
350.4066879450288
 20
151.2497923247124
 30
0.0
 11
350.5144845194286
 21
151.2497923247124
 31
0.0
  0
LINE
  5
3738
330
A
100
AcDbEntity
  8
MODEL
100
AcDbLine
 10
350.5144845194286
 20
151.2497923247124
 30
0.0
 11
351.1536323278287
 21
151.2497923243123
 31
0.0
  0
SPLINE
  5
3739
330
A
100
AcDbEntity
  8
MODEL
100
AcDbSpline
210
0.0
220
0.0
230
1.0
 70
     8
 71
     3
 72
    17
 73
    13
 74
     0
 42
0.000000001
 43
0.0000000001
 40
0.0
 40
0.0
 40
0.0
 40
0.0
 40
0.0651733478199708
 40
0.1505183523307827
 40
0.2655507916509026
 40
0.3943157233863657
 40
0.504353036574017
 40
0.614517436256568
 40
0.7364312648479863
 40
0.8421851501169249
 40
0.931549924972395
 40
1.0
 40
1.0
 40
1.0
 40
1.0
 10
340.8618356096717
 20
146.4956365987518
 30
0.0
 10
341.0989301220352
 20
146.392672343489
 30
0.0
 10
341.5733687542538
 20
146.2203314051096
 30
0.0
 10
342.5229750955382
 20
145.9683950233919
 30
0.0
 10
343.6794622089319
 20
145.7600285644749
 30
0.0
 10
344.9531145213482
 20
145.6036205780194
 30
0.0
 10
346.2104983232307
 20
145.5546330899279
 30
0.0
 10
347.4424869683985
 20
145.610902159712
 30
0.0
 10
348.6584665997052
 20
145.763374828121
 30
0.0
 10
349.7718382343774
 20
145.9629460028762
 30
0.0
 10
350.7173940840967
 20
146.208571772389
 30
0.0
 10
351.2146797102318
 20
146.3877031510291
 30
0.0
 10
351.4637794104883
 20
146.4956252693854
 30
0.0
  0
ARC
  5
373A
330
A
100
AcDbEntity
  8
MODEL
100
AcDbCircle
 10
340.9814554140285
 20
146.7706969069123
 30
0.0
 40
0.299983950530561
100
AcDbArc
 50
177.3108599351947
 51
246.4964636973917
  0
ARC
  5
373B
330
A
100
AcDbEntity
  8
MODEL
100
AcDbCircle
 10
351.3441553520288
 20
146.7706964947124
 30
0.0
 40
0.2999833083698574
100
AcDbArc
 50
293.5034517042254
 51
2.689224647708192
  0
ARC
  5
373C
330
A
100
AcDbEntity
  8
MODEL
100
AcDbCircle
 10
-1127.249590208371
 20
215.6974615975124
 30
0.0
 40
1469.547997252845
100
AcDbArc
 50
357.3121975842
 51
357.4752536406
  0
ARC
  5
373D
330
A
100
AcDbEntity
  8
MODEL
100
AcDbCircle
 10
1819.716413188829
 20
215.7039389227123
 30
0.0
 40
1469.689358384724
100
AcDbArc
 50
182.5247561245996
 51
182.6877964975997
  0
ARC
  5
373E
330
A
100
AcDbEntity
  8
MODEL
100
AcDbCircle
 10
341.1716056460286
 20
150.9497642455124
 30
0.0
 40
0.3000280797283352
100
AcDbArc
 50
89.9953266139015
 51
177.4717228683165
  0
ARC
  5
373F
330
A
100
AcDbEntity
  8
MODEL
100
AcDbCircle
 10
351.1540068922286
 20
150.9497667903124
 30
0.0
 40
0.3000255352089544
100
AcDbArc
 50
2.527812149904697
 51
90.00513836988804
  0
LINE
  5
3740
330
A
100
AcDbEntity
  8
MODEL
100
AcDbLine
 10
236.2931041562288
 20
195.1444773349124
 30
0.0
 11
236.2931041562288
 21
226.1444773349124
 31
0.0
  0
LINE
  5
3741
330
A
100
AcDbEntity
  8
MODEL
100
AcDbLine
 10
227.2931041562288
 20
195.1444773349124
 30
0.0
 11
227.2931041562288
 21
226.1444773349124
 31
0.0
  0
LINE
  5
3742
330
A
100
AcDbEntity
  8
MODEL
100
AcDbLine
 10
227.2931041562288
 20
195.1444773349124
 30
0.0
 11
236.2931041562288
 21
195.1444773349124
 31
0.0
  0
LINE
  5
3743
330
A
100
AcDbEntity
  8
MODEL
100
AcDbLine
 10
236.2931041562288
 20
226.1444773349124
 30
0.0
 11
227.2931041562288
 21
226.1444773349124
 31
0.0
  0
LINE
  5
3744
330
A
100
AcDbEntity
  8
MODEL
100
AcDbLine
 10
254.3327596022286
 20
224.6444773349124
 30
0.0
 11
236.2931041562288
 21
224.6444773349124
 31
0.0
  0
LINE
  5
3745
330
A
100
AcDbEntity
  8
MODEL
100
AcDbLine
 10
254.3327596022286
 20
223.7244773349124
 30
0.0
 11
236.2931041562288
 21
223.7244773349124
 31
0.0
  0
LINE
  5
3746
330
A
100
AcDbEntity
  8
MODEL
100
AcDbLine
 10
254.3327596022286
 20
197.5644773349123
 30
0.0
 11
236.2931041562288
 21
197.5644773349123
 31
0.0
  0
LINE
  5
3747
330
A
100
AcDbEntity
  8
MODEL
100
AcDbLine
 10
236.2931041562288
 20
196.6444773349124
 30
0.0
 11
254.3327596022286
 21
196.6444773349124
 31
0.0
  0
LINE
  5
374A
330
A
100
AcDbEntity
  8
MODEL
100
AcDbLine
 10
264.3329665826286
 20
173.9771717459124
 30
0.0
 11
264.3329665826286
 21
169.9771717459124
 31
0.0
  0
HATCH
  5
374D
330
A
100
AcDbEntity
  8
MODEL
100
AcDbHatch
 10
0.0
 20
0.0
 30
0.0
210
0.0
220
0.0
230
1.0
  2
LINE
 70
     0
 71
     0
 91
        1
 92
        1
 93
        4
 72
     1
 10
252.3329688987706
 20
284.6444773348988
 11
252.3329688987706
 21
228.6444773348988
 72
     1
 10
252.3329688987706
 20
228.6444773348988
 11
260.3329688987706
 21
228.6444773348988
 72
     1
 10
260.3329688987706
 20
228.6444773348988
 11
260.3329688987706
 21
284.6444773348988
 72
     1
 10
260.3329688987706
 20
284.6444773348988
 11
252.3329688987706
 21
284.6444773348988
 97
        0
 75
     0
 76
     1
 52
45.0
 41
2.0
 77
     0
 78
     1
 53
45.0
 43
94.39607485402848
 44
-94.44201103248764
 45
-4.490128060534576
 46
4.490128060534576
 79
     0
 98
        0
  0
HATCH
  5
374E
330
A
100
AcDbEntity
  8
MODEL
100
AcDbHatch
 10
0.0
 20
0.0
 30
0.0
210
0.0
220
0.0
230
1.0
  2
LINE
 70
     0
 71
     0
 91
        1
 92
        1
 93
       10
 72
     1
 10
264.3329688987706
 20
245.3596870452932
 11
264.3329688987706
 21
284.6444773348988
 72
     1
 10
264.3329688987706
 20
284.6444773348988
 11
260.3329688987706
 21
284.6444773348988
 72
     1
 10
260.3329688987706
 20
284.6444773348988
 11
260.3329688987706
 21
228.6444773348988
 72
     1
 10
260.3329688987706
 20
228.6444773348988
 11
264.3329688987706
 21
228.6444773348988
 72
     4
 94
        3
 73
     0
 74
     0
 95
       21
 96
       17
 40
0.0
 40
0.0
 40
0.0
 40
0.0
 40
0.0518364784306705
 40
0.150593254752574
 40
0.2217176675263679
 40
0.2749211551898911
 40
0.3067298695273143
 40
0.3368246892862713
 40
0.3677027494859613
 40
0.3831223799364778
 40
0.3908272121093039
 40
0.3946783658861105
 40
0.3966036251348891
 40
0.3975661750919777
 40
0.3980474301215471
 40
0.3985286718391066
 40
0.3985286718391066
 40
0.3985286718391066
 40
0.3985286718391066
 10
264.3327705766278
 20
228.6444979358208
 10
264.3327668353677
 20
229.1550133880672
 10
264.3327572934586
 20
230.6356446650457
 10
264.3327496252359
 20
232.8039684949911
 10
264.3327506381247
 20
234.9702302156093
 10
264.3327563587427
 20
236.4777531204468
 10
264.3327633027525
 20
237.5844658734616
 10
264.3327705699412
 20
238.4736948326782
 10
264.3327779613219
 20
239.2034716265742
 10
264.332783971523
 20
239.7180327873299
 10
264.3327871733559
 20
239.9747336564606
 10
264.3327888238155
 20
240.1029371447758
 10
264.3327896614519
 20
240.1670019498502
 10
264.3327900834074
 20
240.1990250355878
 10
264.3327903253712
 20
240.2173212321007
 10
264.3327904467305
 20
240.2264684389318
 10
264.3327905065489
 20
240.2310419790913
 72
     1
 10
264.3327905065489
 20
240.2310419790913
 11
264.3327944383706
 21
240.3855383106572
 72
     1
 10
264.3327944383709
 20
240.3855383106572
 11
264.3328008852295
 21
240.4817777226639
 72
     1
 10
264.3328008852295
 20
240.4817777226639
 11
264.3329688987707
 21
242.2104475226644
 72
     1
 10
264.3329688987706
 20
242.2104475226641
 11
264.3329688987706
 21
245.3323742882733
 72
     2
 10
264.6326754468014
 20
245.3460306667833
 40
0.3000175188342922
 50
177.3534190589228
 51
182.6089253287276
 73
     0
 97
        0
 75
     0
 76
     1
 52
315.0
 41
2.0
 77
     0
 78
     1
 53
315.0
 43
94.39607485402848
 44
-94.44201103248764
 45
4.490128060534576
 46
4.490128060534576
 79
     0
 98
        0
  0
LINE
  5
374F
330
A
100
AcDbEntity
  8
MODEL
100
AcDbLine
 10
260.3329688988288
 20
284.6444773349124
 30
0.0
 11
260.3329688988288
 21
228.6444773349124
 31
0.0
  0
LINE
  5
3750
330
A
100
AcDbEntity
  8
MODEL
100
AcDbLine
 10
264.3329688988288
 20
228.6444773349124
 30
0.0
 11
252.3329688988288
 21
228.6444773349124
 31
0.0
  0
SPLINE
  5
3751
330
A
100
AcDbEntity
  8
MODEL
100
AcDbSpline
210
0.0
220
0.0
230
1.0
 70
     8
 71
     3
 72
    76
 73
    72
 74
     0
 42
0.000000001
 43
0.0000000001
 40
0.0
 40
0.0
 40
0.0
 40
0.0
 40
0.0004812417175595
 40
0.0009624967471289
 40
0.0019250467042174
 40
0.0038503059529961
 40
0.0077014597298026
 40
0.0154062919026288
 40
0.0308259223531453
 40
0.0617039825528353
 40
0.0917988023117923
 40
0.1236075166492154
 40
0.1768110043127387
 40
0.2479354170865326
 40
0.346692193408436
 40
0.4213006913801612
 40
0.4717755458887972
 40
0.4981236252442813
 40
0.5075948649016568
 40
0.5170659754298605
 40
0.5265369614320312
 40
0.5360078273878722
 40
0.5454785776560593
 40
0.5549492164766526
 40
0.564419747973504
 40
0.5738901761566697
 40
0.5833605049248212
 40
0.5928307380676572
 40
0.6023008792683163
 40
0.6117709321057904
 40
0.6212409000573376
 40
0.6307107865008974
 40
0.6401805947175044
 40
0.6496503278937039
 40
0.6591199891239672
 40
0.6685895814131071
 40
0.678059107678695
 40
0.6875285707534766
 40
0.6969979733877896
 40
0.7064673182519804
 40
0.7159366079388217
 40
0.7254058449659313
 40
0.7348750317781887
 40
0.7443441707501545
 40
0.7538132641884889
 40
0.7632823143343707
 40
0.7727513233659155
 40
0.7822202934005964
 40
0.7916892264976616
 40
0.8011581246605565
 40
0.8106269898393408
 40
0.8200958239331104
 40
0.8295646287924172
 40
0.8390334062216879
 40
0.8485021579816465
 40
0.8579708857917333
 40
0.8674395913325261
 40
0.8769082762481606
 40
0.8863769421487511
 40
0.8958455906128117
 40
0.9053142231896774
 40
0.9147828414019248
 40
0.9242514467477918
 40
0.9337200407036025
 40
0.943188624726184
 40
0.9526572002552901
 40
0.9621257687160228
 40
0.9715943315212521
 40
0.9810628900740378
 40
0.9905314457700524
 40
1.0
 40
1.0
 40
1.0
 40
1.0
 10
264.3327905065489
 20
240.2310419790913
 30
0.0
 10
264.3327904467305
 20
240.2264684389318
 30
0.0
 10
264.3327903253712
 20
240.2173212321007
 30
0.0
 10
264.3327900834074
 20
240.1990250355878
 30
0.0
 10
264.3327896614519
 20
240.1670019498502
 30
0.0
 10
264.3327888238155
 20
240.1029371447758
 30
0.0
 10
264.3327871733559
 20
239.9747336564606
 30
0.0
 10
264.332783971523
 20
239.7180327873299
 30
0.0
 10
264.3327779613219
 20
239.2034716265742
 30
0.0
 10
264.3327705699412
 20
238.4736948326782
 30
0.0
 10
264.3327633027525
 20
237.5844658734616
 30
0.0
 10
264.3327563587427
 20
236.4777531204468
 30
0.0
 10
264.3327506381247
 20
234.9702302156093
 30
0.0
 10
264.3327496252359
 20
232.8039684949911
 30
0.0
 10
264.332758081041
 20
230.4129420127145
 30
0.0
 10
264.3327732380603
 20
228.2103770673083
 30
0.0
 10
264.3327865365836
 20
226.7144749335682
 30
0.0
 10
264.3327950361108
 20
225.8601699002983
 30
0.0
 10
264.332799663428
 20
225.4113618332654
 30
0.0
 10
264.3328026402764
 20
225.1296581087702
 30
0.0
 10
264.3328056833479
 20
224.847820170892
 30
0.0
 10
264.3328087920731
 20
224.565850788407
 30
0.0
 10
264.3328119640014
 20
224.2837525543419
 30
0.0
 10
264.3328151971868
 20
224.0015281088129
 30
0.0
 10
264.332818489549
 20
223.7191800793185
 30
0.0
 10
264.3328218390443
 20
223.4367110967361
 30
0.0
 10
264.3328252436204
 20
223.154123791037
 30
0.0
 10
264.3328287012282
 20
222.8714207924343
 30
0.0
 10
264.3328322098187
 20
222.5886047310753
 30
0.0
 10
264.3328357673436
 20
222.3056782371237
 30
0.0
 10
264.3328393717557
 20
222.0226439407377
 30
0.0
 10
264.3328430210086
 20
221.7395044720764
 30
0.0
 10
264.3328467130559
 20
221.4562624612973
 30
0.0
 10
264.3328504458523
 20
221.1729205385582
 30
0.0
 10
264.3328542173535
 20
220.8894813340149
 30
0.0
 10
264.3328580255156
 20
220.6059474778233
 30
0.0
 10
264.3328618682958
 20
220.3223216001391
 30
0.0
 10
264.3328657436514
 20
220.0386063311166
 30
0.0
 10
264.332869649541
 20
219.7548043009095
 30
0.0
 10
264.3328735839236
 20
219.4709181396714
 30
0.0
 10
264.332877544759
 20
219.1869504775553
 30
0.0
 10
264.3328815300083
 20
218.9029039447132
 30
0.0
 10
264.3328855376321
 20
218.6187811712969
 30
0.0
 10
264.3328895655923
 20
218.334584787458
 30
0.0
 10
264.3328936118523
 20
218.0503174233472
 30
0.0
 10
264.3328976743751
 20
217.7659817091148
 30
0.0
 10
264.3329017511255
 20
217.4815802749108
 30
0.0
 10
264.3329058400673
 20
217.1971157508847
 30
0.0
 10
264.3329099391672
 20
216.912590767186
 30
0.0
 10
264.3329140463907
 20
216.6280079539632
 30
0.0
 10
264.3329181597055
 20
216.343369941365
 30
0.0
 10
264.332922277079
 20
216.0586793595395
 30
0.0
 10
264.3329263964793
 20
215.7739388386347
 30
0.0
 10
264.3329305158768
 20
215.4891510087982
 30
0.0
 10
264.3329346332403
 20
215.2043185001772
 30
0.0
 10
264.332938746541
 20
214.9194439429191
 30
0.0
 10
264.33294285375
 20
214.634529967171
 30
0.0
 10
264.3329469528389
 20
214.3495792030791
 30
0.0
 10
264.3329510417821
 20
214.0645942807906
 30
0.0
 10
264.3329551185516
 20
213.7795778304515
 30
0.0
 10
264.3329591811221
 20
213.4945324822086
 30
0.0
 10
264.3329632274686
 20
213.2094608662077
 30
0.0
 10
264.3329672555665
 20
212.9243656125955
 30
0.0
 10
264.3329712633931
 20
212.6392493515171
 30
0.0
 10
264.3329752489212
 20
212.3541147131226
 30
0.0
 10
264.3329792101458
 20
212.068964327543
 30
0.0
 10
264.332983144981
 20
211.7838008249798
 30
0.0
 10
264.3329870516445
 20
211.4986268353737
 30
0.0
 10
264.3329909272279
 20
211.2134449896363
 30
0.0
 10
264.3329947730281
 20
210.9282579150587
 30
0.0
 10
264.332997307441
 20
210.738131467886
 30
0.0
 10
264.3331041562324
 20
210.6430682516589
 30
0.0
  0
LINE
  5
3752
330
A
100
AcDbEntity
  8
MODEL
100
AcDbLine
 10
264.3330539436288
 20
243.0932447991124
 30
0.0
 11
264.3328024560287
 21
240.4827114531124
 31
0.0
  0
ARC
  5
3753
330
A
100
AcDbEntity
  8
MODEL
100
AcDbCircle
 10
264.6326754468287
 20
245.3460306667123
 30
0.0
 40
0.3000175188342922
100
AcDbArc
 50
89.938295708174
 51
182.64658094111
  0
HATCH
  5
3754
330
A
100
AcDbEntity
  8
MODEL
100
AcDbHatch
 10
0.0
 20
0.0
 30
0.0
210
0.0
220
0.0
230
1.0
  2
LINE
 70
     0
 71
     0
 91
        1
 92
        1
 93
        4
 72
     1
 10
264.3329688987706
 20
136.6444773348988
 11
264.3329688987706
 21
192.6444773348988
 72
     1
 10
264.3329688987706
 20
192.6444773348988
 11
260.3329688987706
 21
192.6444773348988
 72
     1
 10
260.3329688987706
 20
192.6444773348988
 11
260.3329688987706
 21
136.6444773348988
 72
     1
 10
260.3329688987706
 20
136.6444773348988
 11
264.3329688987706
 21
136.6444773348988
 97
        0
 75
     0
 76
     1
 52
315.0
 41
2.0
 77
     0
 78
     1
 53
315.0
 43
94.39607485402848
 44
-94.44201103248764
 45
4.490128060534576
 46
4.490128060534576
 79
     0
 98
        0
  0
LINE
  5
3755
102
{ACAD_REACTORS
330
47C6
102
}
330
A
100
AcDbEntity
  8
MODEL
100
AcDbLine
 10
264.3329688988288
 20
136.6444773349123
 30
0.0
 11
264.3329688988288
 21
284.6444773349124
 31
0.0
  0
HATCH
  5
3756
330
A
100
AcDbEntity
  8
MODEL
100
AcDbHatch
 10
0.0
 20
0.0
 30
0.0
210
0.0
220
0.0
230
1.0
  2
LINE
 70
     0
 71
     0
 91
        1
 92
        1
 93
        4
 72
     1
 10
252.3329688987706
 20
192.6444773348988
 11
252.3329688987706
 21
136.6444773348988
 72
     1
 10
252.3329688987706
 20
136.6444773348988
 11
260.3329688987706
 21
136.6444773348988
 72
     1
 10
260.3329688987706
 20
136.6444773348988
 11
260.3329688987706
 21
192.6444773348988
 72
     1
 10
260.3329688987706
 20
192.6444773348988
 11
252.3329688987706
 21
192.6444773348988
 97
        0
 75
     0
 76
     1
 52
45.0
 41
2.0
 77
     0
 78
     1
 53
45.0
 43
94.39607485402848
 44
-94.44201103248764
 45
-4.490128060534576
 46
4.490128060534576
 79
     0
 98
        0
  0
LINE
  5
3757
330
A
100
AcDbEntity
  8
MODEL
100
AcDbLine
 10
260.3329688988288
 20
136.6444773349123
 30
0.0
 11
260.3329688988288
 21
192.6444773349124
 31
0.0
  0
LINE
  5
3758
330
A
100
AcDbEntity
  8
MODEL
100
AcDbLine
 10
264.3329688988288
 20
192.6444773349124
 30
0.0
 11
252.3329688988288
 21
192.6444773349124
 31
0.0
  0
LINE
  5
3759
330
A
100
AcDbEntity
  8
MODEL
100
AcDbLine
 10
271.3331000742287
 20
244.5154545029123
 30
0.0
 11
271.3330980476285
 21
176.6221097951123
 31
0.0
  0
CIRCLE
  5
375B
330
A
100
AcDbEntity
  8
MODEL
100
AcDbCircle
 10
93.93262218918858
 20
543.8079951341506
 30
0.0
 40
17.5
  0
ARC
  5
375C
330
A
100
AcDbEntity
  8
MODEL
100
AcDbCircle
 10
93.93263690893536
 20
153.0572395025123
 30
0.0
 40
92.59353667610274
100
AcDbArc
 50
71.3030877911999
 51
108.6969178696999
  0
LINE
  5
375D
330
A
100
AcDbEntity
  8
MODEL
100
AcDbLine
 10
64.25066422213558
 20
240.7643859137124
 30
0.0
 11
64.15970762833558
 21
240.7333436053123
 31
0.0
  0
LINE
  5
375E
330
A
100
AcDbEntity
  8
MODEL
100
AcDbLine
 10
64.15970762833558
 20
240.7333436053123
 30
0.0
 11
64.06320139473564
 21
240.7002883451124
 31
0.0
  0
LINE
  5
375F
330
A
100
AcDbEntity
  8
MODEL
100
AcDbLine
 10
123.8020607783351
 20
240.7002897239124
 30
0.0
 11
123.7055576915354
 21
240.7333452411124
 31
0.0
  0
LINE
  5
3760
330
A
100
AcDbEntity
  8
MODEL
100
AcDbLine
 10
123.7055576915354
 20
240.7333452411124
 30
0.0
 11
123.6146009301351
 21
240.7643888463124
 31
0.0
  0
ARC
  5
3761
330
A
100
AcDbEntity
  8
MODEL
100
AcDbCircle
 10
36.34539273613564
 20
210.6444711271124
 30
0.0
 40
92.59353664729962
100
AcDbArc
 50
341.3030879203998
 51
18.6969174987
  0
LINE
  5
3762
330
A
100
AcDbEntity
  8
MODEL
100
AcDbLine
 10
124.0525393121357
 20
240.3264432367123
 30
0.0
 11
124.0214968765354
 21
240.4174002049124
 31
0.0
  0
LINE
  5
3763
330
A
100
AcDbEntity
  8
MODEL
100
AcDbLine
 10
124.0214984219351
 20
180.8715502801123
 30
0.0
 11
124.0525421195352
 21
180.9625073129123
 31
0.0
  0
ARC
  5
3764
330
A
100
AcDbEntity
  8
DIM
100
AcDbCircle
 10
140.7478454663355
 20
214.1291110339123
 30
0.0
 40
81.27307244409025
100
AcDbArc
 50
161.0560057662001
 51
161.1031028475
  0
LINE
  5
3765
330
A
100
AcDbEntity
  8
DIM
100
AcDbLine
 10
63.84376280333527
 20
240.4174045175123
 30
0.0
 11
63.81271899853527
 21
240.3264471705124
 31
0.0
  0
ARC
  5
3766
330
A
100
AcDbEntity
  8
MODEL
100
AcDbCircle
 10
151.5198685121354
 20
210.6444837065124
 30
0.0
 40
92.59353665820161
100
AcDbArc
 50
161.3030881515
 51
198.6969174703001
  0
LINE
  5
3767
330
A
100
AcDbEntity
  8
MODEL
100
AcDbLine
 10
63.81272191093512
 20
180.9625116369123
 30
0.0
 11
63.84376435973536
 21
180.8715546303123
 31
0.0
  0
ARC
  5
3768
330
A
100
AcDbEntity
  8
MODEL
100
AcDbCircle
 10
140.7554818081353
 20
207.1613979629124
 30
0.0
 40
81.28079812173893
100
AcDbArc
 50
198.8713741846999
 51
198.943282595
  0
SPLINE
  5
3769
330
A
100
AcDbEntity
  8
MODEL
100
AcDbSpline
210
0.0
220
0.0
230
1.0
 70
    12
 71
     3
 72
     8
 73
     4
 74
     0
 42
0.000000001
 43
0.0000000001
 40
0.0
 40
0.0
 40
0.0
 40
0.0
 40
1.0
 40
1.0
 40
1.0
 40
1.0
 10
64.12650072099436
 20
180.5669680318917
 30
0.0
 41
0.9604610579862551
 10
64.08515291646238
 20
180.5811210522552
 30
0.0
 41
0.9229169249531386
 10
64.0632004588419
 20
180.588665108516
 30
0.0
 41
0.9360965722910536
 10
64.06320045884195
 20
180.588665108516
 30
0.0
 41
1.0
  0
LINE
  5
376A
330
A
100
AcDbEntity
  8
MODEL
100
AcDbLine
 10
64.25066014113554
 20
180.5245660349124
 30
0.0
 11
64.15970351613532
 21
180.5556096015123
 31
0.0
  0
ARC
  5
376B
330
A
100
AcDbEntity
  8
MODEL
100
AcDbCircle
 10
93.9326243069354
 20
268.2749975073123
 30
0.0
 40
92.6345357861843
100
AcDbArc
 50
272.7597360069999
 51
288.6883356621
  0
ARC
  5
376C
330
A
100
AcDbEntity
  8
MODEL
100
AcDbCircle
 10
93.9326243069354
 20
268.2749975073123
 30
0.0
 40
92.6345357861843
100
AcDbArc
 50
251.3116693463001
 51
267.2403041209998
  0
LINE
  5
376D
330
A
100
AcDbEntity
  8
MODEL
100
AcDbLine
 10
123.7055534613351
 20
180.5556111769123
 30
0.0
 11
123.6145961431353
 21
180.5245686295123
 31
0.0
  0
SPLINE
  5
376E
330
A
100
AcDbEntity
  8
MODEL
100
AcDbSpline
210
0.0
220
0.0
230
1.0
 70
    12
 71
     3
 72
     8
 73
     4
 74
     0
 42
0.000000001
 43
0.0000000001
 40
0.0
 40
0.0
 40
0.0
 40
0.0
 40
1.0
 40
1.0
 40
1.0
 40
1.0
 10
123.8020598424073
 20
180.5886664874868
 30
0.0
 41
1.0
 10
123.8020598424073
 20
180.5886664874866
 30
0.0
 41
0.919500182423951
 10
123.7670867535471
 20
180.5766483217793
 30
0.0
 41
0.919500182423951
 10
123.7055534613692
 20
180.5556111768545
 30
0.0
 41
1.0
  0
ARC
  5
376F
330
A
100
AcDbEntity
  8
MODEL
100
AcDbCircle
 10
64.16051076353551
 20
240.4166329327123
 30
0.0
 40
0.2998824873188142
100
AcDbArc
 50
108.9347807458316
 51
135.00481154932
  0
ARC
  5
3770
330
A
100
AcDbEntity
  8
DIM
100
AcDbCircle
 10
64.1604726921355
 20
240.4165943591124
 30
0.0
 40
0.299882760712997
100
AcDbArc
 50
134.9944568010852
 51
161.0644598979256
  0
ARC
  5
3771
330
A
100
AcDbEntity
  8
DIM
100
AcDbCircle
 10
64.16047121633528
 20
240.4165949965123
 30
0.0
 40
0.2998811580999336
100
AcDbArc
 50
134.9943428742155
 51
161.0644835666016
  0
ARC
  5
3772
330
A
100
AcDbEntity
  8
MODEL
100
AcDbCircle
 10
64.16050629093525
 20
240.4166365035124
 30
0.0
 40
0.2998766090897512
100
AcDbArc
 50
108.9341938377258
 51
130.1421608788818
  0
ARC
  5
3773
330
A
100
AcDbEntity
  8
MODEL
100
AcDbCircle
 10
64.16047510213548
 20
180.8723575611123
 30
0.0
 40
0.2998824873323754
100
AcDbArc
 50
198.9347807461808
 51
225.0048115482293
  0
ARC
  5
3774
330
A
100
AcDbEntity
  8
MODEL
100
AcDbCircle
 10
64.16051367573527
 20
180.8723194897123
 30
0.0
 40
0.2998827607048452
100
AcDbArc
 50
224.9944568001769
 51
251.064459897851
  0
ARC
  5
3775
330
A
100
AcDbEntity
  8
MODEL
100
AcDbCircle
 10
64.16051303833547
 20
180.8723180141124
 30
0.0
 40
0.2998811580890826
100
AcDbArc
 50
224.9943428736133
 51
251.0644835665332
  0
ARC
  5
3776
330
A
100
AcDbEntity
  8
MODEL
100
AcDbCircle
 10
64.16047153133559
 20
180.8723530887124
 30
0.0
 40
0.299876609089876
100
AcDbArc
 50
198.9341938372031
 51
220.1421859666764
  0
ARC
  5
3777
330
A
100
AcDbEntity
  8
MODEL
100
AcDbCircle
 10
123.7047900207353
 20
180.8723598361124
 30
0.0
 40
0.2998811580596876
100
AcDbArc
 50
314.9943428742732
 51
341.0644835684985
  0
ARC
  5
3778
330
A
100
AcDbEntity
  8
MODEL
100
AcDbCircle
 10
123.7047504737352
 20
180.8723218999124
 30
0.0
 40
0.299882405359783
100
AcDbArc
 50
288.9347807457509
 51
315.0048115485098
  0
ARC
  5
3779
330
A
100
AcDbEntity
  8
MODEL
100
AcDbCircle
 10
123.7047885451352
 20
180.8723604733123
 30
0.0
 40
0.2998827607084366
100
AcDbArc
 50
314.9944568004842
 51
341.0644598983095
  0
ARC
  5
377A
330
A
100
AcDbEntity
  8
MODEL
100
AcDbCircle
 10
123.7047861349351
 20
240.4165972713124
 30
0.0
 40
0.2998824873197062
100
AcDbArc
 50
18.93478074547813
 51
45.0048115486308
  0
ARC
  5
377B
330
A
100
AcDbEntity
  8
MODEL
100
AcDbCircle
 10
123.7047475615354
 20
240.4166353427124
 30
0.0
 40
0.299882760708947
100
AcDbArc
 50
44.99445680047453
 51
71.06445989802785
  0
ARC
  5
377C
330
A
100
AcDbEntity
  8
MODEL
100
AcDbCircle
 10
123.7047897059351
 20
240.4166017439123
 30
0.0
 40
0.2998766090806594
100
AcDbArc
 50
18.93419383667618
 51
45.00468920915773
  0
SPLINE
  5
377D
330
A
100
AcDbEntity
  8
MODEL
100
AcDbSpline
210
0.0
220
0.0
230
1.0
 70
     8
 71
     7
 72
    16
 73
     8
 74
     0
 42
0.000000001
 43
0.0000000001
 40
0.0
 40
0.0
 40
0.0
 40
0.0
 40
0.0
 40
0.0
 40
0.0
 40
0.0
 40
1.0
 40
1.0
 40
1.0
 40
1.0
 40
1.0
 40
1.0
 40
1.0
 40
1.0
 10
124.0214980563655
 20
240.4173967538277
 30
0.0
 10
124.0196570519815
 20
240.4227816611626
 30
0.0
 10
124.0175963530191
 20
240.4281276587622
 30
0.0
 10
124.0152810664954
 20
240.433459925248
 30
0.0
 10
124.012674504952
 20
240.4387958589983
 30
0.0
 10
124.0097401130524
 20
240.4441471356606
 30
0.0
 10
124.0064442395342
 20
240.4495225686276
 30
0.0
 10
124.0027580657843
 20
240.454930118993
 30
0.0
  0
SPLINE
  5
377E
330
A
100
AcDbEntity
  8
DIM
100
AcDbSpline
210
0.0
220
0.0
230
1.0
 70
     8
 71
     7
 72
    16
 73
     8
 74
     0
 42
0.000000001
 43
0.0000000001
 40
0.0
 40
0.0
 40
0.0
 40
0.0
 40
0.0
 40
0.0
 40
0.0
 40
0.0
 40
1.0
 40
1.0
 40
1.0
 40
1.0
 40
1.0
 40
1.0
 40
1.0
 40
1.0
 10
63.84376280339393
 20
240.4174045174798
 30
0.0
 10
63.8452501496804
 20
240.4217548047818
 30
0.0
 10
63.84688086178539
 20
240.4260796911078
 30
0.0
 10
63.84867333709872
 20
240.4303924511019
 30
0.0
 10
63.85064673689203
 20
240.4347030454296
 30
0.0
 10
63.85282032351051
 20
240.4390188287966
 30
0.0
 10
63.855212562622
 20
240.4433454810728
 30
0.0
 10
63.85784036968516
 20
240.4476877903185
 30
0.0
  0
SPLINE
  5
377F
330
A
100
AcDbEntity
  8
MODEL
100
AcDbSpline
210
0.0
220
0.0
230
1.0
 70
     8
 71
     7
 72
    16
 73
     8
 74
     0
 42
0.000000001
 43
0.0000000001
 40
0.0
 40
0.0
 40
0.0
 40
0.0
 40
0.0
 40
0.0
 40
0.0
 40
0.0
 40
1.0
 40
1.0
 40
1.0
 40
1.0
 40
1.0
 40
1.0
 40
1.0
 40
1.0
 10
124.0214968765295
 20
240.4174002048285
 30
0.0
 10
124.0199113645758
 20
240.4220378004166
 30
0.0
 10
124.0181629386493
 20
240.4266465302625
 30
0.0
 10
124.0162293138742
 20
240.4312424751648
 30
0.0
 10
124.0140872188931
 20
240.4358374364655
 30
0.0
 10
124.0117133082299
 20
240.4404399106805
 30
0.0
 10
124.0090854193345
 20
240.4450563914514
 30
0.0
 10
124.0061835813062
 20
240.4496924182486
 30
0.0
  0
SPLINE
  5
3780
330
A
100
AcDbEntity
  8
MODEL
100
AcDbSpline
210
0.0
220
0.0
230
1.0
 70
     8
 71
     7
 72
    16
 73
     8
 74
     0
 42
0.000000001
 43
0.0000000001
 40
0.0
 40
0.0
 40
0.0
 40
0.0
 40
0.0
 40
0.0
 40
0.0
 40
0.0
 40
1.0
 40
1.0
 40
1.0
 40
1.0
 40
1.0
 40
1.0
 40
1.0
 40
1.0
 10
124.0033407548999
 20
180.8348847378184
 30
0.0
 10
124.0068925961591
 20
180.8401666616824
 30
0.0
 10
124.0100746907042
 20
180.8454187833229
 30
0.0
 10
124.0129143498084
 20
180.8506486109964
 30
0.0
 10
124.0154431748638
 20
180.8558645559495
 30
0.0
 10
124.0176953036676
 20
180.8610777590517
 30
0.0
 10
124.0197049545955
 20
180.8663046265181
 30
0.0
 10
124.021504707734
 20
180.8715686654615
 30
0.0
  0
SPLINE
  5
3781
330
A
100
AcDbEntity
  8
MODEL
100
AcDbSpline
210
0.0
220
0.0
230
1.0
 70
     8
 71
     7
 72
    16
 73
     8
 74
     0
 42
0.000000001
 43
0.0000000001
 40
0.0
 40
0.0
 40
0.0
 40
0.0
 40
0.0
 40
0.0
 40
0.0
 40
0.0
 40
1.0
 40
1.0
 40
1.0
 40
1.0
 40
1.0
 40
1.0
 40
1.0
 40
1.0
 10
124.0055981613145
 20
180.8383289764977
 30
0.0
 10
124.0086318970039
 20
180.8431012095694
 30
0.0
 10
124.0113727415719
 20
180.8478519282348
 30
0.0
 10
124.0138421542802
 20
180.8525870485719
 30
0.0
 10
124.0160641449952
 20
180.8573134546118
 30
0.0
 10
124.0180641292682
 20
180.8620401889457
 30
0.0
 10
124.0198674690519
 20
180.8667799631145
 30
0.0
 10
124.0214984218615
 20
180.8715502801249
 30
0.0
  0
SPLINE
  5
3782
330
A
100
AcDbEntity
  8
MODEL
100
AcDbSpline
210
0.0
220
0.0
230
1.0
 70
     8
 71
     7
 72
    16
 73
     8
 74
     0
 42
0.000000001
 43
0.0000000001
 40
0.0
 40
0.0
 40
0.0
 40
0.0
 40
0.0
 40
0.0
 40
0.0
 40
0.0
 40
1.0
 40
1.0
 40
1.0
 40
1.0
 40
1.0
 40
1.0
 40
1.0
 40
1.0
 10
64.12304043866197
 20
180.5737655911458
 30
0.0
 10
64.12832198720525
 20
180.5702141449288
 30
0.0
 10
64.13357374014913
 20
180.5670323854995
 30
0.0
 10
64.13880320446924
 20
180.5641930060268
 30
0.0
 10
64.1440187902599
 20
180.5616644110974
 30
0.0
 10
64.14923163683716
 20
180.5594124699276
 30
0.0
 10
64.15445814755321
 20
180.5574029712998
 30
0.0
 10
64.15972182472115
 20
180.5556033418471
 30
0.0
  0
SPLINE
  5
3783
330
A
100
AcDbEntity
  8
MODEL
100
AcDbSpline
210
0.0
220
0.0
230
1.0
 70
     8
 71
     7
 72
    16
 73
     8
 74
     0
 42
0.000000001
 43
0.0000000001
 40
0.0
 40
0.0
 40
0.0
 40
0.0
 40
0.0
 40
0.0
 40
0.0
 40
0.0
 40
1.0
 40
1.0
 40
1.0
 40
1.0
 40
1.0
 40
1.0
 40
1.0
 40
1.0
 10
64.12775393663514
 20
180.5707098941273
 30
0.0
 10
64.13233979830648
 20
180.5678556416807
 30
0.0
 10
64.1369068093777
 20
180.5652685785747
 30
0.0
 10
64.1414603758717
 20
180.5629292685196
 30
0.0
 10
64.14600685012965
 20
180.5608162047231
 30
0.0
 10
64.15055453052082
 20
180.5589067716208
 30
0.0
 10
64.15511489311484
 20
180.5571784338195
 30
0.0
 10
64.15970351609712
 20
180.5556096014921
 30
0.0
  0
ARC
  5
3784
330
A
100
AcDbEntity
  8
MODEL
100
AcDbCircle
 10
123.3684593991352
 20
240.3192691073123
 30
0.0
 40
0.6500680813789962
100
AcDbArc
 50
11.6814664173975
 51
16.74335138700457
  0
ARC
  5
3785
330
A
100
AcDbEntity
  8
MODEL
100
AcDbCircle
 10
123.3685529261352
 20
180.9696792005123
 30
0.0
 40
0.6499784494968708
100
AcDbArc
 50
343.2550623883056
 51
348.3174679806273
  0
ARC
  5
3786
330
A
100
AcDbEntity
  8
MODEL
100
AcDbCircle
 10
4133.838261541536
 20
-3791.386349472088
 30
0.0
 40
5686.634009143058
100
AcDbArc
 50
134.883585909
 51
135.0825084347
  0
ARC
  5
3787
330
A
100
AcDbEntity
  8
MODEL
100
AcDbCircle
 10
-8933.091978218266
 20
-8782.98917256709
 30
0.0
 40
12742.65263312377
100
AcDbArc
 50
44.9774365181
 51
45.0662078539
  0
SPLINE
  5
3788
330
A
100
AcDbEntity
  8
MODEL
100
AcDbSpline
210
0.0
220
0.0
230
1.0
 70
    12
 71
     3
 72
    11
 73
     7
 74
     0
 42
0.000000001
 43
0.0000000001
 40
0.0
 40
0.0
 40
0.0
 40
0.0
 40
0.0012333535055359
 40
0.0012333535055359
 40
0.0012333535055359
 40
1.0
 40
1.0
 40
1.0
 40
1.0
 10
66.90615392030895
 20
237.8328382011639
 30
0.0
 41
1.0
 10
66.90609851421186
 20
237.8328935561213
 30
0.0
 41
1.0
 10
66.90604323488924
 20
237.8329489715434
 30
0.0
 41
1.0
 10
66.90598808274899
 20
237.8330044474001
 30
0.0
 41
1.0
 10
66.86985621041825
 20
237.8693483966653
 30
0.0
 41
0.8619704624480881
 10
66.89510330081113
 20
237.9228869388566
 30
0.0
 41
0.8619704624480881
 10
66.9713557051623
 20
237.9712136303876
 30
0.0
 41
1.0
  0
ARC
  5
3789
330
A
100
AcDbEntity
  8
MODEL
100
AcDbCircle
 10
-3945.972929528465
 20
4212.672498755112
 30
0.0
 40
5686.63390913334
100
AcDbArc
 50
314.8835859078
 51
315.0825084361
  0
ARC
  5
378A
330
A
100
AcDbEntity
  8
MODEL
100
AcDbCircle
 10
9120.957249811936
 20
9204.27540286431
 30
0.0
 40
12742.65264769981
100
AcDbArc
 50
224.9774401425996
 51
225.0662078539
  0
SPLINE
  5
378B
330
A
100
AcDbEntity
  8
MODEL
100
AcDbSpline
210
0.0
220
0.0
230
1.0
 70
    12
 71
     3
 72
    11
 73
     7
 74
     0
 42
0.000000001
 43
0.0000000001
 40
0.0
 40
0.0
 40
0.0
 40
0.0
 40
0.0012333537264827
 40
0.0012333537264827
 40
0.0012333537264827
 40
1.0
 40
1.0
 40
1.0
 40
1.0
 10
120.9591073760021
 20
183.4533817799557
 30
0.0
 41
1.0
 10
120.9591627820964
 20
183.4533264250011
 30
0.0
 41
1.0
 10
120.9592180614172
 20
183.4532710095818
 30
0.0
 41
1.0
 10
120.9592732135543
 20
183.4532155337275
 30
0.0
 41
1.0
 10
120.9954050803457
 20
183.4168715900348
 30
0.0
 41
0.861970438260422
 10
120.9701580035638
 20
183.3633330565882
 30
0.0
 41
0.861970438260422
 10
120.8939056282184
 20
183.3150063770969
 30
0.0
 41
1.0
  0
SPLINE
  5
378C
330
A
100
AcDbEntity
  8
MODEL
100
AcDbSpline
210
0.0
220
0.0
230
1.0
 70
    12
 71
     3
 72
    11
 73
     7
 74
     0
 42
0.000000001
 43
0.0000000001
 40
0.0
 40
0.0
 40
0.0
 40
0.0
 40
0.0012333469103895
 40
0.0012333469103895
 40
0.0012333469103895
 40
1.0
 40
1.0
 40
1.0
 40
1.0
 10
121.1223590672771
 20
237.6695869372635
 30
0.0
 41
1.0
 10
121.1224144219877
 20
237.6696423431138
 30
0.0
 41
1.0
 10
121.122469837163
 20
237.6696976221905
 30
0.0
 41
1.0
 10
121.1225253127727
 20
237.6697527740845
 30
0.0
 41
1.0
 10
121.1588692199224
 20
237.7058846045481
 30
0.0
 41
0.861970966818267
 10
121.2124077324378
 20
237.6806372625304
 30
0.0
 41
0.861970966818267
 10
121.2607344986877
 20
237.6043844623344
 30
0.0
 41
1.0
  0
SPLINE
  5
378D
330
A
100
AcDbEntity
  8
MODEL
100
AcDbSpline
210
0.0
220
0.0
230
1.0
 70
    12
 71
     3
 72
    11
 73
     7
 74
     0
 42
0.000000001
 43
0.0000000001
 40
0.0
 40
0.0
 40
0.0
 40
0.0
 40
0.0012333495956158
 40
0.0012333495956158
 40
0.0012333495956158
 40
1.0
 40
1.0
 40
1.0
 40
1.0
 10
66.74290228753807
 20
183.6166331227092
 30
0.0
 41
1.0
 10
66.74284693273967
 20
183.6165777167711
 30
0.0
 41
1.0
 10
66.74279151747623
 20
183.6165224376065
 30
0.0
 41
1.0
 10
66.74273604177915
 20
183.6164672856251
 30
0.0
 41
1.0
 10
66.70639212558713
 20
183.5803354461733
 30
0.0
 41
0.86197075405707
 10
66.65285361237143
 20
183.605582679795
 30
0.0
 41
0.86197075405707
 10
66.60452688756777
 20
183.6818353007357
 30
0.0
 41
1.0
  0
SPLINE
  5
378E
330
A
100
AcDbEntity
  8
MODEL
100
AcDbSpline
210
0.0
220
0.0
230
1.0
 70
    12
 71
     7
 72
    16
 73
     8
 74
     0
 42
0.000000001
 43
0.0000000001
 40
0.0
 40
0.0
 40
0.0
 40
0.0
 40
0.0
 40
0.0
 40
0.0
 40
0.0
 40
1.0
 40
1.0
 40
1.0
 40
1.0
 40
1.0
 40
1.0
 40
1.0
 40
1.0
 10
66.82399372641885
 20
237.9411833490515
 30
0.0
 41
1.0
 10
66.82760346216764
 20
237.9438868444941
 30
0.0
 41
1.0
 10
66.83118919846629
 20
237.9464918449361
 30
0.0
 41
1.0
 10
66.83475064345612
 20
237.9489973015135
 30
0.0
 41
1.0
 10
66.83828758115942
 20
237.951402220828
 30
0.0
 41
1.0
 10
66.84179983405011
 20
237.9537057013642
 30
0.0
 41
1.0
 10
66.84528723578796
 20
237.9559069598982
 30
0.0
 41
1.0
 10
66.84874961223841
 20
237.9580053497465
 30
0.0
 41
1.0
  0
SPLINE
  5
378F
330
A
100
AcDbEntity
  8
MODEL
100
AcDbSpline
210
0.0
220
0.0
230
1.0
 70
    12
 71
     7
 72
    16
 73
     8
 74
     0
 42
0.000000001
 43
0.0000000001
 40
0.0
 40
0.0
 40
0.0
 40
0.0
 40
0.0
 40
0.0
 40
0.0
 40
0.0
 40
1.0
 40
1.0
 40
1.0
 40
1.0
 40
1.0
 40
1.0
 40
1.0
 40
1.0
 10
121.2307044446466
 20
237.7517464145254
 30
0.0
 41
1.0
 10
121.2334079463785
 20
237.7481366617722
 30
0.0
 41
1.0
 10
121.2360129523058
 20
237.7445509089635
 30
0.0
 41
1.0
 10
121.2385184135642
 20
237.7409894479671
 30
0.0
 41
1.0
 10
121.2409233367548
 20
237.7374524947673
 30
0.0
 41
1.0
 10
121.2432268203634
 20
237.7339402268929
 30
0.0
 41
1.0
 10
121.2454280811671
 20
237.7304528106861
 30
0.0
 41
1.0
 10
121.2475264724849
 20
237.7269904202827
 30
0.0
 41
1.0
  0
SPLINE
  5
3790
330
A
100
AcDbEntity
  8
MODEL
100
AcDbSpline
210
0.0
220
0.0
230
1.0
 70
    12
 71
     7
 72
    16
 73
     8
 74
     0
 42
0.000000001
 43
0.0000000001
 40
0.0
 40
0.0
 40
0.0
 40
0.0
 40
0.0
 40
0.0
 40
0.0
 40
0.0
 40
1.0
 40
1.0
 40
1.0
 40
1.0
 40
1.0
 40
1.0
 40
1.0
 40
1.0
 10
121.0412674008248
 20
183.3450365084794
 30
0.0
 41
1.0
 10
121.0376576471522
 20
183.3423329982157
 30
0.0
 41
1.0
 10
121.0340718936145
 20
183.3397279840684
 30
0.0
 41
1.0
 10
121.0305104320769
 20
183.3372225149135
 30
0.0
 41
1.0
 10
121.0269734785174
 20
183.3348175841625
 30
0.0
 41
1.0
 10
121.0234612104618
 20
183.3325140933418
 30
0.0
 41
1.0
 10
121.0199737942453
 20
183.330312825685
 30
0.0
 41
1.0
 10
121.0165114039978
 20
183.328214427883
 30
0.0
 41
1.0
  0
SPLINE
  5
3791
330
A
100
AcDbEntity
  8
MODEL
100
AcDbSpline
210
0.0
220
0.0
230
1.0
 70
    12
 71
     7
 72
    16
 73
     8
 74
     0
 42
0.000000001
 43
0.0000000001
 40
0.0
 40
0.0
 40
0.0
 40
0.0
 40
0.0
 40
0.0
 40
0.0
 40
0.0
 40
1.0
 40
1.0
 40
1.0
 40
1.0
 40
1.0
 40
1.0
 40
1.0
 40
1.0
 10
66.63455681522146
 20
183.5344736974667
 30
0.0
 41
1.0
 10
66.63185332907369
 20
183.5380834314474
 30
0.0
 41
1.0
 10
66.62924833785155
 20
183.541669165541
 30
0.0
 41
1.0
 10
66.6267428904107
 20
183.5452306078926
 30
0.0
 41
1.0
 10
66.62433798014354
 20
183.5487675425296
 30
0.0
 41
1.0
 10
66.62203450855895
 20
183.5522797919337
 30
0.0
 41
1.0
 10
66.61983325887513
 20
183.5557671897733
 30
0.0
 41
1.0
 10
66.61773487777145
 20
183.5592295619227
 30
0.0
 41
1.0
  0
ARC
  5
3792
330
A
100
AcDbEntity
  8
MODEL
100
AcDbCircle
 10
93.9326311197351
 20
158.2370034203123
 30
0.0
 40
84.21718620493382
100
AcDbArc
 50
71.3787625115998
 51
108.6212417510999
  0
ARC
  5
3793
330
A
100
AcDbEntity
  8
MODEL
100
AcDbCircle
 10
41.52652405993513
 20
210.6431095215124
 30
0.0
 40
84.21718621287052
100
AcDbArc
 50
341.3787624450001
 51
18.62124138779983
  0
ARC
  5
3794
330
A
100
AcDbEntity
  8
MODEL
100
AcDbCircle
 10
146.3387372077354
 20
210.6431104675124
 30
0.0
 40
84.21718619438738
100
AcDbArc
 50
161.3787618743001
 51
198.6212415760999
  0
ARC
  5
3795
330
A
100
AcDbEntity
  8
MODEL
100
AcDbCircle
 10
93.93263016613537
 20
263.0492165667123
 30
0.0
 40
84.21718620093796
100
AcDbArc
 50
251.3787625231002
 51
267.0074812816998
  0
ARC
  5
3796
330
A
100
AcDbEntity
  8
MODEL
100
AcDbCircle
 10
93.93263016613537
 20
263.0492165667123
 30
0.0
 40
84.21718620093796
100
AcDbArc
 50
272.9926558399
 51
288.6212417981998
  0
ARC
  5
3797
330
A
100
AcDbEntity
  8
MODEL
100
AcDbCircle
 10
67.34520135313551
 20
237.2235479031124
 30
0.0
 40
0.886985504306474
100
AcDbArc
 50
125.1786278083145
 51
134.6805579850126
  0
ARC
  5
3798
330
A
100
AcDbEntity
  8
MODEL
100
AcDbCircle
 10
67.47101136173524
 20
236.8588533225123
 30
0.0
 40
1.262071615662883
100
AcDbArc
 50
109.9124017841797
 51
120.3321719015929
  0
ARC
  5
3799
330
A
100
AcDbEntity
  8
MODEL
100
AcDbCircle
 10
67.71700884273514
 20
237.1046744537123
 30
0.0
 40
1.262204745450566
100
AcDbArc
 50
149.6685067759963
 51
160.0873269728007
  0
SPLINE
  5
379A
330
A
100
AcDbEntity
  8
MODEL
100
AcDbSpline
210
0.0
220
0.0
230
1.0
 70
     8
 71
     3
 72
    14
 73
    10
 74
     0
 42
0.000000001
 43
0.0000000001
 40
0.0
 40
0.0
 40
0.0
 40
0.0
 40
0.3634005669358427
 40
0.4893252257958344
 40
0.5929351984828765
 40
0.6861621302049383
 40
0.7800505675884124
 40
0.882825040524612
 40
1.0
 40
1.0
 40
1.0
 40
1.0
 10
66.72151445139798
 20
237.8542283707628
 30
0.0
 10
66.70829055191052
 20
237.839569717864
 30
0.0
 10
66.69301180115872
 20
237.8226408127466
 30
0.0
 10
66.67248687432311
 20
237.7962836085528
 30
0.0
 10
66.66077459007647
 20
237.7815116223092
 30
0.0
 10
66.65019341177731
 20
237.7687601721984
 30
0.0
 10
66.6408727807061
 20
237.7580928820398
 30
0.0
 10
66.63265754602708
 20
237.7488901515556
 30
0.0
 10
66.62947698693642
 20
237.7446394122397
 30
0.0
 10
66.62757464665219
 20
237.742087014146
 30
0.0
  0
ARC
  5
379B
330
A
100
AcDbEntity
  8
MODEL
100
AcDbCircle
 10
120.5130700193354
 20
237.2305408461123
 30
0.0
 40
0.8869834693928204
100
AcDbArc
 50
35.17855175690666
 51
44.6805523718861
  0
ARC
  5
379C
330
A
100
AcDbEntity
  8
MODEL
100
AcDbCircle
 10
120.1483704201351
 20
237.1047284185124
 30
0.0
 40
1.262075235028493
100
AcDbArc
 50
19.91235952380395
 51
30.33209436909651
  0
ARC
  5
379D
330
A
100
AcDbEntity
  8
MODEL
100
AcDbCircle
 10
120.3941892689354
 20
236.8587185831123
 30
0.0
 40
1.262219136075838
100
AcDbArc
 50
59.66861206759193
 51
70.08732448331402
  0
SPLINE
  5
379E
330
A
100
AcDbEntity
  8
MODEL
100
AcDbSpline
210
0.0
220
0.0
230
1.0
 70
     8
 71
     3
 72
    14
 73
    10
 74
     0
 42
0.000000001
 43
0.0000000001
 40
0.0
 40
0.0
 40
0.0
 40
0.0
 40
0.3634003021021979
 40
0.4893250166215
 40
0.5929351567180255
 40
0.6861623029654149
 40
0.7800508856951701
 40
0.8828253269227239
 40
1.0
 40
1.0
 40
1.0
 40
1.0
 10
121.1437491011561
 20
237.8542262552949
 30
0.0
 10
121.129090423377
 20
237.8674501835745
 30
0.0
 10
121.1121614823255
 20
237.8827289703208
 30
0.0
 10
121.0858041892284
 20
237.9032539292828
 30
0.0
 10
121.0710321282322
 20
237.9149662358016
 30
0.0
 10
121.05828059544
 20
237.9255474400318
 30
0.0
 10
121.047613207324
 20
237.9348681101433
 30
0.0
 10
121.0384103586971
 20
237.9430834017614
 30
0.0
 10
121.0341595407303
 20
237.9462640043878
 30
0.0
 10
121.0316070945278
 20
237.9481663715074
 30
0.0
  0
ARC
  5
379F
330
A
100
AcDbEntity
  8
MODEL
100
AcDbCircle
 10
120.1482450281351
 20
184.1815491665123
 30
0.0
 40
1.262212936754044
100
AcDbArc
 50
329.6685541430128
 51
340.0873244404067
  0
SPLINE
  5
37A0
330
A
100
AcDbEntity
  8
MODEL
100
AcDbSpline
210
0.0
220
0.0
230
1.0
 70
     8
 71
     3
 72
    14
 73
    10
 74
     0
 42
0.000000001
 43
0.0000000001
 40
0.0
 40
0.0
 40
0.0
 40
0.0
 40
0.3634004517119088
 40
0.4893251162014097
 40
0.5929351696654089
 40
0.686162217001414
 40
0.7800507348258636
 40
0.8828251930234439
 40
1.0
 40
1.0
 40
1.0
 40
1.0
 10
121.1437468112767
 20
183.4319916103546
 30
0.0
 10
121.1569707397057
 20
183.4466502710694
 30
0.0
 10
121.1722495276526
 20
183.4635791909623
 30
0.0
 10
121.1927744614245
 20
183.4899364808469
 30
0.0
 10
121.2044867533436
 20
183.5047085207239
 30
0.0
 10
121.2150679492529
 20
183.5174600206604
 30
0.0
 10
121.2243886085048
 20
183.5281273658755
 30
0.0
 10
121.2326038808255
 20
183.5373301620099
 30
0.0
 10
121.235784465352
 20
183.5415809452107
 30
0.0
 10
121.2376868212796
 20
183.5441333701347
 30
0.0
  0
ARC
  5
37A1
330
A
100
AcDbEntity
  8
MODEL
100
AcDbCircle
 10
120.5200594699354
 20
184.0626723581124
 30
0.0
 40
0.8869860125407444
100
AcDbArc
 50
305.1786232934052
 51
314.6805654581998
  0
ARC
  5
37A2
330
A
100
AcDbEntity
  8
MODEL
100
AcDbCircle
 10
120.3942522217353
 20
184.4273623453124
 30
0.0
 40
1.262066769691899
100
AcDbArc
 50
289.9123736366971
 51
300.3321676562079
  0
ARC
  5
37A3
330
A
100
AcDbEntity
  8
MODEL
100
AcDbCircle
 10
67.35219349673525
 20
184.0556809023124
 30
0.0
 40
0.886986252841219
100
AcDbArc
 50
215.1785555909952
 51
224.6805312841003
  0
ARC
  5
37A4
330
A
100
AcDbEntity
  8
MODEL
100
AcDbCircle
 10
67.71689334653547
 20
184.1814930601124
 30
0.0
 40
1.262078079355982
100
AcDbArc
 50
199.9123970507916
 51
210.3320939739964
  0
ARC
  5
37A5
330
A
100
AcDbEntity
  8
MODEL
100
AcDbCircle
 10
67.47107056933555
 20
184.4274986563124
 30
0.0
 40
1.262216055351886
100
AcDbArc
 50
239.6686135751764
 51
250.0873445574955
  0
SPLINE
  5
37A6
330
A
100
AcDbEntity
  8
MODEL
100
AcDbSpline
210
0.0
220
0.0
230
1.0
 70
     8
 71
     3
 72
    14
 73
    10
 74
     0
 42
0.000000001
 43
0.0000000001
 40
0.0
 40
0.0
 40
0.0
 40
0.0
 40
0.3634004242047309
 40
0.4893251899878903
 40
0.5929353909746442
 40
0.6861625638234333
 40
0.7800511150330547
 40
0.8828254675410148
 40
1.0
 40
1.0
 40
1.0
 40
1.0
 10
66.72151220620572
 20
183.4319937680602
 30
0.0
 10
66.73617091099868
 20
183.4187697988078
 30
0.0
 10
66.75309988109484
 20
183.4034909628044
 30
0.0
 10
66.7794572460416
 20
183.3829659879639
 30
0.0
 10
66.79422932484385
 20
183.3712536679778
 30
0.0
 10
66.80698086094662
 20
183.3606724473328
 30
0.0
 10
66.81764824536322
 20
183.3513517653362
 30
0.0
 10
66.8268510834273
 20
183.3431364710881
 30
0.0
 10
66.8311018898371
 20
183.3399558735118
 30
0.0
 10
66.8336543282685
 20
183.3380535101533
 30
0.0
  0
ARC
  5
37A7
330
A
100
AcDbEntity
  8
MODEL
100
AcDbCircle
 10
105.6045024387354
 20
198.9712299001124
 30
0.0
 40
0.5000000000000002
100
AcDbArc
 50
291.6113491664905
 51
338.3886507930879
  0
ARC
  5
37A8
330
A
100
AcDbEntity
  8
MODEL
100
AcDbCircle
 10
93.93262223133524
 20
227.3870434543124
 30
0.0
 40
31.21951930192168
100
AcDbArc
 50
247.6809644863
 51
292.3190353590005
  0
ARC
  5
37A9
330
A
100
AcDbEntity
  8
MODEL
100
AcDbCircle
 10
82.26074194713556
 20
198.9712299317123
 30
0.0
 40
0.499999999999999
100
AcDbArc
 50
201.6113492597921
 51
248.3886506997745
  0
ARC
  5
37AA
330
A
100
AcDbEntity
  8
MODEL
100
AcDbCircle
 10
110.6765554057351
 20
210.6431101617123
 30
0.0
 40
31.2195192221876
100
AcDbArc
 50
157.6809645344995
 51
202.3190354655
  0
ARC
  5
37AB
330
A
100
AcDbEntity
  8
MODEL
100
AcDbCircle
 10
82.26074194713556
 20
222.3149903917123
 30
0.0
 40
0.4999999999999992
100
AcDbArc
 50
111.6113493002255
 51
158.3886507402079
  0
ARC
  5
37AC
330
A
100
AcDbEntity
  8
MODEL
100
AcDbCircle
 10
93.93262223133524
 20
193.8991768693124
 30
0.0
 40
31.21951930189404
100
AcDbArc
 50
67.68096464099946
 51
112.3190355137001
  0
ARC
  5
37AD
330
A
100
AcDbEntity
  8
MODEL
100
AcDbCircle
 10
105.6045024387354
 20
222.3149904233124
 30
0.0
 40
0.4999999999999994
100
AcDbArc
 50
21.61134920691213
 51
68.38865083351098
  0
ARC
  5
37AE
330
A
100
AcDbEntity
  8
MODEL
100
AcDbCircle
 10
77.18868882073548
 20
210.6431101617123
 30
0.0
 40
31.21951938162704
100
AcDbArc
 50
337.6809645928001
 51
22.31903540720055
  0
LINE
  5
37AF
330
A
100
AcDbEntity
  8
MODEL
100
AcDbLine
 10
89.17666115413522
 20
151.2484254085123
 30
0.0
 11
89.17673821253538
 21
151.2484254085123
 31
0.0
  0
LINE
  5
37B0
330
A
100
AcDbEntity
  8
MODEL
100
AcDbLine
 10
89.8203461703356
 20
151.2484254083124
 30
0.0
 11
89.8392586373352
 21
151.2484254083124
 31
0.0
  0
LINE
  5
37B1
330
A
100
AcDbEntity
  8
MODEL
100
AcDbLine
 10
98.02598623013546
 20
151.2484254077123
 30
0.0
 11
89.83925805073522
 21
151.2484254083124
 31
0.0
  0
ARC
  5
37B2
330
A
100
AcDbEntity
  8
MODEL
100
AcDbCircle
 10
-929.8259683546646
 20
197.6451290657124
 30
0.0
 40
1019.535443438675
100
AcDbArc
 50
357.4210752941
 51
359.8847961679
  0
ARC
  5
37B3
330
A
100
AcDbEntity
  8
MODEL
100
AcDbCircle
 10
1117.739906691535
 20
197.6457365329123
 30
0.0
 40
1019.584082652281
100
AcDbArc
 50
180.1152324268998
 51
182.5788392334997
  0
ARC
  5
37B4
330
A
100
AcDbEntity
  8
MODEL
100
AcDbCircle
 10
89.17666106173556
 20
151.7484254087124
 30
0.0
 40
0.5000000002055563
100
AcDbArc
 50
177.2630644163059
 51
270.0001939284513
  0
ARC
  5
37B5
330
A
100
AcDbEntity
  8
MODEL
100
AcDbCircle
 10
98.68858361593539
 20
151.7484254077123
 30
0.0
 40
0.499999997842997
100
AcDbArc
 50
269.9999874053274
 51
2.620094518007293
  0
ARC
  5
37B6
330
A
100
AcDbEntity
  8
MODEL
100
AcDbCircle
 10
99.15767744873528
 20
195.5994248713123
 30
0.0
 40
0.9999999999675236
100
AcDbArc
 50
99.90680760689553
 51
180.2438464649973
  0
ARC
  5
37B7
330
A
100
AcDbEntity
  8
MODEL
100
AcDbCircle
 10
88.7075672289352
 20
195.5994248355124
 30
0.0
 40
0.9999999998980657
100
AcDbArc
 50
359.7262838303977
 51
80.09318952068212
  0
LINE
  5
37B8
330
A
100
AcDbEntity
  8
MODEL
100
AcDbLine
 10
98.25150987393545
 20
151.2484249847124
 30
0.0
 11
98.35930610153537
 21
151.2484249847124
 31
0.0
  0
LINE
  5
37B9
330
A
100
AcDbEntity
  8
MODEL
100
AcDbLine
 10
98.35930610153537
 20
151.2484249847124
 30
0.0
 11
98.99845361693542
 21
151.2484249845124
 31
0.0
  0
LINE
  5
37BA
330
A
100
AcDbEntity
  8
MODEL
100
AcDbLine
 10
89.65594652613527
 20
151.2484249853124
 30
0.0
 11
89.0167990631353
 21
151.2484249855124
 31
0.0
  0
LINE
  5
37BB
330
A
100
AcDbEntity
  8
MODEL
100
AcDbLine
 10
89.65593674533511
 20
151.2484249855124
 30
0.0
 11
89.76374761613533
 21
151.2484249855124
 31
0.0
  0
LINE
  5
37BC
330
A
100
AcDbEntity
  8
MODEL
100
AcDbLine
 10
89.76374761613533
 20
151.2484249855124
 30
0.0
 11
89.94155246533546
 21
151.2484249855124
 31
0.0
  0
LINE
  5
37BD
330
A
100
AcDbEntity
  8
MODEL
100
AcDbLine
 10
89.94155246533546
 20
151.2484249855124
 30
0.0
 11
98.07367269033557
 21
151.2484249847124
 31
0.0
  0
LINE
  5
37BE
330
A
100
AcDbEntity
  8
MODEL
100
AcDbLine
 10
98.07367269033557
 20
151.2484249847124
 30
0.0
 11
98.25150987393545
 21
151.2484249847124
 31
0.0
  0
ARC
  5
37BF
330
A
100
AcDbEntity
  8
MODEL
100
AcDbCircle
 10
94.00762633453542
 20
161.3646181243124
 30
0.0
 40
15.78247027329531
100
AcDbArc
 50
250.3800517692991
 51
289.6199482127993
  0
ARC
  5
37C0
330
A
100
AcDbEntity
  8
MODEL
100
AcDbCircle
 10
88.82622951793519
 20
146.7693002223123
 30
0.0
 40
0.2999381970426716
100
AcDbArc
 50
177.3048319623987
 51
246.5024906808422
  0
ARC
  5
37C1
330
A
100
AcDbEntity
  8
MODEL
100
AcDbCircle
 10
99.18902316153526
 20
146.7693002213123
 30
0.0
 40
0.2999381970426082
100
AcDbArc
 50
293.4975093084607
 51
2.695168026818338
  0
LINE
  5
37C2
330
A
100
AcDbEntity
  8
MODEL
100
AcDbLine
 10
88.71672185193529
 20
150.9612152241123
 30
0.0
 11
88.52534035973531
 21
146.7575939005124
 31
0.0
  0
LINE
  5
37C3
330
A
100
AcDbEntity
  8
MODEL
100
AcDbLine
 10
99.48991231893524
 20
146.7575939169124
 30
0.0
 11
99.29853082753516
 21
150.9612152431123
 31
0.0
  0
ARC
  5
37C4
330
A
100
AcDbEntity
  8
MODEL
100
AcDbCircle
 10
89.01633371573507
 20
150.9484943403124
 30
0.0
 40
0.2999306682754248
100
AcDbArc
 50
89.97751752329049
 51
177.4895319469006
  0
ARC
  5
37C5
330
A
100
AcDbEntity
  8
MODEL
100
AcDbCircle
 10
98.99891896453528
 20
150.9484943393124
 30
0.0
 40
0.299930668270653
100
AcDbArc
 50
2.510468041987556
 51
90.02248246550361
  0
SPLINE
  5
37C6
330
A
100
AcDbEntity
  8
MODEL
100
AcDbSpline
210
0.0
220
0.0
230
1.0
 70
    12
 71
     3
 72
     8
 73
     4
 74
     0
 42
0.000000001
 43
0.0000000001
 40
0.0
 40
0.0
 40
0.0
 40
0.0
 40
1.0
 40
1.0
 40
1.0
 40
1.0
 10
80.64849818330777
 20
197.6276035652219
 30
0.0
 41
1.0
 10
77.04948247626453
 20
206.2427946308193
 30
0.0
 41
1.0
 10
77.04948246437925
 20
215.0434253243846
 30
0.0
 41
1.0
 10
80.64849814900163
 20
223.6586163911072
 30
0.0
 41
1.0
  0
ARC
  5
37C7
330
A
100
AcDbEntity
  8
MODEL
100
AcDbCircle
 10
93.93263062473534
 20
227.5108245967124
 30
0.0
 40
32.84109148050182
100
AcDbArc
 50
246.6518179808998
 51
262.5966950124996
  0
ARC
  5
37C8
330
A
100
AcDbEntity
  8
MODEL
100
AcDbCircle
 10
81.10985862773532
 20
197.8203379427123
 30
0.0
 40
0.5000000000000006
100
AcDbArc
 50
202.6728442165866
 51
247.3271559129905
  0
SPLINE
  5
37C9
330
A
100
AcDbEntity
  8
MODEL
100
AcDbSpline
210
0.0
220
0.0
230
1.0
 70
    12
 71
     3
 72
     8
 73
     4
 74
     0
 42
0.000000001
 43
0.0000000001
 40
0.0
 40
0.0
 40
0.0
 40
0.0
 40
1.0
 40
1.0
 40
1.0
 40
1.0
 10
106.9481370773337
 20
197.3589775320066
 30
0.0
 41
1.0
 10
104.0359104782847
 20
196.142388231475
 30
0.0
 41
1.0
 10
101.1024942650834
 20
195.337047350444
 30
0.0
 41
1.0
 10
98.16221405333226
 20
194.9429548889653
 30
0.0
 41
1.0
  0
SPLINE
  5
37CA
330
A
100
AcDbEntity
  8
MODEL
100
AcDbSpline
210
0.0
220
0.0
230
1.0
 70
    12
 71
     3
 72
     8
 73
     4
 74
     0
 42
0.000000001
 43
0.0000000001
 40
0.0
 40
0.0
 40
0.0
 40
0.0
 40
0.9999999999999999
 40
0.9999999999999999
 40
0.9999999999999999
 40
0.9999999999999999
 10
89.7028429648467
 20
194.9429822627315
 30
0.0
 41
1.0
 10
86.76263117473081
 20
195.3370846388353
 30
0.0
 41
1.0
 10
83.8292833968685
 20
196.1424163838065
 30
0.0
 41
1.0
 10
80.91712425144033
 20
197.3589774976971
 30
0.0
 41
1.0
  0
ARC
  5
37CB
330
A
100
AcDbEntity
  8
MODEL
100
AcDbCircle
 10
106.7554026999355
 20
197.8203379765123
 30
0.0
 40
0.500000000006909
100
AcDbArc
 50
292.672844218772
 51
337.3271559145074
  0
SPLINE
  5
37CC
330
A
100
AcDbEntity
  8
MODEL
100
AcDbSpline
210
0.0
220
0.0
230
1.0
 70
    12
 71
     3
 72
     8
 73
     4
 74
     0
 42
0.000000001
 43
0.0000000001
 40
0.0
 40
0.0
 40
0.0
 40
0.0
 40
1.0
 40
1.0
 40
1.0
 40
1.0
 10
80.91712421652664
 20
223.9272424592396
 30
0.0
 41
1.0
 10
89.53231528213428
 20
227.526258166283
 30
0.0
 41
1.0
 10
98.33294597569466
 20
227.5262581781661
 30
0.0
 41
1.0
 10
106.9481370424051
 20
223.9272424935485
 30
0.0
 41
1.0
  0
SPLINE
  5
37CD
330
A
100
AcDbEntity
  8
MODEL
100
AcDbSpline
210
0.0
220
0.0
230
1.0
 70
    12
 71
     3
 72
     8
 73
     4
 74
     0
 42
0.000000001
 43
0.0000000001
 40
0.0
 40
0.0
 40
0.0
 40
0.0
 40
1.0
 40
1.0
 40
1.0
 40
1.0
 10
107.2167631105403
 20
223.6586164260305
 30
0.0
 41
1.0
 10
110.8157788175877
 20
215.0434253604196
 30
0.0
 41
1.0
 10
110.815778829472
 20
206.2427946668564
 30
0.0
 41
1.0
 10
107.2167631448528
 20
197.6276036001414
 30
0.0
 41
1.0
  0
ARC
  5
37CE
330
A
100
AcDbEntity
  8
MODEL
100
AcDbCircle
 10
81.10985859393531
 20
223.4658820147123
 30
0.0
 40
0.5000000000000092
100
AcDbArc
 50
112.6728442165618
 51
157.327155913005
  0
ARC
  5
37CF
330
A
100
AcDbEntity
  8
MODEL
100
AcDbCircle
 10
106.7554026661351
 20
223.4658820485124
 30
0.0
 40
0.500000000008468
100
AcDbArc
 50
22.67284421917392
 51
67.32715591475088
  0
LINE
  5
37D0
330
A
100
AcDbEntity
  8
MODEL
100
AcDbLine
 10
76.93547684438863
 20
388.1254418949449
 30
0.0
 11
76.93547684438863
 21
388.1252402817447
 31
0.0
  0
LINE
  5
37D1
330
A
100
AcDbEntity
  8
MODEL
100
AcDbLine
 10
110.9354768443886
 20
388.1252402817447
 30
0.0
 11
110.9354768443886
 21
388.1254418949449
 31
0.0
  0
SPLINE
  5
37D2
330
A
100
AcDbEntity
  8
MODEL
100
AcDbSpline
210
0.0
220
0.0
230
1.0
 70
     8
 71
     3
 72
    17
 73
    13
 74
     0
 42
0.000000001
 43
0.0000000001
 40
0.0
 40
0.0
 40
0.0
 40
0.0
 40
0.0875646768484722
 40
0.1751300169706832
 40
0.2626966083396661
 40
0.350265124816466
 40
0.4378363691828466
 40
0.5254113161581133
 40
0.6129911553913232
 40
0.7005773344171973
 40
0.8477067272704413
 40
1.0
 40
1.0
 40
1.0
 40
1.0
 10
128.6353243799704
 20
395.1255473573685
 30
0.0
 10
128.6316562009906
 20
395.1256447179379
 30
0.0
 10
128.624319815247
 20
395.1256282758361
 30
0.0
 10
128.5647159640075
 20
395.1256061826927
 30
0.0
 10
128.4695350026623
 20
395.1255867350908
 30
0.0
 10
128.3352876169488
 20
395.1255706732779
 30
0.0
 10
128.1629086861458
 20
395.1255585558426
 30
0.0
 10
127.9521480969133
 20
395.125550985884
 30
0.0
 10
127.7030714376392
 20
395.1255485526387
 30
0.0
 10
127.3505475709053
 20
395.1255525833024
 30
0.0
 10
126.8516302741368
 20
395.1255699026694
 30
0.0
 10
126.391049943958
 20
395.1255974657035
 30
0.0
 10
126.137553122584
 20
395.1256156460352
 30
0.0
  0
LINE
  5
37D3
330
A
100
AcDbEntity
  8
MODEL
100
AcDbLine
 10
123.7714097369885
 20
395.1258506283446
 30
0.0
 11
123.6751703657883
 21
395.1258570751446
 31
0.0
  0
LINE
  5
37D4
330
A
100
AcDbEntity
  8
MODEL
100
AcDbLine
 10
123.6751703657883
 20
395.1258570751446
 30
0.0
 11
123.5206745971882
 21
395.1258610069447
 31
0.0
  0
SPLINE
  5
37D5
330
A
100
AcDbEntity
  8
MODEL
100
AcDbSpline
210
0.0
220
0.0
230
1.0
 70
     8
 71
     3
 72
    73
 73
    69
 74
     0
 42
0.000000001
 43
0.0000000001
 40
0.0
 40
0.0
 40
0.0
 40
0.0
 40
0.0627295480867383
 40
0.125459571347208
 40
0.1881904909927414
 40
0.2509227897637387
 40
0.3136570427570837
 40
0.3763939482421854
 40
0.4391343584593846
 40
0.5018793103923598
 40
0.607278943774257
 40
0.7520601243225343
 40
0.8234742954570418
 40
0.8763905442638145
 40
0.9382945938928915
 40
0.9691733554954906
 40
0.9845933443042769
 40
0.9922983576783972
 40
0.9961496025749716
 40
0.9980749075151182
 40
0.9990374803509755
 40
0.9992781152525629
 40
0.9993382734584048
 40
0.9993683524833791
 40
0.999383391976377
 40
0.9993984314563826
 40
0.999413470923399
 40
0.9994285103774194
 40
0.9994435498184473
 40
0.999458589246483
 40
0.9994736286615266
 40
0.999488668063574
 40
0.9995037074526262
 40
0.9995187468286864
 40
0.999533786191751
 40
0.9995488255418233
 40
0.9995638648788973
 40
0.9995789042029789
 40
0.9995939435140627
 40
0.9996089828121504
 40
0.9996240220972401
 40
0.9996390613693384
 40
0.9996541006284347
 40
0.999669139874536
 40
0.9996841791076425
 40
0.9996992183277478
 40
0.9997142575348578
 40
0.99972929672897
 40
0.9997443359100812
 40
0.9997593750781976
 40
0.9997744142333125
 40
0.9997894533754266
 40
0.999804492504546
 40
0.9998195316206607
 40
0.9998345707237781
 40
0.9998496098138948
 40
0.9998646488910135
 40
0.999879687955128
 40
0.9998947270062423
 40
0.9999097660443554
 40
0.9999248050694681
 40
0.9999398440815802
 40
0.9999548830806881
 40
0.9999699220667926
 40
0.9999849610398966
 40
0.9999924805215705
 40
0.9999962402611917
 40
1.0
 40
1.0
 40
1.0
 40
1.0
 10
93.93262218917494
 20
395.1255473568028
 30
0.0
 10
93.30294460717641
 20
395.1256447168759
 30
0.0
 10
92.04358467339762
 20
395.1256282748666
 30
0.0
 10
90.15530963874153
 20
395.1256061818806
 30
0.0
 10
88.26856230221847
 20
395.1255867344414
 30
0.0
 10
86.38410830512976
 20
395.1255706727945
 30
0.0
 10
84.50271312970858
 20
395.125558555523
 30
0.0
 10
82.62514335732067
 20
395.1255509857208
 30
0.0
 10
80.75216137993584
 20
395.125548552621
 30
0.0
 10
78.4613972320185
 20
395.125552583427
 30
0.0
 10
75.37059454297992
 20
395.1255721318323
 30
0.0
 10
72.21990725634669
 20
395.1256169886121
 30
0.0
 10
69.60730832386298
 20
395.1256756591249
 30
0.0
 10
67.8095930705133
 20
395.1257253135975
 30
0.0
 10
66.41108937350032
 20
395.1257710487427
 30
0.0
 10
65.37764567709951
 20
395.1258093896133
 30
0.0
 10
64.86317759310032
 20
395.1258296452868
 30
0.0
 10
64.60652318584994
 20
395.1258400465993
 30
0.0
 10
64.4783428082369
 20
395.1258453158873
 30
0.0
 10
64.41428957124344
 20
395.1258479677205
 30
0.0
 10
64.3845589690593
 20
395.1258492029322
 30
0.0
 10
64.37255389216784
 20
395.1258497024371
 30
0.0
 10
64.36940984922467
 20
395.125849833302
 30
0.0
 10
64.3684094844607
 20
395.1258498749446
 30
0.0
 10
64.36783785015677
 20
395.125849898742
 30
0.0
 10
64.36740912571713
 20
395.1258499165903
 30
0.0
 10
64.36698040239162
 20
395.1258499344393
 30
0.0
 10
64.36655168017705
 20
395.1258499522889
 30
0.0
 10
64.3661229590748
 20
395.1258499701391
 30
0.0
 10
64.36569423908418
 20
395.1258499879899
 30
0.0
 10
64.36526552020541
 20
395.1258500058414
 30
0.0
 10
64.3648368024385
 20
395.1258500236938
 30
0.0
 10
64.36440808578345
 20
395.1258500415464
 30
0.0
 10
64.36397937024026
 20
395.1258500593996
 30
0.0
 10
64.36355065580938
 20
395.1258500772535
 30
0.0
 10
64.36312194249012
 20
395.1258500951082
 30
0.0
 10
64.36269323028273
 20
395.125850112963
 30
0.0
 10
64.36226451918742
 20
395.1258501308186
 30
0.0
 10
64.36183580920397
 20
395.1258501486752
 30
0.0
 10
64.36140710033283
 20
395.1258501665322
 30
0.0
 10
64.36097839257377
 20
395.1258501843897
 30
0.0
 10
64.36054968592657
 20
395.1258502022476
 30
0.0
 10
64.36012098039123
 20
395.1258502201065
 30
0.0
 10
64.35969227596843
 20
395.1258502379662
 30
0.0
 10
64.35926357265726
 20
395.1258502558259
 30
0.0
 10
64.3588348704584
 20
395.1258502736866
 30
0.0
 10
64.35840616937162
 20
395.1258502915477
 30
0.0
 10
64.35797746939738
 20
395.1258503094097
 30
0.0
 10
64.35754877053478
 20
395.1258503272722
 30
0.0
 10
64.35712007278448
 20
395.1258503451351
 30
0.0
 10
64.35669137614673
 20
395.125850362999
 30
0.0
 10
64.35626268062083
 20
395.1258503808629
 30
0.0
 10
64.35583398620724
 20
395.1258503987276
 30
0.0
 10
64.3554052929062
 20
395.1258504165932
 30
0.0
 10
64.35497660071724
 20
395.1258504344593
 30
0.0
 10
64.35454790964059
 20
395.1258504523259
 30
0.0
 10
64.35411921967602
 20
395.1258504701934
 30
0.0
 10
64.35369053082377
 20
395.1258504880614
 30
0.0
 10
64.35326184308428
 20
395.1258505059297
 30
0.0
 10
64.35283315645688
 20
395.1258505237986
 30
0.0
 10
64.35240447094202
 20
395.1258505416683
 30
0.0
 10
64.35197578653947
 20
395.1258505595391
 30
0.0
 10
64.35154710324923
 20
395.1258505774096
 30
0.0
 10
64.35111842107199
 20
395.1258505952812
 30
0.0
 10
64.35076118677262
 20
395.1258506101746
 30
0.0
 10
64.35051112322549
 20
395.1258506206007
 30
0.0
 10
64.35036822993561
 20
395.1258506265578
 30
0.0
 10
64.35029678334513
 20
395.125850629537
 30
0.0
 10
64.35026106005375
 20
395.1258506283318
 30
0.0
  0
LINE
  5
37D6
330
A
100
AcDbEntity
  8
MODEL
100
AcDbLine
 10
64.3502610599885
 20
395.1258506283446
 30
0.0
 11
64.19579206198841
 21
395.1258570751446
 31
0.0
  0
LINE
  5
37D7
330
A
100
AcDbEntity
  8
MODEL
100
AcDbLine
 10
64.19579206198841
 20
395.1258570751446
 30
0.0
 11
64.09954178478847
 21
395.1258610069447
 31
0.0
  0
ARC
  5
37D8
330
A
100
AcDbEntity
  8
MODEL
100
AcDbCircle
 10
64.1478660999885
 20
393.5044216409444
 30
0.0
 40
5.37877775461621
100
AcDbArc
 50
269.4850467591004
 51
270.510272153901
  0
ARC
  5
37D9
330
A
100
AcDbEntity
  8
MODEL
100
AcDbCircle
 10
64.2736065461886
 20
402.5245940513448
 30
0.0
 40
14.39894724662949
100
AcDbArc
 50
269.6902680252994
 51
270.3049494120996
  0
SPLINE
  5
37DA
330
A
100
AcDbEntity
  8
MODEL
100
AcDbSpline
210
0.0
220
0.0
230
1.0
 70
     8
 71
     2
 72
    12
 73
     9
 74
     0
 42
0.000000001
 43
0.0000000001
 40
0.0
 40
0.0
 40
0.0
 40
0.25
 40
0.25
 40
0.5
 40
0.5
 40
0.75
 40
0.75
 40
1.0
 40
1.0
 40
1.0
 10
93.9354665050414
 20
388.1255474946464
 30
0.0
 10
90.15298322731087
 20
388.1254418949636
 30
0.0
 10
86.38679430005232
 20
388.1254418949619
 30
0.0
 10
82.61303795171511
 20
388.1254418949599
 30
0.0
 10
78.88705284874277
 20
388.1254418949582
 30
0.0
 10
75.16243890962551
 20
388.1254418949563
 30
0.0
 10
71.51041826140954
 20
388.1254418949545
 30
0.0
 10
67.87694990183286
 20
388.1254418949528
 30
0.0
 10
64.35024272776445
 20
388.1258507483105
 30
0.0
  0
ARC
  5
37DB
330
A
100
AcDbEntity
  8
MODEL
100
AcDbCircle
 10
123.5983000621886
 20
402.3713733923448
 30
0.0
 40
14.24572362426714
100
AcDbArc
 50
269.6878910169988
 51
270.3091925112995
  0
ARC
  5
37DC
330
A
100
AcDbEntity
  8
MODEL
100
AcDbCircle
 10
123.7236606635884
 20
393.5968276035449
 30
0.0
 40
5.47118524620157
100
AcDbArc
 50
269.492245294303
 51
270.5000779662994
  0
SPLINE
  5
37DD
330
A
100
AcDbEntity
  8
MODEL
100
AcDbSpline
210
0.0
220
0.0
230
1.0
 70
     8
 71
     2
 72
    10
 73
     7
 74
     0
 42
0.000000001
 43
0.0000000001
 40
0.0
 40
0.0
 40
0.0
 40
0.3
 40
0.3
 40
0.65
 40
0.65
 40
1.0
 40
1.0
 40
1.0
 10
128.2349008999327
 20
388.1254418949872
 30
0.0
 10
127.9343370793849
 20
388.1254418949864
 30
0.0
 10
127.4095099381875
 20
388.125441894986
 30
0.0
 10
126.7974369320937
 20
388.125441894985
 30
0.0
 10
125.8828318432834
 20
388.125441894984
 30
0.0
 10
124.9728729518361
 20
388.1254418949827
 30
0.0
 10
123.7714126005521
 20
388.1258507482996
 30
0.0
  0
LINE
  5
37DE
330
A
100
AcDbEntity
  8
MODEL
100
AcDbLine
 10
64.06604759618858
 20
388.6331102665447
 30
0.0
 11
64.06604759618858
 21
394.6185890455448
 31
0.0
  0
LINE
  5
37DF
330
A
100
AcDbEntity
  8
MODEL
100
AcDbLine
 10
123.8049069795884
 20
394.6185633759444
 30
0.0
 11
123.8049069795884
 21
388.6331088075447
 31
0.0
  0
ARC
  5
37E0
330
A
100
AcDbEntity
  8
MODEL
100
AcDbCircle
 10
123.7703219485884
 20
394.8499874549445
 30
0.0
 40
0.2758653181136464
100
AcDbArc
 50
77.77449886890474
 51
89.774071449714
  0
SPLINE
  5
37E1
330
A
100
AcDbEntity
  8
MODEL
100
AcDbSpline
210
0.0
220
0.0
230
1.0
 70
     8
 71
     3
 72
    35
 73
    31
 74
     0
 42
0.000000001
 43
0.0000000001
 40
0.0
 40
0.0
 40
0.0
 40
0.0
 40
0.0004812523876656
 40
0.0009625180876762
 40
0.0019250893866408
 40
0.0038503913231311
 40
0.0077016304910859
 40
0.0154066335081964
 40
0.0308266058879334
 40
0.0617053508503699
 40
0.1236094247940793
 40
0.1768208037137435
 40
0.2479400799000072
 40
0.4212938332112824
 40
0.4981150223565087
 40
0.531580073057341
 40
0.5650436532834009
 40
0.5985059460812792
 40
0.6319671171616966
 40
0.665427316228264
 40
0.6988866783072192
 40
0.7323453250779787
 40
0.7658033662043666
 40
0.7992609006664002
 40
0.8327180180925273
 40
0.866174800092227
 40
0.8996313215888982
 40
0.9330876521529726
 40
0.9665438573351904
 40
1.0
 40
1.0
 40
1.0
 40
1.0
 10
123.5206745972637
 20
395.1258610070137
 30
0.0
 10
123.5161010438396
 20
395.1258610668326
 30
0.0
 10
123.506953810479
 20
395.1258611881925
 30
0.0
 10
123.4886575608989
 20
395.1258614301566
 30
0.0
 10
123.4566343822416
 20
395.125861852114
 30
0.0
 10
123.392569391508
 20
395.1258626897528
 30
0.0
 10
123.2643655282282
 20
395.1258643402168
 30
0.0
 10
123.0076639440849
 20
395.1258675420584
 30
0.0
 10
122.4931009344782
 20
395.1258735522781
 30
0.0
 10
121.4594647618615
 20
395.1258840212315
 30
0.0
 10
120.0578668525372
 20
395.1258940527339
 30
0.0
 10
118.2597772084164
 20
395.1259008757872
 30
0.0
 10
115.3692417056209
 20
395.1259022247629
 30
0.0
 10
112.2168243074966
 20
395.1258856083026
 30
0.0
 10
109.4127072686351
 20
395.1258594393332
 30
0.0
 10
107.9873092524876
 20
395.1258443070921
 30
0.0
 10
106.9901873234576
 20
395.1258329096842
 30
0.0
 10
105.9915565874708
 20
395.1258208079814
 30
0.0
 10
104.9915345541058
 20
395.1258080832183
 30
0.0
 10
103.9902368257153
 20
395.1257948281344
 30
0.0
 10
102.9877795151883
 20
395.1257811322405
 30
0.0
 10
101.9842785982009
 20
395.1257670857765
 30
0.0
 10
100.9798500867973
 20
395.1257527786244
 30
0.0
 10
99.97460998300357
 20
395.1257383006889
 30
0.0
 10
98.96867429101803
 20
395.1257237414754
 30
0.0
 10
97.96215901504183
 20
395.1257091913919
 30
0.0
 10
96.95518015598532
 20
395.1256947369645
 30
0.0
 10
95.94785372701699
 20
395.1256804786788
 30
0.0
 10
94.94029569487316
 20
395.1256664644013
 30
0.0
 10
94.26851314852138
 20
395.1256574466972
 30
0.0
 10
93.93262218917494
 20
395.1255473568028
 30
0.0
  0
SPLINE
  5
37E2
330
A
100
AcDbEntity
  8
MODEL
100
AcDbSpline
210
0.0
220
0.0
230
1.0
 70
     8
 71
     3
 72
    16
 73
    12
 74
     0
 42
0.000000001
 43
0.0000000001
 40
0.0
 40
0.0
 40
0.0
 40
0.0
 40
0.3438885839728992
 40
0.512356732164006
 40
0.5857433355857223
 40
0.6591267143075226
 40
0.7325072697466795
 40
0.8058853653041627
 40
0.8792613292784991
 40
0.952635457781775
 40
1.0
 40
1.0
 40
1.0
 40
1.0
 10
61.86822773678114
 20
395.1258998239589
 30
0.0
 10
61.49410123176426
 20
395.1258967922747
 30
0.0
 10
60.99587625280151
 20
395.1258840832517
 30
0.0
 10
60.52754490054713
 20
395.1258594401972
 30
0.0
 10
60.30134380212758
 20
395.1258443078975
 30
0.0
 10
60.15424782819287
 20
395.1258329105619
 30
0.0
 10
60.0180552416
 20
395.1258208089114
 30
0.0
 10
59.89276006669547
 20
395.1258080841833
 30
0.0
 10
59.77836383346903
 20
395.125794829122
 30
0.0
 10
59.68709454655846
 20
395.1257827514439
 30
0.0
 10
59.63524292008037
 20
395.1257750808184
 30
0.0
 10
59.61565885281243
 20
395.1257720513729
 30
0.0
  0
SPLINE
  5
37E3
330
A
100
AcDbEntity
  8
MODEL
100
AcDbSpline
210
0.0
220
0.0
230
1.0
 70
     8
 71
     2
 72
     8
 73
     5
 74
     0
 42
0.000000001
 43
0.0000000001
 40
0.0
 40
0.0
 40
0.0
 40
0.5
 40
0.5
 40
1.0
 40
1.0
 40
1.0
 10
123.5206992971348
 20
388.1258611270017
 30
0.0
 10
116.4399131048494
 20
388.1254418949773
 30
0.0
 10
108.9838935593389
 20
388.1254418949731
 30
0.0
 10
101.5255472959784
 20
388.1254418949695
 30
0.0
 10
93.9354665050414
 20
388.1255474946464
 30
0.0
  0
SPLINE
  5
37E4
330
A
100
AcDbEntity
  8
MODEL
100
AcDbSpline
210
0.0
220
0.0
230
1.0
 70
     8
 71
     2
 72
     8
 73
     5
 74
     0
 42
0.000000001
 43
0.0000000001
 40
0.0
 40
0.0
 40
0.0
 40
0.5
 40
0.5
 40
1.0
 40
1.0
 40
1.0
 10
64.09952428902761
 20
388.1258611269997
 30
0.0
 10
61.68717320923429
 20
388.1254418949508
 30
0.0
 10
60.4613434105579
 20
388.1254418949513
 30
0.0
 10
59.23513160423977
 20
388.1254418949522
 30
0.0
 10
59.23562343249409
 20
388.1255474946522
 30
0.0
  0
LINE
  5
37E5
330
A
100
AcDbEntity
  8
MODEL
100
AcDbLine
 10
128.9354033317886
 20
388.4258559399447
 30
0.0
 11
128.9354033317886
 21
394.8258558029449
 31
0.0
  0
LINE
  5
37E6
330
A
100
AcDbEntity
  8
MODEL
100
AcDbLine
 10
58.93555030818857
 20
394.8258558027449
 30
0.0
 11
58.93555030818857
 21
388.4258559401445
 31
0.0
  0
SPLINE
  5
37E7
330
A
100
AcDbEntity
  8
MODEL
100
AcDbSpline
210
0.0
220
0.0
230
1.0
 70
     8
 71
     3
 72
    17
 73
    13
 74
     0
 42
0.000000001
 43
0.0000000001
 40
0.0
 40
0.0
 40
0.0
 40
0.0
 40
0.0176118580772522
 40
0.033645879964795
 40
0.0497119707235064
 40
0.0671315726588174
 40
0.1094206968698389
 40
0.2231245390175604
 40
0.3388148623603138
 40
0.4525215090504993
 40
0.7132469778041796
 40
1.0
 40
1.0
 40
1.0
 40
1.0
 10
128.9356800760056
 20
394.8256529651773
 30
0.0
 10
128.9337462552226
 20
394.8537871105621
 30
0.0
 10
128.9300575739576
 20
394.8998682015337
 30
0.0
 10
128.9036572591326
 20
394.9650622018447
 30
0.0
 10
128.8721767701827
 20
395.0124895981101
 30
0.0
 10
128.8263175630045
 20
395.0606110615751
 30
0.0
 10
128.758536663373
 20
395.1021042807785
 30
0.0
 10
128.747437817206
 20
395.1021690963568
 30
0.0
 10
128.7072181038366
 20
395.1155913428281
 30
0.0
 10
128.6721191898814
 20
395.1200041182367
 30
0.0
 10
128.6531004116268
 20
395.119353370221
 30
0.0
 10
128.6172897330225
 20
395.1197305004424
 30
0.0
 10
128.5965720577487
 20
395.1196083861425
 30
0.0
  0
LINE
  5
37E8
330
A
100
AcDbEntity
  8
MODEL
100
AcDbLine
 10
126.1998032395886
 20
395.1195189155445
 30
0.0
 11
123.8286551223882
 21
395.1197533159445
 31
0.0
  0
SPLINE
  5
37E9
330
A
100
AcDbEntity
  8
MODEL
100
AcDbSpline
210
0.0
220
0.0
230
1.0
 70
     8
 71
     3
 72
    23
 73
    19
 74
     0
 42
0.000000001
 43
0.0000000001
 40
0.0
 40
0.0
 40
0.0
 40
0.0
 40
0.0509463064091469
 40
0.1420041980538693
 40
0.2330606612049198
 40
0.3241158548682772
 40
0.5064712410167542
 40
0.6943357720452399
 40
0.7911550423458611
 40
0.8897395861158646
 40
0.9317196216842892
 40
0.9625322733880373
 40
0.9741501996939808
 40
0.9836831492553292
 40
0.9878957498080809
 40
0.9919037311572252
 40
0.9958760060867897
 40
1.0
 40
1.0
 40
1.0
 40
1.0
 10
128.2991417451381
 20
388.1316003400736
 30
0.0
 10
128.31445634073
 20
388.1316278161905
 30
0.0
 10
128.3505513507112
 20
388.1316939449218
 30
0.0
 10
128.4074297013931
 20
388.1316641866644
 30
0.0
 10
128.4663678450406
 20
388.1316689556299
 30
0.0
 10
128.5368846556312
 20
388.1317480167866
 30
0.0
 10
128.6046300740559
 20
388.1312075581357
 30
0.0
 10
128.6720742118068
 20
388.1343602111695
 30
0.0
 10
128.7320081577418
 20
388.146465618004
 30
0.0
 10
128.7561063847752
 20
388.1521564789084
 30
0.0
 10
128.7953252640009
 20
388.1715001115396
 30
0.0
 10
128.8397957252628
 20
388.2025957019852
 30
0.0
 10
128.8807948512008
 20
388.2507141409189
 30
0.0
 10
128.9040928329359
 20
388.2890713635827
 30
0.0
 10
128.9194070392355
 20
388.3264583576031
 30
0.0
 10
128.9282393715148
 20
388.3564555382865
 30
0.0
 10
128.9344537288607
 20
388.3905782537788
 30
0.0
 10
128.9352758983205
 20
388.4124913762964
 30
0.0
 10
128.935680363571
 20
388.4256531019011
 30
0.0
  0
SPLINE
  5
37EA
330
A
100
AcDbEntity
  8
MODEL
100
AcDbSpline
210
0.0
220
0.0
230
1.0
 70
     8
 71
     3
 72
    19
 73
    15
 74
     0
 42
0.000000001
 43
0.0000000001
 40
0.0
 40
0.0
 40
0.0
 40
0.0
 40
0.1876800553854006
 40
0.4008025563276248
 40
0.6215286622856631
 40
0.8528725707745296
 40
0.9097455255348382
 40
0.9522059488736129
 40
0.9678321023912868
 40
0.9802204601958434
 40
0.9854848444775987
 40
0.9903576232009803
 40
0.9950953992480909
 40
1.0
 40
1.0
 40
1.0
 40
1.0
 10
59.56181122543671
 20
395.1196736156546
 30
0.0
 10
59.50828742248927
 20
395.1196650164968
 30
0.0
 10
59.41280421758756
 20
395.1196503063176
 30
0.0
 10
59.30271971687853
 20
395.1196173615897
 30
0.0
 10
59.21492225304064
 20
395.1196029917658
 30
0.0
 10
59.13387231595948
 20
395.105051343987
 30
0.0
 10
59.09636972524709
 20
395.0904983990206
 30
0.0
 10
59.05318088332979
 20
395.0670816295462
 30
0.0
 10
59.00567201313174
 20
395.0205982702807
 30
0.0
 10
58.97694559340562
 20
394.9809969420364
 30
0.0
 10
58.95703573397327
 20
394.9396752970362
 30
0.0
 10
58.94538808882498
 20
394.9060018654565
 30
0.0
 10
58.93695552276495
 20
394.8666569269328
 30
0.0
 10
58.93583389610944
 20
394.840997215628
 30
0.0
 10
58.93527356384357
 20
394.82565296507
 30
0.0
  0
LINE
  5
37EB
330
A
100
AcDbEntity
  8
MODEL
100
AcDbLine
 10
64.0423093197885
 20
395.1197681165447
 30
0.0
 11
61.82324773758842
 21
395.119804145945
 31
0.0
  0
ARC
  5
37EC
330
A
100
AcDbEntity
  8
MODEL
100
AcDbCircle
 10
62.69026184958852
 20
808.1386074049447
 30
0.0
 40
413.0210670608014
100
AcDbArc
 50
269.7499594083
 51
269.7701373843
  0
SPLINE
  5
37ED
330
A
100
AcDbEntity
  8
MODEL
100
AcDbSpline
210
0.0
220
0.0
230
1.0
 70
     8
 71
     3
 72
    24
 73
    20
 74
     0
 42
0.000000001
 43
0.0000000001
 40
0.0
 40
0.0
 40
0.0
 40
0.0
 40
0.0031297227030575
 40
0.0061443049776798
 40
0.0091859850569592
 40
0.0123829518408166
 40
0.0196175621717316
 40
0.0284344735096149
 40
0.0583340254005084
 40
0.1008312988729463
 40
0.1729239018985002
 40
0.2982467677459382
 40
0.5129039278130867
 40
0.591877999108706
 40
0.6708533507379542
 40
0.7498301658601074
 40
0.8364515354598803
 40
0.9429239498463906
 40
1.0
 40
1.0
 40
1.0
 40
1.0
 10
58.9352732762768
 20
388.4256531019448
 30
0.0
 10
58.93567774152007
 20
388.412491376376
 30
0.0
 10
58.93649991320581
 20
388.3905782308318
 30
0.0
 10
58.94271426076648
 20
388.3564556164058
 30
0.0
 10
58.95154662956406
 20
388.3264580581392
 30
0.0
 10
58.96686063160337
 20
388.2890731774066
 30
0.0
 10
58.99016056413802
 20
388.2506957791986
 30
0.0
 10
59.03791560145692
 20
388.1948142697786
 30
0.0
 10
59.0889100824902
 20
388.1644417268464
 30
0.0
 10
59.11525708288309
 20
388.1530472390498
 30
0.0
 10
59.15948471973024
 20
388.1406559019773
 30
0.0
 10
59.24195057550992
 20
388.1305297073602
 30
0.0
 10
59.31673721632615
 20
388.1318156249729
 30
0.0
 10
59.41219374323168
 20
388.1316628850134
 30
0.0
 10
59.48159940984169
 20
388.1316501575822
 30
0.0
 10
59.5617431640012
 20
388.1317529985774
 30
0.0
 10
59.66453321864969
 20
388.1312330529601
 30
0.0
 10
59.77796853370819
 20
388.1293976570416
 30
0.0
 10
59.85865811568237
 20
388.1284886140195
 30
0.0
 10
59.89202897125801
 20
388.1280964873401
 30
0.0
  0
ARC
  5
37EE
330
A
100
AcDbEntity
  8
MODEL
100
AcDbCircle
 10
267.8707114207887
 20
318.9176313497449
 30
0.0
 40
162.1130177016732
100
AcDbArc
 50
154.9870135034001
 51
177.8357322555001
  0
LINE
  5
37EF
330
A
100
AcDbEntity
  8
MODEL
100
AcDbLine
 10
82.03479633958841
 20
324.5252402817449
 30
0.0
 11
79.75497036338857
 21
324.5252389467448
 31
0.0
  0
LINE
  5
37F0
330
A
100
AcDbEntity
  8
MODEL
100
AcDbLine
 10
82.13888454338849
 20
324.5252402817449
 30
0.0
 11
82.03479633958841
 21
324.5252402817449
 31
0.0
  0
LINE
  5
37F1
330
A
100
AcDbEntity
  8
MODEL
100
AcDbLine
 10
82.29773934898844
 20
324.5252402817449
 30
0.0
 11
82.13888454338849
 21
324.5252402817449
 31
0.0
  0
LINE
  5
37F2
330
A
100
AcDbEntity
  8
MODEL
100
AcDbLine
 10
105.5732159269883
 20
324.5252402817449
 30
0.0
 11
82.29773934898844
 21
324.5252402817449
 31
0.0
  0
LINE
  5
37F3
330
A
100
AcDbEntity
  8
MODEL
100
AcDbLine
 10
105.7320691315886
 20
324.5252402817449
 30
0.0
 11
105.5732159269883
 21
324.5252402817449
 31
0.0
  0
LINE
  5
37F4
330
A
100
AcDbEntity
  8
MODEL
100
AcDbLine
 10
105.8361574309884
 20
324.5252402817449
 30
0.0
 11
105.7320691315886
 21
324.5252402817449
 31
0.0
  0
LINE
  5
37F5
330
A
100
AcDbEntity
  8
MODEL
100
AcDbLine
 10
108.1159833259885
 20
324.5252389467448
 30
0.0
 11
105.8361574309884
 21
324.5252402817449
 31
0.0
  0
LINE
  5
37F6
330
A
100
AcDbEntity
  8
MODEL
100
AcDbLine
 10
80.73547684378855
 20
324.0252402817449
 30
0.0
 11
82.8838493097885
 21
324.0252402817449
 31
0.0
  0
LINE
  5
37F7
330
A
100
AcDbEntity
  8
MODEL
100
AcDbLine
 10
82.8838493097885
 20
324.0252402817449
 30
0.0
 11
82.8838493097885
 21
324.5252402817449
 31
0.0
  0
LINE
  5
37F8
330
A
100
AcDbEntity
  8
MODEL
100
AcDbLine
 10
82.8838493097885
 20
324.0252402817449
 30
0.0
 11
104.9871043865887
 21
324.0252402817449
 31
0.0
  0
LINE
  5
37F9
330
A
100
AcDbEntity
  8
MODEL
100
AcDbLine
 10
104.9871043865887
 20
324.0252402817449
 30
0.0
 11
104.9871043865887
 21
324.5252402817449
 31
0.0
  0
LINE
  5
37FA
330
A
100
AcDbEntity
  8
MODEL
100
AcDbLine
 10
104.9871043865887
 20
324.0252402817449
 30
0.0
 11
107.1354768527885
 21
324.0252402817449
 31
0.0
  0
ARC
  5
37FB
330
A
100
AcDbEntity
  8
MODEL
100
AcDbCircle
 10
247.9073590255884
 20
320.2454166943446
 30
0.0
 40
139.5659780436908
100
AcDbArc
 50
151.1028347268
 51
178.1176959654998
  0
ARC
  5
37FC
330
A
100
AcDbEntity
  8
MODEL
100
AcDbCircle
 10
-59.29093262361152
 20
320.4512737281445
 30
0.0
 40
138.8141428409276
100
AcDbArc
 50
1.807490875900095
 51
28.97146104290013
  0
ARC
  5
37FD
330
A
100
AcDbEntity
  8
MODEL
100
AcDbCircle
 10
125.4485392569886
 20
387.8254295511445
 30
0.0
 40
0.299815913103993
100
AcDbArc
 50
333.2494979336718
 51
90.31444291798549
  0
LINE
  5
37FE
330
A
100
AcDbEntity
  8
MODEL
100
AcDbLine
 10
123.6627981105885
 20
388.1252356951447
 30
0.0
 11
121.6115424853888
 21
388.1253960325446
 31
0.0
  0
ARC
  5
37FF
330
A
100
AcDbEntity
  8
MODEL
100
AcDbCircle
 10
62.42208581998852
 20
387.8253702887448
 30
0.0
 40
0.2994958115459276
100
AcDbArc
 50
89.54822690232339
 51
206.7686745120161
  0
ARC
  5
3800
330
A
100
AcDbEntity
  8
MODEL
100
AcDbCircle
 10
79.75485709138843
 20
324.8251416927444
 30
0.0
 40
0.2999027673525184
100
AcDbArc
 50
179.1366892946482
 51
270.0216403821287
  0
ARC
  5
3801
330
A
100
AcDbEntity
  8
MODEL
100
AcDbCircle
 10
108.1160965979884
 20
324.8251416927444
 30
0.0
 40
0.2999027673547298
100
AcDbArc
 50
269.9783596173937
 51
0.8633107049979382
  0
LINE
  5
3802
330
A
100
AcDbEntity
  8
MODEL
100
AcDbLine
 10
80.73547684378855
 20
324.5252402817449
 30
0.0
 11
80.73547684378855
 21
324.0252402817449
 31
0.0
  0
LINE
  5
3803
330
A
100
AcDbEntity
  8
MODEL
100
AcDbLine
 10
107.1354768527885
 20
324.0252402817449
 30
0.0
 11
107.1354768527885
 21
324.5252402817449
 31
0.0
  0
LINE
  5
3804
330
A
100
AcDbEntity
  8
MODEL
100
AcDbLine
 10
83.4354768481885
 20
324.0252402817449
 30
0.0
 11
83.4354768481885
 21
323.725240387945
 31
0.0
  0
LINE
  5
3805
330
A
100
AcDbEntity
  8
MODEL
100
AcDbLine
 10
104.4354768481885
 20
323.7252404289449
 30
0.0
 11
104.4354768481885
 21
324.0252402817449
 31
0.0
  0
LINE
  5
3806
330
A
100
AcDbEntity
  8
MODEL
100
AcDbLine
 10
79.74994860918855
 20
321.7252404007447
 30
0.0
 11
80.1154784075884
 21
321.7252404009448
 31
0.0
  0
LINE
  5
3807
330
A
100
AcDbEntity
  8
MODEL
100
AcDbLine
 10
107.7553533351884
 20
321.7252404007447
 30
0.0
 11
108.1209881793884
 21
321.7252404007447
 31
0.0
  0
LINE
  5
3808
330
A
100
AcDbEntity
  8
MODEL
100
AcDbLine
 10
82.07943378938853
 20
321.3866656115445
 30
0.0
 11
82.07943378938853
 21
305.1901371259448
 31
0.0
  0
LINE
  5
3809
330
A
100
AcDbEntity
  8
MODEL
100
AcDbLine
 10
106.0722004145882
 20
321.3866655577446
 30
0.0
 11
106.0722004145882
 21
305.1901371261449
 31
0.0
  0
ARC
  5
380A
330
A
100
AcDbEntity
  8
MODEL
100
AcDbCircle
 10
93.93546838938846
 20
832.175491746345
 30
0.0
 40
527.1187053604804
100
AcDbArc
 50
268.7111858742999
 51
271.2888141267
  0
LINE
  5
380B
330
A
100
AcDbEntity
  8
MODEL
100
AcDbLine
 10
79.45030987918858
 20
321.4252404009446
 30
0.0
 11
79.45030987918858
 21
305.0688122049443
 31
0.0
  0
SPLINE
  5
380C
330
A
100
AcDbEntity
  8
MODEL
100
AcDbSpline
210
0.0
220
0.0
230
1.0
 70
     8
 71
     3
 72
    19
 73
    15
 74
     0
 42
0.000000001
 43
0.0000000001
 40
0.0
 40
0.0
 40
0.0
 40
0.0
 40
0.0587199168181052
 40
0.1229629945800564
 40
0.1863994894888697
 40
0.2494198554249071
 40
0.3748696825396012
 40
0.499999999989842
 40
0.6251303174400821
 40
0.7505801445547737
 40
0.8136005104908084
 40
0.8770370053996163
 40
0.9412800831615571
 40
1.0
 40
1.0
 40
1.0
 40
1.0
 10
79.78566427621718
 20
304.6062373801408
 30
0.0
 10
80.36804129379652
 20
304.4019048080897
 30
0.0
 10
81.39957488981827
 20
304.044462902017
 30
0.0
 10
83.175239463048
 20
303.6445211399193
 30
0.0
 10
84.96302695853137
 20
303.3451249672501
 30
0.0
 10
87.35637532513624
 20
303.0551435122413
 30
0.0
 10
90.34492337287838
 20
302.8368130508731
 30
0.0
 10
93.93546839423675
 20
302.7468353700353
 30
0.0
 10
97.52601341559512
 20
302.8368130508727
 30
0.0
 10
100.5145614633375
 20
303.0551435122395
 30
0.0
 10
102.9079098299417
 20
303.3451249672482
 30
0.0
 10
104.6956973254273
 20
303.6445211399148
 30
0.0
 10
106.471361898843
 20
304.044462902061
 30
0.0
 10
107.5028954950303
 20
304.4019048081929
 30
0.0
 10
108.0852725128107
 20
304.6062373803159
 30
0.0
  0
LINE
  5
380D
330
A
100
AcDbEntity
  8
MODEL
100
AcDbLine
 10
108.4206269091883
 20
305.0688122049443
 30
0.0
 11
108.4206269091883
 21
321.4252404009446
 31
0.0
  0
ARC
  5
380E
330
A
100
AcDbEntity
  8
MODEL
100
AcDbCircle
 10
79.74984151518856
 20
321.4253322161446
 30
0.0
 40
0.299908203973972
100
AcDbArc
 50
89.97954029171079
 51
180.0175407688714
  0
ARC
  5
380F
330
A
100
AcDbEntity
  8
MODEL
100
AcDbCircle
 10
108.1210952733886
 20
321.4253322161446
 30
0.0
 40
0.2999082039750946
100
AcDbArc
 50
359.9824592311287
 51
90.02045970807194
  0
ARC
  5
3810
330
A
100
AcDbEntity
  8
MODEL
100
AcDbCircle
 10
79.94011333798858
 20
305.0564283245446
 30
0.0
 40
0.4845393405811696
100
AcDbArc
 50
178.4847366900755
 51
251.1529003593908
  0
ARC
  5
3811
330
A
100
AcDbEntity
  8
MODEL
100
AcDbCircle
 10
107.9334142651887
 20
305.0602477029444
 30
0.0
 40
0.4849068633123808
100
AcDbArc
 50
288.5989603097574
 51
0.8414009931092881
  0
LINE
  5
3812
330
A
100
AcDbEntity
  8
MODEL
100
AcDbLine
 10
81.1127048281885
 20
323.7252402581447
 30
0.0
 11
78.45208252118846
 21
323.7252403133446
 31
0.0
  0
LINE
  5
3813
330
A
100
AcDbEntity
  8
MODEL
100
AcDbLine
 10
109.4188710003882
 20
321.7252404007447
 30
0.0
 11
106.7582488673884
 21
321.7252404011444
 31
0.0
  0
LINE
  5
3814
330
A
100
AcDbEntity
  8
MODEL
100
AcDbLine
 10
78.45209869678843
 20
321.7252404007447
 30
0.0
 11
81.11270482918849
 21
321.7252404005446
 31
0.0
  0
LINE
  5
3815
330
A
100
AcDbEntity
  8
MODEL
100
AcDbLine
 10
106.7582488673884
 20
321.7252404011444
 30
0.0
 11
81.11270479518862
 21
321.7252404009448
 31
0.0
  0
LINE
  5
3816
330
A
100
AcDbEntity
  8
MODEL
100
AcDbLine
 10
106.7582488663884
 20
323.7252404295448
 30
0.0
 11
109.4188709223886
 21
323.7252403741447
 31
0.0
  0
LINE
  5
3817
330
A
100
AcDbEntity
  8
MODEL
100
AcDbLine
 10
81.11270479418863
 20
323.7252403791446
 30
0.0
 11
106.7582488663884
 21
323.7252404295448
 31
0.0
  0
LINE
  5
3818
330
A
100
AcDbEntity
  8
MODEL
100
AcDbLine
 10
109.9188711009883
 20
322.2252404007447
 30
0.0
 11
109.9188711009883
 21
323.2312404293446
 31
0.0
  0
LINE
  5
3819
330
A
100
AcDbEntity
  8
MODEL
100
AcDbLine
 10
77.95208259558854
 20
323.2312403787448
 30
0.0
 11
77.95208259558854
 21
322.2252404007447
 31
0.0
  0
ARC
  5
381A
330
A
100
AcDbEntity
  8
MODEL
100
AcDbCircle
 10
78.45208755298836
 20
323.2252403127447
 30
0.0
 40
0.499999919770224
100
AcDbArc
 50
89.99886379369079
 51
180.2355496067317
  0
ARC
  5
381B
330
A
100
AcDbEntity
  8
MODEL
100
AcDbCircle
 10
78.45208755298836
 20
322.2252404001449
 30
0.0
 40
0.4999999993136964
100
AcDbArc
 50
180.2461892439011
 51
270.0011363182175
  0
ARC
  5
381C
330
A
100
AcDbEntity
  8
MODEL
100
AcDbCircle
 10
109.4188661435883
 20
323.2252403749446
 30
0.0
 40
0.4999999993123754
100
AcDbArc
 50
0.2461892543239083
 51
90.00113643056712
  0
ARC
  5
381D
330
A
100
AcDbEntity
  8
MODEL
100
AcDbCircle
 10
109.4188661435883
 20
322.2252404015446
 30
0.0
 40
0.4999999197715574
100
AcDbArc
 50
269.9988636816017
 51
0.2355495925048784
  0
LINE
  5
381E
330
A
100
AcDbEntity
  8
MODEL
100
AcDbLine
 10
92.28547684438854
 20
388.1254418949449
 30
0.0
 11
92.28547684438854
 21
388.1252402817447
 31
0.0
  0
LINE
  5
381F
330
A
100
AcDbEntity
  8
MODEL
100
AcDbLine
 10
95.5854768443885
 20
388.1252402817447
 30
0.0
 11
95.5854768443885
 21
388.1254418949449
 31
0.0
  0
ARC
  5
3820
330
A
100
AcDbEntity
  8
MODEL
100
AcDbCircle
 10
-79.9997784106115
 20
318.9176313497449
 30
0.0
 40
162.1130177016732
100
AcDbArc
 50
2.16426774449989
 51
25.0129864965999
  0
LINE
  5
3821
330
A
100
AcDbEntity
  8
MODEL
100
AcDbLine
 10
110.9326221891888
 20
404.6257566533448
 30
0.0
 11
76.93262218918858
 21
404.6257566533448
 31
0.0
  0
LINE
  5
3822
330
A
100
AcDbEntity
  8
MODEL
100
AcDbLine
 10
77.43262218918858
 20
405.1257566533448
 30
0.0
 11
110.4326221891888
 21
405.1257566533448
 31
0.0
  0
LINE
  5
3823
330
A
100
AcDbEntity
  8
MODEL
100
AcDbLine
 10
110.9326221891888
 20
395.1257566533448
 30
0.0
 11
110.9326221891888
 21
404.6257566533448
 31
0.0
  0
LINE
  5
3824
330
A
100
AcDbEntity
  8
MODEL
100
AcDbLine
 10
76.93262218918858
 20
404.6257566533448
 30
0.0
 11
76.93262218918858
 21
395.1257566533448
 31
0.0
  0
LINE
  5
3825
330
A
100
AcDbEntity
  8
MODEL
100
AcDbLine
 10
110.9326221891888
 20
404.6257566533448
 30
0.0
 11
110.4326221891888
 21
405.1257566533448
 31
0.0
  0
LINE
  5
3826
330
A
100
AcDbEntity
  8
MODEL
100
AcDbLine
 10
77.43262218918858
 20
405.1257566533448
 30
0.0
 11
76.93262218918858
 21
404.6257566533448
 31
0.0
  0
LINE
  5
3827
330
A
100
AcDbEntity
  8
MODEL
100
AcDbLine
 10
78.43262218918858
 20
423.1654120993446
 30
0.0
 11
109.4326221891888
 21
423.1654120993446
 31
0.0
  0
LINE
  5
3828
330
A
100
AcDbEntity
  8
MODEL
100
AcDbLine
 10
78.43262218918858
 20
432.1654120993446
 30
0.0
 11
109.4326221891888
 21
432.1654120993446
 31
0.0
  0
LINE
  5
3829
330
A
100
AcDbEntity
  8
MODEL
100
AcDbLine
 10
78.43262218918858
 20
432.1654120993446
 30
0.0
 11
78.43262218918858
 21
423.1654120993446
 31
0.0
  0
LINE
  5
382A
330
A
100
AcDbEntity
  8
MODEL
100
AcDbLine
 10
109.4326221891888
 20
423.1654120993446
 30
0.0
 11
109.4326221891888
 21
432.1654120993446
 31
0.0
  0
LINE
  5
382B
330
A
100
AcDbEntity
  8
MODEL
100
AcDbLine
 10
107.9326221891888
 20
405.1257566533448
 30
0.0
 11
107.9326221891888
 21
423.1654120993446
 31
0.0
  0
LINE
  5
382C
330
A
100
AcDbEntity
  8
MODEL
100
AcDbLine
 10
107.0126221891887
 20
405.1257566533448
 30
0.0
 11
107.0126221891887
 21
423.1654120993446
 31
0.0
  0
LINE
  5
382D
330
A
100
AcDbEntity
  8
MODEL
100
AcDbLine
 10
80.85262218918842
 20
405.1257566533448
 30
0.0
 11
80.85262218918842
 21
423.1654120993446
 31
0.0
  0
LINE
  5
382E
330
A
100
AcDbEntity
  8
MODEL
100
AcDbLine
 10
79.93262218918858
 20
423.1654120993446
 30
0.0
 11
79.93262218918858
 21
405.1257566533448
 31
0.0
  0
DIMENSION
  5
3833
330
A
100
AcDbEntity
  8
DIM
100
AcDbDimension
  2
*D6
 10
356.6817439728288
 20
113.4370793645779
 30
0.0
 11
310.5073572776291
 21
113.4370793645779
 31
0.0
 70
   160
  1
\A1;<>
 71
     5
 42
92.348775074
 73
     0
 74
     0
 75
     0
  3
tfrom線あり
100
AcDbAlignedDimension
 13
264.3329688988288
 23
136.6444773349123
 33
0.0
 14
356.6817439728288
 24
197.3947240001124
 34
0.0
100
AcDbRotatedDimension
  0
DIMENSION
  5
3834
330
A
100
AcDbEntity
  8
DIM
100
AcDbDimension
  2
*D7
 10
381.1802057218533
 20
145.5546330899123
 30
0.0
 11
381.1802057218533
 21
178.1001370051123
 31
0.0
 70
   160
  1
\A1;<>
 71
     5
 42
65.091007144
 73
     0
 74
     0
 75
     0
  3
tfrom線あり
100
AcDbAlignedDimension
 13
356.6817439634287
 23
210.6456402339123
 33
0.0
 14
346.2104983232284
 24
145.5546330899123
 34
0.0
 50
90.0
100
AcDbRotatedDimension
  0
LINE
  5
38BA
330
A
100
AcDbEntity
  8
DIM
 48
0.05
100
AcDbLine
 10
104.7938935065022
 20
529.5340419386076
 30
0.0
 11
125.2656205565571
 21
503.6508336731987
 31
0.0
  0
LINE
  5
38BB
330
A
100
AcDbEntity
  8
DIM
 48
0.05
100
AcDbLine
 10
125.2656205565571
 20
503.6508336731987
 30
0.0
 11
175.4453094854065
 21
503.6508336731987
 31
0.0
  0
MTEXT
  5
38BC
330
A
100
AcDbEntity
  8
DIM
390
1D
100
AcDbMText
 10
128.5622472323222
 20
511.4808193084199
 30
0.0
 40
4.8865234375
 41
0.0
 46
5.4582466796875
 71
     1
 72
     1
  1
{\fＭＳ ゴシック|b0|i0|c1|p0;φ\fＭＳ ゴシック|b0|i0|c0|p0;35(\fＭＳ ゴシック|b0|i0|c1|p0;φ\fＭＳ ゴシック|b0|i0|c0|p0;35-\fＭＳ ゴシック|b0|i0|c1|p0;φ\fＭＳ ゴシック|b0|i0|c0|p0;45)}
  7
ＭＳ ゴシック
 73
     1
 44
0.7828267384257843
1001
ACAD
1000
ACAD_MTEXT_DEFINED_HEIGHT_BEGIN
1070
    46
1040
5.4582466796875
1000
ACAD_MTEXT_DEFINED_HEIGHT_END
  0
DIMENSION
  5
3932
330
A
100
AcDbEntity
  8
DIM
 48
0.05
100
AcDbDimension
  2
*D8
 10
271.3329688988288
 20
126.3475594767068
 30
0.0
 11
267.8329688988288
 21
126.3475594767068
 31
0.0
 70
   160
 71
     5
 42
7.0
 73
     0
 74
     0
 75
     0
  3
tfrom線あり
100
AcDbAlignedDimension
 13
264.3329688988288
 23
137.7554298162339
 33
0.0
 14
271.3329688988288
 24
175.6660729800151
 34
0.0
100
AcDbRotatedDimension
  0
MTEXT
  5
39F2
330
A
100
AcDbEntity
  8
TEMPLATE
390
1D
100
AcDbMText
 10
265.840428909598
 20
78.82838002737984
 30
0.0
 40
4.8865234375
 41
0.0
 46
5.4582466796875
 71
     1
 72
     1
  1
{FHT73-1108-004 (クローム/ゴールド)}
  7
ＭＳ ゴシック
 73
     1
 44
0.7828267384257843
1001
ACAD
1000
ACAD_MTEXT_DEFINED_HEIGHT_BEGIN
1070
    46
1040
5.4582466796875
1000
ACAD_MTEXT_DEFINED_HEIGHT_END
  0
MTEXT
  5
39F3
330
A
100
AcDbEntity
  8
TEMPLATE
390
1D
100
AcDbMText
 10
265.840428909598
 20
86.72764097167692
 30
0.0
 40
4.8865234375
 41
0.0
 46
5.4582466796875
 71
     1
 72
     1
  1
{FHT73-1108-001 (クローム)}
  7
ＭＳ ゴシック
 73
     1
 44
0.7828267384257843
1001
ACAD
1000
ACAD_MTEXT_DEFINED_HEIGHT_BEGIN
1070
    46
1040
5.4582466796875
1000
ACAD_MTEXT_DEFINED_HEIGHT_END
  0
LINE
  5
3FEC
330
A
100
AcDbEntity
  8
MODEL
100
AcDbLine
 10
93.93262218918858
 20
453.1902120993448
 30
0.0
 11
109.9326221891886
 21
462.4278120993447
 31
0.0
  0
LINE
  5
3FED
330
A
100
AcDbEntity
  8
MODEL
100
AcDbLine
 10
109.9326221891886
 20
462.4278120993447
 30
0.0
 11
109.9326221891886
 21
480.9030120993447
 31
0.0
  0
LINE
  5
3FEE
330
A
100
AcDbEntity
  8
MODEL
100
AcDbLine
 10
109.9326221891886
 20
480.9030120993447
 30
0.0
 11
93.93262218918858
 21
490.1406120993447
 31
0.0
  0
LINE
  5
3FEF
330
A
100
AcDbEntity
  8
MODEL
100
AcDbLine
 10
93.93262218918858
 20
490.1406120993447
 30
0.0
 11
77.93262218918858
 21
480.9030120993447
 31
0.0
  0
LINE
  5
3FF0
330
A
100
AcDbEntity
  8
MODEL
100
AcDbLine
 10
77.93262218918858
 20
480.9030120993447
 30
0.0
 11
77.93262218918858
 21
462.4278120993447
 31
0.0
  0
LINE
  5
3FF1
330
A
100
AcDbEntity
  8
MODEL
100
AcDbLine
 10
77.93262218918858
 20
462.4278120993447
 30
0.0
 11
93.93262218918858
 21
453.1902120993448
 31
0.0
  0
LINE
  5
3FF2
330
A
100
AcDbEntity
  8
MODEL
100
AcDbLine
 10
96.43262218918858
 20
490.4404120993447
 30
0.0
 11
96.43262218918858
 21
491.1654120993446
 31
0.0
  0
LINE
  5
3FF3
330
A
100
AcDbEntity
  8
MODEL
100
AcDbLine
 10
91.43262218918858
 20
490.4404120993447
 30
0.0
 11
91.43262218918858
 21
491.1654120993446
 31
0.0
  0
LINE
  5
3FF4
330
A
100
AcDbEntity
  8
MODEL
100
AcDbLine
 10
96.43262218918858
 20
491.1654120993446
 30
0.0
 11
91.43262218918858
 21
491.1654120993446
 31
0.0
  0
LINE
  5
3FF5
330
A
100
AcDbEntity
  8
MODEL
100
AcDbLine
 10
112.4326221891886
 20
448.8502120993446
 30
0.0
 11
112.4326221891886
 21
482.0642120993446
 31
0.0
  0
LINE
  5
3FF6
330
A
100
AcDbEntity
  8
MODEL
100
AcDbLine
 10
75.43262218918858
 20
448.8502120993446
 30
0.0
 11
75.43262218918858
 21
482.0642120993446
 31
0.0
  0
LINE
  5
3FF7
330
A
100
AcDbEntity
  8
MODEL
100
AcDbLine
 10
96.43262218918858
 20
490.4404120993447
 30
0.0
 11
91.43262218918858
 21
490.4404120993447
 31
0.0
  0
LINE
  5
3FF8
330
A
100
AcDbEntity
  8
MODEL
100
AcDbLine
 10
110.4326221891886
 20
438.6654120993446
 30
0.0
 11
77.43262218918858
 21
438.6654120993446
 31
0.0
  0
LINE
  5
3FF9
330
A
100
AcDbEntity
  8
MODEL
100
AcDbLine
 10
110.4326221891886
 20
435.1654120993446
 30
0.0
 11
110.4326221891886
 21
438.6654120993446
 31
0.0
  0
LINE
  5
3FFA
330
A
100
AcDbEntity
  8
MODEL
100
AcDbLine
 10
77.43262218918858
 20
435.1654120993446
 30
0.0
 11
77.43262218918858
 21
438.6654120993446
 31
0.0
  0
LINE
  5
3FFB
330
A
100
AcDbEntity
  8
MODEL
100
AcDbLine
 10
111.2826221891887
 20
447.6654120993446
 30
0.0
 11
76.58322218918875
 21
447.6654120993446
 31
0.0
  0
LINE
  5
3FFC
330
A
100
AcDbEntity
  8
MODEL
100
AcDbLine
 10
109.9326221891886
 20
438.6654120993446
 30
0.0
 11
110.4326221891886
 21
439.1654120993446
 31
0.0
  0
LINE
  5
3FFD
330
A
100
AcDbEntity
  8
MODEL
100
AcDbLine
 10
77.93262218918858
 20
438.6654120993446
 30
0.0
 11
77.43262218918858
 21
439.1654120993446
 31
0.0
  0
LINE
  5
3FFE
330
A
100
AcDbEntity
  8
MODEL
100
AcDbLine
 10
110.4326221891886
 20
439.1654120993446
 30
0.0
 11
77.43262218918858
 21
439.1654120993446
 31
0.0
  0
LINE
  5
4001
330
A
100
AcDbEntity
  8
MODEL
100
AcDbLine
 10
110.4326221891886
 20
435.1654120993446
 30
0.0
 11
77.43262218918858
 21
435.1654120993446
 31
0.0
  0
LINE
  5
4004
330
A
100
AcDbEntity
  8
MODEL
100
AcDbLine
 10
81.58262218918867
 20
432.1654120993446
 30
0.0
 11
106.2826221891887
 21
432.1654120993446
 31
0.0
  0
LINE
  5
4011
330
A
100
AcDbEntity
  8
MODEL
100
AcDbLine
 10
106.2826221891887
 20
432.1654120993446
 30
0.0
 11
106.2826221891887
 21
435.1654120993446
 31
0.0
  0
LINE
  5
4012
330
A
100
AcDbEntity
  8
MODEL
100
AcDbLine
 10
81.58262218918867
 20
432.1654120993446
 30
0.0
 11
81.58262218918867
 21
435.1654120993446
 31
0.0
  0
LINE
  5
4028
330
A
100
AcDbEntity
  8
MODEL
100
AcDbLine
 10
110.4326221891886
 20
439.1654120993446
 30
0.0
 11
110.4326221891886
 21
447.6654120993446
 31
0.0
  0
LINE
  5
4029
330
A
100
AcDbEntity
  8
MODEL
100
AcDbLine
 10
77.43262218918858
 20
439.1654120993446
 30
0.0
 11
77.43262218918858
 21
447.6654120993446
 31
0.0
  0
LINE
  5
40A1
102
{ACAD_REACTORS
330
473F
102
}
330
A
100
AcDbEntity
  8
MODEL
100
AcDbLine
 10
77.56814743818688
 20
173.1507744625466
 30
0.0
 11
89.41519399125923
 21
173.1507744625466
 31
0.0
  0
LINE
  5
40A2
102
{ACAD_REACTORS
330
473F
102
}
330
A
100
AcDbEntity
  8
MODEL
100
AcDbLine
 10
77.56814743818688
 20
248.1507744625468
 30
0.0
 11
109.5681474381869
 21
248.1507744625468
 31
0.0
  0
LINE
  5
40A3
102
{ACAD_REACTORS
330
473F
102
}
330
A
100
AcDbEntity
  8
MODEL
100
AcDbLine
 10
109.5681474381869
 20
173.1507744625466
 30
0.0
 11
109.5681474381869
 21
176.9730660139656
 31
0.0
  0
LINE
  5
40A4
102
{ACAD_REACTORS
330
473F
102
}
330
A
100
AcDbEntity
  8
MODEL
100
AcDbLine
 10
77.56814743818688
 20
173.1507744625466
 30
0.0
 11
77.56814743818688
 21
177.1031634823686
 31
0.0
  0
LINE
  5
40A9
102
{ACAD_REACTORS
330
473F
102
}
330
A
100
AcDbEntity
  8
MODEL
100
AcDbLine
 10
77.56814743818688
 20
244.1983831828811
 30
0.0
 11
77.56814743818688
 21
248.1507744625468
 31
0.0
  0
LINE
  5
40AA
102
{ACAD_REACTORS
330
473F
102
}
330
A
100
AcDbEntity
  8
MODEL
100
AcDbLine
 10
109.5681474381869
 20
244.3284850652046
 30
0.0
 11
109.5681474381869
 21
248.1507744625468
 31
0.0
  0
CIRCLE
  5
4114
330
A
100
AcDbEntity
  8
MODEL
100
AcDbCircle
 10
93.93262218918858
 20
471.6654120993446
 30
0.0
 40
16.0
  0
CIRCLE
  5
4115
330
A
100
AcDbEntity
  8
MODEL
100
AcDbCircle
 10
93.93262218918858
 20
471.6654120993446
 30
0.0
 40
13.2205
  0
CIRCLE
  5
4116
330
A
100
AcDbEntity
  8
MODEL
100
AcDbCircle
 10
93.93262218918858
 20
471.6654120993446
 30
0.0
 40
12.0585
  0
ARC
  5
4117
330
A
100
AcDbEntity
  8
MODEL
100
AcDbCircle
 10
93.93262218918858
 20
390.6654120993446
 30
0.0
 40
100.0
100
AcDbArc
 50
83.44644499999998
 51
88.56737699999998
  0
ARC
  5
4118
330
A
100
AcDbEntity
  8
MODEL
100
AcDbCircle
 10
104.4326221891886
 20
482.0642620993447
 30
0.0
 40
8.0
100
AcDbArc
 50
0.0001429999995732
 51
83.446738999999
  0
ARC
  5
4119
330
A
100
AcDbEntity
  8
MODEL
100
AcDbCircle
 10
83.43262218918858
 20
482.0642620993447
 30
0.0
 40
8.0
100
AcDbArc
 50
96.55340499999757
 51
180.0
  0
ARC
  5
411A
330
A
100
AcDbEntity
  8
MODEL
100
AcDbCircle
 10
93.93262218918858
 20
390.6654120993446
 30
0.0
 40
100.0
100
AcDbArc
 50
91.43246599999988
 51
96.55340499999978
  0
ARC
  5
411B
330
A
100
AcDbEntity
  8
MODEL
100
AcDbCircle
 10
93.93262218918858
 20
465.6654120993446
 30
0.0
 40
25.0
100
AcDbArc
 50
313.945628000001
 51
317.7315370000001
  0
ARC
  5
411C
330
A
100
AcDbEntity
  8
MODEL
100
AcDbCircle
 10
93.93262218918858
 20
465.6654120993446
 30
0.0
 40
25.0
100
AcDbArc
 50
222.2686199999999
 51
226.0545189999999
  0
ARC
  5
4125
330
A
100
AcDbEntity
  8
MODEL
100
AcDbCircle
 10
72.24484818918859
 20
462.4278020993447
 30
0.0
 40
5.687782
100
AcDbArc
 50
304.0878120000023
 51
0.0001570000005354
  0
ARC
  5
4126
330
A
100
AcDbEntity
  8
MODEL
100
AcDbCircle
 10
115.6203961891886
 20
462.4278020993447
 30
0.0
 40
5.687782
100
AcDbArc
 50
180.0
 51
235.9123340000002
  0
ARC
  5
4142
102
{ACAD_REACTORS
330
473F
102
}
330
A
100
AcDbEntity
  8
MODEL
100
AcDbCircle
 10
101.5681474381869
 20
225.0439624625469
 30
0.0
 40
23.106782
100
AcDbArc
 50
69.7437759999999
 51
110.2562240000003
  0
ARC
  5
4143
102
{ACAD_REACTORS
330
473F
102
}
330
A
100
AcDbEntity
  8
MODEL
100
AcDbCircle
 10
85.56814743818688
 20
225.0439624625469
 30
0.0
 40
23.106782
100
AcDbArc
 50
69.7437759999999
 51
110.2562240000003
  0
ARC
  5
4144
102
{ACAD_REACTORS
330
473F
102
}
330
A
100
AcDbEntity
  8
MODEL
100
AcDbCircle
 10
85.56814743818688
 20
196.2575864625468
 30
0.0
 40
23.106782
100
AcDbArc
 50
249.7439299999998
 51
279.603240064478
  0
ARC
  5
4145
102
{ACAD_REACTORS
330
473F
102
}
330
A
100
AcDbEntity
  8
MODEL
100
AcDbCircle
 10
101.5681474381869
 20
196.2575864625468
 30
0.0
 40
23.106782
100
AcDbArc
 50
262.232119981306
 51
290.2563709999997
  0
LINE
  5
435C
330
A
100
AcDbEntity
  8
MODEL
100
AcDbLine
 10
203.7931041562289
 20
248.1444773349123
 30
0.0
 11
171.7931041562287
 21
248.1444773349123
 31
0.0
  0
LINE
  5
435D
330
A
100
AcDbEntity
  8
MODEL
100
AcDbLine
 10
206.2683041562289
 20
246.7144773349125
 30
0.0
 11
206.2683041562289
 21
232.3084773349125
 31
0.0
  0
LINE
  5
435E
330
A
100
AcDbEntity
  8
MODEL
100
AcDbLine
 10
203.7931041562289
 20
248.1444773349123
 30
0.0
 11
206.2683041562289
 21
246.7144773349125
 31
0.0
  0
LINE
  5
435F
330
A
100
AcDbEntity
  8
MODEL
100
AcDbLine
 10
171.7931041562287
 20
248.1444773349123
 30
0.0
 11
169.3179041562287
 21
246.7144773349125
 31
0.0
  0
LINE
  5
4360
330
A
100
AcDbEntity
  8
MODEL
100
AcDbLine
 10
169.3179041562287
 20
246.7144773349125
 30
0.0
 11
169.3179041562287
 21
229.8544773349123
 31
0.0
  0
LINE
  5
4361
330
A
100
AcDbEntity
  8
MODEL
100
AcDbLine
 10
206.2683041562289
 20
174.5744773349121
 30
0.0
 11
206.2683041562289
 21
184.1444773349123
 31
0.0
  0
LINE
  5
4362
330
A
100
AcDbEntity
  8
MODEL
100
AcDbLine
 10
203.7931041562289
 20
173.1444773349123
 30
0.0
 11
206.2683041562289
 21
174.5744773349121
 31
0.0
  0
LINE
  5
4363
330
A
100
AcDbEntity
  8
MODEL
100
AcDbLine
 10
203.7931041562289
 20
173.1444773349123
 30
0.0
 11
171.7931041562287
 21
173.1444773349123
 31
0.0
  0
LINE
  5
4364
330
A
100
AcDbEntity
  8
MODEL
100
AcDbLine
 10
171.7931041562287
 20
173.1444773349123
 30
0.0
 11
169.3179041562287
 21
174.5744773349121
 31
0.0
  0
LINE
  5
4365
330
A
100
AcDbEntity
  8
MODEL
100
AcDbLine
 10
169.3179041562287
 20
174.5744773349121
 30
0.0
 11
169.3179041562287
 21
190.1444773349123
 31
0.0
  0
LINE
  5
4366
330
A
100
AcDbEntity
  8
MODEL
100
AcDbLine
 10
206.2683041562289
 20
174.5744773349121
 30
0.0
 11
206.2683041562289
 21
188.9804773349125
 31
0.0
  0
LINE
  5
4367
330
A
100
AcDbEntity
  8
MODEL
100
AcDbLine
 10
178.5555041562287
 20
246.7144773349125
 30
0.0
 11
178.5555041562287
 21
229.8544773349123
 31
0.0
  0
LINE
  5
4368
330
A
100
AcDbEntity
  8
MODEL
100
AcDbLine
 10
197.0307041562286
 20
246.7144773349125
 30
0.0
 11
197.0307041562286
 21
229.8544773349123
 31
0.0
  0
LINE
  5
4369
330
A
100
AcDbEntity
  8
MODEL
100
AcDbLine
 10
197.0307041562286
 20
174.5744773349121
 30
0.0
 11
197.0307041562286
 21
191.4344773349123
 31
0.0
  0
LINE
  5
436A
330
A
100
AcDbEntity
  8
MODEL
100
AcDbLine
 10
178.5555041562287
 20
174.5744773349121
 30
0.0
 11
178.5555041562287
 21
191.4344773349123
 31
0.0
  0
LINE
  5
436B
330
A
100
AcDbEntity
  8
MODEL
100
AcDbLine
 10
189.7931041562287
 20
203.1444773349123
 30
0.0
 11
189.7931041562287
 21
209.3944773349123
 31
0.0
  0
LINE
  5
436C
330
A
100
AcDbEntity
  8
MODEL
100
AcDbLine
 10
185.7931041562287
 20
203.1444773349123
 30
0.0
 11
185.7931041562287
 21
209.3944773349123
 31
0.0
  0
LINE
  5
436D
330
A
100
AcDbEntity
  8
MODEL
100
AcDbLine
 10
187.7931041562287
 20
218.1444773349123
 30
0.0
 11
189.7931041562287
 21
214.6804773349123
 31
0.0
  0
LINE
  5
436E
330
A
100
AcDbEntity
  8
MODEL
100
AcDbLine
 10
187.7931041562287
 20
218.1444773349123
 30
0.0
 11
185.7931041562287
 21
214.6804773349123
 31
0.0
  0
LINE
  5
436F
330
A
100
AcDbEntity
  8
MODEL
100
AcDbLine
 10
188.5431041562287
 20
210.6444773349123
 30
0.0
 11
188.5431041562287
 21
214.6804773349123
 31
0.0
  0
LINE
  5
4370
330
A
100
AcDbEntity
  8
MODEL
100
AcDbLine
 10
187.0431041562287
 20
210.6444773349123
 30
0.0
 11
187.0431041562287
 21
214.6804773349123
 31
0.0
  0
LINE
  5
4371
330
A
100
AcDbEntity
  8
MODEL
100
AcDbLine
 10
188.5431041562287
 20
210.6444773349123
 30
0.0
 11
189.7931041562287
 21
209.3944773349123
 31
0.0
  0
LINE
  5
4372
330
A
100
AcDbEntity
  8
MODEL
100
AcDbLine
 10
187.0431041562287
 20
210.6444773349123
 30
0.0
 11
185.7931041562287
 21
209.3944773349123
 31
0.0
  0
LINE
  5
4373
330
A
100
AcDbEntity
  8
MODEL
100
AcDbLine
 10
187.7931041562287
 20
205.1444773349123
 30
0.0
 11
185.7931041562287
 21
203.1444773349123
 31
0.0
  0
LINE
  5
4374
330
A
100
AcDbEntity
  8
MODEL
100
AcDbLine
 10
187.7931041562287
 20
205.1444773349123
 30
0.0
 11
189.7931041562287
 21
203.1444773349123
 31
0.0
  0
LINE
  5
4375
330
A
100
AcDbEntity
  8
MODEL
100
AcDbLine
 10
189.7931041562287
 20
214.6804773349123
 30
0.0
 11
188.5431041562287
 21
214.6804773349123
 31
0.0
  0
LINE
  5
4376
330
A
100
AcDbEntity
  8
MODEL
100
AcDbLine
 10
187.0431041562287
 20
214.6804773349123
 30
0.0
 11
185.7931041562287
 21
214.6804773349123
 31
0.0
  0
LINE
  5
4377
330
A
100
AcDbEntity
  8
MODEL
100
AcDbLine
 10
168.2931041562287
 20
225.6444773349123
 30
0.0
 11
168.2931041562287
 21
195.6444773349123
 31
0.0
  0
LINE
  5
4378
330
A
100
AcDbEntity
  8
MODEL
100
AcDbLine
 10
169.0181041562287
 20
225.6444773349123
 30
0.0
 11
168.2931041562287
 21
225.6444773349123
 31
0.0
  0
LINE
  5
4379
330
A
100
AcDbEntity
  8
MODEL
100
AcDbLine
 10
169.0181041562287
 20
195.6444773349123
 30
0.0
 11
168.2931041562287
 21
195.6444773349123
 31
0.0
  0
LINE
  5
437B
330
A
100
AcDbEntity
  8
MODEL
100
AcDbLine
 10
201.7413041562289
 20
227.4604773349125
 30
0.0
 11
177.3943041562287
 21
227.4604773349125
 31
0.0
  0
LINE
  5
437C
330
A
100
AcDbEntity
  8
MODEL
100
AcDbLine
 10
197.0307041562286
 20
229.8544773349123
 30
0.0
 11
169.1623041562286
 21
229.8544773349123
 31
0.0
  0
LINE
  5
437D
330
A
100
AcDbEntity
  8
MODEL
100
AcDbLine
 10
220.7931041562289
 20
227.1444773349123
 30
0.0
 11
220.7931041562289
 21
194.1444773349123
 31
0.0
  0
LINE
  5
437E
330
A
100
AcDbEntity
  8
MODEL
100
AcDbLine
 10
220.7931041562289
 20
194.6444773349123
 30
0.0
 11
220.2931041562289
 21
194.1444773349123
 31
0.0
  0
LINE
  5
437F
330
A
100
AcDbEntity
  8
MODEL
100
AcDbLine
 10
224.2931041562289
 20
227.1444773349123
 30
0.0
 11
220.7931041562289
 21
227.1444773349123
 31
0.0
  0
LINE
  5
4380
330
A
100
AcDbEntity
  8
MODEL
100
AcDbLine
 10
211.7931041562289
 20
227.9944773349124
 30
0.0
 11
211.7931041562289
 21
193.2944773349124
 31
0.0
  0
LINE
  5
4381
330
A
100
AcDbEntity
  8
MODEL
100
AcDbLine
 10
224.2931041562289
 20
194.1444773349123
 30
0.0
 11
220.7931041562289
 21
194.1444773349123
 31
0.0
  0
LINE
  5
4382
330
A
100
AcDbEntity
  8
MODEL
100
AcDbLine
 10
220.7931041562289
 20
226.6444773349123
 30
0.0
 11
220.2931041562289
 21
227.1444773349123
 31
0.0
  0
LINE
  5
4383
330
A
100
AcDbEntity
  8
MODEL
100
AcDbLine
 10
220.2931041562289
 20
227.1444773349123
 30
0.0
 11
220.2931041562289
 21
194.1444773349123
 31
0.0
  0
LINE
  5
4384
330
A
100
AcDbEntity
  8
MODEL
100
AcDbLine
 10
197.0307041562286
 20
191.4344773349123
 30
0.0
 11
169.1623041562286
 21
191.4344773349123
 31
0.0
  0
LINE
  5
4385
330
A
100
AcDbEntity
  8
MODEL
100
AcDbLine
 10
201.7413041562289
 20
193.8284773349125
 30
0.0
 11
177.3943041562287
 21
193.8284773349125
 31
0.0
  0
LINE
  5
4388
330
A
100
AcDbEntity
  8
MODEL
100
AcDbLine
 10
224.2931041562289
 20
227.1444773349123
 30
0.0
 11
224.2931041562289
 21
194.1444773349123
 31
0.0
  0
LINE
  5
438B
330
A
100
AcDbEntity
  8
MODEL
100
AcDbLine
 10
227.2931041562288
 20
198.2944773349124
 30
0.0
 11
227.2931041562288
 21
222.9944773349124
 31
0.0
  0
LINE
  5
4399
330
A
100
AcDbEntity
  8
MODEL
100
AcDbLine
 10
227.2931041562288
 20
222.9944773349124
 30
0.0
 11
224.2931041562289
 21
222.9944773349124
 31
0.0
  0
LINE
  5
439A
330
A
100
AcDbEntity
  8
MODEL
100
AcDbLine
 10
227.2931041562288
 20
198.2944773349124
 30
0.0
 11
224.2931041562289
 21
198.2944773349124
 31
0.0
  0
LINE
  5
43BA
330
A
100
AcDbEntity
  8
MODEL
100
AcDbLine
 10
220.2931041562289
 20
227.1444773349123
 30
0.0
 11
211.7931041562289
 21
227.1444773349123
 31
0.0
  0
LINE
  5
43BB
330
A
100
AcDbEntity
  8
MODEL
100
AcDbLine
 10
220.2931041562289
 20
194.1444773349123
 30
0.0
 11
211.7931041562289
 21
194.1444773349123
 31
0.0
  0
ARC
  5
43C7
330
A
100
AcDbEntity
  8
MODEL
100
AcDbCircle
 10
173.9366901562287
 20
239.9658893349125
 30
0.0
 40
8.178624
100
AcDbArc
 50
55.61582200000041
 51
115.6158739999999
  0
ARC
  5
43C8
330
A
100
AcDbEntity
  8
MODEL
100
AcDbCircle
 10
201.6495181562289
 20
239.9658893349125
 30
0.0
 40
8.178624
100
AcDbArc
 50
64.38442599999959
 51
124.3844790000009
  0
ARC
  5
43C9
330
A
100
AcDbEntity
  8
MODEL
100
AcDbCircle
 10
187.7931041562287
 20
217.5736153349123
 30
0.0
 40
30.570878
100
AcDbArc
 50
72.41214600000013
 51
107.5881549999998
  0
ARC
  5
43CA
330
A
100
AcDbEntity
  8
MODEL
100
AcDbCircle
 10
201.6495181562289
 20
181.3230653349125
 30
0.0
 40
8.178624
100
AcDbArc
 50
235.615668000002
 51
295.6157209999989
  0
ARC
  5
43CB
330
A
100
AcDbEntity
  8
MODEL
100
AcDbCircle
 10
187.7931041562287
 20
203.7153393349123
 30
0.0
 40
30.570878
100
AcDbArc
 50
252.4119949999999
 51
287.5880049999999
  0
ARC
  5
43CC
330
A
100
AcDbEntity
  8
MODEL
100
AcDbCircle
 10
173.9366901562287
 20
181.3230653349125
 30
0.0
 40
8.178624
100
AcDbArc
 50
244.3842790000012
 51
304.3843319999979
  0
ARC
  5
43CD
330
A
100
AcDbEntity
  8
MODEL
100
AcDbCircle
 10
668.7931041562288
 20
210.6444773349122
 30
0.0
 40
500.0
100
AcDbArc
 50
177.7981469999999
 51
182.3497129999997
  0
ARC
  5
43CE
330
A
100
AcDbEntity
  8
MODEL
100
AcDbCircle
 10
193.7931041562287
 20
210.6444773349123
 30
0.0
 40
25.0
100
AcDbArc
 50
299.9344390000001
 51
316.0545189999998
  0
ARC
  5
43CF
330
A
100
AcDbEntity
  8
MODEL
100
AcDbCircle
 10
206.2683081562288
 20
213.7060613349123
 30
0.0
 40
18.603326
100
AcDbArc
 50
90.00014300000001
 51
119.772608
  0
ARC
  5
43D0
330
A
100
AcDbEntity
  8
MODEL
100
AcDbCircle
 10
193.7931041562287
 20
210.6444773349123
 30
0.0
 40
25.0
100
AcDbArc
 50
43.94562800000041
 51
60.06570800000035
  0
ARC
  5
43D1
330
A
100
AcDbEntity
  8
MODEL
100
AcDbCircle
 10
206.2683081562288
 20
207.5828933349122
 30
0.0
 40
18.603326
100
AcDbArc
 50
240.2275349999992
 51
270.0
  0
ARC
  5
43D2
330
A
100
AcDbEntity
  8
MODEL
100
AcDbCircle
 10
190.2309101562287
 20
210.6444773349123
 30
0.0
 40
20.377374
100
AcDbArc
 50
289.4931609999993
 51
70.50698600000032
  0
ARC
  5
43D3
330
A
100
AcDbEntity
  8
MODEL
100
AcDbCircle
 10
177.3942541562286
 20
242.8088453349125
 30
0.0
 40
15.349218
100
AcDbArc
 50
237.5668530000002
 51
270.0
  0
ARC
  5
43D4
330
A
100
AcDbEntity
  8
MODEL
100
AcDbCircle
 10
177.3942541562286
 20
178.4801093349125
 30
0.0
 40
15.349218
100
AcDbArc
 50
89.99985699999979
 51
122.432996
  0
LINE
  5
440D
330
A
100
AcDbEntity
  8
MODEL
 48
25.4
100
AcDbLine
 10
227.2931041562288
 20
198.2944773349125
 30
0.0
 11
227.2931041562288
 21
222.9944773349123
 31
0.0
  0
MTEXT
  5
4530
102
{ACAD_XDICTIONARY
360
4532
102
}
330
A
100
AcDbEntity
  8
MODEL
 48
0.05
100
AcDbMText
 10
14.6329326238789
 20
17.30781899803597
 30
0.0
 40
4.0
 41
0.0
 46
4.0
 71
     1
 72
     1
  1
{20230714M}
  7
ＭＳ ゴシック
 73
     1
 44
1.0
1001
ACAD
1000
ACAD_MTEXT_DEFINED_HEIGHT_BEGIN
1070
    46
1040
4.0
1000
ACAD_MTEXT_DEFINED_HEIGHT_END
  0
MTEXT
  5
455F
330
A
100
AcDbEntity
  8
DIM
390
1D
100
AcDbMText
 10
223.3606942820698
 20
259.1377503789209
 30
0.0
 40
4.8865234375
 41
0.0
 46
4.8865234375
 71
     1
 72
     1
  1
{\fＭＳ ゴシック|b0|i0|c1|p0;M24}
  7
ＭＳ ゴシック
 73
     1
 44
0.7828267384257843
1001
ACAD
1000
ACAD_MTEXT_DEFINED_HEIGHT_BEGIN
1070
    46
1040
4.8865234375
1000
ACAD_MTEXT_DEFINED_HEIGHT_END
  0
LINE
  5
4561
330
A
100
AcDbEntity
  8
DIM
 48
0.05
100
AcDbLine
 10
227.3692090598623
 20
216.6574162213869
 30
0.0
 11
219.8874963082482
 21
252.3937899769813
 31
0.0
  0
LINE
  5
4562
330
A
100
AcDbEntity
  8
DIM
 48
0.05
100
AcDbLine
 10
219.8874963082482
 20
252.3937899769813
 30
0.0
 11
237.0464444145815
 21
252.3937899769813
 31
0.0
  0
LINE
  5
4622
330
A
100
AcDbEntity
  8
MODEL
 48
25.4
100
AcDbLine
 10
81.58262218918878
 20
432.1654120993446
 30
0.0
 11
106.2826221891886
 21
432.1654120993446
 31
0.0
  0
DIMENSION
  5
4685
330
A
100
AcDbEntity
  8
DIM
 48
0.05
100
AcDbDimension
  2
*D9
 10
45.19162258600464
 20
175.6507761786149
 30
0.0
 11
45.19162258600464
 21
210.6507761786149
 31
0.0
 70
   160
 71
     5
 42
70.0
 73
     0
 74
     0
 75
     0
  3
tfrom線あり
100
AcDbAlignedDimension
 13
88.77834213915439
 23
245.6507761786149
 33
0.0
 14
88.77834213915439
 24
175.6507761786149
 34
0.0
 50
90.0
100
AcDbRotatedDimension
  0
DIMENSION
  5
46DB
330
A
100
AcDbEntity
  8
DIM
 48
0.05
100
AcDbDimension
  2
*D10
 10
155.1491287012263
 20
173.1444773349123
 30
0.0
 11
155.1491287012263
 21
210.6444773349123
 31
0.0
 70
   160
 71
     5
 42
75.0
 73
     0
 74
     0
 75
     0
  3
tfrom線あり
100
AcDbAlignedDimension
 13
171.7931041562287
 23
248.1444773349123
 33
0.0
 14
171.7931041562287
 24
173.1444773349123
 34
0.0
 50
90.0
100
AcDbRotatedDimension
  0
LINE
  5
473E
102
{ACAD_REACTORS
330
473F
102
}
330
A
100
AcDbEntity
  8
MODEL
100
AcDbLine
 10
98.45010568739235
 20
173.1507744625466
 30
0.0
 11
109.5681474381869
 21
173.1507744625466
 31
0.0
  0
LINE
  5
4749
330
A
100
AcDbEntity
  8
MODEL
 48
0.05
100
AcDbLine
 10
93.56815370446739
 20
246.7216762288783
 30
0.0
 11
93.56815370446739
 21
245.6500588039163
 31
0.0
  0
LINE
  5
47B6
330
A
100
AcDbEntity
  8
MODEL
  6
HIDDEN
 48
0.009
100
AcDbLine
 10
174.5930742450087
 20
173.2112591862002
 30
0.0
 11
174.5930742450087
 21
184.5736423824986
 31
0.0
  0
DIMENSION
  5
47B7
330
A
100
AcDbEntity
  8
DIM
 48
0.05
100
AcDbDimension
  2
*D13
 10
200.9931340674486
 20
151.3973762716783
 30
0.0
 11
187.793023855076
 21
151.3973762716783
 31
0.0
 70
   160
  1
G3/4"
 71
     5
 42
26.40005982243991
 73
     0
 74
     0
 75
     0
 52
-90.0
  3
tfrom線あり
100
AcDbAlignedDimension
 13
174.5930742450087
 23
173.2112591862002
 33
0.0
 14
200.9931340674486
 24
173.2112591862002
 34
0.0
100
AcDbRotatedDimension
  0
DIMENSION
  5
47C4
102
{ACAD_REACTORS
330
47C6
102
}
102
{ACAD_XDICTIONARY
360
47C5
102
}
330
A
100
AcDbEntity
  8
DIM
 48
0.05
100
AcDbDimension
  2
*D14
 10
187.793023855076
 20
113.4370793645779
 30
0.0
 11
226.0629963769524
 21
120.9370793645779
 31
0.0
 70
    32
  1
67-112
 71
     5
 42
76.53994504375282
 73
     0
 74
     0
 75
     0
  3
tfrom線あり
100
AcDbAlignedDimension
 13
264.3329688988288
 23
136.6444773349123
 33
0.0
 14
187.793023855076
 24
151.3973762716783
 34
0.0
100
AcDbRotatedDimension
  0
LINE
  5
47E5
330
A
100
AcDbEntity
  8
MODEL
  6
HIDDEN
 48
0.009
100
AcDbLine
 10
200.9931340674486
 20
173.2112591862002
 30
0.0
 11
200.9931340674486
 21
184.5736423824986
 31
0.0
  0
LINE
  5
47E6
330
A
100
AcDbEntity
  8
MODEL
  6
HIDDEN
 48
0.009
100
AcDbLine
 10
200.9931340674486
 20
248.0776954836244
 30
0.0
 11
200.9931340674486
 21
236.715312287326
 31
0.0
  0
LINE
  5
47E7
330
A
100
AcDbEntity
  8
MODEL
  6
HIDDEN
 48
0.009
100
AcDbLine
 10
174.5930742450087
 20
248.0776954836244
 30
0.0
 11
174.5930742450087
 21
236.715312287326
 31
0.0
  0
DIMENSION
  5
47E8
330
A
100
AcDbEntity
  8
DIM
 48
0.05
100
AcDbDimension
  2
*D15
 10
200.9931340674486
 20
262.5279402328459
 30
0.0
 11
187.793023855076
 21
262.5279402328459
 31
0.0
 70
   160
  1
G3/4"
 71
     5
 42
26.40005982243991
 73
     0
 74
     0
 75
     0
  3
tfrom線あり
100
AcDbAlignedDimension
 13
174.5930742450087
 23
248.0776954836244
 33
0.0
 14
200.9931340674486
 24
248.0776954836244
 34
0.0
100
AcDbRotatedDimension
  0
MTEXT
  5
4843
330
A
100
AcDbEntity
  8
MODEL
  6
Continuous
100
AcDbMText
 10
26.44042890954615
 20
84.51788803277327
 30
0.0
 40
5.0
 41
244.1650375249251
 46
5.710266349881206
 71
     1
 72
     1
  1
{■流量 0.3Mpa時 95.0L/min}
  7
ＭＳ ゴシック
 73
     1
 44
1.0
1001
ACAD
1000
ACAD_MTEXT_DEFINED_HEIGHT_BEGIN
1070
    46
1040
5.710266349881206
1000
ACAD_MTEXT_DEFINED_HEIGHT_END
  0
VIEWPORT
  5
349
330
B
100
AcDbEntity
 67
     1
  8
0
100
AcDbViewport
 10
202.5
 20
128.5
 30
0.0
 40
486.0
 41
308.4
 68
     1
 69
     1
 12
202.5
 22
128.5
 13
0.0
 23
0.0
 14
0.5
 24
0.5
 15
0.0
 25
0.0
 16
0.0
 26
0.0
 36
1.0
 17
0.0
 27
0.0
 37
0.0
 42
50.0
 43
0.0
 44
0.0
 45
308.4
 50
0.0
 51
0.0
 72
   100
 90
   557152
  1

281
     0
 71
     1
 74
     0
110
0.0
120
0.0
130
0.0
111
1.0
121
0.0
131
0.0
112
0.0
122
1.0
132
0.0
 79
     0
146
0.0
170
     0
 61
     5
348
26C
292
     1
282
     1
141
0.0
142
0.0
 63
   256
  0
VIEWPORT
  5
34A
330
B
100
AcDbEntity
 67
     1
  8
0
100
AcDbViewport
 10
202.5
 20
128.5
 30
0.0
 40
324.0
 41
205.6
 68
     2
 69
     2
 12
986.6781359294573
 22
1427.077061889956
 13
0.0
 23
0.0
 14
0.5
 24
0.5
 15
0.0
 25
0.0
 16
0.0
 26
0.0
 36
1.0
 17
0.0
 27
0.0
 37
0.0
 42
50.0
 43
0.0
 44
0.0
 45
2890.021615685494
 50
0.0
 51
0.0
 72
   100
 90
   557152
  1

281
     0
 71
     1
 74
     0
110
0.0
120
0.0
130
0.0
111
1.0
121
0.0
131
0.0
112
0.0
122
1.0
132
0.0
 79
     0
146
0.0
170
     0
 61
     5
348
26C
292
     1
282
     1
141
0.0
142
0.0
 63
   256
  0
ENDSEC
  0
SECTION
  2
OBJECTS
  0
DICTIONARY
  5
19
330
0
100
AcDbDictionary
281
     1
  3
ACAD_COLOR
350
674
  3
ACAD_DETAILVIEWSTYLE
350
BBF
  3
ACAD_FIELDLIST
350
44C1
  3
ACAD_GROUP
350
1A
  3
ACAD_IMAGE_VARS
350
27B
  3
ACAD_LAYOUT
350
1E
  3
ACAD_MATERIAL
350
263
  3
ACAD_MLEADERSTYLE
350
336
  3
ACAD_MLINESTYLE
350
1B
  3
ACAD_PLOTSETTINGS
350
22
  3
ACAD_PLOTSTYLENAME
350
1F
  3
ACAD_SCALELIST
350
241
  3
ACAD_SECTIONVIEWSTYLE
350
BC0
  3
ACAD_TABLESTYLE
350
278
  3
ACAD_VISUALSTYLE
350
267
  3
ACDB_RECOMPOSE_DATA
350
4850
  3
AcDbVariableDictionary
350
330
  3
APPDATA
350
27A
  3
DimOffsetDictionary
350
E38
  0
SUN
  5
904
330
15
100
AcDbSun
 90
        1
290
     0
 63
     7
421
 16777215
 40
1.0
291
     1
 91
  2455826
 92
 54000000
292
     0
 70
     2
 71
   256
280
     1
  0
DICTIONARY
  5
2E1
330
2
100
AcDbDictionary
280
     1
281
     1
  3
ACAD_LAYERSTATES
360
2E2
  3
ACLYDICTIONARY
360
DDE
  0
DICTIONARY
  5
4532
330
4530
100
AcDbDictionary
280
     1
281
     1
  3
ACAD_FIELD
360
4846
  0
DICTIONARY
  5
47C5
330
47C4
100
AcDbDictionary
280
     1
281
     1
  3
ACAD_DIMASSOC
360
47C6
  0
DICTIONARY
  5
674
102
{ACAD_REACTORS
330
19
102
}
330
19
100
AcDbDictionary
281
     1
  0
DICTIONARY
  5
BBF
102
{ACAD_REACTORS
330
19
102
}
330
19
100
AcDbDictionary
281
     1
  0
FIELDLIST
  5
44C1
102
{ACAD_REACTORS
330
19
102
}
330
19
100
AcDbIdSet
 90
        2
330
4534
330
4531
100
AcDbFieldList
  0
DICTIONARY
  5
1A
102
{ACAD_REACTORS
330
19
102
}
330
19
100
AcDbDictionary
281
     1
  3
*A1
350
473F
  0
RASTERVARIABLES
  5
27B
102
{ACAD_REACTORS
330
19
102
}
330
19
100
AcDbRasterVariables
 90
        0
 70
     1
 71
     1
 72
     1
  0
DICTIONARY
  5
1E
102
{ACAD_REACTORS
330
19
102
}
330
19
100
AcDbDictionary
281
     1
  3
Layout1
350
21
  3
Model
350
20
  0
DICTIONARY
  5
263
102
{ACAD_REACTORS
330
19
102
}
330
19
100
AcDbDictionary
281
     1
  3
ByBlock
350
4765
  3
ByLayer
350
264
  3
Global
350
266
  0
DICTIONARY
  5
336
102
{ACAD_REACTORS
330
19
102
}
330
19
100
AcDbDictionary
281
     1
  3
Standard
350
D59
  0
DICTIONARY
  5
1B
102
{ACAD_REACTORS
330
19
102
}
330
19
100
AcDbDictionary
281
     1
  3
Standard
350
1C
  0
DICTIONARY
  5
22
102
{ACAD_REACTORS
330
19
102
}
330
19
100
AcDbDictionary
281
     1
  0
ACDBDICTIONARYWDFLT
  5
1F
102
{ACAD_REACTORS
330
19
102
}
330
19
100
AcDbDictionary
281
     1
  3
Normal
350
1D
100
AcDbDictionaryWithDefault
340
1D
  0
DICTIONARY
  5
241
102
{ACAD_REACTORS
330
19
102
}
330
19
100
AcDbDictionary
281
     1
  3
A0
350
242
  3
A1
350
243
  3
A2
350
244
  3
A3
350
245
  3
A4
350
246
  3
A5
350
247
  3
A6
350
248
  3
A7
350
249
  3
A8
350
24A
  3
A9
350
24B
  3
B0
350
24C
  3
B1
350
24D
  3
B2
350
24E
  3
B3
350
24F
  3
B4
350
250
  3
B5
350
251
  3
B6
350
252
  3
B7
350
253
  3
B8
350
254
  3
B9
350
255
  3
C0
350
256
  3
C1
350
257
  3
C2
350
258
  3
C3
350
259
  3
C4
350
25A
  3
C5
350
25B
  3
C6
350
25C
  3
C7
350
25D
  3
C8
350
25E
  3
C9
350
25F
  3
D0
350
260
  3
D1
350
261
  3
D2
350
262
  0
DICTIONARY
  5
BC0
102
{ACAD_REACTORS
330
19
102
}
330
19
100
AcDbDictionary
281
     1
  0
DICTIONARY
  5
278
102
{ACAD_REACTORS
330
19
102
}
330
19
100
AcDbDictionary
281
     1
  3
Standard
350
279
  0
DICTIONARY
  5
267
102
{ACAD_REACTORS
330
19
102
}
330
19
100
AcDbDictionary
281
     1
  3
2dWireframe
350
26C
  3
3D Hidden
350
26E
  3
3dWireframe
350
26D
  3
Basic
350
26F
  3
Brighten
350
273
  3
ColorChange
350
277
  3
Conceptual
350
271
  3
Dim
350
272
  3
EdgeColorOff
350
8FE
  3
Facepattern
350
276
  3
Flat
350
268
  3
FlatWithEdges
350
269
  3
Gouraud
350
26A
  3
GouraudWithEdges
350
26B
  3
Hidden
350
8FB
  3
JitterOff
350
8FC
  3
Linepattern
350
275
  3
OverhangOff
350
8FD
  3
Realistic
350
270
  3
Shaded
350
903
  3
Shaded with edges
350
902
  3
Shades of Gray
350
8FF
  3
Sketchy
350
900
  3
Thicken
350
274
  3
Wireframe
350
8FA
  3
X-Ray
350
901
  0
XRECORD
  5
4850
102
{ACAD_REACTORS
330
19
102
}
330
19
100
AcDbXrecord
280
     1
 90
        1
330
279
  0
DICTIONARY
  5
330
102
{ACAD_REACTORS
330
19
102
}
330
19
100
AcDbDictionary
281
     1
  3
CANNOSCALE
350
331
  3
CMLEADERSTYLE
350
D5E
  3
CTABLESTYLE
350
335
  3
HPTRANSPARENCY
350
D52
  3
XCLIPFRAME
350
896
  0
DICTIONARY
  5
27A
102
{ACAD_REACTORS
330
19
102
}
330
19
100
AcDbDictionary
281
     1
  0
DICTIONARY
  5
E38
102
{ACAD_REACTORS
330
19
102
}
330
19
100
AcDbDictionary
281
     1
  3
DIMRAILANGLE
350
38B2
  3
DIMRAILFIRSTOFFSET
350
38B0
  3
DIMRAILOFFSET
350
38B1
  3
DIMRAILSENABLED
350
38B3
  0
DICTIONARY
  5
2E2
102
{ACAD_REACTORS
330
2E1
102
}
330
2E1
100
AcDbDictionary
281
     1
  0
DICTIONARY
  5
DDE
102
{ACAD_REACTORS
330
2E1
102
}
330
2E1
100
AcDbDictionary
281
     1
1001
ACAD
1000
<All
  0
DICTIONARY
  5
4846
102
{ACAD_REACTORS
330
4532
102
}
330
4532
100
AcDbDictionary
280
     1
281
     1
  3
TEXT
360
4531
  0
DIMASSOC
  5
47C6
102
{ACAD_REACTORS
330
47C5
102
}
330
47C5
100
AcDbDimAssoc
330
47C4
 90
        1
 70
     0
 71
     1
  1
AcDbOsnapPointRef
 72
    13
331
3755
 73
     0
 91
        0
 40
0.0
 10
0.0
 20
0.0
 30
0.0
 75
     0
  0
GROUP
  5
473F
102
{ACAD_REACTORS
330
1A
102
}
330
1A
100
AcDbGroup
300

 70
     1
 71
     1
340
40A3
340
473E
340
4145
340
40A4
340
40A1
340
4144
340
40A2
340
4142
340
40AA
340
4143
340
40A9
  0
LAYOUT
  5
21
102
{ACAD_REACTORS
330
1E
102
}
330
1E
100
AcDbPlotSettings
  1

  2
none_device
  4
ISO_A3_(420.00_x_297.00_MM)
  6

 40
7.5
 41
20.0
 42
7.5
 43
20.0
 44
420.0
 45
297.0
 46
0.0
 47
0.0
 48
0.0
 49
0.0
140
0.0
141
0.0
142
1.0
143
1.0
 70
     0
 72
     1
 73
     0
 74
     0
  7

 75
     0
 76
     0
 77
     2
 78
   300
147
1.0
148
0.0
149
0.0
100
AcDbLayout
  1
Layout1
 70
     0
 71
     0
 10
-7.5
 20
-20.0
 11
412.5
 21
277.0
 12
0.0
 22
0.0
 32
0.0
 14
0.0
 24
0.0
 34
0.0
 15
0.0
 25
0.0
 35
0.0
146
0.0
 13
0.0
 23
0.0
 33
0.0
 16
0.0
 26
0.0
 36
0.0
 17
0.0
 27
0.0
 37
0.0
 76
     0
330
B
331
349
  0
LAYOUT
  5
20
102
{ACAD_REACTORS
330
1E
102
}
330
1E
100
AcDbPlotSettings
  1

  2
Adobe PDF
  4
A4
  6

 40
0.0600000000000023
 41
0.0000000000000205
 42
0.0
 43
0.04
 44
210.0
 45
297.0
 46
-0.0000000000000142
 47
0.0224285714285486
 48
0.0
 49
0.0
140
0.0
141
0.0
142
1.0
143
2.000571591883395
 70
  1716
 72
     1
 73
     0
 74
     2
  7
monochrome.ctb
 75
     0
 76
     0
 77
     2
 78
   300
147
0.4998571428571429
148
-301.0201356709077
149
-223.401285469834
100
AcDbLayout
  1
Model
 70
     0
 71
     1
 10
0.0
 20
0.0
 11
420.0
 21
594.0
 12
0.0
 22
0.0
 32
0.0
 14
0.0
 24
0.0
 34
-0.0000000000000142
 15
420.0
 25
594.0
 35
0.0000000000000071
146
0.0
 13
0.0
 23
0.0
 33
0.0
 16
0.0
 26
0.0
 36
0.0
 17
0.0
 27
0.0
 37
0.0
 76
     0
330
A
331
15
1001
PLOTTRANSPARENCY
1071
        0
  0
MATERIAL
  5
4765
102
{ACAD_REACTORS
330
263
102
}
330
263
100
AcDbMaterial
  1
ByBlock
 72
     1
 94
      127
  0
MATERIAL
  5
264
102
{ACAD_REACTORS
330
263
102
}
330
263
100
AcDbMaterial
  1
ByLayer
 72
     1
 94
      127
  0
MATERIAL
  5
266
102
{ACAD_REACTORS
330
263
102
}
330
263
100
AcDbMaterial
  1
Global
 72
     1
 94
      127
  0
MLEADERSTYLE
  5
D59
102
{ACAD_REACTORS
330
336
102
}
330
336
100
AcDbMLeaderStyle
170
     2
171
     1
172
     0
 90
        2
 40
0.0
 41
0.0
173
     1
 91
-1056964608
340
11
 92
       -2
290
     1
 42
2.0
291
     1
 43
8.0
  3
Standard
341
0
 44
4.0
300

342
17
174
     1
178
     6
175
     1
176
     0
 93
-1056964608
 45
4.0
292
     0
297
     0
 46
4.0
343
0
 94
-1056964608
 47
1.0
 49
1.0
140
1.0
293
     1
141
0.0
294
     1
177
     0
142
1.0
295
     0
296
     0
143
3.75
1001
ACAD_MLEADERVER
1070
     2
  0
MLINESTYLE
  5
1C
102
{ACAD_REACTORS
330
1B
102
}
330
1B
100
AcDbMlineStyle
  2
Standard
 70
     0
  3

 62
     0
 51
90.0
 52
90.0
 71
     2
 49
0.5
 62
   256
  6
BYLAYER
 49
-0.5
 62
   256
  6
BYLAYER
  0
ACDBPLACEHOLDER
  5
1D
102
{ACAD_REACTORS
330
1F
102
}
330
1F
  0
SCALE
  5
242
102
{ACAD_REACTORS
330
241
102
}
330
241
100
AcDbScale
 70
     0
300
1:1
140
1.0
141
1.0
290
     1
  0
SCALE
  5
243
102
{ACAD_REACTORS
330
241
102
}
330
241
100
AcDbScale
 70
     0
300
1:2
140
1.0
141
2.0
290
     0
  0
SCALE
  5
244
102
{ACAD_REACTORS
330
241
102
}
330
241
100
AcDbScale
 70
     0
300
1:4
140
1.0
141
4.0
290
     0
  0
SCALE
  5
245
102
{ACAD_REACTORS
330
241
102
}
330
241
100
AcDbScale
 70
     0
300
1:5
140
1.0
141
5.0
290
     0
  0
SCALE
  5
246
102
{ACAD_REACTORS
330
241
102
}
330
241
100
AcDbScale
 70
     0
300
1:8
140
1.0
141
8.0
290
     0
  0
SCALE
  5
247
102
{ACAD_REACTORS
330
241
102
}
330
241
100
AcDbScale
 70
     0
300
1:10
140
1.0
141
10.0
290
     0
  0
SCALE
  5
248
102
{ACAD_REACTORS
330
241
102
}
330
241
100
AcDbScale
 70
     0
300
1:16
140
1.0
141
16.0
290
     0
  0
SCALE
  5
249
102
{ACAD_REACTORS
330
241
102
}
330
241
100
AcDbScale
 70
     0
300
1:20
140
1.0
141
20.0
290
     0
  0
SCALE
  5
24A
102
{ACAD_REACTORS
330
241
102
}
330
241
100
AcDbScale
 70
     0
300
1:30
140
1.0
141
30.0
290
     0
  0
SCALE
  5
24B
102
{ACAD_REACTORS
330
241
102
}
330
241
100
AcDbScale
 70
     0
300
1:40
140
1.0
141
40.0
290
     0
  0
SCALE
  5
24C
102
{ACAD_REACTORS
330
241
102
}
330
241
100
AcDbScale
 70
     0
300
1:50
140
1.0
141
50.0
290
     0
  0
SCALE
  5
24D
102
{ACAD_REACTORS
330
241
102
}
330
241
100
AcDbScale
 70
     0
300
1:100
140
1.0
141
100.0
290
     0
  0
SCALE
  5
24E
102
{ACAD_REACTORS
330
241
102
}
330
241
100
AcDbScale
 70
     0
300
2:1
140
2.0
141
1.0
290
     0
  0
SCALE
  5
24F
102
{ACAD_REACTORS
330
241
102
}
330
241
100
AcDbScale
 70
     0
300
4:1
140
4.0
141
1.0
290
     0
  0
SCALE
  5
250
102
{ACAD_REACTORS
330
241
102
}
330
241
100
AcDbScale
 70
     0
300
8:1
140
8.0
141
1.0
290
     0
  0
SCALE
  5
251
102
{ACAD_REACTORS
330
241
102
}
330
241
100
AcDbScale
 70
     0
300
10:1
140
10.0
141
1.0
290
     0
  0
SCALE
  5
252
102
{ACAD_REACTORS
330
241
102
}
330
241
100
AcDbScale
 70
     0
300
100:1
140
100.0
141
1.0
290
     0
  0
SCALE
  5
253
102
{ACAD_REACTORS
330
241
102
}
330
241
100
AcDbScale
 70
     0
300
1/128" = 1'-0"
140
0.0078125
141
12.0
290
     0
  0
SCALE
  5
254
102
{ACAD_REACTORS
330
241
102
}
330
241
100
AcDbScale
 70
     0
300
1/64" = 1'-0"
140
0.015625
141
12.0
290
     0
  0
SCALE
  5
255
102
{ACAD_REACTORS
330
241
102
}
330
241
100
AcDbScale
 70
     0
300
1/32" = 1'-0"
140
0.03125
141
12.0
290
     0
  0
SCALE
  5
256
102
{ACAD_REACTORS
330
241
102
}
330
241
100
AcDbScale
 70
     0
300
1/16" = 1'-0"
140
0.0625
141
12.0
290
     0
  0
SCALE
  5
257
102
{ACAD_REACTORS
330
241
102
}
330
241
100
AcDbScale
 70
     0
300
3/32" = 1'-0"
140
0.09375
141
12.0
290
     0
  0
SCALE
  5
258
102
{ACAD_REACTORS
330
241
102
}
330
241
100
AcDbScale
 70
     0
300
1/8" = 1'-0"
140
0.125
141
12.0
290
     0
  0
SCALE
  5
259
102
{ACAD_REACTORS
330
241
102
}
330
241
100
AcDbScale
 70
     0
300
3/16" = 1'-0"
140
0.1875
141
12.0
290
     0
  0
SCALE
  5
25A
102
{ACAD_REACTORS
330
241
102
}
330
241
100
AcDbScale
 70
     0
300
1/4" = 1'-0"
140
0.25
141
12.0
290
     0
  0
SCALE
  5
25B
102
{ACAD_REACTORS
330
241
102
}
330
241
100
AcDbScale
 70
     0
300
3/8" = 1'-0"
140
0.375
141
12.0
290
     0
  0
SCALE
  5
25C
102
{ACAD_REACTORS
330
241
102
}
330
241
100
AcDbScale
 70
     0
300
1/2" = 1'-0"
140
0.5
141
12.0
290
     0
  0
SCALE
  5
25D
102
{ACAD_REACTORS
330
241
102
}
330
241
100
AcDbScale
 70
     0
300
3/4" = 1'-0"
140
0.75
141
12.0
290
     0
  0
SCALE
  5
25E
102
{ACAD_REACTORS
330
241
102
}
330
241
100
AcDbScale
 70
     0
300
1" = 1'-0"
140
1.0
141
12.0
290
     0
  0
SCALE
  5
25F
102
{ACAD_REACTORS
330
241
102
}
330
241
100
AcDbScale
 70
     0
300
1-1/2" = 1'-0"
140
1.5
141
12.0
290
     0
  0
SCALE
  5
260
102
{ACAD_REACTORS
330
241
102
}
330
241
100
AcDbScale
 70
     0
300
3" = 1'-0"
140
3.0
141
12.0
290
     0
  0
SCALE
  5
261
102
{ACAD_REACTORS
330
241
102
}
330
241
100
AcDbScale
 70
     0
300
6" = 1'-0"
140
6.0
141
12.0
290
     0
  0
SCALE
  5
262
102
{ACAD_REACTORS
330
241
102
}
330
241
100
AcDbScale
 70
     0
300
1'-0" = 1'-0"
140
12.0
141
12.0
290
     0
  0
TABLESTYLE
  5
279
102
{ACAD_REACTORS
330
278
102
}
102
{ACAD_XDICTIONARY
360
484E
102
}
330
278
100
AcDbTableStyle
  3
Standard
 70
     0
 71
     0
 40
0.06
 41
0.06
280
     0
281
     0
  7
Standard
140
4.5
170
     2
 62
     0
 63
   257
283
     0
 90
        4
 91
        0
  1

274
    -2
284
     1
 64
     0
275
    -2
285
     1
 65
     0
276
    -2
286
     1
 66
     0
277
    -2
287
     1
 67
     0
278
    -2
288
     1
 68
     0
279
    -2
289
     1
 69
     0
  7
Standard
140
6.0
170
     5
 62
     0
 63
   257
283
     0
 90
        4
 91
        0
  1

274
    -2
284
     1
 64
     0
275
    -2
285
     1
 65
     0
276
    -2
286
     1
 66
     0
277
    -2
287
     1
 67
     0
278
    -2
288
     1
 68
     0
279
    -2
289
     1
 69
     0
  7
Standard
140
4.5
170
     5
 62
     0
 63
   257
283
     0
 90
        4
 91
        0
  1

274
    -2
284
     1
 64
     0
275
    -2
285
     1
 65
     0
276
    -2
286
     1
 66
     0
277
    -2
287
     1
 67
     0
278
    -2
288
     1
 68
     0
279
    -2
289
     1
 69
     0
  0
VISUALSTYLE
  5
26C
102
{ACAD_REACTORS
330
267
102
}
330
267
100
AcDbVisualStyle
  2
2dWireframe
 70
     4
 71
     0
 72
     2
 73
     0
 90
        0
 40
-0.6
 41
-30.0
 62
     5
 63
     7
421
 16777215
 74
     1
 91
        4
 64
     7
 65
   257
 75
     1
175
     1
 42
1.0
 92
        0
 66
   257
 43
1.0
 76
     1
 77
     6
 78
     2
 67
     7
 79
     5
170
     0
171
     0
290
     0
174
     0
 93
        1
 44
0.0
173
     0
291
     0
 45
0.0
  0
VISUALSTYLE
  5
26E
102
{ACAD_REACTORS
330
267
102
}
330
267
100
AcDbVisualStyle
  2
3D Hidden
 70
     6
 71
     1
 72
     2
 73
     2
 90
        0
 40
-0.6
 41
-30.0
 62
     5
 63
     7
421
 16777215
 74
     2
 91
        2
 64
     7
 65
   257
 75
     2
175
     1
 42
40.0
 92
        0
 66
   257
 43
1.0
 76
     1
 77
     6
 78
     2
 67
     7
 79
     3
170
     0
171
     0
290
     0
174
     0
 93
        1
 44
0.0
173
     0
291
     0
 45
0.0
  0
VISUALSTYLE
  5
26D
102
{ACAD_REACTORS
330
267
102
}
330
267
100
AcDbVisualStyle
  2
3dWireframe
 70
     5
 71
     0
 72
     2
 73
     0
 90
        0
 40
-0.6
 41
-30.0
 62
     5
 63
     7
421
 16777215
 74
     1
 91
        4
 64
     7
 65
   257
 75
     1
175
     1
 42
1.0
 92
        0
 66
   257
 43
1.0
 76
     1
 77
     6
 78
     2
 67
     7
 79
     5
170
     0
171
     0
290
     0
174
     0
 93
        1
 44
0.0
173
     0
291
     0
 45
0.0
  0
VISUALSTYLE
  5
26F
102
{ACAD_REACTORS
330
267
102
}
330
267
100
AcDbVisualStyle
  2
Basic
 70
     7
 71
     1
 72
     0
 73
     1
 90
        0
 40
-0.6
 41
-30.0
 62
     5
 63
     7
421
 16777215
 74
     0
 91
        4
 64
     7
 65
   257
 75
     1
175
     1
 42
1.0
 92
        8
 66
     7
 43
1.0
 76
     1
 77
     6
 78
     2
 67
     7
 79
     5
170
     0
171
     0
290
     0
174
     0
 93
        1
 44
0.0
173
     0
291
     1
 45
0.0
  0
VISUALSTYLE
  5
273
102
{ACAD_REACTORS
330
267
102
}
330
267
100
AcDbVisualStyle
  2
Brighten
 70
    12
 71
     2
 72
     2
 73
     0
 90
        0
 40
-0.6
 41
-30.0
 62
     5
 63
     7
421
 16777215
 74
     1
 91
        4
 64
     7
 65
   257
 75
     1
175
     1
 42
1.0
 92
        8
 66
     7
 43
1.0
 76
     1
 77
     6
 78
     2
 67
     7
 79
     5
170
     0
171
     0
290
     0
174
     0
 93
        1
 44
50.0
173
     0
291
     1
 45
0.0
  0
VISUALSTYLE
  5
277
102
{ACAD_REACTORS
330
267
102
}
330
267
100
AcDbVisualStyle
  2
ColorChange
 70
    16
 71
     2
 72
     2
 73
     3
 90
        0
 40
-0.6
 41
-30.0
 62
     5
 63
     8
421
  8421504
 74
     1
 91
        4
 64
     7
 65
   257
 75
     1
175
     1
 42
1.0
 92
        8
 66
     8
424
  8421504
 43
1.0
 76
     1
 77
     6
 78
     2
 67
     7
 79
     5
170
     0
171
     0
290
     0
174
     0
 93
        1
 44
0.0
173
     0
291
     1
 45
0.0
  0
VISUALSTYLE
  5
271
102
{ACAD_REACTORS
330
267
102
}
330
267
100
AcDbVisualStyle
  2
Conceptual
 70
     9
 71
     3
 72
     2
 73
     0
 90
        0
 40
-0.6
 41
-30.0
 62
     5
 63
     7
421
 16777215
 74
     2
 91
        2
 64
     7
 65
   257
 75
     1
175
     1
 42
40.0
 92
        8
 66
     7
 43
1.0
 76
     1
 77
     6
 78
     2
 67
     7
 79
     3
170
     0
171
     0
290
     0
174
     0
 93
        1
 44
0.0
173
     0
291
     0
 45
0.0
  0
VISUALSTYLE
  5
272
102
{ACAD_REACTORS
330
267
102
}
330
267
100
AcDbVisualStyle
  2
Dim
 70
    11
 71
     2
 72
     2
 73
     0
 90
        0
 40
-0.6
 41
-30.0
 62
     5
 63
     7
421
 16777215
 74
     1
 91
        4
 64
     7
 65
   257
 75
     1
175
     1
 42
1.0
 92
        8
 66
     7
 43
1.0
 76
     1
 77
     6
 78
     2
 67
     7
 79
     5
170
     0
171
     0
290
     0
174
     0
 93
        1
 44
-50.0
173
     0
291
     1
 45
0.0
  0
VISUALSTYLE
  5
8FE
102
{ACAD_REACTORS
330
267
102
}
330
267
100
AcDbVisualStyle
  2
EdgeColorOff
 70
    22
 71
     2
 72
     2
 73
     0
 90
        0
 40
0.6
 41
30.0
 62
     5
 63
     7
421
 16777215
 74
     1
 91
        4
 64
     7
 65
   257
 75
     1
175
     1
 42
1.0
 92
        8
 66
     7
 43
1.0
 76
     1
 77
     6
 78
     2
 67
     7
 79
     5
170
     0
171
     0
290
     0
174
     0
 93
        1
 44
0.0
173
     0
291
     1
 45
0.0
  0
VISUALSTYLE
  5
276
102
{ACAD_REACTORS
330
267
102
}
330
267
100
AcDbVisualStyle
  2
Facepattern
 70
    15
 71
     2
 72
     2
 73
     0
 90
        0
 40
-0.6
 41
-30.0
 62
     5
 63
     7
421
 16777215
 74
     1
 91
        4
 64
     7
 65
   257
 75
     1
175
     1
 42
1.0
 92
        8
 66
     7
 43
1.0
 76
     1
 77
     6
 78
     2
 67
     7
 79
     5
170
     0
171
     0
290
     0
174
     0
 93
        1
 44
0.0
173
     0
291
     1
 45
0.0
  0
VISUALSTYLE
  5
268
102
{ACAD_REACTORS
330
267
102
}
330
267
100
AcDbVisualStyle
  2
Flat
 70
     0
 71
     2
 72
     1
 73
     1
 90
        2
 40
-0.6
 41
30.0
 62
     5
 63
     7
421
 16777215
 74
     0
 91
        4
 64
     7
 65
   257
 75
     1
175
     1
 42
1.0
 92
        8
 66
     7
 43
1.0
 76
     1
 77
     6
 78
     2
 67
     7
 79
     5
170
     0
171
     0
290
     0
174
     0
 93
       13
 44
0.0
173
     0
291
     1
 45
0.0
  0
VISUALSTYLE
  5
269
102
{ACAD_REACTORS
330
267
102
}
330
267
100
AcDbVisualStyle
  2
FlatWithEdges
 70
     1
 71
     2
 72
     1
 73
     1
 90
        2
 40
-0.6
 41
30.0
 62
     5
 63
     7
421
 16777215
 74
     1
 91
        4
 64
     7
 65
   257
 75
     1
175
     1
 42
1.0
 92
        0
 66
   257
 43
1.0
 76
     1
 77
     6
 78
     2
 67
     7
 79
     5
170
     0
171
     0
290
     0
174
     0
 93
       13
 44
0.0
173
     0
291
     1
 45
0.0
  0
VISUALSTYLE
  5
26A
102
{ACAD_REACTORS
330
267
102
}
330
267
100
AcDbVisualStyle
  2
Gouraud
 70
     2
 71
     2
 72
     2
 73
     1
 90
        2
 40
-0.6
 41
30.0
 62
     5
 63
     7
421
 16777215
 74
     0
 91
        4
 64
     7
 65
   257
 75
     1
175
     1
 42
1.0
 92
        0
 66
     7
 43
1.0
 76
     1
 77
     6
 78
     2
 67
     7
 79
     5
170
     0
171
     0
290
     0
174
     0
 93
       13
 44
0.0
173
     0
291
     1
 45
0.0
  0
VISUALSTYLE
  5
26B
102
{ACAD_REACTORS
330
267
102
}
330
267
100
AcDbVisualStyle
  2
GouraudWithEdges
 70
     3
 71
     2
 72
     2
 73
     1
 90
        2
 40
-0.6
 41
30.0
 62
     5
 63
     7
421
 16777215
 74
     1
 91
        4
 64
     7
 65
   257
 75
     1
175
     1
 42
1.0
 92
        0
 66
   257
 43
1.0
 76
     1
 77
     6
 78
     2
 67
     7
 79
     5
170
     0
171
     0
290
     0
174
     0
 93
       13
 44
0.0
173
     0
291
     1
 45
0.0
  0
VISUALSTYLE
  5
8FB
102
{ACAD_REACTORS
330
267
102
}
330
267
100
AcDbVisualStyle
  2
Hidden
 70
     6
 71
     1
 72
     2
 73
     2
 90
        0
 40
0.6
 41
30.0
 62
     5
 63
     7
421
 16777215
 74
     2
 91
        2
 64
     7
 65
   257
 75
     2
175
     1
 42
40.0
 92
        0
 66
   257
 43
1.0
 76
     1
 77
     6
 78
     2
 67
     7
 79
     3
170
     0
171
     0
290
     0
174
     0
 93
        1
 44
0.0
173
     0
291
     0
 45
0.0
  0
VISUALSTYLE
  5
8FC
102
{ACAD_REACTORS
330
267
102
}
330
267
100
AcDbVisualStyle
  2
JitterOff
 70
    20
 71
     2
 72
     2
 73
     0
 90
        0
 40
0.6
 41
30.0
 62
     5
 63
     7
421
 16777215
 74
     1
 91
        4
 64
     7
 65
   257
 75
     1
175
     1
 42
1.0
 92
       10
 66
     7
 43
1.0
 76
     1
 77
     6
 78
     2
 67
     7
 79
     5
170
     0
171
     0
290
     0
174
     0
 93
        1
 44
0.0
173
     0
291
     1
 45
0.0
  0
VISUALSTYLE
  5
275
102
{ACAD_REACTORS
330
267
102
}
330
267
100
AcDbVisualStyle
  2
Linepattern
 70
    14
 71
     2
 72
     2
 73
     0
 90
        0
 40
-0.6
 41
-30.0
 62
     5
 63
     7
421
 16777215
 74
     1
 91
        4
 64
     7
 65
   257
 75
     7
175
     7
 42
1.0
 92
        8
 66
     7
 43
1.0
 76
     1
 77
     6
 78
     2
 67
     7
 79
     5
170
     0
171
     0
290
     0
174
     0
 93
        1
 44
0.0
173
     0
291
     1
 45
0.0
  0
VISUALSTYLE
  5
8FD
102
{ACAD_REACTORS
330
267
102
}
330
267
100
AcDbVisualStyle
  2
OverhangOff
 70
    21
 71
     2
 72
     2
 73
     0
 90
        0
 40
0.6
 41
30.0
 62
     5
 63
     7
421
 16777215
 74
     1
 91
        4
 64
     7
 65
   257
 75
     1
175
     1
 42
1.0
 92
        9
 66
     7
 43
1.0
 76
     1
 77
     6
 78
     2
 67
     7
 79
     5
170
     0
171
     0
290
     0
174
     0
 93
        1
 44
0.0
173
     0
291
     1
 45
0.0
  0
VISUALSTYLE
  5
270
102
{ACAD_REACTORS
330
267
102
}
330
267
100
AcDbVisualStyle
  2
Realistic
 70
     8
 71
     2
 72
     2
 73
     0
 90
        0
 40
-0.6
 41
-30.0
 62
     5
 63
     7
421
 16777215
 74
     1
 91
        0
 64
     7
 65
   257
 75
     1
175
     1
 42
1.0
 92
        8
 66
     8
424
  7895160
 43
1.0
 76
     1
 77
     6
 78
     2
 67
     7
 79
     5
170
     0
171
     0
290
     0
174
     0
 93
       13
 44
0.0
173
     0
291
     0
 45
0.0
  0
VISUALSTYLE
  5
903
102
{ACAD_REACTORS
330
267
102
}
330
267
100
AcDbVisualStyle
  2
Shaded
 70
    27
 71
     2
 72
     2
 73
     1
 90
        2
 40
0.6
 41
30.0
 62
     5
 63
     7
421
 16777215
 74
     0
 91
        4
 64
     7
 65
   257
 75
     1
175
     1
 42
1.0
 92
        8
 66
   257
 43
1.0
 76
     1
 77
     6
 78
     2
 67
     8
425
  7895160
 79
     3
170
     0
171
     0
290
     0
174
     0
 93
        5
 44
0.0
173
     0
291
     0
 45
0.0
  0
VISUALSTYLE
  5
902
102
{ACAD_REACTORS
330
267
102
}
330
267
100
AcDbVisualStyle
  2
Shaded with edges
 70
    26
 71
     2
 72
     2
 73
     1
 90
        2
 40
0.6
 41
30.0
 62
     5
 63
     7
421
 16777215
 74
     1
 91
       10
 64
     7
 65
   257
 75
     2
175
     1
 42
1.0
 92
        8
 66
   257
 43
1.0
 76
     1
 77
     6
 78
     2
 67
     7
 79
     3
170
     0
171
     0
290
     0
174
     0
 93
        5
 44
0.0
173
     0
291
     0
 45
0.0
  0
VISUALSTYLE
  5
8FF
102
{ACAD_REACTORS
330
267
102
}
330
267
100
AcDbVisualStyle
  2
Shades of Gray
 70
    23
 71
     2
 72
     2
 73
     3
 90
        0
 40
0.6
 41
30.0
 62
     5
 63
     7
421
 16777215
 74
     2
 91
        2
 64
     7
 65
     7
 75
     1
175
     1
 42
40.0
 92
        8
 66
     7
 43
1.0
 76
     1
 77
     6
 78
     2
 67
     7
 79
     3
170
     0
171
     0
290
     0
174
     0
 93
        1
 44
0.0
173
     0
291
     0
 45
0.0
  0
VISUALSTYLE
  5
900
102
{ACAD_REACTORS
330
267
102
}
330
267
100
AcDbVisualStyle
  2
Sketchy
 70
    24
 71
     1
 72
     2
 73
     2
 90
        0
 40
0.6
 41
30.0
 62
     5
 63
     7
421
 16777215
 74
     2
 91
        2
 64
     7
 65
     7
 75
     1
175
     1
 42
40.0
 92
       11
 66
     7
 43
1.0
 76
     1
 77
     6
 78
     2
 67
     7
 79
     6
170
     0
171
     0
290
     0
174
     0
 93
        1
 44
0.0
173
     0
291
     0
 45
0.0
  0
VISUALSTYLE
  5
274
102
{ACAD_REACTORS
330
267
102
}
330
267
100
AcDbVisualStyle
  2
Thicken
 70
    13
 71
     2
 72
     2
 73
     0
 90
        0
 40
-0.6
 41
-30.0
 62
     5
 63
     7
421
 16777215
 74
     1
 91
        4
 64
     7
 65
   257
 75
     1
175
     1
 42
1.0
 92
       12
 66
     7
 43
1.0
 76
     1
 77
     6
 78
     2
 67
     7
 79
     5
170
     0
171
     0
290
     0
174
     0
 93
        1
 44
0.0
173
     0
291
     1
 45
0.0
  0
VISUALSTYLE
  5
8FA
102
{ACAD_REACTORS
330
267
102
}
330
267
100
AcDbVisualStyle
  2
Wireframe
 70
     5
 71
     0
 72
     2
 73
     0
 90
        0
 40
0.6
 41
30.0
 62
     5
 63
     7
421
 16777215
 74
     1
 91
        4
 64
     7
 65
   257
 75
     1
175
     1
 42
1.0
 92
        0
 66
   257
 43
1.0
 76
     1
 77
     6
 78
     2
 67
     7
 79
     3
170
     0
171
     0
290
     0
174
     0
 93
        1
 44
0.0
173
     0
291
     0
 45
0.0
  0
VISUALSTYLE
  5
901
102
{ACAD_REACTORS
330
267
102
}
330
267
100
AcDbVisualStyle
  2
X-Ray
 70
    25
 71
     2
 72
     2
 73
     1
 90
        1
 40
0.5
 41
30.0
 62
     5
 63
     7
421
 16777215
 74
     1
 91
        0
 64
     7
 65
   257
 75
     1
175
     1
 42
1.0
 92
        8
 66
     7
 43
1.0
 76
     1
 77
     6
 78
     2
 67
     7
 79
     3
170
     0
171
     0
290
     0
174
     0
 93
       13
 44
0.0
173
     0
291
     0
 45
0.0
  0
DICTIONARYVAR
  5
331
102
{ACAD_REACTORS
330
330
102
}
330
330
100
DictionaryVariables
280
     0
  1
1:1
  0
DICTIONARYVAR
  5
D5E
102
{ACAD_REACTORS
330
330
102
}
330
330
100
DictionaryVariables
280
     0
  1
Standard
  0
DICTIONARYVAR
  5
335
102
{ACAD_REACTORS
330
330
102
}
330
330
100
DictionaryVariables
280
     0
  1
Standard
  0
DICTIONARYVAR
  5
D52
102
{ACAD_REACTORS
330
330
102
}
330
330
100
DictionaryVariables
280
     0
  1
ByLayer
  0
DICTIONARYVAR
  5
896
102
{ACAD_REACTORS
330
330
102
}
330
330
100
DictionaryVariables
280
     0
  1
0
  0
DICTIONARYVAR
  5
38B2
102
{ACAD_REACTORS
330
E38
102
}
330
E38
100
DictionaryVariables
280
     0
  1
0.261799
  0
DICTIONARYVAR
  5
38B0
102
{ACAD_REACTORS
330
E38
102
}
330
E38
100
DictionaryVariables
280
     0
  1
0.400000
  0
DICTIONARYVAR
  5
38B1
102
{ACAD_REACTORS
330
E38
102
}
330
E38
100
DictionaryVariables
280
     0
  1
0.250000
  0
DICTIONARYVAR
  5
38B3
102
{ACAD_REACTORS
330
E38
102
}
330
E38
100
DictionaryVariables
280
     0
  1
1
  0
FIELD
  5
4531
102
{ACAD_REACTORS
330
4539
330
4845
330
4846
102
}
330
4846
100
AcDbField
  1
_text
  2
{%<\_FldIdx 0>%M}
 90
        1
360
4534
 97
        0
 91
       63
 92
        0
 94
       11
 95
        2
 96
        0
300

 93
        1
  6
ACFD_FIELDTEXT_CHECKSUM
 93
        2
 90
        2
140
4500.0
 94
        0
300

302

304
ACVALUE_END
  7
ACFD_FIELD_VALUE
 93
        6
 90
        4
  1
{20230714M}
 94
        0
300

302

304
ACVALUE_END
301
{20230714M}
 98
       11
  0
DICTIONARY
  5
484E
330
279
100
AcDbDictionary
280
     1
281
     1
  3
ACAD_ROUNDTRIP_2008_TABLESTYLE_CELLSTYLEMAP
360
484F
  0
FIELD
  5
4534
330
4531
100
AcDbField
  1
AcVar
  2
\AcVar CreateDate \f "yyyyMMdd"
 90
        0
 97
        0
 91
       63
 92
        0
 94
        8
 95
        2
 96
        0
300

 93
        1
  6
Variable
 93
        2
 90
        4
  1
CreateDate
 94
        0
300

302

304
ACVALUE_END
  7
ACFD_FIELD_VALUE
 93
        6
 90
        8
 92
       16
310
E707070000000E0001000D0008000000
 94
        0
300
yyyyMMdd
302

304
ACVALUE_END
301
20230714
 98
        8
  0
CELLSTYLEMAP
  5
484F
102
{ACAD_REACTORS
330
484E
102
}
330
484E
100
AcDbCellStyleMap
 90
        3
300
CELLSTYLE
  1
TABLEFORMAT_BEGIN
 90
        5
170
     1
 91
        0
 92
    32768
 62
   257
 93
        1
300
CONTENTFORMAT
  1
CONTENTFORMAT_BEGIN
 90
        0
 91
        0
 92
        4
 93
        0
300

 40
0.0
140
1.0
 94
        5
 62
     0
340
17
144
6.0
309
CONTENTFORMAT_END
171
     1
301
MARGIN
  1
CELLMARGIN_BEGIN
 40
0.06
 40
0.06
 40
0.06
 40
0.06
 40
0.18
 40
0.18
309
CELLMARGIN_END
 94
        6
 95
        1
302
GRIDFORMAT
  1
GRIDFORMAT_BEGIN
 90
        0
 91
        1
 62
     0
 92
       -2
340
0
 93
        0
 40
0.045
309
GRIDFORMAT_END
 95
        2
302
GRIDFORMAT
  1
GRIDFORMAT_BEGIN
 90
        0
 91
        1
 62
     0
 92
       -2
340
0
 93
        0
 40
0.045
309
GRIDFORMAT_END
 95
        4
302
GRIDFORMAT
  1
GRIDFORMAT_BEGIN
 90
        0
 91
        1
 62
     0
 92
       -2
340
0
 93
        0
 40
0.045
309
GRIDFORMAT_END
 95
        8
302
GRIDFORMAT
  1
GRIDFORMAT_BEGIN
 90
        0
 91
        1
 62
     0
 92
       -2
340
0
 93
        0
 40
0.045
309
GRIDFORMAT_END
 95
       16
302
GRIDFORMAT
  1
GRIDFORMAT_BEGIN
 90
        0
 91
        1
 62
     0
 92
       -2
340
0
 93
        0
 40
0.045
309
GRIDFORMAT_END
 95
       32
302
GRIDFORMAT
  1
GRIDFORMAT_BEGIN
 90
        0
 91
        1
 62
     0
 92
       -2
340
0
 93
        0
 40
0.045
309
GRIDFORMAT_END
309
TABLEFORMAT_END
  1
CELLSTYLE_BEGIN
 90
        1
 91
        1
300
_TITLE
309
CELLSTYLE_END
300
CELLSTYLE
  1
TABLEFORMAT_BEGIN
 90
        5
170
     1
 91
        0
 92
        0
 62
   257
 93
        1
300
CONTENTFORMAT
  1
CONTENTFORMAT_BEGIN
 90
        0
 91
        0
 92
        4
 93
        0
300

 40
0.0
140
1.0
 94
        5
 62
     0
340
17
144
4.5
309
CONTENTFORMAT_END
171
     1
301
MARGIN
  1
CELLMARGIN_BEGIN
 40
0.06
 40
0.06
 40
0.06
 40
0.06
 40
0.18
 40
0.18
309
CELLMARGIN_END
 94
        6
 95
        1
302
GRIDFORMAT
  1
GRIDFORMAT_BEGIN
 90
        0
 91
        1
 62
     0
 92
       -2
340
0
 93
        0
 40
0.045
309
GRIDFORMAT_END
 95
        2
302
GRIDFORMAT
  1
GRIDFORMAT_BEGIN
 90
        0
 91
        1
 62
     0
 92
       -2
340
0
 93
        0
 40
0.045
309
GRIDFORMAT_END
 95
        4
302
GRIDFORMAT
  1
GRIDFORMAT_BEGIN
 90
        0
 91
        1
 62
     0
 92
       -2
340
0
 93
        0
 40
0.045
309
GRIDFORMAT_END
 95
        8
302
GRIDFORMAT
  1
GRIDFORMAT_BEGIN
 90
        0
 91
        1
 62
     0
 92
       -2
340
0
 93
        0
 40
0.045
309
GRIDFORMAT_END
 95
       16
302
GRIDFORMAT
  1
GRIDFORMAT_BEGIN
 90
        0
 91
        1
 62
     0
 92
       -2
340
0
 93
        0
 40
0.045
309
GRIDFORMAT_END
 95
       32
302
GRIDFORMAT
  1
GRIDFORMAT_BEGIN
 90
        0
 91
        1
 62
     0
 92
       -2
340
0
 93
        0
 40
0.045
309
GRIDFORMAT_END
309
TABLEFORMAT_END
  1
CELLSTYLE_BEGIN
 90
        2
 91
        1
300
_HEADER
309
CELLSTYLE_END
300
CELLSTYLE
  1
TABLEFORMAT_BEGIN
 90
        5
170
     1
 91
        0
 92
        0
 62
   257
 93
        1
300
CONTENTFORMAT
  1
CONTENTFORMAT_BEGIN
 90
        0
 91
        0
 92
        4
 93
        0
300

 40
0.0
140
1.0
 94
        2
 62
     0
340
17
144
4.5
309
CONTENTFORMAT_END
171
     1
301
MARGIN
  1
CELLMARGIN_BEGIN
 40
0.06
 40
0.06
 40
0.06
 40
0.06
 40
0.18
 40
0.18
309
CELLMARGIN_END
 94
        6
 95
        1
302
GRIDFORMAT
  1
GRIDFORMAT_BEGIN
 90
        0
 91
        1
 62
     0
 92
       -2
340
0
 93
        0
 40
0.045
309
GRIDFORMAT_END
 95
        2
302
GRIDFORMAT
  1
GRIDFORMAT_BEGIN
 90
        0
 91
        1
 62
     0
 92
       -2
340
0
 93
        0
 40
0.045
309
GRIDFORMAT_END
 95
        4
302
GRIDFORMAT
  1
GRIDFORMAT_BEGIN
 90
        0
 91
        1
 62
     0
 92
       -2
340
0
 93
        0
 40
0.045
309
GRIDFORMAT_END
 95
        8
302
GRIDFORMAT
  1
GRIDFORMAT_BEGIN
 90
        0
 91
        1
 62
     0
 92
       -2
340
0
 93
        0
 40
0.045
309
GRIDFORMAT_END
 95
       16
302
GRIDFORMAT
  1
GRIDFORMAT_BEGIN
 90
        0
 91
        1
 62
     0
 92
       -2
340
0
 93
        0
 40
0.045
309
GRIDFORMAT_END
 95
       32
302
GRIDFORMAT
  1
GRIDFORMAT_BEGIN
 90
        0
 91
        1
 62
     0
 92
       -2
340
0
 93
        0
 40
0.045
309
GRIDFORMAT_END
309
TABLEFORMAT_END
  1
CELLSTYLE_BEGIN
 90
        3
 91
        2
300
_DATA
309
CELLSTYLE_END
  0
ENDSEC
  0
EOF
