  0
SECTION
  2
HEADER
  9
$ACADVER
  1
AC1021
  9
$ACADMAINTVER
 70
    25
  9
$DWGCODEPAGE
  3
ANSI_932
  9
$LASTSAVEDBY
  1
tform
  9
$INSBASE
 10
0.0
 20
0.0
 30
0.0
  9
$EXTMIN
 10
0.0
 20
0.0
 30
-0.0000000000000071
  9
$EXTMAX
 10
1050.0
 20
1485.0
 30
0.0000000000000142
  9
$LIMMIN
 10
0.0
 20
0.0
  9
$LIMMAX
 10
1050.0
 20
1485.0
  9
$ORTHOMODE
 70
     0
  9
$REGENMODE
 70
     1
  9
$FILLMODE
 70
     1
  9
$QTEXTMODE
 70
     0
  9
$MIRRTEXT
 70
     1
  9
$LTSCALE
 40
50.0
  9
$ATTMODE
 70
     1
  9
$TEXTSIZE
 40
2.5
  9
$TRACEWID
 40
1.0
  9
$TEXTSTYLE
  7
ＭＳ ゴシック
  9
$CLAYER
  8
DIM
  9
$CELTYPE
  6
ByLayer
  9
$CECOLOR
 62
   256
  9
$CELTSCALE
 40
0.05
  9
$DISPSILH
 70
     0
  9
$DIMSCALE
 40
1.0
  9
$DIMASZ
 40
3.0
  9
$DIMEXO
 40
10.0
  9
$DIMDLI
 40
0.9999999999999999
  9
$DIMRND
 40
0.0
  9
$DIMDLE
 40
0.0
  9
$DIMEXE
 40
0.0
  9
$DIMTP
 40
0.0
  9
$DIMTM
 40
0.0
  9
$DIMTXT
 40
12.0
  9
$DIMCEN
 40
0.0
  9
$DIMTSZ
 40
0.0
  9
$DIMTOL
 70
     0
  9
$DIMLIM
 70
     0
  9
$DIMTIH
 70
     0
  9
$DIMTOH
 70
     0
  9
$DIMSE1
 70
     0
  9
$DIMSE2
 70
     0
  9
$DIMTAD
 70
     1
  9
$DIMZIN
 70
    11
  9
$DIMBLK
  1
DOT
  9
$DIMASO
 70
     1
  9
$DIMSHO
 70
     1
  9
$DIMPOST
  1
<>
  9
$DIMAPOST
  1
[]
  9
$DIMALT
 70
     0
  9
$DIMALTD
 70
     1
  9
$DIMALTF
 40
1.0
  9
$DIMLFAC
 40
1.0
  9
$DIMTOFL
 70
     0
  9
$DIMTVP
 40
0.0
  9
$DIMTIX
 70
     1
  9
$DIMSOXD
 70
     0
  9
$DIMSAH
 70
     0
  9
$DIMBLK1
  1

  9
$DIMBLK2
  1

  9
$DIMSTYLE
  2
tfrom線あり
  9
$DIMCLRD
 70
     0
  9
$DIMCLRE
 70
     0
  9
$DIMCLRT
 70
     0
  9
$DIMTFAC
 40
1.0
  9
$DIMGAP
 40
10.0
  9
$DIMJUST
 70
     0
  9
$DIMSD1
 70
     0
  9
$DIMSD2
 70
     0
  9
$DIMTOLJ
 70
     1
  9
$DIMTZIN
 70
    11
  9
$DIMALTZ
 70
    11
  9
$DIMALTTZ
 70
    11
  9
$DIMUPT
 70
     0
  9
$DIMDEC
 70
     0
  9
$DIMTDEC
 70
     1
  9
$DIMALTU
 70
     2
  9
$DIMALTTD
 70
     2
  9
$DIMTXSTY
  7
ＭＳ ゴシック
  9
$DIMAUNIT
 70
     0
  9
$DIMADEC
 70
     2
  9
$DIMALTRND
 40
0.0
  9
$DIMAZIN
 70
     0
  9
$DIMDSEP
 70
    46
  9
$DIMATFIT
 70
     0
  9
$DIMFRAC
 70
     2
  9
$DIMLDRBLK
  1
DOT
  9
$DIMLUNIT
 70
     2
  9
$DIMLWD
 70
    -2
  9
$DIMLWE
 70
    -2
  9
$DIMTMOVE
 70
     0
  9
$DIMFXL
 40
1.0
  9
$DIMFXLON
 70
     0
  9
$DIMJOGANG
 40
0.7853981633974483
  9
$DIMTFILL
 70
     0
  9
$DIMTFILLCLR
 70
     0
  9
$DIMARCSYM
 70
     0
  9
$DIMLTYPE
  6

  9
$DIMLTEX1
  6

  9
$DIMLTEX2
  6

  9
$LUNITS
 70
     2
  9
$LUPREC
 70
     0
  9
$SKETCHINC
 40
0.1
  9
$FILLETRAD
 40
0.0
  9
$AUNITS
 70
     0
  9
$AUPREC
 70
     0
  9
$MENU
  1
acad
  9
$ELEVATION
 40
0.0
  9
$PELEVATION
 40
0.0
  9
$THICKNESS
 40
0.0
  9
$LIMCHECK
 70
     0
  9
$CHAMFERA
 40
0.0
  9
$CHAMFERB
 40
0.0
  9
$CHAMFERC
 40
0.0
  9
$CHAMFERD
 40
0.0
  9
$SKPOLY
 70
     0
  9
$TDCREATE
 40
2447893.375
  9
$TDUCREATE
 40
0.0
  9
$TDUPDATE
 40
2460140.430087708
  9
$TDUUPDATE
 40
2460140.055087708
  9
$TDINDWG
 40
0.2065388194
  9
$TDUSRTIMER
 40
0.0021397454
  9
$USRTIMER
 70
     1
  9
$ANGBASE
 50
0.0
  9
$ANGDIR
 70
     0
  9
$PDMODE
 70
     1
  9
$PDSIZE
 40
-2.0
  9
$PLINEWID
 40
0.0
  9
$SPLFRAME
 70
     0
  9
$SPLINETYPE
 70
     6
  9
$SPLINESEGS
 70
     8
  9
$HANDSEED
  5
3958
  9
$SURFTAB1
 70
     6
  9
$SURFTAB2
 70
     6
  9
$SURFTYPE
 70
     6
  9
$SURFU
 70
     6
  9
$SURFV
 70
     6
  9
$UCSBASE
  2

  9
$UCSNAME
  2

  9
$UCSORG
 10
0.0
 20
0.0
 30
0.0
  9
$UCSXDIR
 10
1.0
 20
0.0
 30
0.0
  9
$UCSYDIR
 10
0.0
 20
1.0
 30
0.0
  9
$UCSORTHOREF
  2

  9
$UCSORTHOVIEW
 70
     0
  9
$UCSORGTOP
 10
0.0
 20
0.0
 30
0.0
  9
$UCSORGBOTTOM
 10
0.0
 20
0.0
 30
0.0
  9
$UCSORGLEFT
 10
0.0
 20
0.0
 30
0.0
  9
$UCSORGRIGHT
 10
0.0
 20
0.0
 30
0.0
  9
$UCSORGFRONT
 10
0.0
 20
0.0
 30
0.0
  9
$UCSORGBACK
 10
0.0
 20
0.0
 30
0.0
  9
$PUCSBASE
  2

  9
$PUCSNAME
  2

  9
$PUCSORG
 10
0.0
 20
0.0
 30
0.0
  9
$PUCSXDIR
 10
1.0
 20
0.0
 30
0.0
  9
$PUCSYDIR
 10
0.0
 20
1.0
 30
0.0
  9
$PUCSORTHOREF
  2

  9
$PUCSORTHOVIEW
 70
     0
  9
$PUCSORGTOP
 10
0.0
 20
0.0
 30
0.0
  9
$PUCSORGBOTTOM
 10
0.0
 20
0.0
 30
0.0
  9
$PUCSORGLEFT
 10
0.0
 20
0.0
 30
0.0
  9
$PUCSORGRIGHT
 10
0.0
 20
0.0
 30
0.0
  9
$PUCSORGFRONT
 10
0.0
 20
0.0
 30
0.0
  9
$PUCSORGBACK
 10
0.0
 20
0.0
 30
0.0
  9
$USERI1
 70
     0
  9
$USERI2
 70
     0
  9
$USERI3
 70
     0
  9
$USERI4
 70
     0
  9
$USERI5
 70
     0
  9
$USERR1
 40
0.0
  9
$USERR2
 40
0.0
  9
$USERR3
 40
0.0
  9
$USERR4
 40
0.0
  9
$USERR5
 40
0.0
  9
$WORLDVIEW
 70
     1
  9
$SHADEDGE
 70
     3
  9
$SHADEDIF
 70
    70
  9
$TILEMODE
 70
     1
  9
$MAXACTVP
 70
    64
  9
$PINSBASE
 10
0.0
 20
0.0
 30
0.0
  9
$PLIMCHECK
 70
     0
  9
$PEXTMIN
 10
0.0
 20
0.0
 30
0.0
  9
$PEXTMAX
 10
0.0
 20
0.0
 30
0.0
  9
$PLIMMIN
 10
-7.5
 20
-20.0
  9
$PLIMMAX
 10
412.5
 20
277.0
  9
$UNITMODE
 70
     0
  9
$VISRETAIN
 70
     0
  9
$PLINEGEN
 70
     1
  9
$PSLTSCALE
 70
     0
  9
$TREEDEPTH
 70
  3020
  9
$CMLSTYLE
  2
Standard
  9
$CMLJUST
 70
     0
  9
$CMLSCALE
 40
1.0
  9
$PROXYGRAPHICS
 70
     0
  9
$MEASUREMENT
 70
     1
  9
$CELWEIGHT
370
    -1
  9
$ENDCAPS
280
     0
  9
$JOINSTYLE
280
     0
  9
$LWDISPLAY
290
     1
  9
$INSUNITS
 70
     4
  9
$HYPERLINKBASE
  1

  9
$STYLESHEET
  1

  9
$XEDIT
290
     1
  9
$CEPSNTYPE
380
     0
  9
$PSTYLEMODE
290
     1
  9
$FINGERPRINTGUID
  2

  9
$VERSIONGUID
  2

  9
$EXTNAMES
290
     1
  9
$PSVPSCALE
 40
0.0
  9
$OLESTARTUP
290
     0
  9
$SORTENTS
280
   127
  9
$INDEXCTL
280
     0
  9
$HIDETEXT
280
     1
  9
$XCLIPFRAME
290
     0
  9
$HALOGAP
280
     0
  9
$OBSCOLOR
 70
   257
  9
$OBSLTYPE
280
     0
  9
$INTERSECTIONDISPLAY
280
     0
  9
$INTERSECTIONCOLOR
 70
   257
  9
$DIMASSOC
280
     2
  9
$PROJECTNAME
  1

  9
$CAMERADISPLAY
290
     0
  9
$LENSLENGTH
 40
50.0
  9
$CAMERAHEIGHT
 40
0.0
  9
$STEPSPERSEC
 40
2.0
  9
$STEPSIZE
 40
6.0
  9
$3DDWFPREC
 40
2.0
  9
$PSOLWIDTH
 40
0.25
  9
$PSOLHEIGHT
 40
4.0
  9
$LOFTANG1
 40
1.570796326794897
  9
$LOFTANG2
 40
1.570796326794897
  9
$LOFTMAG1
 40
0.0
  9
$LOFTMAG2
 40
0.0
  9
$LOFTPARAM
 70
     7
  9
$LOFTNORMALS
280
     1
  9
$LATITUDE
 40
37.795
  9
$LONGITUDE
 40
-122.394
  9
$NORTHDIRECTION
 40
0.0
  9
$TIMEZONE
 70
 -8000
  9
$LIGHTGLYPHDISPLAY
280
     1
  9
$TILEMODELIGHTSYNCH
280
     1
  9
$SOLIDHIST
280
     1
  9
$SHOWHIST
280
     1
  9
$DWFFRAME
280
     2
  9
$DGNFRAME
280
     2
  9
$REALWORLDSCALE
290
     1
  9
$INTERFERECOLOR
 62
   256
  9
$CSHADOW
280
     0
  9
$SHADOWPLANELOCATION
 40
0.0
  0
ENDSEC
  0
SECTION
  2
CLASSES
  0
CLASS
  1
LWPOLYLINE
  2
AcDbPolyline
  3
ObjectDBX Classes
 90
        0
 91
        1
280
     0
281
     1
  0
CLASS
  1
IMAGE
  2
AcDbRasterImage
  3
ISM
 90
      127
 91
        4
280
     0
281
     1
  0
CLASS
  1
OLE2FRAME
  2
AcDbOle2Frame
  3
ObjectDBX Classes
 90
        0
 91
        1
280
     0
281
     1
  0
CLASS
  1
HATCH
  2
AcDbHatch
  3
ObjectDBX Classes
 90
        0
 91
        1
280
     0
281
     1
  0
CLASS
  1
DICTIONARYVAR
  2
AcDbDictionaryVar
  3
ObjectDBX Classes
 90
        0
 91
        3
280
     0
281
     0
  0
CLASS
  1
RASTERVARIABLES
  2
AcDbRasterVariables
  3
ISM
 90
        0
 91
        3
280
     0
281
     0
  0
CLASS
  1
IMAGEDEF
  2
AcDbRasterImageDef
  3
ISM
 90
        0
 91
        3
280
     0
281
     0
  0
CLASS
  1
IMAGEDEF_REACTOR
  2
AcDbRasterImageDefReactor
  3
ISM
 90
        1
 91
        3
280
     0
281
     0
  0
CLASS
  1
IDBUFFER
  2
AcDbIdBuffer
  3
ObjectDBX Classes
 90
        0
 91
        3
280
     0
281
     0
  0
CLASS
  1
SPATIAL_FILTER
  2
AcDbSpatialFilter
  3
ObjectDBX Classes
 90
        0
 91
        3
280
     0
281
     0
  0
CLASS
  1
XRECORD
  2
AcDbXrecord
  3
ObjectDBX Classes
 90
        0
 91
        1
280
     0
281
     0
  0
CLASS
  1
SORTENTSTABLE
  2
AcDbSortentsTable
  3
ObjectDBX Classes
 90
        0
 91
        3
280
     0
281
     0
  0
CLASS
  1
LAYER_INDEX
  2
AcDbLayerIndex
  3
ObjectDBX Classes
 90
        0
 91
        3
280
     0
281
     0
  0
CLASS
  1
SPATIAL_INDEX
  2
AcDbSpatialIndex
  3
AutoCAD 2000
 90
        0
 91
        3
280
     0
281
     0
  0
CLASS
  1
OBJECT_PTR
  2
CAseDLPNTableRecord
  3
ASE-LPNTableRecord
 90
        1
 91
        3
280
     0
281
     0
  0
CLASS
  1
LAYOUT
  2
AcDbLayout
  3
ObjectDBX Classes
 90
        0
 91
        1
280
     0
281
     0
  0
CLASS
  1
PLOTSETTINGS
  2
AcDbPlotSettings
  3
ObjectDBX Classes
 90
        0
 91
        3
280
     0
281
     0
  0
CLASS
  1
ACDBDICTIONARYWDFLT
  2
AcDbDictionaryWithDefault
  3
ObjectDBX Classes
 90
        0
 91
        3
280
     0
281
     0
  0
CLASS
  1
ACDBPLACEHOLDER
  2
AcDbPlaceHolder
  3
ObjectDBX Classes
 90
        0
 91
        1
280
     0
281
     0
  0
CLASS
  1
SCALE
  2
AcDbScale
  3
ObjectDBX Classes
 90
     1153
 91
        3
280
     0
281
     0
  0
CLASS
  1
MATERIAL
  2
AcDbMaterial
  3
ObjectDBX Classes
 90
     1153
 91
        3
280
     0
281
     0
  0
CLASS
  1
VISUALSTYLE
  2
AcDbVisualStyle
  3
ObjectDBX Classes
 90
     4095
 91
        3
280
     0
281
     0
  0
CLASS
  1
TABLESTYLE
  2
AcDbTableStyle
  3
ObjectDBX Classes
 90
     4095
 91
        3
280
     0
281
     0
  0
CLASS
  1
DIMASSOC
  2
AcDbDimAssoc
  3
"AcDbDimAssoc|Product Desc:     AcDim ARX App For Dimension|Company:          Autodesk, Inc.|WEB Address:      www.autodesk.com"
 90
        0
 91
        3
280
     0
281
     0
  0
CLASS
  1
CELLSTYLEMAP
  2
AcDbCellStyleMap
  3
ObjectDBX Classes
 90
     1152
 91
        3
280
     0
281
     0
  0
CLASS
  1
SUN
  2
AcDbSun
  3
SCENEOE
 90
     1153
 91
        3
280
     0
281
     0
  0
CLASS
  1
MLEADERSTYLE
  2
AcDbMLeaderStyle
  3
ACDB_MLEADERSTYLE_CLASS
 90
     4095
 91
        3
280
     0
281
     0
  0
CLASS
  1
FIELD
  2
AcDbField
  3
ObjectDBX Classes
 90
     1152
 91
        3
280
     0
281
     0
  0
CLASS
  1
FIELDLIST
  2
AcDbFieldList
  3
ObjectDBX Classes
 90
     1152
 91
        3
280
     0
281
     0
  0
ENDSEC
  0
SECTION
  2
TABLES
  0
TABLE
  2
VPORT
  5
7
330
0
100
AcDbSymbolTable
 70
     1
  0
VPORT
  5
15
330
7
100
AcDbSymbolTableRecord
100
AcDbViewportTableRecord
  2
*ACTIVE
 70
     0
 10
0.0
 20
0.0
 11
1.0
 21
1.0
 12
616.0201356709074
 22
668.901285469834
 13
0.0
 23
0.0
 14
1.0
 24
1.0
 15
0.0
 25
0.0
 16
0.0
 26
0.0
 36
1.0
 17
-91.0201356709074
 27
73.59871453016603
 37
-46.86809886248109
 40
1514.7
 41
2.120713305898491
 42
50.0
 43
0.0
 44
0.0
 50
0.0
 51
0.0
 71
    16
 72
  2000
 73
     1
 74
     1
 75
     0
 76
     0
 77
     0
 78
     0
281
     0
 65
     1
110
0.0
120
0.0
130
0.0
111
1.0
121
0.0
131
0.0
112
0.0
122
1.0
132
0.0
 79
     0
146
0.0
348
26C
 60
     3
 61
     5
292
     1
282
     1
141
0.0
142
0.0
 63
   256
361
904
  0
ENDTAB
  0
TABLE
  2
LTYPE
  5
4
330
0
100
AcDbSymbolTable
 70
     2
  0
LTYPE
  5
11
330
4
100
AcDbSymbolTableRecord
100
AcDbLinetypeTableRecord
  2
ByBlock
 70
     0
  3

 72
    65
 73
     0
 40
0.0
  0
LTYPE
  5
12
330
4
100
AcDbSymbolTableRecord
100
AcDbLinetypeTableRecord
  2
ByLayer
 70
     0
  3

 72
    65
 73
     0
 40
0.0
  0
LTYPE
  5
13
330
4
100
AcDbSymbolTableRecord
100
AcDbLinetypeTableRecord
  2
Continuous
 70
     0
  3
Solid line
 72
    65
 73
     0
 40
0.0
  0
LTYPE
  5
D6C
330
4
100
AcDbSymbolTableRecord
100
AcDbLinetypeTableRecord
  2
BORDER
 70
     0
  3
Border __  __  . __  __  . __  __  . __  __  . 
 72
    65
 73
     6
 40
44.45
 49
12.7
 74
     0
 49
-6.35
 74
     0
 49
12.7
 74
     0
 49
-6.35
 74
     0
 49
0.0
 74
     0
 49
-6.35
 74
     0
  0
ENDTAB
  0
TABLE
  2
LAYER
  5
2
102
{ACAD_XDICTIONARY
360
2E1
102
}
330
0
100
AcDbSymbolTable
 70
     8
  0
LAYER
  5
14
330
2
100
AcDbSymbolTableRecord
100
AcDbLayerTableRecord
  2
0
 70
     0
 62
     7
  6
Continuous
370
    -3
390
1D
347
266
  0
LAYER
  5
4B
330
2
100
AcDbSymbolTableRecord
100
AcDbLayerTableRecord
  2
TEMPLATE
 70
     0
 62
     7
  6
Continuous
370
    20
390
1D
347
266
  0
LAYER
  5
4C
330
2
100
AcDbSymbolTableRecord
100
AcDbLayerTableRecord
  2
DIM
 70
     0
 62
     3
  6
Continuous
370
    13
390
1D
347
266
  0
LAYER
  5
4D
330
2
100
AcDbSymbolTableRecord
100
AcDbLayerTableRecord
  2
MODEL
 70
     0
 62
     7
  6
Continuous
370
    20
390
1D
347
266
  0
LAYER
  5
667
330
2
100
AcDbSymbolTableRecord
100
AcDbLayerTableRecord
  2
LOGO
 70
     0
 62
     7
  6
Continuous
370
    -3
390
1D
347
266
  0
LAYER
  5
D6B
330
2
100
AcDbSymbolTableRecord
100
AcDbLayerTableRecord
  2
BORDER
 70
     0
 62
     4
  6
BORDER
290
     0
370
    20
390
1D
347
266
1001
AcAecLayerStandard
1000

1000

  0
LAYER
  5
D8C
330
2
100
AcDbSymbolTableRecord
100
AcDbLayerTableRecord
  2
Defpoints
 70
     0
 62
     7
  6
Continuous
290
     0
370
    -3
390
1D
347
266
  0
LAYER
  5
1635
330
2
100
AcDbSymbolTableRecord
100
AcDbLayerTableRecord
  2
Standard
 70
     0
 62
     7
  6
Continuous
370
    -3
390
1D
347
266
  0
ENDTAB
  0
TABLE
  2
STYLE
  5
3
330
0
100
AcDbSymbolTable
 70
     3
  0
STYLE
  5
17
330
3
100
AcDbSymbolTableRecord
100
AcDbTextStyleTableRecord
  2
Standard
 70
     0
 40
0.0
 41
1.0
 50
0.0
 71
     0
 42
2.5
  3
txt
  4
BIGFONT.SHX
  0
STYLE
  5
39
330
3
100
AcDbSymbolTableRecord
100
AcDbTextStyleTableRecord
  2
ＭＳ ゴシック
 70
     0
 40
0.0
 41
1.0
 50
0.0
 71
     0
 42
2.5
  3
msgothic.ttc
  4
ＭＳ ゴシック
1001
ACAD
1000
ＭＳ ゴシック
1071
        0
  0
STYLE
  5
3938
330
3
100
AcDbSymbolTableRecord
100
AcDbTextStyleTableRecord
  2
SEACAD_arial_ttf
 70
     0
 40
0.0
 41
1.0
 50
0.0
 71
     0
 42
2.5
  3
arial.ttf
  4

  0
ENDTAB
  0
TABLE
  2
VIEW
  5
5
330
0
100
AcDbSymbolTable
 70
     0
  0
ENDTAB
  0
TABLE
  2
UCS
  5
6
330
0
100
AcDbSymbolTable
 70
     0
  0
ENDTAB
  0
TABLE
  2
APPID
  5
8
330
0
100
AcDbSymbolTable
 70
     4
  0
APPID
  5
16
330
8
100
AcDbSymbolTableRecord
100
AcDbRegAppTableRecord
  2
ACAD
 70
     0
  0
APPID
  5
7AC
330
8
100
AcDbSymbolTableRecord
100
AcDbRegAppTableRecord
  2
AcAecLayerStandard
 70
     0
  0
APPID
  5
E29
330
8
100
AcDbSymbolTableRecord
100
AcDbRegAppTableRecord
  2
ACAD_MLEADERVER
 70
     0
  0
APPID
  5
394E
330
8
100
AcDbSymbolTableRecord
100
AcDbRegAppTableRecord
  2
PLOTTRANSPARENCY
 70
     0
  0
ENDTAB
  0
TABLE
  2
DIMSTYLE
  5
9
330
0
100
AcDbSymbolTable
 70
     5
100
AcDbDimStyleTable
  0
DIMSTYLE
105
18
330
9
100
AcDbSymbolTableRecord
100
AcDbDimStyleTableRecord
  2
Standard
 70
     0
178
     0
340
17
  0
DIMSTYLE
105
57
102
{ACAD_REACTORS
330
37CA
330
37CB
330
37CD
330
37CE
330
37CC
102
}
330
9
100
AcDbSymbolTableRecord
100
AcDbDimStyleTableRecord
  2
tfrom線あり
 70
     0
  3
<>
  4
[]
 41
3.0
 42
10.0
 43
0.9999999999999999
 44
0.0
 73
     0
 74
     0
 77
     1
 78
    11
140
12.0
141
0.0
143
1.0
147
10.0
171
     1
174
     1
178
     0
179
     2
271
     0
272
     1
276
     2
284
    11
285
    11
286
    11
289
     0
340
39
341
4E
342
4E
  0
DIMSTYLE
105
3935
330
9
100
AcDbSymbolTableRecord
100
AcDbDimStyleTableRecord
  2
ISO-25
 70
     0
 41
2.5
 42
0.625
 43
3.75
 44
1.25
 73
     0
 74
     0
 77
     1
 78
     8
140
2.5
141
2.5
143
0.0393700787
147
0.625
171
     3
172
     1
178
     0
271
     2
272
     2
274
     3
278
    44
283
     0
284
     8
340
17
  0
DIMSTYLE
105
3937
330
9
100
AcDbSymbolTableRecord
100
AcDbDimStyleTableRecord
  2
$DDT_AUDIT_GENERATED_(47F)
 70
     0
 41
6.0
 42
0.0
 44
3.0
 78
     8
140
6.0
141
3.0
144
4.0
147
3.0
173
     1
176
   136
177
   136
271
     0
178
   136
271
     0
272
     0
278
    44
284
     8
340
3938
343
3939
344
3939
  0
DIMSTYLE
105
393F
330
9
100
AcDbSymbolTableRecord
100
AcDbDimStyleTableRecord
  2
tform線あり
 70
     0
  3
<>
  4
[]
 41
9.999389648437498
 42
25.0
 43
0.9999999999999999
 44
0.0
 73
     0
 74
     0
 77
     1
 78
    11
140
24.4326171875
141
0.0
143
1.0
146
0.8
147
0.4999999999999999
171
     1
172
     1
174
     1
178
     0
179
     2
271
     1
272
     1
276
     2
284
    11
285
    11
286
    11
289
     0
340
39
341
4E
342
4E
  0
ENDTAB
  0
TABLE
  2
BLOCK_RECORD
  5
1
330
0
100
AcDbSymbolTable
 70
    12
  0
BLOCK_RECORD
  5
A
330
1
100
AcDbSymbolTableRecord
100
AcDbBlockTableRecord
  2
*MODEL_SPACE
340
20
 70
     0
280
     1
281
     0
  0
BLOCK_RECORD
  5
B
330
1
100
AcDbSymbolTableRecord
100
AcDbBlockTableRecord
  2
*PAPER_SPACE
340
21
 70
     0
280
     1
281
     0
  0
BLOCK_RECORD
  5
4E
330
1
100
AcDbSymbolTableRecord
100
AcDbBlockTableRecord
  2
_DOT
340
0
102
{BLKREFS
331
37E3
331
37E4
331
37F0
331
37F1
331
37FD
331
37FE
331
380C
331
380D
331
3818
102
}
 70
     0
280
     1
281
     0
  0
BLOCK_RECORD
  5
68A
330
1
100
AcDbSymbolTableRecord
100
AcDbBlockTableRecord
  2
名称未設定-1
340
0
102
{BLKREFS
331
6B5
102
}
 70
     1
280
     1
281
     0
  0
BLOCK_RECORD
  5
68D
330
1
100
AcDbSymbolTableRecord
100
AcDbBlockTableRecord
  2
block 2
340
0
102
{BLKREFS
331
68C
331
1343
102
}
 70
     0
280
     1
281
     0
  0
BLOCK_RECORD
  5
690
330
1
100
AcDbSymbolTableRecord
100
AcDbBlockTableRecord
  2
block 3
340
0
102
{BLKREFS
331
68F
102
}
 70
     0
280
     1
281
     0
  0
BLOCK_RECORD
  5
693
330
1
100
AcDbSymbolTableRecord
100
AcDbBlockTableRecord
  2
block 4
340
0
102
{BLKREFS
331
692
102
}
 70
     0
280
     1
281
     0
  0
BLOCK_RECORD
  5
6A2
330
1
100
AcDbSymbolTableRecord
100
AcDbBlockTableRecord
  2
block 5
340
0
102
{BLKREFS
331
6A1
102
}
 70
     0
280
     1
281
     0
  0
BLOCK_RECORD
  5
37DD
330
1
100
AcDbSymbolTableRecord
100
AcDbBlockTableRecord
  2
*D6
340
0
 70
     0
280
     1
281
     0
  0
BLOCK_RECORD
  5
37EA
330
1
100
AcDbSymbolTableRecord
100
AcDbBlockTableRecord
  2
*D7
340
0
 70
     0
280
     1
281
     0
  0
BLOCK_RECORD
  5
37F7
330
1
100
AcDbSymbolTableRecord
100
AcDbBlockTableRecord
  2
*D8
340
0
 70
     0
280
     1
281
     0
  0
BLOCK_RECORD
  5
3806
330
1
100
AcDbSymbolTableRecord
100
AcDbBlockTableRecord
  2
*D9
340
0
 70
     0
280
     1
281
     0
  0
BLOCK_RECORD
  5
3813
330
1
100
AcDbSymbolTableRecord
100
AcDbBlockTableRecord
  2
*D10
340
0
 70
     0
280
     1
281
     0
  0
BLOCK_RECORD
  5
3939
330
1
100
AcDbSymbolTableRecord
100
AcDbBlockTableRecord
  2
_SE_FILLED
340
0
 70
     0
280
     1
281
     0
1001
ACAD
1000
DesignCenter Data
1002
{
1070
     1
1070
     0
1002
}
  0
ENDTAB
  0
ENDSEC
  0
SECTION
  2
BLOCKS
  0
BLOCK
  5
D
330
A
100
AcDbEntity
  8
0
390
1D
100
AcDbBlockBegin
  2
*MODEL_SPACE
 70
     0
 10
0.0
 20
0.0
 30
0.0
  3
*MODEL_SPACE
  1
*MODEL_SPACE
  0
ENDBLK
  5
E
330
A
100
AcDbEntity
  8
0
390
1D
100
AcDbBlockEnd
  0
BLOCK
  5
F
330
B
100
AcDbEntity
 67
     1
  8
0
390
1D
100
AcDbBlockBegin
  2
*PAPER_SPACE
 70
     0
 10
0.0
 20
0.0
 30
0.0
  3
*PAPER_SPACE
  1
*PAPER_SPACE
  0
ENDBLK
  5
10
330
B
100
AcDbEntity
 67
     1
  8
0
390
1D
100
AcDbBlockEnd
  0
BLOCK
  5
E30
330
4E
100
AcDbEntity
  8
0
390
1D
100
AcDbBlockBegin
  2
_DOT
 70
     0
 10
0.0
 20
0.0
 30
0.0
  3
_DOT
  1
_DOT
  0
POLYLINE
  5
E32
330
4E
100
AcDbEntity
  8
0
  6
ByBlock
 62
     0
370
    -2
390
1D
100
AcDb2dPolyline
 66
     1
 10
0.0
 20
0.0
 30
0.0
 70
     1
 40
0.5
 41
0.5
  0
VERTEX
  5
E33
330
E32
100
AcDbEntity
  8
0
  6
ByBlock
 62
     0
370
    -2
390
1D
100
AcDbVertex
100
AcDb2dVertex
 10
-0.25
 20
0.0
 30
0.0
 42
1.0
  0
VERTEX
  5
E34
330
E32
100
AcDbEntity
  8
0
  6
ByBlock
 62
     0
370
    -2
390
1D
100
AcDbVertex
100
AcDb2dVertex
 10
0.25
 20
0.0
 30
0.0
 42
1.0
  0
SEQEND
  5
E35
330
E32
100
AcDbEntity
  8
0
390
1D
  0
LINE
  5
E36
330
4E
100
AcDbEntity
  8
0
  6
ByBlock
 62
     0
370
    -2
390
1D
100
AcDbLine
 10
-0.5
 20
0.0
 30
0.0
 11
-1.0
 21
0.0
 31
0.0
  0
ENDBLK
  5
E37
330
4E
100
AcDbEntity
  8
0
390
1D
100
AcDbBlockEnd
  0
BLOCK
  5
68B
330
68A
100
AcDbEntity
  8
0
100
AcDbBlockBegin
  2
名称未設定-1
 70
     0
 10
0.0
 20
0.0
 30
0.0
  3
名称未設定-1
  1
名称未設定-1
  0
INSERT
  5
68F
330
68A
100
AcDbEntity
  8
LOGO
100
AcDbBlockReference
  2
block 3
 10
0.0
 20
0.0
 30
0.0
  0
ENDBLK
  5
6B1
330
68A
100
AcDbEntity
  8
0
100
AcDbBlockEnd
  0
BLOCK
  5
68E
330
68D
100
AcDbEntity
  8
0
100
AcDbBlockBegin
  2
block 2
 70
     0
 10
0.0
 20
0.0
 30
0.0
  3
block 2
  1
block 2
  0
ENDBLK
  5
6B0
330
68D
100
AcDbEntity
  8
0
100
AcDbBlockEnd
  0
BLOCK
  5
691
330
690
100
AcDbEntity
  8
0
100
AcDbBlockBegin
  2
block 3
 70
     0
 10
0.0
 20
0.0
 30
0.0
  3
block 3
  1
block 3
  0
INSERT
  5
692
330
690
100
AcDbEntity
  8
LOGO
100
AcDbBlockReference
  2
block 4
 10
0.0
 20
0.0
 30
0.0
  0
INSERT
  5
6A1
330
690
100
AcDbEntity
  8
LOGO
100
AcDbBlockReference
  2
block 5
 10
0.0
 20
0.0
 30
0.0
  0
ENDBLK
  5
6AF
330
690
100
AcDbEntity
  8
0
100
AcDbBlockEnd
  0
BLOCK
  5
694
330
693
100
AcDbEntity
  8
0
100
AcDbBlockBegin
  2
block 4
 70
     0
 10
0.0
 20
0.0
 30
0.0
  3
block 4
  1
block 4
  0
POLYLINE
  5
695
330
693
100
AcDbEntity
  8
LOGO
370
     0
100
AcDb2dPolyline
 66
     1
 10
0.0
 20
0.0
 30
0.0
  0
VERTEX
  5
696
330
695
100
AcDbEntity
  8
LOGO
370
     0
100
AcDbVertex
100
AcDb2dVertex
 10
83.79545727667795
 20
167.6444858234922
 30
0.0
  0
VERTEX
  5
697
330
695
100
AcDbEntity
  8
LOGO
370
     0
100
AcDbVertex
100
AcDb2dVertex
 10
83.79545727667795
 20
159.7968976406313
 30
0.0
  0
VERTEX
  5
698
330
695
100
AcDbEntity
  8
LOGO
370
     0
100
AcDbVertex
100
AcDb2dVertex
 10
71.3631329975216
 20
159.7968976406313
 30
0.0
  0
VERTEX
  5
699
330
695
100
AcDbEntity
  8
LOGO
370
     0
100
AcDbVertex
100
AcDb2dVertex
 10
71.3631329975216
 20
127.8027915271048
 30
0.0
  0
VERTEX
  5
69A
330
695
100
AcDbEntity
  8
LOGO
370
     0
100
AcDbVertex
100
AcDb2dVertex
 10
60.43011526263018
 20
127.8027915271048
 30
0.0
  0
VERTEX
  5
69B
330
695
100
AcDbEntity
  8
LOGO
370
     0
100
AcDbVertex
100
AcDb2dVertex
 10
60.43011526263018
 20
159.7968976406313
 30
0.0
  0
VERTEX
  5
69C
330
695
100
AcDbEntity
  8
LOGO
370
     0
100
AcDbVertex
100
AcDb2dVertex
 10
48.21793273020759
 20
159.7968976406313
 30
0.0
  0
VERTEX
  5
69D
330
695
100
AcDbEntity
  8
LOGO
370
     0
100
AcDbVertex
100
AcDb2dVertex
 10
48.21793273020759
 20
167.6444858234922
 30
0.0
  0
VERTEX
  5
69E
330
695
100
AcDbEntity
  8
LOGO
370
     0
100
AcDbVertex
100
AcDb2dVertex
 10
83.79545727667795
 20
167.6444858234922
 30
0.0
  0
SEQEND
  5
69F
330
695
100
AcDbEntity
  8
LOGO
370
     0
  0
HATCH
  5
6A0
330
693
100
AcDbEntity
  8
LOGO
 62
   250
420
  2234388
100
AcDbHatch
 10
0.0
 20
0.0
 30
0.0
210
0.0
220
0.0
230
1.0
  2
SOLID
 70
     1
 71
     0
 91
        1
 92
        1
 93
        8
 72
     1
 10
83.79545727667795
 20
167.6444858234922
 11
83.79545727667795
 21
159.7968976406313
 72
     1
 10
83.79545727667795
 20
159.7968976406313
 11
71.3631329975216
 21
159.7968976406313
 72
     1
 10
71.3631329975216
 20
159.7968976406313
 11
71.3631329975216
 21
127.8027915271048
 72
     1
 10
71.3631329975216
 20
127.8027915271048
 11
60.43011526263018
 21
127.8027915271048
 72
     1
 10
60.43011526263018
 20
127.8027915271048
 11
60.43011526263018
 21
159.7968976406313
 72
     1
 10
60.43011526263018
 20
159.7968976406313
 11
48.21793273020759
 21
159.7968976406313
 72
     1
 10
48.21793273020759
 20
159.7968976406313
 11
48.21793273020759
 21
167.6444858234922
 72
     1
 10
48.21793273020759
 20
167.6444858234922
 11
83.79545727667795
 21
167.6444858234922
 97
        0
 75
     2
 76
     1
 98
        0
  0
ENDBLK
  5
6AE
330
693
100
AcDbEntity
  8
0
100
AcDbBlockEnd
  0
BLOCK
  5
6A3
330
6A2
100
AcDbEntity
  8
0
100
AcDbBlockBegin
  2
block 5
 70
     0
 10
0.0
 20
0.0
 30
0.0
  3
block 5
  1
block 5
  0
SPLINE
  5
6A4
330
6A2
100
AcDbEntity
  8
LOGO
370
     0
100
AcDbSpline
210
0.0
220
0.0
230
1.0
 70
    11
 71
     3
 72
    56
 73
    52
 74
     0
 42
0.000000001
 43
0.0000000001
 40
0.0
 40
0.0
 40
0.0
 40
0.0
 40
1.0
 40
1.0
 40
1.0
 40
2.0
 40
2.0
 40
2.0
 40
3.0
 40
3.0
 40
3.0
 40
4.0
 40
4.0
 40
4.0
 40
5.0
 40
5.0
 40
5.0
 40
6.0
 40
6.0
 40
6.0
 40
7.0
 40
7.0
 40
7.0
 40
8.0
 40
8.0
 40
8.0
 40
9.0
 40
9.0
 40
9.0
 40
10.0
 40
10.0
 40
10.0
 40
11.0
 40
11.0
 40
11.0
 40
12.0
 40
12.0
 40
12.0
 40
13.0
 40
13.0
 40
13.0
 40
14.0
 40
14.0
 40
14.0
 40
15.0
 40
15.0
 40
15.0
 40
16.0
 40
16.0
 40
16.0
 40
17.0
 40
17.0
 40
17.0
 40
17.0
 10
100.4504378777679
 20
166.69157178364
 30
0.0
 10
101.9848844191641
 20
167.1313385124438
 30
0.0
 10
103.9637485713373
 20
166.7649523658846
 30
0.0
 10
103.9637485713373
 20
166.7649523658846
 30
0.0
 10
103.9637485713373
 20
166.7649523658846
 30
0.0
 10
103.0132460999156
 20
163.911205638077
 30
0.0
 10
103.0132460999156
 20
163.911205638077
 30
0.0
 10
103.0132460999156
 20
163.911205638077
 30
0.0
 10
101.0674548862189
 20
164.3601018759394
 30
0.0
 10
99.57090442016032
 20
163.1805004036133
 30
0.0
 10
98.40508333886608
 20
162.258247733807
 30
0.0
 10
97.65301849830304
 20
159.804132345923
 30
0.0
 10
97.3598406791005
 20
158.8699940888517
 30
0.0
 10
97.3598406791005
 20
158.8699940888517
 30
0.0
 10
96.07137411762282
 20
154.9119212747295
 30
0.0
 10
96.07137411762282
 20
154.9119212747295
 30
0.0
 10
96.07137411762282
 20
154.9119212747295
 30
0.0
 10
100.3012651448482
 20
154.9119212747295
 30
0.0
 10
100.3012651448482
 20
154.9119212747295
 30
0.0
 10
100.3012651448482
 20
154.9119212747295
 30
0.0
 10
99.64152892419852
 20
152.4199098115079
 30
0.0
 10
99.64152892419852
 20
152.4199098115079
 30
0.0
 10
99.64152892419852
 20
152.4199098115079
 30
0.0
 10
95.38097652692731
 20
152.4199098115079
 30
0.0
 10
95.38097652692731
 20
152.4199098115079
 30
0.0
 10
95.38097652692731
 20
152.4199098115079
 30
0.0
 10
87.75353009080013
 20
127.8027915271048
 30
0.0
 10
87.75353009080013
 20
127.8027915271048
 30
0.0
 10
87.75353009080013
 20
127.8027915271048
 30
0.0
 10
85.36538832498108
 20
127.8027915271048
 30
0.0
 10
85.36538832498108
 20
127.8027915271048
 30
0.0
 10
85.36538832498108
 20
127.8027915271048
 30
0.0
 10
93.00006946639998
 20
152.4199098115079
 30
0.0
 10
93.00006946639998
 20
152.4199098115079
 30
0.0
 10
93.00006946639998
 20
152.4199098115079
 30
0.0
 10
89.85297266450198
 20
152.4199098115079
 30
0.0
 10
89.85297266450198
 20
152.4199098115079
 30
0.0
 10
89.85297266450198
 20
152.4199098115079
 30
0.0
 10
90.51270888515164
 20
154.9119212747295
 30
0.0
 10
90.51270888515164
 20
154.9119212747295
 30
0.0
 10
90.51270888515164
 20
154.9119212747295
 30
0.0
 10
93.6904670570955
 20
154.9119212747295
 30
0.0
 10
93.6904670570955
 20
154.9119212747295
 30
0.0
 10
93.6904670570955
 20
154.9119212747295
 30
0.0
 10
94.81598049462158
 20
158.3616699146644
 30
0.0
 10
94.81598049462158
 20
158.3616699146644
 30
0.0
 10
95.7237637538445
 20
161.2605474231013
 30
0.0
 10
96.4968436907311
 20
162.8139420021662
 30
0.0
 10
97.15657991138076
 20
163.9844139654337
 30
0.0
 10
97.81183750494507
 20
165.1523021053827
 30
0.0
 10
99.1047826935081
 20
166.3084769129547
 30
0.0
 10
100.4504378777679
 20
166.69157178364
 30
0.0
  0
HATCH
  5
6A5
330
6A2
100
AcDbEntity
  8
LOGO
 62
   250
420
  2234388
100
AcDbHatch
 10
0.0
 20
0.0
 30
0.0
210
0.0
220
0.0
230
1.0
  2
SOLID
 70
     1
 71
     0
 91
        1
 92
        1
 93
        1
 72
     4
 94
        3
 73
     0
 74
     1
 95
       56
 96
       52
 40
0.0
 40
0.0
 40
0.0
 40
0.0
 40
1.0
 40
1.0
 40
1.0
 40
2.0
 40
2.0
 40
2.0
 40
3.0
 40
3.0
 40
3.0
 40
4.0
 40
4.0
 40
4.0
 40
5.0
 40
5.0
 40
5.0
 40
6.0
 40
6.0
 40
6.0
 40
7.0
 40
7.0
 40
7.0
 40
8.0
 40
8.0
 40
8.0
 40
9.0
 40
9.0
 40
9.0
 40
10.0
 40
10.0
 40
10.0
 40
11.0
 40
11.0
 40
11.0
 40
12.0
 40
12.0
 40
12.0
 40
13.0
 40
13.0
 40
13.0
 40
14.0
 40
14.0
 40
14.0
 40
15.0
 40
15.0
 40
15.0
 40
16.0
 40
16.0
 40
16.0
 40
17.0
 40
17.0
 40
17.0
 40
17.0
 10
100.4504378777679
 20
166.69157178364
 10
101.9848844191641
 20
167.1313385124438
 10
103.9637485713373
 20
166.7649523658846
 10
103.9637485713373
 20
166.7649523658846
 10
103.9637485713373
 20
166.7649523658846
 10
103.0132460999156
 20
163.911205638077
 10
103.0132460999156
 20
163.911205638077
 10
103.0132460999156
 20
163.911205638077
 10
101.0674548862189
 20
164.3601018759394
 10
99.57090442016032
 20
163.1805004036133
 10
98.40508333886608
 20
162.258247733807
 10
97.65301849830304
 20
159.804132345923
 10
97.3598406791005
 20
158.8699940888517
 10
97.3598406791005
 20
158.8699940888517
 10
96.07137411762282
 20
154.9119212747295
 10
96.07137411762282
 20
154.9119212747295
 10
96.07137411762282
 20
154.9119212747295
 10
100.3012651448482
 20
154.9119212747295
 10
100.3012651448482
 20
154.9119212747295
 10
100.3012651448482
 20
154.9119212747295
 10
99.64152892419852
 20
152.4199098115079
 10
99.64152892419852
 20
152.4199098115079
 10
99.64152892419852
 20
152.4199098115079
 10
95.38097652692731
 20
152.4199098115079
 10
95.38097652692731
 20
152.4199098115079
 10
95.38097652692731
 20
152.4199098115079
 10
87.75353009080013
 20
127.8027915271048
 10
87.75353009080013
 20
127.8027915271048
 10
87.75353009080013
 20
127.8027915271048
 10
85.36538832498108
 20
127.8027915271048
 10
85.36538832498108
 20
127.8027915271048
 10
85.36538832498108
 20
127.8027915271048
 10
93.00006946639998
 20
152.4199098115079
 10
93.00006946639998
 20
152.4199098115079
 10
93.00006946639998
 20
152.4199098115079
 10
89.85297266450198
 20
152.4199098115079
 10
89.85297266450198
 20
152.4199098115079
 10
89.85297266450198
 20
152.4199098115079
 10
90.51270888515164
 20
154.9119212747295
 10
90.51270888515164
 20
154.9119212747295
 10
90.51270888515164
 20
154.9119212747295
 10
93.6904670570955
 20
154.9119212747295
 10
93.6904670570955
 20
154.9119212747295
 10
93.6904670570955
 20
154.9119212747295
 10
94.81598049462158
 20
158.3616699146644
 10
94.81598049462158
 20
158.3616699146644
 10
95.7237637538445
 20
161.2605474231013
 10
96.4968436907311
 20
162.8139420021662
 10
97.15657991138076
 20
163.9844139654337
 10
97.81183750494507
 20
165.1523021053827
 10
99.1047826935081
 20
166.3084769129547
 10
100.4504378777679
 20
166.69157178364
 97
        0
 75
     2
 76
     1
 98
        0
  0
SPLINE
  5
6A6
330
6A2
100
AcDbEntity
  8
LOGO
370
     0
100
AcDbSpline
210
0.0
220
0.0
230
1.0
 70
    11
 71
     3
 72
    38
 73
    34
 74
     0
 42
0.000000001
 43
0.0000000001
 40
0.0
 40
0.0
 40
0.0
 40
0.0
 40
1.0
 40
1.0
 40
1.0
 40
2.0
 40
2.0
 40
2.0
 40
3.0
 40
3.0
 40
3.0
 40
4.0
 40
4.0
 40
4.0
 40
5.0
 40
5.0
 40
5.0
 40
6.0
 40
6.0
 40
6.0
 40
7.0
 40
7.0
 40
7.0
 40
8.0
 40
8.0
 40
8.0
 40
9.0
 40
9.0
 40
9.0
 40
10.0
 40
10.0
 40
10.0
 40
11.0
 40
11.0
 40
11.0
 40
11.0
 10
126.377554584636
 20
154.8151140277308
 30
0.0
 10
126.377554584636
 20
154.8151140277308
 30
0.0
 10
128.8311532078563
 20
154.8151140277308
 30
0.0
 10
128.8311532078563
 20
154.8151140277308
 30
0.0
 10
128.8311532078563
 20
154.8151140277308
 30
0.0
 10
127.7345785914971
 20
151.3062819612468
 30
0.0
 10
127.7345785914971
 20
151.3062819612468
 30
0.0
 10
128.571392836906
 20
152.2922689395754
 30
0.0
 10
129.8860421413442
 20
153.604506675583
 30
0.0
 10
131.0163787157314
 20
154.2664822097754
 30
0.0
 10
132.7044766171327
 20
155.2500576196734
 30
0.0
 10
133.6642808525008
 20
155.3847609420097
 30
0.0
 10
134.7284715499351
 20
155.3565111403944
 30
0.0
 10
134.7284715499351
 20
155.3565111403944
 30
0.0
 10
133.6877075172549
 20
152.0345756272799
 30
0.0
 10
133.6877075172549
 20
152.0345756272799
 30
0.0
 10
133.011434827367
 20
152.3184516825359
 30
0.0
 10
130.930940291334
 20
151.7768823149844
 30
0.0
 10
129.739280976855
 20
150.9162968950455
 30
0.0
 10
128.66613302525
 20
150.1454562717016
 30
0.0
 10
127.9192358313239
 20
149.4857200510519
 30
0.0
 10
127.0393578639405
 20
147.8282835196966
 30
0.0
 10
126.164647543194
 20
146.1699857139017
 30
0.0
 10
125.4742499524985
 20
143.5262176944419
 30
0.0
 10
124.2822461282437
 20
139.6959580071401
 30
0.0
 10
124.2822461282437
 20
139.6959580071401
 30
0.0
 10
120.5753209406769
 20
127.8027915271048
 30
0.0
 10
120.5753209406769
 20
127.8027915271048
 30
0.0
 10
120.5753209406769
 20
127.8027915271048
 30
0.0
 10
118.1964809388044
 20
127.8027915271048
 30
0.0
 10
118.1964809388044
 20
127.8027915271048
 30
0.0
 10
118.1964809388044
 20
127.8027915271048
 30
0.0
 10
126.377554584636
 20
154.8151140277308
 30
0.0
 10
126.377554584636
 20
154.8151140277308
 30
0.0
  0
HATCH
  5
6A7
330
6A2
100
AcDbEntity
  8
LOGO
 62
   250
420
  2234388
100
AcDbHatch
 10
0.0
 20
0.0
 30
0.0
210
0.0
220
0.0
230
1.0
  2
SOLID
 70
     1
 71
     0
 91
        1
 92
        1
 93
        1
 72
     4
 94
        3
 73
     0
 74
     1
 95
       38
 96
       34
 40
0.0
 40
0.0
 40
0.0
 40
0.0
 40
1.0
 40
1.0
 40
1.0
 40
2.0
 40
2.0
 40
2.0
 40
3.0
 40
3.0
 40
3.0
 40
4.0
 40
4.0
 40
4.0
 40
5.0
 40
5.0
 40
5.0
 40
6.0
 40
6.0
 40
6.0
 40
7.0
 40
7.0
 40
7.0
 40
8.0
 40
8.0
 40
8.0
 40
9.0
 40
9.0
 40
9.0
 40
10.0
 40
10.0
 40
10.0
 40
11.0
 40
11.0
 40
11.0
 40
11.0
 10
126.377554584636
 20
154.8151140277308
 10
126.377554584636
 20
154.8151140277308
 10
128.8311532078563
 20
154.8151140277308
 10
128.8311532078563
 20
154.8151140277308
 10
128.8311532078563
 20
154.8151140277308
 10
127.7345785914971
 20
151.3062819612468
 10
127.7345785914971
 20
151.3062819612468
 10
128.571392836906
 20
152.2922689395754
 10
129.8860421413442
 20
153.604506675583
 10
131.0163787157314
 20
154.2664822097754
 10
132.7044766171327
 20
155.2500576196734
 10
133.6642808525008
 20
155.3847609420097
 10
134.7284715499351
 20
155.3565111403944
 10
134.7284715499351
 20
155.3565111403944
 10
133.6877075172549
 20
152.0345756272799
 10
133.6877075172549
 20
152.0345756272799
 10
133.011434827367
 20
152.3184516825359
 10
130.930940291334
 20
151.7768823149844
 10
129.739280976855
 20
150.9162968950455
 10
128.66613302525
 20
150.1454562717016
 10
127.9192358313239
 20
149.4857200510519
 10
127.0393578639405
 20
147.8282835196966
 10
126.164647543194
 20
146.1699857139017
 10
125.4742499524985
 20
143.5262176944419
 10
124.2822461282437
 20
139.6959580071401
 10
124.2822461282437
 20
139.6959580071401
 10
120.5753209406769
 20
127.8027915271048
 10
120.5753209406769
 20
127.8027915271048
 10
120.5753209406769
 20
127.8027915271048
 10
118.1964809388044
 20
127.8027915271048
 10
118.1964809388044
 20
127.8027915271048
 10
118.1964809388044
 20
127.8027915271048
 10
126.377554584636
 20
154.8151140277308
 10
126.377554584636
 20
154.8151140277308
 97
        0
 75
     2
 76
     1
 98
        0
  0
SPLINE
  5
6A8
330
6A2
100
AcDbEntity
  8
LOGO
370
     0
100
AcDbSpline
210
0.0
220
0.0
230
1.0
 70
    11
 71
     3
 72
   104
 73
   100
 74
     0
 42
0.000000001
 43
0.0000000001
 40
0.0
 40
0.0
 40
0.0
 40
0.0
 40
1.0
 40
1.0
 40
1.0
 40
2.0
 40
2.0
 40
2.0
 40
3.0
 40
3.0
 40
3.0
 40
4.0
 40
4.0
 40
4.0
 40
5.0
 40
5.0
 40
5.0
 40
6.0
 40
6.0
 40
6.0
 40
7.0
 40
7.0
 40
7.0
 40
8.0
 40
8.0
 40
8.0
 40
9.0
 40
9.0
 40
9.0
 40
10.0
 40
10.0
 40
10.0
 40
11.0
 40
11.0
 40
11.0
 40
12.0
 40
12.0
 40
12.0
 40
13.0
 40
13.0
 40
13.0
 40
14.0
 40
14.0
 40
14.0
 40
15.0
 40
15.0
 40
15.0
 40
16.0
 40
16.0
 40
16.0
 40
17.0
 40
17.0
 40
17.0
 40
18.0
 40
18.0
 40
18.0
 40
19.0
 40
19.0
 40
19.0
 40
20.0
 40
20.0
 40
20.0
 40
21.0
 40
21.0
 40
21.0
 40
22.0
 40
22.0
 40
22.0
 40
23.0
 40
23.0
 40
23.0
 40
24.0
 40
24.0
 40
24.0
 40
25.0
 40
25.0
 40
25.0
 40
26.0
 40
26.0
 40
26.0
 40
27.0
 40
27.0
 40
27.0
 40
28.0
 40
28.0
 40
28.0
 40
29.0
 40
29.0
 40
29.0
 40
30.0
 40
30.0
 40
30.0
 40
31.0
 40
31.0
 40
31.0
 40
32.0
 40
32.0
 40
32.0
 40
33.0
 40
33.0
 40
33.0
 40
33.0
 10
139.8926730891197
 20
154.8294111834263
 30
0.0
 10
139.8926730891197
 20
154.8294111834263
 30
0.0
 10
142.0344903652445
 20
154.8294111834263
 30
0.0
 10
142.0344903652445
 20
154.8294111834263
 30
0.0
 10
142.0344903652445
 20
154.8294111834263
 30
0.0
 10
140.9516961399171
 20
151.3157559800812
 30
0.0
 10
140.9516961399171
 20
151.3157559800812
 30
0.0
 10
141.8928968473923
 20
152.7887075264977
 30
0.0
 10
142.7341897198865
 20
153.4484437471474
 30
0.0
 10
143.8552245303272
 20
154.2926649527359
 30
0.0
 10
144.9803934580775
 20
155.1296514530327
 30
0.0
 10
146.3139908001845
 20
155.3044901642492
 30
0.0
 10
147.241066606852
 20
155.3044901642492
 30
0.0
 10
148.3855280820469
 20
155.3044901642492
 30
0.0
 10
149.4969166187653
 20
155.0752189084569
 30
0.0
 10
150.0784491203092
 20
153.8172414621372
 30
0.0
 10
150.5228667310863
 20
152.833838307127
 30
0.0
 10
150.5414702589793
 20
152.7201500811143
 30
0.0
 10
150.4140016419347
 20
150.7765981809602
 30
0.0
 10
151.5818897818837
 20
152.7699317437168
 30
0.0
 10
152.4424752018226
 20
153.6256940267945
 30
0.0
 10
153.9038856707499
 20
154.4507949398263
 30
0.0
 10
155.4455669174378
 20
155.3044901642492
 30
0.0
 10
156.339225275853
 20
155.3659851592288
 30
0.0
 10
157.3748216618963
 20
155.2147453676543
 30
0.0
 10
158.911679771723
 20
154.9877134254046
 30
0.0
 10
159.8859534176746
 20
154.4390816074493
 30
0.0
 10
160.3965169054045
 20
152.7816450760939
 30
0.0
 10
160.9070803931344
 20
151.1219692311958
 30
0.0
 10
160.6328506116007
 20
150.2303779314354
 30
0.0
 10
159.9992971339115
 20
147.597634224801
 30
0.0
 10
159.7105979417943
 20
146.4014962832367
 30
0.0
 10
159.2947746424084
 20
144.9400858143094
 30
0.0
 10
158.7463150793409
 20
143.2092687007094
 30
0.0
 10
158.7463150793409
 20
143.2092687007094
 30
0.0
 10
153.9038856707499
 20
127.8027915271048
 30
0.0
 10
153.9038856707499
 20
127.8027915271048
 30
0.0
 10
153.9038856707499
 20
127.8027915271048
 30
0.0
 10
151.3882752878863
 20
127.8027915271048
 30
0.0
 10
151.3882752878863
 20
127.8027915271048
 30
0.0
 10
151.3882752878863
 20
127.8027915271048
 30
0.0
 10
155.6250565106276
 20
141.2751908193897
 30
0.0
 10
155.6250565106276
 20
141.2751908193897
 30
0.0
 10
156.5094131050963
 20
144.0936252951782
 30
0.0
 10
157.109893644309
 20
146.1506931664571
 30
0.0
 10
157.4220195011804
 20
147.4415712963654
 30
0.0
 10
157.8095929989511
 20
149.0530157726519
 30
0.0
 10
157.9656559273867
 20
149.5826995529385
 30
0.0
 10
157.7816877071116
 20
150.7529992613181
 30
0.0
 10
157.6111553680925
 20
151.8430281919372
 30
0.0
 10
157.0582171779396
 20
152.5547853887321
 30
0.0
 10
156.1170164704645
 20
152.5547853887321
 30
0.0
 10
155.1096698860365
 20
152.5547853887321
 30
0.0
 10
154.2962823053817
 20
152.4412694176073
 30
0.0
 10
153.156643967048
 20
151.2945686288697
 30
0.0
 10
152.0170056287143
 20
150.1476955852443
 30
0.0
 10
151.076149431015
 20
148.7930831468137
 30
0.0
 10
150.3337308641742
 20
147.2290087646991
 30
0.0
 10
149.5957909244188
 20
145.6683794803425
 30
0.0
 10
148.8530278478023
 20
143.6822806228776
 30
0.0
 10
148.0964843801539
 20
141.2751908193897
 30
0.0
 10
148.0964843801539
 20
141.2751908193897
 30
0.0
 10
143.8552245303272
 20
127.8027915271048
 30
0.0
 10
143.8552245303272
 20
127.8027915271048
 30
0.0
 10
143.8552245303272
 20
127.8027915271048
 30
0.0
 10
141.486030802177
 20
127.8027915271048
 30
0.0
 10
141.486030802177
 20
127.8027915271048
 30
0.0
 10
141.486030802177
 20
127.8027915271048
 30
0.0
 10
146.3329388378533
 20
143.2092687007094
 30
0.0
 10
146.3329388378533
 20
143.2092687007094
 30
0.0
 10
146.8483254624444
 20
144.8408669988801
 30
0.0
 10
147.2314203331297
 20
146.1837661049335
 30
0.0
 10
147.4867020769946
 20
147.224185627838
 30
0.0
 10
147.9169947869641
 20
149.0197705792876
 30
0.0
 10
148.0306830129768
 20
150.2400242051577
 30
0.0
 10
147.709255392159
 20
151.3157559800812
 30
0.0
 10
147.3874832615654
 20
152.3916600098926
 30
0.0
 10
146.8245542879144
 20
152.6683013598569
 30
0.0
 10
145.8840425999909
 20
152.6683013598569
 30
0.0
 10
145.0989048209514
 20
152.6683013598569
 30
0.0
 10
144.3282364524954
 20
152.3275811915945
 30
0.0
 10
143.4531816219731
 20
151.6538923250251
 30
0.0
 10
142.34627171234
 20
150.8074318058939
 30
0.0
 10
141.901854101563
 20
150.1097995099067
 30
0.0
 10
141.3578731655808
 20
149.289521733736
 30
0.0
 10
140.6299240093235
 20
148.192602607601
 30
0.0
 10
140.2850697237515
 20
147.455696197173
 30
0.0
 10
139.6652966370942
 20
145.8385673095858
 30
0.0
 10
139.0506911970739
 20
144.2214384219986
 30
0.0
 10
138.463991048893
 20
142.3252566160164
 30
0.0
 10
138.0571250036777
 20
141.0154304484394
 30
0.0
 10
138.0571250036777
 20
141.0154304484394
 30
0.0
 10
133.9009590684727
 20
127.8027915271048
 30
0.0
 10
133.9009590684727
 20
127.8027915271048
 30
0.0
 10
133.9009590684727
 20
127.8027915271048
 30
0.0
 10
131.4180771143097
 20
127.8027915271048
 30
0.0
 10
131.4180771143097
 20
127.8027915271048
 30
0.0
 10
131.4180771143097
 20
127.8027915271048
 30
0.0
 10
139.8926730891197
 20
154.8294111834263
 30
0.0
 10
139.8926730891197
 20
154.8294111834263
 30
0.0
  0
HATCH
  5
6A9
330
6A2
100
AcDbEntity
  8
LOGO
 62
   250
420
  2234388
100
AcDbHatch
 10
0.0
 20
0.0
 30
0.0
210
0.0
220
0.0
230
1.0
  2
SOLID
 70
     1
 71
     0
 91
        1
 92
        1
 93
        1
 72
     4
 94
        3
 73
     0
 74
     1
 95
      104
 96
      100
 40
0.0
 40
0.0
 40
0.0
 40
0.0
 40
1.0
 40
1.0
 40
1.0
 40
2.0
 40
2.0
 40
2.0
 40
3.0
 40
3.0
 40
3.0
 40
4.0
 40
4.0
 40
4.0
 40
5.0
 40
5.0
 40
5.0
 40
6.0
 40
6.0
 40
6.0
 40
7.0
 40
7.0
 40
7.0
 40
8.0
 40
8.0
 40
8.0
 40
9.0
 40
9.0
 40
9.0
 40
10.0
 40
10.0
 40
10.0
 40
11.0
 40
11.0
 40
11.0
 40
12.0
 40
12.0
 40
12.0
 40
13.0
 40
13.0
 40
13.0
 40
14.0
 40
14.0
 40
14.0
 40
15.0
 40
15.0
 40
15.0
 40
16.0
 40
16.0
 40
16.0
 40
17.0
 40
17.0
 40
17.0
 40
18.0
 40
18.0
 40
18.0
 40
19.0
 40
19.0
 40
19.0
 40
20.0
 40
20.0
 40
20.0
 40
21.0
 40
21.0
 40
21.0
 40
22.0
 40
22.0
 40
22.0
 40
23.0
 40
23.0
 40
23.0
 40
24.0
 40
24.0
 40
24.0
 40
25.0
 40
25.0
 40
25.0
 40
26.0
 40
26.0
 40
26.0
 40
27.0
 40
27.0
 40
27.0
 40
28.0
 40
28.0
 40
28.0
 40
29.0
 40
29.0
 40
29.0
 40
30.0
 40
30.0
 40
30.0
 40
31.0
 40
31.0
 40
31.0
 40
32.0
 40
32.0
 40
32.0
 40
33.0
 40
33.0
 40
33.0
 40
33.0
 10
139.8926730891197
 20
154.8294111834263
 10
139.8926730891197
 20
154.8294111834263
 10
142.0344903652445
 20
154.8294111834263
 10
142.0344903652445
 20
154.8294111834263
 10
142.0344903652445
 20
154.8294111834263
 10
140.9516961399171
 20
151.3157559800812
 10
140.9516961399171
 20
151.3157559800812
 10
141.8928968473923
 20
152.7887075264977
 10
142.7341897198865
 20
153.4484437471474
 10
143.8552245303272
 20
154.2926649527359
 10
144.9803934580775
 20
155.1296514530327
 10
146.3139908001845
 20
155.3044901642492
 10
147.241066606852
 20
155.3044901642492
 10
148.3855280820469
 20
155.3044901642492
 10
149.4969166187653
 20
155.0752189084569
 10
150.0784491203092
 20
153.8172414621372
 10
150.5228667310863
 20
152.833838307127
 10
150.5414702589793
 20
152.7201500811143
 10
150.4140016419347
 20
150.7765981809602
 10
151.5818897818837
 20
152.7699317437168
 10
152.4424752018226
 20
153.6256940267945
 10
153.9038856707499
 20
154.4507949398263
 10
155.4455669174378
 20
155.3044901642492
 10
156.339225275853
 20
155.3659851592288
 10
157.3748216618963
 20
155.2147453676543
 10
158.911679771723
 20
154.9877134254046
 10
159.8859534176746
 20
154.4390816074493
 10
160.3965169054045
 20
152.7816450760939
 10
160.9070803931344
 20
151.1219692311958
 10
160.6328506116007
 20
150.2303779314354
 10
159.9992971339115
 20
147.597634224801
 10
159.7105979417943
 20
146.4014962832367
 10
159.2947746424084
 20
144.9400858143094
 10
158.7463150793409
 20
143.2092687007094
 10
158.7463150793409
 20
143.2092687007094
 10
153.9038856707499
 20
127.8027915271048
 10
153.9038856707499
 20
127.8027915271048
 10
153.9038856707499
 20
127.8027915271048
 10
151.3882752878863
 20
127.8027915271048
 10
151.3882752878863
 20
127.8027915271048
 10
151.3882752878863
 20
127.8027915271048
 10
155.6250565106276
 20
141.2751908193897
 10
155.6250565106276
 20
141.2751908193897
 10
156.5094131050963
 20
144.0936252951782
 10
157.109893644309
 20
146.1506931664571
 10
157.4220195011804
 20
147.4415712963654
 10
157.8095929989511
 20
149.0530157726519
 10
157.9656559273867
 20
149.5826995529385
 10
157.7816877071116
 20
150.7529992613181
 10
157.6111553680925
 20
151.8430281919372
 10
157.0582171779396
 20
152.5547853887321
 10
156.1170164704645
 20
152.5547853887321
 10
155.1096698860365
 20
152.5547853887321
 10
154.2962823053817
 20
152.4412694176073
 10
153.156643967048
 20
151.2945686288697
 10
152.0170056287143
 20
150.1476955852443
 10
151.076149431015
 20
148.7930831468137
 10
150.3337308641742
 20
147.2290087646991
 10
149.5957909244188
 20
145.6683794803425
 10
148.8530278478023
 20
143.6822806228776
 10
148.0964843801539
 20
141.2751908193897
 10
148.0964843801539
 20
141.2751908193897
 10
143.8552245303272
 20
127.8027915271048
 10
143.8552245303272
 20
127.8027915271048
 10
143.8552245303272
 20
127.8027915271048
 10
141.486030802177
 20
127.8027915271048
 10
141.486030802177
 20
127.8027915271048
 10
141.486030802177
 20
127.8027915271048
 10
146.3329388378533
 20
143.2092687007094
 10
146.3329388378533
 20
143.2092687007094
 10
146.8483254624444
 20
144.8408669988801
 10
147.2314203331297
 20
146.1837661049335
 10
147.4867020769946
 20
147.224185627838
 10
147.9169947869641
 20
149.0197705792876
 10
148.0306830129768
 20
150.2400242051577
 10
147.709255392159
 20
151.3157559800812
 10
147.3874832615654
 20
152.3916600098926
 10
146.8245542879144
 20
152.6683013598569
 10
145.8840425999909
 20
152.6683013598569
 10
145.0989048209514
 20
152.6683013598569
 10
144.3282364524954
 20
152.3275811915945
 10
143.4531816219731
 20
151.6538923250251
 10
142.34627171234
 20
150.8074318058939
 10
141.901854101563
 20
150.1097995099067
 10
141.3578731655808
 20
149.289521733736
 10
140.6299240093235
 20
148.192602607601
 10
140.2850697237515
 20
147.455696197173
 10
139.6652966370942
 20
145.8385673095858
 10
139.0506911970739
 20
144.2214384219986
 10
138.463991048893
 20
142.3252566160164
 10
138.0571250036777
 20
141.0154304484394
 10
138.0571250036777
 20
141.0154304484394
 10
133.9009590684727
 20
127.8027915271048
 10
133.9009590684727
 20
127.8027915271048
 10
133.9009590684727
 20
127.8027915271048
 10
131.4180771143097
 20
127.8027915271048
 10
131.4180771143097
 20
127.8027915271048
 10
131.4180771143097
 20
127.8027915271048
 10
139.8926730891197
 20
154.8294111834263
 10
139.8926730891197
 20
154.8294111834263
 97
        0
 75
     2
 76
     1
 98
        0
  0
SPLINE
  5
6AA
330
6A2
100
AcDbEntity
  8
LOGO
370
     0
100
AcDbSpline
210
0.0
220
0.0
230
1.0
 70
    11
 71
     3
 72
    29
 73
    25
 74
     0
 42
0.000000001
 43
0.0000000001
 40
0.0
 40
0.0
 40
0.0
 40
0.0
 40
1.0
 40
1.0
 40
1.0
 40
2.0
 40
2.0
 40
2.0
 40
3.0
 40
3.0
 40
3.0
 40
4.0
 40
4.0
 40
4.0
 40
5.0
 40
5.0
 40
5.0
 40
6.0
 40
6.0
 40
6.0
 40
7.0
 40
7.0
 40
7.0
 40
8.0
 40
8.0
 40
8.0
 40
8.0
 10
101.6420971922469
 20
132.8388354296931
 30
0.0
 10
101.630039350094
 20
134.7164137077823
 30
0.0
 10
102.2236296937908
 20
138.0598810818841
 30
0.0
 10
103.7487744712405
 20
142.5378191476827
 30
0.0
 10
105.819967243327
 20
148.5896501242061
 30
0.0
 10
107.0602024361932
 20
150.8074318058939
 30
0.0
 10
108.1522984254671
 20
151.8833358357054
 30
0.0
 10
109.741177511439
 20
153.4532668840085
 30
0.0
 10
111.8740375333931
 20
153.5290590346837
 30
0.0
 10
112.5075910110823
 20
153.4532668840085
 30
0.0
 10
113.4012493694975
 20
153.3490526768302
 30
0.0
 10
114.6683563248758
 20
152.7580461564518
 30
0.0
 10
114.7493161221879
 20
150.7838328862519
 30
0.0
 10
114.8106388622796
 20
149.0909118479895
 30
0.0
 10
114.3186789024427
 20
145.9191825971221
 30
0.0
 10
112.6164561002338
 20
140.9489400617108
 30
0.0
 10
110.6444821435766
 20
135.1746117095912
 30
0.0
 10
109.4669477299053
 20
132.8960240524753
 30
0.0
 10
108.5212683953448
 20
131.9072809959403
 30
0.0
 10
106.7346406980658
 20
130.0538184021569
 30
0.0
 10
104.8222669326213
 20
130.2336525051225
 30
0.0
 10
104.5408024457958
 20
130.2336525051225
 30
0.0
 10
104.1721769856939
 20
130.2336525051225
 30
0.0
 10
101.6465758193322
 20
130.6305277668397
 30
0.0
 10
101.6420971922469
 20
132.8388354296931
 30
0.0
  0
SPLINE
  5
6AB
330
6A2
100
AcDbEntity
  8
LOGO
370
     0
100
AcDbSpline
210
0.0
220
0.0
230
1.0
 70
    11
 71
     3
 72
    32
 73
    28
 74
     0
 42
0.000000001
 43
0.0000000001
 40
0.0
 40
0.0
 40
0.0
 40
0.0
 40
1.0
 40
1.0
 40
1.0
 40
2.0
 40
2.0
 40
2.0
 40
3.0
 40
3.0
 40
3.0
 40
4.0
 40
4.0
 40
4.0
 40
5.0
 40
5.0
 40
5.0
 40
6.0
 40
6.0
 40
6.0
 40
7.0
 40
7.0
 40
7.0
 40
8.0
 40
8.0
 40
8.0
 40
9.0
 40
9.0
 40
9.0
 40
9.0
 10
106.2595617172429
 20
153.4105476718098
 30
0.0
 10
104.8222669326213
 20
151.5474388043041
 30
0.0
 10
103.7177685914188
 20
149.8758773721411
 30
0.0
 10
101.9232171692965
 20
144.6141795664062
 30
0.0
 10
100.2754269116635
 20
139.7999999594306
 30
0.0
 10
99.22777268346732
 20
136.3052927937542
 30
0.0
 10
99.06964269637689
 20
132.039572749846
 30
0.0
 10
98.94665270641765
 20
128.8673267343149
 30
0.0
 10
100.8807305877373
 20
127.8027915271048
 30
0.0
 10
103.7129454545577
 20
127.8027915271048
 30
0.0
 10
104.9352661390825
 20
127.8027915271048
 30
0.0
 10
108.0151835347002
 20
127.8827177950895
 30
0.0
 10
110.2045431598849
 20
130.5926316915021
 30
0.0
 10
111.7417457794874
 20
132.4984597712065
 30
0.0
 10
113.155269389579
 20
134.475256864725
 30
0.0
 10
115.0562743324223
 20
140.9489400617108
 30
0.0
 10
116.6361961642235
 20
146.3680788349845
 30
0.0
 10
117.7282921534974
 20
149.8639917848761
 30
0.0
 10
117.6480213757369
 20
151.8595646611754
 30
0.0
 10
117.6480213757369
 20
151.8595646611754
 30
0.0
 10
117.6480213757369
 20
151.8595646611754
 30
0.0
 10
117.6480213757369
 20
151.8595646611754
 30
0.0
 10
117.13229024137
 20
155.18150017429
 30
0.0
 10
114.7162431837115
 20
155.886194920681
 30
0.0
 10
113.3351034925446
 20
155.886194920681
 30
0.0
 10
111.9829026225447
 20
155.886194920681
 30
0.0
 10
108.3414342923792
 20
156.1251124501957
 30
0.0
 10
106.2595617172429
 20
153.4105476718098
 30
0.0
  0
HATCH
  5
6AC
330
6A2
100
AcDbEntity
  8
LOGO
 62
   250
420
  2234388
100
AcDbHatch
 10
0.0
 20
0.0
 30
0.0
210
0.0
220
0.0
230
1.0
  2
SOLID
 70
     1
 71
     0
 91
        2
 92
        1
 93
        1
 72
     4
 94
        3
 73
     0
 74
     1
 95
       29
 96
       25
 40
0.0
 40
0.0
 40
0.0
 40
0.0
 40
1.0
 40
1.0
 40
1.0
 40
2.0
 40
2.0
 40
2.0
 40
3.0
 40
3.0
 40
3.0
 40
4.0
 40
4.0
 40
4.0
 40
5.0
 40
5.0
 40
5.0
 40
6.0
 40
6.0
 40
6.0
 40
7.0
 40
7.0
 40
7.0
 40
8.0
 40
8.0
 40
8.0
 40
8.0
 10
101.6420971922469
 20
132.8388354296931
 10
101.630039350094
 20
134.7164137077823
 10
102.2236296937908
 20
138.0598810818841
 10
103.7487744712405
 20
142.5378191476827
 10
105.819967243327
 20
148.5896501242061
 10
107.0602024361932
 20
150.8074318058939
 10
108.1522984254671
 20
151.8833358357054
 10
109.741177511439
 20
153.4532668840085
 10
111.8740375333931
 20
153.5290590346837
 10
112.5075910110823
 20
153.4532668840085
 10
113.4012493694975
 20
153.3490526768302
 10
114.6683563248758
 20
152.7580461564518
 10
114.7493161221879
 20
150.7838328862519
 10
114.8106388622796
 20
149.0909118479895
 10
114.3186789024427
 20
145.9191825971221
 10
112.6164561002338
 20
140.9489400617108
 10
110.6444821435766
 20
135.1746117095912
 10
109.4669477299053
 20
132.8960240524753
 10
108.5212683953448
 20
131.9072809959403
 10
106.7346406980658
 20
130.0538184021569
 10
104.8222669326213
 20
130.2336525051225
 10
104.5408024457958
 20
130.2336525051225
 10
104.1721769856939
 20
130.2336525051225
 10
101.6465758193322
 20
130.6305277668397
 10
101.6420971922469
 20
132.8388354296931
 97
        0
 92
        1
 93
        1
 72
     4
 94
        3
 73
     0
 74
     1
 95
       32
 96
       28
 40
0.0
 40
0.0
 40
0.0
 40
0.0
 40
1.0
 40
1.0
 40
1.0
 40
2.0
 40
2.0
 40
2.0
 40
3.0
 40
3.0
 40
3.0
 40
4.0
 40
4.0
 40
4.0
 40
5.0
 40
5.0
 40
5.0
 40
6.0
 40
6.0
 40
6.0
 40
7.0
 40
7.0
 40
7.0
 40
8.0
 40
8.0
 40
8.0
 40
9.0
 40
9.0
 40
9.0
 40
9.0
 10
106.2595617172429
 20
153.4105476718098
 10
104.8222669326213
 20
151.5474388043041
 10
103.7177685914188
 20
149.8758773721411
 10
101.9232171692965
 20
144.6141795664062
 10
100.2754269116635
 20
139.7999999594306
 10
99.22777268346732
 20
136.3052927937542
 10
99.06964269637689
 20
132.039572749846
 10
98.94665270641765
 20
128.8673267343149
 10
100.8807305877373
 20
127.8027915271048
 10
103.7129454545577
 20
127.8027915271048
 10
104.9352661390825
 20
127.8027915271048
 10
108.0151835347002
 20
127.8827177950895
 10
110.2045431598849
 20
130.5926316915021
 10
111.7417457794874
 20
132.4984597712065
 10
113.155269389579
 20
134.475256864725
 10
115.0562743324223
 20
140.9489400617108
 10
116.6361961642235
 20
146.3680788349845
 10
117.7282921534974
 20
149.8639917848761
 10
117.6480213757369
 20
151.8595646611754
 10
117.6480213757369
 20
151.8595646611754
 10
117.6480213757369
 20
151.8595646611754
 10
117.6480213757369
 20
151.8595646611754
 10
117.13229024137
 20
155.18150017429
 10
114.7162431837115
 20
155.886194920681
 10
113.3351034925446
 20
155.886194920681
 10
111.9829026225447
 20
155.886194920681
 10
108.3414342923792
 20
156.1251124501957
 10
106.2595617172429
 20
153.4105476718098
 97
        0
 75
     2
 76
     1
 98
        0
  0
ENDBLK
  5
6AD
330
6A2
100
AcDbEntity
  8
0
100
AcDbBlockEnd
  0
BLOCK
  5
37DE
330
37DD
100
AcDbEntity
  8
0
100
AcDbBlockBegin
  2
*D6
 70
     1
 10
0.0
 20
0.0
 30
0.0
  3
*D6
  1
*D122
  0
LINE
  5
37E0
330
37DD
100
AcDbEntity
  8
DIM
 62
     0
370
    -2
100
AcDbLine
 10
277.5119992744675
 20
638.3857589887427
 30
0.0
 11
227.7498394776749
 21
638.3857589887427
 31
0.0
  0
LINE
  5
37E1
330
37DD
100
AcDbEntity
  8
DIM
 62
     0
370
    -2
100
AcDbLine
 10
277.5119992744675
 20
578.3857589887427
 30
0.0
 11
227.7498394776749
 21
578.3857589887427
 31
0.0
  0
LINE
  5
37E2
330
37DD
100
AcDbEntity
  8
DIM
 62
     0
370
    -2
100
AcDbLine
 10
227.7498394776749
 20
635.3857589887427
 30
0.0
 11
227.7498394776749
 21
581.3857589887427
 31
0.0
  0
INSERT
  5
37E3
330
37DD
100
AcDbEntity
  8
DIM
 62
     0
370
    -2
100
AcDbBlockReference
  2
_DOT
 10
227.7498394776749
 20
638.3857589887427
 30
0.0
 41
3.0
 42
3.0
 43
3.0
 50
90.0
  0
INSERT
  5
37E4
330
37DD
100
AcDbEntity
  8
DIM
 62
     0
370
    -2
100
AcDbBlockReference
  2
_DOT
 10
227.7498394776749
 20
578.3857589887427
 30
0.0
 41
3.0
 42
3.0
 43
3.0
 50
270.0
  0
MTEXT
  5
37E5
330
37DD
100
AcDbEntity
  8
DIM
 62
     0
 48
0.05
100
AcDbMText
 10
211.7498394776749
 20
608.3857596593427
 30
0.0
 40
12.0
 41
0.0
 46
0.0
 71
     5
 72
     1
  1
\A1;\A1;60
  7
ＭＳ ゴシック
 11
0.0
 21
1.0
 31
0.0
 73
     1
 44
1.0
  0
POINT
  5
37E6
330
37DD
100
AcDbEntity
  8
Defpoints
 62
     0
100
AcDbPoint
 10
287.5119992744675
 20
638.3857589887427
 30
0.0
  0
POINT
  5
37E7
330
37DD
100
AcDbEntity
  8
Defpoints
 62
     0
100
AcDbPoint
 10
287.5119992744675
 20
578.3857589887427
 30
0.0
  0
POINT
  5
37E8
330
37DD
100
AcDbEntity
  8
Defpoints
 62
     0
100
AcDbPoint
 10
227.7498394776749
 20
578.3857589887427
 30
0.0
  0
ENDBLK
  5
37DF
330
37DD
100
AcDbEntity
  8
0
100
AcDbBlockEnd
  0
BLOCK
  5
37EB
330
37EA
100
AcDbEntity
  8
0
100
AcDbBlockBegin
  2
*D7
 70
     1
 10
0.0
 20
0.0
 30
0.0
  3
*D7
  1
*D123
  0
LINE
  5
37ED
330
37EA
100
AcDbEntity
  8
DIM
 62
     0
370
    -2
100
AcDbLine
 10
648.7303162649872
 20
548.1504586333429
 30
0.0
 11
648.7303162649872
 21
520.8097989851428
 31
0.0
  0
LINE
  5
37EE
330
37EA
100
AcDbEntity
  8
DIM
 62
     0
370
    -2
100
AcDbLine
 10
825.6061706879872
 20
552.3149110455429
 30
0.0
 11
825.6061706879872
 21
520.8097989851428
 31
0.0
  0
LINE
  5
37EF
330
37EA
100
AcDbEntity
  8
DIM
 62
     0
370
    -2
100
AcDbLine
 10
651.7303162649872
 20
520.8097989851428
 30
0.0
 11
822.6061706879872
 21
520.8097989851428
 31
0.0
  0
INSERT
  5
37F0
330
37EA
100
AcDbEntity
  8
DIM
 62
     0
370
    -2
100
AcDbBlockReference
  2
_DOT
 10
648.7303162649872
 20
520.8097989851428
 30
0.0
 41
3.0
 42
3.0
 43
3.0
 50
180.0
  0
INSERT
  5
37F1
330
37EA
100
AcDbEntity
  8
DIM
 62
     0
370
    -2
100
AcDbBlockReference
  2
_DOT
 10
825.6061706879872
 20
520.8097989851428
 30
0.0
 41
3.0
 42
3.0
 43
3.0
  0
MTEXT
  5
37F2
330
37EA
100
AcDbEntity
  8
DIM
 62
     0
 48
0.05
100
AcDbMText
 10
737.1682460143874
 20
536.8097989851428
 30
0.0
 40
12.0
 41
0.0
 46
0.0
 71
     5
 72
     1
  1
\A1;\A1;177
  7
ＭＳ ゴシック
 73
     1
 44
1.0
  0
POINT
  5
37F3
330
37EA
100
AcDbEntity
  8
Defpoints
 62
     0
100
AcDbPoint
 10
648.7303162649872
 20
558.1504586333429
 30
0.0
  0
POINT
  5
37F4
330
37EA
100
AcDbEntity
  8
Defpoints
 62
     0
100
AcDbPoint
 10
825.6061706879872
 20
562.3149110455429
 30
0.0
  0
POINT
  5
37F5
330
37EA
100
AcDbEntity
  8
Defpoints
 62
     0
100
AcDbPoint
 10
825.6061706879872
 20
520.8097989851428
 30
0.0
  0
ENDBLK
  5
37EC
330
37EA
100
AcDbEntity
  8
0
100
AcDbBlockEnd
  0
BLOCK
  5
37F8
330
37F7
100
AcDbEntity
  8
0
100
AcDbBlockBegin
  2
*D8
 70
     1
 10
0.0
 20
0.0
 30
0.0
  3
*D8
  1
*D124
  0
LINE
  5
37FA
330
37F7
100
AcDbEntity
  8
DIM
 62
     0
370
    -2
100
AcDbLine
 10
825.6061706879872
 20
552.3149110455429
 30
0.0
 11
825.6061706879872
 21
520.7690110006274
 31
0.0
  0
LINE
  5
37FB
330
37F7
100
AcDbEntity
  8
DIM
 62
     0
370
    -2
100
AcDbLine
 10
833.7002236520639
 20
554.4884574055629
 30
0.0
 11
848.583116469144
 21
526.4978070037039
 31
0.0
  0
ARC
  5
37FC
330
37F7
100
AcDbEntity
  8
DIM
 62
     0
370
    -2
100
AcDbCircle
 10
825.6061706879872
 20
569.7111570269428
 30
0.0
 40
48.94214602631544
100
AcDbArc
 50
273.5126015836185
 51
294.4873984164971
  0
INSERT
  5
37FD
330
37F7
100
AcDbEntity
  8
DIM
 62
     0
370
    -2
100
AcDbBlockReference
  2
_DOT
 10
825.6061706879872
 20
520.7690110006274
 30
0.0
 41
3.0
 42
3.0
 43
3.0
 50
181.7563007918093
  0
INSERT
  5
37FE
330
37F7
100
AcDbEntity
  8
DIM
 62
     0
370
    -2
100
AcDbBlockReference
  2
_DOT
 10
848.583116469144
 20
526.4978070037039
 30
0.0
 41
3.0
 42
3.0
 43
3.0
 50
26.24369920830641
  0
MTEXT
  5
37FF
330
37F7
100
AcDbEntity
  8
DIM
 62
     0
 48
0.05
100
AcDbMText
 10
841.3679013571236
 20
506.4943081799152
 30
0.0
 40
12.0
 41
0.0
 46
0.0
 71
     5
 72
     1
  1
\A1;\A1;28%%d
  7
ＭＳ ゴシック
 11
0.9702957262757522
 21
0.2419218956006471
 31
0.0
 73
     1
 44
1.0
  0
POINT
  5
3800
330
37F7
100
AcDbEntity
  8
Defpoints
 62
     0
100
AcDbPoint
 10
833.5435062828969
 20
521.4169300291436
 30
0.0
  0
POINT
  5
3801
330
37F7
100
AcDbEntity
  8
Defpoints
 62
     0
100
AcDbPoint
 10
825.6061706879872
 20
569.7111570269428
 30
0.0
  0
POINT
  5
3802
330
37F7
100
AcDbEntity
  8
Defpoints
 62
     0
100
AcDbPoint
 10
825.6061706879872
 20
569.7111570269428
 30
0.0
  0
POINT
  5
3803
330
37F7
100
AcDbEntity
  8
Defpoints
 62
     0
100
AcDbPoint
 10
825.6061706879872
 20
562.3149110455429
 30
0.0
  0
POINT
  5
3804
330
37F7
100
AcDbEntity
  8
Defpoints
 62
     0
100
AcDbPoint
 10
829.0055080241872
 20
563.3179333341427
 30
0.0
  0
ENDBLK
  5
37F9
330
37F7
100
AcDbEntity
  8
0
100
AcDbBlockEnd
  0
BLOCK
  5
3807
330
3806
100
AcDbEntity
  8
0
100
AcDbBlockBegin
  2
*D9
 70
     1
 10
0.0
 20
0.0
 30
0.0
  3
*D9
  1
*D125
  0
LINE
  5
3809
330
3806
100
AcDbEntity
  8
DIM
 62
     0
370
    -2
100
AcDbLine
 10
648.7303162649872
 20
548.1504586333429
 30
0.0
 11
648.7303162649872
 21
520.8097989851428
 31
0.0
  0
LINE
  5
380A
330
3806
100
AcDbEntity
  8
DIM
 62
     0
370
    -2
100
AcDbLine
 10
562.730316384187
 20
588.9057589887427
 30
0.0
 11
562.730316384187
 21
520.8097989851428
 31
0.0
  0
LINE
  5
380B
330
3806
100
AcDbEntity
  8
DIM
 62
     0
370
    -2
100
AcDbLine
 10
645.7303162649872
 20
520.8097989851428
 30
0.0
 11
565.730316384187
 21
520.8097989851428
 31
0.0
  0
INSERT
  5
380C
330
3806
100
AcDbEntity
  8
DIM
 62
     0
370
    -2
100
AcDbBlockReference
  2
_DOT
 10
648.7303162649872
 20
520.8097989851428
 30
0.0
 41
3.0
 42
3.0
 43
3.0
  0
INSERT
  5
380D
330
3806
100
AcDbEntity
  8
DIM
 62
     0
370
    -2
100
AcDbBlockReference
  2
_DOT
 10
562.730316384187
 20
520.8097989851428
 30
0.0
 41
3.0
 42
3.0
 43
3.0
 50
180.0
  0
MTEXT
  5
380E
330
3806
100
AcDbEntity
  8
DIM
 62
     0
 48
0.05
100
AcDbMText
 10
605.730314804587
 20
536.8097989851428
 30
0.0
 40
12.0
 41
0.0
 46
0.0
 71
     5
 72
     1
  1
\A1;\A1;86
  7
ＭＳ ゴシック
 73
     1
 44
1.0
  0
POINT
  5
380F
330
3806
100
AcDbEntity
  8
Defpoints
 62
     0
100
AcDbPoint
 10
648.7303162649872
 20
558.1504586333429
 30
0.0
  0
POINT
  5
3810
330
3806
100
AcDbEntity
  8
Defpoints
 62
     0
100
AcDbPoint
 10
562.730316384187
 20
598.9057589887427
 30
0.0
  0
POINT
  5
3811
330
3806
100
AcDbEntity
  8
Defpoints
 62
     0
100
AcDbPoint
 10
562.730316384187
 20
520.8097989851428
 30
0.0
  0
ENDBLK
  5
3808
330
3806
100
AcDbEntity
  8
0
100
AcDbBlockEnd
  0
BLOCK
  5
3814
330
3813
100
AcDbEntity
  8
0
100
AcDbBlockBegin
  2
*D10
 70
     1
 10
0.0
 20
0.0
 30
0.0
  3
*D10
  1
*D126
  0
LINE
  5
3816
330
3813
100
AcDbEntity
  8
DIM
 62
     0
370
    -2
100
AcDbLine
 10
310.3310357886252
 20
1209.681065844486
 30
0.0
 11
410.6655600415145
 21
1163.066286014992
 31
0.0
  0
MTEXT
  5
3817
330
3813
100
AcDbEntity
  8
DIM
 62
     0
 48
0.05
100
AcDbMText
 10
377.4678553197136
 20
1208.561324878632
 30
0.0
 40
12.0
 41
0.0
 46
0.0
 71
     5
 72
     1
  1
\A1;φ\A1;32\P(φ22-φ40)
  7
ＭＳ ゴシック
 11
0.9069022823191893
 21
-0.4213410142915658
 31
0.0
 73
     1
 44
1.0
  0
INSERT
  5
3818
330
3813
100
AcDbEntity
  8
DIM
 62
     0
370
    -2
100
AcDbBlockReference
  2
_DOT
 10
307.6103289416676
 20
1210.94508888736
 30
0.0
 41
3.0
 42
3.0
 43
3.0
 50
155.0807196886472
  0
POINT
  5
3819
330
3813
100
AcDbEntity
  8
Defpoints
 62
     0
100
AcDbPoint
 10
307.6103289416676
 20
1210.94508888736
 30
0.0
  0
POINT
  5
381A
330
3813
100
AcDbEntity
  8
Defpoints
 62
     0
100
AcDbPoint
 10
278.5894559075198
 20
1224.42800134466
 30
0.0
  0
ENDBLK
  5
3815
330
3813
100
AcDbEntity
  8
0
100
AcDbBlockEnd
  0
BLOCK
  5
393A
330
3939
100
AcDbEntity
  8
0
100
AcDbBlockBegin
  2
_SE_FILLED
 70
     0
 10
0.0
 20
0.0
 30
0.0
  3
_SE_FILLED
  1

  0
SOLID
  5
393B
330
3939
100
AcDbEntity
  8
0
 62
     0
100
AcDbTrace
 10
0.0
 20
0.0
 30
0.0
 11
-1.0
 21
-0.1665
 31
0.0
 12
-1.0
 22
0.1665
 32
0.0
 13
0.0
 23
0.0
 33
0.0
  0
LINE
  5
393C
330
3939
100
AcDbEntity
  8
0
 62
     0
100
AcDbLine
 10
0.0
 20
0.0
 30
0.0
 11
-1.0
 21
0.0
 31
0.0
  0
ENDBLK
  5
393D
330
3939
100
AcDbEntity
  8
0
100
AcDbBlockEnd
  0
ENDSEC
  0
SECTION
  2
ENTITIES
  0
MTEXT
  5
177
330
A
100
AcDbEntity
  8
TEMPLATE
390
1D
100
AcDbMText
 10
39.60107227386538
 20
171.8658758157141
 30
0.0
 40
8.144205729166663
 41
0.0
 46
0.0
 71
     1
 72
     1
  1
品名
  7
ＭＳ ゴシック
 73
     1
 44
0.7828267384257843
  0
MTEXT
  5
178
330
A
100
AcDbEntity
  8
TEMPLATE
390
1D
100
AcDbMText
 10
39.60107227386538
 20
129.365875815714
 30
0.0
 40
8.144205729166663
 41
0.0
 46
0.0
 71
     1
 72
     1
  1
仕様
  7
ＭＳ ゴシック
 73
     1
 44
0.7828267384257843
  0
LINE
  5
179
330
A
100
AcDbEntity
  8
TEMPLATE
390
1D
100
AcDbLine
 10
1011.101072273624
 20
133.5733367532142
 30
0.0
 11
36.10107227362437
 21
133.5733367532142
 31
0.0
  0
LWPOLYLINE
  5
17A
330
A
100
AcDbEntity
  8
TEMPLATE
390
1D
100
AcDbPolyline
 90
        5
 70
   128
 43
0.0
 10
1011.101072273624
 20
1448.573336753213
 10
36.10107227362437
 20
1448.573336753213
 10
36.10107227362437
 20
48.57333675321413
 10
1011.101072273624
 20
48.57333675321413
 10
1011.101072273624
 20
1448.573336753213
  0
LINE
  5
17B
330
A
100
AcDbEntity
  8
TEMPLATE
390
1D
100
AcDbLine
 10
1011.101072273624
 20
176.0733367532141
 30
0.0
 11
36.10107227362437
 21
176.0733367532141
 31
0.0
  0
LINE
  5
17C
330
A
100
AcDbEntity
  8
TEMPLATE
390
1D
100
AcDbLine
 10
1011.101072273866
 20
91.07333675321412
 30
0.0
 11
634.601072273865
 21
91.07333675321412
 31
0.0
  0
MTEXT
  5
17E
330
A
100
AcDbEntity
  8
TEMPLATE
390
1D
100
AcDbMText
 10
649.5367753999956
 20
76.11813951656006
 30
0.0
 40
12.21630859375
 41
0.0
 46
0.0
 71
     1
 72
     1
  1
大洋金物株式会社 ティーフォルム事業部
  7
ＭＳ ゴシック
 73
     1
 44
0.7828267384257843
  0
MTEXT
  5
180
330
A
100
AcDbEntity
  8
TEMPLATE
390
1D
100
AcDbMText
 10
915.601072273995
 20
115.0746453469641
 30
0.0
 40
12.21630859375
 41
0.0
 46
12.21630859375
 71
     1
 72
     1
  1
{1:5}
  7
ＭＳ ゴシック
 73
     1
 44
0.7828267384257843
1001
ACAD
1000
ACAD_MTEXT_DEFINED_HEIGHT_BEGIN
1070
    46
1040
12.21630859375
1000
ACAD_MTEXT_DEFINED_HEIGHT_END
  0
MTEXT
  5
181
330
A
100
AcDbEntity
  8
TEMPLATE
390
1D
100
AcDbMText
 10
889.101072273995
 20
129.365875815714
 30
0.0
 40
8.144205729166663
 41
0.0
 46
0.0
 71
     1
 72
     1
  1
縮尺
  7
ＭＳ ゴシック
 73
     1
 44
0.7828267384257843
  0
LINE
  5
182
330
A
100
AcDbEntity
  8
TEMPLATE
390
1D
100
AcDbLine
 10
885.601072273995
 20
91.07333675321412
 30
0.0
 11
885.601072273995
 21
133.5733367532142
 31
0.0
  0
MTEXT
  5
183
330
A
100
AcDbEntity
  8
TEMPLATE
390
1D
100
AcDbMText
 10
763.601072273995
 20
129.365875815714
 30
0.0
 40
8.144205729166663
 41
0.0
 46
0.0
 71
     1
 72
     1
  1
容量
  7
ＭＳ ゴシック
 73
     1
 44
0.7828267384257843
  0
LINE
  5
184
330
A
100
AcDbEntity
  8
TEMPLATE
390
1D
100
AcDbLine
 10
760.101072273995
 20
91.07333675321412
 30
0.0
 11
760.101072273995
 21
133.5733367532142
 31
0.0
  0
MTEXT
  5
185
330
A
100
AcDbEntity
  8
TEMPLATE
390
1D
100
AcDbMText
 10
638.101072273995
 20
171.8658758157141
 30
0.0
 40
8.144205729166663
 41
0.0
 46
0.0
 71
     1
 72
     1
  1
品番
  7
ＭＳ ゴシック
 73
     1
 44
0.7828267384257843
  0
MTEXT
  5
186
330
A
100
AcDbEntity
  8
TEMPLATE
390
1D
100
AcDbMText
 10
638.101072273995
 20
129.365875815714
 30
0.0
 40
8.144205729166663
 41
0.0
 46
0.0
 71
     1
 72
     1
  1
重量
  7
ＭＳ ゴシック
 73
     1
 44
0.7828267384257843
  0
MTEXT
  5
187
330
A
100
AcDbEntity
  8
TEMPLATE
390
1D
100
AcDbMText
 10
664.601072273995
 20
157.5746453469641
 30
0.0
 40
12.21630859375
 41
0.0
 46
12.21630859375
 71
     1
 72
     1
  1
{FHT73-1109}
  7
ＭＳ ゴシック
 73
     1
 44
0.7828267384257843
1001
ACAD
1000
ACAD_MTEXT_DEFINED_HEIGHT_BEGIN
1070
    46
1040
12.21630859375
1000
ACAD_MTEXT_DEFINED_HEIGHT_END
  0
LINE
  5
188
330
A
100
AcDbEntity
  8
TEMPLATE
390
1D
100
AcDbLine
 10
634.601072273995
 20
48.57333675321413
 30
0.0
 11
634.601072273995
 21
176.0733367532141
 31
0.0
  0
MTEXT
  5
189
330
A
100
AcDbEntity
  8
TEMPLATE
390
1D
100
AcDbMText
 10
64.31863027262162
 20
157.5746453469641
 30
0.0
 40
12.21630859375
 41
0.0
 46
13.76777978515625
 71
     1
 72
     1
  1
{吐水口　-GROHE,Grandera-}
  7
ＭＳ ゴシック
 73
     1
 44
0.7828267384257843
1001
ACAD
1000
ACAD_MTEXT_DEFINED_HEIGHT_BEGIN
1070
    46
1040
13.76777978515625
1000
ACAD_MTEXT_DEFINED_HEIGHT_END
  0
INSERT
  5
6B5
330
A
100
AcDbEntity
  8
TEMPLATE
100
AcDbBlockReference
  2
名称未設定-1
 10
935.3753740442249
 20
12.97338287832691
 30
0.0
 41
0.3809999999999999
 42
0.3809999999999999
 43
0.3809999999999999
  0
INSERT
  5
68C
330
A
100
AcDbEntity
  8
TEMPLATE
100
AcDbBlockReference
  2
block 2
 10
919.2743017702577
 20
8.373076514336368
 30
0.0
 41
0.3809999999999999
 42
0.3809999999999999
 43
0.3809999999999999
  0
LWPOLYLINE
  5
D69
330
A
100
AcDbEntity
  8
BORDER
 48
0.05
100
AcDbPolyline
 90
        4
 70
     1
 43
0.0
 10
0.0
 20
0.0
 10
0.0
 20
1485.0
 10
1050.0
 20
1485.0
 10
1050.0
 20
0.0
  0
INSERT
  5
1343
330
A
100
AcDbEntity
  8
TEMPLATE
100
AcDbBlockReference
  2
block 2
 10
2096.743470866468
 20
24.43532141229569
 30
0.0
 41
0.3809999999999999
 42
0.3809999999999999
 43
0.3809999999999999
  0
MTEXT
  5
3442
102
{ACAD_XDICTIONARY
360
3444
102
}
330
A
100
AcDbEntity
  8
MODEL
 48
0.05
100
AcDbMText
 10
37.76655744772248
 20
42.75270635604875
 30
0.0
 40
11.0
 41
0.0
 46
11.0
 71
     1
 72
     1
  1
{20230714M}
  7
ＭＳ ゴシック
 73
     1
 44
1.0
1001
ACAD
1000
ACAD_MTEXT_DEFINED_HEIGHT_BEGIN
1070
    46
1040
11.0
1000
ACAD_MTEXT_DEFINED_HEIGHT_END
  0
LINE
  5
3677
330
A
100
AcDbEntity
  8
MODEL
100
AcDbLine
 10
648.7303162649872
 20
583.6007729777427
 30
0.0
 11
648.7303162649872
 21
633.1707449999428
 31
0.0
  0
LINE
  5
3678
330
A
100
AcDbEntity
  8
MODEL
100
AcDbLine
 10
648.7303162649872
 20
633.5027067153428
 30
0.0
 11
648.7303162649872
 21
583.5027067153428
 31
0.0
  0
HATCH
  5
3679
330
A
100
AcDbEntity
  8
MODEL
100
AcDbHatch
 10
0.0
 20
0.0
 30
0.0
210
0.0
220
0.0
230
1.0
  2
LINE
 70
     0
 71
     0
 91
        1
 92
        1
 93
        4
 72
     1
 10
642.7303162649863
 20
658.6210593444209
 11
642.7303162649863
 21
624.0027067153467
 72
     1
 10
642.7303162649863
 20
624.0027067153467
 11
648.7297877154622
 21
624.0027067153467
 72
     1
 10
648.7297877154623
 20
624.0027067153467
 11
648.7303162649866
 21
658.6210593444209
 72
     1
 10
648.7303162649863
 20
658.6210593444209
 11
642.7303162649862
 21
658.6210593444209
 97
        0
 75
     0
 76
     1
 52
45.0
 41
1.3333333334
 77
     0
 78
     1
 53
45.0
 43
508.1883603605874
 44
269.7757310425428
 45
-2.99341870702305
 46
2.99341870702305
 79
     0
 98
        0
  0
HATCH
  5
367A
330
A
100
AcDbEntity
  8
MODEL
100
AcDbHatch
 10
0.0
 20
0.0
 30
0.0
210
0.0
220
0.0
230
1.0
  2
LINE
 70
     0
 71
     0
 91
        1
 92
        1
 93
        4
 72
     1
 10
642.7303162649863
 20
593.0027067153467
 11
642.7303162649863
 21
558.1504586332512
 72
     1
 10
642.7303162649863
 20
558.1504586332512
 11
648.7303162649863
 21
558.1504586332512
 72
     1
 10
648.7303162649863
 20
558.1504586332512
 11
648.7303162649863
 21
593.0027067153467
 72
     1
 10
648.7303162649863
 20
593.0027067153467
 11
642.7303162649862
 21
593.0027067153467
 97
        0
 75
     0
 76
     1
 52
45.0
 41
1.3333333334
 77
     0
 78
     1
 53
45.0
 43
508.1883603605874
 44
269.7757310425428
 45
-2.99341870702305
 46
2.99341870702305
 79
     0
 98
        0
  0
LINE
  5
367B
330
A
100
AcDbEntity
  8
MODEL
100
AcDbLine
 10
648.7303162649872
 20
558.1504586333429
 30
0.0
 11
648.7303162649872
 21
658.6210593443427
 31
0.0
  0
HATCH
  5
367C
330
A
100
AcDbEntity
  8
MODEL
100
AcDbHatch
 10
0.0
 20
0.0
 30
0.0
210
0.0
220
0.0
230
1.0
  2
LINE
 70
     0
 71
     0
 91
        1
 92
        1
 93
        4
 72
     1
 10
642.7303162649863
 20
624.0027067153467
 11
642.7303162649863
 21
658.6210593444209
 72
     1
 10
642.7303162649863
 20
658.6210593444209
 11
628.159401960362
 21
658.6210593444209
 72
     1
 10
628.1594019603621
 20
658.6210593444209
 11
628.1594019603621
 21
624.0027067153467
 72
     1
 10
628.1594019603621
 20
624.0027067153467
 11
642.7303162649864
 21
624.0027067153467
 97
        0
 75
     0
 76
     1
 52
315.0
 41
2.0
 77
     0
 78
     1
 53
315.0
 43
508.1883603605874
 44
269.7757310425428
 45
4.490128060534576
 46
4.490128060534576
 79
     0
 98
        0
  0
LINE
  5
367D
330
A
100
AcDbEntity
  8
MODEL
100
AcDbLine
 10
642.7303162649872
 20
624.0027067153428
 30
0.0
 11
642.7303162649872
 21
658.6210593443427
 31
0.0
  0
LINE
  5
367E
330
A
100
AcDbEntity
  8
MODEL
100
AcDbLine
 10
628.1594019603871
 20
624.0027067153428
 30
0.0
 11
648.7303151759869
 21
624.0027067153428
 31
0.0
  0
HATCH
  5
367F
330
A
100
AcDbEntity
  8
MODEL
100
AcDbHatch
 10
0.0
 20
0.0
 30
0.0
210
0.0
220
0.0
230
1.0
  2
LINE
 70
     0
 71
     0
 91
        1
 92
        1
 93
        4
 72
     1
 10
628.1594019603621
 20
593.0027067153467
 11
628.1594019603621
 21
558.1504586332512
 72
     1
 10
628.1594019603621
 20
558.1504586332512
 11
642.7303162649866
 21
558.1504586332512
 72
     1
 10
642.7303162649863
 20
558.1504586332512
 11
642.7303162649863
 21
593.0027067153467
 72
     1
 10
642.7303162649863
 20
593.0027067153467
 11
628.1594019603617
 21
593.0027067153467
 97
        0
 75
     0
 76
     1
 52
315.0
 41
2.0
 77
     0
 78
     1
 53
315.0
 43
508.1883603605874
 44
269.7757310425428
 45
4.490128060534576
 46
4.490128060534576
 79
     0
 98
        0
  0
LINE
  5
3680
330
A
100
AcDbEntity
  8
MODEL
100
AcDbLine
 10
642.7303162649872
 20
558.1504586333429
 30
0.0
 11
642.7303162649872
 21
593.0027067153428
 31
0.0
  0
LINE
  5
3681
330
A
100
AcDbEntity
  8
MODEL
100
AcDbLine
 10
628.1594019603871
 20
593.0027067153428
 30
0.0
 11
648.7303151759869
 21
593.0027067153428
 31
0.0
  0
LINE
  5
3683
330
A
100
AcDbEntity
  8
MODEL
100
AcDbLine
 10
790.178782497387
 20
620.6945800767428
 30
0.0
 11
791.1491066271873
 21
620.4526510993428
 31
0.0
  0
LINE
  5
3684
330
A
100
AcDbEntity
  8
MODEL
100
AcDbLine
 10
791.7167048763871
 20
622.7291633351429
 30
0.0
 11
791.7167261041872
 21
622.7292484749428
 31
0.0
  0
LINE
  5
3685
330
A
100
AcDbEntity
  8
MODEL
100
AcDbLine
 10
791.5195997269869
 20
619.8718350129427
 30
0.0
 11
784.8432705325871
 21
593.0945411737428
 31
0.0
  0
LINE
  5
3686
330
A
100
AcDbEntity
  8
MODEL
100
AcDbLine
 10
784.2819580529871
 20
590.8432397831427
 30
0.0
 11
784.8432706277871
 21
593.0945415553429
 31
0.0
  0
LINE
  5
3687
330
A
100
AcDbEntity
  8
MODEL
100
AcDbLine
 10
792.0808918425872
 20
622.1230547283428
 30
0.0
 11
791.5195997269869
 21
619.8718350129427
 31
0.0
  0
LINE
  5
3688
330
A
100
AcDbEntity
  8
MODEL
100
AcDbLine
 10
782.902650771587
 20
593.5783924283428
 30
0.0
 11
782.341358655587
 21
591.3271727111428
 31
0.0
  0
LINE
  5
3689
330
A
100
AcDbEntity
  8
MODEL
100
AcDbLine
 10
782.902650676387
 20
593.5783920467427
 30
0.0
 11
789.5789798709869
 21
620.3556858859429
 31
0.0
  0
LINE
  5
368A
330
A
100
AcDbEntity
  8
MODEL
100
AcDbLine
 10
789.5789798709869
 20
620.3556858859429
 30
0.0
 11
790.140292444987
 21
622.6069876555428
 31
0.0
  0
LINE
  5
368B
330
A
100
AcDbEntity
  8
MODEL
100
AcDbLine
 10
784.243467905187
 20
592.7556469789429
 30
0.0
 11
783.2731437751871
 21
592.9975759563429
 31
0.0
  0
LINE
  5
368C
330
A
100
AcDbEntity
  8
MODEL
100
AcDbLine
 10
782.705524393987
 20
590.7209789645428
 30
0.0
 11
782.7055456217871
 21
590.7210641041429
 31
0.0
  0
ELLIPSE
  5
368D
330
A
100
AcDbEntity
  8
MODEL
100
AcDbEllipse
 10
784.3581226693872
 20
593.2155021215428
 30
0.0
 11
0.4851478631379136
 21
-0.1209609478000588
 31
0.0
210
0.0
220
0.0
230
1.0
 40
0.9478659549
 41
4.712388980385188
 42
6.283185307179413
  0
ELLIPSE
  5
368E
330
A
100
AcDbEntity
  8
MODEL
100
AcDbEllipse
 10
783.3877985395874
 20
593.4574310989428
 30
0.0
 11
0.4851478631380246
 21
-0.1209609477997153
 31
0.0
210
0.0
220
0.0
230
1.0
 40
0.9478659549
 41
3.141592653589733
 42
4.712388980384147
  0
ELLIPSE
  5
368F
330
A
100
AcDbEntity
  8
MODEL
100
AcDbEllipse
 10
791.0344518639871
 20
619.9927959607428
 30
0.0
 11
-0.4851478631380246
 21
0.1209609477998558
 31
0.0
210
0.0
220
0.0
230
1.0
 40
0.9478659465000002
 41
3.141592653589672
 42
4.71238898038469
  0
ELLIPSE
  5
3690
330
A
100
AcDbEntity
  8
MODEL
100
AcDbEllipse
 10
790.0641277339872
 20
620.2347249381428
 30
0.0
 11
-0.485147863137969
 21
0.1209609477998281
 31
0.0
210
0.0
220
0.0
230
1.0
 40
0.9478659464999998
 41
4.712388980384774
 42
6.283185307179586
  0
LINE
  5
3691
330
A
100
AcDbEntity
  8
MODEL
100
AcDbLine
 10
782.705524393987
 20
590.7209789645428
 30
0.0
 11
783.6758485237873
 21
590.4790499871428
 31
0.0
  0
LINE
  5
3692
330
A
100
AcDbEntity
  8
MODEL
100
AcDbLine
 10
791.7167261041872
 20
622.7292484749428
 30
0.0
 11
790.7464019741873
 21
622.9711774523428
 31
0.0
  0
ARC
  5
3693
330
A
100
AcDbEntity
  8
MODEL
100
AcDbCircle
 10
783.796830493587
 20
590.9642821407429
 30
0.0
 40
0.4999999948019454
100
AcDbArc
 50
256.1539640981235
 51
346.0199275002989
  0
ARC
  5
3694
330
A
100
AcDbEntity
  8
MODEL
100
AcDbCircle
 10
782.8265063709872
 20
591.2062111471428
 30
0.0
 40
0.4999988878687198
100
AcDbArc
 50
165.9800655287046
 51
256.1539652801697
  0
ARC
  5
3695
330
A
100
AcDbEntity
  8
MODEL
100
AcDbCircle
 10
791.5957441269874
 20
622.2440162923428
 30
0.0
 40
0.4999988878703332
100
AcDbArc
 50
345.9800655563831
 51
76.15396476203071
  0
ARC
  5
3696
330
A
100
AcDbEntity
  8
MODEL
100
AcDbCircle
 10
790.6254199971871
 20
622.4859452693429
 30
0.0
 40
0.4999999947999726
100
AcDbArc
 50
76.15396564429267
 51
166.019934431999
  0
LINE
  5
3697
330
A
100
AcDbEntity
  8
MODEL
100
AcDbLine
 10
835.3384438473871
 20
583.7199448499427
 30
0.0
 11
837.4479492747872
 21
584.8415887873427
 31
0.0
  0
LINE
  5
3698
330
A
100
AcDbEntity
  8
MODEL
100
AcDbLine
 10
835.248534196587
 20
583.6721390459427
 30
0.0
 11
835.0559492171873
 21
583.5697397961428
 31
0.0
  0
LINE
  5
3699
330
A
100
AcDbEntity
  8
MODEL
100
AcDbLine
 10
835.0559492171873
 20
583.5697397961428
 30
0.0
 11
808.836130929987
 21
569.6284151097427
 31
0.0
  0
LINE
  5
369A
330
A
100
AcDbEntity
  8
MODEL
100
AcDbLine
 10
808.836130929987
 20
569.6284151097427
 30
0.0
 11
808.6402660067869
 21
569.5242718865427
 31
0.0
  0
LINE
  5
369B
330
A
100
AcDbEntity
  8
MODEL
100
AcDbLine
 10
808.6402660067869
 20
569.5242718865427
 30
0.0
 11
808.5548546987874
 21
569.4788578809428
 31
0.0
  0
LINE
  5
369C
330
A
100
AcDbEntity
  8
MODEL
100
AcDbLine
 10
808.5548546987874
 20
569.4788578809428
 30
0.0
 11
806.4484011481871
 21
568.3588366711429
 31
0.0
  0
ARC
  5
369D
330
A
100
AcDbEntity
  8
MODEL
100
AcDbCircle
 10
782.005837224587
 20
573.9439186509428
 30
0.0
 40
17.29519851077935
100
AcDbArc
 50
55.09839696199928
 51
73.77883872649997
  0
SPLINE
  5
369E
330
A
100
AcDbEntity
  8
MODEL
100
AcDbSpline
210
0.0
220
0.0
230
1.0
 70
     8
 71
     3
 72
    12
 73
     8
 74
     0
 42
0.000000001
 43
0.0000000001
 40
0.0
 40
0.0
 40
0.0
 40
0.0
 40
0.2500627354334611
 40
0.4947230741225371
 40
0.7410769649810949
 40
0.8681682913318706
 40
1.0
 40
1.0
 40
1.0
 40
1.0
 10
837.4454593166059
 20
584.8394726781546
 30
0.0
 10
837.4752913304009
 20
584.8701087319796
 30
0.0
 10
837.5246771321712
 20
584.9238503913646
 30
0.0
 10
837.557863133576
 20
585.0403754326815
 30
0.0
 10
837.5487060636214
 20
585.1371463466303
 30
0.0
 10
837.5184038386132
 20
585.2118373381422
 30
0.0
 10
837.4963591970271
 20
585.2422393326281
 30
0.0
 10
837.482846380194
 20
585.2602840252514
 30
0.0
  0
SPLINE
  5
369F
330
A
100
AcDbEntity
  8
MODEL
100
AcDbSpline
210
0.0
220
0.0
230
1.0
 70
     8
 71
     3
 72
    48
 73
    44
 74
     0
 42
0.000000001
 43
0.0000000001
 40
0.0
 40
0.0
 40
0.0
 40
0.0
 40
0.0155283487183524
 40
0.0341547217482686
 40
0.0500572478360452
 40
0.0633571513990866
 40
0.0759664040776451
 40
0.0885704589111486
 40
0.1011714919355018
 40
0.1137737438471991
 40
0.1272114327922448
 40
0.1410423019835781
 40
0.1552694392790571
 40
0.1698959836247147
 40
0.1836410218566806
 40
0.1950062673182429
 40
0.2054903986449092
 40
0.2138910197898703
 40
0.221405947775221
 40
0.2280329794211862
 40
0.2341788419620887
 40
0.2448399178779608
 40
0.2589465885444817
 40
0.2765161084982513
 40
0.2945852429683081
 40
0.3152946365780536
 40
0.3386627415095095
 40
0.3647095130404442
 40
0.3934558308783583
 40
0.424336928409928
 40
0.4578617566197392
 40
0.4940478157171
 40
0.5329084886078195
 40
0.5705628831136255
 40
0.6104300981667888
 40
0.6524994558858144
 40
0.6967504294148407
 40
0.7431521229789618
 40
0.7916667861346235
 40
0.8422559556342729
 40
0.8948807480600489
 40
0.9494959817213289
 40
1.0
 40
1.0
 40
1.0
 40
1.0
 10
837.4834283599079
 20
585.2607657901938
 30
0.0
 10
837.2673923672186
 20
585.5213438927797
 30
0.0
 10
836.8662210662168
 20
586.0054016242871
 30
0.0
 10
836.2216631346895
 20
586.787581768509
 30
0.0
 10
835.6239474578141
 20
587.5165591219525
 30
0.0
 10
835.0994447596721
 20
588.1593414034257
 30
0.0
 10
834.6183583280962
 20
588.7514770540845
 30
0.0
 10
834.1469836039486
 20
589.3340722406476
 30
0.0
 10
833.6768783535507
 20
589.9174048663313
 30
0.0
 10
833.1974574397376
 20
590.5144739948614
 30
0.0
 10
832.7037890023602
 20
591.1313484235079
 30
0.0
 10
832.1909128954547
 20
591.7740931543174
 30
0.0
 10
831.6640693544858
 20
592.4358308406042
 30
0.0
 10
831.1387421010976
 20
593.0966014603755
 30
0.0
 10
830.648825462183
 20
593.7130733438089
 30
0.0
 10
830.209831547956
 20
594.2651617997558
 30
0.0
 10
829.8364852157414
 20
594.7341436409795
 30
0.0
 10
829.5103466545569
 20
595.1431826372493
 30
0.0
 10
829.2315669861199
 20
595.4922269684055
 30
0.0
 10
828.9803907135482
 20
595.8061346777085
 30
0.0
 10
828.6899258317679
 20
596.1684516959021
 30
0.0
 10
828.306093291614
 20
596.6458855245737
 30
0.0
 10
827.7788429157985
 20
597.2984766799823
 30
0.0
 10
827.1564642111092
 20
598.0629302996117
 30
0.0
 10
826.4470319276505
 20
598.9252146941456
 30
0.0
 10
825.6583043646618
 20
599.8710309335004
 30
0.0
 10
824.7588904131329
 20
600.9303304163459
 30
0.0
 10
823.7427336103773
 20
602.0993230003203
 30
0.0
 10
822.609895516527
 20
603.3639502377971
 30
0.0
 10
821.3527752720141
 20
604.7158322509513
 30
0.0
 10
819.9623421627324
 20
606.1444710325218
 30
0.0
 10
818.4196291659454
 20
607.6445729036386
 30
0.0
 10
816.7679700356001
 20
609.1485219061092
 30
0.0
 10
815.0069516392617
 20
610.6385134665927
 30
0.0
 10
813.1384280801811
 20
612.0972912767161
 30
0.0
 10
811.1011809647497
 20
613.5488203047526
 30
0.0
 10
808.8878381529961
 20
614.971370822306
 30
0.0
 10
806.4932559992611
 20
616.3424424517646
 30
0.0
 10
803.9173448248247
 20
617.6388418824492
 30
0.0
 10
801.1555814028837
 20
618.8421992735105
 30
0.0
 10
798.237627889925
 20
619.924487074057
 30
0.0
 10
795.1907939743309
 20
620.8752387402792
 30
0.0
 10
793.3128891065979
 20
621.3346542607451
 30
0.0
 10
792.2425553048382
 20
621.5921948678763
 30
0.0
  0
ARC
  5
36A0
330
A
100
AcDbEntity
  8
MODEL
100
AcDbCircle
 10
806.3610147189873
 20
568.6457985177428
 30
0.0
 40
0.2999672002464366
100
AcDbArc
 50
198.9090687116822
 51
287.4804315721098
  0
SPLINE
  5
36A1
330
A
100
AcDbEntity
  8
MODEL
100
AcDbSpline
210
0.0
220
0.0
230
1.0
 70
     8
 71
     3
 72
    11
 73
     7
 74
     0
 42
0.000000001
 43
0.0000000001
 40
0.0
 40
0.0
 40
0.0
 40
0.0
 40
0.2567392992864792
 40
0.5046792358806692
 40
0.750705245702535
 40
1.0
 40
1.0
 40
1.0
 40
1.0
 10
792.2445779308299
 20
621.6001575479895
 30
0.0
 10
792.2083666477973
 20
621.6054962432909
 30
0.0
 10
792.14699079238
 20
621.6129396514045
 30
0.0
 10
792.0500981551426
 20
621.5856074663204
 30
0.0
 10
791.9668204782259
 20
621.5309172320308
 30
0.0
 10
791.9323672605036
 20
621.4810431394519
 30
0.0
 10
791.9129048559411
 20
621.4513042205888
 30
0.0
  0
ARC
  5
36A2
330
A
100
AcDbEntity
  8
MODEL
100
AcDbCircle
 10
772.3390173771871
 20
559.0504503773427
 30
0.0
 40
35.04441276133062
100
AcDbArc
 50
15.72255195779989
 51
56.08304182370033
  0
ARC
  5
36A3
330
A
100
AcDbEntity
  8
MODEL
100
AcDbCircle
 10
779.2475112949872
 20
570.7957485553427
 30
0.0
 40
21.15014370512096
100
AcDbArc
 50
68.98216013549988
 51
75.1456450658009
  0
ARC
  5
36A4
330
A
100
AcDbEntity
  8
MODEL
100
AcDbCircle
 10
784.7533913409869
 20
591.5345557103428
 30
0.0
 40
0.3000252487179726
100
AcDbArc
 50
180.3547244155938
 51
254.2050874021151
  0
LINE
  5
36A5
330
A
100
AcDbEntity
  8
MODEL
100
AcDbLine
 10
668.0803162649871
 20
584.1384083643427
 30
0.0
 11
662.2740573829873
 21
582.9042499403429
 31
0.0
  0
LINE
  5
36A6
330
A
100
AcDbEntity
  8
MODEL
100
AcDbLine
 10
562.730316384187
 20
598.9057589887427
 30
0.0
 11
562.730316384187
 21
617.8657589887428
 31
0.0
  0
LINE
  5
36A7
330
A
100
AcDbEntity
  8
MODEL
100
AcDbLine
 10
563.730316384187
 20
618.8657589887428
 30
0.0
 11
563.730316384187
 21
597.9057589887427
 31
0.0
  0
LINE
  5
36A8
330
A
100
AcDbEntity
  8
MODEL
100
AcDbLine
 10
563.730316384187
 20
597.9057589887427
 30
0.0
 11
648.7303162649872
 21
597.9057589887427
 31
0.0
  0
LINE
  5
36A9
330
A
100
AcDbEntity
  8
MODEL
100
AcDbLine
 10
648.7303162649872
 20
618.8657589887428
 30
0.0
 11
563.730316384187
 21
618.8657589887428
 31
0.0
  0
LINE
  5
36AA
330
A
100
AcDbEntity
  8
MODEL
100
AcDbLine
 10
563.730316384187
 20
618.8657589887428
 30
0.0
 11
562.730316384187
 21
617.8657589887428
 31
0.0
  0
LINE
  5
36AB
330
A
100
AcDbEntity
  8
MODEL
100
AcDbLine
 10
562.730316384187
 20
598.9057589887427
 30
0.0
 11
563.730316384187
 21
597.9057589887427
 31
0.0
  0
LINE
  5
36AC
330
A
100
AcDbEntity
  8
MODEL
100
AcDbLine
 10
562.730316384187
 20
617.7007589887428
 30
0.0
 11
646.730316384187
 21
617.7007589887428
 31
0.0
  0
LINE
  5
36AD
330
A
100
AcDbEntity
  8
MODEL
100
AcDbLine
 10
562.730316384187
 20
599.0707589887427
 30
0.0
 11
646.730316384187
 21
599.0707589887427
 31
0.0
  0
LINE
  5
36AE
330
A
100
AcDbEntity
  8
MODEL
100
AcDbLine
 10
646.730316384187
 20
597.9057589887427
 30
0.0
 11
646.730316384187
 21
618.8657589887428
 31
0.0
  0
ARC
  5
36AF
330
A
100
AcDbEntity
  8
MODEL
100
AcDbCircle
 10
676.0687049249872
 20
530.6744235077429
 30
0.0
 40
54.02108401509736
100
AcDbArc
 50
104.7789754753
 51
105.6672365692999
  0
ARC
  5
36B0
330
A
100
AcDbEntity
  8
MODEL
100
AcDbCircle
 10
676.0687049249872
 20
530.6744235077429
 30
0.0
 40
54.02108401509736
100
AcDbArc
 50
98.61107826400011
 51
99.1711131495001
  0
SPLINE
  5
36B1
330
A
100
AcDbEntity
  8
MODEL
100
AcDbSpline
210
0.0
220
0.0
230
1.0
 70
     8
 71
     3
 72
    11
 73
     7
 74
     0
 42
0.000000001
 43
0.0000000001
 40
0.0
 40
0.0
 40
0.0
 40
0.0
 40
0.2493031031070024
 40
0.4950313375514043
 40
0.7427423932497905
 40
1.0
 40
1.0
 40
1.0
 40
1.0
 10
789.9539874915703
 20
621.8952054028821
 30
0.0
 10
789.9502281373265
 20
621.9322482097166
 30
0.0
 10
789.9421469973967
 20
621.9953006084695
 30
0.0
 10
789.8892541136555
 20
622.0854115137806
 30
0.0
 10
789.809791082222
 20
622.1550587896413
 30
0.0
 10
789.7478532670756
 20
622.174525330227
 30
0.0
 10
789.7109013741009
 20
622.185048475958
 30
0.0
  0
ARC
  5
36B2
330
A
100
AcDbEntity
  8
MODEL
100
AcDbCircle
 10
782.2781949349873
 20
592.1784923637429
 30
0.0
 40
0.299928022825172
100
AcDbArc
 50
258.4850988657108
 51
317.4711835469266
  0
SPLINE
  5
36B3
330
A
100
AcDbEntity
  8
MODEL
100
AcDbSpline
210
0.0
220
0.0
230
1.0
 70
     8
 71
     3
 72
    64
 73
    60
 74
     0
 42
0.000000001
 43
0.0000000001
 40
0.0
 40
0.0
 40
0.0
 40
0.0
 40
0.0214340097406556
 40
0.0483369375386956
 40
0.0744880769629657
 40
0.0998817021911037
 40
0.1245456409984444
 40
0.1484990745930833
 40
0.175725168366987
 40
0.2018814994835491
 40
0.2271351727487277
 40
0.2514887119111911
 40
0.2793024691948164
 40
0.3058463521577849
 40
0.3311211400000002
 40
0.3551263691757027
 40
0.3778655006095303
 40
0.3993418575838659
 40
0.4195571022954048
 40
0.4385121250934708
 40
0.4562078968393833
 40
0.4733977018846435
 40
0.4908504450001851
 40
0.508565785249527
 40
0.5513589750805534
 40
0.5955983128651574
 40
0.636969218390928
 40
0.6795110175801115
 40
0.693121634674137
 40
0.7065775135766464
 40
0.7188050774916164
 40
0.729694360955931
 40
0.7392469552879344
 40
0.7474642725529786
 40
0.7543475404104272
 40
0.7598977986329805
 40
0.7641158952114205
 40
0.7670024815471481
 40
0.7688002038196169
 40
0.7724400728247502
 40
0.7764079052186333
 40
0.78035171196311
 40
0.7844663884796561
 40
0.789071080673322
 40
0.7941701047222849
 40
0.8026526260226443
 40
0.8122230927344923
 40
0.8228800765715305
 40
0.8346219207198698
 40
0.8474467154400278
 40
0.8606764686512762
 40
0.8806945088526291
 40
0.8997690725520706
 40
0.9179021505239023
 40
0.9362880226049463
 40
0.9535980243995323
 40
0.9701728502871027
 40
0.9865733163335668
 40
1.0
 40
1.0
 40
1.0
 40
1.0
 10
789.7080761942519
 20
622.1693365307415
 30
0.0
 10
788.6690545690639
 20
622.3665952426245
 30
0.0
 10
786.6875883375773
 20
622.7384539397376
 30
0.0
 10
783.3008872549889
 20
623.1798242375619
 30
0.0
 10
779.8182759563982
 20
623.5182162925221
 30
0.0
 10
776.4015137445389
 20
623.7419928814163
 30
0.0
 10
773.0856865744653
 20
623.8799571608577
 30
0.0
 10
769.6840386970229
 20
623.9581264516253
 30
0.0
 10
766.2151983088123
 20
623.9800969273076
 30
0.0
 10
762.6879664007114
 20
623.9999708876608
 30
0.0
 10
759.289648478018
 20
624.0268795109239
 30
0.0
 10
755.8170349492374
 20
624.0602347045979
 30
0.0
 10
752.2866849954943
 20
624.1064959298005
 30
0.0
 10
748.7152401272286
 20
624.1682107703402
 30
0.0
 10
745.3149205927838
 20
624.2432262134371
 30
0.0
 10
742.0856431309829
 20
624.3314826107026
 30
0.0
 10
739.0271844066332
 20
624.4317484108201
 30
0.0
 10
736.1392027549053
 20
624.542350162008
 30
0.0
 10
733.4214497058082
 20
624.6613917761431
 30
0.0
 10
730.8737574857595
 20
624.7867971600479
 30
0.0
 10
728.4622670387588
 20
624.9181866022175
 30
0.0
 10
726.1187486781886
 20
625.0579226351472
 30
0.0
 10
723.7751093441046
 20
625.2098755865561
 30
0.0
 10
720.2866793590173
 20
625.4548094226247
 30
0.0
 10
715.6028088021452
 20
625.8276935061049
 30
0.0
 10
709.8680322720073
 20
626.3641962409508
 30
0.0
 10
704.1524677167253
 20
626.9787695973157
 30
0.0
 10
699.8096807457003
 20
627.5056521242973
 30
0.0
 10
696.7136263960023
 20
627.9098945637113
 30
0.0
 10
694.9669084035976
 20
628.1457370868764
 30
0.0
 10
693.3420856045685
 20
628.3719804383359
 30
0.0
 10
691.8914371267905
 20
628.5794750974364
 30
0.0
 10
690.6194636864215
 20
628.7656735233963
 30
0.0
 10
689.5257487461403
 20
628.9289572374705
 30
0.0
 10
688.6099265866186
 20
629.0679421774662
 30
0.0
 10
687.8716854158364
 20
629.1814751409943
 30
0.0
 10
687.3107700492027
 20
629.268630515754
 30
0.0
 10
686.9162509911347
 20
629.3303876168745
 30
0.0
 10
686.5473997814842
 20
629.3884079697141
 30
0.0
 10
686.1306943342219
 20
629.454324518276
 30
0.0
 10
685.6190050820172
 20
629.5358990650518
 30
0.0
 10
685.0863904705224
 20
629.6214942362592
 30
0.0
 10
684.5256863472968
 20
629.7123371943285
 30
0.0
 10
683.9139682767735
 20
629.8123105152583
 30
0.0
 10
683.1090951638351
 20
629.9451171825656
 30
0.0
 10
682.0848137987908
 20
630.1163797953732
 30
0.0
 10
680.8152471672314
 20
630.3323605952419
 30
0.0
 10
679.4023212733308
 20
630.5773435598649
 30
0.0
 10
677.8465206503691
 20
630.8527156745281
 30
0.0
 10
676.1782250580767
 20
631.1545948975265
 30
0.0
 10
674.1461393881317
 20
631.5308126718605
 30
0.0
 10
671.8406000580047
 20
631.9699732815627
 30
0.0
 10
669.3220599467558
 20
632.4655240405275
 30
0.0
 10
666.8778094252665
 20
632.9611048026616
 30
0.0
 10
664.5151985264914
 20
633.4540748165998
 30
0.0
 10
662.2190855657417
 20
633.9465015490366
 30
0.0
 10
660.02883549466
 20
634.4285099865087
 30
0.0
 10
657.9548891265543
 20
634.895608413108
 30
0.0
 10
656.7437402158993
 20
635.1764773710261
 30
0.0
 10
656.0984249483121
 20
635.3263447825295
 30
0.0
  0
SPLINE
  5
36B4
330
A
100
AcDbEntity
  8
MODEL
100
AcDbSpline
210
0.0
220
0.0
230
1.0
 70
     8
 71
     3
 72
    39
 73
    35
 74
     0
 42
0.000000001
 43
0.0000000001
 40
0.0
 40
0.0
 40
0.0
 40
0.0
 40
0.0138103721619651
 40
0.0527259910824241
 40
0.0925479846894706
 40
0.1332769685641118
 40
0.1779226690857213
 40
0.2236007142058535
 40
0.2690799058865781
 40
0.3135132539547964
 40
0.3568914783922624
 40
0.4070373139259306
 40
0.4556708619738037
 40
0.5027797367500315
 40
0.5212973487852274
 40
0.5412494844879787
 40
0.5627164366336267
 40
0.5857008010076106
 40
0.610204749690684
 40
0.6362292623427017
 40
0.6637752098948079
 40
0.6928471352639354
 40
0.7234549939161061
 40
0.755603866396598
 40
0.7892816039272075
 40
0.8244925822592855
 40
0.8459815092965076
 40
0.867993642700461
 40
0.8904334572839524
 40
0.9131784855484854
 40
0.9361825957907219
 40
0.9594791377215707
 40
0.9830133548348445
 40
1.0
 40
1.0
 40
1.0
 40
1.0
 10
667.971030890128
 20
584.0829531623665
 30
0.0
 10
668.5407356460499
 20
584.2009258324838
 30
0.0
 10
670.3961210824335
 20
584.584438106195
 30
0.0
 10
673.9708156317396
 20
585.2880874089346
 30
0.0
 10
678.434771388026
 20
586.1197652033457
 30
0.0
 10
683.167538615748
 20
586.9471199819275
 30
0.0
 10
688.1187195208998
 20
587.7523046004394
 30
0.0
 10
693.2632699736486
 20
588.5222926100982
 30
0.0
 10
698.4082487156378
 20
589.2246064084177
 30
0.0
 10
703.474646630891
 20
589.8502527506598
 30
0.0
 10
708.7260371544816
 20
590.43207080197
 30
0.0
 10
714.1448732188459
 20
590.9596546388034
 30
0.0
 10
719.7128534019388
 20
591.4239238397765
 30
0.0
 10
724.0781126750497
 20
591.7302054136039
 30
0.0
 10
727.3493933483231
 20
591.9311468818737
 30
0.0
 10
729.6411813317526
 20
592.0603992064264
 30
0.0
 10
732.1044633080863
 20
592.1862676386361
 30
0.0
 10
734.7425466847952
 20
592.3064691103707
 30
0.0
 10
737.5556766234994
 20
592.4186175328432
 30
0.0
 10
740.5440015964572
 20
592.5205304748663
 30
0.0
 10
743.7077314973193
 20
592.6103355187481
 30
0.0
 10
747.0473967543065
 20
592.6865205819602
 30
0.0
 10
750.563672179151
 20
592.7480183799635
 30
0.0
 10
754.2565784953757
 20
592.7945974042398
 30
0.0
 10
758.1259255734793
 20
592.8274736439014
 30
0.0
 10
761.5870995576187
 20
592.8458287794576
 30
0.0
 10
764.6015712626471
 20
592.8560027859905
 30
0.0
 10
767.1268458463763
 20
592.8631565251214
 30
0.0
 10
769.7006130755789
 20
592.8681194434382
 30
0.0
 10
772.310943308419
 20
592.8477441786529
 30
0.0
 10
774.9586737821395
 20
592.763490921785
 30
0.0
 10
777.6107923176895
 20
592.5753488578762
 30
0.0
 10
780.0959391219861
 20
592.2897332244827
 30
0.0
 10
781.513292420187
 20
592.0070991200848
 30
0.0
 10
782.2147089880003
 20
591.8653386291849
 30
0.0
  0
ARC
  5
36B5
330
A
100
AcDbEntity
  8
MODEL
100
AcDbCircle
 10
746.222944786787
 20
202.7015870719428
 30
0.0
 40
389.3209699754856
100
AcDbArc
 50
102.5720380042
 51
103.3847124052
  0
ARC
  5
36B6
330
A
100
AcDbEntity
  8
MODEL
100
AcDbCircle
 10
656.030226402387
 20
635.0338925469428
 30
0.0
 40
0.2999100427079074
100
AcDbArc
 50
76.87329707338353
 51
180.0231957943136
  0
ARC
  5
36B7
330
A
100
AcDbEntity
  8
MODEL
100
AcDbCircle
 10
656.030225487987
 20
581.7394134183428
 30
0.0
 40
0.2999091290347066
100
AcDbArc
 50
179.9764714313906
 51
283.3918718129403
  0
LINE
  5
36B8
330
A
100
AcDbEntity
  8
MODEL
100
AcDbLine
 10
648.7303162649872
 20
583.6007729777427
 30
0.0
 11
648.7303162649872
 21
578.8857589887427
 31
0.0
  0
LINE
  5
36B9
330
A
100
AcDbEntity
  8
MODEL
100
AcDbLine
 10
648.7303162649872
 20
583.6007729777427
 30
0.0
 11
648.7303162649872
 21
633.1707449999428
 31
0.0
  0
LINE
  5
36BA
330
A
100
AcDbEntity
  8
MODEL
100
AcDbLine
 10
648.7303162649872
 20
633.1707449999428
 30
0.0
 11
648.7303162649872
 21
637.8857589887427
 31
0.0
  0
LINE
  5
36BB
330
A
100
AcDbEntity
  8
MODEL
100
AcDbLine
 10
655.7303162649872
 20
578.8857589887427
 30
0.0
 11
655.7303162649872
 21
583.6007729777427
 31
0.0
  0
LINE
  5
36BC
330
A
100
AcDbEntity
  8
MODEL
100
AcDbLine
 10
655.7303162649872
 20
633.1707449999428
 30
0.0
 11
655.7303162649872
 21
583.6007729777427
 31
0.0
  0
LINE
  5
36BD
330
A
100
AcDbEntity
  8
MODEL
100
AcDbLine
 10
655.7303162649872
 20
637.8857589887427
 30
0.0
 11
655.7303162649872
 21
633.1707449999428
 31
0.0
  0
LINE
  5
36BE
330
A
100
AcDbEntity
  8
MODEL
100
AcDbLine
 10
649.2303162649872
 20
578.3857589887427
 30
0.0
 11
655.2303162649872
 21
578.3857589887427
 31
0.0
  0
LINE
  5
36BF
330
A
100
AcDbEntity
  8
MODEL
100
AcDbLine
 10
655.2303162649872
 20
638.3857589887427
 30
0.0
 11
649.2303162649872
 21
638.3857589887427
 31
0.0
  0
ARC
  5
36C0
330
A
100
AcDbEntity
  8
MODEL
100
AcDbCircle
 10
655.2303162649872
 20
578.8857589887427
 30
0.0
 40
0.5000000000000004
100
AcDbArc
 50
270.0
 51
0.0
  0
ARC
  5
36C1
330
A
100
AcDbEntity
  8
MODEL
100
AcDbCircle
 10
649.2303162649872
 20
578.8857589887427
 30
0.0
 40
0.5000000000000004
100
AcDbArc
 50
180.0
 51
270.0
  0
ARC
  5
36C2
330
A
100
AcDbEntity
  8
MODEL
100
AcDbCircle
 10
655.2303162649872
 20
637.8857589887427
 30
0.0
 40
0.5000000000000004
100
AcDbArc
 50
0.0
 51
90.0
  0
ARC
  5
36C3
330
A
100
AcDbEntity
  8
MODEL
100
AcDbCircle
 10
649.2303162649872
 20
637.8857589887427
 30
0.0
 40
0.5000000000000004
100
AcDbArc
 50
90.0
 51
180.0
  0
LINE
  5
36C4
330
A
100
AcDbEntity
  8
MODEL
100
AcDbLine
 10
810.096332065987
 20
566.5304016953428
 30
0.0
 11
811.9220951685874
 21
567.5011771569427
 31
0.0
  0
LINE
  5
36C5
330
A
100
AcDbEntity
  8
MODEL
100
AcDbLine
 10
812.0799609631871
 20
567.5851158887428
 30
0.0
 11
834.9324971261871
 21
579.7360249041428
 31
0.0
  0
LINE
  5
36C6
330
A
100
AcDbEntity
  8
MODEL
100
AcDbLine
 10
809.1041067749874
 20
568.6973754979429
 30
0.0
 11
808.9118693065869
 21
568.5951610229429
 31
0.0
  0
SPLINE
  5
36C7
330
A
100
AcDbEntity
  8
MODEL
100
AcDbSpline
210
0.0
220
0.0
230
1.0
 70
     8
 71
     3
 72
    14
 73
    10
 74
     0
 42
0.000000001
 43
0.0000000001
 40
0.0
 40
0.0
 40
0.0
 40
0.0
 40
0.1405345538229069
 40
0.2608434734970035
 40
0.3608789169047402
 40
0.4406072115897584
 40
0.5000063545856578
 40
0.737593710775932
 40
1.0
 40
1.0
 40
1.0
 40
1.0
 10
808.9118693065624
 20
568.5951610228797
 30
0.0
 10
808.7188657983414
 20
568.4927513041043
 30
0.0
 10
808.3606357109173
 20
568.3026706006722
 30
0.0
 10
807.9498934849461
 20
568.0848005881464
 30
0.0
 10
807.6510579759037
 20
567.9263250994115
 30
0.0
 10
807.444080896957
 20
567.8165874803997
 30
0.0
 10
807.15513054271
 20
567.6633773389906
 30
0.0
 10
806.8446823527041
 20
567.49867203132
 30
0.0
 10
806.7484024968911
 20
567.447580917679
 30
0.0
 10
806.7482558762471
 20
567.4475029819159
 30
0.0
  0
SPLINE
  5
36C8
330
A
100
AcDbEntity
  8
MODEL
100
AcDbSpline
210
0.0
220
0.0
230
1.0
 70
     8
 71
     3
 72
    18
 73
    14
 74
     0
 42
0.000000001
 43
0.0000000001
 40
0.0
 40
0.0
 40
0.0
 40
0.0
 40
0.0702717162316978
 40
0.1304300804171093
 40
0.1804511704095242
 40
0.2203181491407914
 40
0.2500200145227282
 40
0.3688217871377933
 40
0.5000336740546596
 40
0.6312443603208371
 40
0.7500473336065044
 40
0.8433454699075501
 40
1.0
 40
1.0
 40
1.0
 40
1.0
 10
835.674470698735
 20
582.8250885988791
 30
0.0
 10
835.0712128875215
 20
582.5045427968248
 30
0.0
 10
833.9515168131232
 20
581.9095834446905
 30
0.0
 10
832.377398134064
 20
581.0731351975492
 30
0.0
 10
831.0585351655321
 20
580.3723014872844
 30
0.0
 10
830.000772114667
 20
579.8101929429363
 30
0.0
 10
828.3280561434948
 20
578.9212215718694
 30
0.0
 10
825.8240285848891
 20
577.5901694267573
 30
0.0
 10
822.3882368737612
 20
575.7634817882679
 30
0.0
 10
818.9519719356334
 20
573.9362322368729
 30
0.0
 10
815.8804928551662
 20
572.3026518032179
 30
0.0
 10
812.6130312585864
 20
570.5643234700442
 30
0.0
 10
810.4559985291656
 20
569.4166590223924
 30
0.0
 10
809.1041067750797
 20
568.6973754980108
 30
0.0
  0
SPLINE
  5
36C9
330
A
100
AcDbEntity
  8
MODEL
100
AcDbSpline
210
0.0
220
0.0
230
1.0
 70
    12
 71
     3
 72
     8
 73
     4
 74
     0
 42
0.000000001
 43
0.0000000001
 40
0.0
 40
0.0
 40
0.0
 40
0.0
 40
1.0
 40
1.0
 40
1.0
 40
1.0
 10
835.8667081672191
 20
582.927303074003
 30
0.0
 41
1.0
 10
837.294236491587
 20
583.6878363817866
 30
0.0
 41
1.0
 10
838.0279306235306
 20
584.0792883483375
 30
0.0
 41
1.0
 10
838.0279305522535
 20
584.0792883102729
 30
0.0
 41
1.0
  0
LINE
  5
36CA
330
A
100
AcDbEntity
  8
MODEL
100
AcDbLine
 10
811.9822919895872
 20
567.5331843743427
 30
0.0
 11
812.0799609631871
 21
567.5851158887428
 31
0.0
  0
LINE
  5
36CB
330
A
100
AcDbEntity
  8
MODEL
100
AcDbLine
 10
811.9220951685874
 20
567.5011771569427
 30
0.0
 11
811.9822919895872
 21
567.5331843743427
 31
0.0
  0
LINE
  5
36CC
330
A
100
AcDbEntity
  8
MODEL
100
AcDbLine
 10
835.030168146587
 20
579.7879575069428
 30
0.0
 11
835.0903649559872
 21
579.8199647181427
 31
0.0
  0
LINE
  5
36CD
330
A
100
AcDbEntity
  8
MODEL
100
AcDbLine
 10
834.9324971261871
 20
579.7360249041428
 30
0.0
 11
835.030168146587
 21
579.7879575069428
 31
0.0
  0
LINE
  5
36CE
330
A
100
AcDbEntity
  8
MODEL
100
AcDbLine
 10
835.2283157455871
 20
583.6613887049427
 30
0.0
 11
835.3560689727873
 21
583.7293163007428
 31
0.0
  0
ARC
  5
36CF
330
A
100
AcDbEntity
  8
MODEL
100
AcDbCircle
 10
809.8518707035872
 20
566.9611006567427
 30
0.0
 40
0.4937592233435382
100
AcDbArc
 50
251.9451411225826
 51
294.6133530740016
  0
SPLINE
  5
36D0
330
A
100
AcDbEntity
  8
MODEL
100
AcDbSpline
210
0.0
220
0.0
230
1.0
 70
     8
 71
     3
 72
    12
 73
     8
 74
     0
 42
0.000000001
 43
0.0000000001
 40
0.0
 40
0.0
 40
0.0
 40
0.0
 40
0.1992619293894271
 40
0.3989198143511304
 40
0.5989538657742964
 40
0.7993274336474108
 40
1.0
 40
1.0
 40
1.0
 40
1.0
 10
835.0903649560722
 20
579.8199647182091
 30
0.0
 10
835.3677789766933
 20
579.968696313962
 30
0.0
 10
835.8292432639972
 20
580.2167638889589
 30
0.0
 10
836.4106534179203
 20
580.5477221647475
 30
0.0
 10
836.8269454096288
 20
580.8040047913667
 30
0.0
 10
837.1011490995423
 20
580.9995741418322
 30
0.0
 10
837.1472859607619
 20
581.0628776010547
 30
0.0
 10
837.1705254168472
 20
581.0986076574479
 30
0.0
  0
SPLINE
  5
36D1
330
A
100
AcDbEntity
  8
MODEL
100
AcDbSpline
210
0.0
220
0.0
230
1.0
 70
     8
 71
     3
 72
    11
 73
     7
 74
     0
 42
0.000000001
 43
0.0000000001
 40
0.0
 40
0.0
 40
0.0
 40
0.0
 40
0.2511458899023404
 40
0.5000246573486623
 40
0.7488907319247409
 40
1.0
 40
1.0
 40
1.0
 40
1.0
 10
806.4609837601637
 20
567.6885326800518
 30
0.0
 10
806.4790588047066
 20
567.6581662914455
 30
0.0
 10
806.5103580156668
 20
567.6072768437161
 30
0.0
 10
806.579305969224
 20
567.5378504673099
 30
0.0
 10
806.6596814551821
 20
567.4820582566495
 30
0.0
 10
806.7152425745925
 20
567.4601114517639
 30
0.0
 10
806.7482900421577
 20
567.4476084320597
 30
0.0
  0
SPLINE
  5
36D2
330
A
100
AcDbEntity
  8
MODEL
100
AcDbSpline
210
0.0
220
0.0
230
1.0
 70
     8
 71
     3
 72
    11
 73
     7
 74
     0
 42
0.000000001
 43
0.0000000001
 40
0.0
 40
0.0
 40
0.0
 40
0.0
 40
0.2511092680766839
 40
0.4999753426528699
 40
0.7488541100990139
 40
1.0
 40
1.0
 40
1.0
 40
1.0
 10
838.0279305522535
 20
584.0792883102731
 30
0.0
 10
838.0360449884878
 20
584.1136775024536
 30
0.0
 10
838.0489196463221
 20
584.1720122555657
 30
0.0
 10
838.0476112087839
 20
584.2698451616104
 30
0.0
 10
838.0286093405483
 20
584.3658283426605
 30
0.0
 10
838.003922372984
 20
584.4202335825696
 30
0.0
 10
837.9888549325227
 20
584.4521991426334
 30
0.0
  0
ARC
  5
36D3
330
A
100
AcDbEntity
  8
MODEL
100
AcDbCircle
 10
806.585942400587
 20
568.0923241535427
 30
0.0
 40
0.2998883052795836
100
AcDbArc
 50
117.9833383514219
 51
208.0207926834618
  0
ARC
  5
36D4
330
A
100
AcDbEntity
  8
MODEL
100
AcDbCircle
 10
837.5842206445872
 20
584.5744010611427
 30
0.0
 40
0.2998883052872358
100
AcDbArc
 50
27.9792073191478
 51
118.0166616464183
  0
LINE
  5
36D5
330
A
100
AcDbEntity
  8
MODEL
100
AcDbLine
 10
837.9898584537872
 20
584.4507093629427
 30
0.0
 11
837.8492330435873
 21
584.7151841447428
 31
0.0
  0
LINE
  5
36D6
330
A
100
AcDbEntity
  8
MODEL
100
AcDbLine
 10
806.3210348817873
 20
567.9513438189429
 30
0.0
 11
806.4616576813872
 21
567.6868676489428
 31
0.0
  0
LINE
  5
36D7
330
A
100
AcDbEntity
  8
MODEL
100
AcDbLine
 10
837.1706556927874
 20
581.0985702577427
 30
0.0
 11
838.0332142383871
 21
584.0972560661428
 31
0.0
  0
LINE
  5
36D8
330
A
100
AcDbEntity
  8
MODEL
100
AcDbLine
 10
806.7304394995871
 20
567.4532754987429
 30
0.0
 11
809.6987993187871
 21
566.4915251183427
 31
0.0
  0
LINE
  5
36D9
330
A
100
AcDbEntity
  8
MODEL
100
AcDbLine
 10
816.114484064787
 20
564.6643377269427
 30
0.0
 11
835.097857311387
 21
574.7579763269428
 31
0.0
  0
LINE
  5
36DA
330
A
100
AcDbEntity
  8
MODEL
100
AcDbLine
 10
835.4344012441869
 20
575.2965592031428
 30
0.0
 11
827.7408404233873
 21
571.2058203517429
 31
0.0
  0
SPLINE
  5
36DB
330
A
100
AcDbEntity
  8
MODEL
100
AcDbSpline
210
0.0
220
0.0
230
1.0
 70
     8
 71
     3
 72
    10
 73
     6
 74
     0
 42
0.000000001
 43
0.0000000001
 40
0.0
 40
0.0
 40
0.0
 40
0.0
 40
0.5
 40
0.5
 40
1.0
 40
1.0
 40
1.0
 40
1.0
 10
827.7408404234019
 20
571.2058203517329
 30
0.0
 10
827.0332024004518
 20
570.7005426061505
 30
0.0
 10
826.2998498650257
 20
570.2434766492711
 30
0.0
 10
824.7773613981302
 20
569.4339322638866
 30
0.0
 10
823.9882247152349
 20
569.0814552442189
 30
0.0
 10
823.1733464662697
 20
568.7772407356688
 30
0.0
  0
LINE
  5
36DC
330
A
100
AcDbEntity
  8
MODEL
100
AcDbLine
 10
828.8214393615871
 20
572.7612194345427
 30
0.0
 11
835.4693007407872
 21
576.2959500301429
 31
0.0
  0
LINE
  5
36DD
330
A
100
AcDbEntity
  8
MODEL
100
AcDbLine
 10
827.9686762161872
 20
574.3650336507428
 30
0.0
 11
820.4268357831869
 21
570.3549659603427
 31
0.0
  0
LINE
  5
36DE
330
A
100
AcDbEntity
  8
MODEL
100
AcDbLine
 10
827.9686762161872
 20
574.3650336507428
 30
0.0
 11
828.8214393615871
 21
572.7612194345427
 31
0.0
  0
SPLINE
  5
36DF
330
A
100
AcDbEntity
  8
MODEL
100
AcDbSpline
210
0.0
220
0.0
230
1.0
 70
     8
 71
     3
 72
    14
 73
    10
 74
     0
 42
0.000000001
 43
0.0000000001
 40
0.0
 40
0.0
 40
0.0
 40
0.0
 40
0.1250000000000004
 40
0.1250000000000004
 40
0.2500000000000009
 40
0.2500000000000009
 40
0.5000000000000008
 40
0.5000000000000008
 40
1.0
 40
1.0
 40
1.0
 40
1.0
 10
828.821439361668
 20
572.7612194345145
 30
0.0
 10
828.8609882559257
 20
572.6868387824088
 30
0.0
 10
828.8721178813097
 20
572.5974651748295
 30
0.0
 10
828.852883077904
 20
572.429586474366
 30
0.0
 10
828.8248514184801
 20
572.3478426987626
 30
0.0
 10
828.7171693036288
 20
572.1194320873874
 30
0.0
 10
828.6129611386685
 20
571.9831527748256
 30
0.0
 10
828.2777536925686
 20
571.6108288884657
 30
0.0
 10
828.0132112645623
 20
571.4003024458548
 30
0.0
 10
827.7408404234019
 20
571.2058203517329
 30
0.0
  0
SPLINE
  5
36E0
330
A
100
AcDbEntity
  8
MODEL
100
AcDbSpline
210
0.0
220
0.0
230
1.0
 70
     8
 71
     3
 72
    18
 73
    14
 74
     0
 42
0.000000001
 43
0.0000000001
 40
0.0
 40
0.0
 40
0.0
 40
0.0
 40
0.2499999999999998
 40
0.2499999999999998
 40
0.4999999999999997
 40
0.4999999999999997
 40
0.6249999999999992
 40
0.6249999999999992
 40
0.7499999999999989
 40
0.7499999999999989
 40
0.8749999999999994
 40
0.8749999999999994
 40
1.0
 40
1.0
 40
1.0
 40
1.0
 10
823.1733464662697
 20
568.7772407356688
 30
0.0
 10
823.0161070803609
 20
568.7185393252803
 30
0.0
 10
822.8572222553302
 20
568.6647222585684
 30
0.0
 10
822.5340919285776
 20
568.5730008301114
 30
0.0
 10
822.3699746849956
 20
568.5349515127357
 30
0.0
 10
822.1217237577001
 20
568.5002755059677
 30
0.0
 10
822.0384853621316
 20
568.4924501098494
 30
0.0
 10
821.8705270060008
 20
568.4881315028513
 30
0.0
 10
821.7853169129452
 20
568.4916790097384
 30
0.0
 10
821.6198984233482
 20
568.5173199118849
 30
0.0
 10
821.537540978259
 20
568.5393423831913
 30
0.0
 10
821.386550498244
 20
568.6177986962377
 30
0.0
 10
821.3198565766551
 20
568.6754381199157
 30
0.0
 10
821.27959892855
 20
568.7511517441396
 30
0.0
  0
LINE
  5
36E1
330
A
100
AcDbEntity
  8
MODEL
100
AcDbLine
 10
821.2795989285872
 20
568.7511517441428
 30
0.0
 11
820.4268357831869
 21
570.3549659603427
 31
0.0
  0
LINE
  5
36E2
330
A
100
AcDbEntity
  8
MODEL
100
AcDbLine
 10
823.1733464661874
 20
568.7772407357427
 30
0.0
 11
815.479785645587
 21
564.6865018841429
 31
0.0
  0
LINE
  5
36E3
330
A
100
AcDbEntity
  8
MODEL
100
AcDbLine
 10
821.2795989285872
 20
568.7511517441428
 30
0.0
 11
814.6317375493871
 21
565.2164211485428
 31
0.0
  0
LINE
  5
36E4
330
A
100
AcDbEntity
  8
MODEL
100
AcDbLine
 10
815.479785645587
 20
564.6865018841429
 30
0.0
 11
816.114484064787
 21
564.6643377269427
 31
0.0
  0
LINE
  5
36E5
330
A
100
AcDbEntity
  8
MODEL
100
AcDbLine
 10
835.097857311387
 20
574.7579763269428
 30
0.0
 11
835.4344012441869
 21
575.2965592031428
 31
0.0
  0
ARC
  5
36E6
330
A
100
AcDbEntity
  8
MODEL
100
AcDbCircle
 10
815.5146851421872
 20
565.6858927111427
 30
0.0
 40
0.9999999999999738
100
AcDbArc
 50
207.9999999999874
 51
267.9999999999962
  0
ARC
  5
36E7
330
A
100
AcDbEntity
  8
MODEL
100
AcDbCircle
 10
834.5863531479871
 20
575.8264784673429
 30
0.0
 40
1.000000000000032
100
AcDbArc
 50
328.000000000013
 51
27.99999999998436
  0
LINE
  5
36E8
330
A
100
AcDbEntity
  8
MODEL
100
AcDbLine
 10
813.0874484665873
 20
568.1208064967427
 30
0.0
 11
814.6317375493871
 21
565.2164211485428
 31
0.0
  0
LINE
  5
36E9
330
A
100
AcDbEntity
  8
MODEL
100
AcDbLine
 10
835.4693007407872
 20
576.2959500301429
 30
0.0
 11
833.9250116579873
 21
579.2003353783427
 31
0.0
  0
LINE
  5
36EC
330
A
100
AcDbEntity
  8
MODEL
100
AcDbLine
 10
825.6061706879872
 20
569.7111570269428
 30
0.0
 11
825.6061706879872
 21
562.3149110455429
 31
0.0
  0
LINE
  5
36ED
330
A
100
AcDbEntity
  8
MODEL
100
AcDbLine
 10
824.1977559997871
 20
572.3599998055429
 30
0.0
 11
829.0055080241872
 21
563.3179333341427
 31
0.0
  0
CIRCLE
  5
36F0
330
A
100
AcDbEntity
  8
MODEL
100
AcDbCircle
 10
293.0998924245937
 20
1217.68654511591
 30
0.0
 40
16.0
  0
SPLINE
  5
36F1
330
A
100
AcDbEntity
  8
MODEL
100
AcDbSpline
210
0.0
220
0.0
230
1.0
 70
    12
 71
     3
 72
     8
 73
     4
 74
     0
 42
0.000000001
 43
0.0000000001
 40
0.0
 40
0.0
 40
0.0
 40
0.0
 40
0.9999999999999999
 40
0.9999999999999999
 40
0.9999999999999999
 40
0.9999999999999999
 10
308.7545945409645
 20
865.6732618185846
 30
0.0
 41
1.0
 10
308.7548868890761
 20
865.6599847404517
 30
0.0
 41
1.0
 10
308.7550666015262
 20
865.6467065406576
 30
0.0
 41
1.0
 10
308.7551336639119
 20
865.6334272978692
 30
0.0
 41
1.0
  0
ARC
  5
36F2
330
A
100
AcDbEntity
  8
MODEL
100
AcDbCircle
 10
306.0139980104937
 20
863.1760001692431
 30
0.0
 40
1.072446354419285
100
AcDbArc
 50
270.7682069536011
 51
276.9559787853998
  0
ARC
  5
36F3
330
A
100
AcDbEntity
  8
MODEL
100
AcDbCircle
 10
293.0998921576937
 20
1022.482788596243
 30
0.0
 40
160.8993901214767
100
AcDbArc
 50
265.3912400470001
 51
274.608762086
  0
ARC
  5
36F4
330
A
100
AcDbEntity
  8
MODEL
100
AcDbCircle
 10
280.1858042424937
 20
863.1760971936432
 30
0.0
 40
1.0725440117362
100
AcDbArc
 50
263.0478435695999
 51
269.2312236556996
  0
LINE
  5
36F5
330
A
100
AcDbEntity
  8
MODEL
100
AcDbLine
 10
279.7548439400937
 20
862.2300647158435
 30
0.0
 11
279.7657306588937
 21
862.2221117822431
 31
0.0
  0
SPLINE
  5
36F6
330
A
100
AcDbEntity
  8
MODEL
100
AcDbSpline
210
0.0
220
0.0
230
1.0
 70
     8
 71
     3
 72
    23
 73
    19
 74
     0
 42
0.000000001
 43
0.0000000001
 40
0.0
 40
0.0
 40
0.0
 40
0.0
 40
0.0505726915800433
 40
0.1205580708511048
 40
0.1818720841076328
 40
0.234495801717834
 40
0.2784198947982472
 40
0.3165626003438087
 40
0.4038233075377766
 40
0.4877473693735341
 40
0.5354049247061713
 40
0.5838714552424027
 40
0.6331495336286943
 40
0.6844799345167439
 40
0.7461566436662833
 40
0.8197178640266913
 40
0.9051746269560198
 40
1.0
 40
1.0
 40
1.0
 40
1.0
 10
277.4471563592707
 20
865.5638601857671
 30
0.0
 10
277.4481063571979
 20
865.501841498847
 30
0.0
 10
277.4524009375382
 20
865.3668289796941
 30
0.0
 10
277.4830249862659
 20
865.1469181380847
 30
0.0
 10
277.5308727820967
 20
864.9317342436119
 30
0.0
 10
277.5861920381157
 20
864.747482918723
 30
0.0
 10
277.6429184923909
 20
864.5922168833107
 30
0.0
 10
277.7241553353415
 20
864.3990750098336
 30
0.0
 10
277.8442755191405
 20
864.1615547493165
 30
0.0
 10
277.9975857787571
 20
863.9157438629035
 30
0.0
 10
278.1407992596509
 20
863.7156252430744
 30
0.0
 10
278.2663744650767
 20
863.5553709326331
 30
0.0
 10
278.4054500995367
 20
863.3923924393379
 30
0.0
 10
278.5682637596793
 20
863.2165317473845
 30
0.0
 10
278.7703995457406
 20
863.016033490191
 30
0.0
 10
279.0292216876397
 20
862.7825468328482
 30
0.0
 10
279.3621165701299
 20
862.51050791977
 30
0.0
 10
279.6031963066224
 20
862.3378732905284
 30
0.0
 10
279.7548439400767
 20
862.2300647158471
 30
0.0
  0
LINE
  5
36F7
330
A
100
AcDbEntity
  8
MODEL
100
AcDbLine
 10
279.7748311558937
 20
862.216235231643
 30
0.0
 11
279.9232032674936
 21
862.142399579643
 31
0.0
  0
ARC
  5
36F8
330
A
100
AcDbEntity
  8
MODEL
100
AcDbCircle
 10
280.1256554006937
 20
862.9034491456431
 30
0.0
 40
0.7876363772583442
100
AcDbArc
 50
255.0638591053997
 51
265.6139028355004
  0
ARC
  5
36F9
330
A
100
AcDbEntity
  8
MODEL
100
AcDbCircle
 10
306.0741580362937
 20
862.9033560288434
 30
0.0
 40
0.787540131741208
100
AcDbArc
 50
274.3892619492054
 51
284.9364752340972
  0
LINE
  5
36FA
330
A
100
AcDbEntity
  8
MODEL
100
AcDbLine
 10
306.2765895620936
 20
862.1424005838434
 30
0.0
 11
306.4249599872937
 21
862.2162351882433
 31
0.0
  0
SPLINE
  5
36FB
330
A
100
AcDbEntity
  8
MODEL
100
AcDbSpline
210
0.0
220
0.0
230
1.0
 70
     8
 71
     3
 72
    23
 73
    19
 74
     0
 42
0.000000001
 43
0.0000000001
 40
0.0
 40
0.0
 40
0.0
 40
0.0
 40
0.0950366648345576
 40
0.1806854541618544
 40
0.2544124324291576
 40
0.3162286561469628
 40
0.3676756347509669
 40
0.4170651802554881
 40
0.4656407339166263
 40
0.5134048732522252
 40
0.5665664834473607
 40
0.6210307349055335
 40
0.6768858648922398
 40
0.7348959144147894
 40
0.7906347166034212
 40
0.8584784456615953
 40
0.9384034175903223
 40
1.0
 40
1.0
 40
1.0
 40
1.0
 10
306.4449528390527
 20
862.2300687793785
 30
0.0
 10
306.5965973881181
 20
862.3378751598847
 30
0.0
 10
306.8376744559785
 20
862.5105078595378
 30
0.0
 10
307.1705673436945
 20
862.7825449558194
 30
0.0
 10
307.4293909304277
 20
863.0160327438133
 30
0.0
 10
307.6315291756347
 20
863.2165333978513
 30
0.0
 10
307.7943454701381
 20
863.3923973399422
 30
0.0
 10
307.9334216143376
 20
863.5553765862654
 30
0.0
 10
308.0589992569178
 20
863.7156356877002
 30
0.0
 10
308.1776372247759
 20
863.8814118685663
 30
0.0
 10
308.2897481044875
 20
864.0552051141875
 30
0.0
 10
308.3947331345169
 20
864.2391595761254
 30
0.0
 10
308.4891937349525
 20
864.4299098162395
 30
0.0
 10
308.5698881213429
 20
864.6228284274301
 30
0.0
 10
308.6417543324513
 20
864.8330082313072
 30
0.0
 10
308.7027381521225
 20
865.0697474369534
 30
0.0
 10
308.7440921969487
 20
865.3217720505694
 30
0.0
 10
308.7503152713809
 20
865.4796855970975
 30
0.0
 10
308.7518512684726
 20
865.555234942607
 30
0.0
  0
LINE
  5
36FC
330
A
100
AcDbEntity
  8
MODEL
100
AcDbLine
 10
306.4340605028937
 20
862.2221117452431
 30
0.0
 11
306.4449528390937
 21
862.2300687794431
 31
0.0
  0
SPLINE
  5
36FD
330
A
100
AcDbEntity
  8
MODEL
100
AcDbSpline
210
0.0
220
0.0
230
1.0
 70
     8
 71
     3
 72
    63
 73
    59
 74
     0
 42
0.000000001
 43
0.0000000001
 40
0.0
 40
0.0
 40
0.0
 40
0.0
 40
0.0060981253039272
 40
0.0140576676124852
 40
0.0212013097846096
 40
0.0286102043696366
 40
0.036433690921885
 40
0.0473064091133937
 40
0.058891854761993
 40
0.0711910449394871
 40
0.0886787175307245
 40
0.1062018359611262
 40
0.1234447212595371
 40
0.140406206012287
 40
0.1699913112866536
 40
0.1986704049810789
 40
0.2265976780108873
 40
0.2551391452677015
 40
0.2852217085049253
 40
0.3162734581276243
 40
0.3482948348060881
 40
0.3812857386517153
 40
0.4152456401907647
 40
0.449930889540855
 40
0.4845181439340616
 40
0.5236184404347596
 40
0.5624999668423947
 40
0.6011603232767491
 40
0.6395973851530019
 40
0.6778099133870118
 40
0.7156434905884327
 40
0.7524530234082435
 40
0.7704464751890281
 40
0.788165745945559
 40
0.8056112570271323
 40
0.822782123644164
 40
0.8396750774712272
 40
0.8562880481132357
 40
0.8724135217808398
 40
0.8853318798646038
 40
0.8970341672936408
 40
0.9075203728220578
 40
0.9167917375671002
 40
0.919189343377079
 40
0.9214555786242028
 40
0.9235904812791306
 40
0.9255941038219313
 40
0.9279539715675341
 40
0.931563837765985
 40
0.9364432628513588
 40
0.9424578659479577
 40
0.9496916628391607
 40
0.9581439857353061
 40
0.9678248498330071
 40
0.9762849812527167
 40
0.985503972739343
 40
0.9955118680940953
 40
1.0
 40
1.0
 40
1.0
 40
1.0
 10
266.1600748814294
 20
995.4484361335891
 30
0.0
 10
266.2265891546489
 20
995.1637355750828
 30
0.0
 10
266.3561432152752
 20
994.6088616147487
 30
0.0
 10
266.5678851348159
 20
993.6881963701613
 30
0.0
 10
266.7845846914713
 20
992.7368141926141
 30
0.0
 10
266.9993037562953
 20
991.7839718899328
 30
0.0
 10
267.2467259618805
 20
990.6738671270965
 30
0.0
 10
267.5301754173409
 20
989.3846514545932
 30
0.0
 10
267.8503758882293
 20
987.9040200906026
 30
0.0
 10
268.2251139387405
 20
986.1401415649508
 30
0.0
 10
268.6444990908427
 20
984.1212158167883
 30
0.0
 10
269.0958834447593
 20
981.8888883900551
 30
0.0
 10
269.5310984162775
 20
979.6767234060986
 30
0.0
 10
270.0536749985321
 20
976.9459793847401
 30
0.0
 10
270.6472187835175
 20
973.7213648755966
 30
0.0
 10
271.2944664047307
 20
970.0208090224079
 30
0.0
 10
271.9021042462113
 20
966.3596458586641
 30
0.0
 10
272.487240097508
 20
962.632882651461
 30
0.0
 10
273.058190969792
 20
958.7661983674808
 30
0.0
 10
273.6127039453107
 20
954.7439513407143
 30
0.0
 10
274.1431690630085
 20
950.5906318643464
 30
0.0
 10
274.6455705438956
 20
946.30616982548
 30
0.0
 10
275.1147881497599
 20
941.901160661026
 30
0.0
 10
275.5429149561177
 20
937.4220651728696
 30
0.0
 10
275.9415177653408
 20
932.7153612878295
 30
0.0
 10
276.3003047663242
 20
927.8220220589677
 30
0.0
 10
276.6132071127739
 20
922.7476690019292
 30
0.0
 10
276.8685063564173
 20
917.6990492326139
 30
0.0
 10
277.0704423109947
 20
912.6772115974812
 30
0.0
 10
277.2241472563186
 20
907.6897347408784
 30
0.0
 10
277.3354383829781
 20
902.7721019384552
 30
0.0
 10
277.3996865147209
 20
898.7349922239986
 30
0.0
 10
277.4377885408842
 20
895.574310951742
 30
0.0
 10
277.4607752511722
 20
893.2575019449818
 30
0.0
 10
277.4794755132115
 20
890.9765091181956
 30
0.0
 10
277.4949274261947
 20
888.7315099119891
 30
0.0
 10
277.5081593305093
 20
886.5227840468136
 30
0.0
 10
277.5193105249147
 20
884.3596249883775
 30
0.0
 10
277.5279463235775
 20
882.369774239888
 30
0.0
 10
277.5345337259488
 20
880.5940984939106
 30
0.0
 10
277.5390505782466
 20
879.0643782654723
 30
0.0
 10
277.5416133775475
 20
877.6939196466573
 30
0.0
 10
277.5421934548809
 20
876.7291345987845
 30
0.0
 10
277.5420147294753
 20
876.1225713542102
 30
0.0
 10
277.5418174245499
 20
875.8267134719475
 30
0.0
 10
277.5415301626877
 20
875.5480838594675
 30
0.0
 10
277.5411388368307
 20
875.265447124127
 30
0.0
 10
277.5405261678581
 20
874.918915236988
 30
0.0
 10
277.5394387559953
 20
874.4478638484383
 30
0.0
 10
277.5374791563477
 20
873.8186030151545
 30
0.0
 10
277.5341696888265
 20
873.0328936178292
 30
0.0
 10
277.5288842043441
 20
872.0935549133554
 30
0.0
 10
277.5207537070191
 20
870.9972403364017
 30
0.0
 10
277.5096754269225
 20
869.8514453420484
 30
0.0
 10
277.4955255752835
 20
868.6734089132545
 30
0.0
 10
277.4784142327077
 20
867.495825360991
 30
0.0
 10
277.46090497944
 20
866.4566183015712
 30
0.0
 10
277.4490186888475
 20
865.8819103038544
 30
0.0
 10
277.4446730413854
 20
865.6728384234892
 30
0.0
  0
SPLINE
  5
36FE
330
A
100
AcDbEntity
  8
MODEL
100
AcDbSpline
210
0.0
220
0.0
230
1.0
 70
     8
 71
     3
 72
    59
 73
    55
 74
     0
 42
0.000000001
 43
0.0000000001
 40
0.0
 40
0.0
 40
0.0
 40
0.0
 40
0.00532851409339
 40
0.0160841359380618
 40
0.0259928431456639
 40
0.0350615351085221
 40
0.0433031717104915
 40
0.0528345594006539
 40
0.0609476043364976
 40
0.0676389857132761
 40
0.0722203286251909
 40
0.0757702655422368
 40
0.0782886287971134
 40
0.0801809712364631
 40
0.081819789511712
 40
0.083952444985472
 40
0.08657905874735
 40
0.089699780694757
 40
0.0933148321756694
 40
0.0974245593052791
 40
0.1020271291605428
 40
0.132805137604565
 40
0.1612236988299609
 40
0.1905139177487699
 40
0.226436261538039
 40
0.2631182333394665
 40
0.3004985303844033
 40
0.3413226816492317
 40
0.382947780241285
 40
0.4253719924313085
 40
0.4682342033677516
 40
0.5112089868264591
 40
0.5540586903705172
 40
0.5970129556444882
 40
0.6400665518107204
 40
0.6832132409229534
 40
0.7263189564202082
 40
0.7685645994446049
 40
0.809804875280216
 40
0.8276320612702652
 40
0.8452644597859679
 40
0.8627020069334124
 40
0.8799446212528144
 40
0.896992203135454
 40
0.9138424822850197
 40
0.9299418884379204
 40
0.9452439811962358
 40
0.9593055608753296
 40
0.9721288660194696
 40
0.9777452866423878
 40
0.9830872132831238
 40
0.9886357456012264
 40
0.9952324508047293
 40
1.0
 40
1.0
 40
1.0
 40
1.0
 10
308.7552010331079
 20
865.6735244322743
 30
0.0
 10
308.7500497260849
 20
865.921918698188
 30
0.0
 10
308.7369051097921
 20
866.559362391224
 30
0.0
 10
308.7181447778203
 20
867.6987808373382
 30
0.0
 10
308.7003973071701
 20
868.9651236817225
 30
0.0
 10
308.6871253942587
 20
870.1385003372069
 30
0.0
 10
308.6765645012266
 20
871.296043723219
 30
0.0
 10
308.6688023386653
 20
872.415499322837
 30
0.0
 10
308.6635631875723
 20
873.4695696162843
 30
0.0
 10
308.660675638944
 20
874.3103025684676
 30
0.0
 10
308.6591616608211
 20
874.9536536680174
 30
0.0
 10
308.6584119779837
 20
875.416161992346
 30
0.0
 10
308.6580310243857
 20
875.7620240912173
 30
0.0
 10
308.6578370051924
 20
876.0250872024848
 30
0.0
 10
308.6577253231353
 20
876.2716180113406
 30
0.0
 10
308.6576816422725
 20
876.5501234095062
 30
0.0
 10
308.6577514921163
 20
876.893213309091
 30
0.0
 10
308.6580036859598
 20
877.3009078265408
 30
0.0
 10
308.6585125867389
 20
877.7732611731129
 30
0.0
 10
308.65935029606
 20
878.3102284905852
 30
0.0
 10
308.6629111269521
 20
880.0306112259026
 30
0.0
 10
308.6730687853023
 20
882.8109638489567
 30
0.0
 10
308.6918513518647
 20
886.6675331139694
 30
0.0
 10
308.7175397353017
 20
890.7483506694001
 30
0.0
 10
308.7553066289417
 20
895.1892426669123
 30
0.0
 10
308.8164334471733
 20
899.9825248459382
 30
0.0
 10
308.9095346887843
 20
904.98898478238
 30
0.0
 10
309.0465918786833
 20
910.2099835356574
 30
0.0
 10
309.2411994148275
 20
915.6491622381426
 30
0.0
 10
309.4992224705399
 20
921.1746533261888
 30
0.0
 10
309.8267914688512
 20
926.7554083824242
 30
0.0
 10
310.2264125245167
 20
932.3500771175908
 30
0.0
 10
310.6997609995879
 20
937.9430288794882
 30
0.0
 10
311.2484101648573
 20
943.5325581013107
 30
0.0
 10
311.874454444368
 20
949.1269800371036
 30
0.0
 10
312.5777441106343
 20
954.7188718917768
 30
0.0
 10
313.3523170817409
 20
960.2657806095136
 30
0.0
 10
314.1883884109489
 20
965.7196878437586
 30
0.0
 10
314.9138748457848
 20
970.0755189371595
 30
0.0
 10
315.4928873413875
 20
973.3679479997023
 30
0.0
 10
315.9044788148516
 20
975.6364290982334
 30
0.0
 10
316.3234644953394
 20
977.8776395709525
 30
0.0
 10
316.7494019751172
 20
980.0915878375891
 30
0.0
 10
317.1818494151551
 20
982.2781863771662
 30
0.0
 10
317.6155833144853
 20
984.4137116572371
 30
0.0
 10
318.0444526193932
 20
986.4725580345436
 30
0.0
 10
318.4577919767791
 20
988.4104913029561
 30
0.0
 10
318.8493816129566
 20
990.2069425174087
 30
0.0
 10
319.1568358081012
 20
991.589949060906
 30
0.0
 10
319.3845758403425
 20
992.600757256968
 30
0.0
 10
319.5441216610183
 20
993.3033456513318
 30
0.0
 10
319.7132553867993
 20
994.0421823263897
 30
0.0
 10
319.8827539881215
 20
994.7770339154109
 30
0.0
 10
319.9876158887417
 20
995.2258820981234
 30
0.0
 10
320.0396391570256
 20
995.4484541080102
 30
0.0
  0
ARC
  5
36FF
330
A
100
AcDbEntity
  8
MODEL
100
AcDbCircle
 10
266.4520323012937
 20
995.5167513138432
 30
0.0
 40
0.2999099075258666
100
AcDbArc
 50
89.97675315260578
 51
193.1674903561411
  0
ARC
  5
3700
330
A
100
AcDbEntity
  8
MODEL
100
AcDbCircle
 10
319.7477589122937
 20
995.5167513138432
 30
0.0
 40
0.2999099075218008
100
AcDbArc
 50
346.8325096414447
 51
90.02324684509232
  0
SPLINE
  5
3701
330
A
100
AcDbEntity
  8
MODEL
100
AcDbSpline
210
0.0
220
0.0
230
1.0
 70
    12
 71
     3
 72
     8
 73
     4
 74
     0
 42
0.000000001
 43
0.0000000001
 40
0.0
 40
0.0
 40
0.0
 40
0.0
 40
1.0
 40
1.0
 40
1.0
 40
1.0
 10
309.7040002071645
 20
865.08773854453
 30
0.0
 41
1.0
 10
309.7220533526503
 20
864.9232762070213
 30
0.0
 41
1.0
 10
309.7234091143904
 20
864.7588138695127
 30
0.0
 41
1.0
 10
309.7080674923849
 20
864.594351532004
 30
0.0
 41
1.0
  0
SPLINE
  5
3702
330
A
100
AcDbEntity
  8
MODEL
100
AcDbSpline
210
0.0
220
0.0
230
1.0
 70
    12
 71
     3
 72
     8
 73
     4
 74
     0
 42
0.000000001
 43
0.0000000001
 40
0.0
 40
0.0
 40
0.0
 40
0.0
 40
1.0
 40
1.0
 40
1.0
 40
1.0
 10
309.7039605439083
 20
863.5836052378207
 30
0.0
 41
1.0
 10
309.7137475649851
 20
863.6726434767446
 30
0.0
 41
1.0
 10
309.7186405334441
 20
863.761681715668
 30
0.0
 41
1.0
 10
309.7186394492855
 20
863.8507199545915
 30
0.0
 41
1.0
  0
SPLINE
  5
3703
330
A
100
AcDbEntity
  8
MODEL
100
AcDbSpline
210
0.0
220
0.0
230
1.0
 70
    12
 71
     3
 72
     8
 73
     4
 74
     0
 42
0.000000001
 43
0.0000000001
 40
0.0
 40
0.0
 40
0.0
 40
0.0
 40
1.0
 40
1.0
 40
1.0
 40
1.0
 10
276.4957848411773
 20
864.5542884491746
 30
0.0
 41
1.0
 10
276.4777316700337
 20
864.7187499016721
 30
0.0
 41
1.0
 10
276.4763757029311
 20
864.8832113541692
 30
0.0
 41
1.0
 10
276.4917169398693
 20
865.0476728066668
 30
0.0
 41
1.0
  0
SPLINE
  5
3704
330
A
100
AcDbEntity
  8
MODEL
100
AcDbSpline
210
0.0
220
0.0
230
1.0
 70
    12
 71
     3
 72
     8
 73
     4
 74
     0
 42
0.000000001
 43
0.0000000001
 40
0.0
 40
0.0
 40
0.0
 40
0.0
 40
1.0
 40
1.0
 40
1.0
 40
1.0
 10
276.4811453998882
 20
863.8506605899423
 30
0.0
 41
1.0
 10
276.4811463181744
 20
863.7752549691685
 30
0.0
 41
1.0
 10
276.4846573644335
 20
863.6998493483951
 30
0.0
 41
1.0
 10
276.4916785386663
 20
863.6244437276213
 30
0.0
 41
1.0
  0
LINE
  5
3705
330
A
100
AcDbEntity
  8
MODEL
100
AcDbLine
 10
309.7186394494937
 20
863.8506903520432
 30
0.0
 11
309.7186394494937
 21
864.821014481843
 31
0.0
  0
LINE
  5
3706
330
A
100
AcDbEntity
  8
MODEL
100
AcDbLine
 10
276.4811453996937
 20
864.8210143222431
 30
0.0
 11
276.4811453996937
 21
863.8506901924433
 31
0.0
  0
SPLINE
  5
3707
330
A
100
AcDbEntity
  8
MODEL
100
AcDbSpline
210
0.0
220
0.0
230
1.0
 70
     8
 71
     3
 72
    18
 73
    14
 74
     0
 42
0.000000001
 43
0.0000000001
 40
0.0
 40
0.0
 40
0.0
 40
0.0
 40
0.0610626149146499
 40
0.1559600505753114
 40
0.2522454807520805
 40
0.350392164946396
 40
0.4506063323836224
 40
0.5528042105138739
 40
0.6566629648378873
 40
0.7617289634820396
 40
0.8675450808450307
 40
0.9698657946153307
 40
1.0
 40
1.0
 40
1.0
 40
1.0
 10
276.5143754364927
 20
863.5595574638268
 30
0.0
 10
276.5226233816267
 20
863.4766100497526
 30
0.0
 10
276.5426373956573
 20
863.2931664926899
 30
0.0
 10
276.6237534045638
 20
862.9722201209187
 30
0.0
 10
276.7516183783871
 20
862.6203961929322
 30
0.0
 10
276.9246475020955
 20
862.2665199738507
 30
0.0
 10
277.141329239391
 20
861.9140985910448
 30
0.0
 10
277.4030207177471
 20
861.562524252325
 30
0.0
 10
277.7094266129923
 20
861.2132065956206
 30
0.0
 10
278.0612405610635
 20
860.8661206430414
 30
0.0
 10
278.4487500923897
 20
860.5304210194234
 30
0.0
 10
278.7837436603663
 20
860.2702532814636
 30
0.0
 10
278.9615581795167
 20
860.1429322456514
 30
0.0
 10
279.0090245576011
 20
860.1090499623346
 30
0.0
  0
SPLINE
  5
3708
330
A
100
AcDbEntity
  8
MODEL
100
AcDbSpline
210
0.0
220
0.0
230
1.0
 70
     8
 71
     3
 72
    14
 73
    10
 74
     0
 42
0.000000001
 43
0.0000000001
 40
0.0
 40
0.0
 40
0.0
 40
0.0
 40
0.1101100182619219
 40
0.2912951262651515
 40
0.4699501693885249
 40
0.6452863887228483
 40
0.8168709845947945
 40
0.9848224570765539
 40
1.0
 40
1.0
 40
1.0
 40
1.0
 10
277.4672609194757
 20
867.1777471914296
 30
0.0
 10
277.4070097188889
 20
867.1057451307796
 30
0.0
 10
277.2544948068187
 20
866.9140910399764
 30
0.0
 10
277.0376879614817
 20
866.5991001665205
 30
0.0
 10
276.8342306950753
 20
866.2324791438308
 30
0.0
 10
276.6764428978203
 20
865.8631992979384
 30
0.0
 10
276.5707858499825
 20
865.4984781745533
 30
0.0
 10
276.5161704745779
 20
865.2328331598004
 30
0.0
 10
276.5104575854523
 20
865.1062034441919
 30
0.0
 10
276.5099169961721
 20
865.094003717615
 30
0.0
  0
ARC
  5
3709
330
A
100
AcDbEntity
  8
MODEL
100
AcDbCircle
 10
279.3013702866937
 20
860.5125257168432
 30
0.0
 40
0.5000000000000397
100
AcDbArc
 50
234.2617910290153
 51
265.3501786587998
  0
SPLINE
  5
370A
330
A
100
AcDbEntity
  8
MODEL
100
AcDbSpline
210
0.0
220
0.0
230
1.0
 70
     8
 71
     3
 72
    18
 73
    14
 74
     0
 42
0.000000001
 43
0.0000000001
 40
0.0
 40
0.0
 40
0.0
 40
0.0
 40
0.0190774089680026
 40
0.1469091015238091
 40
0.2671498455036774
 40
0.3804160230858721
 40
0.4874424156810054
 40
0.5885493691479159
 40
0.6850155003029584
 40
0.7862977773623064
 40
0.8896037677285437
 40
0.9915643089104988
 40
1.0
 40
1.0
 40
1.0
 40
1.0
 10
307.1864701993997
 20
860.1123903772344
 30
0.0
 10
307.2144646869548
 20
860.1325874303719
 30
0.0
 10
307.3993461492415
 20
860.266124862066
 30
0.0
 10
307.7393795573785
 20
860.5392010624686
 30
0.0
 10
308.1542517243757
 20
860.8976516916595
 30
0.0
 10
308.5128163179652
 20
861.247206911711
 30
0.0
 10
308.8153375537839
 20
861.584288361906
 30
0.0
 10
309.0673601396005
 20
861.913445172683
 30
0.0
 10
309.2764830643519
 20
862.2461474046025
 30
0.0
 10
309.4468403028841
 20
862.586481382962
 30
0.0
 10
309.5768068199733
 20
862.9380212562527
 30
0.0
 10
309.641856906032
 20
863.1942654905955
 30
0.0
 10
309.6615578700183
 20
863.319704085461
 30
0.0
 10
309.6629940110931
 20
863.3292807685483
 30
0.0
  0
SPLINE
  5
370B
330
A
100
AcDbEntity
  8
MODEL
100
AcDbSpline
210
0.0
220
0.0
230
1.0
 70
     8
 71
     3
 72
     8
 73
     4
 74
     0
 42
0.000000001
 43
0.0000000001
 40
0.0
 40
0.0
 40
0.0
 40
0.0
 40
1.0
 40
1.0
 40
1.0
 40
1.0
 10
309.6731087566793
 20
863.405284049048
 30
0.0
 10
309.6780460561911
 20
863.4470122461138
 30
0.0
 10
309.6822894176037
 20
863.490129427057
 30
0.0
 10
309.6867716048649
 20
863.5371449592634
 30
0.0
  0
ARC
  5
370C
330
A
100
AcDbEntity
  8
MODEL
100
AcDbCircle
 10
293.1098712708937
 20
1029.983038611643
 30
0.0
 40
170.5297096152201
100
AcDbArc
 50
265.3428486894
 51
274.6511312195999
  0
SPLINE
  5
370D
330
A
100
AcDbEntity
  8
MODEL
100
AcDbSpline
210
0.0
220
0.0
230
1.0
 70
     8
 71
     3
 72
    14
 73
    10
 74
     0
 42
0.000000001
 43
0.0000000001
 40
0.0
 40
0.0
 40
0.0
 40
0.0
 40
0.0467668826324247
 40
0.2135537124409501
 40
0.3806695199681228
 40
0.5491729885008045
 40
0.7197786511164799
 40
0.8866973889077678
 40
1.0
 40
1.0
 40
1.0
 40
1.0
 10
309.6873190277843
 20
865.1342113669642
 30
0.0
 10
309.6851383074515
 20
865.1708996244114
 30
0.0
 10
309.676250894781
 20
865.3140621924803
 30
0.0
 10
309.6157678033075
 20
865.5915742174656
 30
0.0
 10
309.5063117264365
 20
865.9400955280574
 30
0.0
 10
309.3505507851417
 20
866.2880886446518
 30
0.0
 10
309.1549581325989
 20
866.6284358057104
 30
0.0
 10
308.9423011893169
 20
866.9257496669246
 30
0.0
 10
308.7940747565266
 20
867.1053838368751
 30
0.0
 10
308.7316260845839
 20
867.1773857576467
 30
0.0
  0
ARC
  5
370E
330
A
100
AcDbEntity
  8
MODEL
100
AcDbCircle
 10
306.8984140916937
 20
860.5125255662432
 30
0.0
 40
0.5000000000000104
100
AcDbArc
 50
274.6498205698014
 51
305.7382062180671
  0
LINE
  5
370F
330
A
100
AcDbEntity
  8
MODEL
100
AcDbLine
 10
317.8848784356937
 20
1002.816661315843
 30
0.0
 11
322.5998924244937
 21
1002.816661315843
 31
0.0
  0
LINE
  5
3710
330
A
100
AcDbEntity
  8
MODEL
100
AcDbLine
 10
263.5998924244937
 20
1002.816661315843
 30
0.0
 11
268.3149064134937
 21
1002.816661315843
 31
0.0
  0
LINE
  5
3711
330
A
100
AcDbEntity
  8
MODEL
100
AcDbLine
 10
268.3149064134937
 20
1002.816661315843
 30
0.0
 11
317.8848784356937
 21
1002.816661315843
 31
0.0
  0
LINE
  5
3712
330
A
100
AcDbEntity
  8
MODEL
100
AcDbLine
 10
317.8848784356937
 20
995.8166613158429
 30
0.0
 11
322.5998924244937
 21
995.8166613158429
 31
0.0
  0
LINE
  5
3713
330
A
100
AcDbEntity
  8
MODEL
100
AcDbLine
 10
268.3149064134937
 20
995.8166613158429
 30
0.0
 11
263.5998924244937
 21
995.8166613158429
 31
0.0
  0
LINE
  5
3714
330
A
100
AcDbEntity
  8
MODEL
100
AcDbLine
 10
317.8848784356937
 20
995.8166613158429
 30
0.0
 11
268.3149064134937
 21
995.8166613158429
 31
0.0
  0
LINE
  5
3715
330
A
100
AcDbEntity
  8
MODEL
100
AcDbLine
 10
323.0998924244937
 20
996.3166613158429
 30
0.0
 11
323.0998924244937
 21
1002.316661315843
 31
0.0
  0
LINE
  5
3716
330
A
100
AcDbEntity
  8
MODEL
100
AcDbLine
 10
263.0998924244937
 20
1002.316661315843
 30
0.0
 11
263.0998924244937
 21
996.3166613158429
 31
0.0
  0
ARC
  5
3717
330
A
100
AcDbEntity
  8
MODEL
100
AcDbCircle
 10
322.5998924244937
 20
996.3166613158429
 30
0.0
 40
0.5000000000000004
100
AcDbArc
 50
270.0
 51
0.0
  0
ARC
  5
3718
330
A
100
AcDbEntity
  8
MODEL
100
AcDbCircle
 10
322.5998924244937
 20
1002.316661315843
 30
0.0
 40
0.5000000000000004
100
AcDbArc
 50
0.0
 51
90.0
  0
ARC
  5
3719
330
A
100
AcDbEntity
  8
MODEL
100
AcDbCircle
 10
263.5998924244937
 20
996.3166613158429
 30
0.0
 40
0.5000000000000004
100
AcDbArc
 50
180.0
 51
270.0
  0
ARC
  5
371A
330
A
100
AcDbEntity
  8
MODEL
100
AcDbCircle
 10
263.5998924244937
 20
1002.316661315843
 30
0.0
 40
0.5000000000000004
100
AcDbArc
 50
90.0
 51
180.0
  0
SPLINE
  5
371B
330
A
100
AcDbEntity
  8
MODEL
100
AcDbSpline
210
0.0
220
0.0
230
1.0
 70
     8
 71
     3
 72
    10
 73
     6
 74
     0
 42
0.000000001
 43
0.0000000001
 40
0.0
 40
0.0
 40
0.0
 40
0.0
 40
0.338073094317116
 40
0.7484311512415986
 40
1.0
 40
1.0
 40
1.0
 40
1.0
 10
308.5160366756494
 20
815.9997972710156
 30
0.0
 10
308.5155213890421
 20
815.9924133162734
 30
0.0
 10
308.5143806400287
 20
815.9760666094779
 30
0.0
 10
308.5063849608449
 20
815.9531052971896
 30
0.0
 10
308.4986481241393
 20
815.9384082256796
 30
0.0
 10
308.4953646527621
 20
815.9329689399354
 30
0.0
  0
SPLINE
  5
371C
330
A
100
AcDbEntity
  8
MODEL
100
AcDbSpline
210
0.0
220
0.0
230
1.0
 70
    12
 71
     5
 72
    14
 73
     8
 74
     0
 42
0.000000001
 43
0.0000000001
 40
0.0
 40
0.0
 40
0.0
 40
0.0
 40
0.0
 40
0.0
 40
0.3742035694462659
 40
0.7484071388925317
 40
1.0
 40
1.0
 40
1.0
 40
1.0
 40
1.0
 40
1.0
 10
277.6925752445591
 20
815.9997972710197
 30
0.0
 41
1.0
 10
277.6925757288173
 20
815.9950361445266
 30
0.0
 41
1.0
 10
277.6932118253803
 20
815.985272562259
 30
0.0
 41
1.0
 10
277.6957106171861
 20
815.9717305279913
 30
0.0
 41
1.0
 10
277.7002562762523
 20
815.957915843633
 30
0.0
 41
1.0
 10
277.7066428091303
 20
815.9443529937979
 30
0.0
 41
1.0
 10
277.7113082577263
 20
815.9360922291452
 30
0.0
 41
1.0
 10
277.7132886200091
 20
815.9328160863728
 30
0.0
 41
1.0
  0
ARC
  5
371D
330
A
100
AcDbEntity
  8
MODEL
100
AcDbCircle
 10
272.7993636524937
 20
829.4288331664433
 30
0.0
 40
38.15885097073964
100
AcDbArc
 50
339.2830799843998
 51
359.8407765685999
  0
ARC
  5
371E
330
A
100
AcDbEntity
  8
MODEL
100
AcDbCircle
 10
313.4061283740937
 20
829.4281218336431
 30
0.0
 40
38.15572911880204
100
AcDbArc
 50
180.1581682806001
 51
183.2754823096001
  0
ARC
  5
371F
330
A
100
AcDbEntity
  8
MODEL
100
AcDbCircle
 10
313.4061283740937
 20
829.4281218336431
 30
0.0
 40
38.15572911880204
100
AcDbArc
 50
183.3244448816999
 51
200.7175965461001
  0
ARC
  5
3720
330
A
100
AcDbEntity
  8
MODEL
100
AcDbCircle
 10
293.1040115432937
 20
867.2263930014432
 30
0.0
 40
53.72387817774522
100
AcDbArc
 50
253.6788777887001
 51
286.3217510117998
  0
ARC
  5
3721
330
A
100
AcDbEntity
  8
MODEL
100
AcDbCircle
 10
272.8954701906937
 20
829.3822037754434
 30
0.0
 40
38.06266972700954
100
AcDbArc
 50
6.524613721099711
 51
7.081648745999654
  0
ARC
  5
3722
330
A
100
AcDbEntity
  8
MODEL
100
AcDbCircle
 10
278.1246500424937
 20
816.0888371052432
 30
0.0
 40
0.4399499738440216
100
AcDbArc
 50
200.7745931798111
 51
254.2972910587034
  0
ARC
  5
3723
330
A
100
AcDbEntity
  8
MODEL
100
AcDbCircle
 10
308.0846212704936
 20
816.0881159526433
 30
0.0
 40
0.4390770501831532
100
AcDbArc
 50
285.6498340486739
 51
339.2844319863623
  0
LINE
  5
3724
330
A
100
AcDbEntity
  8
MODEL
100
AcDbLine
 10
310.9582539314937
 20
829.321608194043
 30
0.0
 11
310.9582524530937
 21
829.4622323106431
 31
0.0
  0
LINE
  5
3725
330
A
100
AcDbEntity
  8
MODEL
100
AcDbLine
 10
275.2503594670937
 20
829.4622323106431
 30
0.0
 11
275.2503579886937
 21
829.321608194043
 31
0.0
  0
SPLINE
  5
3726
330
A
100
AcDbEntity
  8
MODEL
100
AcDbSpline
210
0.0
220
0.0
230
1.0
 70
    12
 71
     7
 72
    16
 73
     8
 74
     0
 42
0.000000001
 43
0.0000000001
 40
0.0
 40
0.0
 40
0.0
 40
0.0
 40
0.0
 40
0.0
 40
0.0
 40
0.0
 40
1.0
 40
1.0
 40
1.0
 40
1.0
 40
1.0
 40
1.0
 40
1.0
 40
1.0
 10
308.3056029262517
 20
816.2102989963836
 30
0.0
 41
1.0
 10
308.3019016223117
 20
816.2081484260929
 30
0.0
 41
1.0
 10
308.2982467867967
 20
816.2062130684443
 30
0.0
 41
1.0
 10
308.2946412950301
 20
816.2044905522401
 30
0.0
 41
1.0
 10
308.2910868853651
 20
816.2029796844221
 30
0.0
 41
1.0
 10
308.2875845720143
 20
816.2016797770792
 30
0.0
 41
1.0
 10
308.2841349323241
 20
816.2005901698466
 30
0.0
 41
1.0
 10
308.2807383008251
 20
816.1997098948808
 30
0.0
 41
1.0
  0
SPLINE
  5
3727
330
A
100
AcDbEntity
  8
MODEL
100
AcDbSpline
210
0.0
220
0.0
230
1.0
 70
    12
 71
     7
 72
    16
 73
     8
 74
     0
 42
0.000000001
 43
0.0000000001
 40
0.0
 40
0.0
 40
0.0
 40
0.0
 40
0.0
 40
0.0
 40
0.0
 40
0.0
 40
1.0
 40
1.0
 40
1.0
 40
1.0
 40
1.0
 40
1.0
 40
1.0
 40
1.0
 10
277.9281214216211
 20
816.199708402883
 30
0.0
 41
1.0
 10
277.9247247340228
 20
816.2005886901801
 30
0.0
 41
1.0
 10
277.9212750376251
 20
816.2016783160346
 30
0.0
 41
1.0
 10
277.9177726670733
 20
816.2029782484695
 30
0.0
 41
1.0
 10
277.9142181998391
 20
816.2044891480008
 30
0.0
 41
1.0
 10
277.9106126502735
 20
816.2062117026688
 30
0.0
 41
1.0
 10
277.9069577568931
 20
816.2081471056462
 30
0.0
 41
1.0
 10
277.9032563952213
 20
816.2102977282428
 30
0.0
 41
1.0
  0
ARC
  5
3728
330
A
100
AcDbEntity
  8
MODEL
100
AcDbCircle
 10
312.6421575326937
 20
829.7607796756432
 30
0.0
 40
37.37331253204316
100
AcDbArc
 50
173.7467663567001
 51
174.0863634544
  0
ARC
  5
3729
330
A
100
AcDbEntity
  8
MODEL
100
AcDbCircle
 10
273.5667012306937
 20
829.7607796876431
 30
0.0
 40
37.37331261338708
100
AcDbArc
 50
5.874926253900185
 51
6.253233611700201
  0
ARC
  5
372A
330
A
100
AcDbEntity
  8
MODEL
100
AcDbCircle
 10
293.1044271880937
 20
867.8816128320431
 30
0.0
 40
53.88537058862248
100
AcDbArc
 50
253.8868988819999
 51
286.1131042283002
  0
LINE
  5
372B
330
A
100
AcDbEntity
  8
MODEL
100
AcDbLine
 10
308.0634322756937
 20
816.1159180886433
 30
0.0
 11
308.2856450984937
 21
816.2011534928432
 31
0.0
  0
LINE
  5
372C
330
A
100
AcDbEntity
  8
MODEL
100
AcDbLine
 10
277.9232143658937
 20
816.2011520822433
 30
0.0
 11
278.1454249194937
 21
816.1159172662432
 31
0.0
  0
LINE
  5
372D
330
A
100
AcDbEntity
  8
MODEL
100
AcDbLine
 10
308.3055485010937
 20
816.2102674060433
 30
0.0
 11
308.3728018980937
 21
816.2638839366431
 31
0.0
  0
ARC
  5
372E
330
A
100
AcDbEntity
  8
MODEL
100
AcDbCircle
 10
312.8842687356938
 20
829.7633584602435
 30
0.0
 40
37.61171333082216
100
AcDbArc
 50
173.7920651284001
 51
200.5900997204006
  0
ARC
  5
372F
330
A
100
AcDbEntity
  8
MODEL
100
AcDbCircle
 10
273.3193708690937
 20
829.7640169742434
 30
0.0
 40
37.61683077513354
100
AcDbArc
 50
339.4117565033998
 51
6.206078104599361
  0
LINE
  5
3730
330
A
100
AcDbEntity
  8
MODEL
100
AcDbLine
 10
277.8360576824937
 20
816.263882856443
 30
0.0
 11
277.9033108216937
 21
816.2102661368434
 31
0.0
  0
ARC
  5
3731
330
A
100
AcDbEntity
  8
MODEL
100
AcDbCircle
 10
308.0771281972937
 20
816.5999722690434
 30
0.0
 40
0.4507579485550712
100
AcDbArc
 50
309.1965491292023
 51
324.8450715281927
  0
ARC
  5
3732
330
A
100
AcDbEntity
  8
MODEL
100
AcDbCircle
 10
307.3074869312937
 20
816.9741452534435
 30
0.0
 40
1.302495140327114
100
AcDbArc
 50
330.7948500528922
 51
340.6727720228963
  0
ARC
  5
3733
330
A
100
AcDbEntity
  8
MODEL
100
AcDbCircle
 10
-27.71239435090632
 20
868.2204788652433
 30
0.0
 40
305.1496398765826
100
AcDbArc
 50
353.5292727069
 51
358.7627970936999
  0
ARC
  5
3734
330
A
100
AcDbEntity
  8
MODEL
100
AcDbCircle
 10
278.9013369088937
 20
816.9741331096433
 30
0.0
 40
1.30245810065395
100
AcDbArc
 50
199.327237369493
 51
209.2056548902079
  0
ARC
  5
3735
330
A
100
AcDbEntity
  8
MODEL
100
AcDbCircle
 10
613.716284384494
 20
868.2071986324432
 30
0.0
 40
304.944480343686
100
AcDbArc
 50
181.2343547193999
 51
186.4725880436999
  0
ARC
  5
3736
330
A
100
AcDbEntity
  8
MODEL
100
AcDbCircle
 10
278.1317262464937
 20
816.5999658552431
 30
0.0
 40
0.4507506308340644
100
AcDbArc
 50
215.1552044770698
 51
230.8035445301114
  0
LINE
  5
3737
330
A
100
AcDbEntity
  8
MODEL
100
AcDbLine
 10
283.6198924244937
 20
1088.816661196643
 30
0.0
 11
302.5798924244937
 21
1088.816661196643
 31
0.0
  0
LINE
  5
3738
330
A
100
AcDbEntity
  8
MODEL
100
AcDbLine
 10
303.5798924244937
 20
1087.816661196643
 30
0.0
 11
282.6198924244937
 21
1087.816661196643
 31
0.0
  0
LINE
  5
3739
330
A
100
AcDbEntity
  8
MODEL
100
AcDbLine
 10
282.6198924244937
 20
1087.816661196643
 30
0.0
 11
282.6198924244937
 21
1002.816661315843
 31
0.0
  0
LINE
  5
373A
330
A
100
AcDbEntity
  8
MODEL
100
AcDbLine
 10
303.5798924244937
 20
1002.816661315843
 30
0.0
 11
303.5798924244937
 21
1087.816661196643
 31
0.0
  0
LINE
  5
373B
330
A
100
AcDbEntity
  8
MODEL
100
AcDbLine
 10
303.5798924244937
 20
1087.816661196643
 30
0.0
 11
302.5798924244937
 21
1088.816661196643
 31
0.0
  0
LINE
  5
373C
330
A
100
AcDbEntity
  8
MODEL
100
AcDbLine
 10
283.6198924244937
 20
1088.816661196643
 30
0.0
 11
282.6198924244937
 21
1087.816661196643
 31
0.0
  0
LINE
  5
373D
330
A
100
AcDbEntity
  8
MODEL
100
AcDbLine
 10
302.4148924244936
 20
1088.816661196643
 30
0.0
 11
302.4148924244936
 21
1004.816661196643
 31
0.0
  0
LINE
  5
373E
330
A
100
AcDbEntity
  8
MODEL
100
AcDbLine
 10
283.7848924244936
 20
1088.816661196643
 30
0.0
 11
283.7848924244936
 21
1004.816661196643
 31
0.0
  0
LINE
  5
373F
330
A
100
AcDbEntity
  8
MODEL
100
AcDbLine
 10
282.6198924244937
 20
1004.816661196643
 30
0.0
 11
303.5798924244937
 21
1004.816661196643
 31
0.0
  0
ARC
  5
3742
330
A
100
AcDbEntity
  8
MODEL
100
AcDbCircle
 10
330.1164133839779
 20
608.3857620765425
 30
0.0
 40
63.96265382172336
100
AcDbArc
 50
159.4851401146001
 51
200.5129856016999
  0
ARC
  5
3743
330
A
100
AcDbEntity
  8
MODEL
100
AcDbCircle
 10
256.059742943778
 20
608.3857616927426
 30
0.0
 40
63.98456010311948
100
AcDbArc
 50
339.4943549234001
 51
20.50751928689999
  0
SPLINE
  5
3744
330
A
100
AcDbEntity
  8
MODEL
100
AcDbSpline
210
0.0
220
0.0
230
1.0
 70
    12
 71
     7
 72
    16
 73
     8
 74
     0
 42
0.000000001
 43
0.0000000001
 40
0.0
 40
0.0
 40
0.0
 40
0.0
 40
0.0
 40
0.0
 40
0.0
 40
0.0
 40
1.0
 40
1.0
 40
1.0
 40
1.0
 40
1.0
 40
1.0
 40
1.0
 40
1.0
 10
270.2558712384875
 20
585.8305433887795
 30
0.0
 41
1.0
 10
270.2571498341817
 20
585.8273703860068
 30
0.0
 41
1.0
 10
270.2585576207225
 20
585.8241709630038
 30
0.0
 41
1.0
 10
270.2600972717105
 20
585.820944882842
 30
0.0
 41
1.0
 10
270.2617711260787
 20
585.8176919094508
 30
0.0
 41
1.0
 10
270.2635811455539
 20
585.8144117633869
 30
0.0
 41
1.0
 10
270.2655288850879
 20
585.8111040905665
 30
0.0
 41
1.0
 10
270.2676154857895
 20
585.8077684533382
 30
0.0
 41
1.0
  0
LINE
  5
3745
330
A
100
AcDbEntity
  8
MODEL
100
AcDbLine
 10
270.200915279378
 20
630.8048577323425
 30
0.0
 11
270.210185995978
 21
630.8014932505425
 31
0.0
  0
SPLINE
  5
3746
330
A
100
AcDbEntity
  8
MODEL
100
AcDbSpline
210
0.0
220
0.0
230
1.0
 70
    12
 71
     7
 72
    16
 73
     8
 74
     0
 42
0.000000001
 43
0.0000000001
 40
0.0
 40
0.0
 40
0.0
 40
0.0
 40
0.0
 40
0.0
 40
0.0
 40
0.0
 40
1.0
 40
1.0
 40
1.0
 40
1.0
 40
1.0
 40
1.0
 40
1.0
 40
1.0
 10
270.2483627465299
 20
630.8894786876117
 30
0.0
 41
1.0
 10
270.2474517240394
 20
630.8978512414596
 30
0.0
 41
1.0
 10
270.2472564312343
 20
630.9063759255534
 30
0.0
 41
1.0
 10
270.2478844160441
 20
630.9151040332492
 30
0.0
 41
1.0
 10
270.2494468050145
 20
630.9240573549773
 30
0.0
 41
1.0
 10
270.2520480846165
 20
630.9332387618551
 30
0.0
 41
1.0
 10
270.2557682622278
 20
630.9426502553088
 30
0.0
 41
1.0
 10
270.2606571834494
 20
630.9522989571697
 30
0.0
 41
1.0
  0
LINE
  5
3747
330
A
100
AcDbEntity
  8
MODEL
100
AcDbLine
 10
315.519029957778
 20
631.2845735423425
 30
0.0
 11
315.515666005178
 21
631.2753057105426
 31
0.0
  0
SPLINE
  5
3748
330
A
100
AcDbEntity
  8
MODEL
100
AcDbSpline
210
0.0
220
0.0
230
1.0
 70
    12
 71
     7
 72
    16
 73
     8
 74
     0
 42
0.000000001
 43
0.0000000001
 40
0.0
 40
0.0
 40
0.0
 40
0.0
 40
0.0
 40
0.0
 40
0.0
 40
0.0
 40
1.0
 40
1.0
 40
1.0
 40
1.0
 40
1.0
 40
1.0
 40
1.0
 40
1.0
 10
315.6035329165979
 20
631.2371762665393
 30
0.0
 41
1.0
 10
315.6119009215272
 20
631.2380862526979
 30
0.0
 41
1.0
 10
315.6204209423263
 20
631.2382810096005
 30
0.0
 41
1.0
 10
315.6291442718179
 20
631.2376529997434
 30
0.0
 41
1.0
 10
315.6380927241403
 20
631.2360911307305
 30
0.0
 41
1.0
 10
315.6472692064522
 20
631.2334909541894
 30
0.0
 41
1.0
 10
315.6566757459573
 20
631.2297724775744
 30
0.0
 41
1.0
 10
315.6663194783309
 20
631.2248858402932
 30
0.0
 41
1.0
  0
SPLINE
  5
3749
330
A
100
AcDbEntity
  8
MODEL
100
AcDbSpline
210
0.0
220
0.0
230
1.0
 70
    12
 71
     7
 72
    16
 73
     8
 74
     0
 42
0.000000001
 43
0.0000000001
 40
0.0
 40
0.0
 40
0.0
 40
0.0
 40
0.0
 40
0.0
 40
0.0
 40
0.0
 40
0.9999999999999999
 40
0.9999999999999999
 40
0.9999999999999999
 40
0.9999999999999999
 40
0.9999999999999999
 40
0.9999999999999999
 40
0.9999999999999999
 40
0.9999999999999999
 10
315.6549810316615
 20
585.5418781061567
 30
0.0
 41
1.0
 10
315.6581535711639
 20
585.5431559938204
 30
0.0
 41
1.0
 10
315.6613525568091
 20
585.5445630835247
 30
0.0
 41
1.0
 10
315.6645782269243
 20
585.5461020489549
 30
0.0
 41
1.0
 10
315.6678308189626
 20
585.5477752289378
 30
0.0
 41
1.0
 10
315.6711106137191
 20
585.5495845849416
 30
0.0
 41
1.0
 10
315.6744179665898
 20
585.5515316715966
 30
0.0
 41
1.0
 10
315.6777533164827
 20
585.5536176296964
 30
0.0
 41
1.0
  0
ARC
  5
374A
330
A
100
AcDbEntity
  8
MODEL
100
AcDbCircle
 10
270.9954570387781
 20
586.2240626775426
 30
0.0
 40
0.8385299630746542
100
AcDbArc
 50
209.6804630259123
 51
222.2269628299755
  0
LINE
  5
374B
330
A
100
AcDbEntity
  8
MODEL
100
AcDbLine
 10
270.2001853397778
 20
585.9686270349425
 30
0.0
 11
270.260170090578
 21
585.8210064705427
 31
0.0
  0
ARC
  5
374C
330
A
100
AcDbEntity
  8
MODEL
100
AcDbCircle
 10
330.151091613378
 20
608.3857648729427
 30
0.0
 40
64.00373212250435
100
AcDbArc
 50
159.4960980900001
 51
200.5020337396
  0
LINE
  5
374D
330
A
100
AcDbEntity
  8
MODEL
100
AcDbLine
 10
270.2648672145779
 20
630.9600418811426
 30
0.0
 11
270.2024211397779
 21
630.8043112361427
 31
0.0
  0
ARC
  5
374E
330
A
100
AcDbEntity
  8
MODEL
100
AcDbCircle
 10
270.9112931905779
 20
630.6087068953425
 30
0.0
 40
0.735764396928104
100
AcDbArc
 50
136.8982594158828
 51
152.250509620624
  0
ARC
  5
374F
330
A
100
AcDbEntity
  8
MODEL
100
AcDbCircle
 10
270.9227414433781
 20
630.5097010611426
 30
0.0
 40
0.8143440617211872
100
AcDbArc
 50
119.446768568609
 51
132.3577775242066
  0
LINE
  5
3750
330
A
100
AcDbEntity
  8
MODEL
100
AcDbLine
 10
270.6805165273781
 20
631.2845744685426
 30
0.0
 11
270.5342438191778
 21
631.2253986065425
 31
0.0
  0
ARC
  5
3751
330
A
100
AcDbEntity
  8
MODEL
100
AcDbCircle
 10
293.0997701499778
 20
571.3381533515426
 30
0.0
 40
64.00027201108846
100
AcDbArc
 50
69.49478030859981
 51
110.5052142032996
  0
LINE
  5
3752
330
A
100
AcDbEntity
  8
MODEL
100
AcDbLine
 10
315.674066957778
 20
631.2206728421427
 30
0.0
 11
315.5184832725781
 21
631.2830673927426
 31
0.0
  0
ARC
  5
3753
330
A
100
AcDbEntity
  8
MODEL
100
AcDbCircle
 10
315.3227429675781
 20
630.5743621099427
 30
0.0
 40
0.7356578277719942
100
AcDbArc
 50
46.89292100318807
 51
62.24746131018063
  0
ARC
  5
3754
330
A
100
AcDbEntity
  8
MODEL
100
AcDbCircle
 10
315.223575077378
 20
630.5627639629427
 30
0.0
 40
0.8144639917837656
100
AcDbArc
 50
29.4428231207948
 51
42.3524965288962
  0
LINE
  5
3755
330
A
100
AcDbEntity
  8
MODEL
100
AcDbLine
 10
315.9986290921779
 20
630.8048560791426
 30
0.0
 11
315.9394022219781
 21
630.9512745035427
 31
0.0
  0
ARC
  5
3756
330
A
100
AcDbEntity
  8
MODEL
100
AcDbCircle
 10
256.0478710117782
 20
608.3857648621427
 30
0.0
 40
64.00427783524336
100
AcDbArc
 50
339.4981499872997
 51
20.50371810959984
  0
LINE
  5
3757
330
A
100
AcDbEntity
  8
MODEL
100
AcDbLine
 10
315.9393779839779
 20
585.8210117001427
 30
0.0
 11
315.9993603151779
 21
585.9686281321426
 31
0.0
  0
ARC
  5
3758
330
A
100
AcDbEntity
  8
MODEL
100
AcDbCircle
 10
315.2725814739779
 20
586.1752219157427
 30
0.0
 40
0.7550381703078666
100
AcDbArc
 50
317.0245095527221
 51
332.0219192766075
  0
ARC
  5
3759
330
A
100
AcDbEntity
  8
MODEL
100
AcDbCircle
 10
315.261040817978
 20
586.2821816667426
 30
0.0
 40
0.8393646010150768
100
AcDbArc
 50
299.6809326662079
 51
312.2139776678835
  0
LINE
  5
375A
330
A
100
AcDbEntity
  8
MODEL
100
AcDbLine
 10
315.516977667578
 20
585.4862449829425
 30
0.0
 11
315.664520986978
 21
585.5461770211427
 31
0.0
  0
ARC
  5
375B
330
A
100
AcDbEntity
  8
MODEL
100
AcDbCircle
 10
293.0997738103779
 20
645.4598099981426
 30
0.0
 40
64.02498036970898
100
AcDbArc
 50
249.5050130324997
 51
254.2243427212
  0
ARC
  5
375C
330
A
100
AcDbEntity
  8
MODEL
100
AcDbCircle
 10
293.0997738103779
 20
645.4598099981426
 30
0.0
 40
64.02498036970898
100
AcDbArc
 50
285.7846808288
 51
290.4949873044002
  0
LINE
  5
375D
330
A
100
AcDbEntity
  8
MODEL
100
AcDbLine
 10
270.5350238889778
 20
585.5461771321425
 30
0.0
 11
270.6825703391778
 21
585.4862449175425
 31
0.0
  0
ARC
  5
375E
330
A
100
AcDbEntity
  8
MODEL
100
AcDbCircle
 10
270.8897654631778
 20
586.2138308669428
 30
0.0
 40
0.7560444824606902
100
AcDbArc
 50
227.04146610221
 51
242.0167997266124
  0
ARC
  5
375F
330
A
100
AcDbEntity
  8
MODEL
100
AcDbCircle
 10
269.270550701578
 20
606.8460778199426
 30
0.0
 40
40.4370760668515
100
AcDbArc
 50
0.00016815850014
 51
2.378456608499956
  0
ARC
  5
3760
330
A
100
AcDbEntity
  8
MODEL
100
AcDbCircle
 10
269.270550701578
 20
606.8460778199426
 30
0.0
 40
40.4370760668515
100
AcDbArc
 50
2.614606358099981
 51
19.56776943809981
  0
ARC
  5
3761
330
A
100
AcDbEntity
  8
MODEL
100
AcDbCircle
 10
269.270550701578
 20
606.6041488425426
 30
0.0
 40
40.43707606685148
100
AcDbArc
 50
352.2475514180999
 51
19.56776943810014
  0
ARC
  5
3762
330
A
100
AcDbEntity
  8
MODEL
100
AcDbCircle
 10
316.928988164178
 20
606.8460785419425
 30
0.0
 40
40.43707604456522
100
AcDbArc
 50
160.4322325668998
 51
179.6119356309997
  0
ARC
  5
3763
330
A
100
AcDbEntity
  8
MODEL
100
AcDbCircle
 10
316.928988164178
 20
606.6041495645427
 30
0.0
 40
40.43707604456532
100
AcDbArc
 50
160.4322325668999
 51
187.9018017270002
  0
ELLIPSE
  5
3764
330
A
100
AcDbEntity
  8
MODEL
100
AcDbEllipse
 10
279.3012473063782
 20
620.2347249381426
 30
0.0
 11
0.4724440987594233
 21
-0.1636965899077369
 31
0.0
210
0.0
220
0.0
230
1.0
 40
0.2293095285
 41
3.141592653589793
 42
3.220879276975047
  0
ELLIPSE
  5
3765
330
A
100
AcDbEntity
  8
MODEL
100
AcDbEllipse
 10
306.8982911113781
 20
620.2347255429427
 30
0.0
 11
-0.4724440936273288
 21
-0.1636966047193697
 31
0.0
210
0.0
220
0.0
230
1.0
 40
0.2293095261
 41
3.062306023016221
 42
3.141592653589793
  0
LINE
  5
3766
330
A
100
AcDbEntity
  8
MODEL
100
AcDbLine
 10
309.7185164689781
 20
606.6041488245426
 30
0.0
 11
309.7185164689781
 21
606.8460778019426
 31
0.0
  0
LINE
  5
3767
330
A
100
AcDbEntity
  8
MODEL
100
AcDbLine
 10
276.481022419378
 20
606.8460785555426
 30
0.0
 11
276.481022419378
 21
606.6041495783427
 31
0.0
  0
ARC
  5
3768
330
A
100
AcDbEntity
  8
MODEL
100
AcDbCircle
 10
279.3012473063782
 20
620.2347249381426
 30
0.0
 40
0.4999999999999992
100
AcDbArc
 50
108.066852035608
 51
160.8893717273175
  0
ARC
  5
3769
330
A
100
AcDbEntity
  8
MODEL
100
AcDbCircle
 10
293.0895125743777
 20
579.0591292771426
 30
0.0
 40
43.92006022821706
100
AcDbArc
 50
71.46598585639936
 51
108.5086951195
  0
ARC
  5
376A
330
A
100
AcDbEntity
  8
MODEL
100
AcDbCircle
 10
306.8982911113781
 20
620.2347255429427
 30
0.0
 40
0.5000000000000016
100
AcDbArc
 50
19.11063006898721
 51
71.93315077951786
  0
ARC
  5
376B
330
A
100
AcDbEntity
  8
MODEL
100
AcDbCircle
 10
331.099769444178
 20
608.3857589887425
 30
0.0
 40
67.99999999999999
100
AcDbArc
 50
158.4578880107998
 51
201.5421119891998
  0
ARC
  5
376C
330
A
100
AcDbEntity
  8
MODEL
100
AcDbCircle
 10
293.099769444178
 20
570.3857589887425
 30
0.0
 40
67.99999999999999
100
AcDbArc
 50
68.45788801080026
 51
111.5421119892002
  0
ARC
  5
376D
330
A
100
AcDbEntity
  8
MODEL
100
AcDbCircle
 10
255.099769444178
 20
608.3857589887425
 30
0.0
 40
67.99999999999999
100
AcDbArc
 50
338.4578880108
 51
21.54211198920019
  0
ARC
  5
376E
330
A
100
AcDbEntity
  8
MODEL
100
AcDbCircle
 10
293.099769444178
 20
646.3857589887425
 30
0.0
 40
68.0
100
AcDbArc
 50
285.0131125129
 51
291.5421119891998
  0
ARC
  5
376F
330
A
100
AcDbEntity
  8
MODEL
100
AcDbCircle
 10
293.099769444178
 20
646.3857589887425
 30
0.0
 40
68.0
100
AcDbArc
 50
248.4578880107998
 51
254.9964600693998
  0
ARC
  5
3770
330
A
100
AcDbEntity
  8
MODEL
100
AcDbCircle
 10
317.8847554553781
 20
583.6007729777425
 30
0.0
 40
0.4999999999999986
100
AcDbArc
 50
291.5421119891981
 51
338.4578880108043
  0
ARC
  5
3771
330
A
100
AcDbEntity
  8
MODEL
100
AcDbCircle
 10
317.8847554553781
 20
633.1707449999426
 30
0.0
 40
0.4999999999999986
100
AcDbArc
 50
21.54211198919574
 51
68.45788801080188
  0
ARC
  5
3772
330
A
100
AcDbEntity
  8
MODEL
100
AcDbCircle
 10
268.3147834329779
 20
583.6007729777425
 30
0.0
 40
0.4999999999999986
100
AcDbArc
 50
201.5421119891957
 51
248.4578880108019
  0
ARC
  5
3773
330
A
100
AcDbEntity
  8
MODEL
100
AcDbCircle
 10
268.3147834329779
 20
633.1707449999426
 30
0.0
 40
0.500000000000003
100
AcDbArc
 50
111.5421119891981
 51
158.4578880108043
  0
ARC
  5
3774
330
A
100
AcDbEntity
  8
MODEL
100
AcDbCircle
 10
306.115107568578
 20
567.4936153119427
 30
0.0
 40
0.0452163786723862
100
AcDbArc
 50
254.9774415359405
 51
283.495005102497
  0
ARC
  5
3775
330
A
100
AcDbEntity
  8
MODEL
100
AcDbCircle
 10
280.0932560769779
 20
567.4936156817425
 30
0.0
 40
0.045216390565232
100
AcDbArc
 50
256.4715204455001
 51
285.0225583694095
  0
ARC
  5
3776
330
A
100
AcDbEntity
  8
MODEL
100
AcDbCircle
 10
279.8410339843781
 20
567.8509110839427
 30
0.0
 40
0.3072667146348642
100
AcDbArc
 50
236.3770528533607
 51
242.0292844085395
  0
ARC
  5
3777
330
A
100
AcDbEntity
  8
MODEL
100
AcDbCircle
 10
308.1409116587779
 20
568.9955703803425
 30
0.0
 40
0.3750036422515702
100
AcDbArc
 50
307.327869084897
 51
327.1896500311001
  0
ARC
  5
3778
330
A
100
AcDbEntity
  8
MODEL
100
AcDbCircle
 10
278.0601659361778
 20
568.9919492489425
 30
0.0
 40
0.3677223324351246
100
AcDbArc
 50
212.9922437613692
 51
233.2330321405207
  0
SPLINE
  5
3779
330
A
100
AcDbEntity
  8
MODEL
100
AcDbSpline
210
0.0
220
0.0
230
1.0
 70
    12
 71
     7
 72
    16
 73
     8
 74
     0
 42
0.000000001
 43
0.0000000001
 40
0.0
 40
0.0
 40
0.0
 40
0.0
 40
0.0
 40
0.0
 40
0.0
 40
0.0
 40
1.0
 40
1.0
 40
1.0
 40
1.0
 40
1.0
 40
1.0
 40
1.0
 40
1.0
 10
277.7892732442547
 20
583.6107080357892
 30
0.0
 41
1.0
 10
277.7917556236712
 20
583.6133429345577
 30
0.0
 41
1.0
 10
277.7942579779628
 20
583.6158974210532
 30
0.0
 41
1.0
 10
277.7967820510944
 20
583.6183671897293
 30
0.0
 41
1.0
 10
277.7993296158725
 20
583.6207479610418
 30
0.0
 41
1.0
 10
277.8019024367118
 20
583.6230355335485
 30
0.0
 41
1.0
 10
277.8045022093575
 20
583.6252258715781
 30
0.0
 41
1.0
 10
277.8071304707487
 20
583.6273152386489
 30
0.0
 41
1.0
  0
SPLINE
  5
377A
330
A
100
AcDbEntity
  8
MODEL
100
AcDbSpline
210
0.0
220
0.0
230
1.0
 70
     8
 71
     3
 72
     8
 73
     4
 74
     0
 42
0.000000001
 43
0.0000000001
 40
0.0
 40
0.0
 40
0.0
 40
0.0
 40
1.0
 40
1.0
 40
1.0
 40
1.0
 10
280.8559131221937
 20
573.8356194414118
 30
0.0
 10
280.8559131221937
 20
573.6333468094729
 30
0.0
 10
280.8793326745781
 20
573.4316909395702
 30
0.0
 10
280.9252998540778
 20
573.2315586330319
 30
0.0
  0
SPLINE
  5
377B
330
A
100
AcDbEntity
  8
MODEL
100
AcDbSpline
210
0.0
220
0.0
230
1.0
 70
     8
 71
     3
 72
    10
 73
     6
 74
     0
 42
0.000000001
 43
0.0000000001
 40
0.0
 40
0.0
 40
0.0
 40
0.0
 40
0.4844339418103913
 40
0.4844339418103913
 40
1.0
 40
1.0
 40
1.0
 40
1.0
 10
305.2705719875894
 20
573.1744388834675
 30
0.0
 10
305.3249872914494
 20
573.3941040282402
 30
0.0
 10
305.3525303190772
 20
573.6153156375779
 30
0.0
 10
305.3523700327901
 20
574.072036763217
 30
0.0
 10
305.3216356209168
 20
574.3068052480185
 30
0.0
 10
305.2605107856853
 20
574.5397220828736
 30
0.0
  0
SPLINE
  5
377C
330
A
100
AcDbEntity
  8
MODEL
100
AcDbSpline
210
0.0
220
0.0
230
1.0
 70
     8
 71
     3
 72
     8
 73
     4
 74
     0
 42
0.000000001
 43
0.0000000001
 40
0.0
 40
0.0
 40
0.0
 40
0.0
 40
1.0
 40
1.0
 40
1.0
 40
1.0
 10
280.8560427023194
 20
573.8622907164945
 30
0.0
 10
280.8559563217677
 20
573.8534027138712
 30
0.0
 10
280.8559131221937
 20
573.8445122760165
 30
0.0
 10
280.8559131221937
 20
573.8356194414118
 30
0.0
  0
ELLIPSE
  5
377D
330
A
100
AcDbEntity
  8
MODEL
100
AcDbEllipse
 10
293.1041829797778
 20
576.5981482533425
 30
0.0
 11
12.22096560535646
 21
0.0
 31
0.0
210
0.0
220
0.0
230
1.0
 40
0.4694715628
 41
3.382816503357105
 42
3.404825536990928
  0
ELLIPSE
  5
377E
330
A
100
AcDbEntity
  8
MODEL
100
AcDbEllipse
 10
293.1041829797778
 20
576.5981482533425
 30
0.0
 11
-12.22096560535659
 21
2.775557561562892E-14
 31
0.0
210
0.0
220
0.0
230
1.0
 40
0.4694715628
 41
-3.404825536990921
 42
-3.380625238935464
  0
ARC
  5
377F
330
A
100
AcDbEntity
  8
MODEL
100
AcDbCircle
 10
293.1041830063778
 20
653.4111109027426
 30
0.0
 40
86.94163998355056
100
AcDbArc
 50
261.3948077684001
 51
263.8424727135001
  0
ARC
  5
3780
330
A
100
AcDbEntity
  8
MODEL
100
AcDbCircle
 10
293.1041830063778
 20
653.4111109027426
 30
0.0
 40
86.94163998355056
100
AcDbArc
 50
276.1565721351001
 51
278.6051906537
  0
LINE
  5
3781
330
A
100
AcDbEntity
  8
MODEL
100
AcDbLine
 10
306.5114957871779
 20
567.5795500451427
 30
0.0
 11
308.295776260778
 21
568.6384129423427
 31
0.0
  0
LINE
  5
3782
330
A
100
AcDbEntity
  8
MODEL
100
AcDbLine
 10
277.9125896985779
 20
568.6384129425426
 30
0.0
 11
279.6968697877778
 21
567.5795502731426
 31
0.0
  0
ARC
  5
3783
330
A
100
AcDbEntity
  8
MODEL
100
AcDbCircle
 10
298.398799344578
 20
576.3200730185426
 30
0.0
 40
12.56162492427253
100
AcDbArc
 50
323.188941485999
 51
358.8614698483996
  0
ARC
  5
3784
330
A
100
AcDbEntity
  8
MODEL
100
AcDbCircle
 10
287.7858978413778
 20
576.3125846747425
 30
0.0
 40
12.537813995332
100
AcDbArc
 50
181.1064656273995
 51
216.8491936960983
  0
ARC
  5
3785
330
A
100
AcDbEntity
  8
MODEL
100
AcDbCircle
 10
287.7149399553778
 20
576.0753285173428
 30
0.0
 40
12.46717695310391
100
AcDbArc
 50
143.7168155125009
 51
167.3238227409995
  0
ARC
  5
3786
330
A
100
AcDbEntity
  8
MODEL
100
AcDbCircle
 10
298.4735683051781
 20
576.0685936783425
 30
0.0
 40
12.4871713988247
100
AcDbArc
 50
1.215026797700329
 51
36.25417406420159
  0
ARC
  5
3787
330
A
100
AcDbEntity
  8
MODEL
100
AcDbCircle
 10
293.1041829753781
 20
485.0776385907426
 30
0.0
 40
99.79520081972746
100
AcDbArc
 50
81.44016368440018
 51
98.55983607330013
  0
LINE
  5
3788
330
A
100
AcDbEntity
  8
MODEL
100
AcDbLine
 10
306.1257172799778
 20
567.4493788267428
 30
0.0
 11
306.290791834178
 21
567.4799680621427
 31
0.0
  0
ARC
  5
3789
330
A
100
AcDbEntity
  8
MODEL
100
AcDbCircle
 10
306.0774946527781
 20
568.2350627949427
 30
0.0
 40
0.784642432543571
100
AcDbArc
 50
285.7737913362036
 51
295.1057772542982
  0
LINE
  5
378A
330
A
100
AcDbEntity
  8
MODEL
100
AcDbLine
 10
306.4104145233778
 20
567.5245502265425
 30
0.0
 11
306.537461442178
 21
567.5950255343428
 31
0.0
  0
LINE
  5
378B
330
A
100
AcDbEntity
  8
MODEL
100
AcDbLine
 10
279.9175746183778
 20
567.4799679595426
 30
0.0
 11
280.082646375778
 21
567.4493791819427
 31
0.0
  0
ARC
  5
378C
330
A
100
AcDbEntity
  8
MODEL
100
AcDbCircle
 10
280.1308707199778
 20
568.2350615581427
 30
0.0
 40
0.784641047553725
100
AcDbArc
 50
244.8942125054273
 51
254.2262620256035
  0
LINE
  5
378D
330
A
100
AcDbEntity
  8
MODEL
100
AcDbLine
 10
279.6709041327781
 20
567.5950257625427
 30
0.0
 11
279.7979513101782
 21
567.5245503035426
 31
0.0
  0
ARC
  5
378E
330
A
100
AcDbEntity
  8
MODEL
100
AcDbCircle
 10
308.0893147919778
 20
569.0170234227426
 30
0.0
 40
0.4311245094178254
100
AcDbArc
 50
299.1046965089466
 51
324.1926718568296
  0
ARC
  5
378F
330
A
100
AcDbEntity
  8
MODEL
100
AcDbCircle
 10
278.119071409978
 20
569.0170459059427
 30
0.0
 40
0.4311540006227636
100
AcDbArc
 50
215.8062961032456
 51
240.8944021019278
  0
ARC
  5
3790
330
A
100
AcDbEntity
  8
MODEL
100
AcDbCircle
 10
278.3562557933778
 20
583.0324478913426
 30
0.0
 40
0.8092751423018149
100
AcDbArc
 50
132.4634890453767
 51
149.4100062838871
  0
LINE
  5
3791
330
A
100
AcDbEntity
  8
MODEL
100
AcDbLine
 10
277.9034735155778
 20
583.6836931409425
 30
0.0
 11
277.793440601778
 21
583.6150072463427
 31
0.0
  0
LINE
  5
3792
330
A
100
AcDbEntity
  8
MODEL
100
AcDbLine
 10
278.2530622461782
 20
583.7612576651427
 30
0.0
 11
277.9034761065777
 21
583.6836942413427
 31
0.0
  0
ARC
  5
3793
330
A
100
AcDbEntity
  8
MODEL
100
AcDbCircle
 10
307.8434565073781
 20
582.4426569779425
 30
0.0
 40
1.323335744041264
100
AcDbArc
 50
69.2153244889127
 51
85.15160843140347
  0
LINE
  5
3794
330
A
100
AcDbEntity
  8
MODEL
100
AcDbLine
 10
308.4160264665779
 20
583.6052705359425
 30
0.0
 11
308.3130535769778
 21
583.6798697077427
 31
0.0
  0
LINE
  5
3795
330
A
100
AcDbEntity
  8
MODEL
100
AcDbLine
 10
308.5384834973779
 20
583.4600171705426
 30
0.0
 11
308.4160283273777
 21
583.6052687227425
 31
0.0
  0
LINE
  5
3796
330
A
100
AcDbEntity
  8
MODEL
100
AcDbLine
 10
310.9581309529781
 20
576.0688470097425
 30
0.0
 11
310.9581294745781
 21
576.3333224773426
 31
0.0
  0
LINE
  5
3797
330
A
100
AcDbEntity
  8
MODEL
100
AcDbLine
 10
275.2502364847778
 20
576.3333224773426
 30
0.0
 11
275.2502350063778
 21
576.0688470097425
 31
0.0
  0
SPLINE
  5
3798
330
A
100
AcDbEntity
  8
MODEL
100
AcDbSpline
210
0.0
220
0.0
230
1.0
 70
     8
 71
     3
 72
    58
 73
    54
 74
     0
 42
0.000000001
 43
0.0000000001
 40
0.0
 40
0.0
 40
0.0
 40
0.0
 40
0.0203563104643844
 40
0.0407671270644347
 40
0.0611396232781018
 40
0.0814396226334799
 40
0.101655846117859
 40
0.1217858924062714
 40
0.1418271479827982
 40
0.1617735073754552
 40
0.1816158152935879
 40
0.2013439636883373
 40
0.2209470157754814
 40
0.2403423876407374
 40
0.2597625101215039
 40
0.2793991766022593
 40
0.2992262676208163
 40
0.3192106485681367
 40
0.3393123396718209
 40
0.3594863955140001
 40
0.3796848547278885
 40
0.3998433730866658
 40
0.4199164048978067
 40
0.439863379283835
 40
0.4596506166654001
 40
0.4792531062971223
 40
0.4986875915577751
 40
0.5182762491391667
 40
0.5380190133978509
 40
0.5578971593299029
 40
0.5778863531995277
 40
0.5979577134604969
 40
0.6180791980108201
 40
0.6382150690495304
 40
0.6583228114326642
 40
0.6783716626472828
 40
0.6983349818915501
 40
0.7181916325965692
 40
0.7379271045159297
 40
0.7574974770177295
 40
0.7770327237800652
 40
0.7966811076669935
 40
0.8164165487567981
 40
0.8362280789094486
 40
0.8561011027088231
 40
0.8760191003856475
 40
0.8959657540179441
 40
0.915927555205324
 40
0.9358967307400184
 40
0.955874010561395
 40
0.9758701710544788
 40
0.9959043898038266
 40
1.0
 40
1.0
 40
1.0
 40
1.0
 10
280.8712276026663
 20
574.0827327605703
 30
0.0
 10
280.8876321881089
 20
574.2034679401377
 30
0.0
 10
280.9172642724034
 20
574.4073325714653
 30
0.0
 10
281.018712272044
 20
574.7430810060594
 30
0.0
 10
281.1590734486804
 20
575.0690573542788
 30
0.0
 10
281.3424037487889
 20
575.3938132049739
 30
0.0
 10
281.5665541179496
 20
575.7130753094978
 30
0.0
 10
281.830882776087
 20
576.026165317224
 30
0.0
 10
282.1341721786248
 20
576.3314829232013
 30
0.0
 10
282.4751398532712
 20
576.6276709978849
 30
0.0
 10
282.8522687648283
 20
576.9133179418088
 30
0.0
 10
283.2638759547995
 20
577.1870867220955
 30
0.0
 10
283.7074543456952
 20
577.4473390288001
 30
0.0
 10
284.182540018583
 20
577.6936381573544
 30
0.0
 10
284.6889972684139
 20
577.9268539402792
 30
0.0
 10
285.228310336875
 20
578.1476810058577
 30
0.0
 10
285.8000790145666
 20
578.3556095794884
 30
0.0
 10
286.4017086769077
 20
578.549305900875
 30
0.0
 10
287.0302270616598
 20
578.7274864018002
 30
0.0
 10
287.6823157783847
 20
578.888944667063
 30
0.0
 10
288.3541956922736
 20
579.0325484955422
 30
0.0
 10
289.0418748208854
 20
579.1573300874065
 30
0.0
 10
289.7412613176507
 20
579.2625140387447
 30
0.0
 10
290.4484734490206
 20
579.3475342536155
 30
0.0
 10
291.1597462611544
 20
579.4120365293663
 30
0.0
 10
291.871948685312
 20
579.455743584308
 30
0.0
 10
292.5860958035064
 20
579.4790544871671
 30
0.0
 10
293.3036517713072
 20
579.4825403532584
 30
0.0
 10
294.0258013222624
 20
579.4660767123246
 30
0.0
 10
294.7494791404752
 20
579.4295518271547
 30
0.0
 10
295.4712682641539
 20
579.3729513986609
 30
0.0
 10
296.1875982643974
 20
579.2963955074842
 30
0.0
 10
296.8947875492945
 20
579.2001451381784
 30
0.0
 10
297.5890404811935
 20
579.0846236802724
 30
0.0
 10
298.2666500691225
 20
578.9504062477924
 30
0.0
 10
298.9241076366379
 20
578.7981992730222
 30
0.0
 10
299.5582416823249
 20
578.6287939056347
 30
0.0
 10
300.1661674223965
 20
578.4430608410169
 30
0.0
 10
300.7449381230508
 20
578.2420535006061
 30
0.0
 10
301.2932834464573
 20
578.026421439522
 30
0.0
 10
301.8121626244028
 20
577.7965652197934
 30
0.0
 10
302.3020549801386
 20
577.5524512581292
 30
0.0
 10
302.7620058078023
 20
577.2945250473067
 30
0.0
 10
303.1897851132157
 20
577.0239700206571
 30
0.0
 10
303.5833962505822
 20
576.7420275794557
 30
0.0
 10
303.9409797592803
 20
576.4500512675481
 30
0.0
 10
304.2608309860757
 20
576.1495115513517
 30
0.0
 10
304.5416262069316
 20
575.841816950491
 30
0.0
 10
304.7818201752852
 20
575.5287367803126
 30
0.0
 10
304.9820489258891
 20
575.2104892890029
 30
0.0
 10
305.1361456015902
 20
574.8924847009753
 30
0.0
 10
305.230349152398
 20
574.6482590825722
 30
0.0
 10
305.25670408728
 20
574.5258677778202
 30
0.0
 10
305.2618727520994
 20
574.5016259489685
 30
0.0
  0
ELLIPSE
  5
3799
330
A
100
AcDbEntity
  8
MODEL
100
AcDbEllipse
 10
293.1041829797778
 20
569.7994517863426
 30
0.0
 11
-8.250000000000002
 21
6.938893903907228E-15
 31
0.0
210
0.0
220
0.0
230
1.0
 40
0.4694715628
 41
0.0
 42
6.283185307179586
  0
ELLIPSE
  5
379A
330
A
100
AcDbEntity
  8
MODEL
100
AcDbEllipse
 10
293.1041829797778
 20
569.7994517863426
 30
0.0
 11
-9.400000000000002
 21
6.938893903907228E-15
 31
0.0
210
0.0
220
0.0
230
1.0
 40
0.4694715628000001
 41
0.0
 42
6.283185307179586
  0
ELLIPSE
  5
379B
330
A
100
AcDbEntity
  8
MODEL
100
AcDbEllipse
 10
293.1041829797778
 20
570.8369152079426
 30
0.0
 11
-9.399999999998187
 21
3.469446951953614E-14
 31
0.0
210
0.0
220
0.0
230
1.0
 40
0.4694715628
 41
3.141592653589788
 42
3.295084955819558
  0
ELLIPSE
  5
379C
330
A
100
AcDbEntity
  8
MODEL
100
AcDbEllipse
 10
293.1041829797778
 20
571.3887574533426
 30
0.0
 11
-10.02499999999844
 21
0.0
 31
0.0
210
0.0
220
0.0
230
1.0
 40
0.4694715628000001
 41
-3.361282931559393
 42
-3.313659009589091
  0
LINE
  5
379D
330
A
100
AcDbEntity
  8
MODEL
100
AcDbLine
 10
302.5041829797779
 20
570.0948047495426
 30
0.0
 11
302.888232034978
 21
570.3630927235426
 31
0.0
  0
LINE
  5
379E
330
A
100
AcDbEntity
  8
MODEL
100
AcDbLine
 10
283.3201339243778
 20
570.3630927235426
 30
0.0
 11
283.7041829797781
 21
570.0948047495426
 31
0.0
  0
ELLIPSE
  5
379F
330
A
100
AcDbEntity
  8
MODEL
100
AcDbEllipse
 10
293.1041829797778
 20
570.8369152079426
 30
0.0
 11
9.399999999999441
 21
-9.714451465470120E-14
 31
0.0
210
0.0
220
0.0
230
1.0
 40
0.4694715628
 41
2.988100351360025
 42
3.141592653589793
  0
ELLIPSE
  5
37A0
330
A
100
AcDbEntity
  8
MODEL
100
AcDbEllipse
 10
293.1041829797778
 20
571.3887574533426
 30
0.0
 11
10.02499999999749
 21
9.714451465470120E-14
 31
0.0
210
0.0
220
0.0
230
1.0
 40
0.4694715628
 41
3.313659009589056
 42
3.361282931559383
  0
LINE
  5
37A1
330
A
100
AcDbEntity
  8
MODEL
100
AcDbLine
 10
302.5041829797779
 20
569.7994517863426
 30
0.0
 11
302.5041829797779
 21
570.8369152079426
 31
0.0
  0
LINE
  5
37A2
330
A
100
AcDbEntity
  8
MODEL
100
AcDbLine
 10
283.7041829797781
 20
570.8369152079426
 30
0.0
 11
283.7041829797781
 21
569.7994517863426
 31
0.0
  0
ELLIPSE
  5
37A3
330
A
100
AcDbEntity
  8
MODEL
100
AcDbEllipse
 10
293.1041829797778
 20
569.7111570269426
 30
0.0
 11
10.05000000000001
 21
-1.387778780781446E-14
 31
0.0
210
0.0
220
0.0
230
1.0
 40
0.4694715628
 41
0.0
 42
6.283185307179586
  0
ELLIPSE
  5
37A4
330
A
100
AcDbEntity
  8
MODEL
100
AcDbEllipse
 10
293.1041829797778
 20
569.7111570269426
 30
0.0
 11
10.75000000000001
 21
-1.387778780781446E-14
 31
0.0
210
0.0
220
0.0
230
1.0
 40
0.4694715628
 41
0.0
 42
6.283185307179586
  0
LINE
  5
37A5
330
A
100
AcDbEntity
  8
MODEL
100
AcDbLine
 10
282.1041829797778
 20
571.2058203517427
 30
0.0
 11
282.1041829797778
 21
568.7772407357427
 31
0.0
  0
ELLIPSE
  5
37A6
330
A
100
AcDbEntity
  8
MODEL
100
AcDbEllipse
 10
293.1041829797778
 20
572.3599998055427
 30
0.0
 11
11.80000000000002
 21
-6.938893903907228E-15
 31
0.0
210
0.0
220
0.0
230
1.0
 40
0.4694715628
 41
2.771250021498074
 42
3.511935285681518
  0
LINE
  5
37A7
330
A
100
AcDbEntity
  8
MODEL
100
AcDbLine
 10
282.1041829797778
 20
574.3650336507426
 30
0.0
 11
282.1041829797778
 21
572.7612194345427
 31
0.0
  0
LINE
  5
37A8
330
A
100
AcDbEntity
  8
MODEL
100
AcDbLine
 10
282.1041829797778
 20
572.7612194345427
 30
0.0
 11
282.1041829797778
 21
571.2058203517427
 31
0.0
  0
LINE
  5
37A9
330
A
100
AcDbEntity
  8
MODEL
100
AcDbLine
 10
282.1041829797778
 20
568.7772407357427
 30
0.0
 11
282.1041829797778
 21
568.4897178771425
 31
0.0
  0
ELLIPSE
  5
37AA
330
A
100
AcDbEntity
  8
MODEL
100
AcDbEllipse
 10
293.1041829797778
 20
569.9915305437426
 30
0.0
 11
11.30000000000002
 21
6.938893903907228E-15
 31
0.0
210
0.0
220
0.0
230
1.0
 40
0.4694715628
 41
-1.170505625067084
 42
-0.9940779077806265
  0
ELLIPSE
  5
37AB
330
A
100
AcDbEntity
  8
MODEL
100
AcDbEllipse
 10
293.1041829797778
 20
569.9915305437426
 30
0.0
 11
11.30000000000002
 21
6.938893903907228E-15
 31
0.0
210
0.0
220
0.0
230
1.0
 40
0.4694715628
 41
4.096645666543246
 42
4.312098278656876
  0
LINE
  5
37AC
330
A
100
AcDbEntity
  8
MODEL
100
AcDbLine
 10
304.1041829797778
 20
568.7772407357427
 30
0.0
 11
304.1041829797778
 21
571.2058203517427
 31
0.0
  0
ELLIPSE
  5
37AD
330
A
100
AcDbEntity
  8
MODEL
100
AcDbEllipse
 10
293.1041829797778
 20
572.3599998055427
 30
0.0
 11
-11.80000000000035
 21
3.469446951953614E-14
 31
0.0
210
0.0
220
0.0
230
1.0
 40
0.4694715628000001
 41
2.77125002149809
 42
3.511935285681498
  0
LINE
  5
37AE
330
A
100
AcDbEntity
  8
MODEL
100
AcDbLine
 10
304.1041829797778
 20
568.4893108337426
 30
0.0
 11
304.1041829797778
 21
568.7772407357427
 31
0.0
  0
LINE
  5
37AF
330
A
100
AcDbEntity
  8
MODEL
100
AcDbLine
 10
304.1041829797778
 20
571.2058203517427
 30
0.0
 11
304.1041829797778
 21
572.7612194345427
 31
0.0
  0
LINE
  5
37B0
330
A
100
AcDbEntity
  8
MODEL
100
AcDbLine
 10
304.1041829797778
 20
572.7612194345427
 30
0.0
 11
304.1041829797778
 21
574.3650336507426
 31
0.0
  0
LINE
  5
37B1
330
A
100
AcDbEntity
  8
MODEL
100
AcDbLine
 10
288.7007302771781
 20
565.1058763333426
 30
0.0
 11
288.9150576209781
 21
565.0633001455426
 31
0.0
  0
LINE
  5
37B2
330
A
100
AcDbEntity
  8
MODEL
100
AcDbLine
 10
297.2933083383778
 20
565.0633001455426
 30
0.0
 11
297.5076356821778
 21
565.1058763333426
 31
0.0
  0
ARC
  5
37B3
330
A
100
AcDbEntity
  8
MODEL
100
AcDbCircle
 10
297.1128415001781
 20
574.5267449429425
 30
0.0
 40
9.233479574524468
100
AcDbArc
 50
283.5992158246004
 51
319.1970707543991
  0
ARC
  5
37B4
330
A
100
AcDbEntity
  8
MODEL
100
AcDbCircle
 10
288.8979727357778
 20
574.2730362581426
 30
0.0
 40
8.916912735122327
100
AcDbArc
 50
220.3830714867014
 51
254.8454440661008
  0
LINE
  5
37B5
330
A
100
AcDbEntity
  8
MODEL
100
AcDbLine
 10
281.304182979778
 20
575.3131142881425
 30
0.0
 11
281.304182979778
 21
572.3599998055427
 31
0.0
  0
LINE
  5
37B6
330
A
100
AcDbEntity
  8
MODEL
100
AcDbLine
 10
304.9041829797779
 20
572.3599998055427
 30
0.0
 11
304.9041829797779
 21
575.3223397671427
 31
0.0
  0
ARC
  5
37B7
330
A
100
AcDbEntity
  8
MODEL
100
AcDbCircle
 10
286.7065936811778
 20
576.8781940151425
 30
0.0
 40
11.43787180051441
100
AcDbArc
 50
176.6340147281994
 51
176.7195117512999
  0
ARC
  5
37B8
330
A
100
AcDbEntity
  8
MODEL
100
AcDbCircle
 10
299.5020189071779
 20
576.8781939325427
 30
0.0
 40
11.43787209607199
100
AcDbArc
 50
3.279971324599915
 51
3.36418926209995
  0
ARC
  5
37B9
330
A
100
AcDbEntity
  8
MODEL
100
AcDbCircle
 10
315.6483348137781
 20
606.2155961081426
 30
0.0
 40
38.25218147264502
100
AcDbArc
 50
170.7708042482998
 51
175.5708088796999
  0
ARC
  5
37BA
330
A
100
AcDbEntity
  8
MODEL
100
AcDbCircle
 10
270.5654297593778
 20
606.2156285837427
 30
0.0
 40
38.24731990978984
100
AcDbArc
 50
4.426331130899897
 51
5.149053194599597
  0
ARC
  5
37BB
330
A
100
AcDbEntity
  8
MODEL
100
AcDbCircle
 10
298.7747320635781
 20
577.0078619053427
 30
0.0
 40
12.15473810723446
100
AcDbArc
 50
359.8545596358003
 51
2.553423260600016
  0
ARC
  5
37BC
330
A
100
AcDbEntity
  8
MODEL
100
AcDbCircle
 10
280.2067979307781
 20
618.8802197745426
 30
0.0
 40
0.6564850290813842
100
AcDbArc
 50
116.1346159831101
 51
130.8847387768768
  0
LINE
  5
37BD
330
A
100
AcDbEntity
  8
MODEL
100
AcDbLine
 10
280.0689234233778
 20
619.5251270785425
 30
0.0
 11
279.9260182495777
 21
619.4737426511426
 31
0.0
  0
ARC
  5
37BE
330
A
100
AcDbEntity
  8
MODEL
100
AcDbCircle
 10
293.1043039549781
 20
579.7626882479426
 30
0.0
 40
41.84424957940968
100
AcDbArc
 50
71.85096214900054
 51
108.1490313103
  0
LINE
  5
37BF
330
A
100
AcDbEntity
  8
MODEL
100
AcDbLine
 10
306.2907921015781
 20
619.4694801025425
 30
0.0
 11
306.1372276279781
 21
619.5246618475426
 31
0.0
  0
ARC
  5
37C0
330
A
100
AcDbEntity
  8
MODEL
100
AcDbCircle
 10
305.9991130105782
 20
618.8748600273425
 30
0.0
 40
0.6623063679066594
100
AcDbArc
 50
49.2439314392298
 51
63.87067432782766
  0
ARC
  5
37C1
330
A
100
AcDbEntity
  8
MODEL
100
AcDbCircle
 10
1981.137851238378
 20
473.7460743571426
 30
0.0
 40
1709.00250176603
100
AcDbArc
 50
175.4550317224
 51
176.5177244347
  0
ARC
  5
37C2
330
A
100
AcDbEntity
  8
MODEL
100
AcDbCircle
 10
-1397.710515682222
 20
473.5505553895426
 30
0.0
 40
1711.790509800177
100
AcDbArc
 50
3.4831413323
 51
4.544038923799996
  0
ARC
  5
37C3
330
A
100
AcDbEntity
  8
MODEL
100
AcDbCircle
 10
280.2707478665779
 20
618.9510067011427
 30
0.0
 40
0.6517397003937359
100
AcDbArc
 50
139.2377702793866
 51
153.8610603908215
  0
ARC
  5
37C4
330
A
100
AcDbEntity
  8
MODEL
100
AcDbCircle
 10
305.945149405778
 20
618.9555714529426
 30
0.0
 40
0.643239119695472
100
AcDbArc
 50
26.06098009781248
 51
40.87982779198796
  0
ARC
  5
37C5
330
A
100
AcDbEntity
  8
MODEL
100
AcDbCircle
 10
267.3326776101781
 20
623.7033955241427
 30
0.0
 40
13.1352515908341
100
AcDbArc
 50
339.5473065975001
 51
340.1264675895996
  0
ARC
  5
37C6
330
A
100
AcDbEntity
  8
MODEL
100
AcDbCircle
 10
315.142926568778
 20
606.3458997913426
 30
0.0
 40
37.73055213984888
100
AcDbArc
 50
160.2240485515006
 51
170.8257007209001
  0
ARC
  5
37C7
330
A
100
AcDbEntity
  8
MODEL
100
AcDbCircle
 10
318.9711759111779
 20
623.7333315291426
 30
0.0
 40
13.23495006302968
100
AcDbArc
 50
199.8551664607004
 51
200.4300533458995
  0
ARC
  5
37C8
330
A
100
AcDbEntity
  8
MODEL
100
AcDbCircle
 10
270.610002075578
 20
606.2149189061427
 30
0.0
 40
38.20369040677524
100
AcDbArc
 50
4.674787143999972
 51
19.72957440889984
  0
DIMENSION
  5
37CA
330
A
100
AcDbEntity
  8
DIM
100
AcDbDimension
  2
*D6
 10
227.7498394776749
 20
578.3857589887427
 30
0.0
 11
227.7498394776749
 21
608.3857596593427
 31
0.0
 70
   161
  1
\A1;<>
 71
     5
 42
60.0
 73
     0
 74
     0
 75
     0
  3
tfrom線あり
100
AcDbAlignedDimension
 13
287.5119992744675
 23
638.3857589887427
 33
0.0
 14
287.5119992744675
 24
578.3857589887427
 34
0.0
  0
DIMENSION
  5
37CB
330
A
100
AcDbEntity
  8
DIM
100
AcDbDimension
  2
*D7
 10
825.6061706879872
 20
520.8097989851428
 30
0.0
 11
737.1682460143874
 21
520.8097989851428
 31
0.0
 70
   160
  1
\A1;<>
 71
     5
 42
176.875854423
 73
     0
 74
     0
 75
     0
  3
tfrom線あり
100
AcDbAlignedDimension
 13
648.7303162649872
 23
558.1504586333429
 33
0.0
 14
825.6061706879872
 24
562.3149110455429
 34
0.0
100
AcDbRotatedDimension
  0
DIMENSION
  5
37CC
330
A
100
AcDbEntity
  8
DIM
100
AcDbDimension
  2
*D8
 10
829.0055080241872
 20
563.3179333341427
 30
0.0
 11
837.4463474294371
 21
522.2228019028452
 31
0.0
 70
   162
  1
\A1;<>
 71
     5
 42
0.4886921905604308
 73
     0
 74
     0
 75
     0
  3
tfrom線あり
100
AcDb2LineAngularDimension
 13
825.6061706879872
 23
569.7111570269428
 33
0.0
 14
825.6061706879872
 24
562.3149110455429
 34
0.0
 15
825.6061706879872
 25
569.7111570269428
 35
0.0
 16
833.5435062828969
 26
521.4169300291436
 36
0.0
1001
ACAD
1000
DSTYLE
1002
{
1070
    77
1070
     2
1070
   179
1070
     0
1002
}
  0
DIMENSION
  5
37CD
330
A
100
AcDbEntity
  8
DIM
100
AcDbDimension
  2
*D9
 10
562.730316384187
 20
520.8097989851428
 30
0.0
 11
605.730314804587
 21
520.8097989851428
 31
0.0
 70
   160
  1
\A1;<>
 71
     5
 42
85.99999988080026
 73
     0
 74
     0
 75
     0
  3
tfrom線あり
100
AcDbAlignedDimension
 13
648.7303162649872
 23
558.1504586333429
 33
0.0
 14
562.730316384187
 24
598.9057589887427
 34
0.0
100
AcDbRotatedDimension
  0
DIMENSION
  5
37CE
330
A
100
AcDbEntity
  8
DIM
100
AcDbDimension
  2
*D10
 10
278.5894559075198
 20
1224.42800134466
 30
0.0
 11
365.9770431779541
 21
1183.828285835223
 31
0.0
 70
   163
  1
φ\A1;<>\P(φ22-φ40)
 71
     5
 42
31.99999999992697
 73
     0
 74
     0
 75
     0
  3
tfrom線あり
100
AcDbDiametricDimension
 15
307.6103289416676
 25
1210.94508888736
 35
0.0
 40
0.0
  0
MTEXT
  5
3861
330
A
100
AcDbEntity
  8
DIM
390
1D
100
AcDbMText
 10
498.5711359045105
 20
617.5306621377463
 30
0.0
 40
12.21630859375
 41
0.0
 46
15.99994369140625
 71
     1
 72
     1
  1
{G1/2" \H1.30972x;▶}
  7
ＭＳ ゴシック
 73
     1
 44
0.7828267384257843
1001
ACAD
1000
ACAD_MTEXT_DEFINED_HEIGHT_BEGIN
1070
    46
1040
15.99994369140625
1000
ACAD_MTEXT_DEFINED_HEIGHT_END
  0
MTEXT
  5
3889
330
A
100
AcDbEntity
  8
TEMPLATE
390
1D
100
AcDbMText
 10
664.601072273995
 20
199.8923864799121
 30
0.0
 40
12.21630859375
 41
0.0
 46
13.64561669921875
 71
     1
 72
     1
  1
{FHT73-1109-004 (クローム/ゴールド)}
  7
ＭＳ ゴシック
 73
     1
 44
0.7828267384257843
1001
ACAD
1000
ACAD_MTEXT_DEFINED_HEIGHT_BEGIN
1070
    46
1040
13.64561669921875
1000
ACAD_MTEXT_DEFINED_HEIGHT_END
  0
MTEXT
  5
388A
330
A
100
AcDbEntity
  8
TEMPLATE
390
1D
100
AcDbMText
 10
664.601072273995
 20
220.6926321215305
 30
0.0
 40
12.21630859375
 41
0.0
 46
13.64561669921875
 71
     1
 72
     1
  1
{FHT73-1109-001 (クローム)}
  7
ＭＳ ゴシック
 73
     1
 44
0.7828267384257843
1001
ACAD
1000
ACAD_MTEXT_DEFINED_HEIGHT_BEGIN
1070
    46
1040
13.64561669921875
1000
ACAD_MTEXT_DEFINED_HEIGHT_END
  0
LINE
  5
38DE
330
A
100
AcDbEntity
  8
DIM
 48
0.05
100
AcDbLine
 10
593.0548183060921
 20
618.8657589887428
 30
0.0
 11
593.0548183060921
 21
737.9464471916788
 31
0.0
  0
MTEXT
  5
390E
330
A
100
AcDbEntity
  8
DIM
390
1D
100
AcDbMText
 10
592.1329444279346
 20
760.2536011390588
 30
0.0
 40
12.0
 41
0.0
 46
13.404
 71
     1
 72
     1
  1
{カットして調整可能です}
  7
ＭＳ ゴシック
 73
     1
 44
0.7828267384257843
1001
ACAD
1000
ACAD_MTEXT_DEFINED_HEIGHT_BEGIN
1070
    46
1040
13.404
1000
ACAD_MTEXT_DEFINED_HEIGHT_END
  0
MTEXT
  5
394B
330
A
100
AcDbEntity
  8
MODEL
  6
Continuous
100
AcDbMText
 10
64.31863027262163
 20
209.0662564760189
 30
0.0
 40
10.0
 41
244.1650375249251
 46
11.42053269976241
 71
     1
 72
     1
  1
{■流量 0.3Mpa時 26.1L/min}
  7
ＭＳ ゴシック
 73
     1
 44
1.0
1001
ACAD
1000
ACAD_MTEXT_DEFINED_HEIGHT_BEGIN
1070
    46
1040
11.42053269976241
1000
ACAD_MTEXT_DEFINED_HEIGHT_END
  0
VIEWPORT
  5
349
330
B
100
AcDbEntity
 67
     1
  8
0
100
AcDbViewport
 10
202.5
 20
128.5
 30
0.0
 40
486.0
 41
308.4
 68
     1
 69
     1
 12
202.5
 22
128.5
 13
0.0
 23
0.0
 14
0.5
 24
0.5
 15
0.0
 25
0.0
 16
0.0
 26
0.0
 36
1.0
 17
0.0
 27
0.0
 37
0.0
 42
50.0
 43
0.0
 44
0.0
 45
308.4
 50
0.0
 51
0.0
 72
   100
 90
   557152
  1

281
     0
 71
     1
 74
     0
110
0.0
120
0.0
130
0.0
111
1.0
121
0.0
131
0.0
112
0.0
122
1.0
132
0.0
 79
     0
146
0.0
170
     0
 61
     5
348
26C
292
     1
282
     1
141
0.0
142
0.0
 63
   256
  0
VIEWPORT
  5
34A
330
B
100
AcDbEntity
 67
     1
  8
0
100
AcDbViewport
 10
202.5
 20
128.5
 30
0.0
 40
324.0
 41
205.6
 68
     2
 69
     2
 12
986.6781359294573
 22
1427.077061889956
 13
0.0
 23
0.0
 14
0.5
 24
0.5
 15
0.0
 25
0.0
 16
0.0
 26
0.0
 36
1.0
 17
0.0
 27
0.0
 37
0.0
 42
50.0
 43
0.0
 44
0.0
 45
2890.021615685494
 50
0.0
 51
0.0
 72
   100
 90
   557152
  1

281
     0
 71
     1
 74
     0
110
0.0
120
0.0
130
0.0
111
1.0
121
0.0
131
0.0
112
0.0
122
1.0
132
0.0
 79
     0
146
0.0
170
     0
 61
     5
348
26C
292
     1
282
     1
141
0.0
142
0.0
 63
   256
  0
ENDSEC
  0
SECTION
  2
OBJECTS
  0
DICTIONARY
  5
19
330
0
100
AcDbDictionary
281
     1
  3
ACAD_COLOR
350
674
  3
ACAD_DETAILVIEWSTYLE
350
BBF
  3
ACAD_FIELDLIST
350
3446
  3
ACAD_GROUP
350
1A
  3
ACAD_IMAGE_VARS
350
27B
  3
ACAD_LAYOUT
350
1E
  3
ACAD_MATERIAL
350
263
  3
ACAD_MLEADERSTYLE
350
336
  3
ACAD_MLINESTYLE
350
1B
  3
ACAD_PLOTSETTINGS
350
22
  3
ACAD_PLOTSTYLENAME
350
1F
  3
ACAD_SCALELIST
350
241
  3
ACAD_SECTIONVIEWSTYLE
350
BC0
  3
ACAD_TABLESTYLE
350
278
  3
ACAD_VISUALSTYLE
350
267
  3
ACDB_RECOMPOSE_DATA
350
3957
  3
AcDbVariableDictionary
350
330
  3
APPDATA
350
27A
  3
DimOffsetDictionary
350
E38
  0
SUN
  5
904
330
15
100
AcDbSun
 90
        1
290
     0
 63
     7
421
 16777215
 40
1.0
291
     1
 91
  2455826
 92
 54000000
292
     0
 70
     2
 71
   256
280
     1
  0
DICTIONARY
  5
2E1
330
2
100
AcDbDictionary
280
     1
281
     1
  3
ACAD_LAYERSTATES
360
2E2
  3
ACLYDICTIONARY
360
DDE
  0
DICTIONARY
  5
3444
330
3442
100
AcDbDictionary
280
     1
281
     1
  3
ACAD_FIELD
360
394D
  0
DICTIONARY
  5
674
102
{ACAD_REACTORS
330
19
102
}
330
19
100
AcDbDictionary
281
     1
  0
DICTIONARY
  5
BBF
102
{ACAD_REACTORS
330
19
102
}
330
19
100
AcDbDictionary
281
     1
  0
FIELDLIST
  5
3446
102
{ACAD_REACTORS
330
19
102
}
330
19
100
AcDbIdSet
 90
        2
330
3447
330
3443
100
AcDbFieldList
  0
DICTIONARY
  5
1A
102
{ACAD_REACTORS
330
19
102
}
330
19
100
AcDbDictionary
281
     1
  0
RASTERVARIABLES
  5
27B
102
{ACAD_REACTORS
330
19
102
}
330
19
100
AcDbRasterVariables
 90
        0
 70
     1
 71
     1
 72
     1
  0
DICTIONARY
  5
1E
102
{ACAD_REACTORS
330
19
102
}
330
19
100
AcDbDictionary
281
     1
  3
Layout1
350
21
  3
Model
350
20
  0
DICTIONARY
  5
263
102
{ACAD_REACTORS
330
19
102
}
330
19
100
AcDbDictionary
281
     1
  3
ByBlock
350
38D1
  3
ByLayer
350
264
  3
Global
350
266
  0
DICTIONARY
  5
336
102
{ACAD_REACTORS
330
19
102
}
330
19
100
AcDbDictionary
281
     1
  3
Standard
350
D59
  0
DICTIONARY
  5
1B
102
{ACAD_REACTORS
330
19
102
}
330
19
100
AcDbDictionary
281
     1
  3
Standard
350
1C
  0
DICTIONARY
  5
22
102
{ACAD_REACTORS
330
19
102
}
330
19
100
AcDbDictionary
281
     1
  0
ACDBDICTIONARYWDFLT
  5
1F
102
{ACAD_REACTORS
330
19
102
}
330
19
100
AcDbDictionary
281
     1
  3
Normal
350
1D
100
AcDbDictionaryWithDefault
340
1D
  0
DICTIONARY
  5
241
102
{ACAD_REACTORS
330
19
102
}
330
19
100
AcDbDictionary
281
     1
  3
A0
350
242
  3
A1
350
243
  3
A2
350
244
  3
A3
350
245
  3
A4
350
246
  3
A5
350
247
  3
A6
350
248
  3
A7
350
249
  3
A8
350
24A
  3
A9
350
24B
  3
B0
350
24C
  3
B1
350
24D
  3
B2
350
24E
  3
B3
350
24F
  3
B4
350
250
  3
B5
350
251
  3
B6
350
252
  3
B7
350
253
  3
B8
350
254
  3
B9
350
255
  3
C0
350
256
  3
C1
350
257
  3
C2
350
258
  3
C3
350
259
  3
C4
350
25A
  3
C5
350
25B
  3
C6
350
25C
  3
C7
350
25D
  3
C8
350
25E
  3
C9
350
25F
  3
D0
350
260
  3
D1
350
261
  3
D2
350
262
  0
DICTIONARY
  5
BC0
102
{ACAD_REACTORS
330
19
102
}
330
19
100
AcDbDictionary
281
     1
  0
DICTIONARY
  5
278
102
{ACAD_REACTORS
330
19
102
}
330
19
100
AcDbDictionary
281
     1
  3
Standard
350
279
  0
DICTIONARY
  5
267
102
{ACAD_REACTORS
330
19
102
}
330
19
100
AcDbDictionary
281
     1
  3
2dWireframe
350
26C
  3
3D Hidden
350
26E
  3
3dWireframe
350
26D
  3
Basic
350
26F
  3
Brighten
350
273
  3
ColorChange
350
277
  3
Conceptual
350
271
  3
Dim
350
272
  3
EdgeColorOff
350
8FE
  3
Facepattern
350
276
  3
Flat
350
268
  3
FlatWithEdges
350
269
  3
Gouraud
350
26A
  3
GouraudWithEdges
350
26B
  3
Hidden
350
8FB
  3
JitterOff
350
8FC
  3
Linepattern
350
275
  3
OverhangOff
350
8FD
  3
Realistic
350
270
  3
Shaded
350
903
  3
Shaded with edges
350
902
  3
Shades of Gray
350
8FF
  3
Sketchy
350
900
  3
Thicken
350
274
  3
Wireframe
350
8FA
  3
X-Ray
350
901
  0
XRECORD
  5
3957
102
{ACAD_REACTORS
330
19
102
}
330
19
100
AcDbXrecord
280
     1
 90
        1
330
279
  0
DICTIONARY
  5
330
102
{ACAD_REACTORS
330
19
102
}
330
19
100
AcDbDictionary
281
     1
  3
CANNOSCALE
350
331
  3
CMLEADERSTYLE
350
D5E
  3
CTABLESTYLE
350
335
  3
HPTRANSPARENCY
350
D52
  3
XCLIPFRAME
350
896
  0
DICTIONARY
  5
27A
102
{ACAD_REACTORS
330
19
102
}
330
19
100
AcDbDictionary
281
     1
  0
DICTIONARY
  5
E38
102
{ACAD_REACTORS
330
19
102
}
330
19
100
AcDbDictionary
281
     1
  3
DIMRAILANGLE
350
1614
  3
DIMRAILFIRSTOFFSET
350
1612
  3
DIMRAILOFFSET
350
1613
  3
DIMRAILSENABLED
350
1615
  0
DICTIONARY
  5
2E2
102
{ACAD_REACTORS
330
2E1
102
}
330
2E1
100
AcDbDictionary
281
     1
  0
DICTIONARY
  5
DDE
102
{ACAD_REACTORS
330
2E1
102
}
330
2E1
100
AcDbDictionary
281
     1
1001
ACAD
1000
<All
  0
DICTIONARY
  5
394D
102
{ACAD_REACTORS
330
3444
102
}
330
3444
100
AcDbDictionary
280
     1
281
     1
  3
TEXT
360
3443
  0
LAYOUT
  5
21
102
{ACAD_REACTORS
330
1E
102
}
330
1E
100
AcDbPlotSettings
  1

  2
none_device
  4
ISO_A3_(420.00_x_297.00_MM)
  6

 40
7.5
 41
20.0
 42
7.5
 43
20.0
 44
420.0
 45
297.0
 46
0.0
 47
0.0
 48
0.0
 49
0.0
140
0.0
141
0.0
142
1.0
143
1.0
 70
     0
 72
     1
 73
     0
 74
     0
  7

 75
     0
 76
     0
 77
     2
 78
   300
147
1.0
148
0.0
149
0.0
100
AcDbLayout
  1
Layout1
 70
     0
 71
     0
 10
-7.5
 20
-20.0
 11
412.5
 21
277.0
 12
0.0
 22
0.0
 32
0.0
 14
0.0
 24
0.0
 34
0.0
 15
0.0
 25
0.0
 35
0.0
146
0.0
 13
0.0
 23
0.0
 33
0.0
 16
0.0
 26
0.0
 36
0.0
 17
0.0
 27
0.0
 37
0.0
 76
     0
330
B
331
349
  0
LAYOUT
  5
20
102
{ACAD_REACTORS
330
1E
102
}
330
1E
100
AcDbPlotSettings
  1

  2
Adobe PDF
  4
A4
  6

 40
0.0
 41
0.0400000000000205
 42
0.0600000000000023
 43
0.0
 44
210.0
 45
297.0
 46
0.0
 47
0.0224285714285486
 48
0.0
 49
0.0
140
0.0
141
0.0
142
1.0
143
5.001428979708488
 70
  1716
 72
     1
 73
     0
 74
     2
  7
monochrome.ctb
 75
     0
 76
     0
 77
     2
 78
   300
147
0.1999428571428571
148
-616.0201356709074
149
-668.901285469834
100
AcDbLayout
  1
Model
 70
     0
 71
     1
 10
0.0
 20
0.0
 11
1050.0
 21
1485.0
 12
0.0
 22
0.0
 32
0.0
 14
0.0
 24
0.0
 34
-0.0000000000000071
 15
1050.0
 25
1485.0
 35
0.0000000000000142
146
0.0
 13
0.0
 23
0.0
 33
0.0
 16
0.0
 26
0.0
 36
0.0
 17
0.0
 27
0.0
 37
0.0
 76
     0
330
A
331
15
1001
PLOTTRANSPARENCY
1071
        0
  0
MATERIAL
  5
38D1
102
{ACAD_REACTORS
330
263
102
}
330
263
100
AcDbMaterial
  1
ByBlock
 72
     1
 94
      127
  0
MATERIAL
  5
264
102
{ACAD_REACTORS
330
263
102
}
330
263
100
AcDbMaterial
  1
ByLayer
 72
     1
 94
      127
  0
MATERIAL
  5
266
102
{ACAD_REACTORS
330
263
102
}
330
263
100
AcDbMaterial
  1
Global
 72
     1
 94
      127
  0
MLEADERSTYLE
  5
D59
102
{ACAD_REACTORS
330
336
102
}
330
336
100
AcDbMLeaderStyle
170
     2
171
     1
172
     0
 90
        2
 40
0.0
 41
0.0
173
     1
 91
-1056964608
340
11
 92
       -2
290
     1
 42
2.0
291
     1
 43
8.0
  3
Standard
341
0
 44
4.0
300

342
17
174
     1
178
     6
175
     1
176
     0
 93
-1056964608
 45
4.0
292
     0
297
     0
 46
4.0
343
0
 94
-1056964608
 47
1.0
 49
1.0
140
1.0
293
     1
141
0.0
294
     1
177
     0
142
1.0
295
     0
296
     0
143
3.75
1001
ACAD_MLEADERVER
1070
     2
  0
MLINESTYLE
  5
1C
102
{ACAD_REACTORS
330
1B
102
}
330
1B
100
AcDbMlineStyle
  2
Standard
 70
     0
  3

 62
     0
 51
90.0
 52
90.0
 71
     2
 49
0.5
 62
   256
  6
BYLAYER
 49
-0.5
 62
   256
  6
BYLAYER
  0
ACDBPLACEHOLDER
  5
1D
102
{ACAD_REACTORS
330
1F
102
}
330
1F
  0
SCALE
  5
242
102
{ACAD_REACTORS
330
241
102
}
330
241
100
AcDbScale
 70
     0
300
1:1
140
1.0
141
1.0
290
     1
  0
SCALE
  5
243
102
{ACAD_REACTORS
330
241
102
}
330
241
100
AcDbScale
 70
     0
300
1:2
140
1.0
141
2.0
290
     0
  0
SCALE
  5
244
102
{ACAD_REACTORS
330
241
102
}
330
241
100
AcDbScale
 70
     0
300
1:4
140
1.0
141
4.0
290
     0
  0
SCALE
  5
245
102
{ACAD_REACTORS
330
241
102
}
330
241
100
AcDbScale
 70
     0
300
1:5
140
1.0
141
5.0
290
     0
  0
SCALE
  5
246
102
{ACAD_REACTORS
330
241
102
}
330
241
100
AcDbScale
 70
     0
300
1:8
140
1.0
141
8.0
290
     0
  0
SCALE
  5
247
102
{ACAD_REACTORS
330
241
102
}
330
241
100
AcDbScale
 70
     0
300
1:10
140
1.0
141
10.0
290
     0
  0
SCALE
  5
248
102
{ACAD_REACTORS
330
241
102
}
330
241
100
AcDbScale
 70
     0
300
1:16
140
1.0
141
16.0
290
     0
  0
SCALE
  5
249
102
{ACAD_REACTORS
330
241
102
}
330
241
100
AcDbScale
 70
     0
300
1:20
140
1.0
141
20.0
290
     0
  0
SCALE
  5
24A
102
{ACAD_REACTORS
330
241
102
}
330
241
100
AcDbScale
 70
     0
300
1:30
140
1.0
141
30.0
290
     0
  0
SCALE
  5
24B
102
{ACAD_REACTORS
330
241
102
}
330
241
100
AcDbScale
 70
     0
300
1:40
140
1.0
141
40.0
290
     0
  0
SCALE
  5
24C
102
{ACAD_REACTORS
330
241
102
}
330
241
100
AcDbScale
 70
     0
300
1:50
140
1.0
141
50.0
290
     0
  0
SCALE
  5
24D
102
{ACAD_REACTORS
330
241
102
}
330
241
100
AcDbScale
 70
     0
300
1:100
140
1.0
141
100.0
290
     0
  0
SCALE
  5
24E
102
{ACAD_REACTORS
330
241
102
}
330
241
100
AcDbScale
 70
     0
300
2:1
140
2.0
141
1.0
290
     0
  0
SCALE
  5
24F
102
{ACAD_REACTORS
330
241
102
}
330
241
100
AcDbScale
 70
     0
300
4:1
140
4.0
141
1.0
290
     0
  0
SCALE
  5
250
102
{ACAD_REACTORS
330
241
102
}
330
241
100
AcDbScale
 70
     0
300
8:1
140
8.0
141
1.0
290
     0
  0
SCALE
  5
251
102
{ACAD_REACTORS
330
241
102
}
330
241
100
AcDbScale
 70
     0
300
10:1
140
10.0
141
1.0
290
     0
  0
SCALE
  5
252
102
{ACAD_REACTORS
330
241
102
}
330
241
100
AcDbScale
 70
     0
300
100:1
140
100.0
141
1.0
290
     0
  0
SCALE
  5
253
102
{ACAD_REACTORS
330
241
102
}
330
241
100
AcDbScale
 70
     0
300
1/128" = 1'-0"
140
0.0078125
141
12.0
290
     0
  0
SCALE
  5
254
102
{ACAD_REACTORS
330
241
102
}
330
241
100
AcDbScale
 70
     0
300
1/64" = 1'-0"
140
0.015625
141
12.0
290
     0
  0
SCALE
  5
255
102
{ACAD_REACTORS
330
241
102
}
330
241
100
AcDbScale
 70
     0
300
1/32" = 1'-0"
140
0.03125
141
12.0
290
     0
  0
SCALE
  5
256
102
{ACAD_REACTORS
330
241
102
}
330
241
100
AcDbScale
 70
     0
300
1/16" = 1'-0"
140
0.0625
141
12.0
290
     0
  0
SCALE
  5
257
102
{ACAD_REACTORS
330
241
102
}
330
241
100
AcDbScale
 70
     0
300
3/32" = 1'-0"
140
0.09375
141
12.0
290
     0
  0
SCALE
  5
258
102
{ACAD_REACTORS
330
241
102
}
330
241
100
AcDbScale
 70
     0
300
1/8" = 1'-0"
140
0.125
141
12.0
290
     0
  0
SCALE
  5
259
102
{ACAD_REACTORS
330
241
102
}
330
241
100
AcDbScale
 70
     0
300
3/16" = 1'-0"
140
0.1875
141
12.0
290
     0
  0
SCALE
  5
25A
102
{ACAD_REACTORS
330
241
102
}
330
241
100
AcDbScale
 70
     0
300
1/4" = 1'-0"
140
0.25
141
12.0
290
     0
  0
SCALE
  5
25B
102
{ACAD_REACTORS
330
241
102
}
330
241
100
AcDbScale
 70
     0
300
3/8" = 1'-0"
140
0.375
141
12.0
290
     0
  0
SCALE
  5
25C
102
{ACAD_REACTORS
330
241
102
}
330
241
100
AcDbScale
 70
     0
300
1/2" = 1'-0"
140
0.5
141
12.0
290
     0
  0
SCALE
  5
25D
102
{ACAD_REACTORS
330
241
102
}
330
241
100
AcDbScale
 70
     0
300
3/4" = 1'-0"
140
0.75
141
12.0
290
     0
  0
SCALE
  5
25E
102
{ACAD_REACTORS
330
241
102
}
330
241
100
AcDbScale
 70
     0
300
1" = 1'-0"
140
1.0
141
12.0
290
     0
  0
SCALE
  5
25F
102
{ACAD_REACTORS
330
241
102
}
330
241
100
AcDbScale
 70
     0
300
1-1/2" = 1'-0"
140
1.5
141
12.0
290
     0
  0
SCALE
  5
260
102
{ACAD_REACTORS
330
241
102
}
330
241
100
AcDbScale
 70
     0
300
3" = 1'-0"
140
3.0
141
12.0
290
     0
  0
SCALE
  5
261
102
{ACAD_REACTORS
330
241
102
}
330
241
100
AcDbScale
 70
     0
300
6" = 1'-0"
140
6.0
141
12.0
290
     0
  0
SCALE
  5
262
102
{ACAD_REACTORS
330
241
102
}
330
241
100
AcDbScale
 70
     0
300
1'-0" = 1'-0"
140
12.0
141
12.0
290
     0
  0
TABLESTYLE
  5
279
102
{ACAD_REACTORS
330
278
102
}
102
{ACAD_XDICTIONARY
360
3955
102
}
330
278
100
AcDbTableStyle
  3
Standard
 70
     0
 71
     0
 40
0.06
 41
0.06
280
     0
281
     0
  7
Standard
140
4.5
170
     2
 62
     0
 63
   257
283
     0
 90
        4
 91
        0
  1

274
    -2
284
     1
 64
     0
275
    -2
285
     1
 65
     0
276
    -2
286
     1
 66
     0
277
    -2
287
     1
 67
     0
278
    -2
288
     1
 68
     0
279
    -2
289
     1
 69
     0
  7
Standard
140
6.0
170
     5
 62
     0
 63
   257
283
     0
 90
        4
 91
        0
  1

274
    -2
284
     1
 64
     0
275
    -2
285
     1
 65
     0
276
    -2
286
     1
 66
     0
277
    -2
287
     1
 67
     0
278
    -2
288
     1
 68
     0
279
    -2
289
     1
 69
     0
  7
Standard
140
4.5
170
     5
 62
     0
 63
   257
283
     0
 90
        4
 91
        0
  1

274
    -2
284
     1
 64
     0
275
    -2
285
     1
 65
     0
276
    -2
286
     1
 66
     0
277
    -2
287
     1
 67
     0
278
    -2
288
     1
 68
     0
279
    -2
289
     1
 69
     0
  0
VISUALSTYLE
  5
26C
102
{ACAD_REACTORS
330
267
102
}
330
267
100
AcDbVisualStyle
  2
2dWireframe
 70
     4
 71
     0
 72
     2
 73
     0
 90
        0
 40
-0.6
 41
-30.0
 62
     5
 63
     7
421
 16777215
 74
     1
 91
        4
 64
     7
 65
   257
 75
     1
175
     1
 42
1.0
 92
        0
 66
   257
 43
1.0
 76
     1
 77
     6
 78
     2
 67
     7
 79
     5
170
     0
171
     0
290
     0
174
     0
 93
        1
 44
0.0
173
     0
291
     0
 45
0.0
  0
VISUALSTYLE
  5
26E
102
{ACAD_REACTORS
330
267
102
}
330
267
100
AcDbVisualStyle
  2
3D Hidden
 70
     6
 71
     1
 72
     2
 73
     2
 90
        0
 40
-0.6
 41
-30.0
 62
     5
 63
     7
421
 16777215
 74
     2
 91
        2
 64
     7
 65
   257
 75
     2
175
     1
 42
40.0
 92
        0
 66
   257
 43
1.0
 76
     1
 77
     6
 78
     2
 67
     7
 79
     3
170
     0
171
     0
290
     0
174
     0
 93
        1
 44
0.0
173
     0
291
     0
 45
0.0
  0
VISUALSTYLE
  5
26D
102
{ACAD_REACTORS
330
267
102
}
330
267
100
AcDbVisualStyle
  2
3dWireframe
 70
     5
 71
     0
 72
     2
 73
     0
 90
        0
 40
-0.6
 41
-30.0
 62
     5
 63
     7
421
 16777215
 74
     1
 91
        4
 64
     7
 65
   257
 75
     1
175
     1
 42
1.0
 92
        0
 66
   257
 43
1.0
 76
     1
 77
     6
 78
     2
 67
     7
 79
     5
170
     0
171
     0
290
     0
174
     0
 93
        1
 44
0.0
173
     0
291
     0
 45
0.0
  0
VISUALSTYLE
  5
26F
102
{ACAD_REACTORS
330
267
102
}
330
267
100
AcDbVisualStyle
  2
Basic
 70
     7
 71
     1
 72
     0
 73
     1
 90
        0
 40
-0.6
 41
-30.0
 62
     5
 63
     7
421
 16777215
 74
     0
 91
        4
 64
     7
 65
   257
 75
     1
175
     1
 42
1.0
 92
        8
 66
     7
 43
1.0
 76
     1
 77
     6
 78
     2
 67
     7
 79
     5
170
     0
171
     0
290
     0
174
     0
 93
        1
 44
0.0
173
     0
291
     1
 45
0.0
  0
VISUALSTYLE
  5
273
102
{ACAD_REACTORS
330
267
102
}
330
267
100
AcDbVisualStyle
  2
Brighten
 70
    12
 71
     2
 72
     2
 73
     0
 90
        0
 40
-0.6
 41
-30.0
 62
     5
 63
     7
421
 16777215
 74
     1
 91
        4
 64
     7
 65
   257
 75
     1
175
     1
 42
1.0
 92
        8
 66
     7
 43
1.0
 76
     1
 77
     6
 78
     2
 67
     7
 79
     5
170
     0
171
     0
290
     0
174
     0
 93
        1
 44
50.0
173
     0
291
     1
 45
0.0
  0
VISUALSTYLE
  5
277
102
{ACAD_REACTORS
330
267
102
}
330
267
100
AcDbVisualStyle
  2
ColorChange
 70
    16
 71
     2
 72
     2
 73
     3
 90
        0
 40
-0.6
 41
-30.0
 62
     5
 63
     8
421
  8421504
 74
     1
 91
        4
 64
     7
 65
   257
 75
     1
175
     1
 42
1.0
 92
        8
 66
     8
424
  8421504
 43
1.0
 76
     1
 77
     6
 78
     2
 67
     7
 79
     5
170
     0
171
     0
290
     0
174
     0
 93
        1
 44
0.0
173
     0
291
     1
 45
0.0
  0
VISUALSTYLE
  5
271
102
{ACAD_REACTORS
330
267
102
}
330
267
100
AcDbVisualStyle
  2
Conceptual
 70
     9
 71
     3
 72
     2
 73
     0
 90
        0
 40
-0.6
 41
-30.0
 62
     5
 63
     7
421
 16777215
 74
     2
 91
        2
 64
     7
 65
   257
 75
     1
175
     1
 42
40.0
 92
        8
 66
     7
 43
1.0
 76
     1
 77
     6
 78
     2
 67
     7
 79
     3
170
     0
171
     0
290
     0
174
     0
 93
        1
 44
0.0
173
     0
291
     0
 45
0.0
  0
VISUALSTYLE
  5
272
102
{ACAD_REACTORS
330
267
102
}
330
267
100
AcDbVisualStyle
  2
Dim
 70
    11
 71
     2
 72
     2
 73
     0
 90
        0
 40
-0.6
 41
-30.0
 62
     5
 63
     7
421
 16777215
 74
     1
 91
        4
 64
     7
 65
   257
 75
     1
175
     1
 42
1.0
 92
        8
 66
     7
 43
1.0
 76
     1
 77
     6
 78
     2
 67
     7
 79
     5
170
     0
171
     0
290
     0
174
     0
 93
        1
 44
-50.0
173
     0
291
     1
 45
0.0
  0
VISUALSTYLE
  5
8FE
102
{ACAD_REACTORS
330
267
102
}
330
267
100
AcDbVisualStyle
  2
EdgeColorOff
 70
    22
 71
     2
 72
     2
 73
     0
 90
        0
 40
0.6
 41
30.0
 62
     5
 63
     7
421
 16777215
 74
     1
 91
        4
 64
     7
 65
   257
 75
     1
175
     1
 42
1.0
 92
        8
 66
     7
 43
1.0
 76
     1
 77
     6
 78
     2
 67
     7
 79
     5
170
     0
171
     0
290
     0
174
     0
 93
        1
 44
0.0
173
     0
291
     1
 45
0.0
  0
VISUALSTYLE
  5
276
102
{ACAD_REACTORS
330
267
102
}
330
267
100
AcDbVisualStyle
  2
Facepattern
 70
    15
 71
     2
 72
     2
 73
     0
 90
        0
 40
-0.6
 41
-30.0
 62
     5
 63
     7
421
 16777215
 74
     1
 91
        4
 64
     7
 65
   257
 75
     1
175
     1
 42
1.0
 92
        8
 66
     7
 43
1.0
 76
     1
 77
     6
 78
     2
 67
     7
 79
     5
170
     0
171
     0
290
     0
174
     0
 93
        1
 44
0.0
173
     0
291
     1
 45
0.0
  0
VISUALSTYLE
  5
268
102
{ACAD_REACTORS
330
267
102
}
330
267
100
AcDbVisualStyle
  2
Flat
 70
     0
 71
     2
 72
     1
 73
     1
 90
        2
 40
-0.6
 41
30.0
 62
     5
 63
     7
421
 16777215
 74
     0
 91
        4
 64
     7
 65
   257
 75
     1
175
     1
 42
1.0
 92
        8
 66
     7
 43
1.0
 76
     1
 77
     6
 78
     2
 67
     7
 79
     5
170
     0
171
     0
290
     0
174
     0
 93
       13
 44
0.0
173
     0
291
     1
 45
0.0
  0
VISUALSTYLE
  5
269
102
{ACAD_REACTORS
330
267
102
}
330
267
100
AcDbVisualStyle
  2
FlatWithEdges
 70
     1
 71
     2
 72
     1
 73
     1
 90
        2
 40
-0.6
 41
30.0
 62
     5
 63
     7
421
 16777215
 74
     1
 91
        4
 64
     7
 65
   257
 75
     1
175
     1
 42
1.0
 92
        0
 66
   257
 43
1.0
 76
     1
 77
     6
 78
     2
 67
     7
 79
     5
170
     0
171
     0
290
     0
174
     0
 93
       13
 44
0.0
173
     0
291
     1
 45
0.0
  0
VISUALSTYLE
  5
26A
102
{ACAD_REACTORS
330
267
102
}
330
267
100
AcDbVisualStyle
  2
Gouraud
 70
     2
 71
     2
 72
     2
 73
     1
 90
        2
 40
-0.6
 41
30.0
 62
     5
 63
     7
421
 16777215
 74
     0
 91
        4
 64
     7
 65
   257
 75
     1
175
     1
 42
1.0
 92
        0
 66
     7
 43
1.0
 76
     1
 77
     6
 78
     2
 67
     7
 79
     5
170
     0
171
     0
290
     0
174
     0
 93
       13
 44
0.0
173
     0
291
     1
 45
0.0
  0
VISUALSTYLE
  5
26B
102
{ACAD_REACTORS
330
267
102
}
330
267
100
AcDbVisualStyle
  2
GouraudWithEdges
 70
     3
 71
     2
 72
     2
 73
     1
 90
        2
 40
-0.6
 41
30.0
 62
     5
 63
     7
421
 16777215
 74
     1
 91
        4
 64
     7
 65
   257
 75
     1
175
     1
 42
1.0
 92
        0
 66
   257
 43
1.0
 76
     1
 77
     6
 78
     2
 67
     7
 79
     5
170
     0
171
     0
290
     0
174
     0
 93
       13
 44
0.0
173
     0
291
     1
 45
0.0
  0
VISUALSTYLE
  5
8FB
102
{ACAD_REACTORS
330
267
102
}
330
267
100
AcDbVisualStyle
  2
Hidden
 70
     6
 71
     1
 72
     2
 73
     2
 90
        0
 40
0.6
 41
30.0
 62
     5
 63
     7
421
 16777215
 74
     2
 91
        2
 64
     7
 65
   257
 75
     2
175
     1
 42
40.0
 92
        0
 66
   257
 43
1.0
 76
     1
 77
     6
 78
     2
 67
     7
 79
     3
170
     0
171
     0
290
     0
174
     0
 93
        1
 44
0.0
173
     0
291
     0
 45
0.0
  0
VISUALSTYLE
  5
8FC
102
{ACAD_REACTORS
330
267
102
}
330
267
100
AcDbVisualStyle
  2
JitterOff
 70
    20
 71
     2
 72
     2
 73
     0
 90
        0
 40
0.6
 41
30.0
 62
     5
 63
     7
421
 16777215
 74
     1
 91
        4
 64
     7
 65
   257
 75
     1
175
     1
 42
1.0
 92
       10
 66
     7
 43
1.0
 76
     1
 77
     6
 78
     2
 67
     7
 79
     5
170
     0
171
     0
290
     0
174
     0
 93
        1
 44
0.0
173
     0
291
     1
 45
0.0
  0
VISUALSTYLE
  5
275
102
{ACAD_REACTORS
330
267
102
}
330
267
100
AcDbVisualStyle
  2
Linepattern
 70
    14
 71
     2
 72
     2
 73
     0
 90
        0
 40
-0.6
 41
-30.0
 62
     5
 63
     7
421
 16777215
 74
     1
 91
        4
 64
     7
 65
   257
 75
     7
175
     7
 42
1.0
 92
        8
 66
     7
 43
1.0
 76
     1
 77
     6
 78
     2
 67
     7
 79
     5
170
     0
171
     0
290
     0
174
     0
 93
        1
 44
0.0
173
     0
291
     1
 45
0.0
  0
VISUALSTYLE
  5
8FD
102
{ACAD_REACTORS
330
267
102
}
330
267
100
AcDbVisualStyle
  2
OverhangOff
 70
    21
 71
     2
 72
     2
 73
     0
 90
        0
 40
0.6
 41
30.0
 62
     5
 63
     7
421
 16777215
 74
     1
 91
        4
 64
     7
 65
   257
 75
     1
175
     1
 42
1.0
 92
        9
 66
     7
 43
1.0
 76
     1
 77
     6
 78
     2
 67
     7
 79
     5
170
     0
171
     0
290
     0
174
     0
 93
        1
 44
0.0
173
     0
291
     1
 45
0.0
  0
VISUALSTYLE
  5
270
102
{ACAD_REACTORS
330
267
102
}
330
267
100
AcDbVisualStyle
  2
Realistic
 70
     8
 71
     2
 72
     2
 73
     0
 90
        0
 40
-0.6
 41
-30.0
 62
     5
 63
     7
421
 16777215
 74
     1
 91
        0
 64
     7
 65
   257
 75
     1
175
     1
 42
1.0
 92
        8
 66
     8
424
  7895160
 43
1.0
 76
     1
 77
     6
 78
     2
 67
     7
 79
     5
170
     0
171
     0
290
     0
174
     0
 93
       13
 44
0.0
173
     0
291
     0
 45
0.0
  0
VISUALSTYLE
  5
903
102
{ACAD_REACTORS
330
267
102
}
330
267
100
AcDbVisualStyle
  2
Shaded
 70
    27
 71
     2
 72
     2
 73
     1
 90
        2
 40
0.6
 41
30.0
 62
     5
 63
     7
421
 16777215
 74
     0
 91
        4
 64
     7
 65
   257
 75
     1
175
     1
 42
1.0
 92
        8
 66
   257
 43
1.0
 76
     1
 77
     6
 78
     2
 67
     8
425
  7895160
 79
     3
170
     0
171
     0
290
     0
174
     0
 93
        5
 44
0.0
173
     0
291
     0
 45
0.0
  0
VISUALSTYLE
  5
902
102
{ACAD_REACTORS
330
267
102
}
330
267
100
AcDbVisualStyle
  2
Shaded with edges
 70
    26
 71
     2
 72
     2
 73
     1
 90
        2
 40
0.6
 41
30.0
 62
     5
 63
     7
421
 16777215
 74
     1
 91
       10
 64
     7
 65
   257
 75
     2
175
     1
 42
1.0
 92
        8
 66
   257
 43
1.0
 76
     1
 77
     6
 78
     2
 67
     7
 79
     3
170
     0
171
     0
290
     0
174
     0
 93
        5
 44
0.0
173
     0
291
     0
 45
0.0
  0
VISUALSTYLE
  5
8FF
102
{ACAD_REACTORS
330
267
102
}
330
267
100
AcDbVisualStyle
  2
Shades of Gray
 70
    23
 71
     2
 72
     2
 73
     3
 90
        0
 40
0.6
 41
30.0
 62
     5
 63
     7
421
 16777215
 74
     2
 91
        2
 64
     7
 65
     7
 75
     1
175
     1
 42
40.0
 92
        8
 66
     7
 43
1.0
 76
     1
 77
     6
 78
     2
 67
     7
 79
     3
170
     0
171
     0
290
     0
174
     0
 93
        1
 44
0.0
173
     0
291
     0
 45
0.0
  0
VISUALSTYLE
  5
900
102
{ACAD_REACTORS
330
267
102
}
330
267
100
AcDbVisualStyle
  2
Sketchy
 70
    24
 71
     1
 72
     2
 73
     2
 90
        0
 40
0.6
 41
30.0
 62
     5
 63
     7
421
 16777215
 74
     2
 91
        2
 64
     7
 65
     7
 75
     1
175
     1
 42
40.0
 92
       11
 66
     7
 43
1.0
 76
     1
 77
     6
 78
     2
 67
     7
 79
     6
170
     0
171
     0
290
     0
174
     0
 93
        1
 44
0.0
173
     0
291
     0
 45
0.0
  0
VISUALSTYLE
  5
274
102
{ACAD_REACTORS
330
267
102
}
330
267
100
AcDbVisualStyle
  2
Thicken
 70
    13
 71
     2
 72
     2
 73
     0
 90
        0
 40
-0.6
 41
-30.0
 62
     5
 63
     7
421
 16777215
 74
     1
 91
        4
 64
     7
 65
   257
 75
     1
175
     1
 42
1.0
 92
       12
 66
     7
 43
1.0
 76
     1
 77
     6
 78
     2
 67
     7
 79
     5
170
     0
171
     0
290
     0
174
     0
 93
        1
 44
0.0
173
     0
291
     1
 45
0.0
  0
VISUALSTYLE
  5
8FA
102
{ACAD_REACTORS
330
267
102
}
330
267
100
AcDbVisualStyle
  2
Wireframe
 70
     5
 71
     0
 72
     2
 73
     0
 90
        0
 40
0.6
 41
30.0
 62
     5
 63
     7
421
 16777215
 74
     1
 91
        4
 64
     7
 65
   257
 75
     1
175
     1
 42
1.0
 92
        0
 66
   257
 43
1.0
 76
     1
 77
     6
 78
     2
 67
     7
 79
     3
170
     0
171
     0
290
     0
174
     0
 93
        1
 44
0.0
173
     0
291
     0
 45
0.0
  0
VISUALSTYLE
  5
901
102
{ACAD_REACTORS
330
267
102
}
330
267
100
AcDbVisualStyle
  2
X-Ray
 70
    25
 71
     2
 72
     2
 73
     1
 90
        1
 40
0.5
 41
30.0
 62
     5
 63
     7
421
 16777215
 74
     1
 91
        0
 64
     7
 65
   257
 75
     1
175
     1
 42
1.0
 92
        8
 66
     7
 43
1.0
 76
     1
 77
     6
 78
     2
 67
     7
 79
     3
170
     0
171
     0
290
     0
174
     0
 93
       13
 44
0.0
173
     0
291
     0
 45
0.0
  0
DICTIONARYVAR
  5
331
102
{ACAD_REACTORS
330
330
102
}
330
330
100
DictionaryVariables
280
     0
  1
1:1
  0
DICTIONARYVAR
  5
D5E
102
{ACAD_REACTORS
330
330
102
}
330
330
100
DictionaryVariables
280
     0
  1
Standard
  0
DICTIONARYVAR
  5
335
102
{ACAD_REACTORS
330
330
102
}
330
330
100
DictionaryVariables
280
     0
  1
Standard
  0
DICTIONARYVAR
  5
D52
102
{ACAD_REACTORS
330
330
102
}
330
330
100
DictionaryVariables
280
     0
  1
ByLayer
  0
DICTIONARYVAR
  5
896
102
{ACAD_REACTORS
330
330
102
}
330
330
100
DictionaryVariables
280
     0
  1
0
  0
DICTIONARYVAR
  5
1614
102
{ACAD_REACTORS
330
E38
102
}
330
E38
100
DictionaryVariables
280
     0
  1
0.261799
  0
DICTIONARYVAR
  5
1612
102
{ACAD_REACTORS
330
E38
102
}
330
E38
100
DictionaryVariables
280
     0
  1
0.400000
  0
DICTIONARYVAR
  5
1613
102
{ACAD_REACTORS
330
E38
102
}
330
E38
100
DictionaryVariables
280
     0
  1
0.250000
  0
DICTIONARYVAR
  5
1615
102
{ACAD_REACTORS
330
E38
102
}
330
E38
100
DictionaryVariables
280
     0
  1
1
  0
FIELD
  5
3443
102
{ACAD_REACTORS
330
38C7
330
394D
102
}
330
394D
100
AcDbField
  1
_text
  2
{%<\_FldIdx 0>%M}
 90
        1
360
3447
 97
        0
 91
       63
 92
        0
 94
       11
 95
        2
 96
        0
300

 93
        1
  6
ACFD_FIELDTEXT_CHECKSUM
 93
        2
 90
        2
140
4500.0
 94
        0
300

302

304
ACVALUE_END
  7
ACFD_FIELD_VALUE
 93
        6
 90
        4
  1
{20230714M}
 94
        0
300

302

304
ACVALUE_END
301
{20230714M}
 98
       11
  0
DICTIONARY
  5
3955
330
279
100
AcDbDictionary
280
     1
281
     1
  3
ACAD_ROUNDTRIP_2008_TABLESTYLE_CELLSTYLEMAP
360
3956
  0
FIELD
  5
3447
330
3443
100
AcDbField
  1
AcVar
  2
\AcVar CreateDate \f "yyyyMMdd"
 90
        0
 97
        0
 91
       63
 92
        0
 94
        8
 95
        2
 96
        0
300

 93
        1
  6
Variable
 93
        2
 90
        4
  1
CreateDate
 94
        0
300

302

304
ACVALUE_END
  7
ACFD_FIELD_VALUE
 93
        6
 90
        8
 92
       16
310
E707070000000E00010011002F000000
 94
        0
300
yyyyMMdd
302

304
ACVALUE_END
301
20230714
 98
        8
  0
CELLSTYLEMAP
  5
3956
102
{ACAD_REACTORS
330
3955
102
}
330
3955
100
AcDbCellStyleMap
 90
        3
300
CELLSTYLE
  1
TABLEFORMAT_BEGIN
 90
        5
170
     1
 91
        0
 92
    32768
 62
   257
 93
        1
300
CONTENTFORMAT
  1
CONTENTFORMAT_BEGIN
 90
        0
 91
        0
 92
        4
 93
        0
300

 40
0.0
140
1.0
 94
        5
 62
     0
340
17
144
6.0
309
CONTENTFORMAT_END
171
     1
301
MARGIN
  1
CELLMARGIN_BEGIN
 40
0.06
 40
0.06
 40
0.06
 40
0.06
 40
0.18
 40
0.18
309
CELLMARGIN_END
 94
        6
 95
        1
302
GRIDFORMAT
  1
GRIDFORMAT_BEGIN
 90
        0
 91
        1
 62
     0
 92
       -2
340
0
 93
        0
 40
0.045
309
GRIDFORMAT_END
 95
        2
302
GRIDFORMAT
  1
GRIDFORMAT_BEGIN
 90
        0
 91
        1
 62
     0
 92
       -2
340
0
 93
        0
 40
0.045
309
GRIDFORMAT_END
 95
        4
302
GRIDFORMAT
  1
GRIDFORMAT_BEGIN
 90
        0
 91
        1
 62
     0
 92
       -2
340
0
 93
        0
 40
0.045
309
GRIDFORMAT_END
 95
        8
302
GRIDFORMAT
  1
GRIDFORMAT_BEGIN
 90
        0
 91
        1
 62
     0
 92
       -2
340
0
 93
        0
 40
0.045
309
GRIDFORMAT_END
 95
       16
302
GRIDFORMAT
  1
GRIDFORMAT_BEGIN
 90
        0
 91
        1
 62
     0
 92
       -2
340
0
 93
        0
 40
0.045
309
GRIDFORMAT_END
 95
       32
302
GRIDFORMAT
  1
GRIDFORMAT_BEGIN
 90
        0
 91
        1
 62
     0
 92
       -2
340
0
 93
        0
 40
0.045
309
GRIDFORMAT_END
309
TABLEFORMAT_END
  1
CELLSTYLE_BEGIN
 90
        1
 91
        1
300
_TITLE
309
CELLSTYLE_END
300
CELLSTYLE
  1
TABLEFORMAT_BEGIN
 90
        5
170
     1
 91
        0
 92
        0
 62
   257
 93
        1
300
CONTENTFORMAT
  1
CONTENTFORMAT_BEGIN
 90
        0
 91
        0
 92
        4
 93
        0
300

 40
0.0
140
1.0
 94
        5
 62
     0
340
17
144
4.5
309
CONTENTFORMAT_END
171
     1
301
MARGIN
  1
CELLMARGIN_BEGIN
 40
0.06
 40
0.06
 40
0.06
 40
0.06
 40
0.18
 40
0.18
309
CELLMARGIN_END
 94
        6
 95
        1
302
GRIDFORMAT
  1
GRIDFORMAT_BEGIN
 90
        0
 91
        1
 62
     0
 92
       -2
340
0
 93
        0
 40
0.045
309
GRIDFORMAT_END
 95
        2
302
GRIDFORMAT
  1
GRIDFORMAT_BEGIN
 90
        0
 91
        1
 62
     0
 92
       -2
340
0
 93
        0
 40
0.045
309
GRIDFORMAT_END
 95
        4
302
GRIDFORMAT
  1
GRIDFORMAT_BEGIN
 90
        0
 91
        1
 62
     0
 92
       -2
340
0
 93
        0
 40
0.045
309
GRIDFORMAT_END
 95
        8
302
GRIDFORMAT
  1
GRIDFORMAT_BEGIN
 90
        0
 91
        1
 62
     0
 92
       -2
340
0
 93
        0
 40
0.045
309
GRIDFORMAT_END
 95
       16
302
GRIDFORMAT
  1
GRIDFORMAT_BEGIN
 90
        0
 91
        1
 62
     0
 92
       -2
340
0
 93
        0
 40
0.045
309
GRIDFORMAT_END
 95
       32
302
GRIDFORMAT
  1
GRIDFORMAT_BEGIN
 90
        0
 91
        1
 62
     0
 92
       -2
340
0
 93
        0
 40
0.045
309
GRIDFORMAT_END
309
TABLEFORMAT_END
  1
CELLSTYLE_BEGIN
 90
        2
 91
        1
300
_HEADER
309
CELLSTYLE_END
300
CELLSTYLE
  1
TABLEFORMAT_BEGIN
 90
        5
170
     1
 91
        0
 92
        0
 62
   257
 93
        1
300
CONTENTFORMAT
  1
CONTENTFORMAT_BEGIN
 90
        0
 91
        0
 92
        4
 93
        0
300

 40
0.0
140
1.0
 94
        2
 62
     0
340
17
144
4.5
309
CONTENTFORMAT_END
171
     1
301
MARGIN
  1
CELLMARGIN_BEGIN
 40
0.06
 40
0.06
 40
0.06
 40
0.06
 40
0.18
 40
0.18
309
CELLMARGIN_END
 94
        6
 95
        1
302
GRIDFORMAT
  1
GRIDFORMAT_BEGIN
 90
        0
 91
        1
 62
     0
 92
       -2
340
0
 93
        0
 40
0.045
309
GRIDFORMAT_END
 95
        2
302
GRIDFORMAT
  1
GRIDFORMAT_BEGIN
 90
        0
 91
        1
 62
     0
 92
       -2
340
0
 93
        0
 40
0.045
309
GRIDFORMAT_END
 95
        4
302
GRIDFORMAT
  1
GRIDFORMAT_BEGIN
 90
        0
 91
        1
 62
     0
 92
       -2
340
0
 93
        0
 40
0.045
309
GRIDFORMAT_END
 95
        8
302
GRIDFORMAT
  1
GRIDFORMAT_BEGIN
 90
        0
 91
        1
 62
     0
 92
       -2
340
0
 93
        0
 40
0.045
309
GRIDFORMAT_END
 95
       16
302
GRIDFORMAT
  1
GRIDFORMAT_BEGIN
 90
        0
 91
        1
 62
     0
 92
       -2
340
0
 93
        0
 40
0.045
309
GRIDFORMAT_END
 95
       32
302
GRIDFORMAT
  1
GRIDFORMAT_BEGIN
 90
        0
 91
        1
 62
     0
 92
       -2
340
0
 93
        0
 40
0.045
309
GRIDFORMAT_END
309
TABLEFORMAT_END
  1
CELLSTYLE_BEGIN
 90
        3
 91
        2
300
_DATA
309
CELLSTYLE_END
  0
ENDSEC
  0
EOF
