  0
SECTION
  2
HEADER
  9
$ACADVER
  1
AC1021
  9
$ACADMAINTVER
 70
    25
  9
$DWGCODEPAGE
  3
ANSI_932
  9
$LASTSAVEDBY
  1
howeNelson
  9
$INSBASE
 10
0.0
 20
0.0
 30
0.0
  9
$EXTMIN
 10
0.0
 20
0.0
 30
-0.0000000000000142
  9
$EXTMAX
 10
420.0
 20
594.0
 30
0.0000000000000142
  9
$LIMMIN
 10
0.0
 20
0.0
  9
$LIMMAX
 10
420.0
 20
594.0
  9
$ORTHOMODE
 70
     0
  9
$REGENMODE
 70
     1
  9
$FILLMODE
 70
     1
  9
$QTEXTMODE
 70
     0
  9
$MIRRTEXT
 70
     1
  9
$LTSCALE
 40
50.0
  9
$ATTMODE
 70
     1
  9
$TEXTSIZE
 40
2.5
  9
$TRACEWID
 40
1.0
  9
$TEXTSTYLE
  7
ＭＳ ゴシック
  9
$CLAYER
  8
DIM
  9
$CELTYPE
  6
ByLayer
  9
$CECOLOR
 62
   256
  9
$CELTSCALE
 40
0.05
  9
$DISPSILH
 70
     0
  9
$DIMSCALE
 40
1.0
  9
$DIMASZ
 40
1.0
  9
$DIMEXO
 40
5.0
  9
$DIMDLI
 40
0.9999999999999999
  9
$DIMRND
 40
0.0
  9
$DIMDLE
 40
0.0
  9
$DIMEXE
 40
0.0
  9
$DIMTP
 40
0.0
  9
$DIMTM
 40
0.0
  9
$DIMTXT
 40
5.0
  9
$DIMCEN
 40
0.0
  9
$DIMTSZ
 40
0.0
  9
$DIMTOL
 70
     0
  9
$DIMLIM
 70
     0
  9
$DIMTIH
 70
     0
  9
$DIMTOH
 70
     0
  9
$DIMSE1
 70
     0
  9
$DIMSE2
 70
     0
  9
$DIMTAD
 70
     1
  9
$DIMZIN
 70
    11
  9
$DIMBLK
  1
DOT
  9
$DIMASO
 70
     1
  9
$DIMSHO
 70
     1
  9
$DIMPOST
  1
<>
  9
$DIMAPOST
  1
[]
  9
$DIMALT
 70
     0
  9
$DIMALTD
 70
     1
  9
$DIMALTF
 40
1.0
  9
$DIMLFAC
 40
1.0
  9
$DIMTOFL
 70
     0
  9
$DIMTVP
 40
0.0
  9
$DIMTIX
 70
     1
  9
$DIMSOXD
 70
     0
  9
$DIMSAH
 70
     0
  9
$DIMBLK1
  1

  9
$DIMBLK2
  1

  9
$DIMSTYLE
  2
tfrom線あり
  9
$DIMCLRD
 70
     0
  9
$DIMCLRE
 70
     0
  9
$DIMCLRT
 70
     0
  9
$DIMTFAC
 40
1.0
  9
$DIMGAP
 40
5.0
  9
$DIMJUST
 70
     0
  9
$DIMSD1
 70
     0
  9
$DIMSD2
 70
     0
  9
$DIMTOLJ
 70
     1
  9
$DIMTZIN
 70
    11
  9
$DIMALTZ
 70
    11
  9
$DIMALTTZ
 70
    11
  9
$DIMUPT
 70
     0
  9
$DIMDEC
 70
     0
  9
$DIMTDEC
 70
     1
  9
$DIMALTU
 70
     2
  9
$DIMALTTD
 70
     2
  9
$DIMTXSTY
  7
ＭＳ ゴシック
  9
$DIMAUNIT
 70
     0
  9
$DIMADEC
 70
     2
  9
$DIMALTRND
 40
0.0
  9
$DIMAZIN
 70
     0
  9
$DIMDSEP
 70
    46
  9
$DIMATFIT
 70
     0
  9
$DIMFRAC
 70
     2
  9
$DIMLDRBLK
  1
DOT
  9
$DIMLUNIT
 70
     2
  9
$DIMLWD
 70
    -2
  9
$DIMLWE
 70
    -2
  9
$DIMTMOVE
 70
     0
  9
$DIMFXL
 40
1.0
  9
$DIMFXLON
 70
     0
  9
$DIMJOGANG
 40
0.7853981633974483
  9
$DIMTFILL
 70
     0
  9
$DIMTFILLCLR
 70
     0
  9
$DIMARCSYM
 70
     0
  9
$DIMLTYPE
  6

  9
$DIMLTEX1
  6

  9
$DIMLTEX2
  6

  9
$LUNITS
 70
     2
  9
$LUPREC
 70
     0
  9
$SKETCHINC
 40
0.1
  9
$FILLETRAD
 40
0.0
  9
$AUNITS
 70
     0
  9
$AUPREC
 70
     0
  9
$MENU
  1
acad
  9
$ELEVATION
 40
0.0
  9
$PELEVATION
 40
0.0
  9
$THICKNESS
 40
0.0
  9
$LIMCHECK
 70
     0
  9
$CHAMFERA
 40
0.0
  9
$CHAMFERB
 40
0.0
  9
$CHAMFERC
 40
0.0
  9
$CHAMFERD
 40
0.0
  9
$SKPOLY
 70
     0
  9
$TDCREATE
 40
2447893.375
  9
$TDUCREATE
 40
0.0
  9
$TDUPDATE
 40
2457596.481887408
  9
$TDUUPDATE
 40
2457596.106887408
  9
$TDINDWG
 40
0.2488818634
  9
$TDUSRTIMER
 40
2457596.106882801
  9
$USRTIMER
 70
     1
  9
$ANGBASE
 50
0.0
  9
$ANGDIR
 70
     0
  9
$PDMODE
 70
     1
  9
$PDSIZE
 40
-2.0
  9
$PLINEWID
 40
0.0
  9
$SPLFRAME
 70
     0
  9
$SPLINETYPE
 70
     6
  9
$SPLINESEGS
 70
     8
  9
$HANDSEED
  5
4A9A
  9
$SURFTAB1
 70
     6
  9
$SURFTAB2
 70
     6
  9
$SURFTYPE
 70
     6
  9
$SURFU
 70
     6
  9
$SURFV
 70
     6
  9
$UCSBASE
  2

  9
$UCSNAME
  2

  9
$UCSORG
 10
0.0
 20
0.0
 30
0.0
  9
$UCSXDIR
 10
1.0
 20
0.0
 30
0.0
  9
$UCSYDIR
 10
0.0
 20
1.0
 30
0.0
  9
$UCSORTHOREF
  2

  9
$UCSORTHOVIEW
 70
     0
  9
$UCSORGTOP
 10
0.0
 20
0.0
 30
0.0
  9
$UCSORGBOTTOM
 10
0.0
 20
0.0
 30
0.0
  9
$UCSORGLEFT
 10
0.0
 20
0.0
 30
0.0
  9
$UCSORGRIGHT
 10
0.0
 20
0.0
 30
0.0
  9
$UCSORGFRONT
 10
0.0
 20
0.0
 30
0.0
  9
$UCSORGBACK
 10
0.0
 20
0.0
 30
0.0
  9
$PUCSBASE
  2

  9
$PUCSNAME
  2

  9
$PUCSORG
 10
0.0
 20
0.0
 30
0.0
  9
$PUCSXDIR
 10
1.0
 20
0.0
 30
0.0
  9
$PUCSYDIR
 10
0.0
 20
1.0
 30
0.0
  9
$PUCSORTHOREF
  2

  9
$PUCSORTHOVIEW
 70
     0
  9
$PUCSORGTOP
 10
0.0
 20
0.0
 30
0.0
  9
$PUCSORGBOTTOM
 10
0.0
 20
0.0
 30
0.0
  9
$PUCSORGLEFT
 10
0.0
 20
0.0
 30
0.0
  9
$PUCSORGRIGHT
 10
0.0
 20
0.0
 30
0.0
  9
$PUCSORGFRONT
 10
0.0
 20
0.0
 30
0.0
  9
$PUCSORGBACK
 10
0.0
 20
0.0
 30
0.0
  9
$USERI1
 70
     0
  9
$USERI2
 70
     0
  9
$USERI3
 70
     0
  9
$USERI4
 70
     0
  9
$USERI5
 70
     0
  9
$USERR1
 40
0.0
  9
$USERR2
 40
0.0
  9
$USERR3
 40
0.0
  9
$USERR4
 40
0.0
  9
$USERR5
 40
0.0
  9
$WORLDVIEW
 70
     1
  9
$SHADEDGE
 70
     3
  9
$SHADEDIF
 70
    70
  9
$TILEMODE
 70
     1
  9
$MAXACTVP
 70
    64
  9
$PINSBASE
 10
0.0
 20
0.0
 30
0.0
  9
$PLIMCHECK
 70
     0
  9
$PEXTMIN
 10
0.0
 20
0.0
 30
0.0
  9
$PEXTMAX
 10
0.0
 20
0.0
 30
0.0
  9
$PLIMMIN
 10
-95.87226993865028
 20
-25.69999999999999
  9
$PLIMMAX
 10
201.1277300613497
 20
184.3
  9
$UNITMODE
 70
     0
  9
$VISRETAIN
 70
     0
  9
$PLINEGEN
 70
     1
  9
$PSLTSCALE
 70
     0
  9
$TREEDEPTH
 70
  3020
  9
$CMLSTYLE
  2
Standard
  9
$CMLJUST
 70
     0
  9
$CMLSCALE
 40
1.0
  9
$PROXYGRAPHICS
 70
     0
  9
$MEASUREMENT
 70
     1
  9
$CELWEIGHT
370
    -1
  9
$ENDCAPS
280
     0
  9
$JOINSTYLE
280
     0
  9
$LWDISPLAY
290
     1
  9
$INSUNITS
 70
     4
  9
$HYPERLINKBASE
  1

  9
$STYLESHEET
  1

  9
$XEDIT
290
     1
  9
$CEPSNTYPE
380
     0
  9
$PSTYLEMODE
290
     1
  9
$FINGERPRINTGUID
  2

  9
$VERSIONGUID
  2

  9
$EXTNAMES
290
     1
  9
$PSVPSCALE
 40
0.0
  9
$OLESTARTUP
290
     0
  9
$SORTENTS
280
   127
  9
$INDEXCTL
280
     0
  9
$HIDETEXT
280
     1
  9
$XCLIPFRAME
290
     0
  9
$HALOGAP
280
     0
  9
$OBSCOLOR
 70
   257
  9
$OBSLTYPE
280
     0
  9
$INTERSECTIONDISPLAY
280
     0
  9
$INTERSECTIONCOLOR
 70
   257
  9
$DIMASSOC
280
     2
  9
$PROJECTNAME
  1

  9
$CAMERADISPLAY
290
     0
  9
$LENSLENGTH
 40
50.0
  9
$CAMERAHEIGHT
 40
0.0
  9
$STEPSPERSEC
 40
2.0
  9
$STEPSIZE
 40
6.0
  9
$3DDWFPREC
 40
2.0
  9
$PSOLWIDTH
 40
0.25
  9
$PSOLHEIGHT
 40
4.0
  9
$LOFTANG1
 40
1.570796326794897
  9
$LOFTANG2
 40
1.570796326794897
  9
$LOFTMAG1
 40
0.0
  9
$LOFTMAG2
 40
0.0
  9
$LOFTPARAM
 70
     7
  9
$LOFTNORMALS
280
     1
  9
$LATITUDE
 40
37.795
  9
$LONGITUDE
 40
-122.394
  9
$NORTHDIRECTION
 40
0.0
  9
$TIMEZONE
 70
 -8000
  9
$LIGHTGLYPHDISPLAY
280
     1
  9
$TILEMODELIGHTSYNCH
280
     1
  9
$SOLIDHIST
280
     1
  9
$SHOWHIST
280
     1
  9
$DWFFRAME
280
     2
  9
$DGNFRAME
280
     2
  9
$REALWORLDSCALE
290
     1
  9
$INTERFERECOLOR
 62
   256
  9
$CSHADOW
280
     0
  9
$SHADOWPLANELOCATION
 40
0.0
  0
ENDSEC
  0
SECTION
  2
CLASSES
  0
CLASS
  1
LWPOLYLINE
  2
AcDbPolyline
  3
ObjectDBX Classes
 90
        0
 91
        1
280
     0
281
     1
  0
CLASS
  1
IMAGE
  2
AcDbRasterImage
  3
ISM
 90
      127
 91
        7
280
     0
281
     1
  0
CLASS
  1
OLE2FRAME
  2
AcDbOle2Frame
  3
ObjectDBX Classes
 90
        0
 91
        1
280
     0
281
     1
  0
CLASS
  1
HATCH
  2
AcDbHatch
  3
ObjectDBX Classes
 90
        0
 91
        1
280
     0
281
     1
  0
CLASS
  1
DICTIONARYVAR
  2
AcDbDictionaryVar
  3
ObjectDBX Classes
 90
        0
 91
        6
280
     0
281
     0
  0
CLASS
  1
RASTERVARIABLES
  2
AcDbRasterVariables
  3
ISM
 90
        0
 91
        6
280
     0
281
     0
  0
CLASS
  1
IMAGEDEF
  2
AcDbRasterImageDef
  3
ISM
 90
        0
 91
        6
280
     0
281
     0
  0
CLASS
  1
IMAGEDEF_REACTOR
  2
AcDbRasterImageDefReactor
  3
ISM
 90
        1
 91
        6
280
     0
281
     0
  0
CLASS
  1
IDBUFFER
  2
AcDbIdBuffer
  3
ObjectDBX Classes
 90
        0
 91
        6
280
     0
281
     0
  0
CLASS
  1
SPATIAL_FILTER
  2
AcDbSpatialFilter
  3
ObjectDBX Classes
 90
        0
 91
        6
280
     0
281
     0
  0
CLASS
  1
XRECORD
  2
AcDbXrecord
  3
ObjectDBX Classes
 90
        0
 91
        1
280
     0
281
     0
  0
CLASS
  1
SORTENTSTABLE
  2
AcDbSortentsTable
  3
ObjectDBX Classes
 90
        0
 91
        6
280
     0
281
     0
  0
CLASS
  1
LAYER_INDEX
  2
AcDbLayerIndex
  3
ObjectDBX Classes
 90
        0
 91
        6
280
     0
281
     0
  0
CLASS
  1
SPATIAL_INDEX
  2
AcDbSpatialIndex
  3
AutoCAD 2000
 90
        0
 91
        6
280
     0
281
     0
  0
CLASS
  1
OBJECT_PTR
  2
CAseDLPNTableRecord
  3
ASE-LPNTableRecord
 90
        1
 91
        6
280
     0
281
     0
  0
CLASS
  1
LAYOUT
  2
AcDbLayout
  3
ObjectDBX Classes
 90
        0
 91
        1
280
     0
281
     0
  0
CLASS
  1
PLOTSETTINGS
  2
AcDbPlotSettings
  3
ObjectDBX Classes
 90
        0
 91
        6
280
     0
281
     0
  0
CLASS
  1
ACDBDICTIONARYWDFLT
  2
AcDbDictionaryWithDefault
  3
ObjectDBX Classes
 90
        0
 91
        6
280
     0
281
     0
  0
CLASS
  1
ACDBPLACEHOLDER
  2
AcDbPlaceHolder
  3
ObjectDBX Classes
 90
        0
 91
        1
280
     0
281
     0
  0
CLASS
  1
SCALE
  2
AcDbScale
  3
ObjectDBX Classes
 90
     1153
 91
        6
280
     0
281
     0
  0
CLASS
  1
MATERIAL
  2
AcDbMaterial
  3
ObjectDBX Classes
 90
     1153
 91
        6
280
     0
281
     0
  0
CLASS
  1
VISUALSTYLE
  2
AcDbVisualStyle
  3
ObjectDBX Classes
 90
     4095
 91
        6
280
     0
281
     0
  0
CLASS
  1
TABLESTYLE
  2
AcDbTableStyle
  3
ObjectDBX Classes
 90
     4095
 91
        6
280
     0
281
     0
  0
CLASS
  1
DIMASSOC
  2
AcDbDimAssoc
  3
"AcDbDimAssoc|Product Desc:     AcDim ARX App For Dimension|Company:          Autodesk, Inc.|WEB Address:      www.autodesk.com"
 90
        0
 91
        6
280
     0
281
     0
  0
CLASS
  1
CELLSTYLEMAP
  2
AcDbCellStyleMap
  3
ObjectDBX Classes
 90
     1152
 91
        6
280
     0
281
     0
  0
CLASS
  1
SUN
  2
AcDbSun
  3
SCENEOE
 90
     1153
 91
        6
280
     0
281
     0
  0
CLASS
  1
MLEADERSTYLE
  2
AcDbMLeaderStyle
  3
ACDB_MLEADERSTYLE_CLASS
 90
     4095
 91
        6
280
     0
281
     0
  0
CLASS
  1
FIELD
  2
AcDbField
  3
ObjectDBX Classes
 90
     1152
 91
        6
280
     0
281
     0
  0
CLASS
  1
FIELDLIST
  2
AcDbFieldList
  3
ObjectDBX Classes
 90
     1152
 91
        6
280
     0
281
     0
  0
ENDSEC
  0
SECTION
  2
TABLES
  0
TABLE
  2
VPORT
  5
7
330
0
100
AcDbSymbolTable
 70
     1
  0
VPORT
  5
15
330
7
100
AcDbSymbolTableRecord
100
AcDbViewportTableRecord
  2
*ACTIVE
 70
     0
 10
0.0
 20
0.0
 11
1.0
 21
1.0
 12
301.0201356709073
 22
223.401285469834
 13
0.0
 23
0.0
 14
1.0
 24
1.0
 15
0.0
 25
0.0
 16
0.0
 26
0.0
 36
1.0
 17
-91.02013567090728
 27
73.59871453016603
 37
-46.86809886248109
 40
605.8800000000005
 41
2.479940564635958
 42
50.0
 43
0.0
 44
0.0
 50
0.0
 51
0.0
 71
    16
 72
  2000
 73
     1
 74
     1
 75
     0
 76
     0
 77
     0
 78
     0
281
     0
 65
     1
110
0.0
120
0.0
130
0.0
111
1.0
121
0.0
131
0.0
112
0.0
122
1.0
132
0.0
 79
     0
146
0.0
348
26C
 60
     3
 61
     5
292
     1
282
     1
141
0.0
142
0.0
 63
   256
361
904
  0
ENDTAB
  0
TABLE
  2
LTYPE
  5
4
330
0
100
AcDbSymbolTable
 70
     3
  0
LTYPE
  5
11
330
4
100
AcDbSymbolTableRecord
100
AcDbLinetypeTableRecord
  2
ByBlock
 70
     0
  3

 72
    65
 73
     0
 40
0.0
  0
LTYPE
  5
12
330
4
100
AcDbSymbolTableRecord
100
AcDbLinetypeTableRecord
  2
ByLayer
 70
     0
  3

 72
    65
 73
     0
 40
0.0
  0
LTYPE
  5
13
330
4
100
AcDbSymbolTableRecord
100
AcDbLinetypeTableRecord
  2
Continuous
 70
     0
  3
Solid line
 72
    65
 73
     0
 40
0.0
  0
LTYPE
  5
D6C
330
4
100
AcDbSymbolTableRecord
100
AcDbLinetypeTableRecord
  2
BORDER
 70
     0
  3
Border __  __  . __  __  . __  __  . __  __  . 
 72
    65
 73
     6
 40
44.45
 49
12.7
 74
     0
 49
-6.35
 74
     0
 49
12.7
 74
     0
 49
-6.35
 74
     0
 49
0.0
 74
     0
 49
-6.35
 74
     0
  0
LTYPE
  5
1638
330
4
100
AcDbSymbolTableRecord
100
AcDbLinetypeTableRecord
  2
HIDDEN2
 70
     0
  3
Hidden (.5x) _ _ _ _ _ _ _ _ _ _ _ _ _ _ _ _ _ 
 72
    65
 73
     2
 40
4.7625
 49
3.175
 74
     4
 75
     0
340
0
 46
0.0
 50
0.0
 44
0.0
 45
0.0
 49
-1.5875
 74
     4
 75
     0
340
0
 46
0.0
 50
0.0
 44
0.0
 45
0.0
  0
ENDTAB
  0
TABLE
  2
LAYER
  5
2
102
{ACAD_XDICTIONARY
360
2E1
102
}
330
0
100
AcDbSymbolTable
 70
     9
  0
LAYER
  5
14
330
2
100
AcDbSymbolTableRecord
100
AcDbLayerTableRecord
  2
0
 70
     0
 62
     7
  6
Continuous
370
    -3
390
1D
347
266
  0
LAYER
  5
4B
330
2
100
AcDbSymbolTableRecord
100
AcDbLayerTableRecord
  2
TEMPLATE
 70
     0
 62
     7
  6
Continuous
370
    20
390
1D
347
266
  0
LAYER
  5
4C
330
2
100
AcDbSymbolTableRecord
100
AcDbLayerTableRecord
  2
DIM
 70
     0
 62
     3
  6
Continuous
370
    13
390
1D
347
266
  0
LAYER
  5
4D
330
2
100
AcDbSymbolTableRecord
100
AcDbLayerTableRecord
  2
MODEL
 70
     0
 62
     7
  6
Continuous
370
    20
390
1D
347
266
  0
LAYER
  5
667
330
2
100
AcDbSymbolTableRecord
100
AcDbLayerTableRecord
  2
LOGO
 70
     0
 62
     7
  6
Continuous
370
    -3
390
1D
347
266
  0
LAYER
  5
D6B
330
2
100
AcDbSymbolTableRecord
100
AcDbLayerTableRecord
  2
BORDER
 70
     0
 62
     4
  6
BORDER
290
     0
370
    20
390
1D
347
266
1001
AcAecLayerStandard
1000

1000

  0
LAYER
  5
D8C
330
2
100
AcDbSymbolTableRecord
100
AcDbLayerTableRecord
  2
Defpoints
 70
     0
 62
     7
  6
Continuous
290
     0
370
    -3
390
1D
347
266
  0
LAYER
  5
1635
330
2
100
AcDbSymbolTableRecord
100
AcDbLayerTableRecord
  2
Standard
 70
     0
 62
     7
  6
Continuous
370
    -3
390
1D
347
266
  0
LAYER
  5
3445
330
2
100
AcDbSymbolTableRecord
100
AcDbLayerTableRecord
  2
Layer50
 70
     0
 62
     7
  6
Continuous
370
    -3
390
1D
347
266
  0
ENDTAB
  0
TABLE
  2
STYLE
  5
3
330
0
100
AcDbSymbolTable
 70
     2
  0
STYLE
  5
17
330
3
100
AcDbSymbolTableRecord
100
AcDbTextStyleTableRecord
  2
Standard
 70
     0
 40
0.0
 41
1.0
 50
0.0
 71
     0
 42
2.5
  3
txt
  4
BIGFONT.SHX
  0
STYLE
  5
39
330
3
100
AcDbSymbolTableRecord
100
AcDbTextStyleTableRecord
  2
ＭＳ ゴシック
 70
     0
 40
0.0
 41
1.0
 50
0.0
 71
     0
 42
2.5
  3
msgothic.ttc
  4
ＭＳ ゴシック
1001
ACAD
1000
ＭＳ ゴシック
1071
        0
  0
ENDTAB
  0
TABLE
  2
VIEW
  5
5
330
0
100
AcDbSymbolTable
 70
     0
  0
ENDTAB
  0
TABLE
  2
UCS
  5
6
330
0
100
AcDbSymbolTable
 70
     0
  0
ENDTAB
  0
TABLE
  2
APPID
  5
8
330
0
100
AcDbSymbolTable
 70
     3
  0
APPID
  5
16
330
8
100
AcDbSymbolTableRecord
100
AcDbRegAppTableRecord
  2
ACAD
 70
     0
  0
APPID
  5
7AC
330
8
100
AcDbSymbolTableRecord
100
AcDbRegAppTableRecord
  2
AcAecLayerStandard
 70
     0
  0
APPID
  5
E29
330
8
100
AcDbSymbolTableRecord
100
AcDbRegAppTableRecord
  2
ACAD_MLEADERVER
 70
     0
  0
ENDTAB
  0
TABLE
  2
DIMSTYLE
  5
9
330
0
100
AcDbSymbolTable
 70
     2
100
AcDbDimStyleTable
  0
DIMSTYLE
105
18
330
9
100
AcDbSymbolTableRecord
100
AcDbDimStyleTableRecord
  2
Standard
 70
     0
178
     0
340
17
  0
DIMSTYLE
105
57
102
{ACAD_REACTORS
330
4955
330
4956
330
4959
330
495A
330
495B
330
495C
102
}
330
9
100
AcDbSymbolTableRecord
100
AcDbDimStyleTableRecord
  2
tfrom線あり
 70
     0
  3
<>
  4
[]
 41
1.0
 42
5.0
 43
0.9999999999999999
 44
0.0
 73
     0
 74
     0
 77
     1
 78
    11
140
5.0
141
0.0
143
1.0
147
5.0
171
     1
174
     1
178
     0
179
     2
271
     0
272
     1
276
     2
284
    11
285
    11
286
    11
289
     0
340
39
341
4E
342
4E
  0
ENDTAB
  0
TABLE
  2
BLOCK_RECORD
  5
1
330
0
100
AcDbSymbolTable
 70
    12
  0
BLOCK_RECORD
  5
A
330
1
100
AcDbSymbolTableRecord
100
AcDbBlockTableRecord
  2
*MODEL_SPACE
340
20
 70
     0
280
     1
281
     0
  0
BLOCK_RECORD
  5
B
330
1
100
AcDbSymbolTableRecord
100
AcDbBlockTableRecord
  2
*PAPER_SPACE
340
21
 70
     0
280
     1
281
     0
  0
BLOCK_RECORD
  5
4E
330
1
100
AcDbSymbolTableRecord
100
AcDbBlockTableRecord
  2
_DOT
340
0
102
{BLKREFS
331
4963
331
4964
331
4970
331
4971
331
4999
331
499A
331
49A6
331
49A7
331
49B3
331
49B4
331
49C0
331
49C1
102
}
 70
     0
280
     1
281
     0
  0
BLOCK_RECORD
  5
68A
330
1
100
AcDbSymbolTableRecord
100
AcDbBlockTableRecord
  2
名称未設定-1
340
0
102
{BLKREFS
331
6B5
102
}
 70
     1
280
     1
281
     0
  0
BLOCK_RECORD
  5
68D
330
1
100
AcDbSymbolTableRecord
100
AcDbBlockTableRecord
  2
block 2
340
0
102
{BLKREFS
331
68C
331
1343
102
}
 70
     0
280
     1
281
     0
  0
BLOCK_RECORD
  5
690
330
1
100
AcDbSymbolTableRecord
100
AcDbBlockTableRecord
  2
block 3
340
0
102
{BLKREFS
331
68F
102
}
 70
     0
280
     1
281
     0
  0
BLOCK_RECORD
  5
693
330
1
100
AcDbSymbolTableRecord
100
AcDbBlockTableRecord
  2
block 4
340
0
102
{BLKREFS
331
692
102
}
 70
     0
280
     1
281
     0
  0
BLOCK_RECORD
  5
6A2
330
1
100
AcDbSymbolTableRecord
100
AcDbBlockTableRecord
  2
block 5
340
0
102
{BLKREFS
331
6A1
102
}
 70
     0
280
     1
281
     0
  0
BLOCK_RECORD
  5
495D
330
1
100
AcDbSymbolTableRecord
100
AcDbBlockTableRecord
  2
*D6
340
0
 70
     0
280
     1
281
     0
  0
BLOCK_RECORD
  5
496A
330
1
100
AcDbSymbolTableRecord
100
AcDbBlockTableRecord
  2
*D7
340
0
 70
     0
280
     1
281
     0
  0
BLOCK_RECORD
  5
4993
330
1
100
AcDbSymbolTableRecord
100
AcDbBlockTableRecord
  2
*D8
340
0
 70
     0
280
     1
281
     0
  0
BLOCK_RECORD
  5
49A0
330
1
100
AcDbSymbolTableRecord
100
AcDbBlockTableRecord
  2
*D9
340
0
 70
     0
280
     1
281
     0
  0
BLOCK_RECORD
  5
49AD
330
1
100
AcDbSymbolTableRecord
100
AcDbBlockTableRecord
  2
*D10
340
0
 70
     0
280
     1
281
     0
  0
BLOCK_RECORD
  5
49BA
330
1
100
AcDbSymbolTableRecord
100
AcDbBlockTableRecord
  2
*D11
340
0
 70
     0
280
     1
281
     0
  0
ENDTAB
  0
ENDSEC
  0
SECTION
  2
BLOCKS
  0
BLOCK
  5
D
330
A
100
AcDbEntity
  8
0
390
1D
100
AcDbBlockBegin
  2
*MODEL_SPACE
 70
     0
 10
0.0
 20
0.0
 30
0.0
  3
*MODEL_SPACE
  1
*MODEL_SPACE
  0
ENDBLK
  5
E
330
A
100
AcDbEntity
  8
0
390
1D
100
AcDbBlockEnd
  0
BLOCK
  5
F
330
B
100
AcDbEntity
 67
     1
  8
0
390
1D
100
AcDbBlockBegin
  2
*PAPER_SPACE
 70
     0
 10
0.0
 20
0.0
 30
0.0
  3
*PAPER_SPACE
  1
*PAPER_SPACE
  0
ENDBLK
  5
10
330
B
100
AcDbEntity
 67
     1
  8
0
390
1D
100
AcDbBlockEnd
  0
BLOCK
  5
38A8
330
4E
100
AcDbEntity
  8
0
390
1D
100
AcDbBlockBegin
  2
_DOT
 70
     0
 10
0.0
 20
0.0
 30
0.0
  3
_DOT
  1
_DOT
  0
POLYLINE
  5
38AA
330
4E
100
AcDbEntity
  8
0
  6
ByBlock
 62
     0
370
    -2
390
1D
100
AcDb2dPolyline
 66
     1
 10
0.0
 20
0.0
 30
0.0
 70
     1
 40
0.5
 41
0.5
  0
VERTEX
  5
38AB
330
38AA
100
AcDbEntity
  8
0
  6
ByBlock
 62
     0
370
    -2
390
1D
100
AcDbVertex
100
AcDb2dVertex
 10
-0.25
 20
0.0
 30
0.0
 42
1.0
  0
VERTEX
  5
38AC
330
38AA
100
AcDbEntity
  8
0
  6
ByBlock
 62
     0
370
    -2
390
1D
100
AcDbVertex
100
AcDb2dVertex
 10
0.25
 20
0.0
 30
0.0
 42
1.0
  0
SEQEND
  5
38AD
330
38AA
100
AcDbEntity
  8
0
390
1D
  0
LINE
  5
38AE
330
4E
100
AcDbEntity
  8
0
  6
ByBlock
 62
     0
370
    -2
390
1D
100
AcDbLine
 10
-0.5
 20
0.0
 30
0.0
 11
-1.0
 21
0.0
 31
0.0
  0
ENDBLK
  5
38AF
330
4E
100
AcDbEntity
  8
0
390
1D
100
AcDbBlockEnd
  0
BLOCK
  5
68B
330
68A
100
AcDbEntity
  8
0
100
AcDbBlockBegin
  2
名称未設定-1
 70
     0
 10
0.0
 20
0.0
 30
0.0
  3
名称未設定-1
  1
名称未設定-1
  0
INSERT
  5
68F
330
68A
100
AcDbEntity
  8
LOGO
100
AcDbBlockReference
  2
block 3
 10
0.0
 20
0.0
 30
0.0
  0
ENDBLK
  5
6B1
330
68A
100
AcDbEntity
  8
0
100
AcDbBlockEnd
  0
BLOCK
  5
68E
330
68D
100
AcDbEntity
  8
0
100
AcDbBlockBegin
  2
block 2
 70
     0
 10
0.0
 20
0.0
 30
0.0
  3
block 2
  1
block 2
  0
ENDBLK
  5
6B0
330
68D
100
AcDbEntity
  8
0
100
AcDbBlockEnd
  0
BLOCK
  5
691
330
690
100
AcDbEntity
  8
0
100
AcDbBlockBegin
  2
block 3
 70
     0
 10
0.0
 20
0.0
 30
0.0
  3
block 3
  1
block 3
  0
INSERT
  5
692
330
690
100
AcDbEntity
  8
LOGO
100
AcDbBlockReference
  2
block 4
 10
0.0
 20
0.0
 30
0.0
  0
INSERT
  5
6A1
330
690
100
AcDbEntity
  8
LOGO
100
AcDbBlockReference
  2
block 5
 10
0.0
 20
0.0
 30
0.0
  0
ENDBLK
  5
6AF
330
690
100
AcDbEntity
  8
0
100
AcDbBlockEnd
  0
BLOCK
  5
694
330
693
100
AcDbEntity
  8
0
100
AcDbBlockBegin
  2
block 4
 70
     0
 10
0.0
 20
0.0
 30
0.0
  3
block 4
  1
block 4
  0
POLYLINE
  5
695
330
693
100
AcDbEntity
  8
LOGO
370
     0
100
AcDb2dPolyline
 66
     1
 10
0.0
 20
0.0
 30
0.0
  0
VERTEX
  5
696
330
695
100
AcDbEntity
  8
LOGO
370
     0
100
AcDbVertex
100
AcDb2dVertex
 10
83.79545727667795
 20
167.6444858234922
 30
0.0
  0
VERTEX
  5
697
330
695
100
AcDbEntity
  8
LOGO
370
     0
100
AcDbVertex
100
AcDb2dVertex
 10
83.79545727667795
 20
159.7968976406313
 30
0.0
  0
VERTEX
  5
698
330
695
100
AcDbEntity
  8
LOGO
370
     0
100
AcDbVertex
100
AcDb2dVertex
 10
71.3631329975216
 20
159.7968976406313
 30
0.0
  0
VERTEX
  5
699
330
695
100
AcDbEntity
  8
LOGO
370
     0
100
AcDbVertex
100
AcDb2dVertex
 10
71.3631329975216
 20
127.8027915271048
 30
0.0
  0
VERTEX
  5
69A
330
695
100
AcDbEntity
  8
LOGO
370
     0
100
AcDbVertex
100
AcDb2dVertex
 10
60.43011526263018
 20
127.8027915271048
 30
0.0
  0
VERTEX
  5
69B
330
695
100
AcDbEntity
  8
LOGO
370
     0
100
AcDbVertex
100
AcDb2dVertex
 10
60.43011526263018
 20
159.7968976406313
 30
0.0
  0
VERTEX
  5
69C
330
695
100
AcDbEntity
  8
LOGO
370
     0
100
AcDbVertex
100
AcDb2dVertex
 10
48.21793273020759
 20
159.7968976406313
 30
0.0
  0
VERTEX
  5
69D
330
695
100
AcDbEntity
  8
LOGO
370
     0
100
AcDbVertex
100
AcDb2dVertex
 10
48.21793273020759
 20
167.6444858234922
 30
0.0
  0
VERTEX
  5
69E
330
695
100
AcDbEntity
  8
LOGO
370
     0
100
AcDbVertex
100
AcDb2dVertex
 10
83.79545727667795
 20
167.6444858234922
 30
0.0
  0
SEQEND
  5
69F
330
695
100
AcDbEntity
  8
LOGO
370
     0
  0
HATCH
  5
6A0
330
693
100
AcDbEntity
  8
LOGO
 62
   250
420
  2234388
100
AcDbHatch
 10
0.0
 20
0.0
 30
0.0
210
0.0
220
0.0
230
1.0
  2
SOLID
 70
     1
 71
     0
 91
        1
 92
        1
 93
        8
 72
     1
 10
83.79545727667795
 20
167.6444858234922
 11
83.79545727667795
 21
159.7968976406313
 72
     1
 10
83.79545727667795
 20
159.7968976406313
 11
71.3631329975216
 21
159.7968976406313
 72
     1
 10
71.3631329975216
 20
159.7968976406313
 11
71.3631329975216
 21
127.8027915271048
 72
     1
 10
71.3631329975216
 20
127.8027915271048
 11
60.43011526263018
 21
127.8027915271048
 72
     1
 10
60.43011526263018
 20
127.8027915271048
 11
60.43011526263018
 21
159.7968976406313
 72
     1
 10
60.43011526263018
 20
159.7968976406313
 11
48.21793273020759
 21
159.7968976406313
 72
     1
 10
48.21793273020759
 20
159.7968976406313
 11
48.21793273020759
 21
167.6444858234922
 72
     1
 10
48.21793273020759
 20
167.6444858234922
 11
83.79545727667795
 21
167.6444858234922
 97
        0
 75
     2
 76
     1
 98
        0
  0
ENDBLK
  5
6AE
330
693
100
AcDbEntity
  8
0
100
AcDbBlockEnd
  0
BLOCK
  5
6A3
330
6A2
100
AcDbEntity
  8
0
100
AcDbBlockBegin
  2
block 5
 70
     0
 10
0.0
 20
0.0
 30
0.0
  3
block 5
  1
block 5
  0
SPLINE
  5
6A4
330
6A2
100
AcDbEntity
  8
LOGO
370
     0
100
AcDbSpline
210
0.0
220
0.0
230
1.0
 70
    11
 71
     3
 72
    56
 73
    52
 74
     0
 42
0.000000001
 43
0.0000000001
 40
0.0
 40
0.0
 40
0.0
 40
0.0
 40
1.0
 40
1.0
 40
1.0
 40
2.0
 40
2.0
 40
2.0
 40
3.0
 40
3.0
 40
3.0
 40
4.0
 40
4.0
 40
4.0
 40
5.0
 40
5.0
 40
5.0
 40
6.0
 40
6.0
 40
6.0
 40
7.0
 40
7.0
 40
7.0
 40
8.0
 40
8.0
 40
8.0
 40
9.0
 40
9.0
 40
9.0
 40
10.0
 40
10.0
 40
10.0
 40
11.0
 40
11.0
 40
11.0
 40
12.0
 40
12.0
 40
12.0
 40
13.0
 40
13.0
 40
13.0
 40
14.0
 40
14.0
 40
14.0
 40
15.0
 40
15.0
 40
15.0
 40
16.0
 40
16.0
 40
16.0
 40
17.0
 40
17.0
 40
17.0
 40
17.0
 10
100.4504378777679
 20
166.69157178364
 30
0.0
 10
101.9848844191641
 20
167.1313385124438
 30
0.0
 10
103.9637485713373
 20
166.7649523658846
 30
0.0
 10
103.9637485713373
 20
166.7649523658846
 30
0.0
 10
103.9637485713373
 20
166.7649523658846
 30
0.0
 10
103.0132460999156
 20
163.911205638077
 30
0.0
 10
103.0132460999156
 20
163.911205638077
 30
0.0
 10
103.0132460999156
 20
163.911205638077
 30
0.0
 10
101.0674548862189
 20
164.3601018759394
 30
0.0
 10
99.57090442016032
 20
163.1805004036133
 30
0.0
 10
98.40508333886608
 20
162.258247733807
 30
0.0
 10
97.65301849830304
 20
159.804132345923
 30
0.0
 10
97.3598406791005
 20
158.8699940888517
 30
0.0
 10
97.3598406791005
 20
158.8699940888517
 30
0.0
 10
96.07137411762282
 20
154.9119212747295
 30
0.0
 10
96.07137411762282
 20
154.9119212747295
 30
0.0
 10
96.07137411762282
 20
154.9119212747295
 30
0.0
 10
100.3012651448482
 20
154.9119212747295
 30
0.0
 10
100.3012651448482
 20
154.9119212747295
 30
0.0
 10
100.3012651448482
 20
154.9119212747295
 30
0.0
 10
99.64152892419852
 20
152.4199098115079
 30
0.0
 10
99.64152892419852
 20
152.4199098115079
 30
0.0
 10
99.64152892419852
 20
152.4199098115079
 30
0.0
 10
95.38097652692731
 20
152.4199098115079
 30
0.0
 10
95.38097652692731
 20
152.4199098115079
 30
0.0
 10
95.38097652692731
 20
152.4199098115079
 30
0.0
 10
87.75353009080013
 20
127.8027915271048
 30
0.0
 10
87.75353009080013
 20
127.8027915271048
 30
0.0
 10
87.75353009080013
 20
127.8027915271048
 30
0.0
 10
85.36538832498108
 20
127.8027915271048
 30
0.0
 10
85.36538832498108
 20
127.8027915271048
 30
0.0
 10
85.36538832498108
 20
127.8027915271048
 30
0.0
 10
93.00006946639998
 20
152.4199098115079
 30
0.0
 10
93.00006946639998
 20
152.4199098115079
 30
0.0
 10
93.00006946639998
 20
152.4199098115079
 30
0.0
 10
89.85297266450198
 20
152.4199098115079
 30
0.0
 10
89.85297266450198
 20
152.4199098115079
 30
0.0
 10
89.85297266450198
 20
152.4199098115079
 30
0.0
 10
90.51270888515164
 20
154.9119212747295
 30
0.0
 10
90.51270888515164
 20
154.9119212747295
 30
0.0
 10
90.51270888515164
 20
154.9119212747295
 30
0.0
 10
93.6904670570955
 20
154.9119212747295
 30
0.0
 10
93.6904670570955
 20
154.9119212747295
 30
0.0
 10
93.6904670570955
 20
154.9119212747295
 30
0.0
 10
94.81598049462158
 20
158.3616699146644
 30
0.0
 10
94.81598049462158
 20
158.3616699146644
 30
0.0
 10
95.7237637538445
 20
161.2605474231013
 30
0.0
 10
96.4968436907311
 20
162.8139420021662
 30
0.0
 10
97.15657991138076
 20
163.9844139654337
 30
0.0
 10
97.81183750494507
 20
165.1523021053827
 30
0.0
 10
99.1047826935081
 20
166.3084769129547
 30
0.0
 10
100.4504378777679
 20
166.69157178364
 30
0.0
  0
HATCH
  5
6A5
330
6A2
100
AcDbEntity
  8
LOGO
 62
   250
420
  2234388
100
AcDbHatch
 10
0.0
 20
0.0
 30
0.0
210
0.0
220
0.0
230
1.0
  2
SOLID
 70
     1
 71
     0
 91
        1
 92
        1
 93
        1
 72
     4
 94
        3
 73
     0
 74
     1
 95
       56
 96
       52
 40
0.0
 40
0.0
 40
0.0
 40
0.0
 40
1.0
 40
1.0
 40
1.0
 40
2.0
 40
2.0
 40
2.0
 40
3.0
 40
3.0
 40
3.0
 40
4.0
 40
4.0
 40
4.0
 40
5.0
 40
5.0
 40
5.0
 40
6.0
 40
6.0
 40
6.0
 40
7.0
 40
7.0
 40
7.0
 40
8.0
 40
8.0
 40
8.0
 40
9.0
 40
9.0
 40
9.0
 40
10.0
 40
10.0
 40
10.0
 40
11.0
 40
11.0
 40
11.0
 40
12.0
 40
12.0
 40
12.0
 40
13.0
 40
13.0
 40
13.0
 40
14.0
 40
14.0
 40
14.0
 40
15.0
 40
15.0
 40
15.0
 40
16.0
 40
16.0
 40
16.0
 40
17.0
 40
17.0
 40
17.0
 40
17.0
 10
100.4504378777679
 20
166.69157178364
 10
101.9848844191641
 20
167.1313385124438
 10
103.9637485713373
 20
166.7649523658846
 10
103.9637485713373
 20
166.7649523658846
 10
103.9637485713373
 20
166.7649523658846
 10
103.0132460999156
 20
163.911205638077
 10
103.0132460999156
 20
163.911205638077
 10
103.0132460999156
 20
163.911205638077
 10
101.0674548862189
 20
164.3601018759394
 10
99.57090442016032
 20
163.1805004036133
 10
98.40508333886608
 20
162.258247733807
 10
97.65301849830304
 20
159.804132345923
 10
97.3598406791005
 20
158.8699940888517
 10
97.3598406791005
 20
158.8699940888517
 10
96.07137411762282
 20
154.9119212747295
 10
96.07137411762282
 20
154.9119212747295
 10
96.07137411762282
 20
154.9119212747295
 10
100.3012651448482
 20
154.9119212747295
 10
100.3012651448482
 20
154.9119212747295
 10
100.3012651448482
 20
154.9119212747295
 10
99.64152892419852
 20
152.4199098115079
 10
99.64152892419852
 20
152.4199098115079
 10
99.64152892419852
 20
152.4199098115079
 10
95.38097652692731
 20
152.4199098115079
 10
95.38097652692731
 20
152.4199098115079
 10
95.38097652692731
 20
152.4199098115079
 10
87.75353009080013
 20
127.8027915271048
 10
87.75353009080013
 20
127.8027915271048
 10
87.75353009080013
 20
127.8027915271048
 10
85.36538832498108
 20
127.8027915271048
 10
85.36538832498108
 20
127.8027915271048
 10
85.36538832498108
 20
127.8027915271048
 10
93.00006946639998
 20
152.4199098115079
 10
93.00006946639998
 20
152.4199098115079
 10
93.00006946639998
 20
152.4199098115079
 10
89.85297266450198
 20
152.4199098115079
 10
89.85297266450198
 20
152.4199098115079
 10
89.85297266450198
 20
152.4199098115079
 10
90.51270888515164
 20
154.9119212747295
 10
90.51270888515164
 20
154.9119212747295
 10
90.51270888515164
 20
154.9119212747295
 10
93.6904670570955
 20
154.9119212747295
 10
93.6904670570955
 20
154.9119212747295
 10
93.6904670570955
 20
154.9119212747295
 10
94.81598049462158
 20
158.3616699146644
 10
94.81598049462158
 20
158.3616699146644
 10
95.7237637538445
 20
161.2605474231013
 10
96.4968436907311
 20
162.8139420021662
 10
97.15657991138076
 20
163.9844139654337
 10
97.81183750494507
 20
165.1523021053827
 10
99.1047826935081
 20
166.3084769129547
 10
100.4504378777679
 20
166.69157178364
 97
        0
 75
     2
 76
     1
 98
        0
  0
SPLINE
  5
6A6
330
6A2
100
AcDbEntity
  8
LOGO
370
     0
100
AcDbSpline
210
0.0
220
0.0
230
1.0
 70
    11
 71
     3
 72
    38
 73
    34
 74
     0
 42
0.000000001
 43
0.0000000001
 40
0.0
 40
0.0
 40
0.0
 40
0.0
 40
1.0
 40
1.0
 40
1.0
 40
2.0
 40
2.0
 40
2.0
 40
3.0
 40
3.0
 40
3.0
 40
4.0
 40
4.0
 40
4.0
 40
5.0
 40
5.0
 40
5.0
 40
6.0
 40
6.0
 40
6.0
 40
7.0
 40
7.0
 40
7.0
 40
8.0
 40
8.0
 40
8.0
 40
9.0
 40
9.0
 40
9.0
 40
10.0
 40
10.0
 40
10.0
 40
11.0
 40
11.0
 40
11.0
 40
11.0
 10
126.377554584636
 20
154.8151140277308
 30
0.0
 10
126.377554584636
 20
154.8151140277308
 30
0.0
 10
128.8311532078563
 20
154.8151140277308
 30
0.0
 10
128.8311532078563
 20
154.8151140277308
 30
0.0
 10
128.8311532078563
 20
154.8151140277308
 30
0.0
 10
127.7345785914971
 20
151.3062819612468
 30
0.0
 10
127.7345785914971
 20
151.3062819612468
 30
0.0
 10
128.571392836906
 20
152.2922689395754
 30
0.0
 10
129.8860421413442
 20
153.604506675583
 30
0.0
 10
131.0163787157314
 20
154.2664822097754
 30
0.0
 10
132.7044766171327
 20
155.2500576196734
 30
0.0
 10
133.6642808525008
 20
155.3847609420097
 30
0.0
 10
134.7284715499351
 20
155.3565111403944
 30
0.0
 10
134.7284715499351
 20
155.3565111403944
 30
0.0
 10
133.6877075172549
 20
152.0345756272799
 30
0.0
 10
133.6877075172549
 20
152.0345756272799
 30
0.0
 10
133.011434827367
 20
152.3184516825359
 30
0.0
 10
130.930940291334
 20
151.7768823149844
 30
0.0
 10
129.739280976855
 20
150.9162968950455
 30
0.0
 10
128.66613302525
 20
150.1454562717016
 30
0.0
 10
127.9192358313239
 20
149.4857200510519
 30
0.0
 10
127.0393578639405
 20
147.8282835196966
 30
0.0
 10
126.164647543194
 20
146.1699857139017
 30
0.0
 10
125.4742499524985
 20
143.5262176944419
 30
0.0
 10
124.2822461282437
 20
139.6959580071401
 30
0.0
 10
124.2822461282437
 20
139.6959580071401
 30
0.0
 10
120.5753209406769
 20
127.8027915271048
 30
0.0
 10
120.5753209406769
 20
127.8027915271048
 30
0.0
 10
120.5753209406769
 20
127.8027915271048
 30
0.0
 10
118.1964809388044
 20
127.8027915271048
 30
0.0
 10
118.1964809388044
 20
127.8027915271048
 30
0.0
 10
118.1964809388044
 20
127.8027915271048
 30
0.0
 10
126.377554584636
 20
154.8151140277308
 30
0.0
 10
126.377554584636
 20
154.8151140277308
 30
0.0
  0
HATCH
  5
6A7
330
6A2
100
AcDbEntity
  8
LOGO
 62
   250
420
  2234388
100
AcDbHatch
 10
0.0
 20
0.0
 30
0.0
210
0.0
220
0.0
230
1.0
  2
SOLID
 70
     1
 71
     0
 91
        1
 92
        1
 93
        1
 72
     4
 94
        3
 73
     0
 74
     1
 95
       38
 96
       34
 40
0.0
 40
0.0
 40
0.0
 40
0.0
 40
1.0
 40
1.0
 40
1.0
 40
2.0
 40
2.0
 40
2.0
 40
3.0
 40
3.0
 40
3.0
 40
4.0
 40
4.0
 40
4.0
 40
5.0
 40
5.0
 40
5.0
 40
6.0
 40
6.0
 40
6.0
 40
7.0
 40
7.0
 40
7.0
 40
8.0
 40
8.0
 40
8.0
 40
9.0
 40
9.0
 40
9.0
 40
10.0
 40
10.0
 40
10.0
 40
11.0
 40
11.0
 40
11.0
 40
11.0
 10
126.377554584636
 20
154.8151140277308
 10
126.377554584636
 20
154.8151140277308
 10
128.8311532078563
 20
154.8151140277308
 10
128.8311532078563
 20
154.8151140277308
 10
128.8311532078563
 20
154.8151140277308
 10
127.7345785914971
 20
151.3062819612468
 10
127.7345785914971
 20
151.3062819612468
 10
128.571392836906
 20
152.2922689395754
 10
129.8860421413442
 20
153.604506675583
 10
131.0163787157314
 20
154.2664822097754
 10
132.7044766171327
 20
155.2500576196734
 10
133.6642808525008
 20
155.3847609420097
 10
134.7284715499351
 20
155.3565111403944
 10
134.7284715499351
 20
155.3565111403944
 10
133.6877075172549
 20
152.0345756272799
 10
133.6877075172549
 20
152.0345756272799
 10
133.011434827367
 20
152.3184516825359
 10
130.930940291334
 20
151.7768823149844
 10
129.739280976855
 20
150.9162968950455
 10
128.66613302525
 20
150.1454562717016
 10
127.9192358313239
 20
149.4857200510519
 10
127.0393578639405
 20
147.8282835196966
 10
126.164647543194
 20
146.1699857139017
 10
125.4742499524985
 20
143.5262176944419
 10
124.2822461282437
 20
139.6959580071401
 10
124.2822461282437
 20
139.6959580071401
 10
120.5753209406769
 20
127.8027915271048
 10
120.5753209406769
 20
127.8027915271048
 10
120.5753209406769
 20
127.8027915271048
 10
118.1964809388044
 20
127.8027915271048
 10
118.1964809388044
 20
127.8027915271048
 10
118.1964809388044
 20
127.8027915271048
 10
126.377554584636
 20
154.8151140277308
 10
126.377554584636
 20
154.8151140277308
 97
        0
 75
     2
 76
     1
 98
        0
  0
SPLINE
  5
6A8
330
6A2
100
AcDbEntity
  8
LOGO
370
     0
100
AcDbSpline
210
0.0
220
0.0
230
1.0
 70
    11
 71
     3
 72
   104
 73
   100
 74
     0
 42
0.000000001
 43
0.0000000001
 40
0.0
 40
0.0
 40
0.0
 40
0.0
 40
1.0
 40
1.0
 40
1.0
 40
2.0
 40
2.0
 40
2.0
 40
3.0
 40
3.0
 40
3.0
 40
4.0
 40
4.0
 40
4.0
 40
5.0
 40
5.0
 40
5.0
 40
6.0
 40
6.0
 40
6.0
 40
7.0
 40
7.0
 40
7.0
 40
8.0
 40
8.0
 40
8.0
 40
9.0
 40
9.0
 40
9.0
 40
10.0
 40
10.0
 40
10.0
 40
11.0
 40
11.0
 40
11.0
 40
12.0
 40
12.0
 40
12.0
 40
13.0
 40
13.0
 40
13.0
 40
14.0
 40
14.0
 40
14.0
 40
15.0
 40
15.0
 40
15.0
 40
16.0
 40
16.0
 40
16.0
 40
17.0
 40
17.0
 40
17.0
 40
18.0
 40
18.0
 40
18.0
 40
19.0
 40
19.0
 40
19.0
 40
20.0
 40
20.0
 40
20.0
 40
21.0
 40
21.0
 40
21.0
 40
22.0
 40
22.0
 40
22.0
 40
23.0
 40
23.0
 40
23.0
 40
24.0
 40
24.0
 40
24.0
 40
25.0
 40
25.0
 40
25.0
 40
26.0
 40
26.0
 40
26.0
 40
27.0
 40
27.0
 40
27.0
 40
28.0
 40
28.0
 40
28.0
 40
29.0
 40
29.0
 40
29.0
 40
30.0
 40
30.0
 40
30.0
 40
31.0
 40
31.0
 40
31.0
 40
32.0
 40
32.0
 40
32.0
 40
33.0
 40
33.0
 40
33.0
 40
33.0
 10
139.8926730891197
 20
154.8294111834263
 30
0.0
 10
139.8926730891197
 20
154.8294111834263
 30
0.0
 10
142.0344903652445
 20
154.8294111834263
 30
0.0
 10
142.0344903652445
 20
154.8294111834263
 30
0.0
 10
142.0344903652445
 20
154.8294111834263
 30
0.0
 10
140.9516961399171
 20
151.3157559800812
 30
0.0
 10
140.9516961399171
 20
151.3157559800812
 30
0.0
 10
141.8928968473923
 20
152.7887075264977
 30
0.0
 10
142.7341897198865
 20
153.4484437471474
 30
0.0
 10
143.8552245303272
 20
154.2926649527359
 30
0.0
 10
144.9803934580775
 20
155.1296514530327
 30
0.0
 10
146.3139908001845
 20
155.3044901642492
 30
0.0
 10
147.241066606852
 20
155.3044901642492
 30
0.0
 10
148.3855280820469
 20
155.3044901642492
 30
0.0
 10
149.4969166187653
 20
155.0752189084569
 30
0.0
 10
150.0784491203092
 20
153.8172414621372
 30
0.0
 10
150.5228667310863
 20
152.833838307127
 30
0.0
 10
150.5414702589793
 20
152.7201500811143
 30
0.0
 10
150.4140016419347
 20
150.7765981809602
 30
0.0
 10
151.5818897818837
 20
152.7699317437168
 30
0.0
 10
152.4424752018226
 20
153.6256940267945
 30
0.0
 10
153.9038856707499
 20
154.4507949398263
 30
0.0
 10
155.4455669174378
 20
155.3044901642492
 30
0.0
 10
156.339225275853
 20
155.3659851592288
 30
0.0
 10
157.3748216618963
 20
155.2147453676543
 30
0.0
 10
158.911679771723
 20
154.9877134254046
 30
0.0
 10
159.8859534176746
 20
154.4390816074493
 30
0.0
 10
160.3965169054045
 20
152.7816450760939
 30
0.0
 10
160.9070803931344
 20
151.1219692311958
 30
0.0
 10
160.6328506116007
 20
150.2303779314354
 30
0.0
 10
159.9992971339115
 20
147.597634224801
 30
0.0
 10
159.7105979417943
 20
146.4014962832367
 30
0.0
 10
159.2947746424084
 20
144.9400858143094
 30
0.0
 10
158.7463150793409
 20
143.2092687007094
 30
0.0
 10
158.7463150793409
 20
143.2092687007094
 30
0.0
 10
153.9038856707499
 20
127.8027915271048
 30
0.0
 10
153.9038856707499
 20
127.8027915271048
 30
0.0
 10
153.9038856707499
 20
127.8027915271048
 30
0.0
 10
151.3882752878863
 20
127.8027915271048
 30
0.0
 10
151.3882752878863
 20
127.8027915271048
 30
0.0
 10
151.3882752878863
 20
127.8027915271048
 30
0.0
 10
155.6250565106276
 20
141.2751908193897
 30
0.0
 10
155.6250565106276
 20
141.2751908193897
 30
0.0
 10
156.5094131050963
 20
144.0936252951782
 30
0.0
 10
157.109893644309
 20
146.1506931664571
 30
0.0
 10
157.4220195011804
 20
147.4415712963654
 30
0.0
 10
157.8095929989511
 20
149.0530157726519
 30
0.0
 10
157.9656559273867
 20
149.5826995529385
 30
0.0
 10
157.7816877071116
 20
150.7529992613181
 30
0.0
 10
157.6111553680925
 20
151.8430281919372
 30
0.0
 10
157.0582171779396
 20
152.5547853887321
 30
0.0
 10
156.1170164704645
 20
152.5547853887321
 30
0.0
 10
155.1096698860365
 20
152.5547853887321
 30
0.0
 10
154.2962823053817
 20
152.4412694176073
 30
0.0
 10
153.156643967048
 20
151.2945686288697
 30
0.0
 10
152.0170056287143
 20
150.1476955852443
 30
0.0
 10
151.076149431015
 20
148.7930831468137
 30
0.0
 10
150.3337308641742
 20
147.2290087646991
 30
0.0
 10
149.5957909244188
 20
145.6683794803425
 30
0.0
 10
148.8530278478023
 20
143.6822806228776
 30
0.0
 10
148.0964843801539
 20
141.2751908193897
 30
0.0
 10
148.0964843801539
 20
141.2751908193897
 30
0.0
 10
143.8552245303272
 20
127.8027915271048
 30
0.0
 10
143.8552245303272
 20
127.8027915271048
 30
0.0
 10
143.8552245303272
 20
127.8027915271048
 30
0.0
 10
141.486030802177
 20
127.8027915271048
 30
0.0
 10
141.486030802177
 20
127.8027915271048
 30
0.0
 10
141.486030802177
 20
127.8027915271048
 30
0.0
 10
146.3329388378533
 20
143.2092687007094
 30
0.0
 10
146.3329388378533
 20
143.2092687007094
 30
0.0
 10
146.8483254624444
 20
144.8408669988801
 30
0.0
 10
147.2314203331297
 20
146.1837661049335
 30
0.0
 10
147.4867020769946
 20
147.224185627838
 30
0.0
 10
147.9169947869641
 20
149.0197705792876
 30
0.0
 10
148.0306830129768
 20
150.2400242051577
 30
0.0
 10
147.709255392159
 20
151.3157559800812
 30
0.0
 10
147.3874832615654
 20
152.3916600098926
 30
0.0
 10
146.8245542879144
 20
152.6683013598569
 30
0.0
 10
145.8840425999909
 20
152.6683013598569
 30
0.0
 10
145.0989048209514
 20
152.6683013598569
 30
0.0
 10
144.3282364524954
 20
152.3275811915945
 30
0.0
 10
143.4531816219731
 20
151.6538923250251
 30
0.0
 10
142.34627171234
 20
150.8074318058939
 30
0.0
 10
141.901854101563
 20
150.1097995099067
 30
0.0
 10
141.3578731655808
 20
149.289521733736
 30
0.0
 10
140.6299240093235
 20
148.192602607601
 30
0.0
 10
140.2850697237515
 20
147.455696197173
 30
0.0
 10
139.6652966370942
 20
145.8385673095858
 30
0.0
 10
139.0506911970739
 20
144.2214384219986
 30
0.0
 10
138.463991048893
 20
142.3252566160164
 30
0.0
 10
138.0571250036777
 20
141.0154304484394
 30
0.0
 10
138.0571250036777
 20
141.0154304484394
 30
0.0
 10
133.9009590684727
 20
127.8027915271048
 30
0.0
 10
133.9009590684727
 20
127.8027915271048
 30
0.0
 10
133.9009590684727
 20
127.8027915271048
 30
0.0
 10
131.4180771143097
 20
127.8027915271048
 30
0.0
 10
131.4180771143097
 20
127.8027915271048
 30
0.0
 10
131.4180771143097
 20
127.8027915271048
 30
0.0
 10
139.8926730891197
 20
154.8294111834263
 30
0.0
 10
139.8926730891197
 20
154.8294111834263
 30
0.0
  0
HATCH
  5
6A9
330
6A2
100
AcDbEntity
  8
LOGO
 62
   250
420
  2234388
100
AcDbHatch
 10
0.0
 20
0.0
 30
0.0
210
0.0
220
0.0
230
1.0
  2
SOLID
 70
     1
 71
     0
 91
        1
 92
        1
 93
        1
 72
     4
 94
        3
 73
     0
 74
     1
 95
      104
 96
      100
 40
0.0
 40
0.0
 40
0.0
 40
0.0
 40
1.0
 40
1.0
 40
1.0
 40
2.0
 40
2.0
 40
2.0
 40
3.0
 40
3.0
 40
3.0
 40
4.0
 40
4.0
 40
4.0
 40
5.0
 40
5.0
 40
5.0
 40
6.0
 40
6.0
 40
6.0
 40
7.0
 40
7.0
 40
7.0
 40
8.0
 40
8.0
 40
8.0
 40
9.0
 40
9.0
 40
9.0
 40
10.0
 40
10.0
 40
10.0
 40
11.0
 40
11.0
 40
11.0
 40
12.0
 40
12.0
 40
12.0
 40
13.0
 40
13.0
 40
13.0
 40
14.0
 40
14.0
 40
14.0
 40
15.0
 40
15.0
 40
15.0
 40
16.0
 40
16.0
 40
16.0
 40
17.0
 40
17.0
 40
17.0
 40
18.0
 40
18.0
 40
18.0
 40
19.0
 40
19.0
 40
19.0
 40
20.0
 40
20.0
 40
20.0
 40
21.0
 40
21.0
 40
21.0
 40
22.0
 40
22.0
 40
22.0
 40
23.0
 40
23.0
 40
23.0
 40
24.0
 40
24.0
 40
24.0
 40
25.0
 40
25.0
 40
25.0
 40
26.0
 40
26.0
 40
26.0
 40
27.0
 40
27.0
 40
27.0
 40
28.0
 40
28.0
 40
28.0
 40
29.0
 40
29.0
 40
29.0
 40
30.0
 40
30.0
 40
30.0
 40
31.0
 40
31.0
 40
31.0
 40
32.0
 40
32.0
 40
32.0
 40
33.0
 40
33.0
 40
33.0
 40
33.0
 10
139.8926730891197
 20
154.8294111834263
 10
139.8926730891197
 20
154.8294111834263
 10
142.0344903652445
 20
154.8294111834263
 10
142.0344903652445
 20
154.8294111834263
 10
142.0344903652445
 20
154.8294111834263
 10
140.9516961399171
 20
151.3157559800812
 10
140.9516961399171
 20
151.3157559800812
 10
141.8928968473923
 20
152.7887075264977
 10
142.7341897198865
 20
153.4484437471474
 10
143.8552245303272
 20
154.2926649527359
 10
144.9803934580775
 20
155.1296514530327
 10
146.3139908001845
 20
155.3044901642492
 10
147.241066606852
 20
155.3044901642492
 10
148.3855280820469
 20
155.3044901642492
 10
149.4969166187653
 20
155.0752189084569
 10
150.0784491203092
 20
153.8172414621372
 10
150.5228667310863
 20
152.833838307127
 10
150.5414702589793
 20
152.7201500811143
 10
150.4140016419347
 20
150.7765981809602
 10
151.5818897818837
 20
152.7699317437168
 10
152.4424752018226
 20
153.6256940267945
 10
153.9038856707499
 20
154.4507949398263
 10
155.4455669174378
 20
155.3044901642492
 10
156.339225275853
 20
155.3659851592288
 10
157.3748216618963
 20
155.2147453676543
 10
158.911679771723
 20
154.9877134254046
 10
159.8859534176746
 20
154.4390816074493
 10
160.3965169054045
 20
152.7816450760939
 10
160.9070803931344
 20
151.1219692311958
 10
160.6328506116007
 20
150.2303779314354
 10
159.9992971339115
 20
147.597634224801
 10
159.7105979417943
 20
146.4014962832367
 10
159.2947746424084
 20
144.9400858143094
 10
158.7463150793409
 20
143.2092687007094
 10
158.7463150793409
 20
143.2092687007094
 10
153.9038856707499
 20
127.8027915271048
 10
153.9038856707499
 20
127.8027915271048
 10
153.9038856707499
 20
127.8027915271048
 10
151.3882752878863
 20
127.8027915271048
 10
151.3882752878863
 20
127.8027915271048
 10
151.3882752878863
 20
127.8027915271048
 10
155.6250565106276
 20
141.2751908193897
 10
155.6250565106276
 20
141.2751908193897
 10
156.5094131050963
 20
144.0936252951782
 10
157.109893644309
 20
146.1506931664571
 10
157.4220195011804
 20
147.4415712963654
 10
157.8095929989511
 20
149.0530157726519
 10
157.9656559273867
 20
149.5826995529385
 10
157.7816877071116
 20
150.7529992613181
 10
157.6111553680925
 20
151.8430281919372
 10
157.0582171779396
 20
152.5547853887321
 10
156.1170164704645
 20
152.5547853887321
 10
155.1096698860365
 20
152.5547853887321
 10
154.2962823053817
 20
152.4412694176073
 10
153.156643967048
 20
151.2945686288697
 10
152.0170056287143
 20
150.1476955852443
 10
151.076149431015
 20
148.7930831468137
 10
150.3337308641742
 20
147.2290087646991
 10
149.5957909244188
 20
145.6683794803425
 10
148.8530278478023
 20
143.6822806228776
 10
148.0964843801539
 20
141.2751908193897
 10
148.0964843801539
 20
141.2751908193897
 10
143.8552245303272
 20
127.8027915271048
 10
143.8552245303272
 20
127.8027915271048
 10
143.8552245303272
 20
127.8027915271048
 10
141.486030802177
 20
127.8027915271048
 10
141.486030802177
 20
127.8027915271048
 10
141.486030802177
 20
127.8027915271048
 10
146.3329388378533
 20
143.2092687007094
 10
146.3329388378533
 20
143.2092687007094
 10
146.8483254624444
 20
144.8408669988801
 10
147.2314203331297
 20
146.1837661049335
 10
147.4867020769946
 20
147.224185627838
 10
147.9169947869641
 20
149.0197705792876
 10
148.0306830129768
 20
150.2400242051577
 10
147.709255392159
 20
151.3157559800812
 10
147.3874832615654
 20
152.3916600098926
 10
146.8245542879144
 20
152.6683013598569
 10
145.8840425999909
 20
152.6683013598569
 10
145.0989048209514
 20
152.6683013598569
 10
144.3282364524954
 20
152.3275811915945
 10
143.4531816219731
 20
151.6538923250251
 10
142.34627171234
 20
150.8074318058939
 10
141.901854101563
 20
150.1097995099067
 10
141.3578731655808
 20
149.289521733736
 10
140.6299240093235
 20
148.192602607601
 10
140.2850697237515
 20
147.455696197173
 10
139.6652966370942
 20
145.8385673095858
 10
139.0506911970739
 20
144.2214384219986
 10
138.463991048893
 20
142.3252566160164
 10
138.0571250036777
 20
141.0154304484394
 10
138.0571250036777
 20
141.0154304484394
 10
133.9009590684727
 20
127.8027915271048
 10
133.9009590684727
 20
127.8027915271048
 10
133.9009590684727
 20
127.8027915271048
 10
131.4180771143097
 20
127.8027915271048
 10
131.4180771143097
 20
127.8027915271048
 10
131.4180771143097
 20
127.8027915271048
 10
139.8926730891197
 20
154.8294111834263
 10
139.8926730891197
 20
154.8294111834263
 97
        0
 75
     2
 76
     1
 98
        0
  0
SPLINE
  5
6AA
330
6A2
100
AcDbEntity
  8
LOGO
370
     0
100
AcDbSpline
210
0.0
220
0.0
230
1.0
 70
    11
 71
     3
 72
    29
 73
    25
 74
     0
 42
0.000000001
 43
0.0000000001
 40
0.0
 40
0.0
 40
0.0
 40
0.0
 40
1.0
 40
1.0
 40
1.0
 40
2.0
 40
2.0
 40
2.0
 40
3.0
 40
3.0
 40
3.0
 40
4.0
 40
4.0
 40
4.0
 40
5.0
 40
5.0
 40
5.0
 40
6.0
 40
6.0
 40
6.0
 40
7.0
 40
7.0
 40
7.0
 40
8.0
 40
8.0
 40
8.0
 40
8.0
 10
101.6420971922469
 20
132.8388354296931
 30
0.0
 10
101.630039350094
 20
134.7164137077823
 30
0.0
 10
102.2236296937908
 20
138.0598810818841
 30
0.0
 10
103.7487744712405
 20
142.5378191476827
 30
0.0
 10
105.819967243327
 20
148.5896501242061
 30
0.0
 10
107.0602024361932
 20
150.8074318058939
 30
0.0
 10
108.1522984254671
 20
151.8833358357054
 30
0.0
 10
109.741177511439
 20
153.4532668840085
 30
0.0
 10
111.8740375333931
 20
153.5290590346837
 30
0.0
 10
112.5075910110823
 20
153.4532668840085
 30
0.0
 10
113.4012493694975
 20
153.3490526768302
 30
0.0
 10
114.6683563248758
 20
152.7580461564518
 30
0.0
 10
114.7493161221879
 20
150.7838328862519
 30
0.0
 10
114.8106388622796
 20
149.0909118479895
 30
0.0
 10
114.3186789024427
 20
145.9191825971221
 30
0.0
 10
112.6164561002338
 20
140.9489400617108
 30
0.0
 10
110.6444821435766
 20
135.1746117095912
 30
0.0
 10
109.4669477299053
 20
132.8960240524753
 30
0.0
 10
108.5212683953448
 20
131.9072809959403
 30
0.0
 10
106.7346406980658
 20
130.0538184021569
 30
0.0
 10
104.8222669326213
 20
130.2336525051225
 30
0.0
 10
104.5408024457958
 20
130.2336525051225
 30
0.0
 10
104.1721769856939
 20
130.2336525051225
 30
0.0
 10
101.6465758193322
 20
130.6305277668397
 30
0.0
 10
101.6420971922469
 20
132.8388354296931
 30
0.0
  0
SPLINE
  5
6AB
330
6A2
100
AcDbEntity
  8
LOGO
370
     0
100
AcDbSpline
210
0.0
220
0.0
230
1.0
 70
    11
 71
     3
 72
    32
 73
    28
 74
     0
 42
0.000000001
 43
0.0000000001
 40
0.0
 40
0.0
 40
0.0
 40
0.0
 40
1.0
 40
1.0
 40
1.0
 40
2.0
 40
2.0
 40
2.0
 40
3.0
 40
3.0
 40
3.0
 40
4.0
 40
4.0
 40
4.0
 40
5.0
 40
5.0
 40
5.0
 40
6.0
 40
6.0
 40
6.0
 40
7.0
 40
7.0
 40
7.0
 40
8.0
 40
8.0
 40
8.0
 40
9.0
 40
9.0
 40
9.0
 40
9.0
 10
106.2595617172429
 20
153.4105476718098
 30
0.0
 10
104.8222669326213
 20
151.5474388043041
 30
0.0
 10
103.7177685914188
 20
149.8758773721411
 30
0.0
 10
101.9232171692965
 20
144.6141795664062
 30
0.0
 10
100.2754269116635
 20
139.7999999594306
 30
0.0
 10
99.22777268346732
 20
136.3052927937542
 30
0.0
 10
99.06964269637689
 20
132.039572749846
 30
0.0
 10
98.94665270641765
 20
128.8673267343149
 30
0.0
 10
100.8807305877373
 20
127.8027915271048
 30
0.0
 10
103.7129454545577
 20
127.8027915271048
 30
0.0
 10
104.9352661390825
 20
127.8027915271048
 30
0.0
 10
108.0151835347002
 20
127.8827177950895
 30
0.0
 10
110.2045431598849
 20
130.5926316915021
 30
0.0
 10
111.7417457794874
 20
132.4984597712065
 30
0.0
 10
113.155269389579
 20
134.475256864725
 30
0.0
 10
115.0562743324223
 20
140.9489400617108
 30
0.0
 10
116.6361961642235
 20
146.3680788349845
 30
0.0
 10
117.7282921534974
 20
149.8639917848761
 30
0.0
 10
117.6480213757369
 20
151.8595646611754
 30
0.0
 10
117.6480213757369
 20
151.8595646611754
 30
0.0
 10
117.6480213757369
 20
151.8595646611754
 30
0.0
 10
117.6480213757369
 20
151.8595646611754
 30
0.0
 10
117.13229024137
 20
155.18150017429
 30
0.0
 10
114.7162431837115
 20
155.886194920681
 30
0.0
 10
113.3351034925446
 20
155.886194920681
 30
0.0
 10
111.9829026225447
 20
155.886194920681
 30
0.0
 10
108.3414342923792
 20
156.1251124501957
 30
0.0
 10
106.2595617172429
 20
153.4105476718098
 30
0.0
  0
HATCH
  5
6AC
330
6A2
100
AcDbEntity
  8
LOGO
 62
   250
420
  2234388
100
AcDbHatch
 10
0.0
 20
0.0
 30
0.0
210
0.0
220
0.0
230
1.0
  2
SOLID
 70
     1
 71
     0
 91
        2
 92
        1
 93
        1
 72
     4
 94
        3
 73
     0
 74
     1
 95
       29
 96
       25
 40
0.0
 40
0.0
 40
0.0
 40
0.0
 40
1.0
 40
1.0
 40
1.0
 40
2.0
 40
2.0
 40
2.0
 40
3.0
 40
3.0
 40
3.0
 40
4.0
 40
4.0
 40
4.0
 40
5.0
 40
5.0
 40
5.0
 40
6.0
 40
6.0
 40
6.0
 40
7.0
 40
7.0
 40
7.0
 40
8.0
 40
8.0
 40
8.0
 40
8.0
 10
101.6420971922469
 20
132.8388354296931
 10
101.630039350094
 20
134.7164137077823
 10
102.2236296937908
 20
138.0598810818841
 10
103.7487744712405
 20
142.5378191476827
 10
105.819967243327
 20
148.5896501242061
 10
107.0602024361932
 20
150.8074318058939
 10
108.1522984254671
 20
151.8833358357054
 10
109.741177511439
 20
153.4532668840085
 10
111.8740375333931
 20
153.5290590346837
 10
112.5075910110823
 20
153.4532668840085
 10
113.4012493694975
 20
153.3490526768302
 10
114.6683563248758
 20
152.7580461564518
 10
114.7493161221879
 20
150.7838328862519
 10
114.8106388622796
 20
149.0909118479895
 10
114.3186789024427
 20
145.9191825971221
 10
112.6164561002338
 20
140.9489400617108
 10
110.6444821435766
 20
135.1746117095912
 10
109.4669477299053
 20
132.8960240524753
 10
108.5212683953448
 20
131.9072809959403
 10
106.7346406980658
 20
130.0538184021569
 10
104.8222669326213
 20
130.2336525051225
 10
104.5408024457958
 20
130.2336525051225
 10
104.1721769856939
 20
130.2336525051225
 10
101.6465758193322
 20
130.6305277668397
 10
101.6420971922469
 20
132.8388354296931
 97
        0
 92
        1
 93
        1
 72
     4
 94
        3
 73
     0
 74
     1
 95
       32
 96
       28
 40
0.0
 40
0.0
 40
0.0
 40
0.0
 40
1.0
 40
1.0
 40
1.0
 40
2.0
 40
2.0
 40
2.0
 40
3.0
 40
3.0
 40
3.0
 40
4.0
 40
4.0
 40
4.0
 40
5.0
 40
5.0
 40
5.0
 40
6.0
 40
6.0
 40
6.0
 40
7.0
 40
7.0
 40
7.0
 40
8.0
 40
8.0
 40
8.0
 40
9.0
 40
9.0
 40
9.0
 40
9.0
 10
106.2595617172429
 20
153.4105476718098
 10
104.8222669326213
 20
151.5474388043041
 10
103.7177685914188
 20
149.8758773721411
 10
101.9232171692965
 20
144.6141795664062
 10
100.2754269116635
 20
139.7999999594306
 10
99.22777268346732
 20
136.3052927937542
 10
99.06964269637689
 20
132.039572749846
 10
98.94665270641765
 20
128.8673267343149
 10
100.8807305877373
 20
127.8027915271048
 10
103.7129454545577
 20
127.8027915271048
 10
104.9352661390825
 20
127.8027915271048
 10
108.0151835347002
 20
127.8827177950895
 10
110.2045431598849
 20
130.5926316915021
 10
111.7417457794874
 20
132.4984597712065
 10
113.155269389579
 20
134.475256864725
 10
115.0562743324223
 20
140.9489400617108
 10
116.6361961642235
 20
146.3680788349845
 10
117.7282921534974
 20
149.8639917848761
 10
117.6480213757369
 20
151.8595646611754
 10
117.6480213757369
 20
151.8595646611754
 10
117.6480213757369
 20
151.8595646611754
 10
117.6480213757369
 20
151.8595646611754
 10
117.13229024137
 20
155.18150017429
 10
114.7162431837115
 20
155.886194920681
 10
113.3351034925446
 20
155.886194920681
 10
111.9829026225447
 20
155.886194920681
 10
108.3414342923792
 20
156.1251124501957
 10
106.2595617172429
 20
153.4105476718098
 97
        0
 75
     2
 76
     1
 98
        0
  0
ENDBLK
  5
6AD
330
6A2
100
AcDbEntity
  8
0
100
AcDbBlockEnd
  0
BLOCK
  5
495E
330
495D
100
AcDbEntity
  8
0
100
AcDbBlockBegin
  2
*D6
 70
     1
 10
0.0
 20
0.0
 30
0.0
  3
*D6
  1
*D21
  0
LINE
  5
4960
330
495D
100
AcDbEntity
  8
DIM
 62
     0
370
    -2
100
AcDbLine
 10
104.8938306029375
 20
288.1149122086064
 30
0.0
 11
60.53621797377864
 21
288.1149174042292
 31
0.0
  0
LINE
  5
4961
330
495D
100
AcDbEntity
  8
DIM
 62
     0
370
    -2
100
AcDbLine
 10
104.8938224023373
 20
218.1023146792064
 30
0.0
 11
60.53620977317846
 21
218.1023198748292
 31
0.0
  0
LINE
  5
4962
330
495D
100
AcDbEntity
  8
DIM
 62
     0
370
    -2
100
AcDbLine
 10
60.53621785664829
 20
287.1149174042292
 30
0.0
 11
60.53620989030882
 21
219.1023198748292
 31
0.0
  0
INSERT
  5
4963
330
495D
100
AcDbEntity
  8
DIM
 62
     0
370
    -2
100
AcDbBlockReference
  2
_DOT
 10
60.53621797377864
 20
288.1149174042292
 30
0.0
 50
89.9999932889252
  0
INSERT
  5
4964
330
495D
100
AcDbEntity
  8
DIM
 62
     0
370
    -2
100
AcDbBlockReference
  2
_DOT
 10
60.53620977317846
 20
218.1023198748292
 30
0.0
 50
269.9999932889253
  0
MTEXT
  5
4965
330
495D
100
AcDbEntity
  8
DIM
 62
     0
 48
0.05
100
AcDbMText
 10
53.03621387347783
 20
253.1086128866323
 30
0.0
 40
5.0
 41
0.0
 46
0.0
 71
     5
 72
     1
  1
\A1;\A1;70
  7
ＭＳ ゴシック
 11
1.171303517791119E-7
 21
0.9999999999999931
 31
0.0
 73
     1
 44
1.0
  0
POINT
  5
4966
330
495D
100
AcDbEntity
  8
Defpoints
 62
     0
100
AcDbPoint
 10
109.8938306029374
 20
288.1149116229547
 30
0.0
  0
POINT
  5
4967
330
495D
100
AcDbEntity
  8
Defpoints
 62
     0
100
AcDbPoint
 10
109.8938224023373
 20
218.1023140935547
 30
0.0
  0
POINT
  5
4968
330
495D
100
AcDbEntity
  8
Defpoints
 62
     0
100
AcDbPoint
 10
60.53620977317846
 20
218.1023198748292
 30
0.0
  0
ENDBLK
  5
495F
330
495D
100
AcDbEntity
  8
0
100
AcDbBlockEnd
  0
BLOCK
  5
496B
330
496A
100
AcDbEntity
  8
0
100
AcDbBlockBegin
  2
*D7
 70
     1
 10
0.0
 20
0.0
 30
0.0
  3
*D7
  1
*D22
  0
LINE
  5
496D
330
496A
100
AcDbEntity
  8
DIM
 62
     0
370
    -2
100
AcDbLine
 10
82.64346753432913
 20
248.1086191487547
 30
0.0
 11
82.643461146579
 21
195.8243353170554
 31
0.0
  0
LINE
  5
496E
330
496A
100
AcDbEntity
  8
DIM
 62
     0
370
    -2
100
AcDbLine
 10
152.6537819917291
 20
248.1086105953547
 30
0.0
 11
152.6537756039791
 21
195.8243267636554
 31
0.0
  0
LINE
  5
496F
330
496A
100
AcDbEntity
  8
DIM
 62
     0
370
    -2
100
AcDbLine
 10
83.64346114657899
 20
195.824335194882
 30
0.0
 11
151.6537756039791
 21
195.8243268858288
 31
0.0
  0
INSERT
  5
4970
330
496A
100
AcDbEntity
  8
DIM
 62
     0
370
    -2
100
AcDbBlockReference
  2
_DOT
 10
82.643461146579
 20
195.8243353170554
 30
0.0
 50
179.9999929999783
  0
INSERT
  5
4971
330
496A
100
AcDbEntity
  8
DIM
 62
     0
370
    -2
100
AcDbBlockReference
  2
_DOT
 10
152.6537756039791
 20
195.8243267636554
 30
0.0
 50
359.9999929999783
  0
MTEXT
  5
4972
330
496A
100
AcDbEntity
  8
DIM
 62
     0
 48
0.05
100
AcDbMText
 10
117.6486250122969
 20
203.3243310403547
 30
0.0
 40
5.0
 41
0.0
 46
0.0
 71
     5
 72
     1
  1
\A1;\A1;70
  7
ＭＳ ゴシック
 11
0.9999999999999927
 21
-1.221734263002142E-7
 31
0.0
 73
     1
 44
1.0
  0
POINT
  5
4973
330
496A
100
AcDbEntity
  8
Defpoints
 62
     0
100
AcDbPoint
 10
82.64346814519627
 20
253.1086191487547
 30
0.0
  0
POINT
  5
4974
330
496A
100
AcDbEntity
  8
Defpoints
 62
     0
100
AcDbPoint
 10
152.6537826025963
 20
253.1086105953547
 30
0.0
  0
POINT
  5
4975
330
496A
100
AcDbEntity
  8
Defpoints
 62
     0
100
AcDbPoint
 10
152.653775603979
 20
195.8243267636554
 30
0.0
  0
ENDBLK
  5
496C
330
496A
100
AcDbEntity
  8
0
100
AcDbBlockEnd
  0
BLOCK
  5
4994
330
4993
100
AcDbEntity
  8
0
100
AcDbBlockBegin
  2
*D8
 70
     1
 10
0.0
 20
0.0
 30
0.0
  3
*D8
  1
*D25
  0
LINE
  5
4996
330
4993
100
AcDbEntity
  8
DIM
 62
     0
370
    -2
100
AcDbLine
 10
282.5786518093131
 20
193.1270615156891
 30
0.0
 11
282.5786518093131
 21
175.7826687017303
 31
0.0
  0
LINE
  5
4997
330
4993
100
AcDbEntity
  8
DIM
 62
     0
370
    -2
100
AcDbLine
 10
319.378940761913
 20
192.3303294758499
 30
0.0
 11
319.378940761913
 21
175.7826687017303
 31
0.0
  0
LINE
  5
4998
330
4993
100
AcDbEntity
  8
DIM
 62
     0
370
    -2
100
AcDbLine
 10
283.5786518093131
 20
175.7826687017303
 30
0.0
 11
318.378940761913
 21
175.7826687017303
 31
0.0
  0
INSERT
  5
4999
330
4993
100
AcDbEntity
  8
DIM
 62
     0
370
    -2
100
AcDbBlockReference
  2
_DOT
 10
282.5786518093131
 20
175.7826687017303
 30
0.0
 50
180.0
  0
INSERT
  5
499A
330
4993
100
AcDbEntity
  8
DIM
 62
     0
370
    -2
100
AcDbBlockReference
  2
_DOT
 10
319.378940761913
 20
175.7826687017303
 30
0.0
  0
MTEXT
  5
499B
330
4993
100
AcDbEntity
  8
DIM
 62
     0
 48
0.05
100
AcDbMText
 10
300.978795641313
 20
183.2826687017303
 30
0.0
 40
5.0
 41
0.0
 46
0.0
 71
     5
 72
     1
  1
\A1;\A1;37
  7
ＭＳ ゴシック
 73
     1
 44
1.0
  0
POINT
  5
499C
330
4993
100
AcDbEntity
  8
Defpoints
 62
     0
100
AcDbPoint
 10
282.5786518093131
 20
198.1270615156891
 30
0.0
  0
POINT
  5
499D
330
4993
100
AcDbEntity
  8
Defpoints
 62
     0
100
AcDbPoint
 10
319.378940761913
 20
197.3303294758499
 30
0.0
  0
POINT
  5
499E
330
4993
100
AcDbEntity
  8
Defpoints
 62
     0
100
AcDbPoint
 10
319.378940761913
 20
175.7826687017303
 30
0.0
  0
ENDBLK
  5
4995
330
4993
100
AcDbEntity
  8
0
100
AcDbBlockEnd
  0
BLOCK
  5
49A1
330
49A0
100
AcDbEntity
  8
0
100
AcDbBlockBegin
  2
*D9
 70
     1
 10
0.0
 20
0.0
 30
0.0
  3
*D9
  1
*D26
  0
LINE
  5
49A3
330
49A0
100
AcDbEntity
  8
DIM
 62
     0
370
    -2
100
AcDbLine
 10
282.5786518093131
 20
193.1270615156891
 30
0.0
 11
282.5786518093131
 21
157.8029937491033
 31
0.0
  0
LINE
  5
49A4
330
49A0
100
AcDbEntity
  8
DIM
 62
     0
370
    -2
100
AcDbLine
 10
351.4706770199131
 20
243.1976888173527
 30
0.0
 11
351.4706770199131
 21
157.8029937491033
 31
0.0
  0
LINE
  5
49A5
330
49A0
100
AcDbEntity
  8
DIM
 62
     0
370
    -2
100
AcDbLine
 10
283.5786518093131
 20
157.8029937491033
 30
0.0
 11
350.4706770199131
 21
157.8029937491033
 31
0.0
  0
INSERT
  5
49A6
330
49A0
100
AcDbEntity
  8
DIM
 62
     0
370
    -2
100
AcDbBlockReference
  2
_DOT
 10
282.5786518093131
 20
157.8029937491033
 30
0.0
 50
180.0
  0
INSERT
  5
49A7
330
49A0
100
AcDbEntity
  8
DIM
 62
     0
370
    -2
100
AcDbBlockReference
  2
_DOT
 10
351.4706770199131
 20
157.8029937491033
 30
0.0
  0
MTEXT
  5
49A8
330
49A0
100
AcDbEntity
  8
DIM
 62
     0
 48
0.05
100
AcDbMText
 10
317.024664038113
 20
165.3029937491033
 30
0.0
 40
5.0
 41
0.0
 46
0.0
 71
     5
 72
     1
  1
\A1;\A1;69
  7
ＭＳ ゴシック
 73
     1
 44
1.0
  0
POINT
  5
49A9
330
49A0
100
AcDbEntity
  8
Defpoints
 62
     0
100
AcDbPoint
 10
282.5786518093131
 20
198.1270615156891
 30
0.0
  0
POINT
  5
49AA
330
49A0
100
AcDbEntity
  8
Defpoints
 62
     0
100
AcDbPoint
 10
351.4706770199131
 20
248.1976888173527
 30
0.0
  0
POINT
  5
49AB
330
49A0
100
AcDbEntity
  8
Defpoints
 62
     0
100
AcDbPoint
 10
351.4706770199131
 20
157.8029937491033
 30
0.0
  0
ENDBLK
  5
49A2
330
49A0
100
AcDbEntity
  8
0
100
AcDbBlockEnd
  0
BLOCK
  5
49AE
330
49AD
100
AcDbEntity
  8
0
100
AcDbBlockBegin
  2
*D10
 70
     1
 10
0.0
 20
0.0
 30
0.0
  3
*D10
  1
*D27
  0
LINE
  5
49B0
330
49AD
100
AcDbEntity
  8
DIM
 62
     0
370
    -2
100
AcDbLine
 10
282.5786518093131
 20
185.6677429070799
 30
0.0
 11
282.5786518093131
 21
157.8029937491033
 31
0.0
  0
LINE
  5
49B1
330
49AD
100
AcDbEntity
  8
DIM
 62
     0
370
    -2
100
AcDbLine
 10
259.579071035913
 20
192.7893693796649
 30
0.0
 11
259.579071035913
 21
157.8029937491033
 31
0.0
  0
LINE
  5
49B2
330
49AD
100
AcDbEntity
  8
DIM
 62
     0
370
    -2
100
AcDbLine
 10
281.5786518093131
 20
157.8029937491033
 30
0.0
 11
260.579071035913
 21
157.8029937491033
 31
0.0
  0
INSERT
  5
49B3
330
49AD
100
AcDbEntity
  8
DIM
 62
     0
370
    -2
100
AcDbBlockReference
  2
_DOT
 10
282.5786518093131
 20
157.8029937491033
 30
0.0
  0
INSERT
  5
49B4
330
49AD
100
AcDbEntity
  8
DIM
 62
     0
370
    -2
100
AcDbBlockReference
  2
_DOT
 10
259.579071035913
 20
157.8029937491033
 30
0.0
 50
180.0
  0
MTEXT
  5
49B5
330
49AD
100
AcDbEntity
  8
DIM
 62
     0
 48
0.05
100
AcDbMText
 10
271.078861334713
 20
165.3029937491033
 30
0.0
 40
5.0
 41
0.0
 46
0.0
 71
     5
 72
     1
  1
\A1;\A1;23
  7
ＭＳ ゴシック
 73
     1
 44
1.0
  0
POINT
  5
49B6
330
49AD
100
AcDbEntity
  8
Defpoints
 62
     0
100
AcDbPoint
 10
282.5786518093131
 20
190.6677429070799
 30
0.0
  0
POINT
  5
49B7
330
49AD
100
AcDbEntity
  8
Defpoints
 62
     0
100
AcDbPoint
 10
259.579071035913
 20
197.7893693796649
 30
0.0
  0
POINT
  5
49B8
330
49AD
100
AcDbEntity
  8
Defpoints
 62
     0
100
AcDbPoint
 10
259.579071035913
 20
157.8029937491033
 30
0.0
  0
ENDBLK
  5
49AF
330
49AD
100
AcDbEntity
  8
0
100
AcDbBlockEnd
  0
BLOCK
  5
49BB
330
49BA
100
AcDbEntity
  8
0
100
AcDbBlockBegin
  2
*D11
 70
     1
 10
0.0
 20
0.0
 30
0.0
  3
*D11
  1
*D28
  0
LINE
  5
49BD
330
49BA
100
AcDbEntity
  8
DIM
 62
     0
370
    -2
100
AcDbLine
 10
356.4706770199131
 20
253.1099281762892
 30
0.0
 11
375.8366341330814
 21
253.1099281762892
 31
0.0
  0
LINE
  5
49BE
330
49BA
100
AcDbEntity
  8
DIM
 62
     0
370
    -2
100
AcDbLine
 10
333.658940761913
 20
218.4213292208891
 30
0.0
 11
375.8366341330814
 21
218.4213292208891
 31
0.0
  0
LINE
  5
49BF
330
49BA
100
AcDbEntity
  8
DIM
 62
     0
370
    -2
100
AcDbLine
 10
375.8366341330814
 20
252.1099281762892
 30
0.0
 11
375.8366341330814
 21
219.4213292208891
 31
0.0
  0
INSERT
  5
49C0
330
49BA
100
AcDbEntity
  8
DIM
 62
     0
370
    -2
100
AcDbBlockReference
  2
_DOT
 10
375.8366341330814
 20
253.1099281762892
 30
0.0
 50
90.0
  0
INSERT
  5
49C1
330
49BA
100
AcDbEntity
  8
DIM
 62
     0
370
    -2
100
AcDbBlockReference
  2
_DOT
 10
375.8366341330814
 20
218.4213292208891
 30
0.0
 50
270.0
  0
MTEXT
  5
49C2
330
49BA
100
AcDbEntity
  8
DIM
 62
     0
 48
0.05
100
AcDbMText
 10
368.3366341330814
 20
235.7656284724892
 30
0.0
 40
5.0
 41
0.0
 46
0.0
 71
     5
 72
     1
  1
\A1;\A1;35
  7
ＭＳ ゴシック
 11
0.0
 21
1.0
 31
0.0
 73
     1
 44
1.0
  0
POINT
  5
49C3
330
49BA
100
AcDbEntity
  8
Defpoints
 62
     0
100
AcDbPoint
 10
351.4706770199131
 20
253.1099281762892
 30
0.0
  0
POINT
  5
49C4
330
49BA
100
AcDbEntity
  8
Defpoints
 62
     0
100
AcDbPoint
 10
328.658940761913
 20
218.4213292208891
 30
0.0
  0
POINT
  5
49C5
330
49BA
100
AcDbEntity
  8
Defpoints
 62
     0
100
AcDbPoint
 10
375.8366341330814
 20
218.4213292208891
 30
0.0
  0
ENDBLK
  5
49BC
330
49BA
100
AcDbEntity
  8
0
100
AcDbBlockEnd
  0
ENDSEC
  0
SECTION
  2
ENTITIES
  0
MTEXT
  5
177
330
A
100
AcDbEntity
  8
TEMPLATE
390
1D
100
AcDbMText
 10
15.84042890954615
 20
68.74635032628565
 30
0.0
 40
3.257682291666665
 41
0.0
 46
0.0
 71
     1
 72
     1
  1
品名
  7
ＭＳ ゴシック
 73
     1
 44
0.7828267384257843
  0
MTEXT
  5
178
330
A
100
AcDbEntity
  8
TEMPLATE
390
1D
100
AcDbMText
 10
15.84042890954615
 20
51.7463503262856
 30
0.0
 40
3.257682291666665
 41
0.0
 46
0.0
 71
     1
 72
     1
  1
仕様
  7
ＭＳ ゴシック
 73
     1
 44
0.7828267384257843
  0
LINE
  5
179
330
A
100
AcDbEntity
  8
TEMPLATE
390
1D
100
AcDbLine
 10
404.4404289094496
 20
53.42933470128568
 30
0.0
 11
14.44042890944975
 21
53.42933470128568
 31
0.0
  0
LWPOLYLINE
  5
17A
330
A
100
AcDbEntity
  8
TEMPLATE
390
1D
100
AcDbPolyline
 90
        5
 70
   128
 43
0.0
 10
404.4404289094496
 20
579.4293347012853
 10
14.44042890944975
 20
579.4293347012853
 10
14.44042890944975
 20
19.42933470128565
 10
404.4404289094496
 20
19.42933470128565
 10
404.4404289094496
 20
579.4293347012853
  0
LINE
  5
17B
330
A
100
AcDbEntity
  8
TEMPLATE
390
1D
100
AcDbLine
 10
404.4404289094496
 20
70.42933470128564
 30
0.0
 11
14.44042890944975
 21
70.42933470128564
 31
0.0
  0
LINE
  5
17C
330
A
100
AcDbEntity
  8
TEMPLATE
390
1D
100
AcDbLine
 10
404.4404289095464
 20
36.42933470128565
 30
0.0
 11
253.840428909546
 21
36.42933470128565
 31
0.0
  0
MTEXT
  5
17E
330
A
100
AcDbEntity
  8
TEMPLATE
390
1D
100
AcDbMText
 10
259.8147101599982
 20
30.44725580662403
 30
0.0
 40
4.8865234375
 41
0.0
 46
0.0
 71
     1
 72
     1
  1
大洋金物株式会社 ティーフォルム事業部
  7
ＭＳ ゴシック
 73
     1
 44
0.7828267384257843
  0
MTEXT
  5
180
330
A
100
AcDbEntity
  8
TEMPLATE
390
1D
100
AcDbMText
 10
366.240428909598
 20
46.02985813878564
 30
0.0
 40
4.8865234375
 41
0.0
 46
4.8865234375
 71
     1
 72
     1
  1
{1:2}
  7
ＭＳ ゴシック
 73
     1
 44
0.7828267384257843
1001
ACAD
1000
ACAD_MTEXT_DEFINED_HEIGHT_BEGIN
1070
    46
1040
4.8865234375
1000
ACAD_MTEXT_DEFINED_HEIGHT_END
  0
MTEXT
  5
181
330
A
100
AcDbEntity
  8
TEMPLATE
390
1D
100
AcDbMText
 10
355.640428909598
 20
51.7463503262856
 30
0.0
 40
3.257682291666665
 41
0.0
 46
0.0
 71
     1
 72
     1
  1
縮尺
  7
ＭＳ ゴシック
 73
     1
 44
0.7828267384257843
  0
LINE
  5
182
330
A
100
AcDbEntity
  8
TEMPLATE
390
1D
100
AcDbLine
 10
354.240428909598
 20
36.42933470128565
 30
0.0
 11
354.240428909598
 21
53.42933470128568
 31
0.0
  0
MTEXT
  5
183
330
A
100
AcDbEntity
  8
TEMPLATE
390
1D
100
AcDbMText
 10
305.440428909598
 20
51.7463503262856
 30
0.0
 40
3.257682291666665
 41
0.0
 46
0.0
 71
     1
 72
     1
  1
容量
  7
ＭＳ ゴシック
 73
     1
 44
0.7828267384257843
  0
LINE
  5
184
330
A
100
AcDbEntity
  8
TEMPLATE
390
1D
100
AcDbLine
 10
304.040428909598
 20
36.42933470128565
 30
0.0
 11
304.040428909598
 21
53.42933470128568
 31
0.0
  0
MTEXT
  5
185
330
A
100
AcDbEntity
  8
TEMPLATE
390
1D
100
AcDbMText
 10
255.240428909598
 20
68.74635032628565
 30
0.0
 40
3.257682291666665
 41
0.0
 46
0.0
 71
     1
 72
     1
  1
品番
  7
ＭＳ ゴシック
 73
     1
 44
0.7828267384257843
  0
MTEXT
  5
186
330
A
100
AcDbEntity
  8
TEMPLATE
390
1D
100
AcDbMText
 10
255.240428909598
 20
51.7463503262856
 30
0.0
 40
3.257682291666665
 41
0.0
 46
0.0
 71
     1
 72
     1
  1
重量
  7
ＭＳ ゴシック
 73
     1
 44
0.7828267384257843
  0
MTEXT
  5
187
330
A
100
AcDbEntity
  8
TEMPLATE
390
1D
100
AcDbMText
 10
265.840428909598
 20
63.02985813878564
 30
0.0
 40
4.8865234375
 41
0.0
 46
4.8865234375
 71
     1
 72
     1
  1
{FHT73-1152}
  7
ＭＳ ゴシック
 73
     1
 44
0.7828267384257843
1001
ACAD
1000
ACAD_MTEXT_DEFINED_HEIGHT_BEGIN
1070
    46
1040
4.8865234375
1000
ACAD_MTEXT_DEFINED_HEIGHT_END
  0
LINE
  5
188
330
A
100
AcDbEntity
  8
TEMPLATE
390
1D
100
AcDbLine
 10
253.840428909598
 20
19.42933470128565
 30
0.0
 11
253.840428909598
 21
70.42933470128564
 31
0.0
  0
MTEXT
  5
189
330
A
100
AcDbEntity
  8
TEMPLATE
390
1D
100
AcDbMText
 10
26.44042890954615
 20
63.02985813878564
 30
0.0
 40
4.8865234375
 41
0.0
 46
5.5071119140625
 71
     1
 72
     1
  1
{シャワーニップル　-GROHE,Grandera-}
  7
ＭＳ ゴシック
 73
     1
 44
0.7828267384257843
1001
ACAD
1000
ACAD_MTEXT_DEFINED_HEIGHT_BEGIN
1070
    46
1040
5.5071119140625
1000
ACAD_MTEXT_DEFINED_HEIGHT_END
  0
INSERT
  5
6B5
330
A
100
AcDbEntity
  8
TEMPLATE
100
AcDbBlockReference
  2
名称未設定-1
 10
374.15014961769
 20
5.189353151330764
 30
0.0
 41
0.1524
 42
0.1524
 43
0.1524
  0
INSERT
  5
68C
330
A
100
AcDbEntity
  8
TEMPLATE
100
AcDbBlockReference
  2
block 2
 10
919.2743017702577
 20
8.373076514336368
 30
0.0
 41
0.3809999999999999
 42
0.3809999999999999
 43
0.3809999999999999
  0
LWPOLYLINE
  5
D69
330
A
100
AcDbEntity
  8
BORDER
 48
0.025
100
AcDbPolyline
 90
        4
 70
     1
 43
0.0
 10
0.0
 20
0.0
 10
0.0
 20
594.0
 10
420.0
 20
594.0
 10
420.0
 20
0.0
  0
INSERT
  5
1343
330
A
100
AcDbEntity
  8
TEMPLATE
100
AcDbBlockReference
  2
block 2
 10
2096.743470866468
 20
24.43532141229569
 30
0.0
 41
0.3809999999999999
 42
0.3809999999999999
 43
0.3809999999999999
  0
POINT
  5
3697
330
A
100
AcDbEntity
  8
Layer50
  6
HIDDEN2
 62
     7
100
AcDbPoint
 10
396.8678405503807
 20
449.3605456225488
 30
0.0
  0
POINT
  5
36AA
330
A
100
AcDbEntity
  8
Layer50
  6
HIDDEN2
 62
     7
100
AcDbPoint
 10
396.8678405503807
 20
469.8605456225488
 30
0.0
  0
POINT
  5
36B6
330
A
100
AcDbEntity
  8
Layer50
  6
HIDDEN2
 62
     7
100
AcDbPoint
 10
405.6628405503807
 20
460.6105456225488
 30
0.0
  0
POINT
  5
36BC
330
A
100
AcDbEntity
  8
Layer50
  6
HIDDEN2
 62
     7
100
AcDbPoint
 10
403.6628405503807
 20
460.6105456225488
 30
0.0
  0
MTEXT
  5
39F2
330
A
100
AcDbEntity
  8
TEMPLATE
390
1D
100
AcDbMText
 10
265.840428909598
 20
78.82838002737984
 30
0.0
 40
4.8865234375
 41
0.0
 46
5.4582466796875
 71
     1
 72
     1
  1
{FHT73-1152-004 (クローム/ゴールド)}
  7
ＭＳ ゴシック
 73
     1
 44
0.7828267384257843
1001
ACAD
1000
ACAD_MTEXT_DEFINED_HEIGHT_BEGIN
1070
    46
1040
5.4582466796875
1000
ACAD_MTEXT_DEFINED_HEIGHT_END
  0
MTEXT
  5
39F3
330
A
100
AcDbEntity
  8
TEMPLATE
390
1D
100
AcDbMText
 10
265.840428909598
 20
86.72764097167692
 30
0.0
 40
4.8865234375
 41
0.0
 46
5.4582466796875
 71
     1
 72
     1
  1
{FHT73-1152-001 (クローム)}
  7
ＭＳ ゴシック
 73
     1
 44
0.7828267384257843
1001
ACAD
1000
ACAD_MTEXT_DEFINED_HEIGHT_BEGIN
1070
    46
1040
5.4582466796875
1000
ACAD_MTEXT_DEFINED_HEIGHT_END
  0
MTEXT
  5
4530
102
{ACAD_XDICTIONARY
360
4532
102
}
330
A
100
AcDbEntity
  8
MODEL
 48
0.05
100
AcDbMText
 10
14.6329326238789
 20
17.30781899803597
 30
0.0
 40
4.0
 41
0.0
 46
4.0
 71
     1
 72
     1
  1
{20160726N}
  7
ＭＳ ゴシック
 73
     1
 44
1.0
1001
ACAD
1000
ACAD_MTEXT_DEFINED_HEIGHT_BEGIN
1070
    46
1040
4.0
1000
ACAD_MTEXT_DEFINED_HEIGHT_END
  0
ARC
  5
489F
330
A
100
AcDbEntity
  8
MODEL
100
AcDbCircle
 10
117.7436557393962
 20
310.2471051721546
 30
0.0
 40
91.83839368338452
100
AcDbArc
 50
269.9414314437
 51
270.2430102470999
  0
ARC
  5
48A0
330
A
100
AcDbEntity
  8
MODEL
100
AcDbCircle
 10
175.2370048213961
 20
253.1086191487547
 30
0.0
 40
92.5935366761027
100
AcDbArc
 50
161.3030877911999
 51
198.6969178697
  0
LINE
  5
48A1
330
A
100
AcDbEntity
  8
MODEL
100
AcDbLine
 10
87.52985840999622
 20
223.4266464617547
 30
0.0
 11
87.56090071859626
 21
223.3356898679547
 31
0.0
  0
LINE
  5
48A2
330
A
100
AcDbEntity
  8
MODEL
100
AcDbLine
 10
87.56090071859626
 20
223.3356898679547
 30
0.0
 11
87.5939559787962
 21
223.2391836343547
 31
0.0
  0
LINE
  5
48A3
330
A
100
AcDbEntity
  8
MODEL
100
AcDbLine
 10
87.59395459979623
 20
282.9780430179547
 30
0.0
 11
87.56089908259628
 21
282.8815399311547
 31
0.0
  0
LINE
  5
48A4
330
A
100
AcDbEntity
  8
MODEL
100
AcDbLine
 10
87.56089908259628
 20
282.8815399311547
 30
0.0
 11
87.52985547739627
 21
282.7905831699547
 31
0.0
  0
ARC
  5
48A5
330
A
100
AcDbEntity
  8
MODEL
100
AcDbCircle
 10
117.6497731965962
 20
195.5213749757547
 30
0.0
 40
92.59353664729969
100
AcDbArc
 50
71.30308792039996
 51
108.6969174987001
  0
LINE
  5
48A6
330
A
100
AcDbEntity
  8
MODEL
100
AcDbLine
 10
87.96780108699613
 20
283.2285215519547
 30
0.0
 11
87.87684411899613
 21
283.1974791161547
 31
0.0
  0
SPLINE
  5
48A7
330
A
100
AcDbEntity
  8
MODEL
100
AcDbSpline
210
0.0
220
0.0
230
1.0
 70
    12
 71
     3
 72
     8
 73
     4
 74
     0
 42
0.000000001
 43
0.0000000001
 40
0.0
 40
0.0
 40
0.0
 40
0.0
 40
1.0
 40
1.0
 40
1.0
 40
1.0
 10
87.84364035350116
 20
283.1861208121065
 30
0.0
 41
0.9604649440689637
 10
87.80229090612971
 20
283.1719678008191
 30
0.0
 41
0.9229236317360312
 10
87.78033768366905
 20
283.16442378703
 30
0.0
 41
0.9361019837130433
 10
87.78033768366913
 20
283.1644237870301
 30
0.0
 41
1.0
  0
SPLINE
  5
48A8
330
A
100
AcDbEntity
  8
MODEL
100
AcDbSpline
210
0.0
220
0.0
230
1.0
 70
    12
 71
     3
 72
     8
 73
     4
 74
     0
 42
0.000000001
 43
0.0000000001
 40
0.0
 40
0.0
 40
0.0
 40
0.0
 40
1.0
 40
1.0
 40
1.0
 40
1.0
 10
147.5191970672322
 20
283.1644251660023
 30
0.0
 41
1.0
 10
147.5191970672335
 20
283.1644251660018
 30
0.0
 41
0.936152525774857
 10
147.4972831812439
 20
283.1719559669849
 30
0.0
 41
0.9229405321418681
 10
147.4560000405443
 20
283.1860869058992
 30
0.0
 41
0.9603640191010333
  0
LINE
  5
48A9
330
A
100
AcDbEntity
  8
MODEL
100
AcDbLine
 10
147.4226940435963
 20
283.1974806615547
 30
0.0
 11
147.3317370109962
 21
283.2285243593547
 31
0.0
  0
ARC
  5
48AA
330
A
100
AcDbEntity
  8
MODEL
100
AcDbCircle
 10
114.1651332437962
 20
299.9238275715547
 30
0.0
 40
81.2730723019695
100
AcDbArc
 50
251.0560057661
 51
251.1031028784999
  0
LINE
  5
48AB
330
A
100
AcDbEntity
  8
MODEL
100
AcDbLine
 10
87.87683980619613
 20
223.0197450431547
 30
0.0
 11
87.96779715339608
 21
222.9887012383547
 31
0.0
  0
ARC
  5
48AC
330
A
100
AcDbEntity
  8
MODEL
100
AcDbCircle
 10
117.6497606171961
 20
310.6958507517547
 30
0.0
 40
92.59353665820151
100
AcDbArc
 50
251.3030881515
 51
264.1318869388999
  0
ARC
  5
48AD
330
A
100
AcDbEntity
  8
MODEL
100
AcDbCircle
 10
117.6497606171961
 20
310.6958507517547
 30
0.0
 40
92.59353665820151
100
AcDbArc
 50
265.4336187822001
 51
274.5647976164001
  0
ARC
  5
48AE
330
A
100
AcDbEntity
  8
MODEL
100
AcDbCircle
 10
117.6497606171961
 20
310.6958507517547
 30
0.0
 40
92.59353665820151
100
AcDbArc
 50
275.8701534325
 51
288.6969174703001
  0
LINE
  5
48AF
330
A
100
AcDbEntity
  8
MODEL
100
AcDbLine
 10
147.3317326867962
 20
222.9887041505547
 30
0.0
 11
147.4226896933963
 21
223.0197465993547
 31
0.0
  0
ARC
  5
48B0
330
A
100
AcDbEntity
  8
MODEL
100
AcDbCircle
 10
121.1328463989962
 20
299.9314639361547
 30
0.0
 40
81.28079800372598
100
AcDbArc
 50
288.8713741847
 51
288.9432825951002
  0
SPLINE
  5
48B1
330
A
100
AcDbEntity
  8
MODEL
100
AcDbSpline
210
0.0
220
0.0
230
1.0
 70
    12
 71
     3
 72
     8
 73
     4
 74
     0
 42
0.000000001
 43
0.0000000001
 40
0.0
 40
0.0
 40
0.0
 40
0.0
 40
1.0
 40
1.0
 40
1.0
 40
1.0
 10
147.7272763157876
 20
223.3024830306
 30
0.0
 41
0.960461124077329
 10
147.7131232804638
 20
223.261135182257
 30
0.0
 41
0.9229169094859129
 10
147.7055792152231
 20
223.2391826985061
 30
0.0
 41
0.9360965347934699
 10
147.705579215223
 20
223.2391826985061
 30
0.0
 41
1.0
  0
LINE
  5
48B2
330
A
100
AcDbEntity
  8
MODEL
100
AcDbLine
 10
147.7696782887961
 20
223.4266423807547
 30
0.0
 11
147.7386347221961
 21
223.3356857557547
 31
0.0
  0
ARC
  5
48B3
330
A
100
AcDbEntity
  8
MODEL
100
AcDbCircle
 10
60.01924681639616
 20
253.1086065465547
 30
0.0
 40
92.6345357861842
100
AcDbArc
 50
341.3116693463
 51
18.68833566209996
  0
LINE
  5
48B4
330
A
100
AcDbEntity
  8
MODEL
100
AcDbLine
 10
147.7386331467962
 20
282.8815357009547
 30
0.0
 11
147.7696756941962
 21
282.7905783827547
 31
0.0
  0
SPLINE
  5
48B5
330
A
100
AcDbEntity
  8
MODEL
100
AcDbSpline
210
0.0
220
0.0
230
1.0
 70
    12
 71
     3
 72
     8
 73
     4
 74
     0
 42
0.000000001
 43
0.0000000001
 40
0.0
 40
0.0
 40
0.0
 40
0.0
 40
1.0
 40
1.0
 40
1.0
 40
1.0
 10
147.7055778362521
 20
282.9780420820713
 30
0.0
 41
1.0
 10
147.7055778362522
 20
282.9780420820711
 30
0.0
 41
0.919500182423951
 10
147.7175960019598
 20
282.9430689932107
 30
0.0
 41
0.919500182423951
 10
147.7386331468842
 20
282.8815357010331
 30
0.0
 41
1.0
  0
ARC
  5
48B6
330
A
100
AcDbEntity
  8
MODEL
100
AcDbCircle
 10
87.87761139099621
 20
223.3364930031547
 30
0.0
 40
0.2998824873188714
100
AcDbArc
 50
198.9347807457972
 51
225.0048115493296
  0
ARC
  5
48B7
330
A
100
AcDbEntity
  8
MODEL
100
AcDbCircle
 10
87.87764996459623
 20
223.3364549317547
 30
0.0
 40
0.2998827607130068
100
AcDbArc
 50
224.9944568010582
 51
251.064459897789
  0
ARC
  5
48B8
330
A
100
AcDbEntity
  8
MODEL
100
AcDbCircle
 10
87.87764932739628
 20
223.3364534561547
 30
0.0
 40
0.2998811581000018
100
AcDbArc
 50
224.9943428742913
 51
251.06448356656
  0
ARC
  5
48B9
330
A
100
AcDbEntity
  8
MODEL
100
AcDbCircle
 10
87.87760782019632
 20
223.3364885305547
 30
0.0
 40
0.2998766090897512
100
AcDbArc
 50
198.9341938377919
 51
220.1421415681707
  0
ARC
  5
48BA
330
A
100
AcDbEntity
  8
MODEL
100
AcDbCircle
 10
147.4218867625962
 20
223.3364573417547
 30
0.0
 40
0.2998824873324392
100
AcDbArc
 50
288.9347807461825
 51
315.0048115483157
  0
ARC
  5
48BB
330
A
100
AcDbEntity
  8
MODEL
100
AcDbCircle
 10
147.4219248339962
 20
223.3364959153547
 30
0.0
 40
0.2998827607048158
100
AcDbArc
 50
314.994456800125
 51
341.0644598977976
  0
ARC
  5
48BC
330
A
100
AcDbEntity
  8
MODEL
100
AcDbCircle
 10
147.4219263095961
 20
223.3364952781547
 30
0.0
 40
0.2998811580890882
100
AcDbArc
 50
314.9943428736345
 51
341.0644835666088
  0
ARC
  5
48BD
330
A
100
AcDbEntity
  8
MODEL
100
AcDbCircle
 10
147.4218844875961
 20
282.8807722603547
 30
0.0
 40
0.2998811580597072
100
AcDbArc
 50
44.99434287420992
 51
71.06448356851055
  0
ARC
  5
48BE
330
A
100
AcDbEntity
  8
MODEL
100
AcDbCircle
 10
147.4219224237961
 20
282.8807327133547
 30
0.0
 40
0.2998824053597438
100
AcDbArc
 50
18.934780745811
 51
45.00481154850976
  0
ARC
  5
48BF
330
A
100
AcDbEntity
  8
MODEL
100
AcDbCircle
 10
147.4218838503962
 20
282.8807707847547
 30
0.0
 40
0.299882760708429
100
AcDbArc
 50
44.9944568003747
 51
71.06445989831549
  0
ARC
  5
48C0
330
A
100
AcDbEntity
  8
MODEL
100
AcDbCircle
 10
87.87764705239624
 20
282.8807683747547
 30
0.0
 40
0.2998824873197206
100
AcDbArc
 50
108.9347807455013
 51
135.0048115487249
  0
ARC
  5
48C1
330
A
100
AcDbEntity
  8
MODEL
100
AcDbCircle
 10
87.87760898099623
 20
282.8807298011547
 30
0.0
 40
0.299882760708947
100
AcDbArc
 50
134.994456800511
 51
161.0644598980047
  0
ARC
  5
48C2
330
A
100
AcDbEntity
  8
MODEL
100
AcDbCircle
 10
87.8776425797962
 20
282.8807719455547
 30
0.0
 40
0.2998766090806814
100
AcDbArc
 50
108.9341938367096
 51
135.0046892092192
  0
SPLINE
  5
48C3
330
A
100
AcDbEntity
  8
MODEL
100
AcDbSpline
210
0.0
220
0.0
230
1.0
 70
     8
 71
     7
 72
    16
 73
     8
 74
     0
 42
0.000000001
 43
0.0000000001
 40
0.0
 40
0.0
 40
0.0
 40
0.0
 40
0.0
 40
0.0
 40
0.0
 40
0.0
 40
0.9999999999999999
 40
0.9999999999999999
 40
0.9999999999999999
 40
0.9999999999999999
 40
0.9999999999999999
 40
0.9999999999999999
 40
0.9999999999999999
 40
0.9999999999999999
 10
87.87683980625911
 20
223.0197450430579
 30
0.0
 10
87.8724895196176
 20
223.0212323891183
 30
0.0
 10
87.86816463394439
 20
223.0228631009541
 30
0.0
 10
87.8638518746011
 20
223.0246555759463
 30
0.0
 10
87.8595412809268
 20
223.0266289753575
 30
0.0
 10
87.85522549821826
 20
223.0288025615243
 30
0.0
 10
87.85089884660715
 20
223.0311948001067
 30
0.0
 10
87.84655653803475
 20
223.0338226065561
 30
0.0
  0
SPLINE
  5
48C4
330
A
100
AcDbEntity
  8
MODEL
100
AcDbSpline
210
0.0
220
0.0
230
1.0
 70
     8
 71
     7
 72
    16
 73
     8
 74
     0
 42
0.000000001
 43
0.0000000001
 40
0.0
 40
0.0
 40
0.0
 40
0.0
 40
0.0
 40
0.0
 40
0.0
 40
0.0
 40
1.0
 40
1.0
 40
1.0
 40
1.0
 40
1.0
 40
1.0
 40
1.0
 40
1.0
 10
87.87684411891041
 20
283.1974791161933
 30
0.0
 10
87.87249227687607
 20
283.1959912983287
 30
0.0
 10
87.86816585294991
 20
283.1943600244259
 30
0.0
 10
87.86385155947664
 20
283.1925668803657
 30
0.0
 10
87.85953942705441
 20
283.1905926871187
 30
0.0
 10
87.85522209538112
 20
283.1884181645951
 30
0.0
 10
87.85089388060874
 20
283.1860248308335
 30
0.0
 10
87.84654999118925
 20
283.1833957565931
 30
0.0
  0
SPLINE
  5
48C5
330
A
100
AcDbEntity
  8
MODEL
100
AcDbSpline
210
0.0
220
0.0
230
1.0
 70
     8
 71
     7
 72
    16
 73
     8
 74
     0
 42
0.000000001
 43
0.0000000001
 40
0.0
 40
0.0
 40
0.0
 40
0.0
 40
0.0
 40
0.0
 40
0.0
 40
0.0
 40
0.9999999999999999
 40
0.9999999999999999
 40
0.9999999999999999
 40
0.9999999999999999
 40
0.9999999999999999
 40
0.9999999999999999
 40
0.9999999999999999
 40
0.9999999999999999
 10
147.4546365184506
 20
283.1823847929533
 30
0.0
 10
147.450051696751
 20
283.1852380587039
 30
0.0
 10
147.4454857113619
 20
283.1878242747211
 30
0.0
 10
147.4409331589986
 20
283.1901628662861
 30
0.0
 10
147.4363876902248
 20
283.1922753267235
 30
0.0
 10
147.4318410107473
 20
283.1941842566395
 30
0.0
 10
147.4272816511732
 20
283.1959121763653
 30
0.0
 10
147.422694043614
 20
283.1974806615255
 30
0.0
  0
SPLINE
  5
48C6
330
A
100
AcDbEntity
  8
MODEL
100
AcDbSpline
210
0.0
220
0.0
230
1.0
 70
     8
 71
     7
 72
    16
 73
     8
 74
     0
 42
0.000000001
 43
0.0000000001
 40
0.0
 40
0.0
 40
0.0
 40
0.0
 40
0.0
 40
0.0
 40
0.0
 40
0.0
 40
0.9999999999999999
 40
0.9999999999999999
 40
0.9999999999999999
 40
0.9999999999999999
 40
0.9999999999999999
 40
0.9999999999999999
 40
0.9999999999999999
 40
0.9999999999999999
 10
147.7235344325013
 20
223.3037361809417
 30
0.0
 10
147.7263886843032
 20
223.3083220419335
 30
0.0
 10
147.7289757468557
 20
223.3128890523349
 30
0.0
 10
147.7313150564419
 20
223.3174426181659
 30
0.0
 10
147.7334281198441
 20
223.3219890917665
 30
0.0
 10
147.7353375526181
 20
223.3265367715039
 30
0.0
 10
147.7370658901461
 20
223.3310971334425
 30
0.0
 10
147.7386347222468
 20
223.3356857557613
 30
0.0
  0
ARC
  5
48C7
330
A
100
AcDbEntity
  8
MODEL
100
AcDbCircle
 10
117.5562325933961
 20
310.2494903199547
 30
0.0
 40
91.8407784891431
100
AcDbArc
 50
269.7554647438
 51
270.0583587712001
  0
SPLINE
  5
48C8
330
A
100
AcDbEntity
  8
MODEL
100
AcDbSpline
210
0.0
220
0.0
230
1.0
 70
     8
 71
     3
 72
     8
 73
     4
 74
     0
 42
0.000000001
 43
0.0000000001
 40
0.0
 40
0.0
 40
0.0
 40
0.0
 40
1.0
 40
1.0
 40
1.0
 40
1.0
 10
87.83482867367024
 20
223.0341201290447
 30
0.0
 10
87.8360473469304
 20
223.033355235726
 30
0.0
 10
87.83888958275566
 20
223.0340407500071
 30
0.0
 10
87.84335538114578
 20
223.0361766718877
 30
0.0
  0
SPLINE
  5
48C9
330
A
100
AcDbEntity
  8
MODEL
100
AcDbSpline
210
0.0
220
0.0
230
1.0
 70
     8
 71
     3
 72
     8
 73
     4
 74
     0
 42
0.000000001
 43
0.0000000001
 40
0.0
 40
0.0
 40
0.0
 40
0.0
 40
1.0
 40
1.0
 40
1.0
 40
1.0
 10
87.84335558511975
 20
283.1810457410629
 30
0.0
 10
87.83885921875981
 20
283.1831717250391
 30
0.0
 10
87.83599305260282
 20
283.1838493512221
 30
0.0
 10
87.83475708664878
 20
283.1830786196115
 30
0.0
  0
SPLINE
  5
48CA
330
A
100
AcDbEntity
  8
MODEL
100
AcDbSpline
210
0.0
220
0.0
230
1.0
 70
     8
 71
     3
 72
     8
 73
     4
 74
     0
 42
0.000000001
 43
0.0000000001
 40
0.0
 40
0.0
 40
0.0
 40
0.0
 40
1.0
 40
1.0
 40
1.0
 40
1.0
 10
147.464705183025
 20
283.1831055731835
 30
0.0
 10
147.4634865051621
 20
283.1838704681003
 30
0.0
 10
147.4606442590875
 20
283.1831849586703
 30
0.0
 10
147.4561784448008
 20
283.1810490448937
 30
0.0
  0
ARC
  5
48CB
330
A
100
AcDbEntity
  8
MODEL
100
AcDbCircle
 10
-322.8679567268039
 20
-230.9752204712453
 30
0.0
 40
653.8061962351786
100
AcDbArc
 50
44.32940360780001
 51
45.8626469949
  0
ARC
  5
48CC
330
A
100
AcDbEntity
  8
MODEL
100
AcDbCircle
 10
-557.4815068184039
 20
884.1744008363548
 30
0.0
 40
923.6517605879116
100
AcDbArc
 50
314.5474356865
 51
315.6315611499
  0
ARC
  5
48CD
330
A
100
AcDbEntity
  8
MODEL
100
AcDbCircle
 10
117.6511058483961
 20
282.2044470807547
 30
0.0
 40
46.37872926712416
100
AcDbArc
 50
251.2985759831
 51
288.5818882803
  0
ARC
  5
48CE
330
A
100
AcDbEntity
  8
MODEL
100
AcDbCircle
 10
146.8149450791961
 20
253.1086401995547
 30
0.0
 40
46.44323350712084
100
AcDbArc
 50
161.3221582646
 51
198.6031233447999
  0
ARC
  5
48CF
330
A
100
AcDbEntity
  8
MODEL
100
AcDbCircle
 10
117.6511569081963
 20
223.9449414523547
 30
0.0
 40
46.44310065713332
100
AcDbArc
 50
71.3226134234003
 51
108.5998961441003
  0
ARC
  5
48D0
330
A
100
AcDbEntity
  8
MODEL
100
AcDbCircle
 10
88.4874439939963
 20
253.1086338221547
 30
0.0
 40
46.4431147141558
100
AcDbArc
 50
341.2782853216999
 51
18.60039934620005
  0
ARC
  5
48D1
330
A
100
AcDbEntity
  8
MODEL
100
AcDbCircle
 10
860.5260830903964
 20
-445.5208496214453
 30
0.0
 40
1019.321574627707
100
AcDbArc
 50
134.5970127272
 51
135.5794378636
  0
SPLINE
  5
48D2
330
A
100
AcDbEntity
  8
MODEL
100
AcDbSpline
210
0.0
220
0.0
230
1.0
 70
     8
 71
     3
 72
    26
 73
    22
 74
     0
 42
0.000000001
 43
0.0000000001
 40
0.0
 40
0.0
 40
0.0
 40
0.0
 40
0.0583239051538873
 40
0.0583239051538873
 40
0.1686000975487969
 40
0.1686000975487969
 40
0.2788762899437064
 40
0.2788762899437064
 40
0.3891524823386159
 40
0.3891524823386159
 40
0.4994286747335254
 40
0.4994286747335254
 40
0.6097048671284349
 40
0.6097048671284349
 40
0.7199810595233442
 40
0.7199810595233442
 40
0.8302572519182537
 40
0.8302572519182537
 40
0.940533444313163
 40
0.940533444313163
 40
1.0
 40
1.0
 40
1.0
 40
1.0
 10
126.6651486086871
 20
232.7483775726905
 30
0.0
 10
126.8054196570627
 20
232.9358341010749
 30
0.0
 10
126.8849885733646
 20
233.1115169137335
 30
0.0
 10
126.9251798241573
 20
233.5620955814393
 30
0.0
 10
126.7176313963682
 20
233.7872839818395
 30
0.0
 10
125.8274586428788
 20
234.0723843237595
 30
0.0
 10
125.1524331514292
 20
234.1321474395687
 30
0.0
 10
123.4251639609658
 20
234.1599882946147
 30
0.0
 10
122.387326715972
 20
234.1308766491451
 30
0.0
 10
120.1211333628767
 20
234.0779809832149
 30
0.0
 10
118.8819606568909
 20
234.0553424271543
 30
0.0
 10
116.4269956913822
 20
234.0552677931257
 30
0.0
 10
115.1872652934885
 20
234.0778416907379
 30
0.0
 10
112.9216837102081
 20
234.1306925409329
 30
0.0
 10
111.8824514288251
 20
234.1598159976706
 30
0.0
 10
110.1579026564063
 20
234.1325034887207
 30
0.0
 10
109.4820991342672
 20
234.0737760667917
 30
0.0
 10
108.58538404205
 20
233.7884359251957
 30
0.0
 10
108.3774755475547
 20
233.5635393492761
 30
0.0
 10
108.41720658585
 20
233.1092353236623
 30
0.0
 10
108.4998837109943
 20
232.9293667881963
 30
0.0
 10
108.645739131061
 20
232.7374225472471
 30
0.0
  0
ARC
  5
48D3
330
A
100
AcDbEntity
  8
MODEL
100
AcDbCircle
 10
144.4131162551962
 20
226.2866603573547
 30
0.0
 40
0.567512703073384
100
AcDbArc
 50
305.8563622300917
 51
319.1652160840987
  0
LINE
  5
48D4
330
A
100
AcDbEntity
  8
MODEL
100
AcDbLine
 10
144.5192750657961
 20
225.7282158799547
 30
0.0
 11
144.7454884301962
 21
225.8266606929547
 31
0.0
  0
ARC
  5
48D5
330
A
100
AcDbEntity
  8
MODEL
100
AcDbCircle
 10
117.6511343319962
 20
305.1063895961547
 30
0.0
 40
83.8020965712376
100
AcDbArc
 50
251.2999261868
 51
262.8146652031
  0
ARC
  5
48D6
330
A
100
AcDbEntity
  8
MODEL
100
AcDbCircle
 10
117.6511343319962
 20
305.1063895961547
 30
0.0
 40
83.8020965712376
100
AcDbArc
 50
277.1840289254
 51
288.7000720501998
  0
LINE
  5
48D7
330
A
100
AcDbEntity
  8
MODEL
100
AcDbLine
 10
90.55677475779612
 20
225.8266630291547
 30
0.0
 11
90.78299115679624
 21
225.7282167093547
 31
0.0
  0
ARC
  5
48D8
330
A
100
AcDbEntity
  8
MODEL
100
AcDbCircle
 10
90.88912782019611
 20
226.2866296477547
 30
0.0
 40
0.5674747241087607
100
AcDbArc
 50
220.833557741017
 51
234.1432464557983
  0
LINE
  5
48D9
330
A
100
AcDbEntity
  8
MODEL
100
AcDbLine
 10
144.8424953887961
 20
225.9155750925547
 30
0.0
 11
144.9293651531962
 21
226.0282100297547
 31
0.0
  0
LINE
  5
48DA
330
A
100
AcDbEntity
  8
MODEL
100
AcDbLine
 10
90.37290837879618
 20
226.0282024387546
 30
0.0
 11
90.45976948039606
 21
225.9155784053547
 31
0.0
  0
LINE
  5
48DB
330
A
100
AcDbEntity
  8
MODEL
100
AcDbLine
 10
144.9293563673962
 20
226.0281971651547
 30
0.0
 11
145.0315281525961
 21
226.2404628329547
 31
0.0
  0
ARC
  5
48DC
330
A
100
AcDbEntity
  8
MODEL
100
AcDbCircle
 10
65.65335790239624
 20
253.1086128935547
 30
0.0
 40
83.8020962823884
100
AcDbArc
 50
341.2999211497998
 51
18.7000759397
  0
ARC
  5
48DD
330
A
100
AcDbEntity
  8
MODEL
100
AcDbCircle
 10
117.6511343241962
 20
201.1108361693547
 30
0.0
 40
83.80209657123608
100
AcDbArc
 50
71.29992618680001
 51
108.7000720502
  0
ARC
  5
48DE
330
A
100
AcDbEntity
  8
MODEL
100
AcDbCircle
 10
169.6489107539962
 20
253.1086128719547
 30
0.0
 40
83.80209628240874
100
AcDbArc
 50
161.2999211498001
 51
198.7000759396999
  0
LINE
  5
48DF
330
A
100
AcDbEntity
  8
MODEL
100
AcDbLine
 10
90.2707391361962
 20
226.2404668427547
 30
0.0
 11
90.37291716659615
 21
226.0281895717547
 31
0.0
  0
LINE
  5
48E0
330
A
100
AcDbEntity
  8
MODEL
100
AcDbLine
 10
90.37291228879621
 20
280.1890286003547
 30
0.0
 11
90.27074050359624
 21
279.9767629325547
 31
0.0
  0
LINE
  5
48E1
330
A
100
AcDbEntity
  8
MODEL
100
AcDbLine
 10
90.45977326739626
 20
280.3016506729547
 30
0.0
 11
90.37290350299622
 21
280.1890157357547
 31
0.0
  0
ARC
  5
48E2
330
A
100
AcDbEntity
  8
MODEL
100
AcDbCircle
 10
144.4730768375962
 20
279.8705839251547
 30
0.0
 40
0.5675269917344894
100
AcDbArc
 50
35.85699075197589
 51
49.16551566741408
  0
ARC
  5
48E3
330
A
100
AcDbEntity
  8
MODEL
100
AcDbCircle
 10
143.7375325539961
 20
279.5481481033547
 30
0.0
 40
1.363134397350322
100
AcDbArc
 50
18.32642771409945
 51
28.71017123079621
  0
ARC
  5
48E4
330
A
100
AcDbEntity
  8
MODEL
100
AcDbCircle
 10
144.1452493877962
 20
279.4403600375547
 30
0.0
 40
1.113356093354688
100
AcDbArc
 50
58.22378085399738
 51
70.36989404990327
  0
LINE
  5
48E5
330
A
100
AcDbEntity
  8
MODEL
100
AcDbLine
 10
90.7829935905961
 20
280.4890098855547
 30
0.0
 11
90.55678022599614
 21
280.3905650725547
 31
0.0
  0
ARC
  5
48E6
330
A
100
AcDbEntity
  8
MODEL
100
AcDbCircle
 10
90.88915185139626
 20
279.9305660077547
 30
0.0
 40
0.5675118952460801
100
AcDbArc
 50
125.8563527176114
 51
139.1652256030044
  0
LINE
  5
48E7
330
A
100
AcDbEntity
  8
MODEL
100
AcDbLine
 10
144.8441692001961
 20
280.2999758097547
 30
0.0
 11
144.7315331827963
 21
280.3868454565547
 31
0.0
  0
LINE
  5
48E8
330
A
100
AcDbEntity
  8
MODEL
100
AcDbLine
 10
126.6511343281961
 20
227.3199643757547
 30
0.0
 11
108.6511343281961
 21
227.3199643757547
 31
0.0
  0
LINE
  5
48E9
330
A
100
AcDbEntity
  8
MODEL
100
AcDbLine
 10
107.1711343281961
 20
225.8399643757547
 30
0.0
 11
128.1311343281961
 21
225.8399643757547
 31
0.0
  0
LINE
  5
48EA
330
A
100
AcDbEntity
  8
MODEL
100
AcDbLine
 10
108.3711343281961
 20
218.4199643755547
 30
0.0
 11
126.9311343281961
 21
218.4199643755547
 31
0.0
  0
LINE
  5
48EB
330
A
100
AcDbEntity
  8
MODEL
100
AcDbLine
 10
107.1711343281961
 20
219.6199643757546
 30
0.0
 11
128.1311343281961
 21
219.6199643757546
 31
0.0
  0
LINE
  5
48EC
330
A
100
AcDbEntity
  8
MODEL
100
AcDbLine
 10
107.1711343281961
 20
225.8399643757547
 30
0.0
 11
107.1711343281961
 21
219.6199643757546
 31
0.0
  0
LINE
  5
48ED
330
A
100
AcDbEntity
  8
MODEL
100
AcDbLine
 10
128.1311343281961
 20
219.6199643757546
 30
0.0
 11
128.1311343281961
 21
225.8399643757547
 31
0.0
  0
LINE
  5
48EE
330
A
100
AcDbEntity
  8
MODEL
100
AcDbLine
 10
108.6511343281961
 20
233.7374795273547
 30
0.0
 11
108.6511343281961
 21
227.3199643757547
 31
0.0
  0
LINE
  5
48EF
330
A
100
AcDbEntity
  8
MODEL
100
AcDbLine
 10
126.6511343281961
 20
227.3199643757547
 30
0.0
 11
126.6511343281961
 21
233.7358520139547
 31
0.0
  0
LINE
  5
48F0
330
A
100
AcDbEntity
  8
MODEL
100
AcDbLine
 10
128.1311343281961
 20
225.8399643757547
 30
0.0
 11
126.6511343281961
 21
227.3199643757547
 31
0.0
  0
LINE
  5
48F1
330
A
100
AcDbEntity
  8
MODEL
100
AcDbLine
 10
108.6511343281961
 20
227.3199643757547
 30
0.0
 11
107.1711343281961
 21
225.8399643757547
 31
0.0
  0
LINE
  5
48F2
330
A
100
AcDbEntity
  8
MODEL
100
AcDbLine
 10
107.1711343281961
 20
219.6199643757546
 30
0.0
 11
108.3711343281961
 21
218.4199643757547
 31
0.0
  0
LINE
  5
48F3
330
A
100
AcDbEntity
  8
MODEL
100
AcDbLine
 10
126.9311343281961
 20
218.4199643755547
 30
0.0
 11
128.1311343281961
 21
219.6199643755547
 31
0.0
  0
LINE
  5
48F4
330
A
100
AcDbEntity
  8
MODEL
100
AcDbLine
 10
126.9661343281962
 20
227.0049643757547
 30
0.0
 11
126.9661343281962
 21
218.4549643757547
 31
0.0
  0
LINE
  5
48F5
330
A
100
AcDbEntity
  8
MODEL
100
AcDbLine
 10
108.3361343281963
 20
227.0049643757547
 30
0.0
 11
108.3361343281963
 21
218.4549643757547
 31
0.0
  0
ARC
  5
48F6
330
A
100
AcDbEntity
  8
MODEL
100
AcDbCircle
 10
748.7182781861962
 20
928.2426088737548
 30
0.0
 40
923.65131116359
100
AcDbArc
 50
224.5474354406
 51
225.6316346252999
  0
SPLINE
  5
48F7
330
A
100
AcDbEntity
  8
MODEL
100
AcDbSpline
210
0.0
220
0.0
230
1.0
 70
     8
 71
     2
 72
    12
 73
     9
 74
     0
 42
0.000000001
 43
0.0000000001
 40
0.0
 40
0.0
 40
0.0
 40
0.25
 40
0.25
 40
0.5
 40
0.5
 40
0.75
 40
0.75
 40
1.0
 40
1.0
 40
1.0
 10
289.3789653169971
 20
253.1099673885253
 30
0.0
 10
289.379070916678
 20
249.3274841107946
 30
0.0
 10
289.379070916678
 20
245.561295183536
 30
0.0
 10
289.379070916678
 20
241.7875388351989
 30
0.0
 10
289.379070916678
 20
238.0615537322265
 30
0.0
 10
289.379070916678
 20
234.3369397931093
 30
0.0
 10
289.379070916678
 20
230.6849191448934
 30
0.0
 10
289.379070916678
 20
227.0514507853166
 30
0.0
 10
289.3786620633185
 20
223.5247436112483
 30
0.0
  0
ARC
  5
48F8
330
A
100
AcDbEntity
  8
MODEL
100
AcDbCircle
 10
275.1331394193131
 20
282.7728009456891
 30
0.0
 40
14.24572362433891
100
AcDbArc
 50
359.687891017
 51
0.309192511200076
  0
SPLINE
  5
48F9
330
A
100
AcDbEntity
  8
MODEL
100
AcDbSpline
210
0.0
220
0.0
230
1.0
 70
     8
 71
     2
 72
     8
 73
     5
 74
     0
 42
0.000000001
 43
0.0000000001
 40
0.0
 40
0.0
 40
0.0
 40
0.5
 40
0.5
 40
1.0
 40
1.0
 40
1.0
 10
289.3786516846575
 20
282.6952001806187
 30
0.0
 10
289.3790709166777
 20
275.6144139883331
 30
0.0
 10
289.379070916678
 20
268.1583944428226
 30
0.0
 10
289.379070916678
 20
260.7000481794623
 30
0.0
 10
289.3789653169971
 20
253.1099673885253
 30
0.0
  0
LINE
  5
48FA
330
A
100
AcDbEntity
  8
MODEL
100
AcDbLine
 10
289.078656871713
 20
288.1099042152891
 30
0.0
 11
282.678657008713
 21
288.1099042152891
 31
0.0
  0
LINE
  5
48FB
330
A
100
AcDbEntity
  8
MODEL
100
AcDbLine
 10
282.6786570089131
 20
218.1100511916892
 30
0.0
 11
289.0786568715131
 21
218.1100511916892
 31
0.0
  0
SPLINE
  5
48FC
330
A
100
AcDbEntity
  8
MODEL
100
AcDbSpline
210
0.0
220
0.0
230
1.0
 70
     8
 71
     3
 72
    23
 73
    19
 74
     0
 42
0.000000001
 43
0.0000000001
 40
0.0
 40
0.0
 40
0.0
 40
0.0
 40
0.0509463067108946
 40
0.1420041983265922
 40
0.2330606614486191
 40
0.3241158550829522
 40
0.5064712411733256
 40
0.6943357721424491
 40
0.7911550424127274
 40
0.8897395861519922
 40
0.9317196217071636
 40
0.962532273400852
 40
0.9741501997028527
 40
0.9836831492608802
 40
0.9878957498121536
 40
0.9919037311599089
 40
0.9958760060881316
 40
1.0
 40
1.0
 40
1.0
 40
1.0
 10
289.3729124715918
 20
287.4736426283673
 30
0.0
 10
289.3728849954747
 20
287.4889572240554
 30
0.0
 10
289.3728188667432
 20
287.5250522341146
 30
0.0
 10
289.372848625001
 20
287.5819305848776
 30
0.0
 10
289.3728438560355
 20
287.6408687285242
 30
0.0
 10
289.3727647948791
 20
287.7113855391145
 30
0.0
 10
289.3733052535302
 20
287.7791309575391
 30
0.0
 10
289.3701526004969
 20
287.8465750952902
 30
0.0
 10
289.3580471936626
 20
287.9065090412256
 30
0.0
 10
289.3523563327577
 20
287.9306072682591
 30
0.0
 10
289.3330127001271
 20
287.9698261474844
 30
0.0
 10
289.3019171096818
 20
288.014296608746
 30
0.0
 10
289.2537986707481
 20
288.0552957346847
 30
0.0
 10
289.2154414480839
 20
288.07859371642
 30
0.0
 10
289.1780544540633
 20
288.0939079227196
 30
0.0
 10
289.1480572733798
 20
288.1027402549984
 30
0.0
 10
289.1139345578875
 20
288.1089546123444
 30
0.0
 10
289.0920214353702
 20
288.1097767818044
 30
0.0
 10
289.0788597097659
 20
288.1101812470554
 30
0.0
  0
SPLINE
  5
48FD
330
A
100
AcDbEntity
  8
MODEL
100
AcDbSpline
210
0.0
220
0.0
230
1.0
 70
     8
 71
     3
 72
    24
 73
    20
 74
     0
 42
0.000000001
 43
0.0000000001
 40
0.0
 40
0.0
 40
0.0
 40
0.0
 40
0.0031297226596629
 40
0.0061443048925263
 40
0.0091859849296973
 40
0.0123829516693095
 40
0.019617561900084
 40
0.0284344731158431
 40
0.0583340245921667
 40
0.1008312974748736
 40
0.1729238994999092
 40
0.2982467636083673
 40
0.5129039206977153
 40
0.5918779908978394
 40
0.6708533414315739
 40
0.7498301554581939
 40
0.8364515243000112
 40
0.9429239388052437
 40
1.0
 40
1.0
 40
1.0
 40
1.0
 10
289.0788597096863
 20
218.1097741597606
 30
0.0
 10
289.0920214352551
 20
218.1101786250042
 30
0.0
 10
289.1139345807993
 20
218.1110007966898
 30
0.0
 10
289.1480571952255
 20
218.1172151442505
 30
0.0
 10
289.1780547534919
 20
218.1260475130482
 30
0.0
 10
289.2154396342243
 20
218.1413615150871
 30
0.0
 10
289.253817032432
 20
218.1646614476216
 30
0.0
 10
289.3096985418521
 20
218.2124164849406
 30
0.0
 10
289.3400710847847
 20
218.2634109659737
 30
0.0
 10
289.3514655725813
 20
218.289757966367
 30
0.0
 10
289.3638569096539
 20
218.333985603214
 30
0.0
 10
289.3739831042716
 20
218.4164514589936
 30
0.0
 10
289.3726971866591
 20
218.491238099809
 30
0.0
 10
289.3728499266189
 20
218.586694626716
 30
0.0
 10
289.3728626540502
 20
218.6561002933227
 30
0.0
 10
289.3727598130544
 20
218.73624404764
 30
0.0
 10
289.3732797586812
 20
218.839034103041
 30
0.0
 10
289.3751151546695
 20
218.9524694246653
 30
0.0
 10
289.3760241977383
 20
219.0331590133212
 30
0.0
 10
289.3764163244902
 20
219.0665298759506
 30
0.0
  0
LINE
  5
48FE
330
A
100
AcDbEntity
  8
MODEL
100
AcDbLine
 10
282.577983215113
 20
218.1271768560892
 30
0.0
 11
282.6788598465131
 21
218.1097744472891
 31
0.0
  0
ARC
  5
48FF
330
A
100
AcDbEntity
  8
MODEL
100
AcDbCircle
 10
343.2433474739131
 20
116.1763687380892
 30
0.0
 40
122.1328571198159
100
AcDbArc
 50
86.85643850290006
 51
116.1697284224999
  0
ARC
  5
4900
330
A
100
AcDbEntity
  8
MODEL
100
AcDbCircle
 10
343.182738879913
 20
389.7479804604892
 30
0.0
 40
121.8403807596955
100
AcDbArc
 50
243.7943798836998
 51
273.1793105511999
  0
ARC
  5
4901
330
A
100
AcDbEntity
  8
MODEL
100
AcDbCircle
 10
326.622482305513
 20
200.2991542090892
 30
0.0
 40
33.8170924601724
100
AcDbArc
 50
86.59849157659978
 51
119.1913562175001
  0
ARC
  5
4902
330
A
100
AcDbEntity
  8
MODEL
100
AcDbCircle
 10
319.005327276513
 20
177.2185488628892
 30
0.0
 40
52.4916537753812
100
AcDbArc
 50
109.6790525710999
 51
117.4245553020999
  0
ARC
  5
4903
330
A
100
AcDbEntity
  8
MODEL
100
AcDbCircle
 10
352.3448851445131
 20
56.48757943348917
 30
0.0
 40
179.1426111676421
100
AcDbArc
 50
91.02134069290001
 51
97.60742163150007
  0
ARC
  5
4904
330
A
100
AcDbEntity
  8
MODEL
100
AcDbCircle
 10
346.484449194313
 20
115.3368039534892
 30
0.0
 40
120.1159986153701
100
AcDbArc
 50
107.6176772484
 51
112.0816293727
  0
ARC
  5
4905
330
A
100
AcDbEntity
  8
MODEL
100
AcDbCircle
 10
345.7898647821131
 20
114.2142612332892
 30
0.0
 40
120.862263713144
100
AcDbArc
 50
114.9328372126
 51
117.5872919503001
  0
ARC
  5
4906
330
A
100
AcDbEntity
  8
MODEL
100
AcDbCircle
 10
289.678398418513
 20
221.5965646630891
 30
0.0
 40
0.2930888331576118
100
AcDbArc
 50
172.989782756303
 51
298.2309563372388
  0
ARC
  5
4907
330
A
100
AcDbEntity
  8
MODEL
100
AcDbCircle
 10
349.141057950913
 20
235.9018154322892
 30
0.0
 40
0.2999158923572576
100
AcDbArc
 50
272.031196931323
 51
346.423922260298
  0
ARC
  5
4908
330
A
100
AcDbEntity
  8
MODEL
100
AcDbCircle
 10
277.333444207513
 20
253.1084909348891
 30
0.0
 40
74.13723282636013
100
AcDbArc
 50
346.5243227759
 51
13.47789872249999
  0
SPLINE
  5
4909
330
A
100
AcDbEntity
  8
MODEL
100
AcDbSpline
210
0.0
220
0.0
230
1.0
 70
     8
 71
     3
 72
    21
 73
    17
 74
     0
 42
0.000000001
 43
0.0000000001
 40
0.0
 40
0.0
 40
0.0
 40
0.0
 40
0.0121795102469303
 40
0.0215489434934912
 40
0.0333172304953555
 40
0.0359470141776085
 40
0.0394375326990528
 40
0.0444392770902989
 40
0.0505886486357107
 40
0.0677720677196819
 40
0.1144703578706666
 40
0.1845839212640102
 40
0.2785251598721951
 40
0.5219087038162308
 40
0.9417332497904891
 40
1.0
 40
1.0
 40
1.0
 40
1.0
 10
289.8170373076379
 20
284.8816161255982
 30
0.0
 10
289.7883462736548
 20
284.8941344109789
 30
0.0
 10
289.7447577672739
 20
284.9121238643214
 30
0.0
 10
289.6650821373227
 20
284.9184960770372
 30
0.0
 10
289.6098365980337
 20
284.9091068819934
 30
0.0
 10
289.5704078911455
 20
284.8953718149426
 30
0.0
 10
289.5463003603185
 20
284.8849590558933
 30
0.0
 10
289.5203851238638
 20
284.8705817626131
 30
0.0
 10
289.4859520919091
 20
284.846712466043
 30
0.0
 10
289.4420612382524
 20
284.8038772806967
 30
0.0
 10
289.4139639049039
 20
284.7576400623318
 30
0.0
 10
289.3972779045999
 20
284.7159689491799
 30
0.0
 10
289.3910914239935
 20
284.6807075666115
 30
0.0
 10
289.3858372100723
 20
284.6088493886612
 30
0.0
 10
289.3824807734837
 20
284.5022681597142
 30
0.0
 10
289.3822133692667
 20
284.4043319501302
 30
0.0
 10
289.3821785334663
 20
284.3903718120928
 30
0.0
  0
ARC
  5
490A
330
A
100
AcDbEntity
  8
MODEL
100
AcDbCircle
 10
349.1409562289131
 20
270.3181435020891
 30
0.0
 40
0.2999159610914104
100
AcDbArc
 50
13.57772028891538
 51
87.96879209269981
  0
ARC
  5
490B
330
A
100
AcDbEntity
  8
MODEL
100
AcDbCircle
 10
347.210421980713
 20
393.0614200696891
 30
0.0
 40
122.4586032329639
100
AcDbArc
 50
242.0523753266
 51
270.9082734318
  0
LINE
  5
490C
330
A
100
AcDbEntity
  8
MODEL
100
AcDbLine
 10
281.079071035913
 20
263.5874777278891
 30
0.0
 11
281.079071035913
 21
242.6324777278892
 31
0.0
  0
LINE
  5
490D
330
A
100
AcDbEntity
  8
MODEL
100
AcDbLine
 10
260.579071035913
 20
263.5874777278891
 30
0.0
 11
260.579071035913
 21
242.6324777278892
 31
0.0
  0
LINE
  5
490E
330
A
100
AcDbEntity
  8
MODEL
100
AcDbLine
 10
259.579071035913
 20
243.6324777278892
 30
0.0
 11
259.579071035913
 21
262.5874777278891
 31
0.0
  0
LINE
  5
490F
330
A
100
AcDbEntity
  8
MODEL
100
AcDbLine
 10
281.079071035913
 20
263.5874777278891
 30
0.0
 11
260.579071035913
 21
263.5874777278891
 31
0.0
  0
LINE
  5
4910
330
A
100
AcDbEntity
  8
MODEL
100
AcDbLine
 10
260.579071035913
 20
242.6324777278892
 30
0.0
 11
281.079071035913
 21
242.6324777278892
 31
0.0
  0
LINE
  5
4911
330
A
100
AcDbEntity
  8
MODEL
100
AcDbLine
 10
282.5786518093131
 20
263.1099777278891
 30
0.0
 11
281.079071035913
 21
263.1099777278891
 31
0.0
  0
LINE
  5
4912
330
A
100
AcDbEntity
  8
MODEL
100
AcDbLine
 10
281.079071035913
 20
243.1099777278892
 30
0.0
 11
282.5786518093131
 21
243.1099777278892
 31
0.0
  0
LINE
  5
4913
330
A
100
AcDbEntity
  8
MODEL
100
AcDbLine
 10
260.579071035913
 20
263.5874777278891
 30
0.0
 11
259.579071035913
 21
262.5874777278891
 31
0.0
  0
LINE
  5
4914
330
A
100
AcDbEntity
  8
MODEL
100
AcDbLine
 10
259.579071035913
 20
243.6324777278892
 30
0.0
 11
260.579071035913
 21
242.6324777278892
 31
0.0
  0
LINE
  5
4915
330
A
100
AcDbEntity
  8
MODEL
100
AcDbLine
 10
259.579071035913
 20
262.4254777278892
 30
0.0
 11
279.579071035913
 21
262.4254777278892
 31
0.0
  0
LINE
  5
4916
330
A
100
AcDbEntity
  8
MODEL
100
AcDbLine
 10
259.579071035913
 20
243.7944777278892
 30
0.0
 11
279.579071035913
 21
243.7944777278892
 31
0.0
  0
LINE
  5
4917
330
A
100
AcDbEntity
  8
MODEL
100
AcDbLine
 10
279.579071035913
 20
242.6324777278892
 30
0.0
 11
279.579071035913
 21
263.5874777278891
 31
0.0
  0
LINE
  5
4918
330
A
100
AcDbEntity
  8
MODEL
100
AcDbLine
 10
310.378940761913
 20
227.3213292208892
 30
0.0
 11
328.378940761913
 21
227.3213292208892
 31
0.0
  0
LINE
  5
4919
330
A
100
AcDbEntity
  8
MODEL
100
AcDbLine
 10
308.898940761913
 20
225.8413292208892
 30
0.0
 11
329.858940761913
 21
225.8413292208892
 31
0.0
  0
LINE
  5
491A
330
A
100
AcDbEntity
  8
MODEL
100
AcDbLine
 10
310.098940761913
 20
218.4213292208891
 30
0.0
 11
328.658940761913
 21
218.4213292208891
 31
0.0
  0
LINE
  5
491B
330
A
100
AcDbEntity
  8
MODEL
100
AcDbLine
 10
308.898940761913
 20
219.6213292208892
 30
0.0
 11
329.858940761913
 21
219.6213292208892
 31
0.0
  0
LINE
  5
491C
330
A
100
AcDbEntity
  8
MODEL
100
AcDbLine
 10
308.898940761913
 20
225.8413292208892
 30
0.0
 11
308.898940761913
 21
219.6213292208892
 31
0.0
  0
LINE
  5
491D
330
A
100
AcDbEntity
  8
MODEL
100
AcDbLine
 10
329.858940761913
 20
219.6213292208892
 30
0.0
 11
329.858940761913
 21
225.8413292208892
 31
0.0
  0
LINE
  5
491E
330
A
100
AcDbEntity
  8
MODEL
100
AcDbLine
 10
310.378940761913
 20
229.9447818430891
 30
0.0
 11
310.378940761913
 21
227.3213292208892
 31
0.0
  0
LINE
  5
491F
330
A
100
AcDbEntity
  8
MODEL
100
AcDbLine
 10
328.378940761913
 20
227.3213292208892
 30
0.0
 11
328.378940761913
 21
234.0753636116891
 31
0.0
  0
LINE
  5
4920
330
A
100
AcDbEntity
  8
MODEL
100
AcDbLine
 10
329.858940761913
 20
225.8413292208892
 30
0.0
 11
328.378940761913
 21
227.3213292208892
 31
0.0
  0
LINE
  5
4921
330
A
100
AcDbEntity
  8
MODEL
100
AcDbLine
 10
310.378940761913
 20
227.3213292208892
 30
0.0
 11
308.898940761913
 21
225.8413292208892
 31
0.0
  0
LINE
  5
4922
330
A
100
AcDbEntity
  8
MODEL
100
AcDbLine
 10
308.898940761913
 20
219.6213292208892
 30
0.0
 11
310.098940761913
 21
218.4213292208891
 31
0.0
  0
LINE
  5
4923
330
A
100
AcDbEntity
  8
MODEL
100
AcDbLine
 10
328.658940761913
 20
218.4213292208891
 30
0.0
 11
329.858940761913
 21
219.6213292208892
 31
0.0
  0
LINE
  5
4924
330
A
100
AcDbEntity
  8
MODEL
100
AcDbLine
 10
328.693940761913
 20
227.0063292208892
 30
0.0
 11
328.693940761913
 21
218.4563292208892
 31
0.0
  0
LINE
  5
4925
330
A
100
AcDbEntity
  8
MODEL
100
AcDbLine
 10
310.0639407619132
 20
227.0063292208892
 30
0.0
 11
310.0639407619132
 21
218.4563292208892
 31
0.0
  0
LINE
  5
4926
330
A
100
AcDbEntity
  8
MODEL
100
AcDbLine
 10
289.378655616313
 20
282.8496765850891
 30
0.0
 11
289.3729124715131
 21
287.4736426282892
 31
0.0
  0
LINE
  5
4927
330
A
100
AcDbEntity
  8
MODEL
100
AcDbLine
 10
289.3764163245131
 20
219.0665298758892
 30
0.0
 11
289.3786620633131
 21
223.5247436112892
 31
0.0
  0
LINE
  5
4928
330
A
100
AcDbEntity
  8
MODEL
100
AcDbLine
 10
282.5786518093131
 20
263.1099777278891
 30
0.0
 11
282.5786518093131
 21
243.1099777278892
 31
0.0
  0
HATCH
  5
4929
330
A
100
AcDbEntity
  8
MODEL
100
AcDbHatch
 10
0.0
 20
0.0
 30
0.0
210
0.0
220
0.0
230
1.0
  2
LINE
 70
     0
 71
     0
 91
        1
 92
        1
 93
       11
 72
     1
 10
282.6788598464892
 20
308.1101809594932
 11
259.5790710358921
 21
308.1101809594932
 72
     1
 10
259.5790710358921
 20
308.1101809594932
 11
259.5790710358921
 21
265.1099777278688
 72
     1
 10
259.5790710358921
 20
265.1099777278688
 11
282.5786518094034
 21
265.1099777278688
 72
     1
 10
282.5786518094034
 20
265.1099777278688
 11
282.5786518094185
 21
282.7864199782894
 72
     1
 10
282.5786518094184
 20
282.7864199782894
 11
282.5786518034536
 21
282.9584310734195
 72
     1
 10
282.5786518034537
 20
282.9584310734195
 11
282.5786518046456
 21
283.0651185800936
 72
     1
 10
282.5786518046456
 20
283.0651185800936
 11
282.5786518046457
 21
283.1461872374903
 72
     1
 10
282.5786518046456
 20
283.1461872374904
 11
282.5786518094187
 21
283.2137228339466
 72
     1
 10
282.5786518094188
 20
283.2137228339468
 11
282.5786518046528
 21
288.0930165957006
 72
     1
 10
282.5786518046528
 20
288.0930165957005
 11
282.6788598464893
 21
288.1101809594929
 72
     1
 10
282.6788598464892
 20
288.1101809594929
 11
282.6788598464892
 21
308.1101809594929
 97
        0
 75
     0
 76
     2
 52
45.0
 41
2.0
 77
     0
 78
     1
 53
45.0
 43
153.552225889713
 44
-40.10772689891084
 45
-4.490128060534576
 46
4.490128060534576
 79
     0
 98
        0
  0
LINE
  5
492A
330
A
100
AcDbEntity
  8
MODEL
100
AcDbLine
 10
282.5786518093131
 20
265.1099777278891
 30
0.0
 11
259.579071035913
 21
265.1099777278891
 31
0.0
  0
LINE
  5
492B
330
A
100
AcDbEntity
  8
MODEL
100
AcDbLine
 10
282.578651809513
 20
282.7864199782891
 30
0.0
 11
282.5786518093131
 21
263.1099777278891
 31
0.0
  0
LINE
  5
492C
330
A
100
AcDbEntity
  8
MODEL
100
AcDbLine
 10
282.578651809513
 20
282.7864199782891
 30
0.0
 11
282.578651803513
 21
282.9584310734891
 31
0.0
  0
LINE
  5
492D
330
A
100
AcDbEntity
  8
MODEL
100
AcDbLine
 10
282.578651803513
 20
282.9584310656892
 30
0.0
 11
282.5786518047131
 21
283.0651185800891
 31
0.0
  0
LINE
  5
492E
330
A
100
AcDbEntity
  8
MODEL
100
AcDbLine
 10
282.578651803913
 20
283.0651185554891
 30
0.0
 11
282.5786518047131
 21
283.1461872374891
 31
0.0
  0
LINE
  5
492F
330
A
100
AcDbEntity
  8
MODEL
100
AcDbLine
 10
282.5786518047131
 20
283.1461872374891
 30
0.0
 11
282.578651809513
 21
283.2137228338892
 31
0.0
  0
LINE
  5
4930
330
A
100
AcDbEntity
  8
MODEL
100
AcDbLine
 10
282.5786518047131
 20
288.0930165956892
 30
0.0
 11
282.578651809513
 21
283.2137228338892
 31
0.0
  0
LINE
  5
4931
330
A
100
AcDbEntity
  8
MODEL
100
AcDbLine
 10
282.6788598465131
 20
288.1101809594892
 30
0.0
 11
282.5779832159132
 21
288.0927785508892
 31
0.0
  0
LINE
  5
4932
330
A
100
AcDbEntity
  8
MODEL
100
AcDbLine
 10
282.6788598465131
 20
288.1101809594892
 30
0.0
 11
282.6788598465131
 21
308.1101809594892
 31
0.0
  0
HATCH
  5
4933
330
A
100
AcDbEntity
  8
MODEL
100
AcDbHatch
 10
0.0
 20
0.0
 30
0.0
210
0.0
220
0.0
230
1.0
  2
LINE
 70
     0
 71
     0
 91
        1
 92
        1
 93
        5
 72
     1
 10
259.5790710358825
 20
241.1099777278688
 11
259.5790710358825
 21
198.1270615157655
 72
     1
 10
259.5790710358825
 20
198.1270615157655
 11
282.5786518093856
 21
198.1270615157655
 72
     1
 10
282.5786518093856
 20
198.1270615157655
 11
282.5786518093856
 21
218.1270615157655
 72
     1
 10
282.5786518093856
 20
218.1270615157656
 11
282.5786518093973
 21
241.1099777278688
 72
     1
 10
282.5786518093972
 20
241.1099777278688
 11
259.5790710358825
 21
241.1099777278688
 97
        0
 75
     0
 76
     2
 52
45.0
 41
2.0
 77
     0
 78
     1
 53
45.0
 43
153.552225889713
 44
-40.10772689891084
 45
-4.490128060534576
 46
4.490128060534576
 79
     0
 98
        0
  0
LINE
  5
4934
330
A
100
AcDbEntity
  8
MODEL
100
AcDbLine
 10
282.5786518093131
 20
218.1270615156892
 30
0.0
 11
282.5786518093131
 21
198.1270615156891
 31
0.0
  0
LINE
  5
4935
330
A
100
AcDbEntity
  8
MODEL
100
AcDbLine
 10
282.5786518093131
 20
243.1099777278892
 30
0.0
 11
282.5786518093131
 21
218.1270615156892
 31
0.0
  0
LINE
  5
4936
330
A
100
AcDbEntity
  8
MODEL
100
AcDbLine
 10
282.5786518093131
 20
241.1099777278892
 30
0.0
 11
259.579071035913
 21
241.1099777278892
 31
0.0
  0
ARC
  5
4938
330
A
100
AcDbEntity
  8
MODEL
100
AcDbCircle
 10
117.8515467961386
 20
461.5764840950212
 30
0.0
 40
74.18814514908098
100
AcDbArc
 50
256.5310438253999
 51
283.4658107736999
  0
SPLINE
  5
4939
330
A
100
AcDbEntity
  8
MODEL
100
AcDbSpline
210
0.0
220
0.0
230
1.0
 70
     8
 71
     3
 72
    29
 73
    25
 74
     0
 42
0.000000001
 43
0.0000000001
 40
0.0
 40
0.0
 40
0.0
 40
0.0
 40
0.0716535215417084
 40
0.1360378896791875
 40
0.1931549184260683
 40
0.2430050318720009
 40
0.2855879585628502
 40
0.3209032144831028
 40
0.3489504572574914
 40
0.3697298134167104
 40
0.3954786217933308
 40
0.4248904987458143
 40
0.4583302474829358
 40
0.4957981468989386
 40
0.5372947036186057
 40
0.6129442816157645
 40
0.6919680681938497
 40
0.7741810000029017
 40
0.8216143780444439
 40
0.8690061742439393
 40
0.912596563706793
 40
0.9440394050765892
 40
0.9731118837572481
 40
1.0
 40
1.0
 40
1.0
 40
1.0
 10
90.71287561651434
 20
449.4760623875681
 30
0.0
 10
90.47858896018272
 20
449.4750054004207
 30
0.0
 10
90.10624376834653
 20
449.4733067436291
 30
0.0
 10
89.57358305213927
 20
449.469837163084
 30
0.0
 10
89.14290704337293
 20
449.4666538386825
 30
0.0
 10
88.7897790535784
 20
449.4639397588959
 30
0.0
 10
88.50743227868236
 20
449.4619468301289
 30
0.0
 10
88.28699206571673
 20
449.460835265075
 30
0.0
 10
88.12155592793295
 20
449.4606004679828
 30
0.0
 10
87.9832670992231
 20
449.4615324645642
 30
0.0
 10
87.85333426629529
 20
449.464393666429
 30
0.0
 10
87.70419700744696
 20
449.465887726883
 30
0.0
 10
87.54337120852574
 20
449.4671424585471
 30
0.0
 10
87.3728657209266
 20
449.4678719993551
 30
0.0
 10
87.15426587079457
 20
449.468271516504
 30
0.0
 10
86.90862054796128
 20
449.4681631467737
 30
0.0
 10
86.66677115832476
 20
449.4681826677822
 30
0.0
 10
86.50345716936806
 20
449.4683061355922
 30
0.0
 10
86.39825924588547
 20
449.4679897512719
 30
0.0
 10
86.33709068952112
 20
449.4689528022365
 30
0.0
 10
86.22888186684042
 20
449.4463954292129
 30
0.0
 10
86.12180661525906
 20
449.3758035829453
 30
0.0
 10
86.02904626307316
 20
449.2454980367631
 30
0.0
 10
86.0601835859976
 20
449.1157282051192
 30
0.0
 10
86.07780940472253
 20
449.0406515639337
 30
0.0
  0
ARC
  5
493A
330
A
100
AcDbEntity
  8
MODEL
100
AcDbCircle
 10
100.6412820283385
 20
389.716732642621
 30
0.0
 40
0.2999159610915216
100
AcDbArc
 50
182.0312079073867
 51
256.4222797110897
  0
ARC
  5
493B
330
A
100
AcDbEntity
  8
MODEL
100
AcDbCircle
 10
-22.06933854266146
 20
391.6544266384213
 30
0.0
 40
122.426038530644
100
AcDbArc
 50
359.0881332645999
 51
27.95183146619994
  0
LINE
  5
493C
330
A
100
AcDbEntity
  8
MODEL
100
AcDbLine
 10
150.9576675181385
 20
456.2788266630211
 30
0.0
 11
150.9576675181385
 21
459.4786179250211
 31
0.0
  0
LINE
  5
493D
330
A
100
AcDbEntity
  8
MODEL
100
AcDbLine
 10
150.9576675181385
 20
459.4786179250211
 30
0.0
 11
84.34944780233855
 21
459.4786179250211
 31
0.0
  0
LINE
  5
493E
330
A
100
AcDbEntity
  8
MODEL
100
AcDbLine
 10
84.34944780233855
 20
459.4786179250211
 30
0.0
 11
84.34944780233855
 21
456.2788266628212
 31
0.0
  0
LINE
  5
493F
330
A
100
AcDbEntity
  8
MODEL
100
AcDbLine
 10
127.3294478023386
 20
475.3287481096212
 30
0.0
 11
108.3694478023385
 21
475.3287481096212
 31
0.0
  0
LINE
  5
4940
330
A
100
AcDbEntity
  8
MODEL
100
AcDbLine
 10
128.3294478023386
 20
474.3287481096212
 30
0.0
 11
107.3694478023385
 21
474.3287481096212
 31
0.0
  0
LINE
  5
4941
330
A
100
AcDbEntity
  8
MODEL
100
AcDbLine
 10
107.3694478023385
 20
474.3287481096212
 30
0.0
 11
107.3694478023385
 21
459.4786179250211
 31
0.0
  0
LINE
  5
4942
330
A
100
AcDbEntity
  8
MODEL
100
AcDbLine
 10
128.3294478023386
 20
459.4786179250211
 30
0.0
 11
128.3294478023386
 21
474.3287481096212
 31
0.0
  0
LINE
  5
4943
330
A
100
AcDbEntity
  8
MODEL
100
AcDbLine
 10
128.3294478023386
 20
474.3287481096212
 30
0.0
 11
127.3294478023386
 21
475.3287481096212
 31
0.0
  0
LINE
  5
4944
330
A
100
AcDbEntity
  8
MODEL
100
AcDbLine
 10
108.3694478023385
 20
475.3287481096212
 30
0.0
 11
107.3694478023385
 21
474.3287481096212
 31
0.0
  0
LINE
  5
4945
330
A
100
AcDbEntity
  8
MODEL
100
AcDbLine
 10
127.1644478023385
 20
475.3287481096212
 30
0.0
 11
127.1644478023385
 21
459.4786179250211
 31
0.0
  0
LINE
  5
4946
330
A
100
AcDbEntity
  8
MODEL
100
AcDbLine
 10
108.5344478023386
 20
475.3287481096212
 30
0.0
 11
108.5344478023386
 21
459.4786179250211
 31
0.0
  0
LINE
  5
4947
330
A
100
AcDbEntity
  8
MODEL
100
AcDbLine
 10
147.4193384307385
 20
449.4786179250211
 30
0.0
 11
88.27955109713855
 21
449.4786179250211
 31
0.0
  0
LINE
  5
4948
330
A
100
AcDbEntity
  8
MODEL
100
AcDbLine
 10
83.40603454753852
 20
449.4786179250211
 30
0.0
 11
88.27955587373856
 21
449.4786179250211
 31
0.0
  0
LINE
  5
4949
330
A
100
AcDbEntity
  8
MODEL
100
AcDbLine
 10
152.2928611069385
 20
449.4786179250211
 30
0.0
 11
147.4193384307385
 21
449.4786179250211
 31
0.0
  0
LINE
  5
494A
330
A
100
AcDbEntity
  8
MODEL
100
AcDbLine
 10
152.8479061903386
 20
456.2788266630211
 30
0.0
 11
82.85098946353855
 21
456.2788266628212
 31
0.0
  0
ARC
  5
494B
330
A
100
AcDbEntity
  8
MODEL
100
AcDbCircle
 10
152.2928637593385
 20
449.9786179250211
 30
0.0
 40
0.499999999999761
100
AcDbArc
 50
270.0
 51
359.8522846529204
  0
ARC
  5
494C
330
A
100
AcDbEntity
  8
MODEL
100
AcDbCircle
 10
83.40603189453861
 20
449.9786179250211
 30
0.0
 40
0.4999999999999928
100
AcDbArc
 50
180.8455002844938
 51
270.0
  0
LINE
  5
494D
330
A
100
AcDbEntity
  8
MODEL
100
AcDbLine
 10
82.85098946353855
 20
456.2788266628212
 30
0.0
 11
82.9060524111386
 21
449.9740854032211
 31
0.0
  0
LINE
  5
494E
330
A
100
AcDbEntity
  8
MODEL
100
AcDbLine
 10
152.7928432427385
 20
449.9740854030212
 30
0.0
 11
152.8479061903386
 21
456.2788266630211
 31
0.0
  0
ARC
  5
4950
330
A
100
AcDbEntity
  8
MODEL
100
AcDbCircle
 10
-18.78855495466144
 20
395.6747395924213
 30
0.0
 40
121.8403807596955
100
AcDbArc
 50
356.8206894488
 51
26.20562011629988
  0
SPLINE
  5
4951
330
A
100
AcDbEntity
  8
MODEL
100
AcDbSpline
210
0.0
220
0.0
230
1.0
 70
     8
 71
     3
 72
    29
 73
    25
 74
     0
 42
0.000000001
 43
0.0000000001
 40
0.0
 40
0.0
 40
0.0
 40
0.0
 40
0.0716535215417084
 40
0.1360378896791875
 40
0.1931549184260683
 40
0.2430050318720009
 40
0.2855879585628502
 40
0.3209032144831028
 40
0.3489504572574914
 40
0.3697298134167104
 40
0.3954786217933308
 40
0.4248904987458143
 40
0.4583302474829358
 40
0.4957981468989386
 40
0.5372947036186057
 40
0.6129442816157645
 40
0.6919680681938497
 40
0.7741810000029017
 40
0.8216143780444439
 40
0.8690061742439393
 40
0.912596563706793
 40
0.9440394050765892
 40
0.9731118837572481
 40
1.0
 40
1.0
 40
1.0
 40
1.0
 10
144.9860199883313
 20
449.4760623875681
 30
0.0
 10
145.220306644663
 20
449.4750054004207
 30
0.0
 10
145.5926518364992
 20
449.4733067436291
 30
0.0
 10
146.1253125527063
 20
449.469837163084
 30
0.0
 10
146.5559885614728
 20
449.4666538386825
 30
0.0
 10
146.9091165512672
 20
449.4639397588959
 30
0.0
 10
147.1914633261633
 20
449.4619468301289
 30
0.0
 10
147.411903539129
 20
449.460835265075
 30
0.0
 10
147.5773396769127
 20
449.4606004679828
 30
0.0
 10
147.7156285056225
 20
449.4615324645642
 30
0.0
 10
147.8455613385502
 20
449.464393666429
 30
0.0
 10
147.9946985973987
 20
449.465887726883
 30
0.0
 10
148.1555243963199
 20
449.4671424585471
 30
0.0
 10
148.3260298839192
 20
449.4678719993551
 30
0.0
 10
148.544629734051
 20
449.468271516504
 30
0.0
 10
148.7902750568841
 20
449.4681631467737
 30
0.0
 10
149.0321244465209
 20
449.4681826677822
 30
0.0
 10
149.1954384354773
 20
449.4683061355922
 30
0.0
 10
149.3006363589599
 20
449.4679897512719
 30
0.0
 10
149.3618049153246
 20
449.4689528022365
 30
0.0
 10
149.4700137380054
 20
449.4463954292129
 30
0.0
 10
149.5770889895865
 20
449.3758035829453
 30
0.0
 10
149.6698493417725
 20
449.2454980367631
 30
0.0
 10
149.638712018848
 20
449.1157282051192
 30
0.0
 10
149.6210862001232
 20
449.0406515639337
 30
0.0
  0
ARC
  5
4952
330
A
100
AcDbEntity
  8
MODEL
100
AcDbCircle
 10
135.0576135765385
 20
389.716732642621
 30
0.0
 40
0.2999159610915216
100
AcDbArc
 50
283.5777202889103
 51
357.9687920926131
  0
ARC
  5
4953
330
A
100
AcDbEntity
  8
MODEL
100
AcDbCircle
 10
257.7682341475385
 20
391.6544266384212
 30
0.0
 40
122.426038530644
100
AcDbArc
 50
152.0481685338
 51
180.9118667353999
  0
ARC
  5
4954
330
A
100
AcDbEntity
  8
MODEL
100
AcDbCircle
 10
254.4874505595384
 20
395.6747395924212
 30
0.0
 40
121.8403807596955
100
AcDbArc
 50
153.7943798836999
 51
183.1793105511998
  0
DIMENSION
  5
4955
330
A
100
AcDbEntity
  8
DIM
100
AcDbDimension
  2
*D6
 10
60.53620977317846
 20
218.1023198748292
 30
0.0
 11
60.53621387347778
 21
253.1086120081547
 31
0.0
 70
   161
  1
\A1;<>
 71
     5
 42
70.01259752940044
 73
     0
 74
     0
 75
     0
  3
tfrom線あり
100
AcDbAlignedDimension
 13
109.8938306029374
 23
288.1149116229547
 33
0.0
 14
109.8938224023373
 24
218.1023140935547
 34
0.0
  0
DIMENSION
  5
4956
330
A
100
AcDbEntity
  8
DIM
100
AcDbDimension
  2
*D7
 10
152.6537756039791
 20
195.8243267636554
 30
0.0
 11
117.6486240959962
 21
195.8243310403547
 31
0.0
 70
   161
  1
\A1;<>
 71
     5
 42
70.01031445740053
 73
     0
 74
     0
 75
     0
  3
tfrom線あり
100
AcDbAlignedDimension
 13
82.64346814519627
 23
253.1086191487547
 33
0.0
 14
152.6537826025963
 24
253.1086105953547
 34
0.0
  0
DIMENSION
  5
4959
330
A
100
AcDbEntity
  8
DIM
100
AcDbDimension
  2
*D8
 10
319.378940761913
 20
175.7826687017303
 30
0.0
 11
300.978795641313
 21
175.7826687017303
 31
0.0
 70
   160
  1
\A1;<>
 71
     5
 42
36.80028895259989
 73
     0
 74
     0
 75
     0
  3
tfrom線あり
100
AcDbAlignedDimension
 13
282.5786518093131
 23
198.1270615156891
 33
0.0
 14
319.378940761913
 24
197.3303294758499
 34
0.0
100
AcDbRotatedDimension
  0
DIMENSION
  5
495A
330
A
100
AcDbEntity
  8
DIM
100
AcDbDimension
  2
*D9
 10
351.4706770199131
 20
157.8029937491033
 30
0.0
 11
317.024664038113
 21
157.8029937491033
 31
0.0
 70
   160
  1
\A1;<>
 71
     5
 42
68.89202521059997
 73
     0
 74
     0
 75
     0
  3
tfrom線あり
100
AcDbAlignedDimension
 13
282.5786518093131
 23
198.1270615156891
 33
0.0
 14
351.4706770199131
 24
248.1976888173527
 34
0.0
100
AcDbRotatedDimension
  0
DIMENSION
  5
495B
330
A
100
AcDbEntity
  8
DIM
100
AcDbDimension
  2
*D10
 10
259.579071035913
 20
157.8029937491033
 30
0.0
 11
271.078861334713
 21
157.8029937491033
 31
0.0
 70
   160
  1
\A1;<>
 71
     5
 42
22.99958077340011
 73
     0
 74
     0
 75
     0
  3
tfrom線あり
100
AcDbAlignedDimension
 13
282.5786518093131
 23
190.6677429070799
 33
0.0
 14
259.579071035913
 24
197.7893693796649
 34
0.0
100
AcDbRotatedDimension
  0
DIMENSION
  5
495C
330
A
100
AcDbEntity
  8
DIM
100
AcDbDimension
  2
*D11
 10
375.8366341330814
 20
218.4213292208891
 30
0.0
 11
375.8366341330814
 21
235.7656284724892
 31
0.0
 70
   160
  1
\A1;<>
 71
     5
 42
34.68859895540004
 73
     0
 74
     0
 75
     0
  3
tfrom線あり
100
AcDbAlignedDimension
 13
351.4706770199131
 23
253.1099281762892
 33
0.0
 14
328.658940761913
 24
218.4213292208891
 34
0.0
 50
90.0
100
AcDbRotatedDimension
  0
MTEXT
  5
4A0E
330
A
100
AcDbEntity
  8
DIM
390
1D
100
AcDbMText
 10
252.8019722209077
 20
250.4982612729834
 30
0.0
 40
4.8865234375
 41
0.0
 46
5.033119140625
 71
     1
 72
     1
  1
{\fＭＳ ゴシック|b0|i0|c1|p0;▼}
  7
ＭＳ ゴシック
 11
6.123233995736766E-17
 21
1.0
 31
0.0
 73
     1
 44
0.7828267384257843
1001
ACAD
1000
ACAD_MTEXT_DEFINED_HEIGHT_BEGIN
1070
    46
1040
5.033119140625
1000
ACAD_MTEXT_DEFINED_HEIGHT_END
  0
MTEXT
  5
4A0F
330
A
100
AcDbEntity
  8
DIM
390
1D
100
AcDbMText
 10
234.2770480203022
 20
255.7173528181186
 30
0.0
 40
4.8865234375
 41
0.0
 46
5.580409765625
 71
     1
 72
     1
  1
{\fＭＳ ゴシック|b0|i0|c1|p0;G1/2"}
  7
ＭＳ ゴシック
 73
     1
 44
0.7828267384257843
1001
ACAD
1000
ACAD_MTEXT_DEFINED_HEIGHT_BEGIN
1070
    46
1040
5.580409765625
1000
ACAD_MTEXT_DEFINED_HEIGHT_END
  0
MTEXT
  5
4A49
330
A
100
AcDbEntity
  8
DIM
390
1D
100
AcDbMText
 10
321.7627941993532
 20
208.8522982783066
 30
0.0
 40
4.8865234375
 41
0.0
 46
4.8865234375
 71
     1
 72
     1
  1
{\fＭＳ ゴシック|b0|i0|c1|p0;▲}
  7
ＭＳ ゴシック
 11
-1.0
 21
1.224646799147353E-16
 31
0.0
 73
     1
 44
0.7828267384257843
1001
ACAD
1000
ACAD_MTEXT_DEFINED_HEIGHT_BEGIN
1070
    46
1040
4.8865234375
1000
ACAD_MTEXT_DEFINED_HEIGHT_END
  0
MTEXT
  5
4A4A
330
A
100
AcDbEntity
  8
DIM
390
1D
100
AcDbMText
 10
313.2031944601109
 20
205.7027368885096
 30
0.0
 40
4.8865234375
 41
0.0
 46
5.580409765625
 71
     1
 72
     1
  1
{\fＭＳ ゴシック|b0|i0|c1|p0;G1/2"}
  7
ＭＳ ゴシック
 73
     1
 44
0.7828267384257843
1001
ACAD
1000
ACAD_MTEXT_DEFINED_HEIGHT_BEGIN
1070
    46
1040
5.580409765625
1000
ACAD_MTEXT_DEFINED_HEIGHT_END
  0
VIEWPORT
  5
349
330
B
100
AcDbEntity
 67
     1
  8
0
100
AcDbViewport
 10
202.5
 20
128.5
 30
0.0
 40
486.0
 41
308.4
 68
     1
 69
     1
 12
202.5
 22
128.5
 13
0.0
 23
0.0
 14
0.5
 24
0.5
 15
0.0
 25
0.0
 16
0.0
 26
0.0
 36
1.0
 17
0.0
 27
0.0
 37
0.0
 42
50.0
 43
0.0
 44
0.0
 45
308.4
 50
0.0
 51
0.0
 72
   100
 90
   557152
  1

281
     0
 71
     1
 74
     0
110
0.0
120
0.0
130
0.0
111
1.0
121
0.0
131
0.0
112
0.0
122
1.0
132
0.0
 79
     0
146
0.0
170
     0
 61
     5
348
26C
292
     1
282
     1
141
0.0
142
0.0
 63
   256
  0
VIEWPORT
  5
34A
330
B
100
AcDbEntity
 67
     1
  8
0
100
AcDbViewport
 10
202.5
 20
128.5
 30
0.0
 40
324.0
 41
205.6
 68
     2
 69
     2
 12
986.6781359294573
 22
1427.077061889956
 13
0.0
 23
0.0
 14
0.5
 24
0.5
 15
0.0
 25
0.0
 16
0.0
 26
0.0
 36
1.0
 17
0.0
 27
0.0
 37
0.0
 42
50.0
 43
0.0
 44
0.0
 45
2890.021615685494
 50
0.0
 51
0.0
 72
   100
 90
   557152
  1

281
     0
 71
     1
 74
     0
110
0.0
120
0.0
130
0.0
111
1.0
121
0.0
131
0.0
112
0.0
122
1.0
132
0.0
 79
     0
146
0.0
170
     0
 61
     5
348
26C
292
     1
282
     1
141
0.0
142
0.0
 63
   256
  0
ENDSEC
  0
SECTION
  2
OBJECTS
  0
DICTIONARY
  5
19
330
0
100
AcDbDictionary
281
     1
  3
ACAD_COLOR
350
674
  3
ACAD_DETAILVIEWSTYLE
350
BBF
  3
ACAD_FIELDLIST
350
44C1
  3
ACAD_GROUP
350
1A
  3
ACAD_IMAGE_VARS
350
27B
  3
ACAD_LAYOUT
350
1E
  3
ACAD_MATERIAL
350
263
  3
ACAD_MLEADERSTYLE
350
336
  3
ACAD_MLINESTYLE
350
1B
  3
ACAD_PLOTSETTINGS
350
22
  3
ACAD_PLOTSTYLENAME
350
1F
  3
ACAD_SCALELIST
350
241
  3
ACAD_SECTIONVIEWSTYLE
350
BC0
  3
ACAD_TABLESTYLE
350
278
  3
ACAD_VISUALSTYLE
350
267
  3
ACDB_RECOMPOSE_DATA
350
4A99
  3
AcDbVariableDictionary
350
330
  3
APPDATA
350
27A
  3
DimOffsetDictionary
350
E38
  0
SUN
  5
904
330
15
100
AcDbSun
 90
        1
290
     0
 63
     7
421
 16777215
 40
1.0
291
     1
 91
  2455826
 92
 54000000
292
     0
 70
     2
 71
   256
280
     1
  0
DICTIONARY
  5
2E1
330
2
100
AcDbDictionary
280
     1
281
     1
  3
ACAD_LAYERSTATES
360
2E2
  3
ACLYDICTIONARY
360
DDE
  0
DICTIONARY
  5
4532
330
4530
100
AcDbDictionary
280
     1
281
     1
  3
ACAD_FIELD
360
4539
  0
DICTIONARY
  5
674
102
{ACAD_REACTORS
330
19
102
}
330
19
100
AcDbDictionary
281
     1
  0
DICTIONARY
  5
BBF
102
{ACAD_REACTORS
330
19
102
}
330
19
100
AcDbDictionary
281
     1
  0
FIELDLIST
  5
44C1
102
{ACAD_REACTORS
330
19
102
}
330
19
100
AcDbIdSet
 90
        2
330
4534
330
4531
100
AcDbFieldList
  0
DICTIONARY
  5
1A
102
{ACAD_REACTORS
330
19
102
}
330
19
100
AcDbDictionary
281
     1
  0
RASTERVARIABLES
  5
27B
102
{ACAD_REACTORS
330
19
102
}
330
19
100
AcDbRasterVariables
 90
        0
 70
     1
 71
     1
 72
     1
  0
DICTIONARY
  5
1E
102
{ACAD_REACTORS
330
19
102
}
330
19
100
AcDbDictionary
281
     1
  3
Layout1
350
21
  3
Model
350
20
  0
DICTIONARY
  5
263
102
{ACAD_REACTORS
330
19
102
}
330
19
100
AcDbDictionary
281
     1
  3
ByBlock
350
4A81
  3
ByLayer
350
264
  3
Global
350
266
  0
DICTIONARY
  5
336
102
{ACAD_REACTORS
330
19
102
}
330
19
100
AcDbDictionary
281
     1
  3
Standard
350
D59
  0
DICTIONARY
  5
1B
102
{ACAD_REACTORS
330
19
102
}
330
19
100
AcDbDictionary
281
     1
  3
Standard
350
1C
  0
DICTIONARY
  5
22
102
{ACAD_REACTORS
330
19
102
}
330
19
100
AcDbDictionary
281
     1
  0
ACDBDICTIONARYWDFLT
  5
1F
102
{ACAD_REACTORS
330
19
102
}
330
19
100
AcDbDictionary
281
     1
  3
Normal
350
1D
100
AcDbDictionaryWithDefault
340
1D
  0
DICTIONARY
  5
241
102
{ACAD_REACTORS
330
19
102
}
330
19
100
AcDbDictionary
281
     1
  3
A0
350
242
  3
A1
350
243
  3
A2
350
244
  3
A3
350
245
  3
A4
350
246
  3
A5
350
247
  3
A6
350
248
  3
A7
350
249
  3
A8
350
24A
  3
A9
350
24B
  3
B0
350
24C
  3
B1
350
24D
  3
B2
350
24E
  3
B3
350
24F
  3
B4
350
250
  3
B5
350
251
  3
B6
350
252
  3
B7
350
253
  3
B8
350
254
  3
B9
350
255
  3
C0
350
256
  3
C1
350
257
  3
C2
350
258
  3
C3
350
259
  3
C4
350
25A
  3
C5
350
25B
  3
C6
350
25C
  3
C7
350
25D
  3
C8
350
25E
  3
C9
350
25F
  3
D0
350
260
  3
D1
350
261
  3
D2
350
262
  0
DICTIONARY
  5
BC0
102
{ACAD_REACTORS
330
19
102
}
330
19
100
AcDbDictionary
281
     1
  0
DICTIONARY
  5
278
102
{ACAD_REACTORS
330
19
102
}
330
19
100
AcDbDictionary
281
     1
  3
Standard
350
279
  0
DICTIONARY
  5
267
102
{ACAD_REACTORS
330
19
102
}
330
19
100
AcDbDictionary
281
     1
  3
2dWireframe
350
26C
  3
3D Hidden
350
26E
  3
3dWireframe
350
26D
  3
Basic
350
26F
  3
Brighten
350
273
  3
ColorChange
350
277
  3
Conceptual
350
271
  3
Dim
350
272
  3
EdgeColorOff
350
8FE
  3
Facepattern
350
276
  3
Flat
350
268
  3
FlatWithEdges
350
269
  3
Gouraud
350
26A
  3
GouraudWithEdges
350
26B
  3
Hidden
350
8FB
  3
JitterOff
350
8FC
  3
Linepattern
350
275
  3
OverhangOff
350
8FD
  3
Realistic
350
270
  3
Shaded
350
903
  3
Shaded with edges
350
902
  3
Shades of Gray
350
8FF
  3
Sketchy
350
900
  3
Thicken
350
274
  3
Wireframe
350
8FA
  3
X-Ray
350
901
  0
XRECORD
  5
4A99
102
{ACAD_REACTORS
330
19
102
}
330
19
100
AcDbXrecord
280
     1
 90
        1
330
279
  0
DICTIONARY
  5
330
102
{ACAD_REACTORS
330
19
102
}
330
19
100
AcDbDictionary
281
     1
  3
CANNOSCALE
350
331
  3
CMLEADERSTYLE
350
D5E
  3
CTABLESTYLE
350
335
  3
HPTRANSPARENCY
350
D52
  3
XCLIPFRAME
350
896
  0
DICTIONARY
  5
27A
102
{ACAD_REACTORS
330
19
102
}
330
19
100
AcDbDictionary
281
     1
  0
DICTIONARY
  5
E38
102
{ACAD_REACTORS
330
19
102
}
330
19
100
AcDbDictionary
281
     1
  3
DIMRAILANGLE
350
38B2
  3
DIMRAILFIRSTOFFSET
350
38B0
  3
DIMRAILOFFSET
350
38B1
  3
DIMRAILSENABLED
350
38B3
  0
DICTIONARY
  5
2E2
102
{ACAD_REACTORS
330
2E1
102
}
330
2E1
100
AcDbDictionary
281
     1
  3
ARGON_LAYERP_9
350
7AA
  0
DICTIONARY
  5
DDE
102
{ACAD_REACTORS
330
2E1
102
}
330
2E1
100
AcDbDictionary
281
     1
1001
ACAD
1000
<All
  0
DICTIONARY
  5
4539
102
{ACAD_REACTORS
330
4532
102
}
330
4532
100
AcDbDictionary
280
     1
281
     1
  3
TEXT
360
4531
  0
LAYOUT
  5
21
102
{ACAD_REACTORS
330
1E
102
}
330
1E
100
AcDbPlotSettings
  1

  2
none_device
  4
ISO_A3_(420.00_x_297.00_MM)
  6

 40
7.5
 41
20.0
 42
7.5
 43
20.0
 44
420.0
 45
297.0
 46
0.0
 47
0.0
 48
0.0
 49
0.0
140
0.0
141
0.0
142
1.0
143
1.0
 70
     0
 72
     1
 73
     0
 74
     0
  7

 75
     0
 76
     0
 77
     2
 78
   300
147
1.0
148
0.0
149
0.0
100
AcDbLayout
  1
Layout1
 70
     0
 71
     0
 10
-7.5
 20
-20.0
 11
412.5
 21
277.0
 12
0.0
 22
0.0
 32
0.0
 14
0.0
 24
0.0
 34
0.0
 15
0.0
 25
0.0
 35
0.0
146
0.0
 13
0.0
 23
0.0
 33
0.0
 16
0.0
 26
0.0
 36
0.0
 17
0.0
 27
0.0
 37
0.0
 76
     0
330
B
331
349
  0
LAYOUT
  5
20
102
{ACAD_REACTORS
330
1E
102
}
330
1E
100
AcDbPlotSettings
  1

  2
none_device
  4
ISO_A3_(420.00_x_297.00_MM)
  6

 40
7.5
 41
20.0
 42
7.5
 43
20.0
 44
420.0
 45
297.0
 46
0.0
 47
0.0
 48
0.0
 49
0.0
140
0.0
141
0.0
142
1.0
143
1.0
 70
  1024
 72
     1
 73
     0
 74
     0
  7

 75
     0
 76
     0
 77
     2
 78
   300
147
1.0
148
0.0
149
0.0
100
AcDbLayout
  1
Model
 70
     0
 71
     1
 10
0.0
 20
0.0
 11
420.0
 21
594.0
 12
0.0
 22
0.0
 32
0.0
 14
0.0
 24
0.0
 34
-0.0000000000000142
 15
420.0
 25
594.0
 35
0.0000000000000142
146
0.0
 13
0.0
 23
0.0
 33
0.0
 16
0.0
 26
0.0
 36
0.0
 17
0.0
 27
0.0
 37
0.0
 76
     0
330
A
331
15
  0
MATERIAL
  5
4A81
102
{ACAD_REACTORS
330
263
102
}
330
263
100
AcDbMaterial
  1
ByBlock
 72
     1
 94
      127
  0
MATERIAL
  5
264
102
{ACAD_REACTORS
330
263
102
}
330
263
100
AcDbMaterial
  1
ByLayer
 72
     1
 94
      127
  0
MATERIAL
  5
266
102
{ACAD_REACTORS
330
263
102
}
330
263
100
AcDbMaterial
  1
Global
 72
     1
 94
      127
  0
MLEADERSTYLE
  5
D59
102
{ACAD_REACTORS
330
336
102
}
330
336
100
AcDbMLeaderStyle
170
     2
171
     1
172
     0
 90
        2
 40
0.0
 41
0.0
173
     1
 91
-1056964608
340
11
 92
       -2
290
     1
 42
2.0
291
     1
 43
8.0
  3
Standard
341
0
 44
4.0
300

342
17
174
     1
178
     6
175
     1
176
     0
 93
-1056964608
 45
4.0
292
     0
297
     0
 46
4.0
343
0
 94
-1056964608
 47
1.0
 49
1.0
140
1.0
293
     1
141
0.0
294
     1
177
     0
142
1.0
295
     0
296
     0
143
3.75
1001
ACAD_MLEADERVER
1070
     2
  0
MLINESTYLE
  5
1C
102
{ACAD_REACTORS
330
1B
102
}
330
1B
100
AcDbMlineStyle
  2
Standard
 70
     0
  3

 62
     0
 51
90.0
 52
90.0
 71
     2
 49
0.5
 62
   256
  6
BYLAYER
 49
-0.5
 62
   256
  6
BYLAYER
  0
ACDBPLACEHOLDER
  5
1D
102
{ACAD_REACTORS
330
1F
102
}
330
1F
  0
SCALE
  5
242
102
{ACAD_REACTORS
330
241
102
}
330
241
100
AcDbScale
 70
     0
300
1:1
140
1.0
141
1.0
290
     1
  0
SCALE
  5
243
102
{ACAD_REACTORS
330
241
102
}
330
241
100
AcDbScale
 70
     0
300
1:2
140
1.0
141
2.0
290
     0
  0
SCALE
  5
244
102
{ACAD_REACTORS
330
241
102
}
330
241
100
AcDbScale
 70
     0
300
1:4
140
1.0
141
4.0
290
     0
  0
SCALE
  5
245
102
{ACAD_REACTORS
330
241
102
}
330
241
100
AcDbScale
 70
     0
300
1:5
140
1.0
141
5.0
290
     0
  0
SCALE
  5
246
102
{ACAD_REACTORS
330
241
102
}
330
241
100
AcDbScale
 70
     0
300
1:8
140
1.0
141
8.0
290
     0
  0
SCALE
  5
247
102
{ACAD_REACTORS
330
241
102
}
330
241
100
AcDbScale
 70
     0
300
1:10
140
1.0
141
10.0
290
     0
  0
SCALE
  5
248
102
{ACAD_REACTORS
330
241
102
}
330
241
100
AcDbScale
 70
     0
300
1:16
140
1.0
141
16.0
290
     0
  0
SCALE
  5
249
102
{ACAD_REACTORS
330
241
102
}
330
241
100
AcDbScale
 70
     0
300
1:20
140
1.0
141
20.0
290
     0
  0
SCALE
  5
24A
102
{ACAD_REACTORS
330
241
102
}
330
241
100
AcDbScale
 70
     0
300
1:30
140
1.0
141
30.0
290
     0
  0
SCALE
  5
24B
102
{ACAD_REACTORS
330
241
102
}
330
241
100
AcDbScale
 70
     0
300
1:40
140
1.0
141
40.0
290
     0
  0
SCALE
  5
24C
102
{ACAD_REACTORS
330
241
102
}
330
241
100
AcDbScale
 70
     0
300
1:50
140
1.0
141
50.0
290
     0
  0
SCALE
  5
24D
102
{ACAD_REACTORS
330
241
102
}
330
241
100
AcDbScale
 70
     0
300
1:100
140
1.0
141
100.0
290
     0
  0
SCALE
  5
24E
102
{ACAD_REACTORS
330
241
102
}
330
241
100
AcDbScale
 70
     0
300
2:1
140
2.0
141
1.0
290
     0
  0
SCALE
  5
24F
102
{ACAD_REACTORS
330
241
102
}
330
241
100
AcDbScale
 70
     0
300
4:1
140
4.0
141
1.0
290
     0
  0
SCALE
  5
250
102
{ACAD_REACTORS
330
241
102
}
330
241
100
AcDbScale
 70
     0
300
8:1
140
8.0
141
1.0
290
     0
  0
SCALE
  5
251
102
{ACAD_REACTORS
330
241
102
}
330
241
100
AcDbScale
 70
     0
300
10:1
140
10.0
141
1.0
290
     0
  0
SCALE
  5
252
102
{ACAD_REACTORS
330
241
102
}
330
241
100
AcDbScale
 70
     0
300
100:1
140
100.0
141
1.0
290
     0
  0
SCALE
  5
253
102
{ACAD_REACTORS
330
241
102
}
330
241
100
AcDbScale
 70
     0
300
1/128" = 1'-0"
140
0.0078125
141
12.0
290
     0
  0
SCALE
  5
254
102
{ACAD_REACTORS
330
241
102
}
330
241
100
AcDbScale
 70
     0
300
1/64" = 1'-0"
140
0.015625
141
12.0
290
     0
  0
SCALE
  5
255
102
{ACAD_REACTORS
330
241
102
}
330
241
100
AcDbScale
 70
     0
300
1/32" = 1'-0"
140
0.03125
141
12.0
290
     0
  0
SCALE
  5
256
102
{ACAD_REACTORS
330
241
102
}
330
241
100
AcDbScale
 70
     0
300
1/16" = 1'-0"
140
0.0625
141
12.0
290
     0
  0
SCALE
  5
257
102
{ACAD_REACTORS
330
241
102
}
330
241
100
AcDbScale
 70
     0
300
3/32" = 1'-0"
140
0.09375
141
12.0
290
     0
  0
SCALE
  5
258
102
{ACAD_REACTORS
330
241
102
}
330
241
100
AcDbScale
 70
     0
300
1/8" = 1'-0"
140
0.125
141
12.0
290
     0
  0
SCALE
  5
259
102
{ACAD_REACTORS
330
241
102
}
330
241
100
AcDbScale
 70
     0
300
3/16" = 1'-0"
140
0.1875
141
12.0
290
     0
  0
SCALE
  5
25A
102
{ACAD_REACTORS
330
241
102
}
330
241
100
AcDbScale
 70
     0
300
1/4" = 1'-0"
140
0.25
141
12.0
290
     0
  0
SCALE
  5
25B
102
{ACAD_REACTORS
330
241
102
}
330
241
100
AcDbScale
 70
     0
300
3/8" = 1'-0"
140
0.375
141
12.0
290
     0
  0
SCALE
  5
25C
102
{ACAD_REACTORS
330
241
102
}
330
241
100
AcDbScale
 70
     0
300
1/2" = 1'-0"
140
0.5
141
12.0
290
     0
  0
SCALE
  5
25D
102
{ACAD_REACTORS
330
241
102
}
330
241
100
AcDbScale
 70
     0
300
3/4" = 1'-0"
140
0.75
141
12.0
290
     0
  0
SCALE
  5
25E
102
{ACAD_REACTORS
330
241
102
}
330
241
100
AcDbScale
 70
     0
300
1" = 1'-0"
140
1.0
141
12.0
290
     0
  0
SCALE
  5
25F
102
{ACAD_REACTORS
330
241
102
}
330
241
100
AcDbScale
 70
     0
300
1-1/2" = 1'-0"
140
1.5
141
12.0
290
     0
  0
SCALE
  5
260
102
{ACAD_REACTORS
330
241
102
}
330
241
100
AcDbScale
 70
     0
300
3" = 1'-0"
140
3.0
141
12.0
290
     0
  0
SCALE
  5
261
102
{ACAD_REACTORS
330
241
102
}
330
241
100
AcDbScale
 70
     0
300
6" = 1'-0"
140
6.0
141
12.0
290
     0
  0
SCALE
  5
262
102
{ACAD_REACTORS
330
241
102
}
330
241
100
AcDbScale
 70
     0
300
1'-0" = 1'-0"
140
12.0
141
12.0
290
     0
  0
TABLESTYLE
  5
279
102
{ACAD_REACTORS
330
278
102
}
102
{ACAD_XDICTIONARY
360
4A97
102
}
330
278
100
AcDbTableStyle
  3
Standard
 70
     0
 71
     0
 40
0.06
 41
0.06
280
     0
281
     0
  7
Standard
140
4.5
170
     2
 62
     0
 63
   257
283
     0
 90
        4
 91
        0
  1

274
    -2
284
     1
 64
     0
275
    -2
285
     1
 65
     0
276
    -2
286
     1
 66
     0
277
    -2
287
     1
 67
     0
278
    -2
288
     1
 68
     0
279
    -2
289
     1
 69
     0
  7
Standard
140
6.0
170
     5
 62
     0
 63
   257
283
     0
 90
        4
 91
        0
  1

274
    -2
284
     1
 64
     0
275
    -2
285
     1
 65
     0
276
    -2
286
     1
 66
     0
277
    -2
287
     1
 67
     0
278
    -2
288
     1
 68
     0
279
    -2
289
     1
 69
     0
  7
Standard
140
4.5
170
     5
 62
     0
 63
   257
283
     0
 90
        4
 91
        0
  1

274
    -2
284
     1
 64
     0
275
    -2
285
     1
 65
     0
276
    -2
286
     1
 66
     0
277
    -2
287
     1
 67
     0
278
    -2
288
     1
 68
     0
279
    -2
289
     1
 69
     0
  0
VISUALSTYLE
  5
26C
102
{ACAD_REACTORS
330
267
102
}
330
267
100
AcDbVisualStyle
  2
2dWireframe
 70
     4
 71
     0
 72
     2
 73
     0
 90
        0
 40
-0.6
 41
-30.0
 62
     5
 63
     7
421
 16777215
 74
     1
 91
        4
 64
     7
 65
   257
 75
     1
175
     1
 42
1.0
 92
        0
 66
   257
 43
1.0
 76
     1
 77
     6
 78
     2
 67
     7
 79
     5
170
     0
171
     0
290
     0
174
     0
 93
        1
 44
0.0
173
     0
291
     0
 45
0.0
  0
VISUALSTYLE
  5
26E
102
{ACAD_REACTORS
330
267
102
}
330
267
100
AcDbVisualStyle
  2
3D Hidden
 70
     6
 71
     1
 72
     2
 73
     2
 90
        0
 40
-0.6
 41
-30.0
 62
     5
 63
     7
421
 16777215
 74
     2
 91
        2
 64
     7
 65
   257
 75
     2
175
     1
 42
40.0
 92
        0
 66
   257
 43
1.0
 76
     1
 77
     6
 78
     2
 67
     7
 79
     3
170
     0
171
     0
290
     0
174
     0
 93
        1
 44
0.0
173
     0
291
     0
 45
0.0
  0
VISUALSTYLE
  5
26D
102
{ACAD_REACTORS
330
267
102
}
330
267
100
AcDbVisualStyle
  2
3dWireframe
 70
     5
 71
     0
 72
     2
 73
     0
 90
        0
 40
-0.6
 41
-30.0
 62
     5
 63
     7
421
 16777215
 74
     1
 91
        4
 64
     7
 65
   257
 75
     1
175
     1
 42
1.0
 92
        0
 66
   257
 43
1.0
 76
     1
 77
     6
 78
     2
 67
     7
 79
     5
170
     0
171
     0
290
     0
174
     0
 93
        1
 44
0.0
173
     0
291
     0
 45
0.0
  0
VISUALSTYLE
  5
26F
102
{ACAD_REACTORS
330
267
102
}
330
267
100
AcDbVisualStyle
  2
Basic
 70
     7
 71
     1
 72
     0
 73
     1
 90
        0
 40
-0.6
 41
-30.0
 62
     5
 63
     7
421
 16777215
 74
     0
 91
        4
 64
     7
 65
   257
 75
     1
175
     1
 42
1.0
 92
        8
 66
     7
 43
1.0
 76
     1
 77
     6
 78
     2
 67
     7
 79
     5
170
     0
171
     0
290
     0
174
     0
 93
        1
 44
0.0
173
     0
291
     1
 45
0.0
  0
VISUALSTYLE
  5
273
102
{ACAD_REACTORS
330
267
102
}
330
267
100
AcDbVisualStyle
  2
Brighten
 70
    12
 71
     2
 72
     2
 73
     0
 90
        0
 40
-0.6
 41
-30.0
 62
     5
 63
     7
421
 16777215
 74
     1
 91
        4
 64
     7
 65
   257
 75
     1
175
     1
 42
1.0
 92
        8
 66
     7
 43
1.0
 76
     1
 77
     6
 78
     2
 67
     7
 79
     5
170
     0
171
     0
290
     0
174
     0
 93
        1
 44
50.0
173
     0
291
     1
 45
0.0
  0
VISUALSTYLE
  5
277
102
{ACAD_REACTORS
330
267
102
}
330
267
100
AcDbVisualStyle
  2
ColorChange
 70
    16
 71
     2
 72
     2
 73
     3
 90
        0
 40
-0.6
 41
-30.0
 62
     5
 63
     8
421
  8421504
 74
     1
 91
        4
 64
     7
 65
   257
 75
     1
175
     1
 42
1.0
 92
        8
 66
     8
424
  8421504
 43
1.0
 76
     1
 77
     6
 78
     2
 67
     7
 79
     5
170
     0
171
     0
290
     0
174
     0
 93
        1
 44
0.0
173
     0
291
     1
 45
0.0
  0
VISUALSTYLE
  5
271
102
{ACAD_REACTORS
330
267
102
}
330
267
100
AcDbVisualStyle
  2
Conceptual
 70
     9
 71
     3
 72
     2
 73
     0
 90
        0
 40
-0.6
 41
-30.0
 62
     5
 63
     7
421
 16777215
 74
     2
 91
        2
 64
     7
 65
   257
 75
     1
175
     1
 42
40.0
 92
        8
 66
     7
 43
1.0
 76
     1
 77
     6
 78
     2
 67
     7
 79
     3
170
     0
171
     0
290
     0
174
     0
 93
        1
 44
0.0
173
     0
291
     0
 45
0.0
  0
VISUALSTYLE
  5
272
102
{ACAD_REACTORS
330
267
102
}
330
267
100
AcDbVisualStyle
  2
Dim
 70
    11
 71
     2
 72
     2
 73
     0
 90
        0
 40
-0.6
 41
-30.0
 62
     5
 63
     7
421
 16777215
 74
     1
 91
        4
 64
     7
 65
   257
 75
     1
175
     1
 42
1.0
 92
        8
 66
     7
 43
1.0
 76
     1
 77
     6
 78
     2
 67
     7
 79
     5
170
     0
171
     0
290
     0
174
     0
 93
        1
 44
-50.0
173
     0
291
     1
 45
0.0
  0
VISUALSTYLE
  5
8FE
102
{ACAD_REACTORS
330
267
102
}
330
267
100
AcDbVisualStyle
  2
EdgeColorOff
 70
    22
 71
     2
 72
     2
 73
     0
 90
        0
 40
0.6
 41
30.0
 62
     5
 63
     7
421
 16777215
 74
     1
 91
        4
 64
     7
 65
   257
 75
     1
175
     1
 42
1.0
 92
        8
 66
     7
 43
1.0
 76
     1
 77
     6
 78
     2
 67
     7
 79
     5
170
     0
171
     0
290
     0
174
     0
 93
        1
 44
0.0
173
     0
291
     1
 45
0.0
  0
VISUALSTYLE
  5
276
102
{ACAD_REACTORS
330
267
102
}
330
267
100
AcDbVisualStyle
  2
Facepattern
 70
    15
 71
     2
 72
     2
 73
     0
 90
        0
 40
-0.6
 41
-30.0
 62
     5
 63
     7
421
 16777215
 74
     1
 91
        4
 64
     7
 65
   257
 75
     1
175
     1
 42
1.0
 92
        8
 66
     7
 43
1.0
 76
     1
 77
     6
 78
     2
 67
     7
 79
     5
170
     0
171
     0
290
     0
174
     0
 93
        1
 44
0.0
173
     0
291
     1
 45
0.0
  0
VISUALSTYLE
  5
268
102
{ACAD_REACTORS
330
267
102
}
330
267
100
AcDbVisualStyle
  2
Flat
 70
     0
 71
     2
 72
     1
 73
     1
 90
        2
 40
-0.6
 41
30.0
 62
     5
 63
     7
421
 16777215
 74
     0
 91
        4
 64
     7
 65
   257
 75
     1
175
     1
 42
1.0
 92
        8
 66
     7
 43
1.0
 76
     1
 77
     6
 78
     2
 67
     7
 79
     5
170
     0
171
     0
290
     0
174
     0
 93
       13
 44
0.0
173
     0
291
     1
 45
0.0
  0
VISUALSTYLE
  5
269
102
{ACAD_REACTORS
330
267
102
}
330
267
100
AcDbVisualStyle
  2
FlatWithEdges
 70
     1
 71
     2
 72
     1
 73
     1
 90
        2
 40
-0.6
 41
30.0
 62
     5
 63
     7
421
 16777215
 74
     1
 91
        4
 64
     7
 65
   257
 75
     1
175
     1
 42
1.0
 92
        0
 66
   257
 43
1.0
 76
     1
 77
     6
 78
     2
 67
     7
 79
     5
170
     0
171
     0
290
     0
174
     0
 93
       13
 44
0.0
173
     0
291
     1
 45
0.0
  0
VISUALSTYLE
  5
26A
102
{ACAD_REACTORS
330
267
102
}
330
267
100
AcDbVisualStyle
  2
Gouraud
 70
     2
 71
     2
 72
     2
 73
     1
 90
        2
 40
-0.6
 41
30.0
 62
     5
 63
     7
421
 16777215
 74
     0
 91
        4
 64
     7
 65
   257
 75
     1
175
     1
 42
1.0
 92
        0
 66
     7
 43
1.0
 76
     1
 77
     6
 78
     2
 67
     7
 79
     5
170
     0
171
     0
290
     0
174
     0
 93
       13
 44
0.0
173
     0
291
     1
 45
0.0
  0
VISUALSTYLE
  5
26B
102
{ACAD_REACTORS
330
267
102
}
330
267
100
AcDbVisualStyle
  2
GouraudWithEdges
 70
     3
 71
     2
 72
     2
 73
     1
 90
        2
 40
-0.6
 41
30.0
 62
     5
 63
     7
421
 16777215
 74
     1
 91
        4
 64
     7
 65
   257
 75
     1
175
     1
 42
1.0
 92
        0
 66
   257
 43
1.0
 76
     1
 77
     6
 78
     2
 67
     7
 79
     5
170
     0
171
     0
290
     0
174
     0
 93
       13
 44
0.0
173
     0
291
     1
 45
0.0
  0
VISUALSTYLE
  5
8FB
102
{ACAD_REACTORS
330
267
102
}
330
267
100
AcDbVisualStyle
  2
Hidden
 70
     6
 71
     1
 72
     2
 73
     2
 90
        0
 40
0.6
 41
30.0
 62
     5
 63
     7
421
 16777215
 74
     2
 91
        2
 64
     7
 65
   257
 75
     2
175
     1
 42
40.0
 92
        0
 66
   257
 43
1.0
 76
     1
 77
     6
 78
     2
 67
     7
 79
     3
170
     0
171
     0
290
     0
174
     0
 93
        1
 44
0.0
173
     0
291
     0
 45
0.0
  0
VISUALSTYLE
  5
8FC
102
{ACAD_REACTORS
330
267
102
}
330
267
100
AcDbVisualStyle
  2
JitterOff
 70
    20
 71
     2
 72
     2
 73
     0
 90
        0
 40
0.6
 41
30.0
 62
     5
 63
     7
421
 16777215
 74
     1
 91
        4
 64
     7
 65
   257
 75
     1
175
     1
 42
1.0
 92
       10
 66
     7
 43
1.0
 76
     1
 77
     6
 78
     2
 67
     7
 79
     5
170
     0
171
     0
290
     0
174
     0
 93
        1
 44
0.0
173
     0
291
     1
 45
0.0
  0
VISUALSTYLE
  5
275
102
{ACAD_REACTORS
330
267
102
}
330
267
100
AcDbVisualStyle
  2
Linepattern
 70
    14
 71
     2
 72
     2
 73
     0
 90
        0
 40
-0.6
 41
-30.0
 62
     5
 63
     7
421
 16777215
 74
     1
 91
        4
 64
     7
 65
   257
 75
     7
175
     7
 42
1.0
 92
        8
 66
     7
 43
1.0
 76
     1
 77
     6
 78
     2
 67
     7
 79
     5
170
     0
171
     0
290
     0
174
     0
 93
        1
 44
0.0
173
     0
291
     1
 45
0.0
  0
VISUALSTYLE
  5
8FD
102
{ACAD_REACTORS
330
267
102
}
330
267
100
AcDbVisualStyle
  2
OverhangOff
 70
    21
 71
     2
 72
     2
 73
     0
 90
        0
 40
0.6
 41
30.0
 62
     5
 63
     7
421
 16777215
 74
     1
 91
        4
 64
     7
 65
   257
 75
     1
175
     1
 42
1.0
 92
        9
 66
     7
 43
1.0
 76
     1
 77
     6
 78
     2
 67
     7
 79
     5
170
     0
171
     0
290
     0
174
     0
 93
        1
 44
0.0
173
     0
291
     1
 45
0.0
  0
VISUALSTYLE
  5
270
102
{ACAD_REACTORS
330
267
102
}
330
267
100
AcDbVisualStyle
  2
Realistic
 70
     8
 71
     2
 72
     2
 73
     0
 90
        0
 40
-0.6
 41
-30.0
 62
     5
 63
     7
421
 16777215
 74
     1
 91
        0
 64
     7
 65
   257
 75
     1
175
     1
 42
1.0
 92
        8
 66
     8
424
  7895160
 43
1.0
 76
     1
 77
     6
 78
     2
 67
     7
 79
     5
170
     0
171
     0
290
     0
174
     0
 93
       13
 44
0.0
173
     0
291
     0
 45
0.0
  0
VISUALSTYLE
  5
903
102
{ACAD_REACTORS
330
267
102
}
330
267
100
AcDbVisualStyle
  2
Shaded
 70
    27
 71
     2
 72
     2
 73
     1
 90
        2
 40
0.6
 41
30.0
 62
     5
 63
     7
421
 16777215
 74
     0
 91
        4
 64
     7
 65
   257
 75
     1
175
     1
 42
1.0
 92
        8
 66
   257
 43
1.0
 76
     1
 77
     6
 78
     2
 67
     8
425
  7895160
 79
     3
170
     0
171
     0
290
     0
174
     0
 93
        5
 44
0.0
173
     0
291
     0
 45
0.0
  0
VISUALSTYLE
  5
902
102
{ACAD_REACTORS
330
267
102
}
330
267
100
AcDbVisualStyle
  2
Shaded with edges
 70
    26
 71
     2
 72
     2
 73
     1
 90
        2
 40
0.6
 41
30.0
 62
     5
 63
     7
421
 16777215
 74
     1
 91
       10
 64
     7
 65
   257
 75
     2
175
     1
 42
1.0
 92
        8
 66
   257
 43
1.0
 76
     1
 77
     6
 78
     2
 67
     7
 79
     3
170
     0
171
     0
290
     0
174
     0
 93
        5
 44
0.0
173
     0
291
     0
 45
0.0
  0
VISUALSTYLE
  5
8FF
102
{ACAD_REACTORS
330
267
102
}
330
267
100
AcDbVisualStyle
  2
Shades of Gray
 70
    23
 71
     2
 72
     2
 73
     3
 90
        0
 40
0.6
 41
30.0
 62
     5
 63
     7
421
 16777215
 74
     2
 91
        2
 64
     7
 65
     7
 75
     1
175
     1
 42
40.0
 92
        8
 66
     7
 43
1.0
 76
     1
 77
     6
 78
     2
 67
     7
 79
     3
170
     0
171
     0
290
     0
174
     0
 93
        1
 44
0.0
173
     0
291
     0
 45
0.0
  0
VISUALSTYLE
  5
900
102
{ACAD_REACTORS
330
267
102
}
330
267
100
AcDbVisualStyle
  2
Sketchy
 70
    24
 71
     1
 72
     2
 73
     2
 90
        0
 40
0.6
 41
30.0
 62
     5
 63
     7
421
 16777215
 74
     2
 91
        2
 64
     7
 65
     7
 75
     1
175
     1
 42
40.0
 92
       11
 66
     7
 43
1.0
 76
     1
 77
     6
 78
     2
 67
     7
 79
     6
170
     0
171
     0
290
     0
174
     0
 93
        1
 44
0.0
173
     0
291
     0
 45
0.0
  0
VISUALSTYLE
  5
274
102
{ACAD_REACTORS
330
267
102
}
330
267
100
AcDbVisualStyle
  2
Thicken
 70
    13
 71
     2
 72
     2
 73
     0
 90
        0
 40
-0.6
 41
-30.0
 62
     5
 63
     7
421
 16777215
 74
     1
 91
        4
 64
     7
 65
   257
 75
     1
175
     1
 42
1.0
 92
       12
 66
     7
 43
1.0
 76
     1
 77
     6
 78
     2
 67
     7
 79
     5
170
     0
171
     0
290
     0
174
     0
 93
        1
 44
0.0
173
     0
291
     1
 45
0.0
  0
VISUALSTYLE
  5
8FA
102
{ACAD_REACTORS
330
267
102
}
330
267
100
AcDbVisualStyle
  2
Wireframe
 70
     5
 71
     0
 72
     2
 73
     0
 90
        0
 40
0.6
 41
30.0
 62
     5
 63
     7
421
 16777215
 74
     1
 91
        4
 64
     7
 65
   257
 75
     1
175
     1
 42
1.0
 92
        0
 66
   257
 43
1.0
 76
     1
 77
     6
 78
     2
 67
     7
 79
     3
170
     0
171
     0
290
     0
174
     0
 93
        1
 44
0.0
173
     0
291
     0
 45
0.0
  0
VISUALSTYLE
  5
901
102
{ACAD_REACTORS
330
267
102
}
330
267
100
AcDbVisualStyle
  2
X-Ray
 70
    25
 71
     2
 72
     2
 73
     1
 90
        1
 40
0.5
 41
30.0
 62
     5
 63
     7
421
 16777215
 74
     1
 91
        0
 64
     7
 65
   257
 75
     1
175
     1
 42
1.0
 92
        8
 66
     7
 43
1.0
 76
     1
 77
     6
 78
     2
 67
     7
 79
     3
170
     0
171
     0
290
     0
174
     0
 93
       13
 44
0.0
173
     0
291
     0
 45
0.0
  0
DICTIONARYVAR
  5
331
102
{ACAD_REACTORS
330
330
102
}
330
330
100
DictionaryVariables
280
     0
  1
1:1
  0
DICTIONARYVAR
  5
D5E
102
{ACAD_REACTORS
330
330
102
}
330
330
100
DictionaryVariables
280
     0
  1
Standard
  0
DICTIONARYVAR
  5
335
102
{ACAD_REACTORS
330
330
102
}
330
330
100
DictionaryVariables
280
     0
  1
Standard
  0
DICTIONARYVAR
  5
D52
102
{ACAD_REACTORS
330
330
102
}
330
330
100
DictionaryVariables
280
     0
  1
ByLayer
  0
DICTIONARYVAR
  5
896
102
{ACAD_REACTORS
330
330
102
}
330
330
100
DictionaryVariables
280
     0
  1
0
  0
DICTIONARYVAR
  5
38B2
102
{ACAD_REACTORS
330
E38
102
}
330
E38
100
DictionaryVariables
280
     0
  1
0.261799
  0
DICTIONARYVAR
  5
38B0
102
{ACAD_REACTORS
330
E38
102
}
330
E38
100
DictionaryVariables
280
     0
  1
0.400000
  0
DICTIONARYVAR
  5
38B1
102
{ACAD_REACTORS
330
E38
102
}
330
E38
100
DictionaryVariables
280
     0
  1
0.250000
  0
DICTIONARYVAR
  5
38B3
102
{ACAD_REACTORS
330
E38
102
}
330
E38
100
DictionaryVariables
280
     0
  1
1
  0
XRECORD
  5
7AA
102
{ACAD_REACTORS
330
2E2
102
}
330
2E2
100
AcDbXrecord
280
     1
 91
    34815
301

290
     0
302
HIDDEN
330
14
 90
        8
 62
     7
370
    -3
331
13
  1
Color_7
440
 33554687
330
4B
 90
        8
 62
     7
370
    20
331
13
  1
Color_7
440
 33554687
330
4C
 90
        8
 62
     3
370
    13
331
13
  1
Color_3
440
 33554687
330
4D
 90
        8
 62
     7
370
    20
331
13
  1
Color_7
440
 33554687
330
667
 90
        8
 62
     7
370
    -3
331
13
  1
Color_7
440
 33554687
330
0
 90
        8
 62
     8
370
    20
331
0
  1
Color_8
440
 33554687
330
D6B
 90
        0
 62
     4
370
    20
331
D6C
  1
Color_4
440
 33554687
330
D8C
 90
        0
 62
     7
370
    -3
331
13
  1
Color_7
440
 33554687
  0
FIELD
  5
4531
102
{ACAD_REACTORS
330
4539
102
}
330
4539
100
AcDbField
  1
_text
  2
{%<\_FldIdx 0>%N}
 90
        1
360
4534
 97
        0
 91
       63
 92
        0
 94
        8
 95
        2
 96
        0
300

 93
        1
  6
ACFD_FIELDTEXT_CHECKSUM
 93
        2
 90
        2
140
4547.0
 94
        0
300

302

304
ACVALUE_END
  7
ACFD_FIELD_VALUE
 93
        6
 90
        4
  1
{20160726N}
 94
        0
300

302

304
ACVALUE_END
301
{20160726N}
 98
       11
  0
DICTIONARY
  5
4A97
330
279
100
AcDbDictionary
280
     1
281
     1
  3
ACAD_ROUNDTRIP_2008_TABLESTYLE_CELLSTYLEMAP
360
4A98
  0
FIELD
  5
4534
330
4531
100
AcDbField
  1
AcVar
  2
\AcVar CreateDate \f "yyyyMMdd"
 90
        0
 97
        0
 91
       63
 92
        0
 94
        8
 95
        2
 96
        0
300

 93
        1
  6
Variable
 93
        2
 90
        4
  1
CreateDate
 94
        0
300

302

304
ACVALUE_END
  7
ACFD_FIELD_VALUE
 93
        6
 90
        8
 92
       16
310
E007070000001A0002001E0032000000
 94
        0
300
yyyyMMdd
302

304
ACVALUE_END
301
20160726
 98
        8
  0
CELLSTYLEMAP
  5
4A98
102
{ACAD_REACTORS
330
4A97
102
}
330
4A97
100
AcDbCellStyleMap
 90
        3
300
CELLSTYLE
  1
TABLEFORMAT_BEGIN
 90
        5
170
     1
 91
        0
 92
    32768
 62
   257
 93
        1
300
CONTENTFORMAT
  1
CONTENTFORMAT_BEGIN
 90
        0
 91
        0
 92
        4
 93
        0
300

 40
0.0
140
1.0
 94
        5
 62
     0
340
17
144
6.0
309
CONTENTFORMAT_END
171
     1
301
MARGIN
  1
CELLMARGIN_BEGIN
 40
0.06
 40
0.06
 40
0.06
 40
0.06
 40
0.18
 40
0.18
309
CELLMARGIN_END
 94
        6
 95
        1
302
GRIDFORMAT
  1
GRIDFORMAT_BEGIN
 90
        0
 91
        1
 62
     0
 92
       -2
340
0
 93
        0
 40
0.045
309
GRIDFORMAT_END
 95
        2
302
GRIDFORMAT
  1
GRIDFORMAT_BEGIN
 90
        0
 91
        1
 62
     0
 92
       -2
340
0
 93
        0
 40
0.045
309
GRIDFORMAT_END
 95
        4
302
GRIDFORMAT
  1
GRIDFORMAT_BEGIN
 90
        0
 91
        1
 62
     0
 92
       -2
340
0
 93
        0
 40
0.045
309
GRIDFORMAT_END
 95
        8
302
GRIDFORMAT
  1
GRIDFORMAT_BEGIN
 90
        0
 91
        1
 62
     0
 92
       -2
340
0
 93
        0
 40
0.045
309
GRIDFORMAT_END
 95
       16
302
GRIDFORMAT
  1
GRIDFORMAT_BEGIN
 90
        0
 91
        1
 62
     0
 92
       -2
340
0
 93
        0
 40
0.045
309
GRIDFORMAT_END
 95
       32
302
GRIDFORMAT
  1
GRIDFORMAT_BEGIN
 90
        0
 91
        1
 62
     0
 92
       -2
340
0
 93
        0
 40
0.045
309
GRIDFORMAT_END
309
TABLEFORMAT_END
  1
CELLSTYLE_BEGIN
 90
        1
 91
        1
300
_TITLE
309
CELLSTYLE_END
300
CELLSTYLE
  1
TABLEFORMAT_BEGIN
 90
        5
170
     1
 91
        0
 92
        0
 62
   257
 93
        1
300
CONTENTFORMAT
  1
CONTENTFORMAT_BEGIN
 90
        0
 91
        0
 92
        4
 93
        0
300

 40
0.0
140
1.0
 94
        5
 62
     0
340
17
144
4.5
309
CONTENTFORMAT_END
171
     1
301
MARGIN
  1
CELLMARGIN_BEGIN
 40
0.06
 40
0.06
 40
0.06
 40
0.06
 40
0.18
 40
0.18
309
CELLMARGIN_END
 94
        6
 95
        1
302
GRIDFORMAT
  1
GRIDFORMAT_BEGIN
 90
        0
 91
        1
 62
     0
 92
       -2
340
0
 93
        0
 40
0.045
309
GRIDFORMAT_END
 95
        2
302
GRIDFORMAT
  1
GRIDFORMAT_BEGIN
 90
        0
 91
        1
 62
     0
 92
       -2
340
0
 93
        0
 40
0.045
309
GRIDFORMAT_END
 95
        4
302
GRIDFORMAT
  1
GRIDFORMAT_BEGIN
 90
        0
 91
        1
 62
     0
 92
       -2
340
0
 93
        0
 40
0.045
309
GRIDFORMAT_END
 95
        8
302
GRIDFORMAT
  1
GRIDFORMAT_BEGIN
 90
        0
 91
        1
 62
     0
 92
       -2
340
0
 93
        0
 40
0.045
309
GRIDFORMAT_END
 95
       16
302
GRIDFORMAT
  1
GRIDFORMAT_BEGIN
 90
        0
 91
        1
 62
     0
 92
       -2
340
0
 93
        0
 40
0.045
309
GRIDFORMAT_END
 95
       32
302
GRIDFORMAT
  1
GRIDFORMAT_BEGIN
 90
        0
 91
        1
 62
     0
 92
       -2
340
0
 93
        0
 40
0.045
309
GRIDFORMAT_END
309
TABLEFORMAT_END
  1
CELLSTYLE_BEGIN
 90
        2
 91
        1
300
_HEADER
309
CELLSTYLE_END
300
CELLSTYLE
  1
TABLEFORMAT_BEGIN
 90
        5
170
     1
 91
        0
 92
        0
 62
   257
 93
        1
300
CONTENTFORMAT
  1
CONTENTFORMAT_BEGIN
 90
        0
 91
        0
 92
        4
 93
        0
300

 40
0.0
140
1.0
 94
        2
 62
     0
340
17
144
4.5
309
CONTENTFORMAT_END
171
     1
301
MARGIN
  1
CELLMARGIN_BEGIN
 40
0.06
 40
0.06
 40
0.06
 40
0.06
 40
0.18
 40
0.18
309
CELLMARGIN_END
 94
        6
 95
        1
302
GRIDFORMAT
  1
GRIDFORMAT_BEGIN
 90
        0
 91
        1
 62
     0
 92
       -2
340
0
 93
        0
 40
0.045
309
GRIDFORMAT_END
 95
        2
302
GRIDFORMAT
  1
GRIDFORMAT_BEGIN
 90
        0
 91
        1
 62
     0
 92
       -2
340
0
 93
        0
 40
0.045
309
GRIDFORMAT_END
 95
        4
302
GRIDFORMAT
  1
GRIDFORMAT_BEGIN
 90
        0
 91
        1
 62
     0
 92
       -2
340
0
 93
        0
 40
0.045
309
GRIDFORMAT_END
 95
        8
302
GRIDFORMAT
  1
GRIDFORMAT_BEGIN
 90
        0
 91
        1
 62
     0
 92
       -2
340
0
 93
        0
 40
0.045
309
GRIDFORMAT_END
 95
       16
302
GRIDFORMAT
  1
GRIDFORMAT_BEGIN
 90
        0
 91
        1
 62
     0
 92
       -2
340
0
 93
        0
 40
0.045
309
GRIDFORMAT_END
 95
       32
302
GRIDFORMAT
  1
GRIDFORMAT_BEGIN
 90
        0
 91
        1
 62
     0
 92
       -2
340
0
 93
        0
 40
0.045
309
GRIDFORMAT_END
309
TABLEFORMAT_END
  1
CELLSTYLE_BEGIN
 90
        3
 91
        2
300
_DATA
309
CELLSTYLE_END
  0
ENDSEC
  0
EOF
