  0
SECTION
  2
HEADER
  9
$ACADVER
  1
AC1021
  9
$ACADMAINTVER
 70
    25
  9
$DWGCODEPAGE
  3
ANSI_932
  9
$LASTSAVEDBY
  1
howeNelson
  9
$INSBASE
 10
0.0
 20
0.0
 30
0.0
  9
$EXTMIN
 10
0.0
 20
0.0
 30
-0.0000000000000142
  9
$EXTMAX
 10
420.0
 20
594.0
 30
0.0000000000000142
  9
$LIMMIN
 10
0.0
 20
0.0
  9
$LIMMAX
 10
420.0
 20
594.0
  9
$ORTHOMODE
 70
     0
  9
$REGENMODE
 70
     1
  9
$FILLMODE
 70
     1
  9
$QTEXTMODE
 70
     0
  9
$MIRRTEXT
 70
     1
  9
$LTSCALE
 40
50.0
  9
$ATTMODE
 70
     1
  9
$TEXTSIZE
 40
2.5
  9
$TRACEWID
 40
1.0
  9
$TEXTSTYLE
  7
ＭＳ ゴシック
  9
$CLAYER
  8
DIM
  9
$CELTYPE
  6
ByLayer
  9
$CECOLOR
 62
   256
  9
$CELTSCALE
 40
0.05
  9
$DISPSILH
 70
     0
  9
$DIMSCALE
 40
1.0
  9
$DIMASZ
 40
1.0
  9
$DIMEXO
 40
5.0
  9
$DIMDLI
 40
0.9999999999999999
  9
$DIMRND
 40
0.0
  9
$DIMDLE
 40
0.0
  9
$DIMEXE
 40
0.0
  9
$DIMTP
 40
0.0
  9
$DIMTM
 40
0.0
  9
$DIMTXT
 40
5.0
  9
$DIMCEN
 40
0.0
  9
$DIMTSZ
 40
0.0
  9
$DIMTOL
 70
     0
  9
$DIMLIM
 70
     0
  9
$DIMTIH
 70
     0
  9
$DIMTOH
 70
     0
  9
$DIMSE1
 70
     0
  9
$DIMSE2
 70
     0
  9
$DIMTAD
 70
     1
  9
$DIMZIN
 70
    11
  9
$DIMBLK
  1
DOT
  9
$DIMASO
 70
     1
  9
$DIMSHO
 70
     1
  9
$DIMPOST
  1
<>
  9
$DIMAPOST
  1
[]
  9
$DIMALT
 70
     0
  9
$DIMALTD
 70
     1
  9
$DIMALTF
 40
1.0
  9
$DIMLFAC
 40
1.0
  9
$DIMTOFL
 70
     0
  9
$DIMTVP
 40
0.0
  9
$DIMTIX
 70
     1
  9
$DIMSOXD
 70
     0
  9
$DIMSAH
 70
     0
  9
$DIMBLK1
  1

  9
$DIMBLK2
  1

  9
$DIMSTYLE
  2
tfrom線あり
  9
$DIMCLRD
 70
     0
  9
$DIMCLRE
 70
     0
  9
$DIMCLRT
 70
     0
  9
$DIMTFAC
 40
1.0
  9
$DIMGAP
 40
5.0
  9
$DIMJUST
 70
     0
  9
$DIMSD1
 70
     0
  9
$DIMSD2
 70
     0
  9
$DIMTOLJ
 70
     1
  9
$DIMTZIN
 70
    11
  9
$DIMALTZ
 70
    11
  9
$DIMALTTZ
 70
    11
  9
$DIMUPT
 70
     0
  9
$DIMDEC
 70
     0
  9
$DIMTDEC
 70
     1
  9
$DIMALTU
 70
     2
  9
$DIMALTTD
 70
     2
  9
$DIMTXSTY
  7
ＭＳ ゴシック
  9
$DIMAUNIT
 70
     0
  9
$DIMADEC
 70
     2
  9
$DIMALTRND
 40
0.0
  9
$DIMAZIN
 70
     0
  9
$DIMDSEP
 70
    46
  9
$DIMATFIT
 70
     0
  9
$DIMFRAC
 70
     2
  9
$DIMLDRBLK
  1
DOT
  9
$DIMLUNIT
 70
     2
  9
$DIMLWD
 70
    -2
  9
$DIMLWE
 70
    -2
  9
$DIMTMOVE
 70
     0
  9
$DIMFXL
 40
1.0
  9
$DIMFXLON
 70
     0
  9
$DIMJOGANG
 40
0.7853981633974483
  9
$DIMTFILL
 70
     0
  9
$DIMTFILLCLR
 70
     0
  9
$DIMARCSYM
 70
     0
  9
$DIMLTYPE
  6

  9
$DIMLTEX1
  6

  9
$DIMLTEX2
  6

  9
$LUNITS
 70
     2
  9
$LUPREC
 70
     0
  9
$SKETCHINC
 40
0.1
  9
$FILLETRAD
 40
0.0
  9
$AUNITS
 70
     0
  9
$AUPREC
 70
     0
  9
$MENU
  1
acad
  9
$ELEVATION
 40
0.0
  9
$PELEVATION
 40
0.0
  9
$THICKNESS
 40
0.0
  9
$LIMCHECK
 70
     0
  9
$CHAMFERA
 40
0.0
  9
$CHAMFERB
 40
0.0
  9
$CHAMFERC
 40
0.0
  9
$CHAMFERD
 40
0.0
  9
$SKPOLY
 70
     0
  9
$TDCREATE
 40
2447893.375
  9
$TDUCREATE
 40
0.0
  9
$TDUPDATE
 40
2457571.612277604
  9
$TDUUPDATE
 40
2457571.237277604
  9
$TDINDWG
 40
0.2615568519
  9
$TDUSRTIMER
 40
2457571.236041563
  9
$USRTIMER
 70
     1
  9
$ANGBASE
 50
0.0
  9
$ANGDIR
 70
     0
  9
$PDMODE
 70
     1
  9
$PDSIZE
 40
-2.0
  9
$PLINEWID
 40
0.0
  9
$SPLFRAME
 70
     0
  9
$SPLINETYPE
 70
     6
  9
$SPLINESEGS
 70
     8
  9
$HANDSEED
  5
5E67
  9
$SURFTAB1
 70
     6
  9
$SURFTAB2
 70
     6
  9
$SURFTYPE
 70
     6
  9
$SURFU
 70
     6
  9
$SURFV
 70
     6
  9
$UCSBASE
  2

  9
$UCSNAME
  2

  9
$UCSORG
 10
0.0
 20
0.0
 30
0.0
  9
$UCSXDIR
 10
1.0
 20
0.0
 30
0.0
  9
$UCSYDIR
 10
0.0
 20
1.0
 30
0.0
  9
$UCSORTHOREF
  2

  9
$UCSORTHOVIEW
 70
     0
  9
$UCSORGTOP
 10
0.0
 20
0.0
 30
0.0
  9
$UCSORGBOTTOM
 10
0.0
 20
0.0
 30
0.0
  9
$UCSORGLEFT
 10
0.0
 20
0.0
 30
0.0
  9
$UCSORGRIGHT
 10
0.0
 20
0.0
 30
0.0
  9
$UCSORGFRONT
 10
0.0
 20
0.0
 30
0.0
  9
$UCSORGBACK
 10
0.0
 20
0.0
 30
0.0
  9
$PUCSBASE
  2

  9
$PUCSNAME
  2

  9
$PUCSORG
 10
0.0
 20
0.0
 30
0.0
  9
$PUCSXDIR
 10
1.0
 20
0.0
 30
0.0
  9
$PUCSYDIR
 10
0.0
 20
1.0
 30
0.0
  9
$PUCSORTHOREF
  2

  9
$PUCSORTHOVIEW
 70
     0
  9
$PUCSORGTOP
 10
0.0
 20
0.0
 30
0.0
  9
$PUCSORGBOTTOM
 10
0.0
 20
0.0
 30
0.0
  9
$PUCSORGLEFT
 10
0.0
 20
0.0
 30
0.0
  9
$PUCSORGRIGHT
 10
0.0
 20
0.0
 30
0.0
  9
$PUCSORGFRONT
 10
0.0
 20
0.0
 30
0.0
  9
$PUCSORGBACK
 10
0.0
 20
0.0
 30
0.0
  9
$USERI1
 70
     0
  9
$USERI2
 70
     0
  9
$USERI3
 70
     0
  9
$USERI4
 70
     0
  9
$USERI5
 70
     0
  9
$USERR1
 40
0.0
  9
$USERR2
 40
0.0
  9
$USERR3
 40
0.0
  9
$USERR4
 40
0.0
  9
$USERR5
 40
0.0
  9
$WORLDVIEW
 70
     1
  9
$SHADEDGE
 70
     3
  9
$SHADEDIF
 70
    70
  9
$TILEMODE
 70
     1
  9
$MAXACTVP
 70
    64
  9
$PINSBASE
 10
0.0
 20
0.0
 30
0.0
  9
$PLIMCHECK
 70
     0
  9
$PEXTMIN
 10
0.0
 20
0.0
 30
0.0
  9
$PEXTMAX
 10
0.0
 20
0.0
 30
0.0
  9
$PLIMMIN
 10
-95.87226993865028
 20
-25.69999999999999
  9
$PLIMMAX
 10
201.1277300613497
 20
184.3
  9
$UNITMODE
 70
     0
  9
$VISRETAIN
 70
     0
  9
$PLINEGEN
 70
     1
  9
$PSLTSCALE
 70
     0
  9
$TREEDEPTH
 70
  3020
  9
$CMLSTYLE
  2
Standard
  9
$CMLJUST
 70
     0
  9
$CMLSCALE
 40
1.0
  9
$PROXYGRAPHICS
 70
     0
  9
$MEASUREMENT
 70
     1
  9
$CELWEIGHT
370
    -1
  9
$ENDCAPS
280
     0
  9
$JOINSTYLE
280
     0
  9
$LWDISPLAY
290
     1
  9
$INSUNITS
 70
     4
  9
$HYPERLINKBASE
  1

  9
$STYLESHEET
  1

  9
$XEDIT
290
     1
  9
$CEPSNTYPE
380
     0
  9
$PSTYLEMODE
290
     1
  9
$FINGERPRINTGUID
  2

  9
$VERSIONGUID
  2

  9
$EXTNAMES
290
     1
  9
$PSVPSCALE
 40
0.0
  9
$OLESTARTUP
290
     0
  9
$SORTENTS
280
   127
  9
$INDEXCTL
280
     0
  9
$HIDETEXT
280
     1
  9
$XCLIPFRAME
290
     0
  9
$HALOGAP
280
     0
  9
$OBSCOLOR
 70
   257
  9
$OBSLTYPE
280
     0
  9
$INTERSECTIONDISPLAY
280
     0
  9
$INTERSECTIONCOLOR
 70
   257
  9
$DIMASSOC
280
     2
  9
$PROJECTNAME
  1

  9
$CAMERADISPLAY
290
     0
  9
$LENSLENGTH
 40
50.0
  9
$CAMERAHEIGHT
 40
0.0
  9
$STEPSPERSEC
 40
2.0
  9
$STEPSIZE
 40
6.0
  9
$3DDWFPREC
 40
2.0
  9
$PSOLWIDTH
 40
0.25
  9
$PSOLHEIGHT
 40
4.0
  9
$LOFTANG1
 40
1.570796326794897
  9
$LOFTANG2
 40
1.570796326794897
  9
$LOFTMAG1
 40
0.0
  9
$LOFTMAG2
 40
0.0
  9
$LOFTPARAM
 70
     7
  9
$LOFTNORMALS
280
     1
  9
$LATITUDE
 40
37.795
  9
$LONGITUDE
 40
-122.394
  9
$NORTHDIRECTION
 40
0.0
  9
$TIMEZONE
 70
 -8000
  9
$LIGHTGLYPHDISPLAY
280
     1
  9
$TILEMODELIGHTSYNCH
280
     1
  9
$SOLIDHIST
280
     1
  9
$SHOWHIST
280
     1
  9
$DWFFRAME
280
     2
  9
$DGNFRAME
280
     2
  9
$REALWORLDSCALE
290
     1
  9
$INTERFERECOLOR
 62
   256
  9
$CSHADOW
280
     0
  9
$SHADOWPLANELOCATION
 40
0.0
  0
ENDSEC
  0
SECTION
  2
CLASSES
  0
CLASS
  1
LWPOLYLINE
  2
AcDbPolyline
  3
ObjectDBX Classes
 90
        0
 91
        1
280
     0
281
     1
  0
CLASS
  1
IMAGE
  2
AcDbRasterImage
  3
ISM
 90
      127
 91
        5
280
     0
281
     1
  0
CLASS
  1
OLE2FRAME
  2
AcDbOle2Frame
  3
ObjectDBX Classes
 90
        0
 91
        1
280
     0
281
     1
  0
CLASS
  1
HATCH
  2
AcDbHatch
  3
ObjectDBX Classes
 90
        0
 91
        1
280
     0
281
     1
  0
CLASS
  1
DICTIONARYVAR
  2
AcDbDictionaryVar
  3
ObjectDBX Classes
 90
        0
 91
        4
280
     0
281
     0
  0
CLASS
  1
RASTERVARIABLES
  2
AcDbRasterVariables
  3
ISM
 90
        0
 91
        4
280
     0
281
     0
  0
CLASS
  1
IMAGEDEF
  2
AcDbRasterImageDef
  3
ISM
 90
        0
 91
        4
280
     0
281
     0
  0
CLASS
  1
IMAGEDEF_REACTOR
  2
AcDbRasterImageDefReactor
  3
ISM
 90
        1
 91
        4
280
     0
281
     0
  0
CLASS
  1
IDBUFFER
  2
AcDbIdBuffer
  3
ObjectDBX Classes
 90
        0
 91
        4
280
     0
281
     0
  0
CLASS
  1
SPATIAL_FILTER
  2
AcDbSpatialFilter
  3
ObjectDBX Classes
 90
        0
 91
        4
280
     0
281
     0
  0
CLASS
  1
XRECORD
  2
AcDbXrecord
  3
ObjectDBX Classes
 90
        0
 91
        1
280
     0
281
     0
  0
CLASS
  1
SORTENTSTABLE
  2
AcDbSortentsTable
  3
ObjectDBX Classes
 90
        0
 91
        4
280
     0
281
     0
  0
CLASS
  1
LAYER_INDEX
  2
AcDbLayerIndex
  3
ObjectDBX Classes
 90
        0
 91
        4
280
     0
281
     0
  0
CLASS
  1
SPATIAL_INDEX
  2
AcDbSpatialIndex
  3
AutoCAD 2000
 90
        0
 91
        4
280
     0
281
     0
  0
CLASS
  1
OBJECT_PTR
  2
CAseDLPNTableRecord
  3
ASE-LPNTableRecord
 90
        1
 91
        4
280
     0
281
     0
  0
CLASS
  1
LAYOUT
  2
AcDbLayout
  3
ObjectDBX Classes
 90
        0
 91
        1
280
     0
281
     0
  0
CLASS
  1
PLOTSETTINGS
  2
AcDbPlotSettings
  3
ObjectDBX Classes
 90
        0
 91
        4
280
     0
281
     0
  0
CLASS
  1
ACDBDICTIONARYWDFLT
  2
AcDbDictionaryWithDefault
  3
ObjectDBX Classes
 90
        0
 91
        4
280
     0
281
     0
  0
CLASS
  1
ACDBPLACEHOLDER
  2
AcDbPlaceHolder
  3
ObjectDBX Classes
 90
        0
 91
        1
280
     0
281
     0
  0
CLASS
  1
SCALE
  2
AcDbScale
  3
ObjectDBX Classes
 90
     1153
 91
        4
280
     0
281
     0
  0
CLASS
  1
MATERIAL
  2
AcDbMaterial
  3
ObjectDBX Classes
 90
     1153
 91
        4
280
     0
281
     0
  0
CLASS
  1
VISUALSTYLE
  2
AcDbVisualStyle
  3
ObjectDBX Classes
 90
     4095
 91
        4
280
     0
281
     0
  0
CLASS
  1
TABLESTYLE
  2
AcDbTableStyle
  3
ObjectDBX Classes
 90
     4095
 91
        4
280
     0
281
     0
  0
CLASS
  1
DIMASSOC
  2
AcDbDimAssoc
  3
"AcDbDimAssoc|Product Desc:     AcDim ARX App For Dimension|Company:          Autodesk, Inc.|WEB Address:      www.autodesk.com"
 90
        0
 91
        4
280
     0
281
     0
  0
CLASS
  1
CELLSTYLEMAP
  2
AcDbCellStyleMap
  3
ObjectDBX Classes
 90
     1152
 91
        4
280
     0
281
     0
  0
CLASS
  1
SUN
  2
AcDbSun
  3
SCENEOE
 90
     1153
 91
        4
280
     0
281
     0
  0
CLASS
  1
MLEADERSTYLE
  2
AcDbMLeaderStyle
  3
ACDB_MLEADERSTYLE_CLASS
 90
     4095
 91
        4
280
     0
281
     0
  0
CLASS
  1
FIELD
  2
AcDbField
  3
ObjectDBX Classes
 90
     1152
 91
        4
280
     0
281
     0
  0
CLASS
  1
FIELDLIST
  2
AcDbFieldList
  3
ObjectDBX Classes
 90
     1152
 91
        4
280
     0
281
     0
  0
ENDSEC
  0
SECTION
  2
TABLES
  0
TABLE
  2
VPORT
  5
7
330
0
100
AcDbSymbolTable
 70
     1
  0
VPORT
  5
15
330
7
100
AcDbSymbolTableRecord
100
AcDbViewportTableRecord
  2
*ACTIVE
 70
     0
 10
0.0
 20
0.0
 11
1.0
 21
1.0
 12
301.0201356709075
 22
223.401285469834
 13
0.0
 23
0.0
 14
1.0
 24
1.0
 15
0.0
 25
0.0
 16
0.0
 26
0.0
 36
1.0
 17
-91.02013567090751
 27
73.59871453016603
 37
-46.86809886248109
 40
605.8800000000005
 41
2.410404624277457
 42
50.0
 43
0.0
 44
0.0
 50
0.0
 51
0.0
 71
    16
 72
  2000
 73
     1
 74
     1
 75
     0
 76
     0
 77
     0
 78
     0
281
     0
 65
     1
110
0.0
120
0.0
130
0.0
111
1.0
121
0.0
131
0.0
112
0.0
122
1.0
132
0.0
 79
     0
146
0.0
348
26C
 60
     3
 61
     5
292
     1
282
     1
141
0.0
142
0.0
 63
   256
361
904
  0
ENDTAB
  0
TABLE
  2
LTYPE
  5
4
330
0
100
AcDbSymbolTable
 70
     5
  0
LTYPE
  5
11
330
4
100
AcDbSymbolTableRecord
100
AcDbLinetypeTableRecord
  2
ByBlock
 70
     0
  3

 72
    65
 73
     0
 40
0.0
  0
LTYPE
  5
12
330
4
100
AcDbSymbolTableRecord
100
AcDbLinetypeTableRecord
  2
ByLayer
 70
     0
  3

 72
    65
 73
     0
 40
0.0
  0
LTYPE
  5
13
330
4
100
AcDbSymbolTableRecord
100
AcDbLinetypeTableRecord
  2
Continuous
 70
     0
  3
Solid line
 72
    65
 73
     0
 40
0.0
  0
LTYPE
  5
D6C
330
4
100
AcDbSymbolTableRecord
100
AcDbLinetypeTableRecord
  2
BORDER
 70
     0
  3
Border __  __  . __  __  . __  __  . __  __  . 
 72
    65
 73
     6
 40
44.45
 49
12.7
 74
     0
 49
-6.35
 74
     0
 49
12.7
 74
     0
 49
-6.35
 74
     0
 49
0.0
 74
     0
 49
-6.35
 74
     0
  0
LTYPE
  5
1638
330
4
100
AcDbSymbolTableRecord
100
AcDbLinetypeTableRecord
  2
HIDDEN2
 70
     0
  3
Hidden (.5x) _ _ _ _ _ _ _ _ _ _ _ _ _ _ _ _ _ 
 72
    65
 73
     2
 40
4.7625
 49
3.175
 74
     4
 75
     0
340
0
 46
0.0
 50
0.0
 44
0.0
 45
0.0
 49
-1.5875
 74
     4
 75
     0
340
0
 46
0.0
 50
0.0
 44
0.0
 45
0.0
  0
LTYPE
  5
4A90
330
4
100
AcDbSymbolTableRecord
100
AcDbLinetypeTableRecord
  2
CENTER2
 70
     0
  3
Center (.5x) ___ _ ___ _ ___ _ ___ _ ___ _ ___
 72
    65
 73
     4
 40
28.575
 49
19.05
 74
     4
 75
     0
340
0
 46
0.0
 50
0.0
 44
0.0
 45
0.0
 49
-3.175
 74
     4
 75
     0
340
0
 46
0.0
 50
0.0
 44
0.0
 45
0.0
 49
3.175
 74
     4
 75
     0
340
0
 46
0.0
 50
0.0
 44
0.0
 45
0.0
 49
-3.175
 74
     4
 75
     0
340
0
 46
0.0
 50
0.0
 44
0.0
 45
0.0
  0
ENDTAB
  0
TABLE
  2
LAYER
  5
2
102
{ACAD_XDICTIONARY
360
2E1
102
}
330
0
100
AcDbSymbolTable
 70
    16
  0
LAYER
  5
14
330
2
100
AcDbSymbolTableRecord
100
AcDbLayerTableRecord
  2
0
 70
     0
 62
     7
  6
Continuous
370
    -3
390
1D
347
266
  0
LAYER
  5
4B
330
2
100
AcDbSymbolTableRecord
100
AcDbLayerTableRecord
  2
TEMPLATE
 70
     0
 62
     7
  6
Continuous
370
    20
390
1D
347
266
  0
LAYER
  5
4C
330
2
100
AcDbSymbolTableRecord
100
AcDbLayerTableRecord
  2
DIM
 70
     0
 62
     3
  6
Continuous
370
    13
390
1D
347
266
  0
LAYER
  5
4D
330
2
100
AcDbSymbolTableRecord
100
AcDbLayerTableRecord
  2
MODEL
 70
     0
 62
     7
  6
Continuous
370
    20
390
1D
347
266
  0
LAYER
  5
667
330
2
100
AcDbSymbolTableRecord
100
AcDbLayerTableRecord
  2
LOGO
 70
     0
 62
     7
  6
Continuous
370
    -3
390
1D
347
266
  0
LAYER
  5
D6B
330
2
100
AcDbSymbolTableRecord
100
AcDbLayerTableRecord
  2
BORDER
 70
     0
 62
     4
  6
BORDER
290
     0
370
    20
390
1D
347
266
1001
AcAecLayerStandard
1000

1000

  0
LAYER
  5
D8C
330
2
100
AcDbSymbolTableRecord
100
AcDbLayerTableRecord
  2
Defpoints
 70
     0
 62
     7
  6
Continuous
290
     0
370
    -3
390
1D
347
266
  0
LAYER
  5
1635
330
2
100
AcDbSymbolTableRecord
100
AcDbLayerTableRecord
  2
Standard
 70
     0
 62
     7
  6
Continuous
370
    -3
390
1D
347
266
  0
LAYER
  5
3445
330
2
100
AcDbSymbolTableRecord
100
AcDbLayerTableRecord
  2
Layer50
 70
     0
 62
     7
  6
Continuous
370
    -3
390
1D
347
266
  0
LAYER
  5
4A8D
330
2
100
AcDbSymbolTableRecord
100
AcDbLayerTableRecord
  2
Layer51
 70
     0
 62
     7
  6
Continuous
370
    -3
390
1D
347
266
  0
LAYER
  5
4A8E
330
2
100
AcDbSymbolTableRecord
100
AcDbLayerTableRecord
  2
Default
 70
     0
 62
     7
  6
Continuous
370
    -3
390
1D
347
266
  0
LAYER
  5
4A8F
330
2
100
AcDbSymbolTableRecord
100
AcDbLayerTableRecord
  2
Layer3
 70
     0
 62
     7
  6
Continuous
370
    -3
390
1D
347
266
  0
LAYER
  5
50B8
330
2
100
AcDbSymbolTableRecord
100
AcDbLayerTableRecord
  2
Layer1
 70
     0
 62
     7
  6
Continuous
370
    -3
390
1D
347
266
  0
LAYER
  5
50BC
330
2
100
AcDbSymbolTableRecord
100
AcDbLayerTableRecord
  2
デフォルト
 70
     0
 62
     7
  6
Continuous
370
    -3
390
1D
347
266
  0
ENDTAB
  0
TABLE
  2
STYLE
  5
3
330
0
100
AcDbSymbolTable
 70
     4
  0
STYLE
  5
17
330
3
100
AcDbSymbolTableRecord
100
AcDbTextStyleTableRecord
  2
Standard
 70
     0
 40
0.0
 41
1.0
 50
0.0
 71
     0
 42
2.5
  3
txt
  4
BIGFONT.SHX
  0
STYLE
  5
39
330
3
100
AcDbSymbolTableRecord
100
AcDbTextStyleTableRecord
  2
ＭＳ ゴシック
 70
     0
 40
0.0
 41
1.0
 50
0.0
 71
     0
 42
2.5
  3
msgothic.ttc
  4
ＭＳ ゴシック
1001
ACAD
1000
ＭＳ ゴシック
1071
        0
  0
STYLE
  5
4A94
330
3
100
AcDbSymbolTableRecord
100
AcDbTextStyleTableRecord
  2
SEACAD_arial_ttf
 70
     0
 40
0.0
 41
1.0
 50
0.0
 71
     0
 42
2.5
  3
arial.ttf
  4

  0
ENDTAB
  0
TABLE
  2
VIEW
  5
5
330
0
100
AcDbSymbolTable
 70
     0
  0
ENDTAB
  0
TABLE
  2
UCS
  5
6
330
0
100
AcDbSymbolTable
 70
     0
  0
ENDTAB
  0
TABLE
  2
APPID
  5
8
330
0
100
AcDbSymbolTable
 70
     3
  0
APPID
  5
16
330
8
100
AcDbSymbolTableRecord
100
AcDbRegAppTableRecord
  2
ACAD
 70
     0
  0
APPID
  5
7AC
330
8
100
AcDbSymbolTableRecord
100
AcDbRegAppTableRecord
  2
AcAecLayerStandard
 70
     0
  0
APPID
  5
E29
330
8
100
AcDbSymbolTableRecord
100
AcDbRegAppTableRecord
  2
ACAD_MLEADERVER
 70
     0
  0
ENDTAB
  0
TABLE
  2
DIMSTYLE
  5
9
330
0
100
AcDbSymbolTable
 70
     7
100
AcDbDimStyleTable
  0
DIMSTYLE
105
18
330
9
100
AcDbSymbolTableRecord
100
AcDbDimStyleTableRecord
  2
Standard
 70
     0
178
     0
340
17
  0
DIMSTYLE
105
57
102
{ACAD_REACTORS
330
5DA3
330
5DA5
330
5DA6
330
5DA7
102
}
330
9
100
AcDbSymbolTableRecord
100
AcDbDimStyleTableRecord
  2
tfrom線あり
 70
     0
  3
<>
  4
[]
 41
1.0
 42
5.0
 43
0.9999999999999999
 44
0.0
 73
     0
 74
     0
 77
     1
 78
    11
140
5.0
141
0.0
143
1.0
147
5.0
171
     1
174
     1
178
     0
179
     2
271
     0
272
     1
276
     2
284
    11
285
    11
286
    11
289
     0
340
39
341
4E
342
4E
  0
DIMSTYLE
105
4A91
330
9
100
AcDbSymbolTableRecord
100
AcDbDimStyleTableRecord
  2
ISO-25
 70
     0
 41
2.5
 42
0.625
 43
3.75
 44
1.25
 73
     0
 74
     0
 77
     1
 78
     8
140
2.5
141
2.5
143
0.0393700787
147
0.625
171
     3
172
     1
178
     0
271
     2
272
     2
274
     3
278
    44
283
     0
284
     8
340
17
  0
DIMSTYLE
105
4A93
102
{ACAD_REACTORS
330
4D48
330
4D53
330
4D5E
330
4D69
330
4D74
102
}
330
9
100
AcDbSymbolTableRecord
100
AcDbDimStyleTableRecord
  2
$DDT_AUDIT_GENERATED_(2DA)
 70
     0
 41
6.0
 42
0.0
 44
3.0
 78
     8
140
6.0
141
3.0
144
2.0
147
3.0
173
     1
176
   136
177
   136
271
     0
178
   136
271
     0
272
     0
278
    44
284
     8
340
4A94
343
4A95
344
4A95
  0
DIMSTYLE
105
50C0
102
{ACAD_REACTORS
330
5314
330
531F
330
532A
330
5335
330
5340
330
5B29
330
5B37
330
5B45
330
5B55
330
5B63
102
}
330
9
100
AcDbSymbolTableRecord
100
AcDbDimStyleTableRecord
  2
$DDT_AUDIT_GENERATED_(27A)
 70
     0
 41
6.0
 42
0.0
 44
3.0
 78
     8
140
6.0
141
3.0
144
2.0
147
3.0
173
     1
176
   136
177
   136
271
     0
178
   136
271
     0
272
     0
278
    44
284
     8
340
4A94
343
4A95
344
4A95
  0
ENDTAB
  0
TABLE
  2
BLOCK_RECORD
  5
1
330
0
100
AcDbSymbolTable
 70
    72
  0
BLOCK_RECORD
  5
A
330
1
100
AcDbSymbolTableRecord
100
AcDbBlockTableRecord
  2
*MODEL_SPACE
340
20
 70
     0
280
     1
281
     0
  0
BLOCK_RECORD
  5
B
330
1
100
AcDbSymbolTableRecord
100
AcDbBlockTableRecord
  2
*PAPER_SPACE
340
21
 70
     0
280
     1
281
     0
  0
BLOCK_RECORD
  5
4E
330
1
100
AcDbSymbolTableRecord
100
AcDbBlockTableRecord
  2
_DOT
340
0
102
{BLKREFS
331
3873
331
3874
331
3880
331
3881
331
3939
331
393A
331
468C
331
468D
331
46D4
331
46D5
331
4963
331
4970
331
0
331
4999
331
49A6
331
49B3
331
49C0
331
5028
331
5035
331
5042
331
504F
331
505C
331
5887
331
5888
331
5893
331
5894
331
589F
331
58A0
331
58AB
331
58AC
331
58B7
331
58B8
331
5DAE
331
5DBE
331
5DC8
331
5DD7
331
5DE4
102
}
 70
     0
280
     1
281
     0
  0
BLOCK_RECORD
  5
68A
330
1
100
AcDbSymbolTableRecord
100
AcDbBlockTableRecord
  2
名称未設定-1
340
0
102
{BLKREFS
331
6B5
331
0
102
}
 70
     1
280
     1
281
     0
  0
BLOCK_RECORD
  5
68D
330
1
100
AcDbSymbolTableRecord
100
AcDbBlockTableRecord
  2
block 2
340
0
102
{BLKREFS
331
68C
331
1343
102
}
 70
     0
280
     1
281
     0
  0
BLOCK_RECORD
  5
690
330
1
100
AcDbSymbolTableRecord
100
AcDbBlockTableRecord
  2
block 3
340
0
102
{BLKREFS
331
68F
102
}
 70
     0
280
     1
281
     0
  0
BLOCK_RECORD
  5
693
330
1
100
AcDbSymbolTableRecord
100
AcDbBlockTableRecord
  2
block 4
340
0
102
{BLKREFS
331
692
102
}
 70
     0
280
     1
281
     0
  0
BLOCK_RECORD
  5
6A2
330
1
100
AcDbSymbolTableRecord
100
AcDbBlockTableRecord
  2
block 5
340
0
102
{BLKREFS
331
6A1
102
}
 70
     0
280
     1
281
     0
  0
BLOCK_RECORD
  5
495D
330
1
100
AcDbSymbolTableRecord
100
AcDbBlockTableRecord
  2
*D21
340
0
 70
     0
280
     1
281
     0
  0
BLOCK_RECORD
  5
496A
330
1
100
AcDbSymbolTableRecord
100
AcDbBlockTableRecord
  2
*D22
340
0
 70
     0
280
     1
281
     0
  0
BLOCK_RECORD
  5
4993
330
1
100
AcDbSymbolTableRecord
100
AcDbBlockTableRecord
  2
*D25
340
0
 70
     0
280
     1
281
     0
  0
BLOCK_RECORD
  5
49A0
330
1
100
AcDbSymbolTableRecord
100
AcDbBlockTableRecord
  2
*D26
340
0
 70
     0
280
     1
281
     0
  0
BLOCK_RECORD
  5
49AD
330
1
100
AcDbSymbolTableRecord
100
AcDbBlockTableRecord
  2
*D27
340
0
 70
     0
280
     1
281
     0
  0
BLOCK_RECORD
  5
49BA
330
1
100
AcDbSymbolTableRecord
100
AcDbBlockTableRecord
  2
*D28
340
0
 70
     0
280
     1
281
     0
  0
BLOCK_RECORD
  5
4A95
330
1
100
AcDbSymbolTableRecord
100
AcDbBlockTableRecord
  2
_SE_FILLED
340
0
102
{BLKREFS
331
4D4F
331
4D50
331
4D5A
331
4D5B
331
4D65
331
4D66
331
4D70
331
4D71
331
4D7B
331
4D7C
331
5029
331
0
331
5036
331
0
331
5043
331
0
331
5050
331
0
331
505D
331
0
331
531B
331
531C
331
5327
331
5328
331
5331
331
5332
331
533C
331
533D
331
5347
331
5348
331
559B
331
559C
331
55A9
331
0
331
55B6
331
55B7
331
55C5
331
55C6
331
55D2
331
55D3
331
55A8
331
5DAF
331
0
331
0
331
5DBD
331
5DC9
331
0
331
5DD8
331
0
331
5DE5
331
0
102
}
 70
     0
280
     1
281
     0
1001
ACAD
1000
DesignCenter Data
1002
{
1070
     1
1070
     0
1002
}
  0
BLOCK_RECORD
  5
4C24
330
1
100
AcDbSymbolTableRecord
100
AcDbBlockTableRecord
  2
SEANNOT_GROUP
340
0
102
{BLKREFS
331
4C23
331
0
102
}
 70
     0
280
     1
281
     0
1001
ACAD
1000
DesignCenter Data
1002
{
1070
     1
1070
     0
1002
}
  0
BLOCK_RECORD
  5
4D49
330
1
100
AcDbSymbolTableRecord
100
AcDbBlockTableRecord
  2
DMBLK23
340
0
 70
     0
280
     1
281
     0
1001
ACAD
1000
DesignCenter Data
1002
{
1070
     1
1070
     0
1002
}
  0
BLOCK_RECORD
  5
4D54
330
1
100
AcDbSymbolTableRecord
100
AcDbBlockTableRecord
  2
DMBLK24
340
0
 70
     0
280
     1
281
     0
1001
ACAD
1000
DesignCenter Data
1002
{
1070
     1
1070
     0
1002
}
  0
BLOCK_RECORD
  5
4D5F
330
1
100
AcDbSymbolTableRecord
100
AcDbBlockTableRecord
  2
DMBLK25
340
0
 70
     0
280
     1
281
     0
1001
ACAD
1000
DesignCenter Data
1002
{
1070
     1
1070
     0
1002
}
  0
BLOCK_RECORD
  5
4D6A
330
1
100
AcDbSymbolTableRecord
100
AcDbBlockTableRecord
  2
DMBLK26
340
0
 70
     0
280
     1
281
     0
1001
ACAD
1000
DesignCenter Data
1002
{
1070
     1
1070
     0
1002
}
  0
BLOCK_RECORD
  5
4D75
330
1
100
AcDbSymbolTableRecord
100
AcDbBlockTableRecord
  2
DMBLK27
340
0
 70
     0
280
     1
281
     0
1001
ACAD
1000
DesignCenter Data
1002
{
1070
     1
1070
     0
1002
}
  0
BLOCK_RECORD
  5
5022
330
1
100
AcDbSymbolTableRecord
100
AcDbBlockTableRecord
  2
*D39
340
0
 70
     0
280
     1
281
     0
  0
BLOCK_RECORD
  5
502F
330
1
100
AcDbSymbolTableRecord
100
AcDbBlockTableRecord
  2
*D40
340
0
 70
     0
280
     1
281
     0
  0
BLOCK_RECORD
  5
503C
330
1
100
AcDbSymbolTableRecord
100
AcDbBlockTableRecord
  2
*D41
340
0
 70
     0
280
     1
281
     0
  0
BLOCK_RECORD
  5
5049
330
1
100
AcDbSymbolTableRecord
100
AcDbBlockTableRecord
  2
*D42
340
0
 70
     0
280
     1
281
     0
  0
BLOCK_RECORD
  5
5056
330
1
100
AcDbSymbolTableRecord
100
AcDbBlockTableRecord
  2
*D43
340
0
 70
     0
280
     1
281
     0
  0
BLOCK_RECORD
  5
5315
330
1
100
AcDbSymbolTableRecord
100
AcDbBlockTableRecord
  2
DMBLK49
340
0
 70
     0
280
     1
281
     0
1001
ACAD
1000
DesignCenter Data
1002
{
1070
     1
1070
     0
1002
}
  0
BLOCK_RECORD
  5
5320
330
1
100
AcDbSymbolTableRecord
100
AcDbBlockTableRecord
  2
DMBLK50
340
0
 70
     0
280
     1
281
     0
1001
ACAD
1000
DesignCenter Data
1002
{
1070
     1
1070
     0
1002
}
  0
BLOCK_RECORD
  5
532B
330
1
100
AcDbSymbolTableRecord
100
AcDbBlockTableRecord
  2
DMBLK51
340
0
 70
     0
280
     1
281
     0
1001
ACAD
1000
DesignCenter Data
1002
{
1070
     1
1070
     0
1002
}
  0
BLOCK_RECORD
  5
5336
330
1
100
AcDbSymbolTableRecord
100
AcDbBlockTableRecord
  2
DMBLK52
340
0
 70
     0
280
     1
281
     0
1001
ACAD
1000
DesignCenter Data
1002
{
1070
     1
1070
     0
1002
}
  0
BLOCK_RECORD
  5
5341
330
1
100
AcDbSymbolTableRecord
100
AcDbBlockTableRecord
  2
DMBLK53
340
0
 70
     0
280
     1
281
     0
1001
ACAD
1000
DesignCenter Data
1002
{
1070
     1
1070
     0
1002
}
  0
BLOCK_RECORD
  5
5594
330
1
100
AcDbSymbolTableRecord
100
AcDbBlockTableRecord
  2
*D50
340
0
 70
     0
280
     1
281
     0
  0
BLOCK_RECORD
  5
55A1
330
1
100
AcDbSymbolTableRecord
100
AcDbBlockTableRecord
  2
*D51
340
0
 70
     0
280
     1
281
     0
  0
BLOCK_RECORD
  5
55AF
330
1
100
AcDbSymbolTableRecord
100
AcDbBlockTableRecord
  2
*D52
340
0
 70
     0
280
     1
281
     0
  0
BLOCK_RECORD
  5
55BE
330
1
100
AcDbSymbolTableRecord
100
AcDbBlockTableRecord
  2
*D53
340
0
 70
     0
280
     1
281
     0
  0
BLOCK_RECORD
  5
55CB
330
1
100
AcDbSymbolTableRecord
100
AcDbBlockTableRecord
  2
*D54
340
0
 70
     0
280
     1
281
     0
  0
BLOCK_RECORD
  5
5881
330
1
100
AcDbSymbolTableRecord
100
AcDbBlockTableRecord
  2
*D55
340
0
 70
     0
280
     1
281
     0
  0
BLOCK_RECORD
  5
588D
330
1
100
AcDbSymbolTableRecord
100
AcDbBlockTableRecord
  2
*D56
340
0
 70
     0
280
     1
281
     0
  0
BLOCK_RECORD
  5
5899
330
1
100
AcDbSymbolTableRecord
100
AcDbBlockTableRecord
  2
*D57
340
0
 70
     0
280
     1
281
     0
  0
BLOCK_RECORD
  5
58A5
330
1
100
AcDbSymbolTableRecord
100
AcDbBlockTableRecord
  2
*D58
340
0
 70
     0
280
     1
281
     0
  0
BLOCK_RECORD
  5
58B1
330
1
100
AcDbSymbolTableRecord
100
AcDbBlockTableRecord
  2
*D59
340
0
 70
     0
280
     1
281
     0
  0
BLOCK_RECORD
  5
5B2A
330
1
100
AcDbSymbolTableRecord
100
AcDbBlockTableRecord
  2
*D61
340
0
 70
     0
280
     1
281
     0
  0
BLOCK_RECORD
  5
5B38
330
1
100
AcDbSymbolTableRecord
100
AcDbBlockTableRecord
  2
*D62
340
0
 70
     0
280
     1
281
     0
  0
BLOCK_RECORD
  5
5B46
330
1
100
AcDbSymbolTableRecord
100
AcDbBlockTableRecord
  2
*D63
340
0
 70
     0
280
     1
281
     0
  0
BLOCK_RECORD
  5
5B56
330
1
100
AcDbSymbolTableRecord
100
AcDbBlockTableRecord
  2
*D64
340
0
 70
     0
280
     1
281
     0
  0
BLOCK_RECORD
  5
5B64
330
1
100
AcDbSymbolTableRecord
100
AcDbBlockTableRecord
  2
*D65
340
0
 70
     0
280
     1
281
     0
  0
BLOCK_RECORD
  5
5DA8
330
1
100
AcDbSymbolTableRecord
100
AcDbBlockTableRecord
  2
*D66
340
0
 70
     0
280
     1
281
     0
  0
BLOCK_RECORD
  5
5DB5
330
1
100
AcDbSymbolTableRecord
100
AcDbBlockTableRecord
  2
*D67
340
0
 70
     0
280
     1
281
     0
  0
BLOCK_RECORD
  5
5DC2
330
1
100
AcDbSymbolTableRecord
100
AcDbBlockTableRecord
  2
*D68
340
0
 70
     0
280
     1
281
     0
  0
BLOCK_RECORD
  5
5DD1
330
1
100
AcDbSymbolTableRecord
100
AcDbBlockTableRecord
  2
*D69
340
0
 70
     0
280
     1
281
     0
  0
BLOCK_RECORD
  5
5DDE
330
1
100
AcDbSymbolTableRecord
100
AcDbBlockTableRecord
  2
*D70
340
0
 70
     0
280
     1
281
     0
  0
ENDTAB
  0
ENDSEC
  0
SECTION
  2
BLOCKS
  0
BLOCK
  5
D
330
A
100
AcDbEntity
  8
0
390
1D
100
AcDbBlockBegin
  2
*MODEL_SPACE
 70
     0
 10
0.0
 20
0.0
 30
0.0
  3
*MODEL_SPACE
  1
*MODEL_SPACE
  0
ENDBLK
  5
E
330
A
100
AcDbEntity
  8
0
390
1D
100
AcDbBlockEnd
  0
BLOCK
  5
F
330
B
100
AcDbEntity
 67
     1
  8
0
390
1D
100
AcDbBlockBegin
  2
*PAPER_SPACE
 70
     0
 10
0.0
 20
0.0
 30
0.0
  3
*PAPER_SPACE
  1
*PAPER_SPACE
  0
ENDBLK
  5
10
330
B
100
AcDbEntity
 67
     1
  8
0
390
1D
100
AcDbBlockEnd
  0
BLOCK
  5
38A8
330
4E
100
AcDbEntity
  8
0
390
1D
100
AcDbBlockBegin
  2
_DOT
 70
     0
 10
0.0
 20
0.0
 30
0.0
  3
_DOT
  1
_DOT
  0
POLYLINE
  5
38AA
330
4E
100
AcDbEntity
  8
0
  6
ByBlock
 62
     0
370
    -2
390
1D
100
AcDb2dPolyline
 66
     1
 10
0.0
 20
0.0
 30
0.0
 70
     1
 40
0.5
 41
0.5
  0
VERTEX
  5
38AB
330
38AA
100
AcDbEntity
  8
0
  6
ByBlock
 62
     0
370
    -2
390
1D
100
AcDbVertex
100
AcDb2dVertex
 10
-0.25
 20
0.0
 30
0.0
 42
1.0
  0
VERTEX
  5
38AC
330
38AA
100
AcDbEntity
  8
0
  6
ByBlock
 62
     0
370
    -2
390
1D
100
AcDbVertex
100
AcDb2dVertex
 10
0.25
 20
0.0
 30
0.0
 42
1.0
  0
SEQEND
  5
38AD
330
38AA
100
AcDbEntity
  8
0
390
1D
  0
LINE
  5
38AE
330
4E
100
AcDbEntity
  8
0
  6
ByBlock
 62
     0
370
    -2
390
1D
100
AcDbLine
 10
-0.5
 20
0.0
 30
0.0
 11
-1.0
 21
0.0
 31
0.0
  0
ENDBLK
  5
38AF
330
4E
100
AcDbEntity
  8
0
390
1D
100
AcDbBlockEnd
  0
BLOCK
  5
68B
330
68A
100
AcDbEntity
  8
0
100
AcDbBlockBegin
  2
名称未設定-1
 70
     0
 10
0.0
 20
0.0
 30
0.0
  3
名称未設定-1
  1
名称未設定-1
  0
INSERT
  5
68F
330
68A
100
AcDbEntity
  8
LOGO
100
AcDbBlockReference
  2
block 3
 10
0.0
 20
0.0
 30
0.0
  0
ENDBLK
  5
6B1
330
68A
100
AcDbEntity
  8
0
100
AcDbBlockEnd
  0
BLOCK
  5
68E
330
68D
100
AcDbEntity
  8
0
100
AcDbBlockBegin
  2
block 2
 70
     0
 10
0.0
 20
0.0
 30
0.0
  3
block 2
  1
block 2
  0
ENDBLK
  5
6B0
330
68D
100
AcDbEntity
  8
0
100
AcDbBlockEnd
  0
BLOCK
  5
691
330
690
100
AcDbEntity
  8
0
100
AcDbBlockBegin
  2
block 3
 70
     0
 10
0.0
 20
0.0
 30
0.0
  3
block 3
  1
block 3
  0
INSERT
  5
692
330
690
100
AcDbEntity
  8
LOGO
100
AcDbBlockReference
  2
block 4
 10
0.0
 20
0.0
 30
0.0
  0
INSERT
  5
6A1
330
690
100
AcDbEntity
  8
LOGO
100
AcDbBlockReference
  2
block 5
 10
0.0
 20
0.0
 30
0.0
  0
ENDBLK
  5
6AF
330
690
100
AcDbEntity
  8
0
100
AcDbBlockEnd
  0
BLOCK
  5
694
330
693
100
AcDbEntity
  8
0
100
AcDbBlockBegin
  2
block 4
 70
     0
 10
0.0
 20
0.0
 30
0.0
  3
block 4
  1
block 4
  0
POLYLINE
  5
695
330
693
100
AcDbEntity
  8
LOGO
370
     0
100
AcDb2dPolyline
 66
     1
 10
0.0
 20
0.0
 30
0.0
  0
VERTEX
  5
696
330
695
100
AcDbEntity
  8
LOGO
370
     0
100
AcDbVertex
100
AcDb2dVertex
 10
83.79545727667795
 20
167.6444858234922
 30
0.0
  0
VERTEX
  5
697
330
695
100
AcDbEntity
  8
LOGO
370
     0
100
AcDbVertex
100
AcDb2dVertex
 10
83.79545727667795
 20
159.7968976406313
 30
0.0
  0
VERTEX
  5
698
330
695
100
AcDbEntity
  8
LOGO
370
     0
100
AcDbVertex
100
AcDb2dVertex
 10
71.3631329975216
 20
159.7968976406313
 30
0.0
  0
VERTEX
  5
699
330
695
100
AcDbEntity
  8
LOGO
370
     0
100
AcDbVertex
100
AcDb2dVertex
 10
71.3631329975216
 20
127.8027915271048
 30
0.0
  0
VERTEX
  5
69A
330
695
100
AcDbEntity
  8
LOGO
370
     0
100
AcDbVertex
100
AcDb2dVertex
 10
60.43011526263018
 20
127.8027915271048
 30
0.0
  0
VERTEX
  5
69B
330
695
100
AcDbEntity
  8
LOGO
370
     0
100
AcDbVertex
100
AcDb2dVertex
 10
60.43011526263018
 20
159.7968976406313
 30
0.0
  0
VERTEX
  5
69C
330
695
100
AcDbEntity
  8
LOGO
370
     0
100
AcDbVertex
100
AcDb2dVertex
 10
48.21793273020759
 20
159.7968976406313
 30
0.0
  0
VERTEX
  5
69D
330
695
100
AcDbEntity
  8
LOGO
370
     0
100
AcDbVertex
100
AcDb2dVertex
 10
48.21793273020759
 20
167.6444858234922
 30
0.0
  0
VERTEX
  5
69E
330
695
100
AcDbEntity
  8
LOGO
370
     0
100
AcDbVertex
100
AcDb2dVertex
 10
83.79545727667795
 20
167.6444858234922
 30
0.0
  0
SEQEND
  5
69F
330
695
100
AcDbEntity
  8
LOGO
370
     0
  0
HATCH
  5
6A0
330
693
100
AcDbEntity
  8
LOGO
 62
   250
420
  2234388
100
AcDbHatch
 10
0.0
 20
0.0
 30
0.0
210
0.0
220
0.0
230
1.0
  2
SOLID
 70
     1
 71
     0
 91
        1
 92
        1
 93
        8
 72
     1
 10
83.79545727667795
 20
167.6444858234922
 11
83.79545727667795
 21
159.7968976406313
 72
     1
 10
83.79545727667795
 20
159.7968976406313
 11
71.3631329975216
 21
159.7968976406313
 72
     1
 10
71.3631329975216
 20
159.7968976406313
 11
71.3631329975216
 21
127.8027915271048
 72
     1
 10
71.3631329975216
 20
127.8027915271048
 11
60.43011526263018
 21
127.8027915271048
 72
     1
 10
60.43011526263018
 20
127.8027915271048
 11
60.43011526263018
 21
159.7968976406313
 72
     1
 10
60.43011526263018
 20
159.7968976406313
 11
48.21793273020759
 21
159.7968976406313
 72
     1
 10
48.21793273020759
 20
159.7968976406313
 11
48.21793273020759
 21
167.6444858234922
 72
     1
 10
48.21793273020759
 20
167.6444858234922
 11
83.79545727667795
 21
167.6444858234922
 97
        0
 75
     2
 76
     1
 98
        0
  0
ENDBLK
  5
6AE
330
693
100
AcDbEntity
  8
0
100
AcDbBlockEnd
  0
BLOCK
  5
6A3
330
6A2
100
AcDbEntity
  8
0
100
AcDbBlockBegin
  2
block 5
 70
     0
 10
0.0
 20
0.0
 30
0.0
  3
block 5
  1
block 5
  0
SPLINE
  5
6A4
330
6A2
100
AcDbEntity
  8
LOGO
370
     0
100
AcDbSpline
210
0.0
220
0.0
230
1.0
 70
    11
 71
     3
 72
    56
 73
    52
 74
     0
 42
0.000000001
 43
0.0000000001
 40
0.0
 40
0.0
 40
0.0
 40
0.0
 40
1.0
 40
1.0
 40
1.0
 40
2.0
 40
2.0
 40
2.0
 40
3.0
 40
3.0
 40
3.0
 40
4.0
 40
4.0
 40
4.0
 40
5.0
 40
5.0
 40
5.0
 40
6.0
 40
6.0
 40
6.0
 40
7.0
 40
7.0
 40
7.0
 40
8.0
 40
8.0
 40
8.0
 40
9.0
 40
9.0
 40
9.0
 40
10.0
 40
10.0
 40
10.0
 40
11.0
 40
11.0
 40
11.0
 40
12.0
 40
12.0
 40
12.0
 40
13.0
 40
13.0
 40
13.0
 40
14.0
 40
14.0
 40
14.0
 40
15.0
 40
15.0
 40
15.0
 40
16.0
 40
16.0
 40
16.0
 40
17.0
 40
17.0
 40
17.0
 40
17.0
 10
100.4504378777679
 20
166.69157178364
 30
0.0
 10
101.9848844191641
 20
167.1313385124438
 30
0.0
 10
103.9637485713373
 20
166.7649523658846
 30
0.0
 10
103.9637485713373
 20
166.7649523658846
 30
0.0
 10
103.9637485713373
 20
166.7649523658846
 30
0.0
 10
103.0132460999156
 20
163.911205638077
 30
0.0
 10
103.0132460999156
 20
163.911205638077
 30
0.0
 10
103.0132460999156
 20
163.911205638077
 30
0.0
 10
101.0674548862189
 20
164.3601018759394
 30
0.0
 10
99.57090442016032
 20
163.1805004036133
 30
0.0
 10
98.40508333886608
 20
162.258247733807
 30
0.0
 10
97.65301849830304
 20
159.804132345923
 30
0.0
 10
97.3598406791005
 20
158.8699940888517
 30
0.0
 10
97.3598406791005
 20
158.8699940888517
 30
0.0
 10
96.07137411762282
 20
154.9119212747295
 30
0.0
 10
96.07137411762282
 20
154.9119212747295
 30
0.0
 10
96.07137411762282
 20
154.9119212747295
 30
0.0
 10
100.3012651448482
 20
154.9119212747295
 30
0.0
 10
100.3012651448482
 20
154.9119212747295
 30
0.0
 10
100.3012651448482
 20
154.9119212747295
 30
0.0
 10
99.64152892419852
 20
152.4199098115079
 30
0.0
 10
99.64152892419852
 20
152.4199098115079
 30
0.0
 10
99.64152892419852
 20
152.4199098115079
 30
0.0
 10
95.38097652692731
 20
152.4199098115079
 30
0.0
 10
95.38097652692731
 20
152.4199098115079
 30
0.0
 10
95.38097652692731
 20
152.4199098115079
 30
0.0
 10
87.75353009080013
 20
127.8027915271048
 30
0.0
 10
87.75353009080013
 20
127.8027915271048
 30
0.0
 10
87.75353009080013
 20
127.8027915271048
 30
0.0
 10
85.36538832498108
 20
127.8027915271048
 30
0.0
 10
85.36538832498108
 20
127.8027915271048
 30
0.0
 10
85.36538832498108
 20
127.8027915271048
 30
0.0
 10
93.00006946639998
 20
152.4199098115079
 30
0.0
 10
93.00006946639998
 20
152.4199098115079
 30
0.0
 10
93.00006946639998
 20
152.4199098115079
 30
0.0
 10
89.85297266450198
 20
152.4199098115079
 30
0.0
 10
89.85297266450198
 20
152.4199098115079
 30
0.0
 10
89.85297266450198
 20
152.4199098115079
 30
0.0
 10
90.51270888515164
 20
154.9119212747295
 30
0.0
 10
90.51270888515164
 20
154.9119212747295
 30
0.0
 10
90.51270888515164
 20
154.9119212747295
 30
0.0
 10
93.6904670570955
 20
154.9119212747295
 30
0.0
 10
93.6904670570955
 20
154.9119212747295
 30
0.0
 10
93.6904670570955
 20
154.9119212747295
 30
0.0
 10
94.81598049462158
 20
158.3616699146644
 30
0.0
 10
94.81598049462158
 20
158.3616699146644
 30
0.0
 10
95.7237637538445
 20
161.2605474231013
 30
0.0
 10
96.4968436907311
 20
162.8139420021662
 30
0.0
 10
97.15657991138076
 20
163.9844139654337
 30
0.0
 10
97.81183750494507
 20
165.1523021053827
 30
0.0
 10
99.1047826935081
 20
166.3084769129547
 30
0.0
 10
100.4504378777679
 20
166.69157178364
 30
0.0
  0
HATCH
  5
6A5
330
6A2
100
AcDbEntity
  8
LOGO
 62
   250
420
  2234388
100
AcDbHatch
 10
0.0
 20
0.0
 30
0.0
210
0.0
220
0.0
230
1.0
  2
SOLID
 70
     1
 71
     0
 91
        1
 92
        1
 93
        1
 72
     4
 94
        3
 73
     0
 74
     1
 95
       56
 96
       52
 40
0.0
 40
0.0
 40
0.0
 40
0.0
 40
1.0
 40
1.0
 40
1.0
 40
2.0
 40
2.0
 40
2.0
 40
3.0
 40
3.0
 40
3.0
 40
4.0
 40
4.0
 40
4.0
 40
5.0
 40
5.0
 40
5.0
 40
6.0
 40
6.0
 40
6.0
 40
7.0
 40
7.0
 40
7.0
 40
8.0
 40
8.0
 40
8.0
 40
9.0
 40
9.0
 40
9.0
 40
10.0
 40
10.0
 40
10.0
 40
11.0
 40
11.0
 40
11.0
 40
12.0
 40
12.0
 40
12.0
 40
13.0
 40
13.0
 40
13.0
 40
14.0
 40
14.0
 40
14.0
 40
15.0
 40
15.0
 40
15.0
 40
16.0
 40
16.0
 40
16.0
 40
17.0
 40
17.0
 40
17.0
 40
17.0
 10
100.4504378777679
 20
166.69157178364
 10
101.9848844191641
 20
167.1313385124438
 10
103.9637485713373
 20
166.7649523658846
 10
103.9637485713373
 20
166.7649523658846
 10
103.9637485713373
 20
166.7649523658846
 10
103.0132460999156
 20
163.911205638077
 10
103.0132460999156
 20
163.911205638077
 10
103.0132460999156
 20
163.911205638077
 10
101.0674548862189
 20
164.3601018759394
 10
99.57090442016032
 20
163.1805004036133
 10
98.40508333886608
 20
162.258247733807
 10
97.65301849830304
 20
159.804132345923
 10
97.3598406791005
 20
158.8699940888517
 10
97.3598406791005
 20
158.8699940888517
 10
96.07137411762282
 20
154.9119212747295
 10
96.07137411762282
 20
154.9119212747295
 10
96.07137411762282
 20
154.9119212747295
 10
100.3012651448482
 20
154.9119212747295
 10
100.3012651448482
 20
154.9119212747295
 10
100.3012651448482
 20
154.9119212747295
 10
99.64152892419852
 20
152.4199098115079
 10
99.64152892419852
 20
152.4199098115079
 10
99.64152892419852
 20
152.4199098115079
 10
95.38097652692731
 20
152.4199098115079
 10
95.38097652692731
 20
152.4199098115079
 10
95.38097652692731
 20
152.4199098115079
 10
87.75353009080013
 20
127.8027915271048
 10
87.75353009080013
 20
127.8027915271048
 10
87.75353009080013
 20
127.8027915271048
 10
85.36538832498108
 20
127.8027915271048
 10
85.36538832498108
 20
127.8027915271048
 10
85.36538832498108
 20
127.8027915271048
 10
93.00006946639998
 20
152.4199098115079
 10
93.00006946639998
 20
152.4199098115079
 10
93.00006946639998
 20
152.4199098115079
 10
89.85297266450198
 20
152.4199098115079
 10
89.85297266450198
 20
152.4199098115079
 10
89.85297266450198
 20
152.4199098115079
 10
90.51270888515164
 20
154.9119212747295
 10
90.51270888515164
 20
154.9119212747295
 10
90.51270888515164
 20
154.9119212747295
 10
93.6904670570955
 20
154.9119212747295
 10
93.6904670570955
 20
154.9119212747295
 10
93.6904670570955
 20
154.9119212747295
 10
94.81598049462158
 20
158.3616699146644
 10
94.81598049462158
 20
158.3616699146644
 10
95.7237637538445
 20
161.2605474231013
 10
96.4968436907311
 20
162.8139420021662
 10
97.15657991138076
 20
163.9844139654337
 10
97.81183750494507
 20
165.1523021053827
 10
99.1047826935081
 20
166.3084769129547
 10
100.4504378777679
 20
166.69157178364
 97
        0
 75
     2
 76
     1
 98
        0
  0
SPLINE
  5
6A6
330
6A2
100
AcDbEntity
  8
LOGO
370
     0
100
AcDbSpline
210
0.0
220
0.0
230
1.0
 70
    11
 71
     3
 72
    38
 73
    34
 74
     0
 42
0.000000001
 43
0.0000000001
 40
0.0
 40
0.0
 40
0.0
 40
0.0
 40
1.0
 40
1.0
 40
1.0
 40
2.0
 40
2.0
 40
2.0
 40
3.0
 40
3.0
 40
3.0
 40
4.0
 40
4.0
 40
4.0
 40
5.0
 40
5.0
 40
5.0
 40
6.0
 40
6.0
 40
6.0
 40
7.0
 40
7.0
 40
7.0
 40
8.0
 40
8.0
 40
8.0
 40
9.0
 40
9.0
 40
9.0
 40
10.0
 40
10.0
 40
10.0
 40
11.0
 40
11.0
 40
11.0
 40
11.0
 10
126.377554584636
 20
154.8151140277308
 30
0.0
 10
126.377554584636
 20
154.8151140277308
 30
0.0
 10
128.8311532078563
 20
154.8151140277308
 30
0.0
 10
128.8311532078563
 20
154.8151140277308
 30
0.0
 10
128.8311532078563
 20
154.8151140277308
 30
0.0
 10
127.7345785914971
 20
151.3062819612468
 30
0.0
 10
127.7345785914971
 20
151.3062819612468
 30
0.0
 10
128.571392836906
 20
152.2922689395754
 30
0.0
 10
129.8860421413442
 20
153.604506675583
 30
0.0
 10
131.0163787157314
 20
154.2664822097754
 30
0.0
 10
132.7044766171327
 20
155.2500576196734
 30
0.0
 10
133.6642808525008
 20
155.3847609420097
 30
0.0
 10
134.7284715499351
 20
155.3565111403944
 30
0.0
 10
134.7284715499351
 20
155.3565111403944
 30
0.0
 10
133.6877075172549
 20
152.0345756272799
 30
0.0
 10
133.6877075172549
 20
152.0345756272799
 30
0.0
 10
133.011434827367
 20
152.3184516825359
 30
0.0
 10
130.930940291334
 20
151.7768823149844
 30
0.0
 10
129.739280976855
 20
150.9162968950455
 30
0.0
 10
128.66613302525
 20
150.1454562717016
 30
0.0
 10
127.9192358313239
 20
149.4857200510519
 30
0.0
 10
127.0393578639405
 20
147.8282835196966
 30
0.0
 10
126.164647543194
 20
146.1699857139017
 30
0.0
 10
125.4742499524985
 20
143.5262176944419
 30
0.0
 10
124.2822461282437
 20
139.6959580071401
 30
0.0
 10
124.2822461282437
 20
139.6959580071401
 30
0.0
 10
120.5753209406769
 20
127.8027915271048
 30
0.0
 10
120.5753209406769
 20
127.8027915271048
 30
0.0
 10
120.5753209406769
 20
127.8027915271048
 30
0.0
 10
118.1964809388044
 20
127.8027915271048
 30
0.0
 10
118.1964809388044
 20
127.8027915271048
 30
0.0
 10
118.1964809388044
 20
127.8027915271048
 30
0.0
 10
126.377554584636
 20
154.8151140277308
 30
0.0
 10
126.377554584636
 20
154.8151140277308
 30
0.0
  0
HATCH
  5
6A7
330
6A2
100
AcDbEntity
  8
LOGO
 62
   250
420
  2234388
100
AcDbHatch
 10
0.0
 20
0.0
 30
0.0
210
0.0
220
0.0
230
1.0
  2
SOLID
 70
     1
 71
     0
 91
        1
 92
        1
 93
        1
 72
     4
 94
        3
 73
     0
 74
     1
 95
       38
 96
       34
 40
0.0
 40
0.0
 40
0.0
 40
0.0
 40
1.0
 40
1.0
 40
1.0
 40
2.0
 40
2.0
 40
2.0
 40
3.0
 40
3.0
 40
3.0
 40
4.0
 40
4.0
 40
4.0
 40
5.0
 40
5.0
 40
5.0
 40
6.0
 40
6.0
 40
6.0
 40
7.0
 40
7.0
 40
7.0
 40
8.0
 40
8.0
 40
8.0
 40
9.0
 40
9.0
 40
9.0
 40
10.0
 40
10.0
 40
10.0
 40
11.0
 40
11.0
 40
11.0
 40
11.0
 10
126.377554584636
 20
154.8151140277308
 10
126.377554584636
 20
154.8151140277308
 10
128.8311532078563
 20
154.8151140277308
 10
128.8311532078563
 20
154.8151140277308
 10
128.8311532078563
 20
154.8151140277308
 10
127.7345785914971
 20
151.3062819612468
 10
127.7345785914971
 20
151.3062819612468
 10
128.571392836906
 20
152.2922689395754
 10
129.8860421413442
 20
153.604506675583
 10
131.0163787157314
 20
154.2664822097754
 10
132.7044766171327
 20
155.2500576196734
 10
133.6642808525008
 20
155.3847609420097
 10
134.7284715499351
 20
155.3565111403944
 10
134.7284715499351
 20
155.3565111403944
 10
133.6877075172549
 20
152.0345756272799
 10
133.6877075172549
 20
152.0345756272799
 10
133.011434827367
 20
152.3184516825359
 10
130.930940291334
 20
151.7768823149844
 10
129.739280976855
 20
150.9162968950455
 10
128.66613302525
 20
150.1454562717016
 10
127.9192358313239
 20
149.4857200510519
 10
127.0393578639405
 20
147.8282835196966
 10
126.164647543194
 20
146.1699857139017
 10
125.4742499524985
 20
143.5262176944419
 10
124.2822461282437
 20
139.6959580071401
 10
124.2822461282437
 20
139.6959580071401
 10
120.5753209406769
 20
127.8027915271048
 10
120.5753209406769
 20
127.8027915271048
 10
120.5753209406769
 20
127.8027915271048
 10
118.1964809388044
 20
127.8027915271048
 10
118.1964809388044
 20
127.8027915271048
 10
118.1964809388044
 20
127.8027915271048
 10
126.377554584636
 20
154.8151140277308
 10
126.377554584636
 20
154.8151140277308
 97
        0
 75
     2
 76
     1
 98
        0
  0
SPLINE
  5
6A8
330
6A2
100
AcDbEntity
  8
LOGO
370
     0
100
AcDbSpline
210
0.0
220
0.0
230
1.0
 70
    11
 71
     3
 72
   104
 73
   100
 74
     0
 42
0.000000001
 43
0.0000000001
 40
0.0
 40
0.0
 40
0.0
 40
0.0
 40
1.0
 40
1.0
 40
1.0
 40
2.0
 40
2.0
 40
2.0
 40
3.0
 40
3.0
 40
3.0
 40
4.0
 40
4.0
 40
4.0
 40
5.0
 40
5.0
 40
5.0
 40
6.0
 40
6.0
 40
6.0
 40
7.0
 40
7.0
 40
7.0
 40
8.0
 40
8.0
 40
8.0
 40
9.0
 40
9.0
 40
9.0
 40
10.0
 40
10.0
 40
10.0
 40
11.0
 40
11.0
 40
11.0
 40
12.0
 40
12.0
 40
12.0
 40
13.0
 40
13.0
 40
13.0
 40
14.0
 40
14.0
 40
14.0
 40
15.0
 40
15.0
 40
15.0
 40
16.0
 40
16.0
 40
16.0
 40
17.0
 40
17.0
 40
17.0
 40
18.0
 40
18.0
 40
18.0
 40
19.0
 40
19.0
 40
19.0
 40
20.0
 40
20.0
 40
20.0
 40
21.0
 40
21.0
 40
21.0
 40
22.0
 40
22.0
 40
22.0
 40
23.0
 40
23.0
 40
23.0
 40
24.0
 40
24.0
 40
24.0
 40
25.0
 40
25.0
 40
25.0
 40
26.0
 40
26.0
 40
26.0
 40
27.0
 40
27.0
 40
27.0
 40
28.0
 40
28.0
 40
28.0
 40
29.0
 40
29.0
 40
29.0
 40
30.0
 40
30.0
 40
30.0
 40
31.0
 40
31.0
 40
31.0
 40
32.0
 40
32.0
 40
32.0
 40
33.0
 40
33.0
 40
33.0
 40
33.0
 10
139.8926730891197
 20
154.8294111834263
 30
0.0
 10
139.8926730891197
 20
154.8294111834263
 30
0.0
 10
142.0344903652445
 20
154.8294111834263
 30
0.0
 10
142.0344903652445
 20
154.8294111834263
 30
0.0
 10
142.0344903652445
 20
154.8294111834263
 30
0.0
 10
140.9516961399171
 20
151.3157559800812
 30
0.0
 10
140.9516961399171
 20
151.3157559800812
 30
0.0
 10
141.8928968473923
 20
152.7887075264977
 30
0.0
 10
142.7341897198865
 20
153.4484437471474
 30
0.0
 10
143.8552245303272
 20
154.2926649527359
 30
0.0
 10
144.9803934580775
 20
155.1296514530327
 30
0.0
 10
146.3139908001845
 20
155.3044901642492
 30
0.0
 10
147.241066606852
 20
155.3044901642492
 30
0.0
 10
148.3855280820469
 20
155.3044901642492
 30
0.0
 10
149.4969166187653
 20
155.0752189084569
 30
0.0
 10
150.0784491203092
 20
153.8172414621372
 30
0.0
 10
150.5228667310863
 20
152.833838307127
 30
0.0
 10
150.5414702589793
 20
152.7201500811143
 30
0.0
 10
150.4140016419347
 20
150.7765981809602
 30
0.0
 10
151.5818897818837
 20
152.7699317437168
 30
0.0
 10
152.4424752018226
 20
153.6256940267945
 30
0.0
 10
153.9038856707499
 20
154.4507949398263
 30
0.0
 10
155.4455669174378
 20
155.3044901642492
 30
0.0
 10
156.339225275853
 20
155.3659851592288
 30
0.0
 10
157.3748216618963
 20
155.2147453676543
 30
0.0
 10
158.911679771723
 20
154.9877134254046
 30
0.0
 10
159.8859534176746
 20
154.4390816074493
 30
0.0
 10
160.3965169054045
 20
152.7816450760939
 30
0.0
 10
160.9070803931344
 20
151.1219692311958
 30
0.0
 10
160.6328506116007
 20
150.2303779314354
 30
0.0
 10
159.9992971339115
 20
147.597634224801
 30
0.0
 10
159.7105979417943
 20
146.4014962832367
 30
0.0
 10
159.2947746424084
 20
144.9400858143094
 30
0.0
 10
158.7463150793409
 20
143.2092687007094
 30
0.0
 10
158.7463150793409
 20
143.2092687007094
 30
0.0
 10
153.9038856707499
 20
127.8027915271048
 30
0.0
 10
153.9038856707499
 20
127.8027915271048
 30
0.0
 10
153.9038856707499
 20
127.8027915271048
 30
0.0
 10
151.3882752878863
 20
127.8027915271048
 30
0.0
 10
151.3882752878863
 20
127.8027915271048
 30
0.0
 10
151.3882752878863
 20
127.8027915271048
 30
0.0
 10
155.6250565106276
 20
141.2751908193897
 30
0.0
 10
155.6250565106276
 20
141.2751908193897
 30
0.0
 10
156.5094131050963
 20
144.0936252951782
 30
0.0
 10
157.109893644309
 20
146.1506931664571
 30
0.0
 10
157.4220195011804
 20
147.4415712963654
 30
0.0
 10
157.8095929989511
 20
149.0530157726519
 30
0.0
 10
157.9656559273867
 20
149.5826995529385
 30
0.0
 10
157.7816877071116
 20
150.7529992613181
 30
0.0
 10
157.6111553680925
 20
151.8430281919372
 30
0.0
 10
157.0582171779396
 20
152.5547853887321
 30
0.0
 10
156.1170164704645
 20
152.5547853887321
 30
0.0
 10
155.1096698860365
 20
152.5547853887321
 30
0.0
 10
154.2962823053817
 20
152.4412694176073
 30
0.0
 10
153.156643967048
 20
151.2945686288697
 30
0.0
 10
152.0170056287143
 20
150.1476955852443
 30
0.0
 10
151.076149431015
 20
148.7930831468137
 30
0.0
 10
150.3337308641742
 20
147.2290087646991
 30
0.0
 10
149.5957909244188
 20
145.6683794803425
 30
0.0
 10
148.8530278478023
 20
143.6822806228776
 30
0.0
 10
148.0964843801539
 20
141.2751908193897
 30
0.0
 10
148.0964843801539
 20
141.2751908193897
 30
0.0
 10
143.8552245303272
 20
127.8027915271048
 30
0.0
 10
143.8552245303272
 20
127.8027915271048
 30
0.0
 10
143.8552245303272
 20
127.8027915271048
 30
0.0
 10
141.486030802177
 20
127.8027915271048
 30
0.0
 10
141.486030802177
 20
127.8027915271048
 30
0.0
 10
141.486030802177
 20
127.8027915271048
 30
0.0
 10
146.3329388378533
 20
143.2092687007094
 30
0.0
 10
146.3329388378533
 20
143.2092687007094
 30
0.0
 10
146.8483254624444
 20
144.8408669988801
 30
0.0
 10
147.2314203331297
 20
146.1837661049335
 30
0.0
 10
147.4867020769946
 20
147.224185627838
 30
0.0
 10
147.9169947869641
 20
149.0197705792876
 30
0.0
 10
148.0306830129768
 20
150.2400242051577
 30
0.0
 10
147.709255392159
 20
151.3157559800812
 30
0.0
 10
147.3874832615654
 20
152.3916600098926
 30
0.0
 10
146.8245542879144
 20
152.6683013598569
 30
0.0
 10
145.8840425999909
 20
152.6683013598569
 30
0.0
 10
145.0989048209514
 20
152.6683013598569
 30
0.0
 10
144.3282364524954
 20
152.3275811915945
 30
0.0
 10
143.4531816219731
 20
151.6538923250251
 30
0.0
 10
142.34627171234
 20
150.8074318058939
 30
0.0
 10
141.901854101563
 20
150.1097995099067
 30
0.0
 10
141.3578731655808
 20
149.289521733736
 30
0.0
 10
140.6299240093235
 20
148.192602607601
 30
0.0
 10
140.2850697237515
 20
147.455696197173
 30
0.0
 10
139.6652966370942
 20
145.8385673095858
 30
0.0
 10
139.0506911970739
 20
144.2214384219986
 30
0.0
 10
138.463991048893
 20
142.3252566160164
 30
0.0
 10
138.0571250036777
 20
141.0154304484394
 30
0.0
 10
138.0571250036777
 20
141.0154304484394
 30
0.0
 10
133.9009590684727
 20
127.8027915271048
 30
0.0
 10
133.9009590684727
 20
127.8027915271048
 30
0.0
 10
133.9009590684727
 20
127.8027915271048
 30
0.0
 10
131.4180771143097
 20
127.8027915271048
 30
0.0
 10
131.4180771143097
 20
127.8027915271048
 30
0.0
 10
131.4180771143097
 20
127.8027915271048
 30
0.0
 10
139.8926730891197
 20
154.8294111834263
 30
0.0
 10
139.8926730891197
 20
154.8294111834263
 30
0.0
  0
HATCH
  5
6A9
330
6A2
100
AcDbEntity
  8
LOGO
 62
   250
420
  2234388
100
AcDbHatch
 10
0.0
 20
0.0
 30
0.0
210
0.0
220
0.0
230
1.0
  2
SOLID
 70
     1
 71
     0
 91
        1
 92
        1
 93
        1
 72
     4
 94
        3
 73
     0
 74
     1
 95
      104
 96
      100
 40
0.0
 40
0.0
 40
0.0
 40
0.0
 40
1.0
 40
1.0
 40
1.0
 40
2.0
 40
2.0
 40
2.0
 40
3.0
 40
3.0
 40
3.0
 40
4.0
 40
4.0
 40
4.0
 40
5.0
 40
5.0
 40
5.0
 40
6.0
 40
6.0
 40
6.0
 40
7.0
 40
7.0
 40
7.0
 40
8.0
 40
8.0
 40
8.0
 40
9.0
 40
9.0
 40
9.0
 40
10.0
 40
10.0
 40
10.0
 40
11.0
 40
11.0
 40
11.0
 40
12.0
 40
12.0
 40
12.0
 40
13.0
 40
13.0
 40
13.0
 40
14.0
 40
14.0
 40
14.0
 40
15.0
 40
15.0
 40
15.0
 40
16.0
 40
16.0
 40
16.0
 40
17.0
 40
17.0
 40
17.0
 40
18.0
 40
18.0
 40
18.0
 40
19.0
 40
19.0
 40
19.0
 40
20.0
 40
20.0
 40
20.0
 40
21.0
 40
21.0
 40
21.0
 40
22.0
 40
22.0
 40
22.0
 40
23.0
 40
23.0
 40
23.0
 40
24.0
 40
24.0
 40
24.0
 40
25.0
 40
25.0
 40
25.0
 40
26.0
 40
26.0
 40
26.0
 40
27.0
 40
27.0
 40
27.0
 40
28.0
 40
28.0
 40
28.0
 40
29.0
 40
29.0
 40
29.0
 40
30.0
 40
30.0
 40
30.0
 40
31.0
 40
31.0
 40
31.0
 40
32.0
 40
32.0
 40
32.0
 40
33.0
 40
33.0
 40
33.0
 40
33.0
 10
139.8926730891197
 20
154.8294111834263
 10
139.8926730891197
 20
154.8294111834263
 10
142.0344903652445
 20
154.8294111834263
 10
142.0344903652445
 20
154.8294111834263
 10
142.0344903652445
 20
154.8294111834263
 10
140.9516961399171
 20
151.3157559800812
 10
140.9516961399171
 20
151.3157559800812
 10
141.8928968473923
 20
152.7887075264977
 10
142.7341897198865
 20
153.4484437471474
 10
143.8552245303272
 20
154.2926649527359
 10
144.9803934580775
 20
155.1296514530327
 10
146.3139908001845
 20
155.3044901642492
 10
147.241066606852
 20
155.3044901642492
 10
148.3855280820469
 20
155.3044901642492
 10
149.4969166187653
 20
155.0752189084569
 10
150.0784491203092
 20
153.8172414621372
 10
150.5228667310863
 20
152.833838307127
 10
150.5414702589793
 20
152.7201500811143
 10
150.4140016419347
 20
150.7765981809602
 10
151.5818897818837
 20
152.7699317437168
 10
152.4424752018226
 20
153.6256940267945
 10
153.9038856707499
 20
154.4507949398263
 10
155.4455669174378
 20
155.3044901642492
 10
156.339225275853
 20
155.3659851592288
 10
157.3748216618963
 20
155.2147453676543
 10
158.911679771723
 20
154.9877134254046
 10
159.8859534176746
 20
154.4390816074493
 10
160.3965169054045
 20
152.7816450760939
 10
160.9070803931344
 20
151.1219692311958
 10
160.6328506116007
 20
150.2303779314354
 10
159.9992971339115
 20
147.597634224801
 10
159.7105979417943
 20
146.4014962832367
 10
159.2947746424084
 20
144.9400858143094
 10
158.7463150793409
 20
143.2092687007094
 10
158.7463150793409
 20
143.2092687007094
 10
153.9038856707499
 20
127.8027915271048
 10
153.9038856707499
 20
127.8027915271048
 10
153.9038856707499
 20
127.8027915271048
 10
151.3882752878863
 20
127.8027915271048
 10
151.3882752878863
 20
127.8027915271048
 10
151.3882752878863
 20
127.8027915271048
 10
155.6250565106276
 20
141.2751908193897
 10
155.6250565106276
 20
141.2751908193897
 10
156.5094131050963
 20
144.0936252951782
 10
157.109893644309
 20
146.1506931664571
 10
157.4220195011804
 20
147.4415712963654
 10
157.8095929989511
 20
149.0530157726519
 10
157.9656559273867
 20
149.5826995529385
 10
157.7816877071116
 20
150.7529992613181
 10
157.6111553680925
 20
151.8430281919372
 10
157.0582171779396
 20
152.5547853887321
 10
156.1170164704645
 20
152.5547853887321
 10
155.1096698860365
 20
152.5547853887321
 10
154.2962823053817
 20
152.4412694176073
 10
153.156643967048
 20
151.2945686288697
 10
152.0170056287143
 20
150.1476955852443
 10
151.076149431015
 20
148.7930831468137
 10
150.3337308641742
 20
147.2290087646991
 10
149.5957909244188
 20
145.6683794803425
 10
148.8530278478023
 20
143.6822806228776
 10
148.0964843801539
 20
141.2751908193897
 10
148.0964843801539
 20
141.2751908193897
 10
143.8552245303272
 20
127.8027915271048
 10
143.8552245303272
 20
127.8027915271048
 10
143.8552245303272
 20
127.8027915271048
 10
141.486030802177
 20
127.8027915271048
 10
141.486030802177
 20
127.8027915271048
 10
141.486030802177
 20
127.8027915271048
 10
146.3329388378533
 20
143.2092687007094
 10
146.3329388378533
 20
143.2092687007094
 10
146.8483254624444
 20
144.8408669988801
 10
147.2314203331297
 20
146.1837661049335
 10
147.4867020769946
 20
147.224185627838
 10
147.9169947869641
 20
149.0197705792876
 10
148.0306830129768
 20
150.2400242051577
 10
147.709255392159
 20
151.3157559800812
 10
147.3874832615654
 20
152.3916600098926
 10
146.8245542879144
 20
152.6683013598569
 10
145.8840425999909
 20
152.6683013598569
 10
145.0989048209514
 20
152.6683013598569
 10
144.3282364524954
 20
152.3275811915945
 10
143.4531816219731
 20
151.6538923250251
 10
142.34627171234
 20
150.8074318058939
 10
141.901854101563
 20
150.1097995099067
 10
141.3578731655808
 20
149.289521733736
 10
140.6299240093235
 20
148.192602607601
 10
140.2850697237515
 20
147.455696197173
 10
139.6652966370942
 20
145.8385673095858
 10
139.0506911970739
 20
144.2214384219986
 10
138.463991048893
 20
142.3252566160164
 10
138.0571250036777
 20
141.0154304484394
 10
138.0571250036777
 20
141.0154304484394
 10
133.9009590684727
 20
127.8027915271048
 10
133.9009590684727
 20
127.8027915271048
 10
133.9009590684727
 20
127.8027915271048
 10
131.4180771143097
 20
127.8027915271048
 10
131.4180771143097
 20
127.8027915271048
 10
131.4180771143097
 20
127.8027915271048
 10
139.8926730891197
 20
154.8294111834263
 10
139.8926730891197
 20
154.8294111834263
 97
        0
 75
     2
 76
     1
 98
        0
  0
SPLINE
  5
6AA
330
6A2
100
AcDbEntity
  8
LOGO
370
     0
100
AcDbSpline
210
0.0
220
0.0
230
1.0
 70
    11
 71
     3
 72
    29
 73
    25
 74
     0
 42
0.000000001
 43
0.0000000001
 40
0.0
 40
0.0
 40
0.0
 40
0.0
 40
1.0
 40
1.0
 40
1.0
 40
2.0
 40
2.0
 40
2.0
 40
3.0
 40
3.0
 40
3.0
 40
4.0
 40
4.0
 40
4.0
 40
5.0
 40
5.0
 40
5.0
 40
6.0
 40
6.0
 40
6.0
 40
7.0
 40
7.0
 40
7.0
 40
8.0
 40
8.0
 40
8.0
 40
8.0
 10
101.6420971922469
 20
132.8388354296931
 30
0.0
 10
101.630039350094
 20
134.7164137077823
 30
0.0
 10
102.2236296937908
 20
138.0598810818841
 30
0.0
 10
103.7487744712405
 20
142.5378191476827
 30
0.0
 10
105.819967243327
 20
148.5896501242061
 30
0.0
 10
107.0602024361932
 20
150.8074318058939
 30
0.0
 10
108.1522984254671
 20
151.8833358357054
 30
0.0
 10
109.741177511439
 20
153.4532668840085
 30
0.0
 10
111.8740375333931
 20
153.5290590346837
 30
0.0
 10
112.5075910110823
 20
153.4532668840085
 30
0.0
 10
113.4012493694975
 20
153.3490526768302
 30
0.0
 10
114.6683563248758
 20
152.7580461564518
 30
0.0
 10
114.7493161221879
 20
150.7838328862519
 30
0.0
 10
114.8106388622796
 20
149.0909118479895
 30
0.0
 10
114.3186789024427
 20
145.9191825971221
 30
0.0
 10
112.6164561002338
 20
140.9489400617108
 30
0.0
 10
110.6444821435766
 20
135.1746117095912
 30
0.0
 10
109.4669477299053
 20
132.8960240524753
 30
0.0
 10
108.5212683953448
 20
131.9072809959403
 30
0.0
 10
106.7346406980658
 20
130.0538184021569
 30
0.0
 10
104.8222669326213
 20
130.2336525051225
 30
0.0
 10
104.5408024457958
 20
130.2336525051225
 30
0.0
 10
104.1721769856939
 20
130.2336525051225
 30
0.0
 10
101.6465758193322
 20
130.6305277668397
 30
0.0
 10
101.6420971922469
 20
132.8388354296931
 30
0.0
  0
SPLINE
  5
6AB
330
6A2
100
AcDbEntity
  8
LOGO
370
     0
100
AcDbSpline
210
0.0
220
0.0
230
1.0
 70
    11
 71
     3
 72
    32
 73
    28
 74
     0
 42
0.000000001
 43
0.0000000001
 40
0.0
 40
0.0
 40
0.0
 40
0.0
 40
1.0
 40
1.0
 40
1.0
 40
2.0
 40
2.0
 40
2.0
 40
3.0
 40
3.0
 40
3.0
 40
4.0
 40
4.0
 40
4.0
 40
5.0
 40
5.0
 40
5.0
 40
6.0
 40
6.0
 40
6.0
 40
7.0
 40
7.0
 40
7.0
 40
8.0
 40
8.0
 40
8.0
 40
9.0
 40
9.0
 40
9.0
 40
9.0
 10
106.2595617172429
 20
153.4105476718098
 30
0.0
 10
104.8222669326213
 20
151.5474388043041
 30
0.0
 10
103.7177685914188
 20
149.8758773721411
 30
0.0
 10
101.9232171692965
 20
144.6141795664062
 30
0.0
 10
100.2754269116635
 20
139.7999999594306
 30
0.0
 10
99.22777268346732
 20
136.3052927937542
 30
0.0
 10
99.06964269637689
 20
132.039572749846
 30
0.0
 10
98.94665270641765
 20
128.8673267343149
 30
0.0
 10
100.8807305877373
 20
127.8027915271048
 30
0.0
 10
103.7129454545577
 20
127.8027915271048
 30
0.0
 10
104.9352661390825
 20
127.8027915271048
 30
0.0
 10
108.0151835347002
 20
127.8827177950895
 30
0.0
 10
110.2045431598849
 20
130.5926316915021
 30
0.0
 10
111.7417457794874
 20
132.4984597712065
 30
0.0
 10
113.155269389579
 20
134.475256864725
 30
0.0
 10
115.0562743324223
 20
140.9489400617108
 30
0.0
 10
116.6361961642235
 20
146.3680788349845
 30
0.0
 10
117.7282921534974
 20
149.8639917848761
 30
0.0
 10
117.6480213757369
 20
151.8595646611754
 30
0.0
 10
117.6480213757369
 20
151.8595646611754
 30
0.0
 10
117.6480213757369
 20
151.8595646611754
 30
0.0
 10
117.6480213757369
 20
151.8595646611754
 30
0.0
 10
117.13229024137
 20
155.18150017429
 30
0.0
 10
114.7162431837115
 20
155.886194920681
 30
0.0
 10
113.3351034925446
 20
155.886194920681
 30
0.0
 10
111.9829026225447
 20
155.886194920681
 30
0.0
 10
108.3414342923792
 20
156.1251124501957
 30
0.0
 10
106.2595617172429
 20
153.4105476718098
 30
0.0
  0
HATCH
  5
6AC
330
6A2
100
AcDbEntity
  8
LOGO
 62
   250
420
  2234388
100
AcDbHatch
 10
0.0
 20
0.0
 30
0.0
210
0.0
220
0.0
230
1.0
  2
SOLID
 70
     1
 71
     0
 91
        2
 92
        1
 93
        1
 72
     4
 94
        3
 73
     0
 74
     1
 95
       29
 96
       25
 40
0.0
 40
0.0
 40
0.0
 40
0.0
 40
1.0
 40
1.0
 40
1.0
 40
2.0
 40
2.0
 40
2.0
 40
3.0
 40
3.0
 40
3.0
 40
4.0
 40
4.0
 40
4.0
 40
5.0
 40
5.0
 40
5.0
 40
6.0
 40
6.0
 40
6.0
 40
7.0
 40
7.0
 40
7.0
 40
8.0
 40
8.0
 40
8.0
 40
8.0
 10
101.6420971922469
 20
132.8388354296931
 10
101.630039350094
 20
134.7164137077823
 10
102.2236296937908
 20
138.0598810818841
 10
103.7487744712405
 20
142.5378191476827
 10
105.819967243327
 20
148.5896501242061
 10
107.0602024361932
 20
150.8074318058939
 10
108.1522984254671
 20
151.8833358357054
 10
109.741177511439
 20
153.4532668840085
 10
111.8740375333931
 20
153.5290590346837
 10
112.5075910110823
 20
153.4532668840085
 10
113.4012493694975
 20
153.3490526768302
 10
114.6683563248758
 20
152.7580461564518
 10
114.7493161221879
 20
150.7838328862519
 10
114.8106388622796
 20
149.0909118479895
 10
114.3186789024427
 20
145.9191825971221
 10
112.6164561002338
 20
140.9489400617108
 10
110.6444821435766
 20
135.1746117095912
 10
109.4669477299053
 20
132.8960240524753
 10
108.5212683953448
 20
131.9072809959403
 10
106.7346406980658
 20
130.0538184021569
 10
104.8222669326213
 20
130.2336525051225
 10
104.5408024457958
 20
130.2336525051225
 10
104.1721769856939
 20
130.2336525051225
 10
101.6465758193322
 20
130.6305277668397
 10
101.6420971922469
 20
132.8388354296931
 97
        0
 92
        1
 93
        1
 72
     4
 94
        3
 73
     0
 74
     1
 95
       32
 96
       28
 40
0.0
 40
0.0
 40
0.0
 40
0.0
 40
1.0
 40
1.0
 40
1.0
 40
2.0
 40
2.0
 40
2.0
 40
3.0
 40
3.0
 40
3.0
 40
4.0
 40
4.0
 40
4.0
 40
5.0
 40
5.0
 40
5.0
 40
6.0
 40
6.0
 40
6.0
 40
7.0
 40
7.0
 40
7.0
 40
8.0
 40
8.0
 40
8.0
 40
9.0
 40
9.0
 40
9.0
 40
9.0
 10
106.2595617172429
 20
153.4105476718098
 10
104.8222669326213
 20
151.5474388043041
 10
103.7177685914188
 20
149.8758773721411
 10
101.9232171692965
 20
144.6141795664062
 10
100.2754269116635
 20
139.7999999594306
 10
99.22777268346732
 20
136.3052927937542
 10
99.06964269637689
 20
132.039572749846
 10
98.94665270641765
 20
128.8673267343149
 10
100.8807305877373
 20
127.8027915271048
 10
103.7129454545577
 20
127.8027915271048
 10
104.9352661390825
 20
127.8027915271048
 10
108.0151835347002
 20
127.8827177950895
 10
110.2045431598849
 20
130.5926316915021
 10
111.7417457794874
 20
132.4984597712065
 10
113.155269389579
 20
134.475256864725
 10
115.0562743324223
 20
140.9489400617108
 10
116.6361961642235
 20
146.3680788349845
 10
117.7282921534974
 20
149.8639917848761
 10
117.6480213757369
 20
151.8595646611754
 10
117.6480213757369
 20
151.8595646611754
 10
117.6480213757369
 20
151.8595646611754
 10
117.6480213757369
 20
151.8595646611754
 10
117.13229024137
 20
155.18150017429
 10
114.7162431837115
 20
155.886194920681
 10
113.3351034925446
 20
155.886194920681
 10
111.9829026225447
 20
155.886194920681
 10
108.3414342923792
 20
156.1251124501957
 10
106.2595617172429
 20
153.4105476718098
 97
        0
 75
     2
 76
     1
 98
        0
  0
ENDBLK
  5
6AD
330
6A2
100
AcDbEntity
  8
0
100
AcDbBlockEnd
  0
BLOCK
  5
495E
330
495D
100
AcDbEntity
  8
0
100
AcDbBlockBegin
  2
*D21
 70
     1
 10
0.0
 20
0.0
 30
0.0
  3
*D21
  1
*D21
  0
LINE
  5
4960
330
495D
100
AcDbEntity
  8
DIM
 62
     0
370
    -2
100
AcDbLine
 10
104.8938306029375
 20
288.1149122086064
 30
0.0
 11
60.53621797377864
 21
288.1149174042292
 31
0.0
  0
LINE
  5
4961
330
495D
100
AcDbEntity
  8
DIM
 62
     0
370
    -2
100
AcDbLine
 10
104.8938224023373
 20
218.1023146792064
 30
0.0
 11
60.53620977317846
 21
218.1023198748292
 31
0.0
  0
LINE
  5
4962
330
495D
100
AcDbEntity
  8
DIM
 62
     0
370
    -2
100
AcDbLine
 10
60.53621785664829
 20
287.1149174042292
 30
0.0
 11
60.53620989030882
 21
219.1023198748292
 31
0.0
  0
INSERT
  5
4963
330
495D
100
AcDbEntity
  8
DIM
 62
     0
370
    -2
100
AcDbBlockReference
  2
_DOT
 10
60.53621797377864
 20
288.1149174042292
 30
0.0
 50
89.9999932889252
  0
INSERT
  5
4964
330
495D
100
AcDbEntity
  8
DIM
 62
     0
370
    -2
100
AcDbBlockReference
  2
_DOT
 10
60.53620977317846
 20
218.1023198748292
 30
0.0
 50
269.9999932889252
  0
MTEXT
  5
4965
330
495D
100
AcDbEntity
  8
DIM
 62
     0
 48
0.05
100
AcDbMText
 10
53.03621387347783
 20
253.1086128866323
 30
0.0
 40
5.0
 41
0.0
 46
0.0
 71
     5
 72
     1
  1
\A1;\A1;70
  7
ＭＳ ゴシック
 11
1.171303517791119E-7
 21
0.9999999999999931
 31
0.0
 73
     1
 44
1.0
  0
POINT
  5
4966
330
495D
100
AcDbEntity
  8
Defpoints
 62
     0
100
AcDbPoint
 10
109.8938306029374
 20
288.1149116229547
 30
0.0
  0
POINT
  5
4967
330
495D
100
AcDbEntity
  8
Defpoints
 62
     0
100
AcDbPoint
 10
109.8938224023373
 20
218.1023140935547
 30
0.0
  0
POINT
  5
4968
330
495D
100
AcDbEntity
  8
Defpoints
 62
     0
100
AcDbPoint
 10
60.53620977317846
 20
218.1023198748292
 30
0.0
  0
ENDBLK
  5
495F
330
495D
100
AcDbEntity
  8
0
100
AcDbBlockEnd
  0
BLOCK
  5
496B
330
496A
100
AcDbEntity
  8
0
100
AcDbBlockBegin
  2
*D22
 70
     1
 10
0.0
 20
0.0
 30
0.0
  3
*D22
  1
*D22
  0
LINE
  5
496D
330
496A
100
AcDbEntity
  8
DIM
 62
     0
370
    -2
100
AcDbLine
 10
82.64346753432913
 20
248.1086191487547
 30
0.0
 11
82.643461146579
 21
195.8243353170554
 31
0.0
  0
LINE
  5
496E
330
496A
100
AcDbEntity
  8
DIM
 62
     0
370
    -2
100
AcDbLine
 10
152.6537819917291
 20
248.1086105953547
 30
0.0
 11
152.6537756039791
 21
195.8243267636554
 31
0.0
  0
LINE
  5
496F
330
496A
100
AcDbEntity
  8
DIM
 62
     0
370
    -2
100
AcDbLine
 10
83.64346114657899
 20
195.824335194882
 30
0.0
 11
151.6537756039791
 21
195.8243268858288
 31
0.0
  0
INSERT
  5
4970
330
496A
100
AcDbEntity
  8
DIM
 62
     0
370
    -2
100
AcDbBlockReference
  2
_DOT
 10
82.643461146579
 20
195.8243353170554
 30
0.0
 50
179.9999929999783
  0
INSERT
  5
4971
330
496A
100
AcDbEntity
  8
DIM
 62
     0
370
    -2
100
AcDbBlockReference
  2
_DOT
 10
152.6537756039791
 20
195.8243267636554
 30
0.0
 50
359.9999929999783
  0
MTEXT
  5
4972
330
496A
100
AcDbEntity
  8
DIM
 62
     0
 48
0.05
100
AcDbMText
 10
117.6486250122969
 20
203.3243310403547
 30
0.0
 40
5.0
 41
0.0
 46
0.0
 71
     5
 72
     1
  1
\A1;\A1;70
  7
ＭＳ ゴシック
 11
0.9999999999999927
 21
-1.221734263002142E-7
 31
0.0
 73
     1
 44
1.0
  0
POINT
  5
4973
330
496A
100
AcDbEntity
  8
Defpoints
 62
     0
100
AcDbPoint
 10
82.64346814519627
 20
253.1086191487547
 30
0.0
  0
POINT
  5
4974
330
496A
100
AcDbEntity
  8
Defpoints
 62
     0
100
AcDbPoint
 10
152.6537826025963
 20
253.1086105953547
 30
0.0
  0
POINT
  5
4975
330
496A
100
AcDbEntity
  8
Defpoints
 62
     0
100
AcDbPoint
 10
152.653775603979
 20
195.8243267636554
 30
0.0
  0
ENDBLK
  5
496C
330
496A
100
AcDbEntity
  8
0
100
AcDbBlockEnd
  0
BLOCK
  5
4994
330
4993
100
AcDbEntity
  8
0
100
AcDbBlockBegin
  2
*D25
 70
     1
 10
0.0
 20
0.0
 30
0.0
  3
*D25
  1
*D25
  0
LINE
  5
4996
330
4993
100
AcDbEntity
  8
DIM
 62
     0
370
    -2
100
AcDbLine
 10
282.5786518093131
 20
193.1270615156891
 30
0.0
 11
282.5786518093131
 21
175.7826687017303
 31
0.0
  0
LINE
  5
4997
330
4993
100
AcDbEntity
  8
DIM
 62
     0
370
    -2
100
AcDbLine
 10
319.378940761913
 20
192.3303294758499
 30
0.0
 11
319.378940761913
 21
175.7826687017303
 31
0.0
  0
LINE
  5
4998
330
4993
100
AcDbEntity
  8
DIM
 62
     0
370
    -2
100
AcDbLine
 10
283.5786518093131
 20
175.7826687017303
 30
0.0
 11
318.378940761913
 21
175.7826687017303
 31
0.0
  0
INSERT
  5
4999
330
4993
100
AcDbEntity
  8
DIM
 62
     0
370
    -2
100
AcDbBlockReference
  2
_DOT
 10
282.5786518093131
 20
175.7826687017303
 30
0.0
 50
180.0
  0
INSERT
  5
499A
330
4993
100
AcDbEntity
  8
DIM
 62
     0
370
    -2
100
AcDbBlockReference
  2
_DOT
 10
319.378940761913
 20
175.7826687017303
 30
0.0
  0
MTEXT
  5
499B
330
4993
100
AcDbEntity
  8
DIM
 62
     0
 48
0.05
100
AcDbMText
 10
300.978795641313
 20
183.2826687017303
 30
0.0
 40
5.0
 41
0.0
 46
0.0
 71
     5
 72
     1
  1
\A1;\A1;37
  7
ＭＳ ゴシック
 73
     1
 44
1.0
  0
POINT
  5
499C
330
4993
100
AcDbEntity
  8
Defpoints
 62
     0
100
AcDbPoint
 10
282.5786518093131
 20
198.1270615156891
 30
0.0
  0
POINT
  5
499D
330
4993
100
AcDbEntity
  8
Defpoints
 62
     0
100
AcDbPoint
 10
319.378940761913
 20
197.3303294758499
 30
0.0
  0
POINT
  5
499E
330
4993
100
AcDbEntity
  8
Defpoints
 62
     0
100
AcDbPoint
 10
319.378940761913
 20
175.7826687017303
 30
0.0
  0
ENDBLK
  5
4995
330
4993
100
AcDbEntity
  8
0
100
AcDbBlockEnd
  0
BLOCK
  5
49A1
330
49A0
100
AcDbEntity
  8
0
100
AcDbBlockBegin
  2
*D26
 70
     1
 10
0.0
 20
0.0
 30
0.0
  3
*D26
  1
*D26
  0
LINE
  5
49A3
330
49A0
100
AcDbEntity
  8
DIM
 62
     0
370
    -2
100
AcDbLine
 10
282.5786518093131
 20
193.1270615156891
 30
0.0
 11
282.5786518093131
 21
157.8029937491033
 31
0.0
  0
LINE
  5
49A4
330
49A0
100
AcDbEntity
  8
DIM
 62
     0
370
    -2
100
AcDbLine
 10
351.4706770199131
 20
243.1976888173527
 30
0.0
 11
351.4706770199131
 21
157.8029937491033
 31
0.0
  0
LINE
  5
49A5
330
49A0
100
AcDbEntity
  8
DIM
 62
     0
370
    -2
100
AcDbLine
 10
283.5786518093131
 20
157.8029937491033
 30
0.0
 11
350.4706770199131
 21
157.8029937491033
 31
0.0
  0
INSERT
  5
49A6
330
49A0
100
AcDbEntity
  8
DIM
 62
     0
370
    -2
100
AcDbBlockReference
  2
_DOT
 10
282.5786518093131
 20
157.8029937491033
 30
0.0
 50
180.0
  0
INSERT
  5
49A7
330
49A0
100
AcDbEntity
  8
DIM
 62
     0
370
    -2
100
AcDbBlockReference
  2
_DOT
 10
351.4706770199131
 20
157.8029937491033
 30
0.0
  0
MTEXT
  5
49A8
330
49A0
100
AcDbEntity
  8
DIM
 62
     0
 48
0.05
100
AcDbMText
 10
317.024664038113
 20
165.3029937491033
 30
0.0
 40
5.0
 41
0.0
 46
0.0
 71
     5
 72
     1
  1
\A1;\A1;69
  7
ＭＳ ゴシック
 73
     1
 44
1.0
  0
POINT
  5
49A9
330
49A0
100
AcDbEntity
  8
Defpoints
 62
     0
100
AcDbPoint
 10
282.5786518093131
 20
198.1270615156891
 30
0.0
  0
POINT
  5
49AA
330
49A0
100
AcDbEntity
  8
Defpoints
 62
     0
100
AcDbPoint
 10
351.4706770199131
 20
248.1976888173527
 30
0.0
  0
POINT
  5
49AB
330
49A0
100
AcDbEntity
  8
Defpoints
 62
     0
100
AcDbPoint
 10
351.4706770199131
 20
157.8029937491033
 30
0.0
  0
ENDBLK
  5
49A2
330
49A0
100
AcDbEntity
  8
0
100
AcDbBlockEnd
  0
BLOCK
  5
49AE
330
49AD
100
AcDbEntity
  8
0
100
AcDbBlockBegin
  2
*D27
 70
     1
 10
0.0
 20
0.0
 30
0.0
  3
*D27
  1
*D27
  0
LINE
  5
49B0
330
49AD
100
AcDbEntity
  8
DIM
 62
     0
370
    -2
100
AcDbLine
 10
282.5786518093131
 20
185.6677429070799
 30
0.0
 11
282.5786518093131
 21
157.8029937491033
 31
0.0
  0
LINE
  5
49B1
330
49AD
100
AcDbEntity
  8
DIM
 62
     0
370
    -2
100
AcDbLine
 10
259.579071035913
 20
192.7893693796649
 30
0.0
 11
259.579071035913
 21
157.8029937491033
 31
0.0
  0
LINE
  5
49B2
330
49AD
100
AcDbEntity
  8
DIM
 62
     0
370
    -2
100
AcDbLine
 10
281.5786518093131
 20
157.8029937491033
 30
0.0
 11
260.579071035913
 21
157.8029937491033
 31
0.0
  0
INSERT
  5
49B3
330
49AD
100
AcDbEntity
  8
DIM
 62
     0
370
    -2
100
AcDbBlockReference
  2
_DOT
 10
282.5786518093131
 20
157.8029937491033
 30
0.0
  0
INSERT
  5
49B4
330
49AD
100
AcDbEntity
  8
DIM
 62
     0
370
    -2
100
AcDbBlockReference
  2
_DOT
 10
259.579071035913
 20
157.8029937491033
 30
0.0
 50
180.0
  0
MTEXT
  5
49B5
330
49AD
100
AcDbEntity
  8
DIM
 62
     0
 48
0.05
100
AcDbMText
 10
271.078861334713
 20
165.3029937491033
 30
0.0
 40
5.0
 41
0.0
 46
0.0
 71
     5
 72
     1
  1
\A1;\A1;23
  7
ＭＳ ゴシック
 73
     1
 44
1.0
  0
POINT
  5
49B6
330
49AD
100
AcDbEntity
  8
Defpoints
 62
     0
100
AcDbPoint
 10
282.5786518093131
 20
190.6677429070799
 30
0.0
  0
POINT
  5
49B7
330
49AD
100
AcDbEntity
  8
Defpoints
 62
     0
100
AcDbPoint
 10
259.579071035913
 20
197.7893693796649
 30
0.0
  0
POINT
  5
49B8
330
49AD
100
AcDbEntity
  8
Defpoints
 62
     0
100
AcDbPoint
 10
259.579071035913
 20
157.8029937491033
 30
0.0
  0
ENDBLK
  5
49AF
330
49AD
100
AcDbEntity
  8
0
100
AcDbBlockEnd
  0
BLOCK
  5
49BB
330
49BA
100
AcDbEntity
  8
0
100
AcDbBlockBegin
  2
*D28
 70
     1
 10
0.0
 20
0.0
 30
0.0
  3
*D28
  1
*D28
  0
LINE
  5
49BD
330
49BA
100
AcDbEntity
  8
DIM
 62
     0
370
    -2
100
AcDbLine
 10
356.4706770199131
 20
253.1099281762892
 30
0.0
 11
375.8366341330814
 21
253.1099281762892
 31
0.0
  0
LINE
  5
49BE
330
49BA
100
AcDbEntity
  8
DIM
 62
     0
370
    -2
100
AcDbLine
 10
333.658940761913
 20
218.4213292208891
 30
0.0
 11
375.8366341330814
 21
218.4213292208891
 31
0.0
  0
LINE
  5
49BF
330
49BA
100
AcDbEntity
  8
DIM
 62
     0
370
    -2
100
AcDbLine
 10
375.8366341330814
 20
252.1099281762892
 30
0.0
 11
375.8366341330814
 21
219.4213292208891
 31
0.0
  0
INSERT
  5
49C0
330
49BA
100
AcDbEntity
  8
DIM
 62
     0
370
    -2
100
AcDbBlockReference
  2
_DOT
 10
375.8366341330814
 20
253.1099281762892
 30
0.0
 50
90.0
  0
INSERT
  5
49C1
330
49BA
100
AcDbEntity
  8
DIM
 62
     0
370
    -2
100
AcDbBlockReference
  2
_DOT
 10
375.8366341330814
 20
218.4213292208891
 30
0.0
 50
270.0
  0
MTEXT
  5
49C2
330
49BA
100
AcDbEntity
  8
DIM
 62
     0
 48
0.05
100
AcDbMText
 10
368.3366341330814
 20
235.7656284724892
 30
0.0
 40
5.0
 41
0.0
 46
0.0
 71
     5
 72
     1
  1
\A1;\A1;35
  7
ＭＳ ゴシック
 11
0.0
 21
1.0
 31
0.0
 73
     1
 44
1.0
  0
POINT
  5
49C3
330
49BA
100
AcDbEntity
  8
Defpoints
 62
     0
100
AcDbPoint
 10
351.4706770199131
 20
253.1099281762892
 30
0.0
  0
POINT
  5
49C4
330
49BA
100
AcDbEntity
  8
Defpoints
 62
     0
100
AcDbPoint
 10
328.658940761913
 20
218.4213292208891
 30
0.0
  0
POINT
  5
49C5
330
49BA
100
AcDbEntity
  8
Defpoints
 62
     0
100
AcDbPoint
 10
375.8366341330814
 20
218.4213292208891
 30
0.0
  0
ENDBLK
  5
49BC
330
49BA
100
AcDbEntity
  8
0
100
AcDbBlockEnd
  0
BLOCK
  5
4A96
330
4A95
100
AcDbEntity
  8
0
100
AcDbBlockBegin
  2
_SE_FILLED
 70
     0
 10
0.0
 20
0.0
 30
0.0
  3
_SE_FILLED
  1
_SE_FILLED
  0
SOLID
  5
4A97
330
4A95
100
AcDbEntity
  8
0
 62
     0
100
AcDbTrace
 10
0.0
 20
0.0
 30
0.0
 11
-1.0
 21
-0.1665
 31
0.0
 12
-1.0
 22
0.1665
 32
0.0
 13
0.0
 23
0.0
 33
0.0
  0
LINE
  5
4A98
330
4A95
100
AcDbEntity
  8
0
 62
     0
100
AcDbLine
 10
0.0
 20
0.0
 30
0.0
 11
-1.0
 21
0.0
 31
0.0
  0
ENDBLK
  5
4A99
330
4A95
100
AcDbEntity
  8
0
100
AcDbBlockEnd
  0
BLOCK
  5
4C25
330
4C24
100
AcDbEntity
  8
0
100
AcDbBlockBegin
  2
SEANNOT_GROUP
 70
     0
 10
0.0
 20
0.0
 30
0.0
  3
SEANNOT_GROUP
  1
SEANNOT_GROUP
  0
LINE
  5
4C26
330
4C24
100
AcDbEntity
  8
Default
  6
CENTER2
 62
   136
370
    20
100
AcDbLine
 10
88.9043893467
 20
156.6601684717
 30
0.0
 11
88.9043893467
 21
128.088392898
 31
0.0
  0
ENDBLK
  5
4C27
330
4C24
100
AcDbEntity
  8
0
100
AcDbBlockEnd
  0
BLOCK
  5
4D4A
330
4D49
100
AcDbEntity
  8
0
100
AcDbBlockBegin
  2
DMBLK23
 70
     0
 10
0.0
 20
0.0
 30
0.0
  3
DMBLK23
  1
DMBLK23
  0
LINE
  5
4D4B
330
4D49
100
AcDbEntity
  8
Layer3
  6
Continuous
 62
   136
370
    -2
100
AcDbLine
 10
30.70384208570005
 20
18.13145274109999
 30
0.0
 11
30.70384208570005
 21
0.1020000000000039
 31
0.0
  0
LINE
  5
4D4C
330
4D49
100
AcDbEntity
  8
Layer3
  6
Continuous
 62
   136
370
    -2
100
AcDbLine
 10
55.09501847260005
 20
14.64047021729999
 30
0.0
 11
55.09501847260005
 21
0.1020000000000039
 31
0.0
  0
LINE
  5
4D4D
330
4D49
100
AcDbEntity
  8
Layer3
  6
Continuous
 62
   136
370
    -2
100
AcDbLine
 10
24.70384208570005
 20
3.102000000000004
 30
0.0
 11
18.70384208570005
 21
3.102000000000004
 31
0.0
  0
LINE
  5
4D4E
330
4D49
100
AcDbEntity
  8
Layer3
  6
Continuous
 62
   136
370
    -2
100
AcDbLine
 10
61.09501847260005
 20
3.102000000000004
 30
0.0
 11
67.09501847260005
 21
3.102000000000004
 31
0.0
  0
INSERT
  5
4D4F
330
4D49
100
AcDbEntity
  8
Layer3
 62
   136
370
    -2
100
AcDbBlockReference
  2
_SE_FILLED
 10
30.70384208570005
 20
3.102000000000004
 30
0.0
 41
6.0
 42
6.0
 43
6.0
  0
INSERT
  5
4D50
330
4D49
100
AcDbEntity
  8
Layer3
 62
   136
370
    -2
100
AcDbBlockReference
  2
_SE_FILLED
 10
55.09501847260005
 20
3.102000000000004
 30
0.0
 41
6.0
 42
6.0
 43
6.0
 50
180.0
  0
MTEXT
  5
4D51
330
4D49
100
AcDbEntity
  8
Layer3
 62
   136
 48
0.05
370
    20
100
AcDbMText
 10
42.89943017530004
 20
3.102000000000004
 30
0.0
 40
6.0
 41
0.0
 46
0.0
 71
     5
 72
     1
  1
\A1;\A1;49
  7
SEACAD_arial_ttf
 73
     1
 44
1.0
  0
POINT
  5
4D81
330
4D49
100
AcDbEntity
  8
Defpoints
 62
     0
100
AcDbPoint
 10
30.70384208570005
 20
18.13145274109999
 30
0.0
  0
POINT
  5
4D82
330
4D49
100
AcDbEntity
  8
Defpoints
 62
     0
100
AcDbPoint
 10
55.09501847260005
 20
14.64047021729999
 30
0.0
  0
POINT
  5
4D83
330
4D49
100
AcDbEntity
  8
Defpoints
 62
     0
100
AcDbPoint
 10
55.09501847260005
 20
3.102000000000004
 30
0.0
  0
ENDBLK
  5
4D52
330
4D49
100
AcDbEntity
  8
0
100
AcDbBlockEnd
  0
BLOCK
  5
4D55
330
4D54
100
AcDbEntity
  8
0
100
AcDbBlockBegin
  2
DMBLK24
 70
     0
 10
0.0
 20
0.0
 30
0.0
  3
DMBLK24
  1
DMBLK24
  0
LINE
  5
4D56
330
4D54
100
AcDbEntity
  8
Layer3
  6
Continuous
 62
   136
370
    -2
100
AcDbLine
 10
130.7036859599
 20
15.51971674219999
 30
0.0
 11
96.73518227223668
 21
15.52001980477813
 31
0.0
  0
LINE
  5
4D57
330
4D54
100
AcDbEntity
  8
Layer3
  6
Continuous
 62
   136
370
    -2
100
AcDbLine
 10
130.7039982116
 20
50.51817510570001
 30
0.0
 11
96.73549452393668
 21
50.51847816827816
 31
0.0
  0
LINE
  5
4D58
330
4D54
100
AcDbEntity
  8
Layer3
  6
Continuous
 62
   136
370
    -2
100
AcDbLine
 10
99.73523580333801
 20
21.51999303892897
 30
0.0
 11
99.73528430220148
 21
26.9559456816
 31
0.0
  0
LINE
  5
4D59
330
4D54
100
AcDbEntity
  8
Layer3
  6
Continuous
 62
   136
370
    -2
100
AcDbLine
 10
99.73544099259655
 20
44.51845140290659
 30
0.0
 11
99.73539248879858
 21
39.0819456816
 31
0.0
  0
INSERT
  5
4D5A
330
4D54
100
AcDbEntity
  8
Layer3
 62
   136
370
    -2
100
AcDbBlockReference
  2
_SE_FILLED
 10
99.73518227211729
 20
15.51999303916777
 30
0.0
 41
6.0
 42
6.0
 43
6.0
 50
269.9994888144967
  0
INSERT
  5
4D5B
330
4D54
100
AcDbEntity
  8
Layer3
 62
   136
370
    -2
100
AcDbBlockReference
  2
_SE_FILLED
 10
99.73549452381728
 20
50.51845140266779
 30
0.0
 41
6.0
 42
6.0
 43
6.0
 50
89.99948881449666
  0
MTEXT
  5
4D5C
330
4D54
100
AcDbEntity
  8
Layer3
 62
   136
 48
0.05
370
    20
100
AcDbMText
 10
99.73533839550004
 20
33.0189456816
 30
0.0
 40
6.0
 41
0.0
 46
0.0
 71
     5
 72
     1
  1
\A1;\A1;70
  7
SEACAD_arial_ttf
 73
     1
 44
1.0
  0
POINT
  5
4D84
330
4D54
100
AcDbEntity
  8
Defpoints
 62
     0
100
AcDbPoint
 10
130.7036859599
 20
15.51971674219999
 30
0.0
  0
POINT
  5
4D85
330
4D54
100
AcDbEntity
  8
Defpoints
 62
     0
100
AcDbPoint
 10
130.7039982116
 20
50.51817510570001
 30
0.0
  0
POINT
  5
4D86
330
4D54
100
AcDbEntity
  8
Defpoints
 62
     0
100
AcDbPoint
 10
99.7356506496651
 20
50.51845140127485
 30
0.0
  0
ENDBLK
  5
4D5D
330
4D54
100
AcDbEntity
  8
0
100
AcDbBlockEnd
  0
BLOCK
  5
4D60
330
4D5F
100
AcDbEntity
  8
0
100
AcDbBlockBegin
  2
DMBLK25
 70
     0
 10
0.0
 20
0.0
 30
0.0
  3
DMBLK25
  1
DMBLK25
  0
LINE
  5
4D61
330
4D5F
100
AcDbEntity
  8
Layer3
  6
Continuous
 62
   136
370
    -2
100
AcDbLine
 10
113.204612904
 20
33.0191020499
 30
0.0
 11
113.2043123361326
 21
0.2632864477882237
 31
0.0
  0
LINE
  5
4D62
330
4D5F
100
AcDbEntity
  8
Layer3
  6
Continuous
 62
   136
370
    -2
100
AcDbLine
 10
148.1754239825
 20
33.01878115720001
 30
0.0
 11
148.1751234146326
 21
0.2629655550882348
 31
0.0
  0
LINE
  5
4D63
330
4D5F
100
AcDbEntity
  8
Layer3
  6
Continuous
 62
   136
370
    -2
100
AcDbLine
 10
119.2043398639261
 20
3.263231391569702
 30
0.0
 11
123.4330191538
 21
3.263192589143539
 31
0.0
  0
LINE
  5
4D64
330
4D5F
100
AcDbEntity
  8
Layer3
  6
Continuous
 62
   136
370
    -2
100
AcDbLine
 10
142.1751509429313
 20
3.263020611054159
 30
0.0
 11
137.9470191538001
 21
3.263059408456446
 31
0.0
  0
INSERT
  5
4D65
330
4D5F
100
AcDbEntity
  8
Layer3
 62
   136
370
    -2
100
AcDbBlockReference
  2
_SE_FILLED
 10
113.2043398641787
 20
3.263286447661925
 30
0.0
 41
6.0
 42
6.0
 43
6.0
 50
179.9994742530465
  0
INSERT
  5
4D66
330
4D5F
100
AcDbEntity
  8
Layer3
 62
   136
370
    -2
100
AcDbBlockReference
  2
_SE_FILLED
 10
148.1751509426787
 20
3.262965554961936
 30
0.0
 41
6.0
 42
6.0
 43
6.0
 50
359.9994742530465
  0
MTEXT
  5
4D67
330
4D5F
100
AcDbEntity
  8
Layer3
 62
   136
 48
0.05
370
    20
100
AcDbMText
 10
130.6900191538001
 20
3.263125998799993
 30
0.0
 40
6.0
 41
0.0
 46
0.0
 71
     5
 72
     1
  1
\A1;\A1;70
  7
SEACAD_arial_ttf
 73
     1
 44
1.0
  0
POINT
  5
4D87
330
4D5F
100
AcDbEntity
  8
Defpoints
 62
     0
100
AcDbPoint
 10
113.204612904
 20
33.0191020499
 30
0.0
  0
POINT
  5
4D88
330
4D5F
100
AcDbEntity
  8
Defpoints
 62
     0
100
AcDbPoint
 10
148.1754239825
 20
33.01878115720001
 30
0.0
  0
POINT
  5
4D89
330
4D5F
100
AcDbEntity
  8
Defpoints
 62
     0
100
AcDbPoint
 10
148.1751509412064
 20
3.262805108605445
 30
0.0
  0
ENDBLK
  5
4D68
330
4D5F
100
AcDbEntity
  8
0
100
AcDbBlockEnd
  0
BLOCK
  5
4D6B
330
4D6A
100
AcDbEntity
  8
0
100
AcDbBlockBegin
  2
DMBLK26
 70
     0
 10
0.0
 20
0.0
 30
0.0
  3
DMBLK26
  1
DMBLK26
  0
LINE
  5
4D6C
330
4D6A
100
AcDbEntity
  8
Default
  6
Continuous
 62
   136
370
    -2
100
AcDbLine
 10
30.70384208570005
 20
56.79010531489999
 30
0.0
 11
30.70384208570005
 21
69.82676101659999
 31
0.0
  0
LINE
  5
4D6D
330
4D6A
100
AcDbEntity
  8
Default
  6
Continuous
 62
   136
370
    -2
100
AcDbLine
 10
65.14554904600004
 20
33.01888823299998
 30
0.0
 11
65.14554904600004
 21
69.82676101659999
 31
0.0
  0
LINE
  5
4D6E
330
4D6A
100
AcDbEntity
  8
Default
  6
Continuous
 62
   136
370
    -2
100
AcDbLine
 10
36.70384208570005
 20
66.82676101659999
 30
0.0
 11
40.60769498230004
 21
66.82676101659999
 31
0.0
  0
LINE
  5
4D6F
330
4D6A
100
AcDbEntity
  8
Default
  6
Continuous
 62
   136
370
    -2
100
AcDbLine
 10
59.14554904600004
 20
66.82676101659999
 30
0.0
 11
55.24169498230003
 21
66.82676101659999
 31
0.0
  0
INSERT
  5
4D70
330
4D6A
100
AcDbEntity
  8
Default
 62
   136
370
    -2
100
AcDbBlockReference
  2
_SE_FILLED
 10
30.70384208570005
 20
66.82676101659999
 30
0.0
 41
6.0
 42
6.0
 43
6.0
 50
180.0
  0
INSERT
  5
4D71
330
4D6A
100
AcDbEntity
  8
Default
 62
   136
370
    -2
100
AcDbBlockReference
  2
_SE_FILLED
 10
65.14554904600004
 20
66.82676101659999
 30
0.0
 41
6.0
 42
6.0
 43
6.0
  0
MTEXT
  5
4D72
330
4D6A
100
AcDbEntity
  8
Default
 62
   136
 48
0.05
370
    20
100
AcDbMText
 10
47.92469498230004
 20
66.82676101659999
 30
0.0
 40
6.0
 41
0.0
 46
0.0
 71
     5
 72
     1
  1
\A1;\A1;69
  7
SEACAD_arial_ttf
 73
     1
 44
1.0
  0
POINT
  5
4D8A
330
4D6A
100
AcDbEntity
  8
Defpoints
 62
     0
100
AcDbPoint
 10
30.70384208570005
 20
56.79010531489999
 30
0.0
  0
POINT
  5
4D8B
330
4D6A
100
AcDbEntity
  8
Defpoints
 62
     0
100
AcDbPoint
 10
65.14554904600004
 20
33.01888823299998
 30
0.0
  0
POINT
  5
4D8C
330
4D6A
100
AcDbEntity
  8
Defpoints
 62
     0
100
AcDbPoint
 10
65.14554904600004
 20
66.82676101659999
 30
0.0
  0
ENDBLK
  5
4D73
330
4D6A
100
AcDbEntity
  8
0
100
AcDbBlockEnd
  0
BLOCK
  5
4D76
330
4D75
100
AcDbEntity
  8
0
100
AcDbBlockBegin
  2
DMBLK27
 70
     0
 10
0.0
 20
0.0
 30
0.0
  3
DMBLK27
  1
DMBLK27
  0
LINE
  5
4D77
330
4D75
100
AcDbEntity
  8
Layer3
  6
Continuous
 62
   136
370
    -2
100
AcDbLine
 10
13.25394645470004
 20
114.5196306797
 30
0.0
 11
1.449652174000043
 21
114.5196306797
 31
0.0
  0
LINE
  5
4D78
330
4D75
100
AcDbEntity
  8
Layer3
  6
Continuous
 62
   136
370
    -2
100
AcDbLine
 10
13.25394645470004
 20
101.5196306797
 30
0.0
 11
1.449652174000043
 21
101.5196306797
 31
0.0
  0
LINE
  5
4D79
330
4D75
100
AcDbEntity
  8
Layer3
  6
Continuous
 62
   136
370
    -2
100
AcDbLine
 10
4.449652174000043
 20
120.5196306797
 30
0.0
 11
4.449652174000043
 21
126.5196306797
 31
0.0
  0
LINE
  5
4D7A
330
4D75
100
AcDbEntity
  8
Layer3
  6
Continuous
 62
   136
370
    -2
100
AcDbLine
 10
4.449652174000043
 20
95.51963067969999
 30
0.0
 11
4.449652174000043
 21
89.51963067969999
 31
0.0
  0
INSERT
  5
4D7B
330
4D75
100
AcDbEntity
  8
Layer3
 62
   136
370
    -2
100
AcDbBlockReference
  2
_SE_FILLED
 10
4.449652174000043
 20
114.5196306797
 30
0.0
 41
6.0
 42
6.0
 43
6.0
 50
270.0
  0
INSERT
  5
4D7C
330
4D75
100
AcDbEntity
  8
Layer3
 62
   136
370
    -2
100
AcDbBlockReference
  2
_SE_FILLED
 10
4.449652174000043
 20
101.5196306797
 30
0.0
 41
6.0
 42
6.0
 43
6.0
 50
90.0
  0
MTEXT
  5
4D7D
330
4D75
100
AcDbEntity
  8
Layer3
 62
   136
 48
0.05
370
    20
100
AcDbMText
 10
4.449652174000043
 20
108.0196305456
 30
0.0
 40
6.0
 41
0.0
 46
0.0
 71
     5
 72
     1
  1
\A1;\A1;26
  7
SEACAD_arial_ttf
 73
     1
 44
1.0
  0
POINT
  5
4D8D
330
4D75
100
AcDbEntity
  8
Defpoints
 62
     0
100
AcDbPoint
 10
13.25394645470004
 20
114.5196306797
 30
0.0
  0
POINT
  5
4D8E
330
4D75
100
AcDbEntity
  8
Defpoints
 62
     0
100
AcDbPoint
 10
13.25394645470004
 20
101.5196306797
 30
0.0
  0
POINT
  5
4D8F
330
4D75
100
AcDbEntity
  8
Defpoints
 62
     0
100
AcDbPoint
 10
4.449652174000045
 20
101.5196306797
 30
0.0
  0
ENDBLK
  5
4D7E
330
4D75
100
AcDbEntity
  8
0
100
AcDbBlockEnd
  0
BLOCK
  5
5023
330
5022
100
AcDbEntity
  8
0
100
AcDbBlockBegin
  2
*D39
 70
     1
 10
0.0
 20
0.0
 30
0.0
  3
*D39
  1
*D39
  0
LINE
  5
5025
330
5022
100
AcDbEntity
  8
DIM
 62
     0
370
    -2
100
AcDbLine
 10
293.1456454983688
 20
200.614586761985
 30
0.0
 11
293.1456454983688
 21
175.555681279785
 31
0.0
  0
LINE
  5
5026
330
5022
100
AcDbEntity
  8
DIM
 62
     0
370
    -2
100
AcDbLine
 10
341.9279982721689
 20
212.3273256507351
 30
0.0
 11
341.9279982721689
 21
175.555681279785
 31
0.0
  0
LINE
  5
5027
330
5022
100
AcDbEntity
  8
DIM
 62
     0
370
    -2
100
AcDbLine
 10
294.1456454983688
 20
175.555681279785
 30
0.0
 11
340.9279982721689
 21
175.555681279785
 31
0.0
  0
INSERT
  5
5028
330
5022
100
AcDbEntity
  8
DIM
 62
     0
370
    -2
100
AcDbBlockReference
  2
_DOT
 10
293.1456454983688
 20
175.555681279785
 30
0.0
 50
180.0
  0
INSERT
  5
5029
330
5022
100
AcDbEntity
  8
DIM
 62
     0
370
    -2
100
AcDbBlockReference
  2
_DOT
 10
341.9279982721689
 20
175.555681279785
 30
0.0
  0
MTEXT
  5
502A
330
5022
100
AcDbEntity
  8
DIM
 62
     0
 48
0.05
100
AcDbMText
 10
317.5368216775689
 20
183.055681279785
 30
0.0
 40
5.0
 41
0.0
 46
0.0
 71
     5
 72
     1
  1
\A1;\A1;49
  7
ＭＳ ゴシック
 73
     1
 44
1.0
  0
POINT
  5
502B
330
5022
100
AcDbEntity
  8
Defpoints
 62
     0
100
AcDbPoint
 10
293.1456454983688
 20
205.614586761985
 30
0.0
  0
POINT
  5
502C
330
5022
100
AcDbEntity
  8
Defpoints
 62
     0
100
AcDbPoint
 10
341.9279982721689
 20
217.3273256507351
 30
0.0
  0
POINT
  5
502D
330
5022
100
AcDbEntity
  8
Defpoints
 62
     0
100
AcDbPoint
 10
341.9279982721689
 20
175.555681279785
 30
0.0
  0
ENDBLK
  5
5024
330
5022
100
AcDbEntity
  8
0
100
AcDbBlockEnd
  0
BLOCK
  5
5030
330
502F
100
AcDbEntity
  8
0
100
AcDbBlockBegin
  2
*D40
 70
     1
 10
0.0
 20
0.0
 30
0.0
  3
*D40
  1
*D40
  0
LINE
  5
5032
330
502F
100
AcDbEntity
  8
DIM
 62
     0
370
    -2
100
AcDbLine
 10
112.6822707355026
 20
200.3911593735356
 30
0.0
 11
55.7452633597383
 21
200.3916673581206
 31
0.0
  0
LINE
  5
5033
330
502F
100
AcDbEntity
  8
DIM
 62
     0
370
    -2
100
AcDbLine
 10
112.6828952389027
 20
270.3880761005356
 30
0.0
 11
55.7458878631384
 21
270.3885840851207
 31
0.0
  0
LINE
  5
5034
330
502F
100
AcDbEntity
  8
DIM
 62
     0
370
    -2
100
AcDbLine
 10
55.74527228160842
 20
201.3916673580808
 30
0.0
 11
55.74587894126827
 21
269.3885840851605
 31
0.0
  0
INSERT
  5
5035
330
502F
100
AcDbEntity
  8
DIM
 62
     0
370
    -2
100
AcDbBlockReference
  2
_DOT
 10
55.7452633597383
 20
200.3916673581206
 30
0.0
 50
269.9994888144965
  0
INSERT
  5
5036
330
502F
100
AcDbEntity
  8
DIM
 62
     0
370
    -2
100
AcDbBlockReference
  2
_DOT
 10
55.7458878631384
 20
270.3885840851207
 30
0.0
 50
89.99948881449656
  0
MTEXT
  5
5037
330
502F
100
AcDbEntity
  8
DIM
 62
     0
 48
0.05
100
AcDbMText
 10
48.24557560680235
 20
235.389639557011
 30
0.0
 40
5.0
 41
0.0
 46
0.0
 71
     5
 72
     1
  1
\A1;\A1;70
  7
ＭＳ ゴシック
 11
8.921870123434420E-6
 21
0.9999999999602004
 31
0.0
 73
     1
 44
1.0
  0
POINT
  5
5038
330
502F
100
AcDbEntity
  8
Defpoints
 62
     0
100
AcDbPoint
 10
117.6822707353036
 20
200.3911147641849
 30
0.0
  0
POINT
  5
5039
330
502F
100
AcDbEntity
  8
Defpoints
 62
     0
100
AcDbPoint
 10
117.6828952387037
 20
270.388031491185
 30
0.0
  0
POINT
  5
503A
330
502F
100
AcDbEntity
  8
Defpoints
 62
     0
100
AcDbPoint
 10
55.74588786313842
 20
270.3885840851207
 30
0.0
  0
ENDBLK
  5
5031
330
502F
100
AcDbEntity
  8
0
100
AcDbBlockEnd
  0
BLOCK
  5
503D
330
503C
100
AcDbEntity
  8
0
100
AcDbBlockBegin
  2
*D41
 70
     1
 10
0.0
 20
0.0
 30
0.0
  3
*D41
  1
*D41
  0
LINE
  5
503F
330
503C
100
AcDbEntity
  8
DIM
 62
     0
370
    -2
100
AcDbLine
 10
82.68407874342678
 20
230.3898853797954
 30
0.0
 11
82.68357854386099
 21
175.8782541751088
 31
0.0
  0
LINE
  5
5040
330
503C
100
AcDbEntity
  8
DIM
 62
     0
370
    -2
100
AcDbLine
 10
152.6257009004268
 20
230.3892435943955
 30
0.0
 11
152.625200700861
 21
175.8776123897088
 31
0.0
  0
LINE
  5
5041
330
503C
100
AcDbEntity
  8
DIM
 62
     0
370
    -2
100
AcDbLine
 10
83.6835785438189
 20
175.8782449990934
 30
0.0
 11
151.6252007009031
 21
175.8776215657242
 31
0.0
  0
INSERT
  5
5042
330
503C
100
AcDbEntity
  8
DIM
 62
     0
370
    -2
100
AcDbBlockReference
  2
_DOT
 10
82.68357854386099
 20
175.8782541751088
 30
0.0
 50
179.9994742530466
  0
INSERT
  5
5043
330
503C
100
AcDbEntity
  8
DIM
 62
     0
370
    -2
100
AcDbBlockReference
  2
_DOT
 10
152.625200700861
 20
175.8776123897088
 30
0.0
 50
359.9994742530466
  0
MTEXT
  5
5044
330
503C
100
AcDbEntity
  8
DIM
 62
     0
 48
0.05
100
AcDbMText
 10
117.6550059432189
 20
183.3779332770692
 30
0.0
 40
5.0
 41
0.0
 46
0.0
 71
     5
 72
     1
  1
\A1;\A1;70
  7
ＭＳ ゴシック
 11
0.9999999999579003
 21
-9.176015369694141E-6
 31
0.0
 73
     1
 44
1.0
  0
POINT
  5
5045
330
503C
100
AcDbEntity
  8
Defpoints
 62
     0
100
AcDbPoint
 10
82.68412462350364
 20
235.3898853795849
 30
0.0
  0
POINT
  5
5046
330
503C
100
AcDbEntity
  8
Defpoints
 62
     0
100
AcDbPoint
 10
152.6257467805036
 20
235.389243594185
 30
0.0
  0
POINT
  5
5047
330
503C
100
AcDbEntity
  8
Defpoints
 62
     0
100
AcDbPoint
 10
152.625200700861
 20
175.8776123897089
 30
0.0
  0
ENDBLK
  5
503E
330
503C
100
AcDbEntity
  8
0
100
AcDbBlockEnd
  0
BLOCK
  5
504A
330
5049
100
AcDbEntity
  8
0
100
AcDbBlockBegin
  2
*D42
 70
     1
 10
0.0
 20
0.0
 30
0.0
  3
*D42
  1
*D42
  0
LINE
  5
504C
330
5049
100
AcDbEntity
  8
DIM
 62
     0
370
    -2
100
AcDbLine
 10
293.1456454983688
 20
287.9318919095849
 30
0.0
 11
293.1456454983688
 21
303.005203312985
 31
0.0
  0
LINE
  5
504D
330
5049
100
AcDbEntity
  8
DIM
 62
     0
370
    -2
100
AcDbLine
 10
362.0290594189689
 20
240.3894577457849
 30
0.0
 11
362.0290594189689
 21
303.005203312985
 31
0.0
  0
LINE
  5
504E
330
5049
100
AcDbEntity
  8
DIM
 62
     0
370
    -2
100
AcDbLine
 10
294.1456454983688
 20
303.005203312985
 30
0.0
 11
361.0290594189689
 21
303.005203312985
 31
0.0
  0
INSERT
  5
504F
330
5049
100
AcDbEntity
  8
DIM
 62
     0
370
    -2
100
AcDbBlockReference
  2
_DOT
 10
293.1456454983688
 20
303.005203312985
 30
0.0
 50
180.0
  0
INSERT
  5
5050
330
5049
100
AcDbEntity
  8
DIM
 62
     0
370
    -2
100
AcDbBlockReference
  2
_DOT
 10
362.0290594189689
 20
303.005203312985
 30
0.0
  0
MTEXT
  5
5051
330
5049
100
AcDbEntity
  8
DIM
 62
     0
 48
0.05
100
AcDbMText
 10
327.5873512915689
 20
310.505203312985
 30
0.0
 40
5.0
 41
0.0
 46
0.0
 71
     5
 72
     1
  1
\A1;\A1;69
  7
ＭＳ ゴシック
 73
     1
 44
1.0
  0
POINT
  5
5052
330
5049
100
AcDbEntity
  8
Defpoints
 62
     0
100
AcDbPoint
 10
293.1456454983688
 20
282.9318919095849
 30
0.0
  0
POINT
  5
5053
330
5049
100
AcDbEntity
  8
Defpoints
 62
     0
100
AcDbPoint
 10
362.0290594189689
 20
235.3894577457849
 30
0.0
  0
POINT
  5
5054
330
5049
100
AcDbEntity
  8
Defpoints
 62
     0
100
AcDbPoint
 10
362.0290594189689
 20
303.005203312985
 30
0.0
  0
ENDBLK
  5
504B
330
5049
100
AcDbEntity
  8
0
100
AcDbBlockEnd
  0
BLOCK
  5
5057
330
5056
100
AcDbEntity
  8
0
100
AcDbBlockBegin
  2
*D43
 70
     1
 10
0.0
 20
0.0
 30
0.0
  3
*D43
  1
*D43
  0
LINE
  5
5059
330
5056
100
AcDbEntity
  8
DIM
 62
     0
370
    -2
100
AcDbLine
 10
130.6851436121731
 20
478.4305384694318
 30
0.0
 11
130.6851436121731
 21
491.039127030832
 31
0.0
  0
LINE
  5
505A
330
5056
100
AcDbEntity
  8
DIM
 62
     0
370
    -2
100
AcDbLine
 10
104.6851436121731
 20
478.4305384694318
 30
0.0
 11
104.6851436121731
 21
491.039127030832
 31
0.0
  0
LINE
  5
505B
330
5056
100
AcDbEntity
  8
DIM
 62
     0
370
    -2
100
AcDbLine
 10
129.6851436121731
 20
491.039127030832
 30
0.0
 11
105.6851436121731
 21
491.039127030832
 31
0.0
  0
INSERT
  5
505C
330
5056
100
AcDbEntity
  8
DIM
 62
     0
370
    -2
100
AcDbBlockReference
  2
_DOT
 10
130.6851436121731
 20
491.039127030832
 30
0.0
  0
INSERT
  5
505D
330
5056
100
AcDbEntity
  8
DIM
 62
     0
370
    -2
100
AcDbBlockReference
  2
_DOT
 10
104.6851436121731
 20
491.039127030832
 30
0.0
 50
180.0
  0
MTEXT
  5
505E
330
5056
100
AcDbEntity
  8
DIM
 62
     0
 48
0.05
100
AcDbMText
 10
117.6851433439731
 20
498.539127030832
 30
0.0
 40
5.0
 41
0.0
 46
0.0
 71
     5
 72
     1
  1
\A1;\A1;26
  7
ＭＳ ゴシック
 73
     1
 44
1.0
  0
POINT
  5
505F
330
5056
100
AcDbEntity
  8
Defpoints
 62
     0
100
AcDbPoint
 10
130.6851436121731
 20
473.4305384694318
 30
0.0
  0
POINT
  5
5060
330
5056
100
AcDbEntity
  8
Defpoints
 62
     0
100
AcDbPoint
 10
104.6851436121731
 20
473.4305384694318
 30
0.0
  0
POINT
  5
5061
330
5056
100
AcDbEntity
  8
Defpoints
 62
     0
100
AcDbPoint
 10
104.6851436121731
 20
491.039127030832
 30
0.0
  0
ENDBLK
  5
5058
330
5056
100
AcDbEntity
  8
0
100
AcDbBlockEnd
  0
BLOCK
  5
5316
330
5315
100
AcDbEntity
  8
0
100
AcDbBlockBegin
  2
DMBLK49
 70
     0
 10
0.0
 20
0.0
 30
0.0
  3
DMBLK49
  1
DMBLK49
  0
LINE
  5
5317
330
5315
100
AcDbEntity
  8
Layer3
  6
Continuous
 62
   136
370
    -2
100
AcDbLine
 10
55.36233642648348
 20
11.84739347519999
 30
0.0
 11
130.0151511723835
 21
11.84739347519999
 31
0.0
  0
LINE
  5
5318
330
5315
100
AcDbEntity
  8
Layer3
  6
Continuous
 62
   136
370
    -2
100
AcDbLine
 10
55.36233642648348
 20
48.7911930699
 30
0.0
 11
130.0151511723835
 21
48.7911930699
 31
0.0
  0
LINE
  5
5319
330
5315
100
AcDbEntity
  8
Layer3
  6
Continuous
 62
   136
370
    -2
100
AcDbLine
 10
127.0151511723835
 20
17.84739347519999
 30
0.0
 11
127.0151511723835
 21
24.3192938489
 31
0.0
  0
LINE
  5
531A
330
5315
100
AcDbEntity
  8
Layer3
  6
Continuous
 62
   136
370
    -2
100
AcDbLine
 10
127.0151511723835
 20
42.7911930699
 30
0.0
 11
127.0151511723835
 21
36.3192938489
 31
0.0
  0
INSERT
  5
531B
330
5315
100
AcDbEntity
  8
Layer3
 62
   136
370
    -2
100
AcDbBlockReference
  2
_SE_FILLED
 10
127.0151511723835
 20
11.84739347519999
 30
0.0
 41
6.0
 42
6.0
 43
6.0
 50
270.0
  0
INSERT
  5
531C
330
5315
100
AcDbEntity
  8
Layer3
 62
   136
370
    -2
100
AcDbBlockReference
  2
_SE_FILLED
 10
127.0151511723835
 20
48.7911930699
 30
0.0
 41
6.0
 42
6.0
 43
6.0
 50
90.0
  0
MTEXT
  5
531D
330
5315
100
AcDbEntity
  8
Layer3
 62
   136
 48
0.05
370
    20
100
AcDbMText
 10
127.0151511723835
 20
30.3192938489
 30
0.0
 40
6.0
 41
0.0
 46
0.0
 71
     5
 72
     1
  1
\A1;\A1;74
  7
SEACAD_arial_ttf
 73
     1
 44
1.0
  0
POINT
  5
534D
330
5315
100
AcDbEntity
  8
Defpoints
 62
     0
100
AcDbPoint
 10
55.36233642648348
 20
11.84739347519999
 30
0.0
  0
POINT
  5
534E
330
5315
100
AcDbEntity
  8
Defpoints
 62
     0
100
AcDbPoint
 10
55.36233642648348
 20
48.7911930699
 30
0.0
  0
POINT
  5
534F
330
5315
100
AcDbEntity
  8
Defpoints
 62
     0
100
AcDbPoint
 10
127.0151511723835
 20
48.7911930699
 30
0.0
  0
ENDBLK
  5
531E
330
5315
100
AcDbEntity
  8
0
100
AcDbBlockEnd
  0
BLOCK
  5
5321
330
5320
100
AcDbEntity
  8
0
100
AcDbBlockBegin
  2
DMBLK50
 70
     0
 10
0.0
 20
0.0
 30
0.0
  3
DMBLK50
  1
DMBLK50
  0
LINE
  5
5322
330
5320
100
AcDbEntity
  8
Layer3
  6
Continuous
 62
   136
370
    -2
100
AcDbLine
 10
50.12358642648347
 20
49.8594670869
 30
0.0
 11
50.12358642648347
 21
59.77189364429999
 31
0.0
  0
LINE
  5
5323
330
5320
100
AcDbEntity
  8
Layer3
  6
Continuous
 62
   136
370
    -2
100
AcDbLine
 10
60.60108642648348
 20
49.8594670869
 30
0.0
 11
60.60108642648348
 21
59.77189364429999
 31
0.0
  0
LINE
  5
5324
330
5320
100
AcDbEntity
  8
Layer3
  6
Continuous
 62
   136
370
    -2
100
AcDbLine
 10
60.60108642648348
 20
56.77189364429999
 30
0.0
 11
72.60108642648348
 21
56.77189364429999
 31
0.0
  0
LINE
  5
5325
330
5320
100
AcDbEntity
  8
Layer3
  6
Continuous
 62
   136
370
    -2
100
AcDbLine
 10
44.12358642648347
 20
56.77189364429999
 30
0.0
 11
38.12358642648347
 21
56.77189364429999
 31
0.0
  0
LINE
  5
5326
330
5320
100
AcDbEntity
  8
Layer3
  6
Continuous
 62
   136
370
    -2
100
AcDbLine
 10
66.60108642648348
 20
56.77189364429999
 30
0.0
 11
72.60108642648348
 21
56.77189364429999
 31
0.0
  0
INSERT
  5
5327
330
5320
100
AcDbEntity
  8
Layer3
 62
   136
370
    -2
100
AcDbBlockReference
  2
_SE_FILLED
 10
50.12358642648347
 20
56.77189364429999
 30
0.0
 41
6.0
 42
6.0
 43
6.0
  0
INSERT
  5
5328
330
5320
100
AcDbEntity
  8
Layer3
 62
   136
370
    -2
100
AcDbBlockReference
  2
_SE_FILLED
 10
60.60108642648348
 20
56.77189364429999
 30
0.0
 41
6.0
 42
6.0
 43
6.0
 50
180.0
  0
MTEXT
  5
5350
330
5320
100
AcDbEntity
  8
Layer3
 62
   136
 48
0.05
370
    20
100
AcDbMText
 10
84.23508642648348
 20
56.77189364429999
 30
0.0
 40
6.0
 41
0.0
 46
0.0
 71
     5
 72
     1
  1
\A1;\A1;G1/2 {}
  7
SEACAD_arial_ttf
 73
     1
 44
1.0
  0
POINT
  5
5351
330
5320
100
AcDbEntity
  8
Defpoints
 62
     0
100
AcDbPoint
 10
50.12358642648347
 20
49.8594670869
 30
0.0
  0
POINT
  5
5352
330
5320
100
AcDbEntity
  8
Defpoints
 62
     0
100
AcDbPoint
 10
60.60108642648348
 20
49.8594670869
 30
0.0
  0
POINT
  5
5353
330
5320
100
AcDbEntity
  8
Defpoints
 62
     0
100
AcDbPoint
 10
60.60108642648348
 20
56.77189364429999
 30
0.0
  0
ENDBLK
  5
5329
330
5320
100
AcDbEntity
  8
0
100
AcDbBlockEnd
  0
BLOCK
  5
532C
330
532B
100
AcDbEntity
  8
0
100
AcDbBlockBegin
  2
DMBLK51
 70
     0
 10
0.0
 20
0.0
 30
0.0
  3
DMBLK51
  1
DMBLK51
  0
LINE
  5
532D
330
532B
100
AcDbEntity
  8
Layer3
  6
Continuous
 62
   136
370
    -2
100
AcDbLine
 10
55.18868824888348
 20
39.30638531690001
 30
0.0
 11
48.38355629051575
 21
0.7125641469127815
 31
0.0
  0
LINE
  5
532E
330
532B
100
AcDbEntity
  8
Layer3
  6
Continuous
 62
   136
370
    -2
100
AcDbLine
 10
55.53598460418347
 20
39.30638531690001
 30
0.0
 11
62.34111656634846
 21
0.7125641475999789
 31
0.0
  0
ARC
  5
532F
330
532B
100
AcDbEntity
  8
Layer3
  6
Continuous
 62
   136
370
    -2
100
AcDbCircle
 10
55.36233642648348
 20
40.2911930699
 30
0.0
 40
37.1891930699
100
AcDbArc
 50
241.4920092362857
 51
250.7460046199704
  0
ARC
  5
5330
330
532B
100
AcDbEntity
  8
Layer3
  6
Continuous
 62
   136
370
    -2
100
AcDbCircle
 10
55.36233642648348
 20
40.2911930699
 30
0.0
 40
37.1891930699
100
AcDbArc
 50
289.2539953856715
 51
298.5079907693562
  0
INSERT
  5
5331
330
532B
100
AcDbEntity
  8
Layer3
 62
   136
370
    -2
100
AcDbBlockReference
  2
_SE_FILLED
 10
48.90450082332807
 20
3.666987405982638
 30
0.0
 41
6.0
 42
6.0
 43
6.0
 50
345.3730023118127
  0
INSERT
  5
5332
330
532B
100
AcDbEntity
  8
Layer3
 62
   136
370
    -2
100
AcDbBlockReference
  2
_SE_FILLED
 10
61.82017203324522
 20
3.666987406618539
 30
0.0
 41
6.0
 42
6.0
 43
6.0
 50
194.6269976938291
  0
MTEXT
  5
5333
330
532B
100
AcDbEntity
  8
Layer3
 62
   136
 48
0.05
370
    20
100
AcDbMText
 10
55.36233642648348
 20
3.102000000000004
 30
0.0
 40
6.0
 41
0.0
 46
0.0
 71
     5
 72
     1
  1
\A1;\A1;20%%d
  7
SEACAD_arial_ttf
 73
     1
 44
1.0
  0
POINT
  5
5354
330
532B
100
AcDbEntity
  8
Defpoints
 62
     0
100
AcDbPoint
 10
57.52469569649919
 20
3.164918228789496
 30
0.0
  0
POINT
  5
5355
330
532B
100
AcDbEntity
  8
Defpoints
 62
     0
100
AcDbPoint
 10
55.36233642648348
 20
40.2911930699
 30
0.0
  0
POINT
  5
5356
330
532B
100
AcDbEntity
  8
Defpoints
 62
     0
100
AcDbPoint
 10
55.36233642648348
 20
40.2911930699
 30
0.0
  0
POINT
  5
5357
330
532B
100
AcDbEntity
  8
Defpoints
 62
     0
100
AcDbPoint
 10
55.18868824888348
 20
39.30638531690001
 30
0.0
  0
POINT
  5
5358
330
532B
100
AcDbEntity
  8
Defpoints
 62
     0
100
AcDbPoint
 10
55.53598460418347
 20
39.30638531690001
 30
0.0
  0
ENDBLK
  5
5334
330
532B
100
AcDbEntity
  8
0
100
AcDbBlockEnd
  0
BLOCK
  5
5337
330
5336
100
AcDbEntity
  8
0
100
AcDbBlockBegin
  2
DMBLK52
 70
     0
 10
0.0
 20
0.0
 30
0.0
  3
DMBLK52
  1
DMBLK52
  0
LINE
  5
5338
330
5336
100
AcDbEntity
  8
Layer3
  6
Continuous
 62
   136
370
    -2
100
AcDbLine
 10
0.0310474792834725
 20
129.183476852
 30
0.0
 11
0.0310474792834725
 21
74.0092886553
 31
0.0
  0
LINE
  5
5339
330
5336
100
AcDbEntity
  8
Layer3
  6
Continuous
 62
   136
370
    -2
100
AcDbLine
 10
110.6933074091835
 20
138.406138301
 30
0.0
 11
110.6933074091835
 21
74.0092886553
 31
0.0
  0
LINE
  5
533A
330
5336
100
AcDbEntity
  8
Layer3
  6
Continuous
 62
   136
370
    -2
100
AcDbLine
 10
6.031047479283473
 20
77.0092886553
 30
0.0
 11
46.26917705998348
 21
77.0092886553
 31
0.0
  0
LINE
  5
533B
330
5336
100
AcDbEntity
  8
Layer3
  6
Continuous
 62
   136
370
    -2
100
AcDbLine
 10
104.6933074091835
 20
77.0092886553
 30
0.0
 11
64.45517705998347
 21
77.0092886553
 31
0.0
  0
INSERT
  5
533C
330
5336
100
AcDbEntity
  8
Layer3
 62
   136
370
    -2
100
AcDbBlockReference
  2
_SE_FILLED
 10
0.0310474792834725
 20
77.0092886553
 30
0.0
 41
6.0
 42
6.0
 43
6.0
 50
180.0
  0
INSERT
  5
533D
330
5336
100
AcDbEntity
  8
Layer3
 62
   136
370
    -2
100
AcDbBlockReference
  2
_SE_FILLED
 10
110.6933074091835
 20
77.0092886553
 30
0.0
 41
6.0
 42
6.0
 43
6.0
  0
MTEXT
  5
533E
330
5336
100
AcDbEntity
  8
Layer3
 62
   136
 48
0.05
370
    20
100
AcDbMText
 10
55.36217705998348
 20
77.0092886553
 30
0.0
 40
6.0
 41
0.0
 46
0.0
 71
     5
 72
     1
  1
\A1;\A1;221
  7
SEACAD_arial_ttf
 73
     1
 44
1.0
  0
POINT
  5
5359
330
5336
100
AcDbEntity
  8
Defpoints
 62
     0
100
AcDbPoint
 10
0.0310474792834725
 20
129.183476852
 30
0.0
  0
POINT
  5
535A
330
5336
100
AcDbEntity
  8
Defpoints
 62
     0
100
AcDbPoint
 10
110.6933074091835
 20
138.406138301
 30
0.0
  0
POINT
  5
535B
330
5336
100
AcDbEntity
  8
Defpoints
 62
     0
100
AcDbPoint
 10
110.6933074091835
 20
77.0092886553
 30
0.0
  0
ENDBLK
  5
533F
330
5336
100
AcDbEntity
  8
0
100
AcDbBlockEnd
  0
BLOCK
  5
5342
330
5341
100
AcDbEntity
  8
0
100
AcDbBlockBegin
  2
DMBLK53
 70
     0
 10
0.0
 20
0.0
 30
0.0
  3
DMBLK53
  1
DMBLK53
  0
LINE
  5
5343
330
5341
100
AcDbEntity
  8
Layer3
  6
Continuous
 62
   136
370
    -2
100
AcDbLine
 10
80.79855253478347
 20
93.4601783979
 30
0.0
 11
130.0151521779835
 21
93.4601783979
 31
0.0
  0
LINE
  5
5344
330
5341
100
AcDbEntity
  8
Layer3
  6
Continuous
 62
   136
370
    -2
100
AcDbLine
 10
78.43926905888347
 20
204.1220130804
 30
0.0
 11
130.0151521779835
 21
204.1220130804
 31
0.0
  0
LINE
  5
5345
330
5341
100
AcDbEntity
  8
Layer3
  6
Continuous
 62
   136
370
    -2
100
AcDbLine
 10
127.0151521779835
 20
99.4601783979
 30
0.0
 11
127.0151521779835
 21
142.779095637
 31
0.0
  0
LINE
  5
5346
330
5341
100
AcDbEntity
  8
Layer3
  6
Continuous
 62
   136
370
    -2
100
AcDbLine
 10
127.0151521779835
 20
198.1220130804
 30
0.0
 11
127.0151521779835
 21
154.803095637
 31
0.0
  0
INSERT
  5
5347
330
5341
100
AcDbEntity
  8
Layer3
 62
   136
370
    -2
100
AcDbBlockReference
  2
_SE_FILLED
 10
127.0151521779835
 20
93.4601783979
 30
0.0
 41
6.0
 42
6.0
 43
6.0
 50
270.0
  0
INSERT
  5
5348
330
5341
100
AcDbEntity
  8
Layer3
 62
   136
370
    -2
100
AcDbBlockReference
  2
_SE_FILLED
 10
127.0151521779835
 20
204.1220130804
 30
0.0
 41
6.0
 42
6.0
 43
6.0
 50
90.0
  0
MTEXT
  5
5349
330
5341
100
AcDbEntity
  8
Layer3
 62
   136
 48
0.05
370
    20
100
AcDbMText
 10
127.0151521779835
 20
148.791095637
 30
0.0
 40
6.0
 41
0.0
 46
0.0
 71
     5
 72
     1
  1
\A1;\A1;221
  7
SEACAD_arial_ttf
 73
     1
 44
1.0
  0
POINT
  5
535C
330
5341
100
AcDbEntity
  8
Defpoints
 62
     0
100
AcDbPoint
 10
80.79855253478347
 20
93.4601783979
 30
0.0
  0
POINT
  5
535D
330
5341
100
AcDbEntity
  8
Defpoints
 62
     0
100
AcDbPoint
 10
78.43926905888347
 20
204.1220130804
 30
0.0
  0
POINT
  5
535E
330
5341
100
AcDbEntity
  8
Defpoints
 62
     0
100
AcDbPoint
 10
127.0151521779835
 20
204.1220130804
 30
0.0
  0
ENDBLK
  5
534A
330
5341
100
AcDbEntity
  8
0
100
AcDbBlockEnd
  0
BLOCK
  5
5595
330
5594
100
AcDbEntity
  8
0
100
AcDbBlockBegin
  2
*D50
 70
     1
 10
0.0
 20
0.0
 30
0.0
  3
*D50
  1
*D50
  0
LINE
  5
5597
330
5594
100
AcDbEntity
  8
Layer3
  6
Continuous
 62
   136
370
    -2
100
AcDbLine
 10
665.6910312344702
 20
124.5717811700529
 30
0.0
 11
811.9966607262703
 21
124.5717811700529
 31
0.0
  0
LINE
  5
5598
330
5594
100
AcDbEntity
  8
Layer3
  6
Continuous
 62
   136
370
    -2
100
AcDbLine
 10
665.6910312344702
 20
198.459380359453
 30
0.0
 11
811.9966607262703
 21
198.459380359453
 31
0.0
  0
LINE
  5
5599
330
5594
100
AcDbEntity
  8
Layer3
  6
Continuous
 62
   136
370
    -2
100
AcDbLine
 10
808.9966607262703
 20
130.5717811700529
 30
0.0
 11
808.9966607262703
 21
155.452581917453
 31
0.0
  0
LINE
  5
559A
330
5594
100
AcDbEntity
  8
Layer3
  6
Continuous
 62
   136
370
    -2
100
AcDbLine
 10
808.9966607262703
 20
192.459380359453
 30
0.0
 11
808.9966607262703
 21
167.5785819174529
 31
0.0
  0
INSERT
  5
559B
330
5594
100
AcDbEntity
  8
Layer3
 62
   136
370
    -2
100
AcDbBlockReference
  2
_SE_FILLED
 10
808.9966607262703
 20
124.5717811700529
 30
0.0
 41
6.0
 42
6.0
 43
6.0
 50
270.0
  0
INSERT
  5
559C
330
5594
100
AcDbEntity
  8
Layer3
 62
   136
370
    -2
100
AcDbBlockReference
  2
_SE_FILLED
 10
808.9966607262703
 20
198.459380359453
 30
0.0
 41
6.0
 42
6.0
 43
6.0
 50
90.0
  0
MTEXT
  5
559D
330
5594
100
AcDbEntity
  8
Layer3
 62
   136
 48
0.05
370
    20
100
AcDbMText
 10
808.9966607262703
 20
161.5155819174529
 30
0.0
 40
6.0
 41
0.0
 46
0.0
 71
     5
 72
     1
  1
\A1;\A1;148
  7
SEACAD_arial_ttf
 73
     1
 44
1.0
  0
POINT
  5
559E
330
5594
100
AcDbEntity
  8
Defpoints
 62
     0
100
AcDbPoint
 10
665.6910312344702
 20
124.5717811700529
 30
0.0
  0
POINT
  5
559F
330
5594
100
AcDbEntity
  8
Defpoints
 62
     0
100
AcDbPoint
 10
665.6910312344702
 20
198.459380359453
 30
0.0
  0
POINT
  5
55A0
330
5594
100
AcDbEntity
  8
Defpoints
 62
     0
100
AcDbPoint
 10
808.9966607262703
 20
198.459380359453
 30
0.0
  0
ENDBLK
  5
5596
330
5594
100
AcDbEntity
  8
0
100
AcDbBlockEnd
  0
BLOCK
  5
55A2
330
55A1
100
AcDbEntity
  8
0
100
AcDbBlockBegin
  2
*D51
 70
     1
 10
0.0
 20
0.0
 30
0.0
  3
*D51
  1
*D51
  0
LINE
  5
55A4
330
55A1
100
AcDbEntity
  8
Layer3
  6
Continuous
 62
   136
370
    -2
100
AcDbLine
 10
655.2135312344702
 20
200.5959283934529
 30
0.0
 11
655.2135312344702
 21
217.420781508253
 31
0.0
  0
LINE
  5
55A5
330
55A1
100
AcDbEntity
  8
Layer3
  6
Continuous
 62
   136
370
    -2
100
AcDbLine
 10
676.1685312344702
 20
200.5959283934529
 30
0.0
 11
676.1685312344702
 21
217.420781508253
 31
0.0
  0
LINE
  5
55A6
330
55A1
100
AcDbEntity
  8
Layer3
  6
Continuous
 62
   136
370
    -2
100
AcDbLine
 10
676.1685312344702
 20
214.420781508253
 30
0.0
 11
711.8025312344702
 21
214.420781508253
 31
0.0
  0
LINE
  5
55A7
330
55A1
100
AcDbEntity
  8
Layer3
  6
Continuous
 62
   136
370
    -2
100
AcDbLine
 10
661.2135312344702
 20
214.420781508253
 30
0.0
 11
670.1685312344702
 21
214.420781508253
 31
0.0
  0
INSERT
  5
55A8
330
55A1
100
AcDbEntity
  8
Layer3
 62
   136
370
    -2
100
AcDbBlockReference
  2
_SE_FILLED
 10
655.2135312344702
 20
214.420781508253
 30
0.0
 41
6.0
 42
6.0
 43
6.0
 50
180.0
  0
INSERT
  5
55A9
330
55A1
100
AcDbEntity
  8
Layer3
 62
   136
370
    -2
100
AcDbBlockReference
  2
_SE_FILLED
 10
676.1685312344702
 20
214.420781508253
 30
0.0
 41
6.0
 42
6.0
 43
6.0
  0
MTEXT
  5
55AA
330
55A1
100
AcDbEntity
  8
Layer3
 62
   136
 48
0.05
370
    20
100
AcDbMText
 10
723.4365312344702
 20
214.420781508253
 30
0.0
 40
6.0
 41
0.0
 46
0.0
 71
     5
 72
     1
  1
\A1;\A1;G1/2 {}
  7
SEACAD_arial_ttf
 73
     1
 44
1.0
  0
POINT
  5
55AB
330
55A1
100
AcDbEntity
  8
Defpoints
 62
     0
100
AcDbPoint
 10
655.2135312344702
 20
200.5959283934529
 30
0.0
  0
POINT
  5
55AC
330
55A1
100
AcDbEntity
  8
Defpoints
 62
     0
100
AcDbPoint
 10
676.1685312344702
 20
200.5959283934529
 30
0.0
  0
POINT
  5
55AD
330
55A1
100
AcDbEntity
  8
Defpoints
 62
     0
100
AcDbPoint
 10
676.1685312344702
 20
214.420781508253
 30
0.0
  0
ENDBLK
  5
55A3
330
55A1
100
AcDbEntity
  8
0
100
AcDbBlockEnd
  0
BLOCK
  5
55B0
330
55AF
100
AcDbEntity
  8
0
100
AcDbBlockBegin
  2
*D52
 70
     1
 10
0.0
 20
0.0
 30
0.0
  3
*D52
  1
*D52
  0
LINE
  5
55B2
330
55AF
100
AcDbEntity
  8
Layer3
  6
Continuous
 62
   136
370
    -2
100
AcDbLine
 10
665.3437348792703
 20
179.4897648534529
 30
0.0
 11
652.2544154953515
 21
105.2565457725476
 31
0.0
  0
LINE
  5
55B3
330
55AF
100
AcDbEntity
  8
Layer3
  6
Continuous
 62
   136
370
    -2
100
AcDbLine
 10
666.0383275898702
 20
179.4897648534529
 30
0.0
 11
679.1276469810967
 21
105.2565457738714
 31
0.0
  0
ARC
  5
55B4
330
55AF
100
AcDbEntity
  8
Layer3
  6
Continuous
 62
   136
370
    -2
100
AcDbCircle
 10
665.6910312344702
 20
181.459380359453
 30
0.0
 40
74.3783861398
100
AcDbArc
 50
250.7535515341416
 51
255.3767757689
  0
ARC
  5
55B5
330
55AF
100
AcDbEntity
  8
Layer3
  6
Continuous
 62
   136
370
    -2
100
AcDbCircle
 10
665.6910312344702
 20
181.459380359453
 30
0.0
 40
74.3783861398
100
AcDbArc
 50
284.623224236745
 51
289.2464484715035
  0
INSERT
  5
55B6
330
55AF
100
AcDbEntity
  8
Layer3
 62
   136
370
    -2
100
AcDbBlockReference
  2
_SE_FILLED
 10
652.7753600281636
 20
108.2109690316175
 30
0.0
 41
6.0
 42
6.0
 43
6.0
 50
347.6883878862792
  0
INSERT
  5
55B7
330
55AF
100
AcDbEntity
  8
Layer3
 62
   136
370
    -2
100
AcDbBlockReference
  2
_SE_FILLED
 10
678.6067024479935
 20
108.21096903289
 30
0.0
 41
6.0
 42
6.0
 43
6.0
 50
192.3116121193658
  0
MTEXT
  5
55B8
330
55AF
100
AcDbEntity
  8
Layer3
 62
   136
 48
0.05
370
    20
100
AcDbMText
 10
665.6910312344702
 20
107.080994219653
 30
0.0
 40
6.0
 41
0.0
 46
0.0
 71
     5
 72
     1
  1
\A1;\A1;20%%d
  7
SEACAD_arial_ttf
 73
     1
 44
1.0
  0
POINT
  5
55B9
330
55AF
100
AcDbEntity
  8
Defpoints
 62
     0
100
AcDbPoint
 10
670.0157497745029
 20
107.206830677232
 30
0.0
  0
POINT
  5
55BA
330
55AF
100
AcDbEntity
  8
Defpoints
 62
     0
100
AcDbPoint
 10
665.6910312344702
 20
181.459380359453
 30
0.0
  0
POINT
  5
55BB
330
55AF
100
AcDbEntity
  8
Defpoints
 62
     0
100
AcDbPoint
 10
665.6910312344702
 20
181.459380359453
 30
0.0
  0
POINT
  5
55BC
330
55AF
100
AcDbEntity
  8
Defpoints
 62
     0
100
AcDbPoint
 10
665.3437348792703
 20
179.4897648534529
 30
0.0
  0
POINT
  5
55BD
330
55AF
100
AcDbEntity
  8
Defpoints
 62
     0
100
AcDbPoint
 10
666.0383275898702
 20
179.4897648534529
 30
0.0
  0
ENDBLK
  5
55B1
330
55AF
100
AcDbEntity
  8
0
100
AcDbBlockEnd
  0
BLOCK
  5
55BF
330
55BE
100
AcDbEntity
  8
0
100
AcDbBlockBegin
  2
*D53
 70
     1
 10
0.0
 20
0.0
 30
0.0
  3
*D53
  1
*D53
  0
LINE
  5
55C1
330
55BE
100
AcDbEntity
  8
Layer3
  6
Continuous
 62
   136
370
    -2
100
AcDbLine
 10
555.0284533400703
 20
359.243947923653
 30
0.0
 11
555.0284533400703
 21
251.8955715302529
 31
0.0
  0
LINE
  5
55C2
330
55BE
100
AcDbEntity
  8
Layer3
  6
Continuous
 62
   136
370
    -2
100
AcDbLine
 10
776.3529731998702
 20
377.6892708216529
 30
0.0
 11
776.3529731998702
 21
251.8955715302529
 31
0.0
  0
LINE
  5
55C3
330
55BE
100
AcDbEntity
  8
Layer3
  6
Continuous
 62
   136
370
    -2
100
AcDbLine
 10
561.0284533400703
 20
254.8955715302529
 30
0.0
 11
655.9497125014703
 21
254.8955715302529
 31
0.0
  0
LINE
  5
55C4
330
55BE
100
AcDbEntity
  8
Layer3
  6
Continuous
 62
   136
370
    -2
100
AcDbLine
 10
770.3529731998702
 20
254.8955715302529
 30
0.0
 11
675.4317125014703
 21
254.8955715302529
 31
0.0
  0
INSERT
  5
55C5
330
55BE
100
AcDbEntity
  8
Layer3
 62
   136
370
    -2
100
AcDbBlockReference
  2
_SE_FILLED
 10
555.0284533400703
 20
254.8955715302529
 30
0.0
 41
6.0
 42
6.0
 43
6.0
 50
180.0
  0
INSERT
  5
55C6
330
55BE
100
AcDbEntity
  8
Layer3
 62
   136
370
    -2
100
AcDbBlockReference
  2
_SE_FILLED
 10
776.3529731998702
 20
254.8955715302529
 30
0.0
 41
6.0
 42
6.0
 43
6.0
  0
MTEXT
  5
55C7
330
55BE
100
AcDbEntity
  8
Layer3
 62
   136
 48
0.05
370
    20
100
AcDbMText
 10
665.6907125014703
 20
254.8955715302529
 30
0.0
 40
6.0
 41
0.0
 46
0.0
 71
     5
 72
     1
  1
\A1;\A1;443
  7
SEACAD_arial_ttf
 73
     1
 44
1.0
  0
POINT
  5
55C8
330
55BE
100
AcDbEntity
  8
Defpoints
 62
     0
100
AcDbPoint
 10
555.0284533400703
 20
359.243947923653
 30
0.0
  0
POINT
  5
55C9
330
55BE
100
AcDbEntity
  8
Defpoints
 62
     0
100
AcDbPoint
 10
776.3529731998702
 20
377.6892708216529
 30
0.0
  0
POINT
  5
55CA
330
55BE
100
AcDbEntity
  8
Defpoints
 62
     0
100
AcDbPoint
 10
776.3529731998702
 20
254.8955715302529
 30
0.0
  0
ENDBLK
  5
55C0
330
55BE
100
AcDbEntity
  8
0
100
AcDbBlockEnd
  0
BLOCK
  5
55CC
330
55CB
100
AcDbEntity
  8
0
100
AcDbBlockBegin
  2
*D54
 70
     1
 10
0.0
 20
0.0
 30
0.0
  3
*D54
  1
*D54
  0
LINE
  5
55CE
330
55CB
100
AcDbEntity
  8
Layer3
  6
Continuous
 62
   136
370
    -2
100
AcDbLine
 10
716.5634634510701
 20
287.7973510154529
 30
0.0
 11
811.9966627374703
 21
287.7973510154529
 31
0.0
  0
LINE
  5
55CF
330
55CB
100
AcDbEntity
  8
Layer3
  6
Continuous
 62
   136
370
    -2
100
AcDbLine
 10
711.8448964992702
 20
509.121020380453
 30
0.0
 11
811.9966627374703
 21
509.121020380453
 31
0.0
  0
LINE
  5
55D0
330
55CB
100
AcDbEntity
  8
Layer3
  6
Continuous
 62
   136
370
    -2
100
AcDbLine
 10
808.9966627374703
 20
293.7973510154529
 30
0.0
 11
808.9966627374703
 21
392.396185493653
 31
0.0
  0
LINE
  5
55D1
330
55CB
100
AcDbEntity
  8
Layer3
  6
Continuous
 62
   136
370
    -2
100
AcDbLine
 10
808.9966627374703
 20
503.121020380453
 30
0.0
 11
808.9966627374703
 21
404.522185493653
 31
0.0
  0
INSERT
  5
55D2
330
55CB
100
AcDbEntity
  8
Layer3
 62
   136
370
    -2
100
AcDbBlockReference
  2
_SE_FILLED
 10
808.9966627374703
 20
287.7973510154529
 30
0.0
 41
6.0
 42
6.0
 43
6.0
 50
270.0
  0
INSERT
  5
55D3
330
55CB
100
AcDbEntity
  8
Layer3
 62
   136
370
    -2
100
AcDbBlockReference
  2
_SE_FILLED
 10
808.9966627374703
 20
509.121020380453
 30
0.0
 41
6.0
 42
6.0
 43
6.0
 50
90.0
  0
MTEXT
  5
55D4
330
55CB
100
AcDbEntity
  8
Layer3
 62
   136
 48
0.05
370
    20
100
AcDbMText
 10
808.9966627374703
 20
398.459185493653
 30
0.0
 40
6.0
 41
0.0
 46
0.0
 71
     5
 72
     1
  1
\A1;\A1;443
  7
SEACAD_arial_ttf
 73
     1
 44
1.0
  0
POINT
  5
55D5
330
55CB
100
AcDbEntity
  8
Defpoints
 62
     0
100
AcDbPoint
 10
716.5634634510701
 20
287.7973510154529
 30
0.0
  0
POINT
  5
55D6
330
55CB
100
AcDbEntity
  8
Defpoints
 62
     0
100
AcDbPoint
 10
711.8448964992702
 20
509.121020380453
 30
0.0
  0
POINT
  5
55D7
330
55CB
100
AcDbEntity
  8
Defpoints
 62
     0
100
AcDbPoint
 10
808.9966627374703
 20
509.121020380453
 30
0.0
  0
ENDBLK
  5
55CD
330
55CB
100
AcDbEntity
  8
0
100
AcDbBlockEnd
  0
BLOCK
  5
5882
330
5881
100
AcDbEntity
  8
0
100
AcDbBlockBegin
  2
*D55
 70
     1
 10
0.0
 20
0.0
 30
0.0
  3
*D55
  1
*D55
  0
LINE
  5
5884
330
5881
100
AcDbEntity
  8
DIM
 62
     0
370
    -2
100
AcDbLine
 10
1973.681400595635
 20
514.5086489858871
 30
0.0
 11
1973.681400595635
 21
444.3613852803872
 31
0.0
  0
LINE
  5
5885
330
5881
100
AcDbEntity
  8
DIM
 62
     0
370
    -2
100
AcDbLine
 10
2095.637282530135
 20
543.7904962077624
 30
0.0
 11
2095.637282530135
 21
444.3613852803872
 31
0.0
  0
LINE
  5
5886
330
5881
100
AcDbEntity
  8
DIM
 62
     0
370
    -2
100
AcDbLine
 10
1974.681400595635
 20
444.3613852803872
 30
0.0
 11
2094.637282530135
 21
444.3613852803872
 31
0.0
  0
INSERT
  5
5887
330
5881
100
AcDbEntity
  8
DIM
 62
     0
370
    -2
100
AcDbBlockReference
  2
_DOT
 10
1973.681400595635
 20
444.3613852803872
 30
0.0
 50
180.0
  0
INSERT
  5
5888
330
5881
100
AcDbEntity
  8
DIM
 62
     0
370
    -2
100
AcDbBlockReference
  2
_DOT
 10
2095.637282530135
 20
444.3613852803872
 30
0.0
  0
MTEXT
  5
5889
330
5881
100
AcDbEntity
  8
DIM
 62
     0
 48
0.05
100
AcDbMText
 10
2034.659341043634
 20
451.8613852803872
 30
0.0
 40
5.0
 41
0.0
 46
0.0
 71
     5
 72
     1
  1
\A1;\A1;122
  7
ＭＳ ゴシック
 73
     1
 44
1.0
  0
POINT
  5
588A
330
5881
100
AcDbEntity
  8
Defpoints
 62
     0
100
AcDbPoint
 10
1973.681400595635
 20
519.5086489858871
 30
0.0
  0
POINT
  5
588B
330
5881
100
AcDbEntity
  8
Defpoints
 62
     0
100
AcDbPoint
 10
2095.637282530135
 20
548.7904962077624
 30
0.0
  0
POINT
  5
588C
330
5881
100
AcDbEntity
  8
Defpoints
 62
     0
100
AcDbPoint
 10
2095.637282530135
 20
444.3613852803872
 30
0.0
  0
ENDBLK
  5
5883
330
5881
100
AcDbEntity
  8
0
100
AcDbBlockEnd
  0
BLOCK
  5
588E
330
588D
100
AcDbEntity
  8
0
100
AcDbBlockBegin
  2
*D56
 70
     1
 10
0.0
 20
0.0
 30
0.0
  3
*D56
  1
*D56
  0
LINE
  5
5890
330
588D
100
AcDbEntity
  8
DIM
 62
     0
370
    -2
100
AcDbLine
 10
1530.022963688169
 20
506.4500136007377
 30
0.0
 11
1380.180445249057
 21
506.4513504762261
 31
0.0
  0
LINE
  5
5891
330
588D
100
AcDbEntity
  8
DIM
 62
     0
370
    -2
100
AcDbLine
 10
1530.02452494667
 20
681.442305418238
 30
0.0
 11
1380.182006507557
 21
681.4436422937265
 31
0.0
  0
LINE
  5
5892
330
588D
100
AcDbEntity
  8
DIM
 62
     0
370
    -2
100
AcDbLine
 10
1380.180454170927
 20
507.4513504761863
 30
0.0
 11
1380.181997585687
 21
680.4436422937663
 31
0.0
  0
INSERT
  5
5893
330
588D
100
AcDbEntity
  8
DIM
 62
     0
370
    -2
100
AcDbBlockReference
  2
_DOT
 10
1380.180445249057
 20
506.4513504762261
 30
0.0
 50
269.9994888144965
  0
INSERT
  5
5894
330
588D
100
AcDbEntity
  8
DIM
 62
     0
370
    -2
100
AcDbBlockReference
  2
_DOT
 10
1380.182006507557
 20
681.4436422937265
 30
0.0
 50
89.99948881449656
  0
MTEXT
  5
5895
330
588D
100
AcDbEntity
  8
DIM
 62
     0
 48
0.05
100
AcDbMText
 10
1372.68122586627
 20
593.9461806024133
 30
0.0
 40
5.0
 41
0.0
 46
0.0
 71
     5
 72
     1
  1
\A1;\A1;175
  7
ＭＳ ゴシック
 11
8.921870123434416E-6
 21
0.9999999999602003
 31
0.0
 73
     1
 44
1.0
  0
POINT
  5
5896
330
588D
100
AcDbEntity
  8
Defpoints
 62
     0
100
AcDbPoint
 10
1535.02296368797
 20
506.4499689913871
 30
0.0
  0
POINT
  5
5897
330
588D
100
AcDbEntity
  8
Defpoints
 62
     0
100
AcDbPoint
 10
1535.024524946471
 20
681.4422608088873
 30
0.0
  0
POINT
  5
5898
330
588D
100
AcDbEntity
  8
Defpoints
 62
     0
100
AcDbPoint
 10
1380.182006507557
 20
681.4436422937265
 30
0.0
  0
ENDBLK
  5
588F
330
588D
100
AcDbEntity
  8
0
100
AcDbBlockEnd
  0
BLOCK
  5
589A
330
5899
100
AcDbEntity
  8
0
100
AcDbBlockBegin
  2
*D57
 70
     1
 10
0.0
 20
0.0
 30
0.0
  3
*D57
  1
*D57
  0
LINE
  5
589C
330
5899
100
AcDbEntity
  8
DIM
 62
     0
370
    -2
100
AcDbLine
 10
1447.527552528394
 20
588.9468955300975
 30
0.0
 11
1447.526233209364
 21
445.1678175186967
 31
0.0
  0
LINE
  5
589D
330
5899
100
AcDbEntity
  8
DIM
 62
     0
370
    -2
100
AcDbLine
 10
1622.381607920894
 20
588.9452910665977
 30
0.0
 11
1622.380288601864
 21
445.1662130551969
 31
0.0
  0
LINE
  5
589E
330
5899
100
AcDbEntity
  8
DIM
 62
     0
370
    -2
100
AcDbLine
 10
1448.526233209322
 20
445.1678083426813
 30
0.0
 11
1621.380288601906
 21
445.1662222312123
 31
0.0
  0
INSERT
  5
589F
330
5899
100
AcDbEntity
  8
DIM
 62
     0
370
    -2
100
AcDbBlockReference
  2
_DOT
 10
1447.526233209364
 20
445.1678175186967
 30
0.0
 50
179.9994742530466
  0
INSERT
  5
58A0
330
5899
100
AcDbEntity
  8
DIM
 62
     0
370
    -2
100
AcDbBlockReference
  2
_DOT
 10
1622.380288601864
 20
445.1662130551969
 30
0.0
 50
359.9994742530466
  0
MTEXT
  5
58A1
330
5899
100
AcDbEntity
  8
DIM
 62
     0
 48
0.05
100
AcDbMText
 10
1534.954698477586
 20
452.6670152740713
 30
0.0
 40
5.0
 41
0.0
 46
0.0
 71
     5
 72
     1
  1
\A1;\A1;175
  7
ＭＳ ゴシック
 11
0.9999999999579003
 21
-9.176015369694165E-6
 31
0.0
 73
     1
 44
1.0
  0
POINT
  5
58A2
330
5899
100
AcDbEntity
  8
Defpoints
 62
     0
100
AcDbPoint
 10
1447.527598408471
 20
593.946895529887
 30
0.0
  0
POINT
  5
58A3
330
5899
100
AcDbEntity
  8
Defpoints
 62
     0
100
AcDbPoint
 10
1622.381653800971
 20
593.9452910663872
 30
0.0
  0
POINT
  5
58A4
330
5899
100
AcDbEntity
  8
Defpoints
 62
     0
100
AcDbPoint
 10
1622.380288601864
 20
445.1662130551969
 30
0.0
  0
ENDBLK
  5
589B
330
5899
100
AcDbEntity
  8
0
100
AcDbBlockEnd
  0
BLOCK
  5
58A6
330
58A5
100
AcDbEntity
  8
0
100
AcDbBlockBegin
  2
*D58
 70
     1
 10
0.0
 20
0.0
 30
0.0
  3
*D58
  1
*D58
  0
LINE
  5
58A8
330
58A5
100
AcDbEntity
  8
DIM
 62
     0
370
    -2
100
AcDbLine
 10
1973.681400595635
 20
717.801911854887
 30
0.0
 11
1973.681400595635
 21
762.9851903633872
 31
0.0
  0
LINE
  5
58A9
330
58A5
100
AcDbEntity
  8
DIM
 62
     0
370
    -2
100
AcDbLine
 10
2145.889935397135
 20
598.9458264453871
 30
0.0
 11
2145.889935397135
 21
762.9851903633872
 31
0.0
  0
LINE
  5
58AA
330
58A5
100
AcDbEntity
  8
DIM
 62
     0
370
    -2
100
AcDbLine
 10
1974.681400595635
 20
762.9851903633872
 30
0.0
 11
2144.889935397135
 21
762.9851903633872
 31
0.0
  0
INSERT
  5
58AB
330
58A5
100
AcDbEntity
  8
DIM
 62
     0
370
    -2
100
AcDbBlockReference
  2
_DOT
 10
1973.681400595635
 20
762.9851903633872
 30
0.0
 50
180.0
  0
INSERT
  5
58AC
330
58A5
100
AcDbEntity
  8
DIM
 62
     0
370
    -2
100
AcDbBlockReference
  2
_DOT
 10
2145.889935397135
 20
762.9851903633872
 30
0.0
  0
MTEXT
  5
58AD
330
58A5
100
AcDbEntity
  8
DIM
 62
     0
 48
0.05
100
AcDbMText
 10
2059.785665078633
 20
770.4851903633872
 30
0.0
 40
5.0
 41
0.0
 46
0.0
 71
     5
 72
     1
  1
\A1;\A1;172
  7
ＭＳ ゴシック
 73
     1
 44
1.0
  0
POINT
  5
58AE
330
58A5
100
AcDbEntity
  8
Defpoints
 62
     0
100
AcDbPoint
 10
1973.681400595635
 20
712.801911854887
 30
0.0
  0
POINT
  5
58AF
330
58A5
100
AcDbEntity
  8
Defpoints
 62
     0
100
AcDbPoint
 10
2145.889935397135
 20
593.9458264453871
 30
0.0
  0
POINT
  5
58B0
330
58A5
100
AcDbEntity
  8
Defpoints
 62
     0
100
AcDbPoint
 10
2145.889935397135
 20
762.9851903633872
 30
0.0
  0
ENDBLK
  5
58A7
330
58A5
100
AcDbEntity
  8
0
100
AcDbBlockEnd
  0
BLOCK
  5
58B2
330
58B1
100
AcDbEntity
  8
0
100
AcDbBlockBegin
  2
*D59
 70
     1
 10
0.0
 20
0.0
 30
0.0
  3
*D59
  1
*D59
  0
LINE
  5
58B4
330
58B1
100
AcDbEntity
  8
DIM
 62
     0
370
    -2
100
AcDbLine
 10
1567.530145880145
 20
1194.048528254504
 30
0.0
 11
1567.530145880145
 21
1233.069999658005
 31
0.0
  0
LINE
  5
58B5
330
58B1
100
AcDbEntity
  8
DIM
 62
     0
370
    -2
100
AcDbLine
 10
1502.530145880145
 20
1194.048528254504
 30
0.0
 11
1502.530145880145
 21
1233.069999658005
 31
0.0
  0
LINE
  5
58B6
330
58B1
100
AcDbEntity
  8
DIM
 62
     0
370
    -2
100
AcDbLine
 10
1566.530145880145
 20
1233.069999658005
 30
0.0
 11
1503.530145880145
 21
1233.069999658005
 31
0.0
  0
INSERT
  5
58B7
330
58B1
100
AcDbEntity
  8
DIM
 62
     0
370
    -2
100
AcDbBlockReference
  2
_DOT
 10
1567.530145880145
 20
1233.069999658005
 30
0.0
  0
INSERT
  5
58B8
330
58B1
100
AcDbEntity
  8
DIM
 62
     0
370
    -2
100
AcDbBlockReference
  2
_DOT
 10
1502.530145880145
 20
1233.069999658005
 30
0.0
 50
180.0
  0
MTEXT
  5
58B9
330
58B1
100
AcDbEntity
  8
DIM
 62
     0
 48
0.05
100
AcDbMText
 10
1535.030145209645
 20
1240.569999658005
 30
0.0
 40
5.0
 41
0.0
 46
0.0
 71
     5
 72
     1
  1
\A1;\A1;65
  7
ＭＳ ゴシック
 73
     1
 44
1.0
  0
POINT
  5
58BA
330
58B1
100
AcDbEntity
  8
Defpoints
 62
     0
100
AcDbPoint
 10
1567.530145880145
 20
1189.048528254504
 30
0.0
  0
POINT
  5
58BB
330
58B1
100
AcDbEntity
  8
Defpoints
 62
     0
100
AcDbPoint
 10
1502.530145880145
 20
1189.048528254504
 30
0.0
  0
POINT
  5
58BC
330
58B1
100
AcDbEntity
  8
Defpoints
 62
     0
100
AcDbPoint
 10
1502.530145880145
 20
1233.069999658005
 30
0.0
  0
ENDBLK
  5
58B3
330
58B1
100
AcDbEntity
  8
0
100
AcDbBlockEnd
  0
BLOCK
  5
5B2B
330
5B2A
100
AcDbEntity
  8
0
100
AcDbBlockBegin
  2
*D61
 70
     1
 10
0.0
 20
0.0
 30
0.0
  3
*D61
  1
*D61
  0
LINE
  5
5B2C
330
5B2A
100
AcDbEntity
  8
Layer3
  6
Continuous
 62
   136
370
    -2
100
AcDbLine
 10
110.724672852967
 20
20.5417869504
 30
0.0
 11
257.0303023447672
 21
20.5417869504
 31
0.0
  0
LINE
  5
5B2D
330
5B2A
100
AcDbEntity
  8
Layer3
  6
Continuous
 62
   136
370
    -2
100
AcDbLine
 10
110.724672852967
 20
94.42938613980002
 30
0.0
 11
257.0303023447672
 21
94.42938613980002
 31
0.0
  0
LINE
  5
5B2E
330
5B2A
100
AcDbEntity
  8
Layer3
  6
Continuous
 62
   136
370
    -2
100
AcDbLine
 10
254.0303023447672
 20
26.5417869504
 30
0.0
 11
254.0303023447672
 21
51.42258769780001
 31
0.0
  0
LINE
  5
5B2F
330
5B2A
100
AcDbEntity
  8
Layer3
  6
Continuous
 62
   136
370
    -2
100
AcDbLine
 10
254.0303023447672
 20
88.42938613980002
 30
0.0
 11
254.0303023447672
 21
63.54858769780002
 31
0.0
  0
INSERT
  5
5B30
330
5B2A
100
AcDbEntity
  8
Layer3
 62
   136
370
    -2
100
AcDbBlockReference
  2
_SE_FILLED
 10
254.0303023447672
 20
20.5417869504
 30
0.0
 41
6.0
 42
6.0
 43
6.0
 50
270.0
  0
INSERT
  5
5B31
330
5B2A
100
AcDbEntity
  8
Layer3
 62
   136
370
    -2
100
AcDbBlockReference
  2
_SE_FILLED
 10
254.0303023447672
 20
94.42938613980002
 30
0.0
 41
6.0
 42
6.0
 43
6.0
 50
90.0
  0
MTEXT
  5
5B32
330
5B2A
100
AcDbEntity
  8
Layer3
 62
   136
 48
0.05
370
    20
100
AcDbMText
 10
254.0303023447672
 20
57.48558769780001
 30
0.0
 40
6.0
 41
0.0
 46
0.0
 71
     5
 72
     1
  1
\A1;\A1;148
  7
SEACAD_arial_ttf
 73
     1
 44
1.0
  0
POINT
  5
5B33
330
5B2A
100
AcDbEntity
  8
Defpoints
 62
     0
100
AcDbPoint
 10
110.724672852967
 20
20.5417869504
 30
0.0
  0
POINT
  5
5B34
330
5B2A
100
AcDbEntity
  8
Defpoints
 62
     0
100
AcDbPoint
 10
110.724672852967
 20
94.42938613980002
 30
0.0
  0
POINT
  5
5B35
330
5B2A
100
AcDbEntity
  8
Defpoints
 62
     0
100
AcDbPoint
 10
254.0303023447672
 20
94.42938613980002
 30
0.0
  0
ENDBLK
  5
5B36
330
5B2A
100
AcDbEntity
  8
0
100
AcDbBlockEnd
  0
BLOCK
  5
5B39
330
5B38
100
AcDbEntity
  8
0
100
AcDbBlockBegin
  2
*D62
 70
     1
 10
0.0
 20
0.0
 30
0.0
  3
*D62
  1
*D62
  0
LINE
  5
5B3A
330
5B38
100
AcDbEntity
  8
Layer3
  6
Continuous
 62
   136
370
    -2
100
AcDbLine
 10
100.2471728529671
 20
96.5659341738
 30
0.0
 11
100.2471728529671
 21
113.3907872886
 31
0.0
  0
LINE
  5
5B3B
330
5B38
100
AcDbEntity
  8
Layer3
  6
Continuous
 62
   136
370
    -2
100
AcDbLine
 10
121.202172852967
 20
96.5659341738
 30
0.0
 11
121.202172852967
 21
113.3907872886
 31
0.0
  0
LINE
  5
5B3C
330
5B38
100
AcDbEntity
  8
Layer3
  6
Continuous
 62
   136
370
    -2
100
AcDbLine
 10
121.202172852967
 20
110.3907872886
 30
0.0
 11
156.836172852967
 21
110.3907872886
 31
0.0
  0
LINE
  5
5B3D
330
5B38
100
AcDbEntity
  8
Layer3
  6
Continuous
 62
   136
370
    -2
100
AcDbLine
 10
106.2471728529671
 20
110.3907872886
 30
0.0
 11
115.202172852967
 21
110.3907872886
 31
0.0
  0
INSERT
  5
5B3E
330
5B38
100
AcDbEntity
  8
Layer3
 62
   136
370
    -2
100
AcDbBlockReference
  2
_SE_FILLED
 10
100.2471728529671
 20
110.3907872886
 30
0.0
 41
6.0
 42
6.0
 43
6.0
 50
180.0
  0
INSERT
  5
5B3F
330
5B38
100
AcDbEntity
  8
Layer3
 62
   136
370
    -2
100
AcDbBlockReference
  2
_SE_FILLED
 10
121.202172852967
 20
110.3907872886
 30
0.0
 41
6.0
 42
6.0
 43
6.0
  0
MTEXT
  5
5B40
330
5B38
100
AcDbEntity
  8
Layer3
 62
   136
 48
0.05
370
    20
100
AcDbMText
 10
168.470172852967
 20
110.3907872886
 30
0.0
 40
6.0
 41
0.0
 46
0.0
 71
     5
 72
     1
  1
\A1;\A1;G1/2 {}
  7
SEACAD_arial_ttf
 73
     1
 44
1.0
  0
POINT
  5
5B41
330
5B38
100
AcDbEntity
  8
Defpoints
 62
     0
100
AcDbPoint
 10
100.2471728529671
 20
96.5659341738
 30
0.0
  0
POINT
  5
5B42
330
5B38
100
AcDbEntity
  8
Defpoints
 62
     0
100
AcDbPoint
 10
121.202172852967
 20
96.5659341738
 30
0.0
  0
POINT
  5
5B43
330
5B38
100
AcDbEntity
  8
Defpoints
 62
     0
100
AcDbPoint
 10
121.202172852967
 20
110.3907872886
 30
0.0
  0
ENDBLK
  5
5B44
330
5B38
100
AcDbEntity
  8
0
100
AcDbBlockEnd
  0
BLOCK
  5
5B47
330
5B46
100
AcDbEntity
  8
0
100
AcDbBlockBegin
  2
*D63
 70
     1
 10
0.0
 20
0.0
 30
0.0
  3
*D63
  1
*D63
  0
LINE
  5
5B48
330
5B46
100
AcDbEntity
  8
Layer3
  6
Continuous
 62
   136
370
    -2
100
AcDbLine
 10
110.3773764977672
 20
75.45977063379999
 30
0.0
 11
97.28805711384835
 21
1.226551552894659
 31
0.0
  0
LINE
  5
5B49
330
5B46
100
AcDbEntity
  8
Layer3
  6
Continuous
 62
   136
370
    -2
100
AcDbLine
 10
111.071969208367
 20
75.45977063379999
 30
0.0
 11
124.1612885995936
 21
1.226551554218496
 31
0.0
  0
ARC
  5
5B4A
330
5B46
100
AcDbEntity
  8
Layer3
  6
Continuous
 62
   136
370
    -2
100
AcDbCircle
 10
110.724672852967
 20
77.42938613980002
 30
0.0
 40
74.3783861398
100
AcDbArc
 50
250.7535515341416
 51
255.3767757689
  0
ARC
  5
5B4B
330
5B46
100
AcDbEntity
  8
Layer3
  6
Continuous
 62
   136
370
    -2
100
AcDbCircle
 10
110.724672852967
 20
77.42938613980002
 30
0.0
 40
74.3783861398
100
AcDbArc
 50
284.623224236745
 51
289.2464484715035
  0
INSERT
  5
5B4C
330
5B46
100
AcDbEntity
  8
Layer3
 62
   136
370
    -2
100
AcDbBlockReference
  2
_SE_FILLED
 10
97.8090016466605
 20
4.180974811964546
 30
0.0
 41
6.0
 42
6.0
 43
6.0
 50
347.6883878862792
  0
INSERT
  5
5B4D
330
5B46
100
AcDbEntity
  8
Layer3
 62
   136
370
    -2
100
AcDbBlockReference
  2
_SE_FILLED
 10
123.6403440664903
 20
4.180974813237057
 30
0.0
 41
6.0
 42
6.0
 43
6.0
 50
192.3116121193658
  0
MTEXT
  5
5B4E
330
5B46
100
AcDbEntity
  8
Layer3
 62
   136
 48
0.05
370
    20
100
AcDbMText
 10
110.724672852967
 20
3.051000000000016
 30
0.0
 40
6.0
 41
0.0
 46
0.0
 71
     5
 72
     1
  1
\A1;\A1;20%%d
  7
SEACAD_arial_ttf
 73
     1
 44
1.0
  0
POINT
  5
5B4F
330
5B46
100
AcDbEntity
  8
Defpoints
 62
     0
100
AcDbPoint
 10
115.0493913929998
 20
3.176836457579071
 30
0.0
  0
POINT
  5
5B50
330
5B46
100
AcDbEntity
  8
Defpoints
 62
     0
100
AcDbPoint
 10
110.724672852967
 20
77.42938613980002
 30
0.0
  0
POINT
  5
5B51
330
5B46
100
AcDbEntity
  8
Defpoints
 62
     0
100
AcDbPoint
 10
110.724672852967
 20
77.42938613980002
 30
0.0
  0
POINT
  5
5B52
330
5B46
100
AcDbEntity
  8
Defpoints
 62
     0
100
AcDbPoint
 10
110.3773764977672
 20
75.45977063379999
 30
0.0
  0
POINT
  5
5B53
330
5B46
100
AcDbEntity
  8
Defpoints
 62
     0
100
AcDbPoint
 10
111.071969208367
 20
75.45977063379999
 30
0.0
  0
ENDBLK
  5
5B54
330
5B46
100
AcDbEntity
  8
0
100
AcDbBlockEnd
  0
BLOCK
  5
5B57
330
5B56
100
AcDbEntity
  8
0
100
AcDbBlockBegin
  2
*D64
 70
     1
 10
0.0
 20
0.0
 30
0.0
  3
*D64
  1
*D64
  0
LINE
  5
5B58
330
5B56
100
AcDbEntity
  8
Layer3
  6
Continuous
 62
   136
370
    -2
100
AcDbLine
 10
0.0620949585671724
 20
255.213953704
 30
0.0
 11
0.0620949585671724
 21
147.8655773106
 31
0.0
  0
LINE
  5
5B59
330
5B56
100
AcDbEntity
  8
Layer3
  6
Continuous
 62
   136
370
    -2
100
AcDbLine
 10
221.3866148183671
 20
273.659276602
 30
0.0
 11
221.3866148183671
 21
147.8655773106
 31
0.0
  0
LINE
  5
5B5A
330
5B56
100
AcDbEntity
  8
Layer3
  6
Continuous
 62
   136
370
    -2
100
AcDbLine
 10
6.062094958567172
 20
150.8655773106
 30
0.0
 11
100.9833541199672
 21
150.8655773106
 31
0.0
  0
LINE
  5
5B5B
330
5B56
100
AcDbEntity
  8
Layer3
  6
Continuous
 62
   136
370
    -2
100
AcDbLine
 10
215.3866148183671
 20
150.8655773106
 30
0.0
 11
120.4653541199672
 21
150.8655773106
 31
0.0
  0
INSERT
  5
5B5C
330
5B56
100
AcDbEntity
  8
Layer3
 62
   136
370
    -2
100
AcDbBlockReference
  2
_SE_FILLED
 10
0.0620949585671724
 20
150.8655773106
 30
0.0
 41
6.0
 42
6.0
 43
6.0
 50
180.0
  0
INSERT
  5
5B5D
330
5B56
100
AcDbEntity
  8
Layer3
 62
   136
370
    -2
100
AcDbBlockReference
  2
_SE_FILLED
 10
221.3866148183671
 20
150.8655773106
 30
0.0
 41
6.0
 42
6.0
 43
6.0
  0
MTEXT
  5
5B5E
330
5B56
100
AcDbEntity
  8
Layer3
 62
   136
 48
0.05
370
    20
100
AcDbMText
 10
110.7243541199672
 20
150.8655773106
 30
0.0
 40
6.0
 41
0.0
 46
0.0
 71
     5
 72
     1
  1
\A1;\A1;443
  7
SEACAD_arial_ttf
 73
     1
 44
1.0
  0
POINT
  5
5B5F
330
5B56
100
AcDbEntity
  8
Defpoints
 62
     0
100
AcDbPoint
 10
0.0620949585671724
 20
255.213953704
 30
0.0
  0
POINT
  5
5B60
330
5B56
100
AcDbEntity
  8
Defpoints
 62
     0
100
AcDbPoint
 10
221.3866148183671
 20
273.659276602
 30
0.0
  0
POINT
  5
5B61
330
5B56
100
AcDbEntity
  8
Defpoints
 62
     0
100
AcDbPoint
 10
221.3866148183671
 20
150.8655773106
 30
0.0
  0
ENDBLK
  5
5B62
330
5B56
100
AcDbEntity
  8
0
100
AcDbBlockEnd
  0
BLOCK
  5
5B65
330
5B64
100
AcDbEntity
  8
0
100
AcDbBlockBegin
  2
*D65
 70
     1
 10
0.0
 20
0.0
 30
0.0
  3
*D65
  1
*D65
  0
LINE
  5
5B66
330
5B64
100
AcDbEntity
  8
Layer3
  6
Continuous
 62
   136
370
    -2
100
AcDbLine
 10
161.597105069567
 20
183.7673567958
 30
0.0
 11
257.0303043559671
 21
183.7673567958
 31
0.0
  0
LINE
  5
5B67
330
5B64
100
AcDbEntity
  8
Layer3
  6
Continuous
 62
   136
370
    -2
100
AcDbLine
 10
156.8785381177671
 20
405.0910261608001
 30
0.0
 11
257.0303043559671
 21
405.0910261608001
 31
0.0
  0
LINE
  5
5B68
330
5B64
100
AcDbEntity
  8
Layer3
  6
Continuous
 62
   136
370
    -2
100
AcDbLine
 10
254.0303043559671
 20
189.7673567958
 30
0.0
 11
254.0303043559671
 21
288.366191274
 31
0.0
  0
LINE
  5
5B69
330
5B64
100
AcDbEntity
  8
Layer3
  6
Continuous
 62
   136
370
    -2
100
AcDbLine
 10
254.0303043559671
 20
399.0910261608001
 30
0.0
 11
254.0303043559671
 21
300.492191274
 31
0.0
  0
INSERT
  5
5B6A
330
5B64
100
AcDbEntity
  8
Layer3
 62
   136
370
    -2
100
AcDbBlockReference
  2
_SE_FILLED
 10
254.0303043559671
 20
183.7673567958
 30
0.0
 41
6.0
 42
6.0
 43
6.0
 50
270.0
  0
INSERT
  5
5B6B
330
5B64
100
AcDbEntity
  8
Layer3
 62
   136
370
    -2
100
AcDbBlockReference
  2
_SE_FILLED
 10
254.0303043559671
 20
405.0910261608001
 30
0.0
 41
6.0
 42
6.0
 43
6.0
 50
90.0
  0
MTEXT
  5
5B6C
330
5B64
100
AcDbEntity
  8
Layer3
 62
   136
 48
0.05
370
    20
100
AcDbMText
 10
254.0303043559671
 20
294.429191274
 30
0.0
 40
6.0
 41
0.0
 46
0.0
 71
     5
 72
     1
  1
\A1;\A1;443
  7
SEACAD_arial_ttf
 73
     1
 44
1.0
  0
POINT
  5
5B6D
330
5B64
100
AcDbEntity
  8
Defpoints
 62
     0
100
AcDbPoint
 10
161.597105069567
 20
183.7673567958
 30
0.0
  0
POINT
  5
5B6E
330
5B64
100
AcDbEntity
  8
Defpoints
 62
     0
100
AcDbPoint
 10
156.8785381177671
 20
405.0910261608001
 30
0.0
  0
POINT
  5
5B6F
330
5B64
100
AcDbEntity
  8
Defpoints
 62
     0
100
AcDbPoint
 10
254.0303043559671
 20
405.0910261608001
 30
0.0
  0
ENDBLK
  5
5B70
330
5B64
100
AcDbEntity
  8
0
100
AcDbBlockEnd
  0
BLOCK
  5
5DA9
330
5DA8
100
AcDbEntity
  8
0
100
AcDbBlockBegin
  2
*D66
 70
     1
 10
0.0
 20
0.0
 30
0.0
  3
*D66
  1
*D66
  0
LINE
  5
5DAB
330
5DA8
100
AcDbEntity
  8
DIM
 62
     0
370
    -2
100
AcDbLine
 10
214.4404289094497
 20
137.1293994640645
 30
0.0
 11
352.7460584012498
 21
137.1293994640645
 31
0.0
  0
LINE
  5
5DAC
330
5DA8
100
AcDbEntity
  8
DIM
 62
     0
370
    -2
100
AcDbLine
 10
214.4404289094497
 20
211.0169986534645
 30
0.0
 11
352.7460584012498
 21
211.0169986534645
 31
0.0
  0
LINE
  5
5DAD
330
5DA8
100
AcDbEntity
  8
DIM
 62
     0
370
    -2
100
AcDbLine
 10
352.7460584012498
 20
138.1293994640645
 30
0.0
 11
352.7460584012498
 21
210.0169986534645
 31
0.0
  0
INSERT
  5
5DAE
330
5DA8
100
AcDbEntity
  8
DIM
 62
     0
370
    -2
100
AcDbBlockReference
  2
_DOT
 10
352.7460584012498
 20
137.1293994640645
 30
0.0
 50
270.0
  0
INSERT
  5
5DAF
330
5DA8
100
AcDbEntity
  8
DIM
 62
     0
370
    -2
100
AcDbBlockReference
  2
_DOT
 10
352.7460584012498
 20
211.0169986534645
 30
0.0
 50
90.0
  0
MTEXT
  5
5DB0
330
5DA8
100
AcDbEntity
  8
DIM
 62
     0
 48
0.05
100
AcDbMText
 10
345.2460584012498
 20
174.0732002114645
 30
0.0
 40
5.0
 41
0.0
 46
0.0
 71
     5
 72
     1
  1
\A1;\A1;74
  7
ＭＳ ゴシック
 11
0.0
 21
1.0
 31
0.0
 73
     1
 44
1.0
  0
POINT
  5
5DB1
330
5DA8
100
AcDbEntity
  8
Defpoints
 62
     0
100
AcDbPoint
 10
209.4404289094497
 20
137.1293994640645
 30
0.0
  0
POINT
  5
5DB2
330
5DA8
100
AcDbEntity
  8
Defpoints
 62
     0
100
AcDbPoint
 10
209.4404289094497
 20
211.0169986534645
 30
0.0
  0
POINT
  5
5DB3
330
5DA8
100
AcDbEntity
  8
Defpoints
 62
     0
100
AcDbPoint
 10
352.7460584012498
 20
211.0169986534645
 30
0.0
  0
ENDBLK
  5
5DAA
330
5DA8
100
AcDbEntity
  8
0
100
AcDbBlockEnd
  0
BLOCK
  5
5DB6
330
5DB5
100
AcDbEntity
  8
0
100
AcDbBlockBegin
  2
*D67
 70
     1
 10
0.0
 20
0.0
 30
0.0
  3
*D67
  1
*D67
  0
LINE
  5
5DB8
330
5DB5
100
AcDbEntity
  8
DIM
 62
     0
370
    -2
100
AcDbLine
 10
613.882333648713
 20
126.2208877279269
 30
0.0
 11
613.882333648713
 21
135.045740842727
 31
0.0
  0
LINE
  5
5DB9
330
5DB5
100
AcDbEntity
  8
DIM
 62
     0
370
    -2
100
AcDbLine
 10
634.837333648713
 20
126.2208877279269
 30
0.0
 11
634.837333648713
 21
135.045740842727
 31
0.0
  0
LINE
  5
5DBA
330
5DB5
100
AcDbEntity
  8
DIM
 62
     0
370
    -2
100
AcDbLine
 10
634.837333648713
 20
135.045740842727
 30
0.0
 11
693.297833648713
 21
135.045740842727
 31
0.0
  0
LINE
  5
5DBB
330
5DB5
100
AcDbEntity
  8
DIM
 62
     0
370
    -2
100
AcDbLine
 10
612.882333648713
 20
135.045740842727
 30
0.0
 11
611.882333648713
 21
135.045740842727
 31
0.0
  0
LINE
  5
5DBC
330
5DB5
100
AcDbEntity
  8
DIM
 62
     0
370
    -2
100
AcDbLine
 10
635.837333648713
 20
135.045740842727
 30
0.0
 11
636.837333648713
 21
135.045740842727
 31
0.0
  0
INSERT
  5
5DBD
330
5DB5
100
AcDbEntity
  8
DIM
 62
     0
370
    -2
100
AcDbBlockReference
  2
_DOT
 10
613.882333648713
 20
135.045740842727
 30
0.0
  0
INSERT
  5
5DBE
330
5DB5
100
AcDbEntity
  8
DIM
 62
     0
370
    -2
100
AcDbBlockReference
  2
_DOT
 10
634.837333648713
 20
135.045740842727
 30
0.0
 50
180.0
  0
MTEXT
  5
5DBF
330
5DB5
100
AcDbEntity
  8
DIM
 62
     0
 48
0.05
100
AcDbMText
 10
682.105333648713
 20
143.078240842727
 30
0.0
 40
5.0
 41
0.0
 46
0.0
 71
     5
 72
     1
  1
\A1;\A1;G1/2 {}
  7
ＭＳ ゴシック
 73
     1
 44
1.0
  0
POINT
  5
5DC0
330
5DB5
100
AcDbEntity
  8
Defpoints
 62
     0
100
AcDbPoint
 10
613.882333648713
 20
121.2208877279269
 30
0.0
  0
POINT
  5
5DC1
330
5DB5
100
AcDbEntity
  8
Defpoints
 62
     0
100
AcDbPoint
 10
634.837333648713
 20
121.2208877279269
 30
0.0
  0
POINT
  5
5DEB
330
5DB5
100
AcDbEntity
  8
Defpoints
 62
     0
100
AcDbPoint
 10
634.837333648713
 20
135.045740842727
 30
0.0
  0
ENDBLK
  5
5DB7
330
5DB5
100
AcDbEntity
  8
0
100
AcDbBlockEnd
  0
BLOCK
  5
5DC3
330
5DC2
100
AcDbEntity
  8
0
100
AcDbBlockBegin
  2
*D68
 70
     1
 10
0.0
 20
0.0
 30
0.0
  3
*D68
  1
*D68
  0
LINE
  5
5DC5
330
5DC2
100
AcDbEntity
  8
DIM
 62
     0
370
    -2
100
AcDbLine
 10
208.2248916662296
 20
187.123344382348
 30
0.0
 11
196.5247577031431
 21
120.768587325629
 31
0.0
  0
LINE
  5
5DC6
330
5DC2
100
AcDbEntity
  8
DIM
 62
     0
370
    -2
100
AcDbLine
 10
210.6559661533551
 20
187.1233443824335
 30
0.0
 11
222.356100122973
 21
120.7685873269015
 31
0.0
  0
ARC
  5
5DC7
330
5DC2
100
AcDbEntity
  8
DIM
 62
     0
370
    -2
100
AcDbCircle
 10
209.4404289094497
 20
194.0169986534645
 30
0.0
 40
74.3783861398
100
AcDbArc
 50
260.7703341562577
 51
279.2296658493873
  0
INSERT
  5
5DC8
330
5DC2
100
AcDbEntity
  8
DIM
 62
     0
370
    -2
100
AcDbBlockReference
  2
_DOT
 10
196.5247577031431
 20
120.768587325629
 30
0.0
 50
170.3851670799581
  0
INSERT
  5
5DC9
330
5DC2
100
AcDbEntity
  8
DIM
 62
     0
370
    -2
100
AcDbBlockReference
  2
_DOT
 10
222.356100122973
 20
120.7685873269015
 30
0.0
 50
9.614832925686992
  0
MTEXT
  5
5DCA
330
5DC2
100
AcDbEntity
  8
DIM
 62
     0
 48
0.05
100
AcDbMText
 10
209.4404289094497
 20
127.2261125136645
 30
0.0
 40
5.0
 41
0.0
 46
0.0
 71
     5
 72
     1
  1
\A1;\A1;20%%d
  7
ＭＳ ゴシック
 73
     1
 44
1.0
  0
POINT
  5
5DCB
330
5DC2
100
AcDbEntity
  8
Defpoints
 62
     0
100
AcDbPoint
 10
213.7651474494824
 20
119.7644489712436
 30
0.0
  0
POINT
  5
5DCC
330
5DC2
100
AcDbEntity
  8
Defpoints
 62
     0
100
AcDbPoint
 10
209.4404289094497
 20
194.0169986534645
 30
0.0
  0
POINT
  5
5DCD
330
5DC2
100
AcDbEntity
  8
Defpoints
 62
     0
100
AcDbPoint
 10
209.4404289094497
 20
194.0169986534645
 30
0.0
  0
POINT
  5
5DCE
330
5DC2
100
AcDbEntity
  8
Defpoints
 62
     0
100
AcDbPoint
 10
209.0931325542498
 20
192.0473831474645
 30
0.0
  0
POINT
  5
5DCF
330
5DC2
100
AcDbEntity
  8
Defpoints
 62
     0
100
AcDbPoint
 10
209.7877252648497
 20
192.0473831474645
 30
0.0
  0
ENDBLK
  5
5DC4
330
5DC2
100
AcDbEntity
  8
0
100
AcDbBlockEnd
  0
BLOCK
  5
5DD2
330
5DD1
100
AcDbEntity
  8
0
100
AcDbBlockBegin
  2
*D69
 70
     1
 10
0.0
 20
0.0
 30
0.0
  3
*D69
  1
*D69
  0
LINE
  5
5DD4
330
5DD1
100
AcDbEntity
  8
DIM
 62
     0
370
    -2
100
AcDbLine
 10
98.7778510150498
 20
379.3534385876067
 30
0.0
 11
98.7778510150498
 21
260.6022327067105
 31
0.0
  0
LINE
  5
5DD5
330
5DD1
100
AcDbEntity
  8
DIM
 62
     0
370
    -2
100
AcDbLine
 10
320.1023708748497
 20
397.7987614856066
 30
0.0
 11
320.1023708748497
 21
260.6022327067105
 31
0.0
  0
LINE
  5
5DD6
330
5DD1
100
AcDbEntity
  8
DIM
 62
     0
370
    -2
100
AcDbLine
 10
99.7778510150498
 20
260.6022327067105
 30
0.0
 11
319.1023708748497
 21
260.6022327067105
 31
0.0
  0
INSERT
  5
5DD7
330
5DD1
100
AcDbEntity
  8
DIM
 62
     0
370
    -2
100
AcDbBlockReference
  2
_DOT
 10
98.7778510150498
 20
260.6022327067105
 30
0.0
 50
180.0
  0
INSERT
  5
5DD8
330
5DD1
100
AcDbEntity
  8
DIM
 62
     0
370
    -2
100
AcDbBlockReference
  2
_DOT
 10
320.1023708748497
 20
260.6022327067105
 30
0.0
  0
MTEXT
  5
5DD9
330
5DD1
100
AcDbEntity
  8
DIM
 62
     0
 48
0.05
100
AcDbMText
 10
209.4401101764498
 20
268.1022327067105
 30
0.0
 40
5.0
 41
0.0
 46
0.0
 71
     5
 72
     1
  1
\A1;\A1;221
  7
ＭＳ ゴシック
 73
     1
 44
1.0
  0
POINT
  5
5DDA
330
5DD1
100
AcDbEntity
  8
Defpoints
 62
     0
100
AcDbPoint
 10
98.7778510150498
 20
384.3534385876067
 30
0.0
  0
POINT
  5
5DDB
330
5DD1
100
AcDbEntity
  8
Defpoints
 62
     0
100
AcDbPoint
 10
320.1023708748497
 20
402.7987614856066
 30
0.0
  0
POINT
  5
5DDC
330
5DD1
100
AcDbEntity
  8
Defpoints
 62
     0
100
AcDbPoint
 10
320.1023708748497
 20
260.6022327067105
 30
0.0
  0
ENDBLK
  5
5DD3
330
5DD1
100
AcDbEntity
  8
0
100
AcDbBlockEnd
  0
BLOCK
  5
5DDF
330
5DDE
100
AcDbEntity
  8
0
100
AcDbBlockBegin
  2
*D70
 70
     1
 10
0.0
 20
0.0
 30
0.0
  3
*D70
  1
*D70
  0
LINE
  5
5DE1
330
5DDE
100
AcDbEntity
  8
DIM
 62
     0
370
    -2
100
AcDbLine
 10
226.0075693618878
 20
300.3549693094645
 30
0.0
 11
352.7460584012498
 21
300.3549693094645
 31
0.0
  0
LINE
  5
5DE2
330
5DDE
100
AcDbEntity
  8
DIM
 62
     0
370
    -2
100
AcDbLine
 10
221.289002410088
 20
521.6786386744645
 30
0.0
 11
352.7460584012498
 21
521.6786386744645
 31
0.0
  0
LINE
  5
5DE3
330
5DDE
100
AcDbEntity
  8
DIM
 62
     0
370
    -2
100
AcDbLine
 10
352.7460584012498
 20
301.3549693094645
 30
0.0
 11
352.7460584012498
 21
520.6786386744645
 31
0.0
  0
INSERT
  5
5DE4
330
5DDE
100
AcDbEntity
  8
DIM
 62
     0
370
    -2
100
AcDbBlockReference
  2
_DOT
 10
352.7460584012498
 20
300.3549693094645
 30
0.0
 50
270.0
  0
INSERT
  5
5DE5
330
5DDE
100
AcDbEntity
  8
DIM
 62
     0
370
    -2
100
AcDbBlockReference
  2
_DOT
 10
352.7460584012498
 20
521.6786386744645
 30
0.0
 50
90.0
  0
MTEXT
  5
5DE6
330
5DDE
100
AcDbEntity
  8
DIM
 62
     0
 48
0.05
100
AcDbMText
 10
345.2460584012498
 20
411.0168037876645
 30
0.0
 40
5.0
 41
0.0
 46
0.0
 71
     5
 72
     1
  1
\A1;\A1;221
  7
ＭＳ ゴシック
 11
0.0
 21
1.0
 31
0.0
 73
     1
 44
1.0
  0
POINT
  5
5DE7
330
5DDE
100
AcDbEntity
  8
Defpoints
 62
     0
100
AcDbPoint
 10
221.0075693618878
 20
300.3549693094645
 30
0.0
  0
POINT
  5
5DE8
330
5DDE
100
AcDbEntity
  8
Defpoints
 62
     0
100
AcDbPoint
 10
216.289002410088
 20
521.6786386744645
 30
0.0
  0
POINT
  5
5DE9
330
5DDE
100
AcDbEntity
  8
Defpoints
 62
     0
100
AcDbPoint
 10
352.7460584012498
 20
521.6786386744645
 30
0.0
  0
ENDBLK
  5
5DE0
330
5DDE
100
AcDbEntity
  8
0
100
AcDbBlockEnd
  0
ENDSEC
  0
SECTION
  2
ENTITIES
  0
MTEXT
  5
177
330
A
100
AcDbEntity
  8
TEMPLATE
390
1D
100
AcDbMText
 10
15.84042890954615
 20
68.74635032628565
 30
0.0
 40
3.257682291666665
 41
0.0
 46
0.0
 71
     1
 72
     1
  1
品名
  7
ＭＳ ゴシック
 73
     1
 44
0.7828267384257843
  0
MTEXT
  5
178
330
A
100
AcDbEntity
  8
TEMPLATE
390
1D
100
AcDbMText
 10
15.84042890954615
 20
51.7463503262856
 30
0.0
 40
3.257682291666665
 41
0.0
 46
0.0
 71
     1
 72
     1
  1
仕様
  7
ＭＳ ゴシック
 73
     1
 44
0.7828267384257843
  0
LINE
  5
179
330
A
100
AcDbEntity
  8
TEMPLATE
390
1D
100
AcDbLine
 10
404.4404289094496
 20
53.42933470128568
 30
0.0
 11
14.44042890944975
 21
53.42933470128568
 31
0.0
  0
LWPOLYLINE
  5
17A
330
A
100
AcDbEntity
  8
TEMPLATE
390
1D
100
AcDbPolyline
 90
        5
 70
   128
 43
0.0
 10
404.4404289094496
 20
579.4293347012853
 10
14.44042890944975
 20
579.4293347012853
 10
14.44042890944975
 20
19.42933470128565
 10
404.4404289094496
 20
19.42933470128565
 10
404.4404289094496
 20
579.4293347012853
  0
LINE
  5
17B
330
A
100
AcDbEntity
  8
TEMPLATE
390
1D
100
AcDbLine
 10
404.4404289094496
 20
70.42933470128564
 30
0.0
 11
14.44042890944975
 21
70.42933470128564
 31
0.0
  0
LINE
  5
17C
330
A
100
AcDbEntity
  8
TEMPLATE
390
1D
100
AcDbLine
 10
404.4404289095464
 20
36.42933470128565
 30
0.0
 11
253.840428909546
 21
36.42933470128565
 31
0.0
  0
MTEXT
  5
17E
330
A
100
AcDbEntity
  8
TEMPLATE
390
1D
100
AcDbMText
 10
259.8147101599982
 20
30.44725580662403
 30
0.0
 40
4.8865234375
 41
0.0
 46
0.0
 71
     1
 72
     1
  1
大洋金物株式会社 ティーフォルム事業部
  7
ＭＳ ゴシック
 73
     1
 44
0.7828267384257843
  0
MTEXT
  5
180
330
A
100
AcDbEntity
  8
TEMPLATE
390
1D
100
AcDbMText
 10
366.240428909598
 20
46.02985813878564
 30
0.0
 40
4.8865234375
 41
0.0
 46
4.8865234375
 71
     1
 72
     1
  1
{1:2}
  7
ＭＳ ゴシック
 73
     1
 44
0.7828267384257843
1001
ACAD
1000
ACAD_MTEXT_DEFINED_HEIGHT_BEGIN
1070
    46
1040
4.8865234375
1000
ACAD_MTEXT_DEFINED_HEIGHT_END
  0
MTEXT
  5
181
330
A
100
AcDbEntity
  8
TEMPLATE
390
1D
100
AcDbMText
 10
355.640428909598
 20
51.7463503262856
 30
0.0
 40
3.257682291666665
 41
0.0
 46
0.0
 71
     1
 72
     1
  1
縮尺
  7
ＭＳ ゴシック
 73
     1
 44
0.7828267384257843
  0
LINE
  5
182
330
A
100
AcDbEntity
  8
TEMPLATE
390
1D
100
AcDbLine
 10
354.240428909598
 20
36.42933470128565
 30
0.0
 11
354.240428909598
 21
53.42933470128568
 31
0.0
  0
MTEXT
  5
183
330
A
100
AcDbEntity
  8
TEMPLATE
390
1D
100
AcDbMText
 10
305.440428909598
 20
51.7463503262856
 30
0.0
 40
3.257682291666665
 41
0.0
 46
0.0
 71
     1
 72
     1
  1
容量
  7
ＭＳ ゴシック
 73
     1
 44
0.7828267384257843
  0
LINE
  5
184
330
A
100
AcDbEntity
  8
TEMPLATE
390
1D
100
AcDbLine
 10
304.040428909598
 20
36.42933470128565
 30
0.0
 11
304.040428909598
 21
53.42933470128568
 31
0.0
  0
MTEXT
  5
185
330
A
100
AcDbEntity
  8
TEMPLATE
390
1D
100
AcDbMText
 10
255.240428909598
 20
68.74635032628565
 30
0.0
 40
3.257682291666665
 41
0.0
 46
0.0
 71
     1
 72
     1
  1
品番
  7
ＭＳ ゴシック
 73
     1
 44
0.7828267384257843
  0
MTEXT
  5
186
330
A
100
AcDbEntity
  8
TEMPLATE
390
1D
100
AcDbMText
 10
255.240428909598
 20
51.7463503262856
 30
0.0
 40
3.257682291666665
 41
0.0
 46
0.0
 71
     1
 72
     1
  1
重量
  7
ＭＳ ゴシック
 73
     1
 44
0.7828267384257843
  0
MTEXT
  5
187
330
A
100
AcDbEntity
  8
TEMPLATE
390
1D
100
AcDbMText
 10
265.840428909598
 20
63.02985813878564
 30
0.0
 40
4.8865234375
 41
0.0
 46
4.8865234375
 71
     1
 72
     1
  1
{FHT73-1154}
  7
ＭＳ ゴシック
 73
     1
 44
0.7828267384257843
1001
ACAD
1000
ACAD_MTEXT_DEFINED_HEIGHT_BEGIN
1070
    46
1040
4.8865234375
1000
ACAD_MTEXT_DEFINED_HEIGHT_END
  0
LINE
  5
188
330
A
100
AcDbEntity
  8
TEMPLATE
390
1D
100
AcDbLine
 10
253.840428909598
 20
19.42933470128565
 30
0.0
 11
253.840428909598
 21
70.42933470128564
 31
0.0
  0
MTEXT
  5
189
330
A
100
AcDbEntity
  8
TEMPLATE
390
1D
100
AcDbMText
 10
26.44042890954615
 20
63.02985813878564
 30
0.0
 40
4.8865234375
 41
0.0
 46
5.5071119140625
 71
     1
 72
     1
  1
{レインシャワーヘッド　-GROHE,Grandera-}
  7
ＭＳ ゴシック
 73
     1
 44
0.7828267384257843
1001
ACAD
1000
ACAD_MTEXT_DEFINED_HEIGHT_BEGIN
1070
    46
1040
5.5071119140625
1000
ACAD_MTEXT_DEFINED_HEIGHT_END
  0
INSERT
  5
6B5
330
A
100
AcDbEntity
  8
TEMPLATE
100
AcDbBlockReference
  2
名称未設定-1
 10
374.15014961769
 20
5.189353151330764
 30
0.0
 41
0.1524
 42
0.1524
 43
0.1524
  0
INSERT
  5
68C
330
A
100
AcDbEntity
  8
TEMPLATE
100
AcDbBlockReference
  2
block 2
 10
919.2743017702577
 20
8.373076514336368
 30
0.0
 41
0.3809999999999999
 42
0.3809999999999999
 43
0.3809999999999999
  0
LWPOLYLINE
  5
D69
330
A
100
AcDbEntity
  8
BORDER
 48
0.025
100
AcDbPolyline
 90
        4
 70
     1
 43
0.0
 10
0.0
 20
0.0
 10
0.0
 20
594.0
 10
420.0
 20
594.0
 10
420.0
 20
0.0
  0
INSERT
  5
1343
330
A
100
AcDbEntity
  8
TEMPLATE
100
AcDbBlockReference
  2
block 2
 10
2096.743470866468
 20
24.43532141229569
 30
0.0
 41
0.3809999999999999
 42
0.3809999999999999
 43
0.3809999999999999
  0
POINT
  5
3697
330
A
100
AcDbEntity
  8
Layer50
  6
HIDDEN2
 62
     7
100
AcDbPoint
 10
396.8678405503807
 20
449.3605456225488
 30
0.0
  0
POINT
  5
36AA
330
A
100
AcDbEntity
  8
Layer50
  6
HIDDEN2
 62
     7
100
AcDbPoint
 10
396.8678405503807
 20
469.8605456225488
 30
0.0
  0
POINT
  5
36B6
330
A
100
AcDbEntity
  8
Layer50
  6
HIDDEN2
 62
     7
100
AcDbPoint
 10
405.6628405503807
 20
460.6105456225488
 30
0.0
  0
POINT
  5
36BC
330
A
100
AcDbEntity
  8
Layer50
  6
HIDDEN2
 62
     7
100
AcDbPoint
 10
403.6628405503807
 20
460.6105456225488
 30
0.0
  0
MTEXT
  5
39F2
330
A
100
AcDbEntity
  8
TEMPLATE
390
1D
100
AcDbMText
 10
265.840428909598
 20
78.82838002737984
 30
0.0
 40
4.8865234375
 41
0.0
 46
5.4582466796875
 71
     1
 72
     1
  1
{FHT73-1154-004 (クローム/ゴールド)}
  7
ＭＳ ゴシック
 73
     1
 44
0.7828267384257843
1001
ACAD
1000
ACAD_MTEXT_DEFINED_HEIGHT_BEGIN
1070
    46
1040
5.4582466796875
1000
ACAD_MTEXT_DEFINED_HEIGHT_END
  0
MTEXT
  5
39F3
330
A
100
AcDbEntity
  8
TEMPLATE
390
1D
100
AcDbMText
 10
265.840428909598
 20
86.72764097167692
 30
0.0
 40
4.8865234375
 41
0.0
 46
5.4582466796875
 71
     1
 72
     1
  1
{FHT73-1154-001 (クローム)}
  7
ＭＳ ゴシック
 73
     1
 44
0.7828267384257843
1001
ACAD
1000
ACAD_MTEXT_DEFINED_HEIGHT_BEGIN
1070
    46
1040
5.4582466796875
1000
ACAD_MTEXT_DEFINED_HEIGHT_END
  0
MTEXT
  5
4530
102
{ACAD_XDICTIONARY
360
4532
102
}
330
A
100
AcDbEntity
  8
MODEL
 48
0.05
100
AcDbMText
 10
14.6329326238789
 20
17.30781899803597
 30
0.0
 40
4.0
 41
0.0
 46
4.0
 71
     1
 72
     1
  1
{20160701N}
  7
ＭＳ ゴシック
 73
     1
 44
1.0
1001
ACAD
1000
ACAD_MTEXT_DEFINED_HEIGHT_BEGIN
1070
    46
1040
4.0
1000
ACAD_MTEXT_DEFINED_HEIGHT_END
  0
LINE
  5
5B74
330
A
100
AcDbEntity
  8
MODEL
100
AcDbLine
 10
139.9364636538497
 20
140.2126473230645
 30
0.0
 11
143.3810338410498
 21
140.0945406574645
 31
0.0
  0
LINE
  5
5B75
330
A
100
AcDbEntity
  8
MODEL
100
AcDbLine
 10
159.0325241740496
 20
139.6263413076645
 30
0.0
 11
160.3906345948498
 21
139.5893645554645
 31
0.0
  0
LINE
  5
5B76
330
A
100
AcDbEntity
  8
MODEL
100
AcDbLine
 10
152.9727855062498
 20
139.7913274906645
 30
0.0
 11
155.0755225100496
 21
139.7340770758645
 31
0.0
  0
LINE
  5
5B77
330
A
100
AcDbEntity
  8
MODEL
100
AcDbLine
 10
182.3939817924496
 20
139.1650801884645
 30
0.0
 11
183.9751954112497
 21
139.1438625968645
 31
0.0
  0
SPLINE
  5
5B78
330
A
100
AcDbEntity
  8
MODEL
100
AcDbSpline
210
0.0
220
0.0
230
1.0
 70
     8
 71
     3
 72
     9
 73
     5
 74
     0
 42
0.000000001
 43
0.0000000001
 40
0.0
 40
0.0
 40
0.0
 40
0.0
 40
0.7314954411973111
 40
1.0
 40
1.0
 40
1.0
 40
1.0
 10
211.4746662410402
 20
138.9667781919463
 30
0.0
 10
212.9474677413704
 20
138.9685008724778
 30
0.0
 10
214.9469952011967
 20
138.9733818113145
 30
0.0
 10
216.8870551067386
 20
138.9816754781089
 30
0.0
 10
217.406132909373
 20
138.9841337160248
 30
0.0
  0
SPLINE
  5
5B79
330
A
100
AcDbEntity
  8
MODEL
100
AcDbSpline
210
0.0
220
0.0
230
1.0
 70
     8
 71
     3
 72
     9
 73
     5
 74
     0
 42
0.000000001
 43
0.0000000001
 40
0.0
 40
0.0
 40
0.0
 40
0.0
 40
0.2514097701455884
 40
1.0
 40
1.0
 40
1.0
 40
1.0
 10
201.4747243980445
 20
138.9841566813258
 30
0.0
 10
201.9606367072141
 20
138.9818228373005
 30
0.0
 10
203.9002520876903
 20
138.9733753029686
 30
0.0
 10
205.8994288119972
 20
138.9684553098324
 30
0.0
 10
207.4061907255747
 20
138.966725926566
 30
0.0
  0
LINE
  5
5B7A
330
A
100
AcDbEntity
  8
MODEL
100
AcDbLine
 10
234.9056522504496
 20
139.1426986694645
 30
0.0
 11
236.4868925320496
 21
139.1631888258645
 31
0.0
  0
ARC
  5
5B7B
330
A
100
AcDbEntity
  8
MODEL
100
AcDbCircle
 10
239.1769427306498
 20
1024.698536053864
 30
0.0
 40
885.3181848633508
100
AcDbArc
 50
271.5941016602
 51
271.7302440238
  0
ARC
  5
5B7C
330
A
100
AcDbEntity
  8
MODEL
100
AcDbCircle
 10
239.1769427306498
 20
1024.698536053864
 30
0.0
 40
885.3181848633508
100
AcDbArc
 50
271.2500090692999
 51
271.3380447235999
  0
ARC
  5
5B7D
330
A
100
AcDbEntity
  8
MODEL
100
AcDbCircle
 10
249.6461151534496
 20
929.2161801934644
 30
0.0
 40
789.5564109803933
100
AcDbArc
 50
271.8764675879
 51
272.1202187056
  0
SPLINE
  5
5B7E
330
A
100
AcDbEntity
  8
MODEL
100
AcDbSpline
210
0.0
220
0.0
230
1.0
 70
     8
 71
     3
 72
     8
 73
     4
 74
     0
 42
0.000000001
 43
0.0000000001
 40
0.0
 40
0.0
 40
0.0
 40
0.0
 40
1.0
 40
1.0
 40
1.0
 40
1.0
 10
155.1315668840999
 20
139.9413668474997
 30
0.0
 10
155.0430819600277
 20
139.9404485762407
 30
0.0
 10
154.9960897642105
 20
139.938248303164
 30
0.0
 10
154.9958926084047
 20
139.9348245290984
 30
0.0
  0
SPLINE
  5
5B7F
330
A
100
AcDbEntity
  8
MODEL
100
AcDbSpline
210
0.0
220
0.0
230
1.0
 70
     8
 71
     3
 72
    12
 73
     8
 74
     0
 42
0.000000001
 43
0.0000000001
 40
0.0
 40
0.0
 40
0.0
 40
0.0
 40
0.2869801577716217
 40
0.2869801577716217
 40
0.9540988944569462
 40
0.9540988944569462
 40
1.0
 40
1.0
 40
1.0
 40
1.0
 10
170.5829799329734
 20
139.4975107235448
 30
0.0
 10
170.4832686761866
 20
139.5019114731976
 30
0.0
 10
170.3494168616731
 20
139.5068123688651
 30
0.0
 10
169.8084618987706
 20
139.5239851837019
 30
0.0
 10
169.2732804682825
 20
139.5373865911237
 30
0.0
 10
168.7017684961153
 20
139.5490176115618
 30
0.0
 10
168.6649882971891
 20
139.5497544870851
 30
0.0
 10
168.6282672378896
 20
139.5504787094144
 30
0.0
  0
SPLINE
  5
5B80
330
A
100
AcDbEntity
  8
MODEL
100
AcDbSpline
210
0.0
220
0.0
230
1.0
 70
     8
 71
     3
 72
    10
 73
     6
 74
     0
 42
0.000000001
 43
0.0000000001
 40
0.0
 40
0.0
 40
0.0
 40
0.0
 40
0.6464034799276267
 40
0.6464034799276267
 40
1.0
 40
1.0
 40
1.0
 40
1.0
 10
182.4785778827164
 20
139.2228575173893
 30
0.0
 10
182.4785778827164
 20
139.2273901551676
 30
0.0
 10
182.2563008110432
 20
139.2350839371063
 30
0.0
 10
181.6711140917936
 20
139.2485540022849
 30
0.0
 10
181.4172250270045
 20
139.2536122369933
 30
0.0
 10
181.1421398921767
 20
139.258501219221
 30
0.0
  0
SPLINE
  5
5B81
330
A
100
AcDbEntity
  8
MODEL
100
AcDbSpline
210
0.0
220
0.0
230
1.0
 70
     8
 71
     3
 72
    14
 73
    10
 74
     0
 42
0.000000001
 43
0.0000000001
 40
0.0
 40
0.0
 40
0.0
 40
0.0
 40
0.2802889832193393
 40
0.2802889832193393
 40
0.5915429949428684
 40
0.5915429949428684
 40
0.9027970066663975
 40
0.9027970066663975
 40
1.0
 40
1.0
 40
1.0
 40
1.0
 10
153.0524797395914
 20
139.8357081070963
 30
0.0
 10
153.0518464643443
 20
139.8391981659718
 30
0.0
 10
152.8751890745069
 20
139.8478350309109
 30
0.0
 10
152.2152570345751
 20
139.8728080967834
 30
0.0
 10
151.6993022421178
 20
139.8898876986842
 30
0.0
 10
150.6336724089625
 20
139.9219564147721
 30
0.0
 10
150.0852135246479
 20
139.9369366284072
 30
0.0
 10
149.5462332869232
 20
139.9496853142995
 30
0.0
 10
149.4325044187912
 20
139.9521791819938
 30
0.0
 10
149.3354360436061
 20
139.9540992173451
 30
0.0
  0
SPLINE
  5
5B82
330
A
100
AcDbEntity
  8
MODEL
100
AcDbSpline
210
0.0
220
0.0
230
1.0
 70
     8
 71
     3
 72
    12
 73
     8
 74
     0
 42
0.000000001
 43
0.0000000001
 40
0.0
 40
0.0
 40
0.0
 40
0.0
 40
0.2825362364444046
 40
0.2825362364444046
 40
0.7533019172773754
 40
0.7533019172773754
 40
1.0
 40
1.0
 40
1.0
 40
1.0
 10
164.242880228605
 20
139.537263582712
 30
0.0
 10
163.9229863773891
 20
139.5448142993412
 30
0.0
 10
163.5950556694562
 20
139.5521259632716
 30
0.0
 10
162.7899339564616
 20
139.5688738351687
 30
0.0
 10
162.3764892385142
 20
139.5761115325703
 30
0.0
 10
162.0511772165356
 20
139.5793296171905
 30
0.0
 10
161.9944511613299
 20
139.5790265418504
 30
0.0
 10
161.9943978501602
 20
139.5774062555618
 30
0.0
  0
SPLINE
  5
5B83
330
A
100
AcDbEntity
  8
MODEL
100
AcDbSpline
210
0.0
220
0.0
230
1.0
 70
     8
 71
     3
 72
    18
 73
    14
 74
     0
 42
0.000000001
 43
0.0000000001
 40
0.0
 40
0.0
 40
0.0
 40
0.0
 40
0.0712116323260835
 40
0.0712116323260835
 40
0.2878417287089491
 40
0.2878417287089491
 40
0.5044718250918148
 40
0.5044718250918148
 40
0.7211019214746817
 40
0.7211019214746817
 40
0.9377320178575488
 40
0.9377320178575488
 40
1.0
 40
1.0
 40
1.0
 40
1.0
 10
181.1707528494327
 20
139.8404347745173
 30
0.0
 10
181.2163741249689
 20
139.8442213987827
 30
0.0
 10
181.2403681124835
 20
139.8484569943094
 30
0.0
 10
181.2406133640435
 20
139.8669314574476
 30
0.0
 10
181.0231492412912
 20
139.8838180460502
 30
0.0
 10
180.2582200118883
 20
139.9143562266169
 30
0.0
 10
179.7263432552678
 20
139.9273824769273
 30
0.0
 10
178.6559724621726
 20
139.9421945369109
 30
0.0
 10
178.1204735402513
 20
139.9438498114602
 30
0.0
 10
177.3636340653781
 20
139.9348207832084
 30
0.0
 10
177.1408774121634
 20
139.9242469715679
 30
0.0
 10
177.1403008973983
 20
139.9063319968452
 30
0.0
 10
177.1585185104287
 20
139.9020980299561
 30
0.0
 10
177.1935271383528
 20
139.8977372008102
 30
0.0
  0
SPLINE
  5
5B84
330
A
100
AcDbEntity
  8
MODEL
100
AcDbSpline
210
0.0
220
0.0
230
1.0
 70
     8
 71
     3
 72
    12
 73
     8
 74
     0
 42
0.000000001
 43
0.0000000001
 40
0.0
 40
0.0
 40
0.0
 40
0.0
 40
0.3132248838945322
 40
0.3132248838945322
 40
0.8421462322793412
 40
0.8421462322793412
 40
1.0
 40
1.0
 40
1.0
 40
1.0
 10
185.2969569160974
 20
139.5720065652168
 30
0.0
 10
184.9953920152212
 20
139.5733556049287
 30
0.0
 10
184.7162265720557
 20
139.5730573507501
 30
0.0
 10
184.1137208490178
 20
139.5676016842281
 30
0.0
 10
183.8909148062843
 20
139.5593255300955
 30
0.0
 10
183.8902849673644
 20
139.5450501800755
 30
0.0
 10
183.9099211629867
 20
139.5415627265798
 30
0.0
 10
183.9475974180995
 20
139.5379648880593
 30
0.0
  0
SPLINE
  5
5B85
330
A
100
AcDbEntity
  8
MODEL
100
AcDbSpline
210
0.0
220
0.0
230
1.0
 70
     8
 71
     3
 72
    12
 73
     8
 74
     0
 42
0.000000001
 43
0.0000000001
 40
0.0
 40
0.0
 40
0.0
 40
0.0
 40
0.4739226834139092
 40
0.4739226834139092
 40
0.9485685715163475
 40
0.9485685715163475
 40
1.0
 40
1.0
 40
1.0
 40
1.0
 10
201.4904283702032
 20
139.0596784979411
 30
0.0
 10
201.4900371296427
 20
139.0643980374761
 30
0.0
 10
201.2726356581787
 20
139.0701939589171
 30
0.0
 10
200.5082474487136
 20
139.0808222626204
 30
0.0
 10
199.9762897507741
 20
139.0854377315983
 30
0.0
 10
199.3831674949955
 20
139.0884364641065
 30
0.0
 10
199.3251786731163
 20
139.0887066493185
 30
0.0
 10
199.2673870592017
 20
139.0889535853543
 30
0.0
  0
SPLINE
  5
5B86
330
A
100
AcDbEntity
  8
MODEL
100
AcDbSpline
210
0.0
220
0.0
230
1.0
 70
     8
 71
     3
 72
    10
 73
     6
 74
     0
 42
0.000000001
 43
0.0000000001
 40
0.0
 40
0.0
 40
0.0
 40
0.0
 40
0.666701741207095
 40
0.666701741207095
 40
1.0
 40
1.0
 40
1.0
 40
1.0
 10
168.711025281869
 20
139.832406476477
 30
0.0
 10
168.7106530687153
 20
139.8433821056121
 30
0.0
 10
168.4932033115543
 20
139.8587365938677
 30
0.0
 10
167.9215133584456
 20
139.8820956401134
 30
0.0
 10
167.6935995616374
 20
139.8897923330859
 30
0.0
 10
167.4465444377062
 20
139.8968983992171
 30
0.0
  0
SPLINE
  5
5B87
330
A
100
AcDbEntity
  8
MODEL
100
AcDbSpline
210
0.0
220
0.0
230
1.0
 70
     8
 71
     3
 72
     8
 73
     4
 74
     0
 42
0.000000001
 43
0.0000000001
 40
0.0
 40
0.0
 40
0.0
 40
0.0
 40
1.0
 40
1.0
 40
1.0
 40
1.0
 10
168.6418803640037
 20
139.8230923523444
 30
0.0
 10
168.6490845097236
 20
139.8234998095235
 30
0.0
 10
168.6557450571078
 20
139.8239212537423
 30
0.0
 10
168.6618528606817
 20
139.8243564077341
 30
0.0
  0
SPLINE
  5
5B88
330
A
100
AcDbEntity
  8
MODEL
100
AcDbSpline
210
0.0
220
0.0
230
1.0
 70
     8
 71
     3
 72
    10
 73
     6
 74
     0
 42
0.000000001
 43
0.0000000001
 40
0.0
 40
0.0
 40
0.0
 40
0.0
 40
0.4001988671262641
 40
0.4001988671262641
 40
1.0
 40
1.0
 40
1.0
 40
1.0
 10
177.2322694152402
 20
139.5347810593237
 30
0.0
 10
176.9216373760042
 20
139.5427672686198
 30
0.0
 10
176.5659194963201
 20
139.5501527452542
 30
0.0
 10
175.6733937053056
 20
139.5646888548222
 30
0.0
 10
175.140506405599
 20
139.5698004883533
 30
0.0
 10
174.7573928259779
 20
139.5698004883533
 30
0.0
  0
SPLINE
  5
5B89
330
A
100
AcDbEntity
  8
MODEL
100
AcDbSpline
210
0.0
220
0.0
230
1.0
 70
     8
 71
     3
 72
     8
 73
     4
 74
     0
 42
0.000000001
 43
0.0000000001
 40
0.0
 40
0.0
 40
0.0
 40
0.0
 40
0.9999999999999999
 40
0.9999999999999999
 40
0.9999999999999999
 40
0.9999999999999999
 10
174.7573928259779
 20
139.5698004883533
 30
0.0
 10
174.5764345692079
 20
139.5698004883533
 30
0.0
 10
174.4324474050514
 20
139.5686624938836
 30
0.0
 10
174.3308869656875
 20
139.5665441028139
 30
0.0
  0
SPLINE
  5
5B8A
330
A
100
AcDbEntity
  8
MODEL
100
AcDbSpline
210
0.0
220
0.0
230
1.0
 70
     8
 71
     3
 72
    10
 73
     6
 74
     0
 42
0.000000001
 43
0.0000000001
 40
0.0
 40
0.0
 40
0.0
 40
0.0
 40
0.8659040744434868
 40
0.8659040744434868
 40
1.0
 40
1.0
 40
1.0
 40
1.0
 10
207.4709194683022
 20
139.0760261795276
 30
0.0
 10
207.4248663784991
 20
139.0744018903254
 30
0.0
 10
207.3977987276631
 20
139.0727241120642
 30
0.0
 10
207.3908592779022
 20
139.0707785315732
 30
0.0
 10
207.3904253957486
 20
139.0705175199133
 30
0.0
 10
207.390483014559
 20
139.0702565562617
 30
0.0
  0
SPLINE
  5
5B8B
330
A
100
AcDbEntity
  8
MODEL
100
AcDbSpline
210
0.0
220
0.0
230
1.0
 70
     8
 71
     3
 72
    14
 73
    10
 74
     0
 42
0.000000001
 43
0.0000000001
 40
0.0
 40
0.0
 40
0.0
 40
0.0
 40
0.2343840058589536
 40
0.2343840058589536
 40
0.5280896970573323
 40
0.5280896970573323
 40
0.821795388255711
 40
0.821795388255711
 40
1.0
 40
1.0
 40
1.0
 40
1.0
 10
195.7719393625376
 20
139.8677132292341
 30
0.0
 10
195.8720508153714
 20
139.8793293111884
 30
0.0
 10
195.8420220865756
 20
139.8928656153315
 30
0.0
 10
195.4806175154423
 20
139.9218795085949
 30
0.0
 10
195.0778016883061
 20
139.9369558513076
 30
0.0
 10
194.084789441909
 20
139.9564253147273
 30
0.0
 10
193.5082255522581
 20
139.9605511314076
 30
0.0
 10
192.7097324841728
 20
139.9565246455088
 30
0.0
 10
192.4399495879412
 20
139.952595563248
 30
0.0
 10
192.2273840481902
 20
139.9467729161119
 30
0.0
  0
SPLINE
  5
5B8C
330
A
100
AcDbEntity
  8
MODEL
100
AcDbSpline
210
0.0
220
0.0
230
1.0
 70
     8
 71
     3
 72
    14
 73
    10
 74
     0
 42
0.000000001
 43
0.0000000001
 40
0.0
 40
0.0
 40
0.0
 40
0.0
 40
0.032633288568761
 40
0.032633288568761
 40
0.358208503770872
 40
0.358208503770872
 40
0.6837837189729832
 40
0.6837837189729832
 40
1.0
 40
1.0
 40
1.0
 40
1.0
 10
199.3258339151176
 20
139.5181208608066
 30
0.0
 10
199.3260413739714
 20
139.5193595547004
 30
0.0
 10
199.324085419203
 20
139.5206105369685
 30
0.0
 10
199.2782936473506
 20
139.5344390788355
 30
0.0
 10
199.0195104254709
 20
139.5478414931916
 30
0.0
 10
198.1979299933763
 20
139.568869611986
 30
0.0
 10
197.6490484501438
 20
139.5761197864242
 30
0.0
 10
196.5980117891794
 20
139.5802688184357
 30
0.0
 10
196.0977145647786
 20
139.5774617535329
 30
0.0
 10
195.7472486752885
 20
139.5704355630617
 30
0.0
  0
SPLINE
  5
5B8D
330
A
100
AcDbEntity
  8
MODEL
100
AcDbSpline
210
0.0
220
0.0
230
1.0
 70
     8
 71
     3
 72
     8
 73
     4
 74
     0
 42
0.000000001
 43
0.0000000001
 40
0.0
 40
0.0
 40
0.0
 40
0.0
 40
1.0
 40
1.0
 40
1.0
 40
1.0
 10
199.266008791372
 20
139.5073130491552
 30
0.0
 10
199.2825473040854
 20
139.5087744380774
 30
0.0
 10
199.2957474484839
 20
139.5102737695647
 30
0.0
 10
199.3054968162102
 20
139.5118035860999
 30
0.0
  0
SPLINE
  5
5B8E
330
A
100
AcDbEntity
  8
MODEL
100
AcDbSpline
210
0.0
220
0.0
230
1.0
 70
     8
 71
     3
 72
    18
 73
    14
 74
     0
 42
0.000000001
 43
0.0000000001
 40
0.0
 40
0.0
 40
0.0
 40
0.0
 40
0.0708824084491871
 40
0.0708824084491871
 40
0.2875000767071071
 40
0.2875000767071071
 40
0.5041177449650271
 40
0.5041177449650271
 40
0.7207354132229472
 40
0.7207354132229472
 40
0.9373530814808672
 40
0.9373530814808672
 40
1.0
 40
1.0
 40
1.0
 40
1.0
 10
241.6712104011762
 20
139.8959090359505
 30
0.0
 10
241.7164718956698
 20
139.9009061311673
 30
0.0
 10
241.7403041468323
 20
139.9057439583206
 30
0.0
 10
241.7408080895174
 20
139.9240228169028
 30
0.0
 10
241.5234299222494
 20
139.9347172550779
 30
0.0
 10
240.7585113981521
 20
139.9439014511588
 30
0.0
 10
240.226358361518
 20
139.9422050625649
 30
0.0
 10
239.1559422482168
 20
139.9274120385118
 30
0.0
 10
238.6206399218014
 20
139.9142474188876
 30
0.0
 10
237.8639615750661
 20
139.8840965432805
 30
0.0
 10
237.6410799594934
 20
139.867177802471
 30
0.0
 10
237.6402425305504
 20
139.8490415502398
 30
0.0
 10
237.6586298921776
 20
139.845255080479
 30
0.0
 10
237.6940139594823
 20
139.8418187131041
 30
0.0
  0
SPLINE
  5
5B8F
330
A
100
AcDbEntity
  8
MODEL
100
AcDbSpline
210
0.0
220
0.0
230
1.0
 70
     8
 71
     3
 72
    10
 73
     6
 74
     0
 42
0.000000001
 43
0.0000000001
 40
0.0
 40
0.0
 40
0.0
 40
0.0
 40
0.6271121630958592
 40
0.6271121630958592
 40
1.0
 40
1.0
 40
1.0
 40
1.0
 10
234.9904283628406
 20
139.5483222624214
 30
0.0
 10
234.9900368584828
 20
139.5591775126358
 30
0.0
 10
234.7727085971391
 20
139.5675280327112
 30
0.0
 10
234.1638506572075
 20
139.5730781096837
 30
0.0
 10
233.8840956414352
 20
139.5733763019454
 30
0.0
 10
233.5822689654516
 20
139.5720146411457
 30
0.0
  0
SPLINE
  5
5B90
330
A
100
AcDbEntity
  8
MODEL
100
AcDbSpline
210
0.0
220
0.0
230
1.0
 70
     8
 71
     3
 72
     8
 73
     4
 74
     0
 42
0.000000001
 43
0.0000000001
 40
0.0
 40
0.0
 40
0.0
 40
0.0
 40
1.0
 40
1.0
 40
1.0
 40
1.0
 10
234.9190767718102
 20
139.5367245789573
 30
0.0
 10
234.9262175203731
 20
139.5373413630037
 30
0.0
 10
234.9328411502403
 20
139.5379549936965
 30
0.0
 10
234.9389390975524
 20
139.5385649558985
 30
0.0
  0
SPLINE
  5
5B91
330
A
100
AcDbEntity
  8
MODEL
100
AcDbSpline
210
0.0
220
0.0
230
1.0
 70
     8
 71
     3
 72
    14
 73
    10
 74
     0
 42
0.000000001
 43
0.0000000001
 40
0.0
 40
0.0
 40
0.0
 40
0.0
 40
0.06061126792507
 40
0.06061126792507
 40
0.5299141016456913
 40
0.5299141016456913
 40
0.9992169353663126
 40
0.9992169353663126
 40
1.0
 40
1.0
 40
1.0
 40
1.0
 10
219.6480232762921
 20
139.0890999028718
 30
0.0
 10
219.5793294403637
 20
139.0888162225086
 30
0.0
 10
219.5102678096763
 20
139.08849959836
 30
0.0
 10
218.9060146528537
 20
139.0854483643236
 30
0.0
 10
218.3706632753828
 20
139.0807852323529
 30
0.0
 10
217.6138832949774
 20
139.070282542383
 30
0.0
 10
217.3909941927549
 20
139.0644648619314
 30
0.0
 10
217.3904290841646
 20
139.0596770139756
 30
0.0
 10
217.3904287612553
 20
139.0596690418002
 30
0.0
 10
217.3904290564852
 20
139.0596610730056
 30
0.0
  0
SPLINE
  5
5B92
330
A
100
AcDbEntity
  8
MODEL
100
AcDbSpline
210
0.0
220
0.0
230
1.0
 70
     8
 71
     3
 72
    10
 73
     6
 74
     0
 42
0.000000001
 43
0.0000000001
 40
0.0
 40
0.0
 40
0.0
 40
0.0
 40
0.49460049041454
 40
0.49460049041454
 40
1.0
 40
1.0
 40
1.0
 40
1.0
 10
226.6378878653931
 20
139.9472556041469
 30
0.0
 10
226.2892671985938
 20
139.9565320616032
 30
0.0
 10
225.7860780093703
 20
139.9604840385155
 30
0.0
 10
224.7283028478179
 20
139.955601590518
 30
0.0
 10
224.1806750170764
 20
139.9465576822002
 30
0.0
 10
223.7684983188095
 20
139.9332051561198
 30
0.0
  0
SPLINE
  5
5B93
330
A
100
AcDbEntity
  8
MODEL
100
AcDbSpline
210
0.0
220
0.0
230
1.0
 70
     8
 71
     3
 72
    10
 73
     6
 74
     0
 42
0.000000001
 43
0.0000000001
 40
0.0
 40
0.0
 40
0.0
 40
0.0
 40
0.7133788612519952
 40
0.7133788612519952
 40
1.0
 40
1.0
 40
1.0
 40
1.0
 10
223.7684983188095
 20
139.9332051561198
 30
0.0
 10
223.3563216205424
 20
139.9198526300392
 30
0.0
 10
223.0975551198225
 20
139.9027773276156
 30
0.0
 10
223.0381986714427
 20
139.8801694552997
 30
0.0
 10
223.0568334840012
 20
139.8738600150155
 30
0.0
 10
223.1077086220251
 20
139.8680088994607
 30
0.0
  0
SPLINE
  5
5B94
330
A
100
AcDbEntity
  8
MODEL
100
AcDbSpline
210
0.0
220
0.0
230
1.0
 70
     8
 71
     3
 72
    10
 73
     6
 74
     0
 42
0.000000001
 43
0.0000000001
 40
0.0
 40
0.0
 40
0.0
 40
0.0
 40
0.355356483086342
 40
0.355356483086342
 40
1.0
 40
1.0
 40
1.0
 40
1.0
 10
223.1339551239076
 20
139.5703682663753
 30
0.0
 10
222.9368584912128
 20
139.5743305133284
 30
0.0
 10
222.6934843519472
 20
139.5770530428275
 30
0.0
 10
221.9328406209796
 20
139.5803312944849
 30
0.0
 10
221.3567668262614
 20
139.577311640014
 30
0.0
 10
220.8527904984047
 20
139.5698006375553
 30
0.0
  0
SPLINE
  5
5B95
330
A
100
AcDbEntity
  8
MODEL
100
AcDbSpline
210
0.0
220
0.0
230
1.0
 70
     8
 71
     3
 72
    10
 73
     6
 74
     0
 42
0.000000001
 43
0.0000000001
 40
0.0
 40
0.0
 40
0.0
 40
0.0
 40
0.5461979109134372
 40
0.5461979109134372
 40
0.9999999999999999
 40
0.9999999999999999
 40
0.9999999999999999
 40
0.9999999999999999
 10
220.8527904984047
 20
139.5698006375553
 30
0.0
 10
220.3488141705478
 20
139.5622896350964
 30
0.0
 10
219.9375894139065
 20
139.5506186954149
 30
0.0
 10
219.5474197693724
 20
139.5275658574793
 30
0.0
 10
219.5105083792347
 20
139.5165057080491
 30
0.0
 10
219.6153604455618
 20
139.5071239123057
 30
0.0
  0
SPLINE
  5
5B96
330
A
100
AcDbEntity
  8
MODEL
100
AcDbSpline
210
0.0
220
0.0
230
1.0
 70
     8
 71
     3
 72
     8
 73
     4
 74
     0
 42
0.000000001
 43
0.0000000001
 40
0.0
 40
0.0
 40
0.0
 40
0.0
 40
1.0
 40
1.0
 40
1.0
 40
1.0
 10
263.8849658384532
 20
139.9348024781939
 30
0.0
 10
263.8849658384532
 20
139.9383806736764
 30
0.0
 10
263.8342491481482
 20
139.9406054883463
 30
0.0
 10
263.7400400220032
 20
139.941459747944
 30
0.0
  0
SPLINE
  5
5B97
330
A
100
AcDbEntity
  8
MODEL
100
AcDbSpline
210
0.0
220
0.0
230
1.0
 70
     8
 71
     3
 72
    12
 73
     8
 74
     0
 42
0.000000001
 43
0.0000000001
 40
0.0
 40
0.0
 40
0.0
 40
0.0
 40
0.045929274127119
 40
0.045929274127119
 40
0.7230517521151765
 40
0.7230517521151765
 40
0.9999999999999999
 40
0.9999999999999999
 40
0.9999999999999999
 40
0.9999999999999999
 10
250.2532391053045
 20
139.5504910548927
 30
0.0
 10
250.2170108288734
 20
139.5497769907232
 30
0.0
 10
250.1807361133848
 20
139.5490507013496
 30
0.0
 10
249.6097164342931
 20
139.5374365277639
 30
0.0
 10
249.0775972786647
 20
139.5241466932529
 30
0.0
 10
248.5381664001471
 20
139.5070273603724
 30
0.0
 10
248.4091402310152
 20
139.5023308845198
 30
0.0
 10
248.3113116087167
 20
139.4980968658434
 30
0.0
  0
SPLINE
  5
5B98
330
A
100
AcDbEntity
  8
MODEL
100
AcDbSpline
210
0.0
220
0.0
230
1.0
 70
     8
 71
     3
 72
    10
 73
     6
 74
     0
 42
0.000000001
 43
0.0000000001
 40
0.0
 40
0.0
 40
0.0
 40
0.0
 40
0.3542654888036584
 40
0.3542654888036584
 40
1.0
 40
1.0
 40
1.0
 40
1.0
 10
237.7437201217505
 20
139.2585967197695
 30
0.0
 10
237.4681900658426
 20
139.2537080477384
 30
0.0
 10
237.2133622961404
 20
139.2486358110588
 30
0.0
 10
236.6207795336992
 20
139.2349996564376
 30
0.0
 10
236.4027085130321
 20
139.2273521097346
 30
0.0
 10
236.4022805722021
 20
139.2228709479948
 30
0.0
  0
SPLINE
  5
5B99
330
A
100
AcDbEntity
  8
MODEL
100
AcDbSpline
210
0.0
220
0.0
230
1.0
 70
     8
 71
     3
 72
    12
 73
     8
 74
     0
 42
0.000000001
 43
0.0000000001
 40
0.0
 40
0.0
 40
0.0
 40
0.0
 40
0.2775035720081921
 40
0.2775035720081921
 40
0.8363165760783418
 40
0.8363165760783418
 40
1.0
 40
1.0
 40
1.0
 40
1.0
 10
251.4314161549624
 20
139.8967985490237
 30
0.0
 10
251.1854187204111
 20
139.8897129994866
 30
0.0
 10
250.958871142832
 20
139.882064345535
 30
0.0
 10
250.3927608084445
 20
139.8589691544755
 30
0.0
 10
250.170167677628
 20
139.8435367229426
 30
0.0
 10
250.169734220232
 20
139.8291454880334
 30
0.0
 10
250.1887039374591
 20
139.8262937826159
 30
0.0
 10
250.2250876908475
 20
139.8238909301746
 30
0.0
  0
SPLINE
  5
5B9A
330
A
100
AcDbEntity
  8
MODEL
100
AcDbSpline
210
0.0
220
0.0
230
1.0
 70
     8
 71
     3
 72
     8
 73
     4
 74
     0
 42
0.000000001
 43
0.0000000001
 40
0.0
 40
0.0
 40
0.0
 40
0.0
 40
1.0
 40
1.0
 40
1.0
 40
1.0
 10
244.5619898753699
 20
139.566280718947
 30
0.0
 10
244.4598615440522
 20
139.5685678414455
 30
0.0
 10
244.3115984139234
 20
139.5698004821388
 30
0.0
 10
244.1234651425415
 20
139.5698004821388
 30
0.0
  0
SPLINE
  5
5B9B
330
A
100
AcDbEntity
  8
MODEL
100
AcDbSpline
210
0.0
220
0.0
230
1.0
 70
     8
 71
     3
 72
    10
 73
     6
 74
     0
 42
0.000000001
 43
0.0000000001
 40
0.0
 40
0.0
 40
0.0
 40
0.0
 40
0.6009701248740892
 40
0.6009701248740892
 40
1.0
 40
1.0
 40
1.0
 40
1.0
 10
244.1234651425415
 20
139.5698004821388
 30
0.0
 10
243.7403516023491
 20
139.5698004821388
 30
0.0
 10
243.208509052634
 20
139.564699674132
 30
0.0
 10
242.3183873092192
 20
139.5502129920881
 30
0.0
 10
241.963062519928
 20
139.5428295771805
 30
0.0
 10
241.6536368805843
 20
139.5348993994317
 30
0.0
  0
LINE
  5
5B9C
330
A
100
AcDbEntity
  8
MODEL
100
AcDbLine
 10
256.8097039424498
 20
139.5415066680645
 30
0.0
 11
258.4904289094496
 21
139.5818900214645
 31
0.0
  0
LINE
  5
5B9D
330
A
100
AcDbEntity
  8
MODEL
100
AcDbLine
 10
230.2287160872496
 20
139.0783477832645
 30
0.0
 11
230.9913176210497
 21
139.0861430662645
 31
0.0
  0
SPLINE
  5
5B9E
330
A
100
AcDbEntity
  8
MODEL
100
AcDbSpline
210
0.0
220
0.0
230
1.0
 70
     8
 71
     3
 72
     8
 73
     4
 74
     0
 42
0.000000001
 43
0.0000000001
 40
0.0
 40
0.0
 40
0.0
 40
0.0
 40
1.0
 40
1.0
 40
1.0
 40
1.0
 10
269.5311193892886
 20
139.9538164556765
 30
0.0
 10
269.3133598130975
 20
139.9494327532007
 30
0.0
 10
269.0166293264464
 20
139.9423145595406
 30
0.0
 10
268.6743780738042
 20
139.9332051561198
 30
0.0
  0
SPLINE
  5
5B9F
330
A
100
AcDbEntity
  8
MODEL
100
AcDbSpline
210
0.0
220
0.0
230
1.0
 70
     8
 71
     3
 72
     8
 73
     4
 74
     0
 42
0.000000001
 43
0.0000000001
 40
0.0
 40
0.0
 40
0.0
 40
0.0
 40
0.9999999999999999
 40
0.9999999999999999
 40
0.9999999999999999
 40
0.9999999999999999
 10
265.832866045782
 20
139.8350454216547
 30
0.0
 10
265.8390547500636
 20
139.8344074923031
 30
0.0
 10
265.8547318938153
 20
139.8340523607805
 30
0.0
 10
265.8799812445396
 20
139.8339937978656
 30
0.0
  0
SPLINE
  5
5BA0
330
A
100
AcDbEntity
  8
MODEL
100
AcDbSpline
210
0.0
220
0.0
230
1.0
 70
     8
 71
     3
 72
    12
 73
     8
 74
     0
 42
0.000000001
 43
0.0000000001
 40
0.0
 40
0.0
 40
0.0
 40
0.0
 40
0.39823005483532
 40
0.39823005483532
 40
0.7964601096706401
 40
0.7964601096706401
 40
1.0
 40
1.0
 40
1.0
 40
1.0
 10
268.6743780738042
 20
139.9332051561198
 30
0.0
 10
268.1751798748199
 20
139.9199184325612
 30
0.0
 10
267.6008296544748
 20
139.9029707177896
 30
0.0
 10
266.6100150400233
 20
139.8708782223027
 30
0.0
 10
266.1976831207754
 20
139.8558271025374
 30
0.0
 10
265.8833099345494
 20
139.8412412888671
 30
0.0
 10
265.8296624692763
 20
139.8377044299611
 30
0.0
 10
265.8298361816306
 20
139.8357509840342
 30
0.0
  0
SPLINE
  5
5BA1
330
A
100
AcDbEntity
  8
MODEL
100
AcDbSpline
210
0.0
220
0.0
230
1.0
 70
     8
 71
     3
 72
    10
 73
     6
 74
     0
 42
0.000000001
 43
0.0000000001
 40
0.0
 40
0.0
 40
0.0
 40
0.0
 40
0.0918562466031058
 40
0.0918562466031058
 40
1.0
 40
1.0
 40
1.0
 40
1.0
 10
256.8879436247861
 20
139.5774355088244
 30
0.0
 10
256.8881263568986
 20
139.5777515654974
 30
0.0
 10
256.886121782003
 20
139.5780169241917
 30
0.0
 10
256.8400012560784
 20
139.5803326495621
 30
0.0
 10
256.5806200030662
 20
139.5772928358743
 30
0.0
 10
256.1684293229831
 20
139.5698006375553
 30
0.0
  0
SPLINE
  5
5BA2
330
A
100
AcDbEntity
  8
MODEL
100
AcDbSpline
210
0.0
220
0.0
230
1.0
 70
     8
 71
     3
 72
     8
 73
     4
 74
     0
 42
0.000000001
 43
0.0000000001
 40
0.0
 40
0.0
 40
0.0
 40
0.0
 40
1.0
 40
1.0
 40
1.0
 40
1.0
 10
256.8342734305153
 20
139.5735505589024
 30
0.0
 10
256.8633573682019
 20
139.5749462278447
 30
0.0
 10
256.880865601821
 20
139.5760881989478
 30
0.0
 10
256.886204547961
 20
139.5769505475045
 30
0.0
  0
SPLINE
  5
5BA3
330
A
100
AcDbEntity
  8
MODEL
100
AcDbSpline
210
0.0
220
0.0
230
1.0
 70
     8
 71
     3
 72
    10
 73
     6
 74
     0
 42
0.000000001
 43
0.0000000001
 40
0.0
 40
0.0
 40
0.0
 40
0.0
 40
0.9758331777847223
 40
0.9758331777847223
 40
1.0
 40
1.0
 40
1.0
 40
1.0
 10
256.1684293229831
 20
139.5698006375553
 30
0.0
 10
255.7562386429
 20
139.5623084392362
 30
0.0
 10
255.2090160946431
 20
139.5506968208745
 30
0.0
 10
254.662641947518
 20
139.5378543070517
 30
0.0
 10
254.6494483281443
 20
139.5375434064049
 30
0.0
 10
254.6362675194956
 20
139.5372320274079
 30
0.0
  0
LINE
  5
5BA4
330
A
100
AcDbEntity
  8
MODEL
100
AcDbLine
 10
162.0679908192498
 20
139.5415822018645
 30
0.0
 11
160.3904289292497
 21
139.5818892430645
 31
0.0
  0
LINE
  5
5BA5
330
A
100
AcDbEntity
  8
MODEL
100
AcDbLine
 10
188.6543911034497
 20
139.0783247716645
 30
0.0
 11
187.8805252706496
 21
139.0862351984645
 31
0.0
  0
ARC
  5
5BA6
330
A
100
AcDbEntity
  8
MODEL
100
AcDbCircle
 10
230.7677800076498
 20
190.8108641080645
 30
0.0
 40
0.9999999999999982
100
AcDbArc
 50
3.000000000002342
 51
90.0
  0
ARC
  5
5BA7
330
A
100
AcDbEntity
  8
MODEL
100
AcDbCircle
 10
188.1130778112498
 20
190.8108641080645
 30
0.0
 40
1.000000000000001
100
AcDbArc
 50
90.0
 51
176.9999999999977
  0
ARC
  5
5BA8
330
A
100
AcDbEntity
  8
MODEL
100
AcDbCircle
 10
316.9609396828497
 20
145.7169986534645
 30
0.0
 40
0.2999999999999922
100
AcDbArc
 50
269.9999998431917
 51
29.09419940948261
  0
ARC
  5
5BA9
330
A
100
AcDbEntity
  8
MODEL
100
AcDbCircle
 10
101.9199181360497
 20
145.7169986534645
 30
0.0
 40
0.3
100
AcDbArc
 50
150.6933519698026
 51
270.0000001574163
  0
ARC
  5
5BAA
330
A
100
AcDbEntity
  8
MODEL
100
AcDbCircle
 10
311.0285552934498
 20
164.0209694912645
 30
0.0
 40
1.318795320456147
100
AcDbArc
 50
355.9464875537003
 51
84.60847033030434
  0
ARC
  5
5BAB
330
A
100
AcDbEntity
  8
MODEL
100
AcDbCircle
 10
107.8522484726496
 20
164.0210057888645
 30
0.0
 40
1.318745597903636
100
AcDbArc
 50
95.39417162579582
 51
184.0559908781005
  0
ARC
  5
5BAC
330
A
100
AcDbEntity
  8
MODEL
100
AcDbCircle
 10
64.78578872904961
 20
165.5064830836645
 30
0.0
 40
41.7768545392005
100
AcDbArc
 50
331.9509895963
 51
357.834569369
  0
ARC
  5
5BAD
330
A
100
AcDbEntity
  8
MODEL
100
AcDbCircle
 10
354.1331111932496
 20
165.5170474782645
 30
0.0
 40
41.81525381276206
100
AcDbArc
 50
182.1779102641999
 51
208.0373076840001
  0
ARC
  5
5BAE
330
A
100
AcDbEntity
  8
MODEL
100
AcDbCircle
 10
219.5595214798496
 20
-396.5967636255356
 30
0.0
 40
569.3342237123862
100
AcDbArc
 50
80.7424053339
 51
86.667309864
  0
ARC
  5
5BAF
330
A
100
AcDbEntity
  8
MODEL
100
AcDbCircle
 10
199.3211761302497
 20
-396.9454180459355
 30
0.0
 40
569.6794747087044
100
AcDbArc
 50
93.33142720680002
 51
99.251947693
  0
SPLINE
  5
5BB0
330
A
100
AcDbEntity
  8
MODEL
100
AcDbSpline
210
0.0
220
0.0
230
1.0
 70
     8
 71
     3
 72
    32
 73
    28
 74
     0
 42
0.000000001
 43
0.0000000001
 40
0.0
 40
0.0
 40
0.0
 40
0.0
 40
0.0768089884391653
 40
0.1478854735920486
 40
0.2128687440745554
 40
0.2715461344560146
 40
0.3238930844084728
 40
0.370049747370402
 40
0.4102712028029559
 40
0.4448728690802584
 40
0.4741837849357248
 40
0.4998779843721108
 40
0.5236374872468951
 40
0.5456486854054203
 40
0.5757904002964649
 40
0.6036135998814564
 40
0.633281165377069
 40
0.6659772954462405
 40
0.6861826443191148
 40
0.7119750736377208
 40
0.7435064575005577
 40
0.7810738276048609
 40
0.8157720692115465
 40
0.8548769087587488
 40
0.8986104539738509
 40
0.947050868101562
 40
1.0
 40
1.0
 40
1.0
 40
1.0
 10
252.6880431314479
 20
171.7923974206483
 30
0.0
 10
251.8403900029017
 20
171.8449344575014
 30
0.0
 10
250.4671062427957
 20
171.9340415617505
 30
0.0
 10
248.2930473342818
 20
172.1096139862749
 30
0.0
 10
246.3574884590022
 20
172.3343344075538
 30
0.0
 10
244.607874977084
 20
172.6159840356029
 30
0.0
 10
243.0631369598187
 20
172.9481637689175
 30
0.0
 10
241.7182941098862
 20
173.3181957932052
 30
0.0
 10
240.5673028670554
 20
173.7093490986922
 30
0.0
 10
239.5986794656727
 20
174.1037624091389
 30
0.0
 10
238.787823162551
 20
174.4888312016667
 30
0.0
 10
238.0935976826605
 20
174.865380389222
 30
0.0
 10
237.4803282361964
 20
175.2414988642647
 30
0.0
 10
236.8521906199327
 20
175.6738849356224
 30
0.0
 10
236.2233977331538
 20
176.1696568966654
 30
0.0
 10
235.5973287925618
 20
176.7419919454488
 30
0.0
 10
234.9779592430531
 20
177.3998864149918
 30
0.0
 10
234.4641485989579
 20
178.0541501135281
 30
0.0
 10
234.0238908086077
 20
178.7116343857369
 30
0.0
 10
233.6329102757132
 20
179.3865792720627
 30
0.0
 10
233.2206820479938
 20
180.2478878909111
 30
0.0
 10
232.8549906844004
 20
181.2267131366067
 30
0.0
 10
232.5506507594413
 20
182.3046440864625
 30
0.0
 10
232.3127678080949
 20
183.4643233230963
 30
0.0
 10
232.1327329422262
 20
184.7658966244649
 30
0.0
 10
232.0089156551784
 20
186.2476917064717
 30
0.0
 10
231.9574161332722
 20
187.1896183605821
 30
0.0
 10
231.928097525849
 20
187.7743279788603
 30
0.0
  0
SPLINE
  5
5BB1
330
A
100
AcDbEntity
  8
MODEL
100
AcDbSpline
210
0.0
220
0.0
230
1.0
 70
     8
 71
     3
 72
    33
 73
    29
 74
     0
 42
0.000000001
 43
0.0000000001
 40
0.0
 40
0.0
 40
0.0
 40
0.0
 40
0.0553469776649478
 40
0.1056625220006988
 40
0.150749535422291
 40
0.1907264308416696
 40
0.2258622860333696
 40
0.2564531204600676
 40
0.2827497215909488
 40
0.3049290574765561
 40
0.3282658794378616
 40
0.3466174348708717
 40
0.3645025167344496
 40
0.3821078065671208
 40
0.3994581029960928
 40
0.416573130234575
 40
0.435199516238462
 40
0.4583093427038153
 40
0.4861673291773385
 40
0.5190671695506024
 40
0.5573652816726851
 40
0.6014536073774064
 40
0.6517122133657524
 40
0.7084449324382193
 40
0.7718075010509579
 40
0.8417450542645813
 40
0.9179662696490757
 40
1.0
 40
1.0
 40
1.0
 40
1.0
 10
186.9530189830369
 20
187.7742687321647
 30
0.0
 10
186.9225323423717
 20
187.1640922783307
 30
0.0
 10
186.8687782485105
 20
186.1841939584825
 30
0.0
 10
186.736389245296
 20
184.6478397383951
 30
0.0
 10
186.5423237791291
 20
183.3089097758097
 30
0.0
 10
186.2871602250333
 20
182.1274285685845
 30
0.0
 10
185.9846887766852
 20
181.1099796408803
 30
0.0
 10
185.6542897188909
 20
180.2466676112791
 30
0.0
 10
185.3172313790234
 20
179.5276984081725
 30
0.0
 10
184.9689606641617
 20
178.8963222840639
 30
0.0
 10
184.6240537122036
 20
178.3555624771059
 30
0.0
 10
184.2731135579021
 20
177.8712805314725
 30
0.0
 10
183.9337752076959
 20
177.450541297595
 30
0.0
 10
183.5804660389152
 20
177.0548636785577
 30
0.0
 10
183.2137718927148
 20
176.6823491139429
 30
0.0
 10
182.8225274815653
 20
176.3204668332735
 30
0.0
 10
182.3703967367493
 20
175.9402000531787
 30
0.0
 10
181.8125753611483
 20
175.519381304169
 30
0.0
 10
181.1105115862212
 20
175.0542080564684
 30
0.0
 10
180.246065962256
 20
174.5618598843354
 30
0.0
 10
179.2016046497714
 20
174.0620146189056
 30
0.0
 10
177.9613182150839
 20
173.5757008791965
 30
0.0
 10
176.5127232935705
 20
173.1238941027498
 30
0.0
 10
174.8496271148452
 20
172.7255529280202
 30
0.0
 10
172.968148278425
 20
172.3946731335021
 30
0.0
 10
170.8910902687818
 20
172.1374246448229
 30
0.0
 10
168.5650233202131
 20
171.9436447974652
 30
0.0
 10
167.0978795646764
 20
171.8482364155788
 30
0.0
 10
166.1940824578329
 20
171.7924602458941
 30
0.0
  0
LINE
  5
5BB2
330
A
100
AcDbEntity
  8
MODEL
100
AcDbLine
 10
187.1144482764497
 20
190.8632000642645
 30
0.0
 11
186.9525892844496
 21
187.7747465114645
 31
0.0
  0
LINE
  5
5BB3
330
A
100
AcDbEntity
  8
MODEL
100
AcDbLine
 10
231.9282500112496
 20
187.7750999590645
 30
0.0
 11
231.7664095424497
 21
190.8632000642645
 31
0.0
  0
LINE
  5
5BB4
330
A
100
AcDbEntity
  8
MODEL
100
AcDbLine
 10
188.1130778112498
 20
191.8108641080645
 30
0.0
 11
230.7677800076498
 21
191.8108641080645
 31
0.0
  0
LINE
  5
5BB5
330
A
100
AcDbEntity
  8
MODEL
100
AcDbLine
 10
301.3574532928498
 20
145.4169986534645
 30
0.0
 11
316.9609392862498
 21
145.4169986534645
 31
0.0
  0
LINE
  5
5BB6
330
A
100
AcDbEntity
  8
MODEL
100
AcDbLine
 10
117.5239211916497
 20
145.4169986534645
 30
0.0
 11
101.9199185338497
 21
145.4169986534645
 31
0.0
  0
LINE
  5
5BB7
330
A
100
AcDbEntity
  8
MODEL
100
AcDbLine
 10
136.3608607710497
 20
145.4169986534645
 30
0.0
 11
117.5239211916497
 21
145.4169986534645
 31
0.0
  0
LINE
  5
5BB8
330
A
100
AcDbEntity
  8
MODEL
100
AcDbLine
 10
282.5203154550496
 20
145.4169986534645
 30
0.0
 11
136.3608607710497
 21
145.4169986534645
 31
0.0
  0
LINE
  5
5BB9
330
A
100
AcDbEntity
  8
MODEL
100
AcDbLine
 10
301.3574532928498
 20
145.4169986534645
 30
0.0
 11
282.5203154550496
 21
145.4169986534645
 31
0.0
  0
SPLINE
  5
5BBA
330
A
100
AcDbEntity
  8
MODEL
100
AcDbSpline
210
0.0
220
0.0
230
1.0
 70
     8
 71
     3
 72
     8
 73
     4
 74
     0
 42
0.000000001
 43
0.0000000001
 40
0.0
 40
0.0
 40
0.0
 40
0.0
 40
1.0
 40
1.0
 40
1.0
 40
1.0
 10
166.1941709774111
 20
171.792422797556
 30
0.0
 10
166.1941160053383
 20
171.7924226125819
 30
0.0
 10
166.1940852863439
 20
171.7924224099344
 30
0.0
 10
166.1940788180533
 20
171.7924221894334
 30
0.0
  0
ARC
  5
5BBB
330
A
100
AcDbEntity
  8
MODEL
100
AcDbCircle
 10
209.4404289094497
 20
194.0169986534645
 30
0.0
 40
14.0
100
AcDbArc
 50
22.68809115090014
 51
34.09339081140063
  0
ARC
  5
5BBC
330
A
100
AcDbEntity
  8
MODEL
100
AcDbCircle
 10
209.4404289094497
 20
194.0169986534645
 30
0.0
 40
14.0
100
AcDbArc
 50
145.9066091885994
 51
157.3119088490998
  0
ARC
  5
5BBD
330
A
100
AcDbEntity
  8
MODEL
100
AcDbCircle
 10
105.4623846718497
 20
145.6669986534645
 30
0.0
 40
0.4999999999999994
100
AcDbArc
 50
270.0
 51
329.4357410260999
  0
ARC
  5
5BBE
330
A
100
AcDbEntity
  8
MODEL
100
AcDbCircle
 10
111.9400686824498
 20
145.6669986534645
 30
0.0
 40
0.5000000000000004
100
AcDbArc
 50
270.0
 51
335.0485067289919
  0
ARC
  5
5BBF
330
A
100
AcDbEntity
  8
MODEL
100
AcDbCircle
 10
313.4184731470497
 20
145.6669986534645
 30
0.0
 40
0.5000000000000004
100
AcDbArc
 50
210.6831529867115
 51
270.0
  0
ARC
  5
5BC0
330
A
100
AcDbEntity
  8
MODEL
100
AcDbCircle
 10
306.9407891366496
 20
145.6669986534645
 30
0.0
 40
0.4999999999999954
100
AcDbArc
 50
204.8268994826008
 51
270.0
  0
ARC
  5
5BC1
330
A
100
AcDbEntity
  8
MODEL
100
AcDbCircle
 10
317.2978182286498
 20
144.8669986690645
 30
0.0
 40
0.2999999844711874
100
AcDbArc
 50
29.04307380702343
 51
90.00353584549937
  0
ARC
  5
5BC2
330
A
100
AcDbEntity
  8
MODEL
100
AcDbCircle
 10
101.5830397694498
 20
144.8669986692645
 30
0.0
 40
0.2999999797886318
100
AcDbArc
 50
89.99639572839642
 51
150.8585667107025
  0
ARC
  5
5BC3
330
A
100
AcDbEntity
  8
MODEL
100
AcDbCircle
 10
99.0157560556496
 20
140.4629669036645
 30
0.0
 40
0.299999999167032
100
AcDbArc
 50
144.6891260914891
 51
270.0035939626254
  0
ARC
  5
5BC4
330
A
100
AcDbEntity
  8
MODEL
100
AcDbCircle
 10
319.8651001576496
 20
140.4629669034645
 30
0.0
 40
0.3000000137467462
100
AcDbArc
 50
269.995795042305
 51
35.1180913007079
  0
ARC
  5
5BC5
330
A
100
AcDbEntity
  8
MODEL
100
AcDbCircle
 10
48.3859814310498
 20
172.9415616498645
 30
0.0
 40
59.85067603413784
100
AcDbArc
 50
327.3319041664
 51
332.2066225509
  0
ARC
  5
5BC6
330
A
100
AcDbEntity
  8
MODEL
100
AcDbCircle
 10
370.2269608276498
 20
172.7921220730645
 30
0.0
 40
59.54398743788472
100
AcDbArc
 50
207.7860699074998
 51
212.6863413937999
  0
SPLINE
  5
5BC7
330
A
100
AcDbEntity
  8
MODEL
100
AcDbSpline
210
0.0
220
0.0
230
1.0
 70
     8
 71
     3
 72
    10
 73
     6
 74
     0
 42
0.000000001
 43
0.0000000001
 40
0.0
 40
0.0
 40
0.0
 40
0.0
 40
0.5
 40
0.5
 40
1.0
 40
1.0
 40
1.0
 40
1.0
 10
160.7629160589551
 20
145.1669986534529
 30
0.0
 10
160.7226296661098
 20
145.1669986534529
 30
0.0
 10
160.6817656536958
 20
145.1870058065954
 30
0.0
 10
160.6073652050037
 20
145.2692570711947
 30
0.0
 10
160.5734396819392
 20
145.3314986004659
 30
0.0
 10
160.5490821581867
 20
145.4169986534528
 30
0.0
  0
SPLINE
  5
5BC8
330
A
100
AcDbEntity
  8
MODEL
100
AcDbSpline
210
0.0
220
0.0
230
1.0
 70
     8
 71
     3
 72
    10
 73
     6
 74
     0
 42
0.000000001
 43
0.0000000001
 40
0.0
 40
0.0
 40
0.0
 40
0.0
 40
0.5
 40
0.5
 40
1.0
 40
1.0
 40
1.0
 40
1.0
 10
258.117941760035
 20
145.166998653453
 30
0.0
 10
258.1582281528798
 20
145.166998653453
 30
0.0
 10
258.199092165294
 20
145.1870058065955
 30
0.0
 10
258.2734926139864
 20
145.2692570711947
 30
0.0
 10
258.3074181370506
 20
145.3314986004659
 30
0.0
 10
258.3317756608034
 20
145.4169986534529
 30
0.0
  0
SPLINE
  5
5BC9
330
A
100
AcDbEntity
  8
MODEL
100
AcDbSpline
210
0.0
220
0.0
230
1.0
 70
    12
 71
     2
 72
     6
 73
     3
 74
     0
 42
0.000000001
 43
0.0000000001
 40
0.0
 40
0.0
 40
0.0
 40
1.0
 40
1.0
 40
1.0
 10
258.124777747949
 20
145.1669986534529
 30
0.0
 41
1.0
 10
258.3784703962313
 20
145.1669986534529
 30
0.0
 41
0.8660254037844919
 10
258.505316720372
 20
145.4169986534529
 30
0.0
 41
1.0
  0
SPLINE
  5
5BCA
330
A
100
AcDbEntity
  8
MODEL
100
AcDbSpline
210
0.0
220
0.0
230
1.0
 70
    12
 71
     2
 72
     6
 73
     3
 74
     0
 42
0.000000001
 43
0.0000000001
 40
0.0
 40
0.0
 40
0.0
 40
1.0
 40
1.0
 40
1.0
 10
259.1114165347836
 20
145.4118536192276
 30
0.0
 41
1.0
 10
259.1587173156727
 20
145.1669986534529
 30
0.0
 41
0.8689908136604516
 10
259.2514112241248
 20
145.1669986534529
 30
0.0
 41
1.0
  0
SPLINE
  5
5BCB
330
A
100
AcDbEntity
  8
MODEL
100
AcDbSpline
210
0.0
220
0.0
230
1.0
 70
    12
 71
     2
 72
     6
 73
     3
 74
     0
 42
0.000000001
 43
0.0000000001
 40
0.0
 40
0.0
 40
0.0
 40
1.0
 40
1.0
 40
1.0
 10
306.4740495738612
 20
145.4118411668403
 30
0.0
 41
1.0
 10
306.6114230947211
 20
145.1669986534531
 30
0.0
 41
0.8689979784858006
 10
306.8806166870455
 20
145.166998653453
 30
0.0
 41
1.0
  0
SPLINE
  5
5BCC
330
A
100
AcDbEntity
  8
MODEL
100
AcDbSpline
210
0.0
220
0.0
230
1.0
 70
    12
 71
     2
 72
     6
 73
     3
 74
     0
 42
0.000000001
 43
0.0000000001
 40
0.0
 40
0.0
 40
0.0
 40
1.0
 40
1.0
 40
1.0
 10
258.505316720372
 20
145.4169986534529
 30
0.0
 41
1.0
 10
258.5793547596757
 20
145.3815402966403
 30
0.0
 41
0.9418951903102211
 10
258.7651432168449
 20
145.4105004425593
 30
0.0
 41
1.0
  0
LINE
  5
5BCD
330
A
100
AcDbEntity
  8
MODEL
100
AcDbLine
 10
136.1154820082496
 20
145.1669986534645
 30
0.0
 11
282.7666142020497
 21
145.1669986534645
 31
0.0
  0
LINE
  5
5BCE
330
A
100
AcDbEntity
  8
MODEL
100
AcDbLine
 10
117.2501069302497
 20
145.1669986534645
 30
0.0
 11
136.1154820082496
 21
145.1669986534645
 31
0.0
  0
LINE
  5
5BCF
330
A
100
AcDbEntity
  8
MODEL
100
AcDbLine
 10
282.7666142020497
 20
145.1669986534645
 30
0.0
 11
301.6312007004498
 21
145.1669986534645
 31
0.0
  0
LINE
  5
5BD0
330
A
100
AcDbEntity
  8
MODEL
100
AcDbLine
 10
101.5830308434496
 20
145.1669986534645
 30
0.0
 11
117.2501069302497
 21
145.1669986534645
 31
0.0
  0
LINE
  5
5BD1
330
A
100
AcDbEntity
  8
MODEL
100
AcDbLine
 10
317.2978272586498
 20
145.1669986534645
 30
0.0
 11
301.6312007004498
 21
145.1669986534645
 31
0.0
  0
LINE
  5
5BD2
330
A
100
AcDbEntity
  8
MODEL
100
AcDbLine
 10
99.01574760624965
 20
140.1629669042645
 30
0.0
 11
115.2067704454497
 21
140.1629669042645
 31
0.0
  0
LINE
  5
5BD3
330
A
100
AcDbEntity
  8
MODEL
100
AcDbLine
 10
134.1544868576497
 20
140.1629669042645
 30
0.0
 11
115.2067704454497
 21
140.1629669042645
 31
0.0
  0
LINE
  5
5BD4
330
A
100
AcDbEntity
  8
MODEL
100
AcDbLine
 10
284.7289622396498
 20
140.1629669042645
 30
0.0
 11
134.1544868576497
 21
140.1629669042645
 31
0.0
  0
LINE
  5
5BD5
330
A
100
AcDbEntity
  8
MODEL
100
AcDbLine
 10
303.6746338810498
 20
140.1629669042645
 30
0.0
 11
284.7289622396498
 21
140.1629669042645
 31
0.0
  0
LINE
  5
5BD6
330
A
100
AcDbEntity
  8
MODEL
100
AcDbLine
 10
303.6746338810498
 20
140.1629669042645
 30
0.0
 11
319.8651113692496
 21
140.1629669042645
 31
0.0
  0
LINE
  5
5BD7
330
A
100
AcDbEntity
  8
MODEL
100
AcDbLine
 10
201.4723659234497
 20
138.7154370072645
 30
0.0
 11
201.4753870626497
 21
139.0616252640645
 31
0.0
  0
ARC
  5
5BD8
330
A
100
AcDbEntity
  8
MODEL
100
AcDbCircle
 10
199.0084309724497
 20
138.7293994640645
 30
0.0
 40
1.599999999999999
100
AcDbArc
 50
227.3001461273005
 51
270.0
  0
ARC
  5
5BD9
330
A
100
AcDbEntity
  8
MODEL
100
AcDbCircle
 10
199.8724268464497
 20
138.7293994640645
 30
0.0
 40
1.6
100
AcDbArc
 50
270.0
 51
359.4999999999999
  0
ARC
  5
5BDA
330
A
100
AcDbEntity
  8
MODEL
100
AcDbCircle
 10
191.6879228968497
 20
138.7293994640645
 30
0.0
 40
1.599999999999999
100
AcDbArc
 50
190.8069228748981
 51
270.0
  0
ARC
  5
5BDB
330
A
100
AcDbEntity
  8
MODEL
100
AcDbCircle
 10
192.5519187708497
 20
138.7293994640645
 30
0.0
 40
1.6
100
AcDbArc
 50
270.0
 51
288.8536865608967
  0
ARC
  5
5BDC
330
A
100
AcDbEntity
  8
MODEL
100
AcDbCircle
 10
189.0084309724497
 20
138.7293994640645
 30
0.0
 40
1.599999999999999
100
AcDbArc
 50
202.6816603201015
 51
270.0
  0
ARC
  5
5BDD
330
A
100
AcDbEntity
  8
MODEL
100
AcDbCircle
 10
189.8724268464497
 20
138.7293994640645
 30
0.0
 40
1.6
100
AcDbArc
 50
270.0
 51
304.5651184188009
  0
ARC
  5
5BDE
330
A
100
AcDbEntity
  8
MODEL
100
AcDbCircle
 10
229.0084309724497
 20
138.7293994640645
 30
0.0
 40
1.599999999999999
100
AcDbArc
 50
235.4348815811991
 51
270.0
  0
ARC
  5
5BDF
330
A
100
AcDbEntity
  8
MODEL
100
AcDbCircle
 10
229.8724268464497
 20
138.7293994640645
 30
0.0
 40
1.6
100
AcDbArc
 50
270.0
 51
337.2751089582006
  0
ARC
  5
5BE0
330
A
100
AcDbEntity
  8
MODEL
100
AcDbCircle
 10
226.3289390482497
 20
138.7293994640645
 30
0.0
 40
1.600000000000001
100
AcDbArc
 50
249.9656837770009
 51
270.0
  0
ARC
  5
5BE1
330
A
100
AcDbEntity
  8
MODEL
100
AcDbCircle
 10
227.1929349222497
 20
138.7293994640645
 30
0.0
 40
1.6
100
AcDbArc
 50
270.0
 51
349.1930771250978
  0
LINE
  5
5BE2
330
A
100
AcDbEntity
  8
MODEL
100
AcDbLine
 10
217.4054816642498
 20
139.0603753458645
 30
0.0
 11
217.4084918956497
 21
138.7154370072645
 31
0.0
  0
ARC
  5
5BE3
330
A
100
AcDbEntity
  8
MODEL
100
AcDbCircle
 10
219.0084309724497
 20
138.7293994640645
 30
0.0
 40
1.599999999999999
100
AcDbArc
 50
180.5000000000001
 51
270.0
  0
ARC
  5
5BE4
330
A
100
AcDbEntity
  8
MODEL
100
AcDbCircle
 10
219.8724268464497
 20
138.7293994640645
 30
0.0
 40
1.6
100
AcDbArc
 50
270.0
 51
312.2129135953999
  0
ARC
  5
5BE5
330
A
100
AcDbEntity
  8
MODEL
100
AcDbCircle
 10
209.0084309724497
 20
138.7293994640645
 30
0.0
 40
1.6
100
AcDbArc
 50
180.5000000000001
 51
270.0
  0
ARC
  5
5BE6
330
A
100
AcDbEntity
  8
MODEL
100
AcDbCircle
 10
209.8724268464497
 20
138.7293994640645
 30
0.0
 40
1.6
100
AcDbArc
 50
270.0
 51
359.4999999999999
  0
LINE
  5
5BE7
330
A
100
AcDbEntity
  8
MODEL
100
AcDbLine
 10
211.4723659234497
 20
138.7154370072645
 30
0.0
 11
211.4754667888498
 21
139.0707609834645
 31
0.0
  0
LINE
  5
5BE8
330
A
100
AcDbEntity
  8
MODEL
100
AcDbLine
 10
207.4054014536497
 20
139.0695665820645
 30
0.0
 11
207.4084918956497
 21
138.7154370072645
 31
0.0
  0
ARC
  5
5BE9
330
A
100
AcDbEntity
  8
MODEL
100
AcDbCircle
 10
193.0539182574497
 20
138.8263895886645
 30
0.0
 40
1.597447219408202
100
AcDbArc
 50
270.1781310317016
 51
326.4874182431981
  0
ARC
  5
5BEA
330
A
100
AcDbEntity
  8
MODEL
100
AcDbCircle
 10
192.3228176754498
 20
138.8166451388645
 30
0.0
 40
1.587663292598008
100
AcDbArc
 50
193.3713849680001
 51
270.0006478225003
  0
LINE
  5
5BEB
330
A
100
AcDbEntity
  8
MODEL
100
AcDbLine
 10
182.3909242862497
 20
138.8147246702645
 30
0.0
 11
182.3945328010496
 21
139.2282195128645
 31
0.0
  0
ARC
  5
5BEC
330
A
100
AcDbEntity
  8
MODEL
100
AcDbCircle
 10
180.7948272210498
 20
138.8175942280645
 30
0.0
 40
1.58856600712428
100
AcDbArc
 50
270.8879761874942
 51
359.9113748057995
  0
ARC
  5
5BED
330
A
100
AcDbEntity
  8
MODEL
100
AcDbCircle
 10
180.0618770746497
 20
138.8169845234645
 30
0.0
 40
1.587946689948597
100
AcDbArc
 50
213.9080431440038
 51
269.6863146709009
  0
LINE
  5
5BEE
330
A
100
AcDbEntity
  8
MODEL
100
AcDbLine
 10
173.9770498108497
 20
138.9330598122645
 30
0.0
 11
173.9780818082496
 21
138.8148046160645
 31
0.0
  0
ARC
  5
5BEF
330
A
100
AcDbEntity
  8
MODEL
100
AcDbCircle
 10
175.5780189898497
 20
138.8289860368645
 30
0.0
 40
1.599999931698557
100
AcDbArc
 50
180.3633507721001
 51
269.9965239026939
  0
ARC
  5
5BF0
330
A
100
AcDbEntity
  8
MODEL
100
AcDbCircle
 10
176.3028381568498
 20
138.8289165128645
 30
0.0
 40
1.599999641484716
100
AcDbArc
 50
269.9923283705957
 51
321.6074965814961
  0
ARC
  5
5BF1
330
A
100
AcDbEntity
  8
MODEL
100
AcDbCircle
 10
243.3028388292497
 20
138.8289860360645
 30
0.0
 40
1.599999998491989
100
AcDbArc
 50
270.0034388928988
 51
359.3709527829996
  0
ARC
  5
5BF2
330
A
100
AcDbEntity
  8
MODEL
100
AcDbCircle
 10
242.5780196622496
 20
138.8289165126645
 30
0.0
 40
1.599999993864143
100
AcDbArc
 50
217.9270100067001
 51
270.0076716294001
  0
LINE
  5
5BF3
330
A
100
AcDbEntity
  8
MODEL
100
AcDbLine
 10
236.4863264360498
 20
139.2280570032645
 30
0.0
 11
236.4899335880497
 21
138.8147183406645
 31
0.0
  0
ARC
  5
5BF4
330
A
100
AcDbEntity
  8
MODEL
100
AcDbCircle
 10
238.0875582106497
 20
138.8235347280645
 30
0.0
 40
1.594600231256763
100
AcDbArc
 50
180.3825555753001
 51
269.7600538275945
  0
ARC
  5
5BF5
330
A
100
AcDbEntity
  8
MODEL
100
AcDbCircle
 10
238.8181065138498
 20
138.8210444056645
 30
0.0
 40
1.592055307149568
100
AcDbArc
 50
270.0376568749992
 51
325.8903395460962
  0
ARC
  5
5BF6
330
A
100
AcDbEntity
  8
MODEL
100
AcDbCircle
 10
225.8234375236497
 20
138.8165150930645
 30
0.0
 40
1.587549183660195
100
AcDbArc
 50
213.2394694179016
 51
269.7402551135016
  0
ARC
  5
5BF7
330
A
100
AcDbEntity
  8
MODEL
100
AcDbCircle
 10
226.5579957226497
 20
138.8160258746645
 30
0.0
 40
1.58699766491461
100
AcDbArc
 50
270.4285401614029
 51
346.6526827043002
  0
ARC
  5
5BF8
330
A
100
AcDbEntity
  8
MODEL
100
AcDbCircle
 10
209.8038360812496
 20
138.8255907616645
 30
0.0
 40
1.596617990087782
100
AcDbArc
 50
270.6467763697021
 51
359.6754034668
  0
ARC
  5
5BF9
330
A
100
AcDbEntity
  8
MODEL
100
AcDbCircle
 10
209.0727495672496
 20
138.8161223048645
 30
0.0
 40
1.587177752062521
100
AcDbArc
 50
180.0448331436996
 51
270.206784761002
  0
LINE
  5
5BFA
330
A
100
AcDbEntity
  8
MODEL
100
AcDbLine
 10
211.4027758536496
 20
138.8147866218645
 30
0.0
 11
211.4053944272497
 21
139.1148454356645
 31
0.0
  0
LINE
  5
5BFB
330
A
100
AcDbEntity
  8
MODEL
100
AcDbLine
 10
207.4758352938496
 20
139.0722296746645
 30
0.0
 11
207.4780801528497
 21
138.8149943022645
 31
0.0
  0
LINE
  5
5BFC
330
A
100
AcDbEntity
  8
MODEL
100
AcDbLine
 10
199.2409150400496
 20
139.1149578444645
 30
0.0
 11
199.2445413004497
 21
139.5304861330645
 31
0.0
  0
ARC
  5
5BFD
330
A
100
AcDbEntity
  8
MODEL
100
AcDbCircle
 10
197.6429490662496
 20
139.1226479192645
 30
0.0
 40
1.593622471416283
100
AcDbArc
 50
270.5363540063038
 51
359.7357803497997
  0
ARC
  5
5BFE
330
A
100
AcDbEntity
  8
MODEL
100
AcDbCircle
 10
196.9058782796498
 20
139.1161885592645
 30
0.0
 40
1.587132986762337
100
AcDbArc
 50
200.5966566213982
 51
269.8292924229015
  0
LINE
  5
5BFF
330
A
100
AcDbEntity
  8
MODEL
100
AcDbLine
 10
187.9054096962496
 20
139.1149047190645
 30
0.0
 11
187.9070961526496
 21
139.3081534818645
 31
0.0
  0
LINE
  5
5C00
330
A
100
AcDbEntity
  8
MODEL
100
AcDbLine
 10
183.9715876148497
 20
139.5572751082645
 30
0.0
 11
183.9754486870496
 21
139.1148400552645
 31
0.0
  0
ARC
  5
5C01
330
A
100
AcDbEntity
  8
MODEL
100
AcDbCircle
 10
186.3090954084497
 20
139.1194020160645
 30
0.0
 40
1.590419550781746
100
AcDbArc
 50
270.0203785079983
 51
359.8516269832999
  0
ARC
  5
5C02
330
A
100
AcDbEntity
  8
MODEL
100
AcDbCircle
 10
185.5697652382497
 20
139.1161196856645
 30
0.0
 40
1.587088745298876
100
AcDbArc
 50
180.0611720335
 51
270.2043651899966
  0
LINE
  5
5C03
330
A
100
AcDbEntity
  8
MODEL
100
AcDbLine
 10
174.2396887264496
 20
139.3143669390645
 30
0.0
 11
174.2414296796497
 21
139.1148734652645
 31
0.0
  0
ARC
  5
5C04
330
A
100
AcDbEntity
  8
MODEL
100
AcDbCircle
 10
176.5717901376496
 20
139.1281581846645
 30
0.0
 40
1.599191765567789
100
AcDbArc
 50
270.6249954192061
 51
325.732765904405
  0
ARC
  5
5C05
330
A
100
AcDbEntity
  8
MODEL
100
AcDbCircle
 10
175.8366573404497
 20
139.1177525018645
 30
0.0
 40
1.588619452676629
100
AcDbArc
 50
180.1251003905
 51
269.3424776176017
  0
LINE
  5
5C06
330
A
100
AcDbEntity
  8
MODEL
100
AcDbLine
 10
170.7022143162498
 20
139.1147440520645
 30
0.0
 11
170.7029830770497
 21
139.2028353034645
 31
0.0
  0
ARC
  5
5C07
330
A
100
AcDbEntity
  8
MODEL
100
AcDbCircle
 10
169.1041992920497
 20
139.1244498566645
 30
0.0
 40
1.59545839132791
100
AcDbArc
 50
270.8989406003009
 51
359.5889390456003
  0
ARC
  5
5C08
330
A
100
AcDbEntity
  8
MODEL
100
AcDbCircle
 10
168.3710398618497
 20
139.1249520056645
 30
0.0
 40
1.595884242719805
100
AcDbArc
 50
227.3738337154028
 51
269.7000877778008
  0
LINE
  5
5C09
330
A
100
AcDbEntity
  8
MODEL
100
AcDbLine
 10
162.0728886280498
 20
139.5784913380645
 30
0.0
 11
162.0769334960497
 21
139.1149953710645
 31
0.0
  0
ARC
  5
5C0A
330
A
100
AcDbEntity
  8
MODEL
100
AcDbCircle
 10
164.4073731508498
 20
139.1268933690645
 30
0.0
 40
1.597947246466362
100
AcDbArc
 50
270.6938904090966
 51
319.1504117170973
  0
ARC
  5
5C0B
330
A
100
AcDbEntity
  8
MODEL
100
AcDbCircle
 10
163.6724376962496
 20
139.1181183318645
 30
0.0
 40
1.589064617091695
100
AcDbArc
 50
180.1021063227995
 51
270.1374088493025
  0
LINE
  5
5C0C
330
A
100
AcDbEntity
  8
MODEL
100
AcDbLine
 10
160.4713898342496
 20
139.5799385258645
 30
0.0
 11
160.4754483598498
 21
139.1148775584645
 31
0.0
  0
ARC
  5
5C0D
330
A
100
AcDbEntity
  8
MODEL
100
AcDbCircle
 10
162.0753855438496
 20
139.1290589522645
 30
0.0
 40
1.599999921411693
100
AcDbArc
 50
180.3633763334003
 51
269.9968534148055
  0
ARC
  5
5C0E
330
A
100
AcDbEntity
  8
MODEL
100
AcDbCircle
 10
162.8054710570497
 20
139.1289264282645
 30
0.0
 40
1.599999651970276
100
AcDbArc
 50
269.9809517714015
 51
284.9348468657008
  0
LINE
  5
5C0F
330
A
100
AcDbEntity
  8
MODEL
100
AcDbLine
 10
234.9054091318498
 20
139.1148400552645
 30
0.0
 11
234.9054096992496
 21
139.1149050542645
 31
0.0
  0
LINE
  5
5C10
330
A
100
AcDbEntity
  8
MODEL
100
AcDbLine
 10
258.4054094592497
 20
139.1148775584645
 30
0.0
 11
258.4094679846497
 21
139.5799385098645
 31
0.0
  0
ARC
  5
5C11
330
A
100
AcDbEntity
  8
MODEL
100
AcDbCircle
 10
256.8054722750497
 20
139.1290589516645
 30
0.0
 40
1.59999999826585
100
AcDbArc
 50
270.002989904996
 51
359.3709584968004
  0
ARC
  5
5C12
330
A
100
AcDbEntity
  8
MODEL
100
AcDbCircle
 10
256.0753867618497
 20
139.1289264282645
 30
0.0
 40
1.599999994187472
100
AcDbArc
 50
255.7442858098037
 51
270.0190482286035
  0
LINE
  5
5C13
330
A
100
AcDbEntity
  8
MODEL
100
AcDbLine
 10
256.8039231100498
 20
139.1148563762645
 30
0.0
 11
256.8079701596497
 21
139.5786023368645
 31
0.0
  0
ARC
  5
5C14
330
A
100
AcDbEntity
  8
MODEL
100
AcDbCircle
 10
254.4730120510497
 20
139.1263403408645
 30
0.0
 40
1.597410732393843
100
AcDbArc
 50
220.8003879016002
 51
270.0029681384938
  0
ARC
  5
5C15
330
A
100
AcDbEntity
  8
MODEL
100
AcDbCircle
 10
255.2082944100497
 20
139.1174371498645
 30
0.0
 40
1.588348777300957
100
AcDbArc
 50
270.2319744024005
 51
359.9270452127001
  0
LINE
  5
5C16
330
A
100
AcDbEntity
  8
MODEL
100
AcDbLine
 10
248.1778871034497
 20
139.2014188266645
 30
0.0
 11
248.1786435564496
 21
139.1147379060645
 31
0.0
  0
ARC
  5
5C17
330
A
100
AcDbEntity
  8
MODEL
100
AcDbCircle
 10
249.7783989302496
 20
139.1282473542645
 30
0.0
 40
1.599305021096403
100
AcDbArc
 50
180.3971099783002
 51
269.7374481995062
  0
ARC
  5
5C18
330
A
100
AcDbEntity
  8
MODEL
100
AcDbCircle
 10
250.5123649012497
 20
139.1198732186645
 30
0.0
 40
1.590818433196339
100
AcDbArc
 50
269.9182224711009
 51
312.5669013153947
  0
LINE
  5
5C19
330
A
100
AcDbEntity
  8
MODEL
100
AcDbLine
 10
244.6394299042496
 20
139.1150757006645
 30
0.0
 11
244.6411001138496
 21
139.3064627836645
 31
0.0
  0
ARC
  5
5C1A
330
A
100
AcDbEntity
  8
MODEL
100
AcDbCircle
 10
242.3043486520497
 20
139.1161601504645
 30
0.0
 40
1.587095986569351
100
AcDbArc
 50
213.8879130924941
 51
268.9743914830022
  0
ARC
  5
5C1B
330
A
100
AcDbEntity
  8
MODEL
100
AcDbCircle
 10
243.0397914428496
 20
139.1277361638645
 30
0.0
 40
1.598677891905889
100
AcDbArc
 50
270.6147635373036
 51
359.5483710116998
  0
LINE
  5
5C1C
330
A
100
AcDbEntity
  8
MODEL
100
AcDbLine
 10
234.9054096992496
 20
139.1149050542645
 30
0.0
 11
234.9092668442496
 21
139.5568901024645
 31
0.0
  0
LINE
  5
5C1D
330
A
100
AcDbEntity
  8
MODEL
100
AcDbLine
 10
230.9737790034497
 20
139.3061668378645
 30
0.0
 11
230.9754477224498
 21
139.1149505900645
 31
0.0
  0
ARC
  5
5C1E
330
A
100
AcDbEntity
  8
MODEL
100
AcDbCircle
 10
232.5743096338498
 20
139.1254922610645
 30
0.0
 40
1.596506797493651
100
AcDbArc
 50
180.3638646630996
 51
269.6476700879946
  0
ARC
  5
5C1F
330
A
100
AcDbEntity
  8
MODEL
100
AcDbCircle
 10
233.3080884636496
 20
139.1208056300645
 30
0.0
 40
1.59174198823362
100
AcDbArc
 50
270.3841686167017
 51
359.8158296834004
  0
LINE
  5
5C20
330
A
100
AcDbEntity
  8
MODEL
100
AcDbLine
 10
219.6363187172498
 20
139.5302341794645
 30
0.0
 11
219.6399431640497
 21
139.1149137180645
 31
0.0
  0
ARC
  5
5C21
330
A
100
AcDbEntity
  8
MODEL
100
AcDbCircle
 10
221.2342238162497
 20
139.1154467840645
 30
0.0
 40
1.586451878758948
100
AcDbArc
 50
180.0161346430995
 51
270.1106016758991
  0
ARC
  5
5C22
330
A
100
AcDbEntity
  8
MODEL
100
AcDbCircle
 10
221.9751470666498
 20
139.1168664498645
 30
0.0
 40
1.5878369658833
100
AcDbArc
 50
269.8937041254964
 51
339.5241782058987
  0
ARC
  5
5C23
330
A
100
AcDbEntity
  8
MODEL
100
AcDbCircle
 10
209.8071357418497
 20
139.1253578300645
 30
0.0
 40
1.596311666059212
100
AcDbArc
 50
270.5660742312953
 51
359.5626759383999
  0
ARC
  5
5C24
330
A
100
AcDbEntity
  8
MODEL
100
AcDbCircle
 10
209.0712094198497
 20
139.1184453138645
 30
0.0
 40
1.58943517143818
100
AcDbArc
 50
180.1310210513995
 51
270.1154070369006
  0
LINE
  5
5C25
330
A
100
AcDbEntity
  8
MODEL
100
AcDbLine
 10
211.4054091778497
 20
139.1148453068645
 30
0.0
 11
211.4089005430498
 21
139.5149161474645
 31
0.0
  0
LINE
  5
5C26
330
A
100
AcDbEntity
  8
MODEL
100
AcDbLine
 10
207.4719554574498
 20
139.5151245198645
 30
0.0
 11
207.4754468276498
 21
139.1150531170645
 31
0.0
  0
LINE
  5
5C27
330
A
100
AcDbEntity
  8
MODEL
100
AcDbLine
 10
195.7503344830496
 20
139.5150215918645
 30
0.0
 11
195.7536659374497
 21
139.8967684742645
 31
0.0
  0
ARC
  5
5C28
330
A
100
AcDbEntity
  8
MODEL
100
AcDbCircle
 10
194.1527350602497
 20
139.5225349638645
 30
0.0
 40
1.593456945237685
100
AcDbArc
 50
270.3208969432961
 51
359.7430240087999
  0
ARC
  5
5C29
330
A
100
AcDbEntity
  8
MODEL
100
AcDbCircle
 10
193.4077299858496
 20
139.5157208908645
 30
0.0
 40
1.586599246541337
100
AcDbArc
 50
196.9769040451004
 51
269.9606186063017
  0
LINE
  5
5C2A
330
A
100
AcDbEntity
  8
MODEL
100
AcDbLine
 10
181.1588861628496
 20
139.5149587132645
 30
0.0
 11
181.1619501568497
 21
139.8660576320645
 31
0.0
  0
LINE
  5
5C2B
330
A
100
AcDbEntity
  8
MODEL
100
AcDbLine
 10
177.2184262640498
 20
139.9212203978645
 30
0.0
 11
177.2219720218496
 21
139.5149167882645
 31
0.0
  0
ARC
  5
5C2C
330
A
100
AcDbEntity
  8
MODEL
100
AcDbCircle
 10
179.5590470410497
 20
139.5286181852645
 30
0.0
 40
1.599592480071926
100
AcDbArc
 50
270.0668168643012
 51
359.5532478785004
  0
ARC
  5
5C2D
330
A
100
AcDbEntity
  8
MODEL
100
AcDbCircle
 10
178.8170110710497
 20
139.5171189382645
 30
0.0
 40
1.588039826980134
100
AcDbArc
 50
180.0505615736002
 51
270.3830280206012
  0
LINE
  5
5C2E
330
A
100
AcDbEntity
  8
MODEL
100
AcDbLine
 10
168.6289246472496
 20
139.5148150300645
 30
0.0
 11
168.6317931282498
 21
139.8435103898645
 31
0.0
  0
ARC
  5
5C2F
330
A
100
AcDbEntity
  8
MODEL
100
AcDbCircle
 10
167.0341850708497
 20
139.5158609542645
 30
0.0
 40
1.586808024737424
100
AcDbArc
 50
270.4506163951992
 51
359.9622986399003
  0
ARC
  5
5C30
330
A
100
AcDbEntity
  8
MODEL
100
AcDbCircle
 10
166.2910708220496
 20
139.5270669298645
 30
0.0
 40
1.597985997048323
100
AcDbArc
 50
190.3557267632008
 51
270.4109676100049
  0
LINE
  5
5C31
330
A
100
AcDbEntity
  8
MODEL
100
AcDbLine
 10
159.0143476190498
 20
139.5147736694645
 30
0.0
 11
159.0148711120497
 21
139.5747600126645
 31
0.0
  0
LINE
  5
5C32
330
A
100
AcDbEntity
  8
MODEL
100
AcDbLine
 10
155.0737338568498
 20
139.9390364322645
 30
0.0
 11
155.0774337036497
 21
139.5150760002645
 31
0.0
  0
ARC
  5
5C33
330
A
100
AcDbEntity
  8
MODEL
100
AcDbCircle
 10
157.4179701290496
 20
139.5190310186645
 30
0.0
 40
1.58998366967064
100
AcDbArc
 50
270.7465612754004
 51
359.8784931522002
  0
ARC
  5
5C34
330
A
100
AcDbEntity
  8
MODEL
100
AcDbCircle
 10
156.6739963368497
 20
139.5210547142645
 30
0.0
 40
1.591915680806523
100
AcDbArc
 50
180.2265343150004
 51
269.9361901637006
  0
LINE
  5
5C35
330
A
100
AcDbEntity
  8
MODEL
100
AcDbLine
 10
152.9703726236497
 20
139.5148385436645
 30
0.0
 11
152.9732278230496
 21
139.8420119702645
 31
0.0
  0
LINE
  5
5C36
330
A
100
AcDbEntity
  8
MODEL
100
AcDbLine
 10
149.0331548062496
 20
139.5498348298645
 30
0.0
 11
149.0334582042498
 21
139.5150688602645
 31
0.0
  0
ARC
  5
5C37
330
A
100
AcDbEntity
  8
MODEL
100
AcDbCircle
 10
151.3748216594496
 20
139.5169513288645
 30
0.0
 40
1.587954583671
100
AcDbArc
 50
270.5082380553009
 51
359.9317744090997
  0
ARC
  5
5C38
330
A
100
AcDbEntity
  8
MODEL
100
AcDbCircle
 10
150.6333965562497
 20
139.5291313092645
 30
0.0
 40
1.599999343843174
100
AcDbArc
 50
180.4435159007
 51
269.9987535695961
  0
ARC
  5
5C39
330
A
100
AcDbEntity
  8
MODEL
100
AcDbCircle
 10
148.5719089192497
 20
139.5291313684645
 30
0.0
 40
1.59999991038261
100
AcDbArc
 50
194.4910397328995
 51
270.0000014762009
  0
ARC
  5
5C3A
330
A
100
AcDbEntity
  8
MODEL
100
AcDbCircle
 10
149.3089472068497
 20
139.5289439144645
 30
0.0
 40
1.59999966268014
100
AcDbArc
 50
269.9661926234981
 51
294.4575709181032
  0
LINE
  5
5C3B
330
A
100
AcDbEntity
  8
MODEL
100
AcDbLine
 10
152.9703723510496
 20
139.5148072990645
 30
0.0
 11
152.9703726236497
 21
139.5148385436645
 31
0.0
  0
ARC
  5
5C3C
330
A
100
AcDbEntity
  8
MODEL
100
AcDbCircle
 10
150.6333965482496
 20
139.5291313118645
 30
0.0
 40
1.599999378870745
100
AcDbArc
 50
245.5586468737058
 51
269.998753221006
  0
ARC
  5
5C3D
330
A
100
AcDbEntity
  8
MODEL
100
AcDbCircle
 10
268.2474612628497
 20
139.5291313068645
 30
0.0
 40
1.59999998463083
100
AcDbArc
 50
270.0012464304014
 51
294.4413531725997
  0
ARC
  5
5C3E
330
A
100
AcDbEntity
  8
MODEL
100
AcDbCircle
 10
270.3089488998497
 20
139.5291313676645
 30
0.0
 40
1.599999998031792
100
AcDbArc
 50
269.9997183674987
 51
345.541035426901
  0
ARC
  5
5C3F
330
A
100
AcDbEntity
  8
MODEL
100
AcDbCircle
 10
269.5719106120497
 20
139.5289439144645
 30
0.0
 40
1.599999994543389
100
AcDbArc
 50
245.542428641397
 51
270.0338073765002
  0
LINE
  5
5C40
330
A
100
AcDbEntity
  8
MODEL
100
AcDbLine
 10
269.8473983954497
 20
139.5149291428645
 30
0.0
 11
269.8476888084498
 21
139.5482071764645
 31
0.0
  0
LINE
  5
5C41
330
A
100
AcDbEntity
  8
MODEL
100
AcDbLine
 10
265.9076297868497
 20
139.8420359436645
 30
0.0
 11
265.9104854678498
 21
139.5148072990645
 31
0.0
  0
ARC
  5
5C42
330
A
100
AcDbEntity
  8
MODEL
100
AcDbCircle
 10
267.5049455434497
 20
139.5162175980645
 30
0.0
 40
1.587269750809075
100
AcDbArc
 50
180.0611872730997
 51
270.1180544064981
  0
ARC
  5
5C43
330
A
100
AcDbEntity
  8
MODEL
100
AcDbCircle
 10
268.2474612708496
 20
139.5291313054645
 30
0.0
 40
1.599999983335316
100
AcDbArc
 50
270.0012467790033
 51
359.3561731665002
  0
LINE
  5
5C44
330
A
100
AcDbEntity
  8
MODEL
100
AcDbLine
 10
263.8034235090496
 20
139.5150065054645
 30
0.0
 11
263.8071245902498
 21
139.9391084170645
 31
0.0
  0
LINE
  5
5C45
330
A
100
AcDbEntity
  8
MODEL
100
AcDbLine
 10
259.8660282402496
 20
139.5700007736645
 30
0.0
 11
259.8665102524498
 21
139.5147676428645
 31
0.0
  0
ARC
  5
5C46
330
A
100
AcDbEntity
  8
MODEL
100
AcDbCircle
 10
261.4663748128497
 20
139.5286963454645
 30
0.0
 40
1.599727642649176
100
AcDbArc
 50
180.4087402999
 51
269.8291849083046
  0
ARC
  5
5C47
330
A
100
AcDbEntity
  8
MODEL
100
AcDbCircle
 10
262.2094878616496
 20
139.5152484670645
 30
0.0
 40
1.586136477077726
100
AcDbArc
 50
269.7266546090027
 51
359.9973201493999
  0
LINE
  5
5C48
330
A
100
AcDbEntity
  8
MODEL
100
AcDbLine
 10
250.2490635434498
 20
139.8436418750645
 30
0.0
 11
250.2519329996497
 21
139.5148347422645
 31
0.0
  0
ARC
  5
5C49
330
A
100
AcDbEntity
  8
MODEL
100
AcDbCircle
 10
251.8467654356497
 20
139.5161953386645
 30
0.0
 40
1.587091649612274
100
AcDbArc
 50
180.0492219962996
 51
269.0497791810984
  0
ARC
  5
5C4A
330
A
100
AcDbEntity
  8
MODEL
100
AcDbCircle
 10
252.5936268380498
 20
139.5170591524645
 30
0.0
 40
1.588518433927194
100
AcDbArc
 50
268.4624545204958
 51
349.9848060439002
  0
LINE
  5
5C4B
330
A
100
AcDbEntity
  8
MODEL
100
AcDbLine
 10
241.6588863692497
 20
139.5149823514645
 30
0.0
 11
241.6624293694496
 21
139.9209699706645
 31
0.0
  0
LINE
  5
5C4C
330
A
100
AcDbEntity
  8
MODEL
100
AcDbLine
 10
237.7189049676498
 20
139.8663664024645
 30
0.0
 11
237.7219712636496
 21
139.5150036772645
 31
0.0
  0
ARC
  5
5C4D
330
A
100
AcDbEntity
  8
MODEL
100
AcDbCircle
 10
239.3167338162497
 20
139.5160471780645
 30
0.0
 40
1.586994168822934
100
AcDbArc
 50
180.0352540652
 51
269.8410878827005
  0
ARC
  5
5C4E
330
A
100
AcDbEntity
  8
MODEL
100
AcDbCircle
 10
240.0617423628497
 20
139.5213241314645
 30
0.0
 40
1.592190429227103
100
AcDbArc
 50
270.1959318021994
 51
359.8047218948005
  0
LINE
  5
5C4F
330
A
100
AcDbEntity
  8
MODEL
100
AcDbLine
 10
223.1271888224497
 20
139.8971189974645
 30
0.0
 11
223.1305237136497
 21
139.5149783176645
 31
0.0
  0
ARC
  5
5C50
330
A
100
AcDbEntity
  8
MODEL
100
AcDbCircle
 10
224.7251286842496
 20
139.5167625668645
 30
0.0
 40
1.587735607710078
100
AcDbArc
 50
180.0704455795
 51
270.2990230900048
  0
ARC
  5
5C51
330
A
100
AcDbEntity
  8
MODEL
100
AcDbCircle
 10
225.4702806642496
 20
139.5228986674645
 30
0.0
 40
1.593795111024593
100
AcDbArc
 50
269.8604161992017
 51
342.7137662344013
  0
ARC
  5
5C52
330
A
100
AcDbEntity
  8
MODEL
100
AcDbCircle
 10
209.8113277436497
 20
139.5223581392645
 30
0.0
 40
1.593247418135999
100
AcDbArc
 50
270.4624065563962
 51
359.7790361533001
  0
ARC
  5
5C53
330
A
100
AcDbEntity
  8
MODEL
100
AcDbCircle
 10
209.0668284734496
 20
139.5174171318645
 30
0.0
 40
1.588334152752949
100
AcDbArc
 50
180.0726886355001
 51
270.1052406664006
  0
LINE
  5
5C54
330
A
100
AcDbEntity
  8
MODEL
100
AcDbLine
 10
211.4088857926496
 20
139.5149162762645
 30
0.0
 11
211.4123987672498
 21
139.9174632930645
 31
0.0
  0
LINE
  5
5C55
330
A
100
AcDbEntity
  8
MODEL
100
AcDbLine
 10
207.4687127112496
 20
139.8883967966645
 30
0.0
 11
207.4719702080498
 21
139.5151246486645
 31
0.0
  0
LINE
  5
5C56
330
A
100
AcDbEntity
  8
MODEL
100
AcDbLine
 10
192.2606425546497
 20
140.0152217336645
 30
0.0
 11
192.2619319070496
 21
140.1629669042645
 31
0.0
  0
ARC
  5
5C57
330
A
100
AcDbEntity
  8
MODEL
100
AcDbCircle
 10
189.9149665536496
 20
140.0292792598645
 30
0.0
 40
1.60003171275532
100
AcDbArc
 50
192.9278884884003
 51
269.2104495175016
  0
ARC
  5
5C58
330
A
100
AcDbEntity
  8
MODEL
100
AcDbCircle
 10
190.6607041362496
 20
140.0292615266645
 30
0.0
 40
1.600000016272673
100
AcDbArc
 50
270.7523978199009
 51
359.4999994348995
  0
LINE
  5
5C59
330
A
100
AcDbEntity
  8
MODEL
100
AcDbLine
 10
174.4132515358498
 20
140.0151808942645
 30
0.0
 11
174.4145412446497
 21
140.1629669042645
 31
0.0
  0
LINE
  5
5C5A
330
A
100
AcDbEntity
  8
MODEL
100
AcDbLine
 10
170.4663165742496
 20
140.1629669042645
 30
0.0
 11
170.4676076296497
 21
140.0150266038645
 31
0.0
  0
ARC
  5
5C5B
330
A
100
AcDbEntity
  8
MODEL
100
AcDbCircle
 10
172.8177314574497
 20
140.0184837648645
 30
0.0
 40
1.589324937140715
100
AcDbArc
 50
269.3764518250978
 51
359.8936930263997
  0
SPLINE
  5
5C5C
330
A
100
AcDbEntity
  8
MODEL
100
AcDbSpline
210
0.0
220
0.0
230
1.0
 70
     8
 71
     3
 72
    30
 73
    26
 74
     0
 42
0.000000001
 43
0.0000000001
 40
0.0
 40
0.0
 40
0.0
 40
0.0
 40
0.0664635666196538
 40
0.162062144279186
 40
0.2516352149488149
 40
0.3359565851828366
 40
0.4153014512963459
 40
0.4896308220219963
 40
0.5586471989148691
 40
0.6217958507758432
 40
0.6782390894110196
 40
0.7268313093552815
 40
0.7661597341442941
 40
0.7948087303221232
 40
0.8120349237432677
 40
0.8171454001909257
 40
0.8193514575668466
 40
0.8209335623772621
 40
0.8231932120639677
 40
0.8278154808496984
 40
0.8456207112849938
 40
0.8912441418311208
 40
0.9390220265531317
 40
0.9856148020254922
 40
1.0
 40
1.0
 40
1.0
 40
1.0
 10
170.4745587118583
 20
140.0144757600419
 30
0.0
 10
170.4745273011866
 20
139.9404560739862
 30
0.0
 10
170.4759231959994
 20
139.7869997264839
 30
0.0
 10
170.5389532172827
 20
139.5317716930412
 30
0.0
 10
170.6448530229505
 20
139.2810799286581
 30
0.0
 10
170.7837024016056
 20
139.0636176988283
 30
0.0
 10
170.9437025792059
 20
138.8824017373928
 30
0.0
 10
171.1165265176691
 20
138.7363936604881
 30
0.0
 10
171.2935647809337
 20
138.624086070955
 30
0.0
 10
171.4667701089107
 20
138.5425912368433
 30
0.0
 10
171.6283635569856
 20
138.4879204166451
 30
0.0
 10
171.7710332881135
 20
138.4550542280426
 30
0.0
 10
171.8878523572927
 20
138.438219245872
 30
0.0
 10
171.9741372983175
 20
138.4314534081235
 30
0.0
 10
172.0253006549045
 20
138.4296514381457
 30
0.0
 10
172.0505052673626
 20
138.4293109101561
 30
0.0
 10
172.0578602145719
 20
138.4292584864339
 30
0.0
 10
172.0610442194262
 20
138.4292425502018
 30
0.0
 10
172.0638154467894
 20
138.4292325535582
 30
0.0
 10
172.0684460100941
 20
138.4292219516736
 30
0.0
 10
172.0807980109504
 20
138.4292075911459
 30
0.0
 10
172.1295450366066
 20
138.4291811469777
 30
0.0
 10
172.234014101448
 20
138.429165922536
 30
0.0
 10
172.3418172671874
 20
138.4291725729977
 30
0.0
 10
172.4002743390462
 20
138.4291841595812
 30
0.0
 10
172.4162745780983
 20
138.4291874013773
 30
0.0
  0
LINE
  5
5C5D
330
A
100
AcDbEntity
  8
MODEL
100
AcDbLine
 10
159.0873486954498
 20
140.0150625848645
 30
0.0
 11
159.0886394368496
 21
140.1629669042645
 31
0.0
  0
LINE
  5
5C5E
330
A
100
AcDbEntity
  8
MODEL
100
AcDbLine
 10
155.1404147664497
 20
140.1629669042645
 30
0.0
 11
155.1417057566497
 21
140.0150340790645
 31
0.0
  0
ARC
  5
5C5F
330
A
100
AcDbEntity
  8
MODEL
100
AcDbCircle
 10
157.4890389218498
 20
140.0246536162645
 30
0.0
 40
1.59540040810287
100
AcDbArc
 50
270.0591602135988
 51
359.7191938218003
  0
SPLINE
  5
5C60
330
A
100
AcDbEntity
  8
MODEL
100
AcDbSpline
210
0.0
220
0.0
230
1.0
 70
     8
 71
     3
 72
    31
 73
    27
 74
     0
 42
0.000000001
 43
0.0000000001
 40
0.0
 40
0.0
 40
0.0
 40
0.0
 40
0.0004842271935678
 40
0.095568692148666
 40
0.1843496930894471
 40
0.2677232165246414
 40
0.3462353564752672
 40
0.4200355748970497
 40
0.4890012705368422
 40
0.55276876505513
 40
0.6107235485186536
 40
0.6619722373661869
 40
0.7053298993509615
 40
0.7394075559159273
 40
0.7629849209800184
 40
0.775575419804304
 40
0.7783664452002331
 40
0.7800572752442455
 40
0.7818353352251064
 40
0.7848041641355603
 40
0.7922943898789329
 40
0.8345069790739782
 40
0.8767387130135682
 40
0.9210097781645553
 40
0.965142318862541
 40
1.0
 40
1.0
 40
1.0
 40
1.0
 10
155.1418581903057
 20
140.0172601732904
 30
0.0
 10
155.1418114293994
 20
140.0166945583182
 30
0.0
 10
155.1338488523639
 20
139.9203039048588
 30
0.0
 10
155.1667157556959
 20
139.7158129325087
 30
0.0
 10
155.2432258101295
 20
139.4442911513312
 30
0.0
 10
155.363407863559
 20
139.2030937102135
 30
0.0
 10
155.5099663965347
 20
138.9982733886989
 30
0.0
 10
155.6754170089636
 20
138.8289873521721
 30
0.0
 10
155.8505822723183
 20
138.6946580857559
 30
0.0
 10
156.0272379602912
 20
138.5931575090969
 30
0.0
 10
156.1973724696512
 20
138.5212519754756
 30
0.0
 10
156.353411117692
 20
138.4745759353873
 30
0.0
 10
156.4879761211347
 20
138.4478173619584
 30
0.0
 10
156.5951585057422
 20
138.4350483986805
 30
0.0
 10
156.6693981621162
 20
138.4304734064331
 30
0.0
 10
156.7116377669157
 20
138.4294253512555
 30
0.0
 10
156.7287756001975
 20
138.4292586778379
 30
0.0
 10
156.7332475366208
 20
138.4292307209542
 30
0.0
 10
156.7362266946576
 20
138.4292171801334
 30
0.0
 10
156.7396196082028
 20
138.4292068139741
 30
0.0
 10
156.7488936550729
 20
138.4291909116133
 30
0.0
 10
156.7799177781616
 20
138.4291735501562
 30
0.0
 10
156.8695100377441
 20
138.4291662814459
 30
0.0
 10
156.9925560356611
 20
138.4291837816202
 30
0.0
 10
157.1296882796513
 20
138.4292150773433
 30
0.0
 10
157.205695028615
 20
138.4292299216837
 30
0.0
 10
157.2443295584775
 20
138.4292376751545
 30
0.0
  0
LINE
  5
5C61
330
A
100
AcDbEntity
  8
MODEL
100
AcDbLine
 10
143.3804366942496
 20
140.1629669042645
 30
0.0
 11
143.3817267668497
 21
140.0151392206645
 31
0.0
  0
ARC
  5
5C62
330
A
100
AcDbEntity
  8
MODEL
100
AcDbCircle
 10
145.7298111902497
 20
140.0218802054645
 30
0.0
 40
1.59261532772836
100
AcDbArc
 50
270.3809793492967
 51
326.2166317659975
  0
SPLINE
  5
5C63
330
A
100
AcDbEntity
  8
MODEL
100
AcDbSpline
210
0.0
220
0.0
230
1.0
 70
     8
 71
     3
 72
    31
 73
    27
 74
     0
 42
0.000000001
 43
0.0000000001
 40
0.0
 40
0.0
 40
0.0
 40
0.0
 40
0.0042186639678677
 40
0.1018276463460612
 40
0.1929867310393447
 40
0.2786120432922125
 40
0.3592451907080276
 40
0.4350273905330244
 40
0.5058223000998426
 40
0.5712456086685258
 40
0.6306538430417297
 40
0.683115269139059
 40
0.7273987655092542
 40
0.7620713794049369
 40
0.7859021403880626
 40
0.798499210465605
 40
0.8012040522209888
 40
0.8028359084442765
 40
0.804541848855041
 40
0.807373384749063
 40
0.8144060108273299
 40
0.8539713639249848
 40
0.8973832652200522
 40
0.9429398934065764
 40
0.9882030873755423
 40
1.0
 40
1.0
 40
1.0
 40
1.0
 10
143.3828861097921
 20
140.0159033738129
 30
0.0
 10
143.3825127337674
 20
140.0111149998311
 30
0.0
 10
143.3747988275114
 20
139.9114533199332
 30
0.0
 10
143.4089086884361
 20
139.7040613446069
 30
0.0
 10
143.4875155115081
 20
139.4337213630036
 30
0.0
 10
143.6089534492718
 20
139.1939772383689
 30
0.0
 10
143.7564806832121
 20
138.9906016540719
 30
0.0
 10
143.9225120056127
 20
138.822763097982
 30
0.0
 10
144.0979178907875
 20
138.6898214860397
 30
0.0
 10
144.2744825766837
 20
138.589602293422
 30
0.0
 10
144.4442103302653
 20
138.5188234981726
 30
0.0
 10
144.5995410139709
 20
138.4730765946742
 30
0.0
 10
144.7331195333367
 20
138.4470154289549
 30
0.0
 10
144.8390966005016
 20
138.4346982866368
 30
0.0
 10
144.9120925574254
 20
138.4303502480725
 30
0.0
 10
144.9533107378899
 20
138.4293791609059
 30
0.0
 10
144.9698453539835
 20
138.4292308067699
 30
0.0
 10
144.9740450872181
 20
138.4292068880483
 30
0.0
 10
144.9768151273967
 20
138.4291955490922
 30
0.0
 10
144.9799056288547
 20
138.4291872174961
 30
0.0
 10
144.9879791242844
 20
138.4291755757469
 30
0.0
 10
145.0148514355266
 20
138.429166865634
 30
0.0
 10
145.0970253346649
 20
138.429174105335
 30
0.0
 10
145.2160451237734
 20
138.4292011089851
 30
0.0
 10
145.327576915167
 20
138.4292280574547
 30
0.0
 10
145.3820435796193
 20
138.4292362229426
 30
0.0
 10
145.395089262148
 20
138.4292381874714
 30
0.0
  0
LINE
  5
5C64
330
A
100
AcDbEntity
  8
MODEL
100
AcDbLine
 10
139.9347398744497
 20
140.0151217862645
 30
0.0
 11
139.9360300992497
 21
140.1629669042645
 31
0.0
  0
LINE
  5
5C65
330
A
100
AcDbEntity
  8
MODEL
100
AcDbLine
 10
135.9878054288498
 20
140.1629669042645
 30
0.0
 11
135.9890957490496
 21
140.0151108622645
 31
0.0
  0
ARC
  5
5C66
330
A
100
AcDbEntity
  8
MODEL
100
AcDbCircle
 10
138.3371386948496
 20
140.0221136346645
 30
0.0
 40
1.592873353934223
100
AcDbArc
 50
270.1121708850026
 51
359.7768601105996
  0
SPLINE
  5
5C67
330
A
100
AcDbEntity
  8
MODEL
100
AcDbSpline
210
0.0
220
0.0
230
1.0
 70
     8
 71
     3
 72
    31
 73
    27
 74
     0
 42
0.000000001
 43
0.0000000001
 40
0.0
 40
0.0
 40
0.0
 40
0.0
 40
0.068259644685043
 40
0.16078667347725
 40
0.2475052831175583
 40
0.3291444520020028
 40
0.4059586024725663
 40
0.4779006700406839
 40
0.544673499396599
 40
0.6057298130616888
 40
0.6602467354365607
 40
0.7071024024034739
 40
0.7449199406493656
 40
0.7723384626670541
 40
0.7887541231094036
 40
0.7939552178036969
 40
0.7955726203723467
 40
0.796723739374375
 40
0.7981446473158335
 40
0.8007328827030881
 40
0.8080241339254007
 40
0.8551265466572938
 40
0.8979461600199407
 40
0.9428714418889093
 40
0.9876767843583322
 40
1.0
 40
1.0
 40
1.0
 40
1.0
 10
135.9956094244825
 20
140.0149670000144
 30
0.0
 10
135.9960513084835
 20
139.9366146776994
 30
0.0
 10
135.9985085659968
 20
139.7797951131096
 30
0.0
 10
136.0637272583386
 20
139.5215960296119
 30
0.0
 10
136.1711201082873
 20
139.2721267778829
 30
0.0
 10
136.3109600871734
 20
139.0559879006428
 30
0.0
 10
136.4716488385549
 20
138.8760976317927
 30
0.0
 10
136.6448327916761
 20
138.7313873643148
 30
0.0
 10
136.8219273230806
 20
138.6202993795065
 30
0.0
 10
136.9948987439396
 20
138.5399015558187
 30
0.0
 10
137.1559751462111
 20
138.4861628890687
 30
0.0
 10
137.2978845712793
 20
138.4540280605643
 30
0.0
 10
137.4136802973859
 20
138.4377017900077
 30
0.0
 10
137.4989982660296
 20
138.4312215720438
 30
0.0
 10
137.5495887034612
 20
138.4295248701736
 30
0.0
 10
137.5743965247622
 20
138.4292312838655
 30
0.0
 10
137.5816209918468
 20
138.4291912969502
 30
0.0
 10
137.5841771098277
 20
138.4291818519394
 30
0.0
 10
137.5861583996533
 20
138.4291767351073
 30
0.0
 10
137.5885697688688
 20
138.4291730098851
 30
0.0
 10
137.5960903410793
 20
138.4291680576346
 30
0.0
 10
137.6282443421311
 20
138.4291711344451
 30
0.0
 10
137.7215837865098
 20
138.429197355536
 30
0.0
 10
137.8440957175814
 20
138.4292286614807
 30
0.0
 10
137.9572499723275
 20
138.4292500736165
 30
0.0
 10
138.0113733989582
 20
138.4292534371504
 30
0.0
 10
138.024891199526
 20
138.4292542565852
 30
0.0
  0
ARC
  5
5C68
330
A
100
AcDbEntity
  8
MODEL
100
AcDbCircle
 10
135.0675451404496
 20
140.0291697496645
 30
0.0
 40
1.599999953790915
100
AcDbArc
 50
214.2209671859054
 51
270.0260456936983
  0
ARC
  5
5C69
330
A
100
AcDbEntity
  8
MODEL
100
AcDbCircle
 10
135.8133131338496
 20
140.0292309164645
 30
0.0
 40
1.599999616737867
100
AcDbArc
 50
269.986733387
 51
303.2822418942995
  0
LINE
  5
5C6A
330
A
100
AcDbEntity
  8
MODEL
100
AcDbLine
 10
139.9347395652497
 20
140.0150863528645
 30
0.0
 11
139.9347398744497
 21
140.0151217862645
 31
0.0
  0
LINE
  5
5C6B
330
A
100
AcDbEntity
  8
MODEL
100
AcDbLine
 10
143.3817267668497
 20
140.0151392206645
 30
0.0
 11
143.3817273792498
 21
140.0150690536645
 31
0.0
  0
SPLINE
  5
5C6C
330
A
100
AcDbEntity
  8
MODEL
100
AcDbSpline
210
0.0
220
0.0
230
1.0
 70
     8
 71
     3
 72
    12
 73
     8
 74
     0
 42
0.000000001
 43
0.0000000001
 40
0.0
 40
0.0
 40
0.0
 40
0.0
 40
0.0777877981050487
 40
0.3120539821340234
 40
0.5465117132690549
 40
0.781845737244355
 40
1.0
 40
1.0
 40
1.0
 40
1.0
 10
246.2202878836121
 20
138.4292386164248
 30
0.0
 10
246.2327476876513
 20
138.4292360626455
 30
0.0
 10
246.2761854466281
 20
138.4292272693502
 30
0.0
 10
246.3891145556928
 20
138.4291997765235
 30
0.0
 10
246.5301394821198
 20
138.4291731007473
 30
0.0
 10
246.6585783700242
 20
138.4291664704826
 30
0.0
 10
246.7234219350108
 20
138.4291777714837
 30
0.0
 10
246.7482600178188
 20
138.4291853889235
 30
0.0
  0
SPLINE
  5
5C6D
330
A
100
AcDbEntity
  8
MODEL
100
AcDbSpline
210
0.0
220
0.0
230
1.0
 70
     8
 71
     3
 72
    13
 73
     9
 74
     0
 42
0.000000001
 43
0.0000000001
 40
0.0
 40
0.0
 40
0.0
 40
0.0
 40
0.0334269841482569
 40
0.2263012959859985
 40
0.4190609038501065
 40
0.6118592482402426
 40
0.8054221396785877
 40
1.0
 40
1.0
 40
1.0
 40
1.0
 10
273.3629483448987
 20
138.4292555006667
 30
0.0
 10
273.3702548293367
 20
138.429255106307
 30
0.0
 10
273.4130343602927
 20
138.4292527567911
 30
0.0
 10
273.5227161926499
 20
138.4292333449894
 30
0.0
 10
273.6615301416756
 20
138.4292030179171
 30
0.0
 10
273.7837391441402
 20
138.4291716835337
 30
0.0
 10
273.8731499235581
 20
138.4291743854661
 30
0.0
 10
273.8898753490772
 20
138.4291595494204
 30
0.0
 10
273.902242374089
 20
138.4291908546067
 30
0.0
  0
SPLINE
  5
5C6E
330
A
100
AcDbEntity
  8
MODEL
100
AcDbSpline
210
0.0
220
0.0
230
1.0
 70
     8
 71
     3
 72
    12
 73
     8
 74
     0
 42
0.000000001
 43
0.0000000001
 40
0.0
 40
0.0
 40
0.0
 40
0.0
 40
0.0732907201864125
 40
0.3109012362085789
 40
0.549050024954737
 40
0.7881060422779156
 40
1.0
 40
1.0
 40
1.0
 40
1.0
 10
280.8584015647629
 20
138.4292539212976
 30
0.0
 10
280.873565192565
 20
138.4292529407353
 30
0.0
 10
280.9291237829094
 20
138.4292492553475
 30
0.0
 10
281.0428726972863
 20
138.4292273067117
 30
0.0
 10
281.1658184189899
 20
138.4291954590909
 30
0.0
 10
281.2532087442313
 20
138.4291713046551
 30
0.0
 10
281.2804757421653
 20
138.4291684711613
 30
0.0
 10
281.2879953113558
 20
138.4291709584732
 30
0.0
  0
LINE
  5
5C6F
330
A
100
AcDbEntity
  8
MODEL
100
AcDbLine
 10
280.5444767264497
 20
138.4292341796645
 30
0.0
 11
280.8306081182496
 21
138.4292574058645
 31
0.0
  0
ARC
  5
5C70
330
A
100
AcDbEntity
  8
MODEL
100
AcDbCircle
 10
283.8133126784497
 20
140.0291697490645
 30
0.0
 40
1.599999999024472
100
AcDbArc
 50
269.9739543062971
 51
325.7820202680969
  0
ARC
  5
5C71
330
A
100
AcDbEntity
  8
MODEL
100
AcDbCircle
 10
283.0675446852498
 20
140.0292309162645
 30
0.0
 40
1.599999993497919
100
AcDbArc
 50
236.5157547346911
 51
270.0132666129945
  0
LINE
  5
5C72
330
A
100
AcDbEntity
  8
MODEL
100
AcDbLine
 10
282.8917608864496
 20
140.0149752354645
 30
0.0
 11
282.8930523900498
 21
140.1629669042645
 31
0.0
  0
LINE
  5
5C73
330
A
100
AcDbEntity
  8
MODEL
100
AcDbLine
 10
278.9448277196497
 20
140.1629669042645
 30
0.0
 11
278.9461182536496
 21
140.0150863528645
 31
0.0
  0
ARC
  5
5C74
330
A
100
AcDbEntity
  8
MODEL
100
AcDbCircle
 10
280.5403530052496
 20
140.0160007916645
 30
0.0
 40
1.586776677834252
100
AcDbArc
 50
180.0397751753998
 51
270.1929351447036
  0
ARC
  5
5C75
330
A
100
AcDbEntity
  8
MODEL
100
AcDbCircle
 10
281.2967169552497
 20
140.0158040268645
 30
0.0
 40
1.587693476034391
100
AcDbArc
 50
267.899702487998
 51
359.9890446314997
  0
LINE
  5
5C76
330
A
100
AcDbEntity
  8
MODEL
100
AcDbLine
 10
275.4991304398496
 20
140.0150690536645
 30
0.0
 11
275.5004211248498
 21
140.1629669042645
 31
0.0
  0
ARC
  5
5C77
330
A
100
AcDbEntity
  8
MODEL
100
AcDbCircle
 10
273.1476450600497
 20
140.0154599002645
 30
0.0
 40
1.586426029214075
100
AcDbArc
 50
213.7750605013942
 51
270.9101989343978
  0
ARC
  5
5C78
330
A
100
AcDbEntity
  8
MODEL
100
AcDbCircle
 10
273.9014440794496
 20
140.0232009324645
 30
0.0
 40
1.594044953202412
100
AcDbArc
 50
269.6680846457043
 51
359.7457713569005
  0
LINE
  5
5C79
330
A
100
AcDbEntity
  8
MODEL
100
AcDbLine
 10
263.7391537964496
 20
140.0152327920645
 30
0.0
 11
263.7404430524497
 21
140.1629669042645
 31
0.0
  0
LINE
  5
5C7A
330
A
100
AcDbEntity
  8
MODEL
100
AcDbLine
 10
259.7922183820498
 20
140.1629669042645
 30
0.0
 11
259.7935089288497
 21
140.0150848940645
 31
0.0
  0
ARC
  5
5C7B
330
A
100
AcDbEntity
  8
MODEL
100
AcDbCircle
 10
261.3892283970496
 20
140.0196988730645
 30
0.0
 40
1.590516776795967
100
AcDbArc
 50
180.199732212
 51
270.5073363766059
  0
ARC
  5
5C7C
330
A
100
AcDbEntity
  8
MODEL
100
AcDbCircle
 10
262.1431786242498
 20
140.0188257716645
 30
0.0
 40
1.590107795156842
100
AcDbArc
 50
268.6162313500951
 51
359.8658109788999
  0
LINE
  5
5C7D
330
A
100
AcDbEntity
  8
MODEL
100
AcDbLine
 10
248.4132507500498
 20
140.0150908666645
 30
0.0
 11
248.4145412446497
 21
140.1629669042645
 31
0.0
  0
LINE
  5
5C7E
330
A
100
AcDbEntity
  8
MODEL
100
AcDbLine
 10
244.4663165742496
 20
140.1629669042645
 30
0.0
 11
244.4676058406498
 21
140.0152316134645
 31
0.0
  0
ARC
  5
5C7F
330
A
100
AcDbEntity
  8
MODEL
100
AcDbCircle
 10
246.0616299640498
 20
140.0154639110645
 30
0.0
 40
1.586218383738467
100
AcDbArc
 50
180.0060065091002
 51
270.2157605617001
  0
ARC
  5
5C80
330
A
100
AcDbEntity
  8
MODEL
100
AcDbCircle
 10
246.8159701098497
 20
140.0196798262645
 30
0.0
 40
1.592896758660708
100
AcDbArc
 50
266.8553441331973
 51
359.8058294015999
  0
LINE
  5
5C81
330
A
100
AcDbEntity
  8
MODEL
100
AcDbLine
 10
226.6189259118497
 20
140.1629669042645
 30
0.0
 11
226.6202156902497
 21
140.0151729388645
 31
0.0
  0
ARC
  5
5C82
330
A
100
AcDbEntity
  8
MODEL
100
AcDbCircle
 10
228.2201536890497
 20
140.0292615326645
 30
0.0
 40
1.600000022335094
100
AcDbArc
 50
180.5000007782003
 51
269.2476019605995
  0
ARC
  5
5C83
330
A
100
AcDbEntity
  8
MODEL
100
AcDbCircle
 10
228.9658915584497
 20
140.0292789718645
 30
0.0
 40
1.600031420733368
100
AcDbArc
 50
270.7895401396001
 51
347.0863699343018
  0
ARC
  5
5C84
330
A
100
AcDbEntity
  8
MODEL
100
AcDbCircle
 10
209.0684328008498
 20
140.0126916716645
 30
0.0
 40
1.596545241187211
100
AcDbArc
 50
179.8958799764
 51
277.3281015538964
  0
SPLINE
  5
5C85
330
A
100
AcDbEntity
  8
MODEL
100
AcDbSpline
210
0.0
220
0.0
230
1.0
 70
     8
 71
     3
 72
    29
 73
    25
 74
     0
 42
0.000000001
 43
0.0000000001
 40
0.0
 40
0.0
 40
0.0
 40
0.0
 40
0.0012550123529938
 40
0.0447278814786305
 40
0.0882145506236906
 40
0.1316453473707822
 40
0.1749559841024104
 40
0.218362699264975
 40
0.2298485265350927
 40
0.2313738771116786
 40
0.232412570146917
 40
0.2342239528889772
 40
0.2451399574067646
 40
0.2663534649908622
 40
0.3251009644117491
 40
0.3765979224555254
 40
0.4464945286853496
 40
0.5417789606154879
 40
0.6205365145192708
 40
0.7027384722714926
 40
0.7886609488235683
 40
0.8765405688402529
 40
0.965414759121951
 40
1.0
 40
1.0
 40
1.0
 40
1.0
 10
209.2720738745396
 20
138.4291870078825
 30
0.0
 10
209.2732601198705
 20
138.42918669632
 30
0.0
 10
209.3097738635673
 20
138.429177129519
 30
0.0
 10
209.413638793451
 20
138.4291665151705
 30
0.0
 10
209.5532086187003
 20
138.4291734473053
 30
0.0
 10
209.6817540913852
 20
138.429202915052
 30
0.0
 10
209.7732270788428
 20
138.4292310799658
 30
0.0
 10
209.8111851092254
 20
138.4292598874691
 30
0.0
 10
209.8129916230201
 20
138.4292524896301
 30
0.0
 10
209.8183905438701
 20
138.4292655924845
 30
0.0
 10
209.8218609138222
 20
138.4292794547831
 30
0.0
 10
209.8364201784958
 20
138.4293739992858
 30
0.0
 10
209.8733822427827
 20
138.430090420551
 30
0.0
 10
209.9712625449544
 20
138.4351943923167
 30
0.0
 10
210.1126693343582
 20
138.4541030873328
 30
0.0
 10
210.3018592680997
 20
138.5013979141919
 30
0.0
 10
210.5211672188897
 20
138.5859145159141
 30
0.0
 10
210.7494484233004
 20
138.721398827075
 30
0.0
 10
210.9600015837965
 20
138.9032150138375
 30
0.0
 10
211.13160305895
 20
139.108984635477
 30
0.0
 10
211.2716382843161
 20
139.3502652384786
 30
0.0
 10
211.3663531038466
 20
139.6165539010074
 30
0.0
 10
211.4131445793518
 20
139.8491849436099
 30
0.0
 10
211.4080549786989
 20
139.9745411026604
 30
0.0
 10
211.4061672500828
 20
140.0156253337245
 30
0.0
  0
LINE
  5
5C86
330
A
100
AcDbEntity
  8
MODEL
100
AcDbLine
 10
211.4132507046496
 20
140.0150856692645
 30
0.0
 11
211.4145412446497
 21
140.1629669042645
 31
0.0
  0
LINE
  5
5C87
330
A
100
AcDbEntity
  8
MODEL
100
AcDbLine
 10
207.4663165742496
 20
140.1629669042645
 30
0.0
 11
207.4676052834496
 21
140.0152954574645
 31
0.0
  0
ARC
  5
5C88
330
A
100
AcDbEntity
  8
MODEL
100
AcDbCircle
 10
187.1840152352496
 20
140.7246015086645
 30
0.0
 40
1.596038057215188
100
AcDbArc
 50
268.3550105679041
 51
339.3899734945016
  0
ARC
  5
5C89
330
A
100
AcDbEntity
  8
MODEL
100
AcDbCircle
 10
186.3994260162498
 20
140.7163283086645
 30
0.0
 40
1.5869975002609
100
AcDbArc
 50
200.4330023750987
 51
270.4128772656954
  0
ARC
  5
5C8A
330
A
100
AcDbEntity
  8
MODEL
100
AcDbCircle
 10
166.0839436578498
 20
140.7171030564645
 30
0.0
 40
1.587976065387072
100
AcDbArc
 50
269.4154065276999
 51
339.5353384015988
  0
ARC
  5
5C8B
330
A
100
AcDbEntity
  8
MODEL
100
AcDbCircle
 10
165.2962120288497
 20
140.7159131118645
 30
0.0
 40
1.587086044388744
100
AcDbArc
 50
200.4182889919009
 51
271.5034770476021
  0
ARC
  5
5C8C
330
A
100
AcDbEntity
  8
MODEL
100
AcDbCircle
 10
147.9628065912497
 20
140.7158466946645
 30
0.0
 40
1.586619856337296
100
AcDbArc
 50
270.2015341446024
 51
339.5670491599998
  0
ARC
  5
5C8D
330
A
100
AcDbEntity
  8
MODEL
100
AcDbCircle
 10
147.1787059654497
 20
140.7238214878645
 30
0.0
 40
1.596963274205485
100
AcDbArc
 50
200.5671000954028
 51
273.2154028510013
  0
ARC
  5
5C8E
330
A
100
AcDbEntity
  8
MODEL
100
AcDbCircle
 10
134.0568110988496
 20
140.7171290990645
 30
0.0
 40
1.588008310938416
100
AcDbArc
 50
269.8394812203061
 51
339.5344035689009
  0
ARC
  5
5C8F
330
A
100
AcDbEntity
  8
MODEL
100
AcDbCircle
 10
133.2690451652496
 20
140.7162159738645
 30
0.0
 40
1.586964820196316
100
AcDbArc
 50
200.4394396143007
 51
270.8590196259
  0
ARC
  5
5C90
330
A
100
AcDbEntity
  8
MODEL
100
AcDbCircle
 10
125.3164250904498
 20
140.7152695122645
 30
0.0
 40
1.586208570351633
100
AcDbArc
 50
269.6655955489967
 51
339.5832820298988
  0
ARC
  5
5C91
330
A
100
AcDbEntity
  8
MODEL
100
AcDbCircle
 10
124.5308628400497
 20
140.7229621208645
 30
0.0
 40
1.593972615454308
100
AcDbArc
 50
200.6047565158999
 51
271.3560052030942
  0
ARC
  5
5C92
330
A
100
AcDbEntity
  8
MODEL
100
AcDbCircle
 10
122.3290628940498
 20
140.7290846392645
 30
0.0
 40
1.599999993000421
100
AcDbArc
 50
269.9267763987971
 51
313.5489343222984
  0
ARC
  5
5C93
330
A
100
AcDbEntity
  8
MODEL
100
AcDbCircle
 10
121.5516531186496
 20
140.7294507218645
 30
0.0
 40
1.6
100
AcDbArc
 50
200.7536425947004
 51
269.9916067713021
  0
SPLINE
  5
5C94
330
A
100
AcDbEntity
  8
MODEL
100
AcDbSpline
210
0.0
220
0.0
230
1.0
 70
     8
 71
     3
 72
    12
 73
     8
 74
     0
 42
0.000000001
 43
0.0000000001
 40
0.0
 40
0.0
 40
0.0
 40
0.0
 40
0.0907017597489877
 40
0.3371539636146131
 40
0.5822822620913289
 40
0.8278606929224632
 40
1.0
 40
1.0
 40
1.0
 40
1.0
 10
285.0968494587295
 20
139.1291913089429
 30
0.0
 10
285.1139820933582
 20
139.1292022123676
 30
0.0
 10
285.1790570429636
 20
139.129243401816
 30
0.0
 10
285.2974658195802
 20
139.1293105343131
 30
0.0
 10
285.4361761643282
 20
139.1293713652319
 30
0.0
 10
285.5320293262117
 20
139.129403693093
 30
0.0
 10
285.5729026348212
 20
139.1294243278384
 30
0.0
 10
285.5845489132008
 20
139.129429088552
 30
0.0
  0
SPLINE
  5
5C95
330
A
100
AcDbEntity
  8
MODEL
100
AcDbSpline
210
0.0
220
0.0
230
1.0
 70
     8
 71
     3
 72
    15
 73
    11
 74
     0
 42
0.000000001
 43
0.0000000001
 40
0.0
 40
0.0
 40
0.0
 40
0.0
 40
0.0785164683130373
 40
0.2241148816003959
 40
0.37658429474932
 40
0.5259487085666106
 40
0.6742597790219264
 40
0.8225971162245502
 40
0.9714434989098876
 40
1.0
 40
1.0
 40
1.0
 40
1.0
 10
293.573690516747
 20
139.1290879582902
 30
0.0
 10
293.5802411943106
 20
139.1290858967785
 30
0.0
 10
293.597364795112
 20
139.1290817962961
 30
0.0
 10
293.6637793264482
 20
139.1291285791634
 30
0.0
 10
293.7825580037169
 20
139.1292204124978
 30
0.0
 10
293.9283635676981
 20
139.129307430025
 30
0.0
 10
294.0770510029073
 20
139.1293684603402
 30
0.0
 10
294.2091084265531
 20
139.1294084344298
 30
0.0
 10
294.2795989678804
 20
139.1294264598163
 30
0.0
 10
294.3067735534509
 20
139.1294343223075
 30
0.0
 10
294.3108418200694
 20
139.1294355228873
 30
0.0
  0
ARC
  5
5C96
330
A
100
AcDbEntity
  8
MODEL
100
AcDbCircle
 10
296.5517949248498
 20
140.7290846384645
 30
0.0
 40
1.599999517243765
100
AcDbArc
 50
226.2657566060961
 51
270.0729990094987
  0
ARC
  5
5C97
330
A
100
AcDbEntity
  8
MODEL
100
AcDbCircle
 10
297.3292047004496
 20
140.7294507218645
 30
0.0
 40
1.599999999999998
100
AcDbArc
 50
270.0086074940039
 51
339.0777422522986
  0
ARC
  5
5C98
330
A
100
AcDbEntity
  8
MODEL
100
AcDbCircle
 10
294.3505320526498
 20
140.7211622746645
 30
0.0
 40
1.59289759424513
100
AcDbArc
 50
267.8084718434954
 51
339.4496292685985
  0
ARC
  5
5C99
330
A
100
AcDbEntity
  8
MODEL
100
AcDbCircle
 10
293.5663429472498
 20
140.7200827838645
 30
0.0
 40
1.590985465622197
100
AcDbArc
 50
200.5023696414963
 51
270.0452738633956
  0
ARC
  5
5C9A
330
A
100
AcDbEntity
  8
MODEL
100
AcDbCircle
 10
285.6123715584496
 20
140.7151417150645
 30
0.0
 40
1.586170529890611
100
AcDbArc
 50
268.6328644140057
 51
339.5947451413999
  0
ARC
  5
5C9B
330
A
100
AcDbEntity
  8
MODEL
100
AcDbCircle
 10
284.8268260570497
 20
140.7230023960645
 30
0.0
 40
1.593993891942224
100
AcDbArc
 50
200.6046576375992
 51
270.6403076753023
  0
ARC
  5
5C9C
330
A
100
AcDbEntity
  8
MODEL
100
AcDbCircle
 10
271.7046348930497
 20
140.7214001162645
 30
0.0
 40
1.591983283253686
100
AcDbArc
 50
269.8135575031998
 51
339.4405028683988
  0
ARC
  5
5C9D
330
A
100
AcDbEntity
  8
MODEL
100
AcDbCircle
 10
270.9233357450497
 20
140.7261205748645
 30
0.0
 40
1.598039063505031
100
AcDbArc
 50
200.6656975475987
 51
272.0466770212043
  0
ARC
  5
5C9E
330
A
100
AcDbEntity
  8
MODEL
100
AcDbCircle
 10
253.5818253298497
 20
140.7205242638645
 30
0.0
 40
1.592347628333032
100
AcDbArc
 50
267.7945337950035
 51
339.4665079330018
  0
ARC
  5
5C9F
330
A
100
AcDbEntity
  8
MODEL
100
AcDbCircle
 10
252.7960821038497
 20
140.7157059986645
 30
0.0
 40
1.586478699094454
100
AcDbArc
 50
200.4213110484972
 51
270.2124334462958
  0
ARC
  5
5CA0
330
A
100
AcDbEntity
  8
MODEL
100
AcDbCircle
 10
232.4811256062497
 20
140.7165992350645
 30
0.0
 40
1.587427662396554
100
AcDbArc
 50
269.1340593788971
 51
339.5454582077001
  0
ARC
  5
5CA1
330
A
100
AcDbEntity
  8
MODEL
100
AcDbCircle
 10
231.6931073206498
 20
140.7158023006645
 30
0.0
 40
1.586907325033878
100
AcDbArc
 50
200.4236987968992
 51
271.2019556755943
  0
ARC
  5
5CA2
330
A
100
AcDbEntity
  8
MODEL
100
AcDbCircle
 10
209.8354867800498
 20
140.7150581862645
 30
0.0
 40
1.585697768563374
100
AcDbArc
 50
269.9513418351925
 51
339.589903642898
  0
LINE
  5
5CA3
330
A
100
AcDbEntity
  8
MODEL
100
AcDbLine
 10
199.0084309724497
 20
137.1293994640645
 30
0.0
 11
199.8724268464497
 21
137.1293994640645
 31
0.0
  0
LINE
  5
5CA4
330
A
100
AcDbEntity
  8
MODEL
100
AcDbLine
 10
191.6879228968497
 20
137.1293994640645
 30
0.0
 11
192.5519187708497
 21
137.1293994640645
 31
0.0
  0
LINE
  5
5CA5
330
A
100
AcDbEntity
  8
MODEL
100
AcDbLine
 10
189.8724268464497
 20
137.1293994640645
 30
0.0
 11
189.0084309724497
 21
137.1293994640645
 31
0.0
  0
LINE
  5
5CA6
330
A
100
AcDbEntity
  8
MODEL
100
AcDbLine
 10
229.0084309724497
 20
137.1293994640645
 30
0.0
 11
229.8724268464497
 21
137.1293994640645
 31
0.0
  0
LINE
  5
5CA7
330
A
100
AcDbEntity
  8
MODEL
100
AcDbLine
 10
226.3289390482497
 20
137.1293994640645
 30
0.0
 11
227.1929349222497
 21
137.1293994640645
 31
0.0
  0
LINE
  5
5CA8
330
A
100
AcDbEntity
  8
MODEL
100
AcDbLine
 10
219.0084309724497
 20
137.1293994640645
 30
0.0
 11
219.8724268464497
 21
137.1293994640645
 31
0.0
  0
LINE
  5
5CA9
330
A
100
AcDbEntity
  8
MODEL
100
AcDbLine
 10
209.0084309724497
 20
137.1293994640645
 30
0.0
 11
209.8724268464497
 21
137.1293994640645
 31
0.0
  0
LINE
  5
5CAA
330
A
100
AcDbEntity
  8
MODEL
100
AcDbLine
 10
193.0912277682497
 20
137.2293994640645
 30
0.0
 11
192.2910991078496
 21
137.2293994640645
 31
0.0
  0
LINE
  5
5CAB
330
A
100
AcDbEntity
  8
MODEL
100
AcDbLine
 10
180.8300377062498
 20
137.2293994640645
 30
0.0
 11
180.0296625162497
 21
137.2293994640645
 31
0.0
  0
LINE
  5
5CAC
330
A
100
AcDbEntity
  8
MODEL
100
AcDbLine
 10
176.3421471620496
 20
137.2293994640645
 30
0.0
 11
175.5416487428498
 21
137.2293994640645
 31
0.0
  0
LINE
  5
5CAD
330
A
100
AcDbEntity
  8
MODEL
100
AcDbLine
 10
242.5387106568497
 20
137.2293994640645
 30
0.0
 11
243.3390862374496
 21
137.2293994640645
 31
0.0
  0
LINE
  5
5CAE
330
A
100
AcDbEntity
  8
MODEL
100
AcDbLine
 10
238.8511953026497
 20
137.2293994640645
 30
0.0
 11
238.0508201126496
 21
137.2293994640645
 31
0.0
  0
LINE
  5
5CAF
330
A
100
AcDbEntity
  8
MODEL
100
AcDbLine
 10
226.5897587110497
 20
137.2293994640645
 30
0.0
 11
225.7896300506496
 21
137.2293994640645
 31
0.0
  0
LINE
  5
5CB0
330
A
100
AcDbEntity
  8
MODEL
100
AcDbLine
 10
209.8404316038497
 20
137.2293994640645
 30
0.0
 11
209.0404262152498
 21
137.2293994640645
 31
0.0
  0
LINE
  5
5CB1
330
A
100
AcDbEntity
  8
MODEL
100
AcDbLine
 10
197.6767736136497
 20
137.5293994640645
 30
0.0
 11
196.8766195382497
 21
137.5293994640645
 31
0.0
  0
LINE
  5
5CB2
330
A
100
AcDbEntity
  8
MODEL
100
AcDbLine
 10
186.3421604356496
 20
137.5293994640645
 30
0.0
 11
185.5416447914496
 21
137.5293994640645
 31
0.0
  0
LINE
  5
5CB3
330
A
100
AcDbEntity
  8
MODEL
100
AcDbLine
 10
176.6089990806496
 20
137.5293994640645
 30
0.0
 11
175.8079892482498
 21
137.5293994640645
 31
0.0
  0
LINE
  5
5CB4
330
A
100
AcDbEntity
  8
MODEL
100
AcDbLine
 10
169.1405390080496
 20
137.5293994640645
 30
0.0
 11
168.3390355200496
 21
137.5293994640645
 31
0.0
  0
LINE
  5
5CB5
330
A
100
AcDbEntity
  8
MODEL
100
AcDbLine
 10
164.4456941690497
 20
137.5293994640645
 30
0.0
 11
163.6438294926496
 21
137.5293994640645
 31
0.0
  0
LINE
  5
5CB6
330
A
100
AcDbEntity
  8
MODEL
100
AcDbLine
 10
162.8443745090498
 20
137.5293994640645
 30
0.0
 11
162.0423776692497
 21
137.5293994640645
 31
0.0
  0
LINE
  5
5CB7
330
A
100
AcDbEntity
  8
MODEL
100
AcDbLine
 10
232.5386973834496
 20
137.5293994640645
 30
0.0
 11
232.5393262866497
 21
137.5293994640645
 31
0.0
  0
LINE
  5
5CB8
330
A
100
AcDbEntity
  8
MODEL
100
AcDbLine
 10
256.0364833100497
 20
137.5293994640645
 30
0.0
 11
256.8383794420498
 21
137.5293994640645
 31
0.0
  0
LINE
  5
5CB9
330
A
100
AcDbEntity
  8
MODEL
100
AcDbLine
 10
255.2370283262497
 20
137.5293994640645
 30
0.0
 11
254.4351636500497
 21
137.5293994640645
 31
0.0
  0
LINE
  5
5CBA
330
A
100
AcDbEntity
  8
MODEL
100
AcDbLine
 10
250.5418222988498
 20
137.5293994640645
 30
0.0
 11
249.7403188108498
 21
137.5293994640645
 31
0.0
  0
LINE
  5
5CBB
330
A
100
AcDbEntity
  8
MODEL
100
AcDbLine
 10
243.0728685708497
 20
137.5293994640645
 30
0.0
 11
242.2718587382498
 21
137.5293994640645
 31
0.0
  0
LINE
  5
5CBC
330
A
100
AcDbEntity
  8
MODEL
100
AcDbLine
 10
233.3392130274498
 20
137.5293994640645
 30
0.0
 11
232.5386973834496
 21
137.5293994640645
 31
0.0
  0
LINE
  5
5CBD
330
A
100
AcDbEntity
  8
MODEL
100
AcDbLine
 10
222.0042382808498
 20
137.5293994640645
 30
0.0
 11
221.2040842054497
 21
137.5293994640645
 31
0.0
  0
LINE
  5
5CBE
330
A
100
AcDbEntity
  8
MODEL
100
AcDbLine
 10
209.8404397132498
 20
137.5293994640645
 30
0.0
 11
209.0404181056498
 21
137.5293994640645
 31
0.0
  0
LINE
  5
5CBF
330
A
100
AcDbEntity
  8
MODEL
100
AcDbLine
 10
194.1832008238497
 20
137.9293994640645
 30
0.0
 11
193.3828527362497
 21
137.9293994640645
 31
0.0
  0
LINE
  5
5CC0
330
A
100
AcDbEntity
  8
MODEL
100
AcDbLine
 10
179.5932332992496
 20
137.9293994640645
 30
0.0
 11
178.7920693236498
 21
137.9293994640645
 31
0.0
  0
LINE
  5
5CC1
330
A
100
AcDbEntity
  8
MODEL
100
AcDbLine
 10
167.0647507286498
 20
137.9293994640645
 30
0.0
 11
166.2624708256498
 21
137.9293994640645
 31
0.0
  0
LINE
  5
5CC2
330
A
100
AcDbEntity
  8
MODEL
100
AcDbLine
 10
157.4514368484498
 20
137.9293994640645
 30
0.0
 11
156.6480437264496
 21
137.9293994640645
 31
0.0
  0
LINE
  5
5CC3
330
A
100
AcDbEntity
  8
MODEL
100
AcDbLine
 10
151.4083121866496
 20
137.9293994640645
 30
0.0
 11
150.6041051088497
 21
137.9293994640645
 31
0.0
  0
LINE
  5
5CC4
330
A
100
AcDbEntity
  8
MODEL
100
AcDbLine
 10
149.3471249518497
 20
137.9293994640645
 30
0.0
 11
148.5426201512497
 21
137.9293994640645
 31
0.0
  0
LINE
  5
5CC5
330
A
100
AcDbEntity
  8
MODEL
100
AcDbLine
 10
149.0419916078496
 20
139.5150703522645
 30
0.0
 11
148.9921944276497
 21
139.5150727232645
 31
0.0
  0
LINE
  5
5CC6
330
A
100
AcDbEntity
  8
MODEL
100
AcDbLine
 10
156.6480437264496
 20
137.9293994640645
 30
0.0
 11
156.6492630340496
 21
137.9293994640645
 31
0.0
  0
LINE
  5
5CC7
330
A
100
AcDbEntity
  8
MODEL
100
AcDbLine
 10
269.5337328670497
 20
137.9293994640645
 30
0.0
 11
270.3381575402497
 21
137.9293994640645
 31
0.0
  0
LINE
  5
5CC8
330
A
100
AcDbEntity
  8
MODEL
100
AcDbLine
 10
268.2767527102498
 20
137.9293994640645
 30
0.0
 11
267.4725456322498
 21
137.9293994640645
 31
0.0
  0
LINE
  5
5CC9
330
A
100
AcDbEntity
  8
MODEL
100
AcDbLine
 10
262.2328140924498
 20
137.9293994640645
 30
0.0
 11
261.4294209704498
 21
137.9293994640645
 31
0.0
  0
SPLINE
  5
5CCA
330
A
100
AcDbEntity
  8
MODEL
100
AcDbSpline
210
0.0
220
0.0
230
1.0
 70
     8
 71
     3
 72
     8
 73
     4
 74
     0
 42
0.000000001
 43
0.0000000001
 40
0.0
 40
0.0
 40
0.0
 40
0.0
 40
1.0
 40
1.0
 40
1.0
 40
1.0
 10
263.6510558789238
 20
139.5151689631009
 30
0.0
 10
263.7498900970853
 20
139.5151690360645
 30
0.0
 10
263.8014138045988
 20
139.5151690874548
 30
0.0
 10
263.8022089616198
 20
139.5151683121864
 30
0.0
  0
LINE
  5
5CCB
330
A
100
AcDbEntity
  8
MODEL
100
AcDbLine
 10
252.6183869932496
 20
137.9293994640645
 30
0.0
 11
251.8161070902496
 21
137.9293994640645
 31
0.0
  0
LINE
  5
5CCC
330
A
100
AcDbEntity
  8
MODEL
100
AcDbLine
 10
240.0887884952498
 20
137.9293994640645
 30
0.0
 11
239.2876245198496
 21
137.9293994640645
 31
0.0
  0
LINE
  5
5CCD
330
A
100
AcDbEntity
  8
MODEL
100
AcDbLine
 10
225.4980050828498
 20
137.9293994640645
 30
0.0
 11
224.6976569952498
 21
137.9293994640645
 31
0.0
  0
SPLINE
  5
5CCE
330
A
100
AcDbEntity
  8
MODEL
100
AcDbSpline
210
0.0
220
0.0
230
1.0
 70
     8
 71
     3
 72
     8
 73
     4
 74
     0
 42
0.000000001
 43
0.0000000001
 40
0.0
 40
0.0
 40
0.0
 40
0.0
 40
1.0
 40
1.0
 40
1.0
 40
1.0
 10
223.1317350883334
 20
139.5151012900257
 30
0.0
 10
223.1314481616809
 20
139.5151108811271
 30
0.0
 10
223.1529236250525
 20
139.5151197157206
 30
0.0
 10
223.197118712105
 20
139.5151272453114
 30
0.0
  0
LINE
  5
5CCF
330
A
100
AcDbEntity
  8
MODEL
100
AcDbLine
 10
209.8404533184497
 20
137.9293994640645
 30
0.0
 11
209.0404045004497
 21
137.9293994640645
 31
0.0
  0
LINE
  5
5CD0
330
A
100
AcDbEntity
  8
MODEL
100
AcDbLine
 10
190.6816147950498
 20
138.4293994640645
 30
0.0
 11
189.8929184054497
 21
138.4293994640645
 31
0.0
  0
LINE
  5
5CD1
330
A
100
AcDbEntity
  8
MODEL
100
AcDbLine
 10
172.8345741732497
 20
138.4293994640645
 30
0.0
 11
172.4151952794497
 21
138.4293994640645
 31
0.0
  0
LINE
  5
5CD2
330
A
100
AcDbEntity
  8
MODEL
100
AcDbLine
 10
157.5092501520497
 20
138.4293994640645
 30
0.0
 11
157.2568194968497
 21
138.4293994640645
 31
0.0
  0
LINE
  5
5CD3
330
A
100
AcDbEntity
  8
MODEL
100
AcDbLine
 10
145.7499411240498
 20
138.4293994640645
 30
0.0
 11
145.4011692260498
 21
138.4293994640645
 31
0.0
  0
LINE
  5
5CD4
330
A
100
AcDbEntity
  8
MODEL
100
AcDbLine
 10
138.3578300606497
 20
138.4293994640645
 30
0.0
 11
138.0265481032496
 21
138.4293994640645
 31
0.0
  0
LINE
  5
5CD5
330
A
100
AcDbEntity
  8
MODEL
100
AcDbLine
 10
135.8365361370496
 20
138.4293994640645
 30
0.0
 11
135.0404336566497
 21
138.4293994640645
 31
0.0
  0
LINE
  5
5CD6
330
A
100
AcDbEntity
  8
MODEL
100
AcDbLine
 10
283.0443216820496
 20
138.4293994640645
 30
0.0
 11
283.8403615902497
 21
138.4293994640645
 31
0.0
  0
LINE
  5
5CD7
330
A
100
AcDbEntity
  8
MODEL
100
AcDbLine
 10
282.8790474174497
 20
140.0152465832645
 30
0.0
 11
283.4409724656497
 21
140.0152378712645
 31
0.0
  0
LINE
  5
5CD8
330
A
100
AcDbEntity
  8
MODEL
100
AcDbLine
 10
281.2657610630496
 20
138.4293994640645
 30
0.0
 11
280.5230277582497
 21
138.4293994640645
 31
0.0
  0
LINE
  5
5CD9
330
A
100
AcDbEntity
  8
MODEL
100
AcDbLine
 10
278.9473653508497
 20
140.0152714724645
 30
0.0
 11
282.8905108398498
 21
140.0152131670645
 31
0.0
  0
LINE
  5
5CDA
330
A
100
AcDbEntity
  8
MODEL
100
AcDbLine
 10
273.9250680128497
 20
138.4293994640645
 30
0.0
 11
273.1309166950497
 21
138.4293994640645
 31
0.0
  0
LINE
  5
5CDB
330
A
100
AcDbEntity
  8
MODEL
100
AcDbLine
 10
262.1321762308497
 20
138.4293994640645
 30
0.0
 11
261.3716076668496
 21
138.4293994640645
 31
0.0
  0
LINE
  5
5CDC
330
A
100
AcDbEntity
  8
MODEL
100
AcDbLine
 10
246.7527301306496
 20
138.4293994640645
 30
0.0
 11
246.0462836456496
 21
138.4293994640645
 31
0.0
  0
LINE
  5
5CDD
330
A
100
AcDbEntity
  8
MODEL
100
AcDbLine
 10
228.9879394136498
 20
138.4293994640645
 30
0.0
 11
228.1991433756497
 21
138.4293994640645
 31
0.0
  0
LINE
  5
5CDE
330
A
100
AcDbEntity
  8
MODEL
100
AcDbLine
 10
209.8345633362497
 20
138.4293994640645
 30
0.0
 11
209.4404289094497
 21
138.4293994640645
 31
0.0
  0
SPLINE
  5
5CDF
330
A
100
AcDbEntity
  8
MODEL
100
AcDbSpline
210
0.0
220
0.0
230
1.0
 70
    12
 71
     2
 72
     8
 73
     5
 74
     0
 42
0.000000001
 43
0.0000000001
 40
0.0
 40
0.0
 40
0.0
 40
0.5
 40
0.5
 40
1.0
 40
1.0
 40
1.0
 10
187.1969131242832
 20
139.1293790735085
 30
0.0
 41
1.0
 10
187.1969131270148
 20
139.1294475160442
 30
0.0
 41
0.7071038687901648
 10
186.7963631330416
 20
139.1294661426492
 30
0.0
 41
1.0
 10
186.3958131390682
 20
139.1294847692542
 30
0.0
 41
0.7071038690343548
 10
186.3958197351993
 20
139.1294163264118
 30
0.0
 41
1.0
  0
SPLINE
  5
5CE0
330
A
100
AcDbEntity
  8
MODEL
100
AcDbSpline
210
0.0
220
0.0
230
1.0
 70
    12
 71
     2
 72
     8
 73
     5
 74
     0
 42
0.000000001
 43
0.0000000001
 40
0.0
 40
0.0
 40
0.0
 40
0.5
 40
0.5
 40
1.0
 40
1.0
 40
1.0
 10
186.4012982477715
 20
139.1294047916482
 30
0.0
 41
1.0
 10
186.4620677556026
 20
139.1293398294724
 30
0.0
 41
0.7357638891745053
 10
186.8294904383739
 20
139.1293279525855
 30
0.0
 41
1.0
 10
187.1969131211562
 20
139.1293160756985
 30
0.0
 41
0.7357638907737055
 10
187.1969131242832
 20
139.1293790735084
 30
0.0
 41
1.0
  0
ELLIPSE
  5
5CE1
330
A
100
AcDbEntity
  8
MODEL
100
AcDbEllipse
 10
165.6954593868496
 20
139.1293977004645
 30
0.0
 11
0.4017029899492374
 21
-3.588104921514734E-5
 31
0.0
210
0.0
220
0.0
230
1.0
 40
0.0001523184
 41
0.0
 42
6.283185307179586
  0
ELLIPSE
  5
5CE2
330
A
100
AcDbEntity
  8
MODEL
100
AcDbEllipse
 10
147.5756997250497
 20
139.1293977004645
 30
0.0
 11
0.4032771611021668
 21
-5.054539158142606E-5
 31
0.0
210
0.0
220
0.0
230
1.0
 40
0.0001233984
 41
0.0
 42
6.283185307179586
  0
SPLINE
  5
5CE3
330
A
100
AcDbEntity
  8
MODEL
100
AcDbSpline
210
0.0
220
0.0
230
1.0
 70
    12
 71
     2
 72
     8
 73
     5
 74
     0
 42
0.000000001
 43
0.0000000001
 40
0.0
 40
0.0
 40
0.0
 40
0.5
 40
0.5
 40
1.0
 40
1.0
 40
1.0
 10
134.0767643321252
 20
139.1293360350871
 30
0.0
 41
1.0
 10
134.0767643374642
 20
139.1293710870928
 30
0.0
 41
0.7071067801535857
 10
133.6719191260366
 20
139.1294327525296
 30
0.0
 41
1.0
 10
133.2670739146089
 20
139.1294944179664
 30
0.0
 41
0.7071067818617459
 10
133.2670739093113
 20
139.1294593659607
 30
0.0
 41
1.0
  0
SPLINE
  5
5CE4
330
A
100
AcDbEntity
  8
MODEL
100
AcDbSpline
210
0.0
220
0.0
230
1.0
 70
    12
 71
     2
 72
     8
 73
     5
 74
     0
 42
0.000000001
 43
0.0000000001
 40
0.0
 40
0.0
 40
0.0
 40
0.5
 40
0.5
 40
1.0
 40
1.0
 40
1.0
 10
133.2837963411135
 20
139.1294468486799
 30
0.0
 41
1.0
 10
133.3773135955234
 20
139.1294053140361
 30
0.0
 41
0.7762626108353292
 10
133.7049929608464
 20
139.1293577279237
 30
0.0
 41
1.0
 10
134.0326723262451
 20
139.1293101418114
 30
0.0
 41
0.7762626117346203
 10
134.0736132399503
 20
139.1293321502287
 30
0.0
 41
1.0
  0
LINE
  5
5CE5
330
A
100
AcDbEntity
  8
MODEL
100
AcDbLine
 10
125.3376265096498
 20
139.1293291154645
 30
0.0
 11
124.5256479808496
 21
139.1294662856645
 31
0.0
  0
LINE
  5
5CE6
330
A
100
AcDbEntity
  8
MODEL
100
AcDbLine
 10
122.3568970758498
 20
139.1293267690645
 30
0.0
 11
121.5440826524497
 21
139.1294686318645
 31
0.0
  0
LINE
  5
5CE7
330
A
100
AcDbEntity
  8
MODEL
100
AcDbLine
 10
296.5239607430498
 20
139.1293267690645
 30
0.0
 11
297.3367751664497
 21
139.1294686318645
 31
0.0
  0
LINE
  5
5CE8
330
A
100
AcDbEntity
  8
MODEL
100
AcDbLine
 10
294.3552098382498
 20
139.1294662856645
 30
0.0
 11
293.5432313094497
 21
139.1293291154645
 31
0.0
  0
SPLINE
  5
5CE9
330
A
100
AcDbEntity
  8
MODEL
100
AcDbSpline
210
0.0
220
0.0
230
1.0
 70
    12
 71
     2
 72
     8
 73
     5
 74
     0
 42
0.000000001
 43
0.0000000001
 40
0.0
 40
0.0
 40
0.0
 40
0.5
 40
0.5
 40
1.0
 40
1.0
 40
1.0
 10
284.8162330584722
 20
139.1293293648531
 30
0.0
 41
1.0
 10
284.8868433836744
 20
139.12931572076
 30
0.0
 41
0.812454813921875
 10
285.1764251690994
 20
139.1293578093267
 30
0.0
 41
1.0
 10
285.4660069545527
 20
139.1293998978934
 30
0.0
 41
0.8124548119813201
 10
285.5808249079345
 20
139.1294404926129
 30
0.0
 41
1.0
  0
SPLINE
  5
5CEA
330
A
100
AcDbEntity
  8
MODEL
100
AcDbSpline
210
0.0
220
0.0
230
1.0
 70
    12
 71
     2
 72
     8
 73
     5
 74
     0
 42
0.000000001
 43
0.0000000001
 40
0.0
 40
0.0
 40
0.0
 40
0.5
 40
0.5
 40
1.0
 40
1.0
 40
1.0
 10
285.6137839096788
 20
139.1294593659607
 30
0.0
 41
1.0
 10
285.6137839043396
 20
139.1294944179665
 30
0.0
 41
0.7071067829457224
 10
285.2089386929534
 20
139.1294327525297
 30
0.0
 41
1.0
 10
284.8040934815673
 20
139.1293710870929
 30
0.0
 41
0.7071067813015874
 10
284.8040934868649
 20
139.1293360350871
 30
0.0
 41
1.0
  0
SPLINE
  5
5CEB
330
A
100
AcDbEntity
  8
MODEL
100
AcDbSpline
210
0.0
220
0.0
230
1.0
 70
    12
 71
     2
 72
     8
 73
     5
 74
     0
 42
0.000000001
 43
0.0000000001
 40
0.0
 40
0.0
 40
0.0
 40
0.5
 40
0.5
 40
1.0
 40
1.0
 40
1.0
 10
270.9018809329181
 20
139.1293471551323
 30
0.0
 41
1.0
 10
270.9018809387568
 20
139.1293005697472
 30
0.0
 41
0.7300358316703496
 10
271.2785802668469
 20
139.1293447137705
 30
0.0
 41
1.0
 10
271.6552795949227
 20
139.1293888577938
 30
0.0
 41
0.7300358328240103
 10
271.7049320512182
 20
139.1294412617704
 30
0.0
 41
1.0
  0
SPLINE
  5
5CEC
330
A
100
AcDbEntity
  8
MODEL
100
AcDbSpline
210
0.0
220
0.0
230
1.0
 70
    12
 71
     2
 72
     8
 73
     5
 74
     0
 42
0.000000001
 43
0.0000000001
 40
0.0
 40
0.0
 40
0.0
 40
0.5
 40
0.5
 40
1.0
 40
1.0
 40
1.0
 10
271.7084352551216
 20
139.129448245815
 30
0.0
 41
1.0
 10
271.7084360632505
 20
139.1294980097354
 30
0.0
 41
0.7071064221862987
 10
271.3051584949657
 20
139.129447464343
 30
0.0
 41
1.0
 10
270.9018809266806
 20
139.1293969189506
 30
0.0
 41
0.7071064251699212
 10
270.9018809329181
 20
139.1293471551323
 30
0.0
 41
1.0
  0
SPLINE
  5
5CED
330
A
100
AcDbEntity
  8
MODEL
100
AcDbSpline
210
0.0
220
0.0
230
1.0
 70
    12
 71
     2
 72
    10
 73
     7
 74
     0
 42
0.000000001
 43
0.0000000001
 40
0.0
 40
0.0
 40
0.0
 40
0.3333333333333333
 40
0.3333333333333333
 40
0.6666666666666666
 40
0.6666666666666666
 40
1.0
 40
1.0
 40
1.0
 10
252.7870147078689
 20
139.1293542664612
 30
0.0
 41
1.0
 10
252.8720113631725
 20
139.1292617741863
 30
0.0
 41
0.5184515384889121
 10
253.4153102831696
 20
139.1293680627627
 30
0.0
 41
1.0
 10
253.9586092033503
 20
139.1294743513391
 30
0.0
 41
0.5184515391116227
 10
253.3711523181734
 20
139.1294685445368
 30
0.0
 41
1.0
 10
252.783695433179
 20
139.1294627377345
 30
0.0
 41
0.5184515396940849
 10
252.7836954421929
 20
139.1293618194747
 30
0.0
 41
1.0
  0
SPLINE
  5
5CEE
330
A
100
AcDbEntity
  8
MODEL
100
AcDbSpline
210
0.0
220
0.0
230
1.0
 70
    12
 71
     2
 72
     8
 73
     5
 74
     0
 42
0.000000001
 43
0.0000000001
 40
0.0
 40
0.0
 40
0.0
 40
0.5
 40
0.5
 40
1.0
 40
1.0
 40
1.0
 10
231.6839446947066
 20
139.1293790735085
 30
0.0
 41
1.0
 10
231.6839446974666
 20
139.1293197321173
 30
0.0
 41
0.7555523902546034
 10
232.0277263828224
 20
139.1293273095413
 30
0.0
 41
1.0
 10
232.3715080681742
 20
139.1293348869652
 30
0.0
 41
0.7555523912918067
 10
232.4689487430504
 20
139.1293963760837
 30
0.0
 41
1.0
  0
SPLINE
  5
5CEF
330
A
100
AcDbEntity
  8
MODEL
100
AcDbSpline
210
0.0
220
0.0
230
1.0
 70
    12
 71
     2
 72
     8
 73
     5
 74
     0
 42
0.000000001
 43
0.0000000001
 40
0.0
 40
0.0
 40
0.0
 40
0.5
 40
0.5
 40
1.0
 40
1.0
 40
1.0
 10
232.4850380837908
 20
139.1294163264118
 30
0.0
 41
1.0
 10
232.4850446799217
 20
139.1294847692544
 30
0.0
 41
0.7071038678123784
 10
232.0844946857227
 20
139.1294661426493
 30
0.0
 41
1.0
 10
231.6839446915239
 20
139.1294475160443
 30
0.0
 41
0.7071038681624265
 10
231.6839446947066
 20
139.1293790735085
 30
0.0
 41
1.0
  0
LINE
  5
5CF0
330
A
100
AcDbEntity
  8
MODEL
100
AcDbLine
 10
191.6404289094497
 20
191.8169986534645
 30
0.0
 11
191.6342943640497
 21
191.8108641080645
 31
0.0
  0
LINE
  5
5CF1
330
A
100
AcDbEntity
  8
MODEL
100
AcDbLine
 10
227.2465634548497
 20
191.8108641080645
 30
0.0
 11
227.2404289094496
 21
191.8169986534645
 31
0.0
  0
LINE
  5
5CF2
330
A
100
AcDbEntity
  8
MODEL
100
AcDbLine
 10
191.6404289094497
 20
191.8169986534645
 30
0.0
 11
227.2404289094496
 21
191.8169986534645
 31
0.0
  0
SPLINE
  5
5CF3
330
A
100
AcDbEntity
  8
MODEL
100
AcDbSpline
210
0.0
220
0.0
230
1.0
 70
    12
 71
     2
 72
     8
 73
     5
 74
     0
 42
0.000000001
 43
0.0000000001
 40
0.0
 40
0.0
 40
0.0
 40
0.5
 40
0.5
 40
1.0
 40
1.0
 40
1.0
 10
193.4404289094952
 20
192.9169986534515
 30
0.0
 41
1.0
 10
192.6904289094952
 20
192.9169986534515
 30
0.0
 41
0.7071067811865047
 10
192.6904289094952
 20
192.3669986534515
 30
0.0
 41
1.0
 10
192.6904289094952
 20
191.8169986534515
 30
0.0
 41
0.7071067811865047
 10
193.4404289094952
 20
191.8169986534515
 30
0.0
 41
1.0
  0
SPLINE
  5
5CF4
330
A
100
AcDbEntity
  8
MODEL
100
AcDbSpline
210
0.0
220
0.0
230
1.0
 70
    12
 71
     2
 72
     8
 73
     5
 74
     0
 42
0.000000001
 43
0.0000000001
 40
0.0
 40
0.0
 40
0.0
 40
0.5
 40
0.5
 40
1.0
 40
1.0
 40
1.0
 10
225.4404289094952
 20
191.8169986534517
 30
0.0
 41
1.0
 10
226.1904289094951
 20
191.8169986534517
 30
0.0
 41
0.7071067811865047
 10
226.1904289094952
 20
192.3669986534517
 30
0.0
 41
1.0
 10
226.1904289094951
 20
192.9169986534517
 30
0.0
 41
0.7071067811865047
 10
225.4404289094952
 20
192.9169986534517
 30
0.0
 41
1.0
  0
ARC
  5
5CF5
330
A
100
AcDbEntity
  8
MODEL
100
AcDbCircle
 10
78.2765886802498
 20
165.6866953870645
 30
0.0
 40
52.12980441646414
100
AcDbArc
 50
339.3397497286999
 51
355.7601626255
  0
ARC
  5
5CF6
330
A
100
AcDbEntity
  8
MODEL
100
AcDbCircle
 10
66.95517663544967
 20
169.5378581388645
 30
0.0
 40
64.13624740610034
100
AcDbArc
 50
333.8332013172999
 51
336.5189805194
  0
ARC
  5
5CF7
330
A
100
AcDbEntity
  8
MODEL
100
AcDbCircle
 10
340.6042691388496
 20
165.6866953870645
 30
0.0
 40
52.12980441646414
100
AcDbArc
 50
184.2398373745
 51
200.6602502712999
  0
ARC
  5
5CF8
330
A
100
AcDbEntity
  8
MODEL
100
AcDbCircle
 10
351.9256811834497
 20
169.5378581388645
 30
0.0
 40
64.13624740610034
100
AcDbArc
 50
203.4810194805998
 51
206.1667986826999
  0
SPLINE
  5
5CF9
330
A
100
AcDbEntity
  8
MODEL
100
AcDbSpline
210
0.0
220
0.0
230
1.0
 70
    12
 71
     2
 72
     8
 73
     5
 74
     0
 42
0.000000001
 43
0.0000000001
 40
0.0
 40
0.0
 40
0.0
 40
0.5
 40
0.5
 40
1.0
 40
1.0
 40
1.0
 10
209.4404289094952
 20
139.1293267690837
 30
0.0
 41
1.0
 10
209.8405515352009
 20
139.1293267690837
 30
0.0
 41
0.707106781209862
 10
209.8405515352009
 20
139.1293977005239
 30
0.0
 41
1.0
 10
209.8405515352006
 20
139.1294686319642
 30
0.0
 41
0.7071067812098627
 10
209.4404289094952
 20
139.1294686319642
 30
0.0
 41
1.0
  0
ARC
  5
5CFA
330
A
100
AcDbEntity
  8
MODEL
100
AcDbCircle
 10
209.0453710388498
 20
140.7150581862645
 30
0.0
 40
1.585697768563374
100
AcDbArc
 50
200.4100963570987
 51
270.0486581647992
  0
SPLINE
  5
5CFB
330
A
100
AcDbEntity
  8
MODEL
100
AcDbSpline
210
0.0
220
0.0
230
1.0
 70
    12
 71
     2
 72
     8
 73
     5
 74
     0
 42
0.000000001
 43
0.0000000001
 40
0.0
 40
0.0
 40
0.0
 40
0.5
 40
0.5
 40
1.0
 40
1.0
 40
1.0
 10
209.4404289094952
 20
139.1294686319642
 30
0.0
 41
1.0
 10
209.0403062837892
 20
139.1294686319642
 30
0.0
 41
0.707106781209862
 10
209.0403062837894
 20
139.1293977005239
 30
0.0
 41
1.0
 10
209.0403062837893
 20
139.1293267690837
 30
0.0
 41
0.7071067812098627
 10
209.4404289094952
 20
139.1293267690837
 30
0.0
 41
1.0
  0
LINE
  5
5CFC
330
A
100
AcDbEntity
  8
MODEL
100
AcDbLine
 10
227.4404289094497
 20
192.9169986534645
 30
0.0
 11
191.4404289094497
 21
192.9169986534645
 31
0.0
  0
LINE
  5
5CFD
330
A
100
AcDbEntity
  8
MODEL
100
AcDbLine
 10
193.0785262620496
 20
199.4169986534645
 30
0.0
 11
206.0181696788496
 21
199.4169986534645
 31
0.0
  0
LINE
  5
5CFE
330
A
100
AcDbEntity
  8
MODEL
100
AcDbLine
 10
225.8023315568497
 20
199.4169986534645
 30
0.0
 11
212.8626881402498
 21
199.4169986534645
 31
0.0
  0
SPLINE
  5
5CFF
330
A
100
AcDbEntity
  8
MODEL
100
AcDbSpline
210
0.0
220
0.0
230
1.0
 70
     8
 71
     3
 72
    12
 73
     8
 74
     0
 42
0.000000001
 43
0.0000000001
 40
0.0
 40
0.0
 40
0.0
 40
0.0
 40
0.4999999999999999
 40
0.4999999999999999
 40
0.75
 40
0.75
 40
1.0
 40
1.0
 40
1.0
 40
1.0
 10
212.8626881402373
 20
199.4169986534517
 30
0.0
 10
213.9170928135294
 20
199.1542183364959
 30
0.0
 10
214.9673593653953
 20
198.7427334789469
 30
0.0
 10
216.3034185053933
 20
197.7650224828967
 30
0.0
 10
216.6976817598937
 20
197.3876630387967
 30
0.0
 10
217.33531196564
 20
196.4809668873243
 30
0.0
 10
217.5623254865815
 20
195.9600867254991
 30
0.0
 10
217.6475380522724
 20
195.4169986534517
 30
0.0
  0
LINE
  5
5D00
330
A
100
AcDbEntity
  8
MODEL
100
AcDbLine
 10
206.0181696788496
 20
199.4169986534645
 30
0.0
 11
212.8626881402498
 21
199.4169986534645
 31
0.0
  0
SPLINE
  5
5D01
330
A
100
AcDbEntity
  8
MODEL
100
AcDbSpline
210
0.0
220
0.0
230
1.0
 70
     8
 71
     3
 72
    10
 73
     6
 74
     0
 42
0.000000001
 43
0.0000000001
 40
0.0
 40
0.0
 40
0.0
 40
0.0
 40
0.5
 40
0.5
 40
1.0
 40
1.0
 40
1.0
 40
1.0
 10
201.2333197667177
 20
195.4169986534517
 30
0.0
 10
201.4050932392578
 20
196.5117682249867
 30
0.0
 10
202.1415580998381
 20
197.4472832736501
 30
0.0
 10
203.9130282172183
 20
198.7411499908407
 30
0.0
 10
204.9508244358664
 20
199.1509932682981
 30
0.0
 10
206.0181696787528
 20
199.4169986534517
 30
0.0
  0
LINE
  5
5D02
330
A
100
AcDbEntity
  8
MODEL
100
AcDbLine
 10
216.6341761944497
 20
194.9169986534645
 30
0.0
 11
202.2466816244497
 21
194.9169986534645
 31
0.0
  0
SPLINE
  5
5D03
330
A
100
AcDbEntity
  8
MODEL
100
AcDbSpline
210
0.0
220
0.0
230
1.0
 70
     8
 71
     3
 72
    23
 73
    19
 74
     0
 42
0.000000001
 43
0.0000000001
 40
0.0
 40
0.0
 40
0.0
 40
0.0
 40
0.0543446111547478
 40
0.0543446111547478
 40
0.0543446111547478
 40
0.1084286213995375
 40
0.1084286213995375
 40
0.1084286213995375
 40
0.1915943849860816
 40
0.1915943849860816
 40
0.1915943849860816
 40
0.3379732021388338
 40
0.3379732021388338
 40
0.3379732021388338
 40
0.6500813303773655
 40
0.6500813303773655
 40
0.6500813303773655
 40
1.0
 40
1.0
 40
1.0
 40
1.0
 10
217.6475380522724
 20
195.4169986534517
 30
0.0
 10
217.6513366704709
 20
195.3927887940565
 30
0.0
 10
217.6513775337454
 20
195.3676397618917
 30
0.0
 10
217.6476575568037
 20
195.3436795302298
 30
0.0
 10
217.6439465063009
 20
195.3197767934261
 30
0.0
 10
217.6364928766776
 20
195.2965051059765
 30
0.0
 10
217.6265083831757
 20
195.2751071056995
 30
0.0
 10
217.611221518628
 20
195.2423454706939
 30
0.0
 10
217.5897849703828
 20
195.2130005700971
 30
0.0
 10
217.5658590808549
 20
195.1874290457557
 30
0.0
 10
217.5238859379136
 20
195.1425689687607
 30
0.0
 10
217.4732351620152
 20
195.1073047699309
 30
0.0
 10
217.4207351487418
 20
195.0782928592695
 30
0.0
 10
217.309301397048
 20
195.0167137120037
 30
0.0
 10
217.1855042396402
 20
194.9800910135557
 30
0.0
 10
217.0612378734839
 20
194.9557343386395
 30
0.0
 10
216.9214850439861
 20
194.9283422586911
 30
0.0
 10
216.7778579439838
 20
194.9169986534515
 30
0.0
 10
216.6341761944642
 20
194.9169986534515
 30
0.0
  0
SPLINE
  5
5D04
330
A
100
AcDbEntity
  8
MODEL
100
AcDbSpline
210
0.0
220
0.0
230
1.0
 70
     8
 71
     3
 72
    23
 73
    19
 74
     0
 42
0.000000001
 43
0.0000000001
 40
0.0
 40
0.0
 40
0.0
 40
0.0
 40
0.4885767794479003
 40
0.4885767794479003
 40
0.4885767794479003
 40
0.6314204226029524
 40
0.6314204226029524
 40
0.6314204226029524
 40
0.8276281383930875
 40
0.8276281383930875
 40
0.8276281383930875
 40
0.8930223517453385
 40
0.8930223517453385
 40
0.8930223517453385
 40
0.9594244628102212
 40
0.9594244628102212
 40
0.9594244628102212
 40
1.0
 40
1.0
 40
1.0
 40
1.0
 10
202.2466816245259
 20
194.9169986534515
 30
0.0
 10
202.046878948274
 20
194.9169986534515
 30
0.0
 10
201.8456431897895
 20
194.9377101267259
 30
0.0
 10
201.6566794331092
 20
194.9964808430309
 30
0.0
 10
201.6009107240531
 20
195.0138257933863
 30
0.0
 10
201.5460136467046
 20
195.0347720131081
 30
0.0
 10
201.4934815698879
 20
195.0608300191039
 30
0.0
 10
201.4220955920679
 20
195.0962403122191
 30
0.0
 10
201.3521282231985
 20
195.1417274432177
 30
0.0
 10
201.2995201253215
 20
195.2049518116703
 30
0.0
 10
201.2816584952469
 20
195.2264179038987
 30
0.0
 10
201.2657498126197
 20
195.2503399041407
 30
0.0
 10
201.2537539518427
 20
195.2763917680051
 30
0.0
 10
201.2416517567032
 20
195.3026745622197
 30
0.0
 10
201.2334195734101
 20
195.3319507010281
 30
0.0
 10
201.2311112638737
 20
195.3616206609188
 30
0.0
 10
201.2296848960442
 20
195.3799545436255
 30
0.0
 10
201.2304517530589
 20
195.3987198468569
 30
0.0
 10
201.2333197667177
 20
195.4169986534517
 30
0.0
  0
LINE
  5
5D05
330
A
100
AcDbEntity
  8
MODEL
100
AcDbLine
 10
227.4404289094497
 20
192.9169986534645
 30
0.0
 11
227.4404289094497
 21
194.9169986534645
 31
0.0
  0
LINE
  5
5D06
330
A
100
AcDbEntity
  8
MODEL
100
AcDbLine
 10
191.4404289094497
 20
194.9169986534645
 30
0.0
 11
191.4404289094497
 21
192.9169986534645
 31
0.0
  0
ARC
  5
5D07
330
A
100
AcDbEntity
  8
MODEL
100
AcDbCircle
 10
198.4404289094497
 20
194.9169986534645
 30
0.0
 40
7.0
100
AcDbArc
 50
139.9947991150997
 51
180.0
  0
ARC
  5
5D08
330
A
100
AcDbEntity
  8
MODEL
100
AcDbCircle
 10
220.4404289094497
 20
194.9169986534645
 30
0.0
 40
7.0
100
AcDbArc
 50
0.0
 51
40.00520088490032
  0
LINE
  5
5D09
330
A
100
AcDbEntity
  8
MODEL
100
AcDbLine
 10
204.9862174192498
 20
211.0169986534645
 30
0.0
 11
213.8946403998497
 21
211.0169986534645
 31
0.0
  0
ARC
  5
5D0A
330
A
100
AcDbEntity
  8
MODEL
100
AcDbCircle
 10
209.4404289094497
 20
194.0169986534645
 30
0.0
 40
14.0
100
AcDbArc
 50
157.3119088490998
 51
244.8493365875003
  0
ARC
  5
5D0B
330
A
100
AcDbEntity
  8
MODEL
100
AcDbCircle
 10
209.4404289094497
 20
194.0169986534645
 30
0.0
 40
14.0
100
AcDbArc
 50
295.1506634124997
 51
22.68809115090014
  0
LINE
  5
5D0E
330
A
100
AcDbEntity
  8
MODEL
100
AcDbLine
 10
209.4404289094497
 20
194.0169986534645
 30
0.0
 11
209.0931325542498
 21
192.0473831474645
 31
0.0
  0
LINE
  5
5D0F
330
A
100
AcDbEntity
  8
MODEL
100
AcDbLine
 10
209.4404289094497
 20
194.0169986534645
 30
0.0
 11
209.7877252648497
 21
192.0473831474645
 31
0.0
  0
ARC
  5
5D10
330
A
100
AcDbEntity
  8
MODEL
100
AcDbCircle
 10
209.4404289094497
 20
411.0169986534645
 30
0.0
 40
18.0
100
AcDbArc
 50
226.0564643091001
 51
358.9435356909
  0
ARC
  5
5D11
330
A
100
AcDbEntity
  8
MODEL
100
AcDbCircle
 10
209.4404289094497
 20
411.0169986534645
 30
0.0
 40
18.0
100
AcDbArc
 50
46.05646430910011
 51
178.9435356909
  0
ARC
  5
5D12
330
A
100
AcDbEntity
  8
MODEL
100
AcDbCircle
 10
209.4404289094497
 20
411.0169986534645
 30
0.0
 40
18.0
100
AcDbArc
 50
178.9435356909
 51
226.0564643091001
  0
ARC
  5
5D13
330
A
100
AcDbEntity
  8
MODEL
100
AcDbCircle
 10
198.1830365582497
 20
411.4838605496644
 30
0.0
 40
6.74089944852514
100
AcDbArc
 50
171.5145577341001
 51
181.1473918661994
  0
ARC
  5
5D14
330
A
100
AcDbEntity
  8
MODEL
100
AcDbCircle
 10
202.1764007524497
 20
403.1428267978645
 30
0.0
 40
7.293295844228208
100
AcDbArc
 50
224.217856785199
 51
233.1195238906004
  0
ARC
  5
5D15
330
A
100
AcDbEntity
  8
MODEL
100
AcDbCircle
 10
209.4404289094497
 20
411.0169986534645
 30
0.0
 40
18.00000000000001
100
AcDbArc
 50
226.0564643091001
 51
358.9435356909
  0
ARC
  5
5D16
330
A
100
AcDbEntity
  8
MODEL
100
AcDbCircle
 10
209.4404289094497
 20
411.0169986534645
 30
0.0
 40
18.00000000000001
100
AcDbArc
 50
358.9435356909
 51
46.05646430910011
  0
ARC
  5
5D17
330
A
100
AcDbEntity
  8
MODEL
100
AcDbCircle
 10
216.7044570664497
 20
418.8911705090644
 30
0.0
 40
7.293295844228208
100
AcDbArc
 50
44.21785678519947
 51
53.11952389060048
  0
ARC
  5
5D18
330
A
100
AcDbEntity
  8
MODEL
100
AcDbCircle
 10
220.6978216850497
 20
410.5501155662645
 30
0.0
 40
6.740899448525142
100
AcDbArc
 50
351.5147343681001
 51
1.147572019399335
  0
CIRCLE
  5
5D19
330
A
100
AcDbEntity
  8
MODEL
100
AcDbCircle
 10
209.4404289094497
 20
411.0169986534645
 30
0.0
 40
13.5
  0
ARC
  5
5D1A
330
A
100
AcDbEntity
  8
MODEL
100
AcDbCircle
 10
282.2902759290497
 20
411.0137200664644
 30
0.0
 40
183.5118759000302
100
AcDbArc
 50
155.7428625166999
 51
204.2555331256999
  0
ARC
  5
5D1B
330
A
100
AcDbEntity
  8
MODEL
100
AcDbCircle
 10
143.7504152176497
 20
345.3310016782645
 30
0.0
 40
30.36479402893296
100
AcDbArc
 50
198.6400076423
 51
251.373101947
  0
ARC
  5
5D1C
330
A
100
AcDbEntity
  8
MODEL
100
AcDbCircle
 10
143.6927110068497
 20
476.7647583726643
 30
0.0
 40
30.28780528231136
100
AcDbArc
 50
108.5617084922997
 51
161.4378908566999
  0
ARC
  5
5D1D
330
A
100
AcDbEntity
  8
MODEL
100
AcDbCircle
 10
209.4437032270497
 20
483.8668331766644
 30
0.0
 40
183.5118638672446
100
AcDbArc
 50
245.7431001142
 51
294.2554025083001
  0
ARC
  5
5D1E
330
A
100
AcDbEntity
  8
MODEL
100
AcDbCircle
 10
209.4436910152498
 20
338.1628247446645
 30
0.0
 40
183.5158139397394
100
AcDbArc
 50
65.74470034410004
 51
114.2564947318
  0
ARC
  5
5D1F
330
A
100
AcDbEntity
  8
MODEL
100
AcDbCircle
 10
275.1158576178497
 20
345.3416258088645
 30
0.0
 40
30.38208457193022
100
AcDbArc
 50
288.6492649123002
 51
341.3514131330998
  0
ARC
  5
5D20
330
A
100
AcDbEntity
  8
MODEL
100
AcDbCircle
 10
275.1821029150498
 20
476.7625262544644
 30
0.0
 40
30.29430273229336
100
AcDbArc
 50
18.56117726960005
 51
71.42430548310011
  0
ARC
  5
5D21
330
A
100
AcDbEntity
  8
MODEL
100
AcDbCircle
 10
136.5863068780496
 20
411.0137184292645
 30
0.0
 40
183.5157633324498
100
AcDbArc
 50
335.7452838645999
 51
24.25637509810003
  0
CIRCLE
  5
5D22
330
A
100
AcDbEntity
  8
MODEL
100
AcDbCircle
 10
209.4404289094497
 20
411.0169986534645
 30
0.0
 40
9.249999999999998
  0
CIRCLE
  5
5D23
330
A
100
AcDbEntity
  8
MODEL
100
AcDbCircle
 10
209.4400909286497
 20
411.0181162642644
 30
0.0
 40
43.24906359606514
  0
ARC
  5
5D24
330
A
100
AcDbEntity
  8
MODEL
100
AcDbCircle
 10
209.4405087604497
 20
342.9266044816645
 30
0.0
 40
169.7902582391043
100
AcDbArc
 50
66.04613012590004
 51
113.9539622975
  0
ARC
  5
5D25
330
A
100
AcDbEntity
  8
MODEL
100
AcDbCircle
 10
141.3198305174498
 20
411.0172108874644
 30
0.0
 40
169.8170796524777
100
AcDbArc
 50
336.0501644206
 51
23.94975273549998
  0
ARC
  5
5D26
330
A
100
AcDbEntity
  8
MODEL
100
AcDbCircle
 10
209.4399219892497
 20
479.1073780720644
 30
0.0
 40
169.7902437517742
100
AcDbArc
 50
246.0462476623001
 51
293.9541028346
  0
ARC
  5
5D27
330
A
100
AcDbEntity
  8
MODEL
100
AcDbCircle
 10
277.5612571284497
 20
411.0175022218644
 30
0.0
 40
169.8174080588717
100
AcDbArc
 50
156.0504227375
 51
203.9499167493999
  0
ARC
  5
5D28
330
A
100
AcDbEntity
  8
MODEL
100
AcDbCircle
 10
209.4398420796498
 20
342.5660376586645
 30
0.0
 40
171.3403362760356
100
AcDbArc
 50
66.10179293590002
 51
113.897882858
  0
ARC
  5
5D29
330
A
100
AcDbEntity
  8
MODEL
100
AcDbCircle
 10
270.5407138432498
 20
472.1170819856644
 30
0.0
 40
28.34184081113058
100
AcDbArc
 50
17.11767185490008
 51
72.8831589254002
  0
ARC
  5
5D2A
330
A
100
AcDbEntity
  8
MODEL
100
AcDbCircle
 10
140.9655706304496
 20
411.0175820222645
 30
0.0
 40
171.3618603496249
100
AcDbArc
 50
336.1054743972
 51
23.89421687409999
  0
ARC
  5
5D2B
330
A
100
AcDbEntity
  8
MODEL
100
AcDbCircle
 10
270.5591873068498
 20
349.8978093550645
 30
0.0
 40
28.3180765051172
100
AcDbArc
 50
287.0931872461995
 51
342.908512577
  0
ARC
  5
5D2C
330
A
100
AcDbEntity
  8
MODEL
100
AcDbCircle
 10
209.4398343792496
 20
479.4633844128645
 30
0.0
 40
171.3361566473872
100
AcDbArc
 50
246.1015197262
 51
293.8988699921
  0
ARC
  5
5D2D
330
A
100
AcDbEntity
  8
MODEL
100
AcDbCircle
 10
148.4728351626496
 20
350.0481850856645
 30
0.0
 40
28.50693113948284
100
AcDbArc
 50
197.2911656217
 51
252.7052146163
  0
ARC
  5
5D2E
330
A
100
AcDbEntity
  8
MODEL
100
AcDbCircle
 10
277.9150264120498
 20
411.0175995410644
 30
0.0
 40
171.3616225246748
100
AcDbArc
 50
156.1057961062
 51
203.8945867442999
  0
ARC
  5
5D2F
330
A
100
AcDbEntity
  8
MODEL
100
AcDbCircle
 10
148.5229461268497
 20
471.9352328152645
 30
0.0
 40
28.57035186592036
100
AcDbArc
 50
107.3562826109997
 51
162.6420685651001
  0
ARC
  5
5D30
330
A
100
AcDbEntity
  8
MODEL
100
AcDbCircle
 10
148.5828985088498
 20
471.8757715424645
 30
0.0
 40
27.42991415733102
100
AcDbArc
 50
107.1884404291003
 51
162.8084873971002
  0
ARC
  5
5D31
330
A
100
AcDbEntity
  8
MODEL
100
AcDbCircle
 10
270.3048278182497
 20
471.8827175202644
 30
0.0
 40
27.42107403115778
100
AcDbArc
 50
17.18229446360004
 51
72.81719923299973
  0
ARC
  5
5D32
330
A
100
AcDbEntity
  8
MODEL
100
AcDbCircle
 10
270.3006487090498
 20
350.1555889470645
 30
0.0
 40
27.42618067965258
100
AcDbArc
 50
287.1892328962996
 51
342.8119163823999
  0
ARC
  5
5D33
330
A
100
AcDbEntity
  8
MODEL
100
AcDbCircle
 10
148.5776896306496
 20
350.1524831590645
 30
0.0
 40
27.42285057240314
100
AcDbArc
 50
197.1836050207
 51
252.8139742458
  0
ARC
  5
5D34
330
A
100
AcDbEntity
  8
MODEL
100
AcDbCircle
 10
137.8674288666497
 20
411.0168302364644
 30
0.0
 40
179.3450392773752
100
AcDbArc
 50
335.9156372937
 51
24.0844611715
  0
ARC
  5
5D35
330
A
100
AcDbEntity
  8
MODEL
100
AcDbCircle
 10
273.5933322468496
 20
475.1699252120644
 30
0.0
 40
29.42740363556972
100
AcDbArc
 50
17.87920945280003
 51
72.12036083449976
  0
ARC
  5
5D36
330
A
100
AcDbEntity
  8
MODEL
100
AcDbCircle
 10
209.4404726744498
 20
339.4446576370645
 30
0.0
 40
179.3443866135566
100
AcDbArc
 50
65.91545450010007
 51
114.0845438822
  0
ARC
  5
5D37
330
A
100
AcDbEntity
  8
MODEL
100
AcDbCircle
 10
145.3435215986498
 20
475.1139006788644
 30
0.0
 40
29.49790984123748
100
AcDbArc
 50
107.9495696884001
 51
162.0504553236001
  0
ARC
  5
5D38
330
A
100
AcDbEntity
  8
MODEL
100
AcDbCircle
 10
281.0128362076497
 20
411.0169580750645
 30
0.0
 40
179.3444471169687
100
AcDbArc
 50
155.9154720094
 51
204.0845915856999
  0
ARC
  5
5D39
330
A
100
AcDbEntity
  8
MODEL
100
AcDbCircle
 10
145.3430030434498
 20
346.9195510650645
 30
0.0
 40
29.49725213061708
100
AcDbArc
 50
197.9493813730999
 51
252.0514278628999
  0
ARC
  5
5D3A
330
A
100
AcDbEntity
  8
MODEL
100
AcDbCircle
 10
209.4405963746498
 20
482.5899408248645
 30
0.0
 40
179.3449867644646
100
AcDbArc
 50
245.9155589705
 51
294.0844310103
  0
ARC
  5
5D3B
330
A
100
AcDbEntity
  8
MODEL
100
AcDbCircle
 10
273.0956062798497
 20
347.3618506224645
 30
0.0
 40
30.05576634785706
100
AcDbArc
 50
288.4913327468998
 51
341.5089556392996
  0
CIRCLE
  5
5D3C
330
A
100
AcDbEntity
  8
MODEL
100
AcDbCircle
 10
209.4404289094497
 20
411.0169986534645
 30
0.0
 40
22.32598063299838
  0
CIRCLE
  5
5D3D
330
A
100
AcDbEntity
  8
MODEL
100
AcDbCircle
 10
209.4404289094497
 20
411.0169986534645
 30
0.0
 40
18.5
  0
ARC
  5
5D3E
330
A
100
AcDbEntity
  8
MODEL
100
AcDbCircle
 10
209.4404289094497
 20
411.0169986534645
 30
0.0
 40
13.3
100
AcDbArc
 50
295.5438366112
 51
64.45616338879987
  0
LINE
  5
5D3F
330
A
100
AcDbEntity
  8
MODEL
100
AcDbLine
 10
215.1754092930497
 20
399.0169986534645
 30
0.0
 11
213.8946403998497
 21
399.0169986534645
 31
0.0
  0
LINE
  5
5D40
330
A
100
AcDbEntity
  8
MODEL
100
AcDbLine
 10
213.8946403998497
 20
423.0169986534645
 30
0.0
 11
204.9862174192498
 21
423.0169986534645
 31
0.0
  0
LINE
  5
5D41
330
A
100
AcDbEntity
  8
MODEL
100
AcDbLine
 10
213.8946403998497
 20
423.0169986534645
 30
0.0
 11
215.1754092930497
 21
423.0169986534645
 31
0.0
  0
ARC
  5
5D42
330
A
100
AcDbEntity
  8
MODEL
100
AcDbCircle
 10
209.4404289094497
 20
411.0169986534645
 30
0.0
 40
13.3
100
AcDbArc
 50
115.5438366112002
 51
244.4561633887997
  0
LINE
  5
5D43
330
A
100
AcDbEntity
  8
MODEL
100
AcDbLine
 10
203.7054485258496
 20
423.0169986534645
 30
0.0
 11
204.9862174192498
 21
423.0169986534645
 31
0.0
  0
LINE
  5
5D44
330
A
100
AcDbEntity
  8
MODEL
100
AcDbLine
 10
204.9862174192498
 20
399.0169986534645
 30
0.0
 11
213.8946403998497
 21
399.0169986534645
 31
0.0
  0
LINE
  5
5D45
330
A
100
AcDbEntity
  8
MODEL
100
AcDbLine
 10
204.9862174192498
 20
399.0169986534645
 30
0.0
 11
203.7054485258496
 21
399.0169986534645
 31
0.0
  0
CIRCLE
  5
5D46
330
A
100
AcDbEntity
  8
MODEL
100
AcDbCircle
 10
209.4404289094497
 20
411.0169986534645
 30
0.0
 40
10.6155
  0
CIRCLE
  5
5D47
330
A
100
AcDbEntity
  8
MODEL
100
AcDbCircle
 10
209.4404289094497
 20
411.0169986534645
 30
0.0
 40
9.3155
  0
CIRCLE
  5
5D48
330
A
100
AcDbEntity
  8
MODEL
100
AcDbCircle
 10
209.4404289094497
 20
411.0169986534645
 30
0.0
 40
6.0
  0
LINE
  5
5D4D
330
A
100
AcDbEntity
  8
MODEL
100
AcDbLine
 10
122.7814301596496
 20
497.6766358740645
 30
0.0
 11
124.0585857712498
 21
496.3994438216644
 31
0.0
  0
LINE
  5
5D4E
330
A
100
AcDbEntity
  8
MODEL
100
AcDbLine
 10
125.3677465000497
 20
495.0902457390644
 30
0.0
 11
127.5980556624496
 21
492.8598729400644
 31
0.0
  0
LINE
  5
5D4F
330
A
100
AcDbEntity
  8
MODEL
100
AcDbLine
 10
296.0994276594498
 20
497.6766358740645
 30
0.0
 11
294.8222720476498
 21
496.3994438216644
 31
0.0
  0
LINE
  5
5D50
330
A
100
AcDbEntity
  8
MODEL
100
AcDbLine
 10
293.5131113190497
 20
495.0902457390644
 30
0.0
 11
291.2828021564497
 21
492.8598729400644
 31
0.0
  0
LINE
  5
5D51
330
A
100
AcDbEntity
  8
MODEL
100
AcDbLine
 10
122.7814301596496
 20
324.3573614328645
 30
0.0
 11
124.0585857712498
 21
325.6345534852645
 31
0.0
  0
LINE
  5
5D52
330
A
100
AcDbEntity
  8
MODEL
100
AcDbLine
 10
125.3677465000497
 20
326.9437515678645
 30
0.0
 11
127.5980556624496
 21
329.1741243668645
 31
0.0
  0
LINE
  5
5D53
330
A
100
AcDbEntity
  8
MODEL
100
AcDbLine
 10
296.0994276594498
 20
324.3573614328645
 30
0.0
 11
294.8222720476498
 21
325.6345534852645
 31
0.0
  0
LINE
  5
5D54
330
A
100
AcDbEntity
  8
MODEL
100
AcDbLine
 10
293.5131113190497
 20
326.9437515678645
 30
0.0
 11
291.2828021564497
 21
329.1741243668645
 31
0.0
  0
ARC
  5
5D55
330
A
100
AcDbEntity
  8
MODEL
100
AcDbCircle
 10
307.4191249774498
 20
-140.9499263551355
 30
0.0
 40
305.5429185293208
100
AcDbArc
 50
89.29990103199998
 51
92.04502643390002
  0
ARC
  5
5D56
330
A
100
AcDbEntity
  8
MODEL
100
AcDbCircle
 10
209.4446429086496
 20
-11073.52431835733
 30
0.0
 40
11238.13104718867
100
AcDbArc
 50
89.6485647459
 51
90.35147855320001
  0
ARC
  5
5D57
330
A
100
AcDbEntity
  8
MODEL
100
AcDbCircle
 10
111.4621137912496
 20
-140.9485254831355
 30
0.0
 40
305.5415048411844
100
AcDbArc
 50
87.95503044909997
 51
90.70019426360001
  0
ARC
  5
5D58
330
A
100
AcDbEntity
  8
MODEL
100
AcDbCircle
 10
307.3814155770498
 20
-138.2045130439355
 30
0.0
 40
301.409369111687
100
AcDbArc
 50
89.0565955255
 51
91.85200856970002
  0
ARC
  5
5D59
330
A
100
AcDbEntity
  8
MODEL
100
AcDbCircle
 10
288.1598100632497
 20
397.7819111520645
 30
0.0
 40
234.9258382111874
100
AcDbArc
 50
267.736810125
 51
272.3094800103
  0
ARC
  5
5D5A
330
A
100
AcDbEntity
  8
MODEL
100
AcDbCircle
 10
209.4417548504497
 20
-13763.09903254953
 30
0.0
 40
13926.31175884368
100
AcDbArc
 50
89.7144298449
 51
90.2855815741
  0
ARC
  5
5D5B
330
A
100
AcDbEntity
  8
MODEL
100
AcDbCircle
 10
130.7237430298497
 20
397.9898446086645
 30
0.0
 40
235.1335547244186
100
AcDbArc
 50
267.6919074081999
 51
272.2604919723999
  0
ARC
  5
5D5C
330
A
100
AcDbEntity
  8
MODEL
100
AcDbCircle
 10
111.5029991658497
 20
-138.2078058251355
 30
0.0
 40
301.4127029714206
100
AcDbArc
 50
88.14868256839999
 51
90.94407034920002
  0
ARC
  5
5D5D
330
A
100
AcDbEntity
  8
MODEL
100
AcDbCircle
 10
287.4184347388497
 20
376.2695529210645
 30
0.0
 40
212.0663366459856
100
AcDbArc
 50
267.5642638822
 51
272.4549281334999
  0
ARC
  5
5D5E
330
A
100
AcDbEntity
  8
MODEL
100
AcDbCircle
 10
131.4613595788497
 20
366.9873629020645
 30
0.0
 40
202.793008174698
100
AcDbArc
 50
267.4330481049
 51
272.5474706933999
  0
SPLINE
  5
5D5F
330
A
100
AcDbEntity
  8
MODEL
100
AcDbSpline
210
0.0
220
0.0
230
1.0
 70
     8
 71
     3
 72
    15
 73
    11
 74
     0
 42
0.000000001
 43
0.0000000001
 40
0.0
 40
0.0
 40
0.0
 40
0.0
 40
0.1280848757040475
 40
0.2608015879064571
 40
0.3901688500375728
 40
0.5186672326221803
 40
0.6489323934513203
 40
0.7782504453964031
 40
0.9139045819813706
 40
1.0
 40
1.0
 40
1.0
 40
1.0
 10
237.6493010188416
 20
171.7823786681434
 30
0.0
 10
235.6600682811476
 20
171.7802733683181
 30
0.0
 10
231.2988406063395
 20
171.7745680490846
 30
0.0
 10
224.0092867638906
 20
171.7672435378298
 30
0.0
 10
216.2206106869336
 20
171.7611334765551
 30
0.0
 10
208.2527110756422
 20
171.7595662386667
 30
0.0
 10
200.3206567487513
 20
171.7616402942034
 30
0.0
 10
192.5671255830174
 20
171.7697461407304
 30
0.0
 10
186.1894164947515
 20
171.7760666531102
 30
0.0
 10
182.56689023612
 20
171.7803623285023
 30
0.0
 10
181.230702466304
 20
171.7818871330427
 30
0.0
  0
LINE
  5
5D60
330
A
100
AcDbEntity
  8
MODEL
100
AcDbLine
 10
212.8626881402498
 20
395.0169986534645
 30
0.0
 11
217.6475380522496
 21
395.0169986534645
 31
0.0
  0
LINE
  5
5D61
330
A
100
AcDbEntity
  8
MODEL
100
AcDbLine
 10
212.8626881402498
 20
395.0169986534645
 30
0.0
 11
206.0181696788496
 21
395.0169986534645
 31
0.0
  0
LINE
  5
5D62
330
A
100
AcDbEntity
  8
MODEL
100
AcDbLine
 10
201.2333197666497
 20
395.0169986534645
 30
0.0
 11
206.0181696788496
 21
395.0169986534645
 31
0.0
  0
LINE
  5
5D63
330
A
100
AcDbEntity
  8
MODEL
100
AcDbLine
 10
206.0181696788496
 20
427.0169986534645
 30
0.0
 11
201.2333197666497
 21
427.0169986534645
 31
0.0
  0
LINE
  5
5D64
330
A
100
AcDbEntity
  8
MODEL
100
AcDbLine
 10
212.8626881402498
 20
427.0169986534645
 30
0.0
 11
206.0181696788496
 21
427.0169986534645
 31
0.0
  0
LINE
  5
5D65
330
A
100
AcDbEntity
  8
MODEL
100
AcDbLine
 10
217.6475380522496
 20
427.0169986534645
 30
0.0
 11
212.8626881402498
 21
427.0169986534645
 31
0.0
  0
LINE
  5
5D66
330
A
100
AcDbEntity
  8
MODEL
100
AcDbLine
 10
193.6204289094497
 20
409.0169986534645
 30
0.0
 11
193.6204289094497
 21
413.0169986534645
 31
0.0
  0
LINE
  5
5D67
330
A
100
AcDbEntity
  8
MODEL
100
AcDbLine
 10
193.1904289094497
 20
412.5869986534644
 30
0.0
 11
193.1904289094497
 21
409.4469986534644
 31
0.0
  0
LINE
  5
5D68
330
A
100
AcDbEntity
  8
MODEL
100
AcDbLine
 10
193.6204289094497
 20
409.0169986534645
 30
0.0
 11
196.0893989866496
 21
409.0169986534645
 31
0.0
  0
LINE
  5
5D69
330
A
100
AcDbEntity
  8
MODEL
100
AcDbLine
 10
196.0893989866496
 20
413.0169986534645
 30
0.0
 11
193.6204289094497
 21
413.0169986534645
 31
0.0
  0
LINE
  5
5D6A
330
A
100
AcDbEntity
  8
MODEL
100
AcDbLine
 10
193.6204289094497
 20
413.0169986534645
 30
0.0
 11
193.1904289094497
 21
412.5869986534644
 31
0.0
  0
LINE
  5
5D6B
330
A
100
AcDbEntity
  8
MODEL
100
AcDbLine
 10
193.1904289094497
 20
409.4469986534644
 30
0.0
 11
193.6204289094497
 21
409.0169986534645
 31
0.0
  0
LINE
  5
5D6C
330
A
100
AcDbEntity
  8
MODEL
100
AcDbLine
 10
193.1904289094497
 20
412.5869986534644
 30
0.0
 11
196.0320322864496
 21
412.5869986534644
 31
0.0
  0
LINE
  5
5D6D
330
A
100
AcDbEntity
  8
MODEL
100
AcDbLine
 10
193.1904289094497
 20
409.4469986534644
 30
0.0
 11
196.0320322864496
 21
409.4469986534644
 31
0.0
  0
LINE
  5
5D6E
330
A
100
AcDbEntity
  8
MODEL
100
AcDbLine
 10
225.2604289094496
 20
413.0169986534645
 30
0.0
 11
225.2604289094496
 21
409.0169986534645
 31
0.0
  0
LINE
  5
5D6F
330
A
100
AcDbEntity
  8
MODEL
100
AcDbLine
 10
225.6904289094497
 20
409.4469986534644
 30
0.0
 11
225.6904289094497
 21
412.5869986534644
 31
0.0
  0
LINE
  5
5D70
330
A
100
AcDbEntity
  8
MODEL
100
AcDbLine
 10
225.2604289094496
 20
413.0169986534645
 30
0.0
 11
222.7914588322498
 21
413.0169986534645
 31
0.0
  0
LINE
  5
5D71
330
A
100
AcDbEntity
  8
MODEL
100
AcDbLine
 10
222.7914588322498
 20
409.0169986534645
 30
0.0
 11
225.2604289094496
 21
409.0169986534645
 31
0.0
  0
LINE
  5
5D72
330
A
100
AcDbEntity
  8
MODEL
100
AcDbLine
 10
225.2604289094496
 20
409.0169986534645
 30
0.0
 11
225.6904289094497
 21
409.4469986534644
 31
0.0
  0
LINE
  5
5D73
330
A
100
AcDbEntity
  8
MODEL
100
AcDbLine
 10
225.6904289094497
 20
412.5869986534644
 30
0.0
 11
225.2604289094496
 21
413.0169986534645
 31
0.0
  0
LINE
  5
5D74
330
A
100
AcDbEntity
  8
MODEL
100
AcDbLine
 10
225.6904289094497
 20
409.4469986534644
 30
0.0
 11
222.8488255324497
 21
409.4469986534644
 31
0.0
  0
LINE
  5
5D75
330
A
100
AcDbEntity
  8
MODEL
100
AcDbLine
 10
225.6904289094497
 20
412.5869986534644
 30
0.0
 11
222.8488255324497
 21
412.5869986534644
 31
0.0
  0
ARC
  5
5D76
330
A
100
AcDbEntity
  8
MODEL
100
AcDbCircle
 10
209.4404289094497
 20
411.0169986534645
 30
0.0
 40
14.69999999999999
100
AcDbArc
 50
187.819596401
 51
352.180403599
  0
ARC
  5
5D77
330
A
100
AcDbEntity
  8
MODEL
100
AcDbCircle
 10
209.4404289094497
 20
411.0169986534645
 30
0.0
 40
14.69999999999999
100
AcDbArc
 50
7.819596401000007
 51
172.180403599
  0
LINE
  5
5D78
330
A
100
AcDbEntity
  8
MODEL
100
AcDbLine
 10
198.1904289094497
 20
203.1885715286645
 30
0.0
 11
198.1904289094497
 21
202.9856942108645
 31
0.0
  0
ARC
  5
5D79
330
A
100
AcDbEntity
  8
MODEL
100
AcDbCircle
 10
196.1904289094497
 20
202.9856942108645
 30
0.0
 40
2.0
100
AcDbArc
 50
325.906609188599
 51
0.0
  0
LINE
  5
5D7A
330
A
100
AcDbEntity
  8
MODEL
100
AcDbLine
 10
220.9404289094497
 20
211.0169986534645
 30
0.0
 11
197.9404289094497
 21
211.0169986534645
 31
0.0
  0
ARC
  5
5D7B
330
A
100
AcDbEntity
  8
MODEL
100
AcDbCircle
 10
197.9404289094497
 20
210.5169986534645
 30
0.0
 40
0.5
100
AcDbArc
 50
90.0
 51
180.0
  0
LINE
  5
5D7C
330
A
100
AcDbEntity
  8
MODEL
100
AcDbLine
 10
220.6904289094497
 20
202.9856942108645
 30
0.0
 11
220.6904289094497
 21
203.1885715286645
 31
0.0
  0
ARC
  5
5D7D
330
A
100
AcDbEntity
  8
MODEL
100
AcDbCircle
 10
222.6904289094497
 20
203.1885715286645
 30
0.0
 40
2.0
100
AcDbArc
 50
135.0
 51
180.0
  0
ARC
  5
5D7E
330
A
100
AcDbEntity
  8
MODEL
100
AcDbCircle
 10
196.1904289094497
 20
203.1885715286645
 30
0.0
 40
2.0
100
AcDbArc
 50
0.0
 51
45.0
  0
ARC
  5
5D7F
330
A
100
AcDbEntity
  8
MODEL
100
AcDbCircle
 10
222.6904289094497
 20
202.9856942108645
 30
0.0
 40
2.0
100
AcDbArc
 50
180.0
 51
214.093390811401
  0
LINE
  5
5D80
330
A
100
AcDbEntity
  8
MODEL
100
AcDbLine
 10
197.4404289094497
 20
210.5169986534645
 30
0.0
 11
197.4404289094497
 21
204.7669986534645
 31
0.0
  0
LINE
  5
5D81
330
A
100
AcDbEntity
  8
MODEL
100
AcDbLine
 10
197.4404289094497
 20
204.7669986534645
 30
0.0
 11
197.6046424718496
 21
204.6027850910645
 31
0.0
  0
LINE
  5
5D82
330
A
100
AcDbEntity
  8
MODEL
100
AcDbLine
 10
221.2762153470497
 20
204.6027850910645
 30
0.0
 11
221.4404289094497
 21
204.7669986534645
 31
0.0
  0
ARC
  5
5D83
330
A
100
AcDbEntity
  8
MODEL
100
AcDbCircle
 10
220.9404289094497
 20
210.5169986534645
 30
0.0
 40
0.5
100
AcDbArc
 50
0.0
 51
90.0
  0
LINE
  5
5D84
330
A
100
AcDbEntity
  8
MODEL
100
AcDbLine
 10
221.4404289094497
 20
204.7669986534645
 30
0.0
 11
221.4404289094497
 21
210.5169986534645
 31
0.0
  0
SPLINE
  5
5D85
330
A
100
AcDbEntity
  8
MODEL
100
AcDbSpline
210
0.0
220
0.0
230
1.0
 70
     8
 71
     3
 72
    13
 73
     9
 74
     0
 42
0.000000001
 43
0.0000000001
 40
0.0
 40
0.0
 40
0.0
 40
0.0
 40
0.3992816836777626
 40
0.6395573756140381
 40
0.7620242274495534
 40
0.8833503072207683
 40
0.9541617471243511
 40
1.0
 40
1.0
 40
1.0
 40
1.0
 10
213.8091633483356
 20
204.6027850910787
 30
0.0
 10
213.4610927875088
 20
204.4672356082037
 30
0.0
 10
212.996388508739
 20
204.2779569547045
 30
0.0
 10
212.4225184105691
 20
203.9522664090455
 30
0.0
 10
212.090533038799
 20
203.7079669919761
 30
0.0
 10
211.9065520646576
 20
203.5126497028929
 30
0.0
 10
211.8107653772496
 20
203.3245417468219
 30
0.0
 10
211.802290520067
 20
203.2313214320511
 30
0.0
 10
211.7989241925092
 20
203.1885715287057
 30
0.0
  0
SPLINE
  5
5D86
330
A
100
AcDbEntity
  8
MODEL
100
AcDbSpline
210
0.0
220
0.0
230
1.0
 70
     8
 71
     3
 72
    14
 73
    10
 74
     0
 42
0.000000001
 43
0.0000000001
 40
0.0
 40
0.0
 40
0.0
 40
0.0
 40
0.02076487963397
 40
0.0772074614624046
 40
0.1716981866190874
 40
0.3062283696152062
 40
0.4414317306465575
 40
0.7205424323830245
 40
1.0
 40
1.0
 40
1.0
 40
1.0
 10
207.0819336264809
 20
203.1885715287055
 30
0.0
 10
207.0812800176242
 20
203.2079898427043
 30
0.0
 10
207.078652671276
 20
203.2696846619303
 30
0.0
 10
207.0338700155138
 20
203.4155003956681
 30
0.0
 10
206.8891177585691
 20
203.6124138679441
 30
0.0
 10
206.6534673425084
 20
203.8175994815545
 30
0.0
 10
206.2622703567628
 20
204.0701401958511
 30
0.0
 10
205.7259848144103
 20
204.3485824578445
 30
0.0
 10
205.3159863191958
 20
204.5095382320935
 30
0.0
 10
205.0716944706543
 20
204.6027850910787
 30
0.0
  0
LINE
  5
5D87
330
A
100
AcDbEntity
  8
MODEL
100
AcDbLine
 10
213.8091633482496
 20
204.6027850910645
 30
0.0
 11
214.2362604328497
 21
204.7669986534645
 31
0.0
  0
LINE
  5
5D88
330
A
100
AcDbEntity
  8
MODEL
100
AcDbLine
 10
214.2362604328497
 20
210.5169986534645
 30
0.0
 11
214.2362604328497
 21
204.7669986534645
 31
0.0
  0
SPLINE
  5
5D89
330
A
100
AcDbEntity
  8
MODEL
100
AcDbSpline
210
0.0
220
0.0
230
1.0
 70
     8
 71
     3
 72
    13
 73
     9
 74
     0
 42
0.000000001
 43
0.0000000001
 40
0.0
 40
0.0
 40
0.0
 40
0.0
 40
0.3902036916861927
 40
0.7001379000508898
 40
0.8556915917096078
 40
0.9113859711828528
 40
0.967541987351995
 40
1.0
 40
1.0
 40
1.0
 40
1.0
 10
206.0863269432456
 20
211.0169986534517
 30
0.0
 10
205.8541847704265
 20
211.0139571337779
 30
0.0
 10
205.5037575582677
 20
210.9980849195289
 30
0.0
 10
205.0398646207578
 20
210.8962135586351
 30
0.0
 10
204.7869748625898
 20
210.7595766511077
 30
0.0
 10
204.6875868137614
 20
210.6543354609461
 30
0.0
 10
204.6499122821041
 20
210.5812827936625
 30
0.0
 10
204.6459972524336
 20
210.5362596106411
 30
0.0
 10
204.6445973861825
 20
210.516998653452
 30
0.0
  0
LINE
  5
5D8A
330
A
100
AcDbEntity
  8
MODEL
100
AcDbLine
 10
211.7989241924498
 20
203.0169986534645
 30
0.0
 11
211.7989241924498
 21
203.1885715286645
 31
0.0
  0
SPLINE
  5
5D8B
330
A
100
AcDbEntity
  8
MODEL
100
AcDbSpline
210
0.0
220
0.0
230
1.0
 70
     8
 71
     3
 72
    14
 73
    10
 74
     0
 42
0.000000001
 43
0.0000000001
 40
0.0
 40
0.0
 40
0.0
 40
0.0
 40
0.0098720684248282
 40
0.0520550612895229
 40
0.1108105528720001
 40
0.2095032206160721
 40
0.4176380784335825
 40
0.7083049252919918
 40
1.0
 40
1.0
 40
1.0
 40
1.0
 10
214.2362604328076
 20
210.5169986534515
 30
0.0
 10
214.2361380663552
 20
210.5228740297401
 30
0.0
 10
214.2353989531006
 20
210.5494079802687
 30
0.0
 10
214.2196679601192
 20
210.6103209872457
 30
0.0
 10
214.1582194442277
 20
210.7003888966029
 30
0.0
 10
213.9981896596436
 20
210.8226214703995
 30
0.0
 10
213.6926744619124
 20
210.9352506583769
 30
0.0
 10
213.2606618468786
 20
211.0078286962261
 30
0.0
 10
212.9681637313817
 20
211.0153792515505
 30
0.0
 10
212.7945308757447
 20
211.0169986534517
 30
0.0
  0
LINE
  5
5D8C
330
A
100
AcDbEntity
  8
MODEL
100
AcDbLine
 10
204.6445973862498
 20
204.7669986534645
 30
0.0
 11
204.6445973862498
 21
210.5169986534645
 31
0.0
  0
LINE
  5
5D8D
330
A
100
AcDbEntity
  8
MODEL
100
AcDbLine
 10
204.6445973862498
 20
204.7669986534645
 30
0.0
 11
205.0716944706497
 21
204.6027850910645
 31
0.0
  0
LINE
  5
5D8E
330
A
100
AcDbEntity
  8
MODEL
100
AcDbLine
 10
207.0819336264498
 20
203.0169986534645
 30
0.0
 11
211.7989241924498
 21
203.0169986534645
 31
0.0
  0
LINE
  5
5D8F
330
A
100
AcDbEntity
  8
MODEL
100
AcDbLine
 10
197.4404289094497
 20
204.7669986534645
 30
0.0
 11
204.6445973862498
 21
204.7669986534645
 31
0.0
  0
LINE
  5
5D90
330
A
100
AcDbEntity
  8
MODEL
100
AcDbLine
 10
221.4404289094497
 20
204.7669986534645
 30
0.0
 11
214.2362604328497
 21
204.7669986534645
 31
0.0
  0
LINE
  5
5D91
330
A
100
AcDbEntity
  8
MODEL
100
AcDbLine
 10
219.1894114242497
 20
202.7566983006645
 30
0.0
 11
199.2110534328498
 21
202.7566983006645
 31
0.0
  0
LINE
  5
5D92
330
A
100
AcDbEntity
  8
MODEL
100
AcDbLine
 10
207.0819336264498
 20
203.1885715286645
 30
0.0
 11
207.0819336264498
 21
203.0169986534645
 31
0.0
  0
LINE
  5
5D93
330
A
100
AcDbEntity
  8
MODEL
100
AcDbLine
 10
193.6204289094497
 20
209.0169986534645
 30
0.0
 11
193.6204289094497
 21
205.0169986534645
 31
0.0
  0
LINE
  5
5D94
330
A
100
AcDbEntity
  8
MODEL
100
AcDbLine
 10
193.1904289094497
 20
205.4469986534645
 30
0.0
 11
193.1904289094497
 21
208.5869986534645
 31
0.0
  0
LINE
  5
5D95
330
A
100
AcDbEntity
  8
MODEL
100
AcDbLine
 10
193.6204289094497
 20
205.0169986534645
 30
0.0
 11
197.4404289094497
 21
205.0169986534645
 31
0.0
  0
LINE
  5
5D96
330
A
100
AcDbEntity
  8
MODEL
100
AcDbLine
 10
197.4404289094497
 20
209.0169986534645
 30
0.0
 11
193.6204289094497
 21
209.0169986534645
 31
0.0
  0
LINE
  5
5D97
330
A
100
AcDbEntity
  8
MODEL
100
AcDbLine
 10
193.6204289094497
 20
209.0169986534645
 30
0.0
 11
193.1904289094497
 21
208.5869986534645
 31
0.0
  0
LINE
  5
5D98
330
A
100
AcDbEntity
  8
MODEL
100
AcDbLine
 10
193.1904289094497
 20
205.4469986534645
 30
0.0
 11
193.6204289094497
 21
205.0169986534645
 31
0.0
  0
LINE
  5
5D99
330
A
100
AcDbEntity
  8
MODEL
100
AcDbLine
 10
193.1904289094497
 20
208.5869986534645
 30
0.0
 11
197.4404289094497
 21
208.5869986534645
 31
0.0
  0
LINE
  5
5D9A
330
A
100
AcDbEntity
  8
MODEL
100
AcDbLine
 10
193.1904289094497
 20
205.4469986534645
 30
0.0
 11
197.4404289094497
 21
205.4469986534645
 31
0.0
  0
LINE
  5
5D9B
330
A
100
AcDbEntity
  8
MODEL
100
AcDbLine
 10
225.2604289094496
 20
205.0169986534645
 30
0.0
 11
225.2604289094496
 21
209.0169986534645
 31
0.0
  0
LINE
  5
5D9C
330
A
100
AcDbEntity
  8
MODEL
100
AcDbLine
 10
225.6904289094497
 20
205.4469986534645
 30
0.0
 11
225.6904289094497
 21
208.5869986534645
 31
0.0
  0
LINE
  5
5D9D
330
A
100
AcDbEntity
  8
MODEL
100
AcDbLine
 10
225.2604289094496
 20
209.0169986534645
 30
0.0
 11
221.4404289094497
 21
209.0169986534645
 31
0.0
  0
LINE
  5
5D9E
330
A
100
AcDbEntity
  8
MODEL
100
AcDbLine
 10
221.4404289094497
 20
205.0169986534645
 30
0.0
 11
225.2604289094496
 21
205.0169986534645
 31
0.0
  0
LINE
  5
5D9F
330
A
100
AcDbEntity
  8
MODEL
100
AcDbLine
 10
225.2604289094496
 20
205.0169986534645
 30
0.0
 11
225.6904289094497
 21
205.4469986534645
 31
0.0
  0
LINE
  5
5DA0
330
A
100
AcDbEntity
  8
MODEL
100
AcDbLine
 10
225.6904289094497
 20
208.5869986534645
 30
0.0
 11
225.2604289094496
 21
209.0169986534645
 31
0.0
  0
LINE
  5
5DA1
330
A
100
AcDbEntity
  8
MODEL
100
AcDbLine
 10
225.6904289094497
 20
205.4469986534645
 30
0.0
 11
221.4404289094497
 21
205.4469986534645
 31
0.0
  0
LINE
  5
5DA2
330
A
100
AcDbEntity
  8
MODEL
100
AcDbLine
 10
225.6904289094497
 20
208.5869986534645
 30
0.0
 11
221.4404289094497
 21
208.5869986534645
 31
0.0
  0
DIMENSION
  5
5DA3
330
A
100
AcDbEntity
  8
DIM
100
AcDbDimension
  2
*D66
 10
352.7460584012498
 20
211.0169986534645
 30
0.0
 11
352.7460584012498
 21
174.0732002114645
 31
0.0
 70
   161
  1
\A1;<>
 71
     5
 42
73.88759918940002
 73
     0
 74
     0
 75
     0
  3
tfrom線あり
100
AcDbAlignedDimension
 13
209.4404289094497
 23
137.1293994640645
 33
0.0
 14
209.4404289094497
 24
211.0169986534645
 34
0.0
  0
DIMENSION
  5
5DA5
330
A
100
AcDbEntity
  8
DIM
100
AcDbDimension
  2
*D68
 10
209.7877252648497
 20
192.0473831474645
 30
0.0
 11
209.4404289094497
 21
119.6386125136645
 31
0.0
 70
   162
  1
\A1;<>
 71
     5
 42
0.3490658503696878
 73
     0
 74
     0
 75
     0
  3
tfrom線あり
100
AcDb2LineAngularDimension
 13
209.4404289094497
 23
194.0169986534645
 33
0.0
 14
209.0931325542498
 24
192.0473831474645
 34
0.0
 15
209.4404289094497
 25
194.0169986534645
 35
0.0
 16
213.7651474494824
 26
119.7644489712436
 36
0.0
1001
ACAD
1000
DSTYLE
1002
{
1070
   179
1070
     0
1002
}
  0
DIMENSION
  5
5DA6
330
A
100
AcDbEntity
  8
DIM
100
AcDbDimension
  2
*D69
 10
320.1023708748497
 20
260.6022327067105
 30
0.0
 11
209.4401101764498
 21
260.6022327067105
 31
0.0
 70
   160
  1
\A1;<>
 71
     5
 42
221.3245198597999
 73
     0
 74
     0
 75
     0
  3
tfrom線あり
100
AcDbAlignedDimension
 13
98.7778510150498
 23
384.3534385876067
 33
0.0
 14
320.1023708748497
 24
402.7987614856066
 34
0.0
100
AcDbRotatedDimension
  0
DIMENSION
  5
5DA7
330
A
100
AcDbEntity
  8
DIM
100
AcDbDimension
  2
*D70
 10
352.7460584012498
 20
521.6786386744645
 30
0.0
 11
352.7460584012498
 21
411.0168037876645
 31
0.0
 70
   160
  1
\A1;<>
 71
     5
 42
221.3236693650001
 73
     0
 74
     0
 75
     0
  3
tfrom線あり
100
AcDbAlignedDimension
 13
221.0075693618878
 23
300.3549693094645
 33
0.0
 14
216.289002410088
 24
521.6786386744645
 34
0.0
 50
90.0
100
AcDbRotatedDimension
  0
MTEXT
  5
5E23
330
A
100
AcDbEntity
  8
DIM
390
1D
100
AcDbMText
 10
206.8645176205176
 20
220.1399744329254
 30
0.0
 40
4.8865234375
 41
0.0
 46
5.033119140625
 71
     1
 72
     1
  1
{\fＭＳ ゴシック|b0|i0|c1|p0;▼}
  7
ＭＳ ゴシック
 73
     1
 44
0.7828267384257843
1001
ACAD
1000
ACAD_MTEXT_DEFINED_HEIGHT_BEGIN
1070
    46
1040
5.033119140625
1000
ACAD_MTEXT_DEFINED_HEIGHT_END
  0
MTEXT
  5
5E24
330
A
100
AcDbEntity
  8
DIM
390
1D
100
AcDbMText
 10
202.3364495982163
 20
229.0515976683054
 30
0.0
 40
4.8865234375
 41
0.0
 46
5.580409765625
 71
     1
 72
     1
  1
{\fＭＳ ゴシック|b0|i0|c1|p0;G1/2"}
  7
ＭＳ ゴシック
 73
     1
 44
0.7828267384257843
1001
ACAD
1000
ACAD_MTEXT_DEFINED_HEIGHT_BEGIN
1070
    46
1040
5.580409765625
1000
ACAD_MTEXT_DEFINED_HEIGHT_END
  0
VIEWPORT
  5
349
330
B
100
AcDbEntity
 67
     1
  8
0
100
AcDbViewport
 10
202.5
 20
128.5
 30
0.0
 40
486.0
 41
308.4
 68
     1
 69
     1
 12
202.5
 22
128.5
 13
0.0
 23
0.0
 14
0.5
 24
0.5
 15
0.0
 25
0.0
 16
0.0
 26
0.0
 36
1.0
 17
0.0
 27
0.0
 37
0.0
 42
50.0
 43
0.0
 44
0.0
 45
308.4
 50
0.0
 51
0.0
 72
   100
 90
   557152
  1

281
     0
 71
     1
 74
     0
110
0.0
120
0.0
130
0.0
111
1.0
121
0.0
131
0.0
112
0.0
122
1.0
132
0.0
 79
     0
146
0.0
170
     0
 61
     5
348
26C
292
     1
282
     1
141
0.0
142
0.0
 63
   256
  0
VIEWPORT
  5
34A
330
B
100
AcDbEntity
 67
     1
  8
0
100
AcDbViewport
 10
202.5
 20
128.5
 30
0.0
 40
324.0
 41
205.6
 68
     2
 69
     2
 12
986.6781359294573
 22
1427.077061889956
 13
0.0
 23
0.0
 14
0.5
 24
0.5
 15
0.0
 25
0.0
 16
0.0
 26
0.0
 36
1.0
 17
0.0
 27
0.0
 37
0.0
 42
50.0
 43
0.0
 44
0.0
 45
2890.021615685494
 50
0.0
 51
0.0
 72
   100
 90
   557152
  1

281
     0
 71
     1
 74
     0
110
0.0
120
0.0
130
0.0
111
1.0
121
0.0
131
0.0
112
0.0
122
1.0
132
0.0
 79
     0
146
0.0
170
     0
 61
     5
348
26C
292
     1
282
     1
141
0.0
142
0.0
 63
   256
  0
ENDSEC
  0
SECTION
  2
OBJECTS
  0
DICTIONARY
  5
19
330
0
100
AcDbDictionary
281
     1
  3
ACAD_COLOR
350
674
  3
ACAD_DETAILVIEWSTYLE
350
BBF
  3
ACAD_FIELDLIST
350
44C1
  3
ACAD_GROUP
350
1A
  3
ACAD_IMAGE_VARS
350
27B
  3
ACAD_LAYOUT
350
1E
  3
ACAD_MATERIAL
350
263
  3
ACAD_MLEADERSTYLE
350
336
  3
ACAD_MLINESTYLE
350
1B
  3
ACAD_PLOTSETTINGS
350
22
  3
ACAD_PLOTSTYLENAME
350
1F
  3
ACAD_SCALELIST
350
241
  3
ACAD_SECTIONVIEWSTYLE
350
BC0
  3
ACAD_TABLESTYLE
350
278
  3
ACAD_VISUALSTYLE
350
267
  3
ACDB_RECOMPOSE_DATA
350
5E66
  3
AcDbVariableDictionary
350
330
  3
APPDATA
350
27A
  3
DimOffsetDictionary
350
E38
  0
SUN
  5
904
330
15
100
AcDbSun
 90
        1
290
     0
 63
     7
421
 16777215
 40
1.0
291
     1
 91
  2455826
 92
 54000000
292
     0
 70
     2
 71
   256
280
     1
  0
DICTIONARY
  5
2E1
330
2
100
AcDbDictionary
280
     1
281
     1
  3
ACAD_LAYERSTATES
360
2E2
  3
ACLYDICTIONARY
360
DDE
  0
DICTIONARY
  5
4532
330
4530
100
AcDbDictionary
280
     1
281
     1
  3
ACAD_FIELD
360
4539
  0
DICTIONARY
  5
674
102
{ACAD_REACTORS
330
19
102
}
330
19
100
AcDbDictionary
281
     1
  0
DICTIONARY
  5
BBF
102
{ACAD_REACTORS
330
19
102
}
330
19
100
AcDbDictionary
281
     1
  0
FIELDLIST
  5
44C1
102
{ACAD_REACTORS
330
19
102
}
330
19
100
AcDbIdSet
 90
        3
330
4534
330
4531
330
55F0
100
AcDbFieldList
  0
DICTIONARY
  5
1A
102
{ACAD_REACTORS
330
19
102
}
330
19
100
AcDbDictionary
281
     1
  0
RASTERVARIABLES
  5
27B
102
{ACAD_REACTORS
330
19
102
}
330
19
100
AcDbRasterVariables
 90
        0
 70
     1
 71
     1
 72
     1
  0
DICTIONARY
  5
1E
102
{ACAD_REACTORS
330
19
102
}
330
19
100
AcDbDictionary
281
     1
  3
Layout1
350
21
  3
Model
350
20
  0
DICTIONARY
  5
263
102
{ACAD_REACTORS
330
19
102
}
330
19
100
AcDbDictionary
281
     1
  3
ByBlock
350
4A9C
  3
ByLayer
350
264
  3
Global
350
266
  0
DICTIONARY
  5
336
102
{ACAD_REACTORS
330
19
102
}
330
19
100
AcDbDictionary
281
     1
  3
Standard
350
D59
  0
DICTIONARY
  5
1B
102
{ACAD_REACTORS
330
19
102
}
330
19
100
AcDbDictionary
281
     1
  3
Standard
350
1C
  0
DICTIONARY
  5
22
102
{ACAD_REACTORS
330
19
102
}
330
19
100
AcDbDictionary
281
     1
  0
ACDBDICTIONARYWDFLT
  5
1F
102
{ACAD_REACTORS
330
19
102
}
330
19
100
AcDbDictionary
281
     1
  3
Normal
350
1D
100
AcDbDictionaryWithDefault
340
1D
  0
DICTIONARY
  5
241
102
{ACAD_REACTORS
330
19
102
}
330
19
100
AcDbDictionary
281
     1
  3
A0
350
242
  3
A1
350
243
  3
A2
350
244
  3
A3
350
245
  3
A4
350
246
  3
A5
350
247
  3
A6
350
248
  3
A7
350
249
  3
A8
350
24A
  3
A9
350
24B
  3
B0
350
24C
  3
B1
350
24D
  3
B2
350
24E
  3
B3
350
24F
  3
B4
350
250
  3
B5
350
251
  3
B6
350
252
  3
B7
350
253
  3
B8
350
254
  3
B9
350
255
  3
C0
350
256
  3
C1
350
257
  3
C2
350
258
  3
C3
350
259
  3
C4
350
25A
  3
C5
350
25B
  3
C6
350
25C
  3
C7
350
25D
  3
C8
350
25E
  3
C9
350
25F
  3
D0
350
260
  3
D1
350
261
  3
D2
350
262
  0
DICTIONARY
  5
BC0
102
{ACAD_REACTORS
330
19
102
}
330
19
100
AcDbDictionary
281
     1
  0
DICTIONARY
  5
278
102
{ACAD_REACTORS
330
19
102
}
330
19
100
AcDbDictionary
281
     1
  3
Standard
350
279
  0
DICTIONARY
  5
267
102
{ACAD_REACTORS
330
19
102
}
330
19
100
AcDbDictionary
281
     1
  3
2dWireframe
350
26C
  3
3D Hidden
350
26E
  3
3dWireframe
350
26D
  3
Basic
350
26F
  3
Brighten
350
273
  3
ColorChange
350
277
  3
Conceptual
350
271
  3
Dim
350
272
  3
EdgeColorOff
350
8FE
  3
Facepattern
350
276
  3
Flat
350
268
  3
FlatWithEdges
350
269
  3
Gouraud
350
26A
  3
GouraudWithEdges
350
26B
  3
Hidden
350
8FB
  3
JitterOff
350
8FC
  3
Linepattern
350
275
  3
OverhangOff
350
8FD
  3
Realistic
350
270
  3
Shaded
350
903
  3
Shaded with edges
350
902
  3
Shades of Gray
350
8FF
  3
Sketchy
350
900
  3
Thicken
350
274
  3
Wireframe
350
8FA
  3
X-Ray
350
901
  0
XRECORD
  5
5E66
102
{ACAD_REACTORS
330
19
102
}
330
19
100
AcDbXrecord
280
     1
 90
        1
330
279
  0
DICTIONARY
  5
330
102
{ACAD_REACTORS
330
19
102
}
330
19
100
AcDbDictionary
281
     1
  3
CANNOSCALE
350
331
  3
CMLEADERSTYLE
350
D5E
  3
CTABLESTYLE
350
335
  3
HPTRANSPARENCY
350
D52
  3
XCLIPFRAME
350
896
  0
DICTIONARY
  5
27A
102
{ACAD_REACTORS
330
19
102
}
330
19
100
AcDbDictionary
281
     1
  0
DICTIONARY
  5
E38
102
{ACAD_REACTORS
330
19
102
}
330
19
100
AcDbDictionary
281
     1
  3
DIMRAILANGLE
350
38B2
  3
DIMRAILFIRSTOFFSET
350
38B0
  3
DIMRAILOFFSET
350
38B1
  3
DIMRAILSENABLED
350
38B3
  0
DICTIONARY
  5
2E2
102
{ACAD_REACTORS
330
2E1
102
}
330
2E1
100
AcDbDictionary
281
     1
  3
ARGON_LAYERP_9
350
7AA
  0
DICTIONARY
  5
DDE
102
{ACAD_REACTORS
330
2E1
102
}
330
2E1
100
AcDbDictionary
281
     1
1001
ACAD
1000
<All
  0
DICTIONARY
  5
4539
102
{ACAD_REACTORS
330
4532
102
}
330
4532
100
AcDbDictionary
280
     1
281
     1
  3
TEXT
360
4531
  0
LAYOUT
  5
21
102
{ACAD_REACTORS
330
1E
102
}
330
1E
100
AcDbPlotSettings
  1

  2
none_device
  4
ISO_A3_(420.00_x_297.00_MM)
  6

 40
7.5
 41
20.0
 42
7.5
 43
20.0
 44
420.0
 45
297.0
 46
0.0
 47
0.0
 48
0.0
 49
0.0
140
0.0
141
0.0
142
1.0
143
1.0
 70
     0
 72
     1
 73
     0
 74
     0
  7

 75
     0
 76
     0
 77
     2
 78
   300
147
1.0
148
0.0
149
0.0
100
AcDbLayout
  1
Layout1
 70
     0
 71
     0
 10
-7.5
 20
-20.0
 11
412.5
 21
277.0
 12
0.0
 22
0.0
 32
0.0
 14
0.0
 24
0.0
 34
0.0
 15
0.0
 25
0.0
 35
0.0
146
0.0
 13
0.0
 23
0.0
 33
0.0
 16
0.0
 26
0.0
 36
0.0
 17
0.0
 27
0.0
 37
0.0
 76
     0
330
B
331
349
  0
LAYOUT
  5
20
102
{ACAD_REACTORS
330
1E
102
}
330
1E
100
AcDbPlotSettings
  1

  2
none_device
  4
ISO_A3_(420.00_x_297.00_MM)
  6

 40
7.5
 41
20.0
 42
7.5
 43
20.0
 44
420.0
 45
297.0
 46
0.0
 47
0.0
 48
0.0
 49
0.0
140
0.0
141
0.0
142
1.0
143
1.0
 70
  1024
 72
     1
 73
     0
 74
     0
  7

 75
     0
 76
     0
 77
     2
 78
   300
147
1.0
148
0.0
149
0.0
100
AcDbLayout
  1
Model
 70
     0
 71
     1
 10
0.0
 20
0.0
 11
420.0
 21
594.0
 12
0.0
 22
0.0
 32
0.0
 14
0.0
 24
0.0
 34
-0.0000000000000142
 15
420.0
 25
594.0
 35
0.0000000000000142
146
0.0
 13
0.0
 23
0.0
 33
0.0
 16
0.0
 26
0.0
 36
0.0
 17
0.0
 27
0.0
 37
0.0
 76
     0
330
A
331
15
  0
MATERIAL
  5
4A9C
102
{ACAD_REACTORS
330
263
102
}
330
263
100
AcDbMaterial
  1
ByBlock
 72
     1
 94
      127
  0
MATERIAL
  5
264
102
{ACAD_REACTORS
330
263
102
}
330
263
100
AcDbMaterial
  1
ByLayer
 72
     1
 94
      127
  0
MATERIAL
  5
266
102
{ACAD_REACTORS
330
263
102
}
330
263
100
AcDbMaterial
  1
Global
 72
     1
 94
      127
  0
MLEADERSTYLE
  5
D59
102
{ACAD_REACTORS
330
336
102
}
330
336
100
AcDbMLeaderStyle
170
     2
171
     1
172
     0
 90
        2
 40
0.0
 41
0.0
173
     1
 91
-1056964608
340
11
 92
       -2
290
     1
 42
2.0
291
     1
 43
8.0
  3
Standard
341
0
 44
4.0
300

342
17
174
     1
178
     6
175
     1
176
     0
 93
-1056964608
 45
4.0
292
     0
297
     0
 46
4.0
343
0
 94
-1056964608
 47
1.0
 49
1.0
140
1.0
293
     1
141
0.0
294
     1
177
     0
142
1.0
295
     0
296
     0
143
3.75
1001
ACAD_MLEADERVER
1070
     2
  0
MLINESTYLE
  5
1C
102
{ACAD_REACTORS
330
1B
102
}
330
1B
100
AcDbMlineStyle
  2
Standard
 70
     0
  3

 62
     0
 51
90.0
 52
90.0
 71
     2
 49
0.5
 62
   256
  6
BYLAYER
 49
-0.5
 62
   256
  6
BYLAYER
  0
ACDBPLACEHOLDER
  5
1D
102
{ACAD_REACTORS
330
1F
102
}
330
1F
  0
SCALE
  5
242
102
{ACAD_REACTORS
330
241
102
}
330
241
100
AcDbScale
 70
     0
300
1:1
140
1.0
141
1.0
290
     1
  0
SCALE
  5
243
102
{ACAD_REACTORS
330
241
102
}
330
241
100
AcDbScale
 70
     0
300
1:2
140
1.0
141
2.0
290
     0
  0
SCALE
  5
244
102
{ACAD_REACTORS
330
241
102
}
330
241
100
AcDbScale
 70
     0
300
1:4
140
1.0
141
4.0
290
     0
  0
SCALE
  5
245
102
{ACAD_REACTORS
330
241
102
}
330
241
100
AcDbScale
 70
     0
300
1:5
140
1.0
141
5.0
290
     0
  0
SCALE
  5
246
102
{ACAD_REACTORS
330
241
102
}
330
241
100
AcDbScale
 70
     0
300
1:8
140
1.0
141
8.0
290
     0
  0
SCALE
  5
247
102
{ACAD_REACTORS
330
241
102
}
330
241
100
AcDbScale
 70
     0
300
1:10
140
1.0
141
10.0
290
     0
  0
SCALE
  5
248
102
{ACAD_REACTORS
330
241
102
}
330
241
100
AcDbScale
 70
     0
300
1:16
140
1.0
141
16.0
290
     0
  0
SCALE
  5
249
102
{ACAD_REACTORS
330
241
102
}
330
241
100
AcDbScale
 70
     0
300
1:20
140
1.0
141
20.0
290
     0
  0
SCALE
  5
24A
102
{ACAD_REACTORS
330
241
102
}
330
241
100
AcDbScale
 70
     0
300
1:30
140
1.0
141
30.0
290
     0
  0
SCALE
  5
24B
102
{ACAD_REACTORS
330
241
102
}
330
241
100
AcDbScale
 70
     0
300
1:40
140
1.0
141
40.0
290
     0
  0
SCALE
  5
24C
102
{ACAD_REACTORS
330
241
102
}
330
241
100
AcDbScale
 70
     0
300
1:50
140
1.0
141
50.0
290
     0
  0
SCALE
  5
24D
102
{ACAD_REACTORS
330
241
102
}
330
241
100
AcDbScale
 70
     0
300
1:100
140
1.0
141
100.0
290
     0
  0
SCALE
  5
24E
102
{ACAD_REACTORS
330
241
102
}
330
241
100
AcDbScale
 70
     0
300
2:1
140
2.0
141
1.0
290
     0
  0
SCALE
  5
24F
102
{ACAD_REACTORS
330
241
102
}
330
241
100
AcDbScale
 70
     0
300
4:1
140
4.0
141
1.0
290
     0
  0
SCALE
  5
250
102
{ACAD_REACTORS
330
241
102
}
330
241
100
AcDbScale
 70
     0
300
8:1
140
8.0
141
1.0
290
     0
  0
SCALE
  5
251
102
{ACAD_REACTORS
330
241
102
}
330
241
100
AcDbScale
 70
     0
300
10:1
140
10.0
141
1.0
290
     0
  0
SCALE
  5
252
102
{ACAD_REACTORS
330
241
102
}
330
241
100
AcDbScale
 70
     0
300
100:1
140
100.0
141
1.0
290
     0
  0
SCALE
  5
253
102
{ACAD_REACTORS
330
241
102
}
330
241
100
AcDbScale
 70
     0
300
1/128" = 1'-0"
140
0.0078125
141
12.0
290
     0
  0
SCALE
  5
254
102
{ACAD_REACTORS
330
241
102
}
330
241
100
AcDbScale
 70
     0
300
1/64" = 1'-0"
140
0.015625
141
12.0
290
     0
  0
SCALE
  5
255
102
{ACAD_REACTORS
330
241
102
}
330
241
100
AcDbScale
 70
     0
300
1/32" = 1'-0"
140
0.03125
141
12.0
290
     0
  0
SCALE
  5
256
102
{ACAD_REACTORS
330
241
102
}
330
241
100
AcDbScale
 70
     0
300
1/16" = 1'-0"
140
0.0625
141
12.0
290
     0
  0
SCALE
  5
257
102
{ACAD_REACTORS
330
241
102
}
330
241
100
AcDbScale
 70
     0
300
3/32" = 1'-0"
140
0.09375
141
12.0
290
     0
  0
SCALE
  5
258
102
{ACAD_REACTORS
330
241
102
}
330
241
100
AcDbScale
 70
     0
300
1/8" = 1'-0"
140
0.125
141
12.0
290
     0
  0
SCALE
  5
259
102
{ACAD_REACTORS
330
241
102
}
330
241
100
AcDbScale
 70
     0
300
3/16" = 1'-0"
140
0.1875
141
12.0
290
     0
  0
SCALE
  5
25A
102
{ACAD_REACTORS
330
241
102
}
330
241
100
AcDbScale
 70
     0
300
1/4" = 1'-0"
140
0.25
141
12.0
290
     0
  0
SCALE
  5
25B
102
{ACAD_REACTORS
330
241
102
}
330
241
100
AcDbScale
 70
     0
300
3/8" = 1'-0"
140
0.375
141
12.0
290
     0
  0
SCALE
  5
25C
102
{ACAD_REACTORS
330
241
102
}
330
241
100
AcDbScale
 70
     0
300
1/2" = 1'-0"
140
0.5
141
12.0
290
     0
  0
SCALE
  5
25D
102
{ACAD_REACTORS
330
241
102
}
330
241
100
AcDbScale
 70
     0
300
3/4" = 1'-0"
140
0.75
141
12.0
290
     0
  0
SCALE
  5
25E
102
{ACAD_REACTORS
330
241
102
}
330
241
100
AcDbScale
 70
     0
300
1" = 1'-0"
140
1.0
141
12.0
290
     0
  0
SCALE
  5
25F
102
{ACAD_REACTORS
330
241
102
}
330
241
100
AcDbScale
 70
     0
300
1-1/2" = 1'-0"
140
1.5
141
12.0
290
     0
  0
SCALE
  5
260
102
{ACAD_REACTORS
330
241
102
}
330
241
100
AcDbScale
 70
     0
300
3" = 1'-0"
140
3.0
141
12.0
290
     0
  0
SCALE
  5
261
102
{ACAD_REACTORS
330
241
102
}
330
241
100
AcDbScale
 70
     0
300
6" = 1'-0"
140
6.0
141
12.0
290
     0
  0
SCALE
  5
262
102
{ACAD_REACTORS
330
241
102
}
330
241
100
AcDbScale
 70
     0
300
1'-0" = 1'-0"
140
12.0
141
12.0
290
     0
  0
TABLESTYLE
  5
279
102
{ACAD_REACTORS
330
278
102
}
102
{ACAD_XDICTIONARY
360
5E64
102
}
330
278
100
AcDbTableStyle
  3
Standard
 70
     0
 71
     0
 40
0.06
 41
0.06
280
     0
281
     0
  7
Standard
140
4.5
170
     2
 62
     0
 63
   257
283
     0
 90
        4
 91
        0
  1

274
    -2
284
     1
 64
     0
275
    -2
285
     1
 65
     0
276
    -2
286
     1
 66
     0
277
    -2
287
     1
 67
     0
278
    -2
288
     1
 68
     0
279
    -2
289
     1
 69
     0
  7
Standard
140
6.0
170
     5
 62
     0
 63
   257
283
     0
 90
        4
 91
        0
  1

274
    -2
284
     1
 64
     0
275
    -2
285
     1
 65
     0
276
    -2
286
     1
 66
     0
277
    -2
287
     1
 67
     0
278
    -2
288
     1
 68
     0
279
    -2
289
     1
 69
     0
  7
Standard
140
4.5
170
     5
 62
     0
 63
   257
283
     0
 90
        4
 91
        0
  1

274
    -2
284
     1
 64
     0
275
    -2
285
     1
 65
     0
276
    -2
286
     1
 66
     0
277
    -2
287
     1
 67
     0
278
    -2
288
     1
 68
     0
279
    -2
289
     1
 69
     0
  0
VISUALSTYLE
  5
26C
102
{ACAD_REACTORS
330
267
102
}
330
267
100
AcDbVisualStyle
  2
2dWireframe
 70
     4
 71
     0
 72
     2
 73
     0
 90
        0
 40
-0.6
 41
-30.0
 62
     5
 63
     7
421
 16777215
 74
     1
 91
        4
 64
     7
 65
   257
 75
     1
175
     1
 42
1.0
 92
        0
 66
   257
 43
1.0
 76
     1
 77
     6
 78
     2
 67
     7
 79
     5
170
     0
171
     0
290
     0
174
     0
 93
        1
 44
0.0
173
     0
291
     0
 45
0.0
  0
VISUALSTYLE
  5
26E
102
{ACAD_REACTORS
330
267
102
}
330
267
100
AcDbVisualStyle
  2
3D Hidden
 70
     6
 71
     1
 72
     2
 73
     2
 90
        0
 40
-0.6
 41
-30.0
 62
     5
 63
     7
421
 16777215
 74
     2
 91
        2
 64
     7
 65
   257
 75
     2
175
     1
 42
40.0
 92
        0
 66
   257
 43
1.0
 76
     1
 77
     6
 78
     2
 67
     7
 79
     3
170
     0
171
     0
290
     0
174
     0
 93
        1
 44
0.0
173
     0
291
     0
 45
0.0
  0
VISUALSTYLE
  5
26D
102
{ACAD_REACTORS
330
267
102
}
330
267
100
AcDbVisualStyle
  2
3dWireframe
 70
     5
 71
     0
 72
     2
 73
     0
 90
        0
 40
-0.6
 41
-30.0
 62
     5
 63
     7
421
 16777215
 74
     1
 91
        4
 64
     7
 65
   257
 75
     1
175
     1
 42
1.0
 92
        0
 66
   257
 43
1.0
 76
     1
 77
     6
 78
     2
 67
     7
 79
     5
170
     0
171
     0
290
     0
174
     0
 93
        1
 44
0.0
173
     0
291
     0
 45
0.0
  0
VISUALSTYLE
  5
26F
102
{ACAD_REACTORS
330
267
102
}
330
267
100
AcDbVisualStyle
  2
Basic
 70
     7
 71
     1
 72
     0
 73
     1
 90
        0
 40
-0.6
 41
-30.0
 62
     5
 63
     7
421
 16777215
 74
     0
 91
        4
 64
     7
 65
   257
 75
     1
175
     1
 42
1.0
 92
        8
 66
     7
 43
1.0
 76
     1
 77
     6
 78
     2
 67
     7
 79
     5
170
     0
171
     0
290
     0
174
     0
 93
        1
 44
0.0
173
     0
291
     1
 45
0.0
  0
VISUALSTYLE
  5
273
102
{ACAD_REACTORS
330
267
102
}
330
267
100
AcDbVisualStyle
  2
Brighten
 70
    12
 71
     2
 72
     2
 73
     0
 90
        0
 40
-0.6
 41
-30.0
 62
     5
 63
     7
421
 16777215
 74
     1
 91
        4
 64
     7
 65
   257
 75
     1
175
     1
 42
1.0
 92
        8
 66
     7
 43
1.0
 76
     1
 77
     6
 78
     2
 67
     7
 79
     5
170
     0
171
     0
290
     0
174
     0
 93
        1
 44
50.0
173
     0
291
     1
 45
0.0
  0
VISUALSTYLE
  5
277
102
{ACAD_REACTORS
330
267
102
}
330
267
100
AcDbVisualStyle
  2
ColorChange
 70
    16
 71
     2
 72
     2
 73
     3
 90
        0
 40
-0.6
 41
-30.0
 62
     5
 63
     8
421
  8421504
 74
     1
 91
        4
 64
     7
 65
   257
 75
     1
175
     1
 42
1.0
 92
        8
 66
     8
424
  8421504
 43
1.0
 76
     1
 77
     6
 78
     2
 67
     7
 79
     5
170
     0
171
     0
290
     0
174
     0
 93
        1
 44
0.0
173
     0
291
     1
 45
0.0
  0
VISUALSTYLE
  5
271
102
{ACAD_REACTORS
330
267
102
}
330
267
100
AcDbVisualStyle
  2
Conceptual
 70
     9
 71
     3
 72
     2
 73
     0
 90
        0
 40
-0.6
 41
-30.0
 62
     5
 63
     7
421
 16777215
 74
     2
 91
        2
 64
     7
 65
   257
 75
     1
175
     1
 42
40.0
 92
        8
 66
     7
 43
1.0
 76
     1
 77
     6
 78
     2
 67
     7
 79
     3
170
     0
171
     0
290
     0
174
     0
 93
        1
 44
0.0
173
     0
291
     0
 45
0.0
  0
VISUALSTYLE
  5
272
102
{ACAD_REACTORS
330
267
102
}
330
267
100
AcDbVisualStyle
  2
Dim
 70
    11
 71
     2
 72
     2
 73
     0
 90
        0
 40
-0.6
 41
-30.0
 62
     5
 63
     7
421
 16777215
 74
     1
 91
        4
 64
     7
 65
   257
 75
     1
175
     1
 42
1.0
 92
        8
 66
     7
 43
1.0
 76
     1
 77
     6
 78
     2
 67
     7
 79
     5
170
     0
171
     0
290
     0
174
     0
 93
        1
 44
-50.0
173
     0
291
     1
 45
0.0
  0
VISUALSTYLE
  5
8FE
102
{ACAD_REACTORS
330
267
102
}
330
267
100
AcDbVisualStyle
  2
EdgeColorOff
 70
    22
 71
     2
 72
     2
 73
     0
 90
        0
 40
0.6
 41
30.0
 62
     5
 63
     7
421
 16777215
 74
     1
 91
        4
 64
     7
 65
   257
 75
     1
175
     1
 42
1.0
 92
        8
 66
     7
 43
1.0
 76
     1
 77
     6
 78
     2
 67
     7
 79
     5
170
     0
171
     0
290
     0
174
     0
 93
        1
 44
0.0
173
     0
291
     1
 45
0.0
  0
VISUALSTYLE
  5
276
102
{ACAD_REACTORS
330
267
102
}
330
267
100
AcDbVisualStyle
  2
Facepattern
 70
    15
 71
     2
 72
     2
 73
     0
 90
        0
 40
-0.6
 41
-30.0
 62
     5
 63
     7
421
 16777215
 74
     1
 91
        4
 64
     7
 65
   257
 75
     1
175
     1
 42
1.0
 92
        8
 66
     7
 43
1.0
 76
     1
 77
     6
 78
     2
 67
     7
 79
     5
170
     0
171
     0
290
     0
174
     0
 93
        1
 44
0.0
173
     0
291
     1
 45
0.0
  0
VISUALSTYLE
  5
268
102
{ACAD_REACTORS
330
267
102
}
330
267
100
AcDbVisualStyle
  2
Flat
 70
     0
 71
     2
 72
     1
 73
     1
 90
        2
 40
-0.6
 41
30.0
 62
     5
 63
     7
421
 16777215
 74
     0
 91
        4
 64
     7
 65
   257
 75
     1
175
     1
 42
1.0
 92
        8
 66
     7
 43
1.0
 76
     1
 77
     6
 78
     2
 67
     7
 79
     5
170
     0
171
     0
290
     0
174
     0
 93
       13
 44
0.0
173
     0
291
     1
 45
0.0
  0
VISUALSTYLE
  5
269
102
{ACAD_REACTORS
330
267
102
}
330
267
100
AcDbVisualStyle
  2
FlatWithEdges
 70
     1
 71
     2
 72
     1
 73
     1
 90
        2
 40
-0.6
 41
30.0
 62
     5
 63
     7
421
 16777215
 74
     1
 91
        4
 64
     7
 65
   257
 75
     1
175
     1
 42
1.0
 92
        0
 66
   257
 43
1.0
 76
     1
 77
     6
 78
     2
 67
     7
 79
     5
170
     0
171
     0
290
     0
174
     0
 93
       13
 44
0.0
173
     0
291
     1
 45
0.0
  0
VISUALSTYLE
  5
26A
102
{ACAD_REACTORS
330
267
102
}
330
267
100
AcDbVisualStyle
  2
Gouraud
 70
     2
 71
     2
 72
     2
 73
     1
 90
        2
 40
-0.6
 41
30.0
 62
     5
 63
     7
421
 16777215
 74
     0
 91
        4
 64
     7
 65
   257
 75
     1
175
     1
 42
1.0
 92
        0
 66
     7
 43
1.0
 76
     1
 77
     6
 78
     2
 67
     7
 79
     5
170
     0
171
     0
290
     0
174
     0
 93
       13
 44
0.0
173
     0
291
     1
 45
0.0
  0
VISUALSTYLE
  5
26B
102
{ACAD_REACTORS
330
267
102
}
330
267
100
AcDbVisualStyle
  2
GouraudWithEdges
 70
     3
 71
     2
 72
     2
 73
     1
 90
        2
 40
-0.6
 41
30.0
 62
     5
 63
     7
421
 16777215
 74
     1
 91
        4
 64
     7
 65
   257
 75
     1
175
     1
 42
1.0
 92
        0
 66
   257
 43
1.0
 76
     1
 77
     6
 78
     2
 67
     7
 79
     5
170
     0
171
     0
290
     0
174
     0
 93
       13
 44
0.0
173
     0
291
     1
 45
0.0
  0
VISUALSTYLE
  5
8FB
102
{ACAD_REACTORS
330
267
102
}
330
267
100
AcDbVisualStyle
  2
Hidden
 70
     6
 71
     1
 72
     2
 73
     2
 90
        0
 40
0.6
 41
30.0
 62
     5
 63
     7
421
 16777215
 74
     2
 91
        2
 64
     7
 65
   257
 75
     2
175
     1
 42
40.0
 92
        0
 66
   257
 43
1.0
 76
     1
 77
     6
 78
     2
 67
     7
 79
     3
170
     0
171
     0
290
     0
174
     0
 93
        1
 44
0.0
173
     0
291
     0
 45
0.0
  0
VISUALSTYLE
  5
8FC
102
{ACAD_REACTORS
330
267
102
}
330
267
100
AcDbVisualStyle
  2
JitterOff
 70
    20
 71
     2
 72
     2
 73
     0
 90
        0
 40
0.6
 41
30.0
 62
     5
 63
     7
421
 16777215
 74
     1
 91
        4
 64
     7
 65
   257
 75
     1
175
     1
 42
1.0
 92
       10
 66
     7
 43
1.0
 76
     1
 77
     6
 78
     2
 67
     7
 79
     5
170
     0
171
     0
290
     0
174
     0
 93
        1
 44
0.0
173
     0
291
     1
 45
0.0
  0
VISUALSTYLE
  5
275
102
{ACAD_REACTORS
330
267
102
}
330
267
100
AcDbVisualStyle
  2
Linepattern
 70
    14
 71
     2
 72
     2
 73
     0
 90
        0
 40
-0.6
 41
-30.0
 62
     5
 63
     7
421
 16777215
 74
     1
 91
        4
 64
     7
 65
   257
 75
     7
175
     7
 42
1.0
 92
        8
 66
     7
 43
1.0
 76
     1
 77
     6
 78
     2
 67
     7
 79
     5
170
     0
171
     0
290
     0
174
     0
 93
        1
 44
0.0
173
     0
291
     1
 45
0.0
  0
VISUALSTYLE
  5
8FD
102
{ACAD_REACTORS
330
267
102
}
330
267
100
AcDbVisualStyle
  2
OverhangOff
 70
    21
 71
     2
 72
     2
 73
     0
 90
        0
 40
0.6
 41
30.0
 62
     5
 63
     7
421
 16777215
 74
     1
 91
        4
 64
     7
 65
   257
 75
     1
175
     1
 42
1.0
 92
        9
 66
     7
 43
1.0
 76
     1
 77
     6
 78
     2
 67
     7
 79
     5
170
     0
171
     0
290
     0
174
     0
 93
        1
 44
0.0
173
     0
291
     1
 45
0.0
  0
VISUALSTYLE
  5
270
102
{ACAD_REACTORS
330
267
102
}
330
267
100
AcDbVisualStyle
  2
Realistic
 70
     8
 71
     2
 72
     2
 73
     0
 90
        0
 40
-0.6
 41
-30.0
 62
     5
 63
     7
421
 16777215
 74
     1
 91
        0
 64
     7
 65
   257
 75
     1
175
     1
 42
1.0
 92
        8
 66
     8
424
  7895160
 43
1.0
 76
     1
 77
     6
 78
     2
 67
     7
 79
     5
170
     0
171
     0
290
     0
174
     0
 93
       13
 44
0.0
173
     0
291
     0
 45
0.0
  0
VISUALSTYLE
  5
903
102
{ACAD_REACTORS
330
267
102
}
330
267
100
AcDbVisualStyle
  2
Shaded
 70
    27
 71
     2
 72
     2
 73
     1
 90
        2
 40
0.6
 41
30.0
 62
     5
 63
     7
421
 16777215
 74
     0
 91
        4
 64
     7
 65
   257
 75
     1
175
     1
 42
1.0
 92
        8
 66
   257
 43
1.0
 76
     1
 77
     6
 78
     2
 67
     8
425
  7895160
 79
     3
170
     0
171
     0
290
     0
174
     0
 93
        5
 44
0.0
173
     0
291
     0
 45
0.0
  0
VISUALSTYLE
  5
902
102
{ACAD_REACTORS
330
267
102
}
330
267
100
AcDbVisualStyle
  2
Shaded with edges
 70
    26
 71
     2
 72
     2
 73
     1
 90
        2
 40
0.6
 41
30.0
 62
     5
 63
     7
421
 16777215
 74
     1
 91
       10
 64
     7
 65
   257
 75
     2
175
     1
 42
1.0
 92
        8
 66
   257
 43
1.0
 76
     1
 77
     6
 78
     2
 67
     7
 79
     3
170
     0
171
     0
290
     0
174
     0
 93
        5
 44
0.0
173
     0
291
     0
 45
0.0
  0
VISUALSTYLE
  5
8FF
102
{ACAD_REACTORS
330
267
102
}
330
267
100
AcDbVisualStyle
  2
Shades of Gray
 70
    23
 71
     2
 72
     2
 73
     3
 90
        0
 40
0.6
 41
30.0
 62
     5
 63
     7
421
 16777215
 74
     2
 91
        2
 64
     7
 65
     7
 75
     1
175
     1
 42
40.0
 92
        8
 66
     7
 43
1.0
 76
     1
 77
     6
 78
     2
 67
     7
 79
     3
170
     0
171
     0
290
     0
174
     0
 93
        1
 44
0.0
173
     0
291
     0
 45
0.0
  0
VISUALSTYLE
  5
900
102
{ACAD_REACTORS
330
267
102
}
330
267
100
AcDbVisualStyle
  2
Sketchy
 70
    24
 71
     1
 72
     2
 73
     2
 90
        0
 40
0.6
 41
30.0
 62
     5
 63
     7
421
 16777215
 74
     2
 91
        2
 64
     7
 65
     7
 75
     1
175
     1
 42
40.0
 92
       11
 66
     7
 43
1.0
 76
     1
 77
     6
 78
     2
 67
     7
 79
     6
170
     0
171
     0
290
     0
174
     0
 93
        1
 44
0.0
173
     0
291
     0
 45
0.0
  0
VISUALSTYLE
  5
274
102
{ACAD_REACTORS
330
267
102
}
330
267
100
AcDbVisualStyle
  2
Thicken
 70
    13
 71
     2
 72
     2
 73
     0
 90
        0
 40
-0.6
 41
-30.0
 62
     5
 63
     7
421
 16777215
 74
     1
 91
        4
 64
     7
 65
   257
 75
     1
175
     1
 42
1.0
 92
       12
 66
     7
 43
1.0
 76
     1
 77
     6
 78
     2
 67
     7
 79
     5
170
     0
171
     0
290
     0
174
     0
 93
        1
 44
0.0
173
     0
291
     1
 45
0.0
  0
VISUALSTYLE
  5
8FA
102
{ACAD_REACTORS
330
267
102
}
330
267
100
AcDbVisualStyle
  2
Wireframe
 70
     5
 71
     0
 72
     2
 73
     0
 90
        0
 40
0.6
 41
30.0
 62
     5
 63
     7
421
 16777215
 74
     1
 91
        4
 64
     7
 65
   257
 75
     1
175
     1
 42
1.0
 92
        0
 66
   257
 43
1.0
 76
     1
 77
     6
 78
     2
 67
     7
 79
     3
170
     0
171
     0
290
     0
174
     0
 93
        1
 44
0.0
173
     0
291
     0
 45
0.0
  0
VISUALSTYLE
  5
901
102
{ACAD_REACTORS
330
267
102
}
330
267
100
AcDbVisualStyle
  2
X-Ray
 70
    25
 71
     2
 72
     2
 73
     1
 90
        1
 40
0.5
 41
30.0
 62
     5
 63
     7
421
 16777215
 74
     1
 91
        0
 64
     7
 65
   257
 75
     1
175
     1
 42
1.0
 92
        8
 66
     7
 43
1.0
 76
     1
 77
     6
 78
     2
 67
     7
 79
     3
170
     0
171
     0
290
     0
174
     0
 93
       13
 44
0.0
173
     0
291
     0
 45
0.0
  0
DICTIONARYVAR
  5
331
102
{ACAD_REACTORS
330
330
102
}
330
330
100
DictionaryVariables
280
     0
  1
1:1
  0
DICTIONARYVAR
  5
D5E
102
{ACAD_REACTORS
330
330
102
}
330
330
100
DictionaryVariables
280
     0
  1
Standard
  0
DICTIONARYVAR
  5
335
102
{ACAD_REACTORS
330
330
102
}
330
330
100
DictionaryVariables
280
     0
  1
Standard
  0
DICTIONARYVAR
  5
D52
102
{ACAD_REACTORS
330
330
102
}
330
330
100
DictionaryVariables
280
     0
  1
ByLayer
  0
DICTIONARYVAR
  5
896
102
{ACAD_REACTORS
330
330
102
}
330
330
100
DictionaryVariables
280
     0
  1
0
  0
DICTIONARYVAR
  5
38B2
102
{ACAD_REACTORS
330
E38
102
}
330
E38
100
DictionaryVariables
280
     0
  1
0.261799
  0
DICTIONARYVAR
  5
38B0
102
{ACAD_REACTORS
330
E38
102
}
330
E38
100
DictionaryVariables
280
     0
  1
0.400000
  0
DICTIONARYVAR
  5
38B1
102
{ACAD_REACTORS
330
E38
102
}
330
E38
100
DictionaryVariables
280
     0
  1
0.250000
  0
DICTIONARYVAR
  5
38B3
102
{ACAD_REACTORS
330
E38
102
}
330
E38
100
DictionaryVariables
280
     0
  1
1
  0
XRECORD
  5
7AA
102
{ACAD_REACTORS
330
2E2
102
}
330
2E2
100
AcDbXrecord
280
     1
 91
    34815
301

290
     0
302
HIDDEN
330
14
 90
        8
 62
     7
370
    -3
331
13
  1
Color_7
440
 33554687
330
4B
 90
        8
 62
     7
370
    20
331
13
  1
Color_7
440
 33554687
330
4C
 90
        8
 62
     3
370
    13
331
13
  1
Color_3
440
 33554687
330
4D
 90
        8
 62
     7
370
    20
331
13
  1
Color_7
440
 33554687
330
667
 90
        8
 62
     7
370
    -3
331
13
  1
Color_7
440
 33554687
330
0
 90
        8
 62
     8
370
    20
331
0
  1
Color_8
440
 33554687
330
D6B
 90
        0
 62
     4
370
    20
331
D6C
  1
Color_4
440
 33554687
330
D8C
 90
        0
 62
     7
370
    -3
331
13
  1
Color_7
440
 33554687
  0
FIELD
  5
4531
102
{ACAD_REACTORS
330
4539
102
}
330
4539
100
AcDbField
  1
_text
  2
{%<\_FldIdx 0>%N}
 90
        1
360
4534
 97
        0
 91
       63
 92
        0
 94
        8
 95
        2
 96
        0
300

 93
        1
  6
ACFD_FIELDTEXT_CHECKSUM
 93
        2
 90
        2
140
4486.0
 94
        0
300

302

304
ACVALUE_END
  7
ACFD_FIELD_VALUE
 93
        6
 90
        4
  1
{20160701N}
 94
        0
300

302

304
ACVALUE_END
301
{20160701N}
 98
       11
  0
DICTIONARY
  5
5E64
330
279
100
AcDbDictionary
280
     1
281
     1
  3
ACAD_ROUNDTRIP_2008_TABLESTYLE_CELLSTYLEMAP
360
5E65
  0
FIELD
  5
4534
330
4531
100
AcDbField
  1
AcVar
  2
\AcVar CreateDate \f "yyyyMMdd"
 90
        0
 97
        0
 91
       63
 92
        0
 94
        8
 95
        2
 96
        0
300

 93
        1
  6
Variable
 93
        2
 90
        4
  1
CreateDate
 94
        0
300

302

304
ACVALUE_END
  7
ACFD_FIELD_VALUE
 93
        6
 90
        8
 92
       16
310
E007070000000100050029000F000000
 94
        0
300
yyyyMMdd
302

304
ACVALUE_END
301
20160701
 98
        8
  0
CELLSTYLEMAP
  5
5E65
102
{ACAD_REACTORS
330
5E64
102
}
330
5E64
100
AcDbCellStyleMap
 90
        3
300
CELLSTYLE
  1
TABLEFORMAT_BEGIN
 90
        5
170
     1
 91
        0
 92
    32768
 62
   257
 93
        1
300
CONTENTFORMAT
  1
CONTENTFORMAT_BEGIN
 90
        0
 91
        0
 92
        4
 93
        0
300

 40
0.0
140
1.0
 94
        5
 62
     0
340
17
144
6.0
309
CONTENTFORMAT_END
171
     1
301
MARGIN
  1
CELLMARGIN_BEGIN
 40
0.06
 40
0.06
 40
0.06
 40
0.06
 40
0.18
 40
0.18
309
CELLMARGIN_END
 94
        6
 95
        1
302
GRIDFORMAT
  1
GRIDFORMAT_BEGIN
 90
        0
 91
        1
 62
     0
 92
       -2
340
0
 93
        0
 40
0.045
309
GRIDFORMAT_END
 95
        2
302
GRIDFORMAT
  1
GRIDFORMAT_BEGIN
 90
        0
 91
        1
 62
     0
 92
       -2
340
0
 93
        0
 40
0.045
309
GRIDFORMAT_END
 95
        4
302
GRIDFORMAT
  1
GRIDFORMAT_BEGIN
 90
        0
 91
        1
 62
     0
 92
       -2
340
0
 93
        0
 40
0.045
309
GRIDFORMAT_END
 95
        8
302
GRIDFORMAT
  1
GRIDFORMAT_BEGIN
 90
        0
 91
        1
 62
     0
 92
       -2
340
0
 93
        0
 40
0.045
309
GRIDFORMAT_END
 95
       16
302
GRIDFORMAT
  1
GRIDFORMAT_BEGIN
 90
        0
 91
        1
 62
     0
 92
       -2
340
0
 93
        0
 40
0.045
309
GRIDFORMAT_END
 95
       32
302
GRIDFORMAT
  1
GRIDFORMAT_BEGIN
 90
        0
 91
        1
 62
     0
 92
       -2
340
0
 93
        0
 40
0.045
309
GRIDFORMAT_END
309
TABLEFORMAT_END
  1
CELLSTYLE_BEGIN
 90
        1
 91
        1
300
_TITLE
309
CELLSTYLE_END
300
CELLSTYLE
  1
TABLEFORMAT_BEGIN
 90
        5
170
     1
 91
        0
 92
        0
 62
   257
 93
        1
300
CONTENTFORMAT
  1
CONTENTFORMAT_BEGIN
 90
        0
 91
        0
 92
        4
 93
        0
300

 40
0.0
140
1.0
 94
        5
 62
     0
340
17
144
4.5
309
CONTENTFORMAT_END
171
     1
301
MARGIN
  1
CELLMARGIN_BEGIN
 40
0.06
 40
0.06
 40
0.06
 40
0.06
 40
0.18
 40
0.18
309
CELLMARGIN_END
 94
        6
 95
        1
302
GRIDFORMAT
  1
GRIDFORMAT_BEGIN
 90
        0
 91
        1
 62
     0
 92
       -2
340
0
 93
        0
 40
0.045
309
GRIDFORMAT_END
 95
        2
302
GRIDFORMAT
  1
GRIDFORMAT_BEGIN
 90
        0
 91
        1
 62
     0
 92
       -2
340
0
 93
        0
 40
0.045
309
GRIDFORMAT_END
 95
        4
302
GRIDFORMAT
  1
GRIDFORMAT_BEGIN
 90
        0
 91
        1
 62
     0
 92
       -2
340
0
 93
        0
 40
0.045
309
GRIDFORMAT_END
 95
        8
302
GRIDFORMAT
  1
GRIDFORMAT_BEGIN
 90
        0
 91
        1
 62
     0
 92
       -2
340
0
 93
        0
 40
0.045
309
GRIDFORMAT_END
 95
       16
302
GRIDFORMAT
  1
GRIDFORMAT_BEGIN
 90
        0
 91
        1
 62
     0
 92
       -2
340
0
 93
        0
 40
0.045
309
GRIDFORMAT_END
 95
       32
302
GRIDFORMAT
  1
GRIDFORMAT_BEGIN
 90
        0
 91
        1
 62
     0
 92
       -2
340
0
 93
        0
 40
0.045
309
GRIDFORMAT_END
309
TABLEFORMAT_END
  1
CELLSTYLE_BEGIN
 90
        2
 91
        1
300
_HEADER
309
CELLSTYLE_END
300
CELLSTYLE
  1
TABLEFORMAT_BEGIN
 90
        5
170
     1
 91
        0
 92
        0
 62
   257
 93
        1
300
CONTENTFORMAT
  1
CONTENTFORMAT_BEGIN
 90
        0
 91
        0
 92
        4
 93
        0
300

 40
0.0
140
1.0
 94
        2
 62
     0
340
17
144
4.5
309
CONTENTFORMAT_END
171
     1
301
MARGIN
  1
CELLMARGIN_BEGIN
 40
0.06
 40
0.06
 40
0.06
 40
0.06
 40
0.18
 40
0.18
309
CELLMARGIN_END
 94
        6
 95
        1
302
GRIDFORMAT
  1
GRIDFORMAT_BEGIN
 90
        0
 91
        1
 62
     0
 92
       -2
340
0
 93
        0
 40
0.045
309
GRIDFORMAT_END
 95
        2
302
GRIDFORMAT
  1
GRIDFORMAT_BEGIN
 90
        0
 91
        1
 62
     0
 92
       -2
340
0
 93
        0
 40
0.045
309
GRIDFORMAT_END
 95
        4
302
GRIDFORMAT
  1
GRIDFORMAT_BEGIN
 90
        0
 91
        1
 62
     0
 92
       -2
340
0
 93
        0
 40
0.045
309
GRIDFORMAT_END
 95
        8
302
GRIDFORMAT
  1
GRIDFORMAT_BEGIN
 90
        0
 91
        1
 62
     0
 92
       -2
340
0
 93
        0
 40
0.045
309
GRIDFORMAT_END
 95
       16
302
GRIDFORMAT
  1
GRIDFORMAT_BEGIN
 90
        0
 91
        1
 62
     0
 92
       -2
340
0
 93
        0
 40
0.045
309
GRIDFORMAT_END
 95
       32
302
GRIDFORMAT
  1
GRIDFORMAT_BEGIN
 90
        0
 91
        1
 62
     0
 92
       -2
340
0
 93
        0
 40
0.045
309
GRIDFORMAT_END
309
TABLEFORMAT_END
  1
CELLSTYLE_BEGIN
 90
        3
 91
        2
300
_DATA
309
CELLSTYLE_END
  0
ENDSEC
  0
EOF
