  0
SECTION
  2
HEADER
  9
$ACADVER
  1
AC1021
  9
$ACADMAINTVER
 70
    25
  9
$DWGCODEPAGE
  3
ANSI_932
  9
$LASTSAVEDBY
  1
howeNelson
  9
$INSBASE
 10
0.0
 20
0.0
 30
0.0
  9
$EXTMIN
 10
0.0
 20
0.0
 30
-0.0000000000000071
  9
$EXTMAX
 10
1050.0
 20
1485.0
 30
0.0000000000000142
  9
$LIMMIN
 10
0.0
 20
0.0
  9
$LIMMAX
 10
1050.0
 20
1485.0
  9
$ORTHOMODE
 70
     0
  9
$REGENMODE
 70
     1
  9
$FILLMODE
 70
     1
  9
$QTEXTMODE
 70
     0
  9
$MIRRTEXT
 70
     1
  9
$LTSCALE
 40
50.0
  9
$ATTMODE
 70
     1
  9
$TEXTSIZE
 40
2.5
  9
$TRACEWID
 40
1.0
  9
$TEXTSTYLE
  7
ＭＳ ゴシック
  9
$CLAYER
  8
DIM
  9
$CELTYPE
  6
ByLayer
  9
$CECOLOR
 62
   256
  9
$CELTSCALE
 40
0.05
  9
$DISPSILH
 70
     0
  9
$DIMSCALE
 40
1.0
  9
$DIMASZ
 40
3.0
  9
$DIMEXO
 40
10.0
  9
$DIMDLI
 40
0.9999999999999999
  9
$DIMRND
 40
0.0
  9
$DIMDLE
 40
0.0
  9
$DIMEXE
 40
0.0
  9
$DIMTP
 40
0.0
  9
$DIMTM
 40
0.0
  9
$DIMTXT
 40
12.0
  9
$DIMCEN
 40
0.0
  9
$DIMTSZ
 40
0.0
  9
$DIMTOL
 70
     0
  9
$DIMLIM
 70
     0
  9
$DIMTIH
 70
     0
  9
$DIMTOH
 70
     0
  9
$DIMSE1
 70
     0
  9
$DIMSE2
 70
     0
  9
$DIMTAD
 70
     1
  9
$DIMZIN
 70
    11
  9
$DIMBLK
  1
DOT
  9
$DIMASO
 70
     1
  9
$DIMSHO
 70
     1
  9
$DIMPOST
  1
<>
  9
$DIMAPOST
  1
[]
  9
$DIMALT
 70
     0
  9
$DIMALTD
 70
     1
  9
$DIMALTF
 40
1.0
  9
$DIMLFAC
 40
1.0
  9
$DIMTOFL
 70
     0
  9
$DIMTVP
 40
0.0
  9
$DIMTIX
 70
     1
  9
$DIMSOXD
 70
     0
  9
$DIMSAH
 70
     0
  9
$DIMBLK1
  1

  9
$DIMBLK2
  1

  9
$DIMSTYLE
  2
tfrom線あり
  9
$DIMCLRD
 70
     0
  9
$DIMCLRE
 70
     0
  9
$DIMCLRT
 70
     0
  9
$DIMTFAC
 40
1.0
  9
$DIMGAP
 40
10.0
  9
$DIMJUST
 70
     0
  9
$DIMSD1
 70
     0
  9
$DIMSD2
 70
     0
  9
$DIMTOLJ
 70
     1
  9
$DIMTZIN
 70
    11
  9
$DIMALTZ
 70
    11
  9
$DIMALTTZ
 70
    11
  9
$DIMUPT
 70
     0
  9
$DIMDEC
 70
     0
  9
$DIMTDEC
 70
     1
  9
$DIMALTU
 70
     2
  9
$DIMALTTD
 70
     2
  9
$DIMTXSTY
  7
ＭＳ ゴシック
  9
$DIMAUNIT
 70
     0
  9
$DIMADEC
 70
     2
  9
$DIMALTRND
 40
0.0
  9
$DIMAZIN
 70
     0
  9
$DIMDSEP
 70
    46
  9
$DIMATFIT
 70
     0
  9
$DIMFRAC
 70
     2
  9
$DIMLDRBLK
  1
DOT
  9
$DIMLUNIT
 70
     2
  9
$DIMLWD
 70
    -2
  9
$DIMLWE
 70
    -2
  9
$DIMTMOVE
 70
     0
  9
$DIMFXL
 40
1.0
  9
$DIMFXLON
 70
     0
  9
$DIMJOGANG
 40
0.7853981633974483
  9
$DIMTFILL
 70
     0
  9
$DIMTFILLCLR
 70
     0
  9
$DIMARCSYM
 70
     0
  9
$DIMLTYPE
  6

  9
$DIMLTEX1
  6

  9
$DIMLTEX2
  6

  9
$LUNITS
 70
     2
  9
$LUPREC
 70
     0
  9
$SKETCHINC
 40
0.1
  9
$FILLETRAD
 40
0.0
  9
$AUNITS
 70
     0
  9
$AUPREC
 70
     0
  9
$MENU
  1
acad
  9
$ELEVATION
 40
0.0
  9
$PELEVATION
 40
0.0
  9
$THICKNESS
 40
0.0
  9
$LIMCHECK
 70
     0
  9
$CHAMFERA
 40
0.0
  9
$CHAMFERB
 40
0.0
  9
$CHAMFERC
 40
0.0
  9
$CHAMFERD
 40
0.0
  9
$SKPOLY
 70
     0
  9
$TDCREATE
 40
2447893.375
  9
$TDUCREATE
 40
0.0
  9
$TDUPDATE
 40
2457571.621435833
  9
$TDUUPDATE
 40
2457571.246435833
  9
$TDINDWG
 40
0.2099131366
  9
$TDUSRTIMER
 40
2457571.245641528
  9
$USRTIMER
 70
     1
  9
$ANGBASE
 50
0.0
  9
$ANGDIR
 70
     0
  9
$PDMODE
 70
     1
  9
$PDSIZE
 40
-2.0
  9
$PLINEWID
 40
0.0
  9
$SPLFRAME
 70
     0
  9
$SPLINETYPE
 70
     6
  9
$SPLINESEGS
 70
     8
  9
$HANDSEED
  5
3B9D
  9
$SURFTAB1
 70
     6
  9
$SURFTAB2
 70
     6
  9
$SURFTYPE
 70
     6
  9
$SURFU
 70
     6
  9
$SURFV
 70
     6
  9
$UCSBASE
  2

  9
$UCSNAME
  2

  9
$UCSORG
 10
0.0
 20
0.0
 30
0.0
  9
$UCSXDIR
 10
1.0
 20
0.0
 30
0.0
  9
$UCSYDIR
 10
0.0
 20
1.0
 30
0.0
  9
$UCSORTHOREF
  2

  9
$UCSORTHOVIEW
 70
     0
  9
$UCSORGTOP
 10
0.0
 20
0.0
 30
0.0
  9
$UCSORGBOTTOM
 10
0.0
 20
0.0
 30
0.0
  9
$UCSORGLEFT
 10
0.0
 20
0.0
 30
0.0
  9
$UCSORGRIGHT
 10
0.0
 20
0.0
 30
0.0
  9
$UCSORGFRONT
 10
0.0
 20
0.0
 30
0.0
  9
$UCSORGBACK
 10
0.0
 20
0.0
 30
0.0
  9
$PUCSBASE
  2

  9
$PUCSNAME
  2

  9
$PUCSORG
 10
0.0
 20
0.0
 30
0.0
  9
$PUCSXDIR
 10
1.0
 20
0.0
 30
0.0
  9
$PUCSYDIR
 10
0.0
 20
1.0
 30
0.0
  9
$PUCSORTHOREF
  2

  9
$PUCSORTHOVIEW
 70
     0
  9
$PUCSORGTOP
 10
0.0
 20
0.0
 30
0.0
  9
$PUCSORGBOTTOM
 10
0.0
 20
0.0
 30
0.0
  9
$PUCSORGLEFT
 10
0.0
 20
0.0
 30
0.0
  9
$PUCSORGRIGHT
 10
0.0
 20
0.0
 30
0.0
  9
$PUCSORGFRONT
 10
0.0
 20
0.0
 30
0.0
  9
$PUCSORGBACK
 10
0.0
 20
0.0
 30
0.0
  9
$USERI1
 70
     0
  9
$USERI2
 70
     0
  9
$USERI3
 70
     0
  9
$USERI4
 70
     0
  9
$USERI5
 70
     0
  9
$USERR1
 40
0.0
  9
$USERR2
 40
0.0
  9
$USERR3
 40
0.0
  9
$USERR4
 40
0.0
  9
$USERR5
 40
0.0
  9
$WORLDVIEW
 70
     1
  9
$SHADEDGE
 70
     3
  9
$SHADEDIF
 70
    70
  9
$TILEMODE
 70
     1
  9
$MAXACTVP
 70
    64
  9
$PINSBASE
 10
0.0
 20
0.0
 30
0.0
  9
$PLIMCHECK
 70
     0
  9
$PEXTMIN
 10
0.0
 20
0.0
 30
0.0
  9
$PEXTMAX
 10
0.0
 20
0.0
 30
0.0
  9
$PLIMMIN
 10
-95.87226993865028
 20
-25.69999999999999
  9
$PLIMMAX
 10
201.1277300613497
 20
184.3
  9
$UNITMODE
 70
     0
  9
$VISRETAIN
 70
     0
  9
$PLINEGEN
 70
     1
  9
$PSLTSCALE
 70
     0
  9
$TREEDEPTH
 70
  3020
  9
$CMLSTYLE
  2
Standard
  9
$CMLJUST
 70
     0
  9
$CMLSCALE
 40
1.0
  9
$PROXYGRAPHICS
 70
     0
  9
$MEASUREMENT
 70
     1
  9
$CELWEIGHT
370
    -1
  9
$ENDCAPS
280
     0
  9
$JOINSTYLE
280
     0
  9
$LWDISPLAY
290
     1
  9
$INSUNITS
 70
     4
  9
$HYPERLINKBASE
  1

  9
$STYLESHEET
  1

  9
$XEDIT
290
     1
  9
$CEPSNTYPE
380
     0
  9
$PSTYLEMODE
290
     1
  9
$FINGERPRINTGUID
  2

  9
$VERSIONGUID
  2

  9
$EXTNAMES
290
     1
  9
$PSVPSCALE
 40
0.0
  9
$OLESTARTUP
290
     0
  9
$SORTENTS
280
   127
  9
$INDEXCTL
280
     0
  9
$HIDETEXT
280
     1
  9
$XCLIPFRAME
290
     0
  9
$HALOGAP
280
     0
  9
$OBSCOLOR
 70
   257
  9
$OBSLTYPE
280
     0
  9
$INTERSECTIONDISPLAY
280
     0
  9
$INTERSECTIONCOLOR
 70
   257
  9
$DIMASSOC
280
     2
  9
$PROJECTNAME
  1

  9
$CAMERADISPLAY
290
     0
  9
$LENSLENGTH
 40
50.0
  9
$CAMERAHEIGHT
 40
0.0
  9
$STEPSPERSEC
 40
2.0
  9
$STEPSIZE
 40
6.0
  9
$3DDWFPREC
 40
2.0
  9
$PSOLWIDTH
 40
0.25
  9
$PSOLHEIGHT
 40
4.0
  9
$LOFTANG1
 40
1.570796326794897
  9
$LOFTANG2
 40
1.570796326794897
  9
$LOFTMAG1
 40
0.0
  9
$LOFTMAG2
 40
0.0
  9
$LOFTPARAM
 70
     7
  9
$LOFTNORMALS
280
     1
  9
$LATITUDE
 40
37.795
  9
$LONGITUDE
 40
-122.394
  9
$NORTHDIRECTION
 40
0.0
  9
$TIMEZONE
 70
 -8000
  9
$LIGHTGLYPHDISPLAY
280
     1
  9
$TILEMODELIGHTSYNCH
280
     1
  9
$SOLIDHIST
280
     1
  9
$SHOWHIST
280
     1
  9
$DWFFRAME
280
     2
  9
$DGNFRAME
280
     2
  9
$REALWORLDSCALE
290
     1
  9
$INTERFERECOLOR
 62
   256
  9
$CSHADOW
280
     0
  9
$SHADOWPLANELOCATION
 40
0.0
  0
ENDSEC
  0
SECTION
  2
CLASSES
  0
CLASS
  1
LWPOLYLINE
  2
AcDbPolyline
  3
ObjectDBX Classes
 90
        0
 91
        1
280
     0
281
     1
  0
CLASS
  1
IMAGE
  2
AcDbRasterImage
  3
ISM
 90
      127
 91
        5
280
     0
281
     1
  0
CLASS
  1
OLE2FRAME
  2
AcDbOle2Frame
  3
ObjectDBX Classes
 90
        0
 91
        1
280
     0
281
     1
  0
CLASS
  1
HATCH
  2
AcDbHatch
  3
ObjectDBX Classes
 90
        0
 91
        1
280
     0
281
     1
  0
CLASS
  1
DICTIONARYVAR
  2
AcDbDictionaryVar
  3
ObjectDBX Classes
 90
        0
 91
        4
280
     0
281
     0
  0
CLASS
  1
RASTERVARIABLES
  2
AcDbRasterVariables
  3
ISM
 90
        0
 91
        4
280
     0
281
     0
  0
CLASS
  1
IMAGEDEF
  2
AcDbRasterImageDef
  3
ISM
 90
        0
 91
        4
280
     0
281
     0
  0
CLASS
  1
IMAGEDEF_REACTOR
  2
AcDbRasterImageDefReactor
  3
ISM
 90
        1
 91
        4
280
     0
281
     0
  0
CLASS
  1
IDBUFFER
  2
AcDbIdBuffer
  3
ObjectDBX Classes
 90
        0
 91
        4
280
     0
281
     0
  0
CLASS
  1
SPATIAL_FILTER
  2
AcDbSpatialFilter
  3
ObjectDBX Classes
 90
        0
 91
        4
280
     0
281
     0
  0
CLASS
  1
XRECORD
  2
AcDbXrecord
  3
ObjectDBX Classes
 90
        0
 91
        1
280
     0
281
     0
  0
CLASS
  1
SORTENTSTABLE
  2
AcDbSortentsTable
  3
ObjectDBX Classes
 90
        0
 91
        4
280
     0
281
     0
  0
CLASS
  1
LAYER_INDEX
  2
AcDbLayerIndex
  3
ObjectDBX Classes
 90
        0
 91
        4
280
     0
281
     0
  0
CLASS
  1
SPATIAL_INDEX
  2
AcDbSpatialIndex
  3
AutoCAD 2000
 90
        0
 91
        4
280
     0
281
     0
  0
CLASS
  1
OBJECT_PTR
  2
CAseDLPNTableRecord
  3
ASE-LPNTableRecord
 90
        1
 91
        4
280
     0
281
     0
  0
CLASS
  1
LAYOUT
  2
AcDbLayout
  3
ObjectDBX Classes
 90
        0
 91
        1
280
     0
281
     0
  0
CLASS
  1
PLOTSETTINGS
  2
AcDbPlotSettings
  3
ObjectDBX Classes
 90
        0
 91
        4
280
     0
281
     0
  0
CLASS
  1
ACDBDICTIONARYWDFLT
  2
AcDbDictionaryWithDefault
  3
ObjectDBX Classes
 90
        0
 91
        4
280
     0
281
     0
  0
CLASS
  1
ACDBPLACEHOLDER
  2
AcDbPlaceHolder
  3
ObjectDBX Classes
 90
        0
 91
        1
280
     0
281
     0
  0
CLASS
  1
SCALE
  2
AcDbScale
  3
ObjectDBX Classes
 90
     1153
 91
        4
280
     0
281
     0
  0
CLASS
  1
MATERIAL
  2
AcDbMaterial
  3
ObjectDBX Classes
 90
     1153
 91
        4
280
     0
281
     0
  0
CLASS
  1
VISUALSTYLE
  2
AcDbVisualStyle
  3
ObjectDBX Classes
 90
     4095
 91
        4
280
     0
281
     0
  0
CLASS
  1
TABLESTYLE
  2
AcDbTableStyle
  3
ObjectDBX Classes
 90
     4095
 91
        4
280
     0
281
     0
  0
CLASS
  1
DIMASSOC
  2
AcDbDimAssoc
  3
"AcDbDimAssoc|Product Desc:     AcDim ARX App For Dimension|Company:          Autodesk, Inc.|WEB Address:      www.autodesk.com"
 90
        0
 91
        4
280
     0
281
     0
  0
CLASS
  1
CELLSTYLEMAP
  2
AcDbCellStyleMap
  3
ObjectDBX Classes
 90
     1152
 91
        4
280
     0
281
     0
  0
CLASS
  1
SUN
  2
AcDbSun
  3
SCENEOE
 90
     1153
 91
        4
280
     0
281
     0
  0
CLASS
  1
MLEADERSTYLE
  2
AcDbMLeaderStyle
  3
ACDB_MLEADERSTYLE_CLASS
 90
     4095
 91
        4
280
     0
281
     0
  0
CLASS
  1
FIELD
  2
AcDbField
  3
ObjectDBX Classes
 90
     1152
 91
        4
280
     0
281
     0
  0
CLASS
  1
FIELDLIST
  2
AcDbFieldList
  3
ObjectDBX Classes
 90
     1152
 91
        4
280
     0
281
     0
  0
ENDSEC
  0
SECTION
  2
TABLES
  0
TABLE
  2
VPORT
  5
7
330
0
100
AcDbSymbolTable
 70
     1
  0
VPORT
  5
15
330
7
100
AcDbSymbolTableRecord
100
AcDbViewportTableRecord
  2
*ACTIVE
 70
     0
 10
0.0
 20
0.0
 11
1.0
 21
1.0
 12
616.0201356709072
 22
668.901285469834
 13
0.0
 23
0.0
 14
1.0
 24
1.0
 15
0.0
 25
0.0
 16
0.0
 26
0.0
 36
1.0
 17
-91.02013567090717
 27
73.59871453016603
 37
-46.86809886248109
 40
1514.7
 41
2.410404624277457
 42
50.0
 43
0.0
 44
0.0
 50
0.0
 51
0.0
 71
    16
 72
  2000
 73
     1
 74
     1
 75
     0
 76
     0
 77
     0
 78
     0
281
     0
 65
     1
110
0.0
120
0.0
130
0.0
111
1.0
121
0.0
131
0.0
112
0.0
122
1.0
132
0.0
 79
     0
146
0.0
348
26C
 60
     3
 61
     5
292
     1
282
     1
141
0.0
142
0.0
 63
   256
361
904
  0
ENDTAB
  0
TABLE
  2
LTYPE
  5
4
330
0
100
AcDbSymbolTable
 70
     4
  0
LTYPE
  5
11
330
4
100
AcDbSymbolTableRecord
100
AcDbLinetypeTableRecord
  2
ByBlock
 70
     0
  3

 72
    65
 73
     0
 40
0.0
  0
LTYPE
  5
12
330
4
100
AcDbSymbolTableRecord
100
AcDbLinetypeTableRecord
  2
ByLayer
 70
     0
  3

 72
    65
 73
     0
 40
0.0
  0
LTYPE
  5
13
330
4
100
AcDbSymbolTableRecord
100
AcDbLinetypeTableRecord
  2
Continuous
 70
     0
  3
Solid line
 72
    65
 73
     0
 40
0.0
  0
LTYPE
  5
D6C
330
4
100
AcDbSymbolTableRecord
100
AcDbLinetypeTableRecord
  2
BORDER
 70
     0
  3
Border __  __  . __  __  . __  __  . __  __  . 
 72
    65
 73
     6
 40
44.45
 49
12.7
 74
     0
 49
-6.35
 74
     0
 49
12.7
 74
     0
 49
-6.35
 74
     0
 49
0.0
 74
     0
 49
-6.35
 74
     0
  0
LTYPE
  5
38F1
330
4
100
AcDbSymbolTableRecord
100
AcDbLinetypeTableRecord
  2
CENTER2
 70
     0
  3
Center (.5x) ___ _ ___ _ ___ _ ___ _ ___ _ ___
 72
    65
 73
     4
 40
28.575
 49
19.05
 74
     4
 75
     0
340
0
 46
0.0
 50
0.0
 44
0.0
 45
0.0
 49
-3.175
 74
     4
 75
     0
340
0
 46
0.0
 50
0.0
 44
0.0
 45
0.0
 49
3.175
 74
     4
 75
     0
340
0
 46
0.0
 50
0.0
 44
0.0
 45
0.0
 49
-3.175
 74
     4
 75
     0
340
0
 46
0.0
 50
0.0
 44
0.0
 45
0.0
  0
LTYPE
  5
3B07
330
4
100
AcDbSymbolTableRecord
100
AcDbLinetypeTableRecord
  2
CENTER
 70
     0
  3
 Center _____  _  _____  _  _____  _  _____  _ 
 72
    65
 73
     4
 40
50.8
 49
31.75
 74
     0
 49
-6.35
 74
     0
 49
6.35
 74
     0
 49
-6.35
 74
     0
  0
ENDTAB
  0
TABLE
  2
LAYER
  5
2
102
{ACAD_XDICTIONARY
360
2E1
102
}
330
0
100
AcDbSymbolTable
 70
    13
  0
LAYER
  5
14
330
2
100
AcDbSymbolTableRecord
100
AcDbLayerTableRecord
  2
0
 70
     0
 62
     7
  6
Continuous
370
    -3
390
1D
347
266
  0
LAYER
  5
4B
330
2
100
AcDbSymbolTableRecord
100
AcDbLayerTableRecord
  2
TEMPLATE
 70
     0
 62
     7
  6
Continuous
370
    20
390
1D
347
266
  0
LAYER
  5
4C
330
2
100
AcDbSymbolTableRecord
100
AcDbLayerTableRecord
  2
DIM
 70
     0
 62
     3
  6
Continuous
370
    13
390
1D
347
266
  0
LAYER
  5
4D
330
2
100
AcDbSymbolTableRecord
100
AcDbLayerTableRecord
  2
MODEL
 70
     0
 62
     7
  6
Continuous
370
    20
390
1D
347
266
  0
LAYER
  5
667
330
2
100
AcDbSymbolTableRecord
100
AcDbLayerTableRecord
  2
LOGO
 70
     0
 62
     7
  6
Continuous
370
    -3
390
1D
347
266
  0
LAYER
  5
D6B
330
2
100
AcDbSymbolTableRecord
100
AcDbLayerTableRecord
  2
BORDER
 70
     0
 62
     4
  6
BORDER
290
     0
370
    20
390
1D
347
266
1001
AcAecLayerStandard
1000

1000

  0
LAYER
  5
D8C
330
2
100
AcDbSymbolTableRecord
100
AcDbLayerTableRecord
  2
Defpoints
 70
     0
 62
     7
  6
Continuous
290
     0
370
    -3
390
1D
347
266
  0
LAYER
  5
1635
330
2
100
AcDbSymbolTableRecord
100
AcDbLayerTableRecord
  2
Standard
 70
     0
 62
     7
  6
Continuous
370
    -3
390
1D
347
266
  0
LAYER
  5
38EB
330
2
100
AcDbSymbolTableRecord
100
AcDbLayerTableRecord
  2
Layer1
 70
     0
 62
     7
  6
Continuous
370
    -3
390
1D
347
266
  0
LAYER
  5
38ED
330
2
100
AcDbSymbolTableRecord
100
AcDbLayerTableRecord
  2
Layer50
 70
     0
 62
     7
  6
Continuous
370
    -3
390
1D
347
266
  0
LAYER
  5
38EE
330
2
100
AcDbSymbolTableRecord
100
AcDbLayerTableRecord
  2
Layer3
 70
     0
 62
     7
  6
Continuous
370
    -3
390
1D
347
266
  0
LAYER
  5
38EF
330
2
100
AcDbSymbolTableRecord
100
AcDbLayerTableRecord
  2
Default
 70
     0
 62
     7
  6
Continuous
370
    -3
390
1D
347
266
  0
LAYER
  5
38F0
330
2
100
AcDbSymbolTableRecord
100
AcDbLayerTableRecord
  2
HDefault
 70
     1
 62
    -7
  6
Continuous
370
    -3
390
1D
347
266
  0
ENDTAB
  0
TABLE
  2
STYLE
  5
3
330
0
100
AcDbSymbolTable
 70
     3
  0
STYLE
  5
17
330
3
100
AcDbSymbolTableRecord
100
AcDbTextStyleTableRecord
  2
Standard
 70
     0
 40
0.0
 41
1.0
 50
0.0
 71
     0
 42
2.5
  3
txt
  4
BIGFONT.SHX
  0
STYLE
  5
39
330
3
100
AcDbSymbolTableRecord
100
AcDbTextStyleTableRecord
  2
ＭＳ ゴシック
 70
     0
 40
0.0
 41
1.0
 50
0.0
 71
     0
 42
2.5
  3
msgothic.ttc
  4
ＭＳ ゴシック
1001
ACAD
1000
ＭＳ ゴシック
1071
        0
  0
STYLE
  5
38F5
330
3
100
AcDbSymbolTableRecord
100
AcDbTextStyleTableRecord
  2
SEACAD_Arial
 70
     0
 40
0.0
 41
1.0
 50
0.0
 71
     0
 42
2.5
  3
arial.ttf
  4

1001
ACAD
1000
Arial
1071
        0
  0
ENDTAB
  0
TABLE
  2
VIEW
  5
5
330
0
100
AcDbSymbolTable
 70
     0
  0
ENDTAB
  0
TABLE
  2
UCS
  5
6
330
0
100
AcDbSymbolTable
 70
     0
  0
ENDTAB
  0
TABLE
  2
APPID
  5
8
330
0
100
AcDbSymbolTable
 70
     3
  0
APPID
  5
16
330
8
100
AcDbSymbolTableRecord
100
AcDbRegAppTableRecord
  2
ACAD
 70
     0
  0
APPID
  5
7AC
330
8
100
AcDbSymbolTableRecord
100
AcDbRegAppTableRecord
  2
AcAecLayerStandard
 70
     0
  0
APPID
  5
E29
330
8
100
AcDbSymbolTableRecord
100
AcDbRegAppTableRecord
  2
ACAD_MLEADERVER
 70
     0
  0
ENDTAB
  0
TABLE
  2
DIMSTYLE
  5
9
330
0
100
AcDbSymbolTable
 70
     3
100
AcDbDimStyleTable
  0
DIMSTYLE
105
18
102
{ACAD_REACTORS
330
39A9
330
39B5
330
39C1
330
39CC
330
39D7
330
39E2
102
}
330
9
100
AcDbSymbolTableRecord
100
AcDbDimStyleTableRecord
  2
Standard
 70
     0
178
     0
340
17
  0
DIMSTYLE
105
57
102
{ACAD_REACTORS
330
3A8C
330
3A8D
330
3A8F
330
3A90
102
}
330
9
100
AcDbSymbolTableRecord
100
AcDbDimStyleTableRecord
  2
tfrom線あり
 70
     0
  3
<>
  4
[]
 41
3.0
 42
10.0
 43
0.9999999999999999
 44
0.0
 73
     0
 74
     0
 77
     1
 78
    11
140
12.0
141
0.0
143
1.0
147
10.0
171
     1
174
     1
178
     0
179
     2
271
     0
272
     1
276
     2
284
    11
285
    11
286
    11
289
     0
340
39
341
4E
342
4E
  0
DIMSTYLE
105
38F2
330
9
100
AcDbSymbolTableRecord
100
AcDbDimStyleTableRecord
  2
ISO-25
 70
     0
 41
2.5
 42
0.625
 43
3.75
 44
1.25
 73
     0
 74
     0
 77
     1
 78
     8
140
2.5
141
2.5
143
0.0393700787
147
0.625
171
     3
172
     1
178
     0
271
     2
272
     2
274
     3
278
    44
283
     0
284
     8
340
17
  0
ENDTAB
  0
TABLE
  2
BLOCK_RECORD
  5
1
330
0
100
AcDbSymbolTable
 70
    29
  0
BLOCK_RECORD
  5
A
330
1
100
AcDbSymbolTableRecord
100
AcDbBlockTableRecord
  2
*MODEL_SPACE
340
20
 70
     0
280
     1
281
     0
  0
BLOCK_RECORD
  5
B
330
1
100
AcDbSymbolTableRecord
100
AcDbBlockTableRecord
  2
*PAPER_SPACE
340
21
 70
     0
280
     1
281
     0
  0
BLOCK_RECORD
  5
4E
330
1
100
AcDbSymbolTableRecord
100
AcDbBlockTableRecord
  2
_DOT
340
0
102
{BLKREFS
331
37E3
331
37E4
331
37F0
331
37F1
331
37FD
331
37FE
331
380C
331
380D
331
3818
331
3A99
331
3A9A
331
3AA5
331
3AA6
331
3AB2
331
3AB3
331
3ACC
331
3ACD
331
3AD9
331
3ADA
331
3AC1
331
3AC2
331
3AF5
331
3AF4
102
}
 70
     0
280
     1
281
     0
  0
BLOCK_RECORD
  5
68A
330
1
100
AcDbSymbolTableRecord
100
AcDbBlockTableRecord
  2
名称未設定-1
340
0
102
{BLKREFS
331
6B5
102
}
 70
     1
280
     1
281
     0
  0
BLOCK_RECORD
  5
68D
330
1
100
AcDbSymbolTableRecord
100
AcDbBlockTableRecord
  2
block 2
340
0
102
{BLKREFS
331
68C
331
1343
102
}
 70
     0
280
     1
281
     0
  0
BLOCK_RECORD
  5
690
330
1
100
AcDbSymbolTableRecord
100
AcDbBlockTableRecord
  2
block 3
340
0
102
{BLKREFS
331
68F
102
}
 70
     0
280
     1
281
     0
  0
BLOCK_RECORD
  5
693
330
1
100
AcDbSymbolTableRecord
100
AcDbBlockTableRecord
  2
block 4
340
0
102
{BLKREFS
331
692
102
}
 70
     0
280
     1
281
     0
  0
BLOCK_RECORD
  5
6A2
330
1
100
AcDbSymbolTableRecord
100
AcDbBlockTableRecord
  2
block 5
340
0
102
{BLKREFS
331
6A1
102
}
 70
     0
280
     1
281
     0
  0
BLOCK_RECORD
  5
37DD
330
1
100
AcDbSymbolTableRecord
100
AcDbBlockTableRecord
  2
*D6
340
0
 70
     0
280
     1
281
     0
  0
BLOCK_RECORD
  5
37EA
330
1
100
AcDbSymbolTableRecord
100
AcDbBlockTableRecord
  2
*D7
340
0
 70
     0
280
     1
281
     0
  0
BLOCK_RECORD
  5
37F7
330
1
100
AcDbSymbolTableRecord
100
AcDbBlockTableRecord
  2
*D8
340
0
 70
     0
280
     1
281
     0
  0
BLOCK_RECORD
  5
3806
330
1
100
AcDbSymbolTableRecord
100
AcDbBlockTableRecord
  2
*D9
340
0
 70
     0
280
     1
281
     0
  0
BLOCK_RECORD
  5
3813
330
1
100
AcDbSymbolTableRecord
100
AcDbBlockTableRecord
  2
*D10
340
0
 70
     0
280
     1
281
     0
  0
BLOCK_RECORD
  5
394D
330
1
100
AcDbSymbolTableRecord
100
AcDbBlockTableRecord
  2
SE
340
0
102
{BLKREFS
331
394C
331
3A39
102
}
 70
     0
280
     1
281
     0
  0
BLOCK_RECORD
  5
397E
330
1
100
AcDbSymbolTableRecord
100
AcDbBlockTableRecord
  2
SE1
340
0
102
{BLKREFS
331
397D
331
3A65
102
}
 70
     0
280
     1
281
     0
  0
BLOCK_RECORD
  5
39AA
330
1
100
AcDbSymbolTableRecord
100
AcDbBlockTableRecord
  2
DMBLK1
340
0
 70
     0
280
     1
281
     0
  0
BLOCK_RECORD
  5
39B6
330
1
100
AcDbSymbolTableRecord
100
AcDbBlockTableRecord
  2
DMBLK2
340
0
 70
     0
280
     1
281
     0
  0
BLOCK_RECORD
  5
39C2
330
1
100
AcDbSymbolTableRecord
100
AcDbBlockTableRecord
  2
DMBLK3
340
0
 70
     0
280
     1
281
     0
  0
BLOCK_RECORD
  5
39CD
330
1
100
AcDbSymbolTableRecord
100
AcDbBlockTableRecord
  2
DMBLK4
340
0
 70
     0
280
     1
281
     0
  0
BLOCK_RECORD
  5
39D8
330
1
100
AcDbSymbolTableRecord
100
AcDbBlockTableRecord
  2
DMBLK5
340
0
 70
     0
280
     1
281
     0
  0
BLOCK_RECORD
  5
39E3
330
1
100
AcDbSymbolTableRecord
100
AcDbBlockTableRecord
  2
DMBLK6
340
0
 70
     0
280
     1
281
     0
  0
BLOCK_RECORD
  5
3A91
330
1
100
AcDbSymbolTableRecord
100
AcDbBlockTableRecord
  2
*D20
340
0
 70
     0
280
     1
281
     0
  0
BLOCK_RECORD
  5
3A9F
330
1
100
AcDbSymbolTableRecord
100
AcDbBlockTableRecord
  2
*D21
340
0
 70
     0
280
     1
281
     0
  0
BLOCK_RECORD
  5
3AAC
330
1
100
AcDbSymbolTableRecord
100
AcDbBlockTableRecord
  2
*D22
340
0
 70
     0
280
     1
281
     0
  0
BLOCK_RECORD
  5
3AB9
330
1
100
AcDbSymbolTableRecord
100
AcDbBlockTableRecord
  2
*D23
340
0
 70
     0
280
     1
281
     0
  0
BLOCK_RECORD
  5
3AC6
330
1
100
AcDbSymbolTableRecord
100
AcDbBlockTableRecord
  2
*D24
340
0
 70
     0
280
     1
281
     0
  0
BLOCK_RECORD
  5
3AD3
330
1
100
AcDbSymbolTableRecord
100
AcDbBlockTableRecord
  2
*D25
340
0
 70
     0
280
     1
281
     0
  0
BLOCK_RECORD
  5
3AED
330
1
100
AcDbSymbolTableRecord
100
AcDbBlockTableRecord
  2
*D26
340
0
 70
     0
280
     1
281
     0
  0
ENDTAB
  0
ENDSEC
  0
SECTION
  2
BLOCKS
  0
BLOCK
  5
D
330
A
100
AcDbEntity
  8
0
390
1D
100
AcDbBlockBegin
  2
*MODEL_SPACE
 70
     0
 10
0.0
 20
0.0
 30
0.0
  3
*MODEL_SPACE
  1
*MODEL_SPACE
  0
ENDBLK
  5
E
330
A
100
AcDbEntity
  8
0
390
1D
100
AcDbBlockEnd
  0
BLOCK
  5
F
330
B
100
AcDbEntity
 67
     1
  8
0
390
1D
100
AcDbBlockBegin
  2
*PAPER_SPACE
 70
     0
 10
0.0
 20
0.0
 30
0.0
  3
*PAPER_SPACE
  1
*PAPER_SPACE
  0
ENDBLK
  5
10
330
B
100
AcDbEntity
 67
     1
  8
0
390
1D
100
AcDbBlockEnd
  0
BLOCK
  5
E30
330
4E
100
AcDbEntity
  8
0
390
1D
100
AcDbBlockBegin
  2
_DOT
 70
     0
 10
0.0
 20
0.0
 30
0.0
  3
_DOT
  1
_DOT
  0
POLYLINE
  5
E32
330
4E
100
AcDbEntity
  8
0
  6
ByBlock
 62
     0
370
    -2
390
1D
100
AcDb2dPolyline
 66
     1
 10
0.0
 20
0.0
 30
0.0
 70
     1
 40
0.5
 41
0.5
  0
VERTEX
  5
E33
330
E32
100
AcDbEntity
  8
0
  6
ByBlock
 62
     0
370
    -2
390
1D
100
AcDbVertex
100
AcDb2dVertex
 10
-0.25
 20
0.0
 30
0.0
 42
1.0
  0
VERTEX
  5
E34
330
E32
100
AcDbEntity
  8
0
  6
ByBlock
 62
     0
370
    -2
390
1D
100
AcDbVertex
100
AcDb2dVertex
 10
0.25
 20
0.0
 30
0.0
 42
1.0
  0
SEQEND
  5
E35
330
E32
100
AcDbEntity
  8
0
390
1D
  0
LINE
  5
E36
330
4E
100
AcDbEntity
  8
0
  6
ByBlock
 62
     0
370
    -2
390
1D
100
AcDbLine
 10
-0.5
 20
0.0
 30
0.0
 11
-1.0
 21
0.0
 31
0.0
  0
ENDBLK
  5
E37
330
4E
100
AcDbEntity
  8
0
390
1D
100
AcDbBlockEnd
  0
BLOCK
  5
68B
330
68A
100
AcDbEntity
  8
0
100
AcDbBlockBegin
  2
名称未設定-1
 70
     0
 10
0.0
 20
0.0
 30
0.0
  3
名称未設定-1
  1
名称未設定-1
  0
INSERT
  5
68F
330
68A
100
AcDbEntity
  8
LOGO
100
AcDbBlockReference
  2
block 3
 10
0.0
 20
0.0
 30
0.0
  0
ENDBLK
  5
6B1
330
68A
100
AcDbEntity
  8
0
100
AcDbBlockEnd
  0
BLOCK
  5
68E
330
68D
100
AcDbEntity
  8
0
100
AcDbBlockBegin
  2
block 2
 70
     0
 10
0.0
 20
0.0
 30
0.0
  3
block 2
  1
block 2
  0
ENDBLK
  5
6B0
330
68D
100
AcDbEntity
  8
0
100
AcDbBlockEnd
  0
BLOCK
  5
691
330
690
100
AcDbEntity
  8
0
100
AcDbBlockBegin
  2
block 3
 70
     0
 10
0.0
 20
0.0
 30
0.0
  3
block 3
  1
block 3
  0
INSERT
  5
692
330
690
100
AcDbEntity
  8
LOGO
100
AcDbBlockReference
  2
block 4
 10
0.0
 20
0.0
 30
0.0
  0
INSERT
  5
6A1
330
690
100
AcDbEntity
  8
LOGO
100
AcDbBlockReference
  2
block 5
 10
0.0
 20
0.0
 30
0.0
  0
ENDBLK
  5
6AF
330
690
100
AcDbEntity
  8
0
100
AcDbBlockEnd
  0
BLOCK
  5
694
330
693
100
AcDbEntity
  8
0
100
AcDbBlockBegin
  2
block 4
 70
     0
 10
0.0
 20
0.0
 30
0.0
  3
block 4
  1
block 4
  0
POLYLINE
  5
695
330
693
100
AcDbEntity
  8
LOGO
370
     0
100
AcDb2dPolyline
 66
     1
 10
0.0
 20
0.0
 30
0.0
  0
VERTEX
  5
696
330
695
100
AcDbEntity
  8
LOGO
370
     0
100
AcDbVertex
100
AcDb2dVertex
 10
83.79545727667795
 20
167.6444858234922
 30
0.0
  0
VERTEX
  5
697
330
695
100
AcDbEntity
  8
LOGO
370
     0
100
AcDbVertex
100
AcDb2dVertex
 10
83.79545727667795
 20
159.7968976406313
 30
0.0
  0
VERTEX
  5
698
330
695
100
AcDbEntity
  8
LOGO
370
     0
100
AcDbVertex
100
AcDb2dVertex
 10
71.3631329975216
 20
159.7968976406313
 30
0.0
  0
VERTEX
  5
699
330
695
100
AcDbEntity
  8
LOGO
370
     0
100
AcDbVertex
100
AcDb2dVertex
 10
71.3631329975216
 20
127.8027915271048
 30
0.0
  0
VERTEX
  5
69A
330
695
100
AcDbEntity
  8
LOGO
370
     0
100
AcDbVertex
100
AcDb2dVertex
 10
60.43011526263018
 20
127.8027915271048
 30
0.0
  0
VERTEX
  5
69B
330
695
100
AcDbEntity
  8
LOGO
370
     0
100
AcDbVertex
100
AcDb2dVertex
 10
60.43011526263018
 20
159.7968976406313
 30
0.0
  0
VERTEX
  5
69C
330
695
100
AcDbEntity
  8
LOGO
370
     0
100
AcDbVertex
100
AcDb2dVertex
 10
48.21793273020759
 20
159.7968976406313
 30
0.0
  0
VERTEX
  5
69D
330
695
100
AcDbEntity
  8
LOGO
370
     0
100
AcDbVertex
100
AcDb2dVertex
 10
48.21793273020759
 20
167.6444858234922
 30
0.0
  0
VERTEX
  5
69E
330
695
100
AcDbEntity
  8
LOGO
370
     0
100
AcDbVertex
100
AcDb2dVertex
 10
83.79545727667795
 20
167.6444858234922
 30
0.0
  0
SEQEND
  5
69F
330
695
100
AcDbEntity
  8
LOGO
370
     0
  0
HATCH
  5
6A0
330
693
100
AcDbEntity
  8
LOGO
 62
   250
420
  2234388
100
AcDbHatch
 10
0.0
 20
0.0
 30
0.0
210
0.0
220
0.0
230
1.0
  2
SOLID
 70
     1
 71
     0
 91
        1
 92
        1
 93
        8
 72
     1
 10
83.79545727667795
 20
167.6444858234922
 11
83.79545727667795
 21
159.7968976406313
 72
     1
 10
83.79545727667795
 20
159.7968976406313
 11
71.3631329975216
 21
159.7968976406313
 72
     1
 10
71.3631329975216
 20
159.7968976406313
 11
71.3631329975216
 21
127.8027915271048
 72
     1
 10
71.3631329975216
 20
127.8027915271048
 11
60.43011526263018
 21
127.8027915271048
 72
     1
 10
60.43011526263018
 20
127.8027915271048
 11
60.43011526263018
 21
159.7968976406313
 72
     1
 10
60.43011526263018
 20
159.7968976406313
 11
48.21793273020759
 21
159.7968976406313
 72
     1
 10
48.21793273020759
 20
159.7968976406313
 11
48.21793273020759
 21
167.6444858234922
 72
     1
 10
48.21793273020759
 20
167.6444858234922
 11
83.79545727667795
 21
167.6444858234922
 97
        0
 75
     2
 76
     1
 98
        0
  0
ENDBLK
  5
6AE
330
693
100
AcDbEntity
  8
0
100
AcDbBlockEnd
  0
BLOCK
  5
6A3
330
6A2
100
AcDbEntity
  8
0
100
AcDbBlockBegin
  2
block 5
 70
     0
 10
0.0
 20
0.0
 30
0.0
  3
block 5
  1
block 5
  0
SPLINE
  5
6A4
330
6A2
100
AcDbEntity
  8
LOGO
370
     0
100
AcDbSpline
210
0.0
220
0.0
230
1.0
 70
    11
 71
     3
 72
    56
 73
    52
 74
     0
 42
0.000000001
 43
0.0000000001
 40
0.0
 40
0.0
 40
0.0
 40
0.0
 40
1.0
 40
1.0
 40
1.0
 40
2.0
 40
2.0
 40
2.0
 40
3.0
 40
3.0
 40
3.0
 40
4.0
 40
4.0
 40
4.0
 40
5.0
 40
5.0
 40
5.0
 40
6.0
 40
6.0
 40
6.0
 40
7.0
 40
7.0
 40
7.0
 40
8.0
 40
8.0
 40
8.0
 40
9.0
 40
9.0
 40
9.0
 40
10.0
 40
10.0
 40
10.0
 40
11.0
 40
11.0
 40
11.0
 40
12.0
 40
12.0
 40
12.0
 40
13.0
 40
13.0
 40
13.0
 40
14.0
 40
14.0
 40
14.0
 40
15.0
 40
15.0
 40
15.0
 40
16.0
 40
16.0
 40
16.0
 40
17.0
 40
17.0
 40
17.0
 40
17.0
 10
100.4504378777679
 20
166.69157178364
 30
0.0
 10
101.9848844191641
 20
167.1313385124438
 30
0.0
 10
103.9637485713373
 20
166.7649523658846
 30
0.0
 10
103.9637485713373
 20
166.7649523658846
 30
0.0
 10
103.9637485713373
 20
166.7649523658846
 30
0.0
 10
103.0132460999156
 20
163.911205638077
 30
0.0
 10
103.0132460999156
 20
163.911205638077
 30
0.0
 10
103.0132460999156
 20
163.911205638077
 30
0.0
 10
101.0674548862189
 20
164.3601018759394
 30
0.0
 10
99.57090442016032
 20
163.1805004036133
 30
0.0
 10
98.40508333886608
 20
162.258247733807
 30
0.0
 10
97.65301849830304
 20
159.804132345923
 30
0.0
 10
97.3598406791005
 20
158.8699940888517
 30
0.0
 10
97.3598406791005
 20
158.8699940888517
 30
0.0
 10
96.07137411762282
 20
154.9119212747295
 30
0.0
 10
96.07137411762282
 20
154.9119212747295
 30
0.0
 10
96.07137411762282
 20
154.9119212747295
 30
0.0
 10
100.3012651448482
 20
154.9119212747295
 30
0.0
 10
100.3012651448482
 20
154.9119212747295
 30
0.0
 10
100.3012651448482
 20
154.9119212747295
 30
0.0
 10
99.64152892419852
 20
152.4199098115079
 30
0.0
 10
99.64152892419852
 20
152.4199098115079
 30
0.0
 10
99.64152892419852
 20
152.4199098115079
 30
0.0
 10
95.38097652692731
 20
152.4199098115079
 30
0.0
 10
95.38097652692731
 20
152.4199098115079
 30
0.0
 10
95.38097652692731
 20
152.4199098115079
 30
0.0
 10
87.75353009080013
 20
127.8027915271048
 30
0.0
 10
87.75353009080013
 20
127.8027915271048
 30
0.0
 10
87.75353009080013
 20
127.8027915271048
 30
0.0
 10
85.36538832498108
 20
127.8027915271048
 30
0.0
 10
85.36538832498108
 20
127.8027915271048
 30
0.0
 10
85.36538832498108
 20
127.8027915271048
 30
0.0
 10
93.00006946639998
 20
152.4199098115079
 30
0.0
 10
93.00006946639998
 20
152.4199098115079
 30
0.0
 10
93.00006946639998
 20
152.4199098115079
 30
0.0
 10
89.85297266450198
 20
152.4199098115079
 30
0.0
 10
89.85297266450198
 20
152.4199098115079
 30
0.0
 10
89.85297266450198
 20
152.4199098115079
 30
0.0
 10
90.51270888515164
 20
154.9119212747295
 30
0.0
 10
90.51270888515164
 20
154.9119212747295
 30
0.0
 10
90.51270888515164
 20
154.9119212747295
 30
0.0
 10
93.6904670570955
 20
154.9119212747295
 30
0.0
 10
93.6904670570955
 20
154.9119212747295
 30
0.0
 10
93.6904670570955
 20
154.9119212747295
 30
0.0
 10
94.81598049462158
 20
158.3616699146644
 30
0.0
 10
94.81598049462158
 20
158.3616699146644
 30
0.0
 10
95.7237637538445
 20
161.2605474231013
 30
0.0
 10
96.4968436907311
 20
162.8139420021662
 30
0.0
 10
97.15657991138076
 20
163.9844139654337
 30
0.0
 10
97.81183750494507
 20
165.1523021053827
 30
0.0
 10
99.1047826935081
 20
166.3084769129547
 30
0.0
 10
100.4504378777679
 20
166.69157178364
 30
0.0
  0
HATCH
  5
6A5
330
6A2
100
AcDbEntity
  8
LOGO
 62
   250
420
  2234388
100
AcDbHatch
 10
0.0
 20
0.0
 30
0.0
210
0.0
220
0.0
230
1.0
  2
SOLID
 70
     1
 71
     0
 91
        1
 92
        1
 93
        1
 72
     4
 94
        3
 73
     0
 74
     1
 95
       56
 96
       52
 40
0.0
 40
0.0
 40
0.0
 40
0.0
 40
1.0
 40
1.0
 40
1.0
 40
2.0
 40
2.0
 40
2.0
 40
3.0
 40
3.0
 40
3.0
 40
4.0
 40
4.0
 40
4.0
 40
5.0
 40
5.0
 40
5.0
 40
6.0
 40
6.0
 40
6.0
 40
7.0
 40
7.0
 40
7.0
 40
8.0
 40
8.0
 40
8.0
 40
9.0
 40
9.0
 40
9.0
 40
10.0
 40
10.0
 40
10.0
 40
11.0
 40
11.0
 40
11.0
 40
12.0
 40
12.0
 40
12.0
 40
13.0
 40
13.0
 40
13.0
 40
14.0
 40
14.0
 40
14.0
 40
15.0
 40
15.0
 40
15.0
 40
16.0
 40
16.0
 40
16.0
 40
17.0
 40
17.0
 40
17.0
 40
17.0
 10
100.4504378777679
 20
166.69157178364
 10
101.9848844191641
 20
167.1313385124438
 10
103.9637485713373
 20
166.7649523658846
 10
103.9637485713373
 20
166.7649523658846
 10
103.9637485713373
 20
166.7649523658846
 10
103.0132460999156
 20
163.911205638077
 10
103.0132460999156
 20
163.911205638077
 10
103.0132460999156
 20
163.911205638077
 10
101.0674548862189
 20
164.3601018759394
 10
99.57090442016032
 20
163.1805004036133
 10
98.40508333886608
 20
162.258247733807
 10
97.65301849830304
 20
159.804132345923
 10
97.3598406791005
 20
158.8699940888517
 10
97.3598406791005
 20
158.8699940888517
 10
96.07137411762282
 20
154.9119212747295
 10
96.07137411762282
 20
154.9119212747295
 10
96.07137411762282
 20
154.9119212747295
 10
100.3012651448482
 20
154.9119212747295
 10
100.3012651448482
 20
154.9119212747295
 10
100.3012651448482
 20
154.9119212747295
 10
99.64152892419852
 20
152.4199098115079
 10
99.64152892419852
 20
152.4199098115079
 10
99.64152892419852
 20
152.4199098115079
 10
95.38097652692731
 20
152.4199098115079
 10
95.38097652692731
 20
152.4199098115079
 10
95.38097652692731
 20
152.4199098115079
 10
87.75353009080013
 20
127.8027915271048
 10
87.75353009080013
 20
127.8027915271048
 10
87.75353009080013
 20
127.8027915271048
 10
85.36538832498108
 20
127.8027915271048
 10
85.36538832498108
 20
127.8027915271048
 10
85.36538832498108
 20
127.8027915271048
 10
93.00006946639998
 20
152.4199098115079
 10
93.00006946639998
 20
152.4199098115079
 10
93.00006946639998
 20
152.4199098115079
 10
89.85297266450198
 20
152.4199098115079
 10
89.85297266450198
 20
152.4199098115079
 10
89.85297266450198
 20
152.4199098115079
 10
90.51270888515164
 20
154.9119212747295
 10
90.51270888515164
 20
154.9119212747295
 10
90.51270888515164
 20
154.9119212747295
 10
93.6904670570955
 20
154.9119212747295
 10
93.6904670570955
 20
154.9119212747295
 10
93.6904670570955
 20
154.9119212747295
 10
94.81598049462158
 20
158.3616699146644
 10
94.81598049462158
 20
158.3616699146644
 10
95.7237637538445
 20
161.2605474231013
 10
96.4968436907311
 20
162.8139420021662
 10
97.15657991138076
 20
163.9844139654337
 10
97.81183750494507
 20
165.1523021053827
 10
99.1047826935081
 20
166.3084769129547
 10
100.4504378777679
 20
166.69157178364
 97
        0
 75
     2
 76
     1
 98
        0
  0
SPLINE
  5
6A6
330
6A2
100
AcDbEntity
  8
LOGO
370
     0
100
AcDbSpline
210
0.0
220
0.0
230
1.0
 70
    11
 71
     3
 72
    38
 73
    34
 74
     0
 42
0.000000001
 43
0.0000000001
 40
0.0
 40
0.0
 40
0.0
 40
0.0
 40
1.0
 40
1.0
 40
1.0
 40
2.0
 40
2.0
 40
2.0
 40
3.0
 40
3.0
 40
3.0
 40
4.0
 40
4.0
 40
4.0
 40
5.0
 40
5.0
 40
5.0
 40
6.0
 40
6.0
 40
6.0
 40
7.0
 40
7.0
 40
7.0
 40
8.0
 40
8.0
 40
8.0
 40
9.0
 40
9.0
 40
9.0
 40
10.0
 40
10.0
 40
10.0
 40
11.0
 40
11.0
 40
11.0
 40
11.0
 10
126.377554584636
 20
154.8151140277308
 30
0.0
 10
126.377554584636
 20
154.8151140277308
 30
0.0
 10
128.8311532078563
 20
154.8151140277308
 30
0.0
 10
128.8311532078563
 20
154.8151140277308
 30
0.0
 10
128.8311532078563
 20
154.8151140277308
 30
0.0
 10
127.7345785914971
 20
151.3062819612468
 30
0.0
 10
127.7345785914971
 20
151.3062819612468
 30
0.0
 10
128.571392836906
 20
152.2922689395754
 30
0.0
 10
129.8860421413442
 20
153.604506675583
 30
0.0
 10
131.0163787157314
 20
154.2664822097754
 30
0.0
 10
132.7044766171327
 20
155.2500576196734
 30
0.0
 10
133.6642808525008
 20
155.3847609420097
 30
0.0
 10
134.7284715499351
 20
155.3565111403944
 30
0.0
 10
134.7284715499351
 20
155.3565111403944
 30
0.0
 10
133.6877075172549
 20
152.0345756272799
 30
0.0
 10
133.6877075172549
 20
152.0345756272799
 30
0.0
 10
133.011434827367
 20
152.3184516825359
 30
0.0
 10
130.930940291334
 20
151.7768823149844
 30
0.0
 10
129.739280976855
 20
150.9162968950455
 30
0.0
 10
128.66613302525
 20
150.1454562717016
 30
0.0
 10
127.9192358313239
 20
149.4857200510519
 30
0.0
 10
127.0393578639405
 20
147.8282835196966
 30
0.0
 10
126.164647543194
 20
146.1699857139017
 30
0.0
 10
125.4742499524985
 20
143.5262176944419
 30
0.0
 10
124.2822461282437
 20
139.6959580071401
 30
0.0
 10
124.2822461282437
 20
139.6959580071401
 30
0.0
 10
120.5753209406769
 20
127.8027915271048
 30
0.0
 10
120.5753209406769
 20
127.8027915271048
 30
0.0
 10
120.5753209406769
 20
127.8027915271048
 30
0.0
 10
118.1964809388044
 20
127.8027915271048
 30
0.0
 10
118.1964809388044
 20
127.8027915271048
 30
0.0
 10
118.1964809388044
 20
127.8027915271048
 30
0.0
 10
126.377554584636
 20
154.8151140277308
 30
0.0
 10
126.377554584636
 20
154.8151140277308
 30
0.0
  0
HATCH
  5
6A7
330
6A2
100
AcDbEntity
  8
LOGO
 62
   250
420
  2234388
100
AcDbHatch
 10
0.0
 20
0.0
 30
0.0
210
0.0
220
0.0
230
1.0
  2
SOLID
 70
     1
 71
     0
 91
        1
 92
        1
 93
        1
 72
     4
 94
        3
 73
     0
 74
     1
 95
       38
 96
       34
 40
0.0
 40
0.0
 40
0.0
 40
0.0
 40
1.0
 40
1.0
 40
1.0
 40
2.0
 40
2.0
 40
2.0
 40
3.0
 40
3.0
 40
3.0
 40
4.0
 40
4.0
 40
4.0
 40
5.0
 40
5.0
 40
5.0
 40
6.0
 40
6.0
 40
6.0
 40
7.0
 40
7.0
 40
7.0
 40
8.0
 40
8.0
 40
8.0
 40
9.0
 40
9.0
 40
9.0
 40
10.0
 40
10.0
 40
10.0
 40
11.0
 40
11.0
 40
11.0
 40
11.0
 10
126.377554584636
 20
154.8151140277308
 10
126.377554584636
 20
154.8151140277308
 10
128.8311532078563
 20
154.8151140277308
 10
128.8311532078563
 20
154.8151140277308
 10
128.8311532078563
 20
154.8151140277308
 10
127.7345785914971
 20
151.3062819612468
 10
127.7345785914971
 20
151.3062819612468
 10
128.571392836906
 20
152.2922689395754
 10
129.8860421413442
 20
153.604506675583
 10
131.0163787157314
 20
154.2664822097754
 10
132.7044766171327
 20
155.2500576196734
 10
133.6642808525008
 20
155.3847609420097
 10
134.7284715499351
 20
155.3565111403944
 10
134.7284715499351
 20
155.3565111403944
 10
133.6877075172549
 20
152.0345756272799
 10
133.6877075172549
 20
152.0345756272799
 10
133.011434827367
 20
152.3184516825359
 10
130.930940291334
 20
151.7768823149844
 10
129.739280976855
 20
150.9162968950455
 10
128.66613302525
 20
150.1454562717016
 10
127.9192358313239
 20
149.4857200510519
 10
127.0393578639405
 20
147.8282835196966
 10
126.164647543194
 20
146.1699857139017
 10
125.4742499524985
 20
143.5262176944419
 10
124.2822461282437
 20
139.6959580071401
 10
124.2822461282437
 20
139.6959580071401
 10
120.5753209406769
 20
127.8027915271048
 10
120.5753209406769
 20
127.8027915271048
 10
120.5753209406769
 20
127.8027915271048
 10
118.1964809388044
 20
127.8027915271048
 10
118.1964809388044
 20
127.8027915271048
 10
118.1964809388044
 20
127.8027915271048
 10
126.377554584636
 20
154.8151140277308
 10
126.377554584636
 20
154.8151140277308
 97
        0
 75
     2
 76
     1
 98
        0
  0
SPLINE
  5
6A8
330
6A2
100
AcDbEntity
  8
LOGO
370
     0
100
AcDbSpline
210
0.0
220
0.0
230
1.0
 70
    11
 71
     3
 72
   104
 73
   100
 74
     0
 42
0.000000001
 43
0.0000000001
 40
0.0
 40
0.0
 40
0.0
 40
0.0
 40
1.0
 40
1.0
 40
1.0
 40
2.0
 40
2.0
 40
2.0
 40
3.0
 40
3.0
 40
3.0
 40
4.0
 40
4.0
 40
4.0
 40
5.0
 40
5.0
 40
5.0
 40
6.0
 40
6.0
 40
6.0
 40
7.0
 40
7.0
 40
7.0
 40
8.0
 40
8.0
 40
8.0
 40
9.0
 40
9.0
 40
9.0
 40
10.0
 40
10.0
 40
10.0
 40
11.0
 40
11.0
 40
11.0
 40
12.0
 40
12.0
 40
12.0
 40
13.0
 40
13.0
 40
13.0
 40
14.0
 40
14.0
 40
14.0
 40
15.0
 40
15.0
 40
15.0
 40
16.0
 40
16.0
 40
16.0
 40
17.0
 40
17.0
 40
17.0
 40
18.0
 40
18.0
 40
18.0
 40
19.0
 40
19.0
 40
19.0
 40
20.0
 40
20.0
 40
20.0
 40
21.0
 40
21.0
 40
21.0
 40
22.0
 40
22.0
 40
22.0
 40
23.0
 40
23.0
 40
23.0
 40
24.0
 40
24.0
 40
24.0
 40
25.0
 40
25.0
 40
25.0
 40
26.0
 40
26.0
 40
26.0
 40
27.0
 40
27.0
 40
27.0
 40
28.0
 40
28.0
 40
28.0
 40
29.0
 40
29.0
 40
29.0
 40
30.0
 40
30.0
 40
30.0
 40
31.0
 40
31.0
 40
31.0
 40
32.0
 40
32.0
 40
32.0
 40
33.0
 40
33.0
 40
33.0
 40
33.0
 10
139.8926730891197
 20
154.8294111834263
 30
0.0
 10
139.8926730891197
 20
154.8294111834263
 30
0.0
 10
142.0344903652445
 20
154.8294111834263
 30
0.0
 10
142.0344903652445
 20
154.8294111834263
 30
0.0
 10
142.0344903652445
 20
154.8294111834263
 30
0.0
 10
140.9516961399171
 20
151.3157559800812
 30
0.0
 10
140.9516961399171
 20
151.3157559800812
 30
0.0
 10
141.8928968473923
 20
152.7887075264977
 30
0.0
 10
142.7341897198865
 20
153.4484437471474
 30
0.0
 10
143.8552245303272
 20
154.2926649527359
 30
0.0
 10
144.9803934580775
 20
155.1296514530327
 30
0.0
 10
146.3139908001845
 20
155.3044901642492
 30
0.0
 10
147.241066606852
 20
155.3044901642492
 30
0.0
 10
148.3855280820469
 20
155.3044901642492
 30
0.0
 10
149.4969166187653
 20
155.0752189084569
 30
0.0
 10
150.0784491203092
 20
153.8172414621372
 30
0.0
 10
150.5228667310863
 20
152.833838307127
 30
0.0
 10
150.5414702589793
 20
152.7201500811143
 30
0.0
 10
150.4140016419347
 20
150.7765981809602
 30
0.0
 10
151.5818897818837
 20
152.7699317437168
 30
0.0
 10
152.4424752018226
 20
153.6256940267945
 30
0.0
 10
153.9038856707499
 20
154.4507949398263
 30
0.0
 10
155.4455669174378
 20
155.3044901642492
 30
0.0
 10
156.339225275853
 20
155.3659851592288
 30
0.0
 10
157.3748216618963
 20
155.2147453676543
 30
0.0
 10
158.911679771723
 20
154.9877134254046
 30
0.0
 10
159.8859534176746
 20
154.4390816074493
 30
0.0
 10
160.3965169054045
 20
152.7816450760939
 30
0.0
 10
160.9070803931344
 20
151.1219692311958
 30
0.0
 10
160.6328506116007
 20
150.2303779314354
 30
0.0
 10
159.9992971339115
 20
147.597634224801
 30
0.0
 10
159.7105979417943
 20
146.4014962832367
 30
0.0
 10
159.2947746424084
 20
144.9400858143094
 30
0.0
 10
158.7463150793409
 20
143.2092687007094
 30
0.0
 10
158.7463150793409
 20
143.2092687007094
 30
0.0
 10
153.9038856707499
 20
127.8027915271048
 30
0.0
 10
153.9038856707499
 20
127.8027915271048
 30
0.0
 10
153.9038856707499
 20
127.8027915271048
 30
0.0
 10
151.3882752878863
 20
127.8027915271048
 30
0.0
 10
151.3882752878863
 20
127.8027915271048
 30
0.0
 10
151.3882752878863
 20
127.8027915271048
 30
0.0
 10
155.6250565106276
 20
141.2751908193897
 30
0.0
 10
155.6250565106276
 20
141.2751908193897
 30
0.0
 10
156.5094131050963
 20
144.0936252951782
 30
0.0
 10
157.109893644309
 20
146.1506931664571
 30
0.0
 10
157.4220195011804
 20
147.4415712963654
 30
0.0
 10
157.8095929989511
 20
149.0530157726519
 30
0.0
 10
157.9656559273867
 20
149.5826995529385
 30
0.0
 10
157.7816877071116
 20
150.7529992613181
 30
0.0
 10
157.6111553680925
 20
151.8430281919372
 30
0.0
 10
157.0582171779396
 20
152.5547853887321
 30
0.0
 10
156.1170164704645
 20
152.5547853887321
 30
0.0
 10
155.1096698860365
 20
152.5547853887321
 30
0.0
 10
154.2962823053817
 20
152.4412694176073
 30
0.0
 10
153.156643967048
 20
151.2945686288697
 30
0.0
 10
152.0170056287143
 20
150.1476955852443
 30
0.0
 10
151.076149431015
 20
148.7930831468137
 30
0.0
 10
150.3337308641742
 20
147.2290087646991
 30
0.0
 10
149.5957909244188
 20
145.6683794803425
 30
0.0
 10
148.8530278478023
 20
143.6822806228776
 30
0.0
 10
148.0964843801539
 20
141.2751908193897
 30
0.0
 10
148.0964843801539
 20
141.2751908193897
 30
0.0
 10
143.8552245303272
 20
127.8027915271048
 30
0.0
 10
143.8552245303272
 20
127.8027915271048
 30
0.0
 10
143.8552245303272
 20
127.8027915271048
 30
0.0
 10
141.486030802177
 20
127.8027915271048
 30
0.0
 10
141.486030802177
 20
127.8027915271048
 30
0.0
 10
141.486030802177
 20
127.8027915271048
 30
0.0
 10
146.3329388378533
 20
143.2092687007094
 30
0.0
 10
146.3329388378533
 20
143.2092687007094
 30
0.0
 10
146.8483254624444
 20
144.8408669988801
 30
0.0
 10
147.2314203331297
 20
146.1837661049335
 30
0.0
 10
147.4867020769946
 20
147.224185627838
 30
0.0
 10
147.9169947869641
 20
149.0197705792876
 30
0.0
 10
148.0306830129768
 20
150.2400242051577
 30
0.0
 10
147.709255392159
 20
151.3157559800812
 30
0.0
 10
147.3874832615654
 20
152.3916600098926
 30
0.0
 10
146.8245542879144
 20
152.6683013598569
 30
0.0
 10
145.8840425999909
 20
152.6683013598569
 30
0.0
 10
145.0989048209514
 20
152.6683013598569
 30
0.0
 10
144.3282364524954
 20
152.3275811915945
 30
0.0
 10
143.4531816219731
 20
151.6538923250251
 30
0.0
 10
142.34627171234
 20
150.8074318058939
 30
0.0
 10
141.901854101563
 20
150.1097995099067
 30
0.0
 10
141.3578731655808
 20
149.289521733736
 30
0.0
 10
140.6299240093235
 20
148.192602607601
 30
0.0
 10
140.2850697237515
 20
147.455696197173
 30
0.0
 10
139.6652966370942
 20
145.8385673095858
 30
0.0
 10
139.0506911970739
 20
144.2214384219986
 30
0.0
 10
138.463991048893
 20
142.3252566160164
 30
0.0
 10
138.0571250036777
 20
141.0154304484394
 30
0.0
 10
138.0571250036777
 20
141.0154304484394
 30
0.0
 10
133.9009590684727
 20
127.8027915271048
 30
0.0
 10
133.9009590684727
 20
127.8027915271048
 30
0.0
 10
133.9009590684727
 20
127.8027915271048
 30
0.0
 10
131.4180771143097
 20
127.8027915271048
 30
0.0
 10
131.4180771143097
 20
127.8027915271048
 30
0.0
 10
131.4180771143097
 20
127.8027915271048
 30
0.0
 10
139.8926730891197
 20
154.8294111834263
 30
0.0
 10
139.8926730891197
 20
154.8294111834263
 30
0.0
  0
HATCH
  5
6A9
330
6A2
100
AcDbEntity
  8
LOGO
 62
   250
420
  2234388
100
AcDbHatch
 10
0.0
 20
0.0
 30
0.0
210
0.0
220
0.0
230
1.0
  2
SOLID
 70
     1
 71
     0
 91
        1
 92
        1
 93
        1
 72
     4
 94
        3
 73
     0
 74
     1
 95
      104
 96
      100
 40
0.0
 40
0.0
 40
0.0
 40
0.0
 40
1.0
 40
1.0
 40
1.0
 40
2.0
 40
2.0
 40
2.0
 40
3.0
 40
3.0
 40
3.0
 40
4.0
 40
4.0
 40
4.0
 40
5.0
 40
5.0
 40
5.0
 40
6.0
 40
6.0
 40
6.0
 40
7.0
 40
7.0
 40
7.0
 40
8.0
 40
8.0
 40
8.0
 40
9.0
 40
9.0
 40
9.0
 40
10.0
 40
10.0
 40
10.0
 40
11.0
 40
11.0
 40
11.0
 40
12.0
 40
12.0
 40
12.0
 40
13.0
 40
13.0
 40
13.0
 40
14.0
 40
14.0
 40
14.0
 40
15.0
 40
15.0
 40
15.0
 40
16.0
 40
16.0
 40
16.0
 40
17.0
 40
17.0
 40
17.0
 40
18.0
 40
18.0
 40
18.0
 40
19.0
 40
19.0
 40
19.0
 40
20.0
 40
20.0
 40
20.0
 40
21.0
 40
21.0
 40
21.0
 40
22.0
 40
22.0
 40
22.0
 40
23.0
 40
23.0
 40
23.0
 40
24.0
 40
24.0
 40
24.0
 40
25.0
 40
25.0
 40
25.0
 40
26.0
 40
26.0
 40
26.0
 40
27.0
 40
27.0
 40
27.0
 40
28.0
 40
28.0
 40
28.0
 40
29.0
 40
29.0
 40
29.0
 40
30.0
 40
30.0
 40
30.0
 40
31.0
 40
31.0
 40
31.0
 40
32.0
 40
32.0
 40
32.0
 40
33.0
 40
33.0
 40
33.0
 40
33.0
 10
139.8926730891197
 20
154.8294111834263
 10
139.8926730891197
 20
154.8294111834263
 10
142.0344903652445
 20
154.8294111834263
 10
142.0344903652445
 20
154.8294111834263
 10
142.0344903652445
 20
154.8294111834263
 10
140.9516961399171
 20
151.3157559800812
 10
140.9516961399171
 20
151.3157559800812
 10
141.8928968473923
 20
152.7887075264977
 10
142.7341897198865
 20
153.4484437471474
 10
143.8552245303272
 20
154.2926649527359
 10
144.9803934580775
 20
155.1296514530327
 10
146.3139908001845
 20
155.3044901642492
 10
147.241066606852
 20
155.3044901642492
 10
148.3855280820469
 20
155.3044901642492
 10
149.4969166187653
 20
155.0752189084569
 10
150.0784491203092
 20
153.8172414621372
 10
150.5228667310863
 20
152.833838307127
 10
150.5414702589793
 20
152.7201500811143
 10
150.4140016419347
 20
150.7765981809602
 10
151.5818897818837
 20
152.7699317437168
 10
152.4424752018226
 20
153.6256940267945
 10
153.9038856707499
 20
154.4507949398263
 10
155.4455669174378
 20
155.3044901642492
 10
156.339225275853
 20
155.3659851592288
 10
157.3748216618963
 20
155.2147453676543
 10
158.911679771723
 20
154.9877134254046
 10
159.8859534176746
 20
154.4390816074493
 10
160.3965169054045
 20
152.7816450760939
 10
160.9070803931344
 20
151.1219692311958
 10
160.6328506116007
 20
150.2303779314354
 10
159.9992971339115
 20
147.597634224801
 10
159.7105979417943
 20
146.4014962832367
 10
159.2947746424084
 20
144.9400858143094
 10
158.7463150793409
 20
143.2092687007094
 10
158.7463150793409
 20
143.2092687007094
 10
153.9038856707499
 20
127.8027915271048
 10
153.9038856707499
 20
127.8027915271048
 10
153.9038856707499
 20
127.8027915271048
 10
151.3882752878863
 20
127.8027915271048
 10
151.3882752878863
 20
127.8027915271048
 10
151.3882752878863
 20
127.8027915271048
 10
155.6250565106276
 20
141.2751908193897
 10
155.6250565106276
 20
141.2751908193897
 10
156.5094131050963
 20
144.0936252951782
 10
157.109893644309
 20
146.1506931664571
 10
157.4220195011804
 20
147.4415712963654
 10
157.8095929989511
 20
149.0530157726519
 10
157.9656559273867
 20
149.5826995529385
 10
157.7816877071116
 20
150.7529992613181
 10
157.6111553680925
 20
151.8430281919372
 10
157.0582171779396
 20
152.5547853887321
 10
156.1170164704645
 20
152.5547853887321
 10
155.1096698860365
 20
152.5547853887321
 10
154.2962823053817
 20
152.4412694176073
 10
153.156643967048
 20
151.2945686288697
 10
152.0170056287143
 20
150.1476955852443
 10
151.076149431015
 20
148.7930831468137
 10
150.3337308641742
 20
147.2290087646991
 10
149.5957909244188
 20
145.6683794803425
 10
148.8530278478023
 20
143.6822806228776
 10
148.0964843801539
 20
141.2751908193897
 10
148.0964843801539
 20
141.2751908193897
 10
143.8552245303272
 20
127.8027915271048
 10
143.8552245303272
 20
127.8027915271048
 10
143.8552245303272
 20
127.8027915271048
 10
141.486030802177
 20
127.8027915271048
 10
141.486030802177
 20
127.8027915271048
 10
141.486030802177
 20
127.8027915271048
 10
146.3329388378533
 20
143.2092687007094
 10
146.3329388378533
 20
143.2092687007094
 10
146.8483254624444
 20
144.8408669988801
 10
147.2314203331297
 20
146.1837661049335
 10
147.4867020769946
 20
147.224185627838
 10
147.9169947869641
 20
149.0197705792876
 10
148.0306830129768
 20
150.2400242051577
 10
147.709255392159
 20
151.3157559800812
 10
147.3874832615654
 20
152.3916600098926
 10
146.8245542879144
 20
152.6683013598569
 10
145.8840425999909
 20
152.6683013598569
 10
145.0989048209514
 20
152.6683013598569
 10
144.3282364524954
 20
152.3275811915945
 10
143.4531816219731
 20
151.6538923250251
 10
142.34627171234
 20
150.8074318058939
 10
141.901854101563
 20
150.1097995099067
 10
141.3578731655808
 20
149.289521733736
 10
140.6299240093235
 20
148.192602607601
 10
140.2850697237515
 20
147.455696197173
 10
139.6652966370942
 20
145.8385673095858
 10
139.0506911970739
 20
144.2214384219986
 10
138.463991048893
 20
142.3252566160164
 10
138.0571250036777
 20
141.0154304484394
 10
138.0571250036777
 20
141.0154304484394
 10
133.9009590684727
 20
127.8027915271048
 10
133.9009590684727
 20
127.8027915271048
 10
133.9009590684727
 20
127.8027915271048
 10
131.4180771143097
 20
127.8027915271048
 10
131.4180771143097
 20
127.8027915271048
 10
131.4180771143097
 20
127.8027915271048
 10
139.8926730891197
 20
154.8294111834263
 10
139.8926730891197
 20
154.8294111834263
 97
        0
 75
     2
 76
     1
 98
        0
  0
SPLINE
  5
6AA
330
6A2
100
AcDbEntity
  8
LOGO
370
     0
100
AcDbSpline
210
0.0
220
0.0
230
1.0
 70
    11
 71
     3
 72
    29
 73
    25
 74
     0
 42
0.000000001
 43
0.0000000001
 40
0.0
 40
0.0
 40
0.0
 40
0.0
 40
1.0
 40
1.0
 40
1.0
 40
2.0
 40
2.0
 40
2.0
 40
3.0
 40
3.0
 40
3.0
 40
4.0
 40
4.0
 40
4.0
 40
5.0
 40
5.0
 40
5.0
 40
6.0
 40
6.0
 40
6.0
 40
7.0
 40
7.0
 40
7.0
 40
8.0
 40
8.0
 40
8.0
 40
8.0
 10
101.6420971922469
 20
132.8388354296931
 30
0.0
 10
101.630039350094
 20
134.7164137077823
 30
0.0
 10
102.2236296937908
 20
138.0598810818841
 30
0.0
 10
103.7487744712405
 20
142.5378191476827
 30
0.0
 10
105.819967243327
 20
148.5896501242061
 30
0.0
 10
107.0602024361932
 20
150.8074318058939
 30
0.0
 10
108.1522984254671
 20
151.8833358357054
 30
0.0
 10
109.741177511439
 20
153.4532668840085
 30
0.0
 10
111.8740375333931
 20
153.5290590346837
 30
0.0
 10
112.5075910110823
 20
153.4532668840085
 30
0.0
 10
113.4012493694975
 20
153.3490526768302
 30
0.0
 10
114.6683563248758
 20
152.7580461564518
 30
0.0
 10
114.7493161221879
 20
150.7838328862519
 30
0.0
 10
114.8106388622796
 20
149.0909118479895
 30
0.0
 10
114.3186789024427
 20
145.9191825971221
 30
0.0
 10
112.6164561002338
 20
140.9489400617108
 30
0.0
 10
110.6444821435766
 20
135.1746117095912
 30
0.0
 10
109.4669477299053
 20
132.8960240524753
 30
0.0
 10
108.5212683953448
 20
131.9072809959403
 30
0.0
 10
106.7346406980658
 20
130.0538184021569
 30
0.0
 10
104.8222669326213
 20
130.2336525051225
 30
0.0
 10
104.5408024457958
 20
130.2336525051225
 30
0.0
 10
104.1721769856939
 20
130.2336525051225
 30
0.0
 10
101.6465758193322
 20
130.6305277668397
 30
0.0
 10
101.6420971922469
 20
132.8388354296931
 30
0.0
  0
SPLINE
  5
6AB
330
6A2
100
AcDbEntity
  8
LOGO
370
     0
100
AcDbSpline
210
0.0
220
0.0
230
1.0
 70
    11
 71
     3
 72
    32
 73
    28
 74
     0
 42
0.000000001
 43
0.0000000001
 40
0.0
 40
0.0
 40
0.0
 40
0.0
 40
1.0
 40
1.0
 40
1.0
 40
2.0
 40
2.0
 40
2.0
 40
3.0
 40
3.0
 40
3.0
 40
4.0
 40
4.0
 40
4.0
 40
5.0
 40
5.0
 40
5.0
 40
6.0
 40
6.0
 40
6.0
 40
7.0
 40
7.0
 40
7.0
 40
8.0
 40
8.0
 40
8.0
 40
9.0
 40
9.0
 40
9.0
 40
9.0
 10
106.2595617172429
 20
153.4105476718098
 30
0.0
 10
104.8222669326213
 20
151.5474388043041
 30
0.0
 10
103.7177685914188
 20
149.8758773721411
 30
0.0
 10
101.9232171692965
 20
144.6141795664062
 30
0.0
 10
100.2754269116635
 20
139.7999999594306
 30
0.0
 10
99.22777268346732
 20
136.3052927937542
 30
0.0
 10
99.06964269637689
 20
132.039572749846
 30
0.0
 10
98.94665270641765
 20
128.8673267343149
 30
0.0
 10
100.8807305877373
 20
127.8027915271048
 30
0.0
 10
103.7129454545577
 20
127.8027915271048
 30
0.0
 10
104.9352661390825
 20
127.8027915271048
 30
0.0
 10
108.0151835347002
 20
127.8827177950895
 30
0.0
 10
110.2045431598849
 20
130.5926316915021
 30
0.0
 10
111.7417457794874
 20
132.4984597712065
 30
0.0
 10
113.155269389579
 20
134.475256864725
 30
0.0
 10
115.0562743324223
 20
140.9489400617108
 30
0.0
 10
116.6361961642235
 20
146.3680788349845
 30
0.0
 10
117.7282921534974
 20
149.8639917848761
 30
0.0
 10
117.6480213757369
 20
151.8595646611754
 30
0.0
 10
117.6480213757369
 20
151.8595646611754
 30
0.0
 10
117.6480213757369
 20
151.8595646611754
 30
0.0
 10
117.6480213757369
 20
151.8595646611754
 30
0.0
 10
117.13229024137
 20
155.18150017429
 30
0.0
 10
114.7162431837115
 20
155.886194920681
 30
0.0
 10
113.3351034925446
 20
155.886194920681
 30
0.0
 10
111.9829026225447
 20
155.886194920681
 30
0.0
 10
108.3414342923792
 20
156.1251124501957
 30
0.0
 10
106.2595617172429
 20
153.4105476718098
 30
0.0
  0
HATCH
  5
6AC
330
6A2
100
AcDbEntity
  8
LOGO
 62
   250
420
  2234388
100
AcDbHatch
 10
0.0
 20
0.0
 30
0.0
210
0.0
220
0.0
230
1.0
  2
SOLID
 70
     1
 71
     0
 91
        2
 92
        1
 93
        1
 72
     4
 94
        3
 73
     0
 74
     1
 95
       29
 96
       25
 40
0.0
 40
0.0
 40
0.0
 40
0.0
 40
1.0
 40
1.0
 40
1.0
 40
2.0
 40
2.0
 40
2.0
 40
3.0
 40
3.0
 40
3.0
 40
4.0
 40
4.0
 40
4.0
 40
5.0
 40
5.0
 40
5.0
 40
6.0
 40
6.0
 40
6.0
 40
7.0
 40
7.0
 40
7.0
 40
8.0
 40
8.0
 40
8.0
 40
8.0
 10
101.6420971922469
 20
132.8388354296931
 10
101.630039350094
 20
134.7164137077823
 10
102.2236296937908
 20
138.0598810818841
 10
103.7487744712405
 20
142.5378191476827
 10
105.819967243327
 20
148.5896501242061
 10
107.0602024361932
 20
150.8074318058939
 10
108.1522984254671
 20
151.8833358357054
 10
109.741177511439
 20
153.4532668840085
 10
111.8740375333931
 20
153.5290590346837
 10
112.5075910110823
 20
153.4532668840085
 10
113.4012493694975
 20
153.3490526768302
 10
114.6683563248758
 20
152.7580461564518
 10
114.7493161221879
 20
150.7838328862519
 10
114.8106388622796
 20
149.0909118479895
 10
114.3186789024427
 20
145.9191825971221
 10
112.6164561002338
 20
140.9489400617108
 10
110.6444821435766
 20
135.1746117095912
 10
109.4669477299053
 20
132.8960240524753
 10
108.5212683953448
 20
131.9072809959403
 10
106.7346406980658
 20
130.0538184021569
 10
104.8222669326213
 20
130.2336525051225
 10
104.5408024457958
 20
130.2336525051225
 10
104.1721769856939
 20
130.2336525051225
 10
101.6465758193322
 20
130.6305277668397
 10
101.6420971922469
 20
132.8388354296931
 97
        0
 92
        1
 93
        1
 72
     4
 94
        3
 73
     0
 74
     1
 95
       32
 96
       28
 40
0.0
 40
0.0
 40
0.0
 40
0.0
 40
1.0
 40
1.0
 40
1.0
 40
2.0
 40
2.0
 40
2.0
 40
3.0
 40
3.0
 40
3.0
 40
4.0
 40
4.0
 40
4.0
 40
5.0
 40
5.0
 40
5.0
 40
6.0
 40
6.0
 40
6.0
 40
7.0
 40
7.0
 40
7.0
 40
8.0
 40
8.0
 40
8.0
 40
9.0
 40
9.0
 40
9.0
 40
9.0
 10
106.2595617172429
 20
153.4105476718098
 10
104.8222669326213
 20
151.5474388043041
 10
103.7177685914188
 20
149.8758773721411
 10
101.9232171692965
 20
144.6141795664062
 10
100.2754269116635
 20
139.7999999594306
 10
99.22777268346732
 20
136.3052927937542
 10
99.06964269637689
 20
132.039572749846
 10
98.94665270641765
 20
128.8673267343149
 10
100.8807305877373
 20
127.8027915271048
 10
103.7129454545577
 20
127.8027915271048
 10
104.9352661390825
 20
127.8027915271048
 10
108.0151835347002
 20
127.8827177950895
 10
110.2045431598849
 20
130.5926316915021
 10
111.7417457794874
 20
132.4984597712065
 10
113.155269389579
 20
134.475256864725
 10
115.0562743324223
 20
140.9489400617108
 10
116.6361961642235
 20
146.3680788349845
 10
117.7282921534974
 20
149.8639917848761
 10
117.6480213757369
 20
151.8595646611754
 10
117.6480213757369
 20
151.8595646611754
 10
117.6480213757369
 20
151.8595646611754
 10
117.6480213757369
 20
151.8595646611754
 10
117.13229024137
 20
155.18150017429
 10
114.7162431837115
 20
155.886194920681
 10
113.3351034925446
 20
155.886194920681
 10
111.9829026225447
 20
155.886194920681
 10
108.3414342923792
 20
156.1251124501957
 10
106.2595617172429
 20
153.4105476718098
 97
        0
 75
     2
 76
     1
 98
        0
  0
ENDBLK
  5
6AD
330
6A2
100
AcDbEntity
  8
0
100
AcDbBlockEnd
  0
BLOCK
  5
37DE
330
37DD
100
AcDbEntity
  8
0
100
AcDbBlockBegin
  2
*D6
 70
     1
 10
0.0
 20
0.0
 30
0.0
  3
*D6
  1
*D122
  0
LINE
  5
37E0
330
37DD
100
AcDbEntity
  8
DIM
 62
     0
370
    -2
100
AcDbLine
 10
277.5119992744675
 20
638.3857589887427
 30
0.0
 11
227.7498394776749
 21
638.3857589887427
 31
0.0
  0
LINE
  5
37E1
330
37DD
100
AcDbEntity
  8
DIM
 62
     0
370
    -2
100
AcDbLine
 10
277.5119992744675
 20
578.3857589887427
 30
0.0
 11
227.7498394776749
 21
578.3857589887427
 31
0.0
  0
LINE
  5
37E2
330
37DD
100
AcDbEntity
  8
DIM
 62
     0
370
    -2
100
AcDbLine
 10
227.7498394776749
 20
635.3857589887427
 30
0.0
 11
227.7498394776749
 21
581.3857589887427
 31
0.0
  0
INSERT
  5
37E3
330
37DD
100
AcDbEntity
  8
DIM
 62
     0
370
    -2
100
AcDbBlockReference
  2
_DOT
 10
227.7498394776749
 20
638.3857589887427
 30
0.0
 41
3.0
 42
3.0
 43
3.0
 50
90.0
  0
INSERT
  5
37E4
330
37DD
100
AcDbEntity
  8
DIM
 62
     0
370
    -2
100
AcDbBlockReference
  2
_DOT
 10
227.7498394776749
 20
578.3857589887427
 30
0.0
 41
3.0
 42
3.0
 43
3.0
 50
270.0
  0
MTEXT
  5
37E5
330
37DD
100
AcDbEntity
  8
DIM
 62
     0
 48
0.05
100
AcDbMText
 10
211.7498394776749
 20
608.3857596593427
 30
0.0
 40
12.0
 41
0.0
 46
0.0
 71
     5
 72
     1
  1
\A1;\A1;60
  7
ＭＳ ゴシック
 11
0.0
 21
1.0
 31
0.0
 73
     1
 44
1.0
  0
POINT
  5
37E6
330
37DD
100
AcDbEntity
  8
Defpoints
 62
     0
100
AcDbPoint
 10
287.5119992744675
 20
638.3857589887427
 30
0.0
  0
POINT
  5
37E7
330
37DD
100
AcDbEntity
  8
Defpoints
 62
     0
100
AcDbPoint
 10
287.5119992744675
 20
578.3857589887427
 30
0.0
  0
POINT
  5
37E8
330
37DD
100
AcDbEntity
  8
Defpoints
 62
     0
100
AcDbPoint
 10
227.7498394776749
 20
578.3857589887427
 30
0.0
  0
ENDBLK
  5
37DF
330
37DD
100
AcDbEntity
  8
0
100
AcDbBlockEnd
  0
BLOCK
  5
37EB
330
37EA
100
AcDbEntity
  8
0
100
AcDbBlockBegin
  2
*D7
 70
     1
 10
0.0
 20
0.0
 30
0.0
  3
*D7
  1
*D123
  0
LINE
  5
37ED
330
37EA
100
AcDbEntity
  8
DIM
 62
     0
370
    -2
100
AcDbLine
 10
648.7303162649872
 20
548.1504586333429
 30
0.0
 11
648.7303162649872
 21
520.8097989851428
 31
0.0
  0
LINE
  5
37EE
330
37EA
100
AcDbEntity
  8
DIM
 62
     0
370
    -2
100
AcDbLine
 10
825.6061706879872
 20
552.3149110455429
 30
0.0
 11
825.6061706879872
 21
520.8097989851428
 31
0.0
  0
LINE
  5
37EF
330
37EA
100
AcDbEntity
  8
DIM
 62
     0
370
    -2
100
AcDbLine
 10
651.7303162649872
 20
520.8097989851428
 30
0.0
 11
822.6061706879872
 21
520.8097989851428
 31
0.0
  0
INSERT
  5
37F0
330
37EA
100
AcDbEntity
  8
DIM
 62
     0
370
    -2
100
AcDbBlockReference
  2
_DOT
 10
648.7303162649872
 20
520.8097989851428
 30
0.0
 41
3.0
 42
3.0
 43
3.0
 50
180.0
  0
INSERT
  5
37F1
330
37EA
100
AcDbEntity
  8
DIM
 62
     0
370
    -2
100
AcDbBlockReference
  2
_DOT
 10
825.6061706879872
 20
520.8097989851428
 30
0.0
 41
3.0
 42
3.0
 43
3.0
  0
MTEXT
  5
37F2
330
37EA
100
AcDbEntity
  8
DIM
 62
     0
 48
0.05
100
AcDbMText
 10
737.1682460143874
 20
536.8097989851428
 30
0.0
 40
12.0
 41
0.0
 46
0.0
 71
     5
 72
     1
  1
\A1;\A1;177
  7
ＭＳ ゴシック
 73
     1
 44
1.0
  0
POINT
  5
37F3
330
37EA
100
AcDbEntity
  8
Defpoints
 62
     0
100
AcDbPoint
 10
648.7303162649872
 20
558.1504586333429
 30
0.0
  0
POINT
  5
37F4
330
37EA
100
AcDbEntity
  8
Defpoints
 62
     0
100
AcDbPoint
 10
825.6061706879872
 20
562.3149110455429
 30
0.0
  0
POINT
  5
37F5
330
37EA
100
AcDbEntity
  8
Defpoints
 62
     0
100
AcDbPoint
 10
825.6061706879872
 20
520.8097989851428
 30
0.0
  0
ENDBLK
  5
37EC
330
37EA
100
AcDbEntity
  8
0
100
AcDbBlockEnd
  0
BLOCK
  5
37F8
330
37F7
100
AcDbEntity
  8
0
100
AcDbBlockBegin
  2
*D8
 70
     1
 10
0.0
 20
0.0
 30
0.0
  3
*D8
  1
*D124
  0
LINE
  5
37FA
330
37F7
100
AcDbEntity
  8
DIM
 62
     0
370
    -2
100
AcDbLine
 10
825.6061706879872
 20
552.3149110455429
 30
0.0
 11
825.6061706879872
 21
520.7690110006274
 31
0.0
  0
LINE
  5
37FB
330
37F7
100
AcDbEntity
  8
DIM
 62
     0
370
    -2
100
AcDbLine
 10
833.7002236520639
 20
554.4884574055629
 30
0.0
 11
848.583116469144
 21
526.4978070037039
 31
0.0
  0
ARC
  5
37FC
330
37F7
100
AcDbEntity
  8
DIM
 62
     0
370
    -2
100
AcDbCircle
 10
825.6061706879872
 20
569.7111570269428
 30
0.0
 40
48.94214602631544
100
AcDbArc
 50
273.5126015836185
 51
294.4873984164971
  0
INSERT
  5
37FD
330
37F7
100
AcDbEntity
  8
DIM
 62
     0
370
    -2
100
AcDbBlockReference
  2
_DOT
 10
825.6061706879872
 20
520.7690110006274
 30
0.0
 41
3.0
 42
3.0
 43
3.0
 50
181.7563007918093
  0
INSERT
  5
37FE
330
37F7
100
AcDbEntity
  8
DIM
 62
     0
370
    -2
100
AcDbBlockReference
  2
_DOT
 10
848.583116469144
 20
526.4978070037039
 30
0.0
 41
3.0
 42
3.0
 43
3.0
 50
26.24369920830641
  0
MTEXT
  5
37FF
330
37F7
100
AcDbEntity
  8
DIM
 62
     0
 48
0.05
100
AcDbMText
 10
841.3679013571236
 20
506.4943081799152
 30
0.0
 40
12.0
 41
0.0
 46
0.0
 71
     5
 72
     1
  1
\A1;\A1;28%%d
  7
ＭＳ ゴシック
 11
0.9702957262757522
 21
0.2419218956006471
 31
0.0
 73
     1
 44
1.0
  0
POINT
  5
3800
330
37F7
100
AcDbEntity
  8
Defpoints
 62
     0
100
AcDbPoint
 10
833.5435062828969
 20
521.4169300291436
 30
0.0
  0
POINT
  5
3801
330
37F7
100
AcDbEntity
  8
Defpoints
 62
     0
100
AcDbPoint
 10
825.6061706879872
 20
569.7111570269428
 30
0.0
  0
POINT
  5
3802
330
37F7
100
AcDbEntity
  8
Defpoints
 62
     0
100
AcDbPoint
 10
825.6061706879872
 20
569.7111570269428
 30
0.0
  0
POINT
  5
3803
330
37F7
100
AcDbEntity
  8
Defpoints
 62
     0
100
AcDbPoint
 10
825.6061706879872
 20
562.3149110455429
 30
0.0
  0
POINT
  5
3804
330
37F7
100
AcDbEntity
  8
Defpoints
 62
     0
100
AcDbPoint
 10
829.0055080241872
 20
563.3179333341427
 30
0.0
  0
ENDBLK
  5
37F9
330
37F7
100
AcDbEntity
  8
0
100
AcDbBlockEnd
  0
BLOCK
  5
3807
330
3806
100
AcDbEntity
  8
0
100
AcDbBlockBegin
  2
*D9
 70
     1
 10
0.0
 20
0.0
 30
0.0
  3
*D9
  1
*D125
  0
LINE
  5
3809
330
3806
100
AcDbEntity
  8
DIM
 62
     0
370
    -2
100
AcDbLine
 10
648.7303162649872
 20
548.1504586333429
 30
0.0
 11
648.7303162649872
 21
520.8097989851428
 31
0.0
  0
LINE
  5
380A
330
3806
100
AcDbEntity
  8
DIM
 62
     0
370
    -2
100
AcDbLine
 10
562.730316384187
 20
588.9057589887427
 30
0.0
 11
562.730316384187
 21
520.8097989851428
 31
0.0
  0
LINE
  5
380B
330
3806
100
AcDbEntity
  8
DIM
 62
     0
370
    -2
100
AcDbLine
 10
645.7303162649872
 20
520.8097989851428
 30
0.0
 11
565.730316384187
 21
520.8097989851428
 31
0.0
  0
INSERT
  5
380C
330
3806
100
AcDbEntity
  8
DIM
 62
     0
370
    -2
100
AcDbBlockReference
  2
_DOT
 10
648.7303162649872
 20
520.8097989851428
 30
0.0
 41
3.0
 42
3.0
 43
3.0
  0
INSERT
  5
380D
330
3806
100
AcDbEntity
  8
DIM
 62
     0
370
    -2
100
AcDbBlockReference
  2
_DOT
 10
562.730316384187
 20
520.8097989851428
 30
0.0
 41
3.0
 42
3.0
 43
3.0
 50
180.0
  0
MTEXT
  5
380E
330
3806
100
AcDbEntity
  8
DIM
 62
     0
 48
0.05
100
AcDbMText
 10
605.730314804587
 20
536.8097989851428
 30
0.0
 40
12.0
 41
0.0
 46
0.0
 71
     5
 72
     1
  1
\A1;\A1;86
  7
ＭＳ ゴシック
 73
     1
 44
1.0
  0
POINT
  5
380F
330
3806
100
AcDbEntity
  8
Defpoints
 62
     0
100
AcDbPoint
 10
648.7303162649872
 20
558.1504586333429
 30
0.0
  0
POINT
  5
3810
330
3806
100
AcDbEntity
  8
Defpoints
 62
     0
100
AcDbPoint
 10
562.730316384187
 20
598.9057589887427
 30
0.0
  0
POINT
  5
3811
330
3806
100
AcDbEntity
  8
Defpoints
 62
     0
100
AcDbPoint
 10
562.730316384187
 20
520.8097989851428
 30
0.0
  0
ENDBLK
  5
3808
330
3806
100
AcDbEntity
  8
0
100
AcDbBlockEnd
  0
BLOCK
  5
3814
330
3813
100
AcDbEntity
  8
0
100
AcDbBlockBegin
  2
*D10
 70
     1
 10
0.0
 20
0.0
 30
0.0
  3
*D10
  1
*D126
  0
LINE
  5
3816
330
3813
100
AcDbEntity
  8
DIM
 62
     0
370
    -2
100
AcDbLine
 10
310.3310357886252
 20
1209.681065844486
 30
0.0
 11
410.6655600415145
 21
1163.066286014992
 31
0.0
  0
MTEXT
  5
3817
330
3813
100
AcDbEntity
  8
DIM
 62
     0
 48
0.05
100
AcDbMText
 10
377.4678553197136
 20
1208.561324878632
 30
0.0
 40
12.0
 41
0.0
 46
0.0
 71
     5
 72
     1
  1
\A1;φ\A1;32\P(φ22-φ40)
  7
ＭＳ ゴシック
 11
0.9069022823191893
 21
-0.4213410142915658
 31
0.0
 73
     1
 44
1.0
  0
INSERT
  5
3818
330
3813
100
AcDbEntity
  8
DIM
 62
     0
370
    -2
100
AcDbBlockReference
  2
_DOT
 10
307.6103289416676
 20
1210.94508888736
 30
0.0
 41
3.0
 42
3.0
 43
3.0
 50
155.0807196886472
  0
POINT
  5
3819
330
3813
100
AcDbEntity
  8
Defpoints
 62
     0
100
AcDbPoint
 10
307.6103289416676
 20
1210.94508888736
 30
0.0
  0
POINT
  5
381A
330
3813
100
AcDbEntity
  8
Defpoints
 62
     0
100
AcDbPoint
 10
278.5894559075198
 20
1224.42800134466
 30
0.0
  0
ENDBLK
  5
3815
330
3813
100
AcDbEntity
  8
0
100
AcDbBlockEnd
  0
BLOCK
  5
394E
330
394D
100
AcDbEntity
  8
0
100
AcDbBlockBegin
  2
SE
 70
     0
 10
0.0
 20
0.0
 30
0.0
  3
SE
  1
SE
  0
ARC
  5
394F
330
394D
100
AcDbEntity
  8
Default
  6
Continuous
 62
     7
100
AcDbCircle
 10
42.3222214205
 20
90.5308765916
 30
0.0
 40
5.249999999999999
100
AcDbArc
 50
0.0
 51
180.0
  0
ARC
  5
3950
330
394D
100
AcDbEntity
  8
HDefault
  6
Continuous
 62
     7
100
AcDbCircle
 10
42.3222214205
 20
90.5308765916
 30
0.0
 40
5.249999999999999
100
AcDbArc
 50
180.0
 51
0.0
  0
ENDBLK
  5
3951
330
394D
100
AcDbEntity
  8
0
100
AcDbBlockEnd
  0
BLOCK
  5
397F
330
397E
100
AcDbEntity
  8
0
100
AcDbBlockBegin
  2
SE1
 70
     0
 10
0.0
 20
0.0
 30
0.0
  3
SE1
  1
SE1
  0
ARC
  5
3980
330
397E
100
AcDbEntity
  8
Default
  6
Continuous
 62
     7
100
AcDbCircle
 10
184.7223257895
 20
250.5315598018
 30
0.0
 40
5.249999999999999
100
AcDbArc
 50
0.0
 51
90.0
  0
ARC
  5
3981
330
397E
100
AcDbEntity
  8
HDefault
  6
Continuous
 62
     7
100
AcDbCircle
 10
184.7223257895
 20
250.5315598018
 30
0.0
 40
5.249999999999999
100
AcDbArc
 50
90.0
 51
270.0
  0
ARC
  5
3982
330
397E
100
AcDbEntity
  8
Default
  6
Continuous
 62
     7
100
AcDbCircle
 10
184.7223257895
 20
250.5315598018
 30
0.0
 40
5.249999999999999
100
AcDbArc
 50
270.0
 51
0.0
  0
ENDBLK
  5
3983
330
397E
100
AcDbEntity
  8
0
100
AcDbBlockEnd
  0
BLOCK
  5
39AB
330
39AA
100
AcDbEntity
  8
0
100
AcDbBlockBegin
  2
DMBLK1
 70
     0
 10
0.0
 20
0.0
 30
0.0
  3
DMBLK1
  1
DMBLK1
  0
LINE
  5
39AC
330
39AA
100
AcDbEntity
  8
Layer3
  6
Continuous
 62
     0
370
    -2
100
AcDbLine
 10
-0.3900000000000213
 20
138.6757072997
 30
0.0
 11
-0.5700000000000214
 21
138.6757072997
 31
0.0
  0
LINE
  5
39AD
330
39AA
100
AcDbEntity
  8
Layer3
  6
Continuous
 62
     0
370
    -2
100
AcDbLine
 10
-0.5700000000000214
 20
138.6757072997
 30
0.0
 11
-0.5700000000000214
 21
116.48875
 31
0.0
  0
LINE
  5
39AE
330
39AA
100
AcDbEntity
  8
Layer3
  6
Continuous
 62
     0
370
    -2
100
AcDbLine
 10
35.13117426629998
 20
116.48875
 30
0.0
 11
-0.7500000000000213
 21
116.48875
 31
0.0
  0
LINE
  5
39AF
330
39AA
100
AcDbEntity
  8
Layer3
  6
Continuous
 62
     0
370
    -2
100
AcDbLine
 10
31.80617426629998
 20
106.01125
 30
0.0
 11
-0.7500000000000213
 21
106.01125
 31
0.0
  0
LINE
  5
39B0
330
39AA
100
AcDbEntity
  8
Layer3
  6
Continuous
 62
     0
370
    -2
100
AcDbLine
 10
-0.5700000000000214
 20
116.30875
 30
0.0
 11
-0.5700000000000214
 21
106.19125
 31
0.0
  0
SOLID
  5
39B1
330
39AA
100
AcDbEntity
  8
Layer3
 62
     0
100
AcDbTrace
 10
-0.5400000000000214
 20
116.30875
 30
0.0
 11
-0.6000000000000214
 21
116.30875
 31
0.0
 12
-0.5700000000000214
 22
116.48875
 32
0.0
 13
-0.5700000000000214
 23
116.48875
 33
0.0
  0
SOLID
  5
39B2
330
39AA
100
AcDbEntity
  8
Layer3
 62
     0
100
AcDbTrace
 10
-0.6000000000000214
 20
106.19125
 30
0.0
 11
-0.5400000000000214
 21
106.19125
 31
0.0
 12
-0.5700000000000214
 22
106.01125
 32
0.0
 13
-0.5700000000000214
 23
106.01125
 33
0.0
  0
MTEXT
  5
39B3
330
39AA
100
AcDbEntity
  8
Layer3
 62
     0
 48
0.05
100
AcDbMText
 10
-0.0000000000000213
 20
138.6757072997
 30
0.0
 40
0.18
 41
0.0
 46
0.0
 71
     5
 72
     1
  1
\A1;\A1;G1/2 {}
 73
     1
 44
1.0
  0
POINT
  5
39EF
330
39AA
100
AcDbEntity
  8
Defpoints
 62
     0
100
AcDbPoint
 10
35.19367426629998
 20
116.48875
 30
0.0
  0
POINT
  5
39F0
330
39AA
100
AcDbEntity
  8
Defpoints
 62
     0
100
AcDbPoint
 10
31.86867426629998
 20
106.01125
 30
0.0
  0
POINT
  5
39F1
330
39AA
100
AcDbEntity
  8
Defpoints
 62
     0
100
AcDbPoint
 10
24.26087111239998
 20
106.01125
 30
0.0
  0
ENDBLK
  5
39B4
330
39AA
100
AcDbEntity
  8
0
100
AcDbBlockEnd
  0
BLOCK
  5
39B7
330
39B6
100
AcDbEntity
  8
0
100
AcDbBlockBegin
  2
DMBLK2
 70
     0
 10
0.0
 20
0.0
 30
0.0
  3
DMBLK2
  1
DMBLK2
  0
LINE
  5
39B8
330
39B6
100
AcDbEntity
  8
Layer3
  6
Continuous
 62
     0
370
    -2
100
AcDbLine
 10
36.70735958129998
 20
128.7354647161
 30
0.0
 11
8.20182316629998
 21
128.7354647161
 31
0.0
  0
LINE
  5
39B9
330
39B6
100
AcDbEntity
  8
Layer3
  6
Continuous
 62
     0
370
    -2
100
AcDbLine
 10
36.70735958129998
 20
93.76453782649999
 30
0.0
 11
8.20182316629998
 21
93.76453782649999
 31
0.0
  0
LINE
  5
39BA
330
39B6
100
AcDbEntity
  8
Layer3
  6
Continuous
 62
     0
370
    -2
100
AcDbLine
 10
8.381823166299979
 20
128.5554647161
 30
0.0
 11
8.381823166299979
 21
111.4300007243
 31
0.0
  0
LINE
  5
39BB
330
39B6
100
AcDbEntity
  8
Layer3
  6
Continuous
 62
     0
370
    -2
100
AcDbLine
 10
8.381823166299979
 20
93.9445378265
 30
0.0
 11
8.381823166299979
 21
111.0700007243
 31
0.0
  0
SOLID
  5
39BC
330
39B6
100
AcDbEntity
  8
Layer3
 62
     0
100
AcDbTrace
 10
8.411823166299978
 20
128.5554647161
 30
0.0
 11
8.35182316629998
 21
128.5554647161
 31
0.0
 12
8.381823166299979
 22
128.7354647161
 32
0.0
 13
8.381823166299979
 23
128.7354647161
 33
0.0
  0
SOLID
  5
39BD
330
39B6
100
AcDbEntity
  8
Layer3
 62
     0
100
AcDbTrace
 10
8.35182316629998
 20
93.9445378265
 30
0.0
 11
8.411823166299978
 21
93.9445378265
 31
0.0
 12
8.381823166299979
 22
93.76453782649999
 32
0.0
 13
8.381823166299979
 23
93.76453782649999
 33
0.0
  0
MTEXT
  5
39BE
330
39B6
100
AcDbEntity
  8
Layer3
 62
     0
 48
0.05
100
AcDbMText
 10
8.381823166299979
 20
111.2500007243
 30
0.0
 40
0.18
 41
0.0
 46
0.0
 71
     5
 72
     1
  1
\A1;\A1;Ø 34.9709
 73
     1
 44
1.0
  0
POINT
  5
39BF
330
39B6
100
AcDbEntity
  8
Defpoints
 62
     0
100
AcDbPoint
 10
36.76985958129998
 20
128.7354647161
 30
0.0
  0
POINT
  5
39F2
330
39B6
100
AcDbEntity
  8
Defpoints
 62
     0
100
AcDbPoint
 10
36.76985958129998
 20
93.76453782649999
 30
0.0
  0
POINT
  5
39F3
330
39B6
100
AcDbEntity
  8
Defpoints
 62
     0
100
AcDbPoint
 10
8.38182316629998
 20
93.76453782649999
 30
0.0
  0
ENDBLK
  5
39C0
330
39B6
100
AcDbEntity
  8
0
100
AcDbBlockEnd
  0
BLOCK
  5
39C3
330
39C2
100
AcDbEntity
  8
0
100
AcDbBlockBegin
  2
DMBLK3
 70
     0
 10
0.0
 20
0.0
 30
0.0
  3
DMBLK3
  1
DMBLK3
  0
LINE
  5
39C4
330
39C2
100
AcDbEntity
  8
Layer3
  6
Continuous
 62
     0
370
    -2
100
AcDbLine
 10
35.19367426629998
 20
94.93749999999999
 30
0.0
 11
35.19367426629998
 21
64.43071342229997
 31
0.0
  0
LINE
  5
39C5
330
39C2
100
AcDbEntity
  8
Layer3
  6
Continuous
 62
     0
370
    -2
100
AcDbLine
 10
177.5937786353
 20
84.9375012835
 30
0.0
 11
177.5937786353
 21
64.43071342229997
 31
0.0
  0
LINE
  5
39C6
330
39C2
100
AcDbEntity
  8
Layer3
  6
Continuous
 62
     0
370
    -2
100
AcDbLine
 10
35.37367426629998
 20
64.61071342229998
 30
0.0
 11
105.76372468
 21
64.61071342229998
 31
0.0
  0
LINE
  5
39C7
330
39C2
100
AcDbEntity
  8
Layer3
  6
Continuous
 62
     0
370
    -2
100
AcDbLine
 10
177.4137786353
 20
64.61071342229998
 30
0.0
 11
107.02372468
 21
64.61071342229998
 31
0.0
  0
SOLID
  5
39C8
330
39C2
100
AcDbEntity
  8
Layer3
 62
     0
100
AcDbTrace
 10
35.37367426629998
 20
64.64071342229998
 30
0.0
 11
35.37367426629998
 21
64.58071342229998
 31
0.0
 12
35.19367426629998
 22
64.61071342229998
 32
0.0
 13
35.19367426629998
 23
64.61071342229998
 33
0.0
  0
SOLID
  5
39C9
330
39C2
100
AcDbEntity
  8
Layer3
 62
     0
100
AcDbTrace
 10
177.4137786353
 20
64.58071342229998
 30
0.0
 11
177.4137786353
 21
64.64071342229998
 31
0.0
 12
177.5937786353
 22
64.61071342229998
 32
0.0
 13
177.5937786353
 23
64.61071342229998
 33
0.0
  0
MTEXT
  5
39CA
330
39C2
100
AcDbEntity
  8
Layer3
 62
     0
 48
0.05
100
AcDbMText
 10
106.39372468
 20
64.61071342229998
 30
0.0
 40
0.18
 41
0.0
 46
0.0
 71
     5
 72
     1
  1
\A1;\A1;142.4001
 73
     1
 44
1.0
  0
POINT
  5
39F4
330
39C2
100
AcDbEntity
  8
Defpoints
 62
     0
100
AcDbPoint
 10
35.19367426629998
 20
94.99999999999999
 30
0.0
  0
POINT
  5
39F5
330
39C2
100
AcDbEntity
  8
Defpoints
 62
     0
100
AcDbPoint
 10
177.5937786353
 20
85.0000012835
 30
0.0
  0
POINT
  5
39F6
330
39C2
100
AcDbEntity
  8
Defpoints
 62
     0
100
AcDbPoint
 10
177.5937786353
 20
64.61071342229998
 30
0.0
  0
ENDBLK
  5
39CB
330
39C2
100
AcDbEntity
  8
0
100
AcDbBlockEnd
  0
BLOCK
  5
39CE
330
39CD
100
AcDbEntity
  8
0
100
AcDbBlockBegin
  2
DMBLK4
 70
     0
 10
0.0
 20
0.0
 30
0.0
  3
DMBLK4
  1
DMBLK4
  0
LINE
  5
39CF
330
39CD
100
AcDbEntity
  8
Layer3
  6
Continuous
 62
     0
370
    -2
100
AcDbLine
 10
172.3550286353
 20
87.61250128349998
 30
0.0
 11
172.3550286353
 21
73.25747634199998
 31
0.0
  0
LINE
  5
39D0
330
39CD
100
AcDbEntity
  8
Layer3
  6
Continuous
 62
     0
370
    -2
100
AcDbLine
 10
182.8325286353
 20
87.61250128349998
 30
0.0
 11
182.8325286353
 21
73.25747634199998
 31
0.0
  0
LINE
  5
39D1
330
39CD
100
AcDbEntity
  8
Layer3
  6
Continuous
 62
     0
370
    -2
100
AcDbLine
 10
172.3550286353
 20
73.43747634199998
 30
0.0
 11
171.1827087065
 21
73.43747634199998
 31
0.0
  0
LINE
  5
39D2
330
39CD
100
AcDbEntity
  8
Layer3
  6
Continuous
 62
     0
370
    -2
100
AcDbLine
 10
172.5350286353
 20
73.43747634199998
 30
0.0
 11
182.6525286353
 21
73.43747634199998
 31
0.0
  0
SOLID
  5
39D3
330
39CD
100
AcDbEntity
  8
Layer3
 62
     0
100
AcDbTrace
 10
172.5350286353
 20
73.46747634199998
 30
0.0
 11
172.5350286353
 21
73.40747634199998
 31
0.0
 12
172.3550286353
 22
73.43747634199998
 32
0.0
 13
172.3550286353
 23
73.43747634199998
 33
0.0
  0
SOLID
  5
39D4
330
39CD
100
AcDbEntity
  8
Layer3
 62
     0
100
AcDbTrace
 10
182.6525286353
 20
73.40747634199998
 30
0.0
 11
182.6525286353
 21
73.46747634199998
 31
0.0
 12
182.8325286353
 22
73.43747634199998
 32
0.0
 13
182.8325286353
 23
73.43747634199998
 33
0.0
  0
MTEXT
  5
39D5
330
39CD
100
AcDbEntity
  8
Layer3
 62
     0
 48
0.05
100
AcDbMText
 10
170.7927087065
 20
73.43747634199998
 30
0.0
 40
0.18
 41
0.0
 46
0.0
 71
     5
 72
     1
  1
\A1;\A1;G1/2 {}
 73
     1
 44
1.0
  0
POINT
  5
39F7
330
39CD
100
AcDbEntity
  8
Defpoints
 62
     0
100
AcDbPoint
 10
172.3550286353
 20
87.67500128349998
 30
0.0
  0
POINT
  5
39F8
330
39CD
100
AcDbEntity
  8
Defpoints
 62
     0
100
AcDbPoint
 10
182.8325286353
 20
87.67500128349998
 30
0.0
  0
POINT
  5
39F9
330
39CD
100
AcDbEntity
  8
Defpoints
 62
     0
100
AcDbPoint
 10
182.8325286353
 20
73.43747634199998
 30
0.0
  0
ENDBLK
  5
39D6
330
39CD
100
AcDbEntity
  8
0
100
AcDbBlockEnd
  0
BLOCK
  5
39D9
330
39D8
100
AcDbEntity
  8
0
100
AcDbBlockBegin
  2
DMBLK5
 70
     0
 10
0.0
 20
0.0
 30
0.0
  3
DMBLK5
  1
DMBLK5
  0
LINE
  5
39DA
330
39D8
100
AcDbEntity
  8
Layer3
  6
Continuous
 62
     0
370
    -2
100
AcDbLine
 10
182.1700286353
 20
85.0000012835
 30
0.0
 11
130.4580961919
 21
85.0000012835
 31
0.0
  0
LINE
  5
39DB
330
39D8
100
AcDbEntity
  8
Layer3
  6
Continuous
 62
     0
370
    -2
100
AcDbLine
 10
28.60617426629998
 20
111.25
 30
0.0
 11
130.8180961919
 21
111.25
 31
0.0
  0
LINE
  5
39DC
330
39D8
100
AcDbEntity
  8
Layer3
  6
Continuous
 62
     0
370
    -2
100
AcDbLine
 10
130.6380961919
 20
85.1800012835
 30
0.0
 11
130.6380961919
 21
97.9450008738
 31
0.0
  0
LINE
  5
39DD
330
39D8
100
AcDbEntity
  8
Layer3
  6
Continuous
 62
     0
370
    -2
100
AcDbLine
 10
130.6380961919
 20
111.07
 30
0.0
 11
130.6380961919
 21
98.30500087380001
 31
0.0
  0
SOLID
  5
39DE
330
39D8
100
AcDbEntity
  8
Layer3
 62
     0
100
AcDbTrace
 10
130.6080961919
 20
85.1800012835
 30
0.0
 11
130.6680961919
 21
85.1800012835
 31
0.0
 12
130.6380961919
 22
85.0000012835
 32
0.0
 13
130.6380961919
 23
85.0000012835
 33
0.0
  0
SOLID
  5
39DF
330
39D8
100
AcDbEntity
  8
Layer3
 62
     0
100
AcDbTrace
 10
130.6680961919
 20
111.07
 30
0.0
 11
130.6080961919
 21
111.07
 31
0.0
 12
130.6380961919
 22
111.25
 32
0.0
 13
130.6380961919
 23
111.25
 33
0.0
  0
MTEXT
  5
39E0
330
39D8
100
AcDbEntity
  8
Layer3
 62
     0
 48
0.05
100
AcDbMText
 10
130.6380961919
 20
98.1250008738
 30
0.0
 40
0.18
 41
0.0
 46
0.0
 71
     5
 72
     1
  1
\A1;\A1;26.2500
 73
     1
 44
1.0
  0
POINT
  5
39FA
330
39D8
100
AcDbEntity
  8
Defpoints
 62
     0
100
AcDbPoint
 10
182.2325286353
 20
85.0000012835
 30
0.0
  0
POINT
  5
39FB
330
39D8
100
AcDbEntity
  8
Defpoints
 62
     0
100
AcDbPoint
 10
28.54367426629998
 20
111.25
 30
0.0
  0
POINT
  5
39FC
330
39D8
100
AcDbEntity
  8
Defpoints
 62
     0
100
AcDbPoint
 10
130.6380961919
 20
111.25
 30
0.0
  0
ENDBLK
  5
39E1
330
39D8
100
AcDbEntity
  8
0
100
AcDbBlockEnd
  0
BLOCK
  5
39E4
330
39E3
100
AcDbEntity
  8
0
100
AcDbBlockBegin
  2
DMBLK6
 70
     0
 10
0.0
 20
0.0
 30
0.0
  3
DMBLK6
  1
DMBLK6
  0
LINE
  5
39E5
330
39E3
100
AcDbEntity
  8
Layer3
  6
Continuous
 62
     0
370
    -2
100
AcDbLine
 10
35.19367426629998
 20
94.93749999999999
 30
0.0
 11
35.19367426629998
 21
64.43071342229997
 31
0.0
  0
LINE
  5
39E6
330
39E3
100
AcDbEntity
  8
Layer3
  6
Continuous
 62
     0
370
    -2
100
AcDbLine
 10
27.94367426629998
 20
106.54875
 30
0.0
 11
27.94367426629998
 21
64.43071342229997
 31
0.0
  0
LINE
  5
39E7
330
39E3
100
AcDbEntity
  8
Layer3
  6
Continuous
 62
     0
370
    -2
100
AcDbLine
 10
35.01367426629998
 20
64.61071342229998
 30
0.0
 11
32.07867437069999
 21
64.61071342229998
 31
0.0
  0
LINE
  5
39E8
330
39E3
100
AcDbEntity
  8
Layer3
  6
Continuous
 62
     0
370
    -2
100
AcDbLine
 10
28.12367426629998
 20
64.61071342229998
 30
0.0
 11
31.05867437069998
 21
64.61071342229998
 31
0.0
  0
SOLID
  5
39E9
330
39E3
100
AcDbEntity
  8
Layer3
 62
     0
100
AcDbTrace
 10
35.01367426629998
 20
64.58071342229998
 30
0.0
 11
35.01367426629998
 21
64.64071342229998
 31
0.0
 12
35.19367426629998
 22
64.61071342229998
 32
0.0
 13
35.19367426629998
 23
64.61071342229998
 33
0.0
  0
SOLID
  5
39EA
330
39E3
100
AcDbEntity
  8
Layer3
 62
     0
100
AcDbTrace
 10
28.12367426629998
 20
64.64071342229998
 30
0.0
 11
28.12367426629998
 21
64.58071342229998
 31
0.0
 12
27.94367426629998
 22
64.61071342229998
 32
0.0
 13
27.94367426629998
 23
64.61071342229998
 33
0.0
  0
MTEXT
  5
39EB
330
39E3
100
AcDbEntity
  8
Layer3
 62
     0
 48
0.05
100
AcDbMText
 10
31.56867437069998
 20
64.61071342229998
 30
0.0
 40
0.18
 41
0.0
 46
0.0
 71
     5
 72
     1
  1
\A1;\A1;7.2500
 73
     1
 44
1.0
  0
POINT
  5
39FD
330
39E3
100
AcDbEntity
  8
Defpoints
 62
     0
100
AcDbPoint
 10
35.19367426629998
 20
94.99999999999999
 30
0.0
  0
POINT
  5
39FE
330
39E3
100
AcDbEntity
  8
Defpoints
 62
     0
100
AcDbPoint
 10
27.94367426629998
 20
106.61125
 30
0.0
  0
POINT
  5
39FF
330
39E3
100
AcDbEntity
  8
Defpoints
 62
     0
100
AcDbPoint
 10
27.94367426629998
 20
64.61071342229998
 30
0.0
  0
ENDBLK
  5
39EC
330
39E3
100
AcDbEntity
  8
0
100
AcDbBlockEnd
  0
BLOCK
  5
3A92
330
3A91
100
AcDbEntity
  8
0
100
AcDbBlockBegin
  2
*D20
 70
     1
 10
0.0
 20
0.0
 30
0.0
  3
*D20
  1
*D20
  0
LINE
  5
3A94
330
3A91
100
AcDbEntity
  8
DIM
 62
     0
370
    -2
100
AcDbLine
 10
1395.677719043849
 20
611.2741480088017
 30
0.0
 11
1335.290370511249
 21
611.2741480088017
 31
0.0
  0
LINE
  5
3A95
330
3A91
100
AcDbEntity
  8
DIM
 62
     0
370
    -2
100
AcDbLine
 10
1389.027719043849
 20
590.3191480088018
 30
0.0
 11
1335.290370511249
 21
590.3191480088018
 31
0.0
  0
LINE
  5
3A96
330
3A91
100
AcDbEntity
  8
DIM
 62
     0
370
    -2
100
AcDbLine
 10
1335.290370511249
 20
611.2741480088017
 30
0.0
 11
1335.290370511249
 21
680.5100626082018
 31
0.0
  0
LINE
  5
3A97
330
3A91
100
AcDbEntity
  8
DIM
 62
     0
370
    -2
100
AcDbLine
 10
1335.290370511249
 20
614.2741480088017
 30
0.0
 11
1335.290370511249
 21
617.2741480088017
 31
0.0
  0
LINE
  5
3A98
330
3A91
100
AcDbEntity
  8
DIM
 62
     0
370
    -2
100
AcDbLine
 10
1335.290370511249
 20
587.3191480088018
 30
0.0
 11
1335.290370511249
 21
584.3191480088018
 31
0.0
  0
INSERT
  5
3A99
330
3A91
100
AcDbEntity
  8
DIM
 62
     0
370
    -2
100
AcDbBlockReference
  2
_DOT
 10
1335.290370511249
 20
611.2741480088017
 30
0.0
 41
3.0
 42
3.0
 43
3.0
 50
270.0
  0
INSERT
  5
3A9A
330
3A91
100
AcDbEntity
  8
DIM
 62
     0
370
    -2
100
AcDbBlockReference
  2
_DOT
 10
1335.290370511249
 20
590.3191480088018
 30
0.0
 41
3.0
 42
3.0
 43
3.0
 50
90.0
  0
MTEXT
  5
3A9B
330
3A91
100
AcDbEntity
  8
DIM
 62
     0
 48
0.05
100
AcDbMText
 10
1318.012370511249
 20
655.6480626082017
 30
0.0
 40
12.0
 41
0.0
 46
0.0
 71
     5
 72
     1
  1
\A1;\A1;G1/2 {}
  7
ＭＳ ゴシック
 11
0.0
 21
1.0
 31
0.0
 73
     1
 44
1.0
  0
POINT
  5
3A9C
330
3A91
100
AcDbEntity
  8
Defpoints
 62
     0
100
AcDbPoint
 10
1405.677719043849
 20
611.2741480088017
 30
0.0
  0
POINT
  5
3A9D
330
3A91
100
AcDbEntity
  8
Defpoints
 62
     0
100
AcDbPoint
 10
1399.027719043849
 20
590.3191480088018
 30
0.0
  0
POINT
  5
3A9E
330
3A91
100
AcDbEntity
  8
Defpoints
 62
     0
100
AcDbPoint
 10
1334.720370511249
 20
590.3191480088018
 30
0.0
  0
ENDBLK
  5
3A93
330
3A91
100
AcDbEntity
  8
0
100
AcDbBlockEnd
  0
BLOCK
  5
3AA0
330
3A9F
100
AcDbEntity
  8
0
100
AcDbBlockBegin
  2
*D21
 70
     1
 10
0.0
 20
0.0
 30
0.0
  3
*D21
  1
*D21
  0
LINE
  5
3AA2
330
3A9F
100
AcDbEntity
  8
DIM
 62
     0
370
    -2
100
AcDbLine
 10
273.2686106571562
 20
675.1672884236608
 30
0.0
 11
226.4925378271562
 21
675.1672884236608
 31
0.0
  0
LINE
  5
3AA3
330
3A9F
100
AcDbEntity
  8
DIM
 62
     0
370
    -2
100
AcDbLine
 10
273.2686106571562
 20
605.2254346444607
 30
0.0
 11
226.4925378271562
 21
605.2254346444607
 31
0.0
  0
LINE
  5
3AA4
330
3A9F
100
AcDbEntity
  8
DIM
 62
     0
370
    -2
100
AcDbLine
 10
226.4925378271562
 20
672.1672884236608
 30
0.0
 11
226.4925378271562
 21
608.2254346444607
 31
0.0
  0
INSERT
  5
3AA5
330
3A9F
100
AcDbEntity
  8
DIM
 62
     0
370
    -2
100
AcDbBlockReference
  2
_DOT
 10
226.4925378271562
 20
675.1672884236608
 30
0.0
 41
3.0
 42
3.0
 43
3.0
 50
90.0
  0
INSERT
  5
3AA6
330
3A9F
100
AcDbEntity
  8
DIM
 62
     0
370
    -2
100
AcDbBlockReference
  2
_DOT
 10
226.4925378271562
 20
605.2254346444607
 30
0.0
 41
3.0
 42
3.0
 43
3.0
 50
270.0
  0
MTEXT
  5
3AA7
330
3A9F
100
AcDbEntity
  8
DIM
 62
     0
 48
0.05
100
AcDbMText
 10
210.4925378271562
 20
640.1963604400607
 30
0.0
 40
12.0
 41
0.0
 46
0.0
 71
     5
 72
     1
  1
\A1;70
  7
ＭＳ ゴシック
 11
0.0
 21
1.0
 31
0.0
 73
     1
 44
1.0
  0
POINT
  5
3AA8
330
3A9F
100
AcDbEntity
  8
Defpoints
 62
     0
100
AcDbPoint
 10
283.2686106571562
 20
675.1672884236608
 30
0.0
  0
POINT
  5
3AA9
330
3A9F
100
AcDbEntity
  8
Defpoints
 62
     0
100
AcDbPoint
 10
283.2686106571562
 20
605.2254346444607
 30
0.0
  0
POINT
  5
3AAA
330
3A9F
100
AcDbEntity
  8
Defpoints
 62
     0
100
AcDbPoint
 10
226.4925378271562
 20
605.2254346444607
 30
0.0
  0
ENDBLK
  5
3AA1
330
3A9F
100
AcDbEntity
  8
0
100
AcDbBlockEnd
  0
BLOCK
  5
3AAD
330
3AAC
100
AcDbEntity
  8
0
100
AcDbBlockBegin
  2
*D22
 70
     1
 10
0.0
 20
0.0
 30
0.0
  3
*D22
  1
*D22
  0
LINE
  5
3AAF
330
3AAC
100
AcDbEntity
  8
DIM
 62
     0
370
    -2
100
AcDbLine
 10
543.2618230900923
 20
567.6963589914608
 30
0.0
 11
543.2618230900923
 21
501.79673352503
 31
0.0
  0
LINE
  5
3AB0
330
3AAC
100
AcDbEntity
  8
DIM
 62
     0
370
    -2
100
AcDbLine
 10
828.0620318280924
 20
525.268163583544
 30
0.0
 11
828.0620318280924
 21
501.79673352503
 31
0.0
  0
LINE
  5
3AB1
330
3AAC
100
AcDbEntity
  8
DIM
 62
     0
370
    -2
100
AcDbLine
 10
546.2618230900923
 20
501.79673352503
 30
0.0
 11
825.0620318280924
 21
501.79673352503
 31
0.0
  0
INSERT
  5
3AB2
330
3AAC
100
AcDbEntity
  8
DIM
 62
     0
370
    -2
100
AcDbBlockReference
  2
_DOT
 10
543.2618230900923
 20
501.79673352503
 30
0.0
 41
3.0
 42
3.0
 43
3.0
 50
180.0
  0
INSERT
  5
3AB3
330
3AAC
100
AcDbEntity
  8
DIM
 62
     0
370
    -2
100
AcDbBlockReference
  2
_DOT
 10
828.0620318280924
 20
501.79673352503
 30
0.0
 41
3.0
 42
3.0
 43
3.0
  0
MTEXT
  5
3AB4
330
3AAC
100
AcDbEntity
  8
DIM
 62
     0
 48
0.05
100
AcDbMText
 10
685.6619239174922
 20
517.79673352503
 30
0.0
 40
12.0
 41
0.0
 46
0.0
 71
     5
 72
     1
  1
\A1;\A1;285
  7
ＭＳ ゴシック
 73
     1
 44
1.0
  0
POINT
  5
3AB5
330
3AAC
100
AcDbEntity
  8
Defpoints
 62
     0
100
AcDbPoint
 10
543.2618230900923
 20
577.6963589914608
 30
0.0
  0
POINT
  5
3AB6
330
3AAC
100
AcDbEntity
  8
Defpoints
 62
     0
100
AcDbPoint
 10
828.0620318280924
 20
535.268163583544
 30
0.0
  0
POINT
  5
3AB7
330
3AAC
100
AcDbEntity
  8
Defpoints
 62
     0
100
AcDbPoint
 10
828.0620318280924
 20
501.79673352503
 30
0.0
  0
ENDBLK
  5
3AAE
330
3AAC
100
AcDbEntity
  8
0
100
AcDbBlockEnd
  0
BLOCK
  5
3ABA
330
3AB9
100
AcDbEntity
  8
0
100
AcDbBlockBegin
  2
*D23
 70
     1
 10
0.0
 20
0.0
 30
0.0
  3
*D23
  1
*D23
  0
LINE
  5
3ABC
330
3AB9
100
AcDbEntity
  8
DIM
 62
     0
370
    -2
100
AcDbLine
 10
1680.000427781849
 20
472.1980076268001
 30
0.0
 11
1680.000427781849
 21
453.7229577438001
 31
0.0
  0
LINE
  5
3ABD
330
3AB9
100
AcDbEntity
  8
DIM
 62
     0
370
    -2
100
AcDbLine
 10
1700.955427781849
 20
472.1980076268001
 30
0.0
 11
1700.955427781849
 21
453.7229577438001
 31
0.0
  0
LINE
  5
3ABE
330
3AB9
100
AcDbEntity
  8
DIM
 62
     0
370
    -2
100
AcDbLine
 10
1680.000427781849
 20
453.7229577438001
 30
0.0
 11
1624.276427781849
 21
453.7229577438001
 31
0.0
  0
LINE
  5
3ABF
330
3AB9
100
AcDbEntity
  8
DIM
 62
     0
370
    -2
100
AcDbLine
 10
1677.000427781849
 20
453.7229577438001
 30
0.0
 11
1674.000427781849
 21
453.7229577438001
 31
0.0
  0
LINE
  5
3AC0
330
3AB9
100
AcDbEntity
  8
DIM
 62
     0
370
    -2
100
AcDbLine
 10
1703.955427781849
 20
453.7229577438001
 30
0.0
 11
1706.955427781849
 21
453.7229577438001
 31
0.0
  0
INSERT
  5
3AC1
330
3AB9
100
AcDbEntity
  8
DIM
 62
     0
370
    -2
100
AcDbBlockReference
  2
_DOT
 10
1680.000427781849
 20
453.7229577438001
 30
0.0
 41
3.0
 42
3.0
 43
3.0
  0
INSERT
  5
3AC2
330
3AB9
100
AcDbEntity
  8
DIM
 62
     0
370
    -2
100
AcDbBlockReference
  2
_DOT
 10
1700.955427781849
 20
453.7229577438001
 30
0.0
 41
3.0
 42
3.0
 43
3.0
 50
180.0
  0
MTEXT
  5
3AC3
330
3AB9
100
AcDbEntity
  8
DIM
 62
     0
 48
0.05
100
AcDbMText
 10
1649.138427781849
 20
471.0009577438001
 30
0.0
 40
12.0
 41
0.0
 46
0.0
 71
     5
 72
     1
  1
\A1;\A1;G1/2 {}
  7
ＭＳ ゴシック
 73
     1
 44
1.0
  0
POINT
  5
3AC4
330
3AB9
100
AcDbEntity
  8
Defpoints
 62
     0
100
AcDbPoint
 10
1680.000427781849
 20
482.1980076268001
 30
0.0
  0
POINT
  5
3AC5
330
3AB9
100
AcDbEntity
  8
Defpoints
 62
     0
100
AcDbPoint
 10
1700.955427781849
 20
482.1980076268001
 30
0.0
  0
POINT
  5
3AE6
330
3AB9
100
AcDbEntity
  8
Defpoints
 62
     0
100
AcDbPoint
 10
1700.955427781849
 20
453.7229577438001
 30
0.0
  0
ENDBLK
  5
3ABB
330
3AB9
100
AcDbEntity
  8
0
100
AcDbBlockEnd
  0
BLOCK
  5
3AC7
330
3AC6
100
AcDbEntity
  8
0
100
AcDbBlockBegin
  2
*D24
 70
     1
 10
0.0
 20
0.0
 30
0.0
  3
*D24
  1
*D24
  0
LINE
  5
3AC9
330
3AC6
100
AcDbEntity
  8
DIM
 62
     0
370
    -2
100
AcDbLine
 10
847.3395318280925
 20
587.6963615584608
 30
0.0
 11
888.6971914299279
 21
587.6963615584608
 31
0.0
  0
LINE
  5
3ACA
330
3AC6
100
AcDbEntity
  8
DIM
 62
     0
370
    -2
100
AcDbLine
 10
803.4464113883093
 20
640.1963589914608
 30
0.0
 11
888.6971914299279
 21
640.1963589914608
 31
0.0
  0
LINE
  5
3ACB
330
3AC6
100
AcDbEntity
  8
DIM
 62
     0
370
    -2
100
AcDbLine
 10
888.6971914299279
 20
590.6963615584608
 30
0.0
 11
888.6971914299279
 21
637.1963589914608
 31
0.0
  0
INSERT
  5
3ACC
330
3AC6
100
AcDbEntity
  8
DIM
 62
     0
370
    -2
100
AcDbBlockReference
  2
_DOT
 10
888.6971914299279
 20
587.6963615584608
 30
0.0
 41
3.0
 42
3.0
 43
3.0
 50
270.0
  0
INSERT
  5
3ACD
330
3AC6
100
AcDbEntity
  8
DIM
 62
     0
370
    -2
100
AcDbBlockReference
  2
_DOT
 10
888.6971914299279
 20
640.1963589914608
 30
0.0
 41
3.0
 42
3.0
 43
3.0
 50
90.0
  0
MTEXT
  5
3ACE
330
3AC6
100
AcDbEntity
  8
DIM
 62
     0
 48
0.05
100
AcDbMText
 10
872.6971914299279
 20
613.9463607390608
 30
0.0
 40
12.0
 41
0.0
 46
0.0
 71
     5
 72
     1
  1
\A1;\A1;52
  7
ＭＳ ゴシック
 11
0.0
 21
1.0
 31
0.0
 73
     1
 44
1.0
  0
POINT
  5
3ACF
330
3AC6
100
AcDbEntity
  8
Defpoints
 62
     0
100
AcDbPoint
 10
837.3395318280925
 20
587.6963615584608
 30
0.0
  0
POINT
  5
3AD0
330
3AC6
100
AcDbEntity
  8
Defpoints
 62
     0
100
AcDbPoint
 10
793.4464113883093
 20
640.1963589914608
 30
0.0
  0
POINT
  5
3AD1
330
3AC6
100
AcDbEntity
  8
Defpoints
 62
     0
100
AcDbPoint
 10
888.6971914299279
 20
640.1963589914608
 30
0.0
  0
ENDBLK
  5
3AC8
330
3AC6
100
AcDbEntity
  8
0
100
AcDbBlockEnd
  0
BLOCK
  5
3AD4
330
3AD3
100
AcDbEntity
  8
0
100
AcDbBlockBegin
  2
*D25
 70
     1
 10
0.0
 20
0.0
 30
0.0
  3
*D25
  1
*D25
  0
LINE
  5
3AD6
330
3AD3
100
AcDbEntity
  8
DIM
 62
     0
370
    -2
100
AcDbLine
 10
543.2618230900923
 20
567.6963589914608
 30
0.0
 11
543.2618230900923
 21
501.79673352503
 31
0.0
  0
LINE
  5
3AD7
330
3AD3
100
AcDbEntity
  8
DIM
 62
     0
370
    -2
100
AcDbLine
 10
528.7618230900923
 20
620.9188589914608
 30
0.0
 11
528.7618230900923
 21
501.79673352503
 31
0.0
  0
LINE
  5
3AD8
330
3AD3
100
AcDbEntity
  8
DIM
 62
     0
370
    -2
100
AcDbLine
 10
540.2618230900923
 20
501.79673352503
 30
0.0
 11
531.7618230900923
 21
501.79673352503
 31
0.0
  0
INSERT
  5
3AD9
330
3AD3
100
AcDbEntity
  8
DIM
 62
     0
370
    -2
100
AcDbBlockReference
  2
_DOT
 10
543.2618230900923
 20
501.79673352503
 30
0.0
 41
3.0
 42
3.0
 43
3.0
  0
INSERT
  5
3ADA
330
3AD3
100
AcDbEntity
  8
DIM
 62
     0
370
    -2
100
AcDbBlockReference
  2
_DOT
 10
528.7618230900923
 20
501.79673352503
 30
0.0
 41
3.0
 42
3.0
 43
3.0
 50
180.0
  0
MTEXT
  5
3ADB
330
3AD3
100
AcDbEntity
  8
DIM
 62
     0
 48
0.05
100
AcDbMText
 10
536.0118232988923
 20
517.79673352503
 30
0.0
 40
12.0
 41
0.0
 46
0.0
 71
     5
 72
     1
  1
\A1;\A1;15
  7
ＭＳ ゴシック
 73
     1
 44
1.0
  0
POINT
  5
3ADC
330
3AD3
100
AcDbEntity
  8
Defpoints
 62
     0
100
AcDbPoint
 10
543.2618230900923
 20
577.6963589914608
 30
0.0
  0
POINT
  5
3ADD
330
3AD3
100
AcDbEntity
  8
Defpoints
 62
     0
100
AcDbPoint
 10
528.7618230900923
 20
630.9188589914608
 30
0.0
  0
POINT
  5
3ADE
330
3AD3
100
AcDbEntity
  8
Defpoints
 62
     0
100
AcDbPoint
 10
528.7618230900923
 20
501.79673352503
 30
0.0
  0
ENDBLK
  5
3AD5
330
3AD3
100
AcDbEntity
  8
0
100
AcDbBlockEnd
  0
BLOCK
  5
3AEE
330
3AED
100
AcDbEntity
  8
0
100
AcDbBlockBegin
  2
*D26
 70
     1
 10
0.0
 20
0.0
 30
0.0
  3
*D26
  1
*D26
  0
LINE
  5
3AF0
330
3AED
100
AcDbEntity
  8
DIM
 62
     0
 48
0.05
370
    -2
100
AcDbLine
 10
1517.641994719424
 20
590.2966505758018
 30
0.0
 11
1526.209240748934
 21
590.2966505758018
 31
0.0
  0
LINE
  5
3AF1
330
3AED
100
AcDbEntity
  8
DIM
 62
     0
 48
0.05
370
    -2
100
AcDbLine
 10
1519.052165303944
 20
611.2966505758018
 30
0.0
 11
1526.209240748934
 21
611.2966505758018
 31
0.0
  0
LINE
  5
3AF2
330
3AED
100
AcDbEntity
  8
DIM
 62
     0
 48
0.05
370
    -2
100
AcDbLine
 10
1526.209240748934
 20
587.2966505758018
 30
0.0
 11
1526.209240748934
 21
584.2966505758018
 31
0.0
  0
LINE
  5
3AF3
330
3AED
100
AcDbEntity
  8
DIM
 62
     0
 48
0.05
370
    -2
100
AcDbLine
 10
1526.209240748934
 20
614.2966505758018
 30
0.0
 11
1526.209240748934
 21
617.2966505758018
 31
0.0
  0
INSERT
  5
3AF4
330
3AED
100
AcDbEntity
  8
DIM
 62
     0
370
    -2
100
AcDbBlockReference
  2
_DOT
 10
1526.209240748934
 20
590.2966505758018
 30
0.0
 41
3.0
 42
3.0
 43
3.0
 50
90.0
  0
INSERT
  5
3AF5
330
3AED
100
AcDbEntity
  8
DIM
 62
     0
370
    -2
100
AcDbBlockReference
  2
_DOT
 10
1526.209240748934
 20
611.2966505758018
 30
0.0
 41
3.0
 42
3.0
 43
3.0
 50
270.0
  0
MTEXT
  5
3AF6
330
3AED
100
AcDbEntity
  8
DIM
 62
     0
 48
0.05
100
AcDbMText
 10
1510.209240748934
 20
600.7966505758018
 30
0.0
 40
12.0
 41
0.0
 46
0.0
 71
     5
 72
     1
  1
\A1;21
  7
ＭＳ ゴシック
 11
0.0
 21
1.0
 31
0.0
 73
     1
 44
1.0
  0
POINT
  5
3AF7
330
3AED
100
AcDbEntity
  8
Defpoints
 62
     0
100
AcDbPoint
 10
1507.641994719424
 20
590.2966505758018
 30
0.0
  0
POINT
  5
3AF8
330
3AED
100
AcDbEntity
  8
Defpoints
 62
     0
100
AcDbPoint
 10
1509.052165303944
 20
611.2966505758018
 30
0.0
  0
POINT
  5
3AF9
330
3AED
100
AcDbEntity
  8
Defpoints
 62
     0
100
AcDbPoint
 10
1526.209240748934
 20
611.2966505758018
 30
0.0
  0
ENDBLK
  5
3AEF
330
3AED
100
AcDbEntity
  8
0
100
AcDbBlockEnd
  0
ENDSEC
  0
SECTION
  2
ENTITIES
  0
MTEXT
  5
177
330
A
100
AcDbEntity
  8
TEMPLATE
390
1D
100
AcDbMText
 10
39.60107227386538
 20
171.8658758157141
 30
0.0
 40
8.144205729166663
 41
0.0
 46
0.0
 71
     1
 72
     1
  1
品名
  7
ＭＳ ゴシック
 73
     1
 44
0.7828267384257843
  0
MTEXT
  5
178
330
A
100
AcDbEntity
  8
TEMPLATE
390
1D
100
AcDbMText
 10
39.60107227386538
 20
129.365875815714
 30
0.0
 40
8.144205729166663
 41
0.0
 46
0.0
 71
     1
 72
     1
  1
仕様
  7
ＭＳ ゴシック
 73
     1
 44
0.7828267384257843
  0
LINE
  5
179
330
A
100
AcDbEntity
  8
TEMPLATE
390
1D
100
AcDbLine
 10
1011.101072273624
 20
133.5733367532142
 30
0.0
 11
36.10107227362437
 21
133.5733367532142
 31
0.0
  0
LWPOLYLINE
  5
17A
330
A
100
AcDbEntity
  8
TEMPLATE
390
1D
100
AcDbPolyline
 90
        5
 70
   128
 43
0.0
 10
1011.101072273624
 20
1448.573336753213
 10
36.10107227362437
 20
1448.573336753213
 10
36.10107227362437
 20
48.57333675321413
 10
1011.101072273624
 20
48.57333675321413
 10
1011.101072273624
 20
1448.573336753213
  0
LINE
  5
17B
330
A
100
AcDbEntity
  8
TEMPLATE
390
1D
100
AcDbLine
 10
1011.101072273624
 20
176.0733367532141
 30
0.0
 11
36.10107227362437
 21
176.0733367532141
 31
0.0
  0
LINE
  5
17C
330
A
100
AcDbEntity
  8
TEMPLATE
390
1D
100
AcDbLine
 10
1011.101072273866
 20
91.07333675321412
 30
0.0
 11
634.601072273865
 21
91.07333675321412
 31
0.0
  0
MTEXT
  5
17E
330
A
100
AcDbEntity
  8
TEMPLATE
390
1D
100
AcDbMText
 10
649.5367753999956
 20
76.11813951656006
 30
0.0
 40
12.21630859375
 41
0.0
 46
0.0
 71
     1
 72
     1
  1
大洋金物株式会社 ティーフォルム事業部
  7
ＭＳ ゴシック
 73
     1
 44
0.7828267384257843
  0
MTEXT
  5
180
330
A
100
AcDbEntity
  8
TEMPLATE
390
1D
100
AcDbMText
 10
915.601072273995
 20
115.0746453469641
 30
0.0
 40
12.21630859375
 41
0.0
 46
12.21630859375
 71
     1
 72
     1
  1
{1:5}
  7
ＭＳ ゴシック
 73
     1
 44
0.7828267384257843
1001
ACAD
1000
ACAD_MTEXT_DEFINED_HEIGHT_BEGIN
1070
    46
1040
12.21630859375
1000
ACAD_MTEXT_DEFINED_HEIGHT_END
  0
MTEXT
  5
181
330
A
100
AcDbEntity
  8
TEMPLATE
390
1D
100
AcDbMText
 10
889.101072273995
 20
129.365875815714
 30
0.0
 40
8.144205729166663
 41
0.0
 46
0.0
 71
     1
 72
     1
  1
縮尺
  7
ＭＳ ゴシック
 73
     1
 44
0.7828267384257843
  0
LINE
  5
182
330
A
100
AcDbEntity
  8
TEMPLATE
390
1D
100
AcDbLine
 10
885.601072273995
 20
91.07333675321412
 30
0.0
 11
885.601072273995
 21
133.5733367532142
 31
0.0
  0
MTEXT
  5
183
330
A
100
AcDbEntity
  8
TEMPLATE
390
1D
100
AcDbMText
 10
763.601072273995
 20
129.365875815714
 30
0.0
 40
8.144205729166663
 41
0.0
 46
0.0
 71
     1
 72
     1
  1
容量
  7
ＭＳ ゴシック
 73
     1
 44
0.7828267384257843
  0
LINE
  5
184
330
A
100
AcDbEntity
  8
TEMPLATE
390
1D
100
AcDbLine
 10
760.101072273995
 20
91.07333675321412
 30
0.0
 11
760.101072273995
 21
133.5733367532142
 31
0.0
  0
MTEXT
  5
185
330
A
100
AcDbEntity
  8
TEMPLATE
390
1D
100
AcDbMText
 10
638.101072273995
 20
171.8658758157141
 30
0.0
 40
8.144205729166663
 41
0.0
 46
0.0
 71
     1
 72
     1
  1
品番
  7
ＭＳ ゴシック
 73
     1
 44
0.7828267384257843
  0
MTEXT
  5
186
330
A
100
AcDbEntity
  8
TEMPLATE
390
1D
100
AcDbMText
 10
638.101072273995
 20
129.365875815714
 30
0.0
 40
8.144205729166663
 41
0.0
 46
0.0
 71
     1
 72
     1
  1
重量
  7
ＭＳ ゴシック
 73
     1
 44
0.7828267384257843
  0
MTEXT
  5
187
330
A
100
AcDbEntity
  8
TEMPLATE
390
1D
100
AcDbMText
 10
664.601072273995
 20
157.5746453469641
 30
0.0
 40
12.21630859375
 41
0.0
 46
12.21630859375
 71
     1
 72
     1
  1
{FHT73-1155}
  7
ＭＳ ゴシック
 73
     1
 44
0.7828267384257843
1001
ACAD
1000
ACAD_MTEXT_DEFINED_HEIGHT_BEGIN
1070
    46
1040
12.21630859375
1000
ACAD_MTEXT_DEFINED_HEIGHT_END
  0
LINE
  5
188
330
A
100
AcDbEntity
  8
TEMPLATE
390
1D
100
AcDbLine
 10
634.601072273995
 20
48.57333675321413
 30
0.0
 11
634.601072273995
 21
176.0733367532141
 31
0.0
  0
MTEXT
  5
189
330
A
100
AcDbEntity
  8
TEMPLATE
390
1D
100
AcDbMText
 10
66.10107227386537
 20
157.5746453469641
 30
0.0
 40
12.21630859375
 41
0.0
 46
13.76777978515625
 71
     1
 72
     1
  1
{シャワーアーム　-GROHE,Grandera-}
  7
ＭＳ ゴシック
 73
     1
 44
0.7828267384257843
1001
ACAD
1000
ACAD_MTEXT_DEFINED_HEIGHT_BEGIN
1070
    46
1040
13.76777978515625
1000
ACAD_MTEXT_DEFINED_HEIGHT_END
  0
INSERT
  5
6B5
330
A
100
AcDbEntity
  8
TEMPLATE
100
AcDbBlockReference
  2
名称未設定-1
 10
935.3753740442249
 20
12.97338287832691
 30
0.0
 41
0.3809999999999999
 42
0.3809999999999999
 43
0.3809999999999999
  0
INSERT
  5
68C
330
A
100
AcDbEntity
  8
TEMPLATE
100
AcDbBlockReference
  2
block 2
 10
919.2743017702577
 20
8.373076514336368
 30
0.0
 41
0.3809999999999999
 42
0.3809999999999999
 43
0.3809999999999999
  0
LWPOLYLINE
  5
D69
330
A
100
AcDbEntity
  8
BORDER
 48
0.05
100
AcDbPolyline
 90
        4
 70
     1
 43
0.0
 10
0.0
 20
0.0
 10
0.0
 20
1485.0
 10
1050.0
 20
1485.0
 10
1050.0
 20
0.0
  0
INSERT
  5
1343
330
A
100
AcDbEntity
  8
TEMPLATE
100
AcDbBlockReference
  2
block 2
 10
2096.743470866468
 20
24.43532141229569
 30
0.0
 41
0.3809999999999999
 42
0.3809999999999999
 43
0.3809999999999999
  0
MTEXT
  5
3442
102
{ACAD_XDICTIONARY
360
3444
102
}
330
A
100
AcDbEntity
  8
MODEL
 48
0.05
100
AcDbMText
 10
37.76655744772248
 20
42.75270635604875
 30
0.0
 40
11.0
 41
0.0
 46
11.0
 71
     1
 72
     1
  1
{20160701N}
  7
ＭＳ ゴシック
 73
     1
 44
1.0
1001
ACAD
1000
ACAD_MTEXT_DEFINED_HEIGHT_BEGIN
1070
    46
1040
11.0
1000
ACAD_MTEXT_DEFINED_HEIGHT_END
  0
MTEXT
  5
3889
330
A
100
AcDbEntity
  8
TEMPLATE
390
1D
100
AcDbMText
 10
663.8666084278909
 20
199.8923864799121
 30
0.0
 40
12.21630859375
 41
0.0
 46
13.64561669921875
 71
     1
 72
     1
  1
{FHT73-1155-004 (クローム/ゴールド)}
  7
ＭＳ ゴシック
 73
     1
 44
0.7828267384257843
1001
ACAD
1000
ACAD_MTEXT_DEFINED_HEIGHT_BEGIN
1070
    46
1040
13.64561669921875
1000
ACAD_MTEXT_DEFINED_HEIGHT_END
  0
MTEXT
  5
388A
330
A
100
AcDbEntity
  8
TEMPLATE
390
1D
100
AcDbMText
 10
664.601072273995
 20
220.6926321215305
 30
0.0
 40
12.21630859375
 41
0.0
 46
13.64561669921875
 71
     1
 72
     1
  1
{FHT73-1155-001 (クローム)}
  7
ＭＳ ゴシック
 73
     1
 44
0.7828267384257843
1001
ACAD
1000
ACAD_MTEXT_DEFINED_HEIGHT_BEGIN
1070
    46
1040
13.64561669921875
1000
ACAD_MTEXT_DEFINED_HEIGHT_END
  0
LINE
  5
3A01
330
A
100
AcDbEntity
  8
MODEL
100
AcDbLine
 10
528.7618230900923
 20
630.9188589914608
 30
0.0
 11
528.7618230900923
 21
649.4738589914608
 31
0.0
  0
LINE
  5
3A02
330
A
100
AcDbEntity
  8
MODEL
100
AcDbLine
 10
529.9618230900926
 20
650.6738589914607
 30
0.0
 11
529.9618230900926
 21
629.7188589914608
 31
0.0
  0
LINE
  5
3A03
330
A
100
AcDbEntity
  8
MODEL
100
AcDbLine
 10
529.9618230900926
 20
629.7188589914608
 30
0.0
 11
543.2618230900923
 21
629.7188589914608
 31
0.0
  0
LINE
  5
3A04
330
A
100
AcDbEntity
  8
MODEL
100
AcDbLine
 10
543.2618230900923
 20
650.6738589914607
 30
0.0
 11
529.9618230900926
 21
650.6738589914607
 31
0.0
  0
LINE
  5
3A05
330
A
100
AcDbEntity
  8
MODEL
100
AcDbLine
 10
529.9618230900926
 20
650.6738589914607
 30
0.0
 11
528.7618230900923
 21
649.4738589914608
 31
0.0
  0
LINE
  5
3A06
330
A
100
AcDbEntity
  8
MODEL
100
AcDbLine
 10
528.7618230900923
 20
630.9188589914608
 30
0.0
 11
529.9618230900926
 21
629.7188589914608
 31
0.0
  0
LINE
  5
3A07
330
A
100
AcDbEntity
  8
MODEL
100
AcDbLine
 10
528.7998230900923
 20
649.5118589914608
 30
0.0
 11
543.2618230900923
 21
649.5118589914608
 31
0.0
  0
LINE
  5
3A08
330
A
100
AcDbEntity
  8
MODEL
100
AcDbLine
 10
528.7998230900923
 20
630.8808589914607
 30
0.0
 11
543.2618230900923
 21
630.8808589914607
 31
0.0
  0
LINE
  5
3A09
330
A
100
AcDbEntity
  8
MODEL
100
AcDbLine
 10
543.2618230900923
 20
607.6963589914608
 30
0.0
 11
543.2618230900923
 21
672.6963589914608
 31
0.0
  0
HATCH
  5
3A0A
330
A
100
AcDbEntity
  8
MODEL
100
AcDbHatch
 10
0.0
 20
0.0
 30
0.0
210
0.0
220
0.0
230
1.0
  2
LINE
 70
     0
 71
     0
 91
        1
 92
        1
 93
        4
 72
     1
 10
526.4618230901717
 20
702.6963589913981
 11
526.4618230901717
 21
652.173858991398
 72
     1
 10
526.4618230901717
 20
652.173858991398
 11
543.2618230901818
 21
652.173858991398
 72
     1
 10
543.2618230901819
 20
652.173858991398
 11
543.2618230901818
 21
702.6963589913981
 72
     1
 10
543.2618230901815
 20
702.6963589913981
 11
526.4618230901715
 21
702.696358991398
 97
        0
 75
     0
 76
     1
 52
45.0
 41
2.0
 77
     0
 78
     1
 53
45.0
 43
458.6173802490923
 44
289.1346058082607
 45
-4.490128060534576
 46
4.490128060534576
 79
     0
 98
        0
  0
LINE
  5
3A0B
330
A
100
AcDbEntity
  8
MODEL
100
AcDbLine
 10
543.2618230900923
 20
672.6963589914608
 30
0.0
 11
543.2618230900923
 21
702.6963589914608
 31
0.0
  0
LINE
  5
3A0C
330
A
100
AcDbEntity
  8
MODEL
100
AcDbLine
 10
543.2618230900923
 20
652.1738589914607
 30
0.0
 11
526.4618230900926
 21
652.1738589914607
 31
0.0
  0
HATCH
  5
3A0D
330
A
100
AcDbEntity
  8
MODEL
100
AcDbHatch
 10
0.0
 20
0.0
 30
0.0
210
0.0
220
0.0
230
1.0
  2
LINE
 70
     0
 71
     0
 91
        1
 92
        1
 93
        4
 72
     1
 10
543.2618230901815
 20
577.6963589913981
 11
543.2618230901815
 21
628.2188589913981
 72
     1
 10
543.2618230901815
 20
628.218858991398
 11
526.4618230901715
 21
628.218858991398
 72
     1
 10
526.4618230901717
 20
628.218858991398
 11
526.4618230901717
 21
577.6963589913981
 72
     1
 10
526.4618230901717
 20
577.6963589913981
 11
543.2618230901817
 21
577.6963589913981
 97
        0
 75
     0
 76
     1
 52
45.0
 41
2.0
 77
     0
 78
     1
 53
45.0
 43
458.6173802490923
 44
289.1346058082607
 45
-4.490128060534576
 46
4.490128060534576
 79
     0
 98
        0
  0
LINE
  5
3A0E
330
A
100
AcDbEntity
  8
MODEL
100
AcDbLine
 10
526.4618230900926
 20
628.2188589914608
 30
0.0
 11
543.2618230900923
 21
628.2188589914608
 31
0.0
  0
LINE
  5
3A0F
330
A
100
AcDbEntity
  8
MODEL
100
AcDbLine
 10
543.2618230900923
 20
607.6963589914608
 30
0.0
 11
543.2618230900923
 21
577.6963589914608
 31
0.0
  0
LINE
  5
3A10
330
A
100
AcDbEntity
  8
MODEL
100
AcDbLine
 10
550.0620318280924
 20
674.6397748134608
 30
0.0
 11
550.0620318280924
 21
669.7662534870608
 31
0.0
  0
LINE
  5
3A11
330
A
100
AcDbEntity
  8
MODEL
100
AcDbLine
 10
550.0620318280924
 20
605.7529482540608
 30
0.0
 11
550.0620318280924
 21
610.6264709300608
 31
0.0
  0
LINE
  5
3A12
330
A
100
AcDbEntity
  8
MODEL
100
AcDbLine
 10
550.0620318280924
 20
669.7662534870608
 30
0.0
 11
550.0620318280924
 21
610.6264644956608
 31
0.0
  0
ARC
  5
3A13
330
A
100
AcDbEntity
  8
MODEL
100
AcDbCircle
 10
549.5620318280924
 20
605.7529456016608
 30
0.0
 40
0.4999999999999946
100
AcDbArc
 50
270.8455007072318
 51
0.0
  0
ARC
  5
3A14
330
A
100
AcDbEntity
  8
MODEL
100
AcDbCircle
 10
549.5620318280924
 20
674.6397774664608
 30
0.0
 40
0.4999999999997586
100
AcDbArc
 50
0.0
 51
89.85228422981021
  0
LINE
  5
3A15
330
A
100
AcDbEntity
  8
MODEL
100
AcDbLine
 10
549.5665643498926
 20
675.1397569498607
 30
0.0
 11
543.2618230900923
 21
675.1948198974608
 31
0.0
  0
LINE
  5
3A16
330
A
100
AcDbEntity
  8
MODEL
100
AcDbLine
 10
543.2618230900923
 20
605.1979031706608
 30
0.0
 11
549.5665643500922
 21
605.2529661182608
 31
0.0
  0
LINE
  5
3A17
330
A
100
AcDbEntity
  8
MODEL
100
AcDbLine
 10
556.6120318280925
 20
666.1688065862608
 30
0.0
 11
563.2263229650923
 21
661.1845807114607
 31
0.0
  0
LINE
  5
3A18
330
A
100
AcDbEntity
  8
MODEL
100
AcDbLine
 10
587.6448054098926
 20
649.0013226858608
 30
0.0
 11
587.6448054098926
 21
631.3918980740608
 31
0.0
  0
LINE
  5
3A19
330
A
100
AcDbEntity
  8
MODEL
100
AcDbLine
 10
587.6448054098926
 20
649.0013226858608
 30
0.0
 11
587.6448054098926
 21
652.6528046182608
 31
0.0
  0
LINE
  5
3A1A
330
A
100
AcDbEntity
  8
MODEL
100
AcDbLine
 10
587.6448054098926
 20
627.7406128892608
 30
0.0
 11
587.6448054098926
 21
631.3918980740608
 31
0.0
  0
ARC
  5
3A1B
330
A
100
AcDbEntity
  8
MODEL
100
AcDbCircle
 10
583.1931283526926
 20
694.5869977040608
 30
0.0
 40
38.90256146542068
100
AcDbArc
 50
227.1573707242992
 51
239.6319033439993
  0
ARC
  5
3A1C
330
A
100
AcDbEntity
  8
MODEL
100
AcDbCircle
 10
614.8503252274925
 20
735.9573553544608
 30
0.0
 40
90.89378774207546
100
AcDbArc
 50
225.0005437774
 51
230.2655953745998
  0
ARC
  5
3A1D
330
A
100
AcDbEntity
  8
MODEL
100
AcDbCircle
 10
589.2742151438927
 20
697.7710639508608
 30
0.0
 40
44.85524614575366
100
AcDbArc
 50
235.1208028895997
 51
267.5449006333997
  0
SPLINE
  5
3A1E
330
A
100
AcDbEntity
  8
MODEL
100
AcDbSpline
210
0.0
220
0.0
230
1.0
 70
     8
 71
     3
 72
    36
 73
    32
 74
     0
 42
0.000000001
 43
0.0000000001
 40
0.0
 40
0.0
 40
0.0
 40
0.0
 40
0.0669597065469394
 40
0.1363453670165313
 40
0.2010002065928269
 40
0.261217605553154
 40
0.3172691745710531
 40
0.3694048895191105
 40
0.4178533479261666
 40
0.4699913556552862
 40
0.5176870892282059
 40
0.5611989156968263
 40
0.6007508665209008
 40
0.6365349188152928
 40
0.6687135532602575
 40
0.7027577407797102
 40
0.7319941612255009
 40
0.7565704840112231
 40
0.7771529385641793
 40
0.7943097814728279
 40
0.8110139282412125
 40
0.8143745912347289
 40
0.8184108197294864
 40
0.8251113142465198
 40
0.8345189729339718
 40
0.8512454665201205
 40
0.8727111161894827
 40
0.8988695274520422
 40
0.9296813970219377
 40
0.9651254467188528
 40
1.0
 40
1.0
 40
1.0
 40
1.0
 10
550.5793200397068
 20
608.7082839903447
 30
0.0
 10
551.3194940088445
 20
609.436256421076
 30
0.0
 10
552.5928629182474
 20
610.6829675441468
 30
0.0
 10
554.73133828101
 20
612.6280547024836
 30
0.0
 10
556.8009509536648
 20
614.3994822388307
 30
0.0
 10
558.792966366367
 20
615.997825657409
 30
0.0
 10
560.690337681129
 20
617.4233722784721
 30
0.0
 10
562.4971628649039
 20
618.6930826616492
 30
0.0
 10
564.2969199646761
 20
619.874552632659
 30
0.0
 10
566.0821574087552
 20
620.9622799770896
 30
0.0
 10
567.8443837507582
 20
621.9514362133508
 30
0.0
 10
569.4821702962297
 20
622.79748266074
 30
0.0
 10
570.9955057473837
 20
623.5164666532356
 30
0.0
 10
572.3844004099526
 20
624.1232406557195
 30
0.0
 10
573.7186401324782
 20
624.659490844021
 30
0.0
 10
574.9817763821636
 20
625.1236583571886
 30
0.0
 10
576.1564379318231
 20
625.5161437676254
 30
0.0
 10
577.1593762980804
 20
625.8225399107254
 30
0.0
 10
578.0049560810146
 20
626.0603971010539
 30
0.0
 10
578.7475038698851
 20
626.2541643624073
 30
0.0
 10
579.2573785142865
 20
626.3778678769133
 30
0.0
 10
579.588315266866
 20
626.4545418903496
 30
0.0
 10
579.7820600046746
 20
626.4986504232373
 30
0.0
 10
580.0592594741804
 20
626.5601377923346
 30
0.0
 10
580.5119050480046
 20
626.6565653928078
 30
0.0
 10
581.1700342609954
 20
626.787368576351
 30
0.0
 10
582.062849770711
 20
626.9461093606066
 30
0.0
 10
583.1574319838967
 20
627.112038874915
 30
0.0
 10
584.4444418001028
 20
627.2661059429518
 30
0.0
 10
585.8939105629177
 20
627.3894253335911
 30
0.0
 10
586.8123186388946
 20
627.4199257827104
 30
0.0
 10
587.3527768801234
 20
627.4364271307913
 30
0.0
  0
ARC
  5
3A1F
330
A
100
AcDbEntity
  8
MODEL
100
AcDbCircle
 10
587.3448054098924
 20
652.6528051724607
 30
0.0
 40
0.299999999999941
100
AcDbArc
 50
0.0000000935161106
 51
88.99139020818014
  0
ARC
  5
3A20
330
A
100
AcDbEntity
  8
MODEL
100
AcDbCircle
 10
587.3448054098924
 20
627.7406124078608
 30
0.0
 40
0.3000000000000016
100
AcDbArc
 50
271.7583770036439
 51
359.9999999064839
  0
ARC
  5
3A21
330
A
100
AcDbEntity
  8
MODEL
100
AcDbCircle
 10
550.3620318280925
 20
608.9213496968607
 30
0.0
 40
0.3000000000001614
100
AcDbArc
 50
180.0000047869957
 51
315.7279945863215
  0
ARC
  5
3A22
330
A
100
AcDbEntity
  8
MODEL
100
AcDbCircle
 10
550.3620318280925
 20
671.4720675684607
 30
0.0
 40
0.2999999999999688
100
AcDbArc
 50
44.50380899632037
 51
179.9999952567986
  0
LINE
  5
3A23
330
A
100
AcDbEntity
  8
MODEL
100
AcDbLine
 10
838.5620318280924
 20
599.6963615584608
 30
0.0
 11
817.5620318280924
 21
599.6963615584608
 31
0.0
  0
LINE
  5
3A24
330
A
100
AcDbEntity
  8
MODEL
100
AcDbLine
 10
818.7845318280927
 20
587.6963615584608
 30
0.0
 11
837.3395318280925
 21
587.6963615584608
 31
0.0
  0
LINE
  5
3A25
330
A
100
AcDbEntity
  8
MODEL
100
AcDbLine
 10
817.5845318280924
 20
588.8963615584607
 30
0.0
 11
838.5395318280923
 21
588.8963615584607
 31
0.0
  0
LINE
  5
3A26
102
{ACAD_REACTORS
102
}
330
A
100
AcDbEntity
  8
MODEL
100
AcDbLine
 10
787.5620318280924
 20
650.6963615584608
 30
0.0
 11
587.6448054098926
 21
650.6963615584608
 31
0.0
  0
LINE
  5
3A27
102
{ACAD_REACTORS
102
}
330
A
100
AcDbEntity
  8
MODEL
100
AcDbLine
 10
587.6448054098926
 20
629.6963615584608
 30
0.0
 11
787.5620318280924
 21
629.6963615584608
 31
0.0
  0
ARC
  5
3A28
330
A
100
AcDbEntity
  8
MODEL
100
AcDbCircle
 10
787.5620318280924
 20
599.6963615584608
 30
0.0
 40
30.0
100
AcDbArc
 50
0.0
 51
90.0
  0
ARC
  5
3A29
330
A
100
AcDbEntity
  8
MODEL
100
AcDbCircle
 10
787.5620318280924
 20
599.6963615584608
 30
0.0
 40
50.99999999999998
100
AcDbArc
 50
0.0
 51
90.0
  0
LINE
  5
3A2A
330
A
100
AcDbEntity
  8
MODEL
100
AcDbLine
 10
838.5395318280923
 20
597.1963615584608
 30
0.0
 11
838.5395318280923
 21
599.6963615584608
 31
0.0
  0
LINE
  5
3A2B
330
A
100
AcDbEntity
  8
MODEL
100
AcDbLine
 10
817.5845318280924
 20
599.6963615584608
 30
0.0
 11
817.5845318280924
 21
597.1963615584608
 31
0.0
  0
LINE
  5
3A2C
330
A
100
AcDbEntity
  8
MODEL
100
AcDbLine
 10
838.5395318280923
 20
588.8963615584607
 30
0.0
 11
838.5395318280923
 21
597.1963615584608
 31
0.0
  0
LINE
  5
3A2D
330
A
100
AcDbEntity
  8
MODEL
100
AcDbLine
 10
817.5845318280924
 20
597.1963615584608
 30
0.0
 11
817.5845318280924
 21
588.8963615584607
 31
0.0
  0
LINE
  5
3A2E
330
A
100
AcDbEntity
  8
MODEL
100
AcDbLine
 10
817.5845318280924
 20
588.8963615584607
 30
0.0
 11
818.7845318280927
 21
587.6963615584608
 31
0.0
  0
LINE
  5
3A2F
330
A
100
AcDbEntity
  8
MODEL
100
AcDbLine
 10
837.3395318280925
 20
587.6963615584608
 30
0.0
 11
838.5395318280923
 21
588.8963615584607
 31
0.0
  0
LINE
  5
3A30
330
A
100
AcDbEntity
  8
MODEL
100
AcDbLine
 10
818.7465318280922
 20
587.7343615584608
 30
0.0
 11
818.7465318280922
 21
597.1963615584608
 31
0.0
  0
LINE
  5
3A31
330
A
100
AcDbEntity
  8
MODEL
100
AcDbLine
 10
837.3775318280925
 20
587.7343615584608
 30
0.0
 11
837.3775318280925
 21
597.1963615584608
 31
0.0
  0
LINE
  5
3A32
330
A
100
AcDbEntity
  8
MODEL
100
AcDbLine
 10
838.5395318280923
 20
597.1963615584608
 30
0.0
 11
817.5845318280924
 21
597.1963615584608
 31
0.0
  0
LINE
  5
3A33
330
A
100
AcDbEntity
  8
MODEL
100
AcDbLine
 10
526.9523580586927
 20
640.1963589914608
 30
0.0
 11
545.4344511334923
 21
640.1963589914608
 31
0.0
  0
ELLIPSE
  5
3A35
330
A
100
AcDbEntity
  8
MODEL
100
AcDbEllipse
 10
293.8982402628892
 20
663.9973670783609
 30
0.0
 11
3.45
 21
-3.469446951953615E-15
 31
0.0
210
0.0
220
0.0
230
1.0
 40
0.7535540501
 41
4.985673468438506
 42
6.283185307179586
  0
ELLIPSE
  5
3A36
330
A
100
AcDbEntity
  8
MODEL
100
AcDbEllipse
 10
293.8982402628892
 20
663.9973670783609
 30
0.0
 11
3.45
 21
-3.469446951953615E-15
 31
0.0
210
0.0
220
0.0
230
1.0
 40
0.7535540501
 41
0.0
 42
4.438459961062796
  0
LINE
  5
3A37
330
A
100
AcDbEntity
  8
MODEL
100
AcDbLine
 10
297.3482402628895
 20
663.7439127229609
 30
0.0
 11
297.3482402628895
 21
663.9973670783609
 31
0.0
  0
LINE
  5
3A38
330
A
100
AcDbEntity
  8
MODEL
100
AcDbLine
 10
290.4482402628894
 20
663.9973670783609
 30
0.0
 11
290.4482402628894
 21
663.7440598395608
 31
0.0
  0
INSERT
  5
3A39
330
A
100
AcDbEntity
  8
MODEL
100
AcDbBlockReference
  2
SE
 10
209.2537974218892
 20
459.5629303403608
 30
0.0
 41
2.0
 42
2.0
 43
2.0
  0
LINE
  5
3A3A
330
A
100
AcDbEntity
  8
MODEL
100
AcDbLine
 10
304.3982402628892
 20
600.1246835235609
 30
0.0
 11
283.3982402628892
 21
600.1246835235609
 31
0.0
  0
LINE
  5
3A3B
330
A
100
AcDbEntity
  8
MODEL
100
AcDbLine
 10
284.6207402628895
 20
588.1246835235609
 30
0.0
 11
303.1757402628893
 21
588.1246835235609
 31
0.0
  0
LINE
  5
3A3C
330
A
100
AcDbEntity
  8
MODEL
100
AcDbLine
 10
304.3757402628892
 20
589.3246835235609
 30
0.0
 11
283.4207402628892
 21
589.3246835235609
 31
0.0
  0
LINE
  5
3A3D
330
A
100
AcDbEntity
  8
MODEL
100
AcDbLine
 10
283.3982402628892
 20
640.6246835235609
 30
0.0
 11
283.3982402628892
 21
600.1246835235609
 31
0.0
  0
LINE
  5
3A3E
330
A
100
AcDbEntity
  8
MODEL
100
AcDbLine
 10
304.3982402628892
 20
600.1246835235609
 30
0.0
 11
304.3982402628892
 21
640.6246835235609
 31
0.0
  0
LINE
  5
3A3F
330
A
100
AcDbEntity
  8
MODEL
100
AcDbLine
 10
304.3757402628892
 20
597.6246835235609
 30
0.0
 11
304.3757402628892
 21
600.1246835235609
 31
0.0
  0
LINE
  5
3A40
330
A
100
AcDbEntity
  8
MODEL
100
AcDbLine
 10
283.4207402628892
 20
600.1246835235609
 30
0.0
 11
283.4207402628892
 21
597.6246835235609
 31
0.0
  0
LINE
  5
3A41
330
A
100
AcDbEntity
  8
MODEL
100
AcDbLine
 10
304.3757402628892
 20
589.3246835235609
 30
0.0
 11
304.3757402628892
 21
597.6246835235609
 31
0.0
  0
LINE
  5
3A42
330
A
100
AcDbEntity
  8
MODEL
100
AcDbLine
 10
283.4207402628892
 20
597.6246835235609
 30
0.0
 11
283.4207402628892
 21
589.3246835235609
 31
0.0
  0
LINE
  5
3A43
330
A
100
AcDbEntity
  8
MODEL
100
AcDbLine
 10
283.4207402628892
 20
589.3246835235609
 30
0.0
 11
284.6207402628895
 21
588.1246835235609
 31
0.0
  0
LINE
  5
3A44
330
A
100
AcDbEntity
  8
MODEL
100
AcDbLine
 10
303.1757402628893
 20
588.1246835235609
 30
0.0
 11
304.3757402628892
 21
589.3246835235609
 31
0.0
  0
LINE
  5
3A45
330
A
100
AcDbEntity
  8
MODEL
100
AcDbLine
 10
284.5827402628895
 20
588.1626835235609
 30
0.0
 11
284.5827402628895
 21
597.6246835235609
 31
0.0
  0
LINE
  5
3A46
330
A
100
AcDbEntity
  8
MODEL
100
AcDbLine
 10
303.2137402628894
 20
588.1626835235609
 30
0.0
 11
303.2137402628894
 21
597.6246835235609
 31
0.0
  0
LINE
  5
3A47
330
A
100
AcDbEntity
  8
MODEL
100
AcDbLine
 10
304.3757402628892
 20
597.6246835235609
 30
0.0
 11
283.4207402628892
 21
597.6246835235609
 31
0.0
  0
ARC
  5
3A48
330
A
100
AcDbEntity
  8
MODEL
100
AcDbCircle
 10
813.7106505950894
 20
168.0040002321608
 30
0.0
 40
702.0582802162016
100
AcDbArc
 50
134.6054759951
 51
136.6806428833
  0
ARC
  5
3A49
330
A
100
AcDbEntity
  8
MODEL
100
AcDbCircle
 10
-169.1217137537108
 20
130.6316459275608
 30
0.0
 40
688.327626223795
100
AcDbArc
 50
44.5847775208
 51
46.5355369737
  0
ARC
  5
3A4A
330
A
100
AcDbEntity
  8
MODEL
100
AcDbCircle
 10
766.8781065136893
 20
120.4461873421609
 30
0.0
 40
702.5710591825568
100
AcDbArc
 50
133.4821305799
 51
135.3937966731
  0
ARC
  5
3A4B
330
A
100
AcDbEntity
  8
MODEL
100
AcDbCircle
 10
-226.2816008365107
 20
167.6441711491608
 30
0.0
 40
702.5724672081574
100
AcDbArc
 50
43.32014893990001
 51
45.39379578049999
  0
ARC
  5
3A4C
330
A
100
AcDbEntity
  8
MODEL
100
AcDbCircle
 10
293.8982402628892
 20
640.6246835235609
 30
0.0
 40
10.75033959597019
100
AcDbArc
 50
0.0
 51
192.3890414468001
  0
ARC
  5
3A4D
330
A
100
AcDbEntity
  8
MODEL
100
AcDbCircle
 10
293.8982402628892
 20
640.6246835235609
 30
0.0
 40
10.75033959597019
100
AcDbArc
 50
347.6109585532005
 51
0.0
  0
SPLINE
  5
3A4E
330
A
100
AcDbEntity
  8
MODEL
100
AcDbSpline
210
0.0
220
0.0
230
1.0
 70
     8
 71
     3
 72
    31
 73
    27
 74
     0
 42
0.000000001
 43
0.0000000001
 40
0.0
 40
0.0
 40
0.0
 40
0.0
 40
0.0418589180625159
 40
0.0811898391795138
 40
0.1226358606568944
 40
0.164104735755972
 40
0.2056134996532048
 40
0.2471770469198442
 40
0.2888098739339273
 40
0.3305260712936822
 40
0.3723393189450531
 40
0.4142628825230292
 40
0.4563096109804801
 40
0.4984919355698606
 40
0.540780474407342
 40
0.5828794165570061
 40
0.6249424291556475
 40
0.6669594022238133
 40
0.7089205209851331
 40
0.7508165368248754
 40
0.7926388765799051
 40
0.8343797446992428
 40
0.8760322173417834
 40
0.9175903276063282
 40
0.9590491412737883
 40
1.0
 40
1.0
 40
1.0
 40
1.0
 10
321.227753211075
 20
613.7756222286183
 30
0.0
 10
321.4792282557221
 20
614.5748516017122
 30
0.0
 10
321.8872610935407
 20
615.8808353660067
 30
0.0
 10
322.5103811744136
 20
618.0678025116389
 30
0.0
 10
323.0597601351135
 20
620.2116109857668
 30
0.0
 10
323.5650557551801
 20
622.4221150947287
 30
0.0
 10
324.0108589961262
 20
624.6434651559455
 30
0.0
 10
324.3985058133678
 20
626.8798172706231
 30
0.0
 10
324.7273664487168
 20
629.1290904503875
 30
0.0
 10
324.997332727344
 20
631.390842753553
 30
0.0
 10
325.2081514977965
 20
633.6641646030507
 30
0.0
 10
325.3596164481976
 20
635.9482438201236
 30
0.0
 10
325.4514788185663
 20
638.2422141098028
 30
0.0
 10
325.4836127535189
 20
640.544439587953
 30
0.0
 10
325.4555761630911
 20
642.8476739302298
 30
0.0
 10
325.3670021588489
 20
645.1472016498014
 30
0.0
 10
325.2184020316674
 20
647.4386806293096
 30
0.0
 10
325.0097986531766
 20
649.7229550677205
 30
0.0
 10
324.7414268726063
 20
651.9979426338548
 30
0.0
 10
324.413616937524
 20
654.2614716870145
 30
0.0
 10
324.0266199422992
 20
656.5118672497186
 30
0.0
 10
323.5812869966414
 20
658.7458158457914
 30
0.0
 10
323.0765120489029
 20
660.9663423400381
 30
0.0
 10
322.5187276875847
 20
663.1531647688039
 30
0.0
 10
321.8886222302729
 20
665.3657527945533
 30
0.0
 10
321.4738982212518
 20
666.6925651956467
 30
0.0
 10
321.2277508146869
 20
667.4744164322431
 30
0.0
  0
SPLINE
  5
3A4F
330
A
100
AcDbEntity
  8
MODEL
100
AcDbSpline
210
0.0
220
0.0
230
1.0
 70
     8
 71
     3
 72
    12
 73
     8
 74
     0
 42
0.000000001
 43
0.0000000001
 40
0.0
 40
0.0
 40
0.0
 40
0.0
 40
0.0807250267316688
 40
0.3645573736993929
 40
0.674627073482326
 40
0.9651746316469343
 40
1.0
 40
1.0
 40
1.0
 40
1.0
 10
320.7439621985216
 20
613.3075418516231
 30
0.0
 10
320.7637769730879
 20
613.3129891957698
 30
0.0
 10
320.8402049789163
 20
613.3345847544407
 30
0.0
 10
320.9813544279693
 20
613.4191864557596
 30
0.0
 10
321.1202868830703
 20
613.5657309079367
 30
0.0
 10
321.1990944178954
 20
613.7008380574762
 30
0.0
 10
321.2146386896732
 20
613.770379335809
 30
0.0
 10
321.2165494362832
 20
613.7790363590514
 30
0.0
  0
SPLINE
  5
3A50
330
A
100
AcDbEntity
  8
MODEL
100
AcDbSpline
210
0.0
220
0.0
230
1.0
 70
     8
 71
     3
 72
    12
 73
     8
 74
     0
 42
0.000000001
 43
0.0000000001
 40
0.0
 40
0.0
 40
0.0
 40
0.0
 40
0.0807725755808674
 40
0.3645041119220217
 40
0.6744636591985629
 40
0.964908005817357
 40
1.0
 40
1.0
 40
1.0
 40
1.0
 10
321.2157459111106
 20
667.4707030960715
 30
0.0
 10
321.2102937802326
 20
667.4905366842967
 30
0.0
 10
321.1886947365249
 20
667.5669805198636
 30
0.0
 10
321.1040869138553
 20
667.7081445156139
 30
0.0
 10
320.957541577772
 20
667.8470841888999
 30
0.0
 10
320.8223740979863
 20
667.9259077407156
 30
0.0
 10
320.7527739480304
 20
667.9414598794233
 30
0.0
 10
320.744047364017
 20
667.9433851107499
 30
0.0
  0
SPLINE
  5
3A51
330
A
100
AcDbEntity
  8
MODEL
100
AcDbSpline
210
0.0
220
0.0
230
1.0
 70
     8
 71
     3
 72
    15
 73
    11
 74
     0
 42
0.000000001
 43
0.0000000001
 40
0.0
 40
0.0
 40
0.0
 40
0.0
 40
0.1362668578867677
 40
0.2643028191135864
 40
0.3992241746192041
 40
0.5342199336740829
 40
0.669345552525223
 40
0.8046495187261449
 40
0.9401790235334774
 40
1.0
 40
1.0
 40
1.0
 40
1.0
 10
267.0488558230311
 20
613.2955322614604
 30
0.0
 10
267.8480924402095
 20
613.0440546754209
 30
0.0
 10
269.1540814707416
 20
612.6360197839183
 30
0.0
 10
271.3410537907
 20
612.0128979229889
 30
0.0
 10
273.4848602384202
 20
611.4635192417637
 30
0.0
 10
275.6953622825033
 20
610.9582239003095
 30
0.0
 10
277.916710427359
 20
610.5124208969725
 30
0.0
 10
280.1530607542288
 20
610.1247742850692
 30
0.0
 10
281.9820542296723
 20
609.8573616451768
 30
0.0
 10
283.0653782514407
 20
609.7199310989415
 30
0.0
 10
283.397352131615
 20
609.679773618617
 30
0.0
  0
SPLINE
  5
3A52
330
A
100
AcDbEntity
  8
MODEL
100
AcDbSpline
210
0.0
220
0.0
230
1.0
 70
     8
 71
     3
 72
    15
 73
    11
 74
     0
 42
0.000000001
 43
0.0000000001
 40
0.0
 40
0.0
 40
0.0
 40
0.0
 40
0.0524085501112594
 40
0.1887983456493168
 40
0.3249483023419342
 40
0.4608330421451747
 40
0.5964300247307616
 40
0.7317198249508886
 40
0.8666863794168659
 40
1.0
 40
1.0
 40
1.0
 40
1.0
 10
304.3990991514372
 20
609.6819280473444
 30
0.0
 10
304.6899262639515
 20
609.7171442429614
 30
0.0
 10
305.7369660433976
 20
609.8493109913488
 30
0.0
 10
307.5347059472895
 20
610.1096642306595
 30
0.0
 10
309.7851017687801
 20
610.4966613262866
 30
0.0
 10
312.019050771343
 20
610.9419943901906
 30
0.0
 10
314.2395778008647
 20
611.4467694885836
 30
0.0
 10
316.4264009443775
 20
612.0045539933674
 30
0.0
 10
318.6389933501384
 20
612.6346608003652
 30
0.0
 10
319.9658095984194
 20
613.0493857337493
 30
0.0
 10
320.7476651646678
 20
613.2955343490056
 30
0.0
  0
SPLINE
  5
3A53
330
A
100
AcDbEntity
  8
MODEL
100
AcDbSpline
210
0.0
220
0.0
230
1.0
 70
     8
 71
     3
 72
    31
 73
    27
 74
     0
 42
0.000000001
 43
0.0000000001
 40
0.0
 40
0.0
 40
0.0
 40
0.0
 40
0.0417106240526637
 40
0.0810414009967295
 40
0.1224872175200711
 40
0.1639560405542974
 40
0.2054648566127725
 40
0.2470285054387896
 40
0.2886614275648881
 40
0.3303776568318779
 40
0.3721908156406225
 40
0.4141141114280268
 40
0.456160334440544
 40
0.4983418568704101
 40
0.5406296610798892
 40
0.5827286989237465
 40
0.6247918680240564
 40
0.6668090841390947
 40
0.7087705132832343
 40
0.7506668872942419
 40
0.7924896132843657
 40
0.8342308759472229
 40
0.875883731797445
 40
0.9174421945363035
 40
0.9589013109211965
 40
1.0
 40
1.0
 40
1.0
 40
1.0
 10
320.7475932811169
 20
667.9545034036464
 30
0.0
 10
319.9512058284975
 20
668.2051179951351
 30
0.0
 10
318.6475668979112
 20
668.6124790650305
 30
0.0
 10
316.4632426579399
 20
669.2350687639724
 30
0.0
 10
314.3195135103763
 20
669.7846393410271
 30
0.0
 10
312.109057349149
 20
670.2901415679371
 30
0.0
 10
309.8877508161688
 20
670.7361518661759
 30
0.0
 10
307.6514324525517
 20
671.1240084209765
 30
0.0
 10
305.4021883789712
 20
671.4530799238108
 30
0.0
 10
303.1404629799692
 20
671.7232578332023
 30
0.0
 10
300.867169092134
 20
671.9342885453193
 30
0.0
 10
298.5831220160997
 20
672.0859653643371
 30
0.0
 10
296.2891912682619
 20
672.1780399006354
 30
0.0
 10
293.9870082824998
 20
672.2103845721186
 30
0.0
 10
291.6837999580518
 20
672.1825627610953
 30
0.0
 10
289.3842751341274
 20
672.0942033021366
 30
0.0
 10
287.0927756768986
 20
671.9458164719954
 30
0.0
 10
284.8084712419843
 20
671.7374255200143
 30
0.0
 10
282.5334444576399
 20
671.4692650716166
 30
0.0
 10
280.2698678850304
 20
671.141665139231
 30
0.0
 10
278.0194181824306
 20
670.7548768902341
 30
0.0
 10
275.785407718847
 20
670.3097506988624
 30
0.0
 10
273.5648208864643
 20
669.8051830536449
 30
0.0
 10
271.3779102839451
 20
669.2475971753008
 30
0.0
 10
269.1626862143805
 20
668.616965931512
 30
0.0
 10
267.8335317642479
 20
668.2015867524299
 30
0.0
 10
267.0488469731338
 20
667.9545888935901
 30
0.0
  0
SPLINE
  5
3A54
330
A
100
AcDbEntity
  8
MODEL
100
AcDbSpline
210
0.0
220
0.0
230
1.0
 70
     8
 71
     3
 72
    12
 73
     8
 74
     0
 42
0.000000001
 43
0.0000000001
 40
0.0
 40
0.0
 40
0.0
 40
0.0
 40
0.0806640372870858
 40
0.3644747843628967
 40
0.6745552881127009
 40
0.9651036986475997
 40
1.0
 40
1.0
 40
1.0
 40
1.0
 10
266.5807651570192
 20
613.7793195637911
 30
0.0
 10
266.5862113869409
 20
613.7595206034475
 30
0.0
 10
266.6078134666002
 20
613.6831133383644
 30
0.0
 10
266.692386012822
 20
613.541970392442
 30
0.0
 10
266.8389221334253
 20
613.4030283194331
 30
0.0
 10
266.9740409889253
 20
613.3242057504809
 30
0.0
 10
267.0435964716487
 20
613.3086553769929
 30
0.0
 10
267.0522710540406
 20
613.3067404404794
 30
0.0
  0
SPLINE
  5
3A55
330
A
100
AcDbEntity
  8
MODEL
100
AcDbSpline
210
0.0
220
0.0
230
1.0
 70
     8
 71
     3
 72
    12
 73
     8
 74
     0
 42
0.000000001
 43
0.0000000001
 40
0.0
 40
0.0
 40
0.0
 40
0.0
 40
0.0813649117652295
 40
0.3650444025808183
 40
0.6749140168014719
 40
0.9653491736341823
 40
1.0
 40
1.0
 40
1.0
 40
1.0
 10
267.0525834262151
 20
667.9425046985523
 30
0.0
 10
267.0326066498671
 20
667.9370042817307
 30
0.0
 10
266.9560638244645
 20
667.9153385882751
 30
0.0
 10
266.8148459379224
 20
667.8306287077198
 30
0.0
 10
266.6760147098696
 20
667.684028371293
 30
0.0
 10
266.5972873957955
 20
667.5489473731949
 30
0.0
 10
266.5817731300501
 20
667.4794366049805
 30
0.0
 10
266.5798739030186
 20
667.470819321715
 30
0.0
  0
SPLINE
  5
3A56
330
A
100
AcDbEntity
  8
MODEL
100
AcDbSpline
210
0.0
220
0.0
230
1.0
 70
     8
 71
     3
 72
    32
 73
    28
 74
     0
 42
0.000000001
 43
0.0000000001
 40
0.0
 40
0.0
 40
0.0
 40
0.0
 40
0.0409379974693208
 40
0.0802675337732323
 40
0.1217117547630526
 40
0.1631798273791282
 40
0.2046884797358126
 40
0.2462522594181261
 40
0.2878853092381924
 40
0.3296013603222959
 40
0.3714137280321351
 40
0.4133353091666109
 40
0.4553785805159469
 40
0.497555598831186
 40
0.5398392131924393
 40
0.5819385702085533
 40
0.6240022998519907
 40
0.6660205562558813
 40
0.7079834032378642
 40
0.7498814684356221
 40
0.7917060536480669
 40
0.8334492379271722
 40
0.8751039725812179
 40
0.9166641672711441
 40
0.9581247665683246
 40
0.9994318527623931
 40
1.0
 40
1.0
 40
1.0
 40
1.0
 10
266.5690550047623
 20
667.474279382199
 30
0.0
 10
266.322924698228
 20
666.6926909849043
 30
0.0
 10
265.9190655994942
 20
665.401265523153
 30
0.0
 10
265.2992332989081
 20
663.2307121962363
 30
0.0
 10
264.7486571181137
 20
661.0874084707921
 30
0.0
 10
264.2420690443075
 20
658.8772119070491
 30
0.0
 10
263.7949702317385
 20
656.656139612893
 30
0.0
 10
263.406010520345
 20
654.420002205656
 30
0.0
 10
263.0758295666353
 20
652.1709129698503
 30
0.0
 10
262.8045379039725
 20
649.9093293513075
 30
0.0
 10
262.5923916081863
 20
647.6361815498988
 30
0.0
 10
262.4395994423764
 20
645.3523015133837
 30
0.0
 10
262.3464079814823
 20
643.0585759594774
 30
0.0
 10
262.3129536423496
 20
640.7566139140872
 30
0.0
 10
262.3396452366408
 20
638.4535380328815
 30
0.0
 10
262.4268754835077
 20
636.1540230258042
 30
0.0
 10
262.5741392955563
 20
633.8624110775792
 30
0.0
 10
262.7814138252349
 20
631.5779363956144
 30
0.0
 10
263.0484557453517
 20
629.3027202326219
 30
0.0
 10
263.3749737916148
 20
627.0387952619125
 30
0.0
 10
263.76057687159
 20
624.7883861202215
 30
0.0
 10
264.2049379061311
 20
622.5527933391863
 30
0.0
 10
264.7072145807413
 20
620.3365138988718
 30
0.0
 10
265.2682211139834
 20
618.1318832679335
 30
0.0
 10
265.8821274912768
 20
615.9770353004113
 30
0.0
 10
266.342403949958
 20
614.4745425904387
 30
0.0
 10
266.565269734316
 20
613.7862861110543
 30
0.0
 10
266.568773461159
 20
613.7754671059779
 30
0.0
  0
SPLINE
  5
3A57
330
A
100
AcDbEntity
  8
MODEL
100
AcDbSpline
210
0.0
220
0.0
230
1.0
 70
     8
 71
     3
 72
    12
 73
     8
 74
     0
 42
0.000000001
 43
0.0000000001
 40
0.0
 40
0.0
 40
0.0
 40
0.0
 40
0.2157495081505696
 40
0.4622622909584578
 40
0.7061555756620203
 40
0.9280709269188585
 40
1.0
 40
1.0
 40
1.0
 40
1.0
 10
294.8275116484149
 20
661.502652037004
 30
0.0
 10
294.7097138747588
 20
661.4834979494749
 30
0.0
 10
294.4520756838358
 20
661.4501354807607
 30
0.0
 10
294.0464494275373
 20
661.4252445140685
 30
0.0
 10
293.6378189092677
 20
661.4285185199726
 30
0.0
 10
293.3219764794069
 20
661.452702428694
 30
0.0
 10
293.1681818904533
 20
661.4719246402568
 30
0.0
 10
293.124146475129
 20
661.4775300209939
 30
0.0
  0
SPLINE
  5
3A58
330
A
100
AcDbEntity
  8
MODEL
100
AcDbSpline
210
0.0
220
0.0
230
1.0
 70
     8
 71
     3
 72
    10
 73
     6
 74
     0
 42
0.000000001
 43
0.0000000001
 40
0.0
 40
0.0
 40
0.0
 40
0.0
 40
0.334079895899207
 40
0.9777877934688893
 40
1.0
 40
1.0
 40
1.0
 40
1.0
 10
293.124146475129
 20
661.4775300209939
 30
0.0
 10
293.0505299745903
 20
661.4880652110111
 30
0.0
 10
292.86771521276
 20
661.5148754262225
 30
0.0
 10
292.6713394250262
 20
661.5572188698718
 30
0.0
 10
292.5473128838632
 20
661.5892734676164
 30
0.0
 10
292.5431833295095
 20
661.5903469670402
 30
0.0
  0
SPLINE
  5
3A59
330
A
100
AcDbEntity
  8
MODEL
100
AcDbSpline
210
0.0
220
0.0
230
1.0
 70
     8
 71
     3
 72
     8
 73
     4
 74
     0
 42
0.000000001
 43
0.0000000001
 40
0.0
 40
0.0
 40
0.0
 40
0.0
 40
1.0
 40
1.0
 40
1.0
 40
1.0
 10
323.6718649740421
 20
610.5383673174265
 30
0.0
 10
323.8168579935693
 20
610.5879429989761
 30
0.0
 10
323.9336118247868
 20
610.7046928749138
 30
0.0
 10
323.9831924112593
 20
610.8496842338964
 30
0.0
  0
SPLINE
  5
3A5A
330
A
100
AcDbEntity
  8
MODEL
100
AcDbSpline
210
0.0
220
0.0
230
1.0
 70
     8
 71
     3
 72
    14
 73
    10
 74
     0
 42
0.000000001
 43
0.0000000001
 40
0.0
 40
0.0
 40
0.0
 40
0.0
 40
0.5032548676953871
 40
0.5032548676953871
 40
0.6311155262773757
 40
0.6311155262773757
 40
0.7589761848593644
 40
0.7589761848593644
 40
1.0
 40
1.0
 40
1.0
 40
1.0
 10
323.9831924112593
 20
610.8496842338964
 30
0.0
 10
325.6128433485735
 20
615.6153661445114
 30
0.0
 10
326.8293297455691
 20
620.4778347232634
 30
0.0
 10
327.8575390421308
 20
626.6917256005604
 30
0.0
 10
328.040214804854
 20
627.9580867462922
 30
0.0
 10
328.3528981148859
 20
630.4964951439358
 30
0.0
 10
328.4825410422288
 20
631.7650438469525
 30
0.0
 10
328.7810294791777
 20
635.4230187540726
 30
0.0
 10
328.8831705110467
 20
637.810807962011
 30
0.0
 10
328.8940775040153
 20
640.1963589914249
 30
0.0
  0
SPLINE
  5
3A5B
330
A
100
AcDbEntity
  8
MODEL
100
AcDbSpline
210
0.0
220
0.0
230
1.0
 70
     8
 71
     3
 72
     8
 73
     4
 74
     0
 42
0.000000001
 43
0.0000000001
 40
0.0
 40
0.0
 40
0.0
 40
0.0
 40
1.0
 40
1.0
 40
1.0
 40
1.0
 10
264.1218826630131
 20
610.5383636539507
 30
0.0
 10
270.3730998178974
 20
608.4008761023329
 30
0.0
 10
276.8464164633644
 20
606.9609898218838
 30
0.0
 10
283.3968659453815
 20
606.2186751943705
 30
0.0
  0
SPLINE
  5
3A5C
330
A
100
AcDbEntity
  8
MODEL
100
AcDbSpline
210
0.0
220
0.0
230
1.0
 70
     8
 71
     3
 72
     8
 73
     4
 74
     0
 42
0.000000001
 43
0.0000000001
 40
0.0
 40
0.0
 40
0.0
 40
0.0
 40
0.9999999999999999
 40
0.9999999999999999
 40
0.9999999999999999
 40
0.9999999999999999
 10
304.3999311767564
 20
606.2190830034908
 30
0.0
 10
310.9493464449954
 20
606.9615280433991
 30
0.0
 10
317.4216243740641
 20
608.4012993495819
 30
0.0
 10
323.6718649740421
 20
610.5383673174265
 30
0.0
  0
SPLINE
  5
3A5D
330
A
100
AcDbEntity
  8
MODEL
100
AcDbSpline
210
0.0
220
0.0
230
1.0
 70
     8
 71
     3
 72
     8
 73
     4
 74
     0
 42
0.000000001
 43
0.0000000001
 40
0.0
 40
0.0
 40
0.0
 40
0.0
 40
1.0
 40
1.0
 40
1.0
 40
1.0
 10
263.8105555586073
 20
610.8496945907738
 30
0.0
 10
263.8601324136373
 20
610.7046981211565
 30
0.0
 10
263.9768867888044
 20
610.5879422989536
 30
0.0
 10
264.1218826630131
 20
610.5383636539507
 30
0.0
  0
SPLINE
  5
3A5E
330
A
100
AcDbEntity
  8
MODEL
100
AcDbSpline
210
0.0
220
0.0
230
1.0
 70
     8
 71
     3
 72
     8
 73
     4
 74
     0
 42
0.000000001
 43
0.0000000001
 40
0.0
 40
0.0
 40
0.0
 40
0.0
 40
1.0
 40
1.0
 40
1.0
 40
1.0
 10
323.6718637510464
 20
670.7110030946801
 30
0.0
 10
304.5169671784954
 20
677.2606642428555
 30
0.0
 10
283.2767250677941
 20
677.260379429724
 30
0.0
 10
264.1218839341102
 20
670.711000782753
 30
0.0
  0
SPLINE
  5
3A5F
330
A
100
AcDbEntity
  8
MODEL
100
AcDbSpline
210
0.0
220
0.0
230
1.0
 70
     8
 71
     3
 72
     8
 73
     4
 74
     0
 42
0.000000001
 43
0.0000000001
 40
0.0
 40
0.0
 40
0.0
 40
0.0
 40
1.0
 40
1.0
 40
1.0
 40
1.0
 10
264.1218839341102
 20
670.711000782753
 30
0.0
 10
263.9768874645868
 20
670.6614239277557
 30
0.0
 10
263.8601316422594
 20
670.544669552465
 30
0.0
 10
263.8105529972875
 20
670.3996736783504
 30
0.0
  0
SPLINE
  5
3A60
330
A
100
AcDbEntity
  8
MODEL
100
AcDbSpline
210
0.0
220
0.0
230
1.0
 70
     8
 71
     3
 72
     8
 73
     4
 74
     0
 42
0.000000001
 43
0.0000000001
 40
0.0
 40
0.0
 40
0.0
 40
0.0
 40
1.0
 40
1.0
 40
1.0
 40
1.0
 10
263.8105529972875
 20
670.3996736783504
 30
0.0
 10
257.2608920982955
 20
651.2447772961605
 30
0.0
 10
257.2611769947746
 20
630.0045354811576
 30
0.0
 10
263.8105555586073
 20
610.8496945907738
 30
0.0
  0
SPLINE
  5
3A61
330
A
100
AcDbEntity
  8
MODEL
100
AcDbSpline
210
0.0
220
0.0
230
1.0
 70
     8
 71
     3
 72
    14
 73
    10
 74
     0
 42
0.000000001
 43
0.0000000001
 40
0.0
 40
0.0
 40
0.0
 40
0.0
 40
0.4970241027707429
 40
0.4970241027707429
 40
0.6248138523932442
 40
0.6248138523932442
 40
0.7526036020157454
 40
0.7526036020157454
 40
1.0
 40
1.0
 40
1.0
 40
1.0
 10
328.8940823943378
 20
641.0526083099735
 30
0.0
 10
328.8717093222133
 20
645.9735697678711
 30
0.0
 10
328.4635165993998
 20
650.885064733226
 30
0.0
 10
327.4459707787607
 20
657.0469767787998
 30
0.0
 10
327.2110005696115
 20
658.306563877482
 30
0.0
 10
326.6899618030686
 20
660.8082349624779
 30
0.0
 10
326.40358700717
 20
662.0523458361479
 30
0.0
 10
325.4865747633078
 20
665.6851858829592
 30
0.0
 10
324.7847513168365
 20
668.0554002938409
 30
0.0
 10
323.9831900796496
 20
670.3996744162921
 30
0.0
  0
SPLINE
  5
3A62
330
A
100
AcDbEntity
  8
MODEL
100
AcDbSpline
210
0.0
220
0.0
230
1.0
 70
     8
 71
     3
 72
     8
 73
     4
 74
     0
 42
0.000000001
 43
0.0000000001
 40
0.0
 40
0.0
 40
0.0
 40
0.0
 40
1.0
 40
1.0
 40
1.0
 40
1.0
 10
323.9831900796496
 20
670.3996744162921
 30
0.0
 10
323.9336127942613
 20
670.5446698848907
 30
0.0
 10
323.8168588603373
 20
670.6614247098323
 30
0.0
 10
323.6718637510464
 20
670.7110030946801
 30
0.0
  0
LINE
  5
3A63
330
A
100
AcDbEntity
  8
MODEL
100
AcDbLine
 10
328.8940823942892
 20
641.0526083099609
 30
0.0
 11
328.8940775040894
 21
640.1963589913609
 31
0.0
  0
CIRCLE
  5
3A64
330
A
100
AcDbEntity
  8
MODEL
100
AcDbCircle
 10
293.8968530530033
 20
1157.045191137353
 30
0.0
 40
3.449999999999998
  0
INSERT
  5
3A65
330
A
100
AcDbEntity
  8
MODEL
100
AcDbBlockReference
  2
SE1
 10
-207.1662665505968
 20
1258.489842716353
 30
0.0
 41
2.0
 42
2.0
 43
2.0
 50
270.0
  0
LINE
  5
3A66
330
A
100
AcDbEntity
  8
MODEL
100
AcDbLine
 10
304.3968530530033
 20
929.545191137353
 30
0.0
 11
304.3968530530033
 21
1129.462417555553
 31
0.0
  0
LINE
  5
3A67
330
A
100
AcDbEntity
  8
MODEL
100
AcDbLine
 10
283.3968530530033
 20
1129.462417555553
 30
0.0
 11
283.3968530530033
 21
929.545191137353
 31
0.0
  0
LINE
  5
3A68
330
A
100
AcDbEntity
  8
MODEL
100
AcDbLine
 10
283.3968530530033
 20
929.545191137353
 30
0.0
 11
283.3968530530033
 21
889.045191137353
 31
0.0
  0
LINE
  5
3A69
330
A
100
AcDbEntity
  8
MODEL
100
AcDbLine
 10
304.3968530530033
 20
889.045191137353
 30
0.0
 11
304.3968530530033
 21
929.545191137353
 31
0.0
  0
LINE
  5
3A6A
330
A
100
AcDbEntity
  8
MODEL
100
AcDbLine
 10
281.4407572664034
 20
1129.462417555553
 30
0.0
 11
285.0921532256032
 21
1129.462417555553
 31
0.0
  0
LINE
  5
3A6B
330
A
100
AcDbEntity
  8
MODEL
100
AcDbLine
 10
302.7016645852034
 20
1129.462417555553
 30
0.0
 11
285.0921532256032
 21
1129.462417555553
 31
0.0
  0
LINE
  5
3A6C
330
A
100
AcDbEntity
  8
MODEL
100
AcDbLine
 10
302.7016645852034
 20
1129.462417555553
 30
0.0
 11
306.3529489958032
 21
1129.462417555553
 31
0.0
  0
ARC
  5
3A6D
330
A
100
AcDbEntity
  8
MODEL
100
AcDbCircle
 10
229.2545692862034
 20
1124.992185658753
 30
0.0
 40
55.89901565049402
100
AcDbArc
 50
5.868413841199889
 51
47.96837897920008
  0
ARC
  5
3A6E
330
A
100
AcDbEntity
  8
MODEL
100
AcDbCircle
 10
358.7602221150032
 20
1124.879912020753
 30
0.0
 40
56.1304915751383
100
AcDbArc
 50
132.1225020437997
 51
174.0406637901999
  0
SPLINE
  5
3A6F
330
A
100
AcDbEntity
  8
MODEL
100
AcDbSpline
210
0.0
220
0.0
230
1.0
 70
     8
 71
     3
 72
    25
 73
    21
 74
     0
 42
0.000000001
 43
0.0000000001
 40
0.0
 40
0.0
 40
0.0
 40
0.0
 40
0.0304942108704519
 40
0.0688743564832181
 40
0.1100235012380034
 40
0.1540682458226728
 40
0.2011696195879321
 40
0.2515261672854688
 40
0.3053764418768838
 40
0.3630007878231606
 40
0.418103209552568
 40
0.4767562456978635
 40
0.5392491799685176
 40
0.6058982115551967
 40
0.6770456361240934
 40
0.7363431888421811
 40
0.7988328449803941
 40
0.8647121322976832
 40
0.9341871281431585
 40
1.0
 40
1.0
 40
1.0
 40
1.0
 10
306.6565987482597
 20
1129.75450765347
 30
0.0
 10
306.6704818757664
 20
1130.227082239305
 30
0.0
 10
306.6993241602734
 20
1131.129305135785
 30
0.0
 10
306.8284403595906
 20
1132.708654548931
 30
0.0
 10
307.0414346556861
 20
1134.427359308795
 30
0.0
 10
307.3569418634702
 20
1136.268946611589
 30
0.0
 10
307.7879855808135
 20
1138.216088688965
 30
0.0
 10
308.3522743712831
 20
1140.273903348912
 30
0.0
 10
309.067312820529
 20
1142.44082164434
 30
0.0
 10
309.9180488730008
 20
1144.630259330154
 30
0.0
 10
310.9032430539132
 20
1146.836653551447
 30
0.0
 10
312.0213268365974
 20
1149.055938330182
 30
0.0
 10
313.3209550888112
 20
1151.362863891117
 30
0.0
 10
314.8178702594635
 20
1153.757303970162
 30
0.0
 10
316.3950491659373
 20
1156.045578887261
 30
0.0
 10
318.0232606345451
 20
1158.222967591549
 30
0.0
 10
319.679835799391
 20
1160.290327753486
 30
0.0
 10
321.4842536100825
 20
1162.397504474626
 30
0.0
 10
323.4321901721185
 20
1164.536944012245
 30
0.0
 10
324.66967486608
 20
1165.800559857769
 30
0.0
 10
325.3852316057194
 20
1166.527953898408
 30
0.0
  0
SPLINE
  5
3A70
330
A
100
AcDbEntity
  8
MODEL
100
AcDbSpline
210
0.0
220
0.0
230
1.0
 70
     8
 71
     3
 72
    37
 73
    33
 74
     0
 42
0.000000001
 43
0.0000000001
 40
0.0
 40
0.0
 40
0.0
 40
0.0
 40
0.0509618892277978
 40
0.1045951990759759
 40
0.153685107232682
 40
0.1984652402432869
 40
0.2391460295867499
 40
0.2759157079591913
 40
0.3089413861763885
 40
0.3383701912292663
 40
0.3722324150992293
 40
0.4001823470870174
 40
0.4224250392007273
 40
0.4393784316887909
 40
0.4532417249317775
 40
0.4645227350235207
 40
0.4713111133378428
 40
0.4785656828394473
 40
0.490196872066951
 40
0.5062629101709788
 40
0.526676662550119
 40
0.5513313879543373
 40
0.5801045444010168
 40
0.6128627165704106
 40
0.6541120115368801
 40
0.6999981240800939
 40
0.7503539401529655
 40
0.8050542675731702
 40
0.851042065583583
 40
0.899684680618456
 40
0.9510371763742842
 40
1.0
 40
1.0
 40
1.0
 40
1.0
 10
262.4092074993237
 20
1166.528613431701
 30
0.0
 10
262.9640843999625
 20
1165.966106412935
 30
0.0
 10
263.9226439176889
 20
1164.991150808026
 30
0.0
 10
265.4271161209113
 20
1163.371633511702
 30
0.0
 10
266.8011351912494
 20
1161.825621415248
 30
0.0
 10
268.0304442717111
 20
1160.378004634825
 30
0.0
 10
269.1167060005412
 20
1159.041384393745
 30
0.0
 10
270.0738228676246
 20
1157.812824562788
 30
0.0
 10
270.9117163847475
 20
1156.692996600659
 30
0.0
 10
271.7051828782303
 20
1155.591364718911
 30
0.0
 10
272.4367491517901
 20
1154.533575280894
 30
0.0
 10
273.0915344355988
 20
1153.546149531156
 30
0.0
 10
273.6015590629327
 20
1152.748883142868
 30
0.0
 10
273.9962245588613
 20
1152.113618346448
 30
0.0
 10
274.3039873750779
 20
1151.60630383363
 30
0.0
 10
274.5340358470687
 20
1151.219446192617
 30
0.0
 10
274.7144979269262
 20
1150.911488413638
 30
0.0
 10
274.8958809577759
 20
1150.598354575361
 30
0.0
 10
275.1398914022907
 20
1150.17038498019
 30
0.0
 10
275.4697649656148
 20
1149.577894101194
 30
0.0
 10
275.8786112091113
 20
1148.819345621896
 30
0.0
 10
276.356506117017
 20
1147.89469412931
 30
0.0
 10
276.8913475428537
 20
1146.803871680933
 30
0.0
 10
277.4961734329427
 20
1145.487307049416
 30
0.0
 10
278.1530182074291
 20
1143.929898081971
 30
0.0
 10
278.8363499540185
 20
1142.115906688794
 30
0.0
 10
279.496236445143
 20
1140.092241524789
 30
0.0
 10
280.0511344420329
 20
1138.036629312072
 30
0.0
 10
280.4946510283669
 20
1135.97539414588
 30
0.0
 10
280.8238084955292
 20
1133.95444908561
 30
0.0
 10
281.0583724107189
 20
1131.823844070708
 30
0.0
 10
281.1086555334168
 20
1130.512915910698
 30
0.0
 10
281.134851597016
 20
1129.754233964491
 30
0.0
  0
ARC
  5
3A71
330
A
100
AcDbEntity
  8
MODEL
100
AcDbCircle
 10
281.4407567774033
 20
1129.762417555553
 30
0.0
 40
0.3000000000000016
100
AcDbArc
 50
181.7583365727921
 51
269.999999921965
  0
ARC
  5
3A72
330
A
100
AcDbEntity
  8
MODEL
100
AcDbCircle
 10
306.3529495422033
 20
1129.762417555553
 30
0.0
 40
0.2999999999999564
100
AcDbArc
 50
270.0000000773837
 51
358.9911228473709
  0
ARC
  5
3A73
330
A
100
AcDbEntity
  8
MODEL
100
AcDbCircle
 10
325.1722219104033
 20
1166.745191137353
 30
0.0
 40
0.2999999999999672
100
AcDbArc
 50
314.5037833399309
 51
89.99999521654347
  0
ARC
  5
3A74
330
A
100
AcDbEntity
  8
MODEL
100
AcDbCircle
 10
262.6215040388031
 20
1166.745191137353
 30
0.0
 40
0.300000000000157
100
AcDbArc
 50
90.00000457597106
 51
225.7279238203034
  0
LINE
  5
3A75
330
A
100
AcDbEntity
  8
MODEL
100
AcDbLine
 10
263.8524503366032
 20
1167.540827868553
 30
0.0
 11
263.8091657872033
 21
1173.845399875353
 31
0.0
  0
LINE
  5
3A76
330
A
100
AcDbEntity
  8
MODEL
100
AcDbLine
 10
328.3386659132032
 20
1167.045191137353
 30
0.0
 11
323.4653784888033
 21
1167.045191137353
 31
0.0
  0
LINE
  5
3A77
330
A
100
AcDbEntity
  8
MODEL
100
AcDbLine
 10
323.4653784888033
 20
1167.045191137353
 30
0.0
 11
264.3255885938031
 21
1167.045191137353
 31
0.0
  0
LINE
  5
3A78
330
A
100
AcDbEntity
  8
MODEL
100
AcDbLine
 10
259.4520723528033
 20
1167.045191137353
 30
0.0
 11
264.3255936792032
 21
1167.045191137353
 31
0.0
  0
LINE
  5
3A79
330
A
100
AcDbEntity
  8
MODEL
100
AcDbLine
 10
323.9818028696034
 20
1173.845399875353
 30
0.0
 11
323.9385178682032
 21
1167.540827869753
 31
0.0
  0
LINE
  5
3A7A
330
A
100
AcDbEntity
  8
MODEL
100
AcDbLine
 10
323.6704765410034
 20
1173.845399875353
 30
0.0
 11
264.1204967240033
 21
1173.845399875353
 31
0.0
  0
LINE
  5
3A7B
330
A
100
AcDbEntity
  8
MODEL
100
AcDbLine
 10
264.1204967240033
 20
1173.845399875353
 30
0.0
 11
263.8091657872033
 21
1173.845399875353
 31
0.0
  0
LINE
  5
3A7C
330
A
100
AcDbEntity
  8
MODEL
100
AcDbLine
 10
258.8970272688032
 20
1173.845399875353
 30
0.0
 11
263.8091683486034
 21
1173.845399875353
 31
0.0
  0
LINE
  5
3A7D
330
A
100
AcDbEntity
  8
MODEL
100
AcDbLine
 10
328.8926951842034
 20
1173.845399875353
 30
0.0
 11
323.9818028696034
 21
1173.845399875353
 31
0.0
  0
LINE
  5
3A7E
330
A
100
AcDbEntity
  8
MODEL
100
AcDbLine
 10
323.9818028696034
 20
1173.845399875353
 30
0.0
 11
323.6704765410034
 21
1173.845399875353
 31
0.0
  0
ARC
  5
3A7F
330
A
100
AcDbEntity
  8
MODEL
100
AcDbCircle
 10
328.3386684642032
 20
1167.545191137353
 30
0.0
 40
0.4999999999984452
100
AcDbArc
 50
270.0
 51
359.8519858867766
  0
ARC
  5
3A80
330
A
100
AcDbEntity
  8
MODEL
100
AcDbCircle
 10
259.4520696998031
 20
1167.545191137353
 30
0.0
 40
0.4999999999999946
100
AcDbArc
 50
180.8455002843114
 51
270.0
  0
LINE
  5
3A81
330
A
100
AcDbEntity
  8
MODEL
100
AcDbLine
 10
328.8386494148033
 20
1167.540827848353
 30
0.0
 11
328.8936685814031
 21
1173.845399875353
 31
0.0
  0
LINE
  5
3A82
330
A
100
AcDbEntity
  8
MODEL
100
AcDbLine
 10
258.8970272688032
 20
1173.845399875353
 30
0.0
 11
258.9520902164033
 21
1167.540658615553
 31
0.0
  0
LINE
  5
3A83
330
A
100
AcDbEntity
  8
MODEL
100
AcDbLine
 10
284.6179866326031
 20
1188.345399875353
 30
0.0
 11
303.1729866326034
 21
1188.345399875353
 31
0.0
  0
LINE
  5
3A84
330
A
100
AcDbEntity
  8
MODEL
100
AcDbLine
 10
304.3729866326032
 20
1187.145399875353
 30
0.0
 11
283.4179866326033
 21
1187.145399875353
 31
0.0
  0
LINE
  5
3A85
330
A
100
AcDbEntity
  8
MODEL
100
AcDbLine
 10
283.4179866326033
 20
1187.145399875353
 30
0.0
 11
283.4179866326033
 21
1173.845399875353
 31
0.0
  0
LINE
  5
3A86
330
A
100
AcDbEntity
  8
MODEL
100
AcDbLine
 10
304.3729866326032
 20
1173.845399875353
 30
0.0
 11
304.3729866326032
 21
1187.145399875353
 31
0.0
  0
LINE
  5
3A87
330
A
100
AcDbEntity
  8
MODEL
100
AcDbLine
 10
304.3729866326032
 20
1187.145399875353
 30
0.0
 11
303.1729866326034
 21
1188.345399875353
 31
0.0
  0
LINE
  5
3A88
330
A
100
AcDbEntity
  8
MODEL
100
AcDbLine
 10
284.6179866326031
 20
1188.345399875353
 30
0.0
 11
283.4179866326033
 21
1187.145399875353
 31
0.0
  0
LINE
  5
3A89
330
A
100
AcDbEntity
  8
MODEL
100
AcDbLine
 10
303.2109866326034
 20
1188.307399875353
 30
0.0
 11
303.2109866326034
 21
1173.845399875353
 31
0.0
  0
LINE
  5
3A8A
330
A
100
AcDbEntity
  8
MODEL
100
AcDbLine
 10
284.5799866326031
 20
1188.307399875353
 30
0.0
 11
284.5799866326031
 21
1173.845399875353
 31
0.0
  0
DIMENSION
  5
3A8C
330
A
100
AcDbEntity
  8
DIM
100
AcDbDimension
  2
*D21
 10
226.4925378271562
 20
605.2254346444607
 30
0.0
 11
226.4925378271562
 21
640.1963604400607
 31
0.0
 70
   161
 71
     5
 42
69.94185377920007
 73
     0
 74
     0
 75
     0
  3
tfrom線あり
100
AcDbAlignedDimension
 13
283.2686106571562
 23
675.1672884236608
 33
0.0
 14
283.2686106571562
 24
605.2254346444607
 34
0.0
  0
DIMENSION
  5
3A8D
330
A
100
AcDbEntity
  8
DIM
100
AcDbDimension
  2
*D22
 10
828.0620318280924
 20
501.79673352503
 30
0.0
 11
685.6619239174922
 21
501.79673352503
 31
0.0
 70
   160
  1
\A1;<>
 71
     5
 42
284.800208738
 73
     0
 74
     0
 75
     0
  3
tfrom線あり
100
AcDbAlignedDimension
 13
543.2618230900923
 23
577.6963589914608
 33
0.0
 14
828.0620318280924
 24
535.268163583544
 34
0.0
100
AcDbRotatedDimension
  0
DIMENSION
  5
3A8F
330
A
100
AcDbEntity
  8
DIM
100
AcDbDimension
  2
*D24
 10
888.6971914299279
 20
640.1963589914608
 30
0.0
 11
888.6971914299279
 21
613.9463607390608
 31
0.0
 70
   160
  1
\A1;<>
 71
     5
 42
52.49999743299998
 73
     0
 74
     0
 75
     0
  3
tfrom線あり
100
AcDbAlignedDimension
 13
837.3395318280925
 23
587.6963615584608
 33
0.0
 14
793.4464113883093
 24
640.1963589914608
 34
0.0
 50
90.0
100
AcDbRotatedDimension
  0
DIMENSION
  5
3A90
330
A
100
AcDbEntity
  8
DIM
100
AcDbDimension
  2
*D25
 10
528.7618230900923
 20
501.79673352503
 30
0.0
 11
536.0118232988923
 21
501.79673352503
 31
0.0
 70
   160
  1
\A1;<>
 71
     5
 42
14.5
 73
     0
 74
     0
 75
     0
  3
tfrom線あり
100
AcDbAlignedDimension
 13
543.2618230900923
 23
577.6963589914608
 33
0.0
 14
528.7618230900923
 24
630.9188589914608
 34
0.0
100
AcDbRotatedDimension
  0
LINE
  5
3B01
330
A
100
AcDbEntity
  8
MODEL
  6
CENTER
 48
0.025
100
AcDbLine
 10
787.5620318280924
 20
640.1963615584608
 30
0.0
 11
557.7955225254414
 21
640.1963615584608
 31
0.0
  0
ARC
  5
3B04
330
A
100
AcDbEntity
  8
MODEL
  6
CENTER
 48
0.025
100
AcDbCircle
 10
787.5620318280924
 20
599.6963615584608
 30
0.0
 40
40.49999999999998
100
AcDbArc
 50
0.0
 51
90.0
  0
LINE
  5
3B06
330
A
100
AcDbEntity
  8
MODEL
  6
CENTER
 48
0.025
100
AcDbLine
 10
828.0620318280924
 20
599.6963615584608
 30
0.0
 11
828.0620318280924
 21
579.8191255284537
 31
0.0
  0
MTEXT
  5
3B3D
330
A
100
AcDbEntity
  8
DIM
390
1D
100
AcDbMText
 10
466.2868663030456
 20
648.5989113876997
 30
0.0
 40
12.21630859375
 41
0.0
 46
15.99994369140625
 71
     1
 72
     1
  1
{G1/2" \H1.30972x;▶}
  7
ＭＳ ゴシック
 73
     1
 44
0.7828267384257843
1001
ACAD
1000
ACAD_MTEXT_DEFINED_HEIGHT_BEGIN
1070
    46
1040
15.99994369140625
1000
ACAD_MTEXT_DEFINED_HEIGHT_END
  0
MTEXT
  5
3B6D
102
{ACAD_REACTORS
330
3B6F
102
}
330
A
100
AcDbEntity
  8
DIM
390
1D
100
AcDbMText
 10
819.4505371017801
 20
564.0233412383249
 30
0.0
 40
12.21630859375
 41
0.0
 46
15.99994369140625
 71
     1
 72
     1
  1
{\H1.30972x;▶}
  7
ＭＳ ゴシック
 11
6.123233995736766E-17
 21
1.0
 31
0.0
 73
     1
 44
0.7828267384257843
1001
ACAD
1000
ACAD_MTEXT_DEFINED_HEIGHT_BEGIN
1070
    46
1040
15.99994369140625
1000
ACAD_MTEXT_DEFINED_HEIGHT_END
  0
MTEXT
  5
3B6E
102
{ACAD_REACTORS
330
3B6F
102
}
330
A
100
AcDbEntity
  8
DIM
390
1D
100
AcDbMText
 10
811.4599118438484
 20
556.7579990284215
 30
0.0
 40
12.21630859375
 41
0.0
 46
13.9510244140625
 71
     1
 72
     1
  1
{G1/2"}
  7
ＭＳ ゴシック
 73
     1
 44
0.7828267384257843
1001
ACAD
1000
ACAD_MTEXT_DEFINED_HEIGHT_BEGIN
1070
    46
1040
13.9510244140625
1000
ACAD_MTEXT_DEFINED_HEIGHT_END
  0
VIEWPORT
  5
349
330
B
100
AcDbEntity
 67
     1
  8
0
100
AcDbViewport
 10
202.5
 20
128.5
 30
0.0
 40
486.0
 41
308.4
 68
     1
 69
     1
 12
202.5
 22
128.5
 13
0.0
 23
0.0
 14
0.5
 24
0.5
 15
0.0
 25
0.0
 16
0.0
 26
0.0
 36
1.0
 17
0.0
 27
0.0
 37
0.0
 42
50.0
 43
0.0
 44
0.0
 45
308.4
 50
0.0
 51
0.0
 72
   100
 90
   557152
  1

281
     0
 71
     1
 74
     0
110
0.0
120
0.0
130
0.0
111
1.0
121
0.0
131
0.0
112
0.0
122
1.0
132
0.0
 79
     0
146
0.0
170
     0
 61
     5
348
26C
292
     1
282
     1
141
0.0
142
0.0
 63
   256
  0
VIEWPORT
  5
34A
330
B
100
AcDbEntity
 67
     1
  8
0
100
AcDbViewport
 10
202.5
 20
128.5
 30
0.0
 40
324.0
 41
205.6
 68
     2
 69
     2
 12
986.6781359294573
 22
1427.077061889956
 13
0.0
 23
0.0
 14
0.5
 24
0.5
 15
0.0
 25
0.0
 16
0.0
 26
0.0
 36
1.0
 17
0.0
 27
0.0
 37
0.0
 42
50.0
 43
0.0
 44
0.0
 45
2890.021615685494
 50
0.0
 51
0.0
 72
   100
 90
   557152
  1

281
     0
 71
     1
 74
     0
110
0.0
120
0.0
130
0.0
111
1.0
121
0.0
131
0.0
112
0.0
122
1.0
132
0.0
 79
     0
146
0.0
170
     0
 61
     5
348
26C
292
     1
282
     1
141
0.0
142
0.0
 63
   256
  0
ENDSEC
  0
SECTION
  2
OBJECTS
  0
DICTIONARY
  5
19
330
0
100
AcDbDictionary
281
     1
  3
ACAD_COLOR
350
674
  3
ACAD_DETAILVIEWSTYLE
350
BBF
  3
ACAD_FIELDLIST
350
3446
  3
ACAD_GROUP
350
1A
  3
ACAD_IMAGE_VARS
350
27B
  3
ACAD_LAYOUT
350
1E
  3
ACAD_MATERIAL
350
263
  3
ACAD_MLEADERSTYLE
350
336
  3
ACAD_MLINESTYLE
350
1B
  3
ACAD_PLOTSETTINGS
350
22
  3
ACAD_PLOTSTYLENAME
350
1F
  3
ACAD_SCALELIST
350
241
  3
ACAD_SECTIONVIEWSTYLE
350
BC0
  3
ACAD_TABLESTYLE
350
278
  3
ACAD_VISUALSTYLE
350
267
  3
ACDB_RECOMPOSE_DATA
350
3B9C
  3
AcDbVariableDictionary
350
330
  3
APPDATA
350
27A
  3
DimOffsetDictionary
350
E38
  0
SUN
  5
904
330
15
100
AcDbSun
 90
        1
290
     0
 63
     7
421
 16777215
 40
1.0
291
     1
 91
  2455826
 92
 54000000
292
     0
 70
     2
 71
   256
280
     1
  0
DICTIONARY
  5
2E1
330
2
100
AcDbDictionary
280
     1
281
     1
  3
ACAD_LAYERSTATES
360
2E2
  3
ACLYDICTIONARY
360
DDE
  0
DICTIONARY
  5
3444
330
3442
100
AcDbDictionary
280
     1
281
     1
  3
ACAD_FIELD
360
38C7
  0
DICTIONARY
  5
674
102
{ACAD_REACTORS
330
19
102
}
330
19
100
AcDbDictionary
281
     1
  0
DICTIONARY
  5
BBF
102
{ACAD_REACTORS
330
19
102
}
330
19
100
AcDbDictionary
281
     1
  0
FIELDLIST
  5
3446
102
{ACAD_REACTORS
330
19
102
}
330
19
100
AcDbIdSet
 90
        2
330
3447
330
3443
100
AcDbFieldList
  0
DICTIONARY
  5
1A
102
{ACAD_REACTORS
330
19
102
}
330
19
100
AcDbDictionary
281
     1
  3
*A1
350
3B6F
  0
RASTERVARIABLES
  5
27B
102
{ACAD_REACTORS
330
19
102
}
330
19
100
AcDbRasterVariables
 90
        0
 70
     1
 71
     1
 72
     1
  0
DICTIONARY
  5
1E
102
{ACAD_REACTORS
330
19
102
}
330
19
100
AcDbDictionary
281
     1
  3
Layout1
350
21
  3
Model
350
20
  0
DICTIONARY
  5
263
102
{ACAD_REACTORS
330
19
102
}
330
19
100
AcDbDictionary
281
     1
  3
ByBlock
350
38D1
  3
ByLayer
350
264
  3
Global
350
266
  0
DICTIONARY
  5
336
102
{ACAD_REACTORS
330
19
102
}
330
19
100
AcDbDictionary
281
     1
  3
Standard
350
D59
  0
DICTIONARY
  5
1B
102
{ACAD_REACTORS
330
19
102
}
330
19
100
AcDbDictionary
281
     1
  3
Standard
350
1C
  0
DICTIONARY
  5
22
102
{ACAD_REACTORS
330
19
102
}
330
19
100
AcDbDictionary
281
     1
  0
ACDBDICTIONARYWDFLT
  5
1F
102
{ACAD_REACTORS
330
19
102
}
330
19
100
AcDbDictionary
281
     1
  3
Normal
350
1D
100
AcDbDictionaryWithDefault
340
1D
  0
DICTIONARY
  5
241
102
{ACAD_REACTORS
330
19
102
}
330
19
100
AcDbDictionary
281
     1
  3
A0
350
242
  3
A1
350
243
  3
A2
350
244
  3
A3
350
245
  3
A4
350
246
  3
A5
350
247
  3
A6
350
248
  3
A7
350
249
  3
A8
350
24A
  3
A9
350
24B
  3
B0
350
24C
  3
B1
350
24D
  3
B2
350
24E
  3
B3
350
24F
  3
B4
350
250
  3
B5
350
251
  3
B6
350
252
  3
B7
350
253
  3
B8
350
254
  3
B9
350
255
  3
C0
350
256
  3
C1
350
257
  3
C2
350
258
  3
C3
350
259
  3
C4
350
25A
  3
C5
350
25B
  3
C6
350
25C
  3
C7
350
25D
  3
C8
350
25E
  3
C9
350
25F
  3
D0
350
260
  3
D1
350
261
  3
D2
350
262
  0
DICTIONARY
  5
BC0
102
{ACAD_REACTORS
330
19
102
}
330
19
100
AcDbDictionary
281
     1
  0
DICTIONARY
  5
278
102
{ACAD_REACTORS
330
19
102
}
330
19
100
AcDbDictionary
281
     1
  3
Standard
350
279
  0
DICTIONARY
  5
267
102
{ACAD_REACTORS
330
19
102
}
330
19
100
AcDbDictionary
281
     1
  3
2dWireframe
350
26C
  3
3D Hidden
350
26E
  3
3dWireframe
350
26D
  3
Basic
350
26F
  3
Brighten
350
273
  3
ColorChange
350
277
  3
Conceptual
350
271
  3
Dim
350
272
  3
EdgeColorOff
350
8FE
  3
Facepattern
350
276
  3
Flat
350
268
  3
FlatWithEdges
350
269
  3
Gouraud
350
26A
  3
GouraudWithEdges
350
26B
  3
Hidden
350
8FB
  3
JitterOff
350
8FC
  3
Linepattern
350
275
  3
OverhangOff
350
8FD
  3
Realistic
350
270
  3
Shaded
350
903
  3
Shaded with edges
350
902
  3
Shades of Gray
350
8FF
  3
Sketchy
350
900
  3
Thicken
350
274
  3
Wireframe
350
8FA
  3
X-Ray
350
901
  0
XRECORD
  5
3B9C
102
{ACAD_REACTORS
330
19
102
}
330
19
100
AcDbXrecord
280
     1
 90
        1
330
279
  0
DICTIONARY
  5
330
102
{ACAD_REACTORS
330
19
102
}
330
19
100
AcDbDictionary
281
     1
  3
CANNOSCALE
350
331
  3
CMLEADERSTYLE
350
D5E
  3
CTABLESTYLE
350
335
  3
HPTRANSPARENCY
350
D52
  3
XCLIPFRAME
350
896
  0
DICTIONARY
  5
27A
102
{ACAD_REACTORS
330
19
102
}
330
19
100
AcDbDictionary
281
     1
  0
DICTIONARY
  5
E38
102
{ACAD_REACTORS
330
19
102
}
330
19
100
AcDbDictionary
281
     1
  3
DIMRAILANGLE
350
1614
  3
DIMRAILFIRSTOFFSET
350
1612
  3
DIMRAILOFFSET
350
1613
  3
DIMRAILSENABLED
350
1615
  0
DICTIONARY
  5
2E2
102
{ACAD_REACTORS
330
2E1
102
}
330
2E1
100
AcDbDictionary
281
     1
  3
ARGON_LAYERP_9
350
7AA
  0
DICTIONARY
  5
DDE
102
{ACAD_REACTORS
330
2E1
102
}
330
2E1
100
AcDbDictionary
281
     1
1001
ACAD
1000
<All
  0
DICTIONARY
  5
38C7
102
{ACAD_REACTORS
330
3444
102
}
330
3444
100
AcDbDictionary
280
     1
281
     1
  3
TEXT
360
3443
  0
GROUP
  5
3B6F
102
{ACAD_REACTORS
330
1A
102
}
330
1A
100
AcDbGroup
300

 70
     1
 71
     1
340
3B6D
340
3B6E
  0
LAYOUT
  5
21
102
{ACAD_REACTORS
330
1E
102
}
330
1E
100
AcDbPlotSettings
  1

  2
none_device
  4
ISO_A3_(420.00_x_297.00_MM)
  6

 40
7.5
 41
20.0
 42
7.5
 43
20.0
 44
420.0
 45
297.0
 46
0.0
 47
0.0
 48
0.0
 49
0.0
140
0.0
141
0.0
142
1.0
143
1.0
 70
     0
 72
     1
 73
     0
 74
     0
  7

 75
     0
 76
     0
 77
     2
 78
   300
147
1.0
148
0.0
149
0.0
100
AcDbLayout
  1
Layout1
 70
     0
 71
     0
 10
-7.5
 20
-20.0
 11
412.5
 21
277.0
 12
0.0
 22
0.0
 32
0.0
 14
0.0
 24
0.0
 34
0.0
 15
0.0
 25
0.0
 35
0.0
146
0.0
 13
0.0
 23
0.0
 33
0.0
 16
0.0
 26
0.0
 36
0.0
 17
0.0
 27
0.0
 37
0.0
 76
     0
330
B
331
349
  0
LAYOUT
  5
20
102
{ACAD_REACTORS
330
1E
102
}
330
1E
100
AcDbPlotSettings
  1

  2
none_device
  4
ISO_A3_(420.00_x_297.00_MM)
  6

 40
7.5
 41
20.0
 42
7.5
 43
20.0
 44
420.0
 45
297.0
 46
0.0
 47
0.0
 48
0.0
 49
0.0
140
0.0
141
0.0
142
1.0
143
1.0
 70
  1024
 72
     1
 73
     0
 74
     0
  7

 75
     0
 76
     0
 77
     2
 78
   300
147
1.0
148
0.0
149
0.0
100
AcDbLayout
  1
Model
 70
     0
 71
     1
 10
0.0
 20
0.0
 11
1050.0
 21
1485.0
 12
0.0
 22
0.0
 32
0.0
 14
0.0
 24
0.0
 34
-0.0000000000000071
 15
1050.0
 25
1485.0
 35
0.0000000000000142
146
0.0
 13
0.0
 23
0.0
 33
0.0
 16
0.0
 26
0.0
 36
0.0
 17
0.0
 27
0.0
 37
0.0
 76
     0
330
A
331
15
  0
MATERIAL
  5
38D1
102
{ACAD_REACTORS
330
263
102
}
330
263
100
AcDbMaterial
  1
ByBlock
 72
     1
 94
      127
  0
MATERIAL
  5
264
102
{ACAD_REACTORS
330
263
102
}
330
263
100
AcDbMaterial
  1
ByLayer
 72
     1
 94
      127
  0
MATERIAL
  5
266
102
{ACAD_REACTORS
330
263
102
}
330
263
100
AcDbMaterial
  1
Global
 72
     1
 94
      127
  0
MLEADERSTYLE
  5
D59
102
{ACAD_REACTORS
330
336
102
}
330
336
100
AcDbMLeaderStyle
170
     2
171
     1
172
     0
 90
        2
 40
0.0
 41
0.0
173
     1
 91
-1056964608
340
11
 92
       -2
290
     1
 42
2.0
291
     1
 43
8.0
  3
Standard
341
0
 44
4.0
300

342
17
174
     1
178
     6
175
     1
176
     0
 93
-1056964608
 45
4.0
292
     0
297
     0
 46
4.0
343
0
 94
-1056964608
 47
1.0
 49
1.0
140
1.0
293
     1
141
0.0
294
     1
177
     0
142
1.0
295
     0
296
     0
143
3.75
1001
ACAD_MLEADERVER
1070
     2
  0
MLINESTYLE
  5
1C
102
{ACAD_REACTORS
330
1B
102
}
330
1B
100
AcDbMlineStyle
  2
Standard
 70
     0
  3

 62
     0
 51
90.0
 52
90.0
 71
     2
 49
0.5
 62
   256
  6
BYLAYER
 49
-0.5
 62
   256
  6
BYLAYER
  0
ACDBPLACEHOLDER
  5
1D
102
{ACAD_REACTORS
330
1F
102
}
330
1F
  0
SCALE
  5
242
102
{ACAD_REACTORS
330
241
102
}
330
241
100
AcDbScale
 70
     0
300
1:1
140
1.0
141
1.0
290
     1
  0
SCALE
  5
243
102
{ACAD_REACTORS
330
241
102
}
330
241
100
AcDbScale
 70
     0
300
1:2
140
1.0
141
2.0
290
     0
  0
SCALE
  5
244
102
{ACAD_REACTORS
330
241
102
}
330
241
100
AcDbScale
 70
     0
300
1:4
140
1.0
141
4.0
290
     0
  0
SCALE
  5
245
102
{ACAD_REACTORS
330
241
102
}
330
241
100
AcDbScale
 70
     0
300
1:5
140
1.0
141
5.0
290
     0
  0
SCALE
  5
246
102
{ACAD_REACTORS
330
241
102
}
330
241
100
AcDbScale
 70
     0
300
1:8
140
1.0
141
8.0
290
     0
  0
SCALE
  5
247
102
{ACAD_REACTORS
330
241
102
}
330
241
100
AcDbScale
 70
     0
300
1:10
140
1.0
141
10.0
290
     0
  0
SCALE
  5
248
102
{ACAD_REACTORS
330
241
102
}
330
241
100
AcDbScale
 70
     0
300
1:16
140
1.0
141
16.0
290
     0
  0
SCALE
  5
249
102
{ACAD_REACTORS
330
241
102
}
330
241
100
AcDbScale
 70
     0
300
1:20
140
1.0
141
20.0
290
     0
  0
SCALE
  5
24A
102
{ACAD_REACTORS
330
241
102
}
330
241
100
AcDbScale
 70
     0
300
1:30
140
1.0
141
30.0
290
     0
  0
SCALE
  5
24B
102
{ACAD_REACTORS
330
241
102
}
330
241
100
AcDbScale
 70
     0
300
1:40
140
1.0
141
40.0
290
     0
  0
SCALE
  5
24C
102
{ACAD_REACTORS
330
241
102
}
330
241
100
AcDbScale
 70
     0
300
1:50
140
1.0
141
50.0
290
     0
  0
SCALE
  5
24D
102
{ACAD_REACTORS
330
241
102
}
330
241
100
AcDbScale
 70
     0
300
1:100
140
1.0
141
100.0
290
     0
  0
SCALE
  5
24E
102
{ACAD_REACTORS
330
241
102
}
330
241
100
AcDbScale
 70
     0
300
2:1
140
2.0
141
1.0
290
     0
  0
SCALE
  5
24F
102
{ACAD_REACTORS
330
241
102
}
330
241
100
AcDbScale
 70
     0
300
4:1
140
4.0
141
1.0
290
     0
  0
SCALE
  5
250
102
{ACAD_REACTORS
330
241
102
}
330
241
100
AcDbScale
 70
     0
300
8:1
140
8.0
141
1.0
290
     0
  0
SCALE
  5
251
102
{ACAD_REACTORS
330
241
102
}
330
241
100
AcDbScale
 70
     0
300
10:1
140
10.0
141
1.0
290
     0
  0
SCALE
  5
252
102
{ACAD_REACTORS
330
241
102
}
330
241
100
AcDbScale
 70
     0
300
100:1
140
100.0
141
1.0
290
     0
  0
SCALE
  5
253
102
{ACAD_REACTORS
330
241
102
}
330
241
100
AcDbScale
 70
     0
300
1/128" = 1'-0"
140
0.0078125
141
12.0
290
     0
  0
SCALE
  5
254
102
{ACAD_REACTORS
330
241
102
}
330
241
100
AcDbScale
 70
     0
300
1/64" = 1'-0"
140
0.015625
141
12.0
290
     0
  0
SCALE
  5
255
102
{ACAD_REACTORS
330
241
102
}
330
241
100
AcDbScale
 70
     0
300
1/32" = 1'-0"
140
0.03125
141
12.0
290
     0
  0
SCALE
  5
256
102
{ACAD_REACTORS
330
241
102
}
330
241
100
AcDbScale
 70
     0
300
1/16" = 1'-0"
140
0.0625
141
12.0
290
     0
  0
SCALE
  5
257
102
{ACAD_REACTORS
330
241
102
}
330
241
100
AcDbScale
 70
     0
300
3/32" = 1'-0"
140
0.09375
141
12.0
290
     0
  0
SCALE
  5
258
102
{ACAD_REACTORS
330
241
102
}
330
241
100
AcDbScale
 70
     0
300
1/8" = 1'-0"
140
0.125
141
12.0
290
     0
  0
SCALE
  5
259
102
{ACAD_REACTORS
330
241
102
}
330
241
100
AcDbScale
 70
     0
300
3/16" = 1'-0"
140
0.1875
141
12.0
290
     0
  0
SCALE
  5
25A
102
{ACAD_REACTORS
330
241
102
}
330
241
100
AcDbScale
 70
     0
300
1/4" = 1'-0"
140
0.25
141
12.0
290
     0
  0
SCALE
  5
25B
102
{ACAD_REACTORS
330
241
102
}
330
241
100
AcDbScale
 70
     0
300
3/8" = 1'-0"
140
0.375
141
12.0
290
     0
  0
SCALE
  5
25C
102
{ACAD_REACTORS
330
241
102
}
330
241
100
AcDbScale
 70
     0
300
1/2" = 1'-0"
140
0.5
141
12.0
290
     0
  0
SCALE
  5
25D
102
{ACAD_REACTORS
330
241
102
}
330
241
100
AcDbScale
 70
     0
300
3/4" = 1'-0"
140
0.75
141
12.0
290
     0
  0
SCALE
  5
25E
102
{ACAD_REACTORS
330
241
102
}
330
241
100
AcDbScale
 70
     0
300
1" = 1'-0"
140
1.0
141
12.0
290
     0
  0
SCALE
  5
25F
102
{ACAD_REACTORS
330
241
102
}
330
241
100
AcDbScale
 70
     0
300
1-1/2" = 1'-0"
140
1.5
141
12.0
290
     0
  0
SCALE
  5
260
102
{ACAD_REACTORS
330
241
102
}
330
241
100
AcDbScale
 70
     0
300
3" = 1'-0"
140
3.0
141
12.0
290
     0
  0
SCALE
  5
261
102
{ACAD_REACTORS
330
241
102
}
330
241
100
AcDbScale
 70
     0
300
6" = 1'-0"
140
6.0
141
12.0
290
     0
  0
SCALE
  5
262
102
{ACAD_REACTORS
330
241
102
}
330
241
100
AcDbScale
 70
     0
300
1'-0" = 1'-0"
140
12.0
141
12.0
290
     0
  0
TABLESTYLE
  5
279
102
{ACAD_REACTORS
330
278
102
}
102
{ACAD_XDICTIONARY
360
3B9A
102
}
330
278
100
AcDbTableStyle
  3
Standard
 70
     0
 71
     0
 40
0.06
 41
0.06
280
     0
281
     0
  7
Standard
140
4.5
170
     2
 62
     0
 63
   257
283
     0
 90
        4
 91
        0
  1

274
    -2
284
     1
 64
     0
275
    -2
285
     1
 65
     0
276
    -2
286
     1
 66
     0
277
    -2
287
     1
 67
     0
278
    -2
288
     1
 68
     0
279
    -2
289
     1
 69
     0
  7
Standard
140
6.0
170
     5
 62
     0
 63
   257
283
     0
 90
        4
 91
        0
  1

274
    -2
284
     1
 64
     0
275
    -2
285
     1
 65
     0
276
    -2
286
     1
 66
     0
277
    -2
287
     1
 67
     0
278
    -2
288
     1
 68
     0
279
    -2
289
     1
 69
     0
  7
Standard
140
4.5
170
     5
 62
     0
 63
   257
283
     0
 90
        4
 91
        0
  1

274
    -2
284
     1
 64
     0
275
    -2
285
     1
 65
     0
276
    -2
286
     1
 66
     0
277
    -2
287
     1
 67
     0
278
    -2
288
     1
 68
     0
279
    -2
289
     1
 69
     0
  0
VISUALSTYLE
  5
26C
102
{ACAD_REACTORS
330
267
102
}
330
267
100
AcDbVisualStyle
  2
2dWireframe
 70
     4
 71
     0
 72
     2
 73
     0
 90
        0
 40
-0.6
 41
-30.0
 62
     5
 63
     7
421
 16777215
 74
     1
 91
        4
 64
     7
 65
   257
 75
     1
175
     1
 42
1.0
 92
        0
 66
   257
 43
1.0
 76
     1
 77
     6
 78
     2
 67
     7
 79
     5
170
     0
171
     0
290
     0
174
     0
 93
        1
 44
0.0
173
     0
291
     0
 45
0.0
  0
VISUALSTYLE
  5
26E
102
{ACAD_REACTORS
330
267
102
}
330
267
100
AcDbVisualStyle
  2
3D Hidden
 70
     6
 71
     1
 72
     2
 73
     2
 90
        0
 40
-0.6
 41
-30.0
 62
     5
 63
     7
421
 16777215
 74
     2
 91
        2
 64
     7
 65
   257
 75
     2
175
     1
 42
40.0
 92
        0
 66
   257
 43
1.0
 76
     1
 77
     6
 78
     2
 67
     7
 79
     3
170
     0
171
     0
290
     0
174
     0
 93
        1
 44
0.0
173
     0
291
     0
 45
0.0
  0
VISUALSTYLE
  5
26D
102
{ACAD_REACTORS
330
267
102
}
330
267
100
AcDbVisualStyle
  2
3dWireframe
 70
     5
 71
     0
 72
     2
 73
     0
 90
        0
 40
-0.6
 41
-30.0
 62
     5
 63
     7
421
 16777215
 74
     1
 91
        4
 64
     7
 65
   257
 75
     1
175
     1
 42
1.0
 92
        0
 66
   257
 43
1.0
 76
     1
 77
     6
 78
     2
 67
     7
 79
     5
170
     0
171
     0
290
     0
174
     0
 93
        1
 44
0.0
173
     0
291
     0
 45
0.0
  0
VISUALSTYLE
  5
26F
102
{ACAD_REACTORS
330
267
102
}
330
267
100
AcDbVisualStyle
  2
Basic
 70
     7
 71
     1
 72
     0
 73
     1
 90
        0
 40
-0.6
 41
-30.0
 62
     5
 63
     7
421
 16777215
 74
     0
 91
        4
 64
     7
 65
   257
 75
     1
175
     1
 42
1.0
 92
        8
 66
     7
 43
1.0
 76
     1
 77
     6
 78
     2
 67
     7
 79
     5
170
     0
171
     0
290
     0
174
     0
 93
        1
 44
0.0
173
     0
291
     1
 45
0.0
  0
VISUALSTYLE
  5
273
102
{ACAD_REACTORS
330
267
102
}
330
267
100
AcDbVisualStyle
  2
Brighten
 70
    12
 71
     2
 72
     2
 73
     0
 90
        0
 40
-0.6
 41
-30.0
 62
     5
 63
     7
421
 16777215
 74
     1
 91
        4
 64
     7
 65
   257
 75
     1
175
     1
 42
1.0
 92
        8
 66
     7
 43
1.0
 76
     1
 77
     6
 78
     2
 67
     7
 79
     5
170
     0
171
     0
290
     0
174
     0
 93
        1
 44
50.0
173
     0
291
     1
 45
0.0
  0
VISUALSTYLE
  5
277
102
{ACAD_REACTORS
330
267
102
}
330
267
100
AcDbVisualStyle
  2
ColorChange
 70
    16
 71
     2
 72
     2
 73
     3
 90
        0
 40
-0.6
 41
-30.0
 62
     5
 63
     8
421
  8421504
 74
     1
 91
        4
 64
     7
 65
   257
 75
     1
175
     1
 42
1.0
 92
        8
 66
     8
424
  8421504
 43
1.0
 76
     1
 77
     6
 78
     2
 67
     7
 79
     5
170
     0
171
     0
290
     0
174
     0
 93
        1
 44
0.0
173
     0
291
     1
 45
0.0
  0
VISUALSTYLE
  5
271
102
{ACAD_REACTORS
330
267
102
}
330
267
100
AcDbVisualStyle
  2
Conceptual
 70
     9
 71
     3
 72
     2
 73
     0
 90
        0
 40
-0.6
 41
-30.0
 62
     5
 63
     7
421
 16777215
 74
     2
 91
        2
 64
     7
 65
   257
 75
     1
175
     1
 42
40.0
 92
        8
 66
     7
 43
1.0
 76
     1
 77
     6
 78
     2
 67
     7
 79
     3
170
     0
171
     0
290
     0
174
     0
 93
        1
 44
0.0
173
     0
291
     0
 45
0.0
  0
VISUALSTYLE
  5
272
102
{ACAD_REACTORS
330
267
102
}
330
267
100
AcDbVisualStyle
  2
Dim
 70
    11
 71
     2
 72
     2
 73
     0
 90
        0
 40
-0.6
 41
-30.0
 62
     5
 63
     7
421
 16777215
 74
     1
 91
        4
 64
     7
 65
   257
 75
     1
175
     1
 42
1.0
 92
        8
 66
     7
 43
1.0
 76
     1
 77
     6
 78
     2
 67
     7
 79
     5
170
     0
171
     0
290
     0
174
     0
 93
        1
 44
-50.0
173
     0
291
     1
 45
0.0
  0
VISUALSTYLE
  5
8FE
102
{ACAD_REACTORS
330
267
102
}
330
267
100
AcDbVisualStyle
  2
EdgeColorOff
 70
    22
 71
     2
 72
     2
 73
     0
 90
        0
 40
0.6
 41
30.0
 62
     5
 63
     7
421
 16777215
 74
     1
 91
        4
 64
     7
 65
   257
 75
     1
175
     1
 42
1.0
 92
        8
 66
     7
 43
1.0
 76
     1
 77
     6
 78
     2
 67
     7
 79
     5
170
     0
171
     0
290
     0
174
     0
 93
        1
 44
0.0
173
     0
291
     1
 45
0.0
  0
VISUALSTYLE
  5
276
102
{ACAD_REACTORS
330
267
102
}
330
267
100
AcDbVisualStyle
  2
Facepattern
 70
    15
 71
     2
 72
     2
 73
     0
 90
        0
 40
-0.6
 41
-30.0
 62
     5
 63
     7
421
 16777215
 74
     1
 91
        4
 64
     7
 65
   257
 75
     1
175
     1
 42
1.0
 92
        8
 66
     7
 43
1.0
 76
     1
 77
     6
 78
     2
 67
     7
 79
     5
170
     0
171
     0
290
     0
174
     0
 93
        1
 44
0.0
173
     0
291
     1
 45
0.0
  0
VISUALSTYLE
  5
268
102
{ACAD_REACTORS
330
267
102
}
330
267
100
AcDbVisualStyle
  2
Flat
 70
     0
 71
     2
 72
     1
 73
     1
 90
        2
 40
-0.6
 41
30.0
 62
     5
 63
     7
421
 16777215
 74
     0
 91
        4
 64
     7
 65
   257
 75
     1
175
     1
 42
1.0
 92
        8
 66
     7
 43
1.0
 76
     1
 77
     6
 78
     2
 67
     7
 79
     5
170
     0
171
     0
290
     0
174
     0
 93
       13
 44
0.0
173
     0
291
     1
 45
0.0
  0
VISUALSTYLE
  5
269
102
{ACAD_REACTORS
330
267
102
}
330
267
100
AcDbVisualStyle
  2
FlatWithEdges
 70
     1
 71
     2
 72
     1
 73
     1
 90
        2
 40
-0.6
 41
30.0
 62
     5
 63
     7
421
 16777215
 74
     1
 91
        4
 64
     7
 65
   257
 75
     1
175
     1
 42
1.0
 92
        0
 66
   257
 43
1.0
 76
     1
 77
     6
 78
     2
 67
     7
 79
     5
170
     0
171
     0
290
     0
174
     0
 93
       13
 44
0.0
173
     0
291
     1
 45
0.0
  0
VISUALSTYLE
  5
26A
102
{ACAD_REACTORS
330
267
102
}
330
267
100
AcDbVisualStyle
  2
Gouraud
 70
     2
 71
     2
 72
     2
 73
     1
 90
        2
 40
-0.6
 41
30.0
 62
     5
 63
     7
421
 16777215
 74
     0
 91
        4
 64
     7
 65
   257
 75
     1
175
     1
 42
1.0
 92
        0
 66
     7
 43
1.0
 76
     1
 77
     6
 78
     2
 67
     7
 79
     5
170
     0
171
     0
290
     0
174
     0
 93
       13
 44
0.0
173
     0
291
     1
 45
0.0
  0
VISUALSTYLE
  5
26B
102
{ACAD_REACTORS
330
267
102
}
330
267
100
AcDbVisualStyle
  2
GouraudWithEdges
 70
     3
 71
     2
 72
     2
 73
     1
 90
        2
 40
-0.6
 41
30.0
 62
     5
 63
     7
421
 16777215
 74
     1
 91
        4
 64
     7
 65
   257
 75
     1
175
     1
 42
1.0
 92
        0
 66
   257
 43
1.0
 76
     1
 77
     6
 78
     2
 67
     7
 79
     5
170
     0
171
     0
290
     0
174
     0
 93
       13
 44
0.0
173
     0
291
     1
 45
0.0
  0
VISUALSTYLE
  5
8FB
102
{ACAD_REACTORS
330
267
102
}
330
267
100
AcDbVisualStyle
  2
Hidden
 70
     6
 71
     1
 72
     2
 73
     2
 90
        0
 40
0.6
 41
30.0
 62
     5
 63
     7
421
 16777215
 74
     2
 91
        2
 64
     7
 65
   257
 75
     2
175
     1
 42
40.0
 92
        0
 66
   257
 43
1.0
 76
     1
 77
     6
 78
     2
 67
     7
 79
     3
170
     0
171
     0
290
     0
174
     0
 93
        1
 44
0.0
173
     0
291
     0
 45
0.0
  0
VISUALSTYLE
  5
8FC
102
{ACAD_REACTORS
330
267
102
}
330
267
100
AcDbVisualStyle
  2
JitterOff
 70
    20
 71
     2
 72
     2
 73
     0
 90
        0
 40
0.6
 41
30.0
 62
     5
 63
     7
421
 16777215
 74
     1
 91
        4
 64
     7
 65
   257
 75
     1
175
     1
 42
1.0
 92
       10
 66
     7
 43
1.0
 76
     1
 77
     6
 78
     2
 67
     7
 79
     5
170
     0
171
     0
290
     0
174
     0
 93
        1
 44
0.0
173
     0
291
     1
 45
0.0
  0
VISUALSTYLE
  5
275
102
{ACAD_REACTORS
330
267
102
}
330
267
100
AcDbVisualStyle
  2
Linepattern
 70
    14
 71
     2
 72
     2
 73
     0
 90
        0
 40
-0.6
 41
-30.0
 62
     5
 63
     7
421
 16777215
 74
     1
 91
        4
 64
     7
 65
   257
 75
     7
175
     7
 42
1.0
 92
        8
 66
     7
 43
1.0
 76
     1
 77
     6
 78
     2
 67
     7
 79
     5
170
     0
171
     0
290
     0
174
     0
 93
        1
 44
0.0
173
     0
291
     1
 45
0.0
  0
VISUALSTYLE
  5
8FD
102
{ACAD_REACTORS
330
267
102
}
330
267
100
AcDbVisualStyle
  2
OverhangOff
 70
    21
 71
     2
 72
     2
 73
     0
 90
        0
 40
0.6
 41
30.0
 62
     5
 63
     7
421
 16777215
 74
     1
 91
        4
 64
     7
 65
   257
 75
     1
175
     1
 42
1.0
 92
        9
 66
     7
 43
1.0
 76
     1
 77
     6
 78
     2
 67
     7
 79
     5
170
     0
171
     0
290
     0
174
     0
 93
        1
 44
0.0
173
     0
291
     1
 45
0.0
  0
VISUALSTYLE
  5
270
102
{ACAD_REACTORS
330
267
102
}
330
267
100
AcDbVisualStyle
  2
Realistic
 70
     8
 71
     2
 72
     2
 73
     0
 90
        0
 40
-0.6
 41
-30.0
 62
     5
 63
     7
421
 16777215
 74
     1
 91
        0
 64
     7
 65
   257
 75
     1
175
     1
 42
1.0
 92
        8
 66
     8
424
  7895160
 43
1.0
 76
     1
 77
     6
 78
     2
 67
     7
 79
     5
170
     0
171
     0
290
     0
174
     0
 93
       13
 44
0.0
173
     0
291
     0
 45
0.0
  0
VISUALSTYLE
  5
903
102
{ACAD_REACTORS
330
267
102
}
330
267
100
AcDbVisualStyle
  2
Shaded
 70
    27
 71
     2
 72
     2
 73
     1
 90
        2
 40
0.6
 41
30.0
 62
     5
 63
     7
421
 16777215
 74
     0
 91
        4
 64
     7
 65
   257
 75
     1
175
     1
 42
1.0
 92
        8
 66
   257
 43
1.0
 76
     1
 77
     6
 78
     2
 67
     8
425
  7895160
 79
     3
170
     0
171
     0
290
     0
174
     0
 93
        5
 44
0.0
173
     0
291
     0
 45
0.0
  0
VISUALSTYLE
  5
902
102
{ACAD_REACTORS
330
267
102
}
330
267
100
AcDbVisualStyle
  2
Shaded with edges
 70
    26
 71
     2
 72
     2
 73
     1
 90
        2
 40
0.6
 41
30.0
 62
     5
 63
     7
421
 16777215
 74
     1
 91
       10
 64
     7
 65
   257
 75
     2
175
     1
 42
1.0
 92
        8
 66
   257
 43
1.0
 76
     1
 77
     6
 78
     2
 67
     7
 79
     3
170
     0
171
     0
290
     0
174
     0
 93
        5
 44
0.0
173
     0
291
     0
 45
0.0
  0
VISUALSTYLE
  5
8FF
102
{ACAD_REACTORS
330
267
102
}
330
267
100
AcDbVisualStyle
  2
Shades of Gray
 70
    23
 71
     2
 72
     2
 73
     3
 90
        0
 40
0.6
 41
30.0
 62
     5
 63
     7
421
 16777215
 74
     2
 91
        2
 64
     7
 65
     7
 75
     1
175
     1
 42
40.0
 92
        8
 66
     7
 43
1.0
 76
     1
 77
     6
 78
     2
 67
     7
 79
     3
170
     0
171
     0
290
     0
174
     0
 93
        1
 44
0.0
173
     0
291
     0
 45
0.0
  0
VISUALSTYLE
  5
900
102
{ACAD_REACTORS
330
267
102
}
330
267
100
AcDbVisualStyle
  2
Sketchy
 70
    24
 71
     1
 72
     2
 73
     2
 90
        0
 40
0.6
 41
30.0
 62
     5
 63
     7
421
 16777215
 74
     2
 91
        2
 64
     7
 65
     7
 75
     1
175
     1
 42
40.0
 92
       11
 66
     7
 43
1.0
 76
     1
 77
     6
 78
     2
 67
     7
 79
     6
170
     0
171
     0
290
     0
174
     0
 93
        1
 44
0.0
173
     0
291
     0
 45
0.0
  0
VISUALSTYLE
  5
274
102
{ACAD_REACTORS
330
267
102
}
330
267
100
AcDbVisualStyle
  2
Thicken
 70
    13
 71
     2
 72
     2
 73
     0
 90
        0
 40
-0.6
 41
-30.0
 62
     5
 63
     7
421
 16777215
 74
     1
 91
        4
 64
     7
 65
   257
 75
     1
175
     1
 42
1.0
 92
       12
 66
     7
 43
1.0
 76
     1
 77
     6
 78
     2
 67
     7
 79
     5
170
     0
171
     0
290
     0
174
     0
 93
        1
 44
0.0
173
     0
291
     1
 45
0.0
  0
VISUALSTYLE
  5
8FA
102
{ACAD_REACTORS
330
267
102
}
330
267
100
AcDbVisualStyle
  2
Wireframe
 70
     5
 71
     0
 72
     2
 73
     0
 90
        0
 40
0.6
 41
30.0
 62
     5
 63
     7
421
 16777215
 74
     1
 91
        4
 64
     7
 65
   257
 75
     1
175
     1
 42
1.0
 92
        0
 66
   257
 43
1.0
 76
     1
 77
     6
 78
     2
 67
     7
 79
     3
170
     0
171
     0
290
     0
174
     0
 93
        1
 44
0.0
173
     0
291
     0
 45
0.0
  0
VISUALSTYLE
  5
901
102
{ACAD_REACTORS
330
267
102
}
330
267
100
AcDbVisualStyle
  2
X-Ray
 70
    25
 71
     2
 72
     2
 73
     1
 90
        1
 40
0.5
 41
30.0
 62
     5
 63
     7
421
 16777215
 74
     1
 91
        0
 64
     7
 65
   257
 75
     1
175
     1
 42
1.0
 92
        8
 66
     7
 43
1.0
 76
     1
 77
     6
 78
     2
 67
     7
 79
     3
170
     0
171
     0
290
     0
174
     0
 93
       13
 44
0.0
173
     0
291
     0
 45
0.0
  0
DICTIONARYVAR
  5
331
102
{ACAD_REACTORS
330
330
102
}
330
330
100
DictionaryVariables
280
     0
  1
1:1
  0
DICTIONARYVAR
  5
D5E
102
{ACAD_REACTORS
330
330
102
}
330
330
100
DictionaryVariables
280
     0
  1
Standard
  0
DICTIONARYVAR
  5
335
102
{ACAD_REACTORS
330
330
102
}
330
330
100
DictionaryVariables
280
     0
  1
Standard
  0
DICTIONARYVAR
  5
D52
102
{ACAD_REACTORS
330
330
102
}
330
330
100
DictionaryVariables
280
     0
  1
ByLayer
  0
DICTIONARYVAR
  5
896
102
{ACAD_REACTORS
330
330
102
}
330
330
100
DictionaryVariables
280
     0
  1
0
  0
DICTIONARYVAR
  5
1614
102
{ACAD_REACTORS
330
E38
102
}
330
E38
100
DictionaryVariables
280
     0
  1
0.261799
  0
DICTIONARYVAR
  5
1612
102
{ACAD_REACTORS
330
E38
102
}
330
E38
100
DictionaryVariables
280
     0
  1
0.400000
  0
DICTIONARYVAR
  5
1613
102
{ACAD_REACTORS
330
E38
102
}
330
E38
100
DictionaryVariables
280
     0
  1
0.250000
  0
DICTIONARYVAR
  5
1615
102
{ACAD_REACTORS
330
E38
102
}
330
E38
100
DictionaryVariables
280
     0
  1
1
  0
XRECORD
  5
7AA
102
{ACAD_REACTORS
330
2E2
102
}
330
2E2
100
AcDbXrecord
280
     1
 91
    34815
301

290
     0
302
HIDDEN
330
14
 90
        8
 62
     7
370
    -3
331
13
  1
Color_7
440
 33554687
330
4B
 90
        8
 62
     7
370
    20
331
13
  1
Color_7
440
 33554687
330
4C
 90
        8
 62
     3
370
    13
331
13
  1
Color_3
440
 33554687
330
4D
 90
        8
 62
     7
370
    20
331
13
  1
Color_7
440
 33554687
330
667
 90
        8
 62
     7
370
    -3
331
13
  1
Color_7
440
 33554687
330
0
 90
        8
 62
     8
370
    20
331
0
  1
Color_8
440
 33554687
330
D6B
 90
        0
 62
     4
370
    20
331
D6C
  1
Color_4
440
 33554687
330
D8C
 90
        0
 62
     7
370
    -3
331
13
  1
Color_7
440
 33554687
  0
FIELD
  5
3443
102
{ACAD_REACTORS
330
38C7
102
}
330
38C7
100
AcDbField
  1
_text
  2
{%<\_FldIdx 0>%N}
 90
        1
360
3447
 97
        0
 91
       63
 92
        0
 94
        8
 95
        2
 96
        0
300

 93
        1
  6
ACFD_FIELDTEXT_CHECKSUM
 93
        2
 90
        2
140
4486.0
 94
        0
300

302

304
ACVALUE_END
  7
ACFD_FIELD_VALUE
 93
        6
 90
        4
  1
{20160701N}
 94
        0
300

302

304
ACVALUE_END
301
{20160701N}
 98
       11
  0
DICTIONARY
  5
3B9A
330
279
100
AcDbDictionary
280
     1
281
     1
  3
ACAD_ROUNDTRIP_2008_TABLESTYLE_CELLSTYLEMAP
360
3B9B
  0
FIELD
  5
3447
330
3443
100
AcDbField
  1
AcVar
  2
\AcVar CreateDate \f "yyyyMMdd"
 90
        0
 97
        0
 91
       63
 92
        0
 94
        8
 95
        2
 96
        0
300

 93
        1
  6
Variable
 93
        2
 90
        4
  1
CreateDate
 94
        0
300

302

304
ACVALUE_END
  7
ACFD_FIELD_VALUE
 93
        6
 90
        8
 92
       16
310
E0070700000001000500360022000000
 94
        0
300
yyyyMMdd
302

304
ACVALUE_END
301
20160701
 98
        8
  0
CELLSTYLEMAP
  5
3B9B
102
{ACAD_REACTORS
330
3B9A
102
}
330
3B9A
100
AcDbCellStyleMap
 90
        3
300
CELLSTYLE
  1
TABLEFORMAT_BEGIN
 90
        5
170
     1
 91
        0
 92
    32768
 62
   257
 93
        1
300
CONTENTFORMAT
  1
CONTENTFORMAT_BEGIN
 90
        0
 91
        0
 92
        4
 93
        0
300

 40
0.0
140
1.0
 94
        5
 62
     0
340
17
144
6.0
309
CONTENTFORMAT_END
171
     1
301
MARGIN
  1
CELLMARGIN_BEGIN
 40
0.06
 40
0.06
 40
0.06
 40
0.06
 40
0.18
 40
0.18
309
CELLMARGIN_END
 94
        6
 95
        1
302
GRIDFORMAT
  1
GRIDFORMAT_BEGIN
 90
        0
 91
        1
 62
     0
 92
       -2
340
0
 93
        0
 40
0.045
309
GRIDFORMAT_END
 95
        2
302
GRIDFORMAT
  1
GRIDFORMAT_BEGIN
 90
        0
 91
        1
 62
     0
 92
       -2
340
0
 93
        0
 40
0.045
309
GRIDFORMAT_END
 95
        4
302
GRIDFORMAT
  1
GRIDFORMAT_BEGIN
 90
        0
 91
        1
 62
     0
 92
       -2
340
0
 93
        0
 40
0.045
309
GRIDFORMAT_END
 95
        8
302
GRIDFORMAT
  1
GRIDFORMAT_BEGIN
 90
        0
 91
        1
 62
     0
 92
       -2
340
0
 93
        0
 40
0.045
309
GRIDFORMAT_END
 95
       16
302
GRIDFORMAT
  1
GRIDFORMAT_BEGIN
 90
        0
 91
        1
 62
     0
 92
       -2
340
0
 93
        0
 40
0.045
309
GRIDFORMAT_END
 95
       32
302
GRIDFORMAT
  1
GRIDFORMAT_BEGIN
 90
        0
 91
        1
 62
     0
 92
       -2
340
0
 93
        0
 40
0.045
309
GRIDFORMAT_END
309
TABLEFORMAT_END
  1
CELLSTYLE_BEGIN
 90
        1
 91
        1
300
_TITLE
309
CELLSTYLE_END
300
CELLSTYLE
  1
TABLEFORMAT_BEGIN
 90
        5
170
     1
 91
        0
 92
        0
 62
   257
 93
        1
300
CONTENTFORMAT
  1
CONTENTFORMAT_BEGIN
 90
        0
 91
        0
 92
        4
 93
        0
300

 40
0.0
140
1.0
 94
        5
 62
     0
340
17
144
4.5
309
CONTENTFORMAT_END
171
     1
301
MARGIN
  1
CELLMARGIN_BEGIN
 40
0.06
 40
0.06
 40
0.06
 40
0.06
 40
0.18
 40
0.18
309
CELLMARGIN_END
 94
        6
 95
        1
302
GRIDFORMAT
  1
GRIDFORMAT_BEGIN
 90
        0
 91
        1
 62
     0
 92
       -2
340
0
 93
        0
 40
0.045
309
GRIDFORMAT_END
 95
        2
302
GRIDFORMAT
  1
GRIDFORMAT_BEGIN
 90
        0
 91
        1
 62
     0
 92
       -2
340
0
 93
        0
 40
0.045
309
GRIDFORMAT_END
 95
        4
302
GRIDFORMAT
  1
GRIDFORMAT_BEGIN
 90
        0
 91
        1
 62
     0
 92
       -2
340
0
 93
        0
 40
0.045
309
GRIDFORMAT_END
 95
        8
302
GRIDFORMAT
  1
GRIDFORMAT_BEGIN
 90
        0
 91
        1
 62
     0
 92
       -2
340
0
 93
        0
 40
0.045
309
GRIDFORMAT_END
 95
       16
302
GRIDFORMAT
  1
GRIDFORMAT_BEGIN
 90
        0
 91
        1
 62
     0
 92
       -2
340
0
 93
        0
 40
0.045
309
GRIDFORMAT_END
 95
       32
302
GRIDFORMAT
  1
GRIDFORMAT_BEGIN
 90
        0
 91
        1
 62
     0
 92
       -2
340
0
 93
        0
 40
0.045
309
GRIDFORMAT_END
309
TABLEFORMAT_END
  1
CELLSTYLE_BEGIN
 90
        2
 91
        1
300
_HEADER
309
CELLSTYLE_END
300
CELLSTYLE
  1
TABLEFORMAT_BEGIN
 90
        5
170
     1
 91
        0
 92
        0
 62
   257
 93
        1
300
CONTENTFORMAT
  1
CONTENTFORMAT_BEGIN
 90
        0
 91
        0
 92
        4
 93
        0
300

 40
0.0
140
1.0
 94
        2
 62
     0
340
17
144
4.5
309
CONTENTFORMAT_END
171
     1
301
MARGIN
  1
CELLMARGIN_BEGIN
 40
0.06
 40
0.06
 40
0.06
 40
0.06
 40
0.18
 40
0.18
309
CELLMARGIN_END
 94
        6
 95
        1
302
GRIDFORMAT
  1
GRIDFORMAT_BEGIN
 90
        0
 91
        1
 62
     0
 92
       -2
340
0
 93
        0
 40
0.045
309
GRIDFORMAT_END
 95
        2
302
GRIDFORMAT
  1
GRIDFORMAT_BEGIN
 90
        0
 91
        1
 62
     0
 92
       -2
340
0
 93
        0
 40
0.045
309
GRIDFORMAT_END
 95
        4
302
GRIDFORMAT
  1
GRIDFORMAT_BEGIN
 90
        0
 91
        1
 62
     0
 92
       -2
340
0
 93
        0
 40
0.045
309
GRIDFORMAT_END
 95
        8
302
GRIDFORMAT
  1
GRIDFORMAT_BEGIN
 90
        0
 91
        1
 62
     0
 92
       -2
340
0
 93
        0
 40
0.045
309
GRIDFORMAT_END
 95
       16
302
GRIDFORMAT
  1
GRIDFORMAT_BEGIN
 90
        0
 91
        1
 62
     0
 92
       -2
340
0
 93
        0
 40
0.045
309
GRIDFORMAT_END
 95
       32
302
GRIDFORMAT
  1
GRIDFORMAT_BEGIN
 90
        0
 91
        1
 62
     0
 92
       -2
340
0
 93
        0
 40
0.045
309
GRIDFORMAT_END
309
TABLEFORMAT_END
  1
CELLSTYLE_BEGIN
 90
        3
 91
        2
300
_DATA
309
CELLSTYLE_END
  0
ENDSEC
  0
EOF
