  0
SECTION
  2
HEADER
  9
$ACADVER
  1
AC1021
  9
$ACADMAINTVER
 70
    25
  9
$DWGCODEPAGE
  3
ANSI_932
  9
$LASTSAVEDBY
  1
howeNelson
  9
$INSBASE
 10
0.0
 20
0.0
 30
0.0
  9
$EXTMIN
 10
0.0
 20
0.0
 30
-0.0000000000000142
  9
$EXTMAX
 10
420.0
 20
594.0
 30
0.0000000000000142
  9
$LIMMIN
 10
0.0
 20
0.0
  9
$LIMMAX
 10
420.0
 20
594.0
  9
$ORTHOMODE
 70
     0
  9
$REGENMODE
 70
     1
  9
$FILLMODE
 70
     1
  9
$QTEXTMODE
 70
     0
  9
$MIRRTEXT
 70
     1
  9
$LTSCALE
 40
50.0
  9
$ATTMODE
 70
     1
  9
$TEXTSIZE
 40
2.5
  9
$TRACEWID
 40
1.0
  9
$TEXTSTYLE
  7
ＭＳ ゴシック
  9
$CLAYER
  8
DIM
  9
$CELTYPE
  6
ByLayer
  9
$CECOLOR
 62
   256
  9
$CELTSCALE
 40
0.05
  9
$DISPSILH
 70
     0
  9
$DIMSCALE
 40
1.0
  9
$DIMASZ
 40
1.0
  9
$DIMEXO
 40
5.0
  9
$DIMDLI
 40
0.9999999999999999
  9
$DIMRND
 40
0.0
  9
$DIMDLE
 40
0.0
  9
$DIMEXE
 40
0.0
  9
$DIMTP
 40
0.0
  9
$DIMTM
 40
0.0
  9
$DIMTXT
 40
5.0
  9
$DIMCEN
 40
0.0
  9
$DIMTSZ
 40
0.0
  9
$DIMTOL
 70
     0
  9
$DIMLIM
 70
     0
  9
$DIMTIH
 70
     0
  9
$DIMTOH
 70
     0
  9
$DIMSE1
 70
     0
  9
$DIMSE2
 70
     0
  9
$DIMTAD
 70
     1
  9
$DIMZIN
 70
    11
  9
$DIMBLK
  1
DOT
  9
$DIMASO
 70
     1
  9
$DIMSHO
 70
     1
  9
$DIMPOST
  1
<>
  9
$DIMAPOST
  1
[]
  9
$DIMALT
 70
     0
  9
$DIMALTD
 70
     1
  9
$DIMALTF
 40
1.0
  9
$DIMLFAC
 40
1.0
  9
$DIMTOFL
 70
     0
  9
$DIMTVP
 40
0.0
  9
$DIMTIX
 70
     1
  9
$DIMSOXD
 70
     0
  9
$DIMSAH
 70
     0
  9
$DIMBLK1
  1

  9
$DIMBLK2
  1

  9
$DIMSTYLE
  2
tfrom線あり
  9
$DIMCLRD
 70
     0
  9
$DIMCLRE
 70
     0
  9
$DIMCLRT
 70
     0
  9
$DIMTFAC
 40
1.0
  9
$DIMGAP
 40
5.0
  9
$DIMJUST
 70
     0
  9
$DIMSD1
 70
     0
  9
$DIMSD2
 70
     0
  9
$DIMTOLJ
 70
     1
  9
$DIMTZIN
 70
    11
  9
$DIMALTZ
 70
    11
  9
$DIMALTTZ
 70
    11
  9
$DIMUPT
 70
     0
  9
$DIMDEC
 70
     0
  9
$DIMTDEC
 70
     1
  9
$DIMALTU
 70
     2
  9
$DIMALTTD
 70
     2
  9
$DIMTXSTY
  7
ＭＳ ゴシック
  9
$DIMAUNIT
 70
     0
  9
$DIMADEC
 70
     2
  9
$DIMALTRND
 40
0.0
  9
$DIMAZIN
 70
     0
  9
$DIMDSEP
 70
    46
  9
$DIMATFIT
 70
     0
  9
$DIMFRAC
 70
     2
  9
$DIMLDRBLK
  1
DOT
  9
$DIMLUNIT
 70
     2
  9
$DIMLWD
 70
    -2
  9
$DIMLWE
 70
    -2
  9
$DIMTMOVE
 70
     0
  9
$DIMFXL
 40
1.0
  9
$DIMFXLON
 70
     0
  9
$DIMJOGANG
 40
0.7853981633974483
  9
$DIMTFILL
 70
     0
  9
$DIMTFILLCLR
 70
     0
  9
$DIMARCSYM
 70
     0
  9
$DIMLTYPE
  6

  9
$DIMLTEX1
  6

  9
$DIMLTEX2
  6

  9
$LUNITS
 70
     2
  9
$LUPREC
 70
     0
  9
$SKETCHINC
 40
0.1
  9
$FILLETRAD
 40
0.0
  9
$AUNITS
 70
     0
  9
$AUPREC
 70
     0
  9
$MENU
  1
acad
  9
$ELEVATION
 40
0.0
  9
$PELEVATION
 40
0.0
  9
$THICKNESS
 40
0.0
  9
$LIMCHECK
 70
     0
  9
$CHAMFERA
 40
0.0
  9
$CHAMFERB
 40
0.0
  9
$CHAMFERC
 40
0.0
  9
$CHAMFERD
 40
0.0
  9
$SKPOLY
 70
     0
  9
$TDCREATE
 40
2447893.375
  9
$TDUCREATE
 40
0.0
  9
$TDUPDATE
 40
2457595.694793056
  9
$TDUUPDATE
 40
2457595.319793056
  9
$TDINDWG
 40
0.271840081
  9
$TDUSRTIMER
 40
2457595.319790278
  9
$USRTIMER
 70
     1
  9
$ANGBASE
 50
0.0
  9
$ANGDIR
 70
     0
  9
$PDMODE
 70
     1
  9
$PDSIZE
 40
-2.0
  9
$PLINEWID
 40
0.0
  9
$SPLFRAME
 70
     0
  9
$SPLINETYPE
 70
     6
  9
$SPLINESEGS
 70
     8
  9
$HANDSEED
  5
5D9B
  9
$SURFTAB1
 70
     6
  9
$SURFTAB2
 70
     6
  9
$SURFTYPE
 70
     6
  9
$SURFU
 70
     6
  9
$SURFV
 70
     6
  9
$UCSBASE
  2

  9
$UCSNAME
  2

  9
$UCSORG
 10
0.0
 20
0.0
 30
0.0
  9
$UCSXDIR
 10
1.0
 20
0.0
 30
0.0
  9
$UCSYDIR
 10
0.0
 20
1.0
 30
0.0
  9
$UCSORTHOREF
  2

  9
$UCSORTHOVIEW
 70
     0
  9
$UCSORGTOP
 10
0.0
 20
0.0
 30
0.0
  9
$UCSORGBOTTOM
 10
0.0
 20
0.0
 30
0.0
  9
$UCSORGLEFT
 10
0.0
 20
0.0
 30
0.0
  9
$UCSORGRIGHT
 10
0.0
 20
0.0
 30
0.0
  9
$UCSORGFRONT
 10
0.0
 20
0.0
 30
0.0
  9
$UCSORGBACK
 10
0.0
 20
0.0
 30
0.0
  9
$PUCSBASE
  2

  9
$PUCSNAME
  2

  9
$PUCSORG
 10
0.0
 20
0.0
 30
0.0
  9
$PUCSXDIR
 10
1.0
 20
0.0
 30
0.0
  9
$PUCSYDIR
 10
0.0
 20
1.0
 30
0.0
  9
$PUCSORTHOREF
  2

  9
$PUCSORTHOVIEW
 70
     0
  9
$PUCSORGTOP
 10
0.0
 20
0.0
 30
0.0
  9
$PUCSORGBOTTOM
 10
0.0
 20
0.0
 30
0.0
  9
$PUCSORGLEFT
 10
0.0
 20
0.0
 30
0.0
  9
$PUCSORGRIGHT
 10
0.0
 20
0.0
 30
0.0
  9
$PUCSORGFRONT
 10
0.0
 20
0.0
 30
0.0
  9
$PUCSORGBACK
 10
0.0
 20
0.0
 30
0.0
  9
$USERI1
 70
     0
  9
$USERI2
 70
     0
  9
$USERI3
 70
     0
  9
$USERI4
 70
     0
  9
$USERI5
 70
     0
  9
$USERR1
 40
0.0
  9
$USERR2
 40
0.0
  9
$USERR3
 40
0.0
  9
$USERR4
 40
0.0
  9
$USERR5
 40
0.0
  9
$WORLDVIEW
 70
     1
  9
$SHADEDGE
 70
     3
  9
$SHADEDIF
 70
    70
  9
$TILEMODE
 70
     1
  9
$MAXACTVP
 70
    64
  9
$PINSBASE
 10
0.0
 20
0.0
 30
0.0
  9
$PLIMCHECK
 70
     0
  9
$PEXTMIN
 10
0.0
 20
0.0
 30
0.0
  9
$PEXTMAX
 10
0.0
 20
0.0
 30
0.0
  9
$PLIMMIN
 10
-95.87226993865028
 20
-25.69999999999999
  9
$PLIMMAX
 10
201.1277300613497
 20
184.3
  9
$UNITMODE
 70
     0
  9
$VISRETAIN
 70
     0
  9
$PLINEGEN
 70
     1
  9
$PSLTSCALE
 70
     0
  9
$TREEDEPTH
 70
  3020
  9
$CMLSTYLE
  2
Standard
  9
$CMLJUST
 70
     0
  9
$CMLSCALE
 40
1.0
  9
$PROXYGRAPHICS
 70
     0
  9
$MEASUREMENT
 70
     1
  9
$CELWEIGHT
370
    -1
  9
$ENDCAPS
280
     0
  9
$JOINSTYLE
280
     0
  9
$LWDISPLAY
290
     1
  9
$INSUNITS
 70
     4
  9
$HYPERLINKBASE
  1

  9
$STYLESHEET
  1

  9
$XEDIT
290
     1
  9
$CEPSNTYPE
380
     0
  9
$PSTYLEMODE
290
     1
  9
$FINGERPRINTGUID
  2

  9
$VERSIONGUID
  2

  9
$EXTNAMES
290
     1
  9
$PSVPSCALE
 40
0.0
  9
$OLESTARTUP
290
     0
  9
$SORTENTS
280
   127
  9
$INDEXCTL
280
     0
  9
$HIDETEXT
280
     1
  9
$XCLIPFRAME
290
     0
  9
$HALOGAP
280
     0
  9
$OBSCOLOR
 70
   257
  9
$OBSLTYPE
280
     0
  9
$INTERSECTIONDISPLAY
280
     0
  9
$INTERSECTIONCOLOR
 70
   257
  9
$DIMASSOC
280
     2
  9
$PROJECTNAME
  1

  9
$CAMERADISPLAY
290
     0
  9
$LENSLENGTH
 40
50.0
  9
$CAMERAHEIGHT
 40
0.0
  9
$STEPSPERSEC
 40
2.0
  9
$STEPSIZE
 40
6.0
  9
$3DDWFPREC
 40
2.0
  9
$PSOLWIDTH
 40
0.25
  9
$PSOLHEIGHT
 40
4.0
  9
$LOFTANG1
 40
1.570796326794897
  9
$LOFTANG2
 40
1.570796326794897
  9
$LOFTMAG1
 40
0.0
  9
$LOFTMAG2
 40
0.0
  9
$LOFTPARAM
 70
     7
  9
$LOFTNORMALS
280
     1
  9
$LATITUDE
 40
37.795
  9
$LONGITUDE
 40
-122.394
  9
$NORTHDIRECTION
 40
0.0
  9
$TIMEZONE
 70
 -8000
  9
$LIGHTGLYPHDISPLAY
280
     1
  9
$TILEMODELIGHTSYNCH
280
     1
  9
$SOLIDHIST
280
     1
  9
$SHOWHIST
280
     1
  9
$DWFFRAME
280
     2
  9
$DGNFRAME
280
     2
  9
$REALWORLDSCALE
290
     1
  9
$INTERFERECOLOR
 62
   256
  9
$CSHADOW
280
     0
  9
$SHADOWPLANELOCATION
 40
0.0
  0
ENDSEC
  0
SECTION
  2
CLASSES
  0
CLASS
  1
LWPOLYLINE
  2
AcDbPolyline
  3
ObjectDBX Classes
 90
        0
 91
        1
280
     0
281
     1
  0
CLASS
  1
IMAGE
  2
AcDbRasterImage
  3
ISM
 90
      127
 91
       13
280
     0
281
     1
  0
CLASS
  1
OLE2FRAME
  2
AcDbOle2Frame
  3
ObjectDBX Classes
 90
        0
 91
        1
280
     0
281
     1
  0
CLASS
  1
HATCH
  2
AcDbHatch
  3
ObjectDBX Classes
 90
        0
 91
        1
280
     0
281
     1
  0
CLASS
  1
DICTIONARYVAR
  2
AcDbDictionaryVar
  3
ObjectDBX Classes
 90
        0
 91
       12
280
     0
281
     0
  0
CLASS
  1
RASTERVARIABLES
  2
AcDbRasterVariables
  3
ISM
 90
        0
 91
       12
280
     0
281
     0
  0
CLASS
  1
IMAGEDEF
  2
AcDbRasterImageDef
  3
ISM
 90
        0
 91
       12
280
     0
281
     0
  0
CLASS
  1
IMAGEDEF_REACTOR
  2
AcDbRasterImageDefReactor
  3
ISM
 90
        1
 91
       12
280
     0
281
     0
  0
CLASS
  1
IDBUFFER
  2
AcDbIdBuffer
  3
ObjectDBX Classes
 90
        0
 91
       12
280
     0
281
     0
  0
CLASS
  1
SPATIAL_FILTER
  2
AcDbSpatialFilter
  3
ObjectDBX Classes
 90
        0
 91
       12
280
     0
281
     0
  0
CLASS
  1
XRECORD
  2
AcDbXrecord
  3
ObjectDBX Classes
 90
        0
 91
        1
280
     0
281
     0
  0
CLASS
  1
SORTENTSTABLE
  2
AcDbSortentsTable
  3
ObjectDBX Classes
 90
        0
 91
       12
280
     0
281
     0
  0
CLASS
  1
LAYER_INDEX
  2
AcDbLayerIndex
  3
ObjectDBX Classes
 90
        0
 91
       12
280
     0
281
     0
  0
CLASS
  1
SPATIAL_INDEX
  2
AcDbSpatialIndex
  3
AutoCAD 2000
 90
        0
 91
       12
280
     0
281
     0
  0
CLASS
  1
OBJECT_PTR
  2
CAseDLPNTableRecord
  3
ASE-LPNTableRecord
 90
        1
 91
       12
280
     0
281
     0
  0
CLASS
  1
LAYOUT
  2
AcDbLayout
  3
ObjectDBX Classes
 90
        0
 91
        1
280
     0
281
     0
  0
CLASS
  1
PLOTSETTINGS
  2
AcDbPlotSettings
  3
ObjectDBX Classes
 90
        0
 91
       12
280
     0
281
     0
  0
CLASS
  1
ACDBDICTIONARYWDFLT
  2
AcDbDictionaryWithDefault
  3
ObjectDBX Classes
 90
        0
 91
       12
280
     0
281
     0
  0
CLASS
  1
ACDBPLACEHOLDER
  2
AcDbPlaceHolder
  3
ObjectDBX Classes
 90
        0
 91
        1
280
     0
281
     0
  0
CLASS
  1
SCALE
  2
AcDbScale
  3
ObjectDBX Classes
 90
     1153
 91
       12
280
     0
281
     0
  0
CLASS
  1
MATERIAL
  2
AcDbMaterial
  3
ObjectDBX Classes
 90
     1153
 91
       12
280
     0
281
     0
  0
CLASS
  1
VISUALSTYLE
  2
AcDbVisualStyle
  3
ObjectDBX Classes
 90
     4095
 91
       12
280
     0
281
     0
  0
CLASS
  1
TABLESTYLE
  2
AcDbTableStyle
  3
ObjectDBX Classes
 90
     4095
 91
       12
280
     0
281
     0
  0
CLASS
  1
DIMASSOC
  2
AcDbDimAssoc
  3
"AcDbDimAssoc|Product Desc:     AcDim ARX App For Dimension|Company:          Autodesk, Inc.|WEB Address:      www.autodesk.com"
 90
        0
 91
       12
280
     0
281
     0
  0
CLASS
  1
CELLSTYLEMAP
  2
AcDbCellStyleMap
  3
ObjectDBX Classes
 90
     1152
 91
       12
280
     0
281
     0
  0
CLASS
  1
SUN
  2
AcDbSun
  3
SCENEOE
 90
     1153
 91
       12
280
     0
281
     0
  0
CLASS
  1
MLEADERSTYLE
  2
AcDbMLeaderStyle
  3
ACDB_MLEADERSTYLE_CLASS
 90
     4095
 91
       12
280
     0
281
     0
  0
CLASS
  1
FIELD
  2
AcDbField
  3
ObjectDBX Classes
 90
     1152
 91
       12
280
     0
281
     0
  0
CLASS
  1
FIELDLIST
  2
AcDbFieldList
  3
ObjectDBX Classes
 90
     1152
 91
       12
280
     0
281
     0
  0
ENDSEC
  0
SECTION
  2
TABLES
  0
TABLE
  2
VPORT
  5
7
330
0
100
AcDbSymbolTable
 70
     1
  0
VPORT
  5
15
330
7
100
AcDbSymbolTableRecord
100
AcDbViewportTableRecord
  2
*ACTIVE
 70
     0
 10
0.0
 20
0.0
 11
1.0
 21
1.0
 12
301.0201356709076
 22
223.401285469834
 13
0.0
 23
0.0
 14
1.0
 24
1.0
 15
0.0
 25
0.0
 16
0.0
 26
0.0
 36
1.0
 17
-91.02013567090762
 27
73.59871453016603
 37
-46.86809886248109
 40
605.8800000000005
 41
2.479940564635958
 42
50.0
 43
0.0
 44
0.0
 50
0.0
 51
0.0
 71
    16
 72
  2000
 73
     1
 74
     1
 75
     0
 76
     0
 77
     0
 78
     0
281
     0
 65
     1
110
0.0
120
0.0
130
0.0
111
1.0
121
0.0
131
0.0
112
0.0
122
1.0
132
0.0
 79
     0
146
0.0
348
26C
 60
     3
 61
     5
292
     1
282
     1
141
0.0
142
0.0
 63
   256
361
904
  0
ENDTAB
  0
TABLE
  2
LTYPE
  5
4
330
0
100
AcDbSymbolTable
 70
     4
  0
LTYPE
  5
11
330
4
100
AcDbSymbolTableRecord
100
AcDbLinetypeTableRecord
  2
ByBlock
 70
     0
  3

 72
    65
 73
     0
 40
0.0
  0
LTYPE
  5
12
330
4
100
AcDbSymbolTableRecord
100
AcDbLinetypeTableRecord
  2
ByLayer
 70
     0
  3

 72
    65
 73
     0
 40
0.0
  0
LTYPE
  5
13
330
4
100
AcDbSymbolTableRecord
100
AcDbLinetypeTableRecord
  2
Continuous
 70
     0
  3
Solid line
 72
    65
 73
     0
 40
0.0
  0
LTYPE
  5
D6C
330
4
100
AcDbSymbolTableRecord
100
AcDbLinetypeTableRecord
  2
BORDER
 70
     0
  3
Border __  __  . __  __  . __  __  . __  __  . 
 72
    65
 73
     6
 40
44.45
 49
12.7
 74
     0
 49
-6.35
 74
     0
 49
12.7
 74
     0
 49
-6.35
 74
     0
 49
0.0
 74
     0
 49
-6.35
 74
     0
  0
LTYPE
  5
1638
330
4
100
AcDbSymbolTableRecord
100
AcDbLinetypeTableRecord
  2
HIDDEN2
 70
     0
  3
Hidden (.5x) _ _ _ _ _ _ _ _ _ _ _ _ _ _ _ _ _ 
 72
    65
 73
     2
 40
4.7625
 49
3.175
 74
     4
 75
     0
340
0
 46
0.0
 50
0.0
 44
0.0
 45
0.0
 49
-1.5875
 74
     4
 75
     0
340
0
 46
0.0
 50
0.0
 44
0.0
 45
0.0
  0
LTYPE
  5
5CA6
330
4
100
AcDbSymbolTableRecord
100
AcDbLinetypeTableRecord
  2
HIDDEN
 70
     0
  3
Hidden _ _ _ _ _ _ _ _ _ _ _ _ _ _ _ _ _ _ _ _ 
 72
    65
 73
     2
 40
9.524999999999999
 49
6.35
 74
     0
 49
-3.175
 74
     0
  0
ENDTAB
  0
TABLE
  2
LAYER
  5
2
102
{ACAD_XDICTIONARY
360
2E1
102
}
330
0
100
AcDbSymbolTable
 70
    27
  0
LAYER
  5
14
330
2
100
AcDbSymbolTableRecord
100
AcDbLayerTableRecord
  2
0
 70
     0
 62
     7
  6
Continuous
370
    -3
390
1D
347
266
  0
LAYER
  5
4B
330
2
100
AcDbSymbolTableRecord
100
AcDbLayerTableRecord
  2
TEMPLATE
 70
     0
 62
     7
  6
Continuous
370
    20
390
1D
347
266
  0
LAYER
  5
4C
330
2
100
AcDbSymbolTableRecord
100
AcDbLayerTableRecord
  2
DIM
 70
     0
 62
     3
  6
Continuous
370
    13
390
1D
347
266
  0
LAYER
  5
4D
330
2
100
AcDbSymbolTableRecord
100
AcDbLayerTableRecord
  2
MODEL
 70
     0
 62
     7
  6
Continuous
370
    20
390
1D
347
266
  0
LAYER
  5
667
330
2
100
AcDbSymbolTableRecord
100
AcDbLayerTableRecord
  2
LOGO
 70
     0
 62
     7
  6
Continuous
370
    -3
390
1D
347
266
  0
LAYER
  5
D6B
330
2
100
AcDbSymbolTableRecord
100
AcDbLayerTableRecord
  2
BORDER
 70
     0
 62
     4
  6
BORDER
290
     0
370
    20
390
1D
347
266
1001
AcAecLayerStandard
1000

1000

  0
LAYER
  5
D8C
330
2
100
AcDbSymbolTableRecord
100
AcDbLayerTableRecord
  2
Defpoints
 70
     0
 62
     7
  6
Continuous
290
     0
370
    -3
390
1D
347
266
  0
LAYER
  5
1635
330
2
100
AcDbSymbolTableRecord
100
AcDbLayerTableRecord
  2
Standard
 70
     0
 62
     7
  6
Continuous
370
    -3
390
1D
347
266
  0
LAYER
  5
3445
330
2
100
AcDbSymbolTableRecord
100
AcDbLayerTableRecord
  2
Layer50
 70
     0
 62
     7
  6
Continuous
370
    -3
390
1D
347
266
  0
LAYER
  5
5967
330
2
100
AcDbSymbolTableRecord
100
AcDbLayerTableRecord
  2
DEFAULT
 70
     0
 62
     7
  6
Continuous
370
    -3
390
1D
347
266
  0
LAYER
  5
5968
330
2
100
AcDbSymbolTableRecord
100
AcDbLayerTableRecord
  2
DV1_HULSE_VERLANGERUNGS-
 70
     0
 62
     7
  6
Continuous
370
    -3
390
1D
347
266
  0
LAYER
  5
5969
330
2
100
AcDbSymbolTableRecord
100
AcDbLayerTableRecord
  2
DV1_HULSE_ABDECK
 70
     0
 62
     7
  6
Continuous
370
    -3
390
1D
347
266
  0
LAYER
  5
596A
330
2
100
AcDbSymbolTableRecord
100
AcDbLayerTableRecord
  2
DV1_ROSETTE
 70
     0
 62
     7
  6
Continuous
370
    -3
390
1D
347
266
  0
LAYER
  5
596B
330
2
100
AcDbSymbolTableRecord
100
AcDbLayerTableRecord
  2
DV1_DICHTUNG_PROFIL
 70
     0
 62
     7
  6
Continuous
370
    -3
390
1D
347
266
  0
LAYER
  5
596C
330
2
100
AcDbSymbolTableRecord
100
AcDbLayerTableRecord
  2
DV1_RING
 70
     0
 62
     7
  6
Continuous
370
    -3
390
1D
347
266
  0
LAYER
  5
596D
330
2
100
AcDbSymbolTableRecord
100
AcDbLayerTableRecord
  2
DV1_GRIFF_-FUHR-
 70
     0
 62
     7
  6
Continuous
370
    -3
390
1D
347
266
  0
LAYER
  5
596E
330
2
100
AcDbSymbolTableRecord
100
AcDbLayerTableRecord
  2
DV1_GRIFF_KPL_TRIO
 70
     0
 62
     7
  6
Continuous
370
    -3
390
1D
347
266
  0
LAYER
  5
596F
330
2
100
AcDbSymbolTableRecord
100
AcDbLayerTableRecord
  2
DV2_GRIFF_KPL_TRIO
 70
     0
 62
     7
  6
Continuous
370
    -3
390
1D
347
266
  0
LAYER
  5
5970
330
2
100
AcDbSymbolTableRecord
100
AcDbLayerTableRecord
  2
DV2_GRIFF_-FUHR-
 70
     0
 62
     7
  6
Continuous
370
    -3
390
1D
347
266
  0
LAYER
  5
5971
330
2
100
AcDbSymbolTableRecord
100
AcDbLayerTableRecord
  2
DV2_ﾃ_ﾌｫﾙﾄ
 70
     0
 62
     7
  6
Continuous
370
    -3
390
1D
347
266
  0
LAYER
  5
5972
330
2
100
AcDbSymbolTableRecord
100
AcDbLayerTableRecord
  2
DV3_HULSE_VERLANGERUNGS-
 70
     0
 62
     7
  6
Continuous
370
    -3
390
1D
347
266
  0
LAYER
  5
5973
330
2
100
AcDbSymbolTableRecord
100
AcDbLayerTableRecord
  2
DV3_HULSE_ABDECK
 70
     0
 62
     7
  6
Continuous
370
    -3
390
1D
347
266
  0
LAYER
  5
5974
330
2
100
AcDbSymbolTableRecord
100
AcDbLayerTableRecord
  2
DV3_ROSETTE
 70
     0
 62
     7
  6
Continuous
370
    -3
390
1D
347
266
  0
LAYER
  5
5975
330
2
100
AcDbSymbolTableRecord
100
AcDbLayerTableRecord
  2
DV3_DICHTUNG_PROFIL
 70
     0
 62
     7
  6
Continuous
370
    -3
390
1D
347
266
  0
LAYER
  5
5976
330
2
100
AcDbSymbolTableRecord
100
AcDbLayerTableRecord
  2
DV3_RING
 70
     0
 62
     7
  6
Continuous
370
    -3
390
1D
347
266
  0
LAYER
  5
5977
330
2
100
AcDbSymbolTableRecord
100
AcDbLayerTableRecord
  2
DV3_GRIFF_-FUHR-
 70
     0
 62
     7
  6
Continuous
370
    -3
390
1D
347
266
  0
LAYER
  5
5978
330
2
100
AcDbSymbolTableRecord
100
AcDbLayerTableRecord
  2
DV3_GRIFF_KPL_TRIO
 70
     0
 62
     7
  6
Continuous
370
    -3
390
1D
347
266
  0
ENDTAB
  0
TABLE
  2
STYLE
  5
3
330
0
100
AcDbSymbolTable
 70
     4
  0
STYLE
  5
17
330
3
100
AcDbSymbolTableRecord
100
AcDbTextStyleTableRecord
  2
Standard
 70
     0
 40
0.0
 41
1.0
 50
0.0
 71
     0
 42
2.5
  3
txt
  4
BIGFONT.SHX
  0
STYLE
  5
39
330
3
100
AcDbSymbolTableRecord
100
AcDbTextStyleTableRecord
  2
ＭＳ ゴシック
 70
     0
 40
0.0
 41
1.0
 50
0.0
 71
     0
 42
2.5
  3
msgothic.ttc
  4
ＭＳ ゴシック
1001
ACAD
1000
ＭＳ ゴシック
1071
        0
  0
STYLE
  5
5983
330
3
100
AcDbSymbolTableRecord
100
AcDbTextStyleTableRecord
  2
arial_ttf
 70
     0
 40
0.0
 41
1.0
 50
0.0
 71
     0
 42
2.5
  3
arial.ttf
  4

1001
ACAD
1000
Arial
1071
    32770
  0
STYLE
  5
5984
330
3
100
AcDbSymbolTableRecord
100
AcDbTextStyleTableRecord
  2
semeca1_ttf
 70
     0
 40
0.0
 41
1.0
 50
0.0
 71
     0
 42
2.5
  3
semeca1.ttf
  4

1001
ACAD
1000
Solid Edge ANSI1 Symbols
1071
        2
  0
ENDTAB
  0
TABLE
  2
VIEW
  5
5
330
0
100
AcDbSymbolTable
 70
     0
  0
ENDTAB
  0
TABLE
  2
UCS
  5
6
330
0
100
AcDbSymbolTable
 70
     0
  0
ENDTAB
  0
TABLE
  2
APPID
  5
8
330
0
100
AcDbSymbolTable
 70
     3
  0
APPID
  5
16
330
8
100
AcDbSymbolTableRecord
100
AcDbRegAppTableRecord
  2
ACAD
 70
     0
  0
APPID
  5
7AC
330
8
100
AcDbSymbolTableRecord
100
AcDbRegAppTableRecord
  2
AcAecLayerStandard
 70
     0
  0
APPID
  5
E29
330
8
100
AcDbSymbolTableRecord
100
AcDbRegAppTableRecord
  2
ACAD_MLEADERVER
 70
     0
  0
ENDTAB
  0
TABLE
  2
DIMSTYLE
  5
9
330
0
100
AcDbSymbolTable
 70
     2
100
AcDbDimStyleTable
  0
DIMSTYLE
105
18
330
9
100
AcDbSymbolTableRecord
100
AcDbDimStyleTableRecord
  2
Standard
 70
     0
178
     0
340
17
  0
DIMSTYLE
105
57
102
{ACAD_REACTORS
330
5535
330
5AB2
330
5B89
330
5BBA
330
5CCF
330
5CE0
330
5D13
330
5D18
330
5D3D
102
}
330
9
100
AcDbSymbolTableRecord
100
AcDbDimStyleTableRecord
  2
tfrom線あり
 70
     0
  3
<>
  4
[]
 41
1.0
 42
5.0
 43
0.9999999999999999
 44
0.0
 73
     0
 74
     0
 77
     1
 78
    11
140
5.0
141
0.0
143
1.0
147
5.0
171
     1
174
     1
178
     0
179
     2
271
     0
272
     1
276
     2
284
    11
285
    11
286
    11
289
     0
340
39
341
4E
342
4E
  0
ENDTAB
  0
TABLE
  2
BLOCK_RECORD
  5
1
330
0
100
AcDbSymbolTable
 70
    34
  0
BLOCK_RECORD
  5
A
330
1
100
AcDbSymbolTableRecord
100
AcDbBlockTableRecord
  2
*MODEL_SPACE
340
20
 70
     0
280
     1
281
     0
  0
BLOCK_RECORD
  5
B
330
1
100
AcDbSymbolTableRecord
100
AcDbBlockTableRecord
  2
*PAPER_SPACE
340
21
 70
     0
280
     1
281
     0
  0
BLOCK_RECORD
  5
4E
330
1
100
AcDbSymbolTableRecord
100
AcDbBlockTableRecord
  2
_DOT
340
0
102
{BLKREFS
331
46D4
331
46D5
331
4AA9
331
4AAA
331
4DC9
331
4DCA
331
4DD8
331
4DD9
331
4DE8
331
4DE9
331
52BD
331
52BE
331
5465
331
5466
331
553F
331
5540
331
57A7
331
57A8
331
594F
331
5950
331
59AA
331
59AB
331
59B8
331
59B9
331
59C6
331
59C7
331
5AA6
331
5AA7
331
5B90
331
5B91
331
0
331
0
331
5BA8
331
5BA9
331
5BB4
331
5BB5
331
5BC3
331
5BC4
331
5C89
331
5C8A
331
5CFE
331
5CFF
331
5D0A
331
5D0B
331
5D1F
331
5D20
331
5D2B
331
5D2C
331
0
331
0
331
0
331
0
331
0
331
0
331
5D47
331
5D46
331
5B9D
331
5B9C
102
}
 70
     0
280
     1
281
     0
  0
BLOCK_RECORD
  5
68A
330
1
100
AcDbSymbolTableRecord
100
AcDbBlockTableRecord
  2
名称未設定-1
340
0
102
{BLKREFS
331
6B5
102
}
 70
     1
280
     1
281
     0
  0
BLOCK_RECORD
  5
68D
330
1
100
AcDbSymbolTableRecord
100
AcDbBlockTableRecord
  2
block 2
340
0
102
{BLKREFS
331
68C
331
1343
102
}
 70
     0
280
     1
281
     0
  0
BLOCK_RECORD
  5
690
330
1
100
AcDbSymbolTableRecord
100
AcDbBlockTableRecord
  2
block 3
340
0
102
{BLKREFS
331
68F
102
}
 70
     0
280
     1
281
     0
  0
BLOCK_RECORD
  5
693
330
1
100
AcDbSymbolTableRecord
100
AcDbBlockTableRecord
  2
block 4
340
0
102
{BLKREFS
331
692
102
}
 70
     0
280
     1
281
     0
  0
BLOCK_RECORD
  5
6A2
330
1
100
AcDbSymbolTableRecord
100
AcDbBlockTableRecord
  2
block 5
340
0
102
{BLKREFS
331
6A1
102
}
 70
     0
280
     1
281
     0
  0
BLOCK_RECORD
  5
46CE
330
1
100
AcDbSymbolTableRecord
100
AcDbBlockTableRecord
  2
*D6
340
0
 70
     0
280
     1
281
     0
  0
BLOCK_RECORD
  5
4AA3
330
1
100
AcDbSymbolTableRecord
100
AcDbBlockTableRecord
  2
*D7
340
0
 70
     0
280
     1
281
     0
  0
BLOCK_RECORD
  5
4DC3
330
1
100
AcDbSymbolTableRecord
100
AcDbBlockTableRecord
  2
*D8
340
0
 70
     0
280
     1
281
     0
  0
BLOCK_RECORD
  5
4DD2
330
1
100
AcDbSymbolTableRecord
100
AcDbBlockTableRecord
  2
*D9
340
0
 70
     0
280
     1
281
     0
  0
BLOCK_RECORD
  5
4DE2
330
1
100
AcDbSymbolTableRecord
100
AcDbBlockTableRecord
  2
*D10
340
0
 70
     0
280
     1
281
     0
  0
BLOCK_RECORD
  5
52B8
330
1
100
AcDbSymbolTableRecord
100
AcDbBlockTableRecord
  2
*D11
340
0
 70
     0
280
     1
281
     0
  0
BLOCK_RECORD
  5
545F
330
1
100
AcDbSymbolTableRecord
100
AcDbBlockTableRecord
  2
*D12
340
0
 70
     0
280
     1
281
     0
  0
BLOCK_RECORD
  5
5539
330
1
100
AcDbSymbolTableRecord
100
AcDbBlockTableRecord
  2
*D13
340
0
 70
     0
280
     1
281
     0
  0
BLOCK_RECORD
  5
57A2
330
1
100
AcDbSymbolTableRecord
100
AcDbBlockTableRecord
  2
*D14
340
0
 70
     0
280
     1
281
     0
  0
BLOCK_RECORD
  5
5949
330
1
100
AcDbSymbolTableRecord
100
AcDbBlockTableRecord
  2
*D15
340
0
 70
     0
280
     1
281
     0
  0
BLOCK_RECORD
  5
59A5
330
1
100
AcDbSymbolTableRecord
100
AcDbBlockTableRecord
  2
*D16
340
0
 70
     0
280
     1
281
     0
  0
BLOCK_RECORD
  5
59B3
330
1
100
AcDbSymbolTableRecord
100
AcDbBlockTableRecord
  2
*D17
340
0
 70
     0
280
     1
281
     0
  0
BLOCK_RECORD
  5
59C1
330
1
100
AcDbSymbolTableRecord
100
AcDbBlockTableRecord
  2
*D18
340
0
 70
     0
280
     1
281
     0
  0
BLOCK_RECORD
  5
5AA1
330
1
100
AcDbSymbolTableRecord
100
AcDbBlockTableRecord
  2
*D19
340
0
 70
     0
280
     1
281
     0
  0
BLOCK_RECORD
  5
5B8A
330
1
100
AcDbSymbolTableRecord
100
AcDbBlockTableRecord
  2
*D20
340
0
 70
     0
280
     1
281
     0
  0
BLOCK_RECORD
  5
5B96
330
1
100
AcDbSymbolTableRecord
100
AcDbBlockTableRecord
  2
*D21
340
0
 70
     0
280
     1
281
     0
  0
BLOCK_RECORD
  5
5BA2
330
1
100
AcDbSymbolTableRecord
100
AcDbBlockTableRecord
  2
*D22
340
0
 70
     0
280
     1
281
     0
  0
BLOCK_RECORD
  5
5BAE
330
1
100
AcDbSymbolTableRecord
100
AcDbBlockTableRecord
  2
*D23
340
0
 70
     0
280
     1
281
     0
  0
BLOCK_RECORD
  5
5BBD
330
1
100
AcDbSymbolTableRecord
100
AcDbBlockTableRecord
  2
*D24
340
0
 70
     0
280
     1
281
     0
  0
BLOCK_RECORD
  5
5C83
330
1
100
AcDbSymbolTableRecord
100
AcDbBlockTableRecord
  2
*D25
340
0
 70
     0
280
     1
281
     0
  0
BLOCK_RECORD
  5
5CD0
330
1
100
AcDbSymbolTableRecord
100
AcDbBlockTableRecord
  2
*D27
340
0
 70
     0
280
     1
281
     0
  0
BLOCK_RECORD
  5
5CE1
330
1
100
AcDbSymbolTableRecord
100
AcDbBlockTableRecord
  2
*D28
340
0
 70
     0
280
     1
281
     0
  0
BLOCK_RECORD
  5
5CF8
330
1
100
AcDbSymbolTableRecord
100
AcDbBlockTableRecord
  2
*D29
340
0
 70
     0
280
     1
281
     0
  0
BLOCK_RECORD
  5
5D04
330
1
100
AcDbSymbolTableRecord
100
AcDbBlockTableRecord
  2
*D30
340
0
 70
     0
280
     1
281
     0
  0
BLOCK_RECORD
  5
5D19
330
1
100
AcDbSymbolTableRecord
100
AcDbBlockTableRecord
  2
*D31
340
0
 70
     0
280
     1
281
     0
  0
BLOCK_RECORD
  5
5D25
330
1
100
AcDbSymbolTableRecord
100
AcDbBlockTableRecord
  2
*D32
340
0
 70
     0
280
     1
281
     0
  0
BLOCK_RECORD
  5
5D40
330
1
100
AcDbSymbolTableRecord
100
AcDbBlockTableRecord
  2
*D33
340
0
 70
     0
280
     1
281
     0
  0
ENDTAB
  0
ENDSEC
  0
SECTION
  2
BLOCKS
  0
BLOCK
  5
D
330
A
100
AcDbEntity
  8
0
390
1D
100
AcDbBlockBegin
  2
*MODEL_SPACE
 70
     0
 10
0.0
 20
0.0
 30
0.0
  3
*MODEL_SPACE
  1
*MODEL_SPACE
  0
ENDBLK
  5
E
330
A
100
AcDbEntity
  8
0
390
1D
100
AcDbBlockEnd
  0
BLOCK
  5
F
330
B
100
AcDbEntity
 67
     1
  8
0
390
1D
100
AcDbBlockBegin
  2
*PAPER_SPACE
 70
     0
 10
0.0
 20
0.0
 30
0.0
  3
*PAPER_SPACE
  1
*PAPER_SPACE
  0
ENDBLK
  5
10
330
B
100
AcDbEntity
 67
     1
  8
0
390
1D
100
AcDbBlockEnd
  0
BLOCK
  5
38A8
330
4E
100
AcDbEntity
  8
0
390
1D
100
AcDbBlockBegin
  2
_DOT
 70
     0
 10
0.0
 20
0.0
 30
0.0
  3
_DOT
  1
_DOT
  0
POLYLINE
  5
38AA
330
4E
100
AcDbEntity
  8
0
  6
ByBlock
 62
     0
370
    -2
390
1D
100
AcDb2dPolyline
 66
     1
 10
0.0
 20
0.0
 30
0.0
 70
     1
 40
0.5
 41
0.5
  0
VERTEX
  5
38AB
330
38AA
100
AcDbEntity
  8
0
  6
ByBlock
 62
     0
370
    -2
390
1D
100
AcDbVertex
100
AcDb2dVertex
 10
-0.25
 20
0.0
 30
0.0
 42
1.0
  0
VERTEX
  5
38AC
330
38AA
100
AcDbEntity
  8
0
  6
ByBlock
 62
     0
370
    -2
390
1D
100
AcDbVertex
100
AcDb2dVertex
 10
0.25
 20
0.0
 30
0.0
 42
1.0
  0
SEQEND
  5
38AD
330
38AA
100
AcDbEntity
  8
0
390
1D
  0
LINE
  5
38AE
330
4E
100
AcDbEntity
  8
0
  6
ByBlock
 62
     0
370
    -2
390
1D
100
AcDbLine
 10
-0.5
 20
0.0
 30
0.0
 11
-1.0
 21
0.0
 31
0.0
  0
ENDBLK
  5
38AF
330
4E
100
AcDbEntity
  8
0
390
1D
100
AcDbBlockEnd
  0
BLOCK
  5
68B
330
68A
100
AcDbEntity
  8
0
100
AcDbBlockBegin
  2
名称未設定-1
 70
     0
 10
0.0
 20
0.0
 30
0.0
  3
名称未設定-1
  1
名称未設定-1
  0
INSERT
  5
68F
330
68A
100
AcDbEntity
  8
LOGO
100
AcDbBlockReference
  2
block 3
 10
0.0
 20
0.0
 30
0.0
  0
ENDBLK
  5
6B1
330
68A
100
AcDbEntity
  8
0
100
AcDbBlockEnd
  0
BLOCK
  5
68E
330
68D
100
AcDbEntity
  8
0
100
AcDbBlockBegin
  2
block 2
 70
     0
 10
0.0
 20
0.0
 30
0.0
  3
block 2
  1
block 2
  0
ENDBLK
  5
6B0
330
68D
100
AcDbEntity
  8
0
100
AcDbBlockEnd
  0
BLOCK
  5
691
330
690
100
AcDbEntity
  8
0
100
AcDbBlockBegin
  2
block 3
 70
     0
 10
0.0
 20
0.0
 30
0.0
  3
block 3
  1
block 3
  0
INSERT
  5
692
330
690
100
AcDbEntity
  8
LOGO
100
AcDbBlockReference
  2
block 4
 10
0.0
 20
0.0
 30
0.0
  0
INSERT
  5
6A1
330
690
100
AcDbEntity
  8
LOGO
100
AcDbBlockReference
  2
block 5
 10
0.0
 20
0.0
 30
0.0
  0
ENDBLK
  5
6AF
330
690
100
AcDbEntity
  8
0
100
AcDbBlockEnd
  0
BLOCK
  5
694
330
693
100
AcDbEntity
  8
0
100
AcDbBlockBegin
  2
block 4
 70
     0
 10
0.0
 20
0.0
 30
0.0
  3
block 4
  1
block 4
  0
POLYLINE
  5
695
330
693
100
AcDbEntity
  8
LOGO
370
     0
100
AcDb2dPolyline
 66
     1
 10
0.0
 20
0.0
 30
0.0
  0
VERTEX
  5
696
330
695
100
AcDbEntity
  8
LOGO
370
     0
100
AcDbVertex
100
AcDb2dVertex
 10
83.79545727667795
 20
167.6444858234922
 30
0.0
  0
VERTEX
  5
697
330
695
100
AcDbEntity
  8
LOGO
370
     0
100
AcDbVertex
100
AcDb2dVertex
 10
83.79545727667795
 20
159.7968976406313
 30
0.0
  0
VERTEX
  5
698
330
695
100
AcDbEntity
  8
LOGO
370
     0
100
AcDbVertex
100
AcDb2dVertex
 10
71.3631329975216
 20
159.7968976406313
 30
0.0
  0
VERTEX
  5
699
330
695
100
AcDbEntity
  8
LOGO
370
     0
100
AcDbVertex
100
AcDb2dVertex
 10
71.3631329975216
 20
127.8027915271048
 30
0.0
  0
VERTEX
  5
69A
330
695
100
AcDbEntity
  8
LOGO
370
     0
100
AcDbVertex
100
AcDb2dVertex
 10
60.43011526263018
 20
127.8027915271048
 30
0.0
  0
VERTEX
  5
69B
330
695
100
AcDbEntity
  8
LOGO
370
     0
100
AcDbVertex
100
AcDb2dVertex
 10
60.43011526263018
 20
159.7968976406313
 30
0.0
  0
VERTEX
  5
69C
330
695
100
AcDbEntity
  8
LOGO
370
     0
100
AcDbVertex
100
AcDb2dVertex
 10
48.21793273020759
 20
159.7968976406313
 30
0.0
  0
VERTEX
  5
69D
330
695
100
AcDbEntity
  8
LOGO
370
     0
100
AcDbVertex
100
AcDb2dVertex
 10
48.21793273020759
 20
167.6444858234922
 30
0.0
  0
VERTEX
  5
69E
330
695
100
AcDbEntity
  8
LOGO
370
     0
100
AcDbVertex
100
AcDb2dVertex
 10
83.79545727667795
 20
167.6444858234922
 30
0.0
  0
SEQEND
  5
69F
330
695
100
AcDbEntity
  8
LOGO
370
     0
  0
HATCH
  5
6A0
330
693
100
AcDbEntity
  8
LOGO
 62
   250
420
  2234388
100
AcDbHatch
 10
0.0
 20
0.0
 30
0.0
210
0.0
220
0.0
230
1.0
  2
SOLID
 70
     1
 71
     0
 91
        1
 92
        1
 93
        8
 72
     1
 10
83.79545727667795
 20
167.6444858234922
 11
83.79545727667795
 21
159.7968976406313
 72
     1
 10
83.79545727667795
 20
159.7968976406313
 11
71.3631329975216
 21
159.7968976406313
 72
     1
 10
71.3631329975216
 20
159.7968976406313
 11
71.3631329975216
 21
127.8027915271048
 72
     1
 10
71.3631329975216
 20
127.8027915271048
 11
60.43011526263018
 21
127.8027915271048
 72
     1
 10
60.43011526263018
 20
127.8027915271048
 11
60.43011526263018
 21
159.7968976406313
 72
     1
 10
60.43011526263018
 20
159.7968976406313
 11
48.21793273020759
 21
159.7968976406313
 72
     1
 10
48.21793273020759
 20
159.7968976406313
 11
48.21793273020759
 21
167.6444858234922
 72
     1
 10
48.21793273020759
 20
167.6444858234922
 11
83.79545727667795
 21
167.6444858234922
 97
        0
 75
     2
 76
     1
 98
        0
  0
ENDBLK
  5
6AE
330
693
100
AcDbEntity
  8
0
100
AcDbBlockEnd
  0
BLOCK
  5
6A3
330
6A2
100
AcDbEntity
  8
0
100
AcDbBlockBegin
  2
block 5
 70
     0
 10
0.0
 20
0.0
 30
0.0
  3
block 5
  1
block 5
  0
SPLINE
  5
6A4
330
6A2
100
AcDbEntity
  8
LOGO
370
     0
100
AcDbSpline
210
0.0
220
0.0
230
1.0
 70
    11
 71
     3
 72
    56
 73
    52
 74
     0
 42
0.000000001
 43
0.0000000001
 40
0.0
 40
0.0
 40
0.0
 40
0.0
 40
1.0
 40
1.0
 40
1.0
 40
2.0
 40
2.0
 40
2.0
 40
3.0
 40
3.0
 40
3.0
 40
4.0
 40
4.0
 40
4.0
 40
5.0
 40
5.0
 40
5.0
 40
6.0
 40
6.0
 40
6.0
 40
7.0
 40
7.0
 40
7.0
 40
8.0
 40
8.0
 40
8.0
 40
9.0
 40
9.0
 40
9.0
 40
10.0
 40
10.0
 40
10.0
 40
11.0
 40
11.0
 40
11.0
 40
12.0
 40
12.0
 40
12.0
 40
13.0
 40
13.0
 40
13.0
 40
14.0
 40
14.0
 40
14.0
 40
15.0
 40
15.0
 40
15.0
 40
16.0
 40
16.0
 40
16.0
 40
17.0
 40
17.0
 40
17.0
 40
17.0
 10
100.4504378777679
 20
166.69157178364
 30
0.0
 10
101.9848844191641
 20
167.1313385124438
 30
0.0
 10
103.9637485713373
 20
166.7649523658846
 30
0.0
 10
103.9637485713373
 20
166.7649523658846
 30
0.0
 10
103.9637485713373
 20
166.7649523658846
 30
0.0
 10
103.0132460999156
 20
163.911205638077
 30
0.0
 10
103.0132460999156
 20
163.911205638077
 30
0.0
 10
103.0132460999156
 20
163.911205638077
 30
0.0
 10
101.0674548862189
 20
164.3601018759394
 30
0.0
 10
99.57090442016032
 20
163.1805004036133
 30
0.0
 10
98.40508333886608
 20
162.258247733807
 30
0.0
 10
97.65301849830304
 20
159.804132345923
 30
0.0
 10
97.3598406791005
 20
158.8699940888517
 30
0.0
 10
97.3598406791005
 20
158.8699940888517
 30
0.0
 10
96.07137411762282
 20
154.9119212747295
 30
0.0
 10
96.07137411762282
 20
154.9119212747295
 30
0.0
 10
96.07137411762282
 20
154.9119212747295
 30
0.0
 10
100.3012651448482
 20
154.9119212747295
 30
0.0
 10
100.3012651448482
 20
154.9119212747295
 30
0.0
 10
100.3012651448482
 20
154.9119212747295
 30
0.0
 10
99.64152892419852
 20
152.4199098115079
 30
0.0
 10
99.64152892419852
 20
152.4199098115079
 30
0.0
 10
99.64152892419852
 20
152.4199098115079
 30
0.0
 10
95.38097652692731
 20
152.4199098115079
 30
0.0
 10
95.38097652692731
 20
152.4199098115079
 30
0.0
 10
95.38097652692731
 20
152.4199098115079
 30
0.0
 10
87.75353009080013
 20
127.8027915271048
 30
0.0
 10
87.75353009080013
 20
127.8027915271048
 30
0.0
 10
87.75353009080013
 20
127.8027915271048
 30
0.0
 10
85.36538832498108
 20
127.8027915271048
 30
0.0
 10
85.36538832498108
 20
127.8027915271048
 30
0.0
 10
85.36538832498108
 20
127.8027915271048
 30
0.0
 10
93.00006946639998
 20
152.4199098115079
 30
0.0
 10
93.00006946639998
 20
152.4199098115079
 30
0.0
 10
93.00006946639998
 20
152.4199098115079
 30
0.0
 10
89.85297266450198
 20
152.4199098115079
 30
0.0
 10
89.85297266450198
 20
152.4199098115079
 30
0.0
 10
89.85297266450198
 20
152.4199098115079
 30
0.0
 10
90.51270888515164
 20
154.9119212747295
 30
0.0
 10
90.51270888515164
 20
154.9119212747295
 30
0.0
 10
90.51270888515164
 20
154.9119212747295
 30
0.0
 10
93.6904670570955
 20
154.9119212747295
 30
0.0
 10
93.6904670570955
 20
154.9119212747295
 30
0.0
 10
93.6904670570955
 20
154.9119212747295
 30
0.0
 10
94.81598049462158
 20
158.3616699146644
 30
0.0
 10
94.81598049462158
 20
158.3616699146644
 30
0.0
 10
95.7237637538445
 20
161.2605474231013
 30
0.0
 10
96.4968436907311
 20
162.8139420021662
 30
0.0
 10
97.15657991138076
 20
163.9844139654337
 30
0.0
 10
97.81183750494507
 20
165.1523021053827
 30
0.0
 10
99.1047826935081
 20
166.3084769129547
 30
0.0
 10
100.4504378777679
 20
166.69157178364
 30
0.0
  0
HATCH
  5
6A5
330
6A2
100
AcDbEntity
  8
LOGO
 62
   250
420
  2234388
100
AcDbHatch
 10
0.0
 20
0.0
 30
0.0
210
0.0
220
0.0
230
1.0
  2
SOLID
 70
     1
 71
     0
 91
        1
 92
        1
 93
        1
 72
     4
 94
        3
 73
     0
 74
     1
 95
       56
 96
       52
 40
0.0
 40
0.0
 40
0.0
 40
0.0
 40
1.0
 40
1.0
 40
1.0
 40
2.0
 40
2.0
 40
2.0
 40
3.0
 40
3.0
 40
3.0
 40
4.0
 40
4.0
 40
4.0
 40
5.0
 40
5.0
 40
5.0
 40
6.0
 40
6.0
 40
6.0
 40
7.0
 40
7.0
 40
7.0
 40
8.0
 40
8.0
 40
8.0
 40
9.0
 40
9.0
 40
9.0
 40
10.0
 40
10.0
 40
10.0
 40
11.0
 40
11.0
 40
11.0
 40
12.0
 40
12.0
 40
12.0
 40
13.0
 40
13.0
 40
13.0
 40
14.0
 40
14.0
 40
14.0
 40
15.0
 40
15.0
 40
15.0
 40
16.0
 40
16.0
 40
16.0
 40
17.0
 40
17.0
 40
17.0
 40
17.0
 10
100.4504378777679
 20
166.69157178364
 10
101.9848844191641
 20
167.1313385124438
 10
103.9637485713373
 20
166.7649523658846
 10
103.9637485713373
 20
166.7649523658846
 10
103.9637485713373
 20
166.7649523658846
 10
103.0132460999156
 20
163.911205638077
 10
103.0132460999156
 20
163.911205638077
 10
103.0132460999156
 20
163.911205638077
 10
101.0674548862189
 20
164.3601018759394
 10
99.57090442016032
 20
163.1805004036133
 10
98.40508333886608
 20
162.258247733807
 10
97.65301849830304
 20
159.804132345923
 10
97.3598406791005
 20
158.8699940888517
 10
97.3598406791005
 20
158.8699940888517
 10
96.07137411762282
 20
154.9119212747295
 10
96.07137411762282
 20
154.9119212747295
 10
96.07137411762282
 20
154.9119212747295
 10
100.3012651448482
 20
154.9119212747295
 10
100.3012651448482
 20
154.9119212747295
 10
100.3012651448482
 20
154.9119212747295
 10
99.64152892419852
 20
152.4199098115079
 10
99.64152892419852
 20
152.4199098115079
 10
99.64152892419852
 20
152.4199098115079
 10
95.38097652692731
 20
152.4199098115079
 10
95.38097652692731
 20
152.4199098115079
 10
95.38097652692731
 20
152.4199098115079
 10
87.75353009080013
 20
127.8027915271048
 10
87.75353009080013
 20
127.8027915271048
 10
87.75353009080013
 20
127.8027915271048
 10
85.36538832498108
 20
127.8027915271048
 10
85.36538832498108
 20
127.8027915271048
 10
85.36538832498108
 20
127.8027915271048
 10
93.00006946639998
 20
152.4199098115079
 10
93.00006946639998
 20
152.4199098115079
 10
93.00006946639998
 20
152.4199098115079
 10
89.85297266450198
 20
152.4199098115079
 10
89.85297266450198
 20
152.4199098115079
 10
89.85297266450198
 20
152.4199098115079
 10
90.51270888515164
 20
154.9119212747295
 10
90.51270888515164
 20
154.9119212747295
 10
90.51270888515164
 20
154.9119212747295
 10
93.6904670570955
 20
154.9119212747295
 10
93.6904670570955
 20
154.9119212747295
 10
93.6904670570955
 20
154.9119212747295
 10
94.81598049462158
 20
158.3616699146644
 10
94.81598049462158
 20
158.3616699146644
 10
95.7237637538445
 20
161.2605474231013
 10
96.4968436907311
 20
162.8139420021662
 10
97.15657991138076
 20
163.9844139654337
 10
97.81183750494507
 20
165.1523021053827
 10
99.1047826935081
 20
166.3084769129547
 10
100.4504378777679
 20
166.69157178364
 97
        0
 75
     2
 76
     1
 98
        0
  0
SPLINE
  5
6A6
330
6A2
100
AcDbEntity
  8
LOGO
370
     0
100
AcDbSpline
210
0.0
220
0.0
230
1.0
 70
    11
 71
     3
 72
    38
 73
    34
 74
     0
 42
0.000000001
 43
0.0000000001
 40
0.0
 40
0.0
 40
0.0
 40
0.0
 40
1.0
 40
1.0
 40
1.0
 40
2.0
 40
2.0
 40
2.0
 40
3.0
 40
3.0
 40
3.0
 40
4.0
 40
4.0
 40
4.0
 40
5.0
 40
5.0
 40
5.0
 40
6.0
 40
6.0
 40
6.0
 40
7.0
 40
7.0
 40
7.0
 40
8.0
 40
8.0
 40
8.0
 40
9.0
 40
9.0
 40
9.0
 40
10.0
 40
10.0
 40
10.0
 40
11.0
 40
11.0
 40
11.0
 40
11.0
 10
126.377554584636
 20
154.8151140277308
 30
0.0
 10
126.377554584636
 20
154.8151140277308
 30
0.0
 10
128.8311532078563
 20
154.8151140277308
 30
0.0
 10
128.8311532078563
 20
154.8151140277308
 30
0.0
 10
128.8311532078563
 20
154.8151140277308
 30
0.0
 10
127.7345785914971
 20
151.3062819612468
 30
0.0
 10
127.7345785914971
 20
151.3062819612468
 30
0.0
 10
128.571392836906
 20
152.2922689395754
 30
0.0
 10
129.8860421413442
 20
153.604506675583
 30
0.0
 10
131.0163787157314
 20
154.2664822097754
 30
0.0
 10
132.7044766171327
 20
155.2500576196734
 30
0.0
 10
133.6642808525008
 20
155.3847609420097
 30
0.0
 10
134.7284715499351
 20
155.3565111403944
 30
0.0
 10
134.7284715499351
 20
155.3565111403944
 30
0.0
 10
133.6877075172549
 20
152.0345756272799
 30
0.0
 10
133.6877075172549
 20
152.0345756272799
 30
0.0
 10
133.011434827367
 20
152.3184516825359
 30
0.0
 10
130.930940291334
 20
151.7768823149844
 30
0.0
 10
129.739280976855
 20
150.9162968950455
 30
0.0
 10
128.66613302525
 20
150.1454562717016
 30
0.0
 10
127.9192358313239
 20
149.4857200510519
 30
0.0
 10
127.0393578639405
 20
147.8282835196966
 30
0.0
 10
126.164647543194
 20
146.1699857139017
 30
0.0
 10
125.4742499524985
 20
143.5262176944419
 30
0.0
 10
124.2822461282437
 20
139.6959580071401
 30
0.0
 10
124.2822461282437
 20
139.6959580071401
 30
0.0
 10
120.5753209406769
 20
127.8027915271048
 30
0.0
 10
120.5753209406769
 20
127.8027915271048
 30
0.0
 10
120.5753209406769
 20
127.8027915271048
 30
0.0
 10
118.1964809388044
 20
127.8027915271048
 30
0.0
 10
118.1964809388044
 20
127.8027915271048
 30
0.0
 10
118.1964809388044
 20
127.8027915271048
 30
0.0
 10
126.377554584636
 20
154.8151140277308
 30
0.0
 10
126.377554584636
 20
154.8151140277308
 30
0.0
  0
HATCH
  5
6A7
330
6A2
100
AcDbEntity
  8
LOGO
 62
   250
420
  2234388
100
AcDbHatch
 10
0.0
 20
0.0
 30
0.0
210
0.0
220
0.0
230
1.0
  2
SOLID
 70
     1
 71
     0
 91
        1
 92
        1
 93
        1
 72
     4
 94
        3
 73
     0
 74
     1
 95
       38
 96
       34
 40
0.0
 40
0.0
 40
0.0
 40
0.0
 40
1.0
 40
1.0
 40
1.0
 40
2.0
 40
2.0
 40
2.0
 40
3.0
 40
3.0
 40
3.0
 40
4.0
 40
4.0
 40
4.0
 40
5.0
 40
5.0
 40
5.0
 40
6.0
 40
6.0
 40
6.0
 40
7.0
 40
7.0
 40
7.0
 40
8.0
 40
8.0
 40
8.0
 40
9.0
 40
9.0
 40
9.0
 40
10.0
 40
10.0
 40
10.0
 40
11.0
 40
11.0
 40
11.0
 40
11.0
 10
126.377554584636
 20
154.8151140277308
 10
126.377554584636
 20
154.8151140277308
 10
128.8311532078563
 20
154.8151140277308
 10
128.8311532078563
 20
154.8151140277308
 10
128.8311532078563
 20
154.8151140277308
 10
127.7345785914971
 20
151.3062819612468
 10
127.7345785914971
 20
151.3062819612468
 10
128.571392836906
 20
152.2922689395754
 10
129.8860421413442
 20
153.604506675583
 10
131.0163787157314
 20
154.2664822097754
 10
132.7044766171327
 20
155.2500576196734
 10
133.6642808525008
 20
155.3847609420097
 10
134.7284715499351
 20
155.3565111403944
 10
134.7284715499351
 20
155.3565111403944
 10
133.6877075172549
 20
152.0345756272799
 10
133.6877075172549
 20
152.0345756272799
 10
133.011434827367
 20
152.3184516825359
 10
130.930940291334
 20
151.7768823149844
 10
129.739280976855
 20
150.9162968950455
 10
128.66613302525
 20
150.1454562717016
 10
127.9192358313239
 20
149.4857200510519
 10
127.0393578639405
 20
147.8282835196966
 10
126.164647543194
 20
146.1699857139017
 10
125.4742499524985
 20
143.5262176944419
 10
124.2822461282437
 20
139.6959580071401
 10
124.2822461282437
 20
139.6959580071401
 10
120.5753209406769
 20
127.8027915271048
 10
120.5753209406769
 20
127.8027915271048
 10
120.5753209406769
 20
127.8027915271048
 10
118.1964809388044
 20
127.8027915271048
 10
118.1964809388044
 20
127.8027915271048
 10
118.1964809388044
 20
127.8027915271048
 10
126.377554584636
 20
154.8151140277308
 10
126.377554584636
 20
154.8151140277308
 97
        0
 75
     2
 76
     1
 98
        0
  0
SPLINE
  5
6A8
330
6A2
100
AcDbEntity
  8
LOGO
370
     0
100
AcDbSpline
210
0.0
220
0.0
230
1.0
 70
    11
 71
     3
 72
   104
 73
   100
 74
     0
 42
0.000000001
 43
0.0000000001
 40
0.0
 40
0.0
 40
0.0
 40
0.0
 40
1.0
 40
1.0
 40
1.0
 40
2.0
 40
2.0
 40
2.0
 40
3.0
 40
3.0
 40
3.0
 40
4.0
 40
4.0
 40
4.0
 40
5.0
 40
5.0
 40
5.0
 40
6.0
 40
6.0
 40
6.0
 40
7.0
 40
7.0
 40
7.0
 40
8.0
 40
8.0
 40
8.0
 40
9.0
 40
9.0
 40
9.0
 40
10.0
 40
10.0
 40
10.0
 40
11.0
 40
11.0
 40
11.0
 40
12.0
 40
12.0
 40
12.0
 40
13.0
 40
13.0
 40
13.0
 40
14.0
 40
14.0
 40
14.0
 40
15.0
 40
15.0
 40
15.0
 40
16.0
 40
16.0
 40
16.0
 40
17.0
 40
17.0
 40
17.0
 40
18.0
 40
18.0
 40
18.0
 40
19.0
 40
19.0
 40
19.0
 40
20.0
 40
20.0
 40
20.0
 40
21.0
 40
21.0
 40
21.0
 40
22.0
 40
22.0
 40
22.0
 40
23.0
 40
23.0
 40
23.0
 40
24.0
 40
24.0
 40
24.0
 40
25.0
 40
25.0
 40
25.0
 40
26.0
 40
26.0
 40
26.0
 40
27.0
 40
27.0
 40
27.0
 40
28.0
 40
28.0
 40
28.0
 40
29.0
 40
29.0
 40
29.0
 40
30.0
 40
30.0
 40
30.0
 40
31.0
 40
31.0
 40
31.0
 40
32.0
 40
32.0
 40
32.0
 40
33.0
 40
33.0
 40
33.0
 40
33.0
 10
139.8926730891197
 20
154.8294111834263
 30
0.0
 10
139.8926730891197
 20
154.8294111834263
 30
0.0
 10
142.0344903652445
 20
154.8294111834263
 30
0.0
 10
142.0344903652445
 20
154.8294111834263
 30
0.0
 10
142.0344903652445
 20
154.8294111834263
 30
0.0
 10
140.9516961399171
 20
151.3157559800812
 30
0.0
 10
140.9516961399171
 20
151.3157559800812
 30
0.0
 10
141.8928968473923
 20
152.7887075264977
 30
0.0
 10
142.7341897198865
 20
153.4484437471474
 30
0.0
 10
143.8552245303272
 20
154.2926649527359
 30
0.0
 10
144.9803934580775
 20
155.1296514530327
 30
0.0
 10
146.3139908001845
 20
155.3044901642492
 30
0.0
 10
147.241066606852
 20
155.3044901642492
 30
0.0
 10
148.3855280820469
 20
155.3044901642492
 30
0.0
 10
149.4969166187653
 20
155.0752189084569
 30
0.0
 10
150.0784491203092
 20
153.8172414621372
 30
0.0
 10
150.5228667310863
 20
152.833838307127
 30
0.0
 10
150.5414702589793
 20
152.7201500811143
 30
0.0
 10
150.4140016419347
 20
150.7765981809602
 30
0.0
 10
151.5818897818837
 20
152.7699317437168
 30
0.0
 10
152.4424752018226
 20
153.6256940267945
 30
0.0
 10
153.9038856707499
 20
154.4507949398263
 30
0.0
 10
155.4455669174378
 20
155.3044901642492
 30
0.0
 10
156.339225275853
 20
155.3659851592288
 30
0.0
 10
157.3748216618963
 20
155.2147453676543
 30
0.0
 10
158.911679771723
 20
154.9877134254046
 30
0.0
 10
159.8859534176746
 20
154.4390816074493
 30
0.0
 10
160.3965169054045
 20
152.7816450760939
 30
0.0
 10
160.9070803931344
 20
151.1219692311958
 30
0.0
 10
160.6328506116007
 20
150.2303779314354
 30
0.0
 10
159.9992971339115
 20
147.597634224801
 30
0.0
 10
159.7105979417943
 20
146.4014962832367
 30
0.0
 10
159.2947746424084
 20
144.9400858143094
 30
0.0
 10
158.7463150793409
 20
143.2092687007094
 30
0.0
 10
158.7463150793409
 20
143.2092687007094
 30
0.0
 10
153.9038856707499
 20
127.8027915271048
 30
0.0
 10
153.9038856707499
 20
127.8027915271048
 30
0.0
 10
153.9038856707499
 20
127.8027915271048
 30
0.0
 10
151.3882752878863
 20
127.8027915271048
 30
0.0
 10
151.3882752878863
 20
127.8027915271048
 30
0.0
 10
151.3882752878863
 20
127.8027915271048
 30
0.0
 10
155.6250565106276
 20
141.2751908193897
 30
0.0
 10
155.6250565106276
 20
141.2751908193897
 30
0.0
 10
156.5094131050963
 20
144.0936252951782
 30
0.0
 10
157.109893644309
 20
146.1506931664571
 30
0.0
 10
157.4220195011804
 20
147.4415712963654
 30
0.0
 10
157.8095929989511
 20
149.0530157726519
 30
0.0
 10
157.9656559273867
 20
149.5826995529385
 30
0.0
 10
157.7816877071116
 20
150.7529992613181
 30
0.0
 10
157.6111553680925
 20
151.8430281919372
 30
0.0
 10
157.0582171779396
 20
152.5547853887321
 30
0.0
 10
156.1170164704645
 20
152.5547853887321
 30
0.0
 10
155.1096698860365
 20
152.5547853887321
 30
0.0
 10
154.2962823053817
 20
152.4412694176073
 30
0.0
 10
153.156643967048
 20
151.2945686288697
 30
0.0
 10
152.0170056287143
 20
150.1476955852443
 30
0.0
 10
151.076149431015
 20
148.7930831468137
 30
0.0
 10
150.3337308641742
 20
147.2290087646991
 30
0.0
 10
149.5957909244188
 20
145.6683794803425
 30
0.0
 10
148.8530278478023
 20
143.6822806228776
 30
0.0
 10
148.0964843801539
 20
141.2751908193897
 30
0.0
 10
148.0964843801539
 20
141.2751908193897
 30
0.0
 10
143.8552245303272
 20
127.8027915271048
 30
0.0
 10
143.8552245303272
 20
127.8027915271048
 30
0.0
 10
143.8552245303272
 20
127.8027915271048
 30
0.0
 10
141.486030802177
 20
127.8027915271048
 30
0.0
 10
141.486030802177
 20
127.8027915271048
 30
0.0
 10
141.486030802177
 20
127.8027915271048
 30
0.0
 10
146.3329388378533
 20
143.2092687007094
 30
0.0
 10
146.3329388378533
 20
143.2092687007094
 30
0.0
 10
146.8483254624444
 20
144.8408669988801
 30
0.0
 10
147.2314203331297
 20
146.1837661049335
 30
0.0
 10
147.4867020769946
 20
147.224185627838
 30
0.0
 10
147.9169947869641
 20
149.0197705792876
 30
0.0
 10
148.0306830129768
 20
150.2400242051577
 30
0.0
 10
147.709255392159
 20
151.3157559800812
 30
0.0
 10
147.3874832615654
 20
152.3916600098926
 30
0.0
 10
146.8245542879144
 20
152.6683013598569
 30
0.0
 10
145.8840425999909
 20
152.6683013598569
 30
0.0
 10
145.0989048209514
 20
152.6683013598569
 30
0.0
 10
144.3282364524954
 20
152.3275811915945
 30
0.0
 10
143.4531816219731
 20
151.6538923250251
 30
0.0
 10
142.34627171234
 20
150.8074318058939
 30
0.0
 10
141.901854101563
 20
150.1097995099067
 30
0.0
 10
141.3578731655808
 20
149.289521733736
 30
0.0
 10
140.6299240093235
 20
148.192602607601
 30
0.0
 10
140.2850697237515
 20
147.455696197173
 30
0.0
 10
139.6652966370942
 20
145.8385673095858
 30
0.0
 10
139.0506911970739
 20
144.2214384219986
 30
0.0
 10
138.463991048893
 20
142.3252566160164
 30
0.0
 10
138.0571250036777
 20
141.0154304484394
 30
0.0
 10
138.0571250036777
 20
141.0154304484394
 30
0.0
 10
133.9009590684727
 20
127.8027915271048
 30
0.0
 10
133.9009590684727
 20
127.8027915271048
 30
0.0
 10
133.9009590684727
 20
127.8027915271048
 30
0.0
 10
131.4180771143097
 20
127.8027915271048
 30
0.0
 10
131.4180771143097
 20
127.8027915271048
 30
0.0
 10
131.4180771143097
 20
127.8027915271048
 30
0.0
 10
139.8926730891197
 20
154.8294111834263
 30
0.0
 10
139.8926730891197
 20
154.8294111834263
 30
0.0
  0
HATCH
  5
6A9
330
6A2
100
AcDbEntity
  8
LOGO
 62
   250
420
  2234388
100
AcDbHatch
 10
0.0
 20
0.0
 30
0.0
210
0.0
220
0.0
230
1.0
  2
SOLID
 70
     1
 71
     0
 91
        1
 92
        1
 93
        1
 72
     4
 94
        3
 73
     0
 74
     1
 95
      104
 96
      100
 40
0.0
 40
0.0
 40
0.0
 40
0.0
 40
1.0
 40
1.0
 40
1.0
 40
2.0
 40
2.0
 40
2.0
 40
3.0
 40
3.0
 40
3.0
 40
4.0
 40
4.0
 40
4.0
 40
5.0
 40
5.0
 40
5.0
 40
6.0
 40
6.0
 40
6.0
 40
7.0
 40
7.0
 40
7.0
 40
8.0
 40
8.0
 40
8.0
 40
9.0
 40
9.0
 40
9.0
 40
10.0
 40
10.0
 40
10.0
 40
11.0
 40
11.0
 40
11.0
 40
12.0
 40
12.0
 40
12.0
 40
13.0
 40
13.0
 40
13.0
 40
14.0
 40
14.0
 40
14.0
 40
15.0
 40
15.0
 40
15.0
 40
16.0
 40
16.0
 40
16.0
 40
17.0
 40
17.0
 40
17.0
 40
18.0
 40
18.0
 40
18.0
 40
19.0
 40
19.0
 40
19.0
 40
20.0
 40
20.0
 40
20.0
 40
21.0
 40
21.0
 40
21.0
 40
22.0
 40
22.0
 40
22.0
 40
23.0
 40
23.0
 40
23.0
 40
24.0
 40
24.0
 40
24.0
 40
25.0
 40
25.0
 40
25.0
 40
26.0
 40
26.0
 40
26.0
 40
27.0
 40
27.0
 40
27.0
 40
28.0
 40
28.0
 40
28.0
 40
29.0
 40
29.0
 40
29.0
 40
30.0
 40
30.0
 40
30.0
 40
31.0
 40
31.0
 40
31.0
 40
32.0
 40
32.0
 40
32.0
 40
33.0
 40
33.0
 40
33.0
 40
33.0
 10
139.8926730891197
 20
154.8294111834263
 10
139.8926730891197
 20
154.8294111834263
 10
142.0344903652445
 20
154.8294111834263
 10
142.0344903652445
 20
154.8294111834263
 10
142.0344903652445
 20
154.8294111834263
 10
140.9516961399171
 20
151.3157559800812
 10
140.9516961399171
 20
151.3157559800812
 10
141.8928968473923
 20
152.7887075264977
 10
142.7341897198865
 20
153.4484437471474
 10
143.8552245303272
 20
154.2926649527359
 10
144.9803934580775
 20
155.1296514530327
 10
146.3139908001845
 20
155.3044901642492
 10
147.241066606852
 20
155.3044901642492
 10
148.3855280820469
 20
155.3044901642492
 10
149.4969166187653
 20
155.0752189084569
 10
150.0784491203092
 20
153.8172414621372
 10
150.5228667310863
 20
152.833838307127
 10
150.5414702589793
 20
152.7201500811143
 10
150.4140016419347
 20
150.7765981809602
 10
151.5818897818837
 20
152.7699317437168
 10
152.4424752018226
 20
153.6256940267945
 10
153.9038856707499
 20
154.4507949398263
 10
155.4455669174378
 20
155.3044901642492
 10
156.339225275853
 20
155.3659851592288
 10
157.3748216618963
 20
155.2147453676543
 10
158.911679771723
 20
154.9877134254046
 10
159.8859534176746
 20
154.4390816074493
 10
160.3965169054045
 20
152.7816450760939
 10
160.9070803931344
 20
151.1219692311958
 10
160.6328506116007
 20
150.2303779314354
 10
159.9992971339115
 20
147.597634224801
 10
159.7105979417943
 20
146.4014962832367
 10
159.2947746424084
 20
144.9400858143094
 10
158.7463150793409
 20
143.2092687007094
 10
158.7463150793409
 20
143.2092687007094
 10
153.9038856707499
 20
127.8027915271048
 10
153.9038856707499
 20
127.8027915271048
 10
153.9038856707499
 20
127.8027915271048
 10
151.3882752878863
 20
127.8027915271048
 10
151.3882752878863
 20
127.8027915271048
 10
151.3882752878863
 20
127.8027915271048
 10
155.6250565106276
 20
141.2751908193897
 10
155.6250565106276
 20
141.2751908193897
 10
156.5094131050963
 20
144.0936252951782
 10
157.109893644309
 20
146.1506931664571
 10
157.4220195011804
 20
147.4415712963654
 10
157.8095929989511
 20
149.0530157726519
 10
157.9656559273867
 20
149.5826995529385
 10
157.7816877071116
 20
150.7529992613181
 10
157.6111553680925
 20
151.8430281919372
 10
157.0582171779396
 20
152.5547853887321
 10
156.1170164704645
 20
152.5547853887321
 10
155.1096698860365
 20
152.5547853887321
 10
154.2962823053817
 20
152.4412694176073
 10
153.156643967048
 20
151.2945686288697
 10
152.0170056287143
 20
150.1476955852443
 10
151.076149431015
 20
148.7930831468137
 10
150.3337308641742
 20
147.2290087646991
 10
149.5957909244188
 20
145.6683794803425
 10
148.8530278478023
 20
143.6822806228776
 10
148.0964843801539
 20
141.2751908193897
 10
148.0964843801539
 20
141.2751908193897
 10
143.8552245303272
 20
127.8027915271048
 10
143.8552245303272
 20
127.8027915271048
 10
143.8552245303272
 20
127.8027915271048
 10
141.486030802177
 20
127.8027915271048
 10
141.486030802177
 20
127.8027915271048
 10
141.486030802177
 20
127.8027915271048
 10
146.3329388378533
 20
143.2092687007094
 10
146.3329388378533
 20
143.2092687007094
 10
146.8483254624444
 20
144.8408669988801
 10
147.2314203331297
 20
146.1837661049335
 10
147.4867020769946
 20
147.224185627838
 10
147.9169947869641
 20
149.0197705792876
 10
148.0306830129768
 20
150.2400242051577
 10
147.709255392159
 20
151.3157559800812
 10
147.3874832615654
 20
152.3916600098926
 10
146.8245542879144
 20
152.6683013598569
 10
145.8840425999909
 20
152.6683013598569
 10
145.0989048209514
 20
152.6683013598569
 10
144.3282364524954
 20
152.3275811915945
 10
143.4531816219731
 20
151.6538923250251
 10
142.34627171234
 20
150.8074318058939
 10
141.901854101563
 20
150.1097995099067
 10
141.3578731655808
 20
149.289521733736
 10
140.6299240093235
 20
148.192602607601
 10
140.2850697237515
 20
147.455696197173
 10
139.6652966370942
 20
145.8385673095858
 10
139.0506911970739
 20
144.2214384219986
 10
138.463991048893
 20
142.3252566160164
 10
138.0571250036777
 20
141.0154304484394
 10
138.0571250036777
 20
141.0154304484394
 10
133.9009590684727
 20
127.8027915271048
 10
133.9009590684727
 20
127.8027915271048
 10
133.9009590684727
 20
127.8027915271048
 10
131.4180771143097
 20
127.8027915271048
 10
131.4180771143097
 20
127.8027915271048
 10
131.4180771143097
 20
127.8027915271048
 10
139.8926730891197
 20
154.8294111834263
 10
139.8926730891197
 20
154.8294111834263
 97
        0
 75
     2
 76
     1
 98
        0
  0
SPLINE
  5
6AA
330
6A2
100
AcDbEntity
  8
LOGO
370
     0
100
AcDbSpline
210
0.0
220
0.0
230
1.0
 70
    11
 71
     3
 72
    29
 73
    25
 74
     0
 42
0.000000001
 43
0.0000000001
 40
0.0
 40
0.0
 40
0.0
 40
0.0
 40
1.0
 40
1.0
 40
1.0
 40
2.0
 40
2.0
 40
2.0
 40
3.0
 40
3.0
 40
3.0
 40
4.0
 40
4.0
 40
4.0
 40
5.0
 40
5.0
 40
5.0
 40
6.0
 40
6.0
 40
6.0
 40
7.0
 40
7.0
 40
7.0
 40
8.0
 40
8.0
 40
8.0
 40
8.0
 10
101.6420971922469
 20
132.8388354296931
 30
0.0
 10
101.630039350094
 20
134.7164137077823
 30
0.0
 10
102.2236296937908
 20
138.0598810818841
 30
0.0
 10
103.7487744712405
 20
142.5378191476827
 30
0.0
 10
105.819967243327
 20
148.5896501242061
 30
0.0
 10
107.0602024361932
 20
150.8074318058939
 30
0.0
 10
108.1522984254671
 20
151.8833358357054
 30
0.0
 10
109.741177511439
 20
153.4532668840085
 30
0.0
 10
111.8740375333931
 20
153.5290590346837
 30
0.0
 10
112.5075910110823
 20
153.4532668840085
 30
0.0
 10
113.4012493694975
 20
153.3490526768302
 30
0.0
 10
114.6683563248758
 20
152.7580461564518
 30
0.0
 10
114.7493161221879
 20
150.7838328862519
 30
0.0
 10
114.8106388622796
 20
149.0909118479895
 30
0.0
 10
114.3186789024427
 20
145.9191825971221
 30
0.0
 10
112.6164561002338
 20
140.9489400617108
 30
0.0
 10
110.6444821435766
 20
135.1746117095912
 30
0.0
 10
109.4669477299053
 20
132.8960240524753
 30
0.0
 10
108.5212683953448
 20
131.9072809959403
 30
0.0
 10
106.7346406980658
 20
130.0538184021569
 30
0.0
 10
104.8222669326213
 20
130.2336525051225
 30
0.0
 10
104.5408024457958
 20
130.2336525051225
 30
0.0
 10
104.1721769856939
 20
130.2336525051225
 30
0.0
 10
101.6465758193322
 20
130.6305277668397
 30
0.0
 10
101.6420971922469
 20
132.8388354296931
 30
0.0
  0
SPLINE
  5
6AB
330
6A2
100
AcDbEntity
  8
LOGO
370
     0
100
AcDbSpline
210
0.0
220
0.0
230
1.0
 70
    11
 71
     3
 72
    32
 73
    28
 74
     0
 42
0.000000001
 43
0.0000000001
 40
0.0
 40
0.0
 40
0.0
 40
0.0
 40
1.0
 40
1.0
 40
1.0
 40
2.0
 40
2.0
 40
2.0
 40
3.0
 40
3.0
 40
3.0
 40
4.0
 40
4.0
 40
4.0
 40
5.0
 40
5.0
 40
5.0
 40
6.0
 40
6.0
 40
6.0
 40
7.0
 40
7.0
 40
7.0
 40
8.0
 40
8.0
 40
8.0
 40
9.0
 40
9.0
 40
9.0
 40
9.0
 10
106.2595617172429
 20
153.4105476718098
 30
0.0
 10
104.8222669326213
 20
151.5474388043041
 30
0.0
 10
103.7177685914188
 20
149.8758773721411
 30
0.0
 10
101.9232171692965
 20
144.6141795664062
 30
0.0
 10
100.2754269116635
 20
139.7999999594306
 30
0.0
 10
99.22777268346732
 20
136.3052927937542
 30
0.0
 10
99.06964269637689
 20
132.039572749846
 30
0.0
 10
98.94665270641765
 20
128.8673267343149
 30
0.0
 10
100.8807305877373
 20
127.8027915271048
 30
0.0
 10
103.7129454545577
 20
127.8027915271048
 30
0.0
 10
104.9352661390825
 20
127.8027915271048
 30
0.0
 10
108.0151835347002
 20
127.8827177950895
 30
0.0
 10
110.2045431598849
 20
130.5926316915021
 30
0.0
 10
111.7417457794874
 20
132.4984597712065
 30
0.0
 10
113.155269389579
 20
134.475256864725
 30
0.0
 10
115.0562743324223
 20
140.9489400617108
 30
0.0
 10
116.6361961642235
 20
146.3680788349845
 30
0.0
 10
117.7282921534974
 20
149.8639917848761
 30
0.0
 10
117.6480213757369
 20
151.8595646611754
 30
0.0
 10
117.6480213757369
 20
151.8595646611754
 30
0.0
 10
117.6480213757369
 20
151.8595646611754
 30
0.0
 10
117.6480213757369
 20
151.8595646611754
 30
0.0
 10
117.13229024137
 20
155.18150017429
 30
0.0
 10
114.7162431837115
 20
155.886194920681
 30
0.0
 10
113.3351034925446
 20
155.886194920681
 30
0.0
 10
111.9829026225447
 20
155.886194920681
 30
0.0
 10
108.3414342923792
 20
156.1251124501957
 30
0.0
 10
106.2595617172429
 20
153.4105476718098
 30
0.0
  0
HATCH
  5
6AC
330
6A2
100
AcDbEntity
  8
LOGO
 62
   250
420
  2234388
100
AcDbHatch
 10
0.0
 20
0.0
 30
0.0
210
0.0
220
0.0
230
1.0
  2
SOLID
 70
     1
 71
     0
 91
        2
 92
        1
 93
        1
 72
     4
 94
        3
 73
     0
 74
     1
 95
       29
 96
       25
 40
0.0
 40
0.0
 40
0.0
 40
0.0
 40
1.0
 40
1.0
 40
1.0
 40
2.0
 40
2.0
 40
2.0
 40
3.0
 40
3.0
 40
3.0
 40
4.0
 40
4.0
 40
4.0
 40
5.0
 40
5.0
 40
5.0
 40
6.0
 40
6.0
 40
6.0
 40
7.0
 40
7.0
 40
7.0
 40
8.0
 40
8.0
 40
8.0
 40
8.0
 10
101.6420971922469
 20
132.8388354296931
 10
101.630039350094
 20
134.7164137077823
 10
102.2236296937908
 20
138.0598810818841
 10
103.7487744712405
 20
142.5378191476827
 10
105.819967243327
 20
148.5896501242061
 10
107.0602024361932
 20
150.8074318058939
 10
108.1522984254671
 20
151.8833358357054
 10
109.741177511439
 20
153.4532668840085
 10
111.8740375333931
 20
153.5290590346837
 10
112.5075910110823
 20
153.4532668840085
 10
113.4012493694975
 20
153.3490526768302
 10
114.6683563248758
 20
152.7580461564518
 10
114.7493161221879
 20
150.7838328862519
 10
114.8106388622796
 20
149.0909118479895
 10
114.3186789024427
 20
145.9191825971221
 10
112.6164561002338
 20
140.9489400617108
 10
110.6444821435766
 20
135.1746117095912
 10
109.4669477299053
 20
132.8960240524753
 10
108.5212683953448
 20
131.9072809959403
 10
106.7346406980658
 20
130.0538184021569
 10
104.8222669326213
 20
130.2336525051225
 10
104.5408024457958
 20
130.2336525051225
 10
104.1721769856939
 20
130.2336525051225
 10
101.6465758193322
 20
130.6305277668397
 10
101.6420971922469
 20
132.8388354296931
 97
        0
 92
        1
 93
        1
 72
     4
 94
        3
 73
     0
 74
     1
 95
       32
 96
       28
 40
0.0
 40
0.0
 40
0.0
 40
0.0
 40
1.0
 40
1.0
 40
1.0
 40
2.0
 40
2.0
 40
2.0
 40
3.0
 40
3.0
 40
3.0
 40
4.0
 40
4.0
 40
4.0
 40
5.0
 40
5.0
 40
5.0
 40
6.0
 40
6.0
 40
6.0
 40
7.0
 40
7.0
 40
7.0
 40
8.0
 40
8.0
 40
8.0
 40
9.0
 40
9.0
 40
9.0
 40
9.0
 10
106.2595617172429
 20
153.4105476718098
 10
104.8222669326213
 20
151.5474388043041
 10
103.7177685914188
 20
149.8758773721411
 10
101.9232171692965
 20
144.6141795664062
 10
100.2754269116635
 20
139.7999999594306
 10
99.22777268346732
 20
136.3052927937542
 10
99.06964269637689
 20
132.039572749846
 10
98.94665270641765
 20
128.8673267343149
 10
100.8807305877373
 20
127.8027915271048
 10
103.7129454545577
 20
127.8027915271048
 10
104.9352661390825
 20
127.8027915271048
 10
108.0151835347002
 20
127.8827177950895
 10
110.2045431598849
 20
130.5926316915021
 10
111.7417457794874
 20
132.4984597712065
 10
113.155269389579
 20
134.475256864725
 10
115.0562743324223
 20
140.9489400617108
 10
116.6361961642235
 20
146.3680788349845
 10
117.7282921534974
 20
149.8639917848761
 10
117.6480213757369
 20
151.8595646611754
 10
117.6480213757369
 20
151.8595646611754
 10
117.6480213757369
 20
151.8595646611754
 10
117.6480213757369
 20
151.8595646611754
 10
117.13229024137
 20
155.18150017429
 10
114.7162431837115
 20
155.886194920681
 10
113.3351034925446
 20
155.886194920681
 10
111.9829026225447
 20
155.886194920681
 10
108.3414342923792
 20
156.1251124501957
 10
106.2595617172429
 20
153.4105476718098
 97
        0
 75
     2
 76
     1
 98
        0
  0
ENDBLK
  5
6AD
330
6A2
100
AcDbEntity
  8
0
100
AcDbBlockEnd
  0
BLOCK
  5
46CF
330
46CE
100
AcDbEntity
  8
0
100
AcDbBlockBegin
  2
*D6
 70
     1
 10
0.0
 20
0.0
 30
0.0
  3
*D6
  1
*D140
  0
LINE
  5
46D1
330
46CE
100
AcDbEntity
  8
DIM
 62
     0
 48
0.05
370
    -2
100
AcDbLine
 10
202.8329688988288
 20
279.0419917857798
 30
0.0
 11
184.4986738632034
 21
279.0419917857798
 31
0.0
  0
LINE
  5
46D2
330
46CE
100
AcDbEntity
  8
DIM
 62
     0
 48
0.05
370
    -2
100
AcDbLine
 10
202.8329688988288
 20
214.0419917857797
 30
0.0
 11
184.4986738632034
 21
214.0419917857797
 31
0.0
  0
LINE
  5
46D3
330
46CE
100
AcDbEntity
  8
DIM
 62
     0
 48
0.05
370
    -2
100
AcDbLine
 10
184.4986738632034
 20
278.0419917857798
 30
0.0
 11
184.4986738632034
 21
215.0419917857797
 31
0.0
  0
INSERT
  5
46D4
330
46CE
100
AcDbEntity
  8
DIM
 62
     0
370
    -2
100
AcDbBlockReference
  2
_DOT
 10
184.4986738632034
 20
279.0419917857798
 30
0.0
 50
90.0
  0
INSERT
  5
46D5
330
46CE
100
AcDbEntity
  8
DIM
 62
     0
370
    -2
100
AcDbBlockReference
  2
_DOT
 10
184.4986738632034
 20
214.0419917857797
 30
0.0
 50
270.0
  0
MTEXT
  5
46D6
330
46CE
100
AcDbEntity
  8
DIM
 62
     0
 48
0.05
100
AcDbMText
 10
176.9986738632034
 20
246.5419917857798
 30
0.0
 40
5.0
 41
0.0
 46
0.0
 71
     5
 72
     1
  1
\A1;65
  7
ＭＳ ゴシック
 11
0.0
 21
1.0
 31
0.0
 73
     1
 44
1.0
  0
POINT
  5
46D7
330
46CE
100
AcDbEntity
  8
Defpoints
 62
     0
100
AcDbPoint
 10
207.8329688988288
 20
279.0419917857798
 30
0.0
  0
POINT
  5
46D8
330
46CE
100
AcDbEntity
  8
Defpoints
 62
     0
100
AcDbPoint
 10
207.8329688988288
 20
214.0419917857797
 30
0.0
  0
POINT
  5
46D9
330
46CE
100
AcDbEntity
  8
Defpoints
 62
     0
100
AcDbPoint
 10
184.4986738632034
 20
214.0419917857797
 30
0.0
  0
ENDBLK
  5
46D0
330
46CE
100
AcDbEntity
  8
0
100
AcDbBlockEnd
  0
BLOCK
  5
4AA4
330
4AA3
100
AcDbEntity
  8
0
100
AcDbBlockBegin
  2
*D7
 70
     1
 10
0.0
 20
0.0
 30
0.0
  3
*D7
  1
*D17
  0
LINE
  5
4AA6
330
4AA3
100
AcDbEntity
  8
DIM
 62
     0
 48
0.05
370
    -2
100
AcDbLine
 10
97.64818394709937
 20
285.4155527857794
 30
0.0
 11
51.35621193347208
 21
285.4155527857794
 31
0.0
  0
LINE
  5
4AA7
330
4AA3
100
AcDbEntity
  8
DIM
 62
     0
 48
0.05
370
    -2
100
AcDbLine
 10
94.66442457230164
 20
207.6684297857795
 30
0.0
 11
51.35621193347207
 21
207.6684297857795
 31
0.0
  0
LINE
  5
4AA8
330
4AA3
100
AcDbEntity
  8
DIM
 62
     0
 48
0.05
370
    -2
100
AcDbLine
 10
51.35621193347208
 20
284.4155527857794
 30
0.0
 11
51.35621193347207
 21
208.6684297857795
 31
0.0
  0
INSERT
  5
4AA9
330
4AA3
100
AcDbEntity
  8
DIM
 62
     0
370
    -2
100
AcDbBlockReference
  2
_DOT
 10
51.35621193347208
 20
285.4155527857794
 30
0.0
 50
90.0
  0
INSERT
  5
4AAA
330
4AA3
100
AcDbEntity
  8
DIM
 62
     0
370
    -2
100
AcDbBlockReference
  2
_DOT
 10
51.35621193347207
 20
207.6684297857795
 30
0.0
 50
270.0
  0
MTEXT
  5
4AAB
330
4AA3
100
AcDbEntity
  8
DIM
 62
     0
 48
0.05
100
AcDbMText
 10
43.45121193347208
 20
246.5419912857795
 30
0.0
 40
5.0
 41
0.0
 46
0.0
 71
     5
 72
     1
  1
\A1;φ78
  7
ＭＳ ゴシック
 11
9.139151499665146E-17
 21
1.0
 31
0.0
 73
     1
 44
1.0
  0
POINT
  5
4AAC
330
4AA3
100
AcDbEntity
  8
Defpoints
 62
     0
100
AcDbPoint
 10
102.6481839470994
 20
285.4155527857794
 30
0.0
  0
POINT
  5
4AAD
330
4AA3
100
AcDbEntity
  8
Defpoints
 62
     0
100
AcDbPoint
 10
99.66442457230164
 20
207.6684297857795
 30
0.0
  0
POINT
  5
4AAE
330
4AA3
100
AcDbEntity
  8
Defpoints
 62
     0
100
AcDbPoint
 10
51.35621193347207
 20
207.6684297857795
 30
0.0
  0
ENDBLK
  5
4AA5
330
4AA3
100
AcDbEntity
  8
0
100
AcDbBlockEnd
  0
BLOCK
  5
4DC4
330
4DC3
100
AcDbEntity
  8
0
100
AcDbBlockBegin
  2
*D8
 70
     1
 10
0.0
 20
0.0
 30
0.0
  3
*D8
  1
*D22
  0
LINE
  5
4DC6
330
4DC3
100
AcDbEntity
  8
DIM
 62
     0
 48
0.05
370
    -2
100
AcDbLine
 10
365.9101728988289
 20
238.0354156041023
 30
0.0
 11
365.9101728988289
 21
142.1326579348081
 31
0.0
  0
LINE
  5
4DC7
330
4DC3
100
AcDbEntity
  8
DIM
 62
     0
 48
0.05
370
    -2
100
AcDbLine
 10
264.3329688988288
 20
167.5419917857793
 30
0.0
 11
264.3329688988288
 21
142.1326579348081
 31
0.0
  0
LINE
  5
4DC8
330
4DC3
100
AcDbEntity
  8
DIM
 62
     0
 48
0.05
370
    -2
100
AcDbLine
 10
364.9101728988289
 20
142.1326579348081
 30
0.0
 11
265.3329688988288
 21
142.1326579348081
 31
0.0
  0
INSERT
  5
4DC9
330
4DC3
100
AcDbEntity
  8
DIM
 62
     0
370
    -2
100
AcDbBlockReference
  2
_DOT
 10
365.9101728988289
 20
142.1326579348081
 30
0.0
  0
INSERT
  5
4DCA
330
4DC3
100
AcDbEntity
  8
DIM
 62
     0
370
    -2
100
AcDbBlockReference
  2
_DOT
 10
264.3329688988288
 20
142.1326579348081
 30
0.0
 50
180.0
  0
MTEXT
  5
4DCB
330
4DC3
100
AcDbEntity
  8
DIM
 62
     0
 48
0.05
100
AcDbMText
 10
315.1215708988288
 20
149.6326579348081
 30
0.0
 40
5.0
 41
0.0
 46
0.0
 71
     5
 72
     1
  1
\A1;110～75
  7
ＭＳ ゴシック
 73
     1
 44
1.0
  0
POINT
  5
4DCC
330
4DC3
100
AcDbEntity
  8
Defpoints
 62
     0
100
AcDbPoint
 10
365.9101728988289
 20
243.0354156041023
 30
0.0
  0
POINT
  5
4DCD
330
4DC3
100
AcDbEntity
  8
Defpoints
 62
     0
100
AcDbPoint
 10
264.3329688988288
 20
172.5419917857793
 30
0.0
  0
POINT
  5
4DCE
330
4DC3
100
AcDbEntity
  8
Defpoints
 62
     0
100
AcDbPoint
 10
264.3329688988288
 20
142.1326579348081
 30
0.0
  0
ENDBLK
  5
4DC5
330
4DC3
100
AcDbEntity
  8
0
100
AcDbBlockEnd
  0
BLOCK
  5
4DD3
330
4DD2
100
AcDbEntity
  8
0
100
AcDbBlockBegin
  2
*D9
 70
     1
 10
0.0
 20
0.0
 30
0.0
  3
*D9
  1
*D23
  0
LINE
  5
4DD5
330
4DD2
100
AcDbEntity
  8
DIM
 62
     0
 48
0.05
370
    -2
100
AcDbLine
 10
277.4420238988288
 20
224.5281664343451
 30
0.0
 11
277.4420238988288
 21
160.817418179695
 31
0.0
  0
LINE
  5
4DD6
330
4DD2
100
AcDbEntity
  8
DIM
 62
     0
 48
0.05
370
    -2
100
AcDbLine
 10
264.3329688988288
 20
167.5419917857793
 30
0.0
 11
264.3329688988288
 21
160.817418179695
 31
0.0
  0
LINE
  5
4DD7
330
4DD2
100
AcDbEntity
  8
DIM
 62
     0
 48
0.05
370
    -2
100
AcDbLine
 10
276.4420238988288
 20
160.817418179695
 30
0.0
 11
265.3329688988288
 21
160.817418179695
 31
0.0
  0
INSERT
  5
4DD8
330
4DD2
100
AcDbEntity
  8
DIM
 62
     0
370
    -2
100
AcDbBlockReference
  2
_DOT
 10
277.4420238988288
 20
160.817418179695
 30
0.0
  0
INSERT
  5
4DD9
330
4DD2
100
AcDbEntity
  8
DIM
 62
     0
370
    -2
100
AcDbBlockReference
  2
_DOT
 10
264.3329688988288
 20
160.817418179695
 30
0.0
 50
180.0
  0
MTEXT
  5
4DDA
330
4DD2
100
AcDbEntity
  8
DIM
 62
     0
 48
0.05
100
AcDbMText
 10
270.8874946886288
 20
168.317418179695
 30
0.0
 40
5.0
 41
0.0
 46
0.0
 71
     5
 72
     1
  1
\A1;13
  7
ＭＳ ゴシック
 73
     1
 44
1.0
  0
POINT
  5
4DDB
330
4DD2
100
AcDbEntity
  8
Defpoints
 62
     0
100
AcDbPoint
 10
277.4420238988288
 20
229.5281664343451
 30
0.0
  0
POINT
  5
4DDC
330
4DD2
100
AcDbEntity
  8
Defpoints
 62
     0
100
AcDbPoint
 10
264.3329688988288
 20
172.5419917857793
 30
0.0
  0
POINT
  5
4DDD
330
4DD2
100
AcDbEntity
  8
Defpoints
 62
     0
100
AcDbPoint
 10
264.3329688988288
 20
160.817418179695
 30
0.0
  0
ENDBLK
  5
4DD4
330
4DD2
100
AcDbEntity
  8
0
100
AcDbBlockEnd
  0
BLOCK
  5
4DE3
330
4DE2
100
AcDbEntity
  8
0
100
AcDbBlockBegin
  2
*D10
 70
     1
 10
0.0
 20
0.0
 30
0.0
  3
*D10
  1
*D24
  0
LINE
  5
4DE5
330
4DE2
100
AcDbEntity
  8
DIM
 62
     0
 48
0.05
370
    -2
100
AcDbLine
 10
221.3329910230323
 20
186.4859659615578
 30
0.0
 11
221.3329910230323
 21
142.1326579348081
 31
0.0
  0
LINE
  5
4DE6
330
4DE2
100
AcDbEntity
  8
DIM
 62
     0
 48
0.05
370
    -2
100
AcDbLine
 10
264.3329688988288
 20
167.5419917857793
 30
0.0
 11
264.3329688988288
 21
142.1326579348081
 31
0.0
  0
LINE
  5
4DE7
330
4DE2
100
AcDbEntity
  8
DIM
 62
     0
 48
0.05
370
    -2
100
AcDbLine
 10
222.3329910230323
 20
142.1326579348081
 30
0.0
 11
263.3329688988288
 21
142.1326579348081
 31
0.0
  0
INSERT
  5
4DE8
330
4DE2
100
AcDbEntity
  8
DIM
 62
     0
370
    -2
100
AcDbBlockReference
  2
_DOT
 10
221.3329910230323
 20
142.1326579348081
 30
0.0
 50
180.0
  0
INSERT
  5
4DE9
330
4DE2
100
AcDbEntity
  8
DIM
 62
     0
370
    -2
100
AcDbBlockReference
  2
_DOT
 10
264.3329688988288
 20
142.1326579348081
 30
0.0
  0
MTEXT
  5
4DEA
330
4DE2
100
AcDbEntity
  8
DIM
 62
     0
 48
0.05
100
AcDbMText
 10
242.8329782507305
 20
149.6326579348081
 30
0.0
 40
5.0
 41
0.0
 46
0.0
 71
     5
 72
     1
  1
\A1; 
  7
ＭＳ ゴシック
 73
     1
 44
1.0
  0
POINT
  5
4DEB
330
4DE2
100
AcDbEntity
  8
Defpoints
 62
     0
100
AcDbPoint
 10
221.3329910230323
 20
191.4859659615578
 30
0.0
  0
POINT
  5
4DEC
330
4DE2
100
AcDbEntity
  8
Defpoints
 62
     0
100
AcDbPoint
 10
264.3329688988288
 20
172.5419917857793
 30
0.0
  0
POINT
  5
4DED
330
4DE2
100
AcDbEntity
  8
Defpoints
 62
     0
100
AcDbPoint
 10
264.3329688988288
 20
142.1326579348081
 30
0.0
  0
ENDBLK
  5
4DE4
330
4DE2
100
AcDbEntity
  8
0
100
AcDbBlockEnd
  0
BLOCK
  5
52B9
330
52B8
100
AcDbEntity
  8
0
100
AcDbBlockBegin
  2
*D11
 70
     1
 10
0.0
 20
0.0
 30
0.0
  3
*D11
  1
*D12
  0
LINE
  5
52BA
330
52B8
100
AcDbEntity
  8
DIM
 62
     0
 48
0.05
370
    -2
100
AcDbLine
 10
117.8019320575964
 20
84.04805889166602
 30
0.0
 11
99.46763702197109
 21
84.04805889166602
 31
0.0
  0
LINE
  5
52BB
330
52B8
100
AcDbEntity
  8
DIM
 62
     0
 48
0.05
370
    -2
100
AcDbLine
 10
117.8019320575964
 20
19.04805889166602
 30
0.0
 11
99.46763702197109
 21
19.04805889166602
 31
0.0
  0
LINE
  5
52BC
330
52B8
100
AcDbEntity
  8
DIM
 62
     0
 48
0.05
370
    -2
100
AcDbLine
 10
99.46763702197109
 20
83.04805889166602
 30
0.0
 11
99.46763702197109
 21
20.04805889166602
 31
0.0
  0
INSERT
  5
52BD
330
52B8
100
AcDbEntity
  8
DIM
 62
     0
370
    -2
100
AcDbBlockReference
  2
_DOT
 10
99.46763702197109
 20
84.04805889166602
 30
0.0
 50
90.0
  0
INSERT
  5
52BE
330
52B8
100
AcDbEntity
  8
DIM
 62
     0
370
    -2
100
AcDbBlockReference
  2
_DOT
 10
99.46763702197109
 20
19.04805889166602
 30
0.0
 50
270.0
  0
MTEXT
  5
52BF
330
52B8
100
AcDbEntity
  8
DIM
 62
     0
 48
0.05
100
AcDbMText
 10
91.96763702197109
 20
51.54805889166602
 30
0.0
 40
5.0
 41
0.0
 46
0.0
 71
     5
 72
     1
  1
\A1;65
  7
ＭＳ ゴシック
 11
0.0
 21
1.0
 31
0.0
 73
     1
 44
1.0
  0
POINT
  5
52C0
330
52B8
100
AcDbEntity
  8
Defpoints
 62
     0
100
AcDbPoint
 10
122.8019320575964
 20
84.04805889166602
 30
0.0
  0
POINT
  5
52C1
330
52B8
100
AcDbEntity
  8
Defpoints
 62
     0
100
AcDbPoint
 10
122.8019320575964
 20
19.04805889166602
 30
0.0
  0
POINT
  5
52C2
330
52B8
100
AcDbEntity
  8
Defpoints
 62
     0
100
AcDbPoint
 10
99.46763702197109
 20
19.04805889166602
 30
0.0
  0
ENDBLK
  5
52C3
330
52B8
100
AcDbEntity
  8
0
100
AcDbBlockEnd
  0
BLOCK
  5
5460
330
545F
100
AcDbEntity
  8
0
100
AcDbBlockBegin
  2
*D12
 70
     1
 10
0.0
 20
0.0
 30
0.0
  3
*D12
  1
*D13
  0
LINE
  5
5462
330
545F
100
AcDbEntity
  8
DIM
 62
     0
 48
0.05
370
    -2
100
AcDbLine
 10
586.4487730679978
 20
248.438662160611
 30
0.0
 11
568.1144780323723
 21
248.438662160611
 31
0.0
  0
LINE
  5
5463
330
545F
100
AcDbEntity
  8
DIM
 62
     0
 48
0.05
370
    -2
100
AcDbLine
 10
586.4487730679978
 20
183.438662160611
 30
0.0
 11
568.1144780323723
 21
183.438662160611
 31
0.0
  0
LINE
  5
5464
330
545F
100
AcDbEntity
  8
DIM
 62
     0
 48
0.05
370
    -2
100
AcDbLine
 10
568.1144780323723
 20
247.438662160611
 30
0.0
 11
568.1144780323723
 21
184.438662160611
 31
0.0
  0
INSERT
  5
5465
330
545F
100
AcDbEntity
  8
DIM
 62
     0
370
    -2
100
AcDbBlockReference
  2
_DOT
 10
568.1144780323723
 20
248.438662160611
 30
0.0
 50
90.0
  0
INSERT
  5
5466
330
545F
100
AcDbEntity
  8
DIM
 62
     0
370
    -2
100
AcDbBlockReference
  2
_DOT
 10
568.1144780323723
 20
183.438662160611
 30
0.0
 50
270.0
  0
MTEXT
  5
5467
330
545F
100
AcDbEntity
  8
DIM
 62
     0
 48
0.05
100
AcDbMText
 10
560.6144780323723
 20
215.938662160611
 30
0.0
 40
5.0
 41
0.0
 46
0.0
 71
     5
 72
     1
  1
\A1;65
  7
ＭＳ ゴシック
 11
0.0
 21
1.0
 31
0.0
 73
     1
 44
1.0
  0
POINT
  5
5468
330
545F
100
AcDbEntity
  8
Defpoints
 62
     0
100
AcDbPoint
 10
591.4487730679978
 20
248.438662160611
 30
0.0
  0
POINT
  5
5469
330
545F
100
AcDbEntity
  8
Defpoints
 62
     0
100
AcDbPoint
 10
591.4487730679978
 20
183.438662160611
 30
0.0
  0
POINT
  5
546A
330
545F
100
AcDbEntity
  8
Defpoints
 62
     0
100
AcDbPoint
 10
568.1144780323723
 20
183.438662160611
 30
0.0
  0
ENDBLK
  5
5461
330
545F
100
AcDbEntity
  8
0
100
AcDbBlockEnd
  0
BLOCK
  5
553A
330
5539
100
AcDbEntity
  8
0
100
AcDbBlockBegin
  2
*D13
 70
     1
 10
0.0
 20
0.0
 30
0.0
  3
*D13
  1
*D14
  0
LINE
  5
553C
330
5539
100
AcDbEntity
  8
DIM
 62
     0
 48
0.05
370
    -2
100
AcDbLine
 10
185.7568750467261
 20
255.2893627204683
 30
0.0
 11
167.4225800111006
 21
255.2893627204683
 31
0.0
  0
LINE
  5
553D
330
5539
100
AcDbEntity
  8
DIM
 62
     0
 48
0.05
370
    -2
100
AcDbLine
 10
185.7568750467261
 20
190.2893627204683
 30
0.0
 11
167.4225800111006
 21
190.2893627204683
 31
0.0
  0
LINE
  5
553E
330
5539
100
AcDbEntity
  8
DIM
 62
     0
 48
0.05
370
    -2
100
AcDbLine
 10
167.4225800111006
 20
254.2893627204683
 30
0.0
 11
167.4225800111006
 21
191.2893627204683
 31
0.0
  0
INSERT
  5
553F
330
5539
100
AcDbEntity
  8
DIM
 62
     0
370
    -2
100
AcDbBlockReference
  2
_DOT
 10
167.4225800111006
 20
255.2893627204683
 30
0.0
 50
90.0
  0
INSERT
  5
5540
330
5539
100
AcDbEntity
  8
DIM
 62
     0
370
    -2
100
AcDbBlockReference
  2
_DOT
 10
167.4225800111006
 20
190.2893627204683
 30
0.0
 50
270.0
  0
MTEXT
  5
5541
330
5539
100
AcDbEntity
  8
DIM
 62
     0
 48
0.05
100
AcDbMText
 10
159.9225800111006
 20
222.7893627204683
 30
0.0
 40
5.0
 41
0.0
 46
0.0
 71
     5
 72
     1
  1
\A1;65
  7
ＭＳ ゴシック
 11
0.0
 21
1.0
 31
0.0
 73
     1
 44
1.0
  0
POINT
  5
5542
330
5539
100
AcDbEntity
  8
Defpoints
 62
     0
100
AcDbPoint
 10
190.7568750467261
 20
255.2893627204683
 30
0.0
  0
POINT
  5
5543
330
5539
100
AcDbEntity
  8
Defpoints
 62
     0
100
AcDbPoint
 10
190.7568750467261
 20
190.2893627204683
 30
0.0
  0
POINT
  5
5544
330
5539
100
AcDbEntity
  8
Defpoints
 62
     0
100
AcDbPoint
 10
167.4225800111006
 20
190.2893627204683
 30
0.0
  0
ENDBLK
  5
553B
330
5539
100
AcDbEntity
  8
0
100
AcDbBlockEnd
  0
BLOCK
  5
57A3
330
57A2
100
AcDbEntity
  8
0
100
AcDbBlockBegin
  2
*D14
 70
     1
 10
0.0
 20
0.0
 30
0.0
  3
*D14
  1
*D16
  0
LINE
  5
57A4
330
57A2
100
AcDbEntity
  8
DIM
 62
     0
 48
0.05
370
    -2
100
AcDbLine
 10
117.8019320575965
 20
84.04805889166602
 30
0.0
 11
99.46763702197103
 21
84.04805889166602
 31
0.0
  0
LINE
  5
57A5
330
57A2
100
AcDbEntity
  8
DIM
 62
     0
 48
0.05
370
    -2
100
AcDbLine
 10
117.8019320575965
 20
19.04805889166602
 30
0.0
 11
99.46763702197103
 21
19.04805889166602
 31
0.0
  0
LINE
  5
57A6
330
57A2
100
AcDbEntity
  8
DIM
 62
     0
 48
0.05
370
    -2
100
AcDbLine
 10
99.46763702197103
 20
83.04805889166602
 30
0.0
 11
99.46763702197103
 21
20.04805889166602
 31
0.0
  0
INSERT
  5
57A7
330
57A2
100
AcDbEntity
  8
DIM
 62
     0
370
    -2
100
AcDbBlockReference
  2
_DOT
 10
99.46763702197103
 20
84.04805889166602
 30
0.0
 50
90.0
  0
INSERT
  5
57A8
330
57A2
100
AcDbEntity
  8
DIM
 62
     0
370
    -2
100
AcDbBlockReference
  2
_DOT
 10
99.46763702197103
 20
19.04805889166602
 30
0.0
 50
270.0
  0
MTEXT
  5
57A9
330
57A2
100
AcDbEntity
  8
DIM
 62
     0
 48
0.05
100
AcDbMText
 10
91.96763702197103
 20
51.54805889166602
 30
0.0
 40
5.0
 41
0.0
 46
0.0
 71
     5
 72
     1
  1
\A1;65
  7
ＭＳ ゴシック
 11
0.0
 21
1.0
 31
0.0
 73
     1
 44
1.0
  0
POINT
  5
57AA
330
57A2
100
AcDbEntity
  8
Defpoints
 62
     0
100
AcDbPoint
 10
122.8019320575965
 20
84.04805889166602
 30
0.0
  0
POINT
  5
57AB
330
57A2
100
AcDbEntity
  8
Defpoints
 62
     0
100
AcDbPoint
 10
122.8019320575965
 20
19.04805889166602
 30
0.0
  0
POINT
  5
57AC
330
57A2
100
AcDbEntity
  8
Defpoints
 62
     0
100
AcDbPoint
 10
99.46763702197103
 20
19.04805889166602
 30
0.0
  0
ENDBLK
  5
57AD
330
57A2
100
AcDbEntity
  8
0
100
AcDbBlockEnd
  0
BLOCK
  5
594A
330
5949
100
AcDbEntity
  8
0
100
AcDbBlockBegin
  2
*D15
 70
     1
 10
0.0
 20
0.0
 30
0.0
  3
*D15
  1
*D17
  0
LINE
  5
594C
330
5949
100
AcDbEntity
  8
DIM
 62
     0
 48
0.05
370
    -2
100
AcDbLine
 10
580.3269543458582
 20
250.0591435870597
 30
0.0
 11
561.9926593102327
 21
250.0591435870597
 31
0.0
  0
LINE
  5
594D
330
5949
100
AcDbEntity
  8
DIM
 62
     0
 48
0.05
370
    -2
100
AcDbLine
 10
580.3269543458582
 20
185.0591435870597
 30
0.0
 11
561.9926593102327
 21
185.0591435870597
 31
0.0
  0
LINE
  5
594E
330
5949
100
AcDbEntity
  8
DIM
 62
     0
 48
0.05
370
    -2
100
AcDbLine
 10
561.9926593102327
 20
249.0591435870597
 30
0.0
 11
561.9926593102327
 21
186.0591435870597
 31
0.0
  0
INSERT
  5
594F
330
5949
100
AcDbEntity
  8
DIM
 62
     0
370
    -2
100
AcDbBlockReference
  2
_DOT
 10
561.9926593102327
 20
250.0591435870597
 30
0.0
 50
90.0
  0
INSERT
  5
5950
330
5949
100
AcDbEntity
  8
DIM
 62
     0
370
    -2
100
AcDbBlockReference
  2
_DOT
 10
561.9926593102327
 20
185.0591435870597
 30
0.0
 50
270.0
  0
MTEXT
  5
5951
330
5949
100
AcDbEntity
  8
DIM
 62
     0
 48
0.05
100
AcDbMText
 10
554.4926593102327
 20
217.5591435870597
 30
0.0
 40
5.0
 41
0.0
 46
0.0
 71
     5
 72
     1
  1
\A1;65
  7
ＭＳ ゴシック
 11
0.0
 21
1.0
 31
0.0
 73
     1
 44
1.0
  0
POINT
  5
5952
330
5949
100
AcDbEntity
  8
Defpoints
 62
     0
100
AcDbPoint
 10
585.3269543458582
 20
250.0591435870597
 30
0.0
  0
POINT
  5
5953
330
5949
100
AcDbEntity
  8
Defpoints
 62
     0
100
AcDbPoint
 10
585.3269543458582
 20
185.0591435870597
 30
0.0
  0
POINT
  5
5954
330
5949
100
AcDbEntity
  8
Defpoints
 62
     0
100
AcDbPoint
 10
561.9926593102327
 20
185.0591435870597
 30
0.0
  0
ENDBLK
  5
594B
330
5949
100
AcDbEntity
  8
0
100
AcDbBlockEnd
  0
BLOCK
  5
59A6
330
59A5
100
AcDbEntity
  8
0
100
AcDbBlockBegin
  2
*D16
 70
     1
 10
0.0
 20
0.0
 30
0.0
  3
*D16
  1
*D19
  0
LINE
  5
59A7
330
59A5
100
AcDbEntity
  8
DIM
 62
     0
 48
0.05
370
    -2
100
AcDbLine
 10
499.0892895313439
 20
164.0963383318817
 30
0.0
 11
508.8464563616042
 21
164.0963383318817
 31
0.0
  0
LINE
  5
59A8
330
59A5
100
AcDbEntity
  8
DIM
 62
     0
 48
0.05
370
    -2
100
AcDbLine
 10
499.0892895313439
 20
94.09633833188173
 30
0.0
 11
508.8464563616042
 21
94.09633833188173
 31
0.0
  0
LINE
  5
59A9
330
59A5
100
AcDbEntity
  8
DIM
 62
     0
 48
0.05
370
    -2
100
AcDbLine
 10
508.8464563616042
 20
163.0963383318817
 30
0.0
 11
508.8464563616042
 21
95.09633833188173
 31
0.0
  0
INSERT
  5
59AA
330
59A5
100
AcDbEntity
  8
DIM
 62
     0
370
    -2
100
AcDbBlockReference
  2
_DOT
 10
508.8464563616042
 20
164.0963383318817
 30
0.0
 50
90.0
  0
INSERT
  5
59AB
330
59A5
100
AcDbEntity
  8
DIM
 62
     0
370
    -2
100
AcDbBlockReference
  2
_DOT
 10
508.8464563616042
 20
94.09633833188173
 30
0.0
 50
270.0
  0
MTEXT
  5
59AC
330
59A5
100
AcDbEntity
  8
DIM
 62
     0
 48
0.05
100
AcDbMText
 10
501.3464563616042
 20
129.0963383318817
 30
0.0
 40
5.0
 41
0.0
 46
0.0
 71
     5
 72
     1
  1
\A1;70
  7
ＭＳ ゴシック
 11
0.0
 21
1.0
 31
0.0
 73
     1
 44
1.0
  0
POINT
  5
59AD
330
59A5
100
AcDbEntity
  8
Defpoints
 62
     0
100
AcDbPoint
 10
494.0892895313439
 20
164.0963383318817
 30
0.0
  0
POINT
  5
59AE
330
59A5
100
AcDbEntity
  8
Defpoints
 62
     0
100
AcDbPoint
 10
494.0892895313439
 20
94.09633833188173
 30
0.0
  0
POINT
  5
59AF
330
59A5
100
AcDbEntity
  8
Defpoints
 62
     0
100
AcDbPoint
 10
508.8464563616042
 20
94.09633833188173
 30
0.0
  0
ENDBLK
  5
59B0
330
59A5
100
AcDbEntity
  8
0
100
AcDbBlockEnd
  0
BLOCK
  5
59B4
330
59B3
100
AcDbEntity
  8
0
100
AcDbBlockBegin
  2
*D17
 70
     1
 10
0.0
 20
0.0
 30
0.0
  3
*D17
  1
*D20
  0
LINE
  5
59B5
330
59B3
100
AcDbEntity
  8
DIM
 62
     0
 48
0.05
370
    -2
100
AcDbLine
 10
444.0933411659439
 20
66.66866339375929
 30
0.0
 11
444.0933411659439
 21
0.5
 31
0.0
  0
LINE
  5
59B6
330
59B3
100
AcDbEntity
  8
DIM
 62
     0
 48
0.05
370
    -2
100
AcDbLine
 10
345.8807914781439
 20
60.39992102228825
 30
0.0
 11
345.8807914781439
 21
0.5
 31
0.0
  0
LINE
  5
59B7
330
59B3
100
AcDbEntity
  8
DIM
 62
     0
 48
0.05
370
    -2
100
AcDbLine
 10
443.0933411659439
 20
0.5
 30
0.0
 11
346.8807914781439
 21
0.5
 31
0.0
  0
INSERT
  5
59B8
330
59B3
100
AcDbEntity
  8
DIM
 62
     0
370
    -2
100
AcDbBlockReference
  2
_DOT
 10
444.0933411659439
 20
0.5
 30
0.0
  0
INSERT
  5
59B9
330
59B3
100
AcDbEntity
  8
DIM
 62
     0
370
    -2
100
AcDbBlockReference
  2
_DOT
 10
345.8807914781439
 20
0.5
 30
0.0
 50
180.0
  0
MTEXT
  5
59BA
330
59B3
100
AcDbEntity
  8
DIM
 62
     0
 48
0.05
100
AcDbMText
 10
394.9870663220439
 20
8.0
 30
0.0
 40
5.0
 41
0.0
 46
0.0
 71
     5
 72
     1
  1
\A1;98
  7
ＭＳ ゴシック
 73
     1
 44
1.0
  0
POINT
  5
59BB
330
59B3
100
AcDbEntity
  8
Defpoints
 62
     0
100
AcDbPoint
 10
444.0933411659439
 20
71.66866339375929
 30
0.0
  0
POINT
  5
59BC
330
59B3
100
AcDbEntity
  8
Defpoints
 62
     0
100
AcDbPoint
 10
345.8807914781439
 20
65.39992102228825
 30
0.0
  0
POINT
  5
59BD
330
59B3
100
AcDbEntity
  8
Defpoints
 62
     0
100
AcDbPoint
 10
345.8807914781439
 20
0.5
 30
0.0
  0
ENDBLK
  5
59BE
330
59B3
100
AcDbEntity
  8
0
100
AcDbBlockEnd
  0
BLOCK
  5
59C2
330
59C1
100
AcDbEntity
  8
0
100
AcDbBlockBegin
  2
*D18
 70
     1
 10
0.0
 20
0.0
 30
0.0
  3
*D18
  1
*D21
  0
LINE
  5
59C3
330
59C1
100
AcDbEntity
  8
DIM
 62
     0
 48
0.05
370
    -2
100
AcDbLine
 10
233.0990124008315
 20
117.0963383318818
 30
0.0
 11
184.7040773779488
 21
117.0963383318818
 31
0.0
  0
LINE
  5
59C4
330
59C1
100
AcDbEntity
  8
DIM
 62
     0
 48
0.05
370
    -2
100
AcDbLine
 10
233.0990124008315
 20
141.0963383318818
 30
0.0
 11
184.7040773779488
 21
141.0963383318818
 31
0.0
  0
LINE
  5
59C5
330
59C1
100
AcDbEntity
  8
DIM
 62
     0
 48
0.05
370
    -2
100
AcDbLine
 10
184.7040773779488
 20
118.0963383318818
 30
0.0
 11
184.7040773779488
 21
140.0963383318818
 31
0.0
  0
INSERT
  5
59C6
330
59C1
100
AcDbEntity
  8
DIM
 62
     0
370
    -2
100
AcDbBlockReference
  2
_DOT
 10
184.7040773779488
 20
117.0963383318818
 30
0.0
 50
270.0
  0
INSERT
  5
59C7
330
59C1
100
AcDbEntity
  8
DIM
 62
     0
370
    -2
100
AcDbBlockReference
  2
_DOT
 10
184.7040773779488
 20
141.0963383318818
 30
0.0
 50
90.0
  0
MTEXT
  5
59C8
330
59C1
100
AcDbEntity
  8
DIM
 62
     0
 48
0.05
100
AcDbMText
 10
177.2040773779488
 20
129.0963383318818
 30
0.0
 40
5.0
 41
0.0
 46
0.0
 71
     5
 72
     1
  1
\A1;24
  7
ＭＳ ゴシック
 11
0.0
 21
1.0
 31
0.0
 73
     1
 44
1.0
  0
POINT
  5
59C9
330
59C1
100
AcDbEntity
  8
Defpoints
 62
     0
100
AcDbPoint
 10
238.0990124008315
 20
117.0963383318818
 30
0.0
  0
POINT
  5
59CA
330
59C1
100
AcDbEntity
  8
Defpoints
 62
     0
100
AcDbPoint
 10
238.0990124008315
 20
141.0963383318818
 30
0.0
  0
POINT
  5
59CB
330
59C1
100
AcDbEntity
  8
Defpoints
 62
     0
100
AcDbPoint
 10
184.7040773779488
 20
141.0963383318818
 30
0.0
  0
ENDBLK
  5
59CC
330
59C1
100
AcDbEntity
  8
0
100
AcDbBlockEnd
  0
BLOCK
  5
5AA2
330
5AA1
100
AcDbEntity
  8
0
100
AcDbBlockBegin
  2
*D19
 70
     1
 10
0.0
 20
0.0
 30
0.0
  3
*D19
  1
*D22
  0
LINE
  5
5AA3
330
5AA1
100
AcDbEntity
  8
DIM
 62
     0
 48
0.05
370
    -2
100
AcDbLine
 10
62.10166814976299
 20
94.09633833188167
 30
0.0
 11
10.00000000000011
 21
94.09633833188167
 31
0.0
  0
LINE
  5
5AA4
330
5AA1
100
AcDbEntity
  8
DIM
 62
     0
 48
0.05
370
    -2
100
AcDbLine
 10
62.10166814976299
 20
164.0963383318817
 30
0.0
 11
10.00000000000011
 21
164.0963383318817
 31
0.0
  0
LINE
  5
5AA5
330
5AA1
100
AcDbEntity
  8
DIM
 62
     0
 48
0.05
370
    -2
100
AcDbLine
 10
10.00000000000011
 20
95.09633833188167
 30
0.0
 11
10.00000000000011
 21
163.0963383318817
 31
0.0
  0
INSERT
  5
5AA6
330
5AA1
100
AcDbEntity
  8
DIM
 62
     0
370
    -2
100
AcDbBlockReference
  2
_DOT
 10
10.00000000000011
 20
94.09633833188167
 30
0.0
 50
270.0
  0
INSERT
  5
5AA7
330
5AA1
100
AcDbEntity
  8
DIM
 62
     0
370
    -2
100
AcDbBlockReference
  2
_DOT
 10
10.00000000000011
 20
164.0963383318817
 30
0.0
 50
90.0
  0
MTEXT
  5
5AA8
330
5AA1
100
AcDbEntity
  8
DIM
 62
     0
 48
0.05
100
AcDbMText
 10
2.500000000000112
 20
129.0963383318817
 30
0.0
 40
5.0
 41
0.0
 46
0.0
 71
     5
 72
     1
  1
\A1;70
  7
ＭＳ ゴシック
 11
5.075305255429287E-17
 21
1.0
 31
0.0
 73
     1
 44
1.0
  0
POINT
  5
5AA9
330
5AA1
100
AcDbEntity
  8
Defpoints
 62
     0
100
AcDbPoint
 10
67.10166814976299
 20
94.09633833188167
 30
0.0
  0
POINT
  5
5AAA
330
5AA1
100
AcDbEntity
  8
Defpoints
 62
     0
100
AcDbPoint
 10
67.10166814976299
 20
164.0963383318817
 30
0.0
  0
POINT
  5
5AAB
330
5AA1
100
AcDbEntity
  8
Defpoints
 62
     0
100
AcDbPoint
 10
10.00000000000011
 20
164.0963383318817
 30
0.0
  0
ENDBLK
  5
5AAC
330
5AA1
100
AcDbEntity
  8
0
100
AcDbBlockEnd
  0
BLOCK
  5
5B8B
330
5B8A
100
AcDbEntity
  8
0
100
AcDbBlockBegin
  2
*D20
 70
     1
 10
0.0
 20
0.0
 30
0.0
  3
*D20
  1
*D23
  0
LINE
  5
5B8D
330
5B8A
100
AcDbEntity
  8
DIM
 62
     0
 48
0.05
370
    -2
100
AcDbLine
 10
992.9792699889963
 20
276.5533927390139
 30
0.0
 11
1002.736436819257
 21
276.5533927390139
 31
0.0
  0
LINE
  5
5B8E
330
5B8A
100
AcDbEntity
  8
DIM
 62
     0
 48
0.05
370
    -2
100
AcDbLine
 10
992.9792699889963
 20
206.5533927390139
 30
0.0
 11
1002.736436819257
 21
206.5533927390139
 31
0.0
  0
LINE
  5
5B8F
330
5B8A
100
AcDbEntity
  8
DIM
 62
     0
 48
0.05
370
    -2
100
AcDbLine
 10
1002.736436819257
 20
275.5533927390139
 30
0.0
 11
1002.736436819257
 21
207.5533927390139
 31
0.0
  0
INSERT
  5
5B90
330
5B8A
100
AcDbEntity
  8
DIM
 62
     0
370
    -2
100
AcDbBlockReference
  2
_DOT
 10
1002.736436819257
 20
276.5533927390139
 30
0.0
 50
90.0
  0
INSERT
  5
5B91
330
5B8A
100
AcDbEntity
  8
DIM
 62
     0
370
    -2
100
AcDbBlockReference
  2
_DOT
 10
1002.736436819257
 20
206.5533927390139
 30
0.0
 50
270.0
  0
MTEXT
  5
5B92
330
5B8A
100
AcDbEntity
  8
DIM
 62
     0
 48
0.05
100
AcDbMText
 10
995.2364368192566
 20
241.5533927390139
 30
0.0
 40
5.0
 41
0.0
 46
0.0
 71
     5
 72
     1
  1
\A1;70
  7
ＭＳ ゴシック
 11
0.0
 21
1.0
 31
0.0
 73
     1
 44
1.0
  0
POINT
  5
5B93
330
5B8A
100
AcDbEntity
  8
Defpoints
 62
     0
100
AcDbPoint
 10
987.9792699889963
 20
276.5533927390139
 30
0.0
  0
POINT
  5
5B94
330
5B8A
100
AcDbEntity
  8
Defpoints
 62
     0
100
AcDbPoint
 10
987.9792699889963
 20
206.5533927390139
 30
0.0
  0
POINT
  5
5B95
330
5B8A
100
AcDbEntity
  8
Defpoints
 62
     0
100
AcDbPoint
 10
1002.736436819257
 20
206.5533927390139
 30
0.0
  0
ENDBLK
  5
5B8C
330
5B8A
100
AcDbEntity
  8
0
100
AcDbBlockEnd
  0
BLOCK
  5
5B97
330
5B96
100
AcDbEntity
  8
0
100
AcDbBlockBegin
  2
*D21
 70
     1
 10
0.0
 20
0.0
 30
0.0
  3
*D21
  1
*D24
  0
LINE
  5
5B99
330
5B96
100
AcDbEntity
  8
DIM
 62
     0
 48
0.05
370
    -2
100
AcDbLine
 10
378.2173745153065
 20
207.2370899073173
 30
0.0
 11
378.2173745153065
 21
134.5526311420444
 31
0.0
  0
LINE
  5
5B9A
330
5B96
100
AcDbEntity
  8
DIM
 62
     0
 48
0.05
370
    -2
100
AcDbLine
 10
280.0048248275065
 20
160.6120063854152
 30
0.0
 11
280.0048248275065
 21
134.5526311420444
 31
0.0
  0
LINE
  5
5B9B
330
5B96
100
AcDbEntity
  8
DIM
 62
     0
 48
0.05
370
    -2
100
AcDbLine
 10
377.2173745153065
 20
134.5526311420444
 30
0.0
 11
281.0048248275065
 21
134.5526311420444
 31
0.0
  0
INSERT
  5
5B9C
330
5B96
100
AcDbEntity
  8
DIM
 62
     0
370
    -2
100
AcDbBlockReference
  2
_DOT
 10
378.2173745153065
 20
134.5526311420444
 30
0.0
  0
INSERT
  5
5B9D
330
5B96
100
AcDbEntity
  8
DIM
 62
     0
370
    -2
100
AcDbBlockReference
  2
_DOT
 10
280.0048248275065
 20
134.5526311420444
 30
0.0
 50
180.0
  0
MTEXT
  5
5B9E
330
5B96
100
AcDbEntity
  8
DIM
 62
     0
 48
0.05
100
AcDbMText
 10
329.1110996714065
 20
142.0526311420444
 30
0.0
 40
5.0
 41
0.0
 46
0.0
 71
     5
 72
     1
  1
\A1;98
  7
ＭＳ ゴシック
 73
     1
 44
1.0
  0
POINT
  5
5B9F
330
5B96
100
AcDbEntity
  8
Defpoints
 62
     0
100
AcDbPoint
 10
378.2173745153065
 20
212.2370899073173
 30
0.0
  0
POINT
  5
5BA0
330
5B96
100
AcDbEntity
  8
Defpoints
 62
     0
100
AcDbPoint
 10
280.0048248275065
 20
165.6120063854152
 30
0.0
  0
POINT
  5
5BA1
330
5B96
100
AcDbEntity
  8
Defpoints
 62
     0
100
AcDbPoint
 10
280.0048248275065
 20
134.5526311420444
 30
0.0
  0
ENDBLK
  5
5B98
330
5B96
100
AcDbEntity
  8
0
100
AcDbBlockEnd
  0
BLOCK
  5
5BA3
330
5BA2
100
AcDbEntity
  8
0
100
AcDbBlockBegin
  2
*D22
 70
     1
 10
0.0
 20
0.0
 30
0.0
  3
*D22
  1
*D25
  0
LINE
  5
5BA5
330
5BA2
100
AcDbEntity
  8
DIM
 62
     0
 48
0.05
370
    -2
100
AcDbLine
 10
726.9889928584839
 20
229.553392739014
 30
0.0
 11
678.5940578356012
 21
229.553392739014
 31
0.0
  0
LINE
  5
5BA6
330
5BA2
100
AcDbEntity
  8
DIM
 62
     0
 48
0.05
370
    -2
100
AcDbLine
 10
726.9889928584839
 20
253.553392739014
 30
0.0
 11
678.5940578356012
 21
253.553392739014
 31
0.0
  0
LINE
  5
5BA7
330
5BA2
100
AcDbEntity
  8
DIM
 62
     0
 48
0.05
370
    -2
100
AcDbLine
 10
678.5940578356012
 20
230.553392739014
 30
0.0
 11
678.5940578356012
 21
252.553392739014
 31
0.0
  0
INSERT
  5
5BA8
330
5BA2
100
AcDbEntity
  8
DIM
 62
     0
370
    -2
100
AcDbBlockReference
  2
_DOT
 10
678.5940578356012
 20
229.553392739014
 30
0.0
 50
270.0
  0
INSERT
  5
5BA9
330
5BA2
100
AcDbEntity
  8
DIM
 62
     0
370
    -2
100
AcDbBlockReference
  2
_DOT
 10
678.5940578356012
 20
253.553392739014
 30
0.0
 50
90.0
  0
MTEXT
  5
5BAA
330
5BA2
100
AcDbEntity
  8
DIM
 62
     0
 48
0.05
100
AcDbMText
 10
671.0940578356012
 20
241.553392739014
 30
0.0
 40
5.0
 41
0.0
 46
0.0
 71
     5
 72
     1
  1
\A1;24
  7
ＭＳ ゴシック
 11
0.0
 21
1.0
 31
0.0
 73
     1
 44
1.0
  0
POINT
  5
5BAB
330
5BA2
100
AcDbEntity
  8
Defpoints
 62
     0
100
AcDbPoint
 10
731.9889928584839
 20
229.553392739014
 30
0.0
  0
POINT
  5
5BAC
330
5BA2
100
AcDbEntity
  8
Defpoints
 62
     0
100
AcDbPoint
 10
731.9889928584839
 20
253.553392739014
 30
0.0
  0
POINT
  5
5BAD
330
5BA2
100
AcDbEntity
  8
Defpoints
 62
     0
100
AcDbPoint
 10
678.5940578356012
 20
253.553392739014
 30
0.0
  0
ENDBLK
  5
5BA4
330
5BA2
100
AcDbEntity
  8
0
100
AcDbBlockEnd
  0
BLOCK
  5
5BAF
330
5BAE
100
AcDbEntity
  8
0
100
AcDbBlockBegin
  2
*D23
 70
     1
 10
0.0
 20
0.0
 30
0.0
  3
*D23
  1
*D26
  0
LINE
  5
5BB1
330
5BAE
100
AcDbEntity
  8
DIM
 62
     0
 48
0.05
370
    -2
100
AcDbLine
 10
101.1932066235675
 20
188.7994191067159
 30
0.0
 11
49.09153847380463
 21
188.7994191067159
 31
0.0
  0
LINE
  5
5BB2
330
5BAE
100
AcDbEntity
  8
DIM
 62
     0
 48
0.05
370
    -2
100
AcDbLine
 10
101.1932066235675
 20
258.799419106716
 30
0.0
 11
49.09153847380463
 21
258.799419106716
 31
0.0
  0
LINE
  5
5BB3
330
5BAE
100
AcDbEntity
  8
DIM
 62
     0
 48
0.05
370
    -2
100
AcDbLine
 10
49.09153847380463
 20
189.7994191067159
 30
0.0
 11
49.09153847380463
 21
257.799419106716
 31
0.0
  0
INSERT
  5
5BB4
330
5BAE
100
AcDbEntity
  8
DIM
 62
     0
370
    -2
100
AcDbBlockReference
  2
_DOT
 10
49.09153847380463
 20
188.7994191067159
 30
0.0
 50
270.0
  0
INSERT
  5
5BB5
330
5BAE
100
AcDbEntity
  8
DIM
 62
     0
370
    -2
100
AcDbBlockReference
  2
_DOT
 10
49.09153847380463
 20
258.799419106716
 30
0.0
 50
90.0
  0
MTEXT
  5
5BB6
330
5BAE
100
AcDbEntity
  8
DIM
 62
     0
 48
0.05
100
AcDbMText
 10
41.18653847380463
 20
223.799419106716
 30
0.0
 40
5.0
 41
0.0
 46
0.0
 71
     5
 72
     1
  1
\A1;φ70
  7
ＭＳ ゴシック
 11
1.015061051085857E-16
 21
1.0
 31
0.0
 73
     1
 44
1.0
  0
POINT
  5
5BB7
330
5BAE
100
AcDbEntity
  8
Defpoints
 62
     0
100
AcDbPoint
 10
106.1932066235675
 20
188.7994191067159
 30
0.0
  0
POINT
  5
5BB8
330
5BAE
100
AcDbEntity
  8
Defpoints
 62
     0
100
AcDbPoint
 10
106.1932066235675
 20
258.799419106716
 30
0.0
  0
POINT
  5
5BB9
330
5BAE
100
AcDbEntity
  8
Defpoints
 62
     0
100
AcDbPoint
 10
49.09153847380463
 20
258.799419106716
 30
0.0
  0
ENDBLK
  5
5BB0
330
5BAE
100
AcDbEntity
  8
0
100
AcDbBlockEnd
  0
BLOCK
  5
5BBE
330
5BBD
100
AcDbEntity
  8
0
100
AcDbBlockBegin
  2
*D24
 70
     1
 10
0.0
 20
0.0
 30
0.0
  3
*D24
  1
*D27
  0
LINE
  5
5BC0
330
5BBD
100
AcDbEntity
  8
DIM
 62
     0
 48
0.05
370
    -2
100
AcDbLine
 10
280.0048248275064
 20
182.4571200624437
 30
0.0
 11
280.0048248275064
 21
155.1158985382882
 31
0.0
  0
LINE
  5
5BC1
330
5BBD
100
AcDbEntity
  8
DIM
 62
     0
 48
0.05
370
    -2
100
AcDbLine
 10
290.0048248275064
 20
189.8321110877037
 30
0.0
 11
290.0048248275064
 21
155.1158985382882
 31
0.0
  0
LINE
  5
5BC2
330
5BBD
100
AcDbEntity
  8
DIM
 62
     0
 48
0.05
370
    -2
100
AcDbLine
 10
281.0048248275064
 20
155.1158985382882
 30
0.0
 11
289.0048248275064
 21
155.1158985382882
 31
0.0
  0
INSERT
  5
5BC3
330
5BBD
100
AcDbEntity
  8
DIM
 62
     0
370
    -2
100
AcDbBlockReference
  2
_DOT
 10
280.0048248275064
 20
155.1158985382882
 30
0.0
 50
180.0
  0
INSERT
  5
5BC4
330
5BBD
100
AcDbEntity
  8
DIM
 62
     0
370
    -2
100
AcDbBlockReference
  2
_DOT
 10
290.0048248275064
 20
155.1158985382882
 30
0.0
  0
MTEXT
  5
5BC5
330
5BBD
100
AcDbEntity
  8
DIM
 62
     0
 48
0.05
100
AcDbMText
 10
285.0048248275064
 20
162.6158985382882
 30
0.0
 40
5.0
 41
0.0
 46
0.0
 71
     5
 72
     1
  1
\A1;10
  7
ＭＳ ゴシック
 73
     1
 44
1.0
  0
POINT
  5
5BC6
330
5BBD
100
AcDbEntity
  8
Defpoints
 62
     0
100
AcDbPoint
 10
280.0048248275064
 20
187.4571200624437
 30
0.0
  0
POINT
  5
5BC7
330
5BBD
100
AcDbEntity
  8
Defpoints
 62
     0
100
AcDbPoint
 10
290.0048248275064
 20
194.8321110877037
 30
0.0
  0
POINT
  5
5BC8
330
5BBD
100
AcDbEntity
  8
Defpoints
 62
     0
100
AcDbPoint
 10
290.0048248275064
 20
155.1158985382882
 30
0.0
  0
ENDBLK
  5
5BBF
330
5BBD
100
AcDbEntity
  8
0
100
AcDbBlockEnd
  0
BLOCK
  5
5C84
330
5C83
100
AcDbEntity
  8
0
100
AcDbBlockBegin
  2
*D25
 70
     1
 10
0.0
 20
0.0
 30
0.0
  3
*D25
  1
*D28
  0
LINE
  5
5C86
330
5C83
100
AcDbEntity
  8
DIM
 62
     0
 48
0.05
370
    -2
100
AcDbLine
 10
263.0048248275064
 20
204.3982927101698
 30
0.0
 11
256.1655612133876
 21
204.3982927101698
 31
0.0
  0
LINE
  5
5C87
330
5C83
100
AcDbEntity
  8
DIM
 62
     0
 48
0.05
370
    -2
100
AcDbLine
 10
263.0048248275064
 20
240.1908455642153
 30
0.0
 11
256.1655612133876
 21
240.1908455642153
 31
0.0
  0
LINE
  5
5C88
330
5C83
100
AcDbEntity
  8
DIM
 62
     0
 48
0.05
370
    -2
100
AcDbLine
 10
256.1655612133876
 20
205.3982927101698
 30
0.0
 11
256.1655612133876
 21
239.1908455642153
 31
0.0
  0
INSERT
  5
5C89
330
5C83
100
AcDbEntity
  8
DIM
 62
     0
370
    -2
100
AcDbBlockReference
  2
_DOT
 10
256.1655612133876
 20
204.3982927101698
 30
0.0
 50
270.0
  0
INSERT
  5
5C8A
330
5C83
100
AcDbEntity
  8
DIM
 62
     0
370
    -2
100
AcDbBlockReference
  2
_DOT
 10
256.1655612133876
 20
240.1908455642153
 30
0.0
 50
90.0
  0
MTEXT
  5
5C8B
330
5C83
100
AcDbEntity
  8
DIM
 62
     0
 48
0.05
100
AcDbMText
 10
248.6655612133876
 20
222.2945691371926
 30
0.0
 40
5.0
 41
0.0
 46
0.0
 71
     5
 72
     1
  1
\A1;36
  7
ＭＳ ゴシック
 11
0.0
 21
1.0
 31
0.0
 73
     1
 44
1.0
  0
POINT
  5
5C8C
330
5C83
100
AcDbEntity
  8
Defpoints
 62
     0
100
AcDbPoint
 10
268.0048248275064
 20
204.3982927101698
 30
0.0
  0
POINT
  5
5C8D
330
5C83
100
AcDbEntity
  8
Defpoints
 62
     0
100
AcDbPoint
 10
268.0048248275064
 20
240.1908455642153
 30
0.0
  0
POINT
  5
5C8E
330
5C83
100
AcDbEntity
  8
Defpoints
 62
     0
100
AcDbPoint
 10
256.1655612133876
 20
240.1908455642153
 30
0.0
  0
ENDBLK
  5
5C85
330
5C83
100
AcDbEntity
  8
0
100
AcDbBlockEnd
  0
BLOCK
  5
5CD1
330
5CD0
100
AcDbEntity
  8
0
100
AcDbBlockBegin
  2
*D27
 70
     1
 10
0.0
 20
0.0
 30
0.0
  3
*D27
  1
*D32
  0
LINE
  5
5CD2
330
5CD0
100
AcDbEntity
  8
DIM
 62
     0
 48
0.05
370
    -2
100
AcDbLine
 10
5.5
 20
90.62838016796479
 30
0.0
 11
5.5
 21
98.78520975521721
 31
0.0
  0
LINE
  5
5CD3
330
5CD0
100
AcDbEntity
  8
DIM
 62
     0
 48
0.05
370
    -2
100
AcDbLine
 10
26.5
 20
90.62838016796479
 30
0.0
 11
26.5
 21
98.78520975521721
 31
0.0
  0
LINE
  5
5CD4
330
5CD0
100
AcDbEntity
  8
DIM
 62
     0
 48
0.05
370
    -2
100
AcDbLine
 10
6.5
 20
98.78520975521721
 30
0.0
 11
25.5
 21
98.78520975521721
 31
0.0
  0
INSERT
  5
5CD5
330
5CD0
100
AcDbEntity
  8
DIM
 62
     0
370
    -2
100
AcDbBlockReference
  2
_DOT
 10
5.5
 20
98.78520975521721
 30
0.0
 50
180.0
  0
INSERT
  5
5CD6
330
5CD0
100
AcDbEntity
  8
DIM
 62
     0
370
    -2
100
AcDbBlockReference
  2
_DOT
 10
26.5
 20
98.78520975521721
 30
0.0
  0
MTEXT
  5
5CD7
330
5CD0
100
AcDbEntity
  8
DIM
 62
     0
 48
0.05
100
AcDbMText
 10
16.0
 20
106.8177097552172
 30
0.0
 40
5.0
 41
0.0
 46
0.0
 71
     5
 72
     1
  1
\A1;G1/2"
  7
ＭＳ ゴシック
 73
     1
 44
1.0
  0
POINT
  5
5CD8
330
5CD0
100
AcDbEntity
  8
Defpoints
 62
     0
100
AcDbPoint
 10
5.5
 20
85.62838016796479
 30
0.0
  0
POINT
  5
5CD9
330
5CD0
100
AcDbEntity
  8
Defpoints
 62
     0
100
AcDbPoint
 10
26.5
 20
85.62838016796479
 30
0.0
  0
POINT
  5
5CDA
330
5CD0
100
AcDbEntity
  8
Defpoints
 62
     0
100
AcDbPoint
 10
26.5
 20
98.78520975521721
 30
0.0
  0
ENDBLK
  5
5CDB
330
5CD0
100
AcDbEntity
  8
0
100
AcDbBlockEnd
  0
BLOCK
  5
5CE2
330
5CE1
100
AcDbEntity
  8
0
100
AcDbBlockBegin
  2
*D28
 70
     1
 10
0.0
 20
0.0
 30
0.0
  3
*D28
  1
*D33
  0
LINE
  5
5CE3
330
5CE1
100
AcDbEntity
  8
DIM
 62
     0
 48
0.05
370
    -2
100
AcDbLine
 10
5.500000000000001
 20
15.41131001723619
 30
0.0
 11
5.500000000000004
 21
0.5
 31
0.0
  0
LINE
  5
5CE4
330
5CE1
100
AcDbEntity
  8
DIM
 62
     0
 48
0.05
370
    -2
100
AcDbLine
 10
26.5
 20
15.41131001723619
 30
0.0
 11
26.5
 21
0.5
 31
0.0
  0
LINE
  5
5CE5
330
5CE1
100
AcDbEntity
  8
DIM
 62
     0
 48
0.05
370
    -2
100
AcDbLine
 10
6.500000000000004
 20
0.5
 30
0.0
 11
25.5
 21
0.5
 31
0.0
  0
INSERT
  5
5CE6
330
5CE1
100
AcDbEntity
  8
DIM
 62
     0
370
    -2
100
AcDbBlockReference
  2
_DOT
 10
5.500000000000004
 20
0.5
 30
0.0
 50
180.0
  0
INSERT
  5
5CE7
330
5CE1
100
AcDbEntity
  8
DIM
 62
     0
370
    -2
100
AcDbBlockReference
  2
_DOT
 10
26.5
 20
0.5
 30
0.0
  0
MTEXT
  5
5CE8
330
5CE1
100
AcDbEntity
  8
DIM
 62
     0
 48
0.05
100
AcDbMText
 10
16.0
 20
8.5325
 30
0.0
 40
5.0
 41
0.0
 46
0.0
 71
     5
 72
     1
  1
\A1;G1/2"
  7
ＭＳ ゴシック
 73
     1
 44
1.0
  0
POINT
  5
5CE9
330
5CE1
100
AcDbEntity
  8
Defpoints
 62
     0
100
AcDbPoint
 10
5.5
 20
20.41131001723619
 30
0.0
  0
POINT
  5
5CEA
330
5CE1
100
AcDbEntity
  8
Defpoints
 62
     0
100
AcDbPoint
 10
26.5
 20
20.41131001723619
 30
0.0
  0
POINT
  5
5CEB
330
5CE1
100
AcDbEntity
  8
Defpoints
 62
     0
100
AcDbPoint
 10
26.5
 20
0.5
 30
0.0
  0
ENDBLK
  5
5CEC
330
5CE1
100
AcDbEntity
  8
0
100
AcDbBlockEnd
  0
BLOCK
  5
5CF9
330
5CF8
100
AcDbEntity
  8
0
100
AcDbBlockBegin
  2
*D29
 70
     1
 10
0.0
 20
0.0
 30
0.0
  3
*D29
  1
*D29
  0
LINE
  5
5CFB
330
5CF8
100
AcDbEntity
  8
DIM
 62
     0
 48
0.05
370
    -2
100
AcDbLine
 10
199.7453194650817
 20
424.0892122630614
 30
0.0
 11
199.7453194650817
 21
432.2460418503138
 31
0.0
  0
LINE
  5
5CFC
330
5CF8
100
AcDbEntity
  8
DIM
 62
     0
 48
0.05
370
    -2
100
AcDbLine
 10
220.7453194650817
 20
424.0892122630614
 30
0.0
 11
220.7453194650817
 21
432.2460418503138
 31
0.0
  0
LINE
  5
5CFD
330
5CF8
100
AcDbEntity
  8
DIM
 62
     0
 48
0.05
370
    -2
100
AcDbLine
 10
200.7453194650817
 20
432.2460418503138
 30
0.0
 11
219.7453194650817
 21
432.2460418503138
 31
0.0
  0
INSERT
  5
5CFE
330
5CF8
100
AcDbEntity
  8
DIM
 62
     0
370
    -2
100
AcDbBlockReference
  2
_DOT
 10
199.7453194650817
 20
432.2460418503138
 30
0.0
 50
180.0
  0
INSERT
  5
5CFF
330
5CF8
100
AcDbEntity
  8
DIM
 62
     0
370
    -2
100
AcDbBlockReference
  2
_DOT
 10
220.7453194650817
 20
432.2460418503138
 30
0.0
  0
MTEXT
  5
5D00
330
5CF8
100
AcDbEntity
  8
DIM
 62
     0
 48
0.05
100
AcDbMText
 10
210.2453194650817
 20
440.2785418503138
 30
0.0
 40
5.0
 41
0.0
 46
0.0
 71
     5
 72
     1
  1
\A1;G1/2"
  7
ＭＳ ゴシック
 73
     1
 44
1.0
  0
POINT
  5
5D01
330
5CF8
100
AcDbEntity
  8
Defpoints
 62
     0
100
AcDbPoint
 10
199.7453194650817
 20
419.0892122630614
 30
0.0
  0
POINT
  5
5D02
330
5CF8
100
AcDbEntity
  8
Defpoints
 62
     0
100
AcDbPoint
 10
220.7453194650817
 20
419.0892122630614
 30
0.0
  0
POINT
  5
5D03
330
5CF8
100
AcDbEntity
  8
Defpoints
 62
     0
100
AcDbPoint
 10
220.7453194650817
 20
432.2460418503138
 30
0.0
  0
ENDBLK
  5
5CFA
330
5CF8
100
AcDbEntity
  8
0
100
AcDbBlockEnd
  0
BLOCK
  5
5D05
330
5D04
100
AcDbEntity
  8
0
100
AcDbBlockBegin
  2
*D30
 70
     1
 10
0.0
 20
0.0
 30
0.0
  3
*D30
  1
*D30
  0
LINE
  5
5D07
330
5D04
100
AcDbEntity
  8
DIM
 62
     0
 48
0.05
370
    -2
100
AcDbLine
 10
199.7453194650817
 20
348.8721421123328
 30
0.0
 11
199.7453194650817
 21
333.9608320950966
 31
0.0
  0
LINE
  5
5D08
330
5D04
100
AcDbEntity
  8
DIM
 62
     0
 48
0.05
370
    -2
100
AcDbLine
 10
220.7453194650817
 20
348.8721421123328
 30
0.0
 11
220.7453194650817
 21
333.9608320950966
 31
0.0
  0
LINE
  5
5D09
330
5D04
100
AcDbEntity
  8
DIM
 62
     0
 48
0.05
370
    -2
100
AcDbLine
 10
200.7453194650817
 20
333.9608320950966
 30
0.0
 11
219.7453194650817
 21
333.9608320950966
 31
0.0
  0
INSERT
  5
5D0A
330
5D04
100
AcDbEntity
  8
DIM
 62
     0
370
    -2
100
AcDbBlockReference
  2
_DOT
 10
199.7453194650817
 20
333.9608320950966
 30
0.0
 50
180.0
  0
INSERT
  5
5D0B
330
5D04
100
AcDbEntity
  8
DIM
 62
     0
370
    -2
100
AcDbBlockReference
  2
_DOT
 10
220.7453194650817
 20
333.9608320950966
 30
0.0
  0
MTEXT
  5
5D0C
330
5D04
100
AcDbEntity
  8
DIM
 62
     0
 48
0.05
100
AcDbMText
 10
210.2453194650817
 20
341.9933320950966
 30
0.0
 40
5.0
 41
0.0
 46
0.0
 71
     5
 72
     1
  1
\A1;G1/2"
  7
ＭＳ ゴシック
 73
     1
 44
1.0
  0
POINT
  5
5D0D
330
5D04
100
AcDbEntity
  8
Defpoints
 62
     0
100
AcDbPoint
 10
199.7453194650817
 20
353.8721421123328
 30
0.0
  0
POINT
  5
5D0E
330
5D04
100
AcDbEntity
  8
Defpoints
 62
     0
100
AcDbPoint
 10
220.7453194650817
 20
353.8721421123328
 30
0.0
  0
POINT
  5
5D0F
330
5D04
100
AcDbEntity
  8
Defpoints
 62
     0
100
AcDbPoint
 10
220.7453194650817
 20
333.9608320950966
 30
0.0
  0
ENDBLK
  5
5D06
330
5D04
100
AcDbEntity
  8
0
100
AcDbBlockEnd
  0
BLOCK
  5
5D1A
330
5D19
100
AcDbEntity
  8
0
100
AcDbBlockBegin
  2
*D31
 70
     1
 10
0.0
 20
0.0
 30
0.0
  3
*D31
  1
*D31
  0
LINE
  5
5D1C
330
5D19
100
AcDbEntity
  8
DIM
 62
     0
 48
0.05
370
    -2
100
AcDbLine
 10
193.7568750467261
 20
260.3978977958326
 30
0.0
 11
193.7568750467261
 21
268.5547273830849
 31
0.0
  0
LINE
  5
5D1D
330
5D19
100
AcDbEntity
  8
DIM
 62
     0
 48
0.05
370
    -2
100
AcDbLine
 10
214.7568750467261
 20
260.3978977958326
 30
0.0
 11
214.7568750467261
 21
268.5547273830849
 31
0.0
  0
LINE
  5
5D1E
330
5D19
100
AcDbEntity
  8
DIM
 62
     0
 48
0.05
370
    -2
100
AcDbLine
 10
194.7568750467261
 20
268.5547273830849
 30
0.0
 11
213.7568750467261
 21
268.5547273830849
 31
0.0
  0
INSERT
  5
5D1F
330
5D19
100
AcDbEntity
  8
DIM
 62
     0
370
    -2
100
AcDbBlockReference
  2
_DOT
 10
193.7568750467261
 20
268.5547273830849
 30
0.0
 50
180.0
  0
INSERT
  5
5D20
330
5D19
100
AcDbEntity
  8
DIM
 62
     0
370
    -2
100
AcDbBlockReference
  2
_DOT
 10
214.7568750467261
 20
268.5547273830849
 30
0.0
  0
MTEXT
  5
5D21
330
5D19
100
AcDbEntity
  8
DIM
 62
     0
 48
0.05
100
AcDbMText
 10
204.2568750467261
 20
276.587227383085
 30
0.0
 40
5.0
 41
0.0
 46
0.0
 71
     5
 72
     1
  1
\A1;G1/2"
  7
ＭＳ ゴシック
 73
     1
 44
1.0
  0
POINT
  5
5D22
330
5D19
100
AcDbEntity
  8
Defpoints
 62
     0
100
AcDbPoint
 10
193.7568750467261
 20
255.3978977958326
 30
0.0
  0
POINT
  5
5D23
330
5D19
100
AcDbEntity
  8
Defpoints
 62
     0
100
AcDbPoint
 10
214.7568750467261
 20
255.3978977958326
 30
0.0
  0
POINT
  5
5D24
330
5D19
100
AcDbEntity
  8
Defpoints
 62
     0
100
AcDbPoint
 10
214.7568750467261
 20
268.5547273830849
 30
0.0
  0
ENDBLK
  5
5D1B
330
5D19
100
AcDbEntity
  8
0
100
AcDbBlockEnd
  0
BLOCK
  5
5D26
330
5D25
100
AcDbEntity
  8
0
100
AcDbBlockBegin
  2
*D32
 70
     1
 10
0.0
 20
0.0
 30
0.0
  3
*D32
  1
*D32
  0
LINE
  5
5D28
330
5D25
100
AcDbEntity
  8
DIM
 62
     0
 48
0.05
370
    -2
100
AcDbLine
 10
193.7568750467261
 20
185.180827645104
 30
0.0
 11
193.7568750467261
 21
170.2695176278678
 31
0.0
  0
LINE
  5
5D29
330
5D25
100
AcDbEntity
  8
DIM
 62
     0
 48
0.05
370
    -2
100
AcDbLine
 10
214.7568750467261
 20
185.180827645104
 30
0.0
 11
214.7568750467261
 21
170.2695176278678
 31
0.0
  0
LINE
  5
5D2A
330
5D25
100
AcDbEntity
  8
DIM
 62
     0
 48
0.05
370
    -2
100
AcDbLine
 10
194.7568750467261
 20
170.2695176278678
 30
0.0
 11
213.7568750467261
 21
170.2695176278678
 31
0.0
  0
INSERT
  5
5D2B
330
5D25
100
AcDbEntity
  8
DIM
 62
     0
370
    -2
100
AcDbBlockReference
  2
_DOT
 10
193.7568750467261
 20
170.2695176278678
 30
0.0
 50
180.0
  0
INSERT
  5
5D2C
330
5D25
100
AcDbEntity
  8
DIM
 62
     0
370
    -2
100
AcDbBlockReference
  2
_DOT
 10
214.7568750467261
 20
170.2695176278678
 30
0.0
  0
MTEXT
  5
5D2D
330
5D25
100
AcDbEntity
  8
DIM
 62
     0
 48
0.05
100
AcDbMText
 10
204.2568750467261
 20
178.3020176278678
 30
0.0
 40
5.0
 41
0.0
 46
0.0
 71
     5
 72
     1
  1
\A1;G1/2"
  7
ＭＳ ゴシック
 73
     1
 44
1.0
  0
POINT
  5
5D2E
330
5D25
100
AcDbEntity
  8
Defpoints
 62
     0
100
AcDbPoint
 10
193.7568750467261
 20
190.180827645104
 30
0.0
  0
POINT
  5
5D2F
330
5D25
100
AcDbEntity
  8
Defpoints
 62
     0
100
AcDbPoint
 10
214.7568750467261
 20
190.180827645104
 30
0.0
  0
POINT
  5
5D30
330
5D25
100
AcDbEntity
  8
Defpoints
 62
     0
100
AcDbPoint
 10
214.7568750467261
 20
170.2695176278678
 30
0.0
  0
ENDBLK
  5
5D27
330
5D25
100
AcDbEntity
  8
0
100
AcDbBlockEnd
  0
BLOCK
  5
5D41
330
5D40
100
AcDbEntity
  8
0
100
AcDbBlockBegin
  2
*D33
 70
     1
 10
0.0
 20
0.0
 30
0.0
  3
*D33
  1
*D33
  0
LINE
  5
5D43
330
5D40
100
AcDbEntity
  8
DIM
 62
     0
 48
0.05
370
    -2
100
AcDbLine
 10
280.0048248275064
 20
143.1379816285461
 30
0.0
 11
280.0048248275064
 21
134.5526311420444
 31
0.0
  0
LINE
  5
5D44
330
5D40
100
AcDbEntity
  8
DIM
 62
     0
 48
0.05
370
    -2
100
AcDbLine
 10
204.2568750467261
 20
165.2695176278678
 30
0.0
 11
204.2568750467261
 21
134.5526311420444
 31
0.0
  0
LINE
  5
5D45
330
5D40
100
AcDbEntity
  8
DIM
 62
     0
 48
0.05
370
    -2
100
AcDbLine
 10
279.0048248275064
 20
134.5526311420444
 30
0.0
 11
205.2568750467261
 21
134.5526311420444
 31
0.0
  0
INSERT
  5
5D46
330
5D40
100
AcDbEntity
  8
DIM
 62
     0
370
    -2
100
AcDbBlockReference
  2
_DOT
 10
280.0048248275064
 20
134.5526311420444
 30
0.0
  0
INSERT
  5
5D47
330
5D40
100
AcDbEntity
  8
DIM
 62
     0
370
    -2
100
AcDbBlockReference
  2
_DOT
 10
204.2568750467261
 20
134.5526311420444
 30
0.0
 50
180.0
  0
MTEXT
  5
5D48
330
5D40
100
AcDbEntity
  8
DIM
 62
     0
 48
0.05
100
AcDbMText
 10
242.1308499371162
 20
142.0526311420444
 30
0.0
 40
5.0
 41
0.0
 46
0.0
 71
     5
 72
     1
  1
\A1;32-67
  7
ＭＳ ゴシック
 73
     1
 44
1.0
  0
POINT
  5
5D49
330
5D40
100
AcDbEntity
  8
Defpoints
 62
     0
100
AcDbPoint
 10
280.0048248275064
 20
148.1379816285461
 30
0.0
  0
POINT
  5
5D4A
330
5D40
100
AcDbEntity
  8
Defpoints
 62
     0
100
AcDbPoint
 10
204.2568750467261
 20
170.2695176278678
 30
0.0
  0
POINT
  5
5D4B
330
5D40
100
AcDbEntity
  8
Defpoints
 62
     0
100
AcDbPoint
 10
204.2568750467261
 20
134.5526311420444
 30
0.0
  0
ENDBLK
  5
5D42
330
5D40
100
AcDbEntity
  8
0
100
AcDbBlockEnd
  0
ENDSEC
  0
SECTION
  2
ENTITIES
  0
MTEXT
  5
177
330
A
100
AcDbEntity
  8
TEMPLATE
390
1D
100
AcDbMText
 10
15.84042890954615
 20
68.74635032628565
 30
0.0
 40
3.257682291666665
 41
0.0
 46
0.0
 71
     1
 72
     1
  1
品名
  7
ＭＳ ゴシック
 73
     1
 44
0.7828267384257843
  0
MTEXT
  5
178
330
A
100
AcDbEntity
  8
TEMPLATE
390
1D
100
AcDbMText
 10
15.84042890954615
 20
51.7463503262856
 30
0.0
 40
3.257682291666665
 41
0.0
 46
0.0
 71
     1
 72
     1
  1
仕様
  7
ＭＳ ゴシック
 73
     1
 44
0.7828267384257843
  0
LINE
  5
179
330
A
100
AcDbEntity
  8
TEMPLATE
390
1D
100
AcDbLine
 10
404.4404289094496
 20
53.42933470128568
 30
0.0
 11
14.44042890944975
 21
53.42933470128568
 31
0.0
  0
LWPOLYLINE
  5
17A
330
A
100
AcDbEntity
  8
TEMPLATE
390
1D
100
AcDbPolyline
 90
        5
 70
   128
 43
0.0
 10
404.4404289094496
 20
579.4293347012853
 10
14.44042890944975
 20
579.4293347012853
 10
14.44042890944975
 20
19.42933470128565
 10
404.4404289094496
 20
19.42933470128565
 10
404.4404289094496
 20
579.4293347012853
  0
LINE
  5
17B
330
A
100
AcDbEntity
  8
TEMPLATE
390
1D
100
AcDbLine
 10
404.4404289094496
 20
70.42933470128564
 30
0.0
 11
14.44042890944975
 21
70.42933470128564
 31
0.0
  0
LINE
  5
17C
330
A
100
AcDbEntity
  8
TEMPLATE
390
1D
100
AcDbLine
 10
404.4404289095464
 20
36.42933470128565
 30
0.0
 11
253.840428909546
 21
36.42933470128565
 31
0.0
  0
MTEXT
  5
17E
330
A
100
AcDbEntity
  8
TEMPLATE
390
1D
100
AcDbMText
 10
259.8147101599982
 20
30.44725580662403
 30
0.0
 40
4.8865234375
 41
0.0
 46
0.0
 71
     1
 72
     1
  1
大洋金物株式会社 ティーフォルム事業部
  7
ＭＳ ゴシック
 73
     1
 44
0.7828267384257843
  0
MTEXT
  5
180
330
A
100
AcDbEntity
  8
TEMPLATE
390
1D
100
AcDbMText
 10
366.240428909598
 20
46.02985813878564
 30
0.0
 40
4.8865234375
 41
0.0
 46
4.8865234375
 71
     1
 72
     1
  1
{1:2}
  7
ＭＳ ゴシック
 73
     1
 44
0.7828267384257843
1001
ACAD
1000
ACAD_MTEXT_DEFINED_HEIGHT_BEGIN
1070
    46
1040
4.8865234375
1000
ACAD_MTEXT_DEFINED_HEIGHT_END
  0
MTEXT
  5
181
330
A
100
AcDbEntity
  8
TEMPLATE
390
1D
100
AcDbMText
 10
355.640428909598
 20
51.7463503262856
 30
0.0
 40
3.257682291666665
 41
0.0
 46
0.0
 71
     1
 72
     1
  1
縮尺
  7
ＭＳ ゴシック
 73
     1
 44
0.7828267384257843
  0
LINE
  5
182
330
A
100
AcDbEntity
  8
TEMPLATE
390
1D
100
AcDbLine
 10
354.240428909598
 20
36.42933470128565
 30
0.0
 11
354.240428909598
 21
53.42933470128568
 31
0.0
  0
MTEXT
  5
183
330
A
100
AcDbEntity
  8
TEMPLATE
390
1D
100
AcDbMText
 10
305.440428909598
 20
51.7463503262856
 30
0.0
 40
3.257682291666665
 41
0.0
 46
0.0
 71
     1
 72
     1
  1
容量
  7
ＭＳ ゴシック
 73
     1
 44
0.7828267384257843
  0
LINE
  5
184
330
A
100
AcDbEntity
  8
TEMPLATE
390
1D
100
AcDbLine
 10
304.040428909598
 20
36.42933470128565
 30
0.0
 11
304.040428909598
 21
53.42933470128568
 31
0.0
  0
MTEXT
  5
185
330
A
100
AcDbEntity
  8
TEMPLATE
390
1D
100
AcDbMText
 10
255.240428909598
 20
68.74635032628565
 30
0.0
 40
3.257682291666665
 41
0.0
 46
0.0
 71
     1
 72
     1
  1
品番
  7
ＭＳ ゴシック
 73
     1
 44
0.7828267384257843
  0
MTEXT
  5
186
330
A
100
AcDbEntity
  8
TEMPLATE
390
1D
100
AcDbMText
 10
255.240428909598
 20
51.7463503262856
 30
0.0
 40
3.257682291666665
 41
0.0
 46
0.0
 71
     1
 72
     1
  1
重量
  7
ＭＳ ゴシック
 73
     1
 44
0.7828267384257843
  0
MTEXT
  5
187
330
A
100
AcDbEntity
  8
TEMPLATE
390
1D
100
AcDbMText
 10
265.840428909598
 20
63.02985813878564
 30
0.0
 40
4.8865234375
 41
0.0
 46
4.8865234375
 71
     1
 72
     1
  1
{FHT73-1305}
  7
ＭＳ ゴシック
 73
     1
 44
0.7828267384257843
1001
ACAD
1000
ACAD_MTEXT_DEFINED_HEIGHT_BEGIN
1070
    46
1040
4.8865234375
1000
ACAD_MTEXT_DEFINED_HEIGHT_END
  0
LINE
  5
188
330
A
100
AcDbEntity
  8
TEMPLATE
390
1D
100
AcDbLine
 10
253.840428909598
 20
19.42933470128565
 30
0.0
 11
253.840428909598
 21
70.42933470128564
 31
0.0
  0
MTEXT
  5
189
330
A
100
AcDbEntity
  8
TEMPLATE
390
1D
100
AcDbMText
 10
26.44042890954615
 20
63.02985813878564
 30
0.0
 40
4.8865234375
 41
0.0
 46
5.5071119140625
 71
     1
 72
     1
  1
{埋込ストップバルブ　-GROHE, Atrio-}
  7
ＭＳ ゴシック
 73
     1
 44
0.7828267384257843
1001
ACAD
1000
ACAD_MTEXT_DEFINED_HEIGHT_BEGIN
1070
    46
1040
5.5071119140625
1000
ACAD_MTEXT_DEFINED_HEIGHT_END
  0
INSERT
  5
6B5
330
A
100
AcDbEntity
  8
TEMPLATE
100
AcDbBlockReference
  2
名称未設定-1
 10
374.15014961769
 20
5.189353151330764
 30
0.0
 41
0.1524
 42
0.1524
 43
0.1524
  0
INSERT
  5
68C
330
A
100
AcDbEntity
  8
TEMPLATE
100
AcDbBlockReference
  2
block 2
 10
919.2743017702577
 20
8.373076514336368
 30
0.0
 41
0.3809999999999999
 42
0.3809999999999999
 43
0.3809999999999999
  0
LWPOLYLINE
  5
D69
330
A
100
AcDbEntity
  8
BORDER
 48
0.025
100
AcDbPolyline
 90
        4
 70
     1
 43
0.0
 10
0.0
 20
0.0
 10
0.0
 20
594.0
 10
420.0
 20
594.0
 10
420.0
 20
0.0
  0
INSERT
  5
1343
330
A
100
AcDbEntity
  8
TEMPLATE
100
AcDbBlockReference
  2
block 2
 10
2096.743470866468
 20
24.43532141229569
 30
0.0
 41
0.3809999999999999
 42
0.3809999999999999
 43
0.3809999999999999
  0
POINT
  5
3697
330
A
100
AcDbEntity
  8
Layer50
  6
HIDDEN2
 62
     7
100
AcDbPoint
 10
396.8678405503807
 20
449.3605456225488
 30
0.0
  0
POINT
  5
36AA
330
A
100
AcDbEntity
  8
Layer50
  6
HIDDEN2
 62
     7
100
AcDbPoint
 10
396.8678405503807
 20
469.8605456225488
 30
0.0
  0
POINT
  5
36B6
330
A
100
AcDbEntity
  8
Layer50
  6
HIDDEN2
 62
     7
100
AcDbPoint
 10
405.6628405503807
 20
460.6105456225488
 30
0.0
  0
POINT
  5
36BC
330
A
100
AcDbEntity
  8
Layer50
  6
HIDDEN2
 62
     7
100
AcDbPoint
 10
403.6628405503807
 20
460.6105456225488
 30
0.0
  0
HATCH
  5
374D
330
A
100
AcDbEntity
  8
MODEL
100
AcDbHatch
 10
0.0
 20
0.0
 30
0.0
210
0.0
220
0.0
230
1.0
  2
LINE
 70
     0
 71
     0
 91
        1
 92
        1
 93
        4
 72
     1
 10
268.0048248274481
 20
296.1379816285327
 11
268.0048248274481
 21
240.1379816285327
 72
     1
 10
268.0048248274481
 20
240.1379816285326
 11
276.0048248274481
 21
240.1379816285326
 72
     1
 10
276.0048248274481
 20
240.1379816285326
 11
276.0048248274481
 21
296.1379816285327
 72
     1
 10
276.0048248274481
 20
296.1379816285327
 11
268.0048248274481
 21
296.1379816285327
 97
        0
 75
     0
 76
     1
 52
45.0
 41
2.0
 77
     0
 78
     1
 53
45.0
 43
110.067930782706
 44
-82.94850673885375
 45
-4.490128060534576
 46
4.490128060534576
 79
     0
 98
        0
  0
HATCH
  5
374E
330
A
100
AcDbEntity
  8
MODEL
100
AcDbHatch
 10
0.0
 20
0.0
 30
0.0
210
0.0
220
0.0
230
1.0
  2
LINE
 70
     0
 71
     0
 91
        1
 92
        1
 93
       10
 72
     1
 10
280.0048248274481
 20
256.853191338927
 11
280.0048248274481
 21
296.1379816285326
 72
     1
 10
280.0048248274481
 20
296.1379816285327
 11
276.0048248274481
 21
296.1379816285327
 72
     1
 10
276.0048248274481
 20
296.1379816285327
 11
276.0048248274481
 21
240.1379816285327
 72
     1
 10
276.0048248274481
 20
240.1379816285326
 11
280.0048248274481
 21
240.1379816285326
 72
     4
 94
        3
 73
     0
 74
     0
 95
       21
 96
       17
 40
0.0
 40
0.0
 40
0.0
 40
0.0
 40
0.0518364784306705
 40
0.150593254752574
 40
0.2217176675263679
 40
0.2749211551898911
 40
0.3067298695273143
 40
0.3368246892862713
 40
0.3677027494859613
 40
0.3831223799364778
 40
0.3908272121093039
 40
0.3946783658861105
 40
0.3966036251348891
 40
0.3975661750919777
 40
0.3980474301215471
 40
0.3985286718391066
 40
0.3985286718391066
 40
0.3985286718391066
 40
0.3985286718391066
 10
280.0046265053053
 20
240.1380022294547
 10
280.0046227640452
 20
240.6485176817011
 10
280.0046132221361
 20
242.1291489586796
 10
280.0046055539134
 20
244.297472788625
 10
280.0046065668022
 20
246.4637345092432
 10
280.0046122874202
 20
247.9712574140807
 10
280.00461923143
 20
249.0779701670955
 10
280.0046264986187
 20
249.9671991263121
 10
280.0046338899994
 20
250.6969759202081
 10
280.0046399002005
 20
251.2115370809637
 10
280.0046431020334
 20
251.4682379500944
 10
280.004644752493
 20
251.5964414384098
 10
280.0046455901294
 20
251.6605062434841
 10
280.0046460120849
 20
251.6925293292216
 10
280.0046462540487
 20
251.7108255257345
 10
280.004646375408
 20
251.7199727325657
 10
280.0046464352264
 20
251.7245462727251
 72
     1
 10
280.0046464352264
 20
251.7245462727251
 11
280.0046503670482
 21
251.879042604291
 72
     1
 10
280.0046503670484
 20
251.8790426042911
 11
280.004656813907
 21
251.9752820162978
 72
     1
 10
280.004656813907
 20
251.9752820162978
 11
280.0048248274482
 21
253.7039518162983
 72
     1
 10
280.0048248274481
 20
253.703951816298
 11
280.0048248274481
 21
256.8258785819072
 72
     2
 10
280.3045313754789
 20
256.8395349604172
 40
0.3000175188342922
 50
177.3534190589228
 51
182.6089253287276
 73
     0
 97
        0
 75
     0
 76
     1
 52
315.0
 41
2.0
 77
     0
 78
     1
 53
315.0
 43
110.067930782706
 44
-82.94850673885375
 45
4.490128060534576
 46
4.490128060534576
 79
     0
 98
        0
  0
LINE
  5
374F
330
A
100
AcDbEntity
  8
MODEL
100
AcDbLine
 10
276.0048248275064
 20
296.1379816285462
 30
0.0
 11
276.0048248275064
 21
240.1379816285462
 31
0.0
  0
LINE
  5
3750
102
{ACAD_REACTORS
102
}
330
A
100
AcDbEntity
  8
MODEL
100
AcDbLine
 10
280.0048248275064
 20
240.1908455642153
 30
0.0
 11
268.0048248275064
 21
240.1908455642153
 31
0.0
  0
HATCH
  5
3754
330
A
100
AcDbEntity
  8
MODEL
100
AcDbHatch
 10
0.0
 20
0.0
 30
0.0
210
0.0
220
0.0
230
1.0
  2
LINE
 70
     0
 71
     0
 91
        1
 92
        1
 93
        4
 72
     1
 10
280.0048248274481
 20
148.1379816285326
 11
280.0048248274481
 21
204.1379816285326
 72
     1
 10
280.0048248274481
 20
204.1379816285326
 11
276.0048248274481
 21
204.1379816285326
 72
     1
 10
276.0048248274481
 20
204.1379816285326
 11
276.0048248274481
 21
148.1379816285326
 72
     1
 10
276.0048248274481
 20
148.1379816285326
 11
280.0048248274481
 21
148.1379816285326
 97
        0
 75
     0
 76
     1
 52
315.0
 41
2.0
 77
     0
 78
     1
 53
315.0
 43
110.067930782706
 44
-82.94850673885375
 45
4.490128060534576
 46
4.490128060534576
 79
     0
 98
        0
  0
LINE
  5
3755
102
{ACAD_REACTORS
330
5D3F
102
}
330
A
100
AcDbEntity
  8
MODEL
100
AcDbLine
 10
280.0048248275064
 20
148.1379816285461
 30
0.0
 11
280.0048248275064
 21
296.1379816285462
 31
0.0
  0
HATCH
  5
3756
330
A
100
AcDbEntity
  8
MODEL
100
AcDbHatch
 10
0.0
 20
0.0
 30
0.0
210
0.0
220
0.0
230
1.0
  2
LINE
 70
     0
 71
     0
 91
        1
 92
        1
 93
        4
 72
     1
 10
268.0048248274481
 20
204.1379816285326
 11
268.0048248274481
 21
148.1379816285326
 72
     1
 10
268.0048248274481
 20
148.1379816285326
 11
276.0048248274481
 21
148.1379816285326
 72
     1
 10
276.0048248274481
 20
148.1379816285326
 11
276.0048248274481
 21
204.1379816285326
 72
     1
 10
276.0048248274481
 20
204.1379816285326
 11
268.0048248274481
 21
204.1379816285326
 97
        0
 75
     0
 76
     1
 52
45.0
 41
2.0
 77
     0
 78
     1
 53
45.0
 43
110.067930782706
 44
-82.94850673885375
 45
-4.490128060534576
 46
4.490128060534576
 79
     0
 98
        0
  0
LINE
  5
3757
330
A
100
AcDbEntity
  8
MODEL
100
AcDbLine
 10
276.0048248275064
 20
148.1379816285461
 30
0.0
 11
276.0048248275064
 21
204.1379816285463
 31
0.0
  0
LINE
  5
3758
102
{ACAD_REACTORS
102
}
330
A
100
AcDbEntity
  8
MODEL
100
AcDbLine
 10
280.0048248275064
 20
204.3982927101698
 30
0.0
 11
268.0048248275064
 21
204.3982927101698
 31
0.0
  0
MTEXT
  5
4530
102
{ACAD_XDICTIONARY
360
4532
102
}
330
A
100
AcDbEntity
  8
MODEL
 48
0.05
100
AcDbMText
 10
14.6329326238789
 20
17.30781899803597
 30
0.0
 40
4.0
 41
0.0
 46
4.0
 71
     1
 72
     1
  1
{20160725N}
  7
ＭＳ ゴシック
 73
     1
 44
1.0
1001
ACAD
1000
ACAD_MTEXT_DEFINED_HEIGHT_BEGIN
1070
    46
1040
4.0
1000
ACAD_MTEXT_DEFINED_HEIGHT_END
  0
LINE
  5
49F7
330
A
100
AcDbEntity
  8
MODEL
 48
25.4
100
AcDbLine
 10
280.0048248275064
 20
262.2994196067168
 30
0.0
 11
280.0048248275064
 21
185.2994196067168
 31
0.0
  0
MTEXT
  5
5062
330
A
100
AcDbEntity
  8
TEMPLATE
390
1D
100
AcDbMText
 10
26.44042890954615
 20
46.10276168560644
 30
0.0
 40
4.8865234375
 41
0.0
 46
4.9598212890625
 71
     1
 72
     1
  1
{クローム}
  7
ＭＳ ゴシック
 73
     1
 44
0.7828267384257843
1001
ACAD
1000
ACAD_MTEXT_DEFINED_HEIGHT_BEGIN
1070
    46
1040
4.9598212890625
1000
ACAD_MTEXT_DEFINED_HEIGHT_END
  0
LINE
  5
5471
330
A
100
AcDbEntity
  8
MODEL
100
AcDbLine
 10
219.0120368029259
 20
241.4509899413683
 30
0.0
 11
218.722451932026
 21
241.6796192163683
 31
0.0
  0
SPLINE
  5
5472
330
A
100
AcDbEntity
  8
MODEL
100
AcDbSpline
210
0.0
220
0.0
230
1.0
 70
     8
 71
     3
 72
    10
 73
     6
 74
     0
 42
0.000000001
 43
0.0000000001
 40
0.0
 40
0.0
 40
0.0
 40
0.0
 40
0.4999999999999999
 40
0.4999999999999999
 40
1.0
 40
1.0
 40
1.0
 40
1.0
 10
218.9294356335545
 20
236.641159863028
 30
0.0
 10
218.9503388542315
 20
238.1355501017162
 30
0.0
 10
218.9683434176646
 20
239.3398830617701
 30
0.0
 10
218.9990508263311
 20
240.9980286634704
 30
0.0
 10
219.011656962189
 20
241.451292080353
 30
0.0
 10
219.0120368028921
 20
241.4509899414151
 30
0.0
  0
ARC
  5
5473
330
A
100
AcDbEntity
  8
MODEL
100
AcDbCircle
 10
193.8542634326259
 20
211.0347115128683
 30
0.0
 40
35.8392865165635
100
AcDbArc
 50
40.0141202662999
 51
45.60058786379998
  0
LINE
  5
5474
330
A
100
AcDbEntity
  8
MODEL
100
AcDbLine
 10
203.778255193126
 20
241.9346213377683
 30
0.0
 11
196.5456150449261
 21
230.7893627204683
 31
0.0
  0
LINE
  5
5475
330
A
100
AcDbEntity
  8
MODEL
100
AcDbLine
 10
203.778255193126
 20
203.6441041031683
 30
0.0
 11
196.5456150449261
 21
214.7893627204683
 31
0.0
  0
LINE
  5
5476
330
A
100
AcDbEntity
  8
MODEL
100
AcDbLine
 10
188.2568750467261
 20
230.3949453999683
 30
0.0
 11
188.2568750467261
 21
215.1837800409683
 31
0.0
  0
ARC
  5
5477
330
A
100
AcDbEntity
  8
MODEL
100
AcDbCircle
 10
168.6751225958261
 20
246.5632454083683
 30
0.0
 40
35.40648948270385
100
AcDbArc
 50
352.4867750598
 51
353.8784993479998
  0
ARC
  5
5478
330
A
100
AcDbEntity
  8
MODEL
100
AcDbCircle
 10
200.034960235226
 20
192.6219421282683
 30
0.0
 40
50.31277275664189
100
AcDbArc
 50
77.43786754989982
 51
85.61734126200002
  0
ARC
  5
5479
330
A
100
AcDbEntity
  8
MODEL
100
AcDbCircle
 10
202.873962060726
 20
220.3658390018683
 30
0.0
 40
22.86185252293375
100
AcDbArc
 50
45.38960154980018
 51
69.03074568749976
  0
SPLINE
  5
547A
330
A
100
AcDbEntity
  8
MODEL
100
AcDbSpline
210
0.0
220
0.0
230
1.0
 70
     8
 71
     3
 72
    14
 73
    10
 74
     0
 42
0.000000001
 43
0.0000000001
 40
0.0
 40
0.0
 40
0.0
 40
0.0
 40
0.25
 40
0.25
 40
0.5
 40
0.5
 40
0.75
 40
0.75
 40
1.0
 40
1.0
 40
1.0
 40
1.0
 10
211.7924469150392
 20
241.730940545519
 30
0.0
 10
212.6710737495294
 20
241.9224864536293
 30
0.0
 10
213.4299040736669
 20
242.1340867787517
 30
0.0
 10
214.7960257750731
 20
242.4135524290744
 30
0.0
 10
215.415924226584
 20
242.4862037683172
 30
0.0
 10
216.5912911493677
 20
242.4588552634625
 30
0.0
 10
217.1468916931058
 20
242.3586110434755
 30
0.0
 10
218.0937422363432
 20
242.0595302741447
 30
0.0
 10
218.4937284956528
 20
241.8586234066055
 30
0.0
 10
218.7223696810068
 20
241.6796836958062
 30
0.0
  0
LINE
  5
547B
330
A
100
AcDbEntity
  8
MODEL
100
AcDbLine
 10
188.2568750467261
 20
230.3949453999683
 30
0.0
 11
188.358958036826
 21
231.1703405227683
 31
0.0
  0
SPLINE
  5
547C
330
A
100
AcDbEntity
  8
MODEL
100
AcDbSpline
210
0.0
220
0.0
230
1.0
 70
     8
 71
     3
 72
    17
 73
    13
 74
     0
 42
0.000000001
 43
0.0000000001
 40
0.0
 40
0.0
 40
0.0
 40
0.0
 40
0.0561365517852737
 40
0.1165130167685113
 40
0.1812265940977128
 40
0.2501999119001176
 40
0.3701545472629869
 40
0.4996296189800093
 40
0.622382367934318
 40
0.7489514940013823
 40
0.8719100351401485
 40
1.0
 40
1.0
 40
1.0
 40
1.0
 10
188.7575472933339
 20
231.3458033185726
 30
0.0
 10
188.7957545417362
 20
231.4255992560447
 30
0.0
 10
188.8750547771845
 20
231.5912180036373
 30
0.0
 10
189.0675315267566
 20
231.7717974701368
 30
0.0
 10
189.3310857539778
 20
231.9123106460799
 30
0.0
 10
189.7591354608267
 20
232.0246340912884
 30
0.0
 10
190.4343693970957
 20
232.0617171143165
 30
0.0
 10
191.4097909539292
 20
231.9790547183819
 30
0.0
 10
192.5595834442941
 20
231.7915977245163
 30
0.0
 10
193.808443955843
 20
231.5249466598825
 30
0.0
 10
195.1558971289322
 20
231.1882178429788
 30
0.0
 10
196.0761060586304
 20
230.9241138545624
 30
0.0
 10
196.5456150448429
 20
230.7893627207361
 30
0.0
  0
LINE
  5
547D
330
A
100
AcDbEntity
  8
MODEL
100
AcDbLine
 10
188.2568750467261
 20
215.1837800409683
 30
0.0
 11
188.358958036826
 21
214.4083849181683
 31
0.0
  0
SPLINE
  5
547E
330
A
100
AcDbEntity
  8
MODEL
100
AcDbSpline
210
0.0
220
0.0
230
1.0
 70
     8
 71
     3
 72
    14
 73
    10
 74
     0
 42
0.000000001
 43
0.0000000001
 40
0.0
 40
0.0
 40
0.0
 40
0.0
 40
0.25
 40
0.25
 40
0.5
 40
0.5
 40
0.75
 40
0.75
 40
1.0
 40
1.0
 40
1.0
 40
1.0
 10
188.7575472933339
 20
214.2329221223674
 30
0.0
 10
188.9237116606942
 20
213.8069595543783
 30
0.0
 10
189.2807285038676
 20
213.6418464556644
 30
0.0
 10
190.2464205731104
 20
213.5025260971861
 30
0.0
 10
190.8634433928599
 20
213.5387431729396
 30
0.0
 10
192.2662324852168
 20
213.7287700288269
 30
0.0
 10
193.0572649677986
 20
213.8851526063695
 30
0.0
 10
194.7399131788655
 20
214.280185867886
 30
0.0
 10
195.6517469898927
 20
214.5253256232563
 30
0.0
 10
196.5456150448434
 20
214.7893627202043
 30
0.0
  0
ARC
  5
547F
330
A
100
AcDbEntity
  8
MODEL
100
AcDbCircle
 10
190.8670614713261
 20
273.2543182640683
 30
0.0
 40
31.96375693720399
100
AcDbArc
 50
282.3542893927999
 51
287.5859348980995
  0
SPLINE
  5
5480
330
A
100
AcDbEntity
  8
MODEL
100
AcDbSpline
210
0.0
220
0.0
230
1.0
 70
     8
 71
     3
 72
    14
 73
    10
 74
     0
 42
0.000000001
 43
0.0000000001
 40
0.0
 40
0.0
 40
0.0
 40
0.0
 40
0.25
 40
0.25
 40
0.5
 40
0.5
 40
0.75
 40
0.75
 40
1.0
 40
1.0
 40
1.0
 40
1.0
 10
191.4702684800901
 20
242.2042080118438
 30
0.0
 10
191.5873956200012
 20
242.4669385307381
 30
0.0
 10
191.8474248018143
 20
242.7833909251657
 30
0.0
 10
192.5479151056766
 20
243.2450275701582
 30
0.0
 10
192.9954103759615
 20
243.3694283880678
 30
0.0
 10
193.9444742701488
 20
243.2247720956154
 30
0.0
 10
194.4653655049397
 20
242.9850707845522
 30
0.0
 10
195.6456065391647
 20
242.4798248800667
 30
0.0
 10
196.3035203162434
 20
242.2114761254221
 30
0.0
 10
197.0770905652406
 20
242.0317956775861
 30
0.0
  0
LINE
  5
5481
330
A
100
AcDbEntity
  8
MODEL
100
AcDbLine
 10
191.1842822256261
 20
241.7145634083683
 30
0.0
 11
188.358958036826
 21
231.1703405227683
 31
0.0
  0
SPLINE
  5
5482
330
A
100
AcDbEntity
  8
MODEL
100
AcDbSpline
210
0.0
220
0.0
230
1.0
 70
     8
 71
     3
 72
    19
 73
    15
 74
     0
 42
0.000000001
 43
0.0000000001
 40
0.0
 40
0.0
 40
0.0
 40
0.0
 40
0.0577293580877787
 40
0.1257578378175792
 40
0.1882258229629183
 40
0.2505327431827824
 40
0.3756891655718115
 40
0.5002494011462059
 40
0.6250644742071915
 40
0.6879643410978258
 40
0.750511054927486
 40
0.8748289132727199
 40
0.9407698569509232
 40
1.0
 40
1.0
 40
1.0
 40
1.0
 10
191.4702684800901
 20
203.3745174290962
 30
0.0
 10
191.5019842135576
 20
203.3116550741373
 30
0.0
 10
191.5710738795051
 20
203.1747154977846
 30
0.0
 10
191.7368895523694
 20
202.9592284755405
 30
0.0
 10
191.9499295263079
 20
202.7452515245825
 30
0.0
 10
192.2789350312497
 20
202.4928302880784
 30
0.0
 10
192.7757782784186
 20
202.2593567492688
 30
0.0
 10
193.4642153812243
 20
202.2393802365666
 30
0.0
 10
194.0869000963258
 20
202.4373857346826
 30
0.0
 10
194.6255066774477
 20
202.660421859989
 30
0.0
 10
195.1955530017272
 20
202.9082040827351
 30
0.0
 10
195.8316290532344
 20
203.1717678142955
 30
0.0
 10
196.5237836364973
 20
203.4062828438727
 30
0.0
 10
196.8993669753318
 20
203.5017536158303
 30
0.0
 10
197.0770905652406
 20
203.5469297633539
 30
0.0
  0
ARC
  5
5483
330
A
100
AcDbEntity
  8
MODEL
100
AcDbCircle
 10
190.987687706326
 20
172.7755337818683
 30
0.0
 40
31.49727543802624
100
AcDbArc
 50
72.37529575300006
 51
77.68447801850006
  0
LINE
  5
5484
330
A
100
AcDbEntity
  8
MODEL
100
AcDbLine
 10
191.1842822256261
 20
203.8641620325683
 30
0.0
 11
188.358958036826
 21
214.4083849181683
 31
0.0
  0
ARC
  5
5485
330
A
100
AcDbEntity
  8
MODEL
100
AcDbCircle
 10
200.0326529573261
 20
252.9722727148683
 30
0.0
 40
50.32839319488836
100
AcDbArc
 50
274.3839302299999
 51
282.5608609581998
  0
ARC
  5
5486
330
A
100
AcDbEntity
  8
MODEL
100
AcDbCircle
 10
239.4485132033261
 20
207.4764486892683
 30
0.0
 40
35.87605014297361
100
AcDbArc
 50
186.1306088241999
 51
187.5041167680999
  0
ARC
  5
5487
330
A
100
AcDbEntity
  8
MODEL
100
AcDbCircle
 10
202.8843810212259
 20
225.1965254068683
 30
0.0
 40
22.84288853970875
100
AcDbArc
 50
290.9599738684001
 51
314.6206117630003
  0
LINE
  5
5488
330
A
100
AcDbEntity
  8
MODEL
100
AcDbLine
 10
219.0120368029259
 20
204.1277354995683
 30
0.0
 11
218.722451932026
 21
203.8991062245683
 31
0.0
  0
SPLINE
  5
5489
330
A
100
AcDbEntity
  8
MODEL
100
AcDbSpline
210
0.0
220
0.0
230
1.0
 70
     8
 71
     3
 72
    10
 73
     6
 74
     0
 42
0.000000001
 43
0.0000000001
 40
0.0
 40
0.0
 40
0.0
 40
0.0
 40
0.5
 40
0.5
 40
1.0
 40
1.0
 40
1.0
 40
1.0
 10
218.9294350360393
 20
208.9375648466649
 30
0.0
 10
218.9506581481576
 20
207.4433458718644
 30
0.0
 10
218.9701000149594
 20
206.2400551524173
 30
0.0
 10
218.9991670936291
 20
204.5808190161767
 30
0.0
 10
219.0088254751211
 20
204.1251810940757
 30
0.0
 10
219.0120368028921
 20
204.127735499525
 30
0.0
  0
SPLINE
  5
548A
330
A
100
AcDbEntity
  8
MODEL
100
AcDbSpline
210
0.0
220
0.0
230
1.0
 70
     8
 71
     3
 72
    12
 73
     8
 74
     0
 42
0.000000001
 43
0.0000000001
 40
0.0
 40
0.0
 40
0.0
 40
0.0
 40
0.2499999999999981
 40
0.2499999999999981
 40
0.4999999999999962
 40
0.4999999999999962
 40
1.0
 40
1.0
 40
1.0
 40
1.0
 10
190.5216397714785
 20
242.925156653442
 30
0.0
 10
190.6438022278776
 20
242.8865621110937
 30
0.0
 10
190.756187025723
 20
242.8254847216013
 30
0.0
 10
190.9528675405684
 20
242.6638871314612
 30
0.0
 10
191.0351170657014
 20
242.5644454130091
 30
0.0
 10
191.2176147383394
 20
242.2310123456355
 30
0.0
 10
191.2505975368734
 20
241.9620548026717
 30
0.0
 10
191.184282225602
 20
241.7145634083955
 30
0.0
  0
SPLINE
  5
548B
330
A
100
AcDbEntity
  8
MODEL
100
AcDbSpline
210
0.0
220
0.0
230
1.0
 70
     8
 71
     3
 72
    18
 73
    14
 74
     0
 42
0.000000001
 43
0.0000000001
 40
0.0
 40
0.0
 40
0.0
 40
0.0
 40
0.1249999999999991
 40
0.1249999999999991
 40
0.2499999999999981
 40
0.2499999999999981
 40
0.5
 40
0.5
 40
0.6250000000000009
 40
0.6250000000000009
 40
0.7500000000000019
 40
0.7500000000000019
 40
1.0
 40
1.0
 40
1.0
 40
1.0
 10
218.7223696810068
 20
241.6796836958062
 30
0.0
 10
218.6604654624408
 20
241.7282234581014
 30
0.0
 10
218.6051617680678
 20
241.7824882737023
 30
0.0
 10
218.5069636877607
 20
241.9023003410239
 30
0.0
 10
218.4638012201534
 20
241.9686773877152
 30
0.0
 10
218.3595185476636
 20
242.1764617538836
 30
0.0
 10
218.3210536420543
 20
242.3317060620261
 30
0.0
 10
218.3183478942447
 20
242.5638109127744
 30
0.0
 10
218.3266186335562
 20
242.6426381776055
 30
0.0
 10
218.3610213387918
 20
242.793846692806
 30
0.0
 10
218.3869055962714
 20
242.8668066397973
 30
0.0
 10
218.4918808021276
 20
243.0773656478587
 30
0.0
 10
218.5944550178236
 20
243.1980646828345
 30
0.0
 10
218.7217597242541
 20
243.2900504019429
 30
0.0
  0
ARC
  5
548C
330
A
100
AcDbEntity
  8
MODEL
100
AcDbCircle
 10
220.964099286226
 20
242.3349113020683
 30
0.0
 40
17.09037144765468
100
AcDbArc
 50
175.6047584467999
 51
178.4821866970001
  0
ARC
  5
548D
330
A
100
AcDbEntity
  8
MODEL
100
AcDbCircle
 10
202.219326948326
 20
224.7419704157683
 30
0.0
 40
18.12185268754699
100
AcDbArc
 50
84.74295652569992
 51
95.36649739360027
  0
SPLINE
  5
548E
330
A
100
AcDbEntity
  8
MODEL
100
AcDbSpline
210
0.0
220
0.0
230
1.0
 70
     8
 71
     3
 72
    12
 73
     8
 74
     0
 42
0.000000001
 43
0.0000000001
 40
0.0
 40
0.0
 40
0.0
 40
0.0
 40
0.2499999999999981
 40
0.2499999999999981
 40
0.4999999999999962
 40
0.4999999999999962
 40
1.0
 40
1.0
 40
1.0
 40
1.0
 10
190.5216397714776
 20
202.6535687874979
 30
0.0
 10
190.6438022278776
 20
202.6921633298463
 30
0.0
 10
190.756187025723
 20
202.7532407193387
 30
0.0
 10
190.9528675405684
 20
202.9148383094788
 30
0.0
 10
191.0351170657014
 20
203.014280027931
 30
0.0
 10
191.2176147383394
 20
203.3477130953045
 30
0.0
 10
191.2505975368734
 20
203.6166706382683
 30
0.0
 10
191.184282225602
 20
203.8641620325446
 30
0.0
  0
SPLINE
  5
548F
330
A
100
AcDbEntity
  8
MODEL
100
AcDbSpline
210
0.0
220
0.0
230
1.0
 70
     8
 71
     3
 72
    18
 73
    14
 74
     0
 42
0.000000001
 43
0.0000000001
 40
0.0
 40
0.0
 40
0.0
 40
0.0
 40
0.1249999999999992
 40
0.1249999999999992
 40
0.2499999999999984
 40
0.2499999999999984
 40
0.5000000000000007
 40
0.5000000000000007
 40
0.6250000000000018
 40
0.6250000000000018
 40
0.7500000000000029
 40
0.7500000000000029
 40
1.0
 40
1.0
 40
1.0
 40
1.0
 10
218.7223696810068
 20
203.8990417451338
 30
0.0
 10
218.6604654624408
 20
203.8505019828387
 30
0.0
 10
218.6051617680678
 20
203.7962371672378
 30
0.0
 10
218.5069636877607
 20
203.6764250999161
 30
0.0
 10
218.4638012201534
 20
203.6100480532249
 30
0.0
 10
218.3595185476636
 20
203.4022636870564
 30
0.0
 10
218.3210536420543
 20
203.2470193789139
 30
0.0
 10
218.3183478942447
 20
203.0149145281657
 30
0.0
 10
218.3266186335562
 20
202.9360872633345
 30
0.0
 10
218.3610213387918
 20
202.784878748134
 30
0.0
 10
218.3869055962714
 20
202.7119188011428
 30
0.0
 10
218.4918808021276
 20
202.5013597930813
 30
0.0
 10
218.5944550178236
 20
202.3806607581055
 30
0.0
 10
218.7217597242541
 20
202.2886750389972
 30
0.0
  0
ARC
  5
5490
330
A
100
AcDbEntity
  8
MODEL
100
AcDbCircle
 10
220.1261091927261
 20
203.2005344762683
 30
0.0
 40
16.2515426482804
100
AcDbArc
 50
181.4435367516001
 51
184.4695181046
  0
ARC
  5
5491
330
A
100
AcDbEntity
  8
MODEL
100
AcDbCircle
 10
202.2182602709261
 20
219.7202068796683
 30
0.0
 40
17.0104128978517
100
AcDbArc
 50
264.2853400831997
 51
275.6052069981994
  0
LINE
  5
5492
330
A
100
AcDbEntity
  8
MODEL
100
AcDbLine
 10
212.224308496426
 20
244.8641222862683
 30
0.0
 11
212.224308496426
 21
254.3788041561683
 31
0.0
  0
LINE
  5
5493
330
A
100
AcDbEntity
  8
MODEL
100
AcDbLine
 10
197.1554667356261
 20
244.8641260339683
 30
0.0
 11
197.1554667356261
 21
254.3788033999683
 31
0.0
  0
ARC
  5
5494
330
A
100
AcDbEntity
  8
MODEL
100
AcDbCircle
 10
215.7874301942259
 20
262.3883205116683
 30
0.0
 40
17.88279827954504
100
AcDbArc
 50
258.5068886725003
 51
282.3569152291
  0
SPLINE
  5
5495
330
A
100
AcDbEntity
  8
MODEL
100
AcDbSpline
210
0.0
220
0.0
230
1.0
 70
     8
 71
     3
 72
    14
 73
    10
 74
     0
 42
0.000000001
 43
0.0000000001
 40
0.0
 40
0.0
 40
0.0
 40
0.0
 40
0.2500000000000001
 40
0.2500000000000001
 40
0.5000000000000001
 40
0.5000000000000001
 40
0.7500000000000001
 40
0.7500000000000001
 40
1.0
 40
1.0
 40
1.0
 40
1.0
 10
211.3582551479067
 20
244.8640958428724
 30
0.0
 10
210.1757707141535
 20
244.7531523690174
 30
0.0
 10
208.9930685194661
 20
244.6620571061681
 30
0.0
 10
206.6270810601741
 20
244.5369164500584
 30
0.0
 10
205.4437907380089
 20
244.5033659086133
 30
0.0
 10
203.076525536264
 20
244.5032446339524
 30
0.0
 10
201.8925506008978
 20
244.5366793591297
 30
0.0
 10
199.5240053046276
 20
244.6618076019433
 30
0.0
 10
198.3383309558165
 20
244.7531190676124
 30
0.0
 10
197.1554395863253
 20
244.8641010368079
 30
0.0
  0
ARC
  5
5496
330
A
100
AcDbEntity
  8
MODEL
100
AcDbCircle
 10
192.726998649926
 20
262.4839155658682
 30
0.0
 40
17.97633634767789
100
AcDbArc
 50
257.7060842433998
 51
281.4301095853999
  0
SPLINE
  5
5497
330
A
100
AcDbEntity
  8
MODEL
100
AcDbSpline
210
0.0
220
0.0
230
1.0
 70
     8
 71
     3
 72
    14
 73
    10
 74
     0
 42
0.000000001
 43
0.0000000001
 40
0.0
 40
0.0
 40
0.0
 40
0.0
 40
0.25
 40
0.25
 40
0.5
 40
0.5
 40
0.75
 40
0.75
 40
1.0
 40
1.0
 40
1.0
 40
1.0
 10
218.7217597242541
 20
243.2900504019429
 30
0.0
 10
218.8520651321545
 20
243.3842043180511
 30
0.0
 10
218.9715759794493
 20
243.4898721062062
 30
0.0
 10
219.1875421634439
 20
243.7257995310085
 30
0.0
 10
219.2848807735596
 20
243.8581109466855
 30
0.0
 10
219.4429812073218
 20
244.1365953459869
 30
0.0
 10
219.5051330099855
 20
244.2835416136755
 30
0.0
 10
219.5913993122552
 20
244.5947755378344
 30
0.0
 10
219.6143639973184
 20
244.756879952578
 30
0.0
 10
219.6143639973184
 20
244.9198044907754
 30
0.0
  0
SPLINE
  5
5498
330
A
100
AcDbEntity
  8
MODEL
100
AcDbSpline
210
0.0
220
0.0
230
1.0
 70
     8
 71
     3
 72
    10
 73
     6
 74
     0
 42
0.000000001
 43
0.0000000001
 40
0.0
 40
0.0
 40
0.0
 40
0.0
 40
0.5
 40
0.5
 40
1.0
 40
1.0
 40
1.0
 40
1.0
 10
188.8993578862431
 20
244.919809136285
 30
0.0
 10
188.8993578862431
 20
244.4570043172742
 30
0.0
 10
189.08601925725
 20
244.0127763654812
 30
0.0
 10
189.6829480639377
 20
243.3151534070873
 30
0.0
 10
190.0820202709784
 20
243.0640447695623
 30
0.0
 10
190.5216397714785
 20
242.925156653442
 30
0.0
  0
LINE
  5
5499
330
A
100
AcDbEntity
  8
MODEL
100
AcDbLine
 10
212.224308496426
 20
200.7146031546683
 30
0.0
 11
212.224308496426
 21
191.1999212847683
 31
0.0
  0
LINE
  5
549A
330
A
100
AcDbEntity
  8
MODEL
100
AcDbLine
 10
197.1554667356261
 20
200.7145994069683
 30
0.0
 11
197.1554667356261
 21
191.1999220409683
 31
0.0
  0
ARC
  5
549B
330
A
100
AcDbEntity
  8
MODEL
100
AcDbCircle
 10
215.786687133726
 20
183.0918329528683
 30
0.0
 40
17.97925723931221
100
AcDbArc
 50
77.70799497739974
 51
101.428201121
  0
SPLINE
  5
549C
330
A
100
AcDbEntity
  8
MODEL
100
AcDbSpline
210
0.0
220
0.0
230
1.0
 70
     8
 71
     2
 72
    12
 73
     9
 74
     0
 42
0.000000001
 43
0.0000000001
 40
0.0
 40
0.0
 40
0.0
 40
0.2308705522898774
 40
0.2308705522898774
 40
0.4999963756084133
 40
0.4999963756084133
 40
0.7691221989269492
 40
0.7691221989269492
 40
1.0
 40
1.0
 40
1.0
 10
211.3582551479067
 20
200.7146295980676
 30
0.0
 10
209.6319420288149
 20
200.8764294112165
 30
0.0
 10
208.0962260160625
 20
200.9635531536759
 30
0.0
 10
206.1246051654358
 20
201.0754065079361
 30
0.0
 10
204.2568466852122
 20
201.075420253747
 30
0.0
 10
202.3900638546232
 20
201.0754339923777
 30
0.0
 10
200.4174674358213
 20
200.9635499406609
 30
0.0
 10
198.882183925224
 20
200.8764699185832
 30
0.0
 10
197.1554395863253
 20
200.7146244041321
 30
0.0
  0
ARC
  5
549D
330
A
100
AcDbEntity
  8
MODEL
100
AcDbCircle
 10
192.727020577326
 20
183.0919010643683
 30
0.0
 40
17.97918313302017
100
AcDbArc
 50
78.57179591639992
 51
102.2920102549
  0
SPLINE
  5
549E
330
A
100
AcDbEntity
  8
MODEL
100
AcDbSpline
210
0.0
220
0.0
230
1.0
 70
     8
 71
     3
 72
    14
 73
    10
 74
     0
 42
0.000000001
 43
0.0000000001
 40
0.0
 40
0.0
 40
0.0
 40
0.0
 40
0.25
 40
0.25
 40
0.5
 40
0.5
 40
0.75
 40
0.75
 40
1.0
 40
1.0
 40
1.0
 40
1.0
 10
218.7217597242541
 20
202.2886750389972
 30
0.0
 10
218.8520651321545
 20
202.1945211228889
 30
0.0
 10
218.9715759794493
 20
202.0888533347339
 30
0.0
 10
219.1875421634439
 20
201.8529259099315
 30
0.0
 10
219.2848807735598
 20
201.7206144942544
 30
0.0
 10
219.4429812073218
 20
201.4421300949531
 30
0.0
 10
219.5051330099855
 20
201.2951838272645
 30
0.0
 10
219.5913993122552
 20
200.9839499031056
 30
0.0
 10
219.6143639973184
 20
200.821845488362
 30
0.0
 10
219.6143639973184
 20
200.6589209501646
 30
0.0
  0
SPLINE
  5
549F
330
A
100
AcDbEntity
  8
MODEL
100
AcDbSpline
210
0.0
220
0.0
230
1.0
 70
     8
 71
     3
 72
    10
 73
     6
 74
     0
 42
0.000000001
 43
0.0000000001
 40
0.0
 40
0.0
 40
0.0
 40
0.0
 40
0.5
 40
0.5
 40
1.0
 40
1.0
 40
1.0
 40
1.0
 10
188.8993578862431
 20
200.6589163046551
 30
0.0
 10
188.8993578862431
 20
201.1217211236658
 30
0.0
 10
189.08601925725
 20
201.5659490754588
 30
0.0
 10
189.6829480639377
 20
202.2635720338527
 30
0.0
 10
190.0820202709784
 20
202.5146806713778
 30
0.0
 10
190.5216397714776
 20
202.6535687874979
 30
0.0
  0
ARC
  5
54A0
330
A
100
AcDbEntity
  8
MODEL
100
AcDbCircle
 10
194.1103984232259
 20
234.3489645335683
 30
0.0
 40
35.52075185626634
100
AcDbArc
 50
314.3243472814
 51
319.9670293852998
  0
ARC
  5
54A1
330
A
100
AcDbEntity
  8
MODEL
100
AcDbCircle
 10
213.904000483726
 20
226.3217933965683
 30
0.0
 40
0.0984251531106246
100
AcDbArc
 50
359.9896634541945
 51
90.0
  0
SPLINE
  5
54A2
330
A
100
AcDbEntity
  8
MODEL
100
AcDbSpline
210
0.0
220
0.0
230
1.0
 70
     8
 71
     3
 72
    16
 73
    12
 74
     0
 42
0.000000001
 43
0.0000000001
 40
0.0
 40
0.0
 40
0.0
 40
0.0
 40
0.141511008422583
 40
0.1920922507772815
 40
0.2841510090263215
 40
0.4133355899818805
 40
0.544342456726362
 40
0.668372419031841
 40
0.759380110445097
 40
0.8580732775334621
 40
1.0
 40
1.0
 40
1.0
 40
1.0
 10
211.2714758048504
 20
226.3217803044764
 30
0.0
 10
211.2715265376044
 20
225.9504883406855
 30
0.0
 10
211.2724553465142
 20
225.5262282481302
 30
0.0
 10
211.2971418260543
 20
224.858745321206
 30
0.0
 10
211.483015324131
 20
224.3008920479725
 30
0.0
 10
212.0704321354097
 20
223.7814997524048
 30
0.0
 10
212.9221275647308
 20
223.7058744703836
 30
0.0
 10
213.5913316018601
 20
224.0748270131081
 30
0.0
 10
213.9502059559639
 20
224.6492486090129
 30
0.0
 10
214.0007683175489
 20
225.4224900010952
 30
0.0
 10
214.0023587525434
 20
225.9516539735495
 30
0.0
 10
214.0024256351931
 20
226.3217756400401
 30
0.0
  0
ARC
  5
54A3
330
A
100
AcDbEntity
  8
MODEL
100
AcDbCircle
 10
211.3699006005261
 20
226.3217937530683
 30
0.0
 40
0.0984247966212093
100
AcDbArc
 50
90.0
 51
180.0078288083082
  0
LINE
  5
54A4
330
A
100
AcDbEntity
  8
MODEL
100
AcDbLine
 10
213.904000483726
 20
226.4202185496683
 30
0.0
 11
211.3699006005261
 21
226.4202185496683
 31
0.0
  0
ARC
  5
54A5
330
A
100
AcDbEntity
  8
MODEL
100
AcDbCircle
 10
210.6985168118261
 20
227.0695104956683
 30
0.0
 40
0.6397692952103129
100
AcDbArc
 50
90.0
 51
180.0
  0
LINE
  5
54A6
330
A
100
AcDbEntity
  8
MODEL
100
AcDbLine
 10
210.0587475166261
 20
227.0695104956683
 30
0.0
 11
210.0587475166261
 21
225.6578309013683
 31
0.0
  0
SPLINE
  5
54A7
330
A
100
AcDbEntity
  8
MODEL
100
AcDbSpline
210
0.0
220
0.0
230
1.0
 70
     8
 71
     3
 72
    33
 73
    29
 74
     0
 42
0.000000001
 43
0.0000000001
 40
0.0
 40
0.0
 40
0.0
 40
0.0
 40
0.0271010577083423
 40
0.0475933627485001
 40
0.1055525777426376
 40
0.1244047119227962
 40
0.181571990374535
 40
0.198834801296985
 40
0.261547653773547
 40
0.2771384288634365
 40
0.3392491045007465
 40
0.353215390285563
 40
0.435680698659524
 40
0.4476309076283225
 40
0.542758857591583
 40
0.552470404059693
 40
0.639550421071876
 40
0.647238364914508
 40
0.712183517980366
 40
0.718352935617658
 40
0.785195472695883
 40
0.789838443420437
 40
0.92412913919351
 40
0.925867450439667
 40
0.999844658573712
 40
0.999844658573712
 40
0.999844658573712
 40
1.0
 40
1.0
 40
1.0
 40
1.0
 10
210.0587475166295
 20
225.6578309013746
 30
0.0
 10
210.0583507961149
 20
225.5600724006978
 30
0.0
 10
210.0584760728757
 20
225.4032717522794
 30
0.0
 10
210.063209369637
 20
225.073617069164
 30
0.0
 10
210.0757839556996
 20
224.7514422467247
 30
0.0
 10
210.1226591544135
 20
224.308559141207
 30
0.0
 10
210.1798099699798
 20
224.0063879567854
 30
0.0
 10
210.3246091613235
 20
223.5813441239246
 30
0.0
 10
210.4767807979102
 20
223.301867901668
 30
0.0
 10
210.7637599767989
 20
222.9375029851275
 30
0.0
 10
210.9905111804749
 20
222.7331827801108
 30
0.0
 10
211.4321925876653
 20
222.4555230964289
 30
0.0
 10
211.7736783545213
 20
222.3350058811462
 30
0.0
 10
212.3894778317936
 20
222.2204747656455
 30
0.0
 10
212.7769287805295
 20
222.2148841364368
 30
0.0
 10
213.403301784653
 20
222.3088903601345
 30
0.0
 10
213.7379151351539
 20
222.4118623236901
 30
0.0
 10
214.1961354524565
 20
222.6683303066462
 30
0.0
 10
214.4006099730191
 20
222.8330507780482
 30
0.0
 10
214.7060959398212
 20
223.1695236755999
 30
0.0
 10
214.8468745745918
 20
223.3857681742021
 30
0.0
 10
215.1232039392112
 20
224.0055549055604
 30
0.0
 10
215.1821457932127
 20
224.4892718106895
 30
0.0
 10
215.2173877004755
 20
225.1589579923671
 30
0.0
 10
215.2198640766292
 20
225.3895175111602
 30
0.0
 10
215.2150230734715
 20
225.6561506805324
 30
0.0
 10
215.2150129080658
 20
225.6567105715836
 30
0.0
 10
215.2150027106455
 20
225.6572706450378
 30
0.0
 10
215.2149924812341
 20
225.6578309013744
 30
0.0
  0
LINE
  5
54A8
330
A
100
AcDbEntity
  8
MODEL
100
AcDbLine
 10
215.2149924812259
 20
225.6578309013683
 30
0.0
 11
215.2149924812259
 21
227.0695105814683
 31
0.0
  0
ARC
  5
54A9
330
A
100
AcDbEntity
  8
MODEL
100
AcDbCircle
 10
214.575223271826
 20
227.0695105814683
 30
0.0
 40
0.6397692093761052
100
AcDbArc
 50
0.0
 51
90.0
  0
LINE
  5
54AA
330
A
100
AcDbEntity
  8
MODEL
100
AcDbLine
 10
214.575223271826
 20
227.7092797908683
 30
0.0
 11
210.6985168118261
 21
227.7092797908683
 31
0.0
  0
LINE
  5
54AB
330
A
100
AcDbEntity
  8
MODEL
100
AcDbLine
 10
206.5844846673261
 20
219.9617531141683
 30
0.0
 11
205.006875053826
 21
221.5393627275683
 31
0.0
  0
LINE
  5
54AC
330
A
100
AcDbEntity
  8
MODEL
100
AcDbLine
 10
205.006875053826
 20
221.5393627275683
 30
0.0
 11
205.006875053826
 21
226.6016440865683
 31
0.0
  0
LINE
  5
54AD
330
A
100
AcDbEntity
  8
MODEL
100
AcDbLine
 10
205.006875053826
 20
226.6016440865683
 30
0.0
 11
205.886194819726
 21
226.6016440865683
 31
0.0
  0
ARC
  5
54AE
330
A
100
AcDbEntity
  8
MODEL
100
AcDbCircle
 10
205.886194819726
 20
227.1902223426683
 30
0.0
 40
0.5885782561375337
100
AcDbArc
 50
270.0
 51
325.8954461373904
  0
ARC
  5
54AF
330
A
100
AcDbEntity
  8
MODEL
100
AcDbCircle
 10
205.8846672895261
 20
227.1884740142683
 30
0.0
 40
0.5888672869420922
100
AcDbArc
 50
326.119635301893
 51
22.00000000000097
  0
LINE
  5
54B0
330
A
100
AcDbEntity
  8
MODEL
100
AcDbLine
 10
206.4306555304261
 20
227.4090675825683
 30
0.0
 11
204.802341101226
 21
231.4392872195683
 31
0.0
  0
ARC
  5
54B1
330
A
100
AcDbEntity
  8
MODEL
100
AcDbCircle
 10
204.2526667271259
 20
231.2224411075683
 30
0.0
 40
0.5909011370505466
100
AcDbArc
 50
21.52919566029709
 51
89.5938290492007
  0
ARC
  5
54B2
330
A
100
AcDbEntity
  8
MODEL
100
AcDbCircle
 10
204.261152283126
 20
231.2223397352683
 30
0.0
 40
0.5910032807138315
100
AcDbArc
 50
90.41655242339856
 51
158.4641133997964
  0
LINE
  5
54B3
330
A
100
AcDbEntity
  8
MODEL
100
AcDbLine
 10
203.7114082231261
 20
231.4392875315683
 30
0.0
 11
202.083094133426
 21
227.4090687347683
 31
0.0
  0
ARC
  5
54B4
330
A
100
AcDbEntity
  8
MODEL
100
AcDbCircle
 10
202.6290823743259
 20
227.1884751664683
 30
0.0
 40
0.5888672869415661
100
AcDbArc
 50
157.9999999999994
 51
213.8804806534027
  0
ARC
  5
54B5
330
A
100
AcDbEntity
  8
MODEL
100
AcDbCircle
 10
202.627554602726
 20
227.1902238430683
 30
0.0
 40
0.5885782561075933
100
AcDbArc
 50
214.1047111144925
 51
270.0
  0
LINE
  5
54B6
330
A
100
AcDbEntity
  8
MODEL
100
AcDbLine
 10
202.627554602726
 20
226.6016455869683
 30
0.0
 11
203.506875052626
 21
226.6016455869683
 31
0.0
  0
LINE
  5
54B7
330
A
100
AcDbEntity
  8
MODEL
100
AcDbLine
 10
203.506875052626
 20
226.6016455869683
 30
0.0
 11
203.506875052626
 21
221.5393627145683
 31
0.0
  0
LINE
  5
54B8
330
A
100
AcDbEntity
  8
MODEL
100
AcDbLine
 10
203.506875052626
 20
221.5393627145683
 30
0.0
 11
201.9292093276261
 21
219.9616969896683
 31
0.0
  0
ARC
  5
54B9
330
A
100
AcDbEntity
  8
MODEL
100
AcDbCircle
 10
202.3454757479261
 20
219.5454305693683
 30
0.0
 40
0.5886896170537271
100
AcDbArc
 50
135.0000000000098
 51
157.3121882691976
  0
ARC
  5
54BA
330
A
100
AcDbEntity
  8
MODEL
100
AcDbCircle
 10
202.3459513100261
 20
219.5455658981683
 30
0.0
 40
0.5890762632847694
100
AcDbArc
 50
157.3421733307032
 51
180.0
  0
LINE
  5
54BB
330
A
100
AcDbEntity
  8
MODEL
100
AcDbLine
 10
201.7568750467261
 20
219.5455658981683
 30
0.0
 11
201.7568750467261
 21
214.2096541087683
 31
0.0
  0
ARC
  5
54BC
330
A
100
AcDbEntity
  8
MODEL
100
AcDbCircle
 10
202.347528851926
 20
214.2050416197683
 30
0.0
 40
0.5906718147361746
100
AcDbArc
 50
179.5525792230024
 51
247.1163700910928
  0
ARC
  5
54BD
330
A
100
AcDbEntity
  8
MODEL
100
AcDbCircle
 10
202.3403028392261
 20
214.2078278363683
 30
0.0
 40
0.5904795737960687
100
AcDbArc
 50
247.8674969349922
 51
315.459875273474
  0
LINE
  5
54BE
330
A
100
AcDbEntity
  8
MODEL
100
AcDbLine
 10
202.7611727186259
 20
213.7936603923683
 30
0.0
 11
204.2568750467261
 21
215.2893627204683
 31
0.0
  0
LINE
  5
54BF
330
A
100
AcDbEntity
  8
MODEL
100
AcDbLine
 10
204.2568750467261
 20
215.2893627204683
 30
0.0
 11
205.7525773747259
 21
213.7936603923683
 31
0.0
  0
ARC
  5
54C0
330
A
100
AcDbEntity
  8
MODEL
100
AcDbCircle
 10
206.173494208126
 20
214.2080541811683
 30
0.0
 40
0.5906718147462834
100
AcDbArc
 50
224.5525792236943
 51
292.1163700863146
  0
ARC
  5
54C1
330
A
100
AcDbEntity
  8
MODEL
100
AcDbCircle
 10
206.1664144927261
 20
214.2049147712683
 30
0.0
 40
0.590479573794472
100
AcDbArc
 50
292.8674969306998
 51
0.4598752736030772
  0
LINE
  5
54C2
330
A
100
AcDbEntity
  8
MODEL
100
AcDbLine
 10
206.7568750467261
 20
214.2096541087683
 30
0.0
 11
206.7568750467261
 21
219.5456452552683
 31
0.0
  0
ARC
  5
54C3
330
A
100
AcDbEntity
  8
MODEL
100
AcDbCircle
 10
206.168185429626
 20
219.5456452552683
 30
0.0
 40
0.5886896170546819
100
AcDbArc
 50
0.0
 51
22.31218824389741
  0
ARC
  5
54C4
330
A
100
AcDbEntity
  8
MODEL
100
AcDbCircle
 10
206.1679448468261
 20
219.5452132936683
 30
0.0
 40
0.5890762633249461
100
AcDbArc
 50
22.34217293329798
 51
44.99999999999023
  0
ARC
  5
54C5
330
A
100
AcDbEntity
  8
MODEL
100
AcDbCircle
 10
213.1559857029261
 20
220.3491429355683
 30
0.0
 40
0.0984251968504019
100
AcDbArc
 50
90.0
 51
179.9999980810954
  0
LINE
  5
54C6
330
A
100
AcDbEntity
  8
MODEL
100
AcDbLine
 10
214.0513461566259
 20
220.4475681323683
 30
0.0
 11
213.1559857029261
 21
220.4475681323683
 31
0.0
  0
ARC
  5
54C7
330
A
100
AcDbEntity
  8
MODEL
100
AcDbCircle
 10
214.0513461566259
 20
220.3491429355683
 30
0.0
 40
0.0984251968503882
100
AcDbArc
 50
359.9999940734022
 51
90.0
  0
LINE
  5
54C8
330
A
100
AcDbEntity
  8
MODEL
100
AcDbLine
 10
214.1497712571261
 20
219.4168373709683
 30
0.0
 11
214.149771353526
 21
220.3491429253683
 31
0.0
  0
SPLINE
  5
54C9
330
A
100
AcDbEntity
  8
MODEL
100
AcDbSpline
210
0.0
220
0.0
230
1.0
 70
     8
 71
     3
 72
    23
 73
    19
 74
     0
 42
0.000000001
 43
0.0000000001
 40
0.0
 40
0.0
 40
0.0
 40
0.0
 40
0.092398192999856
 40
0.0924640690707342
 40
0.238480572747953
 40
0.238650599483362
 40
0.460146339871655
 40
0.460474405085007
 40
0.589746629526249
 40
0.590167094359008
 40
0.6999843549917301
 40
0.700483414740477
 40
0.8923161321318971
 40
0.8929523164430581
 40
0.9992875495147431
 40
0.9992875495147431
 40
0.9992875495147431
 40
1.0
 40
1.0
 40
1.0
 40
1.0
 10
213.057560479376
 20
219.5520822856075
 30
0.0
 10
213.0576239958787
 20
219.465840145356
 30
0.0
 10
213.0597717690487
 20
219.3937087735106
 30
0.0
 10
213.0723709125598
 20
219.2056741822792
 30
0.0
 10
213.0869387701412
 20
219.0883985881091
 30
0.0
 10
213.1892839509938
 20
218.8155178355519
 30
0.0
 10
213.3112960749625
 20
218.6708886321416
 30
0.0
 10
213.5521358058473
 20
218.5955354970174
 30
0.0
 10
213.6516677927371
 20
218.6008562910168
 30
0.0
 10
213.8187518343221
 20
218.6574887777202
 30
0.0
 10
213.8895663764882
 20
218.7020584505087
 30
0.0
 10
214.0438844673382
 20
218.866011207858
 30
0.0
 10
214.0990164163173
 20
219.017827333393
 30
0.0
 10
214.1412675349243
 20
219.2460375962744
 30
0.0
 10
214.1478299609262
 20
219.3263165523214
 30
0.0
 10
214.1497336144037
 20
219.415052559829
 30
0.0
 10
214.1497463689612
 20
219.4156470947709
 30
0.0
 10
214.1497589161359
 20
219.4162420307869
 30
0.0
 10
214.1497712570832
 20
219.4168373709863
 30
0.0
  0
LINE
  5
54CA
330
A
100
AcDbEntity
  8
MODEL
100
AcDbLine
 10
213.0575605060261
 20
220.3491429388683
 30
0.0
 11
213.0575604794261
 21
219.5520822855683
 31
0.0
  0
ARC
  5
54CB
330
A
100
AcDbEntity
  8
MODEL
100
AcDbCircle
 10
210.6985112961261
 20
221.0873314575683
 30
0.0
 40
0.6397637795275516
100
AcDbArc
 50
179.5733160096012
 51
270.0
  0
LINE
  5
54CC
330
A
100
AcDbEntity
  8
MODEL
100
AcDbLine
 10
210.6985112961261
 20
220.4475676780683
 30
0.0
 11
211.894240773826
 21
220.4475676780683
 31
0.0
  0
ARC
  5
54CD
330
A
100
AcDbEntity
  8
MODEL
100
AcDbCircle
 10
211.894240773826
 20
220.3491381167683
 30
0.0
 40
0.0984295613349413
100
AcDbArc
 50
359.4615539187043
 51
90.0
  0
SPLINE
  5
54CE
330
A
100
AcDbEntity
  8
MODEL
100
AcDbSpline
210
0.0
220
0.0
230
1.0
 70
     8
 71
     3
 72
    20
 73
    16
 74
     0
 42
0.000000001
 43
0.0000000001
 40
0.0
 40
0.0
 40
0.0
 40
0.0
 40
0.1197166564759233
 40
0.2395147714188278
 40
0.3646891284243638
 40
0.4959541046169471
 40
0.5644469112191609
 40
0.6344595340948006
 40
0.7672851626895844
 40
0.7974211491955324
 40
0.8261286084876474
 40
0.8816231806739643
 40
0.9386749888781608
 40
0.9687015113854645
 40
1.0
 40
1.0
 40
1.0
 40
1.0
 10
211.9926659888025
 20
220.3482131230977
 30
0.0
 10
211.9920223395987
 20
220.2797247325053
 30
0.0
 10
211.9907300272087
 20
220.1427014196523
 30
0.0
 10
211.9849119689443
 20
219.934126112994
 30
0.0
 10
211.9702145723839
 20
219.7192461107121
 30
0.0
 10
211.9414216600179
 20
219.5352497581617
 30
0.0
 10
211.9044070584533
 20
219.385245921769
 30
0.0
 10
211.8573901251603
 20
219.2375007190341
 30
0.0
 10
211.8012175569557
 20
219.1142488238468
 30
0.0
 10
211.7332004845107
 20
219.0279399058207
 30
0.0
 10
211.6865005237626
 20
218.9818808097292
 30
0.0
 10
211.6185520240136
 20
218.9367617068022
 30
0.0
 10
211.5433321081885
 20
218.9046932140882
 30
0.0
 10
211.4795582582872
 20
218.8819199615313
 30
0.0
 10
211.4462917254176
 20
218.8707676556569
 30
0.0
 10
211.42931346188
 20
218.8650758455447
 30
0.0
  0
LINE
  5
54CF
330
A
100
AcDbEntity
  8
MODEL
100
AcDbLine
 10
211.4293134619259
 20
218.8650758455683
 30
0.0
 11
210.495064589926
 21
218.5517154244683
 31
0.0
  0
ARC
  5
54D0
330
A
100
AcDbEntity
  8
MODEL
100
AcDbCircle
 10
210.6985112961261
 20
217.9451619385683
 30
0.0
 40
0.6397637795276564
100
AcDbArc
 50
108.5421887240123
 51
178.3494402212011
  0
ARC
  5
54D1
330
A
100
AcDbEntity
  8
MODEL
100
AcDbCircle
 10
210.698511296326
 20
217.9820170851683
 30
0.0
 40
0.6397637795276242
100
AcDbArc
 50
181.6505593545977
 51
279.6032851477059
  0
LINE
  5
54D2
330
A
100
AcDbEntity
  8
MODEL
100
AcDbLine
 10
210.8052400680261
 20
217.3512186523683
 30
0.0
 11
211.5808720872261
 21
217.4824527334683
 31
0.0
  0
ARC
  5
54D3
330
A
100
AcDbEntity
  8
MODEL
100
AcDbCircle
 10
211.474173321926
 20
218.1130738192683
 30
0.0
 40
0.6395839118897594
100
AcDbArc
 50
279.6032851476987
 51
300.2574452817115
  0
SPLINE
  5
54D4
330
A
100
AcDbEntity
  8
MODEL
100
AcDbSpline
210
0.0
220
0.0
230
1.0
 70
     8
 71
     3
 72
    13
 73
     9
 74
     0
 42
0.000000001
 43
0.0000000001
 40
0.0
 40
0.0
 40
0.0
 40
0.0
 40
0.1455455796303835
 40
0.281846562498652
 40
0.4974033071830778
 40
0.7536167077972298
 40
0.8781295929096155
 40
1.0
 40
1.0
 40
1.0
 40
1.0
 10
211.7964508439503
 20
217.5606204012078
 30
0.0
 10
211.8206276503623
 20
217.5750041157629
 30
0.0
 10
211.8674456285976
 20
217.602857936632
 30
0.0
 10
211.9477829195528
 20
217.6557052957891
 30
0.0
 10
212.0428574778853
 20
217.7248851033074
 30
0.0
 10
212.1293834679128
 20
217.801602608275
 30
0.0
 10
212.1925517585708
 20
217.8758537595535
 30
0.0
 10
212.2171528004868
 20
217.9167059708913
 30
0.0
 10
212.2293207739761
 20
217.9369133584444
 30
0.0
  0
ARC
  5
54D5
330
A
100
AcDbEntity
  8
MODEL
100
AcDbCircle
 10
212.314955202726
 20
217.8883919397683
 30
0.0
 40
0.0984255223637005
100
AcDbArc
 50
30.30994930117601
 51
150.4636272756114
  0
SPLINE
  5
54D6
330
A
100
AcDbEntity
  8
MODEL
100
AcDbSpline
210
0.0
220
0.0
230
1.0
 70
     8
 71
     3
 72
    28
 73
    24
 74
     0
 42
0.000000001
 43
0.0000000001
 40
0.0
 40
0.0
 40
0.0
 40
0.0
 40
0.032571770715603
 40
0.063991642868641
 40
0.1243096290848876
 40
0.1542429662217457
 40
0.1847550736897217
 40
0.2474549648811719
 40
0.2791914796088367
 40
0.3107847434139953
 40
0.3735813427328146
 40
0.4363117654703799
 40
0.4992418953815492
 40
0.5618819096344413
 40
0.6245301905484394
 40
0.6874342798608971
 40
0.7188960501634816
 40
0.7503622312027323
 40
0.7818420906427418
 40
0.8132062101163511
 40
0.8746467097150187
 40
0.935253294624417
 40
1.0
 40
1.0
 40
1.0
 40
1.0
 10
212.3999267364071
 20
217.9380650905824
 30
0.0
 10
212.4267301209964
 20
217.8937882584571
 30
0.0
 10
212.4793889902142
 20
217.8068004415079
 30
0.0
 10
212.5959439662104
 20
217.64729823688
 30
0.0
 10
212.7316094915441
 20
217.5069023044229
 30
0.0
 10
212.8907670596016
 20
217.3987119457887
 30
0.0
 10
213.0670435863563
 20
217.3127510409969
 30
0.0
 10
213.2596083089764
 20
217.2583501976948
 30
0.0
 10
213.4577549027959
 20
217.2292681223958
 30
0.0
 10
213.657857429279
 20
217.2162689989236
 30
0.0
 10
213.9082235415145
 20
217.2310623762427
 30
0.0
 10
214.2011042741502
 20
217.2994110268182
 30
0.0
 10
214.4776253740502
 20
217.417553047031
 30
0.0
 10
214.7257892512571
 20
217.5888389669377
 30
0.0
 10
214.925339574583
 20
217.8151469487363
 30
0.0
 10
215.0454011829932
 20
218.0361699237986
 30
0.0
 10
215.111170968607
 20
218.2252031981922
 30
0.0
 10
215.1465824743296
 20
218.371103584916
 30
0.0
 10
215.1710457957432
 20
218.5189776549221
 30
0.0
 10
215.1922967478236
 20
218.7152921118521
 30
0.0
 10
215.2061450800582
 20
218.958624374178
 30
0.0
 10
215.216796421121
 20
219.2551472146572
 30
0.0
 10
215.215606890319
 20
219.4542558411027
 30
0.0
 10
215.2149924812341
 20
219.5570981960573
 30
0.0
  0
LINE
  5
54D7
330
A
100
AcDbEntity
  8
MODEL
100
AcDbLine
 10
215.2149924812259
 20
219.5570981960683
 30
0.0
 11
215.2149924812259
 21
221.0968601641683
 31
0.0
  0
ARC
  5
54D8
330
A
100
AcDbEntity
  8
MODEL
100
AcDbCircle
 10
214.575223271826
 20
221.0968601641683
 30
0.0
 40
0.6397692094127772
100
AcDbArc
 50
0.0
 51
90.0
  0
LINE
  5
54D9
330
A
100
AcDbEntity
  8
MODEL
100
AcDbLine
 10
214.575223271826
 20
221.7366293735683
 30
0.0
 11
210.6985168118261
 21
221.7366293735683
 31
0.0
  0
ARC
  5
54DA
330
A
100
AcDbEntity
  8
MODEL
100
AcDbCircle
 10
210.6985168118261
 20
221.0968600783683
 30
0.0
 40
0.639769295211267
100
AcDbArc
 50
90.0
 51
180.4266816790983
  0
LINE
  5
54DB
330
A
100
AcDbEntity
  8
MODEL
100
AcDbLine
 10
201.847272704526
 20
190.2893627204683
 30
0.0
 11
206.6664773889261
 21
190.2893627204683
 31
0.0
  0
LINE
  5
54DC
330
A
100
AcDbEntity
  8
MODEL
100
AcDbLine
 10
191.548487662026
 20
190.2893627204683
 30
0.0
 11
193.958015760826
 21
190.2893627204683
 31
0.0
  0
LINE
  5
54DD
330
A
100
AcDbEntity
  8
MODEL
100
AcDbLine
 10
214.5555871828261
 20
190.2893627204683
 30
0.0
 11
216.965324727926
 21
190.2893627204683
 31
0.0
  0
LINE
  5
54DE
330
A
100
AcDbEntity
  8
MODEL
100
AcDbLine
 10
196.2894413318259
 20
191.1999220409683
 30
0.0
 11
196.2894413318259
 21
200.7145948708683
 31
0.0
  0
LINE
  5
54DF
330
A
100
AcDbEntity
  8
MODEL
100
AcDbLine
 10
211.358282297226
 20
191.1999217525683
 30
0.0
 11
211.358282297226
 21
200.7145987797683
 31
0.0
  0
LINE
  5
54E0
330
A
100
AcDbEntity
  8
MODEL
100
AcDbLine
 10
219.6143639973259
 20
191.3617844661683
 30
0.0
 11
219.6143639973259
 21
200.6589209501683
 31
0.0
  0
LINE
  5
54E1
330
A
100
AcDbEntity
  8
MODEL
100
AcDbLine
 10
188.899357886226
 20
191.3618007530683
 30
0.0
 11
188.899357886226
 21
200.6589163046683
 31
0.0
  0
ARC
  5
54E2
330
A
100
AcDbEntity
  8
MODEL
100
AcDbCircle
 10
217.199029180626
 20
200.2765119141683
 30
0.0
 40
10.35047551264705
100
AcDbArc
 50
241.2736226394993
 51
247.9241284582005
  0
LINE
  5
54E3
330
A
100
AcDbEntity
  8
MODEL
100
AcDbLine
 10
195.2049491595261
 20
190.6849408847683
 30
0.0
 11
196.2894413318259
 21
191.1999220409683
 31
0.0
  0
ARC
  5
54E4
330
A
100
AcDbEntity
  8
MODEL
100
AcDbCircle
 10
214.1672362506261
 20
200.6822816431683
 30
0.0
 40
10.79550222621428
100
AcDbArc
 50
292.1689018141993
 51
300.3030653626001
  0
ARC
  5
54E5
330
A
100
AcDbEntity
  8
MODEL
100
AcDbCircle
 10
194.3662929465261
 20
200.7214474608683
 30
0.0
 40
10.83929727652136
100
AcDbArc
 50
239.7109572423987
 51
247.8111667764989
  0
LINE
  5
54E6
330
A
100
AcDbEntity
  8
MODEL
100
AcDbLine
 10
206.6664773889261
 20
190.2893627204683
 30
0.0
 11
214.5555871828261
 21
190.2893627204683
 31
0.0
  0
LINE
  5
54E7
330
A
100
AcDbEntity
  8
MODEL
100
AcDbLine
 10
216.965324727926
 20
190.2893627204683
 30
0.0
 11
217.7568750467261
 21
190.2893627204683
 31
0.0
  0
LINE
  5
54E8
330
A
100
AcDbEntity
  8
MODEL
100
AcDbLine
 10
191.548487662026
 20
190.2893627204683
 30
0.0
 11
190.7568750467261
 21
190.2893627204683
 31
0.0
  0
LINE
  5
54E9
330
A
100
AcDbEntity
  8
MODEL
100
AcDbLine
 10
193.958015760826
 20
190.2893627204683
 30
0.0
 11
201.847272704526
 21
190.2893627204683
 31
0.0
  0
ARC
  5
54EA
330
A
100
AcDbEntity
  8
MODEL
100
AcDbCircle
 10
216.317594715426
 20
198.0056834198683
 30
0.0
 40
7.914940030104468
100
AcDbArc
 50
247.6588867889004
 51
257.1371569387001
  0
ARC
  5
54EB
330
A
100
AcDbEntity
  8
MODEL
100
AcDbCircle
 10
211.7912947357261
 20
189.9758984291683
 30
0.0
 40
1.298357758081153
100
AcDbArc
 50
70.51811459900728
 51
109.4818235076009
  0
LINE
  5
54EC
330
A
100
AcDbEntity
  8
MODEL
100
AcDbLine
 10
211.358282297226
 20
191.1999217525683
 30
0.0
 11
209.188602125626
 21
190.6848009900683
 31
0.0
  0
ARC
  5
54ED
330
A
100
AcDbEntity
  8
MODEL
100
AcDbCircle
 10
203.5527249757261
 20
218.3867696468683
 30
0.0
 40
28.26941333098321
100
AcDbArc
 50
276.3237107128999
 51
281.4997040112999
  0
ARC
  5
54EE
330
A
100
AcDbEntity
  8
MODEL
100
AcDbCircle
 10
204.961174392026
 20
218.3879578454683
 30
0.0
 40
28.27061074186151
100
AcDbArc
 50
258.5004804933002
 51
263.6762538379999
  0
SPLINE
  5
54EF
330
A
100
AcDbEntity
  8
MODEL
100
AcDbSpline
210
0.0
220
0.0
230
1.0
 70
     8
 71
     3
 72
     8
 73
     4
 74
     0
 42
0.000000001
 43
0.0000000001
 40
0.0
 40
0.0
 40
0.0
 40
0.0
 40
1.0
 40
1.0
 40
1.0
 40
1.0
 10
199.3251534471052
 20
190.6848406990759
 30
0.0
 10
198.5947286710271
 20
190.8314178629518
 30
0.0
 10
197.8708554010933
 20
191.0053828578005
 30
0.0
 10
197.1554667356546
 20
191.1999220409455
 30
0.0
  0
ARC
  5
54F0
330
A
100
AcDbEntity
  8
MODEL
100
AcDbCircle
 10
196.7224540337261
 20
189.9743825757683
 30
0.0
 40
1.299787282830536
100
AcDbArc
 50
70.5404548319019
 51
109.4595451680026
  0
ARC
  5
54F1
330
A
100
AcDbEntity
  8
MODEL
100
AcDbCircle
 10
192.1956757623259
 20
198.0074435063683
 30
0.0
 40
7.916729961770917
100
AcDbArc
 50
282.8623530673012
 51
292.3393025563997
  0
ARC
  5
54F2
330
A
100
AcDbEntity
  8
MODEL
100
AcDbCircle
 10
193.212938491226
 20
197.9137663002683
 30
0.0
 40
7.803968638526055
100
AcDbArc
 50
247.866906923101
 51
257.6852084904006
  0
ARC
  5
54F3
330
A
100
AcDbEntity
  8
MODEL
100
AcDbCircle
 10
215.302543824626
 20
197.9067268335683
 30
0.0
 40
7.796734980965396
100
AcDbArc
 50
282.3138354020003
 51
292.1390830118013
  0
LINE
  5
54F4
330
A
100
AcDbEntity
  8
MODEL
100
AcDbLine
 10
206.6664773889261
 20
255.2893627204683
 30
0.0
 11
201.847272704526
 21
255.2893627204683
 31
0.0
  0
LINE
  5
54F5
330
A
100
AcDbEntity
  8
MODEL
100
AcDbLine
 10
216.965324727926
 20
255.2893627204683
 30
0.0
 11
214.5555871828261
 21
255.2893627204683
 31
0.0
  0
LINE
  5
54F6
330
A
100
AcDbEntity
  8
MODEL
100
AcDbLine
 10
193.958015760826
 20
255.2893627204683
 30
0.0
 11
191.548487662026
 21
255.2893627204683
 31
0.0
  0
LINE
  5
54F7
330
A
100
AcDbEntity
  8
MODEL
100
AcDbLine
 10
196.2894413318259
 20
254.3788033999683
 30
0.0
 11
196.2894413318259
 21
244.8641305700683
 31
0.0
  0
LINE
  5
54F8
330
A
100
AcDbEntity
  8
MODEL
100
AcDbLine
 10
211.358282297226
 20
254.3788036883683
 30
0.0
 11
211.358282297226
 21
244.8641266611683
 31
0.0
  0
LINE
  5
54F9
330
A
100
AcDbEntity
  8
MODEL
100
AcDbLine
 10
219.6143639973259
 20
254.2169409747683
 30
0.0
 11
219.6143639973259
 21
244.9198044907683
 31
0.0
  0
LINE
  5
54FA
330
A
100
AcDbEntity
  8
MODEL
100
AcDbLine
 10
188.899357886226
 20
254.2169246878682
 30
0.0
 11
188.899357886226
 21
244.9198091362683
 31
0.0
  0
LINE
  5
54FB
330
A
100
AcDbEntity
  8
MODEL
100
AcDbLine
 10
206.6664773889261
 20
255.2893627204683
 30
0.0
 11
214.5555871828261
 21
255.2893627204683
 31
0.0
  0
ARC
  5
54FC
330
A
100
AcDbEntity
  8
MODEL
100
AcDbCircle
 10
216.317594718026
 20
247.5730420112683
 30
0.0
 40
7.914940040304494
100
AcDbArc
 50
102.8628430636996
 51
112.3411132037
  0
ARC
  5
54FD
330
A
100
AcDbEntity
  8
MODEL
100
AcDbCircle
 10
211.7912947357261
 20
255.6028270117683
 30
0.0
 40
1.298357758081153
100
AcDbArc
 50
250.5181764923991
 51
289.4818854009931
  0
LINE
  5
54FE
330
A
100
AcDbEntity
  8
MODEL
100
AcDbLine
 10
211.358282297226
 20
254.3788036883683
 30
0.0
 11
209.188602125626
 21
254.8939244508683
 31
0.0
  0
ARC
  5
54FF
330
A
100
AcDbEntity
  8
MODEL
100
AcDbCircle
 10
203.5527249756261
 20
227.1919557940683
 30
0.0
 40
28.26941333103007
100
AcDbArc
 50
78.50029598870015
 51
83.67628928709998
  0
ARC
  5
5500
330
A
100
AcDbEntity
  8
MODEL
100
AcDbCircle
 10
192.1956757623259
 20
247.5712819345683
 30
0.0
 40
7.91672996174854
100
AcDbArc
 50
67.66069744359952
 51
77.1376469326989
  0
LINE
  5
5501
330
A
100
AcDbEntity
  8
MODEL
100
AcDbLine
 10
193.958015760826
 20
255.2893627204683
 30
0.0
 11
201.847272704526
 21
255.2893627204683
 31
0.0
  0
ARC
  5
5502
330
A
100
AcDbEntity
  8
MODEL
100
AcDbCircle
 10
204.961174392126
 20
227.1907675950683
 30
0.0
 40
28.2706107423201
100
AcDbArc
 50
96.323746162
 51
101.4995195067001
  0
SPLINE
  5
5503
330
A
100
AcDbEntity
  8
MODEL
100
AcDbSpline
210
0.0
220
0.0
230
1.0
 70
     8
 71
     3
 72
     8
 73
     4
 74
     0
 42
0.000000001
 43
0.0000000001
 40
0.0
 40
0.0
 40
0.0
 40
0.0
 40
1.0
 40
1.0
 40
1.0
 40
1.0
 10
199.3251534470956
 20
254.8938847418632
 30
0.0
 10
198.5947286713131
 20
254.7473075780569
 30
0.0
 10
197.8708554012333
 20
254.5733425831776
 30
0.0
 10
197.1554667356546
 20
254.3788033999945
 30
0.0
  0
ARC
  5
5504
330
A
100
AcDbEntity
  8
MODEL
100
AcDbCircle
 10
196.7224540337261
 20
255.6043428651683
 30
0.0
 40
1.299787282830535
100
AcDbArc
 50
250.5404548319974
 51
289.4595451680985
  0
ARC
  5
5505
330
A
100
AcDbEntity
  8
MODEL
100
AcDbCircle
 10
215.302543824626
 20
247.6719986074683
 30
0.0
 40
7.796734980943358
100
AcDbArc
 50
67.86091698819948
 51
77.6861645980002
  0
LINE
  5
5506
330
A
100
AcDbEntity
  8
MODEL
100
AcDbLine
 10
217.7568750467261
 20
255.2893627204683
 30
0.0
 11
216.965324727926
 21
255.2893627204683
 31
0.0
  0
LINE
  5
5507
330
A
100
AcDbEntity
  8
MODEL
100
AcDbLine
 10
190.7568750467261
 20
255.2893627204683
 30
0.0
 11
191.548487662026
 21
255.2893627204683
 31
0.0
  0
ARC
  5
5508
330
A
100
AcDbEntity
  8
MODEL
100
AcDbCircle
 10
193.2129384935261
 20
247.6649591315683
 30
0.0
 40
7.803968647818806
100
AcDbArc
 50
102.3147915120004
 51
112.1330930700001
  0
ARC
  5
5509
330
A
100
AcDbEntity
  8
MODEL
100
AcDbCircle
 10
214.1672362506261
 20
244.8964437977683
 30
0.0
 40
10.79550222619058
100
AcDbArc
 50
59.69693463740029
 51
67.83109818580012
  0
ARC
  5
550A
330
A
100
AcDbEntity
  8
MODEL
100
AcDbCircle
 10
194.3662929535261
 20
244.8572779670683
 30
0.0
 40
10.83929729123551
100
AcDbArc
 50
112.1888332337
 51
120.2890427552002
  0
LINE
  5
550B
330
A
100
AcDbEntity
  8
MODEL
100
AcDbLine
 10
195.2049491595261
 20
254.8937845561683
 30
0.0
 11
196.2894413318259
 21
254.3788033999683
 31
0.0
  0
ARC
  5
550C
330
A
100
AcDbEntity
  8
MODEL
100
AcDbCircle
 10
217.1990291904261
 20
245.3022135077683
 30
0.0
 40
10.35047553412337
100
AcDbArc
 50
112.0758715546007
 51
118.7263773576
  0
ARC
  5
550D
330
A
100
AcDbEntity
  8
MODEL
100
AcDbCircle
 10
3104.834899262026
 20
3870.071670419068
 30
0.0
 40
4636.255130628837
100
AcDbArc
 50
231.5049553057
 51
231.540698722
  0
ARC
  5
550E
330
A
100
AcDbEntity
  8
MODEL
100
AcDbCircle
 10
3105.093880176625
 20
-3424.819043533432
 30
0.0
 40
4636.671557454253
100
AcDbArc
 50
128.4593010655
 51
128.4950411783
  0
LINE
  5
550F
330
A
100
AcDbEntity
  8
MODEL
100
AcDbLine
 10
217.7568750467261
 20
190.2893627204683
 30
0.0
 11
219.614388997326
 21
191.3617988998683
 31
0.0
  0
LINE
  5
5510
330
A
100
AcDbEntity
  8
MODEL
100
AcDbLine
 10
188.899332886226
 20
191.3618151868683
 30
0.0
 11
190.7568750467261
 21
190.2893627204683
 31
0.0
  0
LINE
  5
5511
330
A
100
AcDbEntity
  8
MODEL
100
AcDbLine
 10
219.614388997326
 20
254.2169265410683
 30
0.0
 11
217.7568750467261
 21
255.2893627204683
 31
0.0
  0
LINE
  5
5512
330
A
100
AcDbEntity
  8
MODEL
100
AcDbLine
 10
190.7568750467261
 20
255.2893627204683
 30
0.0
 11
188.899332886226
 21
254.2169102540683
 31
0.0
  0
POLYLINE
  5
5513
330
A
100
AcDbEntity
  8
MODEL
100
AcDb2dPolyline
 66
     1
 10
0.0
 20
0.0
 30
0.0
  0
VERTEX
  5
5514
330
5513
100
AcDbEntity
  8
MODEL
100
AcDbVertex
100
AcDb2dVertex
 10
221.2762721678797
 20
239.652042440077
 30
0.0
  0
VERTEX
  5
5515
330
5513
100
AcDbEntity
  8
MODEL
100
AcDbVertex
100
AcDb2dVertex
 10
228.7312114477648
 20
235.3920771372855
 30
0.0
  0
VERTEX
  5
5516
330
5513
100
AcDbEntity
  8
MODEL
100
AcDbVertex
100
AcDb2dVertex
 10
237.2511420533479
 20
235.3920771372855
 30
0.0
  0
VERTEX
  5
5517
330
5513
100
AcDbEntity
  8
MODEL
100
AcDbVertex
100
AcDb2dVertex
 10
237.2511420533479
 20
209.6547867662533
 30
0.0
  0
VERTEX
  5
5518
330
5513
100
AcDbEntity
  8
MODEL
100
AcDbVertex
100
AcDb2dVertex
 10
228.5537128934819
 20
209.6547867662533
 30
0.0
  0
VERTEX
  5
5519
330
5513
100
AcDbEntity
  8
MODEL
100
AcDbVertex
100
AcDb2dVertex
 10
221.2762721678797
 20
205.9273171263107
 30
0.0
  0
SEQEND
  5
551A
330
5513
100
AcDbEntity
  8
MODEL
  0
SPLINE
  5
551B
330
A
100
AcDbEntity
  8
MODEL
100
AcDbSpline
210
0.0
220
0.0
230
1.0
 70
     8
 71
     3
 72
    14
 73
    10
 74
     0
 42
0.000000001
 43
0.0000000001
 40
0.0
 40
0.0
 40
0.0
 40
0.0
 40
1.0
 40
1.0
 40
1.0
 40
2.0
 40
2.0
 40
2.0
 40
2.5088729212657
 40
2.5088729212657
 40
2.5088729212657
 40
2.5088729212657
 10
241.6886059104223
 20
233.5283423173142
 30
0.0
 10
241.6886059104223
 20
233.5283423173142
 30
0.0
 10
241.6886059104223
 20
234.5045843658706
 30
0.0
 10
241.6886059104223
 20
234.5045843658706
 30
0.0
 10
241.6886059104223
 20
234.5045843658706
 30
0.0
 10
245.5048248275064
 20
234.5045843658706
 30
0.0
 10
245.5048248275064
 20
234.5045843658706
 30
0.0
 10
245.5048248275064
 20
234.5045843658706
 30
0.0
 10
245.5048248275064
 20
228.4603783951279
 30
0.0
 10
245.5048248275064
 20
222.5234319517694
 30
0.0
  0
POLYLINE
  5
551C
330
A
100
AcDbEntity
  8
MODEL
100
AcDb2dPolyline
 66
     1
 10
0.0
 20
0.0
 30
0.0
  0
VERTEX
  5
551D
330
551C
100
AcDbEntity
  8
MODEL
100
AcDbVertex
100
AcDb2dVertex
 10
237.2511420533479
 20
234.8595814744365
 30
0.0
  0
VERTEX
  5
551E
330
551C
100
AcDbEntity
  8
MODEL
100
AcDbVertex
100
AcDb2dVertex
 10
240.179868199017
 20
234.8595814744365
 30
0.0
  0
VERTEX
  5
551F
330
551C
100
AcDbEntity
  8
MODEL
100
AcDbVertex
100
AcDb2dVertex
 10
240.179868199017
 20
222.5234319517694
 30
0.0
  0
SEQEND
  5
5520
330
551C
100
AcDbEntity
  8
MODEL
  0
POLYLINE
  5
5521
330
A
100
AcDbEntity
  8
MODEL
100
AcDb2dPolyline
 66
     1
 10
0.0
 20
0.0
 30
0.0
  0
VERTEX
  5
5522
330
5521
100
AcDbEntity
  8
MODEL
100
AcDbVertex
100
AcDb2dVertex
 10
240.179868199017
 20
233.5283423173142
 30
0.0
  0
VERTEX
  5
5523
330
5521
100
AcDbEntity
  8
MODEL
100
AcDbVertex
100
AcDb2dVertex
 10
241.6886059104223
 20
233.5283423173142
 30
0.0
  0
VERTEX
  5
5524
330
5521
100
AcDbEntity
  8
MODEL
100
AcDbVertex
100
AcDb2dVertex
 10
241.6886059104223
 20
222.5234319517694
 30
0.0
  0
SEQEND
  5
5525
330
5521
100
AcDbEntity
  8
MODEL
  0
SPLINE
  5
5526
330
A
100
AcDbEntity
  8
MODEL
100
AcDbSpline
210
0.0
220
0.0
230
1.0
 70
     8
 71
     3
 72
    14
 73
    10
 74
     0
 42
0.000000001
 43
0.0000000001
 40
0.0
 40
0.0
 40
0.0
 40
0.0
 40
1.0
 40
1.0
 40
1.0
 40
2.0
 40
2.0
 40
2.0
 40
2.5088729212657
 40
2.5088729212657
 40
2.5088729212657
 40
2.5088729212657
 10
241.6886059104223
 20
211.5185215862246
 30
0.0
 10
241.6886059104223
 20
211.5185215862246
 30
0.0
 10
241.6886059104223
 20
210.5422795376682
 30
0.0
 10
241.6886059104223
 20
210.5422795376682
 30
0.0
 10
241.6886059104223
 20
210.5422795376682
 30
0.0
 10
245.5048248275064
 20
210.5422795376682
 30
0.0
 10
245.5048248275064
 20
210.5422795376682
 30
0.0
 10
245.5048248275064
 20
210.5422795376682
 30
0.0
 10
245.5048248275064
 20
216.5864855084109
 30
0.0
 10
245.5048248275064
 20
222.5234319517694
 30
0.0
  0
POLYLINE
  5
5527
330
A
100
AcDbEntity
  8
MODEL
100
AcDb2dPolyline
 66
     1
 10
0.0
 20
0.0
 30
0.0
  0
VERTEX
  5
5528
330
5527
100
AcDbEntity
  8
MODEL
100
AcDbVertex
100
AcDb2dVertex
 10
237.2511420533479
 20
210.1872824291023
 30
0.0
  0
VERTEX
  5
5529
330
5527
100
AcDbEntity
  8
MODEL
100
AcDbVertex
100
AcDb2dVertex
 10
240.179868199017
 20
210.1872824291023
 30
0.0
  0
VERTEX
  5
552A
330
5527
100
AcDbEntity
  8
MODEL
100
AcDbVertex
100
AcDb2dVertex
 10
240.179868199017
 20
222.5234319517694
 30
0.0
  0
SEQEND
  5
552B
330
5527
100
AcDbEntity
  8
MODEL
  0
POLYLINE
  5
552C
330
A
100
AcDbEntity
  8
MODEL
100
AcDb2dPolyline
 66
     1
 10
0.0
 20
0.0
 30
0.0
  0
VERTEX
  5
552D
330
552C
100
AcDbEntity
  8
MODEL
100
AcDbVertex
100
AcDb2dVertex
 10
240.179868199017
 20
211.5185215862246
 30
0.0
  0
VERTEX
  5
552E
330
552C
100
AcDbEntity
  8
MODEL
100
AcDbVertex
100
AcDb2dVertex
 10
241.6886059104223
 20
211.5185215862246
 30
0.0
  0
VERTEX
  5
552F
330
552C
100
AcDbEntity
  8
MODEL
100
AcDbVertex
100
AcDb2dVertex
 10
241.6886059104223
 20
222.5234319517694
 30
0.0
  0
SEQEND
  5
5530
330
552C
100
AcDbEntity
  8
MODEL
  0
DIMENSION
  5
5535
330
A
100
AcDbEntity
  8
DIM
 48
0.05
100
AcDbDimension
  2
*D13
 10
167.4225800111006
 20
190.2893627204683
 30
0.0
 11
159.9225800111006
 21
222.7893627204683
 31
0.0
 70
    32
 71
     5
 42
65.00000000000003
 73
     0
 74
     0
 75
     0
  3
tfrom線あり
100
AcDbAlignedDimension
 13
190.7568750467261
 23
255.2893627204683
 33
0.0
 14
190.7568750467261
 24
190.2893627204683
 34
0.0
 50
90.0
100
AcDbRotatedDimension
  0
MTEXT
  5
5536
330
A
100
AcDbEntity
  8
DIM
390
1D
100
AcDbMText
 10
225.6203584074368
 20
268.0245624332499
 30
0.0
 40
4.8865234375
 41
0.0
 46
4.8865234375
 71
     1
 72
     1
  1
{\fＭＳ ゴシック|b0|i0|c1|p0;M24x1}
  7
ＭＳ ゴシック
 73
     1
 44
0.7828267384257843
1001
ACAD
1000
ACAD_MTEXT_DEFINED_HEIGHT_BEGIN
1070
    46
1040
4.8865234375
1000
ACAD_MTEXT_DEFINED_HEIGHT_END
  0
LINE
  5
5538
330
A
100
AcDbEntity
  8
DIM
 48
0.05
100
AcDbLine
 10
224.2617178603779
 20
261.2806020313103
 30
0.0
 11
245.2837472165538
 21
261.2806020313103
 31
0.0
  0
DIMENSION
  5
5AB2
330
A
100
AcDbEntity
  8
DIM
 48
0.05
100
AcDbDimension
  2
*D21
 10
280.0048248275065
 20
134.5526311420444
 30
0.0
 11
329.1110996714065
 21
134.5526311420444
 31
0.0
 70
   160
 71
     5
 42
98.21254968779998
 73
     0
 74
     0
 75
     0
  3
tfrom線あり
100
AcDbAlignedDimension
 13
378.2173745153065
 23
212.2370899073173
 33
0.0
 14
280.0048248275065
 24
165.6120063854152
 34
0.0
 50
-0.000000000000014
100
AcDbRotatedDimension
  0
LINE
  5
5AB6
330
A
100
AcDbEntity
  8
DV1_HULSE_VERLANGERUNGS-
390
1D
100
AcDbLine
 10
255.0000153557064
 20
238.0234319517694
 30
0.0
 11
245.5048248275064
 21
238.0234319517694
 31
0.0
  0
LINE
  5
5AB7
330
A
100
AcDbEntity
  8
DV1_HULSE_VERLANGERUNGS-
390
1D
100
AcDbLine
 10
255.9055254083063
 20
234.6440224291694
 30
0.0
 11
255.0000153557064
 21
238.0234319517694
 31
0.0
  0
ARC
  5
5AB8
330
A
100
AcDbEntity
  8
DV1_HULSE_VERLANGERUNGS-
390
1D
100
AcDbCircle
 10
256.3884883213064
 20
234.7734319517694
 30
0.0
 40
0.5
100
AcDbArc
 50
195.0000000000016
 51
270.0
  0
LINE
  5
5AB9
330
A
100
AcDbEntity
  8
DV1_HULSE_VERLANGERUNGS-
390
1D
100
AcDbLine
 10
274.0821750965064
 20
211.0234319517694
 30
0.0
 11
273.5048248275064
 21
212.0234319517694
 31
0.0
  0
LINE
  5
5ABA
330
A
100
AcDbEntity
  8
DV1_HULSE_VERLANGERUNGS-
390
1D
100
AcDbLine
 10
273.5048248275064
 20
212.0234319517694
 30
0.0
 11
260.8048248275064
 21
212.0234319517694
 31
0.0
  0
LINE
  5
5ABB
330
A
100
AcDbEntity
  8
DV1_HULSE_VERLANGERUNGS-
390
1D
100
AcDbLine
 10
255.9055254083063
 20
210.4028414743694
 30
0.0
 11
255.0000153557064
 21
207.0234319517694
 31
0.0
  0
LINE
  5
5ABC
330
A
100
AcDbEntity
  8
DV1_HULSE_VERLANGERUNGS-
390
1D
100
AcDbLine
 10
255.0000153557064
 20
207.0234319517694
 30
0.0
 11
245.5048248275064
 21
207.0234319517694
 31
0.0
  0
LINE
  5
5ABD
330
A
100
AcDbEntity
  8
DV1_HULSE_VERLANGERUNGS-
390
1D
100
AcDbLine
 10
260.8048248275064
 20
212.0234319517694
 30
0.0
 11
260.0831369909064
 21
210.7734319517694
 31
0.0
  0
LINE
  5
5ABE
330
A
100
AcDbEntity
  8
DV1_HULSE_VERLANGERUNGS-
390
1D
100
AcDbLine
 10
260.0831369909064
 20
210.7734319517694
 30
0.0
 11
256.3884883213064
 21
210.7734319517694
 31
0.0
  0
ARC
  5
5ABF
330
A
100
AcDbEntity
  8
DV1_HULSE_VERLANGERUNGS-
390
1D
100
AcDbCircle
 10
256.3884883213064
 20
210.2734319517694
 30
0.0
 40
0.5
100
AcDbArc
 50
90.0
 51
164.9999999999984
  0
LINE
  5
5AC0
330
A
100
AcDbEntity
  8
DV1_HULSE_VERLANGERUNGS-
390
1D
100
AcDbLine
 10
273.5048248275064
 20
233.0234319517694
 30
0.0
 11
260.8048248275064
 21
233.0234319517694
 31
0.0
  0
LINE
  5
5AC1
330
A
100
AcDbEntity
  8
DV1_HULSE_VERLANGERUNGS-
390
1D
100
AcDbLine
 10
260.8048248275064
 20
233.0234319517694
 30
0.0
 11
260.0831369909064
 21
234.2734319517694
 31
0.0
  0
LINE
  5
5AC2
330
A
100
AcDbEntity
  8
DV1_HULSE_VERLANGERUNGS-
390
1D
100
AcDbLine
 10
260.0831369909064
 20
234.2734319517694
 30
0.0
 11
256.3884883213064
 21
234.2734319517694
 31
0.0
  0
LINE
  5
5AC3
330
A
100
AcDbEntity
  8
DV1_HULSE_VERLANGERUNGS-
390
1D
100
AcDbLine
 10
274.0821750965064
 20
234.0234319517694
 30
0.0
 11
273.5048248275064
 21
233.0234319517694
 31
0.0
  0
LWPOLYLINE
  5
5AC4
330
A
100
AcDbEntity
  8
DV1_HULSE_VERLANGERUNGS-
390
1D
100
AcDbPolyline
 90
        2
 70
     0
 43
0.0
 10
273.8821753841063
 20
233.6770222881694
 10
274.2285850475063
 20
234.0234319517694
  0
LINE
  5
5AC5
330
A
100
AcDbEntity
  8
DV1_HULSE_ABDECK
390
1D
100
AcDbLine
 10
350.5048248275064
 20
204.5234319517694
 30
0.0
 11
290.0048248275064
 21
204.5234319517694
 31
0.0
  0
ARC
  5
5AC6
330
A
100
AcDbEntity
  8
DV1_HULSE_ABDECK
390
1D
100
AcDbCircle
 10
350.5048248275064
 20
205.0234319517694
 30
0.0
 40
0.5
100
AcDbArc
 50
270.0
 51
0.0
  0
LINE
  5
5AC7
330
A
100
AcDbEntity
  8
DV1_HULSE_ABDECK
390
1D
100
AcDbLine
 10
351.0048248275064
 20
205.0234319517694
 30
0.0
 11
351.0048248275064
 21
240.0234319517694
 31
0.0
  0
LINE
  5
5AC8
330
A
100
AcDbEntity
  8
DV1_HULSE_ABDECK
390
1D
100
AcDbLine
 10
350.5048248275064
 20
240.5234319517694
 30
0.0
 11
290.0048248275064
 21
240.5234319517694
 31
0.0
  0
ARC
  5
5AC9
330
A
100
AcDbEntity
  8
DV1_HULSE_ABDECK
390
1D
100
AcDbCircle
 10
350.5048248275064
 20
240.0234319517694
 30
0.0
 40
0.5
100
AcDbArc
 50
0.0
 51
90.0
  0
LINE
  5
5ACA
330
A
100
AcDbEntity
  8
DV1_ROSETTE
390
1D
100
AcDbLine
 10
286.0048248275064
 20
188.0234319517694
 30
0.0
 11
286.0048248275064
 21
194.5234319517694
 31
0.0
  0
ARC
  5
5ACB
330
A
100
AcDbEntity
  8
DV1_ROSETTE
390
1D
100
AcDbCircle
 10
285.5048248275064
 20
188.0234319517694
 30
0.0
 40
0.5
100
AcDbArc
 50
270.0
 51
0.0
  0
LINE
  5
5ACC
330
A
100
AcDbEntity
  8
DV1_ROSETTE
390
1D
100
AcDbLine
 10
285.5048248275064
 20
187.5234319517694
 30
0.0
 11
280.0048248275064
 21
187.5234319517694
 31
0.0
  0
LINE
  5
5ACD
330
A
100
AcDbEntity
  8
DV1_ROSETTE
390
1D
100
AcDbLine
 10
290.0048248275064
 20
195.5234319517694
 30
0.0
 11
290.0048248275064
 21
249.5234319517694
 31
0.0
  0
ARC
  5
5ACE
330
A
100
AcDbEntity
  8
DV1_ROSETTE
390
1D
100
AcDbCircle
 10
289.5048248275064
 20
195.5234319517694
 30
0.0
 40
0.5
100
AcDbArc
 50
270.0
 51
0.0
  0
LINE
  5
5ACF
330
A
100
AcDbEntity
  8
DV1_ROSETTE
390
1D
100
AcDbLine
 10
289.5048248275064
 20
195.0234319517694
 30
0.0
 11
286.5048248275064
 21
195.0234319517694
 31
0.0
  0
ARC
  5
5AD0
330
A
100
AcDbEntity
  8
DV1_ROSETTE
390
1D
100
AcDbCircle
 10
286.5048248275064
 20
194.5234319517694
 30
0.0
 40
0.5
100
AcDbArc
 50
90.0
 51
180.0
  0
ARC
  5
5AD1
330
A
100
AcDbEntity
  8
DV1_ROSETTE
390
1D
100
AcDbCircle
 10
289.5048248275064
 20
249.5234319517694
 30
0.0
 40
0.5
100
AcDbArc
 50
0.0
 51
90.0
  0
LINE
  5
5AD2
330
A
100
AcDbEntity
  8
DV1_ROSETTE
390
1D
100
AcDbLine
 10
289.5048248275064
 20
250.0234319517694
 30
0.0
 11
286.5048248275064
 21
250.0234319517694
 31
0.0
  0
ARC
  5
5AD3
330
A
100
AcDbEntity
  8
DV1_ROSETTE
390
1D
100
AcDbCircle
 10
286.5048248275064
 20
250.5234319517694
 30
0.0
 40
0.5
100
AcDbArc
 50
180.0
 51
270.0
  0
LINE
  5
5AD4
330
A
100
AcDbEntity
  8
DV1_ROSETTE
390
1D
100
AcDbLine
 10
286.0048248275064
 20
250.5234319517694
 30
0.0
 11
286.0048248275064
 21
257.0234319517694
 31
0.0
  0
ARC
  5
5AD5
330
A
100
AcDbEntity
  8
DV1_ROSETTE
390
1D
100
AcDbCircle
 10
285.5048248275064
 20
257.0234319517694
 30
0.0
 40
0.5
100
AcDbArc
 50
0.0
 51
90.0
  0
LINE
  5
5AD6
330
A
100
AcDbEntity
  8
DV1_ROSETTE
390
1D
100
AcDbLine
 10
285.5048248275064
 20
257.5234319517694
 30
0.0
 11
280.0048248275064
 21
257.5234319517694
 31
0.0
  0
LINE
  5
5AD7
330
A
100
AcDbEntity
  8
DV1_HULSE_ABDECK
390
1D
100
AcDbLine
 10
290.0048248275064
 20
204.5234319517694
 30
0.0
 11
290.0048248275064
 21
240.5234319517694
 31
0.0
  0
LINE
  5
5ADA
330
A
100
AcDbEntity
  8
DV1_ROSETTE
390
1D
100
AcDbLine
 10
280.0048248275064
 20
187.5234319517694
 30
0.0
 11
280.0048248275064
 21
257.5234319517694
 31
0.0
  0
LINE
  5
5ADC
330
A
100
AcDbEntity
  8
DV1_HULSE_VERLANGERUNGS-
390
1D
100
AcDbLine
 10
245.5048248275064
 20
207.0234319517694
 30
0.0
 11
245.5048248275064
 21
238.0234319517694
 31
0.0
  0
LINE
  5
5ADD
330
A
100
AcDbEntity
  8
DV1_HULSE_VERLANGERUNGS-
390
1D
100
AcDbLine
 10
255.0000153557064
 20
207.0234319517694
 30
0.0
 11
255.0000153557064
 21
238.0234319517694
 31
0.0
  0
LINE
  5
5ADE
330
A
100
AcDbEntity
  8
DV1_HULSE_VERLANGERUNGS-
390
1D
100
AcDbLine
 10
260.8048248275064
 20
212.0234319517694
 30
0.0
 11
260.8048248275064
 21
233.0234319517694
 31
0.0
  0
LINE
  5
5ADF
330
A
100
AcDbEntity
  8
DV1_HULSE_VERLANGERUNGS-
390
1D
100
AcDbLine
 10
260.0831369909064
 20
210.7734319517694
 30
0.0
 11
260.0831369909064
 21
234.2734319517694
 31
0.0
  0
LINE
  5
5AE0
330
A
100
AcDbEntity
  8
DV1_HULSE_VERLANGERUNGS-
390
1D
100
AcDbLine
 10
274.0821750965064
 20
211.0234319517694
 30
0.0
 11
274.0821750965064
 21
234.0234319517694
 31
0.0
  0
LINE
  5
5AE1
330
A
100
AcDbEntity
  8
DV1_HULSE_VERLANGERUNGS-
390
1D
100
AcDbLine
 10
273.5048248275064
 20
212.0234319517694
 30
0.0
 11
273.5048248275064
 21
233.0234319517694
 31
0.0
  0
LINE
  5
5AE2
330
A
100
AcDbEntity
  8
DV1_HULSE_VERLANGERUNGS-
390
1D
100
AcDbLine
 10
256.1270002739064
 20
211.2029004571694
 30
0.0
 11
256.1270002739064
 21
233.9292464513694
 31
0.0
  0
LINE
  5
5AE3
330
A
100
AcDbEntity
  8
DV1_ROSETTE
390
1D
100
AcDbLine
 10
286.0762269921065
 20
195.0234319517694
 30
0.0
 11
286.0762269921065
 21
250.0234319517694
 31
0.0
  0
LINE
  5
5AE4
330
A
100
AcDbEntity
  8
DV1_HULSE_VERLANGERUNGS-
390
1D
100
AcDbLine
 10
280.0048248275064
 20
233.1034319517694
 30
0.0
 11
273.5510128489064
 21
233.1034319517694
 31
0.0
  0
LINE
  5
5AE5
330
A
100
AcDbEntity
  8
DV1_HULSE_VERLANGERUNGS-
390
1D
100
AcDbLine
 10
280.0048248275064
 20
234.0234319517694
 30
0.0
 11
274.0821750965064
 21
234.0234319517694
 31
0.0
  0
LINE
  5
5AE6
330
A
100
AcDbEntity
  8
DV1_HULSE_VERLANGERUNGS-
390
1D
100
AcDbLine
 10
280.0048248275064
 20
211.9434319517694
 30
0.0
 11
273.5510128489064
 21
211.9434319517694
 31
0.0
  0
LINE
  5
5AE7
330
A
100
AcDbEntity
  8
DV1_HULSE_VERLANGERUNGS-
390
1D
100
AcDbLine
 10
280.0048248275064
 20
211.0234319517694
 30
0.0
 11
274.0821750965064
 21
211.0234319517694
 31
0.0
  0
LINE
  5
5AE8
330
A
100
AcDbEntity
  8
DV1_RING
390
1D
100
AcDbLine
 10
355.0173745153065
 20
213.5446755083694
 30
0.0
 11
355.2173745153064
 21
213.5446755083694
 31
0.0
  0
LINE
  5
5AE9
330
A
100
AcDbEntity
  8
DV1_GRIFF_-FUHR-
390
1D
100
AcDbLine
 10
351.0048248275064
 20
237.4731806577694
 30
0.0
 11
354.5173745153065
 21
237.4731806577694
 31
0.0
  0
ARC
  5
5AEA
330
A
100
AcDbEntity
  8
DV1_GRIFF_-FUHR-
390
1D
100
AcDbCircle
 10
354.5173745153065
 20
236.9731806577694
 30
0.0
 40
0.5
100
AcDbArc
 50
0.0
 51
90.0
  0
ARC
  5
5AEB
330
A
100
AcDbEntity
  8
DV1_GRIFF_-FUHR-
390
1D
100
AcDbCircle
 10
354.5173745153065
 20
208.0736832459694
 30
0.0
 40
0.5
100
AcDbArc
 50
270.0
 51
0.0
  0
LINE
  5
5AEC
330
A
100
AcDbEntity
  8
DV1_GRIFF_-FUHR-
390
1D
100
AcDbLine
 10
354.5173745153065
 20
207.5736832459694
 30
0.0
 11
351.0048248275064
 21
207.5736832459694
 31
0.0
  0
LINE
  5
5AED
330
A
100
AcDbEntity
  8
DV1_RING
390
1D
100
AcDbLine
 10
355.0173745153065
 20
231.5021883953694
 30
0.0
 11
355.2173745153064
 21
231.5021883953694
 31
0.0
  0
LINE
  5
5AEE
330
A
100
AcDbEntity
  8
DV1_GRIFF_-FUHR-
390
1D
100
AcDbLine
 10
355.0173745153065
 20
208.0736832459694
 30
0.0
 11
355.0173745153065
 21
236.9731806577694
 31
0.0
  0
LINE
  5
5AEF
330
A
100
AcDbEntity
  8
DV1_GRIFF_KPL_TRIO
390
1D
100
AcDbLine
 10
376.7121408451064
 20
232.2734319517694
 30
0.0
 11
377.7173745153063
 21
232.2734319517694
 31
0.0
  0
SPLINE
  5
5AF0
330
A
100
AcDbEntity
  8
DV1_GRIFF_KPL_TRIO
390
1D
100
AcDbSpline
210
0.0
220
0.0
230
1.0
 70
     8
 71
     3
 72
    10
 73
     6
 74
     0
 42
0.000000001
 43
0.0
 40
0.0
 40
0.0
 40
0.0
 40
0.0
 40
0.4699353791243484
 40
0.9089412818800372
 40
1.0
 40
1.0
 40
1.0
 40
1.0
 10
370.7173745153711
 20
223.8769778372783
 30
0.0
 10
369.0915089772761
 20
223.8225284468634
 30
0.0
 10
366.4943913095765
 20
222.4757270110362
 30
0.0
 10
364.8238899482533
 20
219.3984826993871
 30
0.0
 10
364.7136934059421
 20
217.8992209643512
 30
0.0
 10
364.7163059957706
 20
217.6478992607643
 30
0.0
  0
SPLINE
  5
5AF1
330
A
100
AcDbEntity
  8
DV1_GRIFF_KPL_TRIO
390
1D
100
AcDbSpline
210
0.0
220
0.0
230
1.0
 70
     8
 71
     3
 72
    10
 73
     6
 74
     0
 42
0.000000001
 43
0.0
 40
0.0
 40
0.0
 40
0.0
 40
0.0
 40
0.1119310210037968
 40
0.5774719694950358
 40
1.0
 40
1.0
 40
1.0
 40
1.0
 10
376.7160906454041
 20
217.6483857156737
 30
0.0
 10
376.720357246741
 20
217.9582758646731
 30
0.0
 10
376.5768952413916
 20
219.6032501765566
 30
0.0
 10
374.7412212980989
 20
222.6354103810587
 30
0.0
 10
372.1861913213388
 20
223.8387977636352
 30
0.0
 10
370.7173745153711
 20
223.8769778372783
 30
0.0
  0
LINE
  5
5AF2
330
A
100
AcDbEntity
  8
DV1_GRIFF_KPL_TRIO
390
1D
100
AcDbLine
 10
378.2173745153063
 20
213.2734319517694
 30
0.0
 11
378.2173745153063
 21
231.7734319517694
 31
0.0
  0
ELLIPSE
  5
5AF3
330
A
100
AcDbEntity
  8
DV1_GRIFF_KPL_TRIO
390
1D
100
AcDbEllipse
 10
370.7173745153063
 20
204.0234319517694
 30
0.0
 11
-6.000000000000002
 21
1.302182119232618E-15
 31
0.0
210
0.0
220
0.0
230
1.0
 40
0.8660254038
 41
3.072115592506717
 42
3.141592653589793
  0
LINE
  5
5AF4
330
A
100
AcDbEntity
  8
DV1_GRIFF_KPL_TRIO
390
1D
100
AcDbLine
 10
355.2173745153064
 20
232.2734319517694
 30
0.0
 11
355.2173745153064
 21
212.7734319517694
 31
0.0
  0
SPLINE
  5
5AF5
330
A
100
AcDbEntity
  8
DV1_GRIFF_KPL_TRIO
390
1D
100
AcDbSpline
210
0.0
220
0.0
230
1.0
 70
     8
 71
     3
 72
    12
 73
     8
 74
     0
 42
0.000000001
 43
0.0
 40
0.0
 40
0.0
 40
0.0
 40
0.0
 40
0.1716219565307078
 40
0.4035166398377791
 40
0.6157318759109052
 40
0.8441002715996575
 40
1.0
 40
1.0
 40
1.0
 40
1.0
 10
376.7184433514876
 20
232.2742833637543
 30
0.0
 10
376.7086136824043
 20
232.2720103868268
 30
0.0
 10
375.9675250418804
 20
231.8325338280813
 30
0.0
 10
372.8623289491715
 20
230.1069344527088
 30
0.0
 10
368.2270082568643
 20
230.2345319523624
 30
0.0
 10
365.371389523822
 20
231.8989568600099
 30
0.0
 10
364.7305120486897
 20
232.2711665224269
 30
0.0
 10
364.7186574477266
 20
232.2731806273571
 30
0.0
  0
ARC
  5
5AF6
330
A
100
AcDbEntity
  8
DV1_GRIFF_KPL_TRIO
390
1D
100
AcDbCircle
 10
377.7173745153063
 20
213.2734319517694
 30
0.0
 40
0.5
100
AcDbArc
 50
270.0
 51
0.0
  0
ARC
  5
5AF7
330
A
100
AcDbEntity
  8
DV1_GRIFF_KPL_TRIO
390
1D
100
AcDbCircle
 10
365.2173745153064
 20
259.5234319517694
 30
0.0
 40
0.5
100
AcDbArc
 50
90.0
 51
180.0
  0
SPLINE
  5
5AF8
330
A
100
AcDbEntity
  8
DV1_GRIFF_KPL_TRIO
390
1D
100
AcDbSpline
210
0.0
220
0.0
230
1.0
 70
     8
 71
     3
 72
     9
 73
     5
 74
     0
 42
0.000000001
 43
0.0
 40
0.0
 40
0.0
 40
0.0
 40
0.0
 40
0.4977005593557484
 40
1.0
 40
1.0
 40
1.0
 40
1.0
 10
370.7173745153711
 20
198.7602922309922
 30
0.0
 10
369.0599886676843
 20
198.7711063968503
 30
0.0
 10
366.1487138009722
 20
199.9198269378072
 30
0.0
 10
364.7441397391657
 20
202.4833255947897
 30
0.0
 10
364.7191570079115
 20
203.9679322037417
 30
0.0
  0
LINE
  5
5AF9
330
A
100
AcDbEntity
  8
DV1_GRIFF_KPL_TRIO
390
1D
100
AcDbLine
 10
364.7173745153064
 20
232.2693821113694
 30
0.0
 11
364.7173745153064
 21
259.5234319517694
 31
0.0
  0
LINE
  5
5AFA
330
A
100
AcDbEntity
  8
DV1_GRIFF_KPL_TRIO
390
1D
100
AcDbLine
 10
376.7173745153063
 20
217.6504568719694
 30
0.0
 11
376.7173745153063
 21
204.0234319579694
 31
0.0
  0
LINE
  5
5AFB
330
A
100
AcDbEntity
  8
DV1_GRIFF_KPL_TRIO
390
1D
100
AcDbLine
 10
377.7173745153063
 20
212.7734319517694
 30
0.0
 11
376.7173745153063
 21
212.7734319517694
 31
0.0
  0
LINE
  5
5AFC
330
A
100
AcDbEntity
  8
DV1_GRIFF_KPL_TRIO
390
1D
100
AcDbLine
 10
364.7173745153064
 20
232.2734319517694
 30
0.0
 11
355.2173745153064
 21
232.2734319517694
 31
0.0
  0
LINE
  5
5AFD
330
A
100
AcDbEntity
  8
DV1_GRIFF_KPL_TRIO
390
1D
100
AcDbLine
 10
355.2173745153064
 20
212.7734319517694
 30
0.0
 11
364.7239069721064
 21
212.7734319517694
 31
0.0
  0
SPLINE
  5
5AFE
330
A
100
AcDbEntity
  8
DV1_GRIFF_KPL_TRIO
390
1D
100
AcDbSpline
210
0.0
220
0.0
230
1.0
 70
     8
 71
     3
 72
     8
 73
     4
 74
     0
 42
0.000000001
 43
0.0
 40
0.0
 40
0.0
 40
0.0
 40
0.0
 40
1.0
 40
1.0
 40
1.0
 40
1.0
 10
376.701451191998
 20
203.6607498813254
 30
0.0
 10
376.6999612578988
 20
203.642353942518
 30
0.0
 10
376.6983657637545
 20
203.6239823065198
 30
0.0
 10
376.6966652628227
 20
203.6056355155705
 30
0.0
  0
ARC
  5
5AFF
330
A
100
AcDbEntity
  8
DV1_GRIFF_KPL_TRIO
390
1D
100
AcDbCircle
 10
377.7173745153063
 20
231.7734319517694
 30
0.0
 40
0.5
100
AcDbArc
 50
0.0
 51
90.0
  0
ARC
  5
5B00
330
A
100
AcDbEntity
  8
DV1_GRIFF_KPL_TRIO
390
1D
100
AcDbCircle
 10
376.2173745153063
 20
259.5234319517694
 30
0.0
 40
0.5
100
AcDbArc
 50
0.0
 51
90.0
  0
SPLINE
  5
5B01
330
A
100
AcDbEntity
  8
DV1_GRIFF_KPL_TRIO
390
1D
100
AcDbSpline
210
0.0
220
0.0
230
1.0
 70
     8
 71
     3
 72
     9
 73
     5
 74
     0
 42
0.000000001
 43
0.0
 40
0.0
 40
0.0
 40
0.0
 40
0.0
 40
0.4958801006724807
 40
1.0
 40
1.0
 40
1.0
 40
1.0
 10
376.7005704959992
 20
203.6554624856153
 30
0.0
 10
376.594867579686
 20
202.2443493214318
 30
0.0
 10
375.1241578453909
 20
199.8471510295539
 30
0.0
 10
372.3349831304849
 20
198.7739778113973
 30
0.0
 10
370.7173745153711
 20
198.7602922309922
 30
0.0
  0
LINE
  5
5B02
330
A
100
AcDbEntity
  8
DV1_GRIFF_KPL_TRIO
390
1D
100
AcDbLine
 10
376.7173745153063
 20
259.5234319517694
 30
0.0
 11
376.7173745153063
 21
232.2701663327694
 31
0.0
  0
LINE
  5
5B03
330
A
100
AcDbEntity
  8
DV1_GRIFF_KPL_TRIO
390
1D
100
AcDbLine
 10
364.7173745153064
 20
204.0234319517694
 30
0.0
 11
364.7173745153064
 21
217.6500647613694
 31
0.0
  0
LINE
  5
5B04
330
A
100
AcDbEntity
  8
DV1_GRIFF_KPL_TRIO
390
1D
100
AcDbLine
 10
365.2173745153064
 20
260.0234319517694
 30
0.0
 11
376.2173745153063
 21
260.0234319517694
 31
0.0
  0
SPLINE
  5
5B05
330
A
100
AcDbEntity
  8
DV1_GRIFF_KPL_TRIO
390
1D
100
AcDbSpline
210
0.0
220
0.0
230
1.0
 70
     8
 71
     3
 72
     9
 73
     5
 74
     0
 42
0.000000001
 43
0.0
 40
0.0
 40
0.0
 40
0.0
 40
0.0
 40
0.4977005593557546
 40
1.0
 40
1.0
 40
1.0
 40
1.0
 10
370.7173745153711
 20
209.1755721764912
 30
0.0
 10
369.0599886676843
 20
209.1647580106331
 30
0.0
 10
366.1487138009722
 20
208.0160374696763
 30
0.0
 10
364.7441397391657
 20
205.4525388126937
 30
0.0
 10
364.7191570079115
 20
203.9679322037417
 30
0.0
  0
SPLINE
  5
5B06
330
A
100
AcDbEntity
  8
DV1_GRIFF_KPL_TRIO
390
1D
100
AcDbSpline
210
0.0
220
0.0
230
1.0
 70
     8
 71
     3
 72
     9
 73
     5
 74
     0
 42
0.000000001
 43
0.0
 40
0.0
 40
0.0
 40
0.0
 40
0.0
 40
0.4958801006724775
 40
1.0
 40
1.0
 40
1.0
 40
1.0
 10
376.7005704959992
 20
204.2804019218682
 30
0.0
 10
376.594867579686
 20
205.6915150860517
 30
0.0
 10
375.1241578453909
 20
208.0887133779295
 30
0.0
 10
372.3349831304849
 20
209.161886596086
 30
0.0
 10
370.7173745153711
 20
209.1755721764912
 30
0.0
  0
LINE
  5
5B07
330
A
100
AcDbEntity
  8
DV3_HULSE_VERLANGERUNGS-
390
1D
100
AcDbLine
 10
90.69320662356756
 20
471.3865043942155
 30
0.0
 11
90.69320662356756
 21
480.8816949224156
 31
0.0
  0
LINE
  5
5B08
330
A
100
AcDbEntity
  8
DV3_HULSE_VERLANGERUNGS-
390
1D
100
AcDbLine
 10
94.07261614616755
 20
470.4809943416155
 30
0.0
 11
90.69320662356756
 21
471.3865043942155
 31
0.0
  0
ARC
  5
5B09
330
A
100
AcDbEntity
  8
DV3_HULSE_VERLANGERUNGS-
390
1D
100
AcDbCircle
 10
93.94320662356756
 20
469.9980314286156
 30
0.0
 40
0.5
100
AcDbArc
 50
0.0
 51
74.99999999999287
  0
LINE
  5
5B0A
330
A
100
AcDbEntity
  8
DV3_HULSE_VERLANGERUNGS-
390
1D
100
AcDbLine
 10
117.6932066235676
 20
452.3043446534157
 30
0.0
 11
116.6932066235676
 21
452.8816949224156
 31
0.0
  0
LINE
  5
5B0B
330
A
100
AcDbEntity
  8
DV3_HULSE_VERLANGERUNGS-
390
1D
100
AcDbLine
 10
116.6932066235676
 20
452.8816949224156
 30
0.0
 11
116.6932066235676
 21
465.5816949224156
 31
0.0
  0
LINE
  5
5B0C
330
A
100
AcDbEntity
  8
DV3_HULSE_VERLANGERUNGS-
390
1D
100
AcDbLine
 10
118.3137971009676
 20
470.4809943416155
 30
0.0
 11
121.6932066235676
 21
471.3865043942155
 31
0.0
  0
LINE
  5
5B0D
330
A
100
AcDbEntity
  8
DV3_HULSE_VERLANGERUNGS-
390
1D
100
AcDbLine
 10
121.6932066235676
 20
471.3865043942155
 30
0.0
 11
121.6932066235676
 21
480.8816949224156
 31
0.0
  0
LINE
  5
5B0E
330
A
100
AcDbEntity
  8
DV3_HULSE_VERLANGERUNGS-
390
1D
100
AcDbLine
 10
116.6932066235676
 20
465.5816949224156
 30
0.0
 11
117.9432066235676
 21
466.3033827590154
 31
0.0
  0
LINE
  5
5B0F
330
A
100
AcDbEntity
  8
DV3_HULSE_VERLANGERUNGS-
390
1D
100
AcDbLine
 10
117.9432066235676
 20
466.3033827590154
 30
0.0
 11
117.9432066235676
 21
469.9980314286156
 31
0.0
  0
ARC
  5
5B10
330
A
100
AcDbEntity
  8
DV3_HULSE_VERLANGERUNGS-
390
1D
100
AcDbCircle
 10
118.4432066235676
 20
469.9980314286156
 30
0.0
 40
0.5
100
AcDbArc
 50
104.9999999999945
 51
180.0
  0
LINE
  5
5B11
330
A
100
AcDbEntity
  8
DV3_HULSE_VERLANGERUNGS-
390
1D
100
AcDbLine
 10
95.69320662356756
 20
452.8816949224156
 30
0.0
 11
95.69320662356756
 21
465.5816949224156
 31
0.0
  0
LINE
  5
5B12
330
A
100
AcDbEntity
  8
DV3_HULSE_VERLANGERUNGS-
390
1D
100
AcDbLine
 10
95.69320662356756
 20
465.5816949224156
 30
0.0
 11
94.44320662356756
 21
466.3033827590157
 31
0.0
  0
LINE
  5
5B13
330
A
100
AcDbEntity
  8
DV3_HULSE_VERLANGERUNGS-
390
1D
100
AcDbLine
 10
94.44320662356756
 20
466.3033827590157
 30
0.0
 11
94.44320662356756
 21
469.9980314286156
 31
0.0
  0
LINE
  5
5B14
330
A
100
AcDbEntity
  8
DV3_HULSE_VERLANGERUNGS-
390
1D
100
AcDbLine
 10
94.69320662356756
 20
452.3043446534157
 30
0.0
 11
95.69320662356756
 21
452.8816949224156
 31
0.0
  0
LWPOLYLINE
  5
5B15
330
A
100
AcDbEntity
  8
DV3_HULSE_VERLANGERUNGS-
390
1D
100
AcDbPolyline
 90
        2
 70
     0
 43
0.0
 10
95.03961628736761
 20
452.5043443658155
 10
94.69320662356756
 20
452.1579347024156
  0
LINE
  5
5B16
330
A
100
AcDbEntity
  8
DV3_HULSE_ABDECK
390
1D
100
AcDbLine
 10
124.1932066235676
 20
375.8816949224155
 30
0.0
 11
124.1932066235676
 21
436.3816949224156
 31
0.0
  0
ARC
  5
5B17
330
A
100
AcDbEntity
  8
DV3_HULSE_ABDECK
390
1D
100
AcDbCircle
 10
123.6932066235676
 20
375.8816949224155
 30
0.0
 40
0.5
100
AcDbArc
 50
270.0
 51
0.0
  0
LINE
  5
5B18
330
A
100
AcDbEntity
  8
DV3_HULSE_ABDECK
390
1D
100
AcDbLine
 10
123.6932066235676
 20
375.3816949224155
 30
0.0
 11
88.69320662356756
 21
375.3816949224155
 31
0.0
  0
LINE
  5
5B19
330
A
100
AcDbEntity
  8
DV3_HULSE_ABDECK
390
1D
100
AcDbLine
 10
88.19320662356756
 20
375.8816949224155
 30
0.0
 11
88.19320662356756
 21
436.3816949224156
 31
0.0
  0
ARC
  5
5B1A
330
A
100
AcDbEntity
  8
DV3_HULSE_ABDECK
390
1D
100
AcDbCircle
 10
88.69320662356756
 20
375.8816949224155
 30
0.0
 40
0.5
100
AcDbArc
 50
180.0
 51
270.0
  0
LINE
  5
5B1B
330
A
100
AcDbEntity
  8
DV3_ROSETTE
390
1D
100
AcDbLine
 10
140.6932066235676
 20
440.3816949224156
 30
0.0
 11
134.1932066235676
 21
440.3816949224156
 31
0.0
  0
ARC
  5
5B1C
330
A
100
AcDbEntity
  8
DV3_ROSETTE
390
1D
100
AcDbCircle
 10
140.6932066235676
 20
440.8816949224156
 30
0.0
 40
0.5
100
AcDbArc
 50
270.0
 51
0.0
  0
LINE
  5
5B1D
330
A
100
AcDbEntity
  8
DV3_ROSETTE
390
1D
100
AcDbLine
 10
141.1932066235676
 20
440.8816949224156
 30
0.0
 11
141.1932066235676
 21
446.3816949224156
 31
0.0
  0
LINE
  5
5B1E
330
A
100
AcDbEntity
  8
DV3_ROSETTE
390
1D
100
AcDbLine
 10
133.1932066235676
 20
436.3816949224156
 30
0.0
 11
79.19320662356756
 21
436.3816949224156
 31
0.0
  0
ARC
  5
5B1F
330
A
100
AcDbEntity
  8
DV3_ROSETTE
390
1D
100
AcDbCircle
 10
133.1932066235676
 20
436.8816949224156
 30
0.0
 40
0.5
100
AcDbArc
 50
270.0
 51
0.0
  0
LINE
  5
5B20
330
A
100
AcDbEntity
  8
DV3_ROSETTE
390
1D
100
AcDbLine
 10
133.6932066235676
 20
436.8816949224156
 30
0.0
 11
133.6932066235676
 21
439.8816949224156
 31
0.0
  0
ARC
  5
5B21
330
A
100
AcDbEntity
  8
DV3_ROSETTE
390
1D
100
AcDbCircle
 10
134.1932066235676
 20
439.8816949224156
 30
0.0
 40
0.5
100
AcDbArc
 50
90.0
 51
180.0
  0
ARC
  5
5B22
330
A
100
AcDbEntity
  8
DV3_ROSETTE
390
1D
100
AcDbCircle
 10
79.19320662356756
 20
436.8816949224156
 30
0.0
 40
0.5
100
AcDbArc
 50
180.0
 51
270.0
  0
LINE
  5
5B23
330
A
100
AcDbEntity
  8
DV3_ROSETTE
390
1D
100
AcDbLine
 10
78.69320662356756
 20
436.8816949224156
 30
0.0
 11
78.69320662356756
 21
439.8816949224156
 31
0.0
  0
ARC
  5
5B24
330
A
100
AcDbEntity
  8
DV3_ROSETTE
390
1D
100
AcDbCircle
 10
78.19320662356756
 20
439.8816949224156
 30
0.0
 40
0.5
100
AcDbArc
 50
0.0
 51
90.0
  0
LINE
  5
5B25
330
A
100
AcDbEntity
  8
DV3_ROSETTE
390
1D
100
AcDbLine
 10
78.19320662356756
 20
440.3816949224156
 30
0.0
 11
71.69320662356756
 21
440.3816949224156
 31
0.0
  0
ARC
  5
5B26
330
A
100
AcDbEntity
  8
DV3_ROSETTE
390
1D
100
AcDbCircle
 10
71.69320662356756
 20
440.8816949224156
 30
0.0
 40
0.5
100
AcDbArc
 50
180.0
 51
270.0
  0
LINE
  5
5B27
330
A
100
AcDbEntity
  8
DV3_ROSETTE
390
1D
100
AcDbLine
 10
71.19320662356756
 20
440.8816949224156
 30
0.0
 11
71.19320662356756
 21
446.3816949224156
 31
0.0
  0
LINE
  5
5B28
330
A
100
AcDbEntity
  8
DV3_HULSE_ABDECK
390
1D
100
AcDbLine
 10
124.1932066235676
 20
436.3816949224156
 30
0.0
 11
88.19320662356756
 21
436.3816949224156
 31
0.0
  0
LINE
  5
5B29
330
A
100
AcDbEntity
  8
DV3_DICHTUNG_PROFIL
390
1D
100
AcDbLine
 10
139.6932066235676
 20
449.3816949224156
 30
0.0
 11
139.6932066235676
 21
446.3816949224156
 31
0.0
  0
LINE
  5
5B2A
330
A
100
AcDbEntity
  8
DV3_DICHTUNG_PROFIL
390
1D
100
AcDbLine
 10
72.69320662356756
 20
449.3816949224156
 30
0.0
 11
72.69320662356756
 21
446.3816949224156
 31
0.0
  0
LINE
  5
5B2B
330
A
100
AcDbEntity
  8
DV3_ROSETTE
390
1D
100
AcDbLine
 10
141.1932066235676
 20
446.3816949224156
 30
0.0
 11
71.19320662356756
 21
446.3816949224156
 31
0.0
  0
LINE
  5
5B2C
330
A
100
AcDbEntity
  8
DV3_DICHTUNG_PROFIL
390
1D
100
AcDbLine
 10
139.6932066235676
 20
449.3816949224156
 30
0.0
 11
72.69320662356756
 21
449.3816949224156
 31
0.0
  0
LINE
  5
5B2D
330
A
100
AcDbEntity
  8
DV3_HULSE_VERLANGERUNGS-
390
1D
100
AcDbLine
 10
121.6932066235676
 20
480.8816949224156
 30
0.0
 11
90.69320662356756
 21
480.8816949224156
 31
0.0
  0
LINE
  5
5B2E
330
A
100
AcDbEntity
  8
DV3_HULSE_VERLANGERUNGS-
390
1D
100
AcDbLine
 10
121.6932066235676
 20
471.3865043942155
 30
0.0
 11
90.69320662356756
 21
471.3865043942155
 31
0.0
  0
LINE
  5
5B2F
330
A
100
AcDbEntity
  8
DV3_HULSE_VERLANGERUNGS-
390
1D
100
AcDbLine
 10
116.6932066235676
 20
465.5816949224156
 30
0.0
 11
95.69320662356756
 21
465.5816949224156
 31
0.0
  0
LINE
  5
5B30
330
A
100
AcDbEntity
  8
DV3_HULSE_VERLANGERUNGS-
390
1D
100
AcDbLine
 10
117.9432066235676
 20
466.3033827590154
 30
0.0
 11
94.44320662356756
 21
466.3033827590157
 31
0.0
  0
LINE
  5
5B31
330
A
100
AcDbEntity
  8
DV3_HULSE_VERLANGERUNGS-
390
1D
100
AcDbLine
 10
117.6932066235676
 20
452.3043446534157
 30
0.0
 11
94.69320662356756
 21
452.3043446534157
 31
0.0
  0
LINE
  5
5B32
330
A
100
AcDbEntity
  8
DV3_HULSE_VERLANGERUNGS-
390
1D
100
AcDbLine
 10
116.6932066235676
 20
452.8816949224156
 30
0.0
 11
95.69320662356756
 21
452.8816949224156
 31
0.0
  0
LINE
  5
5B33
330
A
100
AcDbEntity
  8
DV3_HULSE_VERLANGERUNGS-
390
1D
100
AcDbLine
 10
117.5137381183675
 20
470.2595194760156
 30
0.0
 11
94.78739212416758
 21
470.2595194760156
 31
0.0
  0
LINE
  5
5B34
330
A
100
AcDbEntity
  8
DV3_ROSETTE
390
1D
100
AcDbLine
 10
133.6932066235676
 20
440.3102927578154
 30
0.0
 11
78.69320662356756
 21
440.3102927578157
 31
0.0
  0
LINE
  5
5B35
330
A
100
AcDbEntity
  8
DV3_HULSE_VERLANGERUNGS-
390
1D
100
AcDbLine
 10
95.61320662356752
 20
449.3816949224156
 30
0.0
 11
95.61320662356752
 21
452.8355069010156
 31
0.0
  0
LINE
  5
5B36
330
A
100
AcDbEntity
  8
DV3_HULSE_VERLANGERUNGS-
390
1D
100
AcDbLine
 10
94.69320662356756
 20
449.3816949224156
 30
0.0
 11
94.69320662356756
 21
452.3043446534157
 31
0.0
  0
LINE
  5
5B37
330
A
100
AcDbEntity
  8
DV3_HULSE_VERLANGERUNGS-
390
1D
100
AcDbLine
 10
116.7732066235676
 20
449.3816949224156
 30
0.0
 11
116.7732066235676
 21
452.8355069010156
 31
0.0
  0
LINE
  5
5B38
330
A
100
AcDbEntity
  8
DV3_HULSE_VERLANGERUNGS-
390
1D
100
AcDbLine
 10
117.6932066235676
 20
449.3816949224156
 30
0.0
 11
117.6932066235676
 21
452.3043446534157
 31
0.0
  0
LINE
  5
5B39
330
A
100
AcDbEntity
  8
DV3_RING
390
1D
100
AcDbLine
 10
115.1719630671676
 20
371.3691452346156
 30
0.0
 11
115.1719630671676
 21
371.1691452346155
 31
0.0
  0
LINE
  5
5B3A
330
A
100
AcDbEntity
  8
DV3_GRIFF_-FUHR-
390
1D
100
AcDbLine
 10
91.2434579177675
 20
375.3816949224155
 30
0.0
 11
91.2434579177675
 21
371.8691452346156
 31
0.0
  0
ARC
  5
5B3B
330
A
100
AcDbEntity
  8
DV3_GRIFF_-FUHR-
390
1D
100
AcDbCircle
 10
91.7434579177675
 20
371.8691452346156
 30
0.0
 40
0.5
100
AcDbArc
 50
180.0
 51
270.0
  0
ARC
  5
5B3C
330
A
100
AcDbEntity
  8
DV3_GRIFF_-FUHR-
390
1D
100
AcDbCircle
 10
120.6429553295675
 20
371.8691452346156
 30
0.0
 40
0.5
100
AcDbArc
 50
270.0
 51
0.0
  0
LINE
  5
5B3D
330
A
100
AcDbEntity
  8
DV3_GRIFF_-FUHR-
390
1D
100
AcDbLine
 10
121.1429553295675
 20
371.8691452346156
 30
0.0
 11
121.1429553295675
 21
375.3816949224155
 31
0.0
  0
LINE
  5
5B3E
330
A
100
AcDbEntity
  8
DV3_RING
390
1D
100
AcDbLine
 10
97.21445018016755
 20
371.3691452346156
 30
0.0
 11
97.21445018016755
 21
371.1691452346155
 31
0.0
  0
LINE
  5
5B3F
330
A
100
AcDbEntity
  8
DV3_GRIFF_-FUHR-
390
1D
100
AcDbLine
 10
120.6429553295675
 20
371.3691452346156
 30
0.0
 11
91.7434579177675
 21
371.3691452346156
 31
0.0
  0
LINE
  5
5B40
330
A
100
AcDbEntity
  8
DV3_GRIFF_KPL_TRIO
390
1D
100
AcDbLine
 10
115.4432066235676
 20
348.1691452346155
 30
0.0
 11
96.94320662356756
 21
348.1691452346155
 31
0.0
  0
LINE
  5
5B41
330
A
100
AcDbEntity
  8
DV3_GRIFF_KPL_TRIO
390
1D
100
AcDbLine
 10
96.44320662356756
 20
371.1691452346155
 30
0.0
 11
115.9432066235676
 21
371.1691452346155
 31
0.0
  0
LINE
  5
5B42
330
A
100
AcDbEntity
  8
DV3_GRIFF_KPL_TRIO
390
1D
100
AcDbLine
 10
115.9432066235676
 20
349.6691452346155
 30
0.0
 11
138.2361465635676
 21
349.6691452346155
 31
0.0
  0
LINE
  5
5B43
330
A
100
AcDbEntity
  8
DV3_GRIFF_KPL_TRIO
390
1D
100
AcDbLine
 10
115.9432066235676
 20
359.1552544704156
 30
0.0
 11
115.9432066235676
 21
371.1691452346155
 31
0.0
  0
LINE
  5
5B44
330
A
100
AcDbEntity
  8
DV3_GRIFF_KPL_TRIO
390
1D
100
AcDbLine
 10
96.44320662356756
 20
352.1744395012155
 30
0.0
 11
96.44320662356756
 21
348.6691452346155
 31
0.0
  0
LINE
  5
5B45
330
A
100
AcDbEntity
  8
DV3_GRIFF_KPL_TRIO
390
1D
100
AcDbLine
 10
74.15026668356757
 20
349.6691452346155
 30
0.0
 11
96.44320662356756
 21
349.6691452346155
 31
0.0
  0
SPLINE
  5
5B46
330
A
100
AcDbEntity
  8
DV3_GRIFF_KPL_TRIO
390
1D
100
AcDbSpline
210
0.0
220
0.0
230
1.0
 70
     8
 71
     3
 72
     9
 73
     5
 74
     0
 42
0.000000001
 43
0.0
 40
0.0
 40
0.0
 40
0.0
 40
0.0
 40
0.4832847846414331
 40
1.0
 40
1.0
 40
1.0
 40
1.0
 10
74.14551542878837
 20
361.6669263812855
 30
0.0
 10
73.1630286949902
 20
361.6747143029524
 30
0.0
 10
71.57023337948647
 20
360.1804207381927
 30
0.0
 10
70.91119770843375
 20
357.3659955431614
 30
0.0
 10
70.90026668358053
 20
355.6691452345507
 30
0.0
  0
ARC
  5
5B47
330
A
100
AcDbEntity
  8
DV3_GRIFF_KPL_TRIO
390
1D
100
AcDbCircle
 10
96.94320662356756
 20
348.6691452346155
 30
0.0
 40
0.5
100
AcDbArc
 50
180.0
 51
270.0
  0
SPLINE
  5
5B48
330
A
100
AcDbEntity
  8
DV3_GRIFF_KPL_TRIO
390
1D
100
AcDbSpline
210
0.0
220
0.0
230
1.0
 70
     8
 71
     3
 72
    11
 73
     7
 74
     0
 42
0.000000001
 43
0.0
 40
0.0
 40
0.0
 40
0.0
 40
0.0
 40
0.2366258424938843
 40
0.4964465919145162
 40
0.7559702580936131
 40
1.0
 40
1.0
 40
1.0
 40
1.0
 10
138.2362364175372
 20
349.671115561216
 30
0.0
 10
139.1999291585507
 20
349.6424475456799
 30
0.0
 10
140.7778150531051
 20
351.0280219294986
 30
0.0
 10
141.8531502230693
 20
355.5966976450556
 30
0.0
 10
140.8184802658934
 20
360.2610404162992
 30
0.0
 10
139.2239980028836
 20
361.6913155545538
 30
0.0
 10
138.2313953088369
 20
361.6669263812855
 30
0.0
  0
LINE
  5
5B49
330
A
100
AcDbEntity
  8
DV3_GRIFF_KPL_TRIO
390
1D
100
AcDbLine
 10
138.2361465635676
 20
361.6691452346155
 30
0.0
 11
115.9432066235676
 21
361.6691452346155
 31
0.0
  0
CIRCLE
  5
5B4A
330
A
100
AcDbEntity
  8
DV3_GRIFF_KPL_TRIO
390
1D
100
AcDbCircle
 10
106.1932066235676
 20
355.6691452346155
 30
0.0
 40
6.0
  0
LINE
  5
5B4B
330
A
100
AcDbEntity
  8
DV3_GRIFF_KPL_TRIO
390
1D
100
AcDbLine
 10
115.9432066235676
 20
348.6691452346155
 30
0.0
 11
115.9432066235676
 21
352.1734326628156
 31
0.0
  0
SPLINE
  5
5B4C
330
A
100
AcDbEntity
  8
DV3_GRIFF_KPL_TRIO
390
1D
100
AcDbSpline
210
0.0
220
0.0
230
1.0
 70
     8
 71
     3
 72
    10
 73
     6
 74
     0
 42
0.000000001
 43
0.0
 40
0.0
 40
0.0
 40
0.0
 40
0.0
 40
0.2563212888472241
 40
0.7920281892121919
 40
1.0
 40
1.0
 40
1.0
 40
1.0
 10
96.4512475420288
 20
359.1754112898103
 30
0.0
 10
96.45582540193561
 20
358.6682222960556
 30
0.0
 10
96.54309067766701
 20
356.915573764359
 30
0.0
 10
96.51857278020941
 20
354.1850194353974
 30
0.0
 10
96.45652348910187
 20
352.5691174907443
 30
0.0
 10
96.45393547807225
 20
352.157839497783
 30
0.0
  0
SPLINE
  5
5B4D
330
A
100
AcDbEntity
  8
DV3_GRIFF_KPL_TRIO
390
1D
100
AcDbSpline
210
0.0
220
0.0
230
1.0
 70
     8
 71
     3
 72
     8
 73
     4
 74
     0
 42
0.000000001
 43
0.0
 40
0.0
 40
0.0
 40
0.0
 40
0.0
 40
1.0
 40
1.0
 40
1.0
 40
1.0
 10
115.8487963795918
 20
355.6691452345507
 30
0.0
 10
115.8562477428524
 20
357.0344025763547
 30
0.0
 10
115.9606259193264
 20
358.2000283196723
 30
0.0
 10
115.9530010154734
 20
359.1629264205168
 30
0.0
  0
SPLINE
  5
5B4E
330
A
100
AcDbEntity
  8
DV3_GRIFF_KPL_TRIO
390
1D
100
AcDbSpline
210
0.0
220
0.0
230
1.0
 70
     8
 71
     3
 72
     8
 73
     4
 74
     0
 42
0.000000001
 43
0.0
 40
0.0
 40
0.0
 40
0.0
 40
0.0
 40
1.0
 40
1.0
 40
1.0
 40
1.0
 10
115.9502698419466
 20
352.1719365967757
 30
0.0
 10
115.959702689414
 20
353.1395346070012
 30
0.0
 10
115.8540133247079
 20
354.2932635789862
 30
0.0
 10
115.8487963795918
 20
355.6691452345507
 30
0.0
  0
LINE
  5
5B4F
330
A
100
AcDbEntity
  8
DV3_GRIFF_KPL_TRIO
390
1D
100
AcDbLine
 10
96.44320662356756
 20
371.1691452346155
 30
0.0
 11
96.44320662356756
 21
359.1594311002156
 31
0.0
  0
LINE
  5
5B50
330
A
100
AcDbEntity
  8
DV3_GRIFF_KPL_TRIO
390
1D
100
AcDbLine
 10
96.44320662356756
 20
361.6691452346155
 30
0.0
 11
74.15026668356757
 21
361.6691452346155
 31
0.0
  0
SPLINE
  5
5B51
330
A
100
AcDbEntity
  8
DV3_GRIFF_KPL_TRIO
390
1D
100
AcDbSpline
210
0.0
220
0.0
230
1.0
 70
     8
 71
     3
 72
     9
 73
     5
 74
     0
 42
0.000000001
 43
0.0
 40
0.0
 40
0.0
 40
0.0
 40
0.0
 40
0.5023018347150496
 40
1.0
 40
1.0
 40
1.0
 40
1.0
 10
70.90026668358053
 20
355.6691452345507
 30
0.0
 10
70.90649449369016
 20
354.0158860453709
 30
0.0
 10
71.55545526616163
 20
351.1900052648861
 30
0.0
 10
73.13905555751921
 20
349.6691009281613
 30
0.0
 10
74.15035653748862
 20
349.671115561216
 30
0.0
  0
ARC
  5
5B52
330
A
100
AcDbEntity
  8
DV3_GRIFF_KPL_TRIO
390
1D
100
AcDbCircle
 10
115.4432066235676
 20
348.6691452346155
 30
0.0
 40
0.5
100
AcDbArc
 50
270.0
 51
0.0
  0
ARC
  5
5B69
330
A
100
AcDbEntity
  8
DV2_GRIFF_KPL_TRIO
390
1D
100
AcDbCircle
 10
111.6932066235676
 20
260.799419106716
 30
0.0
 40
0.5
100
AcDbArc
 50
0.0
 51
90.0
  0
LINE
  5
5B6A
330
A
100
AcDbEntity
  8
DV2_GRIFF_KPL_TRIO
390
1D
100
AcDbLine
 10
112.1932066235676
 20
231.4873923913159
 30
0.0
 11
112.1932066235676
 21
260.799419106716
 31
0.0
  0
ARC
  5
5B6B
330
A
100
AcDbEntity
  8
DV2_GRIFF_KPL_TRIO
390
1D
100
AcDbCircle
 10
140.9861465635676
 20
210.0625588275159
 30
0.0
 40
0.5
100
AcDbArc
 50
330.0000000000039
 51
59.99999999999946
  0
LINE
  5
5B6C
330
A
100
AcDbEntity
  8
DV2_GRIFF_KPL_TRIO
390
1D
100
AcDbLine
 10
109.8511867915676
 20
214.7592800417159
 30
0.0
 11
135.2361465635676
 21
200.1032666841159
 31
0.0
  0
LINE
  5
5B6D
330
A
100
AcDbEntity
  8
DV2_GRIFF_KPL_TRIO
390
1D
100
AcDbLine
 10
77.15026668336753
 20
200.1032666841159
 30
0.0
 11
102.5376168675676
 21
214.7606601467159
 31
0.0
  0
ARC
  5
5B6E
330
A
100
AcDbEntity
  8
DV2_GRIFF_KPL_TRIO
390
1D
100
AcDbCircle
 10
71.40026668336753
 20
210.0625588275159
 30
0.0
 40
0.5
100
AcDbArc
 50
120.0000000000006
 51
210.0000000000115
  0
ARC
  5
5B6F
330
A
100
AcDbEntity
  8
DV2_GRIFF_KPL_TRIO
390
1D
100
AcDbCircle
 10
100.6932066235676
 20
260.799419106716
 30
0.0
 40
0.5
100
AcDbArc
 50
90.0
 51
180.0
  0
LINE
  5
5B70
330
A
100
AcDbEntity
  8
DV2_GRIFF_KPL_TRIO
390
1D
100
AcDbLine
 10
100.1932066235676
 20
260.799419106716
 30
0.0
 11
100.1932066235676
 21
231.4846321813159
 31
0.0
  0
ARC
  5
5B71
330
A
100
AcDbEntity
  8
DV2_GRIFF_KPL_TRIO
390
1D
100
AcDbCircle
 10
135.4861465635676
 20
200.5362793859159
 30
0.0
 40
0.5
100
AcDbArc
 50
239.9999999999994
 51
330.0000000000039
  0
LINE
  5
5B72
330
A
100
AcDbEntity
  8
DV2_GRIFF_KPL_TRIO
390
1D
100
AcDbLine
 10
141.2361465635676
 20
210.4955715295159
 30
0.0
 11
115.8487963793677
 21
225.1529649923159
 31
0.0
  0
LINE
  5
5B73
330
A
100
AcDbEntity
  8
DV2_GRIFF_KPL_TRIO
390
1D
100
AcDbLine
 10
100.6932066235676
 20
261.299419106716
 30
0.0
 11
111.6932066235676
 21
261.299419106716
 31
0.0
  0
CIRCLE
  5
5B74
330
A
100
AcDbEntity
  8
DV2_GRIFF_KPL_TRIO
390
1D
100
AcDbCircle
 10
106.1932066235676
 20
223.7994191067159
 30
0.0
 40
9.75
  0
LINE
  5
5B75
330
A
100
AcDbEntity
  8
DV2_GRIFF_KPL_TRIO
390
1D
100
AcDbLine
 10
70.96725398156758
 20
209.8125588275159
 30
0.0
 11
76.46725398156758
 21
200.2862793859159
 31
0.0
  0
LINE
  5
5B76
330
A
100
AcDbEntity
  8
DV2_GRIFF_KPL_TRIO
390
1D
100
AcDbLine
 10
135.9191592653677
 20
200.2862793859159
 30
0.0
 11
141.4191592653677
 21
209.8125588275159
 31
0.0
  0
LINE
  5
5B77
330
A
100
AcDbEntity
  8
DV2_GRIFF_KPL_TRIO
390
1D
100
AcDbLine
 10
96.53522645536754
 20
225.1515848871159
 30
0.0
 11
71.15026668336753
 21
210.4955715295159
 31
0.0
  0
ARC
  5
5B78
330
A
100
AcDbEntity
  8
DV2_GRIFF_KPL_TRIO
390
1D
100
AcDbCircle
 10
76.90026668336753
 20
200.5362793859159
 30
0.0
 40
0.5
100
AcDbArc
 50
210.0000000000115
 51
300.0000000000005
  0
ARC
  5
5B79
330
A
100
AcDbEntity
  8
DV2_GRIFF_-FUHR-
390
1D
100
AcDbCircle
 10
106.1932066235676
 20
223.7994191067159
 30
0.0
 40
15.0
100
AcDbArc
 50
233.5781784781997
 51
306.4218215218003
  0
ARC
  5
5B7A
330
A
100
AcDbEntity
  8
DV2_GRIFF_-FUHR-
390
1D
100
AcDbCircle
 10
106.1932066235676
 20
223.7994191067159
 30
0.0
 40
15.0
100
AcDbArc
 50
113.5781784781999
 51
186.4218215217999
  0
ARC
  5
5B7B
330
A
100
AcDbEntity
  8
DV2_GRIFF_-FUHR-
390
1D
100
AcDbCircle
 10
106.1932066235676
 20
223.7994191067159
 30
0.0
 40
15.0
100
AcDbArc
 50
353.5781784781999
 51
66.4218215218001
  0
ARC
  5
5B7C
330
A
100
AcDbEntity
  8
DV2_ﾃ_ﾌｫﾙﾄ
390
1D
100
AcDbCircle
 10
106.1932066235676
 20
223.7994191067159
 30
0.0
 40
35.0
100
AcDbArc
 50
339.8708896061
 51
80.12911039389992
  0
ARC
  5
5B7D
330
A
100
AcDbEntity
  8
DV2_ﾃ_ﾌｫﾙﾄ
390
1D
100
AcDbCircle
 10
106.1932066235676
 20
223.7994191067159
 30
0.0
 40
35.0
100
AcDbArc
 50
99.87088960610008
 51
200.1291103938999
  0
ARC
  5
5B7E
330
A
100
AcDbEntity
  8
DV2_ﾃ_ﾌｫﾙﾄ
390
1D
100
AcDbCircle
 10
106.1932066235676
 20
223.7994191067159
 30
0.0
 40
35.0
100
AcDbArc
 50
219.8708896060998
 51
320.1291103939
  0
ARC
  5
5B7F
330
A
100
AcDbEntity
  8
DV2_ﾃ_ﾌｫﾙﾄ
390
1D
100
AcDbCircle
 10
106.1932066235676
 20
223.7994191067159
 30
0.0
 40
18.0
100
AcDbArc
 50
349.4712206345
 51
70.52877936550009
  0
ARC
  5
5B80
330
A
100
AcDbEntity
  8
DV2_ﾃ_ﾌｫﾙﾄ
390
1D
100
AcDbCircle
 10
106.1932066235676
 20
223.7994191067159
 30
0.0
 40
18.0
100
AcDbArc
 50
109.4712206345002
 51
190.5287793654999
  0
ARC
  5
5B81
330
A
100
AcDbEntity
  8
DV2_ﾃ_ﾌｫﾙﾄ
390
1D
100
AcDbCircle
 10
106.1932066235676
 20
223.7994191067159
 30
0.0
 40
18.0
100
AcDbArc
 50
229.4712206344997
 51
310.5287793655003
  0
DIMENSION
  5
5B89
330
A
100
AcDbEntity
  8
DIM
 48
0.05
100
AcDbDimension
  2
*D23
 10
49.09153847380463
 20
258.799419106716
 30
0.0
 11
41.18653847380463
 21
223.799419106716
 31
0.0
 70
    32
 71
     5
 42
70.00000000000003
 73
     0
 74
     0
 75
     0
  3
tfrom線あり
100
AcDbAlignedDimension
 13
106.1932066235675
 23
188.7994191067159
 33
0.0
 14
106.1932066235675
 24
258.799419106716
 34
0.0
 50
90.0
100
AcDbRotatedDimension
1001
ACAD
1000
DSTYLE
1002
{
1070
     3
1000
φ<>
1002
}
  0
DIMENSION
  5
5BBA
330
A
100
AcDbEntity
  8
DIM
 48
0.05
100
AcDbDimension
  2
*D24
 10
290.0048248275064
 20
155.1158985382882
 30
0.0
 11
285.0048248275064
 21
155.1158985382882
 31
0.0
 70
   160
 71
     5
 42
10.0
 73
     0
 74
     0
 75
     0
  3
tfrom線あり
100
AcDbAlignedDimension
 13
280.0048248275064
 23
187.4571200624437
 33
0.0
 14
290.0048248275064
 24
194.8321110877037
 34
0.0
100
AcDbRotatedDimension
  0
LINE
  5
5BD4
330
A
100
AcDbEntity
  8
DIM
 48
0.05
100
AcDbLine
 10
224.2617178603779
 20
261.2806020313103
 30
0.0
 11
245.5048248275063
 21
223.8263572134122
 31
0.0
  0
ARC
  5
5BD6
330
A
100
AcDbEntity
  8
MODEL
100
AcDbCircle
 10
100.8932066235677
 20
524.5176649168027
 30
0.0
 40
8.000000000000002
100
AcDbArc
 50
101.8041911250001
 51
179.9999999997003
  0
ARC
  5
5BD7
330
A
100
AcDbEntity
  8
MODEL
100
AcDbCircle
 10
100.8932066235677
 20
524.5176649168027
 30
0.0
 40
8.000000000000815
100
AcDbArc
 50
93.00000000000047
 51
101.8041911250005
  0
LINE
  5
5BD8
330
A
100
AcDbEntity
  8
MODEL
100
AcDbLine
 10
100.4745189736677
 20
532.5067011948026
 30
0.0
 11
106.1932066235677
 21
532.8064049150025
 31
0.0
  0
LINE
  5
5BD9
330
A
100
AcDbEntity
  8
MODEL
100
AcDbLine
 10
111.9118942735677
 20
532.5067011948026
 30
0.0
 11
106.1932066235677
 21
532.8064049150025
 31
0.0
  0
ARC
  5
5BDA
330
A
100
AcDbEntity
  8
MODEL
100
AcDbCircle
 10
111.4927806286677
 20
524.5143858762026
 30
0.0
 40
8.003296845704055
100
AcDbArc
 50
78.1976258308004
 51
86.99818304420016
  0
ARC
  5
5BDB
330
A
100
AcDbEntity
  8
MODEL
100
AcDbCircle
 10
111.4932066235676
 20
524.5176649168027
 30
0.0
 40
8.000000000000009
100
AcDbArc
 50
0.0000000002996337
 51
78.19580887499986
  0
LINE
  5
5BDC
330
A
100
AcDbEntity
  8
MODEL
100
AcDbLine
 10
119.4932066235676
 20
523.9486255377026
 30
0.0
 11
119.4932066235676
 21
524.5176649168027
 31
0.0
  0
LINE
  5
5BDD
330
A
100
AcDbEntity
  8
MODEL
100
AcDbLine
 10
119.4932066235676
 20
509.6628607327027
 30
0.0
 11
119.4932066235676
 21
503.3202969542025
 31
0.0
  0
LINE
  5
5BDE
330
A
100
AcDbEntity
  8
MODEL
100
AcDbLine
 10
119.4932066235676
 20
503.3202722541025
 30
0.0
 11
119.4932066235676
 21
499.7860178480025
 31
0.0
  0
LINE
  5
5BDF
330
A
100
AcDbEntity
  8
MODEL
100
AcDbLine
 10
92.89320662356772
 20
509.6628748589025
 30
0.0
 11
92.89320662356772
 21
503.3202969683027
 31
0.0
  0
LINE
  5
5BE0
330
A
100
AcDbEntity
  8
MODEL
100
AcDbLine
 10
92.89320662356772
 20
503.3202724741026
 30
0.0
 11
92.89320662356772
 21
499.7851334821025
 31
0.0
  0
ARC
  5
5BE1
330
A
100
AcDbEntity
  8
MODEL
100
AcDbCircle
 10
105.0348124167679
 20
1605.657747809203
 30
0.0
 40
1103.607112601119
100
AcDbArc
 50
270.1144937849
 51
270.7035907766
  0
ARC
  5
5BE2
330
A
100
AcDbEntity
  8
MODEL
100
AcDbCircle
 10
106.5959495045678
 20
1492.294502781803
 30
0.0
 40
990.2433415229849
100
AcDbArc
 50
269.2595829423
 51
269.9162012427001
  0
LINE
  5
5BE3
330
A
100
AcDbEntity
  8
MODEL
100
AcDbLine
 10
106.1932066235677
 20
521.3206154320026
 30
0.0
 11
98.28823957476766
 21
521.7348972004027
 31
0.0
  0
LINE
  5
5BE4
330
A
100
AcDbEntity
  8
MODEL
100
AcDbLine
 10
106.1932066235677
 20
519.2789778109027
 30
0.0
 11
106.1932066235677
 21
519.2079725312026
 31
0.0
  0
LINE
  5
5BE5
330
A
100
AcDbEntity
  8
MODEL
100
AcDbLine
 10
98.73474697786764
 20
520.3472860131026
 30
0.0
 11
97.98853471106759
 21
520.3863933409027
 31
0.0
  0
LINE
  5
5BE6
330
A
100
AcDbEntity
  8
MODEL
100
AcDbLine
 10
113.6516662693676
 20
520.3472860131026
 30
0.0
 11
114.3978785360677
 21
520.3863933409027
 31
0.0
  0
LINE
  5
5BE7
330
A
100
AcDbEntity
  8
MODEL
100
AcDbLine
 10
114.0981736723677
 20
521.7348972004027
 30
0.0
 11
106.1932066235677
 21
521.3206154320026
 31
0.0
  0
ARC
  5
5BE8
330
A
100
AcDbEntity
  8
MODEL
100
AcDbCircle
 10
114.2932066235676
 20
522.3836524104026
 30
0.0
 40
2.0
100
AcDbArc
 50
273.0000000000022
 51
283.6774911304018
  0
ARC
  5
5BE9
330
A
100
AcDbEntity
  8
MODEL
100
AcDbCircle
 10
98.09320662356765
 20
522.3836524104026
 30
0.0
 40
2.0
100
AcDbArc
 50
256.278981396
 51
266.9999999999978
  0
LINE
  5
5BEA
330
A
100
AcDbEntity
  8
MODEL
100
AcDbLine
 10
119.4932066235676
 20
518.3021072430026
 30
0.0
 11
120.0932066235677
 21
518.3021072430026
 31
0.0
  0
LINE
  5
5BEB
330
A
100
AcDbEntity
  8
MODEL
100
AcDbLine
 10
119.4932066235676
 20
516.8064049150025
 30
0.0
 11
120.0932066235677
 21
516.8064049150025
 31
0.0
  0
LINE
  5
5BEC
330
A
100
AcDbEntity
  8
MODEL
100
AcDbLine
 10
119.4932066235676
 20
515.3107025869026
 30
0.0
 11
120.0932066235677
 21
515.3107025869026
 31
0.0
  0
LINE
  5
5BED
330
A
100
AcDbEntity
  8
MODEL
100
AcDbLine
 10
119.4932066235676
 20
514.6674043316027
 30
0.0
 11
120.0932066235677
 21
514.6674043316027
 31
0.0
  0
LINE
  5
5BEE
330
A
100
AcDbEntity
  8
MODEL
100
AcDbLine
 10
119.4932066235676
 20
514.3064049150025
 30
0.0
 11
120.0932066235677
 21
514.3064049150025
 31
0.0
  0
LINE
  5
5BEF
330
A
100
AcDbEntity
  8
MODEL
100
AcDbLine
 10
119.4932066235676
 20
518.9454401890025
 30
0.0
 11
120.0932066235677
 21
518.9454401890025
 31
0.0
  0
LINE
  5
5BF0
330
A
100
AcDbEntity
  8
MODEL
100
AcDbLine
 10
119.4932066235676
 20
519.3064049150025
 30
0.0
 11
120.0932066235677
 21
519.3064049150025
 31
0.0
  0
LINE
  5
5BF1
330
A
100
AcDbEntity
  8
MODEL
100
AcDbLine
 10
120.0932066235677
 20
519.3064229245026
 30
0.0
 11
120.0932066235677
 21
518.9454401890025
 31
0.0
  0
LINE
  5
5BF2
330
A
100
AcDbEntity
  8
MODEL
100
AcDbLine
 10
120.0932066235677
 20
518.9454401890025
 30
0.0
 11
120.0932066235677
 21
518.3021072430026
 31
0.0
  0
LINE
  5
5BF3
330
A
100
AcDbEntity
  8
MODEL
100
AcDbLine
 10
120.0932066235677
 20
518.3021072430026
 30
0.0
 11
120.0932066235677
 21
516.8064049150025
 31
0.0
  0
LINE
  5
5BF4
330
A
100
AcDbEntity
  8
MODEL
100
AcDbLine
 10
120.0932066235677
 20
516.8064049150025
 30
0.0
 11
120.0932066235677
 21
515.3107025869026
 31
0.0
  0
LINE
  5
5BF5
330
A
100
AcDbEntity
  8
MODEL
100
AcDbLine
 10
120.0932066235677
 20
515.3107025869026
 30
0.0
 11
120.0932066235677
 21
514.6674043316027
 31
0.0
  0
LINE
  5
5BF6
330
A
100
AcDbEntity
  8
MODEL
100
AcDbLine
 10
120.0932066235677
 20
514.6674043316027
 30
0.0
 11
120.0932066235677
 21
514.3063858951027
 31
0.0
  0
LINE
  5
5BF7
330
A
100
AcDbEntity
  8
MODEL
100
AcDbLine
 10
119.4932066235676
 20
511.0042669986025
 30
0.0
 11
120.0932066235677
 21
511.0042669986025
 31
0.0
  0
LINE
  5
5BF8
330
A
100
AcDbEntity
  8
MODEL
100
AcDbLine
 10
119.4932066235676
 20
509.2668291177026
 30
0.0
 11
120.0932066235677
 21
509.2668291177026
 31
0.0
  0
LINE
  5
5BF9
330
A
100
AcDbEntity
  8
MODEL
100
AcDbLine
 10
119.4932066235676
 20
508.8339591877026
 30
0.0
 11
120.0932066235677
 21
508.8339591877026
 31
0.0
  0
LINE
  5
5BFA
330
A
100
AcDbEntity
  8
MODEL
100
AcDbLine
 10
119.4932066235676
 20
508.6633532253026
 30
0.0
 11
120.0932066235677
 21
508.6633532253026
 31
0.0
  0
LINE
  5
5BFB
330
A
100
AcDbEntity
  8
MODEL
100
AcDbLine
 10
119.4932066235676
 20
511.0045147051025
 30
0.0
 11
120.0932066235677
 21
511.0045147051025
 31
0.0
  0
LINE
  5
5BFC
330
A
100
AcDbEntity
  8
MODEL
100
AcDbLine
 10
120.0932066235677
 20
511.0045324451025
 30
0.0
 11
120.0932066235677
 21
511.0042669986025
 31
0.0
  0
LINE
  5
5BFD
330
A
100
AcDbEntity
  8
MODEL
100
AcDbLine
 10
120.0932066235677
 20
511.0042669986025
 30
0.0
 11
120.0932066235677
 21
510.2580398937025
 31
0.0
  0
LINE
  5
5BFE
330
A
100
AcDbEntity
  8
MODEL
100
AcDbLine
 10
120.0932066235677
 20
510.2580398937025
 30
0.0
 11
120.0932066235677
 21
509.4824078745025
 31
0.0
  0
LINE
  5
5BFF
330
A
100
AcDbEntity
  8
MODEL
100
AcDbLine
 10
120.0932066235677
 20
509.4824078745025
 30
0.0
 11
120.0932066235677
 21
509.2668291177026
 31
0.0
  0
LINE
  5
5C00
330
A
100
AcDbEntity
  8
MODEL
100
AcDbLine
 10
120.0932066235677
 20
509.2668291177026
 30
0.0
 11
120.0932066235677
 21
508.8339591877026
 31
0.0
  0
LINE
  5
5C01
330
A
100
AcDbEntity
  8
MODEL
100
AcDbLine
 10
120.0932066235677
 20
508.8339591877026
 30
0.0
 11
120.0932066235677
 21
508.6633532253026
 31
0.0
  0
LINE
  5
5C02
330
A
100
AcDbEntity
  8
MODEL
100
AcDbLine
 10
120.0932066235677
 20
508.6633532253026
 30
0.0
 11
120.0932066235677
 21
505.8476416507025
 31
0.0
  0
LINE
  5
5C03
330
A
100
AcDbEntity
  8
MODEL
100
AcDbLine
 10
92.89320662356772
 20
512.7380512600025
 30
0.0
 11
92.29320662356758
 21
512.7380512600025
 31
0.0
  0
LINE
  5
5C04
330
A
100
AcDbEntity
  8
MODEL
100
AcDbLine
 10
92.29320662356758
 20
512.7380512600025
 30
0.0
 11
92.29320662356758
 21
513.3286024411027
 31
0.0
  0
LINE
  5
5C05
330
A
100
AcDbEntity
  8
MODEL
100
AcDbLine
 10
92.29320662356758
 20
513.3286024411027
 30
0.0
 11
92.29320662356758
 21
517.3037402319026
 31
0.0
  0
LINE
  5
5C06
330
A
100
AcDbEntity
  8
MODEL
100
AcDbLine
 10
92.29320662356758
 20
517.8942914130025
 30
0.0
 11
92.29320662356758
 21
517.3037354204025
 31
0.0
  0
LINE
  5
5C07
330
A
100
AcDbEntity
  8
MODEL
100
AcDbLine
 10
92.89320662356772
 20
517.8942962249025
 30
0.0
 11
92.29320662356758
 21
517.8942962249025
 31
0.0
  0
LINE
  5
5C08
330
A
100
AcDbEntity
  8
MODEL
100
AcDbLine
 10
92.89320662356772
 20
524.0828495456026
 30
0.0
 11
92.89320662356772
 21
524.5176649168027
 31
0.0
  0
LINE
  5
5C09
330
A
100
AcDbEntity
  8
MODEL
100
AcDbLine
 10
92.89320662356772
 20
524.0846553377025
 30
0.0
 11
92.29320662356758
 21
524.0846553377025
 31
0.0
  0
LINE
  5
5C0A
330
A
100
AcDbEntity
  8
MODEL
100
AcDbLine
 10
92.89320662356772
 20
518.9284280996026
 30
0.0
 11
92.29320662356758
 21
518.9284280996026
 31
0.0
  0
LINE
  5
5C0B
330
A
100
AcDbEntity
  8
MODEL
100
AcDbLine
 10
92.29320662356758
 20
518.9284103731027
 30
0.0
 11
92.29320662356758
 21
519.5681741526025
 31
0.0
  0
LINE
  5
5C0C
330
A
100
AcDbEntity
  8
MODEL
100
AcDbLine
 10
92.29320662356758
 20
519.5681741526025
 30
0.0
 11
92.29320662356758
 21
523.4448860988027
 31
0.0
  0
LINE
  5
5C0D
330
A
100
AcDbEntity
  8
MODEL
100
AcDbLine
 10
92.29320662356758
 20
523.4448860988027
 30
0.0
 11
92.29320662356758
 21
524.0846553377025
 31
0.0
  0
ELLIPSE
  5
5C0E
330
A
100
AcDbEntity
  8
MODEL
100
AcDbEllipse
 10
106.1932066235677
 20
519.9570232655026
 30
0.0
 11
7.45841370995597
 21
0.395752351444616
 31
0.0
210
0.0
220
0.0
230
1.0
 40
0.0906559535
 41
4.707578704172821
 42
6.275085499517159
  0
ELLIPSE
  5
5C0F
330
A
100
AcDbEntity
  8
MODEL
100
AcDbEllipse
 10
106.1932066235677
 20
519.9570232655026
 30
0.0
 11
7.458413709955973
 21
-0.3957523514446193
 31
0.0
210
0.0
220
0.0
230
1.0
 40
0.0906559535
 41
3.149692461254207
 42
4.717199256596558
  0
LINE
  5
5C10
330
A
100
AcDbEntity
  8
MODEL
100
AcDbLine
 10
98.73474697786764
 20
520.3472860131026
 30
0.0
 11
106.1932066235677
 21
519.9564047062026
 31
0.0
  0
LINE
  5
5C11
330
A
100
AcDbEntity
  8
MODEL
100
AcDbLine
 10
106.1932066235677
 20
519.9564047062026
 30
0.0
 11
113.6516662693676
 21
520.3472860131026
 31
0.0
  0
LINE
  5
5C12
330
A
100
AcDbEntity
  8
MODEL
100
AcDbLine
 10
92.90999102826765
 20
514.3968025728027
 30
0.0
 11
92.90999102826765
 21
519.2160072572026
 31
0.0
  0
LINE
  5
5C13
330
A
100
AcDbEntity
  8
MODEL
100
AcDbLine
 10
92.89320662356772
 20
511.8746820105025
 30
0.0
 11
92.89320662356772
 21
521.7381279370027
 31
0.0
  0
ARC
  5
5C14
330
A
100
AcDbEntity
  8
MODEL
100
AcDbCircle
 10
348.9132802015677
 20
511.4320157840027
 30
0.0
 40
256.0204562691462
100
AcDbArc
 50
179.3364843985
 51
179.9009340132001
  0
ARC
  5
5C15
330
A
100
AcDbEntity
  8
MODEL
100
AcDbCircle
 10
348.9132823796676
 20
522.1807940399026
 30
0.0
 40
256.0204584469816
100
AcDbArc
 50
180.0990659582998
 51
180.6635155944998
  0
LINE
  5
5C16
330
A
100
AcDbEntity
  8
MODEL
100
AcDbLine
 10
97.46489078326772
 20
527.1052642009026
 30
0.0
 11
101.6383312046677
 21
529.5147922996027
 31
0.0
  0
LINE
  5
5C17
330
A
100
AcDbEntity
  8
MODEL
100
AcDbLine
 10
95.27224978296772
 20
525.8587278675027
 30
0.0
 11
103.8141880980677
 21
530.7904001353027
 31
0.0
  0
LINE
  5
5C18
330
A
100
AcDbEntity
  8
MODEL
100
AcDbLine
 10
101.6385050197676
 20
504.0979552337025
 30
0.0
 11
97.4647171587676
 21
506.5076927788027
 31
0.0
  0
LINE
  5
5C19
330
A
100
AcDbEntity
  8
MODEL
100
AcDbLine
 10
103.8142765298676
 20
502.8223918943026
 30
0.0
 11
95.27217283446771
 21
507.7541777623025
 31
0.0
  0
LINE
  5
5C1A
330
A
100
AcDbEntity
  8
MODEL
100
AcDbLine
 10
119.4764222189676
 20
519.2160072572026
 30
0.0
 11
119.4764222189676
 21
514.3968025728027
 31
0.0
  0
LINE
  5
5C1B
330
A
100
AcDbEntity
  8
MODEL
100
AcDbLine
 10
119.4932066235676
 20
511.8746835505025
 30
0.0
 11
119.4932066235676
 21
521.7381265146025
 31
0.0
  0
LINE
  5
5C1C
330
A
100
AcDbEntity
  8
MODEL
100
AcDbLine
 10
110.7480820424677
 20
529.5147922996027
 30
0.0
 11
114.9215224639677
 21
527.1052642009026
 31
0.0
  0
LINE
  5
5C1D
330
A
100
AcDbEntity
  8
MODEL
100
AcDbLine
 10
117.1144886160677
 20
525.8585285594027
 30
0.0
 11
108.5719445707676
 21
530.7905596040025
 31
0.0
  0
LINE
  5
5C1E
330
A
100
AcDbEntity
  8
MODEL
100
AcDbLine
 10
114.9216960883676
 20
506.5076927788027
 30
0.0
 11
110.7479082273676
 21
504.0979552337025
 31
0.0
  0
LINE
  5
5C1F
330
A
100
AcDbEntity
  8
MODEL
100
AcDbLine
 10
108.5723081172677
 20
502.8224883291027
 30
0.0
 11
117.1144928122676
 21
507.7543119030026
 31
0.0
  0
LINE
  5
5C20
330
A
100
AcDbEntity
  8
MODEL
100
AcDbLine
 10
118.9932052459676
 20
508.8389714653026
 30
0.0
 11
117.1144928122676
 21
507.7543119030026
 31
0.0
  0
LINE
  5
5C21
330
A
100
AcDbEntity
  8
MODEL
100
AcDbLine
 10
117.1144886160677
 20
525.8585285594027
 30
0.0
 11
118.9932066235676
 21
524.7738386298026
 31
0.0
  0
LINE
  5
5C22
330
A
100
AcDbEntity
  8
MODEL
100
AcDbLine
 10
108.5723081172677
 20
502.8224883291027
 30
0.0
 11
106.1932066235677
 21
501.4489159644026
 31
0.0
  0
LINE
  5
5C23
330
A
100
AcDbEntity
  8
MODEL
100
AcDbLine
 10
106.1932066235677
 20
532.1639220754025
 30
0.0
 11
108.5719445707676
 21
530.7905596040025
 31
0.0
  0
LINE
  5
5C24
330
A
100
AcDbEntity
  8
MODEL
100
AcDbLine
 10
92.89320662356772
 20
521.7381279370027
 30
0.0
 11
92.89320662356772
 21
523.9078403754027
 31
0.0
  0
LINE
  5
5C25
330
A
100
AcDbEntity
  8
MODEL
100
AcDbLine
 10
92.89320662356772
 20
509.7050248138025
 30
0.0
 11
92.89320662356772
 21
511.8746820105025
 31
0.0
  0
ARC
  5
5C26
330
A
100
AcDbEntity
  8
MODEL
100
AcDbCircle
 10
106.1932066235677
 20
516.8064049150025
 30
0.0
 40
13.49999999999955
100
AcDbArc
 50
310.2823475056994
 51
349.7182356784007
  0
ARC
  5
5C27
330
A
100
AcDbEntity
  8
MODEL
100
AcDbCircle
 10
106.1932066235677
 20
516.8064049150025
 30
0.0
 40
13.50000000000039
100
AcDbArc
 50
250.2823475057
 51
289.7176524943
  0
ARC
  5
5C28
330
A
100
AcDbEntity
  8
MODEL
100
AcDbCircle
 10
106.1932066235677
 20
516.8064049150025
 30
0.0
 40
13.50000000000011
100
AcDbArc
 50
190.2817643215998
 51
229.7176524942994
  0
ARC
  5
5C29
330
A
100
AcDbEntity
  8
MODEL
100
AcDbCircle
 10
106.1932066235677
 20
516.8064049150025
 30
0.0
 40
13.50000000000011
100
AcDbArc
 50
130.2813815717003
 51
169.7182356783993
  0
ARC
  5
5C2A
330
A
100
AcDbEntity
  8
MODEL
100
AcDbCircle
 10
106.1932066235677
 20
516.8064049150025
 30
0.0
 40
13.50000000000039
100
AcDbArc
 50
70.28156386189993
 51
109.7184361381001
  0
ARC
  5
5C2B
330
A
100
AcDbEntity
  8
MODEL
100
AcDbCircle
 10
106.1932066235677
 20
516.8064049150025
 30
0.0
 40
13.50000000000011
100
AcDbArc
 50
10.28176432160075
 51
49.71861842829976
  0
ARC
  5
5C2C
330
A
100
AcDbEntity
  8
MODEL
100
AcDbCircle
 10
-10.66379826883235
 20
729.9638098411026
 30
0.0
 40
256.3286028625805
100
AcDbArc
 50
299.336601788
 51
299.9004190516
  0
ARC
  5
5C2D
330
A
100
AcDbEntity
  8
MODEL
100
AcDbCircle
 10
118.4932066235676
 20
509.7049976645025
 30
0.0
 40
0.9999999999999879
100
AcDbArc
 50
299.9999088549101
 51
0.0
  0
LINE
  5
5C2E
330
A
100
AcDbEntity
  8
MODEL
100
AcDbLine
 10
119.4932066235676
 20
509.7049976645025
 30
0.0
 11
119.4932066235676
 21
511.8746835505025
 31
0.0
  0
ARC
  5
5C2F
330
A
100
AcDbEntity
  8
MODEL
100
AcDbCircle
 10
-136.5268384406323
 20
511.4320157034026
 30
0.0
 40
256.0204277582511
100
AcDbArc
 50
0.0990663604999792
 51
0.6635156935000233
  0
ARC
  5
5C30
330
A
100
AcDbEntity
  8
MODEL
100
AcDbCircle
 10
-136.5268427896324
 20
522.1807941142026
 30
0.0
 40
256.0204321067579
100
AcDbArc
 50
359.3364843205998
 51
359.9009336964999
  0
LINE
  5
5C31
330
A
100
AcDbEntity
  8
MODEL
100
AcDbLine
 10
119.4932066235676
 20
521.7381265146025
 30
0.0
 11
119.4932066235676
 21
523.9078132260026
 31
0.0
  0
ARC
  5
5C32
330
A
100
AcDbEntity
  8
MODEL
100
AcDbCircle
 10
118.4932066235676
 20
523.9078132260026
 30
0.0
 40
0.9999999999999877
100
AcDbArc
 50
0.0
 51
59.99999999999409
  0
ARC
  5
5C33
330
A
100
AcDbEntity
  8
MODEL
100
AcDbCircle
 10
-10.36248444783246
 20
304.1828558963027
 30
0.0
 40
255.7156282127
100
AcDbArc
 50
60.09848344879997
 51
60.66369815189994
  0
ARC
  5
5C34
330
A
100
AcDbEntity
  8
MODEL
100
AcDbCircle
 10
-19.79294406843246
 20
309.3385585163026
 30
0.0
 40
255.9658833147647
100
AcDbArc
 50
59.33657995439994
 51
59.90122901359991
  0
LINE
  5
5C35
330
A
100
AcDbEntity
  8
MODEL
100
AcDbLine
 10
106.1932066235677
 20
532.1639220754025
 30
0.0
 11
103.8141880980677
 21
530.7904001353027
 31
0.0
  0
ARC
  5
5C36
330
A
100
AcDbEntity
  8
MODEL
100
AcDbCircle
 10
232.2120133943677
 20
309.2834058654026
 30
0.0
 40
256.0299788136598
100
AcDbArc
 50
120.0989761751
 51
120.6634116602
  0
ARC
  5
5C37
330
A
100
AcDbEntity
  8
MODEL
100
AcDbCircle
 10
222.9033127496677
 20
303.9090498168027
 30
0.0
 40
256.0299744576896
100
AcDbArc
 50
119.3364060355
 51
119.9008414776
  0
LINE
  5
5C38
330
A
100
AcDbEntity
  8
MODEL
100
AcDbLine
 10
95.27224978296772
 20
525.8587278675027
 30
0.0
 11
93.39320800126768
 21
524.7738665745026
 31
0.0
  0
ARC
  5
5C39
330
A
100
AcDbEntity
  8
MODEL
100
AcDbCircle
 10
93.89320662356772
 20
523.9078403754027
 30
0.0
 40
0.9999999999999809
100
AcDbArc
 50
119.9999088549101
 51
180.0
  0
ARC
  5
5C3A
330
A
100
AcDbEntity
  8
MODEL
100
AcDbCircle
 10
93.89320662356772
 20
509.7050248138025
 30
0.0
 40
0.9999999999999775
100
AcDbArc
 50
180.0
 51
239.9999999999974
  0
LINE
  5
5C3B
330
A
100
AcDbEntity
  8
MODEL
100
AcDbLine
 10
93.39320662356772
 20
508.8389994100025
 30
0.0
 11
95.27217283446771
 21
507.7541777623025
 31
0.0
  0
ARC
  5
5C3C
330
A
100
AcDbEntity
  8
MODEL
100
AcDbCircle
 10
222.8914850177678
 20
729.6826522715025
 30
0.0
 40
256.0057355609477
100
AcDbArc
 50
240.0990727271
 51
240.6635371213
  0
ARC
  5
5C3D
330
A
100
AcDbEntity
  8
MODEL
100
AcDbCircle
 10
232.1980786240676
 20
724.3044084869025
 30
0.0
 40
256.001336547441
100
AcDbArc
 50
239.3364585589999
 51
239.900935673
  0
LINE
  5
5C3E
330
A
100
AcDbEntity
  8
MODEL
100
AcDbLine
 10
103.8142765298676
 20
502.8223918943026
 30
0.0
 11
106.1932066235677
 21
501.4489159644026
 31
0.0
  0
ARC
  5
5C3F
330
A
100
AcDbEntity
  8
MODEL
100
AcDbCircle
 10
-19.84553082463231
 20
724.3616669156027
 30
0.0
 40
256.0678601607302
100
AcDbArc
 50
300.0992390238
 51
300.6635254936
  0
ARC
  5
5C40
330
A
100
AcDbEntity
  8
MODEL
100
AcDbCircle
 10
110.0001957215677
 20
479.2647658494026
 30
0.0
 40
30.03217319559116
100
AcDbArc
 50
91.22661609070012
 51
97.28261808830021
  0
SPLINE
  5
5C41
330
A
100
AcDbEntity
  8
MODEL
100
AcDbSpline
210
0.0
220
0.0
230
1.0
 70
     8
 71
     3
 72
    14
 73
    10
 74
     0
 42
0.000000001
 43
0.0000000001
 40
0.0
 40
0.0
 40
0.0
 40
0.0
 40
0.2499999999999997
 40
0.2499999999999997
 40
0.4999999999999998
 40
0.4999999999999998
 40
0.7499999999999999
 40
0.7499999999999999
 40
0.9007569234906664
 40
0.9007569234906664
 40
0.9007569234906664
 40
0.9007569234906664
 10
109.3573013703914
 20
509.2900570836456
 30
0.0
 10
109.6175818492993
 20
509.2760093034705
 30
0.0
 10
109.8728028981868
 20
509.257546864969
 30
0.0
 10
110.3690307141107
 20
509.2255795283963
 30
0.0
 10
110.6107986674137
 20
509.2119324367874
 30
0.0
 10
111.0740954307844
 20
509.213780707445
 30
0.0
 10
111.2851319377146
 20
509.2294513720871
 30
0.0
 10
111.5903228866187
 20
509.2991651236181
 30
0.0
 10
111.6948304966422
 20
509.3349985273023
 30
0.0
 10
111.7891724386363
 20
509.3825531742822
 30
0.0
  0
SPLINE
  5
5C42
330
A
100
AcDbEntity
  8
MODEL
100
AcDbSpline
210
0.0
220
0.0
230
1.0
 70
     8
 71
     3
 72
    14
 73
    10
 74
     0
 42
0.000000001
 43
0.0000000001
 40
0.0997640360942595
 40
0.0997640360942595
 40
0.0997640360942595
 40
0.0997640360942595
 40
0.25
 40
0.25
 40
0.5
 40
0.5
 40
0.75
 40
0.75
 40
1.0
 40
1.0
 40
1.0
 40
1.0
 10
100.597060814392
 20
509.3825880612368
 30
0.0
 10
100.6904339959545
 20
509.3354871927999
 30
0.0
 10
100.7937997651277
 20
509.2999123441556
 30
0.0
 10
101.0972792147065
 20
509.2300010386168
 30
0.0
 10
101.3076753343552
 20
509.2140543626141
 30
0.0
 10
101.7687010333407
 20
509.2117111879144
 30
0.0
 10
102.0097317901359
 20
509.2251261618682
 30
0.0
 10
102.509480022662
 20
509.2572422025405
 30
0.0
 10
102.7686785222072
 20
509.27600105251
 30
0.0
 10
103.0291118767966
 20
509.2900570836456
 30
0.0
  0
ARC
  5
5C43
330
A
100
AcDbEntity
  8
MODEL
100
AcDbCircle
 10
102.3874905200677
 20
479.2818773999026
 30
0.0
 40
30.01503832911427
100
AcDbArc
 50
82.71565168590003
 51
88.7751141352
  0
CIRCLE
  5
5C44
330
A
100
AcDbEntity
  8
MODEL
100
AcDbCircle
 10
106.1932066235677
 20
516.8064049150025
 30
0.0
 40
10.5155
  0
CIRCLE
  5
5C45
330
A
100
AcDbEntity
  8
MODEL
100
AcDbCircle
 10
106.1932066235677
 20
516.8064049150025
 30
0.0
 40
9.3155
  0
LINE
  5
5C46
330
A
100
AcDbEntity
  8
MODEL
100
AcDbLine
 10
119.4932066235676
 20
505.8459216778026
 30
0.0
 11
120.0932066235677
 21
505.8459216778026
 31
0.0
  0
LINE
  5
5C47
330
A
100
AcDbEntity
  8
MODEL
100
AcDbLine
 10
120.0932066235677
 20
511.0047721774026
 30
0.0
 11
119.4932066235676
 21
511.0047721774026
 31
0.0
  0
LINE
  5
5C48
330
A
100
AcDbEntity
  8
MODEL
100
AcDbLine
 10
119.4932066235676
 20
505.8476416497026
 30
0.0
 11
120.0932066235677
 21
505.8476416497026
 31
0.0
  0
LINE
  5
5C49
330
A
100
AcDbEntity
  8
MODEL
100
AcDbLine
 10
92.89320662356772
 20
517.8942962246026
 30
0.0
 11
92.29320662356758
 21
517.8942962246026
 31
0.0
  0
LINE
  5
5C4A
330
A
100
AcDbEntity
  8
MODEL
100
AcDbLine
 10
92.89320662356772
 20
517.9224637700027
 30
0.0
 11
92.29320662356758
 21
517.9224637700027
 31
0.0
  0
LINE
  5
5C4B
330
A
100
AcDbEntity
  8
MODEL
100
AcDbLine
 10
110.2935040278676
 20
519.6064049150027
 30
0.0
 11
102.0929092192677
 21
519.6064049150027
 31
0.0
  0
SPLINE
  5
5C4C
330
A
100
AcDbEntity
  8
MODEL
100
AcDbSpline
210
0.0
220
0.0
230
1.0
 70
     8
 71
     3
 72
    14
 73
    10
 74
     0
 42
0.000000001
 43
0.0000000001
 40
0.0
 40
0.0
 40
0.0
 40
0.0
 40
1.0
 40
1.0
 40
1.0
 40
2.0
 40
2.0
 40
2.0
 40
2.501267429837579
 40
2.501267429837579
 40
2.501267429837579
 40
2.501267429837579
 10
116.931869157688
 20
484.6979138394997
 30
0.0
 10
116.931869157688
 20
484.6979138394997
 30
0.0
 10
117.9081112062445
 20
484.6979138394997
 30
0.0
 10
117.9081112062445
 20
484.6979138394997
 30
0.0
 10
117.9081112062445
 20
484.6979138394997
 30
0.0
 10
117.9081112062445
 20
480.8816949224156
 30
0.0
 10
117.9081112062445
 20
480.8816949224156
 30
0.0
 10
117.9081112062445
 20
480.8816949224156
 30
0.0
 10
112.0432255838741
 20
480.8816949224156
 30
0.0
 10
106.1932066235676
 20
480.8816949224156
 30
0.0
  0
POLYLINE
  5
5C4D
330
A
100
AcDbEntity
  8
MODEL
100
AcDb2dPolyline
 66
     1
 10
0.0
 20
0.0
 30
0.0
  0
VERTEX
  5
5C4E
330
5C4D
100
AcDbEntity
  8
MODEL
100
AcDbVertex
100
AcDb2dVertex
 10
118.2631083148103
 20
489.1353776965743
 30
0.0
  0
VERTEX
  5
5C4F
330
5C4D
100
AcDbEntity
  8
MODEL
100
AcDbVertex
100
AcDb2dVertex
 10
118.2631083148103
 20
486.2066515509051
 30
0.0
  0
VERTEX
  5
5C50
330
5C4D
100
AcDbEntity
  8
MODEL
100
AcDbVertex
100
AcDb2dVertex
 10
106.1932066235677
 20
486.2066515509051
 30
0.0
  0
SEQEND
  5
5C51
330
5C4D
100
AcDbEntity
  8
MODEL
  0
POLYLINE
  5
5C52
330
A
100
AcDbEntity
  8
MODEL
100
AcDb2dPolyline
 66
     1
 10
0.0
 20
0.0
 30
0.0
  0
VERTEX
  5
5C53
330
5C52
100
AcDbEntity
  8
MODEL
100
AcDbVertex
100
AcDb2dVertex
 10
116.931869157688
 20
486.2066515509051
 30
0.0
  0
VERTEX
  5
5C54
330
5C52
100
AcDbEntity
  8
MODEL
100
AcDbVertex
100
AcDb2dVertex
 10
116.931869157688
 20
484.6979138394997
 30
0.0
  0
VERTEX
  5
5C55
330
5C52
100
AcDbEntity
  8
MODEL
100
AcDbVertex
100
AcDb2dVertex
 10
106.1932066235677
 20
484.6979138394997
 30
0.0
  0
SEQEND
  5
5C56
330
5C52
100
AcDbEntity
  8
MODEL
  0
LINE
  5
5C57
330
A
100
AcDbEntity
  8
MODEL
100
AcDbLine
 10
119.4932066235676
 20
499.7860178480025
 30
0.0
 11
118.7956039776593
 21
489.1353776965743
 31
0.0
  0
LINE
  5
5C58
330
A
100
AcDbEntity
  8
MODEL
100
AcDbLine
 10
118.7956039776593
 20
489.1353776965743
 30
0.0
 11
106.1932066235677
 21
489.1353776965743
 31
0.0
  0
SPLINE
  5
5C59
330
A
100
AcDbEntity
  8
MODEL
100
AcDbSpline
210
0.0
220
0.0
230
1.0
 70
     8
 71
     3
 72
    14
 73
    10
 74
     0
 42
0.000000001
 43
0.0000000001
 40
0.0
 40
0.0
 40
0.0
 40
0.0
 40
1.0
 40
1.0
 40
1.0
 40
2.0
 40
2.0
 40
2.0
 40
2.501267429837579
 40
2.501267429837579
 40
2.501267429837579
 40
2.501267429837579
 10
95.45454408944715
 20
484.6979138394997
 30
0.0
 10
95.45454408944715
 20
484.6979138394997
 30
0.0
 10
94.47830204089064
 20
484.6979138394997
 30
0.0
 10
94.47830204089064
 20
484.6979138394997
 30
0.0
 10
94.47830204089064
 20
484.6979138394997
 30
0.0
 10
94.47830204089064
 20
480.8816949224156
 30
0.0
 10
94.47830204089064
 20
480.8816949224156
 30
0.0
 10
94.47830204089064
 20
480.8816949224156
 30
0.0
 10
100.343187663261
 20
480.8816949224156
 30
0.0
 10
106.1932066235676
 20
480.8816949224156
 30
0.0
  0
POLYLINE
  5
5C5A
330
A
100
AcDbEntity
  8
MODEL
100
AcDb2dPolyline
 66
     1
 10
0.0
 20
0.0
 30
0.0
  0
VERTEX
  5
5C5B
330
5C5A
100
AcDbEntity
  8
MODEL
100
AcDbVertex
100
AcDb2dVertex
 10
94.1233049323248
 20
489.1353776965743
 30
0.0
  0
VERTEX
  5
5C5C
330
5C5A
100
AcDbEntity
  8
MODEL
100
AcDbVertex
100
AcDb2dVertex
 10
94.1233049323248
 20
486.2066515509051
 30
0.0
  0
VERTEX
  5
5C5D
330
5C5A
100
AcDbEntity
  8
MODEL
100
AcDbVertex
100
AcDb2dVertex
 10
106.1932066235674
 20
486.2066515509051
 30
0.0
  0
SEQEND
  5
5C5E
330
5C5A
100
AcDbEntity
  8
MODEL
  0
POLYLINE
  5
5C5F
330
A
100
AcDbEntity
  8
MODEL
100
AcDb2dPolyline
 66
     1
 10
0.0
 20
0.0
 30
0.0
  0
VERTEX
  5
5C60
330
5C5F
100
AcDbEntity
  8
MODEL
100
AcDbVertex
100
AcDb2dVertex
 10
95.45454408944715
 20
486.2066515509051
 30
0.0
  0
VERTEX
  5
5C61
330
5C5F
100
AcDbEntity
  8
MODEL
100
AcDbVertex
100
AcDb2dVertex
 10
95.45454408944715
 20
484.6979138394997
 30
0.0
  0
VERTEX
  5
5C62
330
5C5F
100
AcDbEntity
  8
MODEL
100
AcDbVertex
100
AcDb2dVertex
 10
106.1932066235674
 20
484.6979138394997
 30
0.0
  0
SEQEND
  5
5C63
330
5C5F
100
AcDbEntity
  8
MODEL
  0
LINE
  5
5C64
330
A
100
AcDbEntity
  8
MODEL
100
AcDbLine
 10
92.8932066235675
 20
499.7860178480025
 30
0.0
 11
93.59080926947581
 21
489.1353776965743
 31
0.0
  0
LINE
  5
5C65
330
A
100
AcDbEntity
  8
MODEL
100
AcDbLine
 10
93.59080926947581
 20
489.1353776965743
 30
0.0
 11
106.1932066235674
 21
489.1353776965743
 31
0.0
  0
DIMENSION
  5
5D13
330
A
100
AcDbEntity
  8
DIM
 48
0.05
100
AcDbDimension
  2
*D31
 10
214.7568750467261
 20
268.5547273830849
 30
0.0
 11
204.2568750467261
 21
268.5547273830849
 31
0.0
 70
   160
  1
G1/2"
 71
     5
 42
21.0
 73
     0
 74
     0
 75
     0
  3
tfrom線あり
100
AcDbAlignedDimension
 13
193.7568750467261
 23
255.3978977958326
 33
0.0
 14
214.7568750467261
 24
255.3978977958326
 34
0.0
100
AcDbRotatedDimension
  0
LINE
  5
5D14
330
A
100
AcDbEntity
  8
MODEL
  6
HIDDEN
 48
0.009
100
AcDbLine
 10
214.7568750467261
 20
255.2893627204683
 30
0.0
 11
214.7568750467261
 21
243.9269795241699
 31
0.0
  0
LINE
  5
5D15
330
A
100
AcDbEntity
  8
MODEL
  6
HIDDEN
 48
0.009
100
AcDbLine
 10
193.7568750467261
 20
255.2893627204683
 30
0.0
 11
193.7568750467261
 21
243.9269795241699
 31
0.0
  0
LINE
  5
5D16
330
A
100
AcDbEntity
  8
MODEL
  6
HIDDEN
 48
0.009
100
AcDbLine
 10
193.7568750467261
 20
190.2893627204683
 30
0.0
 11
193.7568750467261
 21
201.6517459167667
 31
0.0
  0
LINE
  5
5D17
330
A
100
AcDbEntity
  8
MODEL
  6
HIDDEN
 48
0.009
100
AcDbLine
 10
214.7568750467261
 20
190.2893627204683
 30
0.0
 11
214.7568750467261
 21
201.6517459167667
 31
0.0
  0
DIMENSION
  5
5D18
330
A
100
AcDbEntity
  8
DIM
 48
0.05
100
AcDbDimension
  2
*D32
 10
214.7568750467261
 20
170.2695176278678
 30
0.0
 11
204.2568750467261
 21
170.2695176278678
 31
0.0
 70
   160
  1
G1/2"
 71
     5
 42
21.0
 73
     0
 74
     0
 75
     0
 52
-90.0
  3
tfrom線あり
100
AcDbAlignedDimension
 13
193.7568750467261
 23
190.180827645104
 33
0.0
 14
214.7568750467261
 24
190.180827645104
 34
0.0
100
AcDbRotatedDimension
  0
DIMENSION
  5
5D3D
102
{ACAD_REACTORS
330
5D3F
102
}
102
{ACAD_XDICTIONARY
360
5D3E
102
}
330
A
100
AcDbEntity
  8
DIM
 48
0.05
100
AcDbDimension
  2
*D33
 10
204.2568750467261
 20
134.5526311420444
 30
0.0
 11
242.1308499371162
 21
142.0526311420444
 31
0.0
 70
    32
  1
32-67
 71
     5
 42
75.74794978078032
 73
     0
 74
     0
 75
     0
  3
tfrom線あり
100
AcDbAlignedDimension
 13
280.0048248275064
 23
148.1379816285461
 33
0.0
 14
204.2568750467261
 24
170.2695176278678
 34
0.0
100
AcDbRotatedDimension
  0
VIEWPORT
  5
349
330
B
100
AcDbEntity
 67
     1
  8
0
100
AcDbViewport
 10
202.5
 20
128.5
 30
0.0
 40
486.0
 41
308.4
 68
     1
 69
     1
 12
202.5
 22
128.5
 13
0.0
 23
0.0
 14
0.5
 24
0.5
 15
0.0
 25
0.0
 16
0.0
 26
0.0
 36
1.0
 17
0.0
 27
0.0
 37
0.0
 42
50.0
 43
0.0
 44
0.0
 45
308.4
 50
0.0
 51
0.0
 72
   100
 90
   557152
  1

281
     0
 71
     1
 74
     0
110
0.0
120
0.0
130
0.0
111
1.0
121
0.0
131
0.0
112
0.0
122
1.0
132
0.0
 79
     0
146
0.0
170
     0
 61
     5
348
26C
292
     1
282
     1
141
0.0
142
0.0
 63
   256
  0
VIEWPORT
  5
34A
330
B
100
AcDbEntity
 67
     1
  8
0
100
AcDbViewport
 10
202.5
 20
128.5
 30
0.0
 40
324.0
 41
205.6
 68
     2
 69
     2
 12
986.6781359294573
 22
1427.077061889956
 13
0.0
 23
0.0
 14
0.5
 24
0.5
 15
0.0
 25
0.0
 16
0.0
 26
0.0
 36
1.0
 17
0.0
 27
0.0
 37
0.0
 42
50.0
 43
0.0
 44
0.0
 45
2890.021615685494
 50
0.0
 51
0.0
 72
   100
 90
   557152
  1

281
     0
 71
     1
 74
     0
110
0.0
120
0.0
130
0.0
111
1.0
121
0.0
131
0.0
112
0.0
122
1.0
132
0.0
 79
     0
146
0.0
170
     0
 61
     5
348
26C
292
     1
282
     1
141
0.0
142
0.0
 63
   256
  0
ENDSEC
  0
SECTION
  2
OBJECTS
  0
DICTIONARY
  5
19
330
0
100
AcDbDictionary
281
     1
  3
ACAD_COLOR
350
674
  3
ACAD_DETAILVIEWSTYLE
350
BBF
  3
ACAD_FIELDLIST
350
44C1
  3
ACAD_GROUP
350
1A
  3
ACAD_IMAGE_VARS
350
27B
  3
ACAD_LAYOUT
350
1E
  3
ACAD_MATERIAL
350
263
  3
ACAD_MLEADERSTYLE
350
336
  3
ACAD_MLINESTYLE
350
1B
  3
ACAD_PLOTSETTINGS
350
22
  3
ACAD_PLOTSTYLENAME
350
1F
  3
ACAD_SCALELIST
350
241
  3
ACAD_SECTIONVIEWSTYLE
350
BC0
  3
ACAD_TABLESTYLE
350
278
  3
ACAD_VISUALSTYLE
350
267
  3
ACDB_RECOMPOSE_DATA
350
5D9A
  3
AcDbVariableDictionary
350
330
  3
APPDATA
350
27A
  3
DimOffsetDictionary
350
E38
  0
SUN
  5
904
330
15
100
AcDbSun
 90
        1
290
     0
 63
     7
421
 16777215
 40
1.0
291
     1
 91
  2455826
 92
 54000000
292
     0
 70
     2
 71
   256
280
     1
  0
DICTIONARY
  5
2E1
330
2
100
AcDbDictionary
280
     1
281
     1
  3
ACAD_LAYERSTATES
360
2E2
  3
ACLYDICTIONARY
360
DDE
  0
DICTIONARY
  5
4532
330
4530
100
AcDbDictionary
280
     1
281
     1
  3
ACAD_FIELD
360
4539
  0
DICTIONARY
  5
5D3E
330
5D3D
100
AcDbDictionary
280
     1
281
     1
  3
ACAD_DIMASSOC
360
5D3F
  0
DICTIONARY
  5
674
102
{ACAD_REACTORS
330
19
102
}
330
19
100
AcDbDictionary
281
     1
  0
DICTIONARY
  5
BBF
102
{ACAD_REACTORS
330
19
102
}
330
19
100
AcDbDictionary
281
     1
  0
FIELDLIST
  5
44C1
102
{ACAD_REACTORS
330
19
102
}
330
19
100
AcDbIdSet
 90
        2
330
4534
330
4531
100
AcDbFieldList
  0
DICTIONARY
  5
1A
102
{ACAD_REACTORS
330
19
102
}
330
19
100
AcDbDictionary
281
     1
  0
RASTERVARIABLES
  5
27B
102
{ACAD_REACTORS
330
19
102
}
330
19
100
AcDbRasterVariables
 90
        0
 70
     1
 71
     1
 72
     1
  0
DICTIONARY
  5
1E
102
{ACAD_REACTORS
330
19
102
}
330
19
100
AcDbDictionary
281
     1
  3
Layout1
350
21
  3
Model
350
20
  0
DICTIONARY
  5
263
102
{ACAD_REACTORS
330
19
102
}
330
19
100
AcDbDictionary
281
     1
  3
ByBlock
350
50F9
  3
ByLayer
350
264
  3
Global
350
266
  0
DICTIONARY
  5
336
102
{ACAD_REACTORS
330
19
102
}
330
19
100
AcDbDictionary
281
     1
  3
Standard
350
D59
  0
DICTIONARY
  5
1B
102
{ACAD_REACTORS
330
19
102
}
330
19
100
AcDbDictionary
281
     1
  3
Standard
350
1C
  0
DICTIONARY
  5
22
102
{ACAD_REACTORS
330
19
102
}
330
19
100
AcDbDictionary
281
     1
  0
ACDBDICTIONARYWDFLT
  5
1F
102
{ACAD_REACTORS
330
19
102
}
330
19
100
AcDbDictionary
281
     1
  3
Normal
350
1D
100
AcDbDictionaryWithDefault
340
1D
  0
DICTIONARY
  5
241
102
{ACAD_REACTORS
330
19
102
}
330
19
100
AcDbDictionary
281
     1
  3
A0
350
242
  3
A1
350
243
  3
A2
350
244
  3
A3
350
245
  3
A4
350
246
  3
A5
350
247
  3
A6
350
248
  3
A7
350
249
  3
A8
350
24A
  3
A9
350
24B
  3
B0
350
24C
  3
B1
350
24D
  3
B2
350
24E
  3
B3
350
24F
  3
B4
350
250
  3
B5
350
251
  3
B6
350
252
  3
B7
350
253
  3
B8
350
254
  3
B9
350
255
  3
C0
350
256
  3
C1
350
257
  3
C2
350
258
  3
C3
350
259
  3
C4
350
25A
  3
C5
350
25B
  3
C6
350
25C
  3
C7
350
25D
  3
C8
350
25E
  3
C9
350
25F
  3
D0
350
260
  3
D1
350
261
  3
D2
350
262
  0
DICTIONARY
  5
BC0
102
{ACAD_REACTORS
330
19
102
}
330
19
100
AcDbDictionary
281
     1
  0
DICTIONARY
  5
278
102
{ACAD_REACTORS
330
19
102
}
330
19
100
AcDbDictionary
281
     1
  3
Standard
350
279
  0
DICTIONARY
  5
267
102
{ACAD_REACTORS
330
19
102
}
330
19
100
AcDbDictionary
281
     1
  3
2dWireframe
350
26C
  3
3D Hidden
350
26E
  3
3dWireframe
350
26D
  3
Basic
350
26F
  3
Brighten
350
273
  3
ColorChange
350
277
  3
Conceptual
350
271
  3
Dim
350
272
  3
EdgeColorOff
350
8FE
  3
Facepattern
350
276
  3
Flat
350
268
  3
FlatWithEdges
350
269
  3
Gouraud
350
26A
  3
GouraudWithEdges
350
26B
  3
Hidden
350
8FB
  3
JitterOff
350
8FC
  3
Linepattern
350
275
  3
OverhangOff
350
8FD
  3
Realistic
350
270
  3
Shaded
350
903
  3
Shaded with edges
350
902
  3
Shades of Gray
350
8FF
  3
Sketchy
350
900
  3
Thicken
350
274
  3
Wireframe
350
8FA
  3
X-Ray
350
901
  0
XRECORD
  5
5D9A
102
{ACAD_REACTORS
330
19
102
}
330
19
100
AcDbXrecord
280
     1
 90
        1
330
279
  0
DICTIONARY
  5
330
102
{ACAD_REACTORS
330
19
102
}
330
19
100
AcDbDictionary
281
     1
  3
CANNOSCALE
350
331
  3
CMLEADERSTYLE
350
D5E
  3
CTABLESTYLE
350
335
  3
HPTRANSPARENCY
350
D52
  3
XCLIPFRAME
350
896
  0
DICTIONARY
  5
27A
102
{ACAD_REACTORS
330
19
102
}
330
19
100
AcDbDictionary
281
     1
  0
DICTIONARY
  5
E38
102
{ACAD_REACTORS
330
19
102
}
330
19
100
AcDbDictionary
281
     1
  3
DIMRAILANGLE
350
38B2
  3
DIMRAILFIRSTOFFSET
350
38B0
  3
DIMRAILOFFSET
350
38B1
  3
DIMRAILSENABLED
350
38B3
  0
DICTIONARY
  5
2E2
102
{ACAD_REACTORS
330
2E1
102
}
330
2E1
100
AcDbDictionary
281
     1
  3
ARGON_LAYERP_9
350
7AA
  0
DICTIONARY
  5
DDE
102
{ACAD_REACTORS
330
2E1
102
}
330
2E1
100
AcDbDictionary
281
     1
1001
ACAD
1000
<All
  0
DICTIONARY
  5
4539
102
{ACAD_REACTORS
330
4532
102
}
330
4532
100
AcDbDictionary
280
     1
281
     1
  3
TEXT
360
4531
  0
DIMASSOC
  5
5D3F
102
{ACAD_REACTORS
330
5D3E
102
}
330
5D3E
100
AcDbDimAssoc
330
5D3D
 90
        1
 70
     0
 71
     1
  1
AcDbOsnapPointRef
 72
    13
331
3755
 73
     0
 91
        0
 40
0.0
 10
0.0
 20
0.0
 30
0.0
 75
     0
  0
LAYOUT
  5
21
102
{ACAD_REACTORS
330
1E
102
}
330
1E
100
AcDbPlotSettings
  1

  2
none_device
  4
ISO_A3_(420.00_x_297.00_MM)
  6

 40
7.5
 41
20.0
 42
7.5
 43
20.0
 44
420.0
 45
297.0
 46
0.0
 47
0.0
 48
0.0
 49
0.0
140
0.0
141
0.0
142
1.0
143
1.0
 70
     0
 72
     1
 73
     0
 74
     0
  7

 75
     0
 76
     0
 77
     2
 78
   300
147
1.0
148
0.0
149
0.0
100
AcDbLayout
  1
Layout1
 70
     0
 71
     0
 10
-7.5
 20
-20.0
 11
412.5
 21
277.0
 12
0.0
 22
0.0
 32
0.0
 14
0.0
 24
0.0
 34
0.0
 15
0.0
 25
0.0
 35
0.0
146
0.0
 13
0.0
 23
0.0
 33
0.0
 16
0.0
 26
0.0
 36
0.0
 17
0.0
 27
0.0
 37
0.0
 76
     0
330
B
331
349
  0
LAYOUT
  5
20
102
{ACAD_REACTORS
330
1E
102
}
330
1E
100
AcDbPlotSettings
  1

  2
none_device
  4
ISO_A3_(420.00_x_297.00_MM)
  6

 40
7.5
 41
20.0
 42
7.5
 43
20.0
 44
420.0
 45
297.0
 46
0.0
 47
0.0
 48
0.0
 49
0.0
140
0.0
141
0.0
142
1.0
143
1.0
 70
  1024
 72
     1
 73
     0
 74
     0
  7

 75
     0
 76
     0
 77
     2
 78
   300
147
1.0
148
0.0
149
0.0
100
AcDbLayout
  1
Model
 70
     0
 71
     1
 10
0.0
 20
0.0
 11
420.0
 21
594.0
 12
0.0
 22
0.0
 32
0.0
 14
0.0
 24
0.0
 34
-0.0000000000000142
 15
420.0
 25
594.0
 35
0.0000000000000142
146
0.0
 13
0.0
 23
0.0
 33
0.0
 16
0.0
 26
0.0
 36
0.0
 17
0.0
 27
0.0
 37
0.0
 76
     0
330
A
331
15
  0
MATERIAL
  5
50F9
102
{ACAD_REACTORS
330
263
102
}
330
263
100
AcDbMaterial
  1
ByBlock
 72
     1
 94
      127
  0
MATERIAL
  5
264
102
{ACAD_REACTORS
330
263
102
}
330
263
100
AcDbMaterial
  1
ByLayer
 72
     1
 94
      127
  0
MATERIAL
  5
266
102
{ACAD_REACTORS
330
263
102
}
330
263
100
AcDbMaterial
  1
Global
 72
     1
 94
      127
  0
MLEADERSTYLE
  5
D59
102
{ACAD_REACTORS
330
336
102
}
330
336
100
AcDbMLeaderStyle
170
     2
171
     1
172
     0
 90
        2
 40
0.0
 41
0.0
173
     1
 91
-1056964608
340
11
 92
       -2
290
     1
 42
2.0
291
     1
 43
8.0
  3
Standard
341
0
 44
4.0
300

342
17
174
     1
178
     6
175
     1
176
     0
 93
-1056964608
 45
4.0
292
     0
297
     0
 46
4.0
343
0
 94
-1056964608
 47
1.0
 49
1.0
140
1.0
293
     1
141
0.0
294
     1
177
     0
142
1.0
295
     0
296
     0
143
3.75
1001
ACAD_MLEADERVER
1070
     2
  0
MLINESTYLE
  5
1C
102
{ACAD_REACTORS
330
1B
102
}
330
1B
100
AcDbMlineStyle
  2
Standard
 70
     0
  3

 62
     0
 51
90.0
 52
90.0
 71
     2
 49
0.5
 62
   256
  6
BYLAYER
 49
-0.5
 62
   256
  6
BYLAYER
  0
ACDBPLACEHOLDER
  5
1D
102
{ACAD_REACTORS
330
1F
102
}
330
1F
  0
SCALE
  5
242
102
{ACAD_REACTORS
330
241
102
}
330
241
100
AcDbScale
 70
     0
300
1:1
140
1.0
141
1.0
290
     1
  0
SCALE
  5
243
102
{ACAD_REACTORS
330
241
102
}
330
241
100
AcDbScale
 70
     0
300
1:2
140
1.0
141
2.0
290
     0
  0
SCALE
  5
244
102
{ACAD_REACTORS
330
241
102
}
330
241
100
AcDbScale
 70
     0
300
1:4
140
1.0
141
4.0
290
     0
  0
SCALE
  5
245
102
{ACAD_REACTORS
330
241
102
}
330
241
100
AcDbScale
 70
     0
300
1:5
140
1.0
141
5.0
290
     0
  0
SCALE
  5
246
102
{ACAD_REACTORS
330
241
102
}
330
241
100
AcDbScale
 70
     0
300
1:8
140
1.0
141
8.0
290
     0
  0
SCALE
  5
247
102
{ACAD_REACTORS
330
241
102
}
330
241
100
AcDbScale
 70
     0
300
1:10
140
1.0
141
10.0
290
     0
  0
SCALE
  5
248
102
{ACAD_REACTORS
330
241
102
}
330
241
100
AcDbScale
 70
     0
300
1:16
140
1.0
141
16.0
290
     0
  0
SCALE
  5
249
102
{ACAD_REACTORS
330
241
102
}
330
241
100
AcDbScale
 70
     0
300
1:20
140
1.0
141
20.0
290
     0
  0
SCALE
  5
24A
102
{ACAD_REACTORS
330
241
102
}
330
241
100
AcDbScale
 70
     0
300
1:30
140
1.0
141
30.0
290
     0
  0
SCALE
  5
24B
102
{ACAD_REACTORS
330
241
102
}
330
241
100
AcDbScale
 70
     0
300
1:40
140
1.0
141
40.0
290
     0
  0
SCALE
  5
24C
102
{ACAD_REACTORS
330
241
102
}
330
241
100
AcDbScale
 70
     0
300
1:50
140
1.0
141
50.0
290
     0
  0
SCALE
  5
24D
102
{ACAD_REACTORS
330
241
102
}
330
241
100
AcDbScale
 70
     0
300
1:100
140
1.0
141
100.0
290
     0
  0
SCALE
  5
24E
102
{ACAD_REACTORS
330
241
102
}
330
241
100
AcDbScale
 70
     0
300
2:1
140
2.0
141
1.0
290
     0
  0
SCALE
  5
24F
102
{ACAD_REACTORS
330
241
102
}
330
241
100
AcDbScale
 70
     0
300
4:1
140
4.0
141
1.0
290
     0
  0
SCALE
  5
250
102
{ACAD_REACTORS
330
241
102
}
330
241
100
AcDbScale
 70
     0
300
8:1
140
8.0
141
1.0
290
     0
  0
SCALE
  5
251
102
{ACAD_REACTORS
330
241
102
}
330
241
100
AcDbScale
 70
     0
300
10:1
140
10.0
141
1.0
290
     0
  0
SCALE
  5
252
102
{ACAD_REACTORS
330
241
102
}
330
241
100
AcDbScale
 70
     0
300
100:1
140
100.0
141
1.0
290
     0
  0
SCALE
  5
253
102
{ACAD_REACTORS
330
241
102
}
330
241
100
AcDbScale
 70
     0
300
1/128" = 1'-0"
140
0.0078125
141
12.0
290
     0
  0
SCALE
  5
254
102
{ACAD_REACTORS
330
241
102
}
330
241
100
AcDbScale
 70
     0
300
1/64" = 1'-0"
140
0.015625
141
12.0
290
     0
  0
SCALE
  5
255
102
{ACAD_REACTORS
330
241
102
}
330
241
100
AcDbScale
 70
     0
300
1/32" = 1'-0"
140
0.03125
141
12.0
290
     0
  0
SCALE
  5
256
102
{ACAD_REACTORS
330
241
102
}
330
241
100
AcDbScale
 70
     0
300
1/16" = 1'-0"
140
0.0625
141
12.0
290
     0
  0
SCALE
  5
257
102
{ACAD_REACTORS
330
241
102
}
330
241
100
AcDbScale
 70
     0
300
3/32" = 1'-0"
140
0.09375
141
12.0
290
     0
  0
SCALE
  5
258
102
{ACAD_REACTORS
330
241
102
}
330
241
100
AcDbScale
 70
     0
300
1/8" = 1'-0"
140
0.125
141
12.0
290
     0
  0
SCALE
  5
259
102
{ACAD_REACTORS
330
241
102
}
330
241
100
AcDbScale
 70
     0
300
3/16" = 1'-0"
140
0.1875
141
12.0
290
     0
  0
SCALE
  5
25A
102
{ACAD_REACTORS
330
241
102
}
330
241
100
AcDbScale
 70
     0
300
1/4" = 1'-0"
140
0.25
141
12.0
290
     0
  0
SCALE
  5
25B
102
{ACAD_REACTORS
330
241
102
}
330
241
100
AcDbScale
 70
     0
300
3/8" = 1'-0"
140
0.375
141
12.0
290
     0
  0
SCALE
  5
25C
102
{ACAD_REACTORS
330
241
102
}
330
241
100
AcDbScale
 70
     0
300
1/2" = 1'-0"
140
0.5
141
12.0
290
     0
  0
SCALE
  5
25D
102
{ACAD_REACTORS
330
241
102
}
330
241
100
AcDbScale
 70
     0
300
3/4" = 1'-0"
140
0.75
141
12.0
290
     0
  0
SCALE
  5
25E
102
{ACAD_REACTORS
330
241
102
}
330
241
100
AcDbScale
 70
     0
300
1" = 1'-0"
140
1.0
141
12.0
290
     0
  0
SCALE
  5
25F
102
{ACAD_REACTORS
330
241
102
}
330
241
100
AcDbScale
 70
     0
300
1-1/2" = 1'-0"
140
1.5
141
12.0
290
     0
  0
SCALE
  5
260
102
{ACAD_REACTORS
330
241
102
}
330
241
100
AcDbScale
 70
     0
300
3" = 1'-0"
140
3.0
141
12.0
290
     0
  0
SCALE
  5
261
102
{ACAD_REACTORS
330
241
102
}
330
241
100
AcDbScale
 70
     0
300
6" = 1'-0"
140
6.0
141
12.0
290
     0
  0
SCALE
  5
262
102
{ACAD_REACTORS
330
241
102
}
330
241
100
AcDbScale
 70
     0
300
1'-0" = 1'-0"
140
12.0
141
12.0
290
     0
  0
TABLESTYLE
  5
279
102
{ACAD_REACTORS
330
278
102
}
102
{ACAD_XDICTIONARY
360
5D98
102
}
330
278
100
AcDbTableStyle
  3
Standard
 70
     0
 71
     0
 40
0.06
 41
0.06
280
     0
281
     0
  7
Standard
140
4.5
170
     2
 62
     0
 63
   257
283
     0
 90
        4
 91
        0
  1

274
    -2
284
     1
 64
     0
275
    -2
285
     1
 65
     0
276
    -2
286
     1
 66
     0
277
    -2
287
     1
 67
     0
278
    -2
288
     1
 68
     0
279
    -2
289
     1
 69
     0
  7
Standard
140
6.0
170
     5
 62
     0
 63
   257
283
     0
 90
        4
 91
        0
  1

274
    -2
284
     1
 64
     0
275
    -2
285
     1
 65
     0
276
    -2
286
     1
 66
     0
277
    -2
287
     1
 67
     0
278
    -2
288
     1
 68
     0
279
    -2
289
     1
 69
     0
  7
Standard
140
4.5
170
     5
 62
     0
 63
   257
283
     0
 90
        4
 91
        0
  1

274
    -2
284
     1
 64
     0
275
    -2
285
     1
 65
     0
276
    -2
286
     1
 66
     0
277
    -2
287
     1
 67
     0
278
    -2
288
     1
 68
     0
279
    -2
289
     1
 69
     0
  0
VISUALSTYLE
  5
26C
102
{ACAD_REACTORS
330
267
102
}
330
267
100
AcDbVisualStyle
  2
2dWireframe
 70
     4
 71
     0
 72
     2
 73
     0
 90
        0
 40
-0.6
 41
-30.0
 62
     5
 63
     7
421
 16777215
 74
     1
 91
        4
 64
     7
 65
   257
 75
     1
175
     1
 42
1.0
 92
        0
 66
   257
 43
1.0
 76
     1
 77
     6
 78
     2
 67
     7
 79
     5
170
     0
171
     0
290
     0
174
     0
 93
        1
 44
0.0
173
     0
291
     0
 45
0.0
  0
VISUALSTYLE
  5
26E
102
{ACAD_REACTORS
330
267
102
}
330
267
100
AcDbVisualStyle
  2
3D Hidden
 70
     6
 71
     1
 72
     2
 73
     2
 90
        0
 40
-0.6
 41
-30.0
 62
     5
 63
     7
421
 16777215
 74
     2
 91
        2
 64
     7
 65
   257
 75
     2
175
     1
 42
40.0
 92
        0
 66
   257
 43
1.0
 76
     1
 77
     6
 78
     2
 67
     7
 79
     3
170
     0
171
     0
290
     0
174
     0
 93
        1
 44
0.0
173
     0
291
     0
 45
0.0
  0
VISUALSTYLE
  5
26D
102
{ACAD_REACTORS
330
267
102
}
330
267
100
AcDbVisualStyle
  2
3dWireframe
 70
     5
 71
     0
 72
     2
 73
     0
 90
        0
 40
-0.6
 41
-30.0
 62
     5
 63
     7
421
 16777215
 74
     1
 91
        4
 64
     7
 65
   257
 75
     1
175
     1
 42
1.0
 92
        0
 66
   257
 43
1.0
 76
     1
 77
     6
 78
     2
 67
     7
 79
     5
170
     0
171
     0
290
     0
174
     0
 93
        1
 44
0.0
173
     0
291
     0
 45
0.0
  0
VISUALSTYLE
  5
26F
102
{ACAD_REACTORS
330
267
102
}
330
267
100
AcDbVisualStyle
  2
Basic
 70
     7
 71
     1
 72
     0
 73
     1
 90
        0
 40
-0.6
 41
-30.0
 62
     5
 63
     7
421
 16777215
 74
     0
 91
        4
 64
     7
 65
   257
 75
     1
175
     1
 42
1.0
 92
        8
 66
     7
 43
1.0
 76
     1
 77
     6
 78
     2
 67
     7
 79
     5
170
     0
171
     0
290
     0
174
     0
 93
        1
 44
0.0
173
     0
291
     1
 45
0.0
  0
VISUALSTYLE
  5
273
102
{ACAD_REACTORS
330
267
102
}
330
267
100
AcDbVisualStyle
  2
Brighten
 70
    12
 71
     2
 72
     2
 73
     0
 90
        0
 40
-0.6
 41
-30.0
 62
     5
 63
     7
421
 16777215
 74
     1
 91
        4
 64
     7
 65
   257
 75
     1
175
     1
 42
1.0
 92
        8
 66
     7
 43
1.0
 76
     1
 77
     6
 78
     2
 67
     7
 79
     5
170
     0
171
     0
290
     0
174
     0
 93
        1
 44
50.0
173
     0
291
     1
 45
0.0
  0
VISUALSTYLE
  5
277
102
{ACAD_REACTORS
330
267
102
}
330
267
100
AcDbVisualStyle
  2
ColorChange
 70
    16
 71
     2
 72
     2
 73
     3
 90
        0
 40
-0.6
 41
-30.0
 62
     5
 63
     8
421
  8421504
 74
     1
 91
        4
 64
     7
 65
   257
 75
     1
175
     1
 42
1.0
 92
        8
 66
     8
424
  8421504
 43
1.0
 76
     1
 77
     6
 78
     2
 67
     7
 79
     5
170
     0
171
     0
290
     0
174
     0
 93
        1
 44
0.0
173
     0
291
     1
 45
0.0
  0
VISUALSTYLE
  5
271
102
{ACAD_REACTORS
330
267
102
}
330
267
100
AcDbVisualStyle
  2
Conceptual
 70
     9
 71
     3
 72
     2
 73
     0
 90
        0
 40
-0.6
 41
-30.0
 62
     5
 63
     7
421
 16777215
 74
     2
 91
        2
 64
     7
 65
   257
 75
     1
175
     1
 42
40.0
 92
        8
 66
     7
 43
1.0
 76
     1
 77
     6
 78
     2
 67
     7
 79
     3
170
     0
171
     0
290
     0
174
     0
 93
        1
 44
0.0
173
     0
291
     0
 45
0.0
  0
VISUALSTYLE
  5
272
102
{ACAD_REACTORS
330
267
102
}
330
267
100
AcDbVisualStyle
  2
Dim
 70
    11
 71
     2
 72
     2
 73
     0
 90
        0
 40
-0.6
 41
-30.0
 62
     5
 63
     7
421
 16777215
 74
     1
 91
        4
 64
     7
 65
   257
 75
     1
175
     1
 42
1.0
 92
        8
 66
     7
 43
1.0
 76
     1
 77
     6
 78
     2
 67
     7
 79
     5
170
     0
171
     0
290
     0
174
     0
 93
        1
 44
-50.0
173
     0
291
     1
 45
0.0
  0
VISUALSTYLE
  5
8FE
102
{ACAD_REACTORS
330
267
102
}
330
267
100
AcDbVisualStyle
  2
EdgeColorOff
 70
    22
 71
     2
 72
     2
 73
     0
 90
        0
 40
0.6
 41
30.0
 62
     5
 63
     7
421
 16777215
 74
     1
 91
        4
 64
     7
 65
   257
 75
     1
175
     1
 42
1.0
 92
        8
 66
     7
 43
1.0
 76
     1
 77
     6
 78
     2
 67
     7
 79
     5
170
     0
171
     0
290
     0
174
     0
 93
        1
 44
0.0
173
     0
291
     1
 45
0.0
  0
VISUALSTYLE
  5
276
102
{ACAD_REACTORS
330
267
102
}
330
267
100
AcDbVisualStyle
  2
Facepattern
 70
    15
 71
     2
 72
     2
 73
     0
 90
        0
 40
-0.6
 41
-30.0
 62
     5
 63
     7
421
 16777215
 74
     1
 91
        4
 64
     7
 65
   257
 75
     1
175
     1
 42
1.0
 92
        8
 66
     7
 43
1.0
 76
     1
 77
     6
 78
     2
 67
     7
 79
     5
170
     0
171
     0
290
     0
174
     0
 93
        1
 44
0.0
173
     0
291
     1
 45
0.0
  0
VISUALSTYLE
  5
268
102
{ACAD_REACTORS
330
267
102
}
330
267
100
AcDbVisualStyle
  2
Flat
 70
     0
 71
     2
 72
     1
 73
     1
 90
        2
 40
-0.6
 41
30.0
 62
     5
 63
     7
421
 16777215
 74
     0
 91
        4
 64
     7
 65
   257
 75
     1
175
     1
 42
1.0
 92
        8
 66
     7
 43
1.0
 76
     1
 77
     6
 78
     2
 67
     7
 79
     5
170
     0
171
     0
290
     0
174
     0
 93
       13
 44
0.0
173
     0
291
     1
 45
0.0
  0
VISUALSTYLE
  5
269
102
{ACAD_REACTORS
330
267
102
}
330
267
100
AcDbVisualStyle
  2
FlatWithEdges
 70
     1
 71
     2
 72
     1
 73
     1
 90
        2
 40
-0.6
 41
30.0
 62
     5
 63
     7
421
 16777215
 74
     1
 91
        4
 64
     7
 65
   257
 75
     1
175
     1
 42
1.0
 92
        0
 66
   257
 43
1.0
 76
     1
 77
     6
 78
     2
 67
     7
 79
     5
170
     0
171
     0
290
     0
174
     0
 93
       13
 44
0.0
173
     0
291
     1
 45
0.0
  0
VISUALSTYLE
  5
26A
102
{ACAD_REACTORS
330
267
102
}
330
267
100
AcDbVisualStyle
  2
Gouraud
 70
     2
 71
     2
 72
     2
 73
     1
 90
        2
 40
-0.6
 41
30.0
 62
     5
 63
     7
421
 16777215
 74
     0
 91
        4
 64
     7
 65
   257
 75
     1
175
     1
 42
1.0
 92
        0
 66
     7
 43
1.0
 76
     1
 77
     6
 78
     2
 67
     7
 79
     5
170
     0
171
     0
290
     0
174
     0
 93
       13
 44
0.0
173
     0
291
     1
 45
0.0
  0
VISUALSTYLE
  5
26B
102
{ACAD_REACTORS
330
267
102
}
330
267
100
AcDbVisualStyle
  2
GouraudWithEdges
 70
     3
 71
     2
 72
     2
 73
     1
 90
        2
 40
-0.6
 41
30.0
 62
     5
 63
     7
421
 16777215
 74
     1
 91
        4
 64
     7
 65
   257
 75
     1
175
     1
 42
1.0
 92
        0
 66
   257
 43
1.0
 76
     1
 77
     6
 78
     2
 67
     7
 79
     5
170
     0
171
     0
290
     0
174
     0
 93
       13
 44
0.0
173
     0
291
     1
 45
0.0
  0
VISUALSTYLE
  5
8FB
102
{ACAD_REACTORS
330
267
102
}
330
267
100
AcDbVisualStyle
  2
Hidden
 70
     6
 71
     1
 72
     2
 73
     2
 90
        0
 40
0.6
 41
30.0
 62
     5
 63
     7
421
 16777215
 74
     2
 91
        2
 64
     7
 65
   257
 75
     2
175
     1
 42
40.0
 92
        0
 66
   257
 43
1.0
 76
     1
 77
     6
 78
     2
 67
     7
 79
     3
170
     0
171
     0
290
     0
174
     0
 93
        1
 44
0.0
173
     0
291
     0
 45
0.0
  0
VISUALSTYLE
  5
8FC
102
{ACAD_REACTORS
330
267
102
}
330
267
100
AcDbVisualStyle
  2
JitterOff
 70
    20
 71
     2
 72
     2
 73
     0
 90
        0
 40
0.6
 41
30.0
 62
     5
 63
     7
421
 16777215
 74
     1
 91
        4
 64
     7
 65
   257
 75
     1
175
     1
 42
1.0
 92
       10
 66
     7
 43
1.0
 76
     1
 77
     6
 78
     2
 67
     7
 79
     5
170
     0
171
     0
290
     0
174
     0
 93
        1
 44
0.0
173
     0
291
     1
 45
0.0
  0
VISUALSTYLE
  5
275
102
{ACAD_REACTORS
330
267
102
}
330
267
100
AcDbVisualStyle
  2
Linepattern
 70
    14
 71
     2
 72
     2
 73
     0
 90
        0
 40
-0.6
 41
-30.0
 62
     5
 63
     7
421
 16777215
 74
     1
 91
        4
 64
     7
 65
   257
 75
     7
175
     7
 42
1.0
 92
        8
 66
     7
 43
1.0
 76
     1
 77
     6
 78
     2
 67
     7
 79
     5
170
     0
171
     0
290
     0
174
     0
 93
        1
 44
0.0
173
     0
291
     1
 45
0.0
  0
VISUALSTYLE
  5
8FD
102
{ACAD_REACTORS
330
267
102
}
330
267
100
AcDbVisualStyle
  2
OverhangOff
 70
    21
 71
     2
 72
     2
 73
     0
 90
        0
 40
0.6
 41
30.0
 62
     5
 63
     7
421
 16777215
 74
     1
 91
        4
 64
     7
 65
   257
 75
     1
175
     1
 42
1.0
 92
        9
 66
     7
 43
1.0
 76
     1
 77
     6
 78
     2
 67
     7
 79
     5
170
     0
171
     0
290
     0
174
     0
 93
        1
 44
0.0
173
     0
291
     1
 45
0.0
  0
VISUALSTYLE
  5
270
102
{ACAD_REACTORS
330
267
102
}
330
267
100
AcDbVisualStyle
  2
Realistic
 70
     8
 71
     2
 72
     2
 73
     0
 90
        0
 40
-0.6
 41
-30.0
 62
     5
 63
     7
421
 16777215
 74
     1
 91
        0
 64
     7
 65
   257
 75
     1
175
     1
 42
1.0
 92
        8
 66
     8
424
  7895160
 43
1.0
 76
     1
 77
     6
 78
     2
 67
     7
 79
     5
170
     0
171
     0
290
     0
174
     0
 93
       13
 44
0.0
173
     0
291
     0
 45
0.0
  0
VISUALSTYLE
  5
903
102
{ACAD_REACTORS
330
267
102
}
330
267
100
AcDbVisualStyle
  2
Shaded
 70
    27
 71
     2
 72
     2
 73
     1
 90
        2
 40
0.6
 41
30.0
 62
     5
 63
     7
421
 16777215
 74
     0
 91
        4
 64
     7
 65
   257
 75
     1
175
     1
 42
1.0
 92
        8
 66
   257
 43
1.0
 76
     1
 77
     6
 78
     2
 67
     8
425
  7895160
 79
     3
170
     0
171
     0
290
     0
174
     0
 93
        5
 44
0.0
173
     0
291
     0
 45
0.0
  0
VISUALSTYLE
  5
902
102
{ACAD_REACTORS
330
267
102
}
330
267
100
AcDbVisualStyle
  2
Shaded with edges
 70
    26
 71
     2
 72
     2
 73
     1
 90
        2
 40
0.6
 41
30.0
 62
     5
 63
     7
421
 16777215
 74
     1
 91
       10
 64
     7
 65
   257
 75
     2
175
     1
 42
1.0
 92
        8
 66
   257
 43
1.0
 76
     1
 77
     6
 78
     2
 67
     7
 79
     3
170
     0
171
     0
290
     0
174
     0
 93
        5
 44
0.0
173
     0
291
     0
 45
0.0
  0
VISUALSTYLE
  5
8FF
102
{ACAD_REACTORS
330
267
102
}
330
267
100
AcDbVisualStyle
  2
Shades of Gray
 70
    23
 71
     2
 72
     2
 73
     3
 90
        0
 40
0.6
 41
30.0
 62
     5
 63
     7
421
 16777215
 74
     2
 91
        2
 64
     7
 65
     7
 75
     1
175
     1
 42
40.0
 92
        8
 66
     7
 43
1.0
 76
     1
 77
     6
 78
     2
 67
     7
 79
     3
170
     0
171
     0
290
     0
174
     0
 93
        1
 44
0.0
173
     0
291
     0
 45
0.0
  0
VISUALSTYLE
  5
900
102
{ACAD_REACTORS
330
267
102
}
330
267
100
AcDbVisualStyle
  2
Sketchy
 70
    24
 71
     1
 72
     2
 73
     2
 90
        0
 40
0.6
 41
30.0
 62
     5
 63
     7
421
 16777215
 74
     2
 91
        2
 64
     7
 65
     7
 75
     1
175
     1
 42
40.0
 92
       11
 66
     7
 43
1.0
 76
     1
 77
     6
 78
     2
 67
     7
 79
     6
170
     0
171
     0
290
     0
174
     0
 93
        1
 44
0.0
173
     0
291
     0
 45
0.0
  0
VISUALSTYLE
  5
274
102
{ACAD_REACTORS
330
267
102
}
330
267
100
AcDbVisualStyle
  2
Thicken
 70
    13
 71
     2
 72
     2
 73
     0
 90
        0
 40
-0.6
 41
-30.0
 62
     5
 63
     7
421
 16777215
 74
     1
 91
        4
 64
     7
 65
   257
 75
     1
175
     1
 42
1.0
 92
       12
 66
     7
 43
1.0
 76
     1
 77
     6
 78
     2
 67
     7
 79
     5
170
     0
171
     0
290
     0
174
     0
 93
        1
 44
0.0
173
     0
291
     1
 45
0.0
  0
VISUALSTYLE
  5
8FA
102
{ACAD_REACTORS
330
267
102
}
330
267
100
AcDbVisualStyle
  2
Wireframe
 70
     5
 71
     0
 72
     2
 73
     0
 90
        0
 40
0.6
 41
30.0
 62
     5
 63
     7
421
 16777215
 74
     1
 91
        4
 64
     7
 65
   257
 75
     1
175
     1
 42
1.0
 92
        0
 66
   257
 43
1.0
 76
     1
 77
     6
 78
     2
 67
     7
 79
     3
170
     0
171
     0
290
     0
174
     0
 93
        1
 44
0.0
173
     0
291
     0
 45
0.0
  0
VISUALSTYLE
  5
901
102
{ACAD_REACTORS
330
267
102
}
330
267
100
AcDbVisualStyle
  2
X-Ray
 70
    25
 71
     2
 72
     2
 73
     1
 90
        1
 40
0.5
 41
30.0
 62
     5
 63
     7
421
 16777215
 74
     1
 91
        0
 64
     7
 65
   257
 75
     1
175
     1
 42
1.0
 92
        8
 66
     7
 43
1.0
 76
     1
 77
     6
 78
     2
 67
     7
 79
     3
170
     0
171
     0
290
     0
174
     0
 93
       13
 44
0.0
173
     0
291
     0
 45
0.0
  0
DICTIONARYVAR
  5
331
102
{ACAD_REACTORS
330
330
102
}
330
330
100
DictionaryVariables
280
     0
  1
1:1
  0
DICTIONARYVAR
  5
D5E
102
{ACAD_REACTORS
330
330
102
}
330
330
100
DictionaryVariables
280
     0
  1
Standard
  0
DICTIONARYVAR
  5
335
102
{ACAD_REACTORS
330
330
102
}
330
330
100
DictionaryVariables
280
     0
  1
Standard
  0
DICTIONARYVAR
  5
D52
102
{ACAD_REACTORS
330
330
102
}
330
330
100
DictionaryVariables
280
     0
  1
ByLayer
  0
DICTIONARYVAR
  5
896
102
{ACAD_REACTORS
330
330
102
}
330
330
100
DictionaryVariables
280
     0
  1
0
  0
DICTIONARYVAR
  5
38B2
102
{ACAD_REACTORS
330
E38
102
}
330
E38
100
DictionaryVariables
280
     0
  1
0.261799
  0
DICTIONARYVAR
  5
38B0
102
{ACAD_REACTORS
330
E38
102
}
330
E38
100
DictionaryVariables
280
     0
  1
0.400000
  0
DICTIONARYVAR
  5
38B1
102
{ACAD_REACTORS
330
E38
102
}
330
E38
100
DictionaryVariables
280
     0
  1
0.250000
  0
DICTIONARYVAR
  5
38B3
102
{ACAD_REACTORS
330
E38
102
}
330
E38
100
DictionaryVariables
280
     0
  1
1
  0
XRECORD
  5
7AA
102
{ACAD_REACTORS
330
2E2
102
}
330
2E2
100
AcDbXrecord
280
     1
 91
    34815
301

290
     0
302
HIDDEN
330
14
 90
        8
 62
     7
370
    -3
331
13
  1
Color_7
440
 33554687
330
4B
 90
        8
 62
     7
370
    20
331
13
  1
Color_7
440
 33554687
330
4C
 90
        8
 62
     3
370
    13
331
13
  1
Color_3
440
 33554687
330
4D
 90
        8
 62
     7
370
    20
331
13
  1
Color_7
440
 33554687
330
667
 90
        8
 62
     7
370
    -3
331
13
  1
Color_7
440
 33554687
330
0
 90
        8
 62
     8
370
    20
331
0
  1
Color_8
440
 33554687
330
D6B
 90
        0
 62
     4
370
    20
331
D6C
  1
Color_4
440
 33554687
330
D8C
 90
        0
 62
     7
370
    -3
331
13
  1
Color_7
440
 33554687
  0
FIELD
  5
4531
102
{ACAD_REACTORS
330
4539
102
}
330
4539
100
AcDbField
  1
_text
  2
{%<\_FldIdx 0>%N}
 90
        1
360
4534
 97
        0
 91
       63
 92
        0
 94
        8
 95
        2
 96
        0
300

 93
        1
  6
ACFD_FIELDTEXT_CHECKSUM
 93
        2
 90
        2
140
4538.0
 94
        0
300

302

304
ACVALUE_END
  7
ACFD_FIELD_VALUE
 93
        6
 90
        4
  1
{20160725N}
 94
        0
300

302

304
ACVALUE_END
301
{20160725N}
 98
       11
  0
DICTIONARY
  5
5D98
330
279
100
AcDbDictionary
280
     1
281
     1
  3
ACAD_ROUNDTRIP_2008_TABLESTYLE_CELLSTYLEMAP
360
5D99
  0
FIELD
  5
4534
330
4531
100
AcDbField
  1
AcVar
  2
\AcVar CreateDate \f "yyyyMMdd"
 90
        0
 97
        0
 91
       63
 92
        0
 94
        8
 95
        2
 96
        0
300

 93
        1
  6
Variable
 93
        2
 90
        4
  1
CreateDate
 94
        0
300

302

304
ACVALUE_END
  7
ACFD_FIELD_VALUE
 93
        6
 90
        8
 92
       16
310
E0070700000019000700280012000000
 94
        0
300
yyyyMMdd
302

304
ACVALUE_END
301
20160725
 98
        8
  0
CELLSTYLEMAP
  5
5D99
102
{ACAD_REACTORS
330
5D98
102
}
330
5D98
100
AcDbCellStyleMap
 90
        3
300
CELLSTYLE
  1
TABLEFORMAT_BEGIN
 90
        5
170
     1
 91
        0
 92
    32768
 62
   257
 93
        1
300
CONTENTFORMAT
  1
CONTENTFORMAT_BEGIN
 90
        0
 91
        0
 92
        4
 93
        0
300

 40
0.0
140
1.0
 94
        5
 62
     0
340
17
144
6.0
309
CONTENTFORMAT_END
171
     1
301
MARGIN
  1
CELLMARGIN_BEGIN
 40
0.06
 40
0.06
 40
0.06
 40
0.06
 40
0.18
 40
0.18
309
CELLMARGIN_END
 94
        6
 95
        1
302
GRIDFORMAT
  1
GRIDFORMAT_BEGIN
 90
        0
 91
        1
 62
     0
 92
       -2
340
0
 93
        0
 40
0.045
309
GRIDFORMAT_END
 95
        2
302
GRIDFORMAT
  1
GRIDFORMAT_BEGIN
 90
        0
 91
        1
 62
     0
 92
       -2
340
0
 93
        0
 40
0.045
309
GRIDFORMAT_END
 95
        4
302
GRIDFORMAT
  1
GRIDFORMAT_BEGIN
 90
        0
 91
        1
 62
     0
 92
       -2
340
0
 93
        0
 40
0.045
309
GRIDFORMAT_END
 95
        8
302
GRIDFORMAT
  1
GRIDFORMAT_BEGIN
 90
        0
 91
        1
 62
     0
 92
       -2
340
0
 93
        0
 40
0.045
309
GRIDFORMAT_END
 95
       16
302
GRIDFORMAT
  1
GRIDFORMAT_BEGIN
 90
        0
 91
        1
 62
     0
 92
       -2
340
0
 93
        0
 40
0.045
309
GRIDFORMAT_END
 95
       32
302
GRIDFORMAT
  1
GRIDFORMAT_BEGIN
 90
        0
 91
        1
 62
     0
 92
       -2
340
0
 93
        0
 40
0.045
309
GRIDFORMAT_END
309
TABLEFORMAT_END
  1
CELLSTYLE_BEGIN
 90
        1
 91
        1
300
_TITLE
309
CELLSTYLE_END
300
CELLSTYLE
  1
TABLEFORMAT_BEGIN
 90
        5
170
     1
 91
        0
 92
        0
 62
   257
 93
        1
300
CONTENTFORMAT
  1
CONTENTFORMAT_BEGIN
 90
        0
 91
        0
 92
        4
 93
        0
300

 40
0.0
140
1.0
 94
        5
 62
     0
340
17
144
4.5
309
CONTENTFORMAT_END
171
     1
301
MARGIN
  1
CELLMARGIN_BEGIN
 40
0.06
 40
0.06
 40
0.06
 40
0.06
 40
0.18
 40
0.18
309
CELLMARGIN_END
 94
        6
 95
        1
302
GRIDFORMAT
  1
GRIDFORMAT_BEGIN
 90
        0
 91
        1
 62
     0
 92
       -2
340
0
 93
        0
 40
0.045
309
GRIDFORMAT_END
 95
        2
302
GRIDFORMAT
  1
GRIDFORMAT_BEGIN
 90
        0
 91
        1
 62
     0
 92
       -2
340
0
 93
        0
 40
0.045
309
GRIDFORMAT_END
 95
        4
302
GRIDFORMAT
  1
GRIDFORMAT_BEGIN
 90
        0
 91
        1
 62
     0
 92
       -2
340
0
 93
        0
 40
0.045
309
GRIDFORMAT_END
 95
        8
302
GRIDFORMAT
  1
GRIDFORMAT_BEGIN
 90
        0
 91
        1
 62
     0
 92
       -2
340
0
 93
        0
 40
0.045
309
GRIDFORMAT_END
 95
       16
302
GRIDFORMAT
  1
GRIDFORMAT_BEGIN
 90
        0
 91
        1
 62
     0
 92
       -2
340
0
 93
        0
 40
0.045
309
GRIDFORMAT_END
 95
       32
302
GRIDFORMAT
  1
GRIDFORMAT_BEGIN
 90
        0
 91
        1
 62
     0
 92
       -2
340
0
 93
        0
 40
0.045
309
GRIDFORMAT_END
309
TABLEFORMAT_END
  1
CELLSTYLE_BEGIN
 90
        2
 91
        1
300
_HEADER
309
CELLSTYLE_END
300
CELLSTYLE
  1
TABLEFORMAT_BEGIN
 90
        5
170
     1
 91
        0
 92
        0
 62
   257
 93
        1
300
CONTENTFORMAT
  1
CONTENTFORMAT_BEGIN
 90
        0
 91
        0
 92
        4
 93
        0
300

 40
0.0
140
1.0
 94
        2
 62
     0
340
17
144
4.5
309
CONTENTFORMAT_END
171
     1
301
MARGIN
  1
CELLMARGIN_BEGIN
 40
0.06
 40
0.06
 40
0.06
 40
0.06
 40
0.18
 40
0.18
309
CELLMARGIN_END
 94
        6
 95
        1
302
GRIDFORMAT
  1
GRIDFORMAT_BEGIN
 90
        0
 91
        1
 62
     0
 92
       -2
340
0
 93
        0
 40
0.045
309
GRIDFORMAT_END
 95
        2
302
GRIDFORMAT
  1
GRIDFORMAT_BEGIN
 90
        0
 91
        1
 62
     0
 92
       -2
340
0
 93
        0
 40
0.045
309
GRIDFORMAT_END
 95
        4
302
GRIDFORMAT
  1
GRIDFORMAT_BEGIN
 90
        0
 91
        1
 62
     0
 92
       -2
340
0
 93
        0
 40
0.045
309
GRIDFORMAT_END
 95
        8
302
GRIDFORMAT
  1
GRIDFORMAT_BEGIN
 90
        0
 91
        1
 62
     0
 92
       -2
340
0
 93
        0
 40
0.045
309
GRIDFORMAT_END
 95
       16
302
GRIDFORMAT
  1
GRIDFORMAT_BEGIN
 90
        0
 91
        1
 62
     0
 92
       -2
340
0
 93
        0
 40
0.045
309
GRIDFORMAT_END
 95
       32
302
GRIDFORMAT
  1
GRIDFORMAT_BEGIN
 90
        0
 91
        1
 62
     0
 92
       -2
340
0
 93
        0
 40
0.045
309
GRIDFORMAT_END
309
TABLEFORMAT_END
  1
CELLSTYLE_BEGIN
 90
        3
 91
        2
300
_DATA
309
CELLSTYLE_END
  0
ENDSEC
  0
EOF
