  0
SECTION
  2
HEADER
  9
$ACADVER
  1
AC1021
  9
$ACADMAINTVER
 70
    25
  9
$DWGCODEPAGE
  3
ANSI_932
  9
$LASTSAVEDBY
  1
howeNelson
  9
$INSBASE
 10
0.0
 20
0.0
 30
0.0
  9
$EXTMIN
 10
0.0
 20
0.0
 30
-0.0000000000000142
  9
$EXTMAX
 10
420.0
 20
594.0
 30
0.0000000000000071
  9
$LIMMIN
 10
0.0
 20
0.0
  9
$LIMMAX
 10
420.0
 20
594.0
  9
$ORTHOMODE
 70
     0
  9
$REGENMODE
 70
     1
  9
$FILLMODE
 70
     1
  9
$QTEXTMODE
 70
     0
  9
$MIRRTEXT
 70
     1
  9
$LTSCALE
 40
50.0
  9
$ATTMODE
 70
     1
  9
$TEXTSIZE
 40
2.5
  9
$TRACEWID
 40
1.0
  9
$TEXTSTYLE
  7
ＭＳ ゴシック
  9
$CLAYER
  8
DIM
  9
$CELTYPE
  6
ByLayer
  9
$CECOLOR
 62
   256
  9
$CELTSCALE
 40
0.05
  9
$DISPSILH
 70
     0
  9
$DIMSCALE
 40
1.0
  9
$DIMASZ
 40
1.0
  9
$DIMEXO
 40
5.0
  9
$DIMDLI
 40
0.9999999999999999
  9
$DIMRND
 40
0.0
  9
$DIMDLE
 40
0.0
  9
$DIMEXE
 40
0.0
  9
$DIMTP
 40
0.0
  9
$DIMTM
 40
0.0
  9
$DIMTXT
 40
5.0
  9
$DIMCEN
 40
0.0
  9
$DIMTSZ
 40
0.0
  9
$DIMTOL
 70
     0
  9
$DIMLIM
 70
     0
  9
$DIMTIH
 70
     0
  9
$DIMTOH
 70
     0
  9
$DIMSE1
 70
     0
  9
$DIMSE2
 70
     0
  9
$DIMTAD
 70
     1
  9
$DIMZIN
 70
    11
  9
$DIMBLK
  1
DOT
  9
$DIMASO
 70
     1
  9
$DIMSHO
 70
     1
  9
$DIMPOST
  1
<>
  9
$DIMAPOST
  1
[]
  9
$DIMALT
 70
     0
  9
$DIMALTD
 70
     1
  9
$DIMALTF
 40
1.0
  9
$DIMLFAC
 40
1.0
  9
$DIMTOFL
 70
     0
  9
$DIMTVP
 40
0.0
  9
$DIMTIX
 70
     1
  9
$DIMSOXD
 70
     0
  9
$DIMSAH
 70
     0
  9
$DIMBLK1
  1

  9
$DIMBLK2
  1

  9
$DIMSTYLE
  2
tfrom線あり
  9
$DIMCLRD
 70
     0
  9
$DIMCLRE
 70
     0
  9
$DIMCLRT
 70
     0
  9
$DIMTFAC
 40
1.0
  9
$DIMGAP
 40
5.0
  9
$DIMJUST
 70
     0
  9
$DIMSD1
 70
     0
  9
$DIMSD2
 70
     0
  9
$DIMTOLJ
 70
     1
  9
$DIMTZIN
 70
    11
  9
$DIMALTZ
 70
    11
  9
$DIMALTTZ
 70
    11
  9
$DIMUPT
 70
     0
  9
$DIMDEC
 70
     0
  9
$DIMTDEC
 70
     1
  9
$DIMALTU
 70
     2
  9
$DIMALTTD
 70
     2
  9
$DIMTXSTY
  7
ＭＳ ゴシック
  9
$DIMAUNIT
 70
     0
  9
$DIMADEC
 70
     2
  9
$DIMALTRND
 40
0.0
  9
$DIMAZIN
 70
     0
  9
$DIMDSEP
 70
    46
  9
$DIMATFIT
 70
     0
  9
$DIMFRAC
 70
     2
  9
$DIMLDRBLK
  1
DOT
  9
$DIMLUNIT
 70
     2
  9
$DIMLWD
 70
    -2
  9
$DIMLWE
 70
    -2
  9
$DIMTMOVE
 70
     0
  9
$DIMFXL
 40
1.0
  9
$DIMFXLON
 70
     0
  9
$DIMJOGANG
 40
0.7853981633974483
  9
$DIMTFILL
 70
     0
  9
$DIMTFILLCLR
 70
     0
  9
$DIMARCSYM
 70
     0
  9
$DIMLTYPE
  6

  9
$DIMLTEX1
  6

  9
$DIMLTEX2
  6

  9
$LUNITS
 70
     2
  9
$LUPREC
 70
     0
  9
$SKETCHINC
 40
0.1
  9
$FILLETRAD
 40
0.0
  9
$AUNITS
 70
     0
  9
$AUPREC
 70
     0
  9
$MENU
  1
acad
  9
$ELEVATION
 40
0.0
  9
$PELEVATION
 40
0.0
  9
$THICKNESS
 40
0.0
  9
$LIMCHECK
 70
     0
  9
$CHAMFERA
 40
0.0
  9
$CHAMFERB
 40
0.0
  9
$CHAMFERC
 40
0.0
  9
$CHAMFERD
 40
0.0
  9
$SKPOLY
 70
     0
  9
$TDCREATE
 40
2447893.375
  9
$TDUCREATE
 40
0.0
  9
$TDUPDATE
 40
2457595.694804815
  9
$TDUUPDATE
 40
2457595.319804815
  9
$TDINDWG
 40
0.2734903125
  9
$TDUSRTIMER
 40
2457595.31980191
  9
$USRTIMER
 70
     1
  9
$ANGBASE
 50
0.0
  9
$ANGDIR
 70
     0
  9
$PDMODE
 70
     1
  9
$PDSIZE
 40
-2.0
  9
$PLINEWID
 40
0.0
  9
$SPLFRAME
 70
     0
  9
$SPLINETYPE
 70
     6
  9
$SPLINESEGS
 70
     8
  9
$HANDSEED
  5
64E7
  9
$SURFTAB1
 70
     6
  9
$SURFTAB2
 70
     6
  9
$SURFTYPE
 70
     6
  9
$SURFU
 70
     6
  9
$SURFV
 70
     6
  9
$UCSBASE
  2

  9
$UCSNAME
  2

  9
$UCSORG
 10
0.0
 20
0.0
 30
0.0
  9
$UCSXDIR
 10
1.0
 20
0.0
 30
0.0
  9
$UCSYDIR
 10
0.0
 20
1.0
 30
0.0
  9
$UCSORTHOREF
  2

  9
$UCSORTHOVIEW
 70
     0
  9
$UCSORGTOP
 10
0.0
 20
0.0
 30
0.0
  9
$UCSORGBOTTOM
 10
0.0
 20
0.0
 30
0.0
  9
$UCSORGLEFT
 10
0.0
 20
0.0
 30
0.0
  9
$UCSORGRIGHT
 10
0.0
 20
0.0
 30
0.0
  9
$UCSORGFRONT
 10
0.0
 20
0.0
 30
0.0
  9
$UCSORGBACK
 10
0.0
 20
0.0
 30
0.0
  9
$PUCSBASE
  2

  9
$PUCSNAME
  2

  9
$PUCSORG
 10
0.0
 20
0.0
 30
0.0
  9
$PUCSXDIR
 10
1.0
 20
0.0
 30
0.0
  9
$PUCSYDIR
 10
0.0
 20
1.0
 30
0.0
  9
$PUCSORTHOREF
  2

  9
$PUCSORTHOVIEW
 70
     0
  9
$PUCSORGTOP
 10
0.0
 20
0.0
 30
0.0
  9
$PUCSORGBOTTOM
 10
0.0
 20
0.0
 30
0.0
  9
$PUCSORGLEFT
 10
0.0
 20
0.0
 30
0.0
  9
$PUCSORGRIGHT
 10
0.0
 20
0.0
 30
0.0
  9
$PUCSORGFRONT
 10
0.0
 20
0.0
 30
0.0
  9
$PUCSORGBACK
 10
0.0
 20
0.0
 30
0.0
  9
$USERI1
 70
     0
  9
$USERI2
 70
     0
  9
$USERI3
 70
     0
  9
$USERI4
 70
     0
  9
$USERI5
 70
     0
  9
$USERR1
 40
0.0
  9
$USERR2
 40
0.0
  9
$USERR3
 40
0.0
  9
$USERR4
 40
0.0
  9
$USERR5
 40
0.0
  9
$WORLDVIEW
 70
     1
  9
$SHADEDGE
 70
     3
  9
$SHADEDIF
 70
    70
  9
$TILEMODE
 70
     1
  9
$MAXACTVP
 70
    64
  9
$PINSBASE
 10
0.0
 20
0.0
 30
0.0
  9
$PLIMCHECK
 70
     0
  9
$PEXTMIN
 10
0.0
 20
0.0
 30
0.0
  9
$PEXTMAX
 10
0.0
 20
0.0
 30
0.0
  9
$PLIMMIN
 10
-95.87226993865028
 20
-25.69999999999999
  9
$PLIMMAX
 10
201.1277300613497
 20
184.3
  9
$UNITMODE
 70
     0
  9
$VISRETAIN
 70
     0
  9
$PLINEGEN
 70
     1
  9
$PSLTSCALE
 70
     0
  9
$TREEDEPTH
 70
  3020
  9
$CMLSTYLE
  2
Standard
  9
$CMLJUST
 70
     0
  9
$CMLSCALE
 40
1.0
  9
$PROXYGRAPHICS
 70
     0
  9
$MEASUREMENT
 70
     1
  9
$CELWEIGHT
370
    -1
  9
$ENDCAPS
280
     0
  9
$JOINSTYLE
280
     0
  9
$LWDISPLAY
290
     1
  9
$INSUNITS
 70
     4
  9
$HYPERLINKBASE
  1

  9
$STYLESHEET
  1

  9
$XEDIT
290
     1
  9
$CEPSNTYPE
380
     0
  9
$PSTYLEMODE
290
     1
  9
$FINGERPRINTGUID
  2

  9
$VERSIONGUID
  2

  9
$EXTNAMES
290
     1
  9
$PSVPSCALE
 40
0.0
  9
$OLESTARTUP
290
     0
  9
$SORTENTS
280
   127
  9
$INDEXCTL
280
     0
  9
$HIDETEXT
280
     1
  9
$XCLIPFRAME
290
     0
  9
$HALOGAP
280
     0
  9
$OBSCOLOR
 70
   257
  9
$OBSLTYPE
280
     0
  9
$INTERSECTIONDISPLAY
280
     0
  9
$INTERSECTIONCOLOR
 70
   257
  9
$DIMASSOC
280
     2
  9
$PROJECTNAME
  1

  9
$CAMERADISPLAY
290
     0
  9
$LENSLENGTH
 40
50.0
  9
$CAMERAHEIGHT
 40
0.0
  9
$STEPSPERSEC
 40
2.0
  9
$STEPSIZE
 40
6.0
  9
$3DDWFPREC
 40
2.0
  9
$PSOLWIDTH
 40
0.25
  9
$PSOLHEIGHT
 40
4.0
  9
$LOFTANG1
 40
1.570796326794897
  9
$LOFTANG2
 40
1.570796326794897
  9
$LOFTMAG1
 40
0.0
  9
$LOFTMAG2
 40
0.0
  9
$LOFTPARAM
 70
     7
  9
$LOFTNORMALS
280
     1
  9
$LATITUDE
 40
37.795
  9
$LONGITUDE
 40
-122.394
  9
$NORTHDIRECTION
 40
0.0
  9
$TIMEZONE
 70
 -8000
  9
$LIGHTGLYPHDISPLAY
280
     1
  9
$TILEMODELIGHTSYNCH
280
     1
  9
$SOLIDHIST
280
     1
  9
$SHOWHIST
280
     1
  9
$DWFFRAME
280
     2
  9
$DGNFRAME
280
     2
  9
$REALWORLDSCALE
290
     1
  9
$INTERFERECOLOR
 62
   256
  9
$CSHADOW
280
     0
  9
$SHADOWPLANELOCATION
 40
0.0
  0
ENDSEC
  0
SECTION
  2
CLASSES
  0
CLASS
  1
LWPOLYLINE
  2
AcDbPolyline
  3
ObjectDBX Classes
 90
        0
 91
        1
280
     0
281
     1
  0
CLASS
  1
IMAGE
  2
AcDbRasterImage
  3
ISM
 90
      127
 91
       13
280
     0
281
     1
  0
CLASS
  1
OLE2FRAME
  2
AcDbOle2Frame
  3
ObjectDBX Classes
 90
        0
 91
        1
280
     0
281
     1
  0
CLASS
  1
HATCH
  2
AcDbHatch
  3
ObjectDBX Classes
 90
        0
 91
        1
280
     0
281
     1
  0
CLASS
  1
DICTIONARYVAR
  2
AcDbDictionaryVar
  3
ObjectDBX Classes
 90
        0
 91
       12
280
     0
281
     0
  0
CLASS
  1
RASTERVARIABLES
  2
AcDbRasterVariables
  3
ISM
 90
        0
 91
       12
280
     0
281
     0
  0
CLASS
  1
IMAGEDEF
  2
AcDbRasterImageDef
  3
ISM
 90
        0
 91
       12
280
     0
281
     0
  0
CLASS
  1
IMAGEDEF_REACTOR
  2
AcDbRasterImageDefReactor
  3
ISM
 90
        1
 91
       12
280
     0
281
     0
  0
CLASS
  1
IDBUFFER
  2
AcDbIdBuffer
  3
ObjectDBX Classes
 90
        0
 91
       12
280
     0
281
     0
  0
CLASS
  1
SPATIAL_FILTER
  2
AcDbSpatialFilter
  3
ObjectDBX Classes
 90
        0
 91
       12
280
     0
281
     0
  0
CLASS
  1
XRECORD
  2
AcDbXrecord
  3
ObjectDBX Classes
 90
        0
 91
        1
280
     0
281
     0
  0
CLASS
  1
SORTENTSTABLE
  2
AcDbSortentsTable
  3
ObjectDBX Classes
 90
        0
 91
       12
280
     0
281
     0
  0
CLASS
  1
LAYER_INDEX
  2
AcDbLayerIndex
  3
ObjectDBX Classes
 90
        0
 91
       12
280
     0
281
     0
  0
CLASS
  1
SPATIAL_INDEX
  2
AcDbSpatialIndex
  3
AutoCAD 2000
 90
        0
 91
       12
280
     0
281
     0
  0
CLASS
  1
OBJECT_PTR
  2
CAseDLPNTableRecord
  3
ASE-LPNTableRecord
 90
        1
 91
       12
280
     0
281
     0
  0
CLASS
  1
LAYOUT
  2
AcDbLayout
  3
ObjectDBX Classes
 90
        0
 91
        1
280
     0
281
     0
  0
CLASS
  1
PLOTSETTINGS
  2
AcDbPlotSettings
  3
ObjectDBX Classes
 90
        0
 91
       12
280
     0
281
     0
  0
CLASS
  1
ACDBDICTIONARYWDFLT
  2
AcDbDictionaryWithDefault
  3
ObjectDBX Classes
 90
        0
 91
       12
280
     0
281
     0
  0
CLASS
  1
ACDBPLACEHOLDER
  2
AcDbPlaceHolder
  3
ObjectDBX Classes
 90
        0
 91
        1
280
     0
281
     0
  0
CLASS
  1
SCALE
  2
AcDbScale
  3
ObjectDBX Classes
 90
     1153
 91
       12
280
     0
281
     0
  0
CLASS
  1
MATERIAL
  2
AcDbMaterial
  3
ObjectDBX Classes
 90
     1153
 91
       12
280
     0
281
     0
  0
CLASS
  1
VISUALSTYLE
  2
AcDbVisualStyle
  3
ObjectDBX Classes
 90
     4095
 91
       12
280
     0
281
     0
  0
CLASS
  1
TABLESTYLE
  2
AcDbTableStyle
  3
ObjectDBX Classes
 90
     4095
 91
       12
280
     0
281
     0
  0
CLASS
  1
DIMASSOC
  2
AcDbDimAssoc
  3
"AcDbDimAssoc|Product Desc:     AcDim ARX App For Dimension|Company:          Autodesk, Inc.|WEB Address:      www.autodesk.com"
 90
        0
 91
       12
280
     0
281
     0
  0
CLASS
  1
CELLSTYLEMAP
  2
AcDbCellStyleMap
  3
ObjectDBX Classes
 90
     1152
 91
       12
280
     0
281
     0
  0
CLASS
  1
SUN
  2
AcDbSun
  3
SCENEOE
 90
     1153
 91
       12
280
     0
281
     0
  0
CLASS
  1
MLEADERSTYLE
  2
AcDbMLeaderStyle
  3
ACDB_MLEADERSTYLE_CLASS
 90
     4095
 91
       12
280
     0
281
     0
  0
CLASS
  1
FIELD
  2
AcDbField
  3
ObjectDBX Classes
 90
     1152
 91
       12
280
     0
281
     0
  0
CLASS
  1
FIELDLIST
  2
AcDbFieldList
  3
ObjectDBX Classes
 90
     1152
 91
       12
280
     0
281
     0
  0
ENDSEC
  0
SECTION
  2
TABLES
  0
TABLE
  2
VPORT
  5
7
330
0
100
AcDbSymbolTable
 70
     1
  0
VPORT
  5
15
330
7
100
AcDbSymbolTableRecord
100
AcDbViewportTableRecord
  2
*ACTIVE
 70
     0
 10
0.0
 20
0.0
 11
1.0
 21
1.0
 12
301.0201356709077
 22
223.401285469834
 13
0.0
 23
0.0
 14
1.0
 24
1.0
 15
0.0
 25
0.0
 16
0.0
 26
0.0
 36
1.0
 17
-91.02013567090773
 27
73.59871453016603
 37
-46.86809886248109
 40
605.8800000000005
 41
2.479940564635958
 42
50.0
 43
0.0
 44
0.0
 50
0.0
 51
0.0
 71
    16
 72
  2000
 73
     1
 74
     1
 75
     0
 76
     0
 77
     0
 78
     0
281
     0
 65
     1
110
0.0
120
0.0
130
0.0
111
1.0
121
0.0
131
0.0
112
0.0
122
1.0
132
0.0
 79
     0
146
0.0
348
26C
 60
     3
 61
     5
292
     1
282
     1
141
0.0
142
0.0
 63
   256
361
904
  0
ENDTAB
  0
TABLE
  2
LTYPE
  5
4
330
0
100
AcDbSymbolTable
 70
     4
  0
LTYPE
  5
11
330
4
100
AcDbSymbolTableRecord
100
AcDbLinetypeTableRecord
  2
ByBlock
 70
     0
  3

 72
    65
 73
     0
 40
0.0
  0
LTYPE
  5
12
330
4
100
AcDbSymbolTableRecord
100
AcDbLinetypeTableRecord
  2
ByLayer
 70
     0
  3

 72
    65
 73
     0
 40
0.0
  0
LTYPE
  5
13
330
4
100
AcDbSymbolTableRecord
100
AcDbLinetypeTableRecord
  2
Continuous
 70
     0
  3
Solid line
 72
    65
 73
     0
 40
0.0
  0
LTYPE
  5
D6C
330
4
100
AcDbSymbolTableRecord
100
AcDbLinetypeTableRecord
  2
BORDER
 70
     0
  3
Border __  __  . __  __  . __  __  . __  __  . 
 72
    65
 73
     6
 40
44.45
 49
12.7
 74
     0
 49
-6.35
 74
     0
 49
12.7
 74
     0
 49
-6.35
 74
     0
 49
0.0
 74
     0
 49
-6.35
 74
     0
  0
LTYPE
  5
1638
330
4
100
AcDbSymbolTableRecord
100
AcDbLinetypeTableRecord
  2
HIDDEN2
 70
     0
  3
Hidden (.5x) _ _ _ _ _ _ _ _ _ _ _ _ _ _ _ _ _ 
 72
    65
 73
     2
 40
4.7625
 49
3.175
 74
     4
 75
     0
340
0
 46
0.0
 50
0.0
 44
0.0
 45
0.0
 49
-1.5875
 74
     4
 75
     0
340
0
 46
0.0
 50
0.0
 44
0.0
 45
0.0
  0
LTYPE
  5
641D
330
4
100
AcDbSymbolTableRecord
100
AcDbLinetypeTableRecord
  2
HIDDEN
 70
     0
  3
Hidden _ _ _ _ _ _ _ _ _ _ _ _ _ _ _ _ _ _ _ _ 
 72
    65
 73
     2
 40
9.524999999999999
 49
6.35
 74
     0
 49
-3.175
 74
     0
  0
ENDTAB
  0
TABLE
  2
LAYER
  5
2
102
{ACAD_XDICTIONARY
360
2E1
102
}
330
0
100
AcDbSymbolTable
 70
    27
  0
LAYER
  5
14
330
2
100
AcDbSymbolTableRecord
100
AcDbLayerTableRecord
  2
0
 70
     0
 62
     7
  6
Continuous
370
    -3
390
1D
347
266
  0
LAYER
  5
4B
330
2
100
AcDbSymbolTableRecord
100
AcDbLayerTableRecord
  2
TEMPLATE
 70
     0
 62
     7
  6
Continuous
370
    20
390
1D
347
266
  0
LAYER
  5
4C
330
2
100
AcDbSymbolTableRecord
100
AcDbLayerTableRecord
  2
DIM
 70
     0
 62
     3
  6
Continuous
370
    13
390
1D
347
266
  0
LAYER
  5
4D
330
2
100
AcDbSymbolTableRecord
100
AcDbLayerTableRecord
  2
MODEL
 70
     0
 62
     7
  6
Continuous
370
    20
390
1D
347
266
  0
LAYER
  5
667
330
2
100
AcDbSymbolTableRecord
100
AcDbLayerTableRecord
  2
LOGO
 70
     0
 62
     7
  6
Continuous
370
    -3
390
1D
347
266
  0
LAYER
  5
D6B
330
2
100
AcDbSymbolTableRecord
100
AcDbLayerTableRecord
  2
BORDER
 70
     0
 62
     4
  6
BORDER
290
     0
370
    20
390
1D
347
266
1001
AcAecLayerStandard
1000

1000

  0
LAYER
  5
D8C
330
2
100
AcDbSymbolTableRecord
100
AcDbLayerTableRecord
  2
Defpoints
 70
     0
 62
     7
  6
Continuous
290
     0
370
    -3
390
1D
347
266
  0
LAYER
  5
1635
330
2
100
AcDbSymbolTableRecord
100
AcDbLayerTableRecord
  2
Standard
 70
     0
 62
     7
  6
Continuous
370
    -3
390
1D
347
266
  0
LAYER
  5
3445
330
2
100
AcDbSymbolTableRecord
100
AcDbLayerTableRecord
  2
Layer50
 70
     0
 62
     7
  6
Continuous
370
    -3
390
1D
347
266
  0
LAYER
  5
5967
330
2
100
AcDbSymbolTableRecord
100
AcDbLayerTableRecord
  2
DEFAULT
 70
     0
 62
     7
  6
Continuous
370
    -3
390
1D
347
266
  0
LAYER
  5
5968
330
2
100
AcDbSymbolTableRecord
100
AcDbLayerTableRecord
  2
DV1_HULSE_VERLANGERUNGS-
 70
     0
 62
     7
  6
Continuous
370
    -3
390
1D
347
266
  0
LAYER
  5
5969
330
2
100
AcDbSymbolTableRecord
100
AcDbLayerTableRecord
  2
DV1_HULSE_ABDECK
 70
     0
 62
     7
  6
Continuous
370
    -3
390
1D
347
266
  0
LAYER
  5
596A
330
2
100
AcDbSymbolTableRecord
100
AcDbLayerTableRecord
  2
DV1_ROSETTE
 70
     0
 62
     7
  6
Continuous
370
    -3
390
1D
347
266
  0
LAYER
  5
596B
330
2
100
AcDbSymbolTableRecord
100
AcDbLayerTableRecord
  2
DV1_DICHTUNG_PROFIL
 70
     0
 62
     7
  6
Continuous
370
    -3
390
1D
347
266
  0
LAYER
  5
596C
330
2
100
AcDbSymbolTableRecord
100
AcDbLayerTableRecord
  2
DV1_RING
 70
     0
 62
     7
  6
Continuous
370
    -3
390
1D
347
266
  0
LAYER
  5
596D
330
2
100
AcDbSymbolTableRecord
100
AcDbLayerTableRecord
  2
DV1_GRIFF_-FUHR-
 70
     0
 62
     7
  6
Continuous
370
    -3
390
1D
347
266
  0
LAYER
  5
596E
330
2
100
AcDbSymbolTableRecord
100
AcDbLayerTableRecord
  2
DV1_GRIFF_KPL_TRIO
 70
     0
 62
     7
  6
Continuous
370
    -3
390
1D
347
266
  0
LAYER
  5
596F
330
2
100
AcDbSymbolTableRecord
100
AcDbLayerTableRecord
  2
DV2_GRIFF_KPL_TRIO
 70
     0
 62
     7
  6
Continuous
370
    -3
390
1D
347
266
  0
LAYER
  5
5970
330
2
100
AcDbSymbolTableRecord
100
AcDbLayerTableRecord
  2
DV2_GRIFF_-FUHR-
 70
     0
 62
     7
  6
Continuous
370
    -3
390
1D
347
266
  0
LAYER
  5
5971
330
2
100
AcDbSymbolTableRecord
100
AcDbLayerTableRecord
  2
DV2_ﾃ_ﾌｫﾙﾄ
 70
     0
 62
     7
  6
Continuous
370
    -3
390
1D
347
266
  0
LAYER
  5
5972
330
2
100
AcDbSymbolTableRecord
100
AcDbLayerTableRecord
  2
DV3_HULSE_VERLANGERUNGS-
 70
     0
 62
     7
  6
Continuous
370
    -3
390
1D
347
266
  0
LAYER
  5
5973
330
2
100
AcDbSymbolTableRecord
100
AcDbLayerTableRecord
  2
DV3_HULSE_ABDECK
 70
     0
 62
     7
  6
Continuous
370
    -3
390
1D
347
266
  0
LAYER
  5
5974
330
2
100
AcDbSymbolTableRecord
100
AcDbLayerTableRecord
  2
DV3_ROSETTE
 70
     0
 62
     7
  6
Continuous
370
    -3
390
1D
347
266
  0
LAYER
  5
5975
330
2
100
AcDbSymbolTableRecord
100
AcDbLayerTableRecord
  2
DV3_DICHTUNG_PROFIL
 70
     0
 62
     7
  6
Continuous
370
    -3
390
1D
347
266
  0
LAYER
  5
5976
330
2
100
AcDbSymbolTableRecord
100
AcDbLayerTableRecord
  2
DV3_RING
 70
     0
 62
     7
  6
Continuous
370
    -3
390
1D
347
266
  0
LAYER
  5
5977
330
2
100
AcDbSymbolTableRecord
100
AcDbLayerTableRecord
  2
DV3_GRIFF_-FUHR-
 70
     0
 62
     7
  6
Continuous
370
    -3
390
1D
347
266
  0
LAYER
  5
5978
330
2
100
AcDbSymbolTableRecord
100
AcDbLayerTableRecord
  2
DV3_GRIFF_KPL_TRIO
 70
     0
 62
     7
  6
Continuous
370
    -3
390
1D
347
266
  0
ENDTAB
  0
TABLE
  2
STYLE
  5
3
330
0
100
AcDbSymbolTable
 70
     4
  0
STYLE
  5
17
330
3
100
AcDbSymbolTableRecord
100
AcDbTextStyleTableRecord
  2
Standard
 70
     0
 40
0.0
 41
1.0
 50
0.0
 71
     0
 42
2.5
  3
txt
  4
BIGFONT.SHX
  0
STYLE
  5
39
330
3
100
AcDbSymbolTableRecord
100
AcDbTextStyleTableRecord
  2
ＭＳ ゴシック
 70
     0
 40
0.0
 41
1.0
 50
0.0
 71
     0
 42
2.5
  3
msgothic.ttc
  4
ＭＳ ゴシック
1001
ACAD
1000
ＭＳ ゴシック
1071
        0
  0
STYLE
  5
5983
330
3
100
AcDbSymbolTableRecord
100
AcDbTextStyleTableRecord
  2
arial_ttf
 70
     0
 40
0.0
 41
1.0
 50
0.0
 71
     0
 42
2.5
  3
arial.ttf
  4

1001
ACAD
1000
Arial
1071
    32770
  0
STYLE
  5
5984
330
3
100
AcDbSymbolTableRecord
100
AcDbTextStyleTableRecord
  2
semeca1_ttf
 70
     0
 40
0.0
 41
1.0
 50
0.0
 71
     0
 42
2.5
  3
semeca1.ttf
  4

1001
ACAD
1000
Solid Edge ANSI1 Symbols
1071
        2
  0
ENDTAB
  0
TABLE
  2
VIEW
  5
5
330
0
100
AcDbSymbolTable
 70
     0
  0
ENDTAB
  0
TABLE
  2
UCS
  5
6
330
0
100
AcDbSymbolTable
 70
     0
  0
ENDTAB
  0
TABLE
  2
APPID
  5
8
330
0
100
AcDbSymbolTable
 70
     3
  0
APPID
  5
16
330
8
100
AcDbSymbolTableRecord
100
AcDbRegAppTableRecord
  2
ACAD
 70
     0
  0
APPID
  5
7AC
330
8
100
AcDbSymbolTableRecord
100
AcDbRegAppTableRecord
  2
AcAecLayerStandard
 70
     0
  0
APPID
  5
E29
330
8
100
AcDbSymbolTableRecord
100
AcDbRegAppTableRecord
  2
ACAD_MLEADERVER
 70
     0
  0
ENDTAB
  0
TABLE
  2
DIMSTYLE
  5
9
330
0
100
AcDbSymbolTable
 70
     2
100
AcDbDimStyleTable
  0
DIMSTYLE
105
18
330
9
100
AcDbSymbolTableRecord
100
AcDbDimStyleTableRecord
  2
Standard
 70
     0
178
     0
340
17
  0
DIMSTYLE
105
57
102
{ACAD_REACTORS
330
5AB2
330
5B89
330
5BBA
330
63E7
330
6446
330
6455
330
648D
330
6490
330
64BA
102
}
330
9
100
AcDbSymbolTableRecord
100
AcDbDimStyleTableRecord
  2
tfrom線あり
 70
     0
  3
<>
  4
[]
 41
1.0
 42
5.0
 43
0.9999999999999999
 44
0.0
 73
     0
 74
     0
 77
     1
 78
    11
140
5.0
141
0.0
143
1.0
147
5.0
171
     1
174
     1
178
     0
179
     2
271
     0
272
     1
276
     2
284
    11
285
    11
286
    11
289
     0
340
39
341
4E
342
4E
  0
ENDTAB
  0
TABLE
  2
BLOCK_RECORD
  5
1
330
0
100
AcDbSymbolTable
 70
    43
  0
BLOCK_RECORD
  5
A
330
1
100
AcDbSymbolTableRecord
100
AcDbBlockTableRecord
  2
*MODEL_SPACE
340
20
 70
     0
280
     1
281
     0
  0
BLOCK_RECORD
  5
B
330
1
100
AcDbSymbolTableRecord
100
AcDbBlockTableRecord
  2
*PAPER_SPACE
340
21
 70
     0
280
     1
281
     0
  0
BLOCK_RECORD
  5
4E
330
1
100
AcDbSymbolTableRecord
100
AcDbBlockTableRecord
  2
_DOT
340
0
102
{BLKREFS
331
46D4
331
46D5
331
4AA9
331
4AAA
331
4DC9
331
4DCA
331
4DD8
331
4DD9
331
4DE8
331
4DE9
331
52BD
331
52BE
331
5465
331
5466
331
553F
331
5540
331
57A7
331
57A8
331
594F
331
5950
331
59AA
331
59AB
331
59B8
331
59B9
331
59C6
331
59C7
331
5AA6
331
5AA7
331
5B90
331
5B91
331
5B9C
331
5B9D
331
5BA8
331
5BA9
331
5BB4
331
5BB5
331
5BC3
331
5BC4
331
5C89
331
5C8A
331
5DD8
331
5DD9
331
5EB3
331
5EB4
331
5EC0
331
5EC1
331
5FFE
331
5FFF
331
6384
331
6385
331
6390
331
6391
331
639C
331
639D
331
63A8
331
63A9
331
63F8
331
63F9
331
6475
331
6476
331
6481
331
6482
331
6499
331
649A
331
64A5
331
64A6
331
64C4
331
64C3
102
}
 70
     0
280
     1
281
     0
  0
BLOCK_RECORD
  5
68A
330
1
100
AcDbSymbolTableRecord
100
AcDbBlockTableRecord
  2
名称未設定-1
340
0
102
{BLKREFS
331
6B5
102
}
 70
     1
280
     1
281
     0
  0
BLOCK_RECORD
  5
68D
330
1
100
AcDbSymbolTableRecord
100
AcDbBlockTableRecord
  2
block 2
340
0
102
{BLKREFS
331
68C
331
1343
102
}
 70
     0
280
     1
281
     0
  0
BLOCK_RECORD
  5
690
330
1
100
AcDbSymbolTableRecord
100
AcDbBlockTableRecord
  2
block 3
340
0
102
{BLKREFS
331
68F
102
}
 70
     0
280
     1
281
     0
  0
BLOCK_RECORD
  5
693
330
1
100
AcDbSymbolTableRecord
100
AcDbBlockTableRecord
  2
block 4
340
0
102
{BLKREFS
331
692
102
}
 70
     0
280
     1
281
     0
  0
BLOCK_RECORD
  5
6A2
330
1
100
AcDbSymbolTableRecord
100
AcDbBlockTableRecord
  2
block 5
340
0
102
{BLKREFS
331
6A1
102
}
 70
     0
280
     1
281
     0
  0
BLOCK_RECORD
  5
46CE
330
1
100
AcDbSymbolTableRecord
100
AcDbBlockTableRecord
  2
*D6
340
0
 70
     0
280
     1
281
     0
  0
BLOCK_RECORD
  5
4AA3
330
1
100
AcDbSymbolTableRecord
100
AcDbBlockTableRecord
  2
*D7
340
0
 70
     0
280
     1
281
     0
  0
BLOCK_RECORD
  5
4DC3
330
1
100
AcDbSymbolTableRecord
100
AcDbBlockTableRecord
  2
*D8
340
0
 70
     0
280
     1
281
     0
  0
BLOCK_RECORD
  5
4DD2
330
1
100
AcDbSymbolTableRecord
100
AcDbBlockTableRecord
  2
*D9
340
0
 70
     0
280
     1
281
     0
  0
BLOCK_RECORD
  5
4DE2
330
1
100
AcDbSymbolTableRecord
100
AcDbBlockTableRecord
  2
*D10
340
0
 70
     0
280
     1
281
     0
  0
BLOCK_RECORD
  5
52B8
330
1
100
AcDbSymbolTableRecord
100
AcDbBlockTableRecord
  2
*D11
340
0
 70
     0
280
     1
281
     0
  0
BLOCK_RECORD
  5
545F
330
1
100
AcDbSymbolTableRecord
100
AcDbBlockTableRecord
  2
*D12
340
0
 70
     0
280
     1
281
     0
  0
BLOCK_RECORD
  5
5539
330
1
100
AcDbSymbolTableRecord
100
AcDbBlockTableRecord
  2
*D13
340
0
 70
     0
280
     1
281
     0
  0
BLOCK_RECORD
  5
57A2
330
1
100
AcDbSymbolTableRecord
100
AcDbBlockTableRecord
  2
*D14
340
0
 70
     0
280
     1
281
     0
  0
BLOCK_RECORD
  5
5949
330
1
100
AcDbSymbolTableRecord
100
AcDbBlockTableRecord
  2
*D15
340
0
 70
     0
280
     1
281
     0
  0
BLOCK_RECORD
  5
59A5
330
1
100
AcDbSymbolTableRecord
100
AcDbBlockTableRecord
  2
*D16
340
0
 70
     0
280
     1
281
     0
  0
BLOCK_RECORD
  5
59B3
330
1
100
AcDbSymbolTableRecord
100
AcDbBlockTableRecord
  2
*D17
340
0
 70
     0
280
     1
281
     0
  0
BLOCK_RECORD
  5
59C1
330
1
100
AcDbSymbolTableRecord
100
AcDbBlockTableRecord
  2
*D18
340
0
 70
     0
280
     1
281
     0
  0
BLOCK_RECORD
  5
5AA1
330
1
100
AcDbSymbolTableRecord
100
AcDbBlockTableRecord
  2
*D19
340
0
 70
     0
280
     1
281
     0
  0
BLOCK_RECORD
  5
5B8A
330
1
100
AcDbSymbolTableRecord
100
AcDbBlockTableRecord
  2
*D20
340
0
 70
     0
280
     1
281
     0
  0
BLOCK_RECORD
  5
5B96
330
1
100
AcDbSymbolTableRecord
100
AcDbBlockTableRecord
  2
*D21
340
0
 70
     0
280
     1
281
     0
  0
BLOCK_RECORD
  5
5BA2
330
1
100
AcDbSymbolTableRecord
100
AcDbBlockTableRecord
  2
*D22
340
0
 70
     0
280
     1
281
     0
  0
BLOCK_RECORD
  5
5BAE
330
1
100
AcDbSymbolTableRecord
100
AcDbBlockTableRecord
  2
*D23
340
0
 70
     0
280
     1
281
     0
  0
BLOCK_RECORD
  5
5BBD
330
1
100
AcDbSymbolTableRecord
100
AcDbBlockTableRecord
  2
*D24
340
0
 70
     0
280
     1
281
     0
  0
BLOCK_RECORD
  5
5C83
330
1
100
AcDbSymbolTableRecord
100
AcDbBlockTableRecord
  2
*D25
340
0
 70
     0
280
     1
281
     0
  0
BLOCK_RECORD
  5
5DD3
330
1
100
AcDbSymbolTableRecord
100
AcDbBlockTableRecord
  2
*D26
340
0
 70
     0
280
     1
281
     0
  0
BLOCK_RECORD
  5
5EAE
330
1
100
AcDbSymbolTableRecord
100
AcDbBlockTableRecord
  2
*D27
340
0
 70
     0
280
     1
281
     0
  0
BLOCK_RECORD
  5
5EBB
330
1
100
AcDbSymbolTableRecord
100
AcDbBlockTableRecord
  2
*D28
340
0
 70
     0
280
     1
281
     0
  0
BLOCK_RECORD
  5
5FF9
330
1
100
AcDbSymbolTableRecord
100
AcDbBlockTableRecord
  2
*D29
340
0
 70
     0
280
     1
281
     0
  0
BLOCK_RECORD
  5
637E
330
1
100
AcDbSymbolTableRecord
100
AcDbBlockTableRecord
  2
*D30
340
0
 70
     0
280
     1
281
     0
  0
BLOCK_RECORD
  5
638A
330
1
100
AcDbSymbolTableRecord
100
AcDbBlockTableRecord
  2
*D31
340
0
 70
     0
280
     1
281
     0
  0
BLOCK_RECORD
  5
6396
330
1
100
AcDbSymbolTableRecord
100
AcDbBlockTableRecord
  2
*D32
340
0
 70
     0
280
     1
281
     0
  0
BLOCK_RECORD
  5
63A2
330
1
100
AcDbSymbolTableRecord
100
AcDbBlockTableRecord
  2
*D33
340
0
 70
     0
280
     1
281
     0
  0
BLOCK_RECORD
  5
63F2
330
1
100
AcDbSymbolTableRecord
100
AcDbBlockTableRecord
  2
*D34
340
0
 70
     0
280
     1
281
     0
  0
BLOCK_RECORD
  5
6447
330
1
100
AcDbSymbolTableRecord
100
AcDbBlockTableRecord
  2
*D36
340
0
 70
     0
280
     1
281
     0
  0
BLOCK_RECORD
  5
6456
330
1
100
AcDbSymbolTableRecord
100
AcDbBlockTableRecord
  2
*D37
340
0
 70
     0
280
     1
281
     0
  0
BLOCK_RECORD
  5
646F
330
1
100
AcDbSymbolTableRecord
100
AcDbBlockTableRecord
  2
*D38
340
0
 70
     0
280
     1
281
     0
  0
BLOCK_RECORD
  5
647B
330
1
100
AcDbSymbolTableRecord
100
AcDbBlockTableRecord
  2
*D39
340
0
 70
     0
280
     1
281
     0
  0
BLOCK_RECORD
  5
6493
330
1
100
AcDbSymbolTableRecord
100
AcDbBlockTableRecord
  2
*D40
340
0
 70
     0
280
     1
281
     0
  0
BLOCK_RECORD
  5
649F
330
1
100
AcDbSymbolTableRecord
100
AcDbBlockTableRecord
  2
*D41
340
0
 70
     0
280
     1
281
     0
  0
BLOCK_RECORD
  5
64BD
330
1
100
AcDbSymbolTableRecord
100
AcDbBlockTableRecord
  2
*D42
340
0
 70
     0
280
     1
281
     0
  0
ENDTAB
  0
ENDSEC
  0
SECTION
  2
BLOCKS
  0
BLOCK
  5
D
330
A
100
AcDbEntity
  8
0
390
1D
100
AcDbBlockBegin
  2
*MODEL_SPACE
 70
     0
 10
0.0
 20
0.0
 30
0.0
  3
*MODEL_SPACE
  1
*MODEL_SPACE
  0
ENDBLK
  5
E
330
A
100
AcDbEntity
  8
0
390
1D
100
AcDbBlockEnd
  0
BLOCK
  5
F
330
B
100
AcDbEntity
 67
     1
  8
0
390
1D
100
AcDbBlockBegin
  2
*PAPER_SPACE
 70
     0
 10
0.0
 20
0.0
 30
0.0
  3
*PAPER_SPACE
  1
*PAPER_SPACE
  0
ENDBLK
  5
10
330
B
100
AcDbEntity
 67
     1
  8
0
390
1D
100
AcDbBlockEnd
  0
BLOCK
  5
38A8
330
4E
100
AcDbEntity
  8
0
390
1D
100
AcDbBlockBegin
  2
_DOT
 70
     0
 10
0.0
 20
0.0
 30
0.0
  3
_DOT
  1
_DOT
  0
POLYLINE
  5
38AA
330
4E
100
AcDbEntity
  8
0
  6
ByBlock
 62
     0
370
    -2
390
1D
100
AcDb2dPolyline
 66
     1
 10
0.0
 20
0.0
 30
0.0
 70
     1
 40
0.5
 41
0.5
  0
VERTEX
  5
38AB
330
38AA
100
AcDbEntity
  8
0
  6
ByBlock
 62
     0
370
    -2
390
1D
100
AcDbVertex
100
AcDb2dVertex
 10
-0.25
 20
0.0
 30
0.0
 42
1.0
  0
VERTEX
  5
38AC
330
38AA
100
AcDbEntity
  8
0
  6
ByBlock
 62
     0
370
    -2
390
1D
100
AcDbVertex
100
AcDb2dVertex
 10
0.25
 20
0.0
 30
0.0
 42
1.0
  0
SEQEND
  5
38AD
330
38AA
100
AcDbEntity
  8
0
390
1D
  0
LINE
  5
38AE
330
4E
100
AcDbEntity
  8
0
  6
ByBlock
 62
     0
370
    -2
390
1D
100
AcDbLine
 10
-0.5
 20
0.0
 30
0.0
 11
-1.0
 21
0.0
 31
0.0
  0
ENDBLK
  5
38AF
330
4E
100
AcDbEntity
  8
0
390
1D
100
AcDbBlockEnd
  0
BLOCK
  5
68B
330
68A
100
AcDbEntity
  8
0
100
AcDbBlockBegin
  2
名称未設定-1
 70
     0
 10
0.0
 20
0.0
 30
0.0
  3
名称未設定-1
  1
名称未設定-1
  0
INSERT
  5
68F
330
68A
100
AcDbEntity
  8
LOGO
100
AcDbBlockReference
  2
block 3
 10
0.0
 20
0.0
 30
0.0
  0
ENDBLK
  5
6B1
330
68A
100
AcDbEntity
  8
0
100
AcDbBlockEnd
  0
BLOCK
  5
68E
330
68D
100
AcDbEntity
  8
0
100
AcDbBlockBegin
  2
block 2
 70
     0
 10
0.0
 20
0.0
 30
0.0
  3
block 2
  1
block 2
  0
ENDBLK
  5
6B0
330
68D
100
AcDbEntity
  8
0
100
AcDbBlockEnd
  0
BLOCK
  5
691
330
690
100
AcDbEntity
  8
0
100
AcDbBlockBegin
  2
block 3
 70
     0
 10
0.0
 20
0.0
 30
0.0
  3
block 3
  1
block 3
  0
INSERT
  5
692
330
690
100
AcDbEntity
  8
LOGO
100
AcDbBlockReference
  2
block 4
 10
0.0
 20
0.0
 30
0.0
  0
INSERT
  5
6A1
330
690
100
AcDbEntity
  8
LOGO
100
AcDbBlockReference
  2
block 5
 10
0.0
 20
0.0
 30
0.0
  0
ENDBLK
  5
6AF
330
690
100
AcDbEntity
  8
0
100
AcDbBlockEnd
  0
BLOCK
  5
694
330
693
100
AcDbEntity
  8
0
100
AcDbBlockBegin
  2
block 4
 70
     0
 10
0.0
 20
0.0
 30
0.0
  3
block 4
  1
block 4
  0
POLYLINE
  5
695
330
693
100
AcDbEntity
  8
LOGO
370
     0
100
AcDb2dPolyline
 66
     1
 10
0.0
 20
0.0
 30
0.0
  0
VERTEX
  5
696
330
695
100
AcDbEntity
  8
LOGO
370
     0
100
AcDbVertex
100
AcDb2dVertex
 10
83.79545727667795
 20
167.6444858234922
 30
0.0
  0
VERTEX
  5
697
330
695
100
AcDbEntity
  8
LOGO
370
     0
100
AcDbVertex
100
AcDb2dVertex
 10
83.79545727667795
 20
159.7968976406313
 30
0.0
  0
VERTEX
  5
698
330
695
100
AcDbEntity
  8
LOGO
370
     0
100
AcDbVertex
100
AcDb2dVertex
 10
71.3631329975216
 20
159.7968976406313
 30
0.0
  0
VERTEX
  5
699
330
695
100
AcDbEntity
  8
LOGO
370
     0
100
AcDbVertex
100
AcDb2dVertex
 10
71.3631329975216
 20
127.8027915271048
 30
0.0
  0
VERTEX
  5
69A
330
695
100
AcDbEntity
  8
LOGO
370
     0
100
AcDbVertex
100
AcDb2dVertex
 10
60.43011526263018
 20
127.8027915271048
 30
0.0
  0
VERTEX
  5
69B
330
695
100
AcDbEntity
  8
LOGO
370
     0
100
AcDbVertex
100
AcDb2dVertex
 10
60.43011526263018
 20
159.7968976406313
 30
0.0
  0
VERTEX
  5
69C
330
695
100
AcDbEntity
  8
LOGO
370
     0
100
AcDbVertex
100
AcDb2dVertex
 10
48.21793273020759
 20
159.7968976406313
 30
0.0
  0
VERTEX
  5
69D
330
695
100
AcDbEntity
  8
LOGO
370
     0
100
AcDbVertex
100
AcDb2dVertex
 10
48.21793273020759
 20
167.6444858234922
 30
0.0
  0
VERTEX
  5
69E
330
695
100
AcDbEntity
  8
LOGO
370
     0
100
AcDbVertex
100
AcDb2dVertex
 10
83.79545727667795
 20
167.6444858234922
 30
0.0
  0
SEQEND
  5
69F
330
695
100
AcDbEntity
  8
LOGO
370
     0
  0
HATCH
  5
6A0
330
693
100
AcDbEntity
  8
LOGO
 62
   250
420
  2234388
100
AcDbHatch
 10
0.0
 20
0.0
 30
0.0
210
0.0
220
0.0
230
1.0
  2
SOLID
 70
     1
 71
     0
 91
        1
 92
        1
 93
        8
 72
     1
 10
83.79545727667795
 20
167.6444858234922
 11
83.79545727667795
 21
159.7968976406313
 72
     1
 10
83.79545727667795
 20
159.7968976406313
 11
71.3631329975216
 21
159.7968976406313
 72
     1
 10
71.3631329975216
 20
159.7968976406313
 11
71.3631329975216
 21
127.8027915271048
 72
     1
 10
71.3631329975216
 20
127.8027915271048
 11
60.43011526263018
 21
127.8027915271048
 72
     1
 10
60.43011526263018
 20
127.8027915271048
 11
60.43011526263018
 21
159.7968976406313
 72
     1
 10
60.43011526263018
 20
159.7968976406313
 11
48.21793273020759
 21
159.7968976406313
 72
     1
 10
48.21793273020759
 20
159.7968976406313
 11
48.21793273020759
 21
167.6444858234922
 72
     1
 10
48.21793273020759
 20
167.6444858234922
 11
83.79545727667795
 21
167.6444858234922
 97
        0
 75
     2
 76
     1
 98
        0
  0
ENDBLK
  5
6AE
330
693
100
AcDbEntity
  8
0
100
AcDbBlockEnd
  0
BLOCK
  5
6A3
330
6A2
100
AcDbEntity
  8
0
100
AcDbBlockBegin
  2
block 5
 70
     0
 10
0.0
 20
0.0
 30
0.0
  3
block 5
  1
block 5
  0
SPLINE
  5
6A4
330
6A2
100
AcDbEntity
  8
LOGO
370
     0
100
AcDbSpline
210
0.0
220
0.0
230
1.0
 70
    11
 71
     3
 72
    56
 73
    52
 74
     0
 42
0.000000001
 43
0.0000000001
 40
0.0
 40
0.0
 40
0.0
 40
0.0
 40
1.0
 40
1.0
 40
1.0
 40
2.0
 40
2.0
 40
2.0
 40
3.0
 40
3.0
 40
3.0
 40
4.0
 40
4.0
 40
4.0
 40
5.0
 40
5.0
 40
5.0
 40
6.0
 40
6.0
 40
6.0
 40
7.0
 40
7.0
 40
7.0
 40
8.0
 40
8.0
 40
8.0
 40
9.0
 40
9.0
 40
9.0
 40
10.0
 40
10.0
 40
10.0
 40
11.0
 40
11.0
 40
11.0
 40
12.0
 40
12.0
 40
12.0
 40
13.0
 40
13.0
 40
13.0
 40
14.0
 40
14.0
 40
14.0
 40
15.0
 40
15.0
 40
15.0
 40
16.0
 40
16.0
 40
16.0
 40
17.0
 40
17.0
 40
17.0
 40
17.0
 10
100.4504378777679
 20
166.69157178364
 30
0.0
 10
101.9848844191641
 20
167.1313385124438
 30
0.0
 10
103.9637485713373
 20
166.7649523658846
 30
0.0
 10
103.9637485713373
 20
166.7649523658846
 30
0.0
 10
103.9637485713373
 20
166.7649523658846
 30
0.0
 10
103.0132460999156
 20
163.911205638077
 30
0.0
 10
103.0132460999156
 20
163.911205638077
 30
0.0
 10
103.0132460999156
 20
163.911205638077
 30
0.0
 10
101.0674548862189
 20
164.3601018759394
 30
0.0
 10
99.57090442016032
 20
163.1805004036133
 30
0.0
 10
98.40508333886608
 20
162.258247733807
 30
0.0
 10
97.65301849830304
 20
159.804132345923
 30
0.0
 10
97.3598406791005
 20
158.8699940888517
 30
0.0
 10
97.3598406791005
 20
158.8699940888517
 30
0.0
 10
96.07137411762282
 20
154.9119212747295
 30
0.0
 10
96.07137411762282
 20
154.9119212747295
 30
0.0
 10
96.07137411762282
 20
154.9119212747295
 30
0.0
 10
100.3012651448482
 20
154.9119212747295
 30
0.0
 10
100.3012651448482
 20
154.9119212747295
 30
0.0
 10
100.3012651448482
 20
154.9119212747295
 30
0.0
 10
99.64152892419852
 20
152.4199098115079
 30
0.0
 10
99.64152892419852
 20
152.4199098115079
 30
0.0
 10
99.64152892419852
 20
152.4199098115079
 30
0.0
 10
95.38097652692731
 20
152.4199098115079
 30
0.0
 10
95.38097652692731
 20
152.4199098115079
 30
0.0
 10
95.38097652692731
 20
152.4199098115079
 30
0.0
 10
87.75353009080013
 20
127.8027915271048
 30
0.0
 10
87.75353009080013
 20
127.8027915271048
 30
0.0
 10
87.75353009080013
 20
127.8027915271048
 30
0.0
 10
85.36538832498108
 20
127.8027915271048
 30
0.0
 10
85.36538832498108
 20
127.8027915271048
 30
0.0
 10
85.36538832498108
 20
127.8027915271048
 30
0.0
 10
93.00006946639998
 20
152.4199098115079
 30
0.0
 10
93.00006946639998
 20
152.4199098115079
 30
0.0
 10
93.00006946639998
 20
152.4199098115079
 30
0.0
 10
89.85297266450198
 20
152.4199098115079
 30
0.0
 10
89.85297266450198
 20
152.4199098115079
 30
0.0
 10
89.85297266450198
 20
152.4199098115079
 30
0.0
 10
90.51270888515164
 20
154.9119212747295
 30
0.0
 10
90.51270888515164
 20
154.9119212747295
 30
0.0
 10
90.51270888515164
 20
154.9119212747295
 30
0.0
 10
93.6904670570955
 20
154.9119212747295
 30
0.0
 10
93.6904670570955
 20
154.9119212747295
 30
0.0
 10
93.6904670570955
 20
154.9119212747295
 30
0.0
 10
94.81598049462158
 20
158.3616699146644
 30
0.0
 10
94.81598049462158
 20
158.3616699146644
 30
0.0
 10
95.7237637538445
 20
161.2605474231013
 30
0.0
 10
96.4968436907311
 20
162.8139420021662
 30
0.0
 10
97.15657991138076
 20
163.9844139654337
 30
0.0
 10
97.81183750494507
 20
165.1523021053827
 30
0.0
 10
99.1047826935081
 20
166.3084769129547
 30
0.0
 10
100.4504378777679
 20
166.69157178364
 30
0.0
  0
HATCH
  5
6A5
330
6A2
100
AcDbEntity
  8
LOGO
 62
   250
420
  2234388
100
AcDbHatch
 10
0.0
 20
0.0
 30
0.0
210
0.0
220
0.0
230
1.0
  2
SOLID
 70
     1
 71
     0
 91
        1
 92
        1
 93
        1
 72
     4
 94
        3
 73
     0
 74
     1
 95
       56
 96
       52
 40
0.0
 40
0.0
 40
0.0
 40
0.0
 40
1.0
 40
1.0
 40
1.0
 40
2.0
 40
2.0
 40
2.0
 40
3.0
 40
3.0
 40
3.0
 40
4.0
 40
4.0
 40
4.0
 40
5.0
 40
5.0
 40
5.0
 40
6.0
 40
6.0
 40
6.0
 40
7.0
 40
7.0
 40
7.0
 40
8.0
 40
8.0
 40
8.0
 40
9.0
 40
9.0
 40
9.0
 40
10.0
 40
10.0
 40
10.0
 40
11.0
 40
11.0
 40
11.0
 40
12.0
 40
12.0
 40
12.0
 40
13.0
 40
13.0
 40
13.0
 40
14.0
 40
14.0
 40
14.0
 40
15.0
 40
15.0
 40
15.0
 40
16.0
 40
16.0
 40
16.0
 40
17.0
 40
17.0
 40
17.0
 40
17.0
 10
100.4504378777679
 20
166.69157178364
 10
101.9848844191641
 20
167.1313385124438
 10
103.9637485713373
 20
166.7649523658846
 10
103.9637485713373
 20
166.7649523658846
 10
103.9637485713373
 20
166.7649523658846
 10
103.0132460999156
 20
163.911205638077
 10
103.0132460999156
 20
163.911205638077
 10
103.0132460999156
 20
163.911205638077
 10
101.0674548862189
 20
164.3601018759394
 10
99.57090442016032
 20
163.1805004036133
 10
98.40508333886608
 20
162.258247733807
 10
97.65301849830304
 20
159.804132345923
 10
97.3598406791005
 20
158.8699940888517
 10
97.3598406791005
 20
158.8699940888517
 10
96.07137411762282
 20
154.9119212747295
 10
96.07137411762282
 20
154.9119212747295
 10
96.07137411762282
 20
154.9119212747295
 10
100.3012651448482
 20
154.9119212747295
 10
100.3012651448482
 20
154.9119212747295
 10
100.3012651448482
 20
154.9119212747295
 10
99.64152892419852
 20
152.4199098115079
 10
99.64152892419852
 20
152.4199098115079
 10
99.64152892419852
 20
152.4199098115079
 10
95.38097652692731
 20
152.4199098115079
 10
95.38097652692731
 20
152.4199098115079
 10
95.38097652692731
 20
152.4199098115079
 10
87.75353009080013
 20
127.8027915271048
 10
87.75353009080013
 20
127.8027915271048
 10
87.75353009080013
 20
127.8027915271048
 10
85.36538832498108
 20
127.8027915271048
 10
85.36538832498108
 20
127.8027915271048
 10
85.36538832498108
 20
127.8027915271048
 10
93.00006946639998
 20
152.4199098115079
 10
93.00006946639998
 20
152.4199098115079
 10
93.00006946639998
 20
152.4199098115079
 10
89.85297266450198
 20
152.4199098115079
 10
89.85297266450198
 20
152.4199098115079
 10
89.85297266450198
 20
152.4199098115079
 10
90.51270888515164
 20
154.9119212747295
 10
90.51270888515164
 20
154.9119212747295
 10
90.51270888515164
 20
154.9119212747295
 10
93.6904670570955
 20
154.9119212747295
 10
93.6904670570955
 20
154.9119212747295
 10
93.6904670570955
 20
154.9119212747295
 10
94.81598049462158
 20
158.3616699146644
 10
94.81598049462158
 20
158.3616699146644
 10
95.7237637538445
 20
161.2605474231013
 10
96.4968436907311
 20
162.8139420021662
 10
97.15657991138076
 20
163.9844139654337
 10
97.81183750494507
 20
165.1523021053827
 10
99.1047826935081
 20
166.3084769129547
 10
100.4504378777679
 20
166.69157178364
 97
        0
 75
     2
 76
     1
 98
        0
  0
SPLINE
  5
6A6
330
6A2
100
AcDbEntity
  8
LOGO
370
     0
100
AcDbSpline
210
0.0
220
0.0
230
1.0
 70
    11
 71
     3
 72
    38
 73
    34
 74
     0
 42
0.000000001
 43
0.0000000001
 40
0.0
 40
0.0
 40
0.0
 40
0.0
 40
1.0
 40
1.0
 40
1.0
 40
2.0
 40
2.0
 40
2.0
 40
3.0
 40
3.0
 40
3.0
 40
4.0
 40
4.0
 40
4.0
 40
5.0
 40
5.0
 40
5.0
 40
6.0
 40
6.0
 40
6.0
 40
7.0
 40
7.0
 40
7.0
 40
8.0
 40
8.0
 40
8.0
 40
9.0
 40
9.0
 40
9.0
 40
10.0
 40
10.0
 40
10.0
 40
11.0
 40
11.0
 40
11.0
 40
11.0
 10
126.377554584636
 20
154.8151140277308
 30
0.0
 10
126.377554584636
 20
154.8151140277308
 30
0.0
 10
128.8311532078563
 20
154.8151140277308
 30
0.0
 10
128.8311532078563
 20
154.8151140277308
 30
0.0
 10
128.8311532078563
 20
154.8151140277308
 30
0.0
 10
127.7345785914971
 20
151.3062819612468
 30
0.0
 10
127.7345785914971
 20
151.3062819612468
 30
0.0
 10
128.571392836906
 20
152.2922689395754
 30
0.0
 10
129.8860421413442
 20
153.604506675583
 30
0.0
 10
131.0163787157314
 20
154.2664822097754
 30
0.0
 10
132.7044766171327
 20
155.2500576196734
 30
0.0
 10
133.6642808525008
 20
155.3847609420097
 30
0.0
 10
134.7284715499351
 20
155.3565111403944
 30
0.0
 10
134.7284715499351
 20
155.3565111403944
 30
0.0
 10
133.6877075172549
 20
152.0345756272799
 30
0.0
 10
133.6877075172549
 20
152.0345756272799
 30
0.0
 10
133.011434827367
 20
152.3184516825359
 30
0.0
 10
130.930940291334
 20
151.7768823149844
 30
0.0
 10
129.739280976855
 20
150.9162968950455
 30
0.0
 10
128.66613302525
 20
150.1454562717016
 30
0.0
 10
127.9192358313239
 20
149.4857200510519
 30
0.0
 10
127.0393578639405
 20
147.8282835196966
 30
0.0
 10
126.164647543194
 20
146.1699857139017
 30
0.0
 10
125.4742499524985
 20
143.5262176944419
 30
0.0
 10
124.2822461282437
 20
139.6959580071401
 30
0.0
 10
124.2822461282437
 20
139.6959580071401
 30
0.0
 10
120.5753209406769
 20
127.8027915271048
 30
0.0
 10
120.5753209406769
 20
127.8027915271048
 30
0.0
 10
120.5753209406769
 20
127.8027915271048
 30
0.0
 10
118.1964809388044
 20
127.8027915271048
 30
0.0
 10
118.1964809388044
 20
127.8027915271048
 30
0.0
 10
118.1964809388044
 20
127.8027915271048
 30
0.0
 10
126.377554584636
 20
154.8151140277308
 30
0.0
 10
126.377554584636
 20
154.8151140277308
 30
0.0
  0
HATCH
  5
6A7
330
6A2
100
AcDbEntity
  8
LOGO
 62
   250
420
  2234388
100
AcDbHatch
 10
0.0
 20
0.0
 30
0.0
210
0.0
220
0.0
230
1.0
  2
SOLID
 70
     1
 71
     0
 91
        1
 92
        1
 93
        1
 72
     4
 94
        3
 73
     0
 74
     1
 95
       38
 96
       34
 40
0.0
 40
0.0
 40
0.0
 40
0.0
 40
1.0
 40
1.0
 40
1.0
 40
2.0
 40
2.0
 40
2.0
 40
3.0
 40
3.0
 40
3.0
 40
4.0
 40
4.0
 40
4.0
 40
5.0
 40
5.0
 40
5.0
 40
6.0
 40
6.0
 40
6.0
 40
7.0
 40
7.0
 40
7.0
 40
8.0
 40
8.0
 40
8.0
 40
9.0
 40
9.0
 40
9.0
 40
10.0
 40
10.0
 40
10.0
 40
11.0
 40
11.0
 40
11.0
 40
11.0
 10
126.377554584636
 20
154.8151140277308
 10
126.377554584636
 20
154.8151140277308
 10
128.8311532078563
 20
154.8151140277308
 10
128.8311532078563
 20
154.8151140277308
 10
128.8311532078563
 20
154.8151140277308
 10
127.7345785914971
 20
151.3062819612468
 10
127.7345785914971
 20
151.3062819612468
 10
128.571392836906
 20
152.2922689395754
 10
129.8860421413442
 20
153.604506675583
 10
131.0163787157314
 20
154.2664822097754
 10
132.7044766171327
 20
155.2500576196734
 10
133.6642808525008
 20
155.3847609420097
 10
134.7284715499351
 20
155.3565111403944
 10
134.7284715499351
 20
155.3565111403944
 10
133.6877075172549
 20
152.0345756272799
 10
133.6877075172549
 20
152.0345756272799
 10
133.011434827367
 20
152.3184516825359
 10
130.930940291334
 20
151.7768823149844
 10
129.739280976855
 20
150.9162968950455
 10
128.66613302525
 20
150.1454562717016
 10
127.9192358313239
 20
149.4857200510519
 10
127.0393578639405
 20
147.8282835196966
 10
126.164647543194
 20
146.1699857139017
 10
125.4742499524985
 20
143.5262176944419
 10
124.2822461282437
 20
139.6959580071401
 10
124.2822461282437
 20
139.6959580071401
 10
120.5753209406769
 20
127.8027915271048
 10
120.5753209406769
 20
127.8027915271048
 10
120.5753209406769
 20
127.8027915271048
 10
118.1964809388044
 20
127.8027915271048
 10
118.1964809388044
 20
127.8027915271048
 10
118.1964809388044
 20
127.8027915271048
 10
126.377554584636
 20
154.8151140277308
 10
126.377554584636
 20
154.8151140277308
 97
        0
 75
     2
 76
     1
 98
        0
  0
SPLINE
  5
6A8
330
6A2
100
AcDbEntity
  8
LOGO
370
     0
100
AcDbSpline
210
0.0
220
0.0
230
1.0
 70
    11
 71
     3
 72
   104
 73
   100
 74
     0
 42
0.000000001
 43
0.0000000001
 40
0.0
 40
0.0
 40
0.0
 40
0.0
 40
1.0
 40
1.0
 40
1.0
 40
2.0
 40
2.0
 40
2.0
 40
3.0
 40
3.0
 40
3.0
 40
4.0
 40
4.0
 40
4.0
 40
5.0
 40
5.0
 40
5.0
 40
6.0
 40
6.0
 40
6.0
 40
7.0
 40
7.0
 40
7.0
 40
8.0
 40
8.0
 40
8.0
 40
9.0
 40
9.0
 40
9.0
 40
10.0
 40
10.0
 40
10.0
 40
11.0
 40
11.0
 40
11.0
 40
12.0
 40
12.0
 40
12.0
 40
13.0
 40
13.0
 40
13.0
 40
14.0
 40
14.0
 40
14.0
 40
15.0
 40
15.0
 40
15.0
 40
16.0
 40
16.0
 40
16.0
 40
17.0
 40
17.0
 40
17.0
 40
18.0
 40
18.0
 40
18.0
 40
19.0
 40
19.0
 40
19.0
 40
20.0
 40
20.0
 40
20.0
 40
21.0
 40
21.0
 40
21.0
 40
22.0
 40
22.0
 40
22.0
 40
23.0
 40
23.0
 40
23.0
 40
24.0
 40
24.0
 40
24.0
 40
25.0
 40
25.0
 40
25.0
 40
26.0
 40
26.0
 40
26.0
 40
27.0
 40
27.0
 40
27.0
 40
28.0
 40
28.0
 40
28.0
 40
29.0
 40
29.0
 40
29.0
 40
30.0
 40
30.0
 40
30.0
 40
31.0
 40
31.0
 40
31.0
 40
32.0
 40
32.0
 40
32.0
 40
33.0
 40
33.0
 40
33.0
 40
33.0
 10
139.8926730891197
 20
154.8294111834263
 30
0.0
 10
139.8926730891197
 20
154.8294111834263
 30
0.0
 10
142.0344903652445
 20
154.8294111834263
 30
0.0
 10
142.0344903652445
 20
154.8294111834263
 30
0.0
 10
142.0344903652445
 20
154.8294111834263
 30
0.0
 10
140.9516961399171
 20
151.3157559800812
 30
0.0
 10
140.9516961399171
 20
151.3157559800812
 30
0.0
 10
141.8928968473923
 20
152.7887075264977
 30
0.0
 10
142.7341897198865
 20
153.4484437471474
 30
0.0
 10
143.8552245303272
 20
154.2926649527359
 30
0.0
 10
144.9803934580775
 20
155.1296514530327
 30
0.0
 10
146.3139908001845
 20
155.3044901642492
 30
0.0
 10
147.241066606852
 20
155.3044901642492
 30
0.0
 10
148.3855280820469
 20
155.3044901642492
 30
0.0
 10
149.4969166187653
 20
155.0752189084569
 30
0.0
 10
150.0784491203092
 20
153.8172414621372
 30
0.0
 10
150.5228667310863
 20
152.833838307127
 30
0.0
 10
150.5414702589793
 20
152.7201500811143
 30
0.0
 10
150.4140016419347
 20
150.7765981809602
 30
0.0
 10
151.5818897818837
 20
152.7699317437168
 30
0.0
 10
152.4424752018226
 20
153.6256940267945
 30
0.0
 10
153.9038856707499
 20
154.4507949398263
 30
0.0
 10
155.4455669174378
 20
155.3044901642492
 30
0.0
 10
156.339225275853
 20
155.3659851592288
 30
0.0
 10
157.3748216618963
 20
155.2147453676543
 30
0.0
 10
158.911679771723
 20
154.9877134254046
 30
0.0
 10
159.8859534176746
 20
154.4390816074493
 30
0.0
 10
160.3965169054045
 20
152.7816450760939
 30
0.0
 10
160.9070803931344
 20
151.1219692311958
 30
0.0
 10
160.6328506116007
 20
150.2303779314354
 30
0.0
 10
159.9992971339115
 20
147.597634224801
 30
0.0
 10
159.7105979417943
 20
146.4014962832367
 30
0.0
 10
159.2947746424084
 20
144.9400858143094
 30
0.0
 10
158.7463150793409
 20
143.2092687007094
 30
0.0
 10
158.7463150793409
 20
143.2092687007094
 30
0.0
 10
153.9038856707499
 20
127.8027915271048
 30
0.0
 10
153.9038856707499
 20
127.8027915271048
 30
0.0
 10
153.9038856707499
 20
127.8027915271048
 30
0.0
 10
151.3882752878863
 20
127.8027915271048
 30
0.0
 10
151.3882752878863
 20
127.8027915271048
 30
0.0
 10
151.3882752878863
 20
127.8027915271048
 30
0.0
 10
155.6250565106276
 20
141.2751908193897
 30
0.0
 10
155.6250565106276
 20
141.2751908193897
 30
0.0
 10
156.5094131050963
 20
144.0936252951782
 30
0.0
 10
157.109893644309
 20
146.1506931664571
 30
0.0
 10
157.4220195011804
 20
147.4415712963654
 30
0.0
 10
157.8095929989511
 20
149.0530157726519
 30
0.0
 10
157.9656559273867
 20
149.5826995529385
 30
0.0
 10
157.7816877071116
 20
150.7529992613181
 30
0.0
 10
157.6111553680925
 20
151.8430281919372
 30
0.0
 10
157.0582171779396
 20
152.5547853887321
 30
0.0
 10
156.1170164704645
 20
152.5547853887321
 30
0.0
 10
155.1096698860365
 20
152.5547853887321
 30
0.0
 10
154.2962823053817
 20
152.4412694176073
 30
0.0
 10
153.156643967048
 20
151.2945686288697
 30
0.0
 10
152.0170056287143
 20
150.1476955852443
 30
0.0
 10
151.076149431015
 20
148.7930831468137
 30
0.0
 10
150.3337308641742
 20
147.2290087646991
 30
0.0
 10
149.5957909244188
 20
145.6683794803425
 30
0.0
 10
148.8530278478023
 20
143.6822806228776
 30
0.0
 10
148.0964843801539
 20
141.2751908193897
 30
0.0
 10
148.0964843801539
 20
141.2751908193897
 30
0.0
 10
143.8552245303272
 20
127.8027915271048
 30
0.0
 10
143.8552245303272
 20
127.8027915271048
 30
0.0
 10
143.8552245303272
 20
127.8027915271048
 30
0.0
 10
141.486030802177
 20
127.8027915271048
 30
0.0
 10
141.486030802177
 20
127.8027915271048
 30
0.0
 10
141.486030802177
 20
127.8027915271048
 30
0.0
 10
146.3329388378533
 20
143.2092687007094
 30
0.0
 10
146.3329388378533
 20
143.2092687007094
 30
0.0
 10
146.8483254624444
 20
144.8408669988801
 30
0.0
 10
147.2314203331297
 20
146.1837661049335
 30
0.0
 10
147.4867020769946
 20
147.224185627838
 30
0.0
 10
147.9169947869641
 20
149.0197705792876
 30
0.0
 10
148.0306830129768
 20
150.2400242051577
 30
0.0
 10
147.709255392159
 20
151.3157559800812
 30
0.0
 10
147.3874832615654
 20
152.3916600098926
 30
0.0
 10
146.8245542879144
 20
152.6683013598569
 30
0.0
 10
145.8840425999909
 20
152.6683013598569
 30
0.0
 10
145.0989048209514
 20
152.6683013598569
 30
0.0
 10
144.3282364524954
 20
152.3275811915945
 30
0.0
 10
143.4531816219731
 20
151.6538923250251
 30
0.0
 10
142.34627171234
 20
150.8074318058939
 30
0.0
 10
141.901854101563
 20
150.1097995099067
 30
0.0
 10
141.3578731655808
 20
149.289521733736
 30
0.0
 10
140.6299240093235
 20
148.192602607601
 30
0.0
 10
140.2850697237515
 20
147.455696197173
 30
0.0
 10
139.6652966370942
 20
145.8385673095858
 30
0.0
 10
139.0506911970739
 20
144.2214384219986
 30
0.0
 10
138.463991048893
 20
142.3252566160164
 30
0.0
 10
138.0571250036777
 20
141.0154304484394
 30
0.0
 10
138.0571250036777
 20
141.0154304484394
 30
0.0
 10
133.9009590684727
 20
127.8027915271048
 30
0.0
 10
133.9009590684727
 20
127.8027915271048
 30
0.0
 10
133.9009590684727
 20
127.8027915271048
 30
0.0
 10
131.4180771143097
 20
127.8027915271048
 30
0.0
 10
131.4180771143097
 20
127.8027915271048
 30
0.0
 10
131.4180771143097
 20
127.8027915271048
 30
0.0
 10
139.8926730891197
 20
154.8294111834263
 30
0.0
 10
139.8926730891197
 20
154.8294111834263
 30
0.0
  0
HATCH
  5
6A9
330
6A2
100
AcDbEntity
  8
LOGO
 62
   250
420
  2234388
100
AcDbHatch
 10
0.0
 20
0.0
 30
0.0
210
0.0
220
0.0
230
1.0
  2
SOLID
 70
     1
 71
     0
 91
        1
 92
        1
 93
        1
 72
     4
 94
        3
 73
     0
 74
     1
 95
      104
 96
      100
 40
0.0
 40
0.0
 40
0.0
 40
0.0
 40
1.0
 40
1.0
 40
1.0
 40
2.0
 40
2.0
 40
2.0
 40
3.0
 40
3.0
 40
3.0
 40
4.0
 40
4.0
 40
4.0
 40
5.0
 40
5.0
 40
5.0
 40
6.0
 40
6.0
 40
6.0
 40
7.0
 40
7.0
 40
7.0
 40
8.0
 40
8.0
 40
8.0
 40
9.0
 40
9.0
 40
9.0
 40
10.0
 40
10.0
 40
10.0
 40
11.0
 40
11.0
 40
11.0
 40
12.0
 40
12.0
 40
12.0
 40
13.0
 40
13.0
 40
13.0
 40
14.0
 40
14.0
 40
14.0
 40
15.0
 40
15.0
 40
15.0
 40
16.0
 40
16.0
 40
16.0
 40
17.0
 40
17.0
 40
17.0
 40
18.0
 40
18.0
 40
18.0
 40
19.0
 40
19.0
 40
19.0
 40
20.0
 40
20.0
 40
20.0
 40
21.0
 40
21.0
 40
21.0
 40
22.0
 40
22.0
 40
22.0
 40
23.0
 40
23.0
 40
23.0
 40
24.0
 40
24.0
 40
24.0
 40
25.0
 40
25.0
 40
25.0
 40
26.0
 40
26.0
 40
26.0
 40
27.0
 40
27.0
 40
27.0
 40
28.0
 40
28.0
 40
28.0
 40
29.0
 40
29.0
 40
29.0
 40
30.0
 40
30.0
 40
30.0
 40
31.0
 40
31.0
 40
31.0
 40
32.0
 40
32.0
 40
32.0
 40
33.0
 40
33.0
 40
33.0
 40
33.0
 10
139.8926730891197
 20
154.8294111834263
 10
139.8926730891197
 20
154.8294111834263
 10
142.0344903652445
 20
154.8294111834263
 10
142.0344903652445
 20
154.8294111834263
 10
142.0344903652445
 20
154.8294111834263
 10
140.9516961399171
 20
151.3157559800812
 10
140.9516961399171
 20
151.3157559800812
 10
141.8928968473923
 20
152.7887075264977
 10
142.7341897198865
 20
153.4484437471474
 10
143.8552245303272
 20
154.2926649527359
 10
144.9803934580775
 20
155.1296514530327
 10
146.3139908001845
 20
155.3044901642492
 10
147.241066606852
 20
155.3044901642492
 10
148.3855280820469
 20
155.3044901642492
 10
149.4969166187653
 20
155.0752189084569
 10
150.0784491203092
 20
153.8172414621372
 10
150.5228667310863
 20
152.833838307127
 10
150.5414702589793
 20
152.7201500811143
 10
150.4140016419347
 20
150.7765981809602
 10
151.5818897818837
 20
152.7699317437168
 10
152.4424752018226
 20
153.6256940267945
 10
153.9038856707499
 20
154.4507949398263
 10
155.4455669174378
 20
155.3044901642492
 10
156.339225275853
 20
155.3659851592288
 10
157.3748216618963
 20
155.2147453676543
 10
158.911679771723
 20
154.9877134254046
 10
159.8859534176746
 20
154.4390816074493
 10
160.3965169054045
 20
152.7816450760939
 10
160.9070803931344
 20
151.1219692311958
 10
160.6328506116007
 20
150.2303779314354
 10
159.9992971339115
 20
147.597634224801
 10
159.7105979417943
 20
146.4014962832367
 10
159.2947746424084
 20
144.9400858143094
 10
158.7463150793409
 20
143.2092687007094
 10
158.7463150793409
 20
143.2092687007094
 10
153.9038856707499
 20
127.8027915271048
 10
153.9038856707499
 20
127.8027915271048
 10
153.9038856707499
 20
127.8027915271048
 10
151.3882752878863
 20
127.8027915271048
 10
151.3882752878863
 20
127.8027915271048
 10
151.3882752878863
 20
127.8027915271048
 10
155.6250565106276
 20
141.2751908193897
 10
155.6250565106276
 20
141.2751908193897
 10
156.5094131050963
 20
144.0936252951782
 10
157.109893644309
 20
146.1506931664571
 10
157.4220195011804
 20
147.4415712963654
 10
157.8095929989511
 20
149.0530157726519
 10
157.9656559273867
 20
149.5826995529385
 10
157.7816877071116
 20
150.7529992613181
 10
157.6111553680925
 20
151.8430281919372
 10
157.0582171779396
 20
152.5547853887321
 10
156.1170164704645
 20
152.5547853887321
 10
155.1096698860365
 20
152.5547853887321
 10
154.2962823053817
 20
152.4412694176073
 10
153.156643967048
 20
151.2945686288697
 10
152.0170056287143
 20
150.1476955852443
 10
151.076149431015
 20
148.7930831468137
 10
150.3337308641742
 20
147.2290087646991
 10
149.5957909244188
 20
145.6683794803425
 10
148.8530278478023
 20
143.6822806228776
 10
148.0964843801539
 20
141.2751908193897
 10
148.0964843801539
 20
141.2751908193897
 10
143.8552245303272
 20
127.8027915271048
 10
143.8552245303272
 20
127.8027915271048
 10
143.8552245303272
 20
127.8027915271048
 10
141.486030802177
 20
127.8027915271048
 10
141.486030802177
 20
127.8027915271048
 10
141.486030802177
 20
127.8027915271048
 10
146.3329388378533
 20
143.2092687007094
 10
146.3329388378533
 20
143.2092687007094
 10
146.8483254624444
 20
144.8408669988801
 10
147.2314203331297
 20
146.1837661049335
 10
147.4867020769946
 20
147.224185627838
 10
147.9169947869641
 20
149.0197705792876
 10
148.0306830129768
 20
150.2400242051577
 10
147.709255392159
 20
151.3157559800812
 10
147.3874832615654
 20
152.3916600098926
 10
146.8245542879144
 20
152.6683013598569
 10
145.8840425999909
 20
152.6683013598569
 10
145.0989048209514
 20
152.6683013598569
 10
144.3282364524954
 20
152.3275811915945
 10
143.4531816219731
 20
151.6538923250251
 10
142.34627171234
 20
150.8074318058939
 10
141.901854101563
 20
150.1097995099067
 10
141.3578731655808
 20
149.289521733736
 10
140.6299240093235
 20
148.192602607601
 10
140.2850697237515
 20
147.455696197173
 10
139.6652966370942
 20
145.8385673095858
 10
139.0506911970739
 20
144.2214384219986
 10
138.463991048893
 20
142.3252566160164
 10
138.0571250036777
 20
141.0154304484394
 10
138.0571250036777
 20
141.0154304484394
 10
133.9009590684727
 20
127.8027915271048
 10
133.9009590684727
 20
127.8027915271048
 10
133.9009590684727
 20
127.8027915271048
 10
131.4180771143097
 20
127.8027915271048
 10
131.4180771143097
 20
127.8027915271048
 10
131.4180771143097
 20
127.8027915271048
 10
139.8926730891197
 20
154.8294111834263
 10
139.8926730891197
 20
154.8294111834263
 97
        0
 75
     2
 76
     1
 98
        0
  0
SPLINE
  5
6AA
330
6A2
100
AcDbEntity
  8
LOGO
370
     0
100
AcDbSpline
210
0.0
220
0.0
230
1.0
 70
    11
 71
     3
 72
    29
 73
    25
 74
     0
 42
0.000000001
 43
0.0000000001
 40
0.0
 40
0.0
 40
0.0
 40
0.0
 40
1.0
 40
1.0
 40
1.0
 40
2.0
 40
2.0
 40
2.0
 40
3.0
 40
3.0
 40
3.0
 40
4.0
 40
4.0
 40
4.0
 40
5.0
 40
5.0
 40
5.0
 40
6.0
 40
6.0
 40
6.0
 40
7.0
 40
7.0
 40
7.0
 40
8.0
 40
8.0
 40
8.0
 40
8.0
 10
101.6420971922469
 20
132.8388354296931
 30
0.0
 10
101.630039350094
 20
134.7164137077823
 30
0.0
 10
102.2236296937908
 20
138.0598810818841
 30
0.0
 10
103.7487744712405
 20
142.5378191476827
 30
0.0
 10
105.819967243327
 20
148.5896501242061
 30
0.0
 10
107.0602024361932
 20
150.8074318058939
 30
0.0
 10
108.1522984254671
 20
151.8833358357054
 30
0.0
 10
109.741177511439
 20
153.4532668840085
 30
0.0
 10
111.8740375333931
 20
153.5290590346837
 30
0.0
 10
112.5075910110823
 20
153.4532668840085
 30
0.0
 10
113.4012493694975
 20
153.3490526768302
 30
0.0
 10
114.6683563248758
 20
152.7580461564518
 30
0.0
 10
114.7493161221879
 20
150.7838328862519
 30
0.0
 10
114.8106388622796
 20
149.0909118479895
 30
0.0
 10
114.3186789024427
 20
145.9191825971221
 30
0.0
 10
112.6164561002338
 20
140.9489400617108
 30
0.0
 10
110.6444821435766
 20
135.1746117095912
 30
0.0
 10
109.4669477299053
 20
132.8960240524753
 30
0.0
 10
108.5212683953448
 20
131.9072809959403
 30
0.0
 10
106.7346406980658
 20
130.0538184021569
 30
0.0
 10
104.8222669326213
 20
130.2336525051225
 30
0.0
 10
104.5408024457958
 20
130.2336525051225
 30
0.0
 10
104.1721769856939
 20
130.2336525051225
 30
0.0
 10
101.6465758193322
 20
130.6305277668397
 30
0.0
 10
101.6420971922469
 20
132.8388354296931
 30
0.0
  0
SPLINE
  5
6AB
330
6A2
100
AcDbEntity
  8
LOGO
370
     0
100
AcDbSpline
210
0.0
220
0.0
230
1.0
 70
    11
 71
     3
 72
    32
 73
    28
 74
     0
 42
0.000000001
 43
0.0000000001
 40
0.0
 40
0.0
 40
0.0
 40
0.0
 40
1.0
 40
1.0
 40
1.0
 40
2.0
 40
2.0
 40
2.0
 40
3.0
 40
3.0
 40
3.0
 40
4.0
 40
4.0
 40
4.0
 40
5.0
 40
5.0
 40
5.0
 40
6.0
 40
6.0
 40
6.0
 40
7.0
 40
7.0
 40
7.0
 40
8.0
 40
8.0
 40
8.0
 40
9.0
 40
9.0
 40
9.0
 40
9.0
 10
106.2595617172429
 20
153.4105476718098
 30
0.0
 10
104.8222669326213
 20
151.5474388043041
 30
0.0
 10
103.7177685914188
 20
149.8758773721411
 30
0.0
 10
101.9232171692965
 20
144.6141795664062
 30
0.0
 10
100.2754269116635
 20
139.7999999594306
 30
0.0
 10
99.22777268346732
 20
136.3052927937542
 30
0.0
 10
99.06964269637689
 20
132.039572749846
 30
0.0
 10
98.94665270641765
 20
128.8673267343149
 30
0.0
 10
100.8807305877373
 20
127.8027915271048
 30
0.0
 10
103.7129454545577
 20
127.8027915271048
 30
0.0
 10
104.9352661390825
 20
127.8027915271048
 30
0.0
 10
108.0151835347002
 20
127.8827177950895
 30
0.0
 10
110.2045431598849
 20
130.5926316915021
 30
0.0
 10
111.7417457794874
 20
132.4984597712065
 30
0.0
 10
113.155269389579
 20
134.475256864725
 30
0.0
 10
115.0562743324223
 20
140.9489400617108
 30
0.0
 10
116.6361961642235
 20
146.3680788349845
 30
0.0
 10
117.7282921534974
 20
149.8639917848761
 30
0.0
 10
117.6480213757369
 20
151.8595646611754
 30
0.0
 10
117.6480213757369
 20
151.8595646611754
 30
0.0
 10
117.6480213757369
 20
151.8595646611754
 30
0.0
 10
117.6480213757369
 20
151.8595646611754
 30
0.0
 10
117.13229024137
 20
155.18150017429
 30
0.0
 10
114.7162431837115
 20
155.886194920681
 30
0.0
 10
113.3351034925446
 20
155.886194920681
 30
0.0
 10
111.9829026225447
 20
155.886194920681
 30
0.0
 10
108.3414342923792
 20
156.1251124501957
 30
0.0
 10
106.2595617172429
 20
153.4105476718098
 30
0.0
  0
HATCH
  5
6AC
330
6A2
100
AcDbEntity
  8
LOGO
 62
   250
420
  2234388
100
AcDbHatch
 10
0.0
 20
0.0
 30
0.0
210
0.0
220
0.0
230
1.0
  2
SOLID
 70
     1
 71
     0
 91
        2
 92
        1
 93
        1
 72
     4
 94
        3
 73
     0
 74
     1
 95
       29
 96
       25
 40
0.0
 40
0.0
 40
0.0
 40
0.0
 40
1.0
 40
1.0
 40
1.0
 40
2.0
 40
2.0
 40
2.0
 40
3.0
 40
3.0
 40
3.0
 40
4.0
 40
4.0
 40
4.0
 40
5.0
 40
5.0
 40
5.0
 40
6.0
 40
6.0
 40
6.0
 40
7.0
 40
7.0
 40
7.0
 40
8.0
 40
8.0
 40
8.0
 40
8.0
 10
101.6420971922469
 20
132.8388354296931
 10
101.630039350094
 20
134.7164137077823
 10
102.2236296937908
 20
138.0598810818841
 10
103.7487744712405
 20
142.5378191476827
 10
105.819967243327
 20
148.5896501242061
 10
107.0602024361932
 20
150.8074318058939
 10
108.1522984254671
 20
151.8833358357054
 10
109.741177511439
 20
153.4532668840085
 10
111.8740375333931
 20
153.5290590346837
 10
112.5075910110823
 20
153.4532668840085
 10
113.4012493694975
 20
153.3490526768302
 10
114.6683563248758
 20
152.7580461564518
 10
114.7493161221879
 20
150.7838328862519
 10
114.8106388622796
 20
149.0909118479895
 10
114.3186789024427
 20
145.9191825971221
 10
112.6164561002338
 20
140.9489400617108
 10
110.6444821435766
 20
135.1746117095912
 10
109.4669477299053
 20
132.8960240524753
 10
108.5212683953448
 20
131.9072809959403
 10
106.7346406980658
 20
130.0538184021569
 10
104.8222669326213
 20
130.2336525051225
 10
104.5408024457958
 20
130.2336525051225
 10
104.1721769856939
 20
130.2336525051225
 10
101.6465758193322
 20
130.6305277668397
 10
101.6420971922469
 20
132.8388354296931
 97
        0
 92
        1
 93
        1
 72
     4
 94
        3
 73
     0
 74
     1
 95
       32
 96
       28
 40
0.0
 40
0.0
 40
0.0
 40
0.0
 40
1.0
 40
1.0
 40
1.0
 40
2.0
 40
2.0
 40
2.0
 40
3.0
 40
3.0
 40
3.0
 40
4.0
 40
4.0
 40
4.0
 40
5.0
 40
5.0
 40
5.0
 40
6.0
 40
6.0
 40
6.0
 40
7.0
 40
7.0
 40
7.0
 40
8.0
 40
8.0
 40
8.0
 40
9.0
 40
9.0
 40
9.0
 40
9.0
 10
106.2595617172429
 20
153.4105476718098
 10
104.8222669326213
 20
151.5474388043041
 10
103.7177685914188
 20
149.8758773721411
 10
101.9232171692965
 20
144.6141795664062
 10
100.2754269116635
 20
139.7999999594306
 10
99.22777268346732
 20
136.3052927937542
 10
99.06964269637689
 20
132.039572749846
 10
98.94665270641765
 20
128.8673267343149
 10
100.8807305877373
 20
127.8027915271048
 10
103.7129454545577
 20
127.8027915271048
 10
104.9352661390825
 20
127.8027915271048
 10
108.0151835347002
 20
127.8827177950895
 10
110.2045431598849
 20
130.5926316915021
 10
111.7417457794874
 20
132.4984597712065
 10
113.155269389579
 20
134.475256864725
 10
115.0562743324223
 20
140.9489400617108
 10
116.6361961642235
 20
146.3680788349845
 10
117.7282921534974
 20
149.8639917848761
 10
117.6480213757369
 20
151.8595646611754
 10
117.6480213757369
 20
151.8595646611754
 10
117.6480213757369
 20
151.8595646611754
 10
117.6480213757369
 20
151.8595646611754
 10
117.13229024137
 20
155.18150017429
 10
114.7162431837115
 20
155.886194920681
 10
113.3351034925446
 20
155.886194920681
 10
111.9829026225447
 20
155.886194920681
 10
108.3414342923792
 20
156.1251124501957
 10
106.2595617172429
 20
153.4105476718098
 97
        0
 75
     2
 76
     1
 98
        0
  0
ENDBLK
  5
6AD
330
6A2
100
AcDbEntity
  8
0
100
AcDbBlockEnd
  0
BLOCK
  5
46CF
330
46CE
100
AcDbEntity
  8
0
100
AcDbBlockBegin
  2
*D6
 70
     1
 10
0.0
 20
0.0
 30
0.0
  3
*D6
  1
*D140
  0
LINE
  5
46D1
330
46CE
100
AcDbEntity
  8
DIM
 62
     0
 48
0.05
370
    -2
100
AcDbLine
 10
202.8329688988288
 20
279.0419917857798
 30
0.0
 11
184.4986738632034
 21
279.0419917857798
 31
0.0
  0
LINE
  5
46D2
330
46CE
100
AcDbEntity
  8
DIM
 62
     0
 48
0.05
370
    -2
100
AcDbLine
 10
202.8329688988288
 20
214.0419917857797
 30
0.0
 11
184.4986738632034
 21
214.0419917857797
 31
0.0
  0
LINE
  5
46D3
330
46CE
100
AcDbEntity
  8
DIM
 62
     0
 48
0.05
370
    -2
100
AcDbLine
 10
184.4986738632034
 20
278.0419917857798
 30
0.0
 11
184.4986738632034
 21
215.0419917857797
 31
0.0
  0
INSERT
  5
46D4
330
46CE
100
AcDbEntity
  8
DIM
 62
     0
370
    -2
100
AcDbBlockReference
  2
_DOT
 10
184.4986738632034
 20
279.0419917857798
 30
0.0
 50
90.0
  0
INSERT
  5
46D5
330
46CE
100
AcDbEntity
  8
DIM
 62
     0
370
    -2
100
AcDbBlockReference
  2
_DOT
 10
184.4986738632034
 20
214.0419917857797
 30
0.0
 50
270.0
  0
MTEXT
  5
46D6
330
46CE
100
AcDbEntity
  8
DIM
 62
     0
 48
0.05
100
AcDbMText
 10
176.9986738632034
 20
246.5419917857798
 30
0.0
 40
5.0
 41
0.0
 46
0.0
 71
     5
 72
     1
  1
\A1;65
  7
ＭＳ ゴシック
 11
0.0
 21
1.0
 31
0.0
 73
     1
 44
1.0
  0
POINT
  5
46D7
330
46CE
100
AcDbEntity
  8
Defpoints
 62
     0
100
AcDbPoint
 10
207.8329688988288
 20
279.0419917857798
 30
0.0
  0
POINT
  5
46D8
330
46CE
100
AcDbEntity
  8
Defpoints
 62
     0
100
AcDbPoint
 10
207.8329688988288
 20
214.0419917857797
 30
0.0
  0
POINT
  5
46D9
330
46CE
100
AcDbEntity
  8
Defpoints
 62
     0
100
AcDbPoint
 10
184.4986738632034
 20
214.0419917857797
 30
0.0
  0
ENDBLK
  5
46D0
330
46CE
100
AcDbEntity
  8
0
100
AcDbBlockEnd
  0
BLOCK
  5
4AA4
330
4AA3
100
AcDbEntity
  8
0
100
AcDbBlockBegin
  2
*D7
 70
     1
 10
0.0
 20
0.0
 30
0.0
  3
*D7
  1
*D17
  0
LINE
  5
4AA6
330
4AA3
100
AcDbEntity
  8
DIM
 62
     0
 48
0.05
370
    -2
100
AcDbLine
 10
97.64818394709937
 20
285.4155527857794
 30
0.0
 11
51.35621193347208
 21
285.4155527857794
 31
0.0
  0
LINE
  5
4AA7
330
4AA3
100
AcDbEntity
  8
DIM
 62
     0
 48
0.05
370
    -2
100
AcDbLine
 10
94.66442457230164
 20
207.6684297857795
 30
0.0
 11
51.35621193347207
 21
207.6684297857795
 31
0.0
  0
LINE
  5
4AA8
330
4AA3
100
AcDbEntity
  8
DIM
 62
     0
 48
0.05
370
    -2
100
AcDbLine
 10
51.35621193347208
 20
284.4155527857794
 30
0.0
 11
51.35621193347207
 21
208.6684297857795
 31
0.0
  0
INSERT
  5
4AA9
330
4AA3
100
AcDbEntity
  8
DIM
 62
     0
370
    -2
100
AcDbBlockReference
  2
_DOT
 10
51.35621193347208
 20
285.4155527857794
 30
0.0
 50
90.0
  0
INSERT
  5
4AAA
330
4AA3
100
AcDbEntity
  8
DIM
 62
     0
370
    -2
100
AcDbBlockReference
  2
_DOT
 10
51.35621193347207
 20
207.6684297857795
 30
0.0
 50
270.0
  0
MTEXT
  5
4AAB
330
4AA3
100
AcDbEntity
  8
DIM
 62
     0
 48
0.05
100
AcDbMText
 10
43.45121193347208
 20
246.5419912857795
 30
0.0
 40
5.0
 41
0.0
 46
0.0
 71
     5
 72
     1
  1
\A1;φ78
  7
ＭＳ ゴシック
 11
9.139151499665146E-17
 21
1.0
 31
0.0
 73
     1
 44
1.0
  0
POINT
  5
4AAC
330
4AA3
100
AcDbEntity
  8
Defpoints
 62
     0
100
AcDbPoint
 10
102.6481839470994
 20
285.4155527857794
 30
0.0
  0
POINT
  5
4AAD
330
4AA3
100
AcDbEntity
  8
Defpoints
 62
     0
100
AcDbPoint
 10
99.66442457230164
 20
207.6684297857795
 30
0.0
  0
POINT
  5
4AAE
330
4AA3
100
AcDbEntity
  8
Defpoints
 62
     0
100
AcDbPoint
 10
51.35621193347207
 20
207.6684297857795
 30
0.0
  0
ENDBLK
  5
4AA5
330
4AA3
100
AcDbEntity
  8
0
100
AcDbBlockEnd
  0
BLOCK
  5
4DC4
330
4DC3
100
AcDbEntity
  8
0
100
AcDbBlockBegin
  2
*D8
 70
     1
 10
0.0
 20
0.0
 30
0.0
  3
*D8
  1
*D22
  0
LINE
  5
4DC6
330
4DC3
100
AcDbEntity
  8
DIM
 62
     0
 48
0.05
370
    -2
100
AcDbLine
 10
365.9101728988289
 20
238.0354156041023
 30
0.0
 11
365.9101728988289
 21
142.1326579348081
 31
0.0
  0
LINE
  5
4DC7
330
4DC3
100
AcDbEntity
  8
DIM
 62
     0
 48
0.05
370
    -2
100
AcDbLine
 10
264.3329688988288
 20
167.5419917857793
 30
0.0
 11
264.3329688988288
 21
142.1326579348081
 31
0.0
  0
LINE
  5
4DC8
330
4DC3
100
AcDbEntity
  8
DIM
 62
     0
 48
0.05
370
    -2
100
AcDbLine
 10
364.9101728988289
 20
142.1326579348081
 30
0.0
 11
265.3329688988288
 21
142.1326579348081
 31
0.0
  0
INSERT
  5
4DC9
330
4DC3
100
AcDbEntity
  8
DIM
 62
     0
370
    -2
100
AcDbBlockReference
  2
_DOT
 10
365.9101728988289
 20
142.1326579348081
 30
0.0
  0
INSERT
  5
4DCA
330
4DC3
100
AcDbEntity
  8
DIM
 62
     0
370
    -2
100
AcDbBlockReference
  2
_DOT
 10
264.3329688988288
 20
142.1326579348081
 30
0.0
 50
180.0
  0
MTEXT
  5
4DCB
330
4DC3
100
AcDbEntity
  8
DIM
 62
     0
 48
0.05
100
AcDbMText
 10
315.1215708988288
 20
149.6326579348081
 30
0.0
 40
5.0
 41
0.0
 46
0.0
 71
     5
 72
     1
  1
\A1;110～75
  7
ＭＳ ゴシック
 73
     1
 44
1.0
  0
POINT
  5
4DCC
330
4DC3
100
AcDbEntity
  8
Defpoints
 62
     0
100
AcDbPoint
 10
365.9101728988289
 20
243.0354156041023
 30
0.0
  0
POINT
  5
4DCD
330
4DC3
100
AcDbEntity
  8
Defpoints
 62
     0
100
AcDbPoint
 10
264.3329688988288
 20
172.5419917857793
 30
0.0
  0
POINT
  5
4DCE
330
4DC3
100
AcDbEntity
  8
Defpoints
 62
     0
100
AcDbPoint
 10
264.3329688988288
 20
142.1326579348081
 30
0.0
  0
ENDBLK
  5
4DC5
330
4DC3
100
AcDbEntity
  8
0
100
AcDbBlockEnd
  0
BLOCK
  5
4DD3
330
4DD2
100
AcDbEntity
  8
0
100
AcDbBlockBegin
  2
*D9
 70
     1
 10
0.0
 20
0.0
 30
0.0
  3
*D9
  1
*D23
  0
LINE
  5
4DD5
330
4DD2
100
AcDbEntity
  8
DIM
 62
     0
 48
0.05
370
    -2
100
AcDbLine
 10
277.4420238988288
 20
224.5281664343451
 30
0.0
 11
277.4420238988288
 21
160.817418179695
 31
0.0
  0
LINE
  5
4DD6
330
4DD2
100
AcDbEntity
  8
DIM
 62
     0
 48
0.05
370
    -2
100
AcDbLine
 10
264.3329688988288
 20
167.5419917857793
 30
0.0
 11
264.3329688988288
 21
160.817418179695
 31
0.0
  0
LINE
  5
4DD7
330
4DD2
100
AcDbEntity
  8
DIM
 62
     0
 48
0.05
370
    -2
100
AcDbLine
 10
276.4420238988288
 20
160.817418179695
 30
0.0
 11
265.3329688988288
 21
160.817418179695
 31
0.0
  0
INSERT
  5
4DD8
330
4DD2
100
AcDbEntity
  8
DIM
 62
     0
370
    -2
100
AcDbBlockReference
  2
_DOT
 10
277.4420238988288
 20
160.817418179695
 30
0.0
  0
INSERT
  5
4DD9
330
4DD2
100
AcDbEntity
  8
DIM
 62
     0
370
    -2
100
AcDbBlockReference
  2
_DOT
 10
264.3329688988288
 20
160.817418179695
 30
0.0
 50
180.0
  0
MTEXT
  5
4DDA
330
4DD2
100
AcDbEntity
  8
DIM
 62
     0
 48
0.05
100
AcDbMText
 10
270.8874946886288
 20
168.317418179695
 30
0.0
 40
5.0
 41
0.0
 46
0.0
 71
     5
 72
     1
  1
\A1;13
  7
ＭＳ ゴシック
 73
     1
 44
1.0
  0
POINT
  5
4DDB
330
4DD2
100
AcDbEntity
  8
Defpoints
 62
     0
100
AcDbPoint
 10
277.4420238988288
 20
229.5281664343451
 30
0.0
  0
POINT
  5
4DDC
330
4DD2
100
AcDbEntity
  8
Defpoints
 62
     0
100
AcDbPoint
 10
264.3329688988288
 20
172.5419917857793
 30
0.0
  0
POINT
  5
4DDD
330
4DD2
100
AcDbEntity
  8
Defpoints
 62
     0
100
AcDbPoint
 10
264.3329688988288
 20
160.817418179695
 30
0.0
  0
ENDBLK
  5
4DD4
330
4DD2
100
AcDbEntity
  8
0
100
AcDbBlockEnd
  0
BLOCK
  5
4DE3
330
4DE2
100
AcDbEntity
  8
0
100
AcDbBlockBegin
  2
*D10
 70
     1
 10
0.0
 20
0.0
 30
0.0
  3
*D10
  1
*D24
  0
LINE
  5
4DE5
330
4DE2
100
AcDbEntity
  8
DIM
 62
     0
 48
0.05
370
    -2
100
AcDbLine
 10
221.3329910230323
 20
186.4859659615578
 30
0.0
 11
221.3329910230323
 21
142.1326579348081
 31
0.0
  0
LINE
  5
4DE6
330
4DE2
100
AcDbEntity
  8
DIM
 62
     0
 48
0.05
370
    -2
100
AcDbLine
 10
264.3329688988288
 20
167.5419917857793
 30
0.0
 11
264.3329688988288
 21
142.1326579348081
 31
0.0
  0
LINE
  5
4DE7
330
4DE2
100
AcDbEntity
  8
DIM
 62
     0
 48
0.05
370
    -2
100
AcDbLine
 10
222.3329910230323
 20
142.1326579348081
 30
0.0
 11
263.3329688988288
 21
142.1326579348081
 31
0.0
  0
INSERT
  5
4DE8
330
4DE2
100
AcDbEntity
  8
DIM
 62
     0
370
    -2
100
AcDbBlockReference
  2
_DOT
 10
221.3329910230323
 20
142.1326579348081
 30
0.0
 50
180.0
  0
INSERT
  5
4DE9
330
4DE2
100
AcDbEntity
  8
DIM
 62
     0
370
    -2
100
AcDbBlockReference
  2
_DOT
 10
264.3329688988288
 20
142.1326579348081
 30
0.0
  0
MTEXT
  5
4DEA
330
4DE2
100
AcDbEntity
  8
DIM
 62
     0
 48
0.05
100
AcDbMText
 10
242.8329782507305
 20
149.6326579348081
 30
0.0
 40
5.0
 41
0.0
 46
0.0
 71
     5
 72
     1
  1
\A1; 
  7
ＭＳ ゴシック
 73
     1
 44
1.0
  0
POINT
  5
4DEB
330
4DE2
100
AcDbEntity
  8
Defpoints
 62
     0
100
AcDbPoint
 10
221.3329910230323
 20
191.4859659615578
 30
0.0
  0
POINT
  5
4DEC
330
4DE2
100
AcDbEntity
  8
Defpoints
 62
     0
100
AcDbPoint
 10
264.3329688988288
 20
172.5419917857793
 30
0.0
  0
POINT
  5
4DED
330
4DE2
100
AcDbEntity
  8
Defpoints
 62
     0
100
AcDbPoint
 10
264.3329688988288
 20
142.1326579348081
 30
0.0
  0
ENDBLK
  5
4DE4
330
4DE2
100
AcDbEntity
  8
0
100
AcDbBlockEnd
  0
BLOCK
  5
52B9
330
52B8
100
AcDbEntity
  8
0
100
AcDbBlockBegin
  2
*D11
 70
     1
 10
0.0
 20
0.0
 30
0.0
  3
*D11
  1
*D12
  0
LINE
  5
52BA
330
52B8
100
AcDbEntity
  8
DIM
 62
     0
 48
0.05
370
    -2
100
AcDbLine
 10
117.8019320575964
 20
84.04805889166602
 30
0.0
 11
99.46763702197109
 21
84.04805889166602
 31
0.0
  0
LINE
  5
52BB
330
52B8
100
AcDbEntity
  8
DIM
 62
     0
 48
0.05
370
    -2
100
AcDbLine
 10
117.8019320575964
 20
19.04805889166602
 30
0.0
 11
99.46763702197109
 21
19.04805889166602
 31
0.0
  0
LINE
  5
52BC
330
52B8
100
AcDbEntity
  8
DIM
 62
     0
 48
0.05
370
    -2
100
AcDbLine
 10
99.46763702197109
 20
83.04805889166602
 30
0.0
 11
99.46763702197109
 21
20.04805889166602
 31
0.0
  0
INSERT
  5
52BD
330
52B8
100
AcDbEntity
  8
DIM
 62
     0
370
    -2
100
AcDbBlockReference
  2
_DOT
 10
99.46763702197109
 20
84.04805889166602
 30
0.0
 50
90.0
  0
INSERT
  5
52BE
330
52B8
100
AcDbEntity
  8
DIM
 62
     0
370
    -2
100
AcDbBlockReference
  2
_DOT
 10
99.46763702197109
 20
19.04805889166602
 30
0.0
 50
270.0
  0
MTEXT
  5
52BF
330
52B8
100
AcDbEntity
  8
DIM
 62
     0
 48
0.05
100
AcDbMText
 10
91.96763702197109
 20
51.54805889166602
 30
0.0
 40
5.0
 41
0.0
 46
0.0
 71
     5
 72
     1
  1
\A1;65
  7
ＭＳ ゴシック
 11
0.0
 21
1.0
 31
0.0
 73
     1
 44
1.0
  0
POINT
  5
52C0
330
52B8
100
AcDbEntity
  8
Defpoints
 62
     0
100
AcDbPoint
 10
122.8019320575964
 20
84.04805889166602
 30
0.0
  0
POINT
  5
52C1
330
52B8
100
AcDbEntity
  8
Defpoints
 62
     0
100
AcDbPoint
 10
122.8019320575964
 20
19.04805889166602
 30
0.0
  0
POINT
  5
52C2
330
52B8
100
AcDbEntity
  8
Defpoints
 62
     0
100
AcDbPoint
 10
99.46763702197109
 20
19.04805889166602
 30
0.0
  0
ENDBLK
  5
52C3
330
52B8
100
AcDbEntity
  8
0
100
AcDbBlockEnd
  0
BLOCK
  5
5460
330
545F
100
AcDbEntity
  8
0
100
AcDbBlockBegin
  2
*D12
 70
     1
 10
0.0
 20
0.0
 30
0.0
  3
*D12
  1
*D13
  0
LINE
  5
5462
330
545F
100
AcDbEntity
  8
DIM
 62
     0
 48
0.05
370
    -2
100
AcDbLine
 10
586.4487730679978
 20
248.438662160611
 30
0.0
 11
568.1144780323723
 21
248.438662160611
 31
0.0
  0
LINE
  5
5463
330
545F
100
AcDbEntity
  8
DIM
 62
     0
 48
0.05
370
    -2
100
AcDbLine
 10
586.4487730679978
 20
183.438662160611
 30
0.0
 11
568.1144780323723
 21
183.438662160611
 31
0.0
  0
LINE
  5
5464
330
545F
100
AcDbEntity
  8
DIM
 62
     0
 48
0.05
370
    -2
100
AcDbLine
 10
568.1144780323723
 20
247.438662160611
 30
0.0
 11
568.1144780323723
 21
184.438662160611
 31
0.0
  0
INSERT
  5
5465
330
545F
100
AcDbEntity
  8
DIM
 62
     0
370
    -2
100
AcDbBlockReference
  2
_DOT
 10
568.1144780323723
 20
248.438662160611
 30
0.0
 50
90.0
  0
INSERT
  5
5466
330
545F
100
AcDbEntity
  8
DIM
 62
     0
370
    -2
100
AcDbBlockReference
  2
_DOT
 10
568.1144780323723
 20
183.438662160611
 30
0.0
 50
270.0
  0
MTEXT
  5
5467
330
545F
100
AcDbEntity
  8
DIM
 62
     0
 48
0.05
100
AcDbMText
 10
560.6144780323723
 20
215.938662160611
 30
0.0
 40
5.0
 41
0.0
 46
0.0
 71
     5
 72
     1
  1
\A1;65
  7
ＭＳ ゴシック
 11
0.0
 21
1.0
 31
0.0
 73
     1
 44
1.0
  0
POINT
  5
5468
330
545F
100
AcDbEntity
  8
Defpoints
 62
     0
100
AcDbPoint
 10
591.4487730679978
 20
248.438662160611
 30
0.0
  0
POINT
  5
5469
330
545F
100
AcDbEntity
  8
Defpoints
 62
     0
100
AcDbPoint
 10
591.4487730679978
 20
183.438662160611
 30
0.0
  0
POINT
  5
546A
330
545F
100
AcDbEntity
  8
Defpoints
 62
     0
100
AcDbPoint
 10
568.1144780323723
 20
183.438662160611
 30
0.0
  0
ENDBLK
  5
5461
330
545F
100
AcDbEntity
  8
0
100
AcDbBlockEnd
  0
BLOCK
  5
553A
330
5539
100
AcDbEntity
  8
0
100
AcDbBlockBegin
  2
*D13
 70
     1
 10
0.0
 20
0.0
 30
0.0
  3
*D13
  1
*D14
  0
LINE
  5
553C
330
5539
100
AcDbEntity
  8
DIM
 62
     0
 48
0.05
370
    -2
100
AcDbLine
 10
185.7568750467261
 20
255.2893627204683
 30
0.0
 11
167.4225800111006
 21
255.2893627204683
 31
0.0
  0
LINE
  5
553D
330
5539
100
AcDbEntity
  8
DIM
 62
     0
 48
0.05
370
    -2
100
AcDbLine
 10
185.7568750467261
 20
190.2893627204683
 30
0.0
 11
167.4225800111006
 21
190.2893627204683
 31
0.0
  0
LINE
  5
553E
330
5539
100
AcDbEntity
  8
DIM
 62
     0
 48
0.05
370
    -2
100
AcDbLine
 10
167.4225800111006
 20
254.2893627204683
 30
0.0
 11
167.4225800111006
 21
191.2893627204683
 31
0.0
  0
INSERT
  5
553F
330
5539
100
AcDbEntity
  8
DIM
 62
     0
370
    -2
100
AcDbBlockReference
  2
_DOT
 10
167.4225800111006
 20
255.2893627204683
 30
0.0
 50
90.0
  0
INSERT
  5
5540
330
5539
100
AcDbEntity
  8
DIM
 62
     0
370
    -2
100
AcDbBlockReference
  2
_DOT
 10
167.4225800111006
 20
190.2893627204683
 30
0.0
 50
270.0
  0
MTEXT
  5
5541
330
5539
100
AcDbEntity
  8
DIM
 62
     0
 48
0.05
100
AcDbMText
 10
159.9225800111006
 20
222.7893627204683
 30
0.0
 40
5.0
 41
0.0
 46
0.0
 71
     5
 72
     1
  1
\A1;65
  7
ＭＳ ゴシック
 11
0.0
 21
1.0
 31
0.0
 73
     1
 44
1.0
  0
POINT
  5
5542
330
5539
100
AcDbEntity
  8
Defpoints
 62
     0
100
AcDbPoint
 10
190.7568750467261
 20
255.2893627204683
 30
0.0
  0
POINT
  5
5543
330
5539
100
AcDbEntity
  8
Defpoints
 62
     0
100
AcDbPoint
 10
190.7568750467261
 20
190.2893627204683
 30
0.0
  0
POINT
  5
5544
330
5539
100
AcDbEntity
  8
Defpoints
 62
     0
100
AcDbPoint
 10
167.4225800111006
 20
190.2893627204683
 30
0.0
  0
ENDBLK
  5
553B
330
5539
100
AcDbEntity
  8
0
100
AcDbBlockEnd
  0
BLOCK
  5
57A3
330
57A2
100
AcDbEntity
  8
0
100
AcDbBlockBegin
  2
*D14
 70
     1
 10
0.0
 20
0.0
 30
0.0
  3
*D14
  1
*D16
  0
LINE
  5
57A4
330
57A2
100
AcDbEntity
  8
DIM
 62
     0
 48
0.05
370
    -2
100
AcDbLine
 10
117.8019320575965
 20
84.04805889166602
 30
0.0
 11
99.46763702197103
 21
84.04805889166602
 31
0.0
  0
LINE
  5
57A5
330
57A2
100
AcDbEntity
  8
DIM
 62
     0
 48
0.05
370
    -2
100
AcDbLine
 10
117.8019320575965
 20
19.04805889166602
 30
0.0
 11
99.46763702197103
 21
19.04805889166602
 31
0.0
  0
LINE
  5
57A6
330
57A2
100
AcDbEntity
  8
DIM
 62
     0
 48
0.05
370
    -2
100
AcDbLine
 10
99.46763702197103
 20
83.04805889166602
 30
0.0
 11
99.46763702197103
 21
20.04805889166602
 31
0.0
  0
INSERT
  5
57A7
330
57A2
100
AcDbEntity
  8
DIM
 62
     0
370
    -2
100
AcDbBlockReference
  2
_DOT
 10
99.46763702197103
 20
84.04805889166602
 30
0.0
 50
90.0
  0
INSERT
  5
57A8
330
57A2
100
AcDbEntity
  8
DIM
 62
     0
370
    -2
100
AcDbBlockReference
  2
_DOT
 10
99.46763702197103
 20
19.04805889166602
 30
0.0
 50
270.0
  0
MTEXT
  5
57A9
330
57A2
100
AcDbEntity
  8
DIM
 62
     0
 48
0.05
100
AcDbMText
 10
91.96763702197103
 20
51.54805889166602
 30
0.0
 40
5.0
 41
0.0
 46
0.0
 71
     5
 72
     1
  1
\A1;65
  7
ＭＳ ゴシック
 11
0.0
 21
1.0
 31
0.0
 73
     1
 44
1.0
  0
POINT
  5
57AA
330
57A2
100
AcDbEntity
  8
Defpoints
 62
     0
100
AcDbPoint
 10
122.8019320575965
 20
84.04805889166602
 30
0.0
  0
POINT
  5
57AB
330
57A2
100
AcDbEntity
  8
Defpoints
 62
     0
100
AcDbPoint
 10
122.8019320575965
 20
19.04805889166602
 30
0.0
  0
POINT
  5
57AC
330
57A2
100
AcDbEntity
  8
Defpoints
 62
     0
100
AcDbPoint
 10
99.46763702197103
 20
19.04805889166602
 30
0.0
  0
ENDBLK
  5
57AD
330
57A2
100
AcDbEntity
  8
0
100
AcDbBlockEnd
  0
BLOCK
  5
594A
330
5949
100
AcDbEntity
  8
0
100
AcDbBlockBegin
  2
*D15
 70
     1
 10
0.0
 20
0.0
 30
0.0
  3
*D15
  1
*D17
  0
LINE
  5
594C
330
5949
100
AcDbEntity
  8
DIM
 62
     0
 48
0.05
370
    -2
100
AcDbLine
 10
580.3269543458582
 20
250.0591435870597
 30
0.0
 11
561.9926593102327
 21
250.0591435870597
 31
0.0
  0
LINE
  5
594D
330
5949
100
AcDbEntity
  8
DIM
 62
     0
 48
0.05
370
    -2
100
AcDbLine
 10
580.3269543458582
 20
185.0591435870597
 30
0.0
 11
561.9926593102327
 21
185.0591435870597
 31
0.0
  0
LINE
  5
594E
330
5949
100
AcDbEntity
  8
DIM
 62
     0
 48
0.05
370
    -2
100
AcDbLine
 10
561.9926593102327
 20
249.0591435870597
 30
0.0
 11
561.9926593102327
 21
186.0591435870597
 31
0.0
  0
INSERT
  5
594F
330
5949
100
AcDbEntity
  8
DIM
 62
     0
370
    -2
100
AcDbBlockReference
  2
_DOT
 10
561.9926593102327
 20
250.0591435870597
 30
0.0
 50
90.0
  0
INSERT
  5
5950
330
5949
100
AcDbEntity
  8
DIM
 62
     0
370
    -2
100
AcDbBlockReference
  2
_DOT
 10
561.9926593102327
 20
185.0591435870597
 30
0.0
 50
270.0
  0
MTEXT
  5
5951
330
5949
100
AcDbEntity
  8
DIM
 62
     0
 48
0.05
100
AcDbMText
 10
554.4926593102327
 20
217.5591435870597
 30
0.0
 40
5.0
 41
0.0
 46
0.0
 71
     5
 72
     1
  1
\A1;65
  7
ＭＳ ゴシック
 11
0.0
 21
1.0
 31
0.0
 73
     1
 44
1.0
  0
POINT
  5
5952
330
5949
100
AcDbEntity
  8
Defpoints
 62
     0
100
AcDbPoint
 10
585.3269543458582
 20
250.0591435870597
 30
0.0
  0
POINT
  5
5953
330
5949
100
AcDbEntity
  8
Defpoints
 62
     0
100
AcDbPoint
 10
585.3269543458582
 20
185.0591435870597
 30
0.0
  0
POINT
  5
5954
330
5949
100
AcDbEntity
  8
Defpoints
 62
     0
100
AcDbPoint
 10
561.9926593102327
 20
185.0591435870597
 30
0.0
  0
ENDBLK
  5
594B
330
5949
100
AcDbEntity
  8
0
100
AcDbBlockEnd
  0
BLOCK
  5
59A6
330
59A5
100
AcDbEntity
  8
0
100
AcDbBlockBegin
  2
*D16
 70
     1
 10
0.0
 20
0.0
 30
0.0
  3
*D16
  1
*D19
  0
LINE
  5
59A7
330
59A5
100
AcDbEntity
  8
DIM
 62
     0
 48
0.05
370
    -2
100
AcDbLine
 10
499.0892895313439
 20
164.0963383318817
 30
0.0
 11
508.8464563616042
 21
164.0963383318817
 31
0.0
  0
LINE
  5
59A8
330
59A5
100
AcDbEntity
  8
DIM
 62
     0
 48
0.05
370
    -2
100
AcDbLine
 10
499.0892895313439
 20
94.09633833188173
 30
0.0
 11
508.8464563616042
 21
94.09633833188173
 31
0.0
  0
LINE
  5
59A9
330
59A5
100
AcDbEntity
  8
DIM
 62
     0
 48
0.05
370
    -2
100
AcDbLine
 10
508.8464563616042
 20
163.0963383318817
 30
0.0
 11
508.8464563616042
 21
95.09633833188173
 31
0.0
  0
INSERT
  5
59AA
330
59A5
100
AcDbEntity
  8
DIM
 62
     0
370
    -2
100
AcDbBlockReference
  2
_DOT
 10
508.8464563616042
 20
164.0963383318817
 30
0.0
 50
90.0
  0
INSERT
  5
59AB
330
59A5
100
AcDbEntity
  8
DIM
 62
     0
370
    -2
100
AcDbBlockReference
  2
_DOT
 10
508.8464563616042
 20
94.09633833188173
 30
0.0
 50
270.0
  0
MTEXT
  5
59AC
330
59A5
100
AcDbEntity
  8
DIM
 62
     0
 48
0.05
100
AcDbMText
 10
501.3464563616042
 20
129.0963383318817
 30
0.0
 40
5.0
 41
0.0
 46
0.0
 71
     5
 72
     1
  1
\A1;70
  7
ＭＳ ゴシック
 11
0.0
 21
1.0
 31
0.0
 73
     1
 44
1.0
  0
POINT
  5
59AD
330
59A5
100
AcDbEntity
  8
Defpoints
 62
     0
100
AcDbPoint
 10
494.0892895313439
 20
164.0963383318817
 30
0.0
  0
POINT
  5
59AE
330
59A5
100
AcDbEntity
  8
Defpoints
 62
     0
100
AcDbPoint
 10
494.0892895313439
 20
94.09633833188173
 30
0.0
  0
POINT
  5
59AF
330
59A5
100
AcDbEntity
  8
Defpoints
 62
     0
100
AcDbPoint
 10
508.8464563616042
 20
94.09633833188173
 30
0.0
  0
ENDBLK
  5
59B0
330
59A5
100
AcDbEntity
  8
0
100
AcDbBlockEnd
  0
BLOCK
  5
59B4
330
59B3
100
AcDbEntity
  8
0
100
AcDbBlockBegin
  2
*D17
 70
     1
 10
0.0
 20
0.0
 30
0.0
  3
*D17
  1
*D20
  0
LINE
  5
59B5
330
59B3
100
AcDbEntity
  8
DIM
 62
     0
 48
0.05
370
    -2
100
AcDbLine
 10
444.0933411659439
 20
66.66866339375929
 30
0.0
 11
444.0933411659439
 21
0.5
 31
0.0
  0
LINE
  5
59B6
330
59B3
100
AcDbEntity
  8
DIM
 62
     0
 48
0.05
370
    -2
100
AcDbLine
 10
345.8807914781439
 20
60.39992102228825
 30
0.0
 11
345.8807914781439
 21
0.5
 31
0.0
  0
LINE
  5
59B7
330
59B3
100
AcDbEntity
  8
DIM
 62
     0
 48
0.05
370
    -2
100
AcDbLine
 10
443.0933411659439
 20
0.5
 30
0.0
 11
346.8807914781439
 21
0.5
 31
0.0
  0
INSERT
  5
59B8
330
59B3
100
AcDbEntity
  8
DIM
 62
     0
370
    -2
100
AcDbBlockReference
  2
_DOT
 10
444.0933411659439
 20
0.5
 30
0.0
  0
INSERT
  5
59B9
330
59B3
100
AcDbEntity
  8
DIM
 62
     0
370
    -2
100
AcDbBlockReference
  2
_DOT
 10
345.8807914781439
 20
0.5
 30
0.0
 50
180.0
  0
MTEXT
  5
59BA
330
59B3
100
AcDbEntity
  8
DIM
 62
     0
 48
0.05
100
AcDbMText
 10
394.9870663220439
 20
8.0
 30
0.0
 40
5.0
 41
0.0
 46
0.0
 71
     5
 72
     1
  1
\A1;98
  7
ＭＳ ゴシック
 73
     1
 44
1.0
  0
POINT
  5
59BB
330
59B3
100
AcDbEntity
  8
Defpoints
 62
     0
100
AcDbPoint
 10
444.0933411659439
 20
71.66866339375929
 30
0.0
  0
POINT
  5
59BC
330
59B3
100
AcDbEntity
  8
Defpoints
 62
     0
100
AcDbPoint
 10
345.8807914781439
 20
65.39992102228825
 30
0.0
  0
POINT
  5
59BD
330
59B3
100
AcDbEntity
  8
Defpoints
 62
     0
100
AcDbPoint
 10
345.8807914781439
 20
0.5
 30
0.0
  0
ENDBLK
  5
59BE
330
59B3
100
AcDbEntity
  8
0
100
AcDbBlockEnd
  0
BLOCK
  5
59C2
330
59C1
100
AcDbEntity
  8
0
100
AcDbBlockBegin
  2
*D18
 70
     1
 10
0.0
 20
0.0
 30
0.0
  3
*D18
  1
*D21
  0
LINE
  5
59C3
330
59C1
100
AcDbEntity
  8
DIM
 62
     0
 48
0.05
370
    -2
100
AcDbLine
 10
233.0990124008315
 20
117.0963383318818
 30
0.0
 11
184.7040773779488
 21
117.0963383318818
 31
0.0
  0
LINE
  5
59C4
330
59C1
100
AcDbEntity
  8
DIM
 62
     0
 48
0.05
370
    -2
100
AcDbLine
 10
233.0990124008315
 20
141.0963383318818
 30
0.0
 11
184.7040773779488
 21
141.0963383318818
 31
0.0
  0
LINE
  5
59C5
330
59C1
100
AcDbEntity
  8
DIM
 62
     0
 48
0.05
370
    -2
100
AcDbLine
 10
184.7040773779488
 20
118.0963383318818
 30
0.0
 11
184.7040773779488
 21
140.0963383318818
 31
0.0
  0
INSERT
  5
59C6
330
59C1
100
AcDbEntity
  8
DIM
 62
     0
370
    -2
100
AcDbBlockReference
  2
_DOT
 10
184.7040773779488
 20
117.0963383318818
 30
0.0
 50
270.0
  0
INSERT
  5
59C7
330
59C1
100
AcDbEntity
  8
DIM
 62
     0
370
    -2
100
AcDbBlockReference
  2
_DOT
 10
184.7040773779488
 20
141.0963383318818
 30
0.0
 50
90.0
  0
MTEXT
  5
59C8
330
59C1
100
AcDbEntity
  8
DIM
 62
     0
 48
0.05
100
AcDbMText
 10
177.2040773779488
 20
129.0963383318818
 30
0.0
 40
5.0
 41
0.0
 46
0.0
 71
     5
 72
     1
  1
\A1;24
  7
ＭＳ ゴシック
 11
0.0
 21
1.0
 31
0.0
 73
     1
 44
1.0
  0
POINT
  5
59C9
330
59C1
100
AcDbEntity
  8
Defpoints
 62
     0
100
AcDbPoint
 10
238.0990124008315
 20
117.0963383318818
 30
0.0
  0
POINT
  5
59CA
330
59C1
100
AcDbEntity
  8
Defpoints
 62
     0
100
AcDbPoint
 10
238.0990124008315
 20
141.0963383318818
 30
0.0
  0
POINT
  5
59CB
330
59C1
100
AcDbEntity
  8
Defpoints
 62
     0
100
AcDbPoint
 10
184.7040773779488
 20
141.0963383318818
 30
0.0
  0
ENDBLK
  5
59CC
330
59C1
100
AcDbEntity
  8
0
100
AcDbBlockEnd
  0
BLOCK
  5
5AA2
330
5AA1
100
AcDbEntity
  8
0
100
AcDbBlockBegin
  2
*D19
 70
     1
 10
0.0
 20
0.0
 30
0.0
  3
*D19
  1
*D22
  0
LINE
  5
5AA3
330
5AA1
100
AcDbEntity
  8
DIM
 62
     0
 48
0.05
370
    -2
100
AcDbLine
 10
62.10166814976299
 20
94.09633833188167
 30
0.0
 11
10.00000000000011
 21
94.09633833188167
 31
0.0
  0
LINE
  5
5AA4
330
5AA1
100
AcDbEntity
  8
DIM
 62
     0
 48
0.05
370
    -2
100
AcDbLine
 10
62.10166814976299
 20
164.0963383318817
 30
0.0
 11
10.00000000000011
 21
164.0963383318817
 31
0.0
  0
LINE
  5
5AA5
330
5AA1
100
AcDbEntity
  8
DIM
 62
     0
 48
0.05
370
    -2
100
AcDbLine
 10
10.00000000000011
 20
95.09633833188167
 30
0.0
 11
10.00000000000011
 21
163.0963383318817
 31
0.0
  0
INSERT
  5
5AA6
330
5AA1
100
AcDbEntity
  8
DIM
 62
     0
370
    -2
100
AcDbBlockReference
  2
_DOT
 10
10.00000000000011
 20
94.09633833188167
 30
0.0
 50
270.0
  0
INSERT
  5
5AA7
330
5AA1
100
AcDbEntity
  8
DIM
 62
     0
370
    -2
100
AcDbBlockReference
  2
_DOT
 10
10.00000000000011
 20
164.0963383318817
 30
0.0
 50
90.0
  0
MTEXT
  5
5AA8
330
5AA1
100
AcDbEntity
  8
DIM
 62
     0
 48
0.05
100
AcDbMText
 10
2.500000000000112
 20
129.0963383318817
 30
0.0
 40
5.0
 41
0.0
 46
0.0
 71
     5
 72
     1
  1
\A1;70
  7
ＭＳ ゴシック
 11
5.075305255429287E-17
 21
1.0
 31
0.0
 73
     1
 44
1.0
  0
POINT
  5
5AA9
330
5AA1
100
AcDbEntity
  8
Defpoints
 62
     0
100
AcDbPoint
 10
67.10166814976299
 20
94.09633833188167
 30
0.0
  0
POINT
  5
5AAA
330
5AA1
100
AcDbEntity
  8
Defpoints
 62
     0
100
AcDbPoint
 10
67.10166814976299
 20
164.0963383318817
 30
0.0
  0
POINT
  5
5AAB
330
5AA1
100
AcDbEntity
  8
Defpoints
 62
     0
100
AcDbPoint
 10
10.00000000000011
 20
164.0963383318817
 30
0.0
  0
ENDBLK
  5
5AAC
330
5AA1
100
AcDbEntity
  8
0
100
AcDbBlockEnd
  0
BLOCK
  5
5B8B
330
5B8A
100
AcDbEntity
  8
0
100
AcDbBlockBegin
  2
*D20
 70
     1
 10
0.0
 20
0.0
 30
0.0
  3
*D20
  1
*D23
  0
LINE
  5
5B8D
330
5B8A
100
AcDbEntity
  8
DIM
 62
     0
 48
0.05
370
    -2
100
AcDbLine
 10
992.9792699889963
 20
276.5533927390139
 30
0.0
 11
1002.736436819257
 21
276.5533927390139
 31
0.0
  0
LINE
  5
5B8E
330
5B8A
100
AcDbEntity
  8
DIM
 62
     0
 48
0.05
370
    -2
100
AcDbLine
 10
992.9792699889963
 20
206.5533927390139
 30
0.0
 11
1002.736436819257
 21
206.5533927390139
 31
0.0
  0
LINE
  5
5B8F
330
5B8A
100
AcDbEntity
  8
DIM
 62
     0
 48
0.05
370
    -2
100
AcDbLine
 10
1002.736436819257
 20
275.5533927390139
 30
0.0
 11
1002.736436819257
 21
207.5533927390139
 31
0.0
  0
INSERT
  5
5B90
330
5B8A
100
AcDbEntity
  8
DIM
 62
     0
370
    -2
100
AcDbBlockReference
  2
_DOT
 10
1002.736436819257
 20
276.5533927390139
 30
0.0
 50
90.0
  0
INSERT
  5
5B91
330
5B8A
100
AcDbEntity
  8
DIM
 62
     0
370
    -2
100
AcDbBlockReference
  2
_DOT
 10
1002.736436819257
 20
206.5533927390139
 30
0.0
 50
270.0
  0
MTEXT
  5
5B92
330
5B8A
100
AcDbEntity
  8
DIM
 62
     0
 48
0.05
100
AcDbMText
 10
995.2364368192566
 20
241.5533927390139
 30
0.0
 40
5.0
 41
0.0
 46
0.0
 71
     5
 72
     1
  1
\A1;70
  7
ＭＳ ゴシック
 11
0.0
 21
1.0
 31
0.0
 73
     1
 44
1.0
  0
POINT
  5
5B93
330
5B8A
100
AcDbEntity
  8
Defpoints
 62
     0
100
AcDbPoint
 10
987.9792699889963
 20
276.5533927390139
 30
0.0
  0
POINT
  5
5B94
330
5B8A
100
AcDbEntity
  8
Defpoints
 62
     0
100
AcDbPoint
 10
987.9792699889963
 20
206.5533927390139
 30
0.0
  0
POINT
  5
5B95
330
5B8A
100
AcDbEntity
  8
Defpoints
 62
     0
100
AcDbPoint
 10
1002.736436819257
 20
206.5533927390139
 30
0.0
  0
ENDBLK
  5
5B8C
330
5B8A
100
AcDbEntity
  8
0
100
AcDbBlockEnd
  0
BLOCK
  5
5B97
330
5B96
100
AcDbEntity
  8
0
100
AcDbBlockBegin
  2
*D21
 70
     1
 10
0.0
 20
0.0
 30
0.0
  3
*D21
  1
*D24
  0
LINE
  5
5B99
330
5B96
100
AcDbEntity
  8
DIM
 62
     0
 48
0.05
370
    -2
100
AcDbLine
 10
378.2173745153065
 20
207.2370899073173
 30
0.0
 11
378.2173745153065
 21
131.8183843050166
 31
0.0
  0
LINE
  5
5B9A
330
5B96
100
AcDbEntity
  8
DIM
 62
     0
 48
0.05
370
    -2
100
AcDbLine
 10
280.0048248275065
 20
160.6120063854152
 30
0.0
 11
280.0048248275065
 21
131.8183843050166
 31
0.0
  0
LINE
  5
5B9B
330
5B96
100
AcDbEntity
  8
DIM
 62
     0
 48
0.05
370
    -2
100
AcDbLine
 10
377.2173745153065
 20
131.8183843050166
 30
0.0
 11
281.0048248275065
 21
131.8183843050166
 31
0.0
  0
INSERT
  5
5B9C
330
5B96
100
AcDbEntity
  8
DIM
 62
     0
370
    -2
100
AcDbBlockReference
  2
_DOT
 10
378.2173745153065
 20
131.8183843050166
 30
0.0
  0
INSERT
  5
5B9D
330
5B96
100
AcDbEntity
  8
DIM
 62
     0
370
    -2
100
AcDbBlockReference
  2
_DOT
 10
280.0048248275065
 20
131.8183843050166
 30
0.0
 50
180.0
  0
MTEXT
  5
5B9E
330
5B96
100
AcDbEntity
  8
DIM
 62
     0
 48
0.05
100
AcDbMText
 10
327.3213453670884
 20
139.3183843050166
 30
0.0
 40
5.0
 41
0.0
 46
0.0
 71
     5
 72
     1
  1
\A1;98
  7
ＭＳ ゴシック
 73
     1
 44
1.0
  0
POINT
  5
5B9F
330
5B96
100
AcDbEntity
  8
Defpoints
 62
     0
100
AcDbPoint
 10
378.2173745153065
 20
212.2370899073173
 30
0.0
  0
POINT
  5
5BA0
330
5B96
100
AcDbEntity
  8
Defpoints
 62
     0
100
AcDbPoint
 10
280.0048248275065
 20
165.6120063854152
 30
0.0
  0
POINT
  5
5BA1
330
5B96
100
AcDbEntity
  8
Defpoints
 62
     0
100
AcDbPoint
 10
280.0048248275065
 20
131.8183843050166
 30
0.0
  0
ENDBLK
  5
5B98
330
5B96
100
AcDbEntity
  8
0
100
AcDbBlockEnd
  0
BLOCK
  5
5BA3
330
5BA2
100
AcDbEntity
  8
0
100
AcDbBlockBegin
  2
*D22
 70
     1
 10
0.0
 20
0.0
 30
0.0
  3
*D22
  1
*D25
  0
LINE
  5
5BA5
330
5BA2
100
AcDbEntity
  8
DIM
 62
     0
 48
0.05
370
    -2
100
AcDbLine
 10
726.9889928584839
 20
229.553392739014
 30
0.0
 11
678.5940578356012
 21
229.553392739014
 31
0.0
  0
LINE
  5
5BA6
330
5BA2
100
AcDbEntity
  8
DIM
 62
     0
 48
0.05
370
    -2
100
AcDbLine
 10
726.9889928584839
 20
253.553392739014
 30
0.0
 11
678.5940578356012
 21
253.553392739014
 31
0.0
  0
LINE
  5
5BA7
330
5BA2
100
AcDbEntity
  8
DIM
 62
     0
 48
0.05
370
    -2
100
AcDbLine
 10
678.5940578356012
 20
230.553392739014
 30
0.0
 11
678.5940578356012
 21
252.553392739014
 31
0.0
  0
INSERT
  5
5BA8
330
5BA2
100
AcDbEntity
  8
DIM
 62
     0
370
    -2
100
AcDbBlockReference
  2
_DOT
 10
678.5940578356012
 20
229.553392739014
 30
0.0
 50
270.0
  0
INSERT
  5
5BA9
330
5BA2
100
AcDbEntity
  8
DIM
 62
     0
370
    -2
100
AcDbBlockReference
  2
_DOT
 10
678.5940578356012
 20
253.553392739014
 30
0.0
 50
90.0
  0
MTEXT
  5
5BAA
330
5BA2
100
AcDbEntity
  8
DIM
 62
     0
 48
0.05
100
AcDbMText
 10
671.0940578356012
 20
241.553392739014
 30
0.0
 40
5.0
 41
0.0
 46
0.0
 71
     5
 72
     1
  1
\A1;24
  7
ＭＳ ゴシック
 11
0.0
 21
1.0
 31
0.0
 73
     1
 44
1.0
  0
POINT
  5
5BAB
330
5BA2
100
AcDbEntity
  8
Defpoints
 62
     0
100
AcDbPoint
 10
731.9889928584839
 20
229.553392739014
 30
0.0
  0
POINT
  5
5BAC
330
5BA2
100
AcDbEntity
  8
Defpoints
 62
     0
100
AcDbPoint
 10
731.9889928584839
 20
253.553392739014
 30
0.0
  0
POINT
  5
5BAD
330
5BA2
100
AcDbEntity
  8
Defpoints
 62
     0
100
AcDbPoint
 10
678.5940578356012
 20
253.553392739014
 30
0.0
  0
ENDBLK
  5
5BA4
330
5BA2
100
AcDbEntity
  8
0
100
AcDbBlockEnd
  0
BLOCK
  5
5BAF
330
5BAE
100
AcDbEntity
  8
0
100
AcDbBlockBegin
  2
*D23
 70
     1
 10
0.0
 20
0.0
 30
0.0
  3
*D23
  1
*D26
  0
LINE
  5
5BB1
330
5BAE
100
AcDbEntity
  8
DIM
 62
     0
 48
0.05
370
    -2
100
AcDbLine
 10
101.1932066235675
 20
188.7994191067159
 30
0.0
 11
49.09153847380463
 21
188.7994191067159
 31
0.0
  0
LINE
  5
5BB2
330
5BAE
100
AcDbEntity
  8
DIM
 62
     0
 48
0.05
370
    -2
100
AcDbLine
 10
101.1932066235675
 20
258.799419106716
 30
0.0
 11
49.09153847380463
 21
258.799419106716
 31
0.0
  0
LINE
  5
5BB3
330
5BAE
100
AcDbEntity
  8
DIM
 62
     0
 48
0.05
370
    -2
100
AcDbLine
 10
49.09153847380463
 20
189.7994191067159
 30
0.0
 11
49.09153847380463
 21
257.799419106716
 31
0.0
  0
INSERT
  5
5BB4
330
5BAE
100
AcDbEntity
  8
DIM
 62
     0
370
    -2
100
AcDbBlockReference
  2
_DOT
 10
49.09153847380463
 20
188.7994191067159
 30
0.0
 50
270.0
  0
INSERT
  5
5BB5
330
5BAE
100
AcDbEntity
  8
DIM
 62
     0
370
    -2
100
AcDbBlockReference
  2
_DOT
 10
49.09153847380463
 20
258.799419106716
 30
0.0
 50
90.0
  0
MTEXT
  5
5BB6
330
5BAE
100
AcDbEntity
  8
DIM
 62
     0
 48
0.05
100
AcDbMText
 10
41.18653847380463
 20
223.799419106716
 30
0.0
 40
5.0
 41
0.0
 46
0.0
 71
     5
 72
     1
  1
\A1;φ70
  7
ＭＳ ゴシック
 11
1.015061051085857E-16
 21
1.0
 31
0.0
 73
     1
 44
1.0
  0
POINT
  5
5BB7
330
5BAE
100
AcDbEntity
  8
Defpoints
 62
     0
100
AcDbPoint
 10
106.1932066235675
 20
188.7994191067159
 30
0.0
  0
POINT
  5
5BB8
330
5BAE
100
AcDbEntity
  8
Defpoints
 62
     0
100
AcDbPoint
 10
106.1932066235675
 20
258.799419106716
 30
0.0
  0
POINT
  5
5BB9
330
5BAE
100
AcDbEntity
  8
Defpoints
 62
     0
100
AcDbPoint
 10
49.09153847380463
 20
258.799419106716
 30
0.0
  0
ENDBLK
  5
5BB0
330
5BAE
100
AcDbEntity
  8
0
100
AcDbBlockEnd
  0
BLOCK
  5
5BBE
330
5BBD
100
AcDbEntity
  8
0
100
AcDbBlockBegin
  2
*D24
 70
     1
 10
0.0
 20
0.0
 30
0.0
  3
*D24
  1
*D27
  0
LINE
  5
5BC0
330
5BBD
100
AcDbEntity
  8
DIM
 62
     0
 48
0.05
370
    -2
100
AcDbLine
 10
280.0048248275064
 20
182.4571200624437
 30
0.0
 11
280.0048248275064
 21
160.3171530894867
 31
0.0
  0
LINE
  5
5BC1
330
5BBD
100
AcDbEntity
  8
DIM
 62
     0
 48
0.05
370
    -2
100
AcDbLine
 10
290.0048248275064
 20
189.8321110877037
 30
0.0
 11
290.0048248275064
 21
160.3171530894867
 31
0.0
  0
LINE
  5
5BC2
330
5BBD
100
AcDbEntity
  8
DIM
 62
     0
 48
0.05
370
    -2
100
AcDbLine
 10
281.0048248275064
 20
160.3171530894867
 30
0.0
 11
289.0048248275064
 21
160.3171530894867
 31
0.0
  0
INSERT
  5
5BC3
330
5BBD
100
AcDbEntity
  8
DIM
 62
     0
370
    -2
100
AcDbBlockReference
  2
_DOT
 10
280.0048248275064
 20
160.3171530894867
 30
0.0
 50
180.0
  0
INSERT
  5
5BC4
330
5BBD
100
AcDbEntity
  8
DIM
 62
     0
370
    -2
100
AcDbBlockReference
  2
_DOT
 10
290.0048248275064
 20
160.3171530894867
 30
0.0
  0
MTEXT
  5
5BC5
330
5BBD
100
AcDbEntity
  8
DIM
 62
     0
 48
0.05
100
AcDbMText
 10
285.0048248275064
 20
167.8171530894867
 30
0.0
 40
5.0
 41
0.0
 46
0.0
 71
     5
 72
     1
  1
\A1;10
  7
ＭＳ ゴシック
 73
     1
 44
1.0
  0
POINT
  5
5BC6
330
5BBD
100
AcDbEntity
  8
Defpoints
 62
     0
100
AcDbPoint
 10
280.0048248275064
 20
187.4571200624437
 30
0.0
  0
POINT
  5
5BC7
330
5BBD
100
AcDbEntity
  8
Defpoints
 62
     0
100
AcDbPoint
 10
290.0048248275064
 20
194.8321110877037
 30
0.0
  0
POINT
  5
5BC8
330
5BBD
100
AcDbEntity
  8
Defpoints
 62
     0
100
AcDbPoint
 10
290.0048248275064
 20
160.3171530894867
 30
0.0
  0
ENDBLK
  5
5BBF
330
5BBD
100
AcDbEntity
  8
0
100
AcDbBlockEnd
  0
BLOCK
  5
5C84
330
5C83
100
AcDbEntity
  8
0
100
AcDbBlockBegin
  2
*D25
 70
     1
 10
0.0
 20
0.0
 30
0.0
  3
*D25
  1
*D28
  0
LINE
  5
5C86
330
5C83
100
AcDbEntity
  8
DIM
 62
     0
 48
0.05
370
    -2
100
AcDbLine
 10
263.0048248275064
 20
204.3982927101698
 30
0.0
 11
256.1655612133876
 21
204.3982927101698
 31
0.0
  0
LINE
  5
5C87
330
5C83
100
AcDbEntity
  8
DIM
 62
     0
 48
0.05
370
    -2
100
AcDbLine
 10
263.0048248275064
 20
240.1908455642153
 30
0.0
 11
256.1655612133876
 21
240.1908455642153
 31
0.0
  0
LINE
  5
5C88
330
5C83
100
AcDbEntity
  8
DIM
 62
     0
 48
0.05
370
    -2
100
AcDbLine
 10
256.1655612133876
 20
205.3982927101698
 30
0.0
 11
256.1655612133876
 21
239.1908455642153
 31
0.0
  0
INSERT
  5
5C89
330
5C83
100
AcDbEntity
  8
DIM
 62
     0
370
    -2
100
AcDbBlockReference
  2
_DOT
 10
256.1655612133876
 20
204.3982927101698
 30
0.0
 50
270.0
  0
INSERT
  5
5C8A
330
5C83
100
AcDbEntity
  8
DIM
 62
     0
370
    -2
100
AcDbBlockReference
  2
_DOT
 10
256.1655612133876
 20
240.1908455642153
 30
0.0
 50
90.0
  0
MTEXT
  5
5C8B
330
5C83
100
AcDbEntity
  8
DIM
 62
     0
 48
0.05
100
AcDbMText
 10
248.6655612133876
 20
222.2945691371926
 30
0.0
 40
5.0
 41
0.0
 46
0.0
 71
     5
 72
     1
  1
\A1;36
  7
ＭＳ ゴシック
 11
0.0
 21
1.0
 31
0.0
 73
     1
 44
1.0
  0
POINT
  5
5C8C
330
5C83
100
AcDbEntity
  8
Defpoints
 62
     0
100
AcDbPoint
 10
268.0048248275064
 20
204.3982927101698
 30
0.0
  0
POINT
  5
5C8D
330
5C83
100
AcDbEntity
  8
Defpoints
 62
     0
100
AcDbPoint
 10
268.0048248275064
 20
240.1908455642153
 30
0.0
  0
POINT
  5
5C8E
330
5C83
100
AcDbEntity
  8
Defpoints
 62
     0
100
AcDbPoint
 10
256.1655612133876
 20
240.1908455642153
 30
0.0
  0
ENDBLK
  5
5C85
330
5C83
100
AcDbEntity
  8
0
100
AcDbBlockEnd
  0
BLOCK
  5
5DD4
330
5DD3
100
AcDbEntity
  8
0
100
AcDbBlockBegin
  2
*D26
 70
     1
 10
0.0
 20
0.0
 30
0.0
  3
*D26
  1
*D18
  0
LINE
  5
5DD5
330
5DD3
100
AcDbEntity
  8
DIM
 62
     0
 48
0.05
370
    -2
100
AcDbLine
 10
57.1019720136273
 20
143.7828948509713
 30
0.0
 11
10.80999999999998
 21
143.7828948509713
 31
0.0
  0
LINE
  5
5DD6
330
5DD3
100
AcDbEntity
  8
DIM
 62
     0
 48
0.05
370
    -2
100
AcDbLine
 10
54.1182126388296
 20
66.0357718509714
 30
0.0
 11
10.80999999999997
 21
66.0357718509714
 31
0.0
  0
LINE
  5
5DD7
330
5DD3
100
AcDbEntity
  8
DIM
 62
     0
 48
0.05
370
    -2
100
AcDbLine
 10
10.80999999999998
 20
142.7828948509713
 30
0.0
 11
10.80999999999997
 21
67.0357718509714
 31
0.0
  0
INSERT
  5
5DD8
330
5DD3
100
AcDbEntity
  8
DIM
 62
     0
370
    -2
100
AcDbBlockReference
  2
_DOT
 10
10.80999999999998
 20
143.7828948509713
 30
0.0
 50
90.0
  0
INSERT
  5
5DD9
330
5DD3
100
AcDbEntity
  8
DIM
 62
     0
370
    -2
100
AcDbBlockReference
  2
_DOT
 10
10.80999999999997
 20
66.0357718509714
 30
0.0
 50
270.0
  0
MTEXT
  5
5DDA
330
5DD3
100
AcDbEntity
  8
DIM
 62
     0
 48
0.05
100
AcDbMText
 10
2.904999999999973
 20
104.9093333509714
 30
0.0
 40
5.0
 41
0.0
 46
0.0
 71
     5
 72
     1
  1
\A1;φ78
  7
ＭＳ ゴシック
 11
6.854363624748867E-17
 21
1.0
 31
0.0
 73
     1
 44
1.0
  0
POINT
  5
5DDB
330
5DD3
100
AcDbEntity
  8
Defpoints
 62
     0
100
AcDbPoint
 10
62.1019720136273
 20
143.7828948509713
 30
0.0
  0
POINT
  5
5DDC
330
5DD3
100
AcDbEntity
  8
Defpoints
 62
     0
100
AcDbPoint
 10
59.1182126388296
 20
66.0357718509714
 30
0.0
  0
POINT
  5
5DDD
330
5DD3
100
AcDbEntity
  8
Defpoints
 62
     0
100
AcDbPoint
 10
10.80999999999997
 20
66.0357718509714
 30
0.0
  0
ENDBLK
  5
5DDE
330
5DD3
100
AcDbEntity
  8
0
100
AcDbBlockEnd
  0
BLOCK
  5
5EAF
330
5EAE
100
AcDbEntity
  8
0
100
AcDbBlockBegin
  2
*D27
 70
     1
 10
0.0
 20
0.0
 30
0.0
  3
*D27
  1
*D19
  0
LINE
  5
5EB0
330
5EAE
100
AcDbEntity
  8
DIM
 62
     0
 48
0.05
370
    -2
100
AcDbLine
 10
322.9769534655186
 20
96.4027576692942
 30
0.0
 11
322.9769534655186
 21
0.5
 31
0.0
  0
LINE
  5
5EB1
330
5EAE
100
AcDbEntity
  8
DIM
 62
     0
 48
0.05
370
    -2
100
AcDbLine
 10
221.3997494655186
 20
25.90933385097119
 30
0.0
 11
221.3997494655186
 21
0.5
 31
0.0
  0
LINE
  5
5EB2
330
5EAE
100
AcDbEntity
  8
DIM
 62
     0
 48
0.05
370
    -2
100
AcDbLine
 10
321.9769534655186
 20
0.5
 30
0.0
 11
222.3997494655186
 21
0.5
 31
0.0
  0
INSERT
  5
5EB3
330
5EAE
100
AcDbEntity
  8
DIM
 62
     0
370
    -2
100
AcDbBlockReference
  2
_DOT
 10
322.9769534655186
 20
0.5
 30
0.0
  0
INSERT
  5
5EB4
330
5EAE
100
AcDbEntity
  8
DIM
 62
     0
370
    -2
100
AcDbBlockReference
  2
_DOT
 10
221.3997494655186
 20
0.5
 30
0.0
 50
180.0
  0
MTEXT
  5
5EB5
330
5EAE
100
AcDbEntity
  8
DIM
 62
     0
 48
0.05
100
AcDbMText
 10
272.1883514655186
 20
8.0
 30
0.0
 40
5.0
 41
0.0
 46
0.0
 71
     5
 72
     1
  1
\A1;110～75
  7
ＭＳ ゴシック
 73
     1
 44
1.0
  0
POINT
  5
5EB6
330
5EAE
100
AcDbEntity
  8
Defpoints
 62
     0
100
AcDbPoint
 10
322.9769534655186
 20
101.4027576692942
 30
0.0
  0
POINT
  5
5EB7
330
5EAE
100
AcDbEntity
  8
Defpoints
 62
     0
100
AcDbPoint
 10
221.3997494655186
 20
30.90933385097119
 30
0.0
  0
POINT
  5
5EB8
330
5EAE
100
AcDbEntity
  8
Defpoints
 62
     0
100
AcDbPoint
 10
221.3997494655186
 20
0.5
 30
0.0
  0
ENDBLK
  5
5EB9
330
5EAE
100
AcDbEntity
  8
0
100
AcDbBlockEnd
  0
BLOCK
  5
5EBC
330
5EBB
100
AcDbEntity
  8
0
100
AcDbBlockBegin
  2
*D28
 70
     1
 10
0.0
 20
0.0
 30
0.0
  3
*D28
  1
*D20
  0
LINE
  5
5EBD
330
5EBB
100
AcDbEntity
  8
DIM
 62
     0
 48
0.05
370
    -2
100
AcDbLine
 10
234.5088044655185
 20
82.89550849953699
 30
0.0
 11
234.5088044655185
 21
19.18476024488689
 31
0.0
  0
LINE
  5
5EBE
330
5EBB
100
AcDbEntity
  8
DIM
 62
     0
 48
0.05
370
    -2
100
AcDbLine
 10
221.3997494655186
 20
25.90933385097119
 30
0.0
 11
221.3997494655186
 21
19.18476024488689
 31
0.0
  0
LINE
  5
5EBF
330
5EBB
100
AcDbEntity
  8
DIM
 62
     0
 48
0.05
370
    -2
100
AcDbLine
 10
233.5088044655185
 20
19.18476024488689
 30
0.0
 11
222.3997494655186
 21
19.18476024488689
 31
0.0
  0
INSERT
  5
5EC0
330
5EBB
100
AcDbEntity
  8
DIM
 62
     0
370
    -2
100
AcDbBlockReference
  2
_DOT
 10
234.5088044655185
 20
19.18476024488689
 30
0.0
  0
INSERT
  5
5EC1
330
5EBB
100
AcDbEntity
  8
DIM
 62
     0
370
    -2
100
AcDbBlockReference
  2
_DOT
 10
221.3997494655186
 20
19.18476024488689
 30
0.0
 50
180.0
  0
MTEXT
  5
5EC2
330
5EBB
100
AcDbEntity
  8
DIM
 62
     0
 48
0.05
100
AcDbMText
 10
227.9542752553186
 20
26.68476024488689
 30
0.0
 40
5.0
 41
0.0
 46
0.0
 71
     5
 72
     1
  1
\A1;13
  7
ＭＳ ゴシック
 73
     1
 44
1.0
  0
POINT
  5
5EC3
330
5EBB
100
AcDbEntity
  8
Defpoints
 62
     0
100
AcDbPoint
 10
234.5088044655185
 20
87.89550849953699
 30
0.0
  0
POINT
  5
5EC4
330
5EBB
100
AcDbEntity
  8
Defpoints
 62
     0
100
AcDbPoint
 10
221.3997494655186
 20
30.90933385097119
 30
0.0
  0
POINT
  5
5EC5
330
5EBB
100
AcDbEntity
  8
Defpoints
 62
     0
100
AcDbPoint
 10
221.3997494655186
 20
19.18476024488689
 30
0.0
  0
ENDBLK
  5
5EC6
330
5EBB
100
AcDbEntity
  8
0
100
AcDbBlockEnd
  0
BLOCK
  5
5FFA
330
5FF9
100
AcDbEntity
  8
0
100
AcDbBlockBegin
  2
*D29
 70
     1
 10
0.0
 20
0.0
 30
0.0
  3
*D29
  1
*D22
  0
LINE
  5
5FFB
330
5FF9
100
AcDbEntity
  8
DIM
 62
     0
 48
0.05
370
    -2
100
AcDbLine
 10
150.8997494655186
 20
142.4093338509712
 30
0.0
 11
139.2557740105162
 21
142.4093338509712
 31
0.0
  0
LINE
  5
5FFC
330
5FF9
100
AcDbEntity
  8
DIM
 62
     0
 48
0.05
370
    -2
100
AcDbLine
 10
150.8997494655186
 20
67.4093338509712
 30
0.0
 11
139.2557740105162
 21
67.4093338509712
 31
0.0
  0
LINE
  5
5FFD
330
5FF9
100
AcDbEntity
  8
DIM
 62
     0
 48
0.05
370
    -2
100
AcDbLine
 10
139.2557740105162
 20
141.4093338509712
 30
0.0
 11
139.2557740105162
 21
68.4093338509712
 31
0.0
  0
INSERT
  5
5FFE
330
5FF9
100
AcDbEntity
  8
DIM
 62
     0
370
    -2
100
AcDbBlockReference
  2
_DOT
 10
139.2557740105162
 20
142.4093338509712
 30
0.0
 50
90.0
  0
INSERT
  5
5FFF
330
5FF9
100
AcDbEntity
  8
DIM
 62
     0
370
    -2
100
AcDbBlockReference
  2
_DOT
 10
139.2557740105162
 20
67.4093338509712
 30
0.0
 50
270.0
  0
MTEXT
  5
6000
330
5FF9
100
AcDbEntity
  8
DIM
 62
     0
 48
0.05
100
AcDbMText
 10
131.7557740105162
 20
104.9093338509712
 30
0.0
 40
5.0
 41
0.0
 46
0.0
 71
     5
 72
     1
  1
\A1;75
  7
ＭＳ ゴシック
 11
0.0
 21
1.0
 31
0.0
 73
     1
 44
1.0
  0
POINT
  5
6001
330
5FF9
100
AcDbEntity
  8
Defpoints
 62
     0
100
AcDbPoint
 10
155.8997494655186
 20
142.4093338509712
 30
0.0
  0
POINT
  5
6002
330
5FF9
100
AcDbEntity
  8
Defpoints
 62
     0
100
AcDbPoint
 10
155.8997494655186
 20
67.4093338509712
 30
0.0
  0
POINT
  5
6003
330
5FF9
100
AcDbEntity
  8
Defpoints
 62
     0
100
AcDbPoint
 10
139.2557740105162
 20
67.4093338509712
 30
0.0
  0
ENDBLK
  5
6004
330
5FF9
100
AcDbEntity
  8
0
100
AcDbBlockEnd
  0
BLOCK
  5
637F
330
637E
100
AcDbEntity
  8
0
100
AcDbBlockBegin
  2
*D30
 70
     1
 10
0.0
 20
0.0
 30
0.0
  3
*D30
  1
*D34
  0
LINE
  5
6381
330
637E
100
AcDbEntity
  8
DIM
 62
     0
 48
0.05
370
    -2
100
AcDbLine
 10
515.125657006198
 20
282.7859557722193
 30
0.0
 11
468.8336849925706
 21
282.7859557722193
 31
0.0
  0
LINE
  5
6382
330
637E
100
AcDbEntity
  8
DIM
 62
     0
 48
0.05
370
    -2
100
AcDbLine
 10
512.1418976314003
 20
205.0388327722194
 30
0.0
 11
468.8336849925706
 21
205.0388327722194
 31
0.0
  0
LINE
  5
6383
330
637E
100
AcDbEntity
  8
DIM
 62
     0
 48
0.05
370
    -2
100
AcDbLine
 10
468.8336849925706
 20
281.7859557722193
 30
0.0
 11
468.8336849925706
 21
206.0388327722194
 31
0.0
  0
INSERT
  5
6384
330
637E
100
AcDbEntity
  8
DIM
 62
     0
370
    -2
100
AcDbBlockReference
  2
_DOT
 10
468.8336849925706
 20
282.7859557722193
 30
0.0
 50
90.0
  0
INSERT
  5
6385
330
637E
100
AcDbEntity
  8
DIM
 62
     0
370
    -2
100
AcDbBlockReference
  2
_DOT
 10
468.8336849925706
 20
205.0388327722194
 30
0.0
 50
270.0
  0
MTEXT
  5
6386
330
637E
100
AcDbEntity
  8
DIM
 62
     0
 48
0.05
100
AcDbMText
 10
460.9286849925707
 20
243.9123942722194
 30
0.0
 40
5.0
 41
0.0
 46
0.0
 71
     5
 72
     1
  1
\A1;φ78
  7
ＭＳ ゴシック
 11
0.0
 21
1.0
 31
0.0
 73
     1
 44
1.0
  0
POINT
  5
6387
330
637E
100
AcDbEntity
  8
Defpoints
 62
     0
100
AcDbPoint
 10
520.125657006198
 20
282.7859557722193
 30
0.0
  0
POINT
  5
6388
330
637E
100
AcDbEntity
  8
Defpoints
 62
     0
100
AcDbPoint
 10
517.1418976314003
 20
205.0388327722194
 30
0.0
  0
POINT
  5
6389
330
637E
100
AcDbEntity
  8
Defpoints
 62
     0
100
AcDbPoint
 10
468.8336849925706
 20
205.0388327722194
 30
0.0
  0
ENDBLK
  5
6380
330
637E
100
AcDbEntity
  8
0
100
AcDbBlockEnd
  0
BLOCK
  5
638B
330
638A
100
AcDbEntity
  8
0
100
AcDbBlockBegin
  2
*D31
 70
     1
 10
0.0
 20
0.0
 30
0.0
  3
*D31
  1
*D35
  0
LINE
  5
638D
330
638A
100
AcDbEntity
  8
DIM
 62
     0
 48
0.05
370
    -2
100
AcDbLine
 10
781.0006384580893
 20
235.4058185905422
 30
0.0
 11
781.0006384580893
 21
139.503060921248
 31
0.0
  0
LINE
  5
638E
330
638A
100
AcDbEntity
  8
DIM
 62
     0
 48
0.05
370
    -2
100
AcDbLine
 10
679.4234344580893
 20
164.9123947722192
 30
0.0
 11
679.4234344580893
 21
139.503060921248
 31
0.0
  0
LINE
  5
638F
330
638A
100
AcDbEntity
  8
DIM
 62
     0
 48
0.05
370
    -2
100
AcDbLine
 10
780.0006384580893
 20
139.503060921248
 30
0.0
 11
680.4234344580893
 21
139.503060921248
 31
0.0
  0
INSERT
  5
6390
330
638A
100
AcDbEntity
  8
DIM
 62
     0
370
    -2
100
AcDbBlockReference
  2
_DOT
 10
781.0006384580893
 20
139.503060921248
 30
0.0
  0
INSERT
  5
6391
330
638A
100
AcDbEntity
  8
DIM
 62
     0
370
    -2
100
AcDbBlockReference
  2
_DOT
 10
679.4234344580893
 20
139.503060921248
 30
0.0
 50
180.0
  0
MTEXT
  5
6392
330
638A
100
AcDbEntity
  8
DIM
 62
     0
 48
0.05
100
AcDbMText
 10
730.2120364580893
 20
147.003060921248
 30
0.0
 40
5.0
 41
0.0
 46
0.0
 71
     5
 72
     1
  1
\A1;110～75
  7
ＭＳ ゴシック
 73
     1
 44
1.0
  0
POINT
  5
6393
330
638A
100
AcDbEntity
  8
Defpoints
 62
     0
100
AcDbPoint
 10
781.0006384580893
 20
240.4058185905422
 30
0.0
  0
POINT
  5
6394
330
638A
100
AcDbEntity
  8
Defpoints
 62
     0
100
AcDbPoint
 10
679.4234344580893
 20
169.9123947722192
 30
0.0
  0
POINT
  5
6395
330
638A
100
AcDbEntity
  8
Defpoints
 62
     0
100
AcDbPoint
 10
679.4234344580893
 20
139.503060921248
 30
0.0
  0
ENDBLK
  5
638C
330
638A
100
AcDbEntity
  8
0
100
AcDbBlockEnd
  0
BLOCK
  5
6397
330
6396
100
AcDbEntity
  8
0
100
AcDbBlockBegin
  2
*D32
 70
     1
 10
0.0
 20
0.0
 30
0.0
  3
*D32
  1
*D36
  0
LINE
  5
6399
330
6396
100
AcDbEntity
  8
DIM
 62
     0
 48
0.05
370
    -2
100
AcDbLine
 10
692.5324894580892
 20
221.898569420785
 30
0.0
 11
692.5324894580892
 21
158.1878211661349
 31
0.0
  0
LINE
  5
639A
330
6396
100
AcDbEntity
  8
DIM
 62
     0
 48
0.05
370
    -2
100
AcDbLine
 10
679.4234344580893
 20
164.9123947722192
 30
0.0
 11
679.4234344580893
 21
158.1878211661349
 31
0.0
  0
LINE
  5
639B
330
6396
100
AcDbEntity
  8
DIM
 62
     0
 48
0.05
370
    -2
100
AcDbLine
 10
691.5324894580892
 20
158.1878211661349
 30
0.0
 11
680.4234344580893
 21
158.1878211661349
 31
0.0
  0
INSERT
  5
639C
330
6396
100
AcDbEntity
  8
DIM
 62
     0
370
    -2
100
AcDbBlockReference
  2
_DOT
 10
692.5324894580892
 20
158.1878211661349
 30
0.0
  0
INSERT
  5
639D
330
6396
100
AcDbEntity
  8
DIM
 62
     0
370
    -2
100
AcDbBlockReference
  2
_DOT
 10
679.4234344580893
 20
158.1878211661349
 30
0.0
 50
180.0
  0
MTEXT
  5
639E
330
6396
100
AcDbEntity
  8
DIM
 62
     0
 48
0.05
100
AcDbMText
 10
685.9779602478893
 20
165.6878211661349
 30
0.0
 40
5.0
 41
0.0
 46
0.0
 71
     5
 72
     1
  1
\A1;13
  7
ＭＳ ゴシック
 73
     1
 44
1.0
  0
POINT
  5
639F
330
6396
100
AcDbEntity
  8
Defpoints
 62
     0
100
AcDbPoint
 10
692.5324894580892
 20
226.898569420785
 30
0.0
  0
POINT
  5
63A0
330
6396
100
AcDbEntity
  8
Defpoints
 62
     0
100
AcDbPoint
 10
679.4234344580893
 20
169.9123947722192
 30
0.0
  0
POINT
  5
63A1
330
6396
100
AcDbEntity
  8
Defpoints
 62
     0
100
AcDbPoint
 10
679.4234344580893
 20
158.1878211661349
 30
0.0
  0
ENDBLK
  5
6398
330
6396
100
AcDbEntity
  8
0
100
AcDbBlockEnd
  0
BLOCK
  5
63A3
330
63A2
100
AcDbEntity
  8
0
100
AcDbBlockBegin
  2
*D33
 70
     1
 10
0.0
 20
0.0
 30
0.0
  3
*D33
  1
*D37
  0
LINE
  5
63A5
330
63A2
100
AcDbEntity
  8
DIM
 62
     0
 48
0.05
370
    -2
100
AcDbLine
 10
608.9234344580893
 20
281.4123947722192
 30
0.0
 11
597.2794590030869
 21
281.4123947722192
 31
0.0
  0
LINE
  5
63A6
330
63A2
100
AcDbEntity
  8
DIM
 62
     0
 48
0.05
370
    -2
100
AcDbLine
 10
608.9234344580893
 20
206.4123947722192
 30
0.0
 11
597.2794590030869
 21
206.4123947722192
 31
0.0
  0
LINE
  5
63A7
330
63A2
100
AcDbEntity
  8
DIM
 62
     0
 48
0.05
370
    -2
100
AcDbLine
 10
597.2794590030869
 20
280.4123947722192
 30
0.0
 11
597.2794590030869
 21
207.4123947722192
 31
0.0
  0
INSERT
  5
63A8
330
63A2
100
AcDbEntity
  8
DIM
 62
     0
370
    -2
100
AcDbBlockReference
  2
_DOT
 10
597.2794590030869
 20
281.4123947722192
 30
0.0
 50
90.0
  0
INSERT
  5
63A9
330
63A2
100
AcDbEntity
  8
DIM
 62
     0
370
    -2
100
AcDbBlockReference
  2
_DOT
 10
597.2794590030869
 20
206.4123947722192
 30
0.0
 50
270.0
  0
MTEXT
  5
63AA
330
63A2
100
AcDbEntity
  8
DIM
 62
     0
 48
0.05
100
AcDbMText
 10
589.7794590030869
 20
243.9123947722192
 30
0.0
 40
5.0
 41
0.0
 46
0.0
 71
     5
 72
     1
  1
\A1;75
  7
ＭＳ ゴシック
 11
0.0
 21
1.0
 31
0.0
 73
     1
 44
1.0
  0
POINT
  5
63AB
330
63A2
100
AcDbEntity
  8
Defpoints
 62
     0
100
AcDbPoint
 10
613.9234344580893
 20
281.4123947722192
 30
0.0
  0
POINT
  5
63AC
330
63A2
100
AcDbEntity
  8
Defpoints
 62
     0
100
AcDbPoint
 10
613.9234344580893
 20
206.4123947722192
 30
0.0
  0
POINT
  5
63AD
330
63A2
100
AcDbEntity
  8
Defpoints
 62
     0
100
AcDbPoint
 10
597.2794590030869
 20
206.4123947722192
 30
0.0
  0
ENDBLK
  5
63A4
330
63A2
100
AcDbEntity
  8
0
100
AcDbBlockEnd
  0
BLOCK
  5
63F3
330
63F2
100
AcDbEntity
  8
0
100
AcDbBlockBegin
  2
*D34
 70
     1
 10
0.0
 20
0.0
 30
0.0
  3
*D34
  1
*D38
  0
LINE
  5
63F5
330
63F2
100
AcDbEntity
  8
DIM
 62
     0
 48
0.05
370
    -2
100
AcDbLine
 10
185.0048248275064
 20
260.0234319517693
 30
0.0
 11
173.360849372504
 21
260.0234319517693
 31
0.0
  0
LINE
  5
63F6
330
63F2
100
AcDbEntity
  8
DIM
 62
     0
 48
0.05
370
    -2
100
AcDbLine
 10
185.0048248275064
 20
185.0234319517693
 30
0.0
 11
173.360849372504
 21
185.0234319517693
 31
0.0
  0
LINE
  5
63F7
330
63F2
100
AcDbEntity
  8
DIM
 62
     0
 48
0.05
370
    -2
100
AcDbLine
 10
173.360849372504
 20
259.0234319517693
 30
0.0
 11
173.360849372504
 21
186.0234319517693
 31
0.0
  0
INSERT
  5
63F8
330
63F2
100
AcDbEntity
  8
DIM
 62
     0
370
    -2
100
AcDbBlockReference
  2
_DOT
 10
173.360849372504
 20
260.0234319517693
 30
0.0
 50
90.0
  0
INSERT
  5
63F9
330
63F2
100
AcDbEntity
  8
DIM
 62
     0
370
    -2
100
AcDbBlockReference
  2
_DOT
 10
173.360849372504
 20
185.0234319517693
 30
0.0
 50
270.0
  0
MTEXT
  5
63FA
330
63F2
100
AcDbEntity
  8
DIM
 62
     0
 48
0.05
100
AcDbMText
 10
165.860849372504
 20
222.5234319517693
 30
0.0
 40
5.0
 41
0.0
 46
0.0
 71
     5
 72
     1
  1
\A1;75
  7
ＭＳ ゴシック
 11
0.0
 21
1.0
 31
0.0
 73
     1
 44
1.0
  0
POINT
  5
63FB
330
63F2
100
AcDbEntity
  8
Defpoints
 62
     0
100
AcDbPoint
 10
190.0048248275064
 20
260.0234319517693
 30
0.0
  0
POINT
  5
63FC
330
63F2
100
AcDbEntity
  8
Defpoints
 62
     0
100
AcDbPoint
 10
190.0048248275064
 20
185.0234319517693
 30
0.0
  0
POINT
  5
63FD
330
63F2
100
AcDbEntity
  8
Defpoints
 62
     0
100
AcDbPoint
 10
173.360849372504
 20
185.0234319517693
 30
0.0
  0
ENDBLK
  5
63F4
330
63F2
100
AcDbEntity
  8
0
100
AcDbBlockEnd
  0
BLOCK
  5
6448
330
6447
100
AcDbEntity
  8
0
100
AcDbBlockBegin
  2
*D36
 70
     1
 10
0.0
 20
0.0
 30
0.0
  3
*D36
  1
*D36
  0
LINE
  5
6449
330
6447
100
AcDbEntity
  8
DIM
 62
     0
 48
0.05
370
    -2
100
AcDbLine
 10
6.299970088779986
 20
102.1803192119461
 30
0.0
 11
6.299970088779986
 21
111.6305639611677
 31
0.0
  0
LINE
  5
644A
330
6447
100
AcDbEntity
  8
DIM
 62
     0
 48
0.05
370
    -2
100
AcDbLine
 10
32.7000299112199
 20
102.1803192119461
 30
0.0
 11
32.7000299112199
 21
111.6305639611677
 31
0.0
  0
LINE
  5
644B
330
6447
100
AcDbEntity
  8
DIM
 62
     0
 48
0.05
370
    -2
100
AcDbLine
 10
7.299970088779986
 20
111.6305639611677
 30
0.0
 11
31.7000299112199
 21
111.6305639611677
 31
0.0
  0
INSERT
  5
644C
330
6447
100
AcDbEntity
  8
DIM
 62
     0
370
    -2
100
AcDbBlockReference
  2
_DOT
 10
6.299970088779986
 20
111.6305639611677
 30
0.0
 50
180.0
  0
INSERT
  5
644D
330
6447
100
AcDbEntity
  8
DIM
 62
     0
370
    -2
100
AcDbBlockReference
  2
_DOT
 10
32.7000299112199
 20
111.6305639611677
 30
0.0
  0
MTEXT
  5
644E
330
6447
100
AcDbEntity
  8
DIM
 62
     0
 48
0.05
100
AcDbMText
 10
19.49991969884729
 20
119.6630639611677
 30
0.0
 40
5.0
 41
0.0
 46
0.0
 71
     5
 72
     1
  1
\A1;G3/4"
  7
ＭＳ ゴシック
 73
     1
 44
1.0
  0
POINT
  5
644F
330
6447
100
AcDbEntity
  8
Defpoints
 62
     0
100
AcDbPoint
 10
6.299970088779986
 20
97.18031921194611
 30
0.0
  0
POINT
  5
6450
330
6447
100
AcDbEntity
  8
Defpoints
 62
     0
100
AcDbPoint
 10
32.7000299112199
 20
97.18031921194611
 30
0.0
  0
POINT
  5
6451
330
6447
100
AcDbEntity
  8
Defpoints
 62
     0
100
AcDbPoint
 10
32.7000299112199
 20
111.6305639611677
 30
0.0
  0
ENDBLK
  5
6452
330
6447
100
AcDbEntity
  8
0
100
AcDbBlockEnd
  0
BLOCK
  5
6457
330
6456
100
AcDbEntity
  8
0
100
AcDbBlockBegin
  2
*D37
 70
     1
 10
0.0
 20
0.0
 30
0.0
  3
*D37
  1
*D37
  0
LINE
  5
6458
330
6456
100
AcDbEntity
  8
DIM
 62
     0
 48
0.05
370
    -2
100
AcDbLine
 10
6.299970088779987
 20
17.31388291452194
 30
0.0
 11
6.29997008877999
 21
0.5
 31
0.0
  0
LINE
  5
6459
330
6456
100
AcDbEntity
  8
DIM
 62
     0
 48
0.05
370
    -2
100
AcDbLine
 10
32.7000299112199
 20
17.31388291452194
 30
0.0
 11
32.7000299112199
 21
0.5
 31
0.0
  0
LINE
  5
645A
330
6456
100
AcDbEntity
  8
DIM
 62
     0
 48
0.05
370
    -2
100
AcDbLine
 10
7.29997008877999
 20
0.5
 30
0.0
 11
31.7000299112199
 21
0.5
 31
0.0
  0
INSERT
  5
645B
330
6456
100
AcDbEntity
  8
DIM
 62
     0
370
    -2
100
AcDbBlockReference
  2
_DOT
 10
6.29997008877999
 20
0.5
 30
0.0
 50
180.0
  0
INSERT
  5
645C
330
6456
100
AcDbEntity
  8
DIM
 62
     0
370
    -2
100
AcDbBlockReference
  2
_DOT
 10
32.7000299112199
 20
0.5
 30
0.0
  0
MTEXT
  5
645D
330
6456
100
AcDbEntity
  8
DIM
 62
     0
 48
0.05
100
AcDbMText
 10
19.49991969884729
 20
8.5325
 30
0.0
 40
5.0
 41
0.0
 46
0.0
 71
     5
 72
     1
  1
\A1;G3/4"
  7
ＭＳ ゴシック
 73
     1
 44
1.0
  0
POINT
  5
645E
330
6456
100
AcDbEntity
  8
Defpoints
 62
     0
100
AcDbPoint
 10
6.299970088779986
 20
22.31388291452194
 30
0.0
  0
POINT
  5
645F
330
6456
100
AcDbEntity
  8
Defpoints
 62
     0
100
AcDbPoint
 10
32.7000299112199
 20
22.31388291452194
 30
0.0
  0
POINT
  5
6460
330
6456
100
AcDbEntity
  8
Defpoints
 62
     0
100
AcDbPoint
 10
32.7000299112199
 20
0.5
 30
0.0
  0
ENDBLK
  5
6461
330
6456
100
AcDbEntity
  8
0
100
AcDbBlockEnd
  0
BLOCK
  5
6470
330
646F
100
AcDbEntity
  8
0
100
AcDbBlockBegin
  2
*D38
 70
     1
 10
0.0
 20
0.0
 30
0.0
  3
*D38
  1
*D38
  0
LINE
  5
6472
330
646F
100
AcDbEntity
  8
DIM
 62
     0
 48
0.05
370
    -2
100
AcDbLine
 10
194.2434173398943
 20
425.7382092565226
 30
0.0
 11
194.2434173398943
 21
435.1884540057442
 31
0.0
  0
LINE
  5
6473
330
646F
100
AcDbEntity
  8
DIM
 62
     0
 48
0.05
370
    -2
100
AcDbLine
 10
220.6434771623342
 20
425.7382092565226
 30
0.0
 11
220.6434771623342
 21
435.1884540057442
 31
0.0
  0
LINE
  5
6474
330
646F
100
AcDbEntity
  8
DIM
 62
     0
 48
0.05
370
    -2
100
AcDbLine
 10
195.2434173398943
 20
435.1884540057442
 30
0.0
 11
219.6434771623342
 21
435.1884540057442
 31
0.0
  0
INSERT
  5
6475
330
646F
100
AcDbEntity
  8
DIM
 62
     0
370
    -2
100
AcDbBlockReference
  2
_DOT
 10
194.2434173398943
 20
435.1884540057442
 30
0.0
 50
180.0
  0
INSERT
  5
6476
330
646F
100
AcDbEntity
  8
DIM
 62
     0
370
    -2
100
AcDbBlockReference
  2
_DOT
 10
220.6434771623342
 20
435.1884540057442
 30
0.0
  0
MTEXT
  5
6477
330
646F
100
AcDbEntity
  8
DIM
 62
     0
 48
0.05
100
AcDbMText
 10
207.4433669499616
 20
443.2209540057443
 30
0.0
 40
5.0
 41
0.0
 46
0.0
 71
     5
 72
     1
  1
\A1;G3/4"
  7
ＭＳ ゴシック
 73
     1
 44
1.0
  0
POINT
  5
6478
330
646F
100
AcDbEntity
  8
Defpoints
 62
     0
100
AcDbPoint
 10
194.2434173398943
 20
420.7382092565226
 30
0.0
  0
POINT
  5
6479
330
646F
100
AcDbEntity
  8
Defpoints
 62
     0
100
AcDbPoint
 10
220.6434771623342
 20
420.7382092565226
 30
0.0
  0
POINT
  5
647A
330
646F
100
AcDbEntity
  8
Defpoints
 62
     0
100
AcDbPoint
 10
220.6434771623342
 20
435.1884540057442
 30
0.0
  0
ENDBLK
  5
6471
330
646F
100
AcDbEntity
  8
0
100
AcDbBlockEnd
  0
BLOCK
  5
647C
330
647B
100
AcDbEntity
  8
0
100
AcDbBlockBegin
  2
*D39
 70
     1
 10
0.0
 20
0.0
 30
0.0
  3
*D39
  1
*D39
  0
LINE
  5
647E
330
647B
100
AcDbEntity
  8
DIM
 62
     0
 48
0.05
370
    -2
100
AcDbLine
 10
194.2434173398943
 20
340.8717729590985
 30
0.0
 11
194.2434173398943
 21
324.0578900445765
 31
0.0
  0
LINE
  5
647F
330
647B
100
AcDbEntity
  8
DIM
 62
     0
 48
0.05
370
    -2
100
AcDbLine
 10
220.6434771623342
 20
340.8717729590985
 30
0.0
 11
220.6434771623342
 21
324.0578900445765
 31
0.0
  0
LINE
  5
6480
330
647B
100
AcDbEntity
  8
DIM
 62
     0
 48
0.05
370
    -2
100
AcDbLine
 10
195.2434173398943
 20
324.0578900445765
 30
0.0
 11
219.6434771623342
 21
324.0578900445765
 31
0.0
  0
INSERT
  5
6481
330
647B
100
AcDbEntity
  8
DIM
 62
     0
370
    -2
100
AcDbBlockReference
  2
_DOT
 10
194.2434173398943
 20
324.0578900445765
 30
0.0
 50
180.0
  0
INSERT
  5
6482
330
647B
100
AcDbEntity
  8
DIM
 62
     0
370
    -2
100
AcDbBlockReference
  2
_DOT
 10
220.6434771623342
 20
324.0578900445765
 30
0.0
  0
MTEXT
  5
6483
330
647B
100
AcDbEntity
  8
DIM
 62
     0
 48
0.05
100
AcDbMText
 10
207.4433669499616
 20
332.0903900445766
 30
0.0
 40
5.0
 41
0.0
 46
0.0
 71
     5
 72
     1
  1
\A1;G3/4"
  7
ＭＳ ゴシック
 73
     1
 44
1.0
  0
POINT
  5
6484
330
647B
100
AcDbEntity
  8
Defpoints
 62
     0
100
AcDbPoint
 10
194.2434173398943
 20
345.8717729590985
 30
0.0
  0
POINT
  5
6485
330
647B
100
AcDbEntity
  8
Defpoints
 62
     0
100
AcDbPoint
 10
220.6434771623342
 20
345.8717729590985
 30
0.0
  0
POINT
  5
6486
330
647B
100
AcDbEntity
  8
Defpoints
 62
     0
100
AcDbPoint
 10
220.6434771623342
 20
324.0578900445765
 30
0.0
  0
ENDBLK
  5
647D
330
647B
100
AcDbEntity
  8
0
100
AcDbBlockEnd
  0
BLOCK
  5
6494
330
6493
100
AcDbEntity
  8
0
100
AcDbBlockBegin
  2
*D40
 70
     1
 10
0.0
 20
0.0
 30
0.0
  3
*D40
  1
*D40
  0
LINE
  5
6496
330
6493
100
AcDbEntity
  8
DIM
 62
     0
 48
0.05
370
    -2
100
AcDbLine
 10
192.8047949162864
 20
264.9566501004814
 30
0.0
 11
192.8047949162864
 21
274.406894849703
 31
0.0
  0
LINE
  5
6497
330
6493
100
AcDbEntity
  8
DIM
 62
     0
 48
0.05
370
    -2
100
AcDbLine
 10
219.2048547387263
 20
264.9566501004814
 30
0.0
 11
219.2048547387263
 21
274.406894849703
 31
0.0
  0
LINE
  5
6498
330
6493
100
AcDbEntity
  8
DIM
 62
     0
 48
0.05
370
    -2
100
AcDbLine
 10
193.8047949162864
 20
274.406894849703
 30
0.0
 11
218.2048547387263
 21
274.406894849703
 31
0.0
  0
INSERT
  5
6499
330
6493
100
AcDbEntity
  8
DIM
 62
     0
370
    -2
100
AcDbBlockReference
  2
_DOT
 10
192.8047949162864
 20
274.406894849703
 30
0.0
 50
180.0
  0
INSERT
  5
649A
330
6493
100
AcDbEntity
  8
DIM
 62
     0
370
    -2
100
AcDbBlockReference
  2
_DOT
 10
219.2048547387263
 20
274.406894849703
 30
0.0
  0
MTEXT
  5
649B
330
6493
100
AcDbEntity
  8
DIM
 62
     0
 48
0.05
100
AcDbMText
 10
206.0047445263537
 20
282.439394849703
 30
0.0
 40
5.0
 41
0.0
 46
0.0
 71
     5
 72
     1
  1
\A1;G3/4"
  7
ＭＳ ゴシック
 73
     1
 44
1.0
  0
POINT
  5
649C
330
6493
100
AcDbEntity
  8
Defpoints
 62
     0
100
AcDbPoint
 10
192.8047949162864
 20
259.9566501004814
 30
0.0
  0
POINT
  5
649D
330
6493
100
AcDbEntity
  8
Defpoints
 62
     0
100
AcDbPoint
 10
219.2048547387263
 20
259.9566501004814
 30
0.0
  0
POINT
  5
649E
330
6493
100
AcDbEntity
  8
Defpoints
 62
     0
100
AcDbPoint
 10
219.2048547387263
 20
274.406894849703
 30
0.0
  0
ENDBLK
  5
6495
330
6493
100
AcDbEntity
  8
0
100
AcDbBlockEnd
  0
BLOCK
  5
64A0
330
649F
100
AcDbEntity
  8
0
100
AcDbBlockBegin
  2
*D41
 70
     1
 10
0.0
 20
0.0
 30
0.0
  3
*D41
  1
*D41
  0
LINE
  5
64A2
330
649F
100
AcDbEntity
  8
DIM
 62
     0
 48
0.05
370
    -2
100
AcDbLine
 10
192.8047949162864
 20
180.0902138030573
 30
0.0
 11
192.8047949162864
 21
163.2763308885353
 31
0.0
  0
LINE
  5
64A3
330
649F
100
AcDbEntity
  8
DIM
 62
     0
 48
0.05
370
    -2
100
AcDbLine
 10
219.2048547387263
 20
180.0902138030573
 30
0.0
 11
219.2048547387263
 21
163.2763308885353
 31
0.0
  0
LINE
  5
64A4
330
649F
100
AcDbEntity
  8
DIM
 62
     0
 48
0.05
370
    -2
100
AcDbLine
 10
193.8047949162864
 20
163.2763308885353
 30
0.0
 11
218.2048547387263
 21
163.2763308885353
 31
0.0
  0
INSERT
  5
64A5
330
649F
100
AcDbEntity
  8
DIM
 62
     0
370
    -2
100
AcDbBlockReference
  2
_DOT
 10
192.8047949162864
 20
163.2763308885353
 30
0.0
 50
180.0
  0
INSERT
  5
64A6
330
649F
100
AcDbEntity
  8
DIM
 62
     0
370
    -2
100
AcDbBlockReference
  2
_DOT
 10
219.2048547387263
 20
163.2763308885353
 30
0.0
  0
MTEXT
  5
64A7
330
649F
100
AcDbEntity
  8
DIM
 62
     0
 48
0.05
100
AcDbMText
 10
206.0047445263537
 20
171.3088308885353
 30
0.0
 40
5.0
 41
0.0
 46
0.0
 71
     5
 72
     1
  1
\A1;G3/4"
  7
ＭＳ ゴシック
 73
     1
 44
1.0
  0
POINT
  5
64A8
330
649F
100
AcDbEntity
  8
Defpoints
 62
     0
100
AcDbPoint
 10
192.8047949162864
 20
185.0902138030573
 30
0.0
  0
POINT
  5
64A9
330
649F
100
AcDbEntity
  8
Defpoints
 62
     0
100
AcDbPoint
 10
219.2048547387263
 20
185.0902138030573
 30
0.0
  0
POINT
  5
64AA
330
649F
100
AcDbEntity
  8
Defpoints
 62
     0
100
AcDbPoint
 10
219.2048547387263
 20
163.2763308885353
 30
0.0
  0
ENDBLK
  5
64A1
330
649F
100
AcDbEntity
  8
0
100
AcDbBlockEnd
  0
BLOCK
  5
64BE
330
64BD
100
AcDbEntity
  8
0
100
AcDbBlockBegin
  2
*D42
 70
     1
 10
0.0
 20
0.0
 30
0.0
  3
*D42
  1
*D42
  0
LINE
  5
64C0
330
64BD
100
AcDbEntity
  8
DIM
 62
     0
 48
0.05
370
    -2
100
AcDbLine
 10
280.0048248275064
 20
143.1379816285461
 30
0.0
 11
280.0048248275064
 21
131.8183843050165
 31
0.0
  0
LINE
  5
64C1
330
64BD
100
AcDbEntity
  8
DIM
 62
     0
 48
0.05
370
    -2
100
AcDbLine
 10
206.0048248275064
 20
158.2763308885353
 30
0.0
 11
206.0048248275064
 21
131.8183843050165
 31
0.0
  0
LINE
  5
64C2
330
64BD
100
AcDbEntity
  8
DIM
 62
     0
 48
0.05
370
    -2
100
AcDbLine
 10
279.0048248275064
 20
131.8183843050165
 30
0.0
 11
207.0048248275064
 21
131.8183843050165
 31
0.0
  0
INSERT
  5
64C3
330
64BD
100
AcDbEntity
  8
DIM
 62
     0
370
    -2
100
AcDbBlockReference
  2
_DOT
 10
280.0048248275064
 20
131.8183843050165
 30
0.0
  0
INSERT
  5
64C4
330
64BD
100
AcDbEntity
  8
DIM
 62
     0
370
    -2
100
AcDbBlockReference
  2
_DOT
 10
206.0048248275064
 20
131.8183843050165
 30
0.0
 50
180.0
  0
MTEXT
  5
64C5
330
64BD
100
AcDbEntity
  8
DIM
 62
     0
 48
0.05
100
AcDbMText
 10
243.0048248275064
 20
139.3183843050165
 30
0.0
 40
5.0
 41
0.0
 46
0.0
 71
     5
 72
     1
  1
\A1;38-73
  7
ＭＳ ゴシック
 73
     1
 44
1.0
  0
POINT
  5
64C6
330
64BD
100
AcDbEntity
  8
Defpoints
 62
     0
100
AcDbPoint
 10
280.0048248275064
 20
148.1379816285461
 30
0.0
  0
POINT
  5
64C7
330
64BD
100
AcDbEntity
  8
Defpoints
 62
     0
100
AcDbPoint
 10
206.0048248275064
 20
163.2763308885353
 30
0.0
  0
POINT
  5
64C8
330
64BD
100
AcDbEntity
  8
Defpoints
 62
     0
100
AcDbPoint
 10
206.0048248275064
 20
131.8183843050165
 30
0.0
  0
ENDBLK
  5
64BF
330
64BD
100
AcDbEntity
  8
0
100
AcDbBlockEnd
  0
ENDSEC
  0
SECTION
  2
ENTITIES
  0
MTEXT
  5
177
330
A
100
AcDbEntity
  8
TEMPLATE
390
1D
100
AcDbMText
 10
15.84042890954615
 20
68.74635032628565
 30
0.0
 40
3.257682291666665
 41
0.0
 46
0.0
 71
     1
 72
     1
  1
品名
  7
ＭＳ ゴシック
 73
     1
 44
0.7828267384257843
  0
MTEXT
  5
178
330
A
100
AcDbEntity
  8
TEMPLATE
390
1D
100
AcDbMText
 10
15.84042890954615
 20
51.7463503262856
 30
0.0
 40
3.257682291666665
 41
0.0
 46
0.0
 71
     1
 72
     1
  1
仕様
  7
ＭＳ ゴシック
 73
     1
 44
0.7828267384257843
  0
LINE
  5
179
330
A
100
AcDbEntity
  8
TEMPLATE
390
1D
100
AcDbLine
 10
404.4404289094496
 20
53.42933470128568
 30
0.0
 11
14.44042890944975
 21
53.42933470128568
 31
0.0
  0
LWPOLYLINE
  5
17A
330
A
100
AcDbEntity
  8
TEMPLATE
390
1D
100
AcDbPolyline
 90
        5
 70
   128
 43
0.0
 10
404.4404289094496
 20
579.4293347012853
 10
14.44042890944975
 20
579.4293347012853
 10
14.44042890944975
 20
19.42933470128565
 10
404.4404289094496
 20
19.42933470128565
 10
404.4404289094496
 20
579.4293347012853
  0
LINE
  5
17B
330
A
100
AcDbEntity
  8
TEMPLATE
390
1D
100
AcDbLine
 10
404.4404289094496
 20
70.42933470128564
 30
0.0
 11
14.44042890944975
 21
70.42933470128564
 31
0.0
  0
LINE
  5
17C
330
A
100
AcDbEntity
  8
TEMPLATE
390
1D
100
AcDbLine
 10
404.4404289095464
 20
36.42933470128565
 30
0.0
 11
253.840428909546
 21
36.42933470128565
 31
0.0
  0
MTEXT
  5
17E
330
A
100
AcDbEntity
  8
TEMPLATE
390
1D
100
AcDbMText
 10
259.8147101599982
 20
30.44725580662403
 30
0.0
 40
4.8865234375
 41
0.0
 46
0.0
 71
     1
 72
     1
  1
大洋金物株式会社 ティーフォルム事業部
  7
ＭＳ ゴシック
 73
     1
 44
0.7828267384257843
  0
MTEXT
  5
180
330
A
100
AcDbEntity
  8
TEMPLATE
390
1D
100
AcDbMText
 10
366.240428909598
 20
46.02985813878564
 30
0.0
 40
4.8865234375
 41
0.0
 46
4.8865234375
 71
     1
 72
     1
  1
{1:2}
  7
ＭＳ ゴシック
 73
     1
 44
0.7828267384257843
1001
ACAD
1000
ACAD_MTEXT_DEFINED_HEIGHT_BEGIN
1070
    46
1040
4.8865234375
1000
ACAD_MTEXT_DEFINED_HEIGHT_END
  0
MTEXT
  5
181
330
A
100
AcDbEntity
  8
TEMPLATE
390
1D
100
AcDbMText
 10
355.640428909598
 20
51.7463503262856
 30
0.0
 40
3.257682291666665
 41
0.0
 46
0.0
 71
     1
 72
     1
  1
縮尺
  7
ＭＳ ゴシック
 73
     1
 44
0.7828267384257843
  0
LINE
  5
182
330
A
100
AcDbEntity
  8
TEMPLATE
390
1D
100
AcDbLine
 10
354.240428909598
 20
36.42933470128565
 30
0.0
 11
354.240428909598
 21
53.42933470128568
 31
0.0
  0
MTEXT
  5
183
330
A
100
AcDbEntity
  8
TEMPLATE
390
1D
100
AcDbMText
 10
305.440428909598
 20
51.7463503262856
 30
0.0
 40
3.257682291666665
 41
0.0
 46
0.0
 71
     1
 72
     1
  1
容量
  7
ＭＳ ゴシック
 73
     1
 44
0.7828267384257843
  0
LINE
  5
184
330
A
100
AcDbEntity
  8
TEMPLATE
390
1D
100
AcDbLine
 10
304.040428909598
 20
36.42933470128565
 30
0.0
 11
304.040428909598
 21
53.42933470128568
 31
0.0
  0
MTEXT
  5
185
330
A
100
AcDbEntity
  8
TEMPLATE
390
1D
100
AcDbMText
 10
255.240428909598
 20
68.74635032628565
 30
0.0
 40
3.257682291666665
 41
0.0
 46
0.0
 71
     1
 72
     1
  1
品番
  7
ＭＳ ゴシック
 73
     1
 44
0.7828267384257843
  0
MTEXT
  5
186
330
A
100
AcDbEntity
  8
TEMPLATE
390
1D
100
AcDbMText
 10
255.240428909598
 20
51.7463503262856
 30
0.0
 40
3.257682291666665
 41
0.0
 46
0.0
 71
     1
 72
     1
  1
重量
  7
ＭＳ ゴシック
 73
     1
 44
0.7828267384257843
  0
MTEXT
  5
187
330
A
100
AcDbEntity
  8
TEMPLATE
390
1D
100
AcDbMText
 10
265.840428909598
 20
63.02985813878564
 30
0.0
 40
4.8865234375
 41
0.0
 46
4.8865234375
 71
     1
 72
     1
  1
{FHT73-1308}
  7
ＭＳ ゴシック
 73
     1
 44
0.7828267384257843
1001
ACAD
1000
ACAD_MTEXT_DEFINED_HEIGHT_BEGIN
1070
    46
1040
4.8865234375
1000
ACAD_MTEXT_DEFINED_HEIGHT_END
  0
LINE
  5
188
330
A
100
AcDbEntity
  8
TEMPLATE
390
1D
100
AcDbLine
 10
253.840428909598
 20
19.42933470128565
 30
0.0
 11
253.840428909598
 21
70.42933470128564
 31
0.0
  0
MTEXT
  5
189
330
A
100
AcDbEntity
  8
TEMPLATE
390
1D
100
AcDbMText
 10
26.44042890954615
 20
63.02985813878564
 30
0.0
 40
4.8865234375
 41
0.0
 46
5.5071119140625
 71
     1
 72
     1
  1
{埋込ストップバルブ　-GROHE, Atrio-}
  7
ＭＳ ゴシック
 73
     1
 44
0.7828267384257843
1001
ACAD
1000
ACAD_MTEXT_DEFINED_HEIGHT_BEGIN
1070
    46
1040
5.5071119140625
1000
ACAD_MTEXT_DEFINED_HEIGHT_END
  0
INSERT
  5
6B5
330
A
100
AcDbEntity
  8
TEMPLATE
100
AcDbBlockReference
  2
名称未設定-1
 10
374.15014961769
 20
5.189353151330764
 30
0.0
 41
0.1524
 42
0.1524
 43
0.1524
  0
INSERT
  5
68C
330
A
100
AcDbEntity
  8
TEMPLATE
100
AcDbBlockReference
  2
block 2
 10
919.2743017702577
 20
8.373076514336368
 30
0.0
 41
0.3809999999999999
 42
0.3809999999999999
 43
0.3809999999999999
  0
LWPOLYLINE
  5
D69
330
A
100
AcDbEntity
  8
BORDER
 48
0.025
100
AcDbPolyline
 90
        4
 70
     1
 43
0.0
 10
0.0
 20
0.0
 10
0.0
 20
594.0
 10
420.0
 20
594.0
 10
420.0
 20
0.0
  0
INSERT
  5
1343
330
A
100
AcDbEntity
  8
TEMPLATE
100
AcDbBlockReference
  2
block 2
 10
2096.743470866468
 20
24.43532141229569
 30
0.0
 41
0.3809999999999999
 42
0.3809999999999999
 43
0.3809999999999999
  0
POINT
  5
3697
330
A
100
AcDbEntity
  8
Layer50
  6
HIDDEN2
 62
     7
100
AcDbPoint
 10
396.8678405503807
 20
449.3605456225488
 30
0.0
  0
POINT
  5
36AA
330
A
100
AcDbEntity
  8
Layer50
  6
HIDDEN2
 62
     7
100
AcDbPoint
 10
396.8678405503807
 20
469.8605456225488
 30
0.0
  0
POINT
  5
36B6
330
A
100
AcDbEntity
  8
Layer50
  6
HIDDEN2
 62
     7
100
AcDbPoint
 10
405.6628405503807
 20
460.6105456225488
 30
0.0
  0
POINT
  5
36BC
330
A
100
AcDbEntity
  8
Layer50
  6
HIDDEN2
 62
     7
100
AcDbPoint
 10
403.6628405503807
 20
460.6105456225488
 30
0.0
  0
HATCH
  5
374D
330
A
100
AcDbEntity
  8
MODEL
100
AcDbHatch
 10
0.0
 20
0.0
 30
0.0
210
0.0
220
0.0
230
1.0
  2
LINE
 70
     0
 71
     0
 91
        1
 92
        1
 93
        4
 72
     1
 10
268.0048248274481
 20
296.1379816285327
 11
268.0048248274481
 21
240.1379816285327
 72
     1
 10
268.0048248274481
 20
240.1379816285326
 11
276.0048248274481
 21
240.1379816285326
 72
     1
 10
276.0048248274481
 20
240.1379816285326
 11
276.0048248274481
 21
296.1379816285327
 72
     1
 10
276.0048248274481
 20
296.1379816285327
 11
268.0048248274481
 21
296.1379816285327
 97
        0
 75
     0
 76
     1
 52
45.0
 41
2.0
 77
     0
 78
     1
 53
45.0
 43
110.067930782706
 44
-82.94850673885375
 45
-4.490128060534576
 46
4.490128060534576
 79
     0
 98
        0
  0
HATCH
  5
374E
330
A
100
AcDbEntity
  8
MODEL
100
AcDbHatch
 10
0.0
 20
0.0
 30
0.0
210
0.0
220
0.0
230
1.0
  2
LINE
 70
     0
 71
     0
 91
        1
 92
        1
 93
       10
 72
     1
 10
280.0048248274481
 20
256.853191338927
 11
280.0048248274481
 21
296.1379816285326
 72
     1
 10
280.0048248274481
 20
296.1379816285327
 11
276.0048248274481
 21
296.1379816285327
 72
     1
 10
276.0048248274481
 20
296.1379816285327
 11
276.0048248274481
 21
240.1379816285327
 72
     1
 10
276.0048248274481
 20
240.1379816285326
 11
280.0048248274481
 21
240.1379816285326
 72
     4
 94
        3
 73
     0
 74
     0
 95
       21
 96
       17
 40
0.0
 40
0.0
 40
0.0
 40
0.0
 40
0.0518364784306705
 40
0.150593254752574
 40
0.2217176675263679
 40
0.2749211551898911
 40
0.3067298695273143
 40
0.3368246892862713
 40
0.3677027494859613
 40
0.3831223799364778
 40
0.3908272121093039
 40
0.3946783658861105
 40
0.3966036251348891
 40
0.3975661750919777
 40
0.3980474301215471
 40
0.3985286718391066
 40
0.3985286718391066
 40
0.3985286718391066
 40
0.3985286718391066
 10
280.0046265053053
 20
240.1380022294547
 10
280.0046227640452
 20
240.6485176817011
 10
280.0046132221361
 20
242.1291489586796
 10
280.0046055539134
 20
244.297472788625
 10
280.0046065668022
 20
246.4637345092432
 10
280.0046122874202
 20
247.9712574140807
 10
280.00461923143
 20
249.0779701670955
 10
280.0046264986187
 20
249.9671991263121
 10
280.0046338899994
 20
250.6969759202081
 10
280.0046399002005
 20
251.2115370809637
 10
280.0046431020334
 20
251.4682379500944
 10
280.004644752493
 20
251.5964414384098
 10
280.0046455901294
 20
251.6605062434841
 10
280.0046460120849
 20
251.6925293292216
 10
280.0046462540487
 20
251.7108255257345
 10
280.004646375408
 20
251.7199727325657
 10
280.0046464352264
 20
251.7245462727251
 72
     1
 10
280.0046464352264
 20
251.7245462727251
 11
280.0046503670482
 21
251.879042604291
 72
     1
 10
280.0046503670484
 20
251.8790426042911
 11
280.004656813907
 21
251.9752820162978
 72
     1
 10
280.004656813907
 20
251.9752820162978
 11
280.0048248274482
 21
253.7039518162983
 72
     1
 10
280.0048248274481
 20
253.703951816298
 11
280.0048248274481
 21
256.8258785819072
 72
     2
 10
280.3045313754789
 20
256.8395349604172
 40
0.3000175188342922
 50
177.3534190589228
 51
182.6089253287276
 73
     0
 97
        0
 75
     0
 76
     1
 52
315.0
 41
2.0
 77
     0
 78
     1
 53
315.0
 43
110.067930782706
 44
-82.94850673885375
 45
4.490128060534576
 46
4.490128060534576
 79
     0
 98
        0
  0
LINE
  5
374F
330
A
100
AcDbEntity
  8
MODEL
100
AcDbLine
 10
276.0048248275064
 20
296.1379816285462
 30
0.0
 11
276.0048248275064
 21
240.1379816285462
 31
0.0
  0
LINE
  5
3750
330
A
100
AcDbEntity
  8
MODEL
100
AcDbLine
 10
280.0048248275064
 20
240.1908455642153
 30
0.0
 11
268.0048248275064
 21
240.1908455642153
 31
0.0
  0
HATCH
  5
3754
330
A
100
AcDbEntity
  8
MODEL
100
AcDbHatch
 10
0.0
 20
0.0
 30
0.0
210
0.0
220
0.0
230
1.0
  2
LINE
 70
     0
 71
     0
 91
        1
 92
        1
 93
        4
 72
     1
 10
280.0048248274481
 20
148.1379816285326
 11
280.0048248274481
 21
204.1379816285326
 72
     1
 10
280.0048248274481
 20
204.1379816285326
 11
276.0048248274481
 21
204.1379816285326
 72
     1
 10
276.0048248274481
 20
204.1379816285326
 11
276.0048248274481
 21
148.1379816285326
 72
     1
 10
276.0048248274481
 20
148.1379816285326
 11
280.0048248274481
 21
148.1379816285326
 97
        0
 75
     0
 76
     1
 52
315.0
 41
2.0
 77
     0
 78
     1
 53
315.0
 43
110.067930782706
 44
-82.94850673885375
 45
4.490128060534576
 46
4.490128060534576
 79
     0
 98
        0
  0
LINE
  5
3755
102
{ACAD_REACTORS
330
64BC
102
}
330
A
100
AcDbEntity
  8
MODEL
100
AcDbLine
 10
280.0048248275064
 20
148.1379816285461
 30
0.0
 11
280.0048248275064
 21
296.1379816285462
 31
0.0
  0
HATCH
  5
3756
330
A
100
AcDbEntity
  8
MODEL
100
AcDbHatch
 10
0.0
 20
0.0
 30
0.0
210
0.0
220
0.0
230
1.0
  2
LINE
 70
     0
 71
     0
 91
        1
 92
        1
 93
        4
 72
     1
 10
268.0048248274481
 20
204.1379816285326
 11
268.0048248274481
 21
148.1379816285326
 72
     1
 10
268.0048248274481
 20
148.1379816285326
 11
276.0048248274481
 21
148.1379816285326
 72
     1
 10
276.0048248274481
 20
148.1379816285326
 11
276.0048248274481
 21
204.1379816285326
 72
     1
 10
276.0048248274481
 20
204.1379816285326
 11
268.0048248274481
 21
204.1379816285326
 97
        0
 75
     0
 76
     1
 52
45.0
 41
2.0
 77
     0
 78
     1
 53
45.0
 43
110.067930782706
 44
-82.94850673885375
 45
-4.490128060534576
 46
4.490128060534576
 79
     0
 98
        0
  0
LINE
  5
3757
330
A
100
AcDbEntity
  8
MODEL
100
AcDbLine
 10
276.0048248275064
 20
148.1379816285461
 30
0.0
 11
276.0048248275064
 21
204.1379816285463
 31
0.0
  0
LINE
  5
3758
330
A
100
AcDbEntity
  8
MODEL
100
AcDbLine
 10
280.0048248275064
 20
204.3982927101698
 30
0.0
 11
268.0048248275064
 21
204.3982927101698
 31
0.0
  0
MTEXT
  5
4530
102
{ACAD_XDICTIONARY
360
4532
102
}
330
A
100
AcDbEntity
  8
MODEL
 48
0.05
100
AcDbMText
 10
14.6329326238789
 20
17.30781899803597
 30
0.0
 40
4.0
 41
0.0
 46
4.0
 71
     1
 72
     1
  1
{20160725N}
  7
ＭＳ ゴシック
 73
     1
 44
1.0
1001
ACAD
1000
ACAD_MTEXT_DEFINED_HEIGHT_BEGIN
1070
    46
1040
4.0
1000
ACAD_MTEXT_DEFINED_HEIGHT_END
  0
LINE
  5
49F7
330
A
100
AcDbEntity
  8
MODEL
 48
25.4
100
AcDbLine
 10
280.0048248275064
 20
262.2994196067168
 30
0.0
 11
280.0048248275064
 21
185.2994196067168
 31
0.0
  0
MTEXT
  5
5062
330
A
100
AcDbEntity
  8
TEMPLATE
390
1D
100
AcDbMText
 10
26.44042890954615
 20
46.10276168560644
 30
0.0
 40
4.8865234375
 41
0.0
 46
4.9598212890625
 71
     1
 72
     1
  1
{クローム}
  7
ＭＳ ゴシック
 73
     1
 44
0.7828267384257843
1001
ACAD
1000
ACAD_MTEXT_DEFINED_HEIGHT_BEGIN
1070
    46
1040
4.9598212890625
1000
ACAD_MTEXT_DEFINED_HEIGHT_END
  0
DIMENSION
  5
5AB2
330
A
100
AcDbEntity
  8
DIM
 48
0.05
100
AcDbDimension
  2
*D21
 10
280.0048248275065
 20
131.8183843050166
 30
0.0
 11
327.3213453670884
 21
131.8183843050166
 31
0.0
 70
   160
 71
     5
 42
98.21254968779998
 73
     0
 74
     0
 75
     0
  3
tfrom線あり
100
AcDbAlignedDimension
 13
378.2173745153065
 23
212.2370899073173
 33
0.0
 14
280.0048248275065
 24
165.6120063854152
 34
0.0
 50
-0.000000000000014
100
AcDbRotatedDimension
  0
LINE
  5
5AB6
330
A
100
AcDbEntity
  8
DV1_HULSE_VERLANGERUNGS-
390
1D
100
AcDbLine
 10
255.0000153557064
 20
238.0234319517694
 30
0.0
 11
245.5048248275064
 21
238.0234319517694
 31
0.0
  0
LINE
  5
5AB7
330
A
100
AcDbEntity
  8
DV1_HULSE_VERLANGERUNGS-
390
1D
100
AcDbLine
 10
255.9055254083063
 20
234.6440224291694
 30
0.0
 11
255.0000153557064
 21
238.0234319517694
 31
0.0
  0
ARC
  5
5AB8
330
A
100
AcDbEntity
  8
DV1_HULSE_VERLANGERUNGS-
390
1D
100
AcDbCircle
 10
256.3884883213064
 20
234.7734319517694
 30
0.0
 40
0.5
100
AcDbArc
 50
195.0000000000016
 51
270.0
  0
LINE
  5
5AB9
330
A
100
AcDbEntity
  8
DV1_HULSE_VERLANGERUNGS-
390
1D
100
AcDbLine
 10
274.0821750965064
 20
211.0234319517694
 30
0.0
 11
273.5048248275064
 21
212.0234319517694
 31
0.0
  0
LINE
  5
5ABA
330
A
100
AcDbEntity
  8
DV1_HULSE_VERLANGERUNGS-
390
1D
100
AcDbLine
 10
273.5048248275064
 20
212.0234319517694
 30
0.0
 11
260.8048248275064
 21
212.0234319517694
 31
0.0
  0
LINE
  5
5ABB
330
A
100
AcDbEntity
  8
DV1_HULSE_VERLANGERUNGS-
390
1D
100
AcDbLine
 10
255.9055254083063
 20
210.4028414743694
 30
0.0
 11
255.0000153557064
 21
207.0234319517694
 31
0.0
  0
LINE
  5
5ABC
330
A
100
AcDbEntity
  8
DV1_HULSE_VERLANGERUNGS-
390
1D
100
AcDbLine
 10
255.0000153557064
 20
207.0234319517694
 30
0.0
 11
245.5048248275064
 21
207.0234319517694
 31
0.0
  0
LINE
  5
5ABD
330
A
100
AcDbEntity
  8
DV1_HULSE_VERLANGERUNGS-
390
1D
100
AcDbLine
 10
260.8048248275064
 20
212.0234319517694
 30
0.0
 11
260.0831369909064
 21
210.7734319517694
 31
0.0
  0
LINE
  5
5ABE
330
A
100
AcDbEntity
  8
DV1_HULSE_VERLANGERUNGS-
390
1D
100
AcDbLine
 10
260.0831369909064
 20
210.7734319517694
 30
0.0
 11
256.3884883213064
 21
210.7734319517694
 31
0.0
  0
ARC
  5
5ABF
330
A
100
AcDbEntity
  8
DV1_HULSE_VERLANGERUNGS-
390
1D
100
AcDbCircle
 10
256.3884883213064
 20
210.2734319517694
 30
0.0
 40
0.5
100
AcDbArc
 50
90.0
 51
164.9999999999984
  0
LINE
  5
5AC0
330
A
100
AcDbEntity
  8
DV1_HULSE_VERLANGERUNGS-
390
1D
100
AcDbLine
 10
273.5048248275064
 20
233.0234319517694
 30
0.0
 11
260.8048248275064
 21
233.0234319517694
 31
0.0
  0
LINE
  5
5AC1
330
A
100
AcDbEntity
  8
DV1_HULSE_VERLANGERUNGS-
390
1D
100
AcDbLine
 10
260.8048248275064
 20
233.0234319517694
 30
0.0
 11
260.0831369909064
 21
234.2734319517694
 31
0.0
  0
LINE
  5
5AC2
330
A
100
AcDbEntity
  8
DV1_HULSE_VERLANGERUNGS-
390
1D
100
AcDbLine
 10
260.0831369909064
 20
234.2734319517694
 30
0.0
 11
256.3884883213064
 21
234.2734319517694
 31
0.0
  0
LINE
  5
5AC3
330
A
100
AcDbEntity
  8
DV1_HULSE_VERLANGERUNGS-
390
1D
100
AcDbLine
 10
274.0821750965064
 20
234.0234319517694
 30
0.0
 11
273.5048248275064
 21
233.0234319517694
 31
0.0
  0
LWPOLYLINE
  5
5AC4
330
A
100
AcDbEntity
  8
DV1_HULSE_VERLANGERUNGS-
390
1D
100
AcDbPolyline
 90
        2
 70
     0
 43
0.0
 10
273.8821753841063
 20
233.6770222881694
 10
274.2285850475063
 20
234.0234319517694
  0
LINE
  5
5AC5
330
A
100
AcDbEntity
  8
DV1_HULSE_ABDECK
390
1D
100
AcDbLine
 10
350.5048248275064
 20
204.5234319517694
 30
0.0
 11
290.0048248275064
 21
204.5234319517694
 31
0.0
  0
ARC
  5
5AC6
330
A
100
AcDbEntity
  8
DV1_HULSE_ABDECK
390
1D
100
AcDbCircle
 10
350.5048248275064
 20
205.0234319517694
 30
0.0
 40
0.5
100
AcDbArc
 50
270.0
 51
0.0
  0
LINE
  5
5AC7
330
A
100
AcDbEntity
  8
DV1_HULSE_ABDECK
390
1D
100
AcDbLine
 10
351.0048248275064
 20
205.0234319517694
 30
0.0
 11
351.0048248275064
 21
240.0234319517694
 31
0.0
  0
LINE
  5
5AC8
330
A
100
AcDbEntity
  8
DV1_HULSE_ABDECK
390
1D
100
AcDbLine
 10
350.5048248275064
 20
240.5234319517694
 30
0.0
 11
290.0048248275064
 21
240.5234319517694
 31
0.0
  0
ARC
  5
5AC9
330
A
100
AcDbEntity
  8
DV1_HULSE_ABDECK
390
1D
100
AcDbCircle
 10
350.5048248275064
 20
240.0234319517694
 30
0.0
 40
0.5
100
AcDbArc
 50
0.0
 51
90.0
  0
LINE
  5
5ACA
330
A
100
AcDbEntity
  8
DV1_ROSETTE
390
1D
100
AcDbLine
 10
286.0048248275064
 20
188.0234319517694
 30
0.0
 11
286.0048248275064
 21
194.5234319517694
 31
0.0
  0
ARC
  5
5ACB
330
A
100
AcDbEntity
  8
DV1_ROSETTE
390
1D
100
AcDbCircle
 10
285.5048248275064
 20
188.0234319517694
 30
0.0
 40
0.5
100
AcDbArc
 50
270.0
 51
0.0
  0
LINE
  5
5ACC
330
A
100
AcDbEntity
  8
DV1_ROSETTE
390
1D
100
AcDbLine
 10
285.5048248275064
 20
187.5234319517694
 30
0.0
 11
280.0048248275064
 21
187.5234319517694
 31
0.0
  0
LINE
  5
5ACD
330
A
100
AcDbEntity
  8
DV1_ROSETTE
390
1D
100
AcDbLine
 10
290.0048248275064
 20
195.5234319517694
 30
0.0
 11
290.0048248275064
 21
249.5234319517694
 31
0.0
  0
ARC
  5
5ACE
330
A
100
AcDbEntity
  8
DV1_ROSETTE
390
1D
100
AcDbCircle
 10
289.5048248275064
 20
195.5234319517694
 30
0.0
 40
0.5
100
AcDbArc
 50
270.0
 51
0.0
  0
LINE
  5
5ACF
330
A
100
AcDbEntity
  8
DV1_ROSETTE
390
1D
100
AcDbLine
 10
289.5048248275064
 20
195.0234319517694
 30
0.0
 11
286.5048248275064
 21
195.0234319517694
 31
0.0
  0
ARC
  5
5AD0
330
A
100
AcDbEntity
  8
DV1_ROSETTE
390
1D
100
AcDbCircle
 10
286.5048248275064
 20
194.5234319517694
 30
0.0
 40
0.5
100
AcDbArc
 50
90.0
 51
180.0
  0
ARC
  5
5AD1
330
A
100
AcDbEntity
  8
DV1_ROSETTE
390
1D
100
AcDbCircle
 10
289.5048248275064
 20
249.5234319517694
 30
0.0
 40
0.5
100
AcDbArc
 50
0.0
 51
90.0
  0
LINE
  5
5AD2
330
A
100
AcDbEntity
  8
DV1_ROSETTE
390
1D
100
AcDbLine
 10
289.5048248275064
 20
250.0234319517694
 30
0.0
 11
286.5048248275064
 21
250.0234319517694
 31
0.0
  0
ARC
  5
5AD3
330
A
100
AcDbEntity
  8
DV1_ROSETTE
390
1D
100
AcDbCircle
 10
286.5048248275064
 20
250.5234319517694
 30
0.0
 40
0.5
100
AcDbArc
 50
180.0
 51
270.0
  0
LINE
  5
5AD4
330
A
100
AcDbEntity
  8
DV1_ROSETTE
390
1D
100
AcDbLine
 10
286.0048248275064
 20
250.5234319517694
 30
0.0
 11
286.0048248275064
 21
257.0234319517694
 31
0.0
  0
ARC
  5
5AD5
330
A
100
AcDbEntity
  8
DV1_ROSETTE
390
1D
100
AcDbCircle
 10
285.5048248275064
 20
257.0234319517694
 30
0.0
 40
0.5
100
AcDbArc
 50
0.0
 51
90.0
  0
LINE
  5
5AD6
330
A
100
AcDbEntity
  8
DV1_ROSETTE
390
1D
100
AcDbLine
 10
285.5048248275064
 20
257.5234319517694
 30
0.0
 11
280.0048248275064
 21
257.5234319517694
 31
0.0
  0
LINE
  5
5AD7
330
A
100
AcDbEntity
  8
DV1_HULSE_ABDECK
390
1D
100
AcDbLine
 10
290.0048248275064
 20
204.5234319517694
 30
0.0
 11
290.0048248275064
 21
240.5234319517694
 31
0.0
  0
LINE
  5
5ADA
330
A
100
AcDbEntity
  8
DV1_ROSETTE
390
1D
100
AcDbLine
 10
280.0048248275064
 20
187.5234319517694
 30
0.0
 11
280.0048248275064
 21
257.5234319517694
 31
0.0
  0
LINE
  5
5ADC
330
A
100
AcDbEntity
  8
DV1_HULSE_VERLANGERUNGS-
390
1D
100
AcDbLine
 10
245.5048248275064
 20
207.0234319517694
 30
0.0
 11
245.5048248275064
 21
238.0234319517694
 31
0.0
  0
LINE
  5
5ADD
330
A
100
AcDbEntity
  8
DV1_HULSE_VERLANGERUNGS-
390
1D
100
AcDbLine
 10
255.0000153557064
 20
207.0234319517694
 30
0.0
 11
255.0000153557064
 21
238.0234319517694
 31
0.0
  0
LINE
  5
5ADE
330
A
100
AcDbEntity
  8
DV1_HULSE_VERLANGERUNGS-
390
1D
100
AcDbLine
 10
260.8048248275064
 20
212.0234319517694
 30
0.0
 11
260.8048248275064
 21
233.0234319517694
 31
0.0
  0
LINE
  5
5ADF
330
A
100
AcDbEntity
  8
DV1_HULSE_VERLANGERUNGS-
390
1D
100
AcDbLine
 10
260.0831369909064
 20
210.7734319517694
 30
0.0
 11
260.0831369909064
 21
234.2734319517694
 31
0.0
  0
LINE
  5
5AE0
330
A
100
AcDbEntity
  8
DV1_HULSE_VERLANGERUNGS-
390
1D
100
AcDbLine
 10
274.0821750965064
 20
211.0234319517694
 30
0.0
 11
274.0821750965064
 21
234.0234319517694
 31
0.0
  0
LINE
  5
5AE1
330
A
100
AcDbEntity
  8
DV1_HULSE_VERLANGERUNGS-
390
1D
100
AcDbLine
 10
273.5048248275064
 20
212.0234319517694
 30
0.0
 11
273.5048248275064
 21
233.0234319517694
 31
0.0
  0
LINE
  5
5AE2
330
A
100
AcDbEntity
  8
DV1_HULSE_VERLANGERUNGS-
390
1D
100
AcDbLine
 10
256.1270002739064
 20
211.2029004571694
 30
0.0
 11
256.1270002739064
 21
233.9292464513694
 31
0.0
  0
LINE
  5
5AE3
330
A
100
AcDbEntity
  8
DV1_ROSETTE
390
1D
100
AcDbLine
 10
286.0762269921065
 20
195.0234319517694
 30
0.0
 11
286.0762269921065
 21
250.0234319517694
 31
0.0
  0
LINE
  5
5AE4
330
A
100
AcDbEntity
  8
DV1_HULSE_VERLANGERUNGS-
390
1D
100
AcDbLine
 10
280.0048248275064
 20
233.1034319517694
 30
0.0
 11
273.5510128489064
 21
233.1034319517694
 31
0.0
  0
LINE
  5
5AE5
330
A
100
AcDbEntity
  8
DV1_HULSE_VERLANGERUNGS-
390
1D
100
AcDbLine
 10
280.0048248275064
 20
234.0234319517694
 30
0.0
 11
274.0821750965064
 21
234.0234319517694
 31
0.0
  0
LINE
  5
5AE6
330
A
100
AcDbEntity
  8
DV1_HULSE_VERLANGERUNGS-
390
1D
100
AcDbLine
 10
280.0048248275064
 20
211.9434319517694
 30
0.0
 11
273.5510128489064
 21
211.9434319517694
 31
0.0
  0
LINE
  5
5AE7
330
A
100
AcDbEntity
  8
DV1_HULSE_VERLANGERUNGS-
390
1D
100
AcDbLine
 10
280.0048248275064
 20
211.0234319517694
 30
0.0
 11
274.0821750965064
 21
211.0234319517694
 31
0.0
  0
LINE
  5
5AE8
330
A
100
AcDbEntity
  8
DV1_RING
390
1D
100
AcDbLine
 10
355.0173745153065
 20
213.5446755083694
 30
0.0
 11
355.2173745153064
 21
213.5446755083694
 31
0.0
  0
LINE
  5
5AE9
330
A
100
AcDbEntity
  8
DV1_GRIFF_-FUHR-
390
1D
100
AcDbLine
 10
351.0048248275064
 20
237.4731806577694
 30
0.0
 11
354.5173745153065
 21
237.4731806577694
 31
0.0
  0
ARC
  5
5AEA
330
A
100
AcDbEntity
  8
DV1_GRIFF_-FUHR-
390
1D
100
AcDbCircle
 10
354.5173745153065
 20
236.9731806577694
 30
0.0
 40
0.5
100
AcDbArc
 50
0.0
 51
90.0
  0
ARC
  5
5AEB
330
A
100
AcDbEntity
  8
DV1_GRIFF_-FUHR-
390
1D
100
AcDbCircle
 10
354.5173745153065
 20
208.0736832459694
 30
0.0
 40
0.5
100
AcDbArc
 50
270.0
 51
0.0
  0
LINE
  5
5AEC
330
A
100
AcDbEntity
  8
DV1_GRIFF_-FUHR-
390
1D
100
AcDbLine
 10
354.5173745153065
 20
207.5736832459694
 30
0.0
 11
351.0048248275064
 21
207.5736832459694
 31
0.0
  0
LINE
  5
5AED
330
A
100
AcDbEntity
  8
DV1_RING
390
1D
100
AcDbLine
 10
355.0173745153065
 20
231.5021883953694
 30
0.0
 11
355.2173745153064
 21
231.5021883953694
 31
0.0
  0
LINE
  5
5AEE
330
A
100
AcDbEntity
  8
DV1_GRIFF_-FUHR-
390
1D
100
AcDbLine
 10
355.0173745153065
 20
208.0736832459694
 30
0.0
 11
355.0173745153065
 21
236.9731806577694
 31
0.0
  0
LINE
  5
5AEF
330
A
100
AcDbEntity
  8
DV1_GRIFF_KPL_TRIO
390
1D
100
AcDbLine
 10
376.7121408451064
 20
232.2734319517694
 30
0.0
 11
377.7173745153063
 21
232.2734319517694
 31
0.0
  0
SPLINE
  5
5AF0
330
A
100
AcDbEntity
  8
DV1_GRIFF_KPL_TRIO
390
1D
100
AcDbSpline
210
0.0
220
0.0
230
1.0
 70
     8
 71
     3
 72
    10
 73
     6
 74
     0
 42
0.000000001
 43
0.0
 40
0.0
 40
0.0
 40
0.0
 40
0.0
 40
0.4699353791243484
 40
0.9089412818800372
 40
1.0
 40
1.0
 40
1.0
 40
1.0
 10
370.7173745153711
 20
223.8769778372783
 30
0.0
 10
369.0915089772761
 20
223.8225284468634
 30
0.0
 10
366.4943913095765
 20
222.4757270110362
 30
0.0
 10
364.8238899482533
 20
219.3984826993871
 30
0.0
 10
364.7136934059421
 20
217.8992209643512
 30
0.0
 10
364.7163059957706
 20
217.6478992607643
 30
0.0
  0
SPLINE
  5
5AF1
330
A
100
AcDbEntity
  8
DV1_GRIFF_KPL_TRIO
390
1D
100
AcDbSpline
210
0.0
220
0.0
230
1.0
 70
     8
 71
     3
 72
    10
 73
     6
 74
     0
 42
0.000000001
 43
0.0
 40
0.0
 40
0.0
 40
0.0
 40
0.0
 40
0.1119310210037968
 40
0.5774719694950358
 40
1.0
 40
1.0
 40
1.0
 40
1.0
 10
376.7160906454041
 20
217.6483857156737
 30
0.0
 10
376.720357246741
 20
217.9582758646731
 30
0.0
 10
376.5768952413916
 20
219.6032501765566
 30
0.0
 10
374.7412212980989
 20
222.6354103810587
 30
0.0
 10
372.1861913213388
 20
223.8387977636352
 30
0.0
 10
370.7173745153711
 20
223.8769778372783
 30
0.0
  0
LINE
  5
5AF2
330
A
100
AcDbEntity
  8
DV1_GRIFF_KPL_TRIO
390
1D
100
AcDbLine
 10
378.2173745153063
 20
213.2734319517694
 30
0.0
 11
378.2173745153063
 21
231.7734319517694
 31
0.0
  0
ELLIPSE
  5
5AF3
330
A
100
AcDbEntity
  8
DV1_GRIFF_KPL_TRIO
390
1D
100
AcDbEllipse
 10
370.7173745153063
 20
204.0234319517694
 30
0.0
 11
-6.000000000000002
 21
1.302182119232618E-15
 31
0.0
210
0.0
220
0.0
230
1.0
 40
0.8660254038
 41
3.072115592506717
 42
3.141592653589793
  0
LINE
  5
5AF4
330
A
100
AcDbEntity
  8
DV1_GRIFF_KPL_TRIO
390
1D
100
AcDbLine
 10
355.2173745153064
 20
232.2734319517694
 30
0.0
 11
355.2173745153064
 21
212.7734319517694
 31
0.0
  0
SPLINE
  5
5AF5
330
A
100
AcDbEntity
  8
DV1_GRIFF_KPL_TRIO
390
1D
100
AcDbSpline
210
0.0
220
0.0
230
1.0
 70
     8
 71
     3
 72
    12
 73
     8
 74
     0
 42
0.000000001
 43
0.0
 40
0.0
 40
0.0
 40
0.0
 40
0.0
 40
0.1716219565307078
 40
0.4035166398377791
 40
0.6157318759109052
 40
0.8441002715996575
 40
1.0
 40
1.0
 40
1.0
 40
1.0
 10
376.7184433514876
 20
232.2742833637543
 30
0.0
 10
376.7086136824043
 20
232.2720103868268
 30
0.0
 10
375.9675250418804
 20
231.8325338280813
 30
0.0
 10
372.8623289491715
 20
230.1069344527088
 30
0.0
 10
368.2270082568643
 20
230.2345319523624
 30
0.0
 10
365.371389523822
 20
231.8989568600099
 30
0.0
 10
364.7305120486897
 20
232.2711665224269
 30
0.0
 10
364.7186574477266
 20
232.2731806273571
 30
0.0
  0
ARC
  5
5AF6
330
A
100
AcDbEntity
  8
DV1_GRIFF_KPL_TRIO
390
1D
100
AcDbCircle
 10
377.7173745153063
 20
213.2734319517694
 30
0.0
 40
0.5
100
AcDbArc
 50
270.0
 51
0.0
  0
ARC
  5
5AF7
330
A
100
AcDbEntity
  8
DV1_GRIFF_KPL_TRIO
390
1D
100
AcDbCircle
 10
365.2173745153064
 20
259.5234319517694
 30
0.0
 40
0.5
100
AcDbArc
 50
90.0
 51
180.0
  0
SPLINE
  5
5AF8
330
A
100
AcDbEntity
  8
DV1_GRIFF_KPL_TRIO
390
1D
100
AcDbSpline
210
0.0
220
0.0
230
1.0
 70
     8
 71
     3
 72
     9
 73
     5
 74
     0
 42
0.000000001
 43
0.0
 40
0.0
 40
0.0
 40
0.0
 40
0.0
 40
0.4977005593557484
 40
1.0
 40
1.0
 40
1.0
 40
1.0
 10
370.7173745153711
 20
198.7602922309922
 30
0.0
 10
369.0599886676843
 20
198.7711063968503
 30
0.0
 10
366.1487138009722
 20
199.9198269378072
 30
0.0
 10
364.7441397391657
 20
202.4833255947897
 30
0.0
 10
364.7191570079115
 20
203.9679322037417
 30
0.0
  0
LINE
  5
5AF9
330
A
100
AcDbEntity
  8
DV1_GRIFF_KPL_TRIO
390
1D
100
AcDbLine
 10
364.7173745153064
 20
232.2693821113694
 30
0.0
 11
364.7173745153064
 21
259.5234319517694
 31
0.0
  0
LINE
  5
5AFA
330
A
100
AcDbEntity
  8
DV1_GRIFF_KPL_TRIO
390
1D
100
AcDbLine
 10
376.7173745153063
 20
217.6504568719694
 30
0.0
 11
376.7173745153063
 21
204.0234319579694
 31
0.0
  0
LINE
  5
5AFB
330
A
100
AcDbEntity
  8
DV1_GRIFF_KPL_TRIO
390
1D
100
AcDbLine
 10
377.7173745153063
 20
212.7734319517694
 30
0.0
 11
376.7173745153063
 21
212.7734319517694
 31
0.0
  0
LINE
  5
5AFC
330
A
100
AcDbEntity
  8
DV1_GRIFF_KPL_TRIO
390
1D
100
AcDbLine
 10
364.7173745153064
 20
232.2734319517694
 30
0.0
 11
355.2173745153064
 21
232.2734319517694
 31
0.0
  0
LINE
  5
5AFD
330
A
100
AcDbEntity
  8
DV1_GRIFF_KPL_TRIO
390
1D
100
AcDbLine
 10
355.2173745153064
 20
212.7734319517694
 30
0.0
 11
364.7239069721064
 21
212.7734319517694
 31
0.0
  0
SPLINE
  5
5AFE
330
A
100
AcDbEntity
  8
DV1_GRIFF_KPL_TRIO
390
1D
100
AcDbSpline
210
0.0
220
0.0
230
1.0
 70
     8
 71
     3
 72
     8
 73
     4
 74
     0
 42
0.000000001
 43
0.0
 40
0.0
 40
0.0
 40
0.0
 40
0.0
 40
1.0
 40
1.0
 40
1.0
 40
1.0
 10
376.701451191998
 20
203.6607498813254
 30
0.0
 10
376.6999612578988
 20
203.642353942518
 30
0.0
 10
376.6983657637545
 20
203.6239823065198
 30
0.0
 10
376.6966652628227
 20
203.6056355155705
 30
0.0
  0
ARC
  5
5AFF
330
A
100
AcDbEntity
  8
DV1_GRIFF_KPL_TRIO
390
1D
100
AcDbCircle
 10
377.7173745153063
 20
231.7734319517694
 30
0.0
 40
0.5
100
AcDbArc
 50
0.0
 51
90.0
  0
ARC
  5
5B00
330
A
100
AcDbEntity
  8
DV1_GRIFF_KPL_TRIO
390
1D
100
AcDbCircle
 10
376.2173745153063
 20
259.5234319517694
 30
0.0
 40
0.5
100
AcDbArc
 50
0.0
 51
90.0
  0
SPLINE
  5
5B01
330
A
100
AcDbEntity
  8
DV1_GRIFF_KPL_TRIO
390
1D
100
AcDbSpline
210
0.0
220
0.0
230
1.0
 70
     8
 71
     3
 72
     9
 73
     5
 74
     0
 42
0.000000001
 43
0.0
 40
0.0
 40
0.0
 40
0.0
 40
0.0
 40
0.4958801006724807
 40
1.0
 40
1.0
 40
1.0
 40
1.0
 10
376.7005704959992
 20
203.6554624856153
 30
0.0
 10
376.594867579686
 20
202.2443493214318
 30
0.0
 10
375.1241578453909
 20
199.8471510295539
 30
0.0
 10
372.3349831304849
 20
198.7739778113973
 30
0.0
 10
370.7173745153711
 20
198.7602922309922
 30
0.0
  0
LINE
  5
5B02
330
A
100
AcDbEntity
  8
DV1_GRIFF_KPL_TRIO
390
1D
100
AcDbLine
 10
376.7173745153063
 20
259.5234319517694
 30
0.0
 11
376.7173745153063
 21
232.2701663327694
 31
0.0
  0
LINE
  5
5B03
330
A
100
AcDbEntity
  8
DV1_GRIFF_KPL_TRIO
390
1D
100
AcDbLine
 10
364.7173745153064
 20
204.0234319517694
 30
0.0
 11
364.7173745153064
 21
217.6500647613694
 31
0.0
  0
LINE
  5
5B04
330
A
100
AcDbEntity
  8
DV1_GRIFF_KPL_TRIO
390
1D
100
AcDbLine
 10
365.2173745153064
 20
260.0234319517694
 30
0.0
 11
376.2173745153063
 21
260.0234319517694
 31
0.0
  0
SPLINE
  5
5B05
330
A
100
AcDbEntity
  8
DV1_GRIFF_KPL_TRIO
390
1D
100
AcDbSpline
210
0.0
220
0.0
230
1.0
 70
     8
 71
     3
 72
     9
 73
     5
 74
     0
 42
0.000000001
 43
0.0
 40
0.0
 40
0.0
 40
0.0
 40
0.0
 40
0.4977005593557546
 40
1.0
 40
1.0
 40
1.0
 40
1.0
 10
370.7173745153711
 20
209.1755721764912
 30
0.0
 10
369.0599886676843
 20
209.1647580106331
 30
0.0
 10
366.1487138009722
 20
208.0160374696763
 30
0.0
 10
364.7441397391657
 20
205.4525388126937
 30
0.0
 10
364.7191570079115
 20
203.9679322037417
 30
0.0
  0
SPLINE
  5
5B06
330
A
100
AcDbEntity
  8
DV1_GRIFF_KPL_TRIO
390
1D
100
AcDbSpline
210
0.0
220
0.0
230
1.0
 70
     8
 71
     3
 72
     9
 73
     5
 74
     0
 42
0.000000001
 43
0.0
 40
0.0
 40
0.0
 40
0.0
 40
0.0
 40
0.4958801006724775
 40
1.0
 40
1.0
 40
1.0
 40
1.0
 10
376.7005704959992
 20
204.2804019218682
 30
0.0
 10
376.594867579686
 20
205.6915150860517
 30
0.0
 10
375.1241578453909
 20
208.0887133779295
 30
0.0
 10
372.3349831304849
 20
209.161886596086
 30
0.0
 10
370.7173745153711
 20
209.1755721764912
 30
0.0
  0
LINE
  5
5B07
330
A
100
AcDbEntity
  8
DV3_HULSE_VERLANGERUNGS-
390
1D
100
AcDbLine
 10
90.69320662356756
 20
471.3865043942155
 30
0.0
 11
90.69320662356756
 21
480.8816949224156
 31
0.0
  0
LINE
  5
5B08
330
A
100
AcDbEntity
  8
DV3_HULSE_VERLANGERUNGS-
390
1D
100
AcDbLine
 10
94.07261614616755
 20
470.4809943416155
 30
0.0
 11
90.69320662356756
 21
471.3865043942155
 31
0.0
  0
ARC
  5
5B09
330
A
100
AcDbEntity
  8
DV3_HULSE_VERLANGERUNGS-
390
1D
100
AcDbCircle
 10
93.94320662356756
 20
469.9980314286156
 30
0.0
 40
0.5
100
AcDbArc
 50
0.0
 51
74.99999999999287
  0
LINE
  5
5B0A
330
A
100
AcDbEntity
  8
DV3_HULSE_VERLANGERUNGS-
390
1D
100
AcDbLine
 10
117.6932066235676
 20
452.3043446534157
 30
0.0
 11
116.6932066235676
 21
452.8816949224156
 31
0.0
  0
LINE
  5
5B0B
330
A
100
AcDbEntity
  8
DV3_HULSE_VERLANGERUNGS-
390
1D
100
AcDbLine
 10
116.6932066235676
 20
452.8816949224156
 30
0.0
 11
116.6932066235676
 21
465.5816949224156
 31
0.0
  0
LINE
  5
5B0C
330
A
100
AcDbEntity
  8
DV3_HULSE_VERLANGERUNGS-
390
1D
100
AcDbLine
 10
118.3137971009676
 20
470.4809943416155
 30
0.0
 11
121.6932066235676
 21
471.3865043942155
 31
0.0
  0
LINE
  5
5B0D
330
A
100
AcDbEntity
  8
DV3_HULSE_VERLANGERUNGS-
390
1D
100
AcDbLine
 10
121.6932066235676
 20
471.3865043942155
 30
0.0
 11
121.6932066235676
 21
480.8816949224156
 31
0.0
  0
LINE
  5
5B0E
330
A
100
AcDbEntity
  8
DV3_HULSE_VERLANGERUNGS-
390
1D
100
AcDbLine
 10
116.6932066235676
 20
465.5816949224156
 30
0.0
 11
117.9432066235676
 21
466.3033827590154
 31
0.0
  0
LINE
  5
5B0F
330
A
100
AcDbEntity
  8
DV3_HULSE_VERLANGERUNGS-
390
1D
100
AcDbLine
 10
117.9432066235676
 20
466.3033827590154
 30
0.0
 11
117.9432066235676
 21
469.9980314286156
 31
0.0
  0
ARC
  5
5B10
330
A
100
AcDbEntity
  8
DV3_HULSE_VERLANGERUNGS-
390
1D
100
AcDbCircle
 10
118.4432066235676
 20
469.9980314286156
 30
0.0
 40
0.5
100
AcDbArc
 50
104.9999999999945
 51
180.0
  0
LINE
  5
5B11
330
A
100
AcDbEntity
  8
DV3_HULSE_VERLANGERUNGS-
390
1D
100
AcDbLine
 10
95.69320662356756
 20
452.8816949224156
 30
0.0
 11
95.69320662356756
 21
465.5816949224156
 31
0.0
  0
LINE
  5
5B12
330
A
100
AcDbEntity
  8
DV3_HULSE_VERLANGERUNGS-
390
1D
100
AcDbLine
 10
95.69320662356756
 20
465.5816949224156
 30
0.0
 11
94.44320662356756
 21
466.3033827590157
 31
0.0
  0
LINE
  5
5B13
330
A
100
AcDbEntity
  8
DV3_HULSE_VERLANGERUNGS-
390
1D
100
AcDbLine
 10
94.44320662356756
 20
466.3033827590157
 30
0.0
 11
94.44320662356756
 21
469.9980314286156
 31
0.0
  0
LINE
  5
5B14
330
A
100
AcDbEntity
  8
DV3_HULSE_VERLANGERUNGS-
390
1D
100
AcDbLine
 10
94.69320662356756
 20
452.3043446534157
 30
0.0
 11
95.69320662356756
 21
452.8816949224156
 31
0.0
  0
LWPOLYLINE
  5
5B15
330
A
100
AcDbEntity
  8
DV3_HULSE_VERLANGERUNGS-
390
1D
100
AcDbPolyline
 90
        2
 70
     0
 43
0.0
 10
95.03961628736761
 20
452.5043443658155
 10
94.69320662356756
 20
452.1579347024156
  0
LINE
  5
5B16
330
A
100
AcDbEntity
  8
DV3_HULSE_ABDECK
390
1D
100
AcDbLine
 10
124.1932066235676
 20
375.8816949224155
 30
0.0
 11
124.1932066235676
 21
436.3816949224156
 31
0.0
  0
ARC
  5
5B17
330
A
100
AcDbEntity
  8
DV3_HULSE_ABDECK
390
1D
100
AcDbCircle
 10
123.6932066235676
 20
375.8816949224155
 30
0.0
 40
0.5
100
AcDbArc
 50
270.0
 51
0.0
  0
LINE
  5
5B18
330
A
100
AcDbEntity
  8
DV3_HULSE_ABDECK
390
1D
100
AcDbLine
 10
123.6932066235676
 20
375.3816949224155
 30
0.0
 11
88.69320662356756
 21
375.3816949224155
 31
0.0
  0
LINE
  5
5B19
330
A
100
AcDbEntity
  8
DV3_HULSE_ABDECK
390
1D
100
AcDbLine
 10
88.19320662356756
 20
375.8816949224155
 30
0.0
 11
88.19320662356756
 21
436.3816949224156
 31
0.0
  0
ARC
  5
5B1A
330
A
100
AcDbEntity
  8
DV3_HULSE_ABDECK
390
1D
100
AcDbCircle
 10
88.69320662356756
 20
375.8816949224155
 30
0.0
 40
0.5
100
AcDbArc
 50
180.0
 51
270.0
  0
LINE
  5
5B1B
330
A
100
AcDbEntity
  8
DV3_ROSETTE
390
1D
100
AcDbLine
 10
140.6932066235676
 20
440.3816949224156
 30
0.0
 11
134.1932066235676
 21
440.3816949224156
 31
0.0
  0
ARC
  5
5B1C
330
A
100
AcDbEntity
  8
DV3_ROSETTE
390
1D
100
AcDbCircle
 10
140.6932066235676
 20
440.8816949224156
 30
0.0
 40
0.5
100
AcDbArc
 50
270.0
 51
0.0
  0
LINE
  5
5B1D
330
A
100
AcDbEntity
  8
DV3_ROSETTE
390
1D
100
AcDbLine
 10
141.1932066235676
 20
440.8816949224156
 30
0.0
 11
141.1932066235676
 21
446.3816949224156
 31
0.0
  0
LINE
  5
5B1E
330
A
100
AcDbEntity
  8
DV3_ROSETTE
390
1D
100
AcDbLine
 10
133.1932066235676
 20
436.3816949224156
 30
0.0
 11
79.19320662356756
 21
436.3816949224156
 31
0.0
  0
ARC
  5
5B1F
330
A
100
AcDbEntity
  8
DV3_ROSETTE
390
1D
100
AcDbCircle
 10
133.1932066235676
 20
436.8816949224156
 30
0.0
 40
0.5
100
AcDbArc
 50
270.0
 51
0.0
  0
LINE
  5
5B20
330
A
100
AcDbEntity
  8
DV3_ROSETTE
390
1D
100
AcDbLine
 10
133.6932066235676
 20
436.8816949224156
 30
0.0
 11
133.6932066235676
 21
439.8816949224156
 31
0.0
  0
ARC
  5
5B21
330
A
100
AcDbEntity
  8
DV3_ROSETTE
390
1D
100
AcDbCircle
 10
134.1932066235676
 20
439.8816949224156
 30
0.0
 40
0.5
100
AcDbArc
 50
90.0
 51
180.0
  0
ARC
  5
5B22
330
A
100
AcDbEntity
  8
DV3_ROSETTE
390
1D
100
AcDbCircle
 10
79.19320662356756
 20
436.8816949224156
 30
0.0
 40
0.5
100
AcDbArc
 50
180.0
 51
270.0
  0
LINE
  5
5B23
330
A
100
AcDbEntity
  8
DV3_ROSETTE
390
1D
100
AcDbLine
 10
78.69320662356756
 20
436.8816949224156
 30
0.0
 11
78.69320662356756
 21
439.8816949224156
 31
0.0
  0
ARC
  5
5B24
330
A
100
AcDbEntity
  8
DV3_ROSETTE
390
1D
100
AcDbCircle
 10
78.19320662356756
 20
439.8816949224156
 30
0.0
 40
0.5
100
AcDbArc
 50
0.0
 51
90.0
  0
LINE
  5
5B25
330
A
100
AcDbEntity
  8
DV3_ROSETTE
390
1D
100
AcDbLine
 10
78.19320662356756
 20
440.3816949224156
 30
0.0
 11
71.69320662356756
 21
440.3816949224156
 31
0.0
  0
ARC
  5
5B26
330
A
100
AcDbEntity
  8
DV3_ROSETTE
390
1D
100
AcDbCircle
 10
71.69320662356756
 20
440.8816949224156
 30
0.0
 40
0.5
100
AcDbArc
 50
180.0
 51
270.0
  0
LINE
  5
5B27
330
A
100
AcDbEntity
  8
DV3_ROSETTE
390
1D
100
AcDbLine
 10
71.19320662356756
 20
440.8816949224156
 30
0.0
 11
71.19320662356756
 21
446.3816949224156
 31
0.0
  0
LINE
  5
5B28
330
A
100
AcDbEntity
  8
DV3_HULSE_ABDECK
390
1D
100
AcDbLine
 10
124.1932066235676
 20
436.3816949224156
 30
0.0
 11
88.19320662356756
 21
436.3816949224156
 31
0.0
  0
LINE
  5
5B29
330
A
100
AcDbEntity
  8
DV3_DICHTUNG_PROFIL
390
1D
100
AcDbLine
 10
139.6932066235676
 20
449.3816949224156
 30
0.0
 11
139.6932066235676
 21
446.3816949224156
 31
0.0
  0
LINE
  5
5B2A
330
A
100
AcDbEntity
  8
DV3_DICHTUNG_PROFIL
390
1D
100
AcDbLine
 10
72.69320662356756
 20
449.3816949224156
 30
0.0
 11
72.69320662356756
 21
446.3816949224156
 31
0.0
  0
LINE
  5
5B2B
330
A
100
AcDbEntity
  8
DV3_ROSETTE
390
1D
100
AcDbLine
 10
141.1932066235676
 20
446.3816949224156
 30
0.0
 11
71.19320662356756
 21
446.3816949224156
 31
0.0
  0
LINE
  5
5B2C
330
A
100
AcDbEntity
  8
DV3_DICHTUNG_PROFIL
390
1D
100
AcDbLine
 10
139.6932066235676
 20
449.3816949224156
 30
0.0
 11
72.69320662356756
 21
449.3816949224156
 31
0.0
  0
LINE
  5
5B2D
330
A
100
AcDbEntity
  8
DV3_HULSE_VERLANGERUNGS-
390
1D
100
AcDbLine
 10
121.6932066235676
 20
480.8816949224156
 30
0.0
 11
90.69320662356756
 21
480.8816949224156
 31
0.0
  0
LINE
  5
5B2E
330
A
100
AcDbEntity
  8
DV3_HULSE_VERLANGERUNGS-
390
1D
100
AcDbLine
 10
121.6932066235676
 20
471.3865043942155
 30
0.0
 11
90.69320662356756
 21
471.3865043942155
 31
0.0
  0
LINE
  5
5B2F
330
A
100
AcDbEntity
  8
DV3_HULSE_VERLANGERUNGS-
390
1D
100
AcDbLine
 10
116.6932066235676
 20
465.5816949224156
 30
0.0
 11
95.69320662356756
 21
465.5816949224156
 31
0.0
  0
LINE
  5
5B30
330
A
100
AcDbEntity
  8
DV3_HULSE_VERLANGERUNGS-
390
1D
100
AcDbLine
 10
117.9432066235676
 20
466.3033827590154
 30
0.0
 11
94.44320662356756
 21
466.3033827590157
 31
0.0
  0
LINE
  5
5B31
330
A
100
AcDbEntity
  8
DV3_HULSE_VERLANGERUNGS-
390
1D
100
AcDbLine
 10
117.6932066235676
 20
452.3043446534157
 30
0.0
 11
94.69320662356756
 21
452.3043446534157
 31
0.0
  0
LINE
  5
5B32
330
A
100
AcDbEntity
  8
DV3_HULSE_VERLANGERUNGS-
390
1D
100
AcDbLine
 10
116.6932066235676
 20
452.8816949224156
 30
0.0
 11
95.69320662356756
 21
452.8816949224156
 31
0.0
  0
LINE
  5
5B33
330
A
100
AcDbEntity
  8
DV3_HULSE_VERLANGERUNGS-
390
1D
100
AcDbLine
 10
117.5137381183675
 20
470.2595194760156
 30
0.0
 11
94.78739212416758
 21
470.2595194760156
 31
0.0
  0
LINE
  5
5B34
330
A
100
AcDbEntity
  8
DV3_ROSETTE
390
1D
100
AcDbLine
 10
133.6932066235676
 20
440.3102927578154
 30
0.0
 11
78.69320662356756
 21
440.3102927578157
 31
0.0
  0
LINE
  5
5B35
330
A
100
AcDbEntity
  8
DV3_HULSE_VERLANGERUNGS-
390
1D
100
AcDbLine
 10
95.61320662356752
 20
449.3816949224156
 30
0.0
 11
95.61320662356752
 21
452.8355069010156
 31
0.0
  0
LINE
  5
5B36
330
A
100
AcDbEntity
  8
DV3_HULSE_VERLANGERUNGS-
390
1D
100
AcDbLine
 10
94.69320662356756
 20
449.3816949224156
 30
0.0
 11
94.69320662356756
 21
452.3043446534157
 31
0.0
  0
LINE
  5
5B37
330
A
100
AcDbEntity
  8
DV3_HULSE_VERLANGERUNGS-
390
1D
100
AcDbLine
 10
116.7732066235676
 20
449.3816949224156
 30
0.0
 11
116.7732066235676
 21
452.8355069010156
 31
0.0
  0
LINE
  5
5B38
330
A
100
AcDbEntity
  8
DV3_HULSE_VERLANGERUNGS-
390
1D
100
AcDbLine
 10
117.6932066235676
 20
449.3816949224156
 30
0.0
 11
117.6932066235676
 21
452.3043446534157
 31
0.0
  0
LINE
  5
5B39
330
A
100
AcDbEntity
  8
DV3_RING
390
1D
100
AcDbLine
 10
115.1719630671676
 20
371.3691452346156
 30
0.0
 11
115.1719630671676
 21
371.1691452346155
 31
0.0
  0
LINE
  5
5B3A
330
A
100
AcDbEntity
  8
DV3_GRIFF_-FUHR-
390
1D
100
AcDbLine
 10
91.2434579177675
 20
375.3816949224155
 30
0.0
 11
91.2434579177675
 21
371.8691452346156
 31
0.0
  0
ARC
  5
5B3B
330
A
100
AcDbEntity
  8
DV3_GRIFF_-FUHR-
390
1D
100
AcDbCircle
 10
91.7434579177675
 20
371.8691452346156
 30
0.0
 40
0.5
100
AcDbArc
 50
180.0
 51
270.0
  0
ARC
  5
5B3C
330
A
100
AcDbEntity
  8
DV3_GRIFF_-FUHR-
390
1D
100
AcDbCircle
 10
120.6429553295675
 20
371.8691452346156
 30
0.0
 40
0.5
100
AcDbArc
 50
270.0
 51
0.0
  0
LINE
  5
5B3D
330
A
100
AcDbEntity
  8
DV3_GRIFF_-FUHR-
390
1D
100
AcDbLine
 10
121.1429553295675
 20
371.8691452346156
 30
0.0
 11
121.1429553295675
 21
375.3816949224155
 31
0.0
  0
LINE
  5
5B3E
330
A
100
AcDbEntity
  8
DV3_RING
390
1D
100
AcDbLine
 10
97.21445018016755
 20
371.3691452346156
 30
0.0
 11
97.21445018016755
 21
371.1691452346155
 31
0.0
  0
LINE
  5
5B3F
330
A
100
AcDbEntity
  8
DV3_GRIFF_-FUHR-
390
1D
100
AcDbLine
 10
120.6429553295675
 20
371.3691452346156
 30
0.0
 11
91.7434579177675
 21
371.3691452346156
 31
0.0
  0
LINE
  5
5B40
330
A
100
AcDbEntity
  8
DV3_GRIFF_KPL_TRIO
390
1D
100
AcDbLine
 10
115.4432066235676
 20
348.1691452346155
 30
0.0
 11
96.94320662356756
 21
348.1691452346155
 31
0.0
  0
LINE
  5
5B41
330
A
100
AcDbEntity
  8
DV3_GRIFF_KPL_TRIO
390
1D
100
AcDbLine
 10
96.44320662356756
 20
371.1691452346155
 30
0.0
 11
115.9432066235676
 21
371.1691452346155
 31
0.0
  0
LINE
  5
5B42
330
A
100
AcDbEntity
  8
DV3_GRIFF_KPL_TRIO
390
1D
100
AcDbLine
 10
115.9432066235676
 20
349.6691452346155
 30
0.0
 11
138.2361465635676
 21
349.6691452346155
 31
0.0
  0
LINE
  5
5B43
330
A
100
AcDbEntity
  8
DV3_GRIFF_KPL_TRIO
390
1D
100
AcDbLine
 10
115.9432066235676
 20
359.1552544704156
 30
0.0
 11
115.9432066235676
 21
371.1691452346155
 31
0.0
  0
LINE
  5
5B44
330
A
100
AcDbEntity
  8
DV3_GRIFF_KPL_TRIO
390
1D
100
AcDbLine
 10
96.44320662356756
 20
352.1744395012155
 30
0.0
 11
96.44320662356756
 21
348.6691452346155
 31
0.0
  0
LINE
  5
5B45
330
A
100
AcDbEntity
  8
DV3_GRIFF_KPL_TRIO
390
1D
100
AcDbLine
 10
74.15026668356757
 20
349.6691452346155
 30
0.0
 11
96.44320662356756
 21
349.6691452346155
 31
0.0
  0
SPLINE
  5
5B46
330
A
100
AcDbEntity
  8
DV3_GRIFF_KPL_TRIO
390
1D
100
AcDbSpline
210
0.0
220
0.0
230
1.0
 70
     8
 71
     3
 72
     9
 73
     5
 74
     0
 42
0.000000001
 43
0.0
 40
0.0
 40
0.0
 40
0.0
 40
0.0
 40
0.4832847846414331
 40
1.0
 40
1.0
 40
1.0
 40
1.0
 10
74.14551542878837
 20
361.6669263812855
 30
0.0
 10
73.1630286949902
 20
361.6747143029524
 30
0.0
 10
71.57023337948647
 20
360.1804207381927
 30
0.0
 10
70.91119770843375
 20
357.3659955431614
 30
0.0
 10
70.90026668358053
 20
355.6691452345507
 30
0.0
  0
ARC
  5
5B47
330
A
100
AcDbEntity
  8
DV3_GRIFF_KPL_TRIO
390
1D
100
AcDbCircle
 10
96.94320662356756
 20
348.6691452346155
 30
0.0
 40
0.5
100
AcDbArc
 50
180.0
 51
270.0
  0
SPLINE
  5
5B48
330
A
100
AcDbEntity
  8
DV3_GRIFF_KPL_TRIO
390
1D
100
AcDbSpline
210
0.0
220
0.0
230
1.0
 70
     8
 71
     3
 72
    11
 73
     7
 74
     0
 42
0.000000001
 43
0.0
 40
0.0
 40
0.0
 40
0.0
 40
0.0
 40
0.2366258424938843
 40
0.4964465919145162
 40
0.7559702580936131
 40
1.0
 40
1.0
 40
1.0
 40
1.0
 10
138.2362364175372
 20
349.671115561216
 30
0.0
 10
139.1999291585507
 20
349.6424475456799
 30
0.0
 10
140.7778150531051
 20
351.0280219294986
 30
0.0
 10
141.8531502230693
 20
355.5966976450556
 30
0.0
 10
140.8184802658934
 20
360.2610404162992
 30
0.0
 10
139.2239980028836
 20
361.6913155545538
 30
0.0
 10
138.2313953088369
 20
361.6669263812855
 30
0.0
  0
LINE
  5
5B49
330
A
100
AcDbEntity
  8
DV3_GRIFF_KPL_TRIO
390
1D
100
AcDbLine
 10
138.2361465635676
 20
361.6691452346155
 30
0.0
 11
115.9432066235676
 21
361.6691452346155
 31
0.0
  0
CIRCLE
  5
5B4A
330
A
100
AcDbEntity
  8
DV3_GRIFF_KPL_TRIO
390
1D
100
AcDbCircle
 10
106.1932066235676
 20
355.6691452346155
 30
0.0
 40
6.0
  0
LINE
  5
5B4B
330
A
100
AcDbEntity
  8
DV3_GRIFF_KPL_TRIO
390
1D
100
AcDbLine
 10
115.9432066235676
 20
348.6691452346155
 30
0.0
 11
115.9432066235676
 21
352.1734326628156
 31
0.0
  0
SPLINE
  5
5B4C
330
A
100
AcDbEntity
  8
DV3_GRIFF_KPL_TRIO
390
1D
100
AcDbSpline
210
0.0
220
0.0
230
1.0
 70
     8
 71
     3
 72
    10
 73
     6
 74
     0
 42
0.000000001
 43
0.0
 40
0.0
 40
0.0
 40
0.0
 40
0.0
 40
0.2563212888472241
 40
0.7920281892121919
 40
1.0
 40
1.0
 40
1.0
 40
1.0
 10
96.4512475420288
 20
359.1754112898103
 30
0.0
 10
96.45582540193561
 20
358.6682222960556
 30
0.0
 10
96.54309067766701
 20
356.915573764359
 30
0.0
 10
96.51857278020941
 20
354.1850194353974
 30
0.0
 10
96.45652348910187
 20
352.5691174907443
 30
0.0
 10
96.45393547807225
 20
352.157839497783
 30
0.0
  0
SPLINE
  5
5B4D
330
A
100
AcDbEntity
  8
DV3_GRIFF_KPL_TRIO
390
1D
100
AcDbSpline
210
0.0
220
0.0
230
1.0
 70
     8
 71
     3
 72
     8
 73
     4
 74
     0
 42
0.000000001
 43
0.0
 40
0.0
 40
0.0
 40
0.0
 40
0.0
 40
1.0
 40
1.0
 40
1.0
 40
1.0
 10
115.8487963795918
 20
355.6691452345507
 30
0.0
 10
115.8562477428524
 20
357.0344025763547
 30
0.0
 10
115.9606259193264
 20
358.2000283196723
 30
0.0
 10
115.9530010154734
 20
359.1629264205168
 30
0.0
  0
SPLINE
  5
5B4E
330
A
100
AcDbEntity
  8
DV3_GRIFF_KPL_TRIO
390
1D
100
AcDbSpline
210
0.0
220
0.0
230
1.0
 70
     8
 71
     3
 72
     8
 73
     4
 74
     0
 42
0.000000001
 43
0.0
 40
0.0
 40
0.0
 40
0.0
 40
0.0
 40
1.0
 40
1.0
 40
1.0
 40
1.0
 10
115.9502698419466
 20
352.1719365967757
 30
0.0
 10
115.959702689414
 20
353.1395346070012
 30
0.0
 10
115.8540133247079
 20
354.2932635789862
 30
0.0
 10
115.8487963795918
 20
355.6691452345507
 30
0.0
  0
LINE
  5
5B4F
330
A
100
AcDbEntity
  8
DV3_GRIFF_KPL_TRIO
390
1D
100
AcDbLine
 10
96.44320662356756
 20
371.1691452346155
 30
0.0
 11
96.44320662356756
 21
359.1594311002156
 31
0.0
  0
LINE
  5
5B50
330
A
100
AcDbEntity
  8
DV3_GRIFF_KPL_TRIO
390
1D
100
AcDbLine
 10
96.44320662356756
 20
361.6691452346155
 30
0.0
 11
74.15026668356757
 21
361.6691452346155
 31
0.0
  0
SPLINE
  5
5B51
330
A
100
AcDbEntity
  8
DV3_GRIFF_KPL_TRIO
390
1D
100
AcDbSpline
210
0.0
220
0.0
230
1.0
 70
     8
 71
     3
 72
     9
 73
     5
 74
     0
 42
0.000000001
 43
0.0
 40
0.0
 40
0.0
 40
0.0
 40
0.0
 40
0.5023018347150496
 40
1.0
 40
1.0
 40
1.0
 40
1.0
 10
70.90026668358053
 20
355.6691452345507
 30
0.0
 10
70.90649449369016
 20
354.0158860453709
 30
0.0
 10
71.55545526616163
 20
351.1900052648861
 30
0.0
 10
73.13905555751921
 20
349.6691009281613
 30
0.0
 10
74.15035653748862
 20
349.671115561216
 30
0.0
  0
ARC
  5
5B52
330
A
100
AcDbEntity
  8
DV3_GRIFF_KPL_TRIO
390
1D
100
AcDbCircle
 10
115.4432066235676
 20
348.6691452346155
 30
0.0
 40
0.5
100
AcDbArc
 50
270.0
 51
0.0
  0
ARC
  5
5B69
330
A
100
AcDbEntity
  8
DV2_GRIFF_KPL_TRIO
390
1D
100
AcDbCircle
 10
111.6932066235676
 20
260.799419106716
 30
0.0
 40
0.5
100
AcDbArc
 50
0.0
 51
90.0
  0
LINE
  5
5B6A
330
A
100
AcDbEntity
  8
DV2_GRIFF_KPL_TRIO
390
1D
100
AcDbLine
 10
112.1932066235676
 20
231.4873923913159
 30
0.0
 11
112.1932066235676
 21
260.799419106716
 31
0.0
  0
ARC
  5
5B6B
330
A
100
AcDbEntity
  8
DV2_GRIFF_KPL_TRIO
390
1D
100
AcDbCircle
 10
140.9861465635676
 20
210.0625588275159
 30
0.0
 40
0.5
100
AcDbArc
 50
330.0000000000039
 51
59.99999999999946
  0
LINE
  5
5B6C
330
A
100
AcDbEntity
  8
DV2_GRIFF_KPL_TRIO
390
1D
100
AcDbLine
 10
109.8511867915676
 20
214.7592800417159
 30
0.0
 11
135.2361465635676
 21
200.1032666841159
 31
0.0
  0
LINE
  5
5B6D
330
A
100
AcDbEntity
  8
DV2_GRIFF_KPL_TRIO
390
1D
100
AcDbLine
 10
77.15026668336753
 20
200.1032666841159
 30
0.0
 11
102.5376168675676
 21
214.7606601467159
 31
0.0
  0
ARC
  5
5B6E
330
A
100
AcDbEntity
  8
DV2_GRIFF_KPL_TRIO
390
1D
100
AcDbCircle
 10
71.40026668336753
 20
210.0625588275159
 30
0.0
 40
0.5
100
AcDbArc
 50
120.0000000000006
 51
210.0000000000115
  0
ARC
  5
5B6F
330
A
100
AcDbEntity
  8
DV2_GRIFF_KPL_TRIO
390
1D
100
AcDbCircle
 10
100.6932066235676
 20
260.799419106716
 30
0.0
 40
0.5
100
AcDbArc
 50
90.0
 51
180.0
  0
LINE
  5
5B70
330
A
100
AcDbEntity
  8
DV2_GRIFF_KPL_TRIO
390
1D
100
AcDbLine
 10
100.1932066235676
 20
260.799419106716
 30
0.0
 11
100.1932066235676
 21
231.4846321813159
 31
0.0
  0
ARC
  5
5B71
330
A
100
AcDbEntity
  8
DV2_GRIFF_KPL_TRIO
390
1D
100
AcDbCircle
 10
135.4861465635676
 20
200.5362793859159
 30
0.0
 40
0.5
100
AcDbArc
 50
239.9999999999994
 51
330.0000000000039
  0
LINE
  5
5B72
330
A
100
AcDbEntity
  8
DV2_GRIFF_KPL_TRIO
390
1D
100
AcDbLine
 10
141.2361465635676
 20
210.4955715295159
 30
0.0
 11
115.8487963793677
 21
225.1529649923159
 31
0.0
  0
LINE
  5
5B73
330
A
100
AcDbEntity
  8
DV2_GRIFF_KPL_TRIO
390
1D
100
AcDbLine
 10
100.6932066235676
 20
261.299419106716
 30
0.0
 11
111.6932066235676
 21
261.299419106716
 31
0.0
  0
CIRCLE
  5
5B74
330
A
100
AcDbEntity
  8
DV2_GRIFF_KPL_TRIO
390
1D
100
AcDbCircle
 10
106.1932066235676
 20
223.7994191067159
 30
0.0
 40
9.75
  0
LINE
  5
5B75
330
A
100
AcDbEntity
  8
DV2_GRIFF_KPL_TRIO
390
1D
100
AcDbLine
 10
70.96725398156758
 20
209.8125588275159
 30
0.0
 11
76.46725398156758
 21
200.2862793859159
 31
0.0
  0
LINE
  5
5B76
330
A
100
AcDbEntity
  8
DV2_GRIFF_KPL_TRIO
390
1D
100
AcDbLine
 10
135.9191592653677
 20
200.2862793859159
 30
0.0
 11
141.4191592653677
 21
209.8125588275159
 31
0.0
  0
LINE
  5
5B77
330
A
100
AcDbEntity
  8
DV2_GRIFF_KPL_TRIO
390
1D
100
AcDbLine
 10
96.53522645536754
 20
225.1515848871159
 30
0.0
 11
71.15026668336753
 21
210.4955715295159
 31
0.0
  0
ARC
  5
5B78
330
A
100
AcDbEntity
  8
DV2_GRIFF_KPL_TRIO
390
1D
100
AcDbCircle
 10
76.90026668336753
 20
200.5362793859159
 30
0.0
 40
0.5
100
AcDbArc
 50
210.0000000000115
 51
300.0000000000005
  0
ARC
  5
5B79
330
A
100
AcDbEntity
  8
DV2_GRIFF_-FUHR-
390
1D
100
AcDbCircle
 10
106.1932066235676
 20
223.7994191067159
 30
0.0
 40
15.0
100
AcDbArc
 50
233.5781784781997
 51
306.4218215218003
  0
ARC
  5
5B7A
330
A
100
AcDbEntity
  8
DV2_GRIFF_-FUHR-
390
1D
100
AcDbCircle
 10
106.1932066235676
 20
223.7994191067159
 30
0.0
 40
15.0
100
AcDbArc
 50
113.5781784781999
 51
186.4218215217999
  0
ARC
  5
5B7B
330
A
100
AcDbEntity
  8
DV2_GRIFF_-FUHR-
390
1D
100
AcDbCircle
 10
106.1932066235676
 20
223.7994191067159
 30
0.0
 40
15.0
100
AcDbArc
 50
353.5781784781999
 51
66.4218215218001
  0
ARC
  5
5B7C
330
A
100
AcDbEntity
  8
DV2_ﾃ_ﾌｫﾙﾄ
390
1D
100
AcDbCircle
 10
106.1932066235676
 20
223.7994191067159
 30
0.0
 40
35.0
100
AcDbArc
 50
339.8708896061
 51
80.12911039389992
  0
ARC
  5
5B7D
330
A
100
AcDbEntity
  8
DV2_ﾃ_ﾌｫﾙﾄ
390
1D
100
AcDbCircle
 10
106.1932066235676
 20
223.7994191067159
 30
0.0
 40
35.0
100
AcDbArc
 50
99.87088960610008
 51
200.1291103938999
  0
ARC
  5
5B7E
330
A
100
AcDbEntity
  8
DV2_ﾃ_ﾌｫﾙﾄ
390
1D
100
AcDbCircle
 10
106.1932066235676
 20
223.7994191067159
 30
0.0
 40
35.0
100
AcDbArc
 50
219.8708896060998
 51
320.1291103939
  0
ARC
  5
5B7F
330
A
100
AcDbEntity
  8
DV2_ﾃ_ﾌｫﾙﾄ
390
1D
100
AcDbCircle
 10
106.1932066235676
 20
223.7994191067159
 30
0.0
 40
18.0
100
AcDbArc
 50
349.4712206345
 51
70.52877936550009
  0
ARC
  5
5B80
330
A
100
AcDbEntity
  8
DV2_ﾃ_ﾌｫﾙﾄ
390
1D
100
AcDbCircle
 10
106.1932066235676
 20
223.7994191067159
 30
0.0
 40
18.0
100
AcDbArc
 50
109.4712206345002
 51
190.5287793654999
  0
ARC
  5
5B81
330
A
100
AcDbEntity
  8
DV2_ﾃ_ﾌｫﾙﾄ
390
1D
100
AcDbCircle
 10
106.1932066235676
 20
223.7994191067159
 30
0.0
 40
18.0
100
AcDbArc
 50
229.4712206344997
 51
310.5287793655003
  0
DIMENSION
  5
5B89
330
A
100
AcDbEntity
  8
DIM
 48
0.05
100
AcDbDimension
  2
*D23
 10
49.09153847380463
 20
258.799419106716
 30
0.0
 11
41.18653847380463
 21
223.799419106716
 31
0.0
 70
    32
 71
     5
 42
70.00000000000003
 73
     0
 74
     0
 75
     0
  3
tfrom線あり
100
AcDbAlignedDimension
 13
106.1932066235675
 23
188.7994191067159
 33
0.0
 14
106.1932066235675
 24
258.799419106716
 34
0.0
 50
90.0
100
AcDbRotatedDimension
1001
ACAD
1000
DSTYLE
1002
{
1070
     3
1000
φ<>
1002
}
  0
DIMENSION
  5
5BBA
330
A
100
AcDbEntity
  8
DIM
 48
0.05
100
AcDbDimension
  2
*D24
 10
290.0048248275064
 20
160.3171530894867
 30
0.0
 11
285.0048248275064
 21
160.3171530894867
 31
0.0
 70
   160
 71
     5
 42
10.0
 73
     0
 74
     0
 75
     0
  3
tfrom線あり
100
AcDbAlignedDimension
 13
280.0048248275064
 23
187.4571200624437
 33
0.0
 14
290.0048248275064
 24
194.8321110877037
 34
0.0
100
AcDbRotatedDimension
  0
LINE
  5
6349
330
A
100
AcDbEntity
  8
MODEL
100
AcDbLine
 10
106.1932066235676
 20
498.9064949224158
 30
0.0
 11
122.1932066235676
 21
508.1440949224157
 31
0.0
  0
LINE
  5
634A
330
A
100
AcDbEntity
  8
MODEL
100
AcDbLine
 10
122.1932066235676
 20
508.1440949224157
 30
0.0
 11
122.1932066235676
 21
526.6192949224157
 31
0.0
  0
LINE
  5
634B
330
A
100
AcDbEntity
  8
MODEL
100
AcDbLine
 10
122.1932066235676
 20
526.6192949224157
 30
0.0
 11
106.1932066235676
 21
535.8568949224157
 31
0.0
  0
LINE
  5
634C
330
A
100
AcDbEntity
  8
MODEL
100
AcDbLine
 10
106.1932066235676
 20
535.8568949224157
 30
0.0
 11
90.19320662356756
 21
526.6192949224157
 31
0.0
  0
LINE
  5
634D
330
A
100
AcDbEntity
  8
MODEL
100
AcDbLine
 10
90.19320662356756
 20
526.6192949224157
 30
0.0
 11
90.19320662356756
 21
508.1440949224157
 31
0.0
  0
LINE
  5
634E
330
A
100
AcDbEntity
  8
MODEL
100
AcDbLine
 10
90.19320662356756
 20
508.1440949224157
 30
0.0
 11
106.1932066235676
 21
498.9064949224158
 31
0.0
  0
LINE
  5
634F
330
A
100
AcDbEntity
  8
MODEL
100
AcDbLine
 10
108.6932066235676
 20
536.1566949224157
 30
0.0
 11
108.6932066235676
 21
536.8816949224156
 31
0.0
  0
LINE
  5
6350
330
A
100
AcDbEntity
  8
MODEL
100
AcDbLine
 10
103.6932066235676
 20
536.1566949224157
 30
0.0
 11
103.6932066235676
 21
536.8816949224156
 31
0.0
  0
LINE
  5
6351
330
A
100
AcDbEntity
  8
MODEL
100
AcDbLine
 10
108.6932066235676
 20
536.8816949224156
 30
0.0
 11
103.6932066235676
 21
536.8816949224156
 31
0.0
  0
LINE
  5
6352
330
A
100
AcDbEntity
  8
MODEL
100
AcDbLine
 10
124.6932066235676
 20
494.5664949224156
 30
0.0
 11
124.6932066235676
 21
527.7804949224155
 31
0.0
  0
LINE
  5
6353
330
A
100
AcDbEntity
  8
MODEL
100
AcDbLine
 10
87.69320662356756
 20
494.5664949224156
 30
0.0
 11
87.69320662356756
 21
527.7804949224155
 31
0.0
  0
LINE
  5
6354
330
A
100
AcDbEntity
  8
MODEL
100
AcDbLine
 10
108.6932066235676
 20
536.1566949224157
 30
0.0
 11
103.6932066235676
 21
536.1566949224157
 31
0.0
  0
LINE
  5
6355
330
A
100
AcDbEntity
  8
MODEL
100
AcDbLine
 10
122.6932066235676
 20
484.3816949224156
 30
0.0
 11
89.69320662356756
 21
484.3816949224156
 31
0.0
  0
LINE
  5
6356
330
A
100
AcDbEntity
  8
MODEL
100
AcDbLine
 10
122.6932066235676
 20
480.8816949224156
 30
0.0
 11
122.6932066235676
 21
484.3816949224156
 31
0.0
  0
LINE
  5
6357
330
A
100
AcDbEntity
  8
MODEL
100
AcDbLine
 10
89.69320662356756
 20
480.8816949224156
 30
0.0
 11
89.69320662356756
 21
484.3816949224156
 31
0.0
  0
LINE
  5
6358
330
A
100
AcDbEntity
  8
MODEL
100
AcDbLine
 10
123.5432066235676
 20
493.3816949224156
 30
0.0
 11
88.84380662356773
 21
493.3816949224156
 31
0.0
  0
LINE
  5
6359
330
A
100
AcDbEntity
  8
MODEL
100
AcDbLine
 10
122.1932066235676
 20
484.3816949224156
 30
0.0
 11
122.6932066235676
 21
484.8816949224156
 31
0.0
  0
LINE
  5
635A
330
A
100
AcDbEntity
  8
MODEL
100
AcDbLine
 10
90.19320662356756
 20
484.3816949224156
 30
0.0
 11
89.69320662356756
 21
484.8816949224156
 31
0.0
  0
LINE
  5
635B
330
A
100
AcDbEntity
  8
MODEL
100
AcDbLine
 10
122.6932066235676
 20
484.8816949224156
 30
0.0
 11
89.69320662356756
 21
484.8816949224156
 31
0.0
  0
LINE
  5
635C
330
A
100
AcDbEntity
  8
MODEL
100
AcDbLine
 10
122.6932066235676
 20
480.8816949224156
 30
0.0
 11
89.69320662356756
 21
480.8816949224156
 31
0.0
  0
LINE
  5
635F
330
A
100
AcDbEntity
  8
MODEL
100
AcDbLine
 10
122.6932066235676
 20
484.8816949224156
 30
0.0
 11
122.6932066235676
 21
493.3816949224156
 31
0.0
  0
LINE
  5
6360
330
A
100
AcDbEntity
  8
MODEL
100
AcDbLine
 10
89.69320662356756
 20
484.8816949224156
 30
0.0
 11
89.69320662356756
 21
493.3816949224156
 31
0.0
  0
CIRCLE
  5
6361
330
A
100
AcDbEntity
  8
MODEL
100
AcDbCircle
 10
106.1932066235676
 20
517.3816949224156
 30
0.0
 40
16.0
  0
CIRCLE
  5
6362
330
A
100
AcDbEntity
  8
MODEL
100
AcDbCircle
 10
106.1932066235676
 20
517.3816949224156
 30
0.0
 40
13.2205
  0
CIRCLE
  5
6363
330
A
100
AcDbEntity
  8
MODEL
100
AcDbCircle
 10
106.1932066235676
 20
517.3816949224156
 30
0.0
 40
12.0585
  0
ARC
  5
6364
330
A
100
AcDbEntity
  8
MODEL
100
AcDbCircle
 10
106.1932066235676
 20
436.3816949224156
 30
0.0
 40
100.0
100
AcDbArc
 50
83.44644499999998
 51
88.56737699999998
  0
ARC
  5
6365
330
A
100
AcDbEntity
  8
MODEL
100
AcDbCircle
 10
116.6932066235676
 20
527.7805449224156
 30
0.0
 40
8.0
100
AcDbArc
 50
0.0001430000003875
 51
83.446738999999
  0
ARC
  5
6366
330
A
100
AcDbEntity
  8
MODEL
100
AcDbCircle
 10
95.69320662356756
 20
527.7805449224156
 30
0.0
 40
8.0
100
AcDbArc
 50
96.55340499999802
 51
180.0
  0
ARC
  5
6367
330
A
100
AcDbEntity
  8
MODEL
100
AcDbCircle
 10
106.1932066235676
 20
436.3816949224156
 30
0.0
 40
100.0
100
AcDbArc
 50
91.43246599999986
 51
96.55340499999978
  0
ARC
  5
6368
330
A
100
AcDbEntity
  8
MODEL
100
AcDbCircle
 10
106.1932066235676
 20
511.3816949224155
 30
0.0
 40
25.0
100
AcDbArc
 50
313.945628000001
 51
317.7315370000001
  0
ARC
  5
6369
330
A
100
AcDbEntity
  8
MODEL
100
AcDbCircle
 10
106.1932066235676
 20
511.3816949224155
 30
0.0
 40
25.0
100
AcDbArc
 50
222.2686199999999
 51
226.0545189999999
  0
ARC
  5
636A
330
A
100
AcDbEntity
  8
MODEL
100
AcDbCircle
 10
84.50543262356757
 20
508.1440849224157
 30
0.0
 40
5.687782
100
AcDbArc
 50
304.0878120000023
 51
0.0001570000005354
  0
ARC
  5
636B
330
A
100
AcDbEntity
  8
MODEL
100
AcDbCircle
 10
127.8809806235676
 20
508.1440849224157
 30
0.0
 40
5.687782
100
AcDbArc
 50
180.0
 51
235.9123340000002
  0
MTEXT
  5
63AE
330
A
100
AcDbEntity
  8
DIM
390
1D
100
AcDbMText
 10
235.5779540400067
 20
288.4418597445964
 30
0.0
 40
4.8865234375
 41
0.0
 46
4.8865234375
 71
     1
 72
     1
  1
{\fＭＳ ゴシック|b0|i0|c1|p0;M24x1}
  7
ＭＳ ゴシック
 73
     1
 44
0.7828267384257843
1001
ACAD
1000
ACAD_MTEXT_DEFINED_HEIGHT_BEGIN
1070
    46
1040
4.8865234375
1000
ACAD_MTEXT_DEFINED_HEIGHT_END
  0
LINE
  5
63AF
330
A
100
AcDbEntity
  8
DIM
 48
0.05
100
AcDbLine
 10
245.5048248275064
 20
227.7377153101987
 30
0.0
 11
232.7133639499578
 21
280.4676724004325
 31
0.0
  0
LINE
  5
63B0
330
A
100
AcDbEntity
  8
DIM
 48
0.05
100
AcDbLine
 10
232.7133639499578
 20
280.4676724004325
 30
0.0
 11
253.7353933061336
 21
280.4676724004325
 31
0.0
  0
LINE
  5
63B1
330
A
100
AcDbEntity
  8
MODEL
100
AcDbLine
 10
222.0048248275064
 20
260.0234319517693
 30
0.0
 11
190.0048248275064
 21
260.0234319517693
 31
0.0
  0
LINE
  5
63B2
330
A
100
AcDbEntity
  8
MODEL
100
AcDbLine
 10
224.4800248275065
 20
258.5934319517695
 30
0.0
 11
224.4800248275065
 21
244.1874319517695
 31
0.0
  0
LINE
  5
63B3
330
A
100
AcDbEntity
  8
MODEL
100
AcDbLine
 10
222.0048248275064
 20
260.0234319517693
 30
0.0
 11
224.4800248275065
 21
258.5934319517695
 31
0.0
  0
LINE
  5
63B4
330
A
100
AcDbEntity
  8
MODEL
100
AcDbLine
 10
190.0048248275064
 20
260.0234319517693
 30
0.0
 11
187.5296248275063
 21
258.5934319517695
 31
0.0
  0
LINE
  5
63B5
330
A
100
AcDbEntity
  8
MODEL
100
AcDbLine
 10
187.5296248275063
 20
258.5934319517695
 30
0.0
 11
187.5296248275063
 21
241.7334319517693
 31
0.0
  0
LINE
  5
63B6
330
A
100
AcDbEntity
  8
MODEL
100
AcDbLine
 10
224.4800248275065
 20
186.4534319517691
 30
0.0
 11
224.4800248275065
 21
196.0234319517693
 31
0.0
  0
LINE
  5
63B7
330
A
100
AcDbEntity
  8
MODEL
100
AcDbLine
 10
222.0048248275064
 20
185.0234319517693
 30
0.0
 11
224.4800248275065
 21
186.4534319517691
 31
0.0
  0
LINE
  5
63B8
330
A
100
AcDbEntity
  8
MODEL
100
AcDbLine
 10
222.0048248275064
 20
185.0234319517693
 30
0.0
 11
190.0048248275064
 21
185.0234319517693
 31
0.0
  0
LINE
  5
63B9
330
A
100
AcDbEntity
  8
MODEL
100
AcDbLine
 10
190.0048248275064
 20
185.0234319517693
 30
0.0
 11
187.5296248275063
 21
186.4534319517691
 31
0.0
  0
LINE
  5
63BA
330
A
100
AcDbEntity
  8
MODEL
100
AcDbLine
 10
187.5296248275063
 20
186.4534319517691
 30
0.0
 11
187.5296248275063
 21
202.0234319517693
 31
0.0
  0
LINE
  5
63BB
330
A
100
AcDbEntity
  8
MODEL
100
AcDbLine
 10
224.4800248275065
 20
186.4534319517691
 30
0.0
 11
224.4800248275065
 21
200.8594319517695
 31
0.0
  0
LINE
  5
63BC
330
A
100
AcDbEntity
  8
MODEL
100
AcDbLine
 10
196.7672248275064
 20
258.5934319517695
 30
0.0
 11
196.7672248275064
 21
241.7334319517693
 31
0.0
  0
LINE
  5
63BD
330
A
100
AcDbEntity
  8
MODEL
100
AcDbLine
 10
215.2424248275061
 20
258.5934319517695
 30
0.0
 11
215.2424248275061
 21
241.7334319517693
 31
0.0
  0
LINE
  5
63BE
330
A
100
AcDbEntity
  8
MODEL
100
AcDbLine
 10
215.2424248275061
 20
186.4534319517691
 30
0.0
 11
215.2424248275061
 21
203.3134319517693
 31
0.0
  0
LINE
  5
63BF
330
A
100
AcDbEntity
  8
MODEL
100
AcDbLine
 10
196.7672248275064
 20
186.4534319517691
 30
0.0
 11
196.7672248275064
 21
203.3134319517693
 31
0.0
  0
LINE
  5
63C0
330
A
100
AcDbEntity
  8
MODEL
100
AcDbLine
 10
208.0048248275064
 20
215.0234319517693
 30
0.0
 11
208.0048248275064
 21
221.2734319517693
 31
0.0
  0
LINE
  5
63C1
330
A
100
AcDbEntity
  8
MODEL
100
AcDbLine
 10
204.0048248275064
 20
215.0234319517693
 30
0.0
 11
204.0048248275064
 21
221.2734319517693
 31
0.0
  0
LINE
  5
63C2
330
A
100
AcDbEntity
  8
MODEL
100
AcDbLine
 10
206.0048248275064
 20
230.0234319517693
 30
0.0
 11
208.0048248275064
 21
226.5594319517693
 31
0.0
  0
LINE
  5
63C3
330
A
100
AcDbEntity
  8
MODEL
100
AcDbLine
 10
206.0048248275064
 20
230.0234319517693
 30
0.0
 11
204.0048248275064
 21
226.5594319517693
 31
0.0
  0
LINE
  5
63C4
330
A
100
AcDbEntity
  8
MODEL
100
AcDbLine
 10
206.7548248275064
 20
222.5234319517693
 30
0.0
 11
206.7548248275064
 21
226.5594319517693
 31
0.0
  0
LINE
  5
63C5
330
A
100
AcDbEntity
  8
MODEL
100
AcDbLine
 10
205.2548248275064
 20
222.5234319517693
 30
0.0
 11
205.2548248275064
 21
226.5594319517693
 31
0.0
  0
LINE
  5
63C6
330
A
100
AcDbEntity
  8
MODEL
100
AcDbLine
 10
206.7548248275064
 20
222.5234319517693
 30
0.0
 11
208.0048248275064
 21
221.2734319517693
 31
0.0
  0
LINE
  5
63C7
330
A
100
AcDbEntity
  8
MODEL
100
AcDbLine
 10
205.2548248275064
 20
222.5234319517693
 30
0.0
 11
204.0048248275064
 21
221.2734319517693
 31
0.0
  0
LINE
  5
63C8
330
A
100
AcDbEntity
  8
MODEL
100
AcDbLine
 10
206.0048248275064
 20
217.0234319517693
 30
0.0
 11
204.0048248275064
 21
215.0234319517693
 31
0.0
  0
LINE
  5
63C9
330
A
100
AcDbEntity
  8
MODEL
100
AcDbLine
 10
206.0048248275064
 20
217.0234319517693
 30
0.0
 11
208.0048248275064
 21
215.0234319517693
 31
0.0
  0
LINE
  5
63CA
330
A
100
AcDbEntity
  8
MODEL
100
AcDbLine
 10
208.0048248275064
 20
226.5594319517693
 30
0.0
 11
206.7548248275064
 21
226.5594319517693
 31
0.0
  0
LINE
  5
63CB
330
A
100
AcDbEntity
  8
MODEL
100
AcDbLine
 10
205.2548248275064
 20
226.5594319517693
 30
0.0
 11
204.0048248275064
 21
226.5594319517693
 31
0.0
  0
LINE
  5
63CC
330
A
100
AcDbEntity
  8
MODEL
100
AcDbLine
 10
186.5048248275064
 20
237.5234319517693
 30
0.0
 11
186.5048248275064
 21
207.5234319517693
 31
0.0
  0
LINE
  5
63CD
330
A
100
AcDbEntity
  8
MODEL
100
AcDbLine
 10
187.2298248275063
 20
237.5234319517693
 30
0.0
 11
186.5048248275064
 21
237.5234319517693
 31
0.0
  0
LINE
  5
63CE
330
A
100
AcDbEntity
  8
MODEL
100
AcDbLine
 10
187.2298248275063
 20
207.5234319517693
 30
0.0
 11
186.5048248275064
 21
207.5234319517693
 31
0.0
  0
LINE
  5
63CF
330
A
100
AcDbEntity
  8
MODEL
100
AcDbLine
 10
219.9530248275066
 20
239.3394319517695
 30
0.0
 11
195.6060248275064
 21
239.3394319517695
 31
0.0
  0
LINE
  5
63D0
330
A
100
AcDbEntity
  8
MODEL
100
AcDbLine
 10
215.2424248275061
 20
241.7334319517693
 30
0.0
 11
187.3740248275063
 21
241.7334319517693
 31
0.0
  0
LINE
  5
63D1
330
A
100
AcDbEntity
  8
MODEL
100
AcDbLine
 10
239.0048248275064
 20
206.5234319517693
 30
0.0
 11
238.5048248275064
 21
206.0234319517693
 31
0.0
  0
LINE
  5
63D2
330
A
100
AcDbEntity
  8
MODEL
100
AcDbLine
 10
230.0048248275064
 20
239.8734319517694
 30
0.0
 11
230.0048248275064
 21
205.1734319517694
 31
0.0
  0
LINE
  5
63D3
330
A
100
AcDbEntity
  8
MODEL
100
AcDbLine
 10
239.0048248275064
 20
238.5234319517693
 30
0.0
 11
238.5048248275064
 21
239.0234319517693
 31
0.0
  0
LINE
  5
63D4
330
A
100
AcDbEntity
  8
MODEL
100
AcDbLine
 10
238.5048248275064
 20
239.0234319517693
 30
0.0
 11
238.5048248275064
 21
206.0234319517693
 31
0.0
  0
LINE
  5
63D5
330
A
100
AcDbEntity
  8
MODEL
100
AcDbLine
 10
215.2424248275061
 20
203.3134319517693
 30
0.0
 11
187.3740248275063
 21
203.3134319517693
 31
0.0
  0
LINE
  5
63D6
330
A
100
AcDbEntity
  8
MODEL
100
AcDbLine
 10
219.9530248275066
 20
205.7074319517695
 30
0.0
 11
195.6060248275064
 21
205.7074319517695
 31
0.0
  0
LINE
  5
63D7
330
A
100
AcDbEntity
  8
MODEL
100
AcDbLine
 10
238.5048248275064
 20
239.0234319517693
 30
0.0
 11
230.0048248275064
 21
239.0234319517693
 31
0.0
  0
LINE
  5
63D8
330
A
100
AcDbEntity
  8
MODEL
100
AcDbLine
 10
238.5048248275064
 20
206.0234319517693
 30
0.0
 11
230.0048248275064
 21
206.0234319517693
 31
0.0
  0
ARC
  5
63D9
330
A
100
AcDbEntity
  8
MODEL
100
AcDbCircle
 10
192.1484108275063
 20
251.8448439517695
 30
0.0
 40
8.178624
100
AcDbArc
 50
55.61582200000041
 51
115.6158740000008
  0
ARC
  5
63DA
330
A
100
AcDbEntity
  8
MODEL
100
AcDbCircle
 10
219.8612388275065
 20
251.8448439517695
 30
0.0
 40
8.178624
100
AcDbArc
 50
64.38442599999878
 51
124.384479000001
  0
ARC
  5
63DB
330
A
100
AcDbEntity
  8
MODEL
100
AcDbCircle
 10
206.0048248275064
 20
229.4525699517693
 30
0.0
 40
30.570878
100
AcDbArc
 50
72.41214600000016
 51
107.588155
  0
ARC
  5
63DC
330
A
100
AcDbEntity
  8
MODEL
100
AcDbCircle
 10
219.8612388275065
 20
193.2020199517695
 30
0.0
 40
8.178624
100
AcDbArc
 50
235.615668000002
 51
295.6157209999989
  0
ARC
  5
63DD
330
A
100
AcDbEntity
  8
MODEL
100
AcDbCircle
 10
206.0048248275064
 20
215.5942939517693
 30
0.0
 40
30.570878
100
AcDbArc
 50
252.4119949999994
 51
287.5880049999999
  0
ARC
  5
63DE
330
A
100
AcDbEntity
  8
MODEL
100
AcDbCircle
 10
192.1484108275063
 20
193.2020199517695
 30
0.0
 40
8.178624
100
AcDbArc
 50
244.3842790000012
 51
304.3843319999979
  0
ARC
  5
63DF
330
A
100
AcDbEntity
  8
MODEL
100
AcDbCircle
 10
687.0048248275064
 20
222.5234319517692
 30
0.0
 40
500.0
100
AcDbArc
 50
177.7981469999999
 51
182.3497129999996
  0
ARC
  5
63E0
330
A
100
AcDbEntity
  8
MODEL
100
AcDbCircle
 10
212.0048248275064
 20
222.5234319517693
 30
0.0
 40
25.0
100
AcDbArc
 50
299.9344389999995
 51
316.0545189999992
  0
ARC
  5
63E1
330
A
100
AcDbEntity
  8
MODEL
100
AcDbCircle
 10
224.4800288275065
 20
225.5850159517693
 30
0.0
 40
18.603326
100
AcDbArc
 50
90.00014300000001
 51
119.772608
  0
ARC
  5
63E2
330
A
100
AcDbEntity
  8
MODEL
100
AcDbCircle
 10
212.0048248275064
 20
222.5234319517693
 30
0.0
 40
25.0
100
AcDbArc
 50
43.94562800000041
 51
60.06570800000093
  0
ARC
  5
63E3
330
A
100
AcDbEntity
  8
MODEL
100
AcDbCircle
 10
224.4800288275065
 20
219.4618479517692
 30
0.0
 40
18.603326
100
AcDbArc
 50
240.2275349999989
 51
270.0
  0
ARC
  5
63E4
330
A
100
AcDbEntity
  8
MODEL
100
AcDbCircle
 10
208.4426308275063
 20
222.5234319517693
 30
0.0
 40
20.377374
100
AcDbArc
 50
289.4931609999993
 51
70.50698600000034
  0
ARC
  5
63E5
330
A
100
AcDbEntity
  8
MODEL
100
AcDbCircle
 10
195.6059748275063
 20
254.6877999517695
 30
0.0
 40
15.349218
100
AcDbArc
 50
237.5668530000002
 51
270.0
  0
ARC
  5
63E6
330
A
100
AcDbEntity
  8
MODEL
100
AcDbCircle
 10
195.6059748275063
 20
190.3590639517695
 30
0.0
 40
15.349218
100
AcDbArc
 50
89.99985699999979
 51
122.432996
  0
DIMENSION
  5
63E7
330
A
100
AcDbEntity
  8
DIM
 48
0.05
100
AcDbDimension
  2
*D34
 10
173.360849372504
 20
185.0234319517693
 30
0.0
 11
173.360849372504
 21
222.5234319517693
 31
0.0
 70
   160
 71
     5
 42
75.00000000000003
 73
     0
 74
     0
 75
     0
  3
tfrom線あり
100
AcDbAlignedDimension
 13
190.0048248275064
 23
260.0234319517693
 33
0.0
 14
190.0048248275064
 24
185.0234319517693
 34
0.0
 50
90.0
100
AcDbRotatedDimension
  0
LINE
  5
63EC
330
A
100
AcDbEntity
  8
MODEL
100
AcDbLine
 10
239.0048248275064
 20
239.0234319517693
 30
0.0
 11
239.0048248275064
 21
206.0234319517693
 31
0.0
  0
LINE
  5
63ED
330
A
100
AcDbEntity
  8
MODEL
100
AcDbLine
 10
242.5048248275064
 20
239.0234319517693
 30
0.0
 11
239.0048248275064
 21
239.0234319517693
 31
0.0
  0
LINE
  5
63EE
330
A
100
AcDbEntity
  8
MODEL
100
AcDbLine
 10
242.5048248275064
 20
239.0234319517693
 30
0.0
 11
242.5048248275064
 21
206.0234319517693
 31
0.0
  0
LINE
  5
63EF
330
A
100
AcDbEntity
  8
MODEL
100
AcDbLine
 10
245.5048248275064
 20
234.8734319517694
 30
0.0
 11
242.5048248275064
 21
234.8734319517694
 31
0.0
  0
LINE
  5
63F0
330
A
100
AcDbEntity
  8
MODEL
100
AcDbLine
 10
245.5048248275064
 20
210.1734319517694
 30
0.0
 11
242.5048248275064
 21
210.1734319517694
 31
0.0
  0
LINE
  5
63F1
330
A
100
AcDbEntity
  8
MODEL
100
AcDbLine
 10
242.5048248275064
 20
206.0234319517693
 30
0.0
 11
239.0048248275064
 21
206.0234319517693
 31
0.0
  0
DIMENSION
  5
648D
330
A
100
AcDbEntity
  8
DIM
 48
0.05
100
AcDbDimension
  2
*D40
 10
219.2048547387263
 20
274.406894849703
 30
0.0
 11
206.0047445263537
 21
274.406894849703
 31
0.0
 70
   160
  1
G3/4"
 71
     5
 42
26.40005982243991
 73
     0
 74
     0
 75
     0
  3
tfrom線あり
100
AcDbAlignedDimension
 13
192.8047949162864
 23
259.9566501004814
 33
0.0
 14
219.2048547387263
 24
259.9566501004814
 34
0.0
100
AcDbRotatedDimension
  0
LINE
  5
648E
330
A
100
AcDbEntity
  8
MODEL
  6
HIDDEN
 48
0.009
100
AcDbLine
 10
219.2048547387263
 20
259.9566501004814
 30
0.0
 11
219.2048547387263
 21
248.5942669041829
 31
0.0
  0
LINE
  5
648F
330
A
100
AcDbEntity
  8
MODEL
  6
HIDDEN
 48
0.009
100
AcDbLine
 10
192.8047949162864
 20
259.9566501004814
 30
0.0
 11
192.8047949162864
 21
248.5942669041829
 31
0.0
  0
DIMENSION
  5
6490
330
A
100
AcDbEntity
  8
DIM
 48
0.05
100
AcDbDimension
  2
*D41
 10
219.2048547387263
 20
163.2763308885353
 30
0.0
 11
206.0047445263537
 21
163.2763308885353
 31
0.0
 70
   160
  1
G3/4"
 71
     5
 42
26.40005982243991
 73
     0
 74
     0
 75
     0
 52
-90.0
  3
tfrom線あり
100
AcDbAlignedDimension
 13
192.8047949162864
 23
185.0902138030573
 33
0.0
 14
219.2048547387263
 24
185.0902138030573
 34
0.0
100
AcDbRotatedDimension
  0
LINE
  5
6491
330
A
100
AcDbEntity
  8
MODEL
  6
HIDDEN
 48
0.009
100
AcDbLine
 10
219.2048547387263
 20
185.0902138030573
 30
0.0
 11
219.2048547387263
 21
196.4525969993557
 31
0.0
  0
LINE
  5
6492
330
A
100
AcDbEntity
  8
MODEL
  6
HIDDEN
 48
0.009
100
AcDbLine
 10
192.8047949162864
 20
185.0902138030573
 30
0.0
 11
192.8047949162864
 21
196.4525969993557
 31
0.0
  0
DIMENSION
  5
64BA
102
{ACAD_REACTORS
330
64BC
102
}
102
{ACAD_XDICTIONARY
360
64BB
102
}
330
A
100
AcDbEntity
  8
DIM
 48
0.05
100
AcDbDimension
  2
*D42
 10
206.0048248275064
 20
131.8183843050165
 30
0.0
 11
243.0048248275064
 21
139.3183843050165
 31
0.0
 70
    32
  1
38-73
 71
     5
 42
74.00000000000006
 73
     0
 74
     0
 75
     0
  3
tfrom線あり
100
AcDbAlignedDimension
 13
280.0048248275064
 23
148.1379816285461
 33
0.0
 14
206.0048248275064
 24
163.2763308885353
 34
0.0
100
AcDbRotatedDimension
  0
VIEWPORT
  5
349
330
B
100
AcDbEntity
 67
     1
  8
0
100
AcDbViewport
 10
202.5
 20
128.5
 30
0.0
 40
486.0
 41
308.4
 68
     1
 69
     1
 12
202.5
 22
128.5
 13
0.0
 23
0.0
 14
0.5
 24
0.5
 15
0.0
 25
0.0
 16
0.0
 26
0.0
 36
1.0
 17
0.0
 27
0.0
 37
0.0
 42
50.0
 43
0.0
 44
0.0
 45
308.4
 50
0.0
 51
0.0
 72
   100
 90
   557152
  1

281
     0
 71
     1
 74
     0
110
0.0
120
0.0
130
0.0
111
1.0
121
0.0
131
0.0
112
0.0
122
1.0
132
0.0
 79
     0
146
0.0
170
     0
 61
     5
348
26C
292
     1
282
     1
141
0.0
142
0.0
 63
   256
  0
VIEWPORT
  5
34A
330
B
100
AcDbEntity
 67
     1
  8
0
100
AcDbViewport
 10
202.5
 20
128.5
 30
0.0
 40
324.0
 41
205.6
 68
     2
 69
     2
 12
986.6781359294573
 22
1427.077061889956
 13
0.0
 23
0.0
 14
0.5
 24
0.5
 15
0.0
 25
0.0
 16
0.0
 26
0.0
 36
1.0
 17
0.0
 27
0.0
 37
0.0
 42
50.0
 43
0.0
 44
0.0
 45
2890.021615685494
 50
0.0
 51
0.0
 72
   100
 90
   557152
  1

281
     0
 71
     1
 74
     0
110
0.0
120
0.0
130
0.0
111
1.0
121
0.0
131
0.0
112
0.0
122
1.0
132
0.0
 79
     0
146
0.0
170
     0
 61
     5
348
26C
292
     1
282
     1
141
0.0
142
0.0
 63
   256
  0
ENDSEC
  0
SECTION
  2
OBJECTS
  0
DICTIONARY
  5
19
330
0
100
AcDbDictionary
281
     1
  3
ACAD_COLOR
350
674
  3
ACAD_DETAILVIEWSTYLE
350
BBF
  3
ACAD_FIELDLIST
350
44C1
  3
ACAD_GROUP
350
1A
  3
ACAD_IMAGE_VARS
350
27B
  3
ACAD_LAYOUT
350
1E
  3
ACAD_MATERIAL
350
263
  3
ACAD_MLEADERSTYLE
350
336
  3
ACAD_MLINESTYLE
350
1B
  3
ACAD_PLOTSETTINGS
350
22
  3
ACAD_PLOTSTYLENAME
350
1F
  3
ACAD_SCALELIST
350
241
  3
ACAD_SECTIONVIEWSTYLE
350
BC0
  3
ACAD_TABLESTYLE
350
278
  3
ACAD_VISUALSTYLE
350
267
  3
ACDB_RECOMPOSE_DATA
350
64E6
  3
AcDbVariableDictionary
350
330
  3
APPDATA
350
27A
  3
DimOffsetDictionary
350
E38
  0
SUN
  5
904
330
15
100
AcDbSun
 90
        1
290
     0
 63
     7
421
 16777215
 40
1.0
291
     1
 91
  2455826
 92
 54000000
292
     0
 70
     2
 71
   256
280
     1
  0
DICTIONARY
  5
2E1
330
2
100
AcDbDictionary
280
     1
281
     1
  3
ACAD_LAYERSTATES
360
2E2
  3
ACLYDICTIONARY
360
DDE
  0
DICTIONARY
  5
4532
330
4530
100
AcDbDictionary
280
     1
281
     1
  3
ACAD_FIELD
360
4539
  0
DICTIONARY
  5
64BB
330
64BA
100
AcDbDictionary
280
     1
281
     1
  3
ACAD_DIMASSOC
360
64BC
  0
DICTIONARY
  5
674
102
{ACAD_REACTORS
330
19
102
}
330
19
100
AcDbDictionary
281
     1
  0
DICTIONARY
  5
BBF
102
{ACAD_REACTORS
330
19
102
}
330
19
100
AcDbDictionary
281
     1
  0
FIELDLIST
  5
44C1
102
{ACAD_REACTORS
330
19
102
}
330
19
100
AcDbIdSet
 90
        2
330
4534
330
4531
100
AcDbFieldList
  0
DICTIONARY
  5
1A
102
{ACAD_REACTORS
330
19
102
}
330
19
100
AcDbDictionary
281
     1
  0
RASTERVARIABLES
  5
27B
102
{ACAD_REACTORS
330
19
102
}
330
19
100
AcDbRasterVariables
 90
        0
 70
     1
 71
     1
 72
     1
  0
DICTIONARY
  5
1E
102
{ACAD_REACTORS
330
19
102
}
330
19
100
AcDbDictionary
281
     1
  3
Layout1
350
21
  3
Model
350
20
  0
DICTIONARY
  5
263
102
{ACAD_REACTORS
330
19
102
}
330
19
100
AcDbDictionary
281
     1
  3
ByBlock
350
50F9
  3
ByLayer
350
264
  3
Global
350
266
  0
DICTIONARY
  5
336
102
{ACAD_REACTORS
330
19
102
}
330
19
100
AcDbDictionary
281
     1
  3
Standard
350
D59
  0
DICTIONARY
  5
1B
102
{ACAD_REACTORS
330
19
102
}
330
19
100
AcDbDictionary
281
     1
  3
Standard
350
1C
  0
DICTIONARY
  5
22
102
{ACAD_REACTORS
330
19
102
}
330
19
100
AcDbDictionary
281
     1
  0
ACDBDICTIONARYWDFLT
  5
1F
102
{ACAD_REACTORS
330
19
102
}
330
19
100
AcDbDictionary
281
     1
  3
Normal
350
1D
100
AcDbDictionaryWithDefault
340
1D
  0
DICTIONARY
  5
241
102
{ACAD_REACTORS
330
19
102
}
330
19
100
AcDbDictionary
281
     1
  3
A0
350
242
  3
A1
350
243
  3
A2
350
244
  3
A3
350
245
  3
A4
350
246
  3
A5
350
247
  3
A6
350
248
  3
A7
350
249
  3
A8
350
24A
  3
A9
350
24B
  3
B0
350
24C
  3
B1
350
24D
  3
B2
350
24E
  3
B3
350
24F
  3
B4
350
250
  3
B5
350
251
  3
B6
350
252
  3
B7
350
253
  3
B8
350
254
  3
B9
350
255
  3
C0
350
256
  3
C1
350
257
  3
C2
350
258
  3
C3
350
259
  3
C4
350
25A
  3
C5
350
25B
  3
C6
350
25C
  3
C7
350
25D
  3
C8
350
25E
  3
C9
350
25F
  3
D0
350
260
  3
D1
350
261
  3
D2
350
262
  0
DICTIONARY
  5
BC0
102
{ACAD_REACTORS
330
19
102
}
330
19
100
AcDbDictionary
281
     1
  0
DICTIONARY
  5
278
102
{ACAD_REACTORS
330
19
102
}
330
19
100
AcDbDictionary
281
     1
  3
Standard
350
279
  0
DICTIONARY
  5
267
102
{ACAD_REACTORS
330
19
102
}
330
19
100
AcDbDictionary
281
     1
  3
2dWireframe
350
26C
  3
3D Hidden
350
26E
  3
3dWireframe
350
26D
  3
Basic
350
26F
  3
Brighten
350
273
  3
ColorChange
350
277
  3
Conceptual
350
271
  3
Dim
350
272
  3
EdgeColorOff
350
8FE
  3
Facepattern
350
276
  3
Flat
350
268
  3
FlatWithEdges
350
269
  3
Gouraud
350
26A
  3
GouraudWithEdges
350
26B
  3
Hidden
350
8FB
  3
JitterOff
350
8FC
  3
Linepattern
350
275
  3
OverhangOff
350
8FD
  3
Realistic
350
270
  3
Shaded
350
903
  3
Shaded with edges
350
902
  3
Shades of Gray
350
8FF
  3
Sketchy
350
900
  3
Thicken
350
274
  3
Wireframe
350
8FA
  3
X-Ray
350
901
  0
XRECORD
  5
64E6
102
{ACAD_REACTORS
330
19
102
}
330
19
100
AcDbXrecord
280
     1
 90
        1
330
279
  0
DICTIONARY
  5
330
102
{ACAD_REACTORS
330
19
102
}
330
19
100
AcDbDictionary
281
     1
  3
CANNOSCALE
350
331
  3
CMLEADERSTYLE
350
D5E
  3
CTABLESTYLE
350
335
  3
HPTRANSPARENCY
350
D52
  3
XCLIPFRAME
350
896
  0
DICTIONARY
  5
27A
102
{ACAD_REACTORS
330
19
102
}
330
19
100
AcDbDictionary
281
     1
  0
DICTIONARY
  5
E38
102
{ACAD_REACTORS
330
19
102
}
330
19
100
AcDbDictionary
281
     1
  3
DIMRAILANGLE
350
38B2
  3
DIMRAILFIRSTOFFSET
350
38B0
  3
DIMRAILOFFSET
350
38B1
  3
DIMRAILSENABLED
350
38B3
  0
DICTIONARY
  5
2E2
102
{ACAD_REACTORS
330
2E1
102
}
330
2E1
100
AcDbDictionary
281
     1
  3
ARGON_LAYERP_9
350
7AA
  0
DICTIONARY
  5
DDE
102
{ACAD_REACTORS
330
2E1
102
}
330
2E1
100
AcDbDictionary
281
     1
1001
ACAD
1000
<All
  0
DICTIONARY
  5
4539
102
{ACAD_REACTORS
330
4532
102
}
330
4532
100
AcDbDictionary
280
     1
281
     1
  3
TEXT
360
4531
  0
DIMASSOC
  5
64BC
102
{ACAD_REACTORS
330
64BB
102
}
330
64BB
100
AcDbDimAssoc
330
64BA
 90
        1
 70
     0
 71
     1
  1
AcDbOsnapPointRef
 72
    13
331
3755
 73
     0
 91
        0
 40
0.0
 10
0.0
 20
0.0
 30
0.0
 75
     0
  0
LAYOUT
  5
21
102
{ACAD_REACTORS
330
1E
102
}
330
1E
100
AcDbPlotSettings
  1

  2
none_device
  4
ISO_A3_(420.00_x_297.00_MM)
  6

 40
7.5
 41
20.0
 42
7.5
 43
20.0
 44
420.0
 45
297.0
 46
0.0
 47
0.0
 48
0.0
 49
0.0
140
0.0
141
0.0
142
1.0
143
1.0
 70
     0
 72
     1
 73
     0
 74
     0
  7

 75
     0
 76
     0
 77
     2
 78
   300
147
1.0
148
0.0
149
0.0
100
AcDbLayout
  1
Layout1
 70
     0
 71
     0
 10
-7.5
 20
-20.0
 11
412.5
 21
277.0
 12
0.0
 22
0.0
 32
0.0
 14
0.0
 24
0.0
 34
0.0
 15
0.0
 25
0.0
 35
0.0
146
0.0
 13
0.0
 23
0.0
 33
0.0
 16
0.0
 26
0.0
 36
0.0
 17
0.0
 27
0.0
 37
0.0
 76
     0
330
B
331
349
  0
LAYOUT
  5
20
102
{ACAD_REACTORS
330
1E
102
}
330
1E
100
AcDbPlotSettings
  1

  2
none_device
  4
ISO_A3_(420.00_x_297.00_MM)
  6

 40
7.5
 41
20.0
 42
7.5
 43
20.0
 44
420.0
 45
297.0
 46
0.0
 47
0.0
 48
0.0
 49
0.0
140
0.0
141
0.0
142
1.0
143
1.0
 70
  1024
 72
     1
 73
     0
 74
     0
  7

 75
     0
 76
     0
 77
     2
 78
   300
147
1.0
148
0.0
149
0.0
100
AcDbLayout
  1
Model
 70
     0
 71
     1
 10
0.0
 20
0.0
 11
420.0
 21
594.0
 12
0.0
 22
0.0
 32
0.0
 14
0.0
 24
0.0
 34
-0.0000000000000142
 15
420.0
 25
594.0
 35
0.0000000000000071
146
0.0
 13
0.0
 23
0.0
 33
0.0
 16
0.0
 26
0.0
 36
0.0
 17
0.0
 27
0.0
 37
0.0
 76
     0
330
A
331
15
  0
MATERIAL
  5
50F9
102
{ACAD_REACTORS
330
263
102
}
330
263
100
AcDbMaterial
  1
ByBlock
 72
     1
 94
      127
  0
MATERIAL
  5
264
102
{ACAD_REACTORS
330
263
102
}
330
263
100
AcDbMaterial
  1
ByLayer
 72
     1
 94
      127
  0
MATERIAL
  5
266
102
{ACAD_REACTORS
330
263
102
}
330
263
100
AcDbMaterial
  1
Global
 72
     1
 94
      127
  0
MLEADERSTYLE
  5
D59
102
{ACAD_REACTORS
330
336
102
}
330
336
100
AcDbMLeaderStyle
170
     2
171
     1
172
     0
 90
        2
 40
0.0
 41
0.0
173
     1
 91
-1056964608
340
11
 92
       -2
290
     1
 42
2.0
291
     1
 43
8.0
  3
Standard
341
0
 44
4.0
300

342
17
174
     1
178
     6
175
     1
176
     0
 93
-1056964608
 45
4.0
292
     0
297
     0
 46
4.0
343
0
 94
-1056964608
 47
1.0
 49
1.0
140
1.0
293
     1
141
0.0
294
     1
177
     0
142
1.0
295
     0
296
     0
143
3.75
1001
ACAD_MLEADERVER
1070
     2
  0
MLINESTYLE
  5
1C
102
{ACAD_REACTORS
330
1B
102
}
330
1B
100
AcDbMlineStyle
  2
Standard
 70
     0
  3

 62
     0
 51
90.0
 52
90.0
 71
     2
 49
0.5
 62
   256
  6
BYLAYER
 49
-0.5
 62
   256
  6
BYLAYER
  0
ACDBPLACEHOLDER
  5
1D
102
{ACAD_REACTORS
330
1F
102
}
330
1F
  0
SCALE
  5
242
102
{ACAD_REACTORS
330
241
102
}
330
241
100
AcDbScale
 70
     0
300
1:1
140
1.0
141
1.0
290
     1
  0
SCALE
  5
243
102
{ACAD_REACTORS
330
241
102
}
330
241
100
AcDbScale
 70
     0
300
1:2
140
1.0
141
2.0
290
     0
  0
SCALE
  5
244
102
{ACAD_REACTORS
330
241
102
}
330
241
100
AcDbScale
 70
     0
300
1:4
140
1.0
141
4.0
290
     0
  0
SCALE
  5
245
102
{ACAD_REACTORS
330
241
102
}
330
241
100
AcDbScale
 70
     0
300
1:5
140
1.0
141
5.0
290
     0
  0
SCALE
  5
246
102
{ACAD_REACTORS
330
241
102
}
330
241
100
AcDbScale
 70
     0
300
1:8
140
1.0
141
8.0
290
     0
  0
SCALE
  5
247
102
{ACAD_REACTORS
330
241
102
}
330
241
100
AcDbScale
 70
     0
300
1:10
140
1.0
141
10.0
290
     0
  0
SCALE
  5
248
102
{ACAD_REACTORS
330
241
102
}
330
241
100
AcDbScale
 70
     0
300
1:16
140
1.0
141
16.0
290
     0
  0
SCALE
  5
249
102
{ACAD_REACTORS
330
241
102
}
330
241
100
AcDbScale
 70
     0
300
1:20
140
1.0
141
20.0
290
     0
  0
SCALE
  5
24A
102
{ACAD_REACTORS
330
241
102
}
330
241
100
AcDbScale
 70
     0
300
1:30
140
1.0
141
30.0
290
     0
  0
SCALE
  5
24B
102
{ACAD_REACTORS
330
241
102
}
330
241
100
AcDbScale
 70
     0
300
1:40
140
1.0
141
40.0
290
     0
  0
SCALE
  5
24C
102
{ACAD_REACTORS
330
241
102
}
330
241
100
AcDbScale
 70
     0
300
1:50
140
1.0
141
50.0
290
     0
  0
SCALE
  5
24D
102
{ACAD_REACTORS
330
241
102
}
330
241
100
AcDbScale
 70
     0
300
1:100
140
1.0
141
100.0
290
     0
  0
SCALE
  5
24E
102
{ACAD_REACTORS
330
241
102
}
330
241
100
AcDbScale
 70
     0
300
2:1
140
2.0
141
1.0
290
     0
  0
SCALE
  5
24F
102
{ACAD_REACTORS
330
241
102
}
330
241
100
AcDbScale
 70
     0
300
4:1
140
4.0
141
1.0
290
     0
  0
SCALE
  5
250
102
{ACAD_REACTORS
330
241
102
}
330
241
100
AcDbScale
 70
     0
300
8:1
140
8.0
141
1.0
290
     0
  0
SCALE
  5
251
102
{ACAD_REACTORS
330
241
102
}
330
241
100
AcDbScale
 70
     0
300
10:1
140
10.0
141
1.0
290
     0
  0
SCALE
  5
252
102
{ACAD_REACTORS
330
241
102
}
330
241
100
AcDbScale
 70
     0
300
100:1
140
100.0
141
1.0
290
     0
  0
SCALE
  5
253
102
{ACAD_REACTORS
330
241
102
}
330
241
100
AcDbScale
 70
     0
300
1/128" = 1'-0"
140
0.0078125
141
12.0
290
     0
  0
SCALE
  5
254
102
{ACAD_REACTORS
330
241
102
}
330
241
100
AcDbScale
 70
     0
300
1/64" = 1'-0"
140
0.015625
141
12.0
290
     0
  0
SCALE
  5
255
102
{ACAD_REACTORS
330
241
102
}
330
241
100
AcDbScale
 70
     0
300
1/32" = 1'-0"
140
0.03125
141
12.0
290
     0
  0
SCALE
  5
256
102
{ACAD_REACTORS
330
241
102
}
330
241
100
AcDbScale
 70
     0
300
1/16" = 1'-0"
140
0.0625
141
12.0
290
     0
  0
SCALE
  5
257
102
{ACAD_REACTORS
330
241
102
}
330
241
100
AcDbScale
 70
     0
300
3/32" = 1'-0"
140
0.09375
141
12.0
290
     0
  0
SCALE
  5
258
102
{ACAD_REACTORS
330
241
102
}
330
241
100
AcDbScale
 70
     0
300
1/8" = 1'-0"
140
0.125
141
12.0
290
     0
  0
SCALE
  5
259
102
{ACAD_REACTORS
330
241
102
}
330
241
100
AcDbScale
 70
     0
300
3/16" = 1'-0"
140
0.1875
141
12.0
290
     0
  0
SCALE
  5
25A
102
{ACAD_REACTORS
330
241
102
}
330
241
100
AcDbScale
 70
     0
300
1/4" = 1'-0"
140
0.25
141
12.0
290
     0
  0
SCALE
  5
25B
102
{ACAD_REACTORS
330
241
102
}
330
241
100
AcDbScale
 70
     0
300
3/8" = 1'-0"
140
0.375
141
12.0
290
     0
  0
SCALE
  5
25C
102
{ACAD_REACTORS
330
241
102
}
330
241
100
AcDbScale
 70
     0
300
1/2" = 1'-0"
140
0.5
141
12.0
290
     0
  0
SCALE
  5
25D
102
{ACAD_REACTORS
330
241
102
}
330
241
100
AcDbScale
 70
     0
300
3/4" = 1'-0"
140
0.75
141
12.0
290
     0
  0
SCALE
  5
25E
102
{ACAD_REACTORS
330
241
102
}
330
241
100
AcDbScale
 70
     0
300
1" = 1'-0"
140
1.0
141
12.0
290
     0
  0
SCALE
  5
25F
102
{ACAD_REACTORS
330
241
102
}
330
241
100
AcDbScale
 70
     0
300
1-1/2" = 1'-0"
140
1.5
141
12.0
290
     0
  0
SCALE
  5
260
102
{ACAD_REACTORS
330
241
102
}
330
241
100
AcDbScale
 70
     0
300
3" = 1'-0"
140
3.0
141
12.0
290
     0
  0
SCALE
  5
261
102
{ACAD_REACTORS
330
241
102
}
330
241
100
AcDbScale
 70
     0
300
6" = 1'-0"
140
6.0
141
12.0
290
     0
  0
SCALE
  5
262
102
{ACAD_REACTORS
330
241
102
}
330
241
100
AcDbScale
 70
     0
300
1'-0" = 1'-0"
140
12.0
141
12.0
290
     0
  0
TABLESTYLE
  5
279
102
{ACAD_REACTORS
330
278
102
}
102
{ACAD_XDICTIONARY
360
64E4
102
}
330
278
100
AcDbTableStyle
  3
Standard
 70
     0
 71
     0
 40
0.06
 41
0.06
280
     0
281
     0
  7
Standard
140
4.5
170
     2
 62
     0
 63
   257
283
     0
 90
        4
 91
        0
  1

274
    -2
284
     1
 64
     0
275
    -2
285
     1
 65
     0
276
    -2
286
     1
 66
     0
277
    -2
287
     1
 67
     0
278
    -2
288
     1
 68
     0
279
    -2
289
     1
 69
     0
  7
Standard
140
6.0
170
     5
 62
     0
 63
   257
283
     0
 90
        4
 91
        0
  1

274
    -2
284
     1
 64
     0
275
    -2
285
     1
 65
     0
276
    -2
286
     1
 66
     0
277
    -2
287
     1
 67
     0
278
    -2
288
     1
 68
     0
279
    -2
289
     1
 69
     0
  7
Standard
140
4.5
170
     5
 62
     0
 63
   257
283
     0
 90
        4
 91
        0
  1

274
    -2
284
     1
 64
     0
275
    -2
285
     1
 65
     0
276
    -2
286
     1
 66
     0
277
    -2
287
     1
 67
     0
278
    -2
288
     1
 68
     0
279
    -2
289
     1
 69
     0
  0
VISUALSTYLE
  5
26C
102
{ACAD_REACTORS
330
267
102
}
330
267
100
AcDbVisualStyle
  2
2dWireframe
 70
     4
 71
     0
 72
     2
 73
     0
 90
        0
 40
-0.6
 41
-30.0
 62
     5
 63
     7
421
 16777215
 74
     1
 91
        4
 64
     7
 65
   257
 75
     1
175
     1
 42
1.0
 92
        0
 66
   257
 43
1.0
 76
     1
 77
     6
 78
     2
 67
     7
 79
     5
170
     0
171
     0
290
     0
174
     0
 93
        1
 44
0.0
173
     0
291
     0
 45
0.0
  0
VISUALSTYLE
  5
26E
102
{ACAD_REACTORS
330
267
102
}
330
267
100
AcDbVisualStyle
  2
3D Hidden
 70
     6
 71
     1
 72
     2
 73
     2
 90
        0
 40
-0.6
 41
-30.0
 62
     5
 63
     7
421
 16777215
 74
     2
 91
        2
 64
     7
 65
   257
 75
     2
175
     1
 42
40.0
 92
        0
 66
   257
 43
1.0
 76
     1
 77
     6
 78
     2
 67
     7
 79
     3
170
     0
171
     0
290
     0
174
     0
 93
        1
 44
0.0
173
     0
291
     0
 45
0.0
  0
VISUALSTYLE
  5
26D
102
{ACAD_REACTORS
330
267
102
}
330
267
100
AcDbVisualStyle
  2
3dWireframe
 70
     5
 71
     0
 72
     2
 73
     0
 90
        0
 40
-0.6
 41
-30.0
 62
     5
 63
     7
421
 16777215
 74
     1
 91
        4
 64
     7
 65
   257
 75
     1
175
     1
 42
1.0
 92
        0
 66
   257
 43
1.0
 76
     1
 77
     6
 78
     2
 67
     7
 79
     5
170
     0
171
     0
290
     0
174
     0
 93
        1
 44
0.0
173
     0
291
     0
 45
0.0
  0
VISUALSTYLE
  5
26F
102
{ACAD_REACTORS
330
267
102
}
330
267
100
AcDbVisualStyle
  2
Basic
 70
     7
 71
     1
 72
     0
 73
     1
 90
        0
 40
-0.6
 41
-30.0
 62
     5
 63
     7
421
 16777215
 74
     0
 91
        4
 64
     7
 65
   257
 75
     1
175
     1
 42
1.0
 92
        8
 66
     7
 43
1.0
 76
     1
 77
     6
 78
     2
 67
     7
 79
     5
170
     0
171
     0
290
     0
174
     0
 93
        1
 44
0.0
173
     0
291
     1
 45
0.0
  0
VISUALSTYLE
  5
273
102
{ACAD_REACTORS
330
267
102
}
330
267
100
AcDbVisualStyle
  2
Brighten
 70
    12
 71
     2
 72
     2
 73
     0
 90
        0
 40
-0.6
 41
-30.0
 62
     5
 63
     7
421
 16777215
 74
     1
 91
        4
 64
     7
 65
   257
 75
     1
175
     1
 42
1.0
 92
        8
 66
     7
 43
1.0
 76
     1
 77
     6
 78
     2
 67
     7
 79
     5
170
     0
171
     0
290
     0
174
     0
 93
        1
 44
50.0
173
     0
291
     1
 45
0.0
  0
VISUALSTYLE
  5
277
102
{ACAD_REACTORS
330
267
102
}
330
267
100
AcDbVisualStyle
  2
ColorChange
 70
    16
 71
     2
 72
     2
 73
     3
 90
        0
 40
-0.6
 41
-30.0
 62
     5
 63
     8
421
  8421504
 74
     1
 91
        4
 64
     7
 65
   257
 75
     1
175
     1
 42
1.0
 92
        8
 66
     8
424
  8421504
 43
1.0
 76
     1
 77
     6
 78
     2
 67
     7
 79
     5
170
     0
171
     0
290
     0
174
     0
 93
        1
 44
0.0
173
     0
291
     1
 45
0.0
  0
VISUALSTYLE
  5
271
102
{ACAD_REACTORS
330
267
102
}
330
267
100
AcDbVisualStyle
  2
Conceptual
 70
     9
 71
     3
 72
     2
 73
     0
 90
        0
 40
-0.6
 41
-30.0
 62
     5
 63
     7
421
 16777215
 74
     2
 91
        2
 64
     7
 65
   257
 75
     1
175
     1
 42
40.0
 92
        8
 66
     7
 43
1.0
 76
     1
 77
     6
 78
     2
 67
     7
 79
     3
170
     0
171
     0
290
     0
174
     0
 93
        1
 44
0.0
173
     0
291
     0
 45
0.0
  0
VISUALSTYLE
  5
272
102
{ACAD_REACTORS
330
267
102
}
330
267
100
AcDbVisualStyle
  2
Dim
 70
    11
 71
     2
 72
     2
 73
     0
 90
        0
 40
-0.6
 41
-30.0
 62
     5
 63
     7
421
 16777215
 74
     1
 91
        4
 64
     7
 65
   257
 75
     1
175
     1
 42
1.0
 92
        8
 66
     7
 43
1.0
 76
     1
 77
     6
 78
     2
 67
     7
 79
     5
170
     0
171
     0
290
     0
174
     0
 93
        1
 44
-50.0
173
     0
291
     1
 45
0.0
  0
VISUALSTYLE
  5
8FE
102
{ACAD_REACTORS
330
267
102
}
330
267
100
AcDbVisualStyle
  2
EdgeColorOff
 70
    22
 71
     2
 72
     2
 73
     0
 90
        0
 40
0.6
 41
30.0
 62
     5
 63
     7
421
 16777215
 74
     1
 91
        4
 64
     7
 65
   257
 75
     1
175
     1
 42
1.0
 92
        8
 66
     7
 43
1.0
 76
     1
 77
     6
 78
     2
 67
     7
 79
     5
170
     0
171
     0
290
     0
174
     0
 93
        1
 44
0.0
173
     0
291
     1
 45
0.0
  0
VISUALSTYLE
  5
276
102
{ACAD_REACTORS
330
267
102
}
330
267
100
AcDbVisualStyle
  2
Facepattern
 70
    15
 71
     2
 72
     2
 73
     0
 90
        0
 40
-0.6
 41
-30.0
 62
     5
 63
     7
421
 16777215
 74
     1
 91
        4
 64
     7
 65
   257
 75
     1
175
     1
 42
1.0
 92
        8
 66
     7
 43
1.0
 76
     1
 77
     6
 78
     2
 67
     7
 79
     5
170
     0
171
     0
290
     0
174
     0
 93
        1
 44
0.0
173
     0
291
     1
 45
0.0
  0
VISUALSTYLE
  5
268
102
{ACAD_REACTORS
330
267
102
}
330
267
100
AcDbVisualStyle
  2
Flat
 70
     0
 71
     2
 72
     1
 73
     1
 90
        2
 40
-0.6
 41
30.0
 62
     5
 63
     7
421
 16777215
 74
     0
 91
        4
 64
     7
 65
   257
 75
     1
175
     1
 42
1.0
 92
        8
 66
     7
 43
1.0
 76
     1
 77
     6
 78
     2
 67
     7
 79
     5
170
     0
171
     0
290
     0
174
     0
 93
       13
 44
0.0
173
     0
291
     1
 45
0.0
  0
VISUALSTYLE
  5
269
102
{ACAD_REACTORS
330
267
102
}
330
267
100
AcDbVisualStyle
  2
FlatWithEdges
 70
     1
 71
     2
 72
     1
 73
     1
 90
        2
 40
-0.6
 41
30.0
 62
     5
 63
     7
421
 16777215
 74
     1
 91
        4
 64
     7
 65
   257
 75
     1
175
     1
 42
1.0
 92
        0
 66
   257
 43
1.0
 76
     1
 77
     6
 78
     2
 67
     7
 79
     5
170
     0
171
     0
290
     0
174
     0
 93
       13
 44
0.0
173
     0
291
     1
 45
0.0
  0
VISUALSTYLE
  5
26A
102
{ACAD_REACTORS
330
267
102
}
330
267
100
AcDbVisualStyle
  2
Gouraud
 70
     2
 71
     2
 72
     2
 73
     1
 90
        2
 40
-0.6
 41
30.0
 62
     5
 63
     7
421
 16777215
 74
     0
 91
        4
 64
     7
 65
   257
 75
     1
175
     1
 42
1.0
 92
        0
 66
     7
 43
1.0
 76
     1
 77
     6
 78
     2
 67
     7
 79
     5
170
     0
171
     0
290
     0
174
     0
 93
       13
 44
0.0
173
     0
291
     1
 45
0.0
  0
VISUALSTYLE
  5
26B
102
{ACAD_REACTORS
330
267
102
}
330
267
100
AcDbVisualStyle
  2
GouraudWithEdges
 70
     3
 71
     2
 72
     2
 73
     1
 90
        2
 40
-0.6
 41
30.0
 62
     5
 63
     7
421
 16777215
 74
     1
 91
        4
 64
     7
 65
   257
 75
     1
175
     1
 42
1.0
 92
        0
 66
   257
 43
1.0
 76
     1
 77
     6
 78
     2
 67
     7
 79
     5
170
     0
171
     0
290
     0
174
     0
 93
       13
 44
0.0
173
     0
291
     1
 45
0.0
  0
VISUALSTYLE
  5
8FB
102
{ACAD_REACTORS
330
267
102
}
330
267
100
AcDbVisualStyle
  2
Hidden
 70
     6
 71
     1
 72
     2
 73
     2
 90
        0
 40
0.6
 41
30.0
 62
     5
 63
     7
421
 16777215
 74
     2
 91
        2
 64
     7
 65
   257
 75
     2
175
     1
 42
40.0
 92
        0
 66
   257
 43
1.0
 76
     1
 77
     6
 78
     2
 67
     7
 79
     3
170
     0
171
     0
290
     0
174
     0
 93
        1
 44
0.0
173
     0
291
     0
 45
0.0
  0
VISUALSTYLE
  5
8FC
102
{ACAD_REACTORS
330
267
102
}
330
267
100
AcDbVisualStyle
  2
JitterOff
 70
    20
 71
     2
 72
     2
 73
     0
 90
        0
 40
0.6
 41
30.0
 62
     5
 63
     7
421
 16777215
 74
     1
 91
        4
 64
     7
 65
   257
 75
     1
175
     1
 42
1.0
 92
       10
 66
     7
 43
1.0
 76
     1
 77
     6
 78
     2
 67
     7
 79
     5
170
     0
171
     0
290
     0
174
     0
 93
        1
 44
0.0
173
     0
291
     1
 45
0.0
  0
VISUALSTYLE
  5
275
102
{ACAD_REACTORS
330
267
102
}
330
267
100
AcDbVisualStyle
  2
Linepattern
 70
    14
 71
     2
 72
     2
 73
     0
 90
        0
 40
-0.6
 41
-30.0
 62
     5
 63
     7
421
 16777215
 74
     1
 91
        4
 64
     7
 65
   257
 75
     7
175
     7
 42
1.0
 92
        8
 66
     7
 43
1.0
 76
     1
 77
     6
 78
     2
 67
     7
 79
     5
170
     0
171
     0
290
     0
174
     0
 93
        1
 44
0.0
173
     0
291
     1
 45
0.0
  0
VISUALSTYLE
  5
8FD
102
{ACAD_REACTORS
330
267
102
}
330
267
100
AcDbVisualStyle
  2
OverhangOff
 70
    21
 71
     2
 72
     2
 73
     0
 90
        0
 40
0.6
 41
30.0
 62
     5
 63
     7
421
 16777215
 74
     1
 91
        4
 64
     7
 65
   257
 75
     1
175
     1
 42
1.0
 92
        9
 66
     7
 43
1.0
 76
     1
 77
     6
 78
     2
 67
     7
 79
     5
170
     0
171
     0
290
     0
174
     0
 93
        1
 44
0.0
173
     0
291
     1
 45
0.0
  0
VISUALSTYLE
  5
270
102
{ACAD_REACTORS
330
267
102
}
330
267
100
AcDbVisualStyle
  2
Realistic
 70
     8
 71
     2
 72
     2
 73
     0
 90
        0
 40
-0.6
 41
-30.0
 62
     5
 63
     7
421
 16777215
 74
     1
 91
        0
 64
     7
 65
   257
 75
     1
175
     1
 42
1.0
 92
        8
 66
     8
424
  7895160
 43
1.0
 76
     1
 77
     6
 78
     2
 67
     7
 79
     5
170
     0
171
     0
290
     0
174
     0
 93
       13
 44
0.0
173
     0
291
     0
 45
0.0
  0
VISUALSTYLE
  5
903
102
{ACAD_REACTORS
330
267
102
}
330
267
100
AcDbVisualStyle
  2
Shaded
 70
    27
 71
     2
 72
     2
 73
     1
 90
        2
 40
0.6
 41
30.0
 62
     5
 63
     7
421
 16777215
 74
     0
 91
        4
 64
     7
 65
   257
 75
     1
175
     1
 42
1.0
 92
        8
 66
   257
 43
1.0
 76
     1
 77
     6
 78
     2
 67
     8
425
  7895160
 79
     3
170
     0
171
     0
290
     0
174
     0
 93
        5
 44
0.0
173
     0
291
     0
 45
0.0
  0
VISUALSTYLE
  5
902
102
{ACAD_REACTORS
330
267
102
}
330
267
100
AcDbVisualStyle
  2
Shaded with edges
 70
    26
 71
     2
 72
     2
 73
     1
 90
        2
 40
0.6
 41
30.0
 62
     5
 63
     7
421
 16777215
 74
     1
 91
       10
 64
     7
 65
   257
 75
     2
175
     1
 42
1.0
 92
        8
 66
   257
 43
1.0
 76
     1
 77
     6
 78
     2
 67
     7
 79
     3
170
     0
171
     0
290
     0
174
     0
 93
        5
 44
0.0
173
     0
291
     0
 45
0.0
  0
VISUALSTYLE
  5
8FF
102
{ACAD_REACTORS
330
267
102
}
330
267
100
AcDbVisualStyle
  2
Shades of Gray
 70
    23
 71
     2
 72
     2
 73
     3
 90
        0
 40
0.6
 41
30.0
 62
     5
 63
     7
421
 16777215
 74
     2
 91
        2
 64
     7
 65
     7
 75
     1
175
     1
 42
40.0
 92
        8
 66
     7
 43
1.0
 76
     1
 77
     6
 78
     2
 67
     7
 79
     3
170
     0
171
     0
290
     0
174
     0
 93
        1
 44
0.0
173
     0
291
     0
 45
0.0
  0
VISUALSTYLE
  5
900
102
{ACAD_REACTORS
330
267
102
}
330
267
100
AcDbVisualStyle
  2
Sketchy
 70
    24
 71
     1
 72
     2
 73
     2
 90
        0
 40
0.6
 41
30.0
 62
     5
 63
     7
421
 16777215
 74
     2
 91
        2
 64
     7
 65
     7
 75
     1
175
     1
 42
40.0
 92
       11
 66
     7
 43
1.0
 76
     1
 77
     6
 78
     2
 67
     7
 79
     6
170
     0
171
     0
290
     0
174
     0
 93
        1
 44
0.0
173
     0
291
     0
 45
0.0
  0
VISUALSTYLE
  5
274
102
{ACAD_REACTORS
330
267
102
}
330
267
100
AcDbVisualStyle
  2
Thicken
 70
    13
 71
     2
 72
     2
 73
     0
 90
        0
 40
-0.6
 41
-30.0
 62
     5
 63
     7
421
 16777215
 74
     1
 91
        4
 64
     7
 65
   257
 75
     1
175
     1
 42
1.0
 92
       12
 66
     7
 43
1.0
 76
     1
 77
     6
 78
     2
 67
     7
 79
     5
170
     0
171
     0
290
     0
174
     0
 93
        1
 44
0.0
173
     0
291
     1
 45
0.0
  0
VISUALSTYLE
  5
8FA
102
{ACAD_REACTORS
330
267
102
}
330
267
100
AcDbVisualStyle
  2
Wireframe
 70
     5
 71
     0
 72
     2
 73
     0
 90
        0
 40
0.6
 41
30.0
 62
     5
 63
     7
421
 16777215
 74
     1
 91
        4
 64
     7
 65
   257
 75
     1
175
     1
 42
1.0
 92
        0
 66
   257
 43
1.0
 76
     1
 77
     6
 78
     2
 67
     7
 79
     3
170
     0
171
     0
290
     0
174
     0
 93
        1
 44
0.0
173
     0
291
     0
 45
0.0
  0
VISUALSTYLE
  5
901
102
{ACAD_REACTORS
330
267
102
}
330
267
100
AcDbVisualStyle
  2
X-Ray
 70
    25
 71
     2
 72
     2
 73
     1
 90
        1
 40
0.5
 41
30.0
 62
     5
 63
     7
421
 16777215
 74
     1
 91
        0
 64
     7
 65
   257
 75
     1
175
     1
 42
1.0
 92
        8
 66
     7
 43
1.0
 76
     1
 77
     6
 78
     2
 67
     7
 79
     3
170
     0
171
     0
290
     0
174
     0
 93
       13
 44
0.0
173
     0
291
     0
 45
0.0
  0
DICTIONARYVAR
  5
331
102
{ACAD_REACTORS
330
330
102
}
330
330
100
DictionaryVariables
280
     0
  1
1:1
  0
DICTIONARYVAR
  5
D5E
102
{ACAD_REACTORS
330
330
102
}
330
330
100
DictionaryVariables
280
     0
  1
Standard
  0
DICTIONARYVAR
  5
335
102
{ACAD_REACTORS
330
330
102
}
330
330
100
DictionaryVariables
280
     0
  1
Standard
  0
DICTIONARYVAR
  5
D52
102
{ACAD_REACTORS
330
330
102
}
330
330
100
DictionaryVariables
280
     0
  1
ByLayer
  0
DICTIONARYVAR
  5
896
102
{ACAD_REACTORS
330
330
102
}
330
330
100
DictionaryVariables
280
     0
  1
0
  0
DICTIONARYVAR
  5
38B2
102
{ACAD_REACTORS
330
E38
102
}
330
E38
100
DictionaryVariables
280
     0
  1
0.261799
  0
DICTIONARYVAR
  5
38B0
102
{ACAD_REACTORS
330
E38
102
}
330
E38
100
DictionaryVariables
280
     0
  1
0.400000
  0
DICTIONARYVAR
  5
38B1
102
{ACAD_REACTORS
330
E38
102
}
330
E38
100
DictionaryVariables
280
     0
  1
0.250000
  0
DICTIONARYVAR
  5
38B3
102
{ACAD_REACTORS
330
E38
102
}
330
E38
100
DictionaryVariables
280
     0
  1
1
  0
XRECORD
  5
7AA
102
{ACAD_REACTORS
330
2E2
102
}
330
2E2
100
AcDbXrecord
280
     1
 91
    34815
301

290
     0
302
HIDDEN
330
14
 90
        8
 62
     7
370
    -3
331
13
  1
Color_7
440
 33554687
330
4B
 90
        8
 62
     7
370
    20
331
13
  1
Color_7
440
 33554687
330
4C
 90
        8
 62
     3
370
    13
331
13
  1
Color_3
440
 33554687
330
4D
 90
        8
 62
     7
370
    20
331
13
  1
Color_7
440
 33554687
330
667
 90
        8
 62
     7
370
    -3
331
13
  1
Color_7
440
 33554687
330
0
 90
        8
 62
     8
370
    20
331
0
  1
Color_8
440
 33554687
330
D6B
 90
        0
 62
     4
370
    20
331
D6C
  1
Color_4
440
 33554687
330
D8C
 90
        0
 62
     7
370
    -3
331
13
  1
Color_7
440
 33554687
  0
FIELD
  5
4531
102
{ACAD_REACTORS
330
4539
102
}
330
4539
100
AcDbField
  1
_text
  2
{%<\_FldIdx 0>%N}
 90
        1
360
4534
 97
        0
 91
       63
 92
        0
 94
        8
 95
        2
 96
        0
300

 93
        1
  6
ACFD_FIELDTEXT_CHECKSUM
 93
        2
 90
        2
140
4538.0
 94
        0
300

302

304
ACVALUE_END
  7
ACFD_FIELD_VALUE
 93
        6
 90
        4
  1
{20160725N}
 94
        0
300

302

304
ACVALUE_END
301
{20160725N}
 98
       11
  0
DICTIONARY
  5
64E4
330
279
100
AcDbDictionary
280
     1
281
     1
  3
ACAD_ROUNDTRIP_2008_TABLESTYLE_CELLSTYLEMAP
360
64E5
  0
FIELD
  5
4534
330
4531
100
AcDbField
  1
AcVar
  2
\AcVar CreateDate \f "yyyyMMdd"
 90
        0
 97
        0
 91
       63
 92
        0
 94
        8
 95
        2
 96
        0
300

 93
        1
  6
Variable
 93
        2
 90
        4
  1
CreateDate
 94
        0
300

302

304
ACVALUE_END
  7
ACFD_FIELD_VALUE
 93
        6
 90
        8
 92
       16
310
E0070700000019000700280013000000
 94
        0
300
yyyyMMdd
302

304
ACVALUE_END
301
20160725
 98
        8
  0
CELLSTYLEMAP
  5
64E5
102
{ACAD_REACTORS
330
64E4
102
}
330
64E4
100
AcDbCellStyleMap
 90
        3
300
CELLSTYLE
  1
TABLEFORMAT_BEGIN
 90
        5
170
     1
 91
        0
 92
    32768
 62
   257
 93
        1
300
CONTENTFORMAT
  1
CONTENTFORMAT_BEGIN
 90
        0
 91
        0
 92
        4
 93
        0
300

 40
0.0
140
1.0
 94
        5
 62
     0
340
17
144
6.0
309
CONTENTFORMAT_END
171
     1
301
MARGIN
  1
CELLMARGIN_BEGIN
 40
0.06
 40
0.06
 40
0.06
 40
0.06
 40
0.18
 40
0.18
309
CELLMARGIN_END
 94
        6
 95
        1
302
GRIDFORMAT
  1
GRIDFORMAT_BEGIN
 90
        0
 91
        1
 62
     0
 92
       -2
340
0
 93
        0
 40
0.045
309
GRIDFORMAT_END
 95
        2
302
GRIDFORMAT
  1
GRIDFORMAT_BEGIN
 90
        0
 91
        1
 62
     0
 92
       -2
340
0
 93
        0
 40
0.045
309
GRIDFORMAT_END
 95
        4
302
GRIDFORMAT
  1
GRIDFORMAT_BEGIN
 90
        0
 91
        1
 62
     0
 92
       -2
340
0
 93
        0
 40
0.045
309
GRIDFORMAT_END
 95
        8
302
GRIDFORMAT
  1
GRIDFORMAT_BEGIN
 90
        0
 91
        1
 62
     0
 92
       -2
340
0
 93
        0
 40
0.045
309
GRIDFORMAT_END
 95
       16
302
GRIDFORMAT
  1
GRIDFORMAT_BEGIN
 90
        0
 91
        1
 62
     0
 92
       -2
340
0
 93
        0
 40
0.045
309
GRIDFORMAT_END
 95
       32
302
GRIDFORMAT
  1
GRIDFORMAT_BEGIN
 90
        0
 91
        1
 62
     0
 92
       -2
340
0
 93
        0
 40
0.045
309
GRIDFORMAT_END
309
TABLEFORMAT_END
  1
CELLSTYLE_BEGIN
 90
        1
 91
        1
300
_TITLE
309
CELLSTYLE_END
300
CELLSTYLE
  1
TABLEFORMAT_BEGIN
 90
        5
170
     1
 91
        0
 92
        0
 62
   257
 93
        1
300
CONTENTFORMAT
  1
CONTENTFORMAT_BEGIN
 90
        0
 91
        0
 92
        4
 93
        0
300

 40
0.0
140
1.0
 94
        5
 62
     0
340
17
144
4.5
309
CONTENTFORMAT_END
171
     1
301
MARGIN
  1
CELLMARGIN_BEGIN
 40
0.06
 40
0.06
 40
0.06
 40
0.06
 40
0.18
 40
0.18
309
CELLMARGIN_END
 94
        6
 95
        1
302
GRIDFORMAT
  1
GRIDFORMAT_BEGIN
 90
        0
 91
        1
 62
     0
 92
       -2
340
0
 93
        0
 40
0.045
309
GRIDFORMAT_END
 95
        2
302
GRIDFORMAT
  1
GRIDFORMAT_BEGIN
 90
        0
 91
        1
 62
     0
 92
       -2
340
0
 93
        0
 40
0.045
309
GRIDFORMAT_END
 95
        4
302
GRIDFORMAT
  1
GRIDFORMAT_BEGIN
 90
        0
 91
        1
 62
     0
 92
       -2
340
0
 93
        0
 40
0.045
309
GRIDFORMAT_END
 95
        8
302
GRIDFORMAT
  1
GRIDFORMAT_BEGIN
 90
        0
 91
        1
 62
     0
 92
       -2
340
0
 93
        0
 40
0.045
309
GRIDFORMAT_END
 95
       16
302
GRIDFORMAT
  1
GRIDFORMAT_BEGIN
 90
        0
 91
        1
 62
     0
 92
       -2
340
0
 93
        0
 40
0.045
309
GRIDFORMAT_END
 95
       32
302
GRIDFORMAT
  1
GRIDFORMAT_BEGIN
 90
        0
 91
        1
 62
     0
 92
       -2
340
0
 93
        0
 40
0.045
309
GRIDFORMAT_END
309
TABLEFORMAT_END
  1
CELLSTYLE_BEGIN
 90
        2
 91
        1
300
_HEADER
309
CELLSTYLE_END
300
CELLSTYLE
  1
TABLEFORMAT_BEGIN
 90
        5
170
     1
 91
        0
 92
        0
 62
   257
 93
        1
300
CONTENTFORMAT
  1
CONTENTFORMAT_BEGIN
 90
        0
 91
        0
 92
        4
 93
        0
300

 40
0.0
140
1.0
 94
        2
 62
     0
340
17
144
4.5
309
CONTENTFORMAT_END
171
     1
301
MARGIN
  1
CELLMARGIN_BEGIN
 40
0.06
 40
0.06
 40
0.06
 40
0.06
 40
0.18
 40
0.18
309
CELLMARGIN_END
 94
        6
 95
        1
302
GRIDFORMAT
  1
GRIDFORMAT_BEGIN
 90
        0
 91
        1
 62
     0
 92
       -2
340
0
 93
        0
 40
0.045
309
GRIDFORMAT_END
 95
        2
302
GRIDFORMAT
  1
GRIDFORMAT_BEGIN
 90
        0
 91
        1
 62
     0
 92
       -2
340
0
 93
        0
 40
0.045
309
GRIDFORMAT_END
 95
        4
302
GRIDFORMAT
  1
GRIDFORMAT_BEGIN
 90
        0
 91
        1
 62
     0
 92
       -2
340
0
 93
        0
 40
0.045
309
GRIDFORMAT_END
 95
        8
302
GRIDFORMAT
  1
GRIDFORMAT_BEGIN
 90
        0
 91
        1
 62
     0
 92
       -2
340
0
 93
        0
 40
0.045
309
GRIDFORMAT_END
 95
       16
302
GRIDFORMAT
  1
GRIDFORMAT_BEGIN
 90
        0
 91
        1
 62
     0
 92
       -2
340
0
 93
        0
 40
0.045
309
GRIDFORMAT_END
 95
       32
302
GRIDFORMAT
  1
GRIDFORMAT_BEGIN
 90
        0
 91
        1
 62
     0
 92
       -2
340
0
 93
        0
 40
0.045
309
GRIDFORMAT_END
309
TABLEFORMAT_END
  1
CELLSTYLE_BEGIN
 90
        3
 91
        2
300
_DATA
309
CELLSTYLE_END
  0
ENDSEC
  0
EOF
